  0
SECTION
  2
HEADER
  9
$ACADVER
  1
AC1009
  9
$INSBASE
 10
0.0
 20
0.0
 30
0.0
  9
$EXTMIN
 10
0.0
 20
0.0
 30
0.0
  9
$EXTMAX
 10
3700.0
 20
2670.0
 30
0.0
  9
$LIMMIN
 10
0.0
 20
0.0
  9
$LIMMAX
 10
4200.0
 20
2970.0
  9
$ORTHOMODE
 70
     0
  9
$REGENMODE
 70
     1
  9
$FILLMODE
 70
     1
  9
$QTEXTMODE
 70
     0
  9
$MIRRTEXT
 70
     0
  9
$DRAGMODE
 70
     2
  9
$LTSCALE
 40
100.0
  9
$OSMODE
 70
    37
  9
$ATTMODE
 70
     1
  9
$TEXTSIZE
 40
30.0
  9
$TRACEWID
 40
0.05
  9
$TEXTSTYLE
  7
EXT08
  9
$CLAYER
  8
0
  9
$CELTYPE
  6
BYLAYER
  9
$CECOLOR
 62
   256
  9
$DIMSCALE
 40
10.0
  9
$DIMASZ
 40
2.0
  9
$DIMEXO
 40
1.0
  9
$DIMDLI
 40
6.0
  9
$DIMRND
 40
0.0
  9
$DIMDLE
 40
0.0
  9
$DIMEXE
 40
1.0
  9
$DIMTP
 40
0.0
  9
$DIMTM
 40
0.0
  9
$DIMTXT
 40
3.0
  9
$DIMCEN
 40
0.09
  9
$DIMTSZ
 40
0.0
  9
$DIMTOL
 70
     0
  9
$DIMLIM
 70
     0
  9
$DIMTIH
 70
     0
  9
$DIMTOH
 70
     0
  9
$DIMSE1
 70
     0
  9
$DIMSE2
 70
     0
  9
$DIMTAD
 70
     1
  9
$DIMZIN
 70
     8
  9
$DIMBLK
  1

  9
$DIMASO
 70
     1
  9
$DIMSHO
 70
     1
  9
$DIMPOST
  1

  9
$DIMAPOST
  1

  9
$DIMALT
 70
     0
  9
$DIMALTD
 70
     2
  9
$DIMALTF
 40
25.399999999999999
  9
$DIMLFAC
 40
0.2
  9
$DIMTOFL
 70
     1
  9
$DIMTVP
 40
0.0
  9
$DIMTIX
 70
     0
  9
$DIMSOXD
 70
     0
  9
$DIMSAH
 70
     0
  9
$DIMBLK1
  1

  9
$DIMBLK2
  1

  9
$DIMSTYLE
  2
SJC
  9
$DIMCLRD
 70
   256
  9
$DIMCLRE
 70
   256
  9
$DIMCLRT
 70
   256
  9
$DIMTFAC
 40
1.0
  9
$DIMGAP
 40
1.1999999999999991
  9
$LUNITS
 70
     2
  9
$LUPREC
 70
     2
  9
$SKETCHINC
 40
0.1
  9
$FILLETRAD
 40
0.0
  9
$AUNITS
 70
     1
  9
$AUPREC
 70
     2
  9
$MENU
  1
C:\r13\win\SUPPORT\sjc
  9
$ELEVATION
 40
0.0
  9
$PELEVATION
 40
0.0
  9
$THICKNESS
 40
0.0
  9
$LIMCHECK
 70
     0
  9
$BLIPMODE
 70
     0
  9
$CHAMFERA
 40
0.0
  9
$CHAMFERB
 40
0.0
  9
$SKPOLY
 70
     0
  9
$TDCREATE
 40
2449344.6353893522
  9
$TDUPDATE
 40
2454216.828586516
  9
$TDINDWG
 40
0.0794738773
  9
$TDUSRTIMER
 40
0.0794738773
  9
$USRTIMER
 70
     1
  9
$ANGBASE
 50
0.0
  9
$ANGDIR
 70
     0
  9
$PDMODE
 70
     0
  9
$PDSIZE
 40
0.0
  9
$PLINEWID
 40
0.0
  9
$COORDS
 70
     1
  9
$SPLFRAME
 70
     0
  9
$SPLINETYPE
 70
     6
  9
$SPLINESEGS
 70
     8
  9
$ATTDIA
 70
     0
  9
$ATTREQ
 70
     1
  9
$HANDLING
 70
     1
  9
$HANDSEED
  5
90A
  9
$SURFTAB1
 70
     6
  9
$SURFTAB2
 70
     6
  9
$SURFTYPE
 70
     6
  9
$SURFU
 70
     6
  9
$SURFV
 70
     6
  9
$UCSNAME
  2

  9
$UCSORG
 10
0.0
 20
0.0
 30
0.0
  9
$UCSXDIR
 10
1.0
 20
0.0
 30
0.0
  9
$UCSYDIR
 10
0.0
 20
1.0
 30
0.0
  9
$PUCSNAME
  2

  9
$PUCSORG
 10
0.0
 20
0.0
 30
0.0
  9
$PUCSXDIR
 10
1.0
 20
0.0
 30
0.0
  9
$PUCSYDIR
 10
0.0
 20
1.0
 30
0.0
  9
$USERI1
 70
     3
  9
$USERI2
 70
    10
  9
$USERI3
 70
     0
  9
$USERI4
 70
     0
  9
$USERI5
 70
     0
  9
$USERR1
 40
0.0
  9
$USERR2
 40
0.0
  9
$USERR3
 40
0.0
  9
$USERR4
 40
0.0
  9
$USERR5
 40
0.0
  9
$WORLDVIEW
 70
     1
  9
$SHADEDGE
 70
     3
  9
$SHADEDIF
 70
    70
  9
$TILEMODE
 70
     1
  9
$MAXACTVP
 70
    16
  9
$PLIMCHECK
 70
     0
  9
$PEXTMIN
 10
1.0000000000000000E+020
 20
1.0000000000000000E+020
 30
1.0000000000000000E+020
  9
$PEXTMAX
 10
-1.0000000000000000E+020
 20
-1.0000000000000000E+020
 30
-1.0000000000000000E+020
  9
$PLIMMIN
 10
0.0
 20
0.0
  9
$PLIMMAX
 10
12.0
 20
9.0
  9
$UNITMODE
 70
     0
  9
$VISRETAIN
 70
     0
  9
$PLINEGEN
 70
     0
  9
$PSLTSCALE
 70
     1
  0
ENDSEC
  0
SECTION
  2
TABLES
  0
TABLE
  2
VPORT
 70
     2
  0
VPORT
  2
*ACTIVE
 70
     0
 10
0.0
 20
0.0
 11
1.0
 21
1.0
 12
2099.935917975306
 22
1693.9855679132161
 13
0.0
 23
0.0
 14
10.0
 24
10.0
 15
0.0
 25
0.0
 16
0.0
 26
0.0
 36
1.0
 17
0.0
 27
0.0
 37
0.0
 40
3423.9366208719189
 41
1.7716981132075471
 42
50.0
 43
0.0
 44
0.0
 50
0.0
 51
0.0
 71
     0
 72
 20000
 73
     1
 74
     1
 75
     0
 76
     0
 77
     0
 78
     0
  0
ENDTAB
  0
TABLE
  2
LTYPE
 70
     5
  0
LTYPE
  2
CONTINUOUS
 70
     0
  3
Solid line
 72
    65
 73
     0
 40
0.0
  0
LTYPE
  2
CENTER
 70
     0
  3
____ _ ____ _ ____ _ ____ _ ____ _ ____ _ ____ 
 72
    65
 73
     4
 40
2.0
 49
1.25
 49
-0.25
 49
0.25
 49
-0.25
  0
LTYPE
  2
HIDDEN
 70
     0
  3
__ __ __ __ __ __ __ __ __ __ __ __ __ __ __ __
 72
    65
 73
     2
 40
0.375
 49
0.25
 49
-0.125
  0
LTYPE
  2
HIDDEN2
 70
     0
  3
_ _ _ _ _ _ _ _ _ _ _ _ _ _ _ _ _ _ _ _ _ _ _ _
 72
    65
 73
     2
 40
0.1875
 49
0.125
 49
-0.0625
  0
LTYPE
  2
PHANTOM
 70
     0
  3
______  __  __  ______  __  __  ______  __  __ 
 72
    65
 73
     6
 40
2.5
 49
1.25
 49
-0.25
 49
0.25
 49
-0.25
 49
0.25
 49
-0.25
  0
ENDTAB
  0
TABLE
  2
LAYER
 70
    15
  0
LAYER
  2
0
 70
     0
 62
     7
  6
CONTINUOUS
  0
LAYER
  2
CENTER
 70
     0
 62
     3
  6
CENTER
  0
LAYER
  2
HASEN
 70
     0
 62
     7
  6
HIDDEN
  0
LAYER
  2
HOJO
 70
     0
 62
     8
  6
CONTINUOUS
  0
LAYER
  2
KASOU
 70
     0
 62
     2
  6
PHANTOM
  0
LAYER
  2
MOJI
 70
     0
 62
     6
  6
CONTINUOUS
  0
LAYER
  2
SJC
 70
     0
 62
     1
  6
CONTINUOUS
  0
LAYER
  2
SUNPOU
 70
     0
 62
     4
  6
CONTINUOUS
  0
LAYER
  2
WAKU
 70
     0
 62
    -5
  6
CONTINUOUS
  0
LAYER
  2
DEFPOINTS
 70
     0
 62
     7
  6
CONTINUOUS
  0
LAYER
  2
SJC2
 70
     0
 62
     7
  6
CONTINUOUS
  0
LAYER
  2
MOJI2
 70
     0
 62
     1
  6
CONTINUOUS
  0
LAYER
  2
HATCH
 70
     0
 62
     2
  6
CONTINUOUS
  0
LAYER
  2
ZWAKU
 70
     1
 62
    -7
  6
CONTINUOUS
  0
LAYER
  2
INFORMATION
 70
     1
 62
     7
  6
CONTINUOUS
  0
ENDTAB
  0
TABLE
  2
STYLE
 70
    10
  0
STYLE
  2
STANDARD
 70
     0
 40
0.0
 41
1.0
 50
0.0
 71
     0
 42
30.0
  3
TXT
  4
BIGFONT
  0
STYLE
  2
USER
 70
     0
 40
0.0
 41
1.0
 50
0.0
 71
     0
 42
30.0
  3
TXT
  4
BIGFONT
  0
STYLE
  2
TEXT3030
 70
     0
 40
30.0
 41
1.0
 50
0.0
 71
     0
 42
30.0
  3
TXT
  4
BIGFONT
  0
STYLE
  2
KANJI
 70
     0
 40
0.0
 41
1.0
 50
0.0
 71
     0
 42
30.0
  3
ROMANS.SHX
  4
BIGFONT.SHX
  0
STYLE
  2
SIMPLEX
 70
     0
 40
0.0
 41
1.0
 50
0.0
 71
     0
 42
30.0
  3
SCRIPTS.SHX
  4

  0
STYLE
  2
TATEEXT
 70
     4
 40
0.0
 41
1.0
 50
0.0
 71
     0
 42
30.0
  3
ROMANS
  4
EXTFONT
  0
STYLE
  2
TATEBIG
 70
     4
 40
0.0
 41
1.0
 50
0.0
 71
     0
 42
30.0
  3
ROMANS
  4
BIGFONT
  0
STYLE
  2
EXT08
 70
     0
 40
0.0
 41
0.8
 50
0.0
 71
     0
 42
30.0
  3
ROMANS
  4
EXTFONT
  0
STYLE
  2
EXT
 70
     0
 40
0.0
 41
1.0
 50
0.0
 71
     0
 42
30.0
  3
ROMANS
  4
EXTFONT
  0
STYLE
  2
KANJI08
 70
     0
 40
0.0
 41
0.8
 50
0.0
 71
     0
 42
30.0
  3
ROMANS
  4
BIGFONT
  0
ENDTAB
  0
TABLE
  2
VIEW
 70
     0
  0
ENDTAB
  0
TABLE
  2
UCS
 70
     0
  0
ENDTAB
  0
TABLE
  2
APPID
 70
     2
  0
APPID
  2
ACAD
 70
     0
  0
APPID
  2
ACAD_PSEXT
 70
     0
  0
ENDTAB
  0
TABLE
  2
DIMSTYLE
 70
     2
  0
DIMSTYLE
  2
S01-10AX
 70
     0
  3

  4

  5

  6

  7

 40
1.0
 41
20.0
 42
0.0625
 43
0.38
 44
10.0
 45
0.0
 46
0.0
 47
0.0
 48
0.0
140
30.0
141
0.09
142
0.0
143
25.399999999999999
144
1.0
145
0.0
146
0.006
147
0.09
 71
     0
 72
     0
 73
     0
 74
     0
 75
     0
 76
     0
 77
     1
 78
     8
170
     0
171
     2
172
     1
173
     0
174
     1
175
     0
176
     0
177
     0
178
     0
  0
DIMSTYLE
  2
SJC
 70
     0
  3

  4

  5

  6

  7

 40
1.0
 41
0.18
 42
0.0625
 43
0.38
 44
0.18
 45
0.0
 46
0.0
 47
0.0
 48
0.0
140
0.18
141
0.09
142
0.0
143
25.399999999999999
144
1.0
145
0.0
146
1.0
147
0.09
 71
     0
 72
     0
 73
     1
 74
     1
 75
     0
 76
     0
 77
     0
 78
     0
170
     0
171
     2
172
     0
173
     0
174
     0
175
     0
176
     0
177
     0
178
     0
  0
ENDTAB
  0
ENDSEC
  0
SECTION
  2
BLOCKS
  0
BLOCK
  8
0
  2
$MODEL_SPACE
 70
     0
 10
0.0
 20
0.0
 30
0.0
  3
$MODEL_SPACE
  1

  0
ENDBLK
  5
53
  8
0
  0
BLOCK
 67
     1
  8
0
  2
$PAPER_SPACE
 70
     0
 10
0.0
 20
0.0
 30
0.0
  3
$PAPER_SPACE
  1

  0
ENDBLK
  5
51
 67
     1
  8
0
  0
BLOCK
  8
0
  2
*X0
 70
     1
 10
0.0
 20
0.0
 30
0.0
  3
*X0
  1

  0
LINE
  5
55
  8
0
 62
     0
 10
815.666036400302
 20
1620.0
 30
0.0
 11
845.73678604031147
 21
1650.0707496400089
 31
0.0
  0
LINE
  5
56
  8
0
 62
     0
 10
815.00000000000034
 20
1628.1727983645301
 30
0.0
 11
841.04334263082069
 21
1654.2161409953501
 31
0.0
  0
LINE
  5
57
  8
0
 62
     0
 10
815.00000000000034
 20
1637.0116331293621
 30
0.0
 11
835.68581039525429
 21
1657.6974435246159
 31
0.0
  0
LINE
  5
58
  8
0
 62
     0
 10
815.00000000000034
 20
1645.8504678941929
 30
0.0
 11
829.5963635249401
 21
1660.4468314191331
 31
0.0
  0
LINE
  5
59
  8
0
 62
     0
 10
815.00000000000034
 20
1654.6893026590251
 30
0.0
 11
822.62859576127698
 21
1662.3178984203021
 31
0.0
  0
LINE
  5
5A
  8
0
 62
     0
 10
824.50487116513386
 20
1620.0
 30
0.0
 11
849.78432456800317
 21
1645.279453402869
 31
0.0
  0
LINE
  5
5B
  8
0
 62
     0
 10
833.34370592996561
 20
1620.0
 30
0.0
 11
853.16111154792611
 21
1639.81740561796
 31
0.0
  0
LINE
  5
5C
  8
0
 62
     0
 10
842.18254069479747
 20
1620.0
 30
0.0
 11
855.79011904259073
 21
1633.6075783477929
 31
0.0
  0
LINE
  5
5D
  8
0
 62
     0
 10
851.02137545962955
 20
1620.0
 30
0.0
 11
857.50793507516198
 21
1626.4865596155321
 31
0.0
  0
LINE
  5
5E
  8
0
 62
     0
 10
854.87373415291609
 20
1620.0
 30
0.0
 11
815.00000000000034
 21
1659.8737341529149
 31
0.0
  0
LINE
  5
5F
  8
0
 62
     0
 10
846.03489938808423
 20
1620.0
 30
0.0
 11
815.00000000000034
 21
1651.034899388083
 31
0.0
  0
LINE
  5
60
  8
0
 62
     0
 10
837.19606462325225
 20
1620.0
 30
0.0
 11
815.00000000000034
 21
1642.1960646232519
 31
0.0
  0
LINE
  5
61
  8
0
 62
     0
 10
828.35722985842051
 20
1620.0
 30
0.0
 11
815.00000000000034
 21
1633.3572298584199
 31
0.0
  0
LINE
  5
62
  8
0
 62
     0
 10
819.51839509358877
 20
1620.0
 30
0.0
 11
815.00000000000034
 21
1624.518395093588
 31
0.0
  0
LINE
  5
63
  8
0
 62
     0
 10
857.55714727793918
 20
1626.1554216398081
 30
0.0
 11
821.15542163980911
 21
1662.5571472779379
 31
0.0
  0
LINE
  5
64
  8
0
 62
     0
 10
853.59705528881443
 20
1638.954348393765
 30
0.0
 11
833.9543483937656
 21
1658.5970552888141
 31
0.0
  0
ENDBLK
  5
65
  8
0
  0
BLOCK
  8
0
  2
1-10BASE
 70
     0
 10
0.0
 20
0.0
 30
0.0
  3
1-10BASE
  1

  0
ENDBLK
  5
74
  8
0
  0
BLOCK
  8
0
  2
*X2
 70
     1
 10
0.0
 20
0.0
 30
0.0
  3
*X2
  1

  0
LINE
  5
81
  8
0
 62
     0
 10
3405.5833744060169
 20
2062.0804901515771
 30
0.0
 11
3419.7494249580918
 21
2076.246540703652
 31
0.0
  0
LINE
  5
82
  8
0
 62
     0
 10
3398.5885794635028
 20
2069.2278308327932
 30
0.0
 11
3412.7412190912069
 21
2083.3804704604981
 31
0.0
  0
LINE
  5
83
  8
0
 62
     0
 10
3390.837338439324
 20
2075.6187254323449
 30
0.0
 11
3405.1103951345731
 21
2089.891782127595
 31
0.0
  0
LINE
  5
84
  8
0
 62
     0
 10
3382.3056383069629
 20
2081.229160923715
 30
0.0
 11
3396.843686811143
 21
2095.7672094278951
 31
0.0
  0
LINE
  5
85
  8
0
 62
     0
 10
3372.9383183959799
 20
2086.003976636463
 30
0.0
 11
3387.9114567265829
 21
2100.9771149670651
 31
0.0
  0
LINE
  5
86
  8
0
 62
     0
 10
3362.637464948913
 20
2089.8452588131258
 30
0.0
 11
3378.2637546083129
 21
2105.471548472527
 31
0.0
  0
LINE
  5
87
  8
0
 62
     0
 10
3351.2370933571178
 20
2092.5870228450631
 30
0.0
 11
3367.8227258297138
 21
2109.1726553176591
 31
0.0
  0
LINE
  5
88
  8
0
 62
     0
 10
3338.4447934584741
 20
2093.9368585701509
 30
0.0
 11
3356.4682578020488
 21
2111.9603229137251
 31
0.0
  0
LINE
  5
89
  8
0
 62
     0
 10
3323.6819363175118
 20
2093.3161370529192
 30
0.0
 11
3344.0092480407588
 21
2113.6434487761662
 31
0.0
  0
LINE
  5
8A
  8
0
 62
     0
 10
3270.839541092429
 20
2054.615877451567
 30
0.0
 11
3284.8296785903249
 21
2068.606014949462
 31
0.0
  0
LINE
  5
8B
  8
0
 62
     0
 10
3305.4622167471821
 20
2089.2385531063201
 30
0.0
 11
3330.1191293160482
 21
2113.8954656751862
 31
0.0
  0
LINE
  5
8C
  8
0
 62
     0
 10
3268.9229436274691
 20
2066.8414156103381
 30
0.0
 11
3314.1606056505011
 21
2112.0790776333702
 31
0.0
  0
LINE
  5
8D
  8
0
 62
     0
 10
3267.785206208569
 20
2079.84581381517
 30
0.0
 11
3294.50444188355
 21
2106.5650494901502
 31
0.0
  0
LINE
  5
8E
  8
0
 62
     0
 10
3253.2074551168112
 20
2079.4101983471419
 30
0.0
 11
3255.5898016528581
 21
2081.7925448831888
 31
0.0
  0
LINE
  5
8F
  8
0
 62
     0
 10
3281.4380552353659
 20
1923.793035357194
 30
0.0
 11
3293.8123797785852
 21
1936.167359900413
 31
0.0
  0
LINE
  5
90
  8
0
 62
     0
 10
3411.8190806025891
 20
2054.1740607244178
 30
0.0
 11
3426.1335415617868
 21
2068.488521683616
 31
0.0
  0
LINE
  5
91
  8
0
 62
     0
 10
3274.9099724723978
 20
1903.1228169704959
 30
0.0
 11
3280.7087835004299
 21
1908.921627998528
 31
0.0
  0
LINE
  5
92
  8
0
 62
     0
 10
3417.2659215119229
 20
2045.4787660100201
 30
0.0
 11
3431.8771830295068
 21
2060.0900275276049
 31
0.0
  0
LINE
  5
93
  8
0
 62
     0
 10
3282.5757926542651
 20
1910.788637152363
 30
0.0
 11
3297.3447901982199
 21
1925.5576346963189
 31
0.0
  0
LINE
  5
94
  8
0
 62
     0
 10
3283.9822827177782
 20
1898.052991592145
 30
0.0
 11
3299.0679695423669
 21
1913.138678416733
 31
0.0
  0
LINE
  5
95
  8
0
 62
     0
 10
3421.861321583267
 20
2035.932030457634
 30
0.0
 11
3436.947008407858
 21
2051.017717282225
 31
0.0
  0
LINE
  5
96
  8
0
 62
     0
 10
3293.7832398215828
 20
1893.711813072219
 30
0.0
 11
3309.5751461310761
 21
1909.503719381712
 31
0.0
  0
LINE
  5
97
  8
0
 62
     0
 10
3425.496280618288
 20
2025.4248538689239
 30
0.0
 11
3441.288186927784
 21
2041.2167601784199
 31
0.0
  0
LINE
  5
98
  8
0
 62
     0
 10
3304.3977868621669
 20
1890.1842244890711
 30
0.0
 11
3321.2279194148591
 21
1907.0143570417649
 31
0.0
  0
LINE
  5
99
  8
0
 62
     0
 10
3427.985642958236
 20
2013.7720805851411
 30
0.0
 11
3444.8157755109319
 21
2030.602213137837
 31
0.0
  0
LINE
  5
9A
  8
0
 62
     0
 10
3315.9573924199522
 20
1887.601694423126
 30
0.0
 11
3334.35789112775
 21
1906.0021931309229
 31
0.0
  0
LINE
  5
9B
  8
0
 62
     0
 10
3428.9978068690771
 20
2000.64210887225
 30
0.0
 11
3447.3983055768772
 21
2019.0426075800519
 31
0.0
  0
LINE
  5
9C
  8
0
 62
     0
 10
3328.673514674947
 20
1886.17568105439
 30
0.0
 11
3349.6457974753489
 21
1907.147963854791
 31
0.0
  0
LINE
  5
9D
  8
0
 62
     0
 10
3427.8520361452079
 20
1985.3542025246511
 30
0.0
 11
3448.8243189456139
 21
2006.3264853250571
 31
0.0
  0
LINE
  5
9E
  8
0
 62
     0
 10
3342.9150749202822
 20
1886.2751056759939
 30
0.0
 11
3369.007124450909
 21
1912.367155206621
 31
0.0
  0
LINE
  5
9F
  8
0
 62
     0
 10
3422.6328447933788
 20
1965.992875549091
 30
0.0
 11
3448.7248943240061
 21
1992.084925079718
 31
0.0
  0
LINE
  5
A0
  8
0
 62
     0
 10
3359.4306681811918
 20
1888.6485633131731
 30
0.0
 11
3446.3514366868271
 21
1975.5693318188089
 31
0.0
  0
LINE
  5
A1
  8
0
 62
     0
 10
3380.3195743322221
 20
1895.3953338404731
 30
0.0
 11
3439.6046661595269
 21
1954.6804256677781
 31
0.0
  0
ENDBLK
  5
A2
  8
0
  0
BLOCK
  8
0
  2
CALCOMP_TECHJET720A3
 70
     0
 10
0.0
 20
0.0
 30
0.0
  3
CALCOMP_TECHJET720A3
  1

  0
POLYLINE
  5
28A
  8
ZWAKU
 66
     1
 10
0.0
 20
0.0
 30
0.0
 70
     1
  0
VERTEX
  5
8D2
  8
ZWAKU
 10
0.0
 20
0.0
 30
0.0
  0
VERTEX
  5
8D3
  8
ZWAKU
 10
0.0
 20
267.0
 30
0.0
  0
VERTEX
  5
8D4
  8
ZWAKU
 10
370.0
 20
267.0
 30
0.0
  0
VERTEX
  5
8D5
  8
ZWAKU
 10
370.0
 20
0.0
 30
0.0
  0
SEQEND
  5
8D6
  8
ZWAKU
  0
ENDBLK
  5
291
  8
0
  0
BLOCK
  8
0
  2
*D4
 70
     1
 10
0.0
 20
0.0
 30
0.0
  3
*D4
  1

  0
LINE
  5
851
  8
SUNPOU
 10
423.64498164893121
 20
456.49021927871757
 30
0.0
 11
423.64498164893121
 21
291.49021927871757
 31
0.0
  0
LINE
  5
852
  8
SUNPOU
 10
823.64498164893121
 20
456.49021927871757
 30
0.0
 11
823.64498164893121
 21
291.49021927871757
 31
0.0
  0
LINE
  5
853
  8
SUNPOU
 10
443.64498164893121
 20
301.49021927871757
 30
0.0
 11
803.64498164893121
 21
301.49021927871757
 31
0.0
  0
SOLID
  5
854
  8
SUNPOU
 10
443.64498164893121
 20
304.82355261205089
 30
0.0
 11
443.64498164893121
 21
298.15688594538432
 31
0.0
 12
423.64498164893121
 22
301.49021927871757
 32
0.0
 13
423.64498164893121
 23
301.49021927871757
 33
0.0
  0
SOLID
  5
855
  8
SUNPOU
 10
803.64498164893121
 20
304.82355261205089
 30
0.0
 11
803.64498164893121
 21
298.15688594538432
 31
0.0
 12
823.64498164893121
 22
301.49021927871757
 32
0.0
 13
823.64498164893121
 23
301.49021927871757
 33
0.0
  0
TEXT
  8
SUNPOU
  40
30
  5
8F9
  72
0
  71
0
 10
563.645
 20
275.390
 30
0.000000
  1
□400
  7
EXT08
  0
POINT
  5
857
  8
DEFPOINTS
 62
     0
 10
423.64498164893121
 20
466.49021927871757
 30
0.0
  0
POINT
  5
858
  8
DEFPOINTS
 62
     0
 10
823.64498164893121
 20
466.49021927871757
 30
0.0
  0
POINT
  5
859
  8
DEFPOINTS
 62
     0
 10
823.64498164893121
 20
301.49021927871757
 30
0.0
  0
ENDBLK
  5
82B
  8
0
  0
BLOCK
  8
0
  2
*D5
 70
     1
 10
0.0
 20
0.0
 30
0.0
  3
*D5
  1

  0
LINE
  5
8C9
  8
SUNPOU
 10
548.64498164893121
 20
455.60333550597159
 30
0.0
 11
548.64498164893121
 21
385.6658355059717
 31
0.0
  0
LINE
  5
8CA
  8
SUNPOU
 10
698.64498164893075
 20
455.60333550597159
 30
0.0
 11
698.64498164893075
 21
385.6658355059717
 31
0.0
  0
LINE
  5
8CB
  8
SUNPOU
 10
568.64498164893121
 20
395.6658355059717
 30
0.0
 11
678.64498164893075
 21
395.6658355059717
 31
0.0
  0
TEXT
  8
SUNPOU
  40
30
  5
8FA
  72
0
  71
0
 10
563.645
 20
373.695
 30
0.000000
  1
%%c150
  7
EXT08
  0
SOLID
  5
8CD
  8
SUNPOU
 10
568.64498164893121
 20
398.99916883930501
 30
0.0
 11
568.64498164893121
 21
392.33250217263839
 31
0.0
 12
548.64498164893121
 22
395.6658355059717
 32
0.0
 13
548.64498164893121
 23
395.6658355059717
 33
0.0
  0
SOLID
  5
8CE
  8
SUNPOU
 10
678.64498164893075
 20
398.99916883930501
 30
0.0
 11
678.64498164893075
 21
392.33250217263839
 31
0.0
 12
698.64498164893075
 22
395.6658355059717
 32
0.0
 13
698.64498164893075
 23
395.6658355059717
 33
0.0
  0
POINT
  5
8CF
  8
DEFPOINTS
 62
     0
 10
548.64498164893121
 20
465.6033355059717
 30
0.0
  0
POINT
  5
8D0
  8
DEFPOINTS
 62
     0
 10
698.64498164893075
 20
465.6033355059717
 30
0.0
  0
POINT
  5
8D1
  8
DEFPOINTS
 62
     0
 10
698.64498164893075
 20
395.6658355059717
 30
0.0
  0
ENDBLK
  5
79A
  8
0
  0
BLOCK
  8
0
  2
*D6
 70
     1
 10
0.0
 20
0.0
 30
0.0
  3
*D6
  1

  0
LINE
  5
862
  8
SUNPOU
 10
523.64498164893121
 20
477.56097547482739
 30
0.0
 11
318.64498164893121
 21
477.5609754748275
 31
0.0
  0
LINE
  5
863
  8
SUNPOU
 10
393.51998164893121
 20
467.5609754748275
 30
0.0
 11
318.64498164893121
 21
467.56097547482761
 31
0.0
  0
LINE
  5
864
  8
SUNPOU
 10
328.64498164893121
 20
497.5609754748275
 30
0.0
 11
328.64498164893121
 21
517.5609754748275
 31
0.0
  0
LINE
  5
865
  8
SUNPOU
 10
328.64498164893121
 20
447.5609754748275
 30
0.0
 11
328.64498164893121
 21
427.5609754748275
 31
0.0
  0
TEXT
  8
SUNPOU
  40
30
  5
8FB
  72
0
  71
0
 10
238.645
 20
444.461
 30
0.000000
  1
10
  7
EXT08
  0
LINE
  5
867
  8
SUNPOU
 10
328.64498164893121
 20
477.5609754748275
 30
0.0
 11
328.64498164893121
 21
467.56097547482761
 31
0.0
  0
SOLID
  5
868
  8
SUNPOU
 10
325.31164831559789
 20
497.5609754748275
 30
0.0
 11
331.97831498226452
 21
497.5609754748275
 31
0.0
 12
328.64498164893121
 22
477.5609754748275
 32
0.0
 13
328.64498164893121
 23
477.5609754748275
 33
0.0
  0
SOLID
  5
869
  8
SUNPOU
 10
325.31164831559789
 20
447.5609754748275
 30
0.0
 11
331.97831498226452
 21
447.5609754748275
 31
0.0
 12
328.64498164893121
 22
467.56097547482761
 32
0.0
 13
328.64498164893121
 23
467.56097547482761
 33
0.0
  0
POINT
  5
86A
  8
DEFPOINTS
 62
     0
 10
533.64498164893121
 20
477.56097547482739
 30
0.0
  0
POINT
  5
86B
  8
DEFPOINTS
 62
     0
 10
403.51998164893121
 20
467.5609754748275
 30
0.0
  0
POINT
  5
86C
  8
DEFPOINTS
 62
     0
 10
328.64498164893121
 20
467.56097547482761
 30
0.0
  0
ENDBLK
  5
815
  8
0
  0
BLOCK
  8
0
  2
*D7
 70
     1
 10
0.0
 20
0.0
 30
0.0
  3
*D7
  1

  0
LINE
  5
85A
  8
SUNPOU
 10
613.64498164893155
 20
1667.560975474827
 30
0.0
 11
231.4949941166189
 21
1667.560975474827
 31
0.0
  0
LINE
  5
85B
  8
SUNPOU
 10
241.4949941166189
 20
1647.560975474827
 30
0.0
 11
241.4949941166187
 21
887.56100533135429
 31
0.0
  0
SOLID
  5
85C
  8
SUNPOU
 10
238.16166078328561
 20
1647.560975474827
 30
0.0
 11
244.8283274499523
 21
1647.560975474827
 31
0.0
 12
241.4949941166189
 22
1667.560975474827
 32
0.0
 13
241.4949941166189
 23
1667.560975474827
 33
0.0
  0
SOLID
  5
85D
  8
SUNPOU
 10
238.16166078328541
 20
887.56100533135429
 30
0.0
 11
244.8283274499521
 21
887.56100533135429
 31
0.0
 12
241.4949941166187
 22
867.56100533135441
 32
0.0
 13
241.4949941166187
 23
867.56100533135441
 33
0.0
  0
TEXT
  8
SUNPOU
  40
30
  5
8FC
  72
0
  71
0
 10
154.495
 20
1214.46
 30
0.000000
  1
800（表面エンボス模様）
  7
EXT08
  0
POINT
  5
85F
  8
DEFPOINTS
 62
     0
 10
623.64498164893155
 20
1667.560975474827
 30
0.0
  0
POINT
  5
860
  8
DEFPOINTS
 62
     0
 10
241.4949941166187
 20
867.56100533135441
 30
0.0
  0
POINT
  5
861
  8
DEFPOINTS
 62
     0
 10
241.4949941166187
 20
867.56100533135441
 30
0.0
  0
ENDBLK
  5
820
  8
0
  0
BLOCK
  8
0
  2
*D8
 70
     1
 10
0.0
 20
0.0
 30
0.0
  3
*D8
  1

  0
LINE
  5
8BE
  8
SUNPOU
 10
648.70748164893155
 20
1610.560975474827
 30
0.0
 11
818.64498164893155
 21
1610.560975474827
 31
0.0
  0
LINE
  5
8BF
  8
SUNPOU
 10
648.70748164893155
 20
1524.560975474827
 30
0.0
 11
818.64498164893155
 21
1524.560975474827
 31
0.0
  0
LINE
  5
8C0
  8
SUNPOU
 10
808.64498164893166
 20
1630.560975474827
 30
0.0
 11
808.64498164893166
 21
1650.560975474827
 31
0.0
  0
LINE
  5
8C1
  8
SUNPOU
 10
808.64498164893166
 20
1504.560975474827
 30
0.0
 11
808.64498164893166
 21
1484.560975474827
 31
0.0
  0
TEXT
  8
SUNPOU
  40
30
  5
8FD
  72
0
  71
0
 10
723.022
 20
1515.93
 30
0.000000
  1
%%C86
  7
EXT08
  0
LINE
  5
8C3
  8
SUNPOU
 10
808.64498164893166
 20
1610.560975474827
 30
0.0
 11
808.64498164893166
 21
1524.560975474827
 31
0.0
  0
SOLID
  5
8C4
  8
SUNPOU
 10
805.31164831559829
 20
1630.560975474827
 30
0.0
 11
811.97831498226503
 21
1630.560975474827
 31
0.0
 12
808.64498164893166
 22
1610.560975474827
 32
0.0
 13
808.64498164893166
 23
1610.560975474827
 33
0.0
  0
SOLID
  5
8C5
  8
SUNPOU
 10
805.31164831559829
 20
1504.560975474827
 30
0.0
 11
811.97831498226503
 21
1504.560975474827
 31
0.0
 12
808.64498164893166
 22
1524.560975474827
 32
0.0
 13
808.64498164893166
 23
1524.560975474827
 33
0.0
  0
POINT
  5
8C6
  8
DEFPOINTS
 62
     0
 10
638.70748164893166
 20
1610.560975474827
 30
0.0
  0
POINT
  5
8C7
  8
DEFPOINTS
 62
     0
 10
638.70748164893166
 20
1524.560975474827
 30
0.0
  0
POINT
  5
8C8
  8
DEFPOINTS
 62
     0
 10
808.64498164893166
 20
1524.560975474827
 30
0.0
  0
ENDBLK
  5
7A5
  8
0
  0
BLOCK
  8
0
  2
*D9
 70
     1
 10
0.0
 20
0.0
 30
0.0
  3
*D9
  1

  0
LINE
  5
86D
  8
SUNPOU
 10
613.64498164893155
 20
1667.560975474827
 30
0.0
 11
413.64498164893121
 21
1667.560975474827
 31
0.0
  0
LINE
  5
86E
  8
SUNPOU
 10
498.64498164893121
 20
1567.560975474827
 30
0.0
 11
413.64498164893121
 21
1567.560975474827
 31
0.0
  0
LINE
  5
86F
  8
SUNPOU
 10
423.64498164893121
 20
1647.560975474827
 30
0.0
 11
423.64498164893121
 21
1587.560975474827
 31
0.0
  0
TEXT
  8
SUNPOU
  40
30
  5
8FE
  72
0
  71
0
 10
328.599
 20
1564.46
 30
0.000000
  1
100
  7
EXT08
  0
SOLID
  5
871
  8
SUNPOU
 10
420.31164831559778
 20
1647.560975474827
 30
0.0
 11
426.97831498226452
 21
1647.560975474827
 31
0.0
 12
423.64498164893121
 22
1667.560975474827
 32
0.0
 13
423.64498164893121
 23
1667.560975474827
 33
0.0
  0
SOLID
  5
872
  8
SUNPOU
 10
420.31164831559778
 20
1587.560975474827
 30
0.0
 11
426.97831498226452
 21
1587.560975474827
 31
0.0
 12
423.64498164893121
 22
1567.560975474827
 32
0.0
 13
423.64498164893121
 23
1567.560975474827
 33
0.0
  0
POINT
  5
873
  8
DEFPOINTS
 62
     0
 10
623.64498164893155
 20
1667.560975474827
 30
0.0
  0
POINT
  5
874
  8
DEFPOINTS
 62
     0
 10
508.64498164893121
 20
1567.560975474827
 30
0.0
  0
POINT
  5
875
  8
DEFPOINTS
 62
     0
 10
423.64498164893121
 20
1567.560975474827
 30
0.0
  0
ENDBLK
  5
808
  8
0
  0
BLOCK
  8
0
  2
*D10
 70
     1
 10
0.0
 20
0.0
 30
0.0
  3
*D10
  1

  0
LINE
  5
8B5
  8
SUNPOU
 10
566.64498164893109
 20
1677.623475474828
 30
0.0
 11
566.64498164893109
 21
1817.560975474827
 31
0.0
  0
LINE
  5
8B6
  8
SUNPOU
 10
680.64498164893075
 20
1677.623475474828
 30
0.0
 11
680.64498164893075
 21
1817.560975474827
 31
0.0
  0
LINE
  5
8B7
  8
SUNPOU
 10
586.64498164893109
 20
1807.560975474827
 30
0.0
 11
660.64498164893075
 21
1807.560975474827
 31
0.0
  0
TEXT
  8
SUNPOU
  40
30
  5
8FF
  72
0
  71
0
 10
563.645
 20
1789.52
 30
0.000000
  1
%%C114
  7
EXT08
  0
SOLID
  5
8B9
  8
SUNPOU
 10
586.64498164893109
 20
1810.894308808161
 30
0.0
 11
586.64498164893109
 21
1804.227642141494
 31
0.0
 12
566.64498164893109
 22
1807.560975474827
 32
0.0
 13
566.64498164893109
 23
1807.560975474827
 33
0.0
  0
SOLID
  5
8BA
  8
SUNPOU
 10
660.64498164893075
 20
1810.894308808161
 30
0.0
 11
660.64498164893075
 21
1804.227642141494
 31
0.0
 12
680.64498164893075
 22
1807.560975474827
 32
0.0
 13
680.64498164893075
 23
1807.560975474827
 33
0.0
  0
POINT
  5
8BB
  8
DEFPOINTS
 62
     0
 10
566.64498164893109
 20
1667.623475474827
 30
0.0
  0
POINT
  5
8BC
  8
DEFPOINTS
 62
     0
 10
680.64498164893075
 20
1667.623475474827
 30
0.0
  0
POINT
  5
8BD
  8
DEFPOINTS
 62
     0
 10
680.64498164893075
 20
1807.560975474827
 30
0.0
  0
ENDBLK
  5
7B0
  8
0
  0
BLOCK
  8
0
  2
*D11
 70
     1
 10
0.0
 20
0.0
 30
0.0
  3
*D11
  1

  0
LINE
  5
8D7
  8
SUNPOU
 10
1428.644981648931
 20
456.39018115161139
 30
0.0
 11
1428.644981648931
 21
291.39018115161139
 31
0.0
  0
LINE
  5
8D8
  8
SUNPOU
 10
1828.644981648931
 20
456.39018115161139
 30
0.0
 11
1828.644981648931
 21
291.39018115161139
 31
0.0
  0
LINE
  5
8D9
  8
SUNPOU
 10
1448.644981648931
 20
301.39018115161139
 30
0.0
 11
1808.644981648931
 21
301.39018115161139
 31
0.0
  0
SOLID
  5
8DA
  8
SUNPOU
 10
1448.644981648931
 20
304.7235144849447
 30
0.0
 11
1448.644981648931
 21
298.05684781827807
 31
0.0
 12
1428.644981648931
 22
301.39018115161139
 32
0.0
 13
1428.644981648931
 23
301.39018115161139
 33
0.0
  0
SOLID
  5
8DB
  8
SUNPOU
 10
1808.644981648931
 20
304.7235144849447
 30
0.0
 11
1808.644981648931
 21
298.05684781827807
 31
0.0
 12
1828.644981648931
 22
301.39018115161139
 32
0.0
 13
1828.644981648931
 23
301.39018115161139
 33
0.0
  0
TEXT
  8
SUNPOU
  40
30
  5
900
  72
0
  71
0
 10
1568.64
 20
275.290
 30
0.000000
  1
□400
  7
EXT08
  0
POINT
  5
8DD
  8
DEFPOINTS
 62
     0
 10
1428.644981648931
 20
466.39018115161127
 30
0.0
  0
POINT
  5
8DE
  8
DEFPOINTS
 62
     0
 10
1828.644981648931
 20
466.39018115161127
 30
0.0
  0
POINT
  5
8DF
  8
DEFPOINTS
 62
     0
 10
1828.644981648931
 20
301.39018115161139
 30
0.0
  0
ENDBLK
  5
78F
  8
0
  0
BLOCK
  8
0
  2
*D12
 70
     1
 10
0.0
 20
0.0
 30
0.0
  3
*D12
  1

  0
LINE
  5
8E0
  8
SUNPOU
 10
413.64498164893121
 20
467.5609754748275
 30
0.0
 11
231.4949941166187
 21
467.56097547482761
 31
0.0
  0
LINE
  5
8E1
  8
SUNPOU
 10
306.5558854115352
 20
867.56097547482773
 30
0.0
 11
231.4949941166187
 21
867.56097547482773
 31
0.0
  0
LINE
  5
8E2
  8
SUNPOU
 10
241.49499411661861
 20
487.5609754748275
 30
0.0
 11
241.4949941166187
 21
847.56097547482784
 31
0.0
  0
SOLID
  5
8E3
  8
SUNPOU
 10
238.1616607832853
 20
487.5609754748275
 30
0.0
 11
244.82832744995201
 21
487.5609754748275
 31
0.0
 12
241.49499411661861
 22
467.56097547482761
 32
0.0
 13
241.49499411661861
 23
467.56097547482761
 33
0.0
  0
SOLID
  5
8E4
  8
SUNPOU
 10
238.16166078328541
 20
847.56097547482784
 30
0.0
 11
244.8283274499521
 21
847.56097547482784
 31
0.0
 12
241.4949941166187
 22
867.56097547482773
 32
0.0
 13
241.4949941166187
 23
867.56097547482773
 33
0.0
  0
TEXT
  8
SUNPOU
  40
30
  5
901
  72
0
  71
0
 10
154.495
 20
614.461
 30
0.000000
  1
400
  7
EXT08
  0
POINT
  5
8E6
  8
DEFPOINTS
 62
     0
 10
423.64498164893121
 20
467.5609754748275
 30
0.0
  0
POINT
  5
8E7
  8
DEFPOINTS
 62
     0
 10
316.5558854115352
 20
867.56097547482773
 30
0.0
  0
POINT
  5
8E8
  8
DEFPOINTS
 62
     0
 10
241.4949941166187
 20
867.56097547482773
 30
0.0
  0
ENDBLK
  5
784
  8
0
  0
BLOCK
  8
0
  2
*X13
 70
     1
 10
0.0
 20
0.0
 30
0.0
  3
*X13
  1

  0
LINE
  5
38B
  8
0
 62
     0
 10
467.56097547482739
 20
467.56097547482739
 30
0.0
 11
566.64498164893109
 21
566.64498164893109
 31
0.0
  0
LINE
  5
38C
  8
0
 62
     0
 10
680.64498164893064
 20
680.64498164893064
 30
0.0
 11
823.64498164893132
 21
823.64498164893132
 31
0.0
  0
LINE
  5
38D
  8
0
 62
     0
 10
423.64498164893121
 20
600.42167694556804
 30
0.0
 11
566.64498164893109
 21
743.42167694556815
 31
0.0
  0
LINE
  5
38E
  8
0
 62
     0
 10
680.64498164893064
 20
857.42167694556736
 30
0.0
 11
690.78428017819056
 21
867.56097547482761
 31
0.0
  0
LINE
  5
38F
  8
0
 62
     0
 10
423.64498164893121
 20
777.19837224220487
 30
0.0
 11
514.00758488155373
 21
867.56097547482739
 31
0.0
  0
LINE
  5
390
  8
0
 62
     0
 10
680.64498164893064
 20
503.86828635229369
 30
0.0
 11
823.64498164893132
 21
646.86828635229449
 31
0.0
  0
LINE
  5
391
  8
0
 62
     0
 10
821.11436606810105
 20
467.5609754748275
 30
0.0
 11
823.64498164893132
 21
470.0915910556576
 31
0.0
  0
LINE
  5
392
  8
0
 62
     0
 10
445.46388856274791
 20
467.56097547482739
 30
0.0
 11
566.64498164893109
 21
588.7420685610108
 31
0.0
  0
LINE
  5
393
  8
0
 62
     0
 10
680.64498164893064
 20
702.74206856101023
 30
0.0
 11
823.64498164893132
 21
845.74206856101091
 31
0.0
  0
LINE
  5
394
  8
0
 62
     0
 10
423.64498164893121
 20
622.51876385764774
 30
0.0
 11
566.64498164893132
 21
765.51876385764774
 31
0.0
  0
LINE
  5
395
  8
0
 62
     0
 10
423.64498164893121
 20
799.29545915428446
 30
0.0
 11
491.91049796947408
 21
867.56097547482739
 31
0.0
  0
LINE
  5
396
  8
0
 62
     0
 10
680.64498164893064
 20
525.96537326437328
 30
0.0
 11
823.64498164893132
 21
668.96537326437408
 31
0.0
  0
LINE
  5
397
  8
0
 62
     0
 10
799.01727915602146
 20
467.5609754748275
 30
0.0
 11
823.64498164893132
 21
492.18867796773719
 31
0.0
  0
LINE
  5
398
  8
0
 62
     0
 10
423.64498164893121
 20
467.83915547309039
 30
0.0
 11
566.64498164893109
 21
610.83915547309039
 31
0.0
  0
LINE
  5
399
  8
0
 62
     0
 10
680.64498164893064
 20
724.83915547308982
 30
0.0
 11
823.36680165066821
 21
867.56097547482761
 31
0.0
  0
LINE
  5
39A
  8
0
 62
     0
 10
423.64498164893121
 20
644.61585076972733
 30
0.0
 11
566.64498164893132
 21
787.61585076972733
 31
0.0
  0
LINE
  5
39B
  8
0
 62
     0
 10
423.64498164893121
 20
821.39254606636416
 30
0.0
 11
469.81341105739449
 21
867.56097547482739
 31
0.0
  0
LINE
  5
39C
  8
0
 62
     0
 10
680.64498164893064
 20
548.06246017645276
 30
0.0
 11
823.64498164893132
 21
691.06246017645367
 31
0.0
  0
LINE
  5
39D
  8
0
 62
     0
 10
776.92019224394187
 20
467.5609754748275
 30
0.0
 11
823.64498164893132
 21
514.28576487981684
 31
0.0
  0
ENDBLK
  5
39E
  8
0
  0
BLOCK
  8
0
  2
*D14
 70
     1
 10
0.0
 20
0.0
 30
0.0
  3
*D14
  1

  0
LINE
  5
87F
  8
SUNPOU
 10
2473.6449816489312
 20
2097.560975474828
 30
0.0
 11
2113.6449816489312
 21
2097.560975474828
 31
0.0
  0
LINE
  5
880
  8
SUNPOU
 10
2473.6449816489312
 20
1797.560975474828
 30
0.0
 11
2113.6449816489312
 21
1797.560975474828
 31
0.0
  0
LINE
  5
881
  8
SUNPOU
 10
2123.6449816489312
 20
2077.560975474828
 30
0.0
 11
2123.6449816489312
 21
1817.560975474827
 31
0.0
  0
SOLID
  5
882
  8
SUNPOU
 10
2120.3116483155982
 20
2077.560975474828
 30
0.0
 11
2126.9783149822651
 21
2077.560975474828
 31
0.0
 12
2123.6449816489312
 22
2097.560975474828
 32
0.0
 13
2123.6449816489312
 23
2097.560975474828
 33
0.0
  0
SOLID
  5
883
  8
SUNPOU
 10
2120.3116483155982
 20
1817.560975474827
 30
0.0
 11
2126.9783149822651
 21
1817.560975474827
 31
0.0
 12
2123.6449816489312
 22
1797.560975474828
 32
0.0
 13
2123.6449816489312
 23
1797.560975474828
 33
0.0
  0
TEXT
  8
SUNPOU
  40
30
  5
902
  72
0
  71
0
 10
2036.64
 20
1894.46
 30
0.000000
  1
%%c150
  7
EXT08
  0
POINT
  5
885
  8
DEFPOINTS
 62
     0
 10
2483.6449816489312
 20
2097.560975474828
 30
0.0
  0
POINT
  5
886
  8
DEFPOINTS
 62
     0
 10
2483.6449816489312
 20
1797.560975474828
 30
0.0
  0
POINT
  5
887
  8
DEFPOINTS
 62
     0
 10
2123.6449816489312
 20
1797.560975474828
 30
0.0
  0
ENDBLK
  5
7F2
  8
0
  0
BLOCK
  8
0
  2
*D15
 70
     1
 10
0.0
 20
0.0
 30
0.0
  3
*D15
  1

  0
LINE
  5
876
  8
SUNPOU
 10
2473.6449816489312
 20
2061.560975474828
 30
0.0
 11
2228.6449816489312
 21
2061.560975474828
 31
0.0
  0
LINE
  5
877
  8
SUNPOU
 10
2473.6449816489312
 20
1833.560975474827
 30
0.0
 11
2228.6449816489312
 21
1833.560975474827
 31
0.0
  0
LINE
  5
878
  8
SUNPOU
 10
2238.6449816489312
 20
2041.560975474828
 30
0.0
 11
2238.6449816489312
 21
1853.560975474827
 31
0.0
  0
SOLID
  5
879
  8
SUNPOU
 10
2235.3116483155982
 20
2041.560975474828
 30
0.0
 11
2241.9783149822651
 21
2041.560975474828
 31
0.0
 12
2238.6449816489312
 22
2061.560975474828
 32
0.0
 13
2238.6449816489312
 23
2061.560975474828
 33
0.0
  0
SOLID
  5
87A
  8
SUNPOU
 10
2235.3116483155982
 20
1853.560975474827
 30
0.0
 11
2241.9783149822651
 21
1853.560975474827
 31
0.0
 12
2238.6449816489312
 22
1833.560975474827
 32
0.0
 13
2238.6449816489312
 23
1833.560975474827
 33
0.0
  0
TEXT
  8
SUNPOU
  40
30
  5
903
  72
0
  71
0
 10
2151.64
 20
1894.46
 30
0.000000
  1
%%c114
  7
EXT08
  0
POINT
  5
87C
  8
DEFPOINTS
 62
     0
 10
2483.6449816489312
 20
2061.560975474828
 30
0.0
  0
POINT
  5
87D
  8
DEFPOINTS
 62
     0
 10
2483.6449816489312
 20
1833.560975474827
 30
0.0
  0
POINT
  5
87E
  8
DEFPOINTS
 62
     0
 10
2238.6449816489312
 20
1833.560975474827
 30
0.0
  0
ENDBLK
  5
7FD
  8
0
  0
BLOCK
  8
0
  2
*D16
 70
     1
 10
0.0
 20
0.0
 30
0.0
  3
*D16
  1

  0
LINE
  5
891
  8
SUNPOU
 10
3338.6449898030892
 20
1227.560975474827
 30
0.0
 11
3448.6449898030901
 21
1227.560975474827
 31
0.0
  0
LINE
  5
892
  8
SUNPOU
 10
3338.6449898030892
 20
867.56097547482761
 30
0.0
 11
3448.6449898030892
 21
867.56097547482761
 31
0.0
  0
LINE
  5
893
  8
SUNPOU
 10
3438.6449898030901
 20
1207.560975474827
 30
0.0
 11
3438.6449898030892
 21
887.5609754748275
 31
0.0
  0
SOLID
  5
894
  8
SUNPOU
 10
3435.3116564697571
 20
1207.560975474827
 30
0.0
 11
3441.978323136424
 21
1207.560975474827
 31
0.0
 12
3438.6449898030901
 22
1227.560975474827
 32
0.0
 13
3438.6449898030901
 23
1227.560975474827
 33
0.0
  0
SOLID
  5
895
  8
SUNPOU
 10
3435.3116564697561
 20
887.5609754748275
 30
0.0
 11
3441.9783231364231
 21
887.5609754748275
 31
0.0
 12
3438.6449898030892
 22
867.56097547482761
 32
0.0
 13
3438.6449898030892
 23
867.56097547482761
 33
0.0
  0
TEXT
  8
SUNPOU
  40
30
  5
904
  72
0
  71
0
 10
3351.64
 20
994.461
 30
0.000000
  1
72
  7
EXT08
  0
POINT
  5
897
  8
DEFPOINTS
 62
     0
 10
3328.6449898030901
 20
1227.560975474827
 30
0.0
  0
POINT
  5
898
  8
DEFPOINTS
 62
     0
 10
3328.6449898030901
 20
867.56097547482761
 30
0.0
  0
POINT
  5
899
  8
DEFPOINTS
 62
     0
 10
3438.6449898030892
 20
867.56097547482761
 30
0.0
  0
ENDBLK
  5
7DC
  8
0
  0
BLOCK
  8
0
  2
*D17
 70
     1
 10
0.0
 20
0.0
 30
0.0
  3
*D17
  1

  0
LINE
  5
89A
  8
SUNPOU
 10
2543.6449816489239
 20
1332.560975474827
 30
0.0
 11
2943.6449816489248
 21
1332.560975474827
 31
0.0
  0
LINE
  5
89B
  8
SUNPOU
 10
2543.6449816489239
 20
762.5609754748275
 30
0.0
 11
2943.6449816489239
 21
762.56097547482739
 31
0.0
  0
LINE
  5
89C
  8
SUNPOU
 10
2933.6449816489248
 20
1312.560975474827
 30
0.0
 11
2933.6449816489239
 21
782.56097547482727
 31
0.0
  0
SOLID
  5
89D
  8
SUNPOU
 10
2930.3116483155909
 20
1312.560975474827
 30
0.0
 11
2936.9783149822579
 21
1312.560975474827
 31
0.0
 12
2933.6449816489248
 22
1332.560975474827
 32
0.0
 13
2933.6449816489248
 23
1332.560975474827
 33
0.0
  0
SOLID
  5
89E
  8
SUNPOU
 10
2930.3116483155909
 20
782.56097547482727
 30
0.0
 11
2936.978314982257
 21
782.56097547482727
 31
0.0
 12
2933.6449816489239
 22
762.56097547482739
 32
0.0
 13
2933.6449816489239
 23
762.56097547482739
 33
0.0
  0
TEXT
  8
SUNPOU
  40
30
  5
905
  72
0
  71
0
 10
2846.64
 20
994.461
 30
0.000000
  1
%%c114
  7
EXT08
  0
POINT
  5
8A0
  8
DEFPOINTS
 62
     0
 10
2533.6449816489239
 20
1332.560975474827
 30
0.0
  0
POINT
  5
8A1
  8
DEFPOINTS
 62
     0
 10
2533.6449816489248
 20
762.5609754748275
 30
0.0
  0
POINT
  5
8A2
  8
DEFPOINTS
 62
     0
 10
2933.6449816489239
 20
762.56097547482739
 30
0.0
  0
ENDBLK
  5
7D1
  8
0
  0
BLOCK
  8
0
  2
*D18
 70
     1
 10
0.0
 20
0.0
 30
0.0
  3
*D18
  1

  0
LINE
  5
8A3
  8
SUNPOU
 10
2371.8619823251788
 20
1249.228062154597
 30
0.0
 11
2102.121171609479
 21
1225.6287991266811
 31
0.0
  0
LINE
  5
8A4
  8
SUNPOU
 10
2411.5031338522172
 20
821.05368337868617
 30
0.0
 11
2139.5981409909732
 21
797.26507894723011
 31
0.0
  0
LINE
  5
8A5
  8
SUNPOU
 10
2113.8262334453502
 20
1206.576462592323
 30
0.0
 11
2147.816973116936
 21
818.06053033654155
 31
0.0
  0
SOLID
  5
8A6
  8
SUNPOU
 10
2117.146882438989
 20
1206.866981734815
 30
0.0
 11
2110.505584451711
 21
1206.2859434498309
 31
0.0
 12
2112.0831185903971
 22
1226.5003565541581
 32
0.0
 13
2112.0831185903971
 23
1226.5003565541581
 33
0.0
  0
SOLID
  5
8A7
  8
SUNPOU
 10
2151.1376221105761
 20
818.3510494790338
 30
0.0
 11
2144.4963241232972
 21
817.77001119404929
 31
0.0
 12
2149.56008797189
 22
798.13663637470665
 32
0.0
 13
2149.56008797189
 23
798.13663637470665
 33
0.0
  0
TEXT
  8
SUNPOU
  40
30
  5
906
  72
0
  71
0
 10
2097.72
 20
961.572
 30
0.000000
  1
%%C86
  7
EXT08
  0
POINT
  5
8A9
  8
DEFPOINTS
 62
     0
 10
2381.8239293060969
 20
1250.099619582074
 30
0.0
  0
POINT
  5
8AA
  8
DEFPOINTS
 62
     0
 10
2421.4650808331348
 20
821.92524080616295
 30
0.0
  0
POINT
  5
8AB
  8
DEFPOINTS
 62
     0
 10
2149.56008797189
 20
798.13663637470665
 30
0.0
  0
ENDBLK
  5
7C6
  8
0
  0
BLOCK
  8
0
  2
*D19
 70
     1
 10
0.0
 20
0.0
 30
0.0
  3
*D19
  1

  0
LINE
  5
8AC
  8
SUNPOU
 10
2248.857935265301
 20
1032.6835357726609
 30
0.0
 11
2218.353425303621
 21
1381.351680104774
 31
0.0
  0
LINE
  5
8AD
  8
SUNPOU
 10
2333.9447168958031
 20
1281.04442559164
 30
0.0
 11
2324.3575851935602
 21
1390.6258423817339
 31
0.0
  0
LINE
  5
8AE
  8
SUNPOU
 10
2239.1488766929319
 20
1373.1328479788101
 30
0.0
 11
2305.3052486592019
 21
1378.920780545863
 31
0.0
  0
TEXT
  8
SUNPOU
  40
30
  5
907
  72
0
  71
0
 10
2208.09
 20
1353.66
 30
0.000000
  1
19
  7
EXT08
  0
SOLID
  5
8B0
  8
SUNPOU
 10
2238.858357550439
 20
1376.4534969724491
 30
0.0
 11
2239.439395835424
 21
1369.8121989851711
 31
0.0
 12
2219.224982731097
 22
1371.389733123857
 32
0.0
 13
2219.224982731097
 23
1371.389733123857
 33
0.0
  0
SOLID
  5
8B1
  8
SUNPOU
 10
2305.0147295167098
 20
1382.241429539502
 30
0.0
 11
2305.5957678016939
 21
1375.600131552223
 31
0.0
 12
2325.2291426210372
 22
1380.663895400816
 32
0.0
 13
2325.2291426210372
 23
1380.663895400816
 33
0.0
  0
POINT
  5
8B2
  8
DEFPOINTS
 62
     0
 10
2249.7294926927771
 20
1022.721588791744
 30
0.0
  0
POINT
  5
8B3
  8
DEFPOINTS
 62
     0
 10
2334.8162743232788
 20
1271.082478610723
 30
0.0
  0
POINT
  5
8B4
  8
DEFPOINTS
 62
     0
 10
2325.2291426210372
 20
1380.663895400816
 30
0.0
  0
ENDBLK
  5
7BB
  8
0
  0
BLOCK
  8
0
  2
*D20
 70
     1
 10
0.0
 20
0.0
 30
0.0
  3
*D20
  1

  0
LINE
  5
888
  8
SUNPOU
 10
3263.6449898030892
 20
1262.560975474827
 30
0.0
 11
3031.2004208932149
 21
1262.560975474827
 31
0.0
  0
LINE
  5
889
  8
SUNPOU
 10
3263.6449898030892
 20
832.56097547482739
 30
0.0
 11
3031.200420893214
 21
832.56097547482739
 31
0.0
  0
LINE
  5
88A
  8
SUNPOU
 10
3041.2004208932149
 20
1242.560975474827
 30
0.0
 11
3041.200420893214
 21
852.5609754748275
 31
0.0
  0
SOLID
  5
88B
  8
SUNPOU
 10
3037.8670875598809
 20
1242.560975474827
 30
0.0
 11
3044.5337542265479
 21
1242.560975474827
 31
0.0
 12
3041.2004208932149
 22
1262.560975474827
 32
0.0
 13
3041.2004208932149
 23
1262.560975474827
 33
0.0
  0
SOLID
  5
88C
  8
SUNPOU
 10
3037.86708755988
 20
852.5609754748275
 30
0.0
 11
3044.533754226547
 21
852.5609754748275
 31
0.0
 12
3041.200420893214
 22
832.56097547482739
 32
0.0
 13
3041.200420893214
 23
832.56097547482739
 33
0.0
  0
TEXT
  8
SUNPOU
  40
30
  5
908
  72
0
  71
0
 10
2954.20
 20
994.461
 30
0.000000
  1
%%c86
  7
EXT08
  0
POINT
  5
88E
  8
DEFPOINTS
 62
     0
 10
3273.6449898030892
 20
1262.560975474827
 30
0.0
  0
POINT
  5
88F
  8
DEFPOINTS
 62
     0
 10
3273.6449898030892
 20
832.56097547482739
 30
0.0
  0
POINT
  5
890
  8
DEFPOINTS
 62
     0
 10
3041.200420893214
 20
832.56097547482739
 30
0.0
  0
ENDBLK
  5
7E7
  8
0
  0
BLOCK
  8
0
  2
*X21
 70
     1
 10
0.0
 20
0.0
 30
0.0
  3
*X21
  1

  0
LINE
  5
587
  8
0
 62
     0
 10
3283.5259799751411
 20
1197.5609754748259
 30
0.0
 11
3303.525979975142
 21
1217.560975474827
 31
0.0
  0
LINE
  5
588
  8
0
 62
     0
 10
3288.1706409158141
 20
1237.5609754748259
 30
0.0
 11
3313.6449898030892
 21
1263.0353243621021
 31
0.0
  0
LINE
  5
589
  8
0
 62
     0
 10
3273.6449898030892
 20
1258.3906634214279
 30
0.0
 11
3313.6449898030892
 21
1298.3906634214291
 31
0.0
  0
LINE
  5
58A
  8
0
 62
     0
 10
3244.0487285847171
 20
1264.1497412623839
 30
0.0
 11
3293.5972025946849
 21
1313.6982152723519
 31
0.0
  0
LINE
  5
58B
  8
0
 62
     0
 10
3210.4946178230039
 20
1265.950969559997
 30
0.0
 11
3260.1397841102062
 21
1315.5961358472
 31
0.0
  0
LINE
  5
58C
  8
0
 62
     0
 10
3176.9405070612902
 20
1267.752197857611
 30
0.0
 11
3226.682365625727
 21
1317.4940564220481
 31
0.0
  0
LINE
  5
58D
  8
0
 62
     0
 10
3143.3863962995761
 20
1269.553426155225
 30
0.0
 11
3193.224947141247
 21
1319.3919769968959
 31
0.0
  0
LINE
  5
58E
  8
0
 62
     0
 10
3109.8322855378619
 20
1271.354654452839
 30
0.0
 11
3159.7675286567669
 21
1321.2898975717439
 31
0.0
  0
LINE
  5
58F
  8
0
 62
     0
 10
3087.360381648924
 20
1284.238089623228
 30
0.0
 11
3137.3603816489249
 21
1334.2380896232289
 31
0.0
  0
LINE
  5
590
  8
0
 62
     0
 10
3087.360381648924
 20
1319.593428682555
 30
0.0
 11
3137.3603816489249
 21
1369.5934286825559
 31
0.0
  0
LINE
  5
591
  8
0
 62
     0
 10
3087.360381648924
 20
1354.9487677418831
 30
0.0
 11
3137.3603816489249
 21
1404.948767741884
 31
0.0
  0
LINE
  5
592
  8
0
 62
     0
 10
3087.360381648924
 20
1390.304106801211
 30
0.0
 11
3137.3603816489249
 21
1440.304106801211
 31
0.0
  0
LINE
  5
593
  8
0
 62
     0
 10
3087.360381648924
 20
1425.6594458605371
 30
0.0
 11
3108.4872936667862
 21
1446.786357878399
 31
0.0
  0
LINE
  5
594
  8
0
 62
     0
 10
3087.360381648924
 20
789.26334279264472
 30
0.0
 11
3122.546870824639
 21
824.44983196835983
 31
0.0
  0
LINE
  5
595
  8
0
 62
     0
 10
3087.360381648924
 20
753.9080037333174
 30
0.0
 11
3159.907792755298
 21
826.45541483969089
 31
0.0
  0
LINE
  5
596
  8
0
 62
     0
 10
3087.360381648924
 20
718.55266467399008
 30
0.0
 11
3137.360381648924
 21
768.55266467398974
 31
0.0
  0
LINE
  5
597
  8
0
 62
     0
 10
3141.6097436718401
 20
772.80202669690584
 30
0.0
 11
3197.2687146859562
 21
828.46099771102183
 31
0.0
  0
LINE
  5
598
  8
0
 62
     0
 10
3087.3603816489249
 20
683.19732561466333
 30
0.0
 11
3137.360381648924
 21
733.1973256146631
 31
0.0
  0
LINE
  5
599
  8
0
 62
     0
 10
3281.724031509088
 20
877.56097547482716
 30
0.0
 11
3301.7240315090889
 21
897.5609754748283
 31
0.0
  0
LINE
  5
59A
  8
0
 62
     0
 10
3179.0912770585792
 20
774.92822102431739
 30
0.0
 11
3234.6296366166139
 21
830.46658058235255
 31
0.0
  0
LINE
  5
59B
  8
0
 62
     0
 10
3087.3603816489249
 20
647.84198655533601
 30
0.0
 11
3137.360381648924
 21
697.84198655533555
 31
0.0
  0
LINE
  5
59C
  8
0
 62
     0
 10
3273.6449898030892
 20
834.12659470950052
 30
0.0
 11
3297.0793705684168
 21
857.56097547482739
 31
0.0
  0
LINE
  5
59D
  8
0
 62
     0
 10
3216.5728104453178
 20
777.05441535172929
 30
0.0
 11
3271.9905585472729
 21
832.47216345368349
 31
0.0
  0
LINE
  5
59E
  8
0
 62
     0
 10
3124.953291622448
 20
650.07955746953235
 30
0.0
 11
3137.3603816489249
 21
662.48664749600835
 31
0.0
  0
LINE
  5
59F
  8
0
 62
     0
 10
3254.0543438320569
 20
779.18060967914096
 30
0.0
 11
3313.6449898030901
 21
838.77125565017343
 31
0.0
  0
LINE
  5
5A0
  8
0
 62
     0
 10
3291.535877218796
 20
781.30680400655285
 30
0.0
 11
3313.6449898030892
 21
803.41591659084565
 31
0.0
  0
ENDBLK
  5
5A1
  8
0
  0
BLOCK
  8
0
  2
*D22
 70
     1
 10
0.0
 20
0.0
 30
0.0
  3
*D22
  1

  0
LINE
  5
8E9
  8
SUNPOU
 10
2420.1724561150691
 20
811.77395242170587
 30
0.0
 11
2434.8159543431598
 21
644.39800177922541
 31
0.0
  0
ARC
  5
8EA
  8
SUNPOU
 10
2533.6449816489239
 20
-485.22294935674012
 30
0.0
 40
1143.935919654866
 50
87.996513325844674
 51
88.998256662922302
  0
ARC
  5
8EB
  8
SUNPOU
 10
2533.6449816489239
 20
-485.22294935674012
 30
0.0
 40
1143.935919654866
 50
96.001743337077357
 51
97.003486674154985
  0
ARC
  5
8EC
  8
SUNPOU
 10
2533.6449816489239
 20
-485.22294935674012
 30
0.0
 40
1143.935919654866
 50
89.999999999999915
 51
94.999999999999744
  0
SOLID
  5
8ED
  8
SUNPOU
 10
2553.615078291326
 20
655.20492936275286
 30
0.0
 11
2553.6733566140201
 21
661.8713412973359
 31
0.0
 12
2533.6449816489248
 22
658.71297029812581
 32
0.0
 13
2533.6449816489248
 23
658.71297029812581
 33
0.0
  0
SOLID
  5
8EE
  8
SUNPOU
 10
2413.7169657937529
 20
655.76071330805109
 30
0.0
 11
2414.3560384334551
 21
649.12474837402453
 31
0.0
 12
2433.9443969156841
 22
654.35994876014274
 32
0.0
 13
2433.9443969156841
 23
654.35994876014274
 33
0.0
  0
TEXT
  8
SUNPOU
  40
30
  5
909
  72
0
  71
0
 10
2428.10
 20
632.966
 30
0.000000
  1
5°0'
  7
EXT08
  0
POINT
  5
8F0
  8
DEFPOINTS
 62
     0
 10
2467.131023316047
 20
656.77761177425873
 30
0.0
  0
POINT
  5
8F1
  8
DEFPOINTS
 62
     0
 10
2400.5624139968459
 20
1035.917759492349
 30
0.0
  0
POINT
  5
8F2
  8
DEFPOINTS
 62
     0
 10
2533.6449816489239
 20
551.08290725114625
 30
0.0
  0
POINT
  5
8F3
  8
DEFPOINTS
 62
     0
 10
2533.6449816489248
 20
1397.560975474827
 30
0.0
  0
POINT
  5
8F4
  8
DEFPOINTS
 62
     0
 10
2419.3008986875921
 20
821.7358994026232
 30
0.0
  0
ENDBLK
  5
779
  8
0
  0
BLOCK
  8
0
  2
*X23
 70
     1
 10
0.0
 20
0.0
 30
0.0
  3
*X23
  1

  0
LINE
  5
640
  8
0
 62
     0
 10
2716.0308976460701
 20
1195.7513180949929
 30
0.0
 11
2751.5415872840281
 21
1231.2620077329509
 31
0.0
  0
LINE
  5
641
  8
0
 62
     0
 10
2699.2341805765641
 20
1214.3099400848139
 30
0.0
 11
2734.5896971472362
 21
1249.6654566554851
 31
0.0
  0
LINE
  5
642
  8
0
 62
     0
 10
2680.5514743406429
 20
1230.9825729082211
 30
0.0
 11
2716.0841202857519
 21
1266.51521885333
 31
0.0
  0
LINE
  5
643
  8
0
 62
     0
 10
2659.9477325752609
 20
1245.7341702021661
 30
0.0
 11
2696.0053971864718
 21
1281.791834813376
 31
0.0
  0
LINE
  5
644
  8
0
 62
     0
 10
2637.3157761893558
 20
1258.457552875589
 30
0.0
 11
2674.2952052779428
 21
1295.4369819641749
 31
0.0
  0
LINE
  5
645
  8
0
 62
     0
 10
2612.4549067577059
 20
1268.9520225032661
 30
0.0
 11
2650.848866013177
 21
1307.345981758737
 31
0.0
  0
LINE
  5
646
  8
0
 62
     0
 10
2585.023300684416
 20
1276.8757554893029
 30
0.0
 11
2625.5002948797369
 21
1317.3527496846229
 31
0.0
  0
LINE
  5
647
  8
0
 62
     0
 10
2554.4320130450992
 20
1281.6398069093129
 30
0.0
 11
2597.993678062242
 21
1325.201471926456
 31
0.0
  0
LINE
  5
648
  8
0
 62
     0
 10
2426.1677815901362
 20
1188.7309145136769
 30
0.0
 11
2427.2510178995858
 21
1189.8141508231281
 31
0.0
  0
LINE
  5
649
  8
0
 62
     0
 10
2533.6449816489248
 20
1296.2081145724669
 30
0.0
 11
2567.9283162834981
 21
1330.4914492070391
 31
0.0
  0
LINE
  5
64A
  8
0
 62
     0
 10
2519.576344210373
 20
1282.1394771339151
 30
0.0
 11
2533.6449816489248
 21
1296.208114572466
 31
0.0
  0
LINE
  5
64B
  8
0
 62
     0
 10
2387.4841804924481
 20
1185.4026524753169
 30
0.0
 11
2409.423943242331
 21
1207.3424152252001
 31
0.0
  0
LINE
  5
64C
  8
0
 62
     0
 10
2533.6449816489248
 20
1331.5634536317939
 30
0.0
 11
2534.6407638687028
 21
1332.5592358515721
 31
0.0
  0
LINE
  5
64D
  8
0
 62
     0
 10
2477.9463966442031
 20
1275.8648686270731
 30
0.0
 11
2533.6449816489248
 21
1331.563453631793
 31
0.0
  0
LINE
  5
64E
  8
0
 62
     0
 10
2392.6801048945281
 20
1225.9539159367239
 30
0.0
 11
2496.9097436615589
 21
1330.1835547037549
 31
0.0
  0
LINE
  5
64F
  8
0
 62
     0
 10
2381.4934150751178
 20
1250.122565176642
 30
0.0
 11
2451.9813718590899
 21
1320.6105219606141
 31
0.0
  0
LINE
  5
650
  8
0
 62
     0
 10
2348.4332428699872
 20
1252.4177320308379
 30
0.0
 11
2389.3467393108249
 21
1293.331228471676
 31
0.0
  0
LINE
  5
651
  8
0
 62
     0
 10
2422.853525252664
 20
867.21860664225949
 30
0.0
 11
2444.8547826051931
 21
889.21986399478874
 31
0.0
  0
LINE
  5
652
  8
0
 62
     0
 10
2730.9109534205081
 20
1175.2760348101031
 30
0.0
 11
2766.9227493015278
 21
1211.287830691123
 31
0.0
  0
LINE
  5
653
  8
0
 62
     0
 10
2391.5186388002739
 20
800.52838113054236
 30
0.0
 11
2410.313514758865
 21
819.32325708913254
 31
0.0
  0
LINE
  5
654
  8
0
 62
     0
 10
2743.7723589385951
 20
1152.782101268863
 30
0.0
 11
2780.6775759932088
 21
1189.687318323477
 31
0.0
  0
LINE
  5
655
  8
0
 62
     0
 10
2418.7719595121889
 20
827.78170184245721
 30
0.0
 11
2439.5973636004669
 21
848.60710593073543
 31
0.0
  0
LINE
  5
656
  8
0
 62
     0
 10
2414.846764983432
 20
788.50116825437328
 30
0.0
 11
2458.5387969193248
 21
832.19320019026634
 31
0.0
  0
LINE
  5
657
  8
0
 62
     0
 10
2754.4216250396139
 20
1128.0760283105551
 30
0.0
 11
2792.7047888693792
 21
1166.359192140319
 31
0.0
  0
LINE
  5
658
  8
0
 62
     0
 10
2440.0638836135158
 20
778.36294782512982
 30
0.0
 11
2480.3783830741509
 21
818.67744728576395
 31
0.0
  0
LINE
  5
659
  8
0
 62
     0
 10
2762.5285098379882
 20
1100.827574049601
 30
0.0
 11
2802.8430092986218
 21
1141.1420735102349
 31
0.0
  0
LINE
  5
65A
  8
0
 62
     0
 10
2467.4186369322961
 20
770.36236208458263
 30
0.0
 11
2510.7365075994112
 21
813.68023275169776
 31
0.0
  0
LINE
  5
65B
  8
0
 62
     0
 10
2767.525724372053
 20
1070.46944952434
 30
0.0
 11
2810.843595039169
 21
1113.7873201914549
 31
0.0
  0
LINE
  5
65C
  8
0
 62
     0
 10
2497.2996089231351
 20
764.88799501609412
 30
0.0
 11
2533.6449816489248
 21
801.23336774188328
 31
0.0
  0
LINE
  5
65D
  8
0
 62
     0
 10
2779.9725893818681
 20
1047.560975474827
 30
0.0
 11
2816.3179621076579
 21
1083.906348200617
 31
0.0
  0
LINE
  5
65E
  8
0
 62
     0
 10
2533.6449816489248
 20
801.23336774188328
 30
0.0
 11
2545.259794407717
 21
812.84818050067565
 31
0.0
  0
LINE
  5
65F
  8
0
 62
     0
 10
2768.357776623076
 20
1035.9461627160349
 30
0.0
 11
2779.9725893818681
 21
1047.560975474827
 31
0.0
  0
LINE
  5
660
  8
0
 62
     0
 10
2530.3470108543552
 20
762.58005788798584
 30
0.0
 11
2533.6449816489248
 21
765.87802868255562
 31
0.0
  0
LINE
  5
661
  8
0
 62
     0
 10
2815.327928441196
 20
1047.560975474827
 30
0.0
 11
2818.6258992357662
 21
1050.8589462693969
 31
0.0
  0
LINE
  5
662
  8
0
 62
     0
 10
2533.6449816489248
 20
765.87802868255562
 30
0.0
 11
2586.303807253074
 21
818.53685428670508
 31
0.0
  0
LINE
  5
663
  8
0
 62
     0
 10
2762.6691028370469
 20
994.90214987067804
 30
0.0
 11
2815.327928441196
 21
1047.560975474827
 31
0.0
  0
LINE
  5
664
  8
0
 62
     0
 10
2567.72867413527
 20
764.60638210957359
 30
0.0
 11
2642.3225623392768
 21
839.20027031358097
 31
0.0
  0
LINE
  5
665
  8
0
 62
     0
 10
2742.005686810171
 20
938.8833947844746
 30
0.0
 11
2816.5995750141778
 21
1013.477282988482
 31
0.0
  0
LINE
  5
666
  8
0
 62
     0
 10
2612.0298148762049
 20
773.55218379118219
 30
0.0
 11
2807.6537733325699
 21
969.17614224754652
 31
0.0
  0
LINE
  5
667
  8
0
 62
     0
 10
2672.5177797052961
 20
798.68480956094493
 30
0.0
 11
2782.5211475628071
 21
908.68817741845646
 31
0.0
  0
ENDBLK
  5
668
  8
0
  0
ENDSEC
  0
SECTION
  2
ENTITIES
  0
LINE
  5
194
  8
SJC
 10
316.5558854115352
 20
867.56097547482773
 30
0.0
 11
566.49498164893157
 21
867.56097547482761
 31
0.0
1001
ACAD
1000
ASC_BOUNDS
1002
{
1070
    19
1005
38A
1002
}
  0
LINE
  5
195
  8
SJC
 10
423.64498164893121
 20
467.5609754748275
 30
0.0
 11
823.64498164893121
 21
467.5609754748275
 31
0.0
1001
ACAD
1000
ASC_BOUNDS
1002
{
1070
    19
1005
38A
1005
38A
1002
}
  0
LINE
  5
196
  8
SJC
 10
680.79498164893084
 20
867.56097547482761
 30
0.0
 11
950.48966373109931
 21
867.56097547482761
 31
0.0
1001
ACAD
1000
ASC_BOUNDS
1002
{
1070
    19
1005
38A
1002
}
  0
LINE
  5
19C
  8
SJC
 10
566.64498164893109
 20
1627.5609754748241
 30
0.0
 11
566.64498164893109
 21
477.56097547482739
 31
0.0
1001
ACAD
1000
ASC_BOUNDS
1002
{
1070
    19
1005
38A
1002
}
  0
LINE
  5
19D
  8
SJC
 10
680.64498164893075
 20
1627.560975474828
 30
0.0
 11
680.64498164893075
 21
477.56097547482739
 31
0.0
1001
ACAD
1000
ASC_BOUNDS
1002
{
1070
    19
1005
38A
1002
}
  0
TEXT
  5
19E
  8
MOJI2
 10
437.7211897777961
 20
2412.5609475405699
 30
0.0
 40
40.0
  1
YH-3MS
 41
0.8
  7
EXT08
  0
LINE
  5
19F
  8
MOJI2
 10
432.56002766824167
 20
2397.5609475405699
 30
0.0
 11
640.05909965610863
 21
2397.5609475405699
 31
0.0
  0
LINE
  5
1A0
  8
CENTER
 10
623.64498164893155
 20
1747.560975474828
 30
0.0
 11
623.64498164893075
 21
467.5609754748275
 31
0.0
  0
LINE
  5
1A1
  8
MOJI
 10
750.64498164893075
 20
1062.560975474827
 30
0.0
 11
1060.062114007538
 21
1062.560975474827
 31
0.0
  0
TEXT
  5
1A2
  8
MOJI
 10
772.87958397201828
 20
1072.4567317660481
 30
0.0
 40
30.0
  1
支柱 %%c114×1200
 41
0.8
  7
EXT08
  0
TEXT
  5
1A3
  8
MOJI
 10
817.46969556423801
 20
1020.175677264411
 30
0.0
 40
30.0
  1
FCD450
 41
0.8
  7
EXT08
  0
LINE
  5
1A4
  8
SJC
 10
423.64498164893121
 20
867.56097547482761
 30
0.0
 11
423.64498164893121
 21
467.5609754748275
 31
0.0
1001
ACAD
1000
ASC_BOUNDS
1002
{
1070
    19
1005
38A
1002
}
  0
LINE
  5
1A5
  8
SJC
 10
823.64498164893121
 20
867.56097547482739
 30
0.0
 11
823.64498164893121
 21
467.5609754748275
 31
0.0
1001
ACAD
1000
ASC_BOUNDS
1002
{
1070
    19
1005
38A
1002
}
  0
DIMENSION
  5
1A6
  8
SUNPOU
  2
*D4
 10
823.64498164893121
 20
301.49021927871757
 30
0.0
 11
623.64498164893121
 21
328.49021927871757
 31
0.0
 70
     0
  1
□<>
 13
423.64498164893121
 23
466.49021927871757
 33
0.0
 14
823.64498164893121
 24
466.49021927871757
 34
0.0
1001
ACAD
1000
DSTYLE
1002
{
1070
   287
1070
     5
1070
    40
1040
10.0
1070
    41
1040
2.0
1070
    42
1040
1.0
1070
    43
1040
6.0
1070
    44
1040
1.0
1070
    73
1070
     0
1070
    74
1070
     0
1070
    77
1070
     1
1070
    78
1070
     8
1070
   140
1040
3.0
1070
   147
1040
1.1999999999999991
1070
   172
1070
     1
1070
   176
1070
   256
1070
   177
1070
   256
1070
   178
1070
   256
1070
   271
1070
     1
1070
   275
1070
     1
1070
   279
1070
     2
1070
   340
1005
2AB
1002
}
  0
DIMENSION
  5
1B2
  8
SUNPOU
  2
*D7
 10
241.4949941166187
 20
867.56100533135441
 30
0.0
 11
214.49499411661861
 21
1267.560990403091
 31
0.0
 70
     0
  1
800（表面エンボス模様）
 13
623.64498164893155
 23
1667.560975474827
 33
0.0
 14
241.4949941166187
 24
867.56100533135441
 34
0.0
 50
90.0
1001
ACAD
1000
DSTYLE
1002
{
1070
   287
1070
     5
1070
    40
1040
10.0
1070
    41
1040
2.0
1070
    42
1040
1.0
1070
    43
1040
6.0
1070
    44
1040
1.0
1070
    73
1070
     0
1070
    74
1070
     0
1070
    77
1070
     1
1070
    78
1070
     8
1070
   140
1040
3.0
1070
   147
1040
1.1999999999999991
1070
   172
1070
     1
1070
   176
1070
   256
1070
   177
1070
   256
1070
   178
1070
   256
1070
   271
1070
     1
1070
   275
1070
     1
1070
   279
1070
     2
1070
   340
1005
2AB
1002
}
  0
LINE
  5
1B3
  8
SJC2
 10
548.64498164893121
 20
477.56097547482739
 30
0.0
 11
548.64498164893121
 21
467.5609754748275
 31
0.0
1001
ACAD
1000
ASC_BOUNDS
1002
{
1070
    19
1005
38A
1002
}
  0
LINE
  5
1B4
  8
SJC2
 10
698.64498164893075
 20
477.56097547482739
 30
0.0
 11
698.64498164893075
 21
467.5609754748275
 31
0.0
1001
ACAD
1000
ASC_BOUNDS
1002
{
1070
    19
1005
38A
1002
}
  0
LINE
  5
1B5
  8
SJC2
 10
548.64498164893121
 20
477.56097547482739
 30
0.0
 11
698.64498164893075
 21
477.56097547482739
 31
0.0
1001
ACAD
1000
ASC_BOUNDS
1002
{
1070
    19
1005
38A
1005
38A
1002
}
  0
DIMENSION
  5
1B6
  8
SUNPOU
  2
*D6
 10
328.64498164893121
 20
467.56097547482761
 30
0.0
 11
298.64498164893121
 21
497.56097547482739
 31
0.0
 70
   128
 13
533.64498164893121
 23
477.56097547482739
 33
0.0
 14
403.51998164893121
 24
467.5609754748275
 34
0.0
 50
90.0
1001
ACAD
1000
DSTYLE
1002
{
1070
   287
1070
     5
1070
    40
1040
10.0
1070
    41
1040
2.0
1070
    42
1040
1.0
1070
    43
1040
6.0
1070
    44
1040
1.0
1070
    73
1070
     0
1070
    74
1070
     0
1070
    77
1070
     1
1070
    78
1070
     8
1070
   140
1040
3.0
1070
   147
1040
1.1999999999999991
1070
   172
1070
     1
1070
   176
1070
   256
1070
   177
1070
   256
1070
   178
1070
   256
1070
   271
1070
     1
1070
   275
1070
     1
1070
   279
1070
     2
1070
   340
1005
2AB
1002
}
  0
LINE
  5
1B7
  8
CENTER
 10
523.64498164893121
 20
1567.560975474827
 30
0.0
 11
723.64498164893155
 21
1567.560975474827
 31
0.0
  0
CIRCLE
  5
1B8
  8
SJC
 10
623.64498164893155
 20
1567.560975474827
 30
0.0
 40
43.0
  0
DIMENSION
  5
1B9
  8
SUNPOU
  2
*D9
 10
423.64498164893121
 20
1567.560975474827
 30
0.0
 11
388.5990556959768
 21
1617.560975474827
 31
0.0
 70
   128
 13
623.64498164893155
 23
1667.560975474827
 33
0.0
 14
508.64498164893121
 24
1567.560975474827
 34
0.0
 50
90.0
1001
ACAD
1000
DSTYLE
1002
{
1070
   287
1070
     5
1070
    40
1040
10.0
1070
    41
1040
2.0
1070
    42
1040
1.0
1070
    43
1040
6.0
1070
    44
1040
1.0
1070
    73
1070
     0
1070
    74
1070
     0
1070
    77
1070
     1
1070
    78
1070
     8
1070
   140
1040
3.0
1070
   147
1040
1.1999999999999991
1070
   172
1070
     1
1070
   176
1070
   256
1070
   177
1070
   256
1070
   178
1070
   256
1070
   271
1070
     1
1070
   275
1070
     1
1070
   279
1070
     2
1070
   340
1005
2AB
1002
}
  0
ARC
  5
1BA
  8
SJC
 10
623.64498164893155
 20
1606.948475474831
 30
0.0
 40
60.61249999999805
 50
19.8811460662229
 51
160.11885393377659
  0
LINE
  5
1BC
  8
MOJI
 10
745.04498164893084
 20
1352.560975474827
 30
0.0
 11
1082.022241640763
 21
1352.560975474827
 31
0.0
  0
TEXT
  5
1BE
  8
MOJI
 10
760.2029294696631
 20
1362.80143584282
 30
0.0
 40
30.0
  1
反射板 ポリカーボネート
 41
0.8
  7
EXT08
  0
TEXT
  5
1BF
  8
MOJI
 10
325.01689503656149
 20
877.49662001421575
 30
0.0
 40
30.0
  1
GL
 41
0.8
  7
EXT08
  0
LINE
  5
1C0
  8
CENTER
 10
1628.644981648931
 20
1747.560975474828
 30
0.0
 11
1628.644981648931
 21
467.5609754748275
 31
0.0
  0
LINE
  5
1C1
  8
SJC
 10
1571.644981648931
 20
1627.5609754748241
 30
0.0
 11
1571.644981648931
 21
1610.560975474827
 31
0.0
  0
LINE
  5
1C2
  8
SJC
 10
1428.644981648931
 20
467.5609754748275
 30
0.0
 11
1828.644981648931
 21
467.5609754748275
 31
0.0
  0
LINE
  5
1C3
  8
SJC2
 10
1553.644981648931
 20
477.56097547482739
 30
0.0
 11
1703.644981648931
 21
477.56097547482739
 31
0.0
  0
LINE
  5
1C5
  8
SJC
 10
1428.644981648931
 20
867.56097547482761
 30
0.0
 11
1428.644981648931
 21
467.5609754748275
 31
0.0
  0
LINE
  5
1C7
  8
SJC2
 10
1553.644981648931
 20
477.56097547482739
 30
0.0
 11
1553.644981648931
 21
467.5609754748275
 31
0.0
  0
LINE
  5
1C8
  8
SJC
 10
1297.866785451371
 20
867.56097547482773
 30
0.0
 11
1571.4949816489309
 21
867.56097547482761
 31
0.0
  0
LINE
  5
1D4
  8
SJC
 10
1828.644981648931
 20
867.56097547482739
 30
0.0
 11
1828.644981648931
 21
467.5609754748275
 31
0.0
  0
LINE
  5
1D5
  8
SJC2
 10
1703.644981648931
 20
477.56097547482739
 30
0.0
 11
1703.644981648931
 21
467.5609754748275
 31
0.0
  0
LINE
  5
1D6
  8
SJC
 10
1685.7949816489311
 20
867.56097547482761
 30
0.0
 11
1946.7985373037079
 21
867.56097547482761
 31
0.0
  0
ARC
  5
1DD
  8
SJC
 10
1628.644981648931
 20
1606.948475474831
 30
0.0
 40
60.61249999999805
 50
19.8811460662229
 51
160.11885393377659
  0
LINE
  5
1DE
  8
MOJI
 10
1428.644981648931
 20
1567.560975474827
 30
0.0
 11
1828.644981648931
 21
1567.560975474827
 31
0.0
  0
LINE
  5
1DF
  8
SJC
 10
1571.644981648931
 20
1524.560975474827
 30
0.0
 11
1571.644981648931
 21
477.56097547482739
 31
0.0
  0
LINE
  5
1E0
  8
MOJI
 10
1428.644981648931
 20
1567.560975474827
 30
0.0
 11
1428.644981648931
 21
1482.560975474827
 31
0.0
  0
LINE
  5
1E1
  8
MOJI
 10
1398.644981648931
 20
1537.560975474827
 30
0.0
 11
1458.6449816489319
 21
1537.560975474827
 31
0.0
  0
LINE
  5
1E2
  8
MOJI
 10
1428.644981648931
 20
1482.560975474827
 30
0.0
 11
1398.644981648931
 21
1537.560975474827
 31
0.0
  0
LINE
  5
1E3
  8
MOJI
 10
1828.644981648931
 20
1482.560975474827
 30
0.0
 11
1858.644981648931
 21
1537.560975474827
 31
0.0
  0
LINE
  5
1E4
  8
MOJI
 10
1858.644981648931
 20
1537.560975474827
 30
0.0
 11
1798.644981648931
 21
1537.560975474827
 31
0.0
  0
LINE
  5
1E5
  8
MOJI
 10
1828.644981648931
 20
1567.560975474827
 30
0.0
 11
1828.644981648931
 21
1482.560975474827
 31
0.0
  0
TEXT
  5
1E6
  8
MOJI
 10
1413.286330262699
 20
1441.689140899703
 30
0.0
 40
30.0
  1
A
 41
0.8
  7
EXT08
  0
TEXT
  5
1E7
  8
MOJI
 10
1813.5234051408411
 20
1442.467426044725
 30
0.0
 40
30.0
  1
A
 41
0.8
  7
EXT08
  0
LINE
  5
1E8
  8
CENTER
 10
2483.6449816489312
 20
2147.560975474828
 30
0.0
 11
2483.6449816489312
 21
1747.560975474828
 31
0.0
  0
LINE
  5
1E9
  8
CENTER
 10
2283.6449816489312
 20
1947.560975474828
 30
0.0
 11
2683.6449816489321
 21
1947.560975474828
 31
0.0
  0
CIRCLE
  5
1EA
  8
SJC
 10
2483.6449816489312
 20
1947.560975474828
 30
0.0
 40
114.0
  0
CIRCLE
  5
1EB
  8
SJC
 10
2483.6449816489312
 20
1947.560975474828
 30
0.0
 40
150.0
  0
DIMENSION
  5
1EC
  8
SUNPOU
  2
*D15
 10
2238.6449816489312
 20
1833.560975474827
 30
0.0
 11
2211.6449816489312
 21
1947.560975474828
 31
0.0
 70
     0
  1
%%c<>
 13
2483.6449816489312
 23
2061.560975474828
 33
0.0
 14
2483.6449816489312
 24
1833.560975474827
 34
0.0
 50
90.0
1001
ACAD
1000
DSTYLE
1002
{
1070
   287
1070
     5
1070
    40
1040
10.0
1070
    41
1040
2.0
1070
    42
1040
1.0
1070
    43
1040
6.0
1070
    44
1040
1.0
1070
    73
1070
     0
1070
    74
1070
     0
1070
    77
1070
     1
1070
    78
1070
     8
1070
   140
1040
3.0
1070
   144
1040
0.5
1070
   147
1040
1.1999999999999991
1070
   172
1070
     1
1070
   176
1070
   256
1070
   177
1070
   256
1070
   178
1070
   256
1070
   271
1070
     1
1070
   275
1070
     1
1070
   279
1070
     2
1070
   340
1005
2AB
1002
}
  0
DIMENSION
  5
1ED
  8
SUNPOU
  2
*D14
 10
2123.6449816489312
 20
1797.560975474828
 30
0.0
 11
2096.6449816489312
 21
1947.560975474828
 31
0.0
 70
     0
  1
%%c<>
 13
2483.6449816489312
 23
2097.560975474828
 33
0.0
 14
2483.6449816489312
 24
1797.560975474828
 34
0.0
 50
90.0
1001
ACAD
1000
DSTYLE
1002
{
1070
   287
1070
     5
1070
    40
1040
10.0
1070
    41
1040
2.0
1070
    42
1040
1.0
1070
    43
1040
6.0
1070
    44
1040
1.0
1070
    73
1070
     0
1070
    74
1070
     0
1070
    77
1070
     1
1070
    78
1070
     8
1070
   140
1040
3.0
1070
   144
1040
0.5
1070
   147
1040
1.1999999999999991
1070
   172
1070
     1
1070
   176
1070
   256
1070
   177
1070
   256
1070
   178
1070
   256
1070
   271
1070
     1
1070
   275
1070
     1
1070
   279
1070
     2
1070
   340
1005
2AB
1002
}
  0
LINE
  5
1EE
  8
CENTER
 10
2943.6449816489312
 20
1947.560975474828
 30
0.0
 11
3343.6449816489321
 21
1947.560975474828
 31
0.0
  0
LINE
  5
1EF
  8
CENTER
 10
3143.6449816489312
 20
2147.560975474828
 30
0.0
 11
3143.6449816489312
 21
1747.560975474828
 31
0.0
  0
CIRCLE
  5
1F0
  8
SJC
 10
3143.6449816489312
 20
1947.560975474828
 30
0.0
 40
114.0
  0
LINE
  5
1F1
  8
CENTER
 10
2909.5392275973709
 20
1927.0793759291271
 30
0.0
 11
3143.6449816489312
 21
1947.560975474828
 31
0.0
  0
TEXT
  5
1F4
  8
MOJI
 10
1947.582405608068
 20
372.50435552669308
 30
0.0
 40
40.0
  1
（仕様）ダクタイル鋳鉄(FCD450)+亜鉛溶射(ZS-40)＋ウレタン系樹脂塗装(2回塗り)
 41
0.8
  7
EXT08
  0
LINE
  5
1F9
  8
MOJI2
 10
2410.3491244500292
 20
2258.2481781910878
 30
0.0
 11
2544.8145417273672
 21
2258.2481781910878
 31
0.0
  0
LINE
  5
1FA
  8
MOJI2
 10
3049.444658575469
 20
2258.556234059593
 30
0.0
 11
3234.863395184439
 21
2258.556234059593
 31
0.0
  0
TEXT
  5
1FB
  8
MOJI2
 10
3057.9581122013601
 20
2268.0824353615239
 30
0.0
 40
40.0
  1
A-A断面
 41
0.8
  7
EXT08
  0
TEXT
  5
1FC
  8
MOJI2
 10
2423.985575426796
 20
2272.6879672255018
 30
0.0
 40
40.0
  1
平面図
 41
0.8
  7
EXT08
  0
INSERT
  5
1FD
  8
HATCH
  2
*X0
 10
-191.35501835106879
 20
-52.439024525172499
 30
0.0
1001
ACAD
1000
HATCH
1002
{
1070
    16
1000
ANSI37
1040
50.0
1040
0.0
1002
}
  0
LINE
  5
1FE
  8
SJC
 10
1685.644981648931
 20
1627.560975474817
 30
0.0
 11
1685.644981648931
 21
477.56097547482739
 31
0.0
  0
LINE
  5
1FF
  8
SJC
 10
3060.4387907176601
 20
2026.609883061896
 30
0.0
 11
3075.4295784702581
 21
1855.2643949901151
 31
0.0
  0
LINE
  5
200
  8
SJC
 10
3076.3779058871278
 20
2028.004374945858
 30
0.0
 11
3091.3686936397248
 21
1856.6588868740771
 31
0.0
  0
LINE
  5
201
  8
SJC
 10
3092.5727152079139
 20
2026.4762693067439
 30
0.0
 11
3107.0521146578749
 21
1860.975976281117
 31
0.0
  0
LINE
  5
202
  8
SJC
 10
3060.4387907176601
 20
2026.609883061896
 30
0.0
 11
3076.3779058871278
 21
2028.004374945858
 31
0.0
  0
LINE
  5
203
  8
SJC
 10
3075.4295784702572
 20
1855.2643949901151
 30
0.0
 11
3091.3686936397239
 21
1856.6588868740771
 31
0.0
  0
LINE
  5
204
  8
SJC
 10
3078.6439551985668
 20
2002.1033127954729
 30
0.0
 11
3094.5830703680349
 21
2003.4978046794349
 31
0.0
  0
LINE
  5
205
  8
SJC
 10
3089.1026443282858
 20
1882.5599490244631
 30
0.0
 11
3105.0417594977539
 21
1883.9544409084251
 31
0.0
  0
ARC
  5
206
  8
SJC2
 10
1519.2988971758471
 20
1567.560975474827
 30
0.0
 40
67.742989007448131
 50
320.59840434940588
 51
39.401595650594082
  0
ARC
  5
207
  8
SJC2
 10
1542.706369856679
 20
1567.560975474827
 30
0.0
 40
51.830910202915589
 50
303.9401976703258
 51
56.059802329673722
  0
TEXT
  5
208
  8
MOJI2
 10
2630.41522660909
 20
1565.095140761784
 30
0.0
 40
40.0
  1
反射板取付部詳細
 41
0.8
  7
EXT08
  0
LINE
  5
209
  8
MOJI2
 10
2616.6018876750809
 20
1552.560975474827
 30
0.0
 11
2937.3731731368712
 21
1552.560975474827
 31
0.0
  0
LINE
  5
20A
  8
SJC
 10
3313.6449898030892
 20
1312.560975474827
 30
0.0
 11
3313.6449898030892
 21
782.5609754748275
 31
0.0
1001
ACAD
1000
ASC_BOUNDS
1002
{
1070
    19
1005
586
1005
586
1005
586
1005
586
1002
}
  0
LINE
  5
20B
  8
SJC
 10
3273.6449898030892
 20
1262.560975474827
 30
0.0
 11
3273.6449898030892
 21
832.56097547482625
 31
0.0
1001
ACAD
1000
ASC_BOUNDS
1002
{
1070
    19
1005
586
1005
586
1005
586
1005
586
1002
}
  0
ARC
  5
20C
  8
SJC
 10
2978.8430424308231
 20
1047.560975474827
 30
0.0
 40
249.80194737226631
 50
295.74798008806891
 51
64.252019911931114
  0
LINE
  5
20D
  8
SJC2
 10
3228.6449898030901
 20
1237.560975474827
 30
0.0
 11
3228.6449898030919
 21
857.56097547482875
 31
0.0
  0
LINE
  5
20E
  8
SJC2
 10
3258.644989803091
 20
1242.560975474827
 30
0.0
 11
3258.6449898030901
 21
852.56097547482523
 31
0.0
  0
LINE
  5
20F
  8
SJC2
 10
3263.6449898030892
 20
1247.560975474827
 30
0.0
 11
3263.6449898030919
 21
847.56097547482739
 31
0.0
  0
LINE
  5
210
  8
SJC2
 10
2373.1693184663959
 20
1234.28514168322
 30
0.0
 11
2389.8008313771088
 21
1044.1860792397381
 31
0.0
  0
LINE
  5
211
  8
SJC2
 10
2368.6241236896772
 20
1228.8683894790249
 30
0.0
 11
2384.7817321893908
 21
1044.1860792397381
 31
0.0
  0
LINE
  5
212
  8
SJC2
 10
2339.1740614606611
 20
1221.272743706134
 30
0.0
 11
2354.6671370630911
 21
1044.186079239737
 31
0.0
  0
LINE
  5
213
  8
SJC2
 10
2421.6229856578689
 20
1254.1428537075999
 30
0.0
 11
2439.9918232542759
 21
1044.1860792397381
 31
0.0
1001
ACAD
1000
ASC_BOUNDS
1002
{
1070
    19
1005
63F
1005
63F
1002
}
  0
LINE
  5
214
  8
SJC2
 10
2381.8239293060969
 20
1250.099619582074
 30
0.0
 11
2399.8390297525411
 21
1044.186079239737
 31
0.0
1001
ACAD
1000
ASC_BOUNDS
1002
{
1070
    19
1005
63F
1005
63F
1002
}
  0
LINE
  5
215
  8
CENTER
 10
2533.6449816489239
 20
629.95059389849303
 30
0.0
 11
2533.6449816489248
 21
1397.560975474827
 31
0.0
1001
ACAD
1000
ASC_BOUNDS
1002
{
1070
    19
1005
63F
1005
63F
1005
63F
1005
63F
1002
}
  0
CIRCLE
  5
216
  8
SJC
 10
2533.6449816489248
 20
1047.560975474827
 30
0.0
 40
285.0
1001
ACAD
1000
ASC_BOUNDS
1002
{
1070
    19
1005
63F
1005
63F
1005
63F
1005
63F
1002
}
  0
LINE
  5
217
  8
CENTER
 10
2533.6449816489248
 20
1047.560975474827
 30
0.0
 11
2184.9768373168149
 21
1017.056465513146
 31
0.0
  0
LINE
  5
218
  8
CENTER
 10
2533.6449816489248
 20
1047.560975474827
 30
0.0
 11
2184.9768373168131
 21
1017.056465513146
 31
0.0
  0
LINE
  5
219
  8
CENTER
 10
2183.6449816489239
 20
1047.560975474827
 30
0.0
 11
2883.6449816489248
 21
1047.560975474827
 31
0.0
1001
ACAD
1000
ASC_BOUNDS
1002
{
1070
    19
1005
63F
1005
63F
1002
}
  0
ARC
  5
21A
  8
SJC2
 10
2416.250447691426
 20
856.60271383583427
 30
0.0
 40
9.9999999999995843
 50
95.000000000004121
 51
274.9999999999971
  0
LINE
  5
21B
  8
SJC2
 10
2408.467394279196
 20
830.82628895606354
 30
0.0
 11
2409.338951706673
 21
820.86434197514654
 31
0.0
  0
LINE
  5
21C
  8
SJC2
 10
2388.5435003173639
 20
829.08317410110931
 30
0.0
 11
2418.4293412601178
 21
831.69784638353997
 31
0.0
  0
LINE
  5
21D
  8
SJC2
 10
2379.4531107639209
 20
818.24966969271679
 30
0.0
 11
2419.3008986875939
 21
821.73589940262309
 31
0.0
  0
LINE
  5
21E
  8
SJC2
 10
2409.3389517066748
 20
820.86434197514654
 30
0.0
 11
2408.4673942792019
 21
830.82628895606229
 31
0.0
  0
LINE
  5
21F
  8
SJC2
 10
2417.1220051188998
 20
846.64076685491727
 30
0.0
 11
2456.9697930425732
 21
850.12699656482334
 31
0.0
1001
ACAD
1000
ASC_BOUNDS
1002
{
1070
    19
1005
63F
1002
}
  0
LINE
  5
220
  8
SJC2
 10
2392.6529163803471
 20
839.48089979576673
 30
0.0
 11
2402.6148633612652
 21
840.35245722324225
 31
0.0
  0
LINE
  5
221
  8
SJC2
 10
2388.107721603626
 20
834.06414759156951
 30
0.0
 11
2408.0316155654609
 21
835.80726244652362
 31
0.0
  0
LINE
  5
222
  8
SJC2
 10
2377.7099959089678
 20
838.17356365455305
 30
0.0
 11
2387.6719428898891
 21
839.0451210820296
 31
0.0
  0
LINE
  5
223
  8
SJC2
 10
2372.2932437047721
 20
842.7187584312727
 30
0.0
 11
2392.2171376666088
 21
844.46187328622591
 31
0.0
  0
LINE
  5
224
  8
SJC2
 10
2392.2171376666088
 20
844.46187328622591
 30
0.0
 11
2392.6529163803471
 21
839.48089979576673
 31
0.0
  0
LINE
  5
225
  8
SJC2
 10
2388.5435003173639
 20
829.08317410110931
 30
0.0
 11
2387.6719428898891
 21
839.0451210820296
 31
0.0
  0
LINE
  5
226
  8
SJC2
 10
2379.6710001207912
 20
815.7591829474876
 30
0.0
 11
2377.7099959089678
 21
838.17356365455305
 31
0.0
  0
LINE
  5
227
  8
SJC2
 10
2376.5261879841601
 20
810.25312779646629
 30
0.0
 11
2419.3008986875921
 21
821.73589940262309
 31
0.0
1001
ACAD
1000
ASC_BOUNDS
1002
{
1070
    19
1005
63F
1002
}
  0
LINE
  5
228
  8
SJC2
 10
2453.4835633326661
 20
889.97478448849358
 30
0.0
 11
2413.6357754089931
 21
886.4885547785874
 31
0.0
1001
ACAD
1000
ASC_BOUNDS
1002
{
1070
    19
1005
63F
1002
}
  0
LINE
  5
229
  8
SJC2
 10
2455.2266781876192
 20
870.0508905266596
 30
0.0
 11
2415.3788902639471
 21
866.56466081675239
 31
0.0
1001
ACAD
1000
ASC_BOUNDS
1002
{
1070
    19
1005
63F
1002
}
  0
LINE
  5
22A
  8
SJC
 10
3157.3603816489249
 20
656.56097547482727
 30
0.0
 11
3067.3603816489249
 21
638.56097547482773
 31
0.0
1001
ACAD
1000
ASC_BOUNDS
1002
{
1070
    19
1005
586
1002
}
  0
LINE
  5
22B
  8
CENTER
 10
3037.360381648924
 20
1047.560975474827
 30
0.0
 11
3387.3603816489249
 21
1047.560975474827
 31
0.0
  0
ARC
  5
22C
  8
SJC2
 10
3273.644989803091
 20
867.56097547482761
 30
0.0
 40
9.9999999999995843
 50
90.000000000004121
 51
269.9999999999971
  0
LINE
  5
22D
  8
SJC2
 10
3273.644989803091
 20
857.56097547482739
 30
0.0
 11
3313.6449898030919
 21
857.56097547482739
 31
0.0
1001
ACAD
1000
ASC_BOUNDS
1002
{
1070
    19
1005
586
1002
}
  0
LINE
  5
22E
  8
SJC
 10
3313.6449898030892
 20
782.5609754748275
 30
0.0
 11
3137.3603816489249
 21
772.56097547482739
 31
0.0
1001
ACAD
1000
ASC_BOUNDS
1002
{
1070
    19
1005
586
1002
}
  0
LINE
  5
22F
  8
SJC
 10
3273.6449898030892
 20
832.56097547482739
 30
0.0
 11
3087.360381648924
 21
822.56097547482739
 31
0.0
1001
ACAD
1000
ASC_BOUNDS
1002
{
1070
    19
1005
586
1002
}
  0
LINE
  5
230
  8
SJC
 10
3087.360381648924
 20
822.56097547482739
 30
0.0
 11
3087.360381648924
 21
642.5609754748275
 31
0.0
1001
ACAD
1000
ASC_BOUNDS
1002
{
1070
    19
1005
586
1002
}
  0
LINE
  5
231
  8
SJC
 10
3137.3603816489249
 20
772.56097547482739
 30
0.0
 11
3137.3603816489249
 21
652.56097547482693
 31
0.0
1001
ACAD
1000
ASC_BOUNDS
1002
{
1070
    19
1005
586
1002
}
  0
LINE
  5
232
  8
SJC2
 10
3243.6449898030919
 20
842.56097547482625
 30
0.0
 11
3243.6449898030919
 21
852.5609754748275
 31
0.0
  0
LINE
  5
233
  8
SJC2
 10
3248.6449898030919
 20
857.56097547482739
 30
0.0
 11
3248.6449898030919
 21
852.5609754748275
 31
0.0
  0
LINE
  5
234
  8
SJC2
 10
3228.6449898030919
 20
857.56097547482739
 30
0.0
 11
3248.6449898030919
 21
857.56097547482739
 31
0.0
  0
LINE
  5
235
  8
SJC2
 10
3233.644989803091
 20
852.56097547482977
 30
0.0
 11
3243.6449898030919
 21
852.5609754748275
 31
0.0
  0
LINE
  5
236
  8
SJC2
 10
3243.6449898030919
 20
847.56097547482739
 30
0.0
 11
3263.6449898030919
 21
847.56097547482739
 31
0.0
  0
LINE
  5
237
  8
SJC2
 10
3248.6449898030919
 20
852.5609754748275
 30
0.0
 11
3258.644989803091
 21
852.56097547482625
 31
0.0
  0
LINE
  5
238
  8
SJC2
 10
3263.6449898030919
 20
832.56097547482739
 30
0.0
 11
3263.6449898030942
 21
842.56097547482523
 31
0.0
  0
LINE
  5
239
  8
SJC2
 10
3233.644989803091
 20
832.56097547482739
 30
0.0
 11
3273.644989803091
 21
832.56097547482739
 31
0.0
  0
LINE
  5
23A
  8
SJC2
 10
3243.6449898030919
 20
842.56097547482625
 30
0.0
 11
3273.644989803091
 21
842.56097547482625
 31
0.0
  0
LINE
  5
23B
  8
SJC2
 10
3263.6449898030919
 20
842.56097547482761
 30
0.0
 11
3263.6449898030919
 21
832.56097547482739
 31
0.0
  0
LINE
  5
23C
  8
SJC2
 10
3233.644989803091
 20
832.56097547482739
 30
0.0
 11
3233.644989803091
 21
852.56097547482977
 31
0.0
  0
LINE
  5
23D
  8
SJC2
 10
3313.6449898030919
 20
877.5609754748275
 30
0.0
 11
3273.644989803091
 21
877.5609754748275
 31
0.0
1001
ACAD
1000
ASC_BOUNDS
1002
{
1070
    19
1005
586
1002
}
  0
LINE
  5
23E
  8
SJC2
 10
3313.6449898030919
 20
897.56097547482875
 30
0.0
 11
3273.644989803091
 21
897.56097547482739
 31
0.0
1001
ACAD
1000
ASC_BOUNDS
1002
{
1070
    19
1005
586
1002
}
  0
LINE
  5
23F
  8
SJC2
 10
2427.3368405083652
 20
1188.8331939160159
 30
0.0
 11
2387.4890525846972
 21
1185.34696420611
 31
0.0
1001
ACAD
1000
ASC_BOUNDS
1002
{
1070
    19
1005
63F
1002
}
  0
LINE
  5
240
  8
SJC2
 10
2359.0979554224969
 20
1223.0158585610891
 30
0.0
 11
2358.662176708759
 21
1227.996832051547
 31
0.0
  0
LINE
  5
241
  8
SJC2
 10
2341.7582520255592
 20
1249.1038766173961
 30
0.0
 11
2352.2558619969009
 21
1250.0222984840059
 31
0.0
  0
LINE
  5
242
  8
SJC2
 10
2343.719256237383
 20
1226.6894959103299
 30
0.0
 11
2353.6812032182979
 21
1227.5610533378081
 31
0.0
  0
LINE
  5
243
  8
SJC2
 10
2358.662176708759
 20
1227.996832051547
 30
0.0
 11
2368.6241236896772
 21
1228.8683894790249
 31
0.0
  0
ARC
  5
244
  8
SJC2
 10
2384.874380302268
 20
1215.232805148863
 30
0.0
 40
9.9999999999995843
 50
95.000000000003283
 51
274.99999999999631
  0
LINE
  5
245
  8
SJC2
 10
2339.1740614606611
 20
1221.272743706134
 30
0.0
 11
2359.0979554224969
 21
1223.0158585610891
 31
0.0
  0
LINE
  5
246
  8
SJC2
 10
2425.593725653413
 20
1208.7570878778511
 30
0.0
 11
2385.7459377297441
 21
1205.2708581679451
 31
0.0
1001
ACAD
1000
ASC_BOUNDS
1002
{
1070
    19
1005
63F
1002
}
  0
LINE
  5
247
  8
SJC2
 10
2384.0028228747919
 20
1225.19475212978
 30
0.0
 11
2423.8506107984599
 21
1228.680981839686
 31
0.0
1001
ACAD
1000
ASC_BOUNDS
1002
{
1070
    19
1005
63F
1002
}
  0
LINE
  5
248
  8
SJC2
 10
2353.2454245045619
 20
1232.5420268282669
 30
0.0
 11
2373.1693184663959
 21
1234.28514168322
 31
0.0
  0
LINE
  5
249
  8
SJC2
 10
2341.9761413824272
 20
1246.613389872166
 30
0.0
 11
2381.8239293060969
 21
1250.099619582074
 31
0.0
  0
LINE
  5
24A
  8
SJC2
 10
2352.8096457908218
 20
1237.5230003187271
 30
0.0
 11
2382.6954867335739
 21
1240.137672601157
 31
0.0
  0
LINE
  5
24B
  8
SJC2
 10
2352.8096457908218
 20
1237.5230003187271
 30
0.0
 11
2353.6812032182979
 21
1227.5610533378081
 31
0.0
  0
LINE
  5
24C
  8
SJC2
 10
2341.7582520255592
 20
1249.1038766173961
 30
0.0
 11
2343.719256237383
 21
1226.6894959103299
 31
0.0
  0
LINE
  5
24D
  8
SJC2
 10
2371.861982325182
 20
1249.228062154597
 30
0.0
 11
2372.7335397526581
 21
1239.266115173682
 31
0.0
  0
LINE
  5
24E
  8
SJC2
 10
2336.375994667083
 20
1253.254793503367
 30
0.0
 11
2381.8239293060969
 21
1250.099619582074
 31
0.0
1001
ACAD
1000
ASC_BOUNDS
1002
{
1070
    19
1005
63F
1002
}
  0
LINE
  5
24F
  8
SJC
 10
3157.3603816489249
 20
1456.560975474827
 30
0.0
 11
3067.3603816489249
 21
1438.560975474828
 31
0.0
1001
ACAD
1000
ASC_BOUNDS
1002
{
1070
    19
1005
586
1002
}
  0
LINE
  5
250
  8
SJC
 10
3087.360381648924
 20
1272.560975474827
 30
0.0
 11
3087.360381648924
 21
1442.560975474827
 31
0.0
1001
ACAD
1000
ASC_BOUNDS
1002
{
1070
    19
1005
586
1002
}
  0
LINE
  5
251
  8
SJC
 10
3137.3603816489249
 20
1322.560975474827
 30
0.0
 11
3137.3603816489249
 21
1452.560975474827
 31
0.0
1001
ACAD
1000
ASC_BOUNDS
1002
{
1070
    19
1005
586
1002
}
  0
LINE
  5
252
  8
SJC
 10
3313.6449898030892
 20
1312.560975474827
 30
0.0
 11
3137.3603816489249
 21
1322.560975474827
 31
0.0
1001
ACAD
1000
ASC_BOUNDS
1002
{
1070
    19
1005
586
1002
}
  0
LINE
  5
253
  8
SJC2
 10
3313.6449898030892
 20
1197.5609754748259
 30
0.0
 11
3273.6449898030892
 21
1197.5609754748259
 31
0.0
1001
ACAD
1000
ASC_BOUNDS
1002
{
1070
    19
1005
586
1002
}
  0
LINE
  5
254
  8
SJC2
 10
3273.644989803091
 20
1237.5609754748259
 30
0.0
 11
3313.6449898030892
 21
1237.5609754748259
 31
0.0
1001
ACAD
1000
ASC_BOUNDS
1002
{
1070
    19
1005
586
1002
}
  0
LINE
  5
255
  8
SJC2
 10
3313.6449898030892
 20
1217.560975474828
 30
0.0
 11
3273.644989803091
 21
1217.560975474828
 31
0.0
1001
ACAD
1000
ASC_BOUNDS
1002
{
1070
    19
1005
586
1002
}
  0
LINE
  5
256
  8
SJC
 10
3273.6449898030892
 20
1262.560975474827
 30
0.0
 11
3087.360381648924
 21
1272.560975474827
 31
0.0
1001
ACAD
1000
ASC_BOUNDS
1002
{
1070
    19
1005
586
1002
}
  0
LINE
  5
257
  8
SJC2
 10
3243.6449898030892
 20
1252.56097547483
 30
0.0
 11
3273.6449898030892
 21
1252.5609754748291
 31
0.0
  0
LINE
  5
258
  8
SJC2
 10
3233.6449898030892
 20
1262.560975474827
 30
0.0
 11
3273.6449898030892
 21
1262.560975474827
 31
0.0
  0
LINE
  5
259
  8
SJC2
 10
3263.6449898030892
 20
1262.560975474827
 30
0.0
 11
3263.6449898030892
 21
1252.5609754748291
 31
0.0
  0
LINE
  5
25A
  8
SJC2
 10
3248.6449898030892
 20
1242.560975474827
 30
0.0
 11
3258.644989803091
 21
1242.560975474827
 31
0.0
  0
LINE
  5
25B
  8
SJC2
 10
3243.6449898030919
 20
1247.560975474827
 30
0.0
 11
3263.6449898030892
 21
1247.560975474827
 31
0.0
  0
LINE
  5
25C
  8
SJC2
 10
3233.6449898030892
 20
1242.560975474825
 30
0.0
 11
3243.6449898030892
 21
1242.560975474825
 31
0.0
  0
LINE
  5
25D
  8
SJC2
 10
3228.6449898030901
 20
1237.560975474827
 30
0.0
 11
3248.6449898030892
 21
1237.560975474827
 31
0.0
  0
ARC
  5
25E
  8
SJC2
 10
3273.644989803091
 20
1227.560975474828
 30
0.0
 40
9.9999999999995843
 50
90.000000000003283
 51
269.99999999999619
  0
LINE
  5
25F
  8
SJC2
 10
3248.6449898030892
 20
1237.560975474827
 30
0.0
 11
3248.6449898030892
 21
1242.560975474827
 31
0.0
  0
LINE
  5
260
  8
SJC2
 10
3243.6449898030892
 20
1252.56097547483
 30
0.0
 11
3243.6449898030892
 21
1242.560975474825
 31
0.0
  0
LINE
  5
261
  8
SJC2
 10
3233.6449898030892
 20
1262.560975474827
 30
0.0
 11
3233.6449898030892
 21
1242.560975474825
 31
0.0
  0
LINE
  5
262
  8
SJC2
 10
2390.6004670159268
 20
1035.046202064872
 30
0.0
 11
2408.0316155654609
 21
835.80726244652362
 31
0.0
  0
LINE
  5
263
  8
SJC2
 10
2385.6194935254698
 20
1034.6104233511339
 30
0.0
 11
2402.6148633612629
 21
840.35245722324225
 31
0.0
  0
LINE
  5
264
  8
SJC2
 10
2355.7336525827168
 20
1031.9957510687029
 30
0.0
 11
2372.2932437047721
 21
842.7187584312727
 31
0.0
  0
LINE
  5
265
  8
SJC2
 10
2400.5624139968459
 20
1035.917759492349
 30
0.0
 11
2419.3008986875921
 21
821.73589940262309
 31
0.0
1001
ACAD
1000
ASC_BOUNDS
1002
{
1070
    19
1005
63F
1005
63F
1002
}
  0
LINE
  5
266
  8
SJC2
 10
2440.4102019205138
 20
1039.4039892022549
 30
0.0
 11
2459.1974181831611
 21
824.66512469691133
 31
0.0
1001
ACAD
1000
ASC_BOUNDS
1002
{
1070
    19
1005
63F
1005
63F
1002
}
  0
LINE
  5
268
  8
MOJI
 10
3323.6449898030892
 20
1387.560975474827
 30
0.0
 11
3643.0996644353372
 21
1387.560975474827
 31
0.0
  0
TEXT
  5
269
  8
MOJI
 10
3334.762651926776
 20
1397.560975474827
 30
0.0
 40
30.0
  1
t0.5ステンレス押え板
 41
0.8
  7
EXT08
  0
LINE
  5
26B
  8
MOJI
 10
2327.0875006049059
 20
721.54341322513653
 30
0.0
 11
2054.4838598839619
 21
721.54341322513665
 31
0.0
  0
TEXT
  5
26C
  8
MOJI
 10
2069.7705890832221
 20
731.54341322513665
 30
0.0
 40
30.0
  1
ブラインドリベット
 41
0.8
  7
EXT08
  0
TEXT
  5
26E
  8
MOJI
 10
2137.1157892070651
 20
681.37404887794185
 30
0.0
 40
30.0
  1
NA4-8
 41
0.8
  7
EXT08
  0
INSERT
  5
26F
  8
SJC
  2
1-10BASE
 10
0.0
 20
0.0
 30
0.0
  0
DIMENSION
  5
270
  8
SUNPOU
  2
*D20
 10
3041.200420893214
 20
832.56097547482739
 30
0.0
 11
3014.200420893214
 21
1047.560975474828
 31
0.0
 70
     0
  1
%%c<>
 13
3273.6449898030892
 23
1262.560975474827
 33
0.0
 14
3273.6449898030892
 24
832.56097547482739
 34
0.0
 50
90.0
1001
ACAD
1000
DSTYLE
1002
{
1070
   287
1070
     5
1070
    40
1040
10.0
1070
    41
1040
2.0
1070
    42
1040
1.0
1070
    43
1040
6.0
1070
    44
1040
1.0
1070
    73
1070
     0
1070
    74
1070
     0
1070
    77
1070
     1
1070
    78
1070
     8
1070
   140
1040
3.0
1070
   144
1040
0.2
1070
   147
1040
1.1999999999999991
1070
   172
1070
     1
1070
   176
1070
   256
1070
   177
1070
   256
1070
   178
1070
   256
1070
   271
1070
     1
1070
   275
1070
     1
1070
   279
1070
     2
1070
   340
1005
2AB
1002
}
  0
DIMENSION
  5
271
  8
SUNPOU
  2
*D16
 10
3438.6449898030892
 20
867.56097547482761
 30
0.0
 11
3411.6449898030901
 21
1047.560975474828
 31
0.0
 70
     0
 13
3328.6449898030901
 23
1227.560975474827
 33
0.0
 14
3328.6449898030901
 24
867.56097547482761
 34
0.0
 50
90.0
1001
ACAD
1000
DSTYLE
1002
{
1070
   287
1070
     5
1070
    40
1040
10.0
1070
    41
1040
2.0
1070
    42
1040
1.0
1070
    43
1040
6.0
1070
    44
1040
1.0
1070
    73
1070
     0
1070
    74
1070
     0
1070
    77
1070
     1
1070
    78
1070
     8
1070
   140
1040
3.0
1070
   144
1040
0.2
1070
   147
1040
1.1999999999999991
1070
   172
1070
     1
1070
   176
1070
   256
1070
   177
1070
   256
1070
   178
1070
   256
1070
   271
1070
     1
1070
   275
1070
     1
1070
   279
1070
     2
1070
   340
1005
2AB
1002
}
  0
DIMENSION
  5
272
  8
SUNPOU
  2
*D17
 10
2933.6449816489239
 20
762.56097547482739
 30
0.0
 11
2906.6449816489239
 21
1047.560975474827
 31
0.0
 70
     0
  1
%%c<>
 13
2533.6449816489239
 23
1332.560975474827
 33
0.0
 14
2533.6449816489248
 24
762.5609754748275
 34
0.0
 50
90.0
1001
ACAD
1000
DSTYLE
1002
{
1070
   287
1070
     5
1070
    40
1040
10.0
1070
    41
1040
2.0
1070
    42
1040
1.0
1070
    43
1040
6.0
1070
    44
1040
1.0
1070
    73
1070
     0
1070
    74
1070
     0
1070
    77
1070
     1
1070
    78
1070
     8
1070
   140
1040
3.0
1070
   144
1040
0.2
1070
   147
1040
1.1999999999999991
1070
   172
1070
     1
1070
   176
1070
   256
1070
   177
1070
   256
1070
   178
1070
   256
1070
   271
1070
     1
1070
   275
1070
     1
1070
   279
1070
     2
1070
   340
1005
2AB
1002
}
  0
DIMENSION
  5
273
  8
SUNPOU
  2
*D18
 10
2149.56008797189
 20
798.13663637470665
 30
0.0
 11
2157.7188601296211
 21
1014.671701518619
 31
0.0
 70
     0
  1
%%C<>
 13
2381.8239293060969
 23
1250.099619582074
 33
0.0
 14
2421.4650808331348
 24
821.92524080616295
 34
0.0
 50
95.000000000000014
1001
ACAD
1000
DSTYLE
1002
{
1070
   287
1070
     5
1070
    40
1040
10.0
1070
    41
1040
2.0
1070
    42
1040
1.0
1070
    43
1040
6.0
1070
    44
1040
1.0
1070
    73
1070
     0
1070
    74
1070
     0
1070
    77
1070
     1
1070
    78
1070
     8
1070
   140
1040
3.0
1070
   144
1040
0.2
1070
   147
1040
1.1999999999999991
1070
   172
1070
     1
1070
   176
1070
   256
1070
   177
1070
   256
1070
   178
1070
   256
1070
   271
1070
     1
1070
   275
1070
     1
1070
   279
1070
     2
1070
   340
1005
2AB
1002
}
  0
ARC
  5
274
  8
SJC
 10
3143.6449816489312
 20
1947.560975474828
 30
0.0
 40
94.0
 50
247.08993172297119
 51
122.9100682770287
  0
ARC
  5
275
  8
SJC2
 10
2533.6449816489248
 20
1047.560975474827
 30
0.0
 40
235.0
 50
251.53059980924519
 51
118.4694001907544
1001
ACAD
1000
ASC_BOUNDS
1002
{
1070
    19
1005
63F
1005
63F
1005
63F
1005
63F
1002
}
  0
DIMENSION
  5
276
  8
SUNPOU
  2
*D19
 10
2325.2291426210372
 20
1380.663895400816
 30
0.0
 11
2268.0871648955522
 21
1406.7573485721809
 31
0.0
 70
   128
  1
19
 13
2249.7294926927771
 23
1022.721588791744
 33
0.0
 14
2334.8162743232788
 24
1271.082478610723
 34
0.0
 50
4.9999999999999991
1001
ACAD
1000
DSTYLE
1002
{
1070
   287
1070
     5
1070
    40
1040
10.0
1070
    41
1040
2.0
1070
    42
1040
1.0
1070
    43
1040
6.0
1070
    44
1040
1.0
1070
    73
1070
     0
1070
    74
1070
     0
1070
    77
1070
     1
1070
    78
1070
     8
1070
   140
1040
3.0
1070
   144
1040
0.2
1070
   147
1040
1.1999999999999991
1070
   172
1070
     1
1070
   176
1070
   256
1070
   177
1070
   256
1070
   178
1070
   256
1070
   271
1070
     1
1070
   275
1070
     1
1070
   279
1070
     2
1070
   340
1005
2AB
1002
}
  0
INSERT
  5
279
  8
HATCH
  2
*X2
 10
-191.35501835106879
 20
-52.439024525172499
 30
0.0
1001
ACAD
1000
HATCH
1002
{
1070
    16
1000
ANSI31
1040
80.0
1040
0.0
1002
}
  0
LINE
  5
27A
  8
SJC2
 10
2379.6710001207898
 20
815.75918294748737
 30
0.0
 11
2390.1686100921202
 21
816.67760481409539
 31
0.0
  0
DIMENSION
  5
27D
  8
SUNPOU
  2
*D10
 10
680.64498164893075
 20
1807.560975474827
 30
0.0
 11
623.64498164893098
 21
1842.617908399661
 31
0.0
 70
   128
  1
%%C<>
 13
566.64498164893109
 23
1667.623475474827
 33
0.0
 14
680.64498164893075
 24
1667.623475474827
 34
0.0
1001
ACAD
1000
DSTYLE
1002
{
1070
   287
1070
     5
1070
    40
1040
10.0
1070
    41
1040
2.0
1070
    42
1040
1.0
1070
    43
1040
6.0
1070
    44
1040
1.0
1070
    73
1070
     0
1070
    74
1070
     0
1070
    77
1070
     1
1070
    78
1070
     8
1070
   140
1040
3.0
1070
   147
1040
1.1999999999999991
1070
   172
1070
     1
1070
   176
1070
   256
1070
   177
1070
   256
1070
   178
1070
   256
1070
   271
1070
     1
1070
   275
1070
     1
1070
   279
1070
     2
1070
   340
1005
2AB
1002
}
  0
DIMENSION
  5
27E
  8
SUNPOU
  2
*D8
 10
808.64498164893166
 20
1524.560975474827
 30
0.0
 11
783.02237236501867
 21
1569.028490135006
 31
0.0
 70
   128
  1
%%C<>
 13
638.70748164893166
 23
1610.560975474827
 33
0.0
 14
638.70748164893166
 24
1524.560975474827
 34
0.0
 50
90.0
1001
ACAD
1000
DSTYLE
1002
{
1070
   287
1070
     5
1070
    40
1040
10.0
1070
    41
1040
2.0
1070
    42
1040
1.0
1070
    43
1040
6.0
1070
    44
1040
1.0
1070
    73
1070
     0
1070
    74
1070
     0
1070
    77
1070
     1
1070
    78
1070
     8
1070
   140
1040
3.0
1070
   147
1040
1.1999999999999991
1070
   172
1070
     1
1070
   176
1070
   256
1070
   177
1070
   256
1070
   178
1070
   256
1070
   271
1070
     1
1070
   275
1070
     1
1070
   279
1070
     2
1070
   340
1005
2AB
1002
}
  0
DIMENSION
  5
27F
  8
SUNPOU
  2
*D5
 10
698.64498164893075
 20
395.6658355059717
 30
0.0
 11
623.64498164893098
 21
426.79500952297349
 31
0.0
 70
   128
  1
%%c<>
 13
548.64498164893121
 23
465.6033355059717
 33
0.0
 14
698.64498164893075
 24
465.6033355059717
 34
0.0
1001
ACAD
1000
DSTYLE
1002
{
1070
   287
1070
     5
1070
    40
1040
10.0
1070
    41
1040
2.0
1070
    42
1040
1.0
1070
    43
1040
6.0
1070
    44
1040
1.0
1070
    73
1070
     0
1070
    74
1070
     0
1070
    77
1070
     1
1070
    78
1070
     8
1070
   140
1040
3.0
1070
   147
1040
1.1999999999999991
1070
   172
1070
     1
1070
   176
1070
   256
1070
   177
1070
   256
1070
   178
1070
   256
1070
   271
1070
     1
1070
   275
1070
     1
1070
   279
1070
     2
1070
   340
1005
2AB
1002
}
  0
INSERT
  5
295
  8
ZWAKU
  2
CALCOMP_TECHJET720A3
 10
0.0
 20
0.0
 30
0.0
 41
10.0
 42
10.0
 43
10.0
  0
TEXT
  5
297
  8
INFORMATION
 10
1.0
 20
2.0
 30
0.0
 40
0.8
  1
PLOTTER=CALCOMP_TECHJET720
  7
EXT08
  0
TEXT
  5
298
  8
INFORMATION
 10
1.0
 20
3.0
 30
0.0
 40
0.8
  1
PAPER=A3
  7
EXT08
  0
LINE
  5
2B0
  8
MOJI2
 10
432.56002766824167
 20
2387.5609475405699
 30
0.0
 11
640.05909965610863
 21
2387.5609475405699
 31
0.0
  0
LINE
  5
2B1
  8
MOJI2
 10
2410.3491244500292
 20
2248.2481781910878
 30
0.0
 11
2544.8145417273672
 21
2248.2481781910878
 31
0.0
  0
LINE
  5
2B2
  8
MOJI2
 10
3049.444658575469
 20
2248.556234059593
 30
0.0
 11
3234.863395184439
 21
2248.556234059593
 31
0.0
  0
LINE
  5
2B3
  8
MOJI2
 10
2616.6018876750809
 20
1542.560975474827
 30
0.0
 11
2937.3731731368712
 21
1542.560975474827
 31
0.0
  0
LINE
  5
2B6
  8
MOJI
 10
1957.8646686220779
 20
346.98012440326778
 30
0.0
 11
3569.8352347961932
 21
346.98012440326778
 31
0.0
  0
DIMENSION
  5
351
  8
SUNPOU
  2
*D11
 10
1828.644981648931
 20
301.39018115161139
 30
0.0
 11
1628.644981648931
 21
328.39018115161139
 31
0.0
 70
     0
  1
□<>
 13
1428.644981648931
 23
466.39018115161127
 33
0.0
 14
1828.644981648931
 24
466.39018115161127
 34
0.0
1001
ACAD
1000
DSTYLE
1002
{
1070
   287
1070
     5
1070
    40
1040
10.0
1070
    41
1040
2.0
1070
    42
1040
1.0
1070
    43
1040
6.0
1070
    44
1040
1.0
1070
    73
1070
     0
1070
    74
1070
     0
1070
    77
1070
     1
1070
    78
1070
     8
1070
   140
1040
3.0
1070
   147
1040
1.1999999999999991
1070
   172
1070
     1
1070
   176
1070
   256
1070
   177
1070
   256
1070
   178
1070
   256
1070
   271
1070
     1
1070
   275
1070
     1
1070
   279
1070
     2
1070
   340
1005
2AB
1002
}
  0
DIMENSION
  5
36A
  8
SUNPOU
  2
*D12
 10
241.4949941166187
 20
867.56097547482773
 30
0.0
 11
214.4949941166185
 21
667.56097547482773
 31
0.0
 70
     0
 13
423.64498164893121
 23
467.5609754748275
 33
0.0
 14
316.5558854115352
 24
867.56097547482773
 34
0.0
 50
90.0
1001
ACAD
1000
DSTYLE
1002
{
1070
   287
1070
     5
1070
    40
1040
10.0
1070
    41
1040
2.0
1070
    42
1040
1.0
1070
    43
1040
6.0
1070
    44
1040
1.0
1070
    73
1070
     0
1070
    74
1070
     0
1070
    77
1070
     1
1070
    78
1070
     8
1070
   140
1040
3.0
1070
   147
1040
1.1999999999999991
1070
   172
1070
     1
1070
   176
1070
   256
1070
   177
1070
   256
1070
   178
1070
   256
1070
   271
1070
     1
1070
   275
1070
     1
1070
   279
1070
     2
1070
   340
1005
2AB
1002
}
  0
TEXT
  5
36B
  8
MOJI
 10
1313.384866596811
 20
877.49662001421575
 30
0.0
 40
30.0
  1
GL
 41
0.8
  7
EXT08
  0
INSERT
  5
38A
  8
HATCH
  2
*X13
 10
0.0
 20
0.0
 30
0.0
1001
ACAD
1000
HATCH
1002
{
1070
    19
1000
PLAST
1040
500.0
1040
0.7853981633974483
1000
ASC_BOUNDS
1070
     2
1070
     1
1070
     6
1005
194
1005
1A4
1005
195
1005
1B3
1005
1B5
1005
19C
1070
     1
1070
     6
1005
196
1005
19D
1005
1B5
1005
1B4
1005
195
1005
1A5
1000
ASC_SEEDPOINT
1011
719.45967979404304
1021
-0.0
1031
0.0
1021
679.16021060353148
1031
0.0
1002
}
  0
INSERT
  5
39F
  8
HATCH
  2
*X13
 10
1007.53061558083
 20
0.0
 30
0.0
1001
ACAD
1000
HATCH
1002
{
1070
    19
1000
PLAST
1040
500.0
1040
0.7853981633974483
1002
}
  0
SOLID
  5
3A0
  8
MOJI
  6
CONTINUOUS
 10
685.79032056066126
 20
1198.976509102871
 30
0.0
 11
691.87289284397184
 21
1201.7053841206659
 31
0.0
 12
680.64498164893075
 22
1218.5886634617
 32
0.0
 13
680.64498164893075
 23
1218.5886634617
 33
0.0
  0
LINE
  5
3A1
  8
MOJI
  6
CONTINUOUS
 10
688.83160670231666
 20
1200.340946611768
 30
0.0
 11
750.64498164893075
 21
1062.560975474827
 31
0.0
  0
SOLID
  5
3AD
  8
MOJI
  6
CONTINUOUS
 10
646.38941560525893
 20
1505.7966742141421
 30
0.0
 11
652.05989525973348
 21
1509.3023988086641
 31
0.0
 12
638.70748164893178
 22
1524.560975474827
 32
0.0
 13
638.70748164893178
 23
1524.560975474827
 33
0.0
  0
LINE
  5
3AE
  8
MOJI
  6
CONTINUOUS
 10
649.22465543249632
 20
1507.5495365114029
 30
0.0
 11
745.04498164893073
 21
1352.560975474827
 31
0.0
  0
SOLID
  5
41D
  8
MOJI
  6
CONTINUOUS
 10
3260.9668758228399
 20
1279.248084722379
 30
0.0
 11
3255.287678460279
 21
1282.7396691423121
 31
0.0
 12
3247.6525238817599
 22
1263.956284844661
 32
0.0
 13
3247.6525238817599
 23
1263.956284844661
 33
0.0
  0
LINE
  5
41E
  8
MOJI
  6
CONTINUOUS
 10
3258.1272771415602
 20
1280.9938769323451
 30
0.0
 11
3323.6449898030892
 21
1387.560975474827
 31
0.0
  0
SOLID
  5
41F
  8
MOJI
  6
CONTINUOUS
 10
2430.9407691984361
 20
836.97285590093065
 30
0.0
 11
2435.7978363340421
 21
832.40630980079561
 31
0.0
 12
2447.0689410666441
 22
849.26078425768162
 32
0.0
 13
2447.0689410666441
 23
849.26078425768162
 33
0.0
  0
LINE
  5
420
  8
MOJI
  6
CONTINUOUS
 10
2447.174234707159
 20
849.26999625756787
 30
0.0
 11
2327.0875006049059
 21
721.54341322513653
 31
0.0
  0
INSERT
  5
586
  8
HATCH
  2
*X21
 10
0.0
 20
0.0
 30
0.0
1001
ACAD
1000
HATCH
1002
{
1070
    19
1000
ANSI31
1040
200.0
1040
0.0
1000
ASC_BOUNDS
1070
     4
1070
     1
1070
     4
1005
23E
1005
20B
1005
23D
1005
20A
1070
     1
1070
     4
1005
255
1005
20B
1005
253
1005
20A
1070
     1
1070
     8
1005
252
1005
251
1005
24F
1005
250
1005
256
1005
20B
1005
254
1005
20A
1070
     1
1070
     8
1005
22D
1005
20B
1005
22F
1005
230
1005
22A
1005
231
1005
22E
1005
20A
1000
ASC_SEEDPOINT
1011
3185.626590801558
1021
-0.0
1031
0.0
1021
800.55920397216323
1031
0.0
1002
}
  0
DIMENSION
  5
5B1
  8
SUNPOU
  2
*D22
 10
2419.3008986875921
 20
821.7358994026232
 30
0.0
 11
2488.0969832146711
 21
686.06604219280598
 31
0.0
 70
   130
 53
0.01
 13
2533.6449816489239
 23
551.08290725114625
 33
0.0
 14
2533.6449816489248
 24
1397.560975474827
 34
0.0
 15
2400.5624139968459
 25
1035.917759492349
 35
0.0
 16
2467.131023316047
 26
656.77761177425873
 36
0.0
1001
ACAD
1000
DSTYLE
1002
{
1070
   287
1070
     5
1070
   271
1070
     1
1070
    40
1040
10.0
1070
    41
1040
2.0
1070
    42
1040
1.0
1070
    43
1040
6.0
1070
    44
1040
1.0
1070
    73
1070
     0
1070
    74
1070
     0
1070
    77
1070
     1
1070
    78
1070
     8
1070
    79
1070
     2
1070
   140
1040
3.0
1070
   144
1040
0.2
1070
   147
1040
1.1999999999999991
1070
   172
1070
     1
1070
   176
1070
   256
1070
   177
1070
   256
1070
   178
1070
   256
1070
   179
1070
     1
1070
   271
1070
     1
1070
   275
1070
     1
1070
   279
1070
     2
1070
   340
1005
2AB
1002
}
  0
INSERT
  5
63F
  8
HATCH
  2
*X23
 10
0.0
 20
0.0
 30
0.0
1001
ACAD
1000
HATCH
1002
{
1070
    19
1000
ANSI31
1040
200.0
1040
0.0
1000
ASC_BOUNDS
1070
     6
1070
     1
1070
     4
1005
219
1005
275
1005
215
1005
216
1070
     1
1070
     7
1005
275
1005
266
1005
21F
1005
265
1005
227
1005
216
1005
215
1070
     1
1070
     4
1005
228
1005
265
1005
229
1005
266
1070
     1
1070
     4
1005
246
1005
214
1005
23F
1005
213
1070
     1
1070
     7
1005
216
1005
24E
1005
214
1005
247
1005
213
1005
275
1005
215
1070
     1
1070
     4
1005
215
1005
275
1005
219
1005
216
1000
ASC_SEEDPOINT
1011
2572.3121266809139
1021
-0.0
1031
0.0
1021
1308.8829799102471
1031
0.0
1002
}
  0
TEXT
  5
76B
  8
INFORMATION
 10
1.0
 20
1.0
 30
0.0
 40
0.8
  1
VERSION=3.0
  7
EXT08
  0
ENDSEC
  0
EOF
