  0
SECTION
  2
HEADER
  9
$ACADVER
  1
AC1009
  9
$INSBASE
 10
0.0
 20
0.0
 30
0.0
  9
$EXTMIN
 10
-0.192215757771919
 20
-0.1359240001384023
 30
-0.0000000000000058
  9
$EXTMAX
 10
3700.2426321833741
 20
2670.076914759788
 30
0.0000000000000104
  9
$LIMMIN
 10
0.0
 20
0.0
  9
$LIMMAX
 10
4200.0
 20
2970.0
  9
$ORTHOMODE
 70
     0
  9
$REGENMODE
 70
     1
  9
$FILLMODE
 70
     1
  9
$QTEXTMODE
 70
     0
  9
$MIRRTEXT
 70
     0
  9
$DRAGMODE
 70
     2
  9
$LTSCALE
 40
100.0
  9
$OSMODE
 70
    37
  9
$ATTMODE
 70
     1
  9
$TEXTSIZE
 40
30.0
  9
$TRACEWID
 40
0.05
  9
$TEXTSTYLE
  7
EXT08
  9
$CLAYER
  8
0
  9
$CELTYPE
  6
BYLAYER
  9
$CECOLOR
 62
   256
  9
$DIMSCALE
 40
10.0
  9
$DIMASZ
 40
2.0
  9
$DIMEXO
 40
1.0
  9
$DIMDLI
 40
6.0
  9
$DIMRND
 40
0.0
  9
$DIMDLE
 40
0.0
  9
$DIMEXE
 40
1.0
  9
$DIMTP
 40
0.0
  9
$DIMTM
 40
0.0
  9
$DIMTXT
 40
3.0
  9
$DIMCEN
 40
0.09
  9
$DIMTSZ
 40
0.0
  9
$DIMTOL
 70
     0
  9
$DIMLIM
 70
     0
  9
$DIMTIH
 70
     0
  9
$DIMTOH
 70
     0
  9
$DIMSE1
 70
     0
  9
$DIMSE2
 70
     0
  9
$DIMTAD
 70
     1
  9
$DIMZIN
 70
     8
  9
$DIMBLK
  1

  9
$DIMASO
 70
     1
  9
$DIMSHO
 70
     1
  9
$DIMPOST
  1

  9
$DIMAPOST
  1

  9
$DIMALT
 70
     0
  9
$DIMALTD
 70
     2
  9
$DIMALTF
 40
25.399999999999999
  9
$DIMLFAC
 40
1.0
  9
$DIMTOFL
 70
     1
  9
$DIMTVP
 40
0.0
  9
$DIMTIX
 70
     0
  9
$DIMSOXD
 70
     0
  9
$DIMSAH
 70
     0
  9
$DIMBLK1
  1

  9
$DIMBLK2
  1

  9
$DIMSTYLE
  2
SJC
  9
$DIMCLRD
 70
   256
  9
$DIMCLRE
 70
   256
  9
$DIMCLRT
 70
   256
  9
$DIMTFAC
 40
1.0
  9
$DIMGAP
 40
1.1999999999999991
  9
$LUNITS
 70
     2
  9
$LUPREC
 70
     2
  9
$SKETCHINC
 40
0.1
  9
$FILLETRAD
 40
0.0
  9
$AUNITS
 70
     1
  9
$AUPREC
 70
     2
  9
$MENU
  1
acad
  9
$ELEVATION
 40
0.0
  9
$PELEVATION
 40
0.0
  9
$THICKNESS
 40
0.0
  9
$LIMCHECK
 70
     0
  9
$BLIPMODE
 70
     0
  9
$CHAMFERA
 40
0.0
  9
$CHAMFERB
 40
0.0
  9
$SKPOLY
 70
     0
  9
$TDCREATE
 40
2449350.5739878472
  9
$TDUPDATE
 40
2454216.8124974649
  9
$TDINDWG
 40
0.0981970139
  9
$TDUSRTIMER
 40
0.0981970139
  9
$USRTIMER
 70
     1
  9
$ANGBASE
 50
0.0
  9
$ANGDIR
 70
     0
  9
$PDMODE
 70
     0
  9
$PDSIZE
 40
0.0
  9
$PLINEWID
 40
0.0
  9
$COORDS
 70
     1
  9
$SPLFRAME
 70
     0
  9
$SPLINETYPE
 70
     6
  9
$SPLINESEGS
 70
     8
  9
$ATTDIA
 70
     0
  9
$ATTREQ
 70
     1
  9
$HANDLING
 70
     1
  9
$HANDSEED
  5
17BC
  9
$SURFTAB1
 70
     6
  9
$SURFTAB2
 70
     6
  9
$SURFTYPE
 70
     6
  9
$SURFU
 70
     6
  9
$SURFV
 70
     6
  9
$UCSNAME
  2

  9
$UCSORG
 10
0.0
 20
0.0
 30
0.0
  9
$UCSXDIR
 10
1.0
 20
0.0
 30
0.0
  9
$UCSYDIR
 10
0.0
 20
1.0
 30
0.0
  9
$PUCSNAME
  2

  9
$PUCSORG
 10
0.0
 20
0.0
 30
0.0
  9
$PUCSXDIR
 10
1.0
 20
0.0
 30
0.0
  9
$PUCSYDIR
 10
0.0
 20
1.0
 30
0.0
  9
$USERI1
 70
     3
  9
$USERI2
 70
    10
  9
$USERI3
 70
     0
  9
$USERI4
 70
     0
  9
$USERI5
 70
     0
  9
$USERR1
 40
0.0
  9
$USERR2
 40
0.0
  9
$USERR3
 40
0.0
  9
$USERR4
 40
0.0
  9
$USERR5
 40
0.0
  9
$WORLDVIEW
 70
     1
  9
$SHADEDGE
 70
     3
  9
$SHADEDIF
 70
    70
  9
$TILEMODE
 70
     1
  9
$MAXACTVP
 70
    16
  9
$PLIMCHECK
 70
     0
  9
$PEXTMIN
 10
1.0000000000000000E+020
 20
1.0000000000000000E+020
 30
1.0000000000000000E+020
  9
$PEXTMAX
 10
-1.0000000000000000E+020
 20
-1.0000000000000000E+020
 30
-1.0000000000000000E+020
  9
$PLIMMIN
 10
0.0
 20
0.0
  9
$PLIMMAX
 10
12.0
 20
9.0
  9
$UNITMODE
 70
     0
  9
$VISRETAIN
 70
     0
  9
$PLINEGEN
 70
     0
  9
$PSLTSCALE
 70
     1
  0
ENDSEC
  0
SECTION
  2
TABLES
  0
TABLE
  2
VPORT
 70
     2
  0
VPORT
  2
*ACTIVE
 70
     0
 10
0.0
 20
0.0
 11
1.0
 21
1.0
 12
2099.9679751230551
 22
1694.00504607273
 13
0.0
 23
0.0
 14
10.0
 24
10.0
 15
0.0
 25
0.0
 16
0.0
 26
0.0
 36
1.0
 17
0.0
 27
0.0
 37
0.0
 40
3423.8843550181859
 41
1.771698113207546
 42
50.0
 43
0.0
 44
0.0
 50
0.0
 51
0.0
 71
     0
 72
 20000
 73
     1
 74
     1
 75
     0
 76
     0
 77
     0
 78
     0
  0
ENDTAB
  0
TABLE
  2
LTYPE
 70
     4
  0
LTYPE
  2
CONTINUOUS
 70
     0
  3
Solid line
 72
    65
 73
     0
 40
0.0
  0
LTYPE
  2
CENTER
 70
     0
  3
____ _ ____ _ ____ _ ____ _ ____ _ ____ _ ____ 
 72
    65
 73
     4
 40
2.0
 49
1.25
 49
-0.25
 49
0.25
 49
-0.25
  0
LTYPE
  2
HIDDEN
 70
     0
  3
__ __ __ __ __ __ __ __ __ __ __ __ __ __ __ __
 72
    65
 73
     2
 40
0.375
 49
0.25
 49
-0.125
  0
LTYPE
  2
PHANTOM
 70
     0
  3
______  __  __  ______  __  __  ______  __  __ 
 72
    65
 73
     6
 40
2.5
 49
1.25
 49
-0.25
 49
0.25
 49
-0.25
 49
0.25
 49
-0.25
  0
ENDTAB
  0
TABLE
  2
LAYER
 70
    15
  0
LAYER
  2
0
 70
     0
 62
     7
  6
CONTINUOUS
  0
LAYER
  2
CENTER
 70
     0
 62
     3
  6
CENTER
  0
LAYER
  2
HASEN
 70
     0
 62
     7
  6
HIDDEN
  0
LAYER
  2
HOJO
 70
     0
 62
     8
  6
CONTINUOUS
  0
LAYER
  2
KASOU
 70
     0
 62
     2
  6
PHANTOM
  0
LAYER
  2
MOJI
 70
     0
 62
     6
  6
CONTINUOUS
  0
LAYER
  2
SJC
 70
     0
 62
     1
  6
CONTINUOUS
  0
LAYER
  2
SUNPOU
 70
     0
 62
     4
  6
CONTINUOUS
  0
LAYER
  2
WAKU
 70
     0
 62
    -5
  6
CONTINUOUS
  0
LAYER
  2
DEFPOINTS
 70
     0
 62
     7
  6
CONTINUOUS
  0
LAYER
  2
SJC2
 70
     0
 62
     7
  6
CONTINUOUS
  0
LAYER
  2
MOJI2
 70
     0
 62
     1
  6
CONTINUOUS
  0
LAYER
  2
HATCH
 70
     0
 62
     2
  6
CONTINUOUS
  0
LAYER
  2
ZWAKU
 70
     1
 62
    -7
  6
CONTINUOUS
  0
LAYER
  2
INFORMATION
 70
     1
 62
     7
  6
CONTINUOUS
  0
ENDTAB
  0
TABLE
  2
STYLE
 70
     3
  0
STYLE
  2
STANDARD
 70
     0
 40
0.0
 41
1.0
 50
0.0
 71
     0
 42
30.0
  3
TXT
  4
BIGFONT
  0
STYLE
  2
TEXT3030
 70
     0
 40
30.0
 41
1.0
 50
0.0
 71
     0
 42
30.0
  3
TXT
  4
BIGFONT
  0
STYLE
  2
EXT08
 70
     0
 40
0.0
 41
0.8
 50
0.0
 71
     0
 42
30.0
  3
ROMANS
  4
EXTFONT
  0
ENDTAB
  0
TABLE
  2
VIEW
 70
     0
  0
ENDTAB
  0
TABLE
  2
UCS
 70
     0
  0
ENDTAB
  0
TABLE
  2
APPID
 70
     2
  0
APPID
  2
ACAD
 70
     0
  0
APPID
  2
ACAD_PSEXT
 70
     0
  0
ENDTAB
  0
TABLE
  2
DIMSTYLE
 70
     1
  0
DIMSTYLE
  2
SJC
 70
     0
  3

  4

  5

  6

  7

 40
1.0
 41
0.18
 42
0.0625
 43
0.38
 44
0.18
 45
0.0
 46
0.0
 47
0.0
 48
0.0
140
0.18
141
0.09
142
0.0
143
25.399999999999999
144
1.0
145
0.0
146
1.0
147
0.09
 71
     0
 72
     0
 73
     1
 74
     1
 75
     0
 76
     0
 77
     0
 78
     0
170
     0
171
     2
172
     0
173
     0
174
     0
175
     0
176
     0
177
     0
178
     0
  0
ENDTAB
  0
ENDSEC
  0
SECTION
  2
BLOCKS
  0
BLOCK
  8
0
  2
$MODEL_SPACE
 70
     0
 10
0.0
 20
0.0
 30
0.0
  3
$MODEL_SPACE
  1

  0
ENDBLK
  5
50
  8
0
  0
BLOCK
 67
     1
  8
0
  2
$PAPER_SPACE
 70
     0
 10
0.0
 20
0.0
 30
0.0
  3
$PAPER_SPACE
  1

  0
ENDBLK
  5
4E
 67
     1
  8
0
  0
BLOCK
  8
0
  2
1-10BASE
 70
     0
 10
0.0
 20
0.0
 30
0.0
  3
1-10BASE
  1

  0
ENDBLK
  5
52
  8
0
  0
BLOCK
  8
0
  2
*X1
 70
     1
 10
0.0
 20
0.0
 30
0.0
  3
*X1
  1

  0
LINE
  5
85
  8
0
 62
     0
 10
1237.5
 20
1621.105428793702
 30
0.0
 11
1291.3945712062971
 21
1675.0
 31
0.0
  0
LINE
  5
86
  8
0
 62
     0
 10
1237.5
 20
1633.4797974644659
 30
0.0
 11
1279.0202025355329
 21
1675.0
 31
0.0
  0
LINE
  5
87
  8
0
 62
     0
 10
1237.5
 20
1645.854166135231
 30
0.0
 11
1266.645833864769
 21
1675.0
 31
0.0
  0
LINE
  5
88
  8
0
 62
     0
 10
1237.5
 20
1658.2285348059961
 30
0.0
 11
1254.2714651940039
 21
1675.0
 31
0.0
  0
LINE
  5
89
  8
0
 62
     0
 10
1237.5
 20
1670.60290347676
 30
0.0
 11
1241.897096523239
 21
1675.0
 31
0.0
  0
LINE
  5
8A
  8
0
 62
     0
 10
1240.3895205724141
 20
1525.0
 30
0.0
 11
1302.5
 21
1587.110479427585
 31
0.0
  0
LINE
  5
8B
  8
0
 62
     0
 10
1252.7638892431789
 20
1525.0
 30
0.0
 11
1302.5
 21
1574.7361107568211
 31
0.0
  0
LINE
  5
8C
  8
0
 62
     0
 10
1265.138257913944
 20
1525.0
 30
0.0
 11
1302.5
 21
1562.361742086056
 31
0.0
  0
LINE
  5
8D
  8
0
 62
     0
 10
1277.512626584708
 20
1525.0
 30
0.0
 11
1302.5
 21
1549.9873734152909
 31
0.0
  0
LINE
  5
8E
  8
0
 62
     0
 10
1289.886995255473
 20
1525.0
 30
0.0
 11
1302.5
 21
1537.613004744527
 31
0.0
  0
LINE
  5
8F
  8
0
 62
     0
 10
1302.261363926237
 20
1525.0
 30
0.0
 11
1302.5
 21
1525.2386360737621
 31
0.0
  0
LINE
  5
90
  8
0
 62
     0
 10
1302.5
 20
1555.9791629466181
 30
0.0
 11
1285.489581473309
 21
1572.989581473309
 31
0.0
  0
LINE
  5
91
  8
0
 62
     0
 10
1242.989581473309
 20
1615.4895814733079
 30
0.0
 11
1237.5
 21
1620.9791629466181
 31
0.0
  0
LINE
  5
92
  8
0
 62
     0
 10
1302.5
 20
1543.604794275853
 30
0.0
 11
1279.3023971379271
 21
1566.8023971379259
 31
0.0
  0
LINE
  5
93
  8
0
 62
     0
 10
1302.5
 20
1531.2304256050879
 30
0.0
 11
1273.115212802544
 21
1560.615212802544
 31
0.0
  0
LINE
  5
94
  8
0
 62
     0
 10
1296.356056934324
 20
1525.0
 30
0.0
 11
1266.928028467162
 21
1554.428028467162
 31
0.0
  0
LINE
  5
95
  8
0
 62
     0
 10
1283.98168826356
 20
1525.0
 30
0.0
 11
1260.74084413178
 21
1548.2408441317791
 31
0.0
  0
LINE
  5
96
  8
0
 62
     0
 10
1271.607319592795
 20
1525.0
 30
0.0
 11
1254.5536597963969
 21
1542.0536597963969
 31
0.0
  0
LINE
  5
97
  8
0
 62
     0
 10
1259.232950922031
 20
1525.0
 30
0.0
 11
1248.3664754610149
 21
1535.8664754610149
 31
0.0
  0
LINE
  5
98
  8
0
 62
     0
 10
1246.8585822512659
 20
1525.0
 30
0.0
 11
1242.179291125633
 21
1529.6792911256321
 31
0.0
  0
LINE
  5
99
  8
0
 62
     0
 10
1302.5
 20
1568.353531617382
 30
0.0
 11
1291.676765808691
 21
1579.176765808691
 31
0.0
  0
LINE
  5
9A
  8
0
 62
     0
 10
1249.176765808691
 20
1621.676765808691
 30
0.0
 11
1237.5
 21
1633.353531617382
 31
0.0
  0
LINE
  5
9B
  8
0
 62
     0
 10
1302.5
 20
1580.7279002881471
 30
0.0
 11
1297.8639501440739
 21
1585.363950144073
 31
0.0
  0
LINE
  5
9C
  8
0
 62
     0
 10
1255.363950144073
 20
1627.863950144073
 30
0.0
 11
1237.5
 21
1645.7279002881471
 31
0.0
  0
LINE
  5
9D
  8
0
 62
     0
 10
1261.5511344794561
 20
1634.051134479455
 30
0.0
 11
1237.5
 21
1658.1022689589111
 31
0.0
  0
LINE
  5
9E
  8
0
 62
     0
 10
1267.7383188148381
 20
1640.2383188148369
 30
0.0
 11
1237.5
 21
1670.4766376296759
 31
0.0
  0
LINE
  5
9F
  8
0
 62
     0
 10
1273.92550315022
 20
1646.42550315022
 30
0.0
 11
1245.351006300441
 21
1675.0
 31
0.0
  0
LINE
  5
A0
  8
0
 62
     0
 10
1280.1126874856029
 20
1652.612687485602
 30
0.0
 11
1257.7253749712061
 21
1675.0
 31
0.0
  0
LINE
  5
A1
  8
0
 62
     0
 10
1286.2998718209849
 20
1658.7998718209849
 30
0.0
 11
1270.09974364197
 21
1675.0
 31
0.0
  0
LINE
  5
A2
  8
0
 62
     0
 10
1292.4870561563671
 20
1664.9870561563671
 30
0.0
 11
1282.4741123127351
 21
1675.0
 31
0.0
  0
LINE
  5
A3
  8
0
 62
     0
 10
1298.67424049175
 20
1671.1742404917491
 30
0.0
 11
1294.8484809834999
 21
1675.0
 31
0.0
  0
ENDBLK
  5
A4
  8
0
  0
BLOCK
  8
0
  2
*X2
 70
     1
 10
0.0
 20
0.0
 30
0.0
  3
*X2
  1

  0
LINE
  5
BE
  8
0
 62
     0
 10
946.29155877284302
 20
1200.8499999999999
 30
0.0
 11
953.0
 21
1207.5584412271569
 31
0.0
  0
LINE
  5
BF
  8
0
 62
     0
 10
943.0
 20
1204.6295090390231
 30
0.0
 11
953.0
 21
1214.6295090390231
 31
0.0
  0
LINE
  5
C0
  8
0
 62
     0
 10
943.0
 20
1211.700576850888
 30
0.0
 11
953.0
 21
1221.700576850888
 31
0.0
  0
LINE
  5
C1
  8
0
 62
     0
 10
943.0
 20
1218.771644662753
 30
0.0
 11
953.0
 21
1228.771644662753
 31
0.0
  0
LINE
  5
C2
  8
0
 62
     0
 10
943.0
 20
1225.842712474619
 30
0.0
 11
953.0
 21
1235.842712474619
 31
0.0
  0
LINE
  5
C3
  8
0
 62
     0
 10
943.0
 20
1232.9137802864841
 30
0.0
 11
953.0
 21
1242.9137802864841
 31
0.0
  0
LINE
  5
C4
  8
0
 62
     0
 10
943.0
 20
1239.9848480983501
 30
0.0
 11
953.0
 21
1249.9848480983501
 31
0.0
  0
LINE
  5
C5
  8
0
 62
     0
 10
943.0
 20
1247.0559159102149
 30
0.0
 11
953.0
 21
1257.0559159102149
 31
0.0
  0
LINE
  5
C6
  8
0
 62
     0
 10
943.0
 20
1254.1269837220809
 30
0.0
 11
952.87301627791896
 21
1264.0
 31
0.0
  0
LINE
  5
C7
  8
0
 62
     0
 10
943.0
 20
1261.198051533946
 30
0.0
 11
945.80194846605366
 21
1264.0
 31
0.0
  0
LINE
  5
C8
  8
0
 62
     0
 10
1023.143152747429
 20
1397.9097467762999
 30
0.0
 11
1052.0902532237001
 21
1426.8568472525701
 31
0.0
  0
LINE
  5
C9
  8
0
 62
     0
 10
1012.564340452589
 20
1394.402002293325
 30
0.0
 11
1055.5979977066761
 21
1437.435659547411
 31
0.0
  0
LINE
  5
CA
  8
0
 62
     0
 10
1004.249928835301
 20
1393.1586584879019
 30
0.0
 11
1017.451202317127
 21
1406.359931969728
 31
0.0
  0
LINE
  5
CB
  8
0
 62
     0
 10
1043.640068030272
 20
1432.5487976828731
 30
0.0
 11
1056.8413415120981
 21
1445.750071164699
 31
0.0
  0
LINE
  5
CC
  8
0
 62
     0
 10
997.09431230098528
 20
1393.074109765452
 30
0.0
 11
1007.646361197599
 21
1403.6261586620651
 31
0.0
  0
LINE
  5
CD
  8
0
 62
     0
 10
1046.373841337934
 20
1442.3536388024011
 30
0.0
 11
1056.925890234548
 21
1452.9056876990151
 31
0.0
  0
LINE
  5
CE
  8
0
 62
     0
 10
990.711101623687
 20
1393.7619669000189
 30
0.0
 11
999.94916221814435
 21
1403.0000274944759
 31
0.0
  0
LINE
  5
CF
  8
0
 62
     0
 10
1046.9999725055241
 20
1450.050837781856
 30
0.0
 11
1056.2380330999811
 21
1459.288898376313
 31
0.0
  0
LINE
  5
D0
  8
0
 62
     0
 10
984.91140229356802
 20
1395.033335381765
 30
0.0
 11
993.35078520889431
 21
1403.4727182970919
 31
0.0
  0
LINE
  5
D1
  8
0
 62
     0
 10
1046.5272817029081
 20
1456.649214791106
 30
0.0
 11
1054.9666646182341
 21
1465.088597706432
 31
0.0
  0
LINE
  5
D2
  8
0
 62
     0
 10
979.58739977671451
 20
1396.7804006767769
 30
0.0
 11
987.49977656288274
 21
1404.692777462946
 31
0.0
  0
LINE
  5
D3
  8
0
 62
     0
 10
1045.307222537054
 20
1462.5002234371179
 30
0.0
 11
1053.2195993232231
 21
1470.4126002232849
 31
0.0
  0
LINE
  5
D4
  8
0
 62
     0
 10
974.67221378360068
 20
1398.936282495529
 30
0.0
 11
982.22623820931176
 21
1406.4903069212401
 31
0.0
  0
LINE
  5
D5
  8
0
 62
     0
 10
1043.5096930787599
 20
1467.773761790688
 30
0.0
 11
1051.063717504471
 21
1475.3277862163991
 31
0.0
  0
LINE
  5
D6
  8
0
 62
     0
 10
970.12266614515863
 20
1401.4578026689519
 30
0.0
 11
977.4356338133324
 21
1408.7707703371259
 31
0.0
  0
LINE
  5
D7
  8
0
 62
     0
 10
1041.2292296628741
 20
1472.5643661866679
 30
0.0
 11
1048.5421973310481
 21
1479.877333854841
 31
0.0
  0
LINE
  5
D8
  8
0
 62
     0
 10
965.91086048169655
 20
1404.3170648173559
 30
0.0
 11
973.07235084487979
 21
1411.4785551805389
 31
0.0
  0
LINE
  5
D9
  8
0
 62
     0
 10
1038.5214448194611
 20
1476.92764915512
 30
0.0
 11
1045.6829351826441
 21
1484.0891395183039
 31
0.0
  0
LINE
  5
DA
  8
0
 62
     0
 10
962.0197656330148
 20
1407.4970377805389
 30
0.0
 11
969.10437019651124
 21
1414.581642344036
 31
0.0
  0
LINE
  5
DB
  8
0
 62
     0
 10
1035.418357655964
 20
1480.8956298034891
 30
0.0
 11
1042.5029622194611
 21
1487.9802343669851
 31
0.0
  0
LINE
  5
DC
  8
0
 62
     0
 10
958.44088877841102
 20
1410.9892287378011
 30
0.0
 11
965.51624569796127
 21
1418.0645856573519
 31
0.0
  0
LINE
  5
DD
  8
0
 62
     0
 10
1031.9354143426481
 20
1484.483754302039
 30
0.0
 11
1039.0107712621989
 21
1491.5591112215891
 31
0.0
  0
LINE
  5
DE
  8
0
 62
     0
 10
955.17321540459795
 20
1414.792623175854
 30
0.0
 11
962.30615482206269
 21
1421.9255625933181
 31
0.0
  0
LINE
  5
DF
  8
0
 62
     0
 10
1028.074437406681
 20
1487.6938451779381
 30
0.0
 11
1035.207376824146
 21
1494.8267845954019
 31
0.0
  0
LINE
  5
E0
  8
0
 62
     0
 10
952.22308704490752
 20
1418.913562628029
 30
0.0
 11
959.48556877431213
 21
1426.1760443574331
 31
0.0
  0
LINE
  5
E1
  8
0
 62
     0
 10
1023.8239556425669
 20
1490.514431225688
 30
0.0
 11
1031.086437371971
 21
1497.7769129550929
 31
0.0
  0
LINE
  5
E2
  8
0
 62
     0
 10
949.60498075861665
 20
1423.366524153603
 30
0.0
 11
957.08139229752669
 21
1430.842935692513
 31
0.0
  0
LINE
  5
E3
  8
0
 62
     0
 10
1019.157064307487
 20
1492.9186077024731
 30
0.0
 11
1026.633475846397
 21
1500.3950192413829
 31
0.0
  0
LINE
  5
E4
  8
0
 62
     0
 10
947.34342692248401
 20
1428.1760381293359
 30
0.0
 11
955.14158982604852
 21
1435.974201032901
 31
0.0
  0
LINE
  5
E5
  8
0
 62
     0
 10
1014.025798967099
 20
1494.8584101739521
 30
0.0
 11
1021.823961870664
 21
1502.656573077516
 31
0.0
  0
LINE
  5
E6
  8
0
 62
     0
 10
945.47671436862515
 20
1433.380393387343
 30
0.0
 11
953.74746857245907
 21
1441.6511475911771
 31
0.0
  0
LINE
  5
E7
  8
0
 62
     0
 10
1008.3488524088229
 20
1496.252531427541
 30
0.0
 11
1016.619606612657
 21
1504.5232856313751
 31
0.0
  0
LINE
  5
E8
  8
0
 62
     0
 10
944.06388913646947
 20
1439.0386359670531
 30
0.0
 11
953.04186777176574
 21
1448.0166146023489
 31
0.0
  0
LINE
  5
E9
  8
0
 62
     0
 10
1001.983385397651
 20
1496.958132228234
 30
0.0
 11
1010.961364032947
 21
1505.936110863531
 31
0.0
  0
LINE
  5
EA
  8
0
 62
     0
 10
943.19871886613009
 20
1445.244533508579
 30
0.0
 11
953.30565599549345
 21
1455.3514706379419
 31
0.0
  0
LINE
  5
EB
  8
0
 62
     0
 10
994.64852936205807
 20
1496.694344004507
 30
0.0
 11
1004.755466491421
 21
1506.8012811338699
 31
0.0
  0
LINE
  5
EC
  8
0
 62
     0
 10
943.04085527419761
 20
1452.1577377285121
 30
0.0
 11
955.24950321012602
 21
1464.36638566444
 31
0.0
  0
LINE
  5
ED
  8
0
 62
     0
 10
985.63361433556008
 20
1494.750496789874
 30
0.0
 11
997.84226227148861
 21
1506.9591447258031
 31
0.0
  0
LINE
  5
EE
  8
0
 62
     0
 10
943.89974724773833
 20
1460.0876975139181
 30
0.0
 11
963.85826997348272
 21
1480.046220239662
 31
0.0
  0
LINE
  5
EF
  8
0
 62
     0
 10
969.95377976033797
 20
1486.1417300265171
 30
0.0
 11
989.91230248608224
 21
1506.1002527522619
 31
0.0
  0
LINE
  5
F0
  8
0
 62
     0
 10
946.5544549369871
 20
1469.8134730150321
 30
0.0
 11
980.18652698496794
 21
1503.445545063013
 31
0.0
  0
LINE
  5
F1
  8
0
 62
     0
 10
956.47797548972915
 20
1486.808061379639
 30
0.0
 11
963.1919386203607
 21
1493.522024510271
 31
0.0
  0
LINE
  5
F2
  8
0
 62
     0
 10
943.0
 20
1176.345237791561
 30
0.0
 11
945.80476220843934
 21
1179.1500000000001
 31
0.0
  0
LINE
  5
F3
  8
0
 62
     0
 10
943.0
 20
1169.274169979695
 30
0.0
 11
952.87583002030476
 21
1179.1500000000001
 31
0.0
  0
LINE
  5
F4
  8
0
 62
     0
 10
943.0
 20
1162.203102167829
 30
0.0
 11
953.00000000000011
 21
1172.2031021678299
 31
0.0
  0
LINE
  5
F5
  8
0
 62
     0
 10
943.0
 20
1155.1320343559639
 30
0.0
 11
953.00000000000011
 21
1165.1320343559639
 31
0.0
  0
LINE
  5
F6
  8
0
 62
     0
 10
1047.0
 20
1259.1320343559639
 30
0.0
 11
1051.8679656440349
 21
1264.0
 31
0.0
  0
LINE
  5
F7
  8
0
 62
     0
 10
943.0
 20
1148.0609665440991
 30
0.0
 11
953.00000000000011
 21
1158.0609665440991
 31
0.0
  0
LINE
  5
F8
  8
0
 62
     0
 10
1047.0
 20
1252.0609665440979
 30
0.0
 11
1057.0
 21
1262.0609665440979
 31
0.0
  0
LINE
  5
F9
  8
0
 62
     0
 10
943.0
 20
1140.9898987322331
 30
0.0
 11
953.00000000000011
 21
1150.9898987322331
 31
0.0
  0
LINE
  5
FA
  8
0
 62
     0
 10
1047.0
 20
1244.9898987322331
 30
0.0
 11
1057.0
 21
1254.9898987322331
 31
0.0
  0
LINE
  5
FB
  8
0
 62
     0
 10
943.0
 20
1133.918830920368
 30
0.0
 11
953.00000000000011
 21
1143.918830920368
 31
0.0
  0
LINE
  5
FC
  8
0
 62
     0
 10
1047.0
 20
1237.918830920368
 30
0.0
 11
1057.0
 21
1247.918830920368
 31
0.0
  0
LINE
  5
FD
  8
0
 62
     0
 10
943.0
 20
1126.847763108502
 30
0.0
 11
953.00000000000011
 21
1136.847763108502
 31
0.0
  0
LINE
  5
FE
  8
0
 62
     0
 10
1047.0
 20
1230.847763108502
 30
0.0
 11
1057.0
 21
1240.847763108502
 31
0.0
  0
LINE
  5
FF
  8
0
 62
     0
 10
943.0
 20
1119.7766952966369
 30
0.0
 11
953.00000000000011
 21
1129.7766952966369
 31
0.0
  0
LINE
  5
100
  8
0
 62
     0
 10
1047.0
 20
1223.7766952966369
 30
0.0
 11
1057.0
 21
1233.7766952966369
 31
0.0
  0
LINE
  5
101
  8
0
 62
     0
 10
943.0
 20
1112.705627484771
 30
0.0
 11
953.00000000000011
 21
1122.705627484771
 31
0.0
  0
LINE
  5
102
  8
0
 62
     0
 10
1047.0
 20
1216.705627484771
 30
0.0
 11
1057.0
 21
1226.705627484771
 31
0.0
  0
LINE
  5
103
  8
0
 62
     0
 10
943.0
 20
1105.6345596729061
 30
0.0
 11
953.00000000000011
 21
1115.6345596729061
 31
0.0
  0
LINE
  5
104
  8
0
 62
     0
 10
1047.0
 20
1209.6345596729061
 30
0.0
 11
1057.0
 21
1219.6345596729061
 31
0.0
  0
LINE
  5
105
  8
0
 62
     0
 10
943.0
 20
1098.5634918610399
 30
0.0
 11
953.00000000000011
 21
1108.5634918610399
 31
0.0
  0
LINE
  5
106
  8
0
 62
     0
 10
1047.0
 20
1202.5634918610399
 30
0.0
 11
1057.0
 21
1212.5634918610399
 31
0.0
  0
LINE
  5
107
  8
0
 62
     0
 10
943.0
 20
1091.492424049175
 30
0.0
 11
953.00000000000011
 21
1101.492424049175
 31
0.0
  0
LINE
  5
108
  8
0
 62
     0
 10
1052.3575759508251
 20
1200.8499999999999
 30
0.0
 11
1057.0
 21
1205.492424049175
 31
0.0
  0
LINE
  5
109
  8
0
 62
     0
 10
943.0
 20
1084.4213562373091
 30
0.0
 11
953.00000000000011
 21
1094.4213562373091
 31
0.0
  0
LINE
  5
10A
  8
0
 62
     0
 10
943.0
 20
1077.350288425444
 30
0.0
 11
953.00000000000011
 21
1087.350288425444
 31
0.0
  0
LINE
  5
10B
  8
0
 62
     0
 10
943.0
 20
1070.279220613578
 30
0.0
 11
953.00000000000011
 21
1080.279220613578
 31
0.0
  0
LINE
  5
10C
  8
0
 62
     0
 10
1047.0
 20
1174.2792206135789
 30
0.0
 11
1051.870779386421
 21
1179.1500000000001
 31
0.0
  0
LINE
  5
10D
  8
0
 62
     0
 10
943.0
 20
1063.2081528017129
 30
0.0
 11
953.00000000000011
 21
1073.2081528017129
 31
0.0
  0
LINE
  5
10E
  8
0
 62
     0
 10
1047.0
 20
1167.2081528017129
 30
0.0
 11
1057.0
 21
1177.2081528017129
 31
0.0
  0
LINE
  5
10F
  8
0
 62
     0
 10
943.0
 20
1056.1370849898469
 30
0.0
 11
953.00000000000011
 21
1066.1370849898469
 31
0.0
  0
LINE
  5
110
  8
0
 62
     0
 10
1047.0
 20
1160.1370849898469
 30
0.0
 11
1057.0
 21
1170.1370849898469
 31
0.0
  0
LINE
  5
111
  8
0
 62
     0
 10
943.0
 20
1049.0660171779821
 30
0.0
 11
953.00000000000011
 21
1059.0660171779821
 31
0.0
  0
LINE
  5
112
  8
0
 62
     0
 10
1047.0
 20
1153.0660171779821
 30
0.0
 11
1057.0
 21
1163.0660171779821
 31
0.0
  0
LINE
  5
113
  8
0
 62
     0
 10
943.0
 20
1041.994949366117
 30
0.0
 11
953.00000000000011
 21
1051.9949493661161
 31
0.0
  0
LINE
  5
114
  8
0
 62
     0
 10
1047.0
 20
1145.994949366117
 30
0.0
 11
1057.0
 21
1155.994949366117
 31
0.0
  0
LINE
  5
115
  8
0
 62
     0
 10
943.0
 20
1034.923881554251
 30
0.0
 11
953.00000000000011
 21
1044.923881554251
 31
0.0
  0
LINE
  5
116
  8
0
 62
     0
 10
1047.0
 20
1138.923881554251
 30
0.0
 11
1057.0
 21
1148.923881554251
 31
0.0
  0
LINE
  5
117
  8
0
 62
     0
 10
943.0
 20
1027.852813742385
 30
0.0
 11
953.00000000000011
 21
1037.852813742385
 31
0.0
  0
LINE
  5
118
  8
0
 62
     0
 10
1047.0
 20
1131.852813742385
 30
0.0
 11
1057.0
 21
1141.8528137423859
 31
0.0
  0
LINE
  5
119
  8
0
 62
     0
 10
943.0
 20
1020.7817459305199
 30
0.0
 11
953.00000000000011
 21
1030.7817459305199
 31
0.0
  0
LINE
  5
11A
  8
0
 62
     0
 10
1047.0
 20
1124.7817459305199
 30
0.0
 11
1057.0
 21
1134.7817459305199
 31
0.0
  0
LINE
  5
11B
  8
0
 62
     0
 10
943.0
 20
1013.710678118655
 30
0.0
 11
953.00000000000011
 21
1023.710678118654
 31
0.0
  0
LINE
  5
11C
  8
0
 62
     0
 10
1047.0
 20
1117.7106781186551
 30
0.0
 11
1057.0
 21
1127.710678118654
 31
0.0
  0
LINE
  5
11D
  8
0
 62
     0
 10
943.0
 20
1006.639610306789
 30
0.0
 11
953.00000000000011
 21
1016.639610306789
 31
0.0
  0
LINE
  5
11E
  8
0
 62
     0
 10
1047.0
 20
1110.6396103067891
 30
0.0
 11
1057.0
 21
1120.6396103067891
 31
0.0
  0
LINE
  5
11F
  8
0
 62
     0
 10
943.43145750507631
 20
1000.0
 30
0.0
 11
953.00000000000011
 21
1009.568542494924
 31
0.0
  0
LINE
  5
120
  8
0
 62
     0
 10
1047.0
 20
1103.5685424949229
 30
0.0
 11
1057.0
 21
1113.568542494924
 31
0.0
  0
LINE
  5
121
  8
0
 62
     0
 10
950.50252531694173
 20
1000.0
 30
0.0
 11
953.00000000000011
 21
1002.497474683058
 31
0.0
  0
LINE
  5
122
  8
0
 62
     0
 10
1047.0
 20
1096.497474683058
 30
0.0
 11
1057.0
 21
1106.497474683058
 31
0.0
  0
LINE
  5
123
  8
0
 62
     0
 10
1047.0
 20
1089.426406871193
 30
0.0
 11
1057.0
 21
1099.426406871193
 31
0.0
  0
LINE
  5
124
  8
0
 62
     0
 10
1047.0
 20
1082.355339059327
 30
0.0
 11
1057.0
 21
1092.355339059327
 31
0.0
  0
LINE
  5
125
  8
0
 62
     0
 10
1047.0
 20
1075.2842712474619
 30
0.0
 11
1057.0
 21
1085.2842712474619
 31
0.0
  0
LINE
  5
126
  8
0
 62
     0
 10
1047.0
 20
1068.2132034355959
 30
0.0
 11
1057.0
 21
1078.2132034355959
 31
0.0
  0
LINE
  5
127
  8
0
 62
     0
 10
1047.0
 20
1061.1421356237311
 30
0.0
 11
1057.0
 21
1071.1421356237311
 31
0.0
  0
LINE
  5
128
  8
0
 62
     0
 10
1047.0
 20
1054.0710678118651
 30
0.0
 11
1057.0
 21
1064.0710678118651
 31
0.0
  0
LINE
  5
129
  8
0
 62
     0
 10
1047.0
 20
1047.0
 30
0.0
 11
1057.0
 21
1057.0
 31
0.0
  0
LINE
  5
12A
  8
0
 62
     0
 10
1047.0
 20
1039.928932188134
 30
0.0
 11
1057.0
 21
1049.928932188134
 31
0.0
  0
LINE
  5
12B
  8
0
 62
     0
 10
1047.0
 20
1032.8578643762689
 30
0.0
 11
1057.0
 21
1042.8578643762689
 31
0.0
  0
LINE
  5
12C
  8
0
 62
     0
 10
1047.0
 20
1025.7867965644029
 30
0.0
 11
1057.0
 21
1035.7867965644029
 31
0.0
  0
LINE
  5
12D
  8
0
 62
     0
 10
1047.0
 20
1018.715728752538
 30
0.0
 11
1057.0
 21
1028.7157287525381
 31
0.0
  0
LINE
  5
12E
  8
0
 62
     0
 10
1047.0
 20
1011.644660940673
 30
0.0
 11
1057.0
 21
1021.644660940673
 31
0.0
  0
LINE
  5
12F
  8
0
 62
     0
 10
1047.0
 20
1004.573593128807
 30
0.0
 11
1057.0
 21
1014.573593128807
 31
0.0
  0
LINE
  5
130
  8
0
 62
     0
 10
1049.497474683058
 20
1000.0
 30
0.0
 11
1057.0
 21
1007.502525316942
 31
0.0
  0
LINE
  5
131
  8
0
 62
     0
 10
1056.568542494924
 20
1000.0
 30
0.0
 11
1057.0
 21
1000.431457505076
 31
0.0
  0
ENDBLK
  5
132
  8
0
  0
BLOCK
  8
0
  2
CALCOMP_TECHJET720A3
 70
     0
 10
0.0
 20
0.0
 30
0.0
  3
CALCOMP_TECHJET720A3
  1

  0
POLYLINE
  5
385
  8
ZWAKU
 66
     1
 10
0.0
 20
0.0
 30
0.0
 70
     1
  0
VERTEX
  5
1762
  8
ZWAKU
 10
0.0
 20
0.0
 30
0.0
  0
VERTEX
  5
1763
  8
ZWAKU
 10
0.0
 20
267.0
 30
0.0
  0
VERTEX
  5
1764
  8
ZWAKU
 10
370.0
 20
267.0
 30
0.0
  0
VERTEX
  5
1765
  8
ZWAKU
 10
370.0
 20
0.0
 30
0.0
  0
SEQEND
  5
1766
  8
ZWAKU
  0
ENDBLK
  5
38C
  8
0
  0
BLOCK
  8
0
  2
*D4
 70
     1
 10
0.0
 20
0.0
 30
0.0
  3
*D4
  1

  0
LINE
  5
1712
  8
SUNPOU
 10
592.10484094827552
 20
1579.999999999998
 30
0.0
 11
324.60484094827558
 21
1579.9999999999991
 31
0.0
  0
LINE
  5
1713
  8
SUNPOU
 10
592.10484094827552
 20
1399.999999999998
 30
0.0
 11
324.60484094827552
 21
1399.999999999998
 31
0.0
  0
LINE
  5
1714
  8
SUNPOU
 10
334.60484094827558
 20
1559.999999999998
 30
0.0
 11
334.60484094827558
 21
1419.9999999999991
 31
0.0
  0
SOLID
  5
1715
  8
SUNPOU
 10
331.27150761494232
 20
1559.999999999998
 30
0.0
 11
337.93817428160889
 21
1559.999999999998
 31
0.0
 12
334.60484094827558
 22
1579.9999999999991
 32
0.0
 13
334.60484094827558
 23
1579.9999999999991
 33
0.0
  0
SOLID
  5
1716
  8
SUNPOU
 10
331.27150761494232
 20
1419.9999999999991
 30
0.0
 11
337.93817428160889
 21
1419.9999999999991
 31
0.0
 12
334.60484094827552
 22
1399.999999999998
 32
0.0
 13
334.60484094827552
 23
1399.999999999998
 33
0.0
  0
TEXT
  8
SUNPOU
  40
30
  5
17A7
  72
0
  71
0
 10
247.605
 20
1436.90
 30
0.000000
  1
180
  7
EXT08
  0
POINT
  5
1718
  8
DEFPOINTS
 62
     0
 10
602.10484094827552
 20
1579.999999999998
 30
0.0
  0
POINT
  5
1719
  8
DEFPOINTS
 62
     0
 10
602.10484094827552
 20
1399.999999999998
 30
0.0
  0
POINT
  5
171A
  8
DEFPOINTS
 62
     0
 10
334.60484094827552
 20
1399.999999999998
 30
0.0
  0
ENDBLK
  5
DF3
  8
0
  0
BLOCK
  8
0
  2
*D5
 70
     1
 10
0.0
 20
0.0
 30
0.0
  3
*D5
  1

  0
LINE
  5
16C8
  8
SUNPOU
 10
624.60484094827552
 20
1660.0
 30
0.0
 11
184.60484094827561
 21
1660.0
 31
0.0
  0
LINE
  5
16C9
  8
SUNPOU
 10
194.60484094827569
 20
1640.0
 30
0.0
 11
194.60484094827549
 21
880.0
 31
0.0
  0
SOLID
  5
16CA
  8
SUNPOU
 10
191.27150761494229
 20
1640.0
 30
0.0
 11
197.93817428160901
 21
1640.0
 31
0.0
 12
194.60484094827569
 22
1660.0
 32
0.0
 13
194.60484094827569
 23
1660.0
 33
0.0
  0
SOLID
  5
16CB
  8
SUNPOU
 10
191.27150761494221
 20
880.0
 30
0.0
 11
197.93817428160881
 21
880.0
 31
0.0
 12
194.60484094827549
 22
860.0
 32
0.0
 13
194.60484094827549
 23
860.0
 33
0.0
  0
TEXT
  8
SUNPOU
  40
30
  5
17A8
  72
0
  71
0
 10
107.605
 20
1206.90
 30
0.000000
  1
800
  7
EXT08
  0
POINT
  5
16CD
  8
DEFPOINTS
 62
     0
 10
634.60484094827541
 20
1660.0
 30
0.0
  0
POINT
  5
16CE
  8
DEFPOINTS
 62
     0
 10
194.60484094827549
 20
860.0
 30
0.0
  0
POINT
  5
16CF
  8
DEFPOINTS
 62
     0
 10
194.60484094827549
 20
860.0
 30
0.0
  0
ENDBLK
  5
DDD
  8
0
  0
BLOCK
  8
0
  2
*D6
 70
     1
 10
0.0
 20
0.0
 30
0.0
  3
*D6
  1

  0
LINE
  5
1709
  8
SUNPOU
 10
624.54234094827541
 20
1660.0
 30
0.0
 11
324.60484094827552
 21
1660.0
 31
0.0
  0
LINE
  5
170A
  8
SUNPOU
 10
547.60484094827552
 20
1579.9999999999991
 30
0.0
 11
324.60484094827552
 21
1580.0
 31
0.0
  0
LINE
  5
170B
  8
SUNPOU
 10
334.60484094827552
 20
1640.0
 30
0.0
 11
334.60484094827552
 21
1600.0
 31
0.0
  0
TEXT
  8
SUNPOU
  40
30
  5
17A9
  72
0
  71
0
 10
244.611
 20
1566.90
 30
0.000000
  1
80
  7
EXT08
  0
SOLID
  5
170D
  8
SUNPOU
 10
331.27150761494221
 20
1640.0
 30
0.0
 11
337.93817428160889
 21
1640.0
 31
0.0
 12
334.60484094827552
 22
1660.0
 32
0.0
 13
334.60484094827552
 23
1660.0
 33
0.0
  0
SOLID
  5
170E
  8
SUNPOU
 10
331.27150761494221
 20
1600.0
 30
0.0
 11
337.93817428160889
 21
1600.0
 31
0.0
 12
334.60484094827552
 22
1580.0
 32
0.0
 13
334.60484094827552
 23
1580.0
 33
0.0
  0
POINT
  5
170F
  8
DEFPOINTS
 62
     0
 10
634.54234094827552
 20
1660.0
 30
0.0
  0
POINT
  5
1710
  8
DEFPOINTS
 62
     0
 10
557.60484094827552
 20
1579.9999999999991
 30
0.0
  0
POINT
  5
1711
  8
DEFPOINTS
 62
     0
 10
334.60484094827552
 20
1580.0
 30
0.0
  0
ENDBLK
  5
6D0
  8
0
  0
BLOCK
  8
0
  2
*D7
 70
     1
 10
0.0
 20
0.0
 30
0.0
  3
*D7
  1

  0
LINE
  5
16ED
  8
SUNPOU
 10
404.60484094827552
 20
430.0
 30
0.0
 11
274.60484094827552
 21
430.0
 31
0.0
  0
LINE
  5
16EE
  8
SUNPOU
 10
404.60484094827552
 20
480.0
 30
0.0
 11
274.60484094827552
 21
480.0
 31
0.0
  0
LINE
  5
16EF
  8
SUNPOU
 10
284.60484094827552
 20
410.0
 30
0.0
 11
284.60484094827552
 21
390.00000000000011
 31
0.0
  0
LINE
  5
16F0
  8
SUNPOU
 10
284.60484094827552
 20
500.0
 30
0.0
 11
284.60484094827552
 21
520.0
 31
0.0
  0
TEXT
  8
SUNPOU
  40
30
  5
17AA
  72
0
  71
0
 10
192.731
 20
401.900
 30
0.000000
  1
50
  7
EXT08
  0
LINE
  5
16F2
  8
SUNPOU
 10
284.60484094827552
 20
430.0
 30
0.0
 11
284.60484094827552
 21
480.0
 31
0.0
  0
SOLID
  5
16F3
  8
SUNPOU
 10
281.27150761494221
 20
410.0
 30
0.0
 11
287.93817428160889
 21
410.0
 31
0.0
 12
284.60484094827552
 22
430.0
 32
0.0
 13
284.60484094827552
 23
430.0
 33
0.0
  0
SOLID
  5
16F4
  8
SUNPOU
 10
281.27150761494221
 20
500.0
 30
0.0
 11
287.93817428160889
 21
500.0
 31
0.0
 12
284.60484094827552
 22
480.0
 32
0.0
 13
284.60484094827552
 23
480.0
 33
0.0
  0
POINT
  5
16F5
  8
DEFPOINTS
 62
     0
 10
414.60484094827552
 20
430.0
 30
0.0
  0
POINT
  5
16F6
  8
DEFPOINTS
 62
     0
 10
414.60484094827552
 20
480.0
 30
0.0
  0
POINT
  5
16F7
  8
DEFPOINTS
 62
     0
 10
284.60484094827552
 20
480.0
 30
0.0
  0
ENDBLK
  5
6A2
  8
0
  0
BLOCK
  8
0
  2
*D8
 70
     1
 10
0.0
 20
0.0
 30
0.0
  3
*D8
  1

  0
LINE
  5
16E4
  8
SUNPOU
 10
434.60484094827541
 20
424.60484094827552
 30
0.0
 11
434.60484094827541
 21
271.51757292125149
 31
0.0
  0
LINE
  5
16E5
  8
SUNPOU
 10
834.60484094827541
 20
420.0
 30
0.0
 11
834.60484094827541
 21
271.51757292125149
 31
0.0
  0
LINE
  5
16E6
  8
SUNPOU
 10
454.60484094827552
 20
281.51757292125149
 30
0.0
 11
814.60484094827552
 21
281.51757292125149
 31
0.0
  0
SOLID
  5
16E7
  8
SUNPOU
 10
454.60484094827552
 20
284.8509062545848
 30
0.0
 11
454.60484094827552
 21
278.18423958791823
 31
0.0
 12
434.60484094827541
 22
281.51757292125149
 32
0.0
 13
434.60484094827541
 23
281.51757292125149
 33
0.0
  0
SOLID
  5
16E8
  8
SUNPOU
 10
814.60484094827552
 20
284.8509062545848
 30
0.0
 11
814.60484094827552
 21
278.18423958791823
 31
0.0
 12
834.60484094827541
 22
281.51757292125149
 32
0.0
 13
834.60484094827541
 23
281.51757292125149
 33
0.0
  0
TEXT
  8
SUNPOU
  40
30
  5
17AB
  72
0
  71
0
 10
574.605
 20
255.418
 30
0.000000
  1
□400
  7
EXT08
  0
POINT
  5
16EA
  8
DEFPOINTS
 62
     0
 10
434.60484094827541
 20
434.60484094827541
 30
0.0
  0
POINT
  5
16EB
  8
DEFPOINTS
 62
     0
 10
834.60484094827541
 20
430.0
 30
0.0
  0
POINT
  5
16EC
  8
DEFPOINTS
 62
     0
 10
834.60484094827541
 20
281.51757292125149
 30
0.0
  0
ENDBLK
  5
872
  8
0
  0
BLOCK
  8
0
  2
*D9
 70
     1
 10
0.0
 20
0.0
 30
0.0
  3
*D9
  1

  0
LINE
  5
171B
  8
SUNPOU
 10
1470.36213707139
 20
430.0
 30
0.0
 11
1239.6048409482751
 21
430.0
 31
0.0
  0
LINE
  5
171C
  8
SUNPOU
 10
1249.6048409482751
 20
450.0
 30
0.0
 11
1249.6048409482751
 21
840.0
 31
0.0
  0
SOLID
  5
171D
  8
SUNPOU
 10
1246.271507614942
 20
450.0
 30
0.0
 11
1252.9381742816081
 21
450.0
 31
0.0
 12
1249.6048409482751
 22
430.0
 32
0.0
 13
1249.6048409482751
 23
430.0
 33
0.0
  0
SOLID
  5
171E
  8
SUNPOU
 10
1246.271507614942
 20
840.0
 30
0.0
 11
1252.938174281609
 21
840.0
 31
0.0
 12
1249.6048409482751
 22
860.0
 32
0.0
 13
1249.6048409482751
 23
860.0
 33
0.0
  0
TEXT
  8
SUNPOU
  40
30
  5
17AC
  72
0
  71
0
 10
1162.60
 20
591.900
 30
0.000000
  1
430
  7
EXT08
  0
POINT
  5
1720
  8
DEFPOINTS
 62
     0
 10
1480.36213707139
 20
430.0
 30
0.0
  0
POINT
  5
1721
  8
DEFPOINTS
 62
     0
 10
1249.6048409482751
 20
860.0
 30
0.0
  0
POINT
  5
1722
  8
DEFPOINTS
 62
     0
 10
1249.6048409482751
 20
860.0
 30
0.0
  0
ENDBLK
  5
78F
  8
0
  0
BLOCK
  8
0
  2
*D10
 70
     1
 10
0.0
 20
0.0
 30
0.0
  3
*D10
  1

  0
LINE
  5
16D0
  8
SUNPOU
 10
1470.42463707139
 20
430.0
 30
0.0
 11
1329.6048409482751
 21
430.0
 31
0.0
  0
LINE
  5
16D1
  8
SUNPOU
 10
1470.42463707139
 20
480.0
 30
0.0
 11
1329.6048409482751
 21
480.0
 31
0.0
  0
LINE
  5
16D2
  8
SUNPOU
 10
1339.6048409482751
 20
410.0
 30
0.0
 11
1339.6048409482751
 21
390.00000000000011
 31
0.0
  0
LINE
  5
16D3
  8
SUNPOU
 10
1339.6048409482751
 20
500.0
 30
0.0
 11
1339.604840948276
 21
520.0
 31
0.0
  0
TEXT
  8
SUNPOU
  40
30
  5
17AD
  72
0
  71
0
 10
1249.52
 20
401.900
 30
0.000000
  1
50
  7
EXT08
  0
LINE
  5
16D5
  8
SUNPOU
 10
1339.6048409482751
 20
430.0
 30
0.0
 11
1339.6048409482751
 21
480.0
 31
0.0
  0
SOLID
  5
16D6
  8
SUNPOU
 10
1336.271507614942
 20
410.0
 30
0.0
 11
1342.938174281609
 21
410.0
 31
0.0
 12
1339.6048409482751
 22
430.0
 32
0.0
 13
1339.6048409482751
 23
430.0
 33
0.0
  0
SOLID
  5
16D7
  8
SUNPOU
 10
1336.271507614942
 20
500.0
 30
0.0
 11
1342.938174281609
 21
500.0
 31
0.0
 12
1339.6048409482751
 22
480.0
 32
0.0
 13
1339.6048409482751
 23
480.0
 33
0.0
  0
POINT
  5
16D8
  8
DEFPOINTS
 62
     0
 10
1480.42463707139
 20
430.0
 30
0.0
  0
POINT
  5
16D9
  8
DEFPOINTS
 62
     0
 10
1480.42463707139
 20
480.0
 30
0.0
  0
POINT
  5
16DA
  8
DEFPOINTS
 62
     0
 10
1339.6048409482751
 20
480.0
 30
0.0
  0
ENDBLK
  5
85B
  8
0
  0
BLOCK
  8
0
  2
*D11
 70
     1
 10
0.0
 20
0.0
 30
0.0
  3
*D11
  1

  0
LINE
  5
1759
  8
SUNPOU
 10
577.60484094827552
 20
1670.0625
 30
0.0
 11
577.60484094827552
 21
1788.7249154678771
 31
0.0
  0
LINE
  5
175A
  8
SUNPOU
 10
691.60484094827552
 20
1670.0625
 30
0.0
 11
691.60484094827552
 21
1788.7249154678771
 31
0.0
  0
LINE
  5
175B
  8
SUNPOU
 10
597.60484094827552
 20
1778.7249154678771
 30
0.0
 11
671.60484094827552
 21
1778.7249154678771
 31
0.0
  0
SOLID
  5
175C
  8
SUNPOU
 10
597.60484094827552
 20
1782.058248801211
 30
0.0
 11
597.60484094827552
 21
1775.391582134544
 31
0.0
 12
577.60484094827552
 22
1778.7249154678771
 32
0.0
 13
577.60484094827552
 23
1778.7249154678771
 33
0.0
  0
SOLID
  5
175D
  8
SUNPOU
 10
671.60484094827552
 20
1782.058248801211
 30
0.0
 11
671.60484094827552
 21
1775.391582134544
 31
0.0
 12
691.60484094827552
 22
1778.7249154678771
 32
0.0
 13
691.60484094827552
 23
1778.7249154678771
 33
0.0
  0
TEXT
  8
SUNPOU
  40
30
  5
17AE
  72
0
  71
0
 10
574.605
 20
1752.62
 30
0.000000
  1
%%c114
  7
EXT08
  0
POINT
  5
175F
  8
DEFPOINTS
 62
     0
 10
577.60484094827552
 20
1660.0625
 30
0.0
  0
POINT
  5
1760
  8
DEFPOINTS
 62
     0
 10
691.60484094827552
 20
1660.0625
 30
0.0
  0
POINT
  5
1761
  8
DEFPOINTS
 62
     0
 10
691.60484094827552
 20
1778.7249154678771
 30
0.0
  0
ENDBLK
  5
EA9
  8
0
  0
BLOCK
  8
0
  2
*X12
 70
     1
 10
0.0
 20
0.0
 30
0.0
  3
*X12
  1

  0
LINE
  5
711
  8
0
 62
     0
 10
434.60484094827541
 20
434.60484094827541
 30
0.0
 11
572.10484094827541
 21
572.10484094827541
 31
0.0
  0
LINE
  5
712
  8
0
 62
     0
 10
697.10484094827541
 20
697.10484094827541
 30
0.0
 11
834.60484094827541
 21
834.60484094827541
 31
0.0
  0
LINE
  5
713
  8
0
 62
     0
 10
434.60484094827541
 20
611.38153624491235
 30
0.0
 11
572.10484094827541
 21
748.88153624491235
 31
0.0
  0
LINE
  5
714
  8
0
 62
     0
 10
434.60484094827541
 20
788.1582315415493
 30
0.0
 11
506.44660940672622
 21
860.0
 31
0.0
  0
LINE
  5
715
  8
0
 62
     0
 10
697.10484094827541
 20
520.32814565163858
 30
0.0
 11
834.60484094827541
 21
657.82814565163858
 31
0.0
  0
LINE
  5
716
  8
0
 62
     0
 10
783.55339059327366
 20
430.0
 30
0.0
 11
834.60484094827541
 21
481.05145035500169
 31
0.0
  0
LINE
  5
717
  8
0
 62
     0
 10
434.60484094827541
 20
456.70192786035511
 30
0.0
 11
572.10484094827541
 21
594.201927860355
 31
0.0
  0
LINE
  5
718
  8
0
 62
     0
 10
697.10484094827541
 20
719.20192786035511
 30
0.0
 11
834.60484094827541
 21
856.70192786035511
 31
0.0
  0
LINE
  5
719
  8
0
 62
     0
 10
434.60484094827541
 20
633.47862315699194
 30
0.0
 11
572.10484094827541
 21
770.97862315699194
 31
0.0
  0
LINE
  5
71A
  8
0
 62
     0
 10
434.60484094827541
 20
810.25531845362877
 30
0.0
 11
484.34952249464658
 21
860.0
 31
0.0
  0
LINE
  5
71B
  8
0
 62
     0
 10
697.10484094827541
 20
542.42523256371817
 30
0.0
 11
834.60484094827541
 21
679.92523256371828
 31
0.0
  0
LINE
  5
71C
  8
0
 62
     0
 10
761.45630368119419
 20
430.0
 30
0.0
 11
834.60484094827541
 21
503.14853726708128
 31
0.0
  0
LINE
  5
71D
  8
0
 62
     0
 10
434.60484094827541
 20
478.79901477243482
 30
0.0
 11
572.10484094827541
 21
616.2990147724347
 31
0.0
  0
LINE
  5
71E
  8
0
 62
     0
 10
697.10484094827541
 20
741.29901477243459
 30
0.0
 11
815.80582617584071
 21
859.99999999999989
 31
0.0
  0
LINE
  5
71F
  8
0
 62
     0
 10
434.60484094827541
 20
655.57571006907153
 30
0.0
 11
572.10484094827541
 21
793.07571006907153
 31
0.0
  0
LINE
  5
720
  8
0
 62
     0
 10
434.60484094827541
 20
832.35240536570836
 30
0.0
 11
462.25243558256699
 21
860.0
 31
0.0
  0
LINE
  5
721
  8
0
 62
     0
 10
562.58252147247765
 20
430.0
 30
0.0
 11
572.10484094827541
 21
439.52231947579781
 31
0.0
  0
LINE
  5
722
  8
0
 62
     0
 10
697.10484094827541
 20
564.52231947579764
 30
0.0
 11
834.60484094827541
 21
702.02231947579787
 31
0.0
  0
LINE
  5
723
  8
0
 62
     0
 10
739.35921676911448
 20
430.0
 30
0.0
 11
834.60484094827541
 21
525.24562417916093
 31
0.0
  0
ENDBLK
  5
724
  8
0
  0
BLOCK
  8
0
  2
*D13
 70
     1
 10
0.0
 20
0.0
 30
0.0
  3
*D13
  1

  0
LINE
  5
1767
  8
SUNPOU
 10
394.60484094827558
 20
480.0
 30
0.0
 11
274.60484094827552
 21
480.0
 31
0.0
  0
LINE
  5
1768
  8
SUNPOU
 10
310.60931715476909
 20
860.0
 30
0.0
 11
274.60484094827552
 21
860.0
 31
0.0
  0
LINE
  5
1769
  8
SUNPOU
 10
284.60484094827541
 20
500.0
 30
0.0
 11
284.60484094827552
 21
840.0
 31
0.0
  0
SOLID
  5
176A
  8
SUNPOU
 10
281.27150761494221
 20
500.0
 30
0.0
 11
287.93817428160878
 21
500.0
 31
0.0
 12
284.60484094827541
 22
480.0
 32
0.0
 13
284.60484094827541
 23
480.0
 33
0.0
  0
SOLID
  5
176B
  8
SUNPOU
 10
281.27150761494221
 20
840.0
 30
0.0
 11
287.93817428160889
 21
840.0
 31
0.0
 12
284.60484094827552
 22
860.0
 32
0.0
 13
284.60484094827552
 23
860.0
 33
0.0
  0
TEXT
  8
SUNPOU
  40
30
  5
17AF
  72
0
  71
0
 10
197.605
 20
616.900
 30
0.000000
  1
380
  7
EXT08
  0
POINT
  5
176D
  8
DEFPOINTS
 62
     0
 10
404.60484094827552
 20
480.0
 30
0.0
  0
POINT
  5
176E
  8
DEFPOINTS
 62
     0
 10
320.60931715476909
 20
860.0
 30
0.0
  0
POINT
  5
176F
  8
DEFPOINTS
 62
     0
 10
284.60484094827552
 20
860.0
 30
0.0
  0
ENDBLK
  5
730
  8
0
  0
BLOCK
  8
0
  2
*D14
 70
     1
 10
0.0
 20
0.0
 30
0.0
  3
*D14
  1

  0
LINE
  5
1770
  8
SUNPOU
 10
424.60484094827552
 20
430.0
 30
0.0
 11
184.60484094827541
 21
430.0
 31
0.0
  0
LINE
  5
1771
  8
SUNPOU
 10
310.60931715476909
 20
860.0
 30
0.0
 11
184.60484094827549
 21
860.00000000000011
 31
0.0
  0
LINE
  5
1772
  8
SUNPOU
 10
194.60484094827541
 20
450.0
 30
0.0
 11
194.60484094827549
 21
840.00000000000023
 31
0.0
  0
SOLID
  5
1773
  8
SUNPOU
 10
191.2715076149421
 20
450.0
 30
0.0
 11
197.9381742816087
 21
450.0
 31
0.0
 12
194.60484094827541
 22
430.0
 32
0.0
 13
194.60484094827541
 23
430.0
 33
0.0
  0
SOLID
  5
1774
  8
SUNPOU
 10
191.27150761494221
 20
840.00000000000023
 30
0.0
 11
197.93817428160881
 21
840.00000000000023
 31
0.0
 12
194.60484094827549
 22
860.00000000000011
 32
0.0
 13
194.60484094827549
 23
860.00000000000011
 33
0.0
  0
TEXT
  8
SUNPOU
  40
30
  5
17B0
  72
0
  71
0
 10
107.605
 20
591.900
 30
0.000000
  1
430
  7
EXT08
  0
POINT
  5
1776
  8
DEFPOINTS
 62
     0
 10
434.60484094827541
 20
430.0
 30
0.0
  0
POINT
  5
1777
  8
DEFPOINTS
 62
     0
 10
320.60931715476909
 20
860.0
 30
0.0
  0
POINT
  5
1778
  8
DEFPOINTS
 62
     0
 10
194.60484094827549
 20
860.00000000000011
 30
0.0
  0
ENDBLK
  5
73D
  8
0
  0
BLOCK
  8
0
  2
*D15
 70
     1
 10
0.0
 20
0.0
 30
0.0
  3
*D15
  1

  0
LINE
  5
1779
  8
SUNPOU
 10
1489.6048409482751
 20
424.60484094827552
 30
0.0
 11
1489.6048409482751
 21
271.51757292125149
 31
0.0
  0
LINE
  5
177A
  8
SUNPOU
 10
1889.6048409482751
 20
420.0
 30
0.0
 11
1889.6048409482751
 21
271.51757292125149
 31
0.0
  0
LINE
  5
177B
  8
SUNPOU
 10
1509.6048409482751
 20
281.51757292125149
 30
0.0
 11
1869.6048409482751
 21
281.51757292125149
 31
0.0
  0
SOLID
  5
177C
  8
SUNPOU
 10
1509.6048409482751
 20
284.8509062545848
 30
0.0
 11
1509.6048409482751
 21
278.18423958791823
 31
0.0
 12
1489.6048409482751
 22
281.51757292125149
 32
0.0
 13
1489.6048409482751
 23
281.51757292125149
 33
0.0
  0
SOLID
  5
177D
  8
SUNPOU
 10
1869.6048409482751
 20
284.8509062545848
 30
0.0
 11
1869.6048409482751
 21
278.18423958791823
 31
0.0
 12
1889.6048409482751
 22
281.51757292125149
 32
0.0
 13
1889.6048409482751
 23
281.51757292125149
 33
0.0
  0
TEXT
  8
SUNPOU
  40
30
  5
17B1
  72
0
  71
0
 10
1629.60
 20
255.418
 30
0.000000
  1
□400
  7
EXT08
  0
POINT
  5
177F
  8
DEFPOINTS
 62
     0
 10
1489.6048409482751
 20
434.60484094827541
 30
0.0
  0
POINT
  5
1780
  8
DEFPOINTS
 62
     0
 10
1889.6048409482751
 20
430.0
 30
0.0
  0
POINT
  5
1781
  8
DEFPOINTS
 62
     0
 10
1889.6048409482751
 20
281.51757292125149
 30
0.0
  0
ENDBLK
  5
87D
  8
0
  0
BLOCK
  8
0
  2
*D16
 70
     1
 10
0.0
 20
0.0
 30
0.0
  3
*D16
  1

  0
LINE
  5
1782
  8
SUNPOU
 10
1381.3294810414559
 20
860.0
 30
0.0
 11
1239.6048409482751
 21
860.00000000000011
 31
0.0
  0
LINE
  5
1783
  8
SUNPOU
 10
1612.104840948276
 20
863.20000000000005
 30
0.0
 11
1239.6048409482751
 21
863.20000000000005
 31
0.0
  0
LINE
  5
1784
  8
SUNPOU
 10
1249.6048409482751
 20
840.00000000000023
 30
0.0
 11
1249.6048409482751
 21
820.00000000000011
 31
0.0
  0
LINE
  5
1785
  8
SUNPOU
 10
1249.6048409482751
 20
883.20000000000016
 30
0.0
 11
1249.6048409482751
 21
903.20000000000005
 31
0.0
  0
TEXT
  8
SUNPOU
  40
30
  5
17B2
  72
0
  71
0
 10
1154.65
 20
808.500
 30
0.000000
  1
3.2
  7
EXT08
  0
LINE
  5
1787
  8
SUNPOU
 10
1249.6048409482751
 20
860.00000000000011
 30
0.0
 11
1249.6048409482751
 21
863.20000000000005
 31
0.0
  0
SOLID
  5
1788
  8
SUNPOU
 10
1246.271507614942
 20
840.00000000000023
 30
0.0
 11
1252.938174281609
 21
840.00000000000023
 31
0.0
 12
1249.6048409482751
 22
860.00000000000011
 32
0.0
 13
1249.6048409482751
 23
860.00000000000011
 33
0.0
  0
SOLID
  5
1789
  8
SUNPOU
 10
1246.271507614942
 20
883.20000000000016
 30
0.0
 11
1252.938174281609
 21
883.20000000000016
 31
0.0
 12
1249.6048409482751
 22
863.20000000000005
 32
0.0
 13
1249.6048409482751
 23
863.20000000000005
 33
0.0
  0
POINT
  5
178A
  8
DEFPOINTS
 62
     0
 10
1391.3294810414559
 20
860.0
 30
0.0
  0
POINT
  5
178B
  8
DEFPOINTS
 62
     0
 10
1622.1048409482751
 20
863.20000000000005
 30
0.0
  0
POINT
  5
178C
  8
DEFPOINTS
 62
     0
 10
1249.6048409482751
 20
863.20000000000005
 30
0.0
  0
ENDBLK
  5
84E
  8
0
  0
BLOCK
  8
0
  2
*X17
 70
     1
 10
0.0
 20
0.0
 30
0.0
  3
*X17
  1

  0
LINE
  5
821
  8
0
 62
     0
 10
1489.6048409482751
 20
605.72136446509114
 30
0.0
 11
1627.104840948276
 21
743.22136446509126
 31
0.0
  0
LINE
  5
822
  8
0
 62
     0
 10
1489.6048409482751
 20
782.49805976172809
 30
0.0
 11
1567.1067811865471
 21
860.0
 31
0.0
  0
LINE
  5
823
  8
0
 62
     0
 10
1490.660171779821
 20
430.0
 30
0.0
 11
1627.104840948276
 21
566.44466916845442
 31
0.0
  0
LINE
  5
824
  8
0
 62
     0
 10
1752.1048409482751
 20
691.44466916845431
 30
0.0
 11
1889.6048409482751
 21
828.9446691684542
 31
0.0
  0
LINE
  5
825
  8
0
 62
     0
 10
1752.1048409482751
 20
514.66797387181771
 30
0.0
 11
1889.6048409482751
 21
652.16797387181759
 31
0.0
  0
LINE
  5
826
  8
0
 62
     0
 10
1844.2135623730951
 20
429.99999999999989
 30
0.0
 11
1889.6048409482751
 21
475.39127857518048
 31
0.0
  0
LINE
  5
827
  8
0
 62
     0
 10
1489.6048409482751
 20
451.04175608053379
 30
0.0
 11
1627.104840948276
 21
588.54175608053401
 31
0.0
  0
LINE
  5
828
  8
0
 62
     0
 10
1752.1048409482751
 20
713.54175608053413
 30
0.0
 11
1889.6048409482751
 21
851.04175608053401
 31
0.0
  0
LINE
  5
829
  8
0
 62
     0
 10
1489.6048409482751
 20
627.81845137717062
 30
0.0
 11
1627.104840948276
 21
765.31845137717085
 31
0.0
  0
LINE
  5
82A
  8
0
 62
     0
 10
1489.6048409482751
 20
804.59514667380756
 30
0.0
 11
1545.0096942744681
 21
860.0
 31
0.0
  0
LINE
  5
82B
  8
0
 62
     0
 10
1752.1048409482751
 20
536.76506078389741
 30
0.0
 11
1889.6048409482751
 21
674.26506078389741
 31
0.0
  0
LINE
  5
82C
  8
0
 62
     0
 10
1822.1164754610149
 20
429.99999999999989
 30
0.0
 11
1889.6048409482751
 21
497.4883654872599
 31
0.0
  0
LINE
  5
82D
  8
0
 62
     0
 10
1489.6048409482751
 20
473.13884299261321
 30
0.0
 11
1627.104840948276
 21
610.6388429926136
 31
0.0
  0
LINE
  5
82E
  8
0
 62
     0
 10
1752.1048409482751
 20
735.63884299261338
 30
0.0
 11
1876.465997955662
 21
860.00000000000034
 31
0.0
  0
LINE
  5
82F
  8
0
 62
     0
 10
1489.6048409482751
 20
649.91553828925021
 30
0.0
 11
1627.104840948276
 21
787.41553828925043
 31
0.0
  0
LINE
  5
830
  8
0
 62
     0
 10
1489.6048409482751
 20
826.69223358588715
 30
0.0
 11
1522.9126073623879
 21
860.0
 31
0.0
  0
LINE
  5
831
  8
0
 62
     0
 10
1623.2426932522981
 20
429.99999999999989
 30
0.0
 11
1627.1048409482751
 21
433.86214769597672
 31
0.0
  0
LINE
  5
832
  8
0
 62
     0
 10
1752.1048409482751
 20
558.86214769597689
 30
0.0
 11
1889.6048409482751
 21
696.36214769597689
 31
0.0
  0
LINE
  5
833
  8
0
 62
     0
 10
1800.019388548935
 20
429.99999999999989
 30
0.0
 11
1889.6048409482751
 21
519.58545239933983
 31
0.0
  0
ENDBLK
  5
834
  8
0
  0
BLOCK
  8
0
  2
*D18
 70
     1
 10
0.0
 20
0.0
 30
0.0
  3
*D18
  1

  0
LINE
  5
178D
  8
SUNPOU
 10
1460.42463707139
 20
480.0
 30
0.0
 11
1329.6048409482751
 21
480.0
 31
0.0
  0
LINE
  5
178E
  8
SUNPOU
 10
1381.3294810414559
 20
860.0
 30
0.0
 11
1329.6048409482751
 21
860.0
 31
0.0
  0
LINE
  5
178F
  8
SUNPOU
 10
1339.6048409482751
 20
500.0
 30
0.0
 11
1339.6048409482751
 21
840.0
 31
0.0
  0
SOLID
  5
1790
  8
SUNPOU
 10
1336.271507614942
 20
500.0
 30
0.0
 11
1342.9381742816081
 21
500.0
 31
0.0
 12
1339.6048409482751
 22
480.0
 32
0.0
 13
1339.6048409482751
 23
480.0
 33
0.0
  0
SOLID
  5
1791
  8
SUNPOU
 10
1336.271507614942
 20
840.0
 30
0.0
 11
1342.938174281609
 21
840.0
 31
0.0
 12
1339.6048409482751
 22
860.0
 32
0.0
 13
1339.6048409482751
 23
860.0
 33
0.0
  0
TEXT
  8
SUNPOU
  40
30
  5
17B3
  72
0
  71
0
 10
1252.60
 20
616.900
 30
0.000000
  1
380
  7
EXT08
  0
POINT
  5
1793
  8
DEFPOINTS
 62
     0
 10
1470.42463707139
 20
480.0
 30
0.0
  0
POINT
  5
1794
  8
DEFPOINTS
 62
     0
 10
1391.3294810414559
 20
860.0
 30
0.0
  0
POINT
  5
1795
  8
DEFPOINTS
 62
     0
 10
1339.6048409482751
 20
860.0
 30
0.0
  0
ENDBLK
  5
840
  8
0
  0
BLOCK
  8
0
  2
*D19
 70
     1
 10
0.0
 20
0.0
 30
0.0
  3
*D19
  1

  0
LINE
  5
1747
  8
SUNPOU
 10
2661.2715076180762
 20
869.99999999600016
 30
0.0
 11
2521.271507619475
 21
869.99999999600016
 31
0.0
  0
LINE
  5
1748
  8
SUNPOU
 10
2624.6048409517762
 20
1103.333333327
 30
0.0
 11
2521.2715076194759
 21
1103.333333327
 31
0.0
  0
LINE
  5
1749
  8
SUNPOU
 10
2531.271507619475
 20
889.99999999600004
 30
0.0
 11
2531.2715076194759
 21
1083.333333327
 31
0.0
  0
SOLID
  5
174A
  8
SUNPOU
 10
2527.9381742861419
 20
889.99999999600004
 30
0.0
 11
2534.6048409528089
 21
889.99999999600004
 31
0.0
 12
2531.271507619475
 22
869.99999999600016
 32
0.0
 13
2531.271507619475
 23
869.99999999600016
 33
0.0
  0
SOLID
  5
174B
  8
SUNPOU
 10
2527.9381742861419
 20
1083.333333327
 30
0.0
 11
2534.6048409528089
 21
1083.333333327
 31
0.0
 12
2531.2715076194759
 22
1103.333333327
 32
0.0
 13
2531.2715076194759
 23
1103.333333327
 33
0.0
  0
TEXT
  8
SUNPOU
  40
30
  5
17B4
  72
0
  71
0
 10
2444.27
 20
933.567
 30
0.000000
  1
70
  7
EXT08
  0
POINT
  5
174D
  8
DEFPOINTS
 62
     0
 10
2671.2715076180762
 20
869.99999999600016
 30
0.0
  0
POINT
  5
174E
  8
DEFPOINTS
 62
     0
 10
2634.6048409517762
 20
1103.333333327
 30
0.0
  0
POINT
  5
174F
  8
DEFPOINTS
 62
     0
 10
2531.2715076194759
 20
1103.333333327
 30
0.0
  0
ENDBLK
  5
897
  8
0
  0
BLOCK
  8
0
  2
*D20
 70
     1
 10
0.0
 20
0.0
 30
0.0
  3
*D20
  1

  0
LINE
  5
1750
  8
SUNPOU
 10
2794.6048409501759
 20
1376.6666666577
 30
0.0
 11
2794.6048409501759
 21
1479.9999999900001
 31
0.0
  0
LINE
  5
1751
  8
SUNPOU
 10
3174.604840946376
 20
1376.6666666577
 30
0.0
 11
3174.604840946376
 21
1479.9999999900001
 31
0.0
  0
LINE
  5
1752
  8
SUNPOU
 10
2814.6048409501759
 20
1469.9999999900001
 30
0.0
 11
3154.604840946376
 21
1469.9999999900001
 31
0.0
  0
SOLID
  5
1753
  8
SUNPOU
 10
2814.6048409501759
 20
1473.3333333233329
 30
0.0
 11
2814.6048409501759
 21
1466.6666666566659
 31
0.0
 12
2794.6048409501759
 22
1469.9999999900001
 32
0.0
 13
2794.6048409501759
 23
1469.9999999900001
 33
0.0
  0
SOLID
  5
1754
  8
SUNPOU
 10
3154.604840946376
 20
1473.3333333233329
 30
0.0
 11
3154.604840946376
 21
1466.6666666566659
 31
0.0
 12
3174.604840946376
 22
1469.9999999900001
 32
0.0
 13
3174.604840946376
 23
1469.9999999900001
 33
0.0
  0
TEXT
  8
SUNPOU
  40
30
  5
17B5
  72
0
  71
0
 10
2924.60
 20
1443.90
 30
0.000000
  1
%%C114
  7
EXT08
  0
POINT
  5
1756
  8
DEFPOINTS
 62
     0
 10
2794.6048409501759
 20
1366.6666666577
 30
0.0
  0
POINT
  5
1757
  8
DEFPOINTS
 62
     0
 10
3174.604840946376
 20
1366.6666666577
 30
0.0
  0
POINT
  5
1758
  8
DEFPOINTS
 62
     0
 10
3174.604840946376
 20
1469.9999999900001
 30
0.0
  0
ENDBLK
  5
8D7
  8
0
  0
BLOCK
  8
0
  2
*D21
 70
     1
 10
0.0
 20
0.0
 30
0.0
  3
*D21
  1

  0
LINE
  5
16DB
  8
SUNPOU
 10
2931.2715076682762
 20
1139.9999993500001
 30
0.0
 11
2931.2715076682762
 21
1159.9999993500001
 31
0.0
  0
LINE
  5
16DC
  8
SUNPOU
 10
2931.2715076682762
 20
1066.6666660500009
 30
0.0
 11
2931.2715076682762
 21
1046.6666660500009
 31
0.0
  0
TEXT
  8
SUNPOU
  40
30
  5
17B6
  72
0
  71
0
 10
2841.27
 20
1126.90
 30
0.000000
  1
10
  7
EXT08
  0
LINE
  5
16DE
  8
SUNPOU
 10
2931.2715076682762
 20
1119.9999993500001
 30
0.0
 11
2931.2715076682762
 21
1086.6666660500009
 31
0.0
  0
SOLID
  5
16DF
  8
SUNPOU
 10
2927.9381743349418
 20
1139.9999993500001
 30
0.0
 11
2934.6048410016092
 21
1139.9999993500001
 31
0.0
 12
2931.2715076682762
 22
1119.9999993500001
 32
0.0
 13
2931.2715076682762
 23
1119.9999993500001
 33
0.0
  0
SOLID
  5
16E0
  8
SUNPOU
 10
2927.9381743349418
 20
1066.6666660500009
 30
0.0
 11
2934.6048410016092
 21
1066.6666660500009
 31
0.0
 12
2931.2715076682762
 22
1086.6666660500009
 32
0.0
 13
2931.2715076682762
 23
1086.6666660500009
 33
0.0
  0
POINT
  5
16E1
  8
DEFPOINTS
 62
     0
 10
2931.2715076682762
 20
1119.9999993500001
 30
0.0
  0
POINT
  5
16E2
  8
DEFPOINTS
 62
     0
 10
2931.2715076682762
 20
1086.6666660500009
 30
0.0
  0
POINT
  5
16E3
  8
DEFPOINTS
 62
     0
 10
2931.2715076682762
 20
1086.6666660500009
 30
0.0
  0
ENDBLK
  5
8B1
  8
0
  0
BLOCK
  8
0
  2
*D22
 70
     1
 10
0.0
 20
0.0
 30
0.0
  3
*D22
  1

  0
LINE
  5
173C
  8
SUNPOU
 10
3307.9381742784758
 20
854.99999999614977
 30
0.0
 11
3461.2715076102759
 21
854.99999999614977
 31
0.0
  0
LINE
  5
173D
  8
SUNPOU
 10
3307.9381742784758
 20
869.99999999600016
 30
0.0
 11
3461.2715076102759
 21
869.99999999599993
 31
0.0
  0
LINE
  5
173E
  8
SUNPOU
 10
3451.2715076102759
 20
834.99999999614965
 30
0.0
 11
3451.2715076102759
 21
814.99999999614965
 31
0.0
  0
LINE
  5
173F
  8
SUNPOU
 10
3451.2715076102759
 20
889.99999999600004
 30
0.0
 11
3451.2715076102759
 21
909.99999999599993
 31
0.0
  0
TEXT
  8
SUNPOU
  40
30
  5
17B7
  72
0
  71
0
 10
3361.27
 20
877.545
 30
0.000000
  1
t4.5
  7
EXT08
  0
LINE
  5
1741
  8
SUNPOU
 10
3451.2715076102759
 20
854.99999999614977
 30
0.0
 11
3451.2715076102759
 21
869.99999999599993
 31
0.0
  0
SOLID
  5
1742
  8
SUNPOU
 10
3447.9381742769419
 20
834.99999999614965
 30
0.0
 11
3454.6048409436089
 21
834.99999999614965
 31
0.0
 12
3451.2715076102759
 22
854.99999999614977
 32
0.0
 13
3451.2715076102759
 23
854.99999999614977
 33
0.0
  0
SOLID
  5
1743
  8
SUNPOU
 10
3447.9381742769419
 20
889.99999999600004
 30
0.0
 11
3454.6048409436089
 21
889.99999999600004
 31
0.0
 12
3451.2715076102759
 22
869.99999999599993
 32
0.0
 13
3451.2715076102759
 23
869.99999999599993
 33
0.0
  0
POINT
  5
1744
  8
DEFPOINTS
 62
     0
 10
3297.9381742784749
 20
854.99999999614977
 30
0.0
  0
POINT
  5
1745
  8
DEFPOINTS
 62
     0
 10
3297.9381742784749
 20
869.99999999600016
 30
0.0
  0
POINT
  5
1746
  8
DEFPOINTS
 62
     0
 10
3451.2715076102759
 20
869.99999999599993
 30
0.0
  0
ENDBLK
  5
8CC
  8
0
  0
BLOCK
  8
0
  2
*D23
 70
     1
 10
0.0
 20
0.0
 30
0.0
  3
*D23
  1

  0
LINE
  5
172A
  8
SUNPOU
 10
2659.335721605647
 20
1977.0710677968609
 30
0.0
 11
2553.2697044287261
 21
2083.1370849737818
 31
0.0
  0
LINE
  5
172B
  8
SUNPOU
 10
2977.5337731364111
 20
2295.269119327626
 30
0.0
 11
2871.4677559594911
 21
2401.3351365045469
 31
0.0
  0
LINE
  5
172C
  8
SUNPOU
 10
2574.482907864322
 20
2090.2081527856471
 30
0.0
 11
2864.3966881476249
 21
2380.1219330689501
 31
0.0
  0
SOLID
  5
172D
  8
SUNPOU
 10
2572.1258852603669
 20
2092.5651753896018
 30
0.0
 11
2576.8399304682771
 21
2087.851130181692
 31
0.0
 12
2560.3407722405909
 22
2076.0660171619161
 32
0.0
 13
2560.3407722405909
 23
2076.0660171619161
 33
0.0
  0
SOLID
  5
172E
  8
SUNPOU
 10
2862.0396655436698
 20
2382.4789556729052
 30
0.0
 11
2866.75371075158
 21
2377.764910464994
 31
0.0
 12
2878.538823771356
 22
2394.2640686926811
 32
0.0
 13
2878.538823771356
 23
2394.2640686926811
 33
0.0
  0
TEXT
  8
SUNPOU
  40
30
  5
17B8
  72
0
  71
0
 10
2640.35
 20
2201.16
 30
0.000000
  1
135
  7
EXT08
  0
POINT
  5
1730
  8
DEFPOINTS
 62
     0
 10
2666.4067894175118
 20
1969.9999999849949
 30
0.0
  0
POINT
  5
1731
  8
DEFPOINTS
 62
     0
 10
2984.6048409482769
 20
2288.1980515157602
 30
0.0
  0
POINT
  5
1732
  8
DEFPOINTS
 62
     0
 10
2878.538823771356
 20
2394.2640686926811
 30
0.0
  0
ENDBLK
  5
8E5
  8
0
  0
BLOCK
  8
0
  2
*D24
 70
     1
 10
0.0
 20
0.0
 30
0.0
  3
*D24
  1

  0
LINE
  5
1733
  8
SUNPOU
 10
2659.335721605647
 20
1962.9289321731339
 30
0.0
 11
2553.2697044287261
 21
1856.8629149962139
 31
0.0
  0
LINE
  5
1734
  8
SUNPOU
 10
2977.5337731364111
 20
1644.73088064237
 30
0.0
 11
2871.4677559594911
 21
1538.6648634654489
 31
0.0
  0
LINE
  5
1735
  8
SUNPOU
 10
2574.482907864322
 20
1849.7918471843479
 30
0.0
 11
2864.3966881476249
 21
1559.878066901045
 31
0.0
  0
SOLID
  5
1736
  8
SUNPOU
 10
2576.839930468278
 20
1852.148869788303
 30
0.0
 11
2572.1258852603678
 21
1847.4348245803931
 31
0.0
 12
2560.3407722405909
 22
1863.933982808079
 32
0.0
 13
2560.3407722405909
 23
1863.933982808079
 33
0.0
  0
SOLID
  5
1737
  8
SUNPOU
 10
2866.7537107515809
 20
1562.235089505001
 30
0.0
 11
2862.0396655436698
 21
1557.5210442970899
 31
0.0
 12
2878.538823771356
 22
1545.735931277314
 32
0.0
 13
2878.538823771356
 23
1545.735931277314
 33
0.0
  0
TEXT
  8
SUNPOU
  40
30
  5
17B9
  72
0
  71
0
 10
2678.53
 20
1670.83
 30
0.000000
  1
135
  7
EXT08
  0
POINT
  5
1739
  8
DEFPOINTS
 62
     0
 10
2666.4067894175118
 20
1969.9999999849999
 30
0.0
  0
POINT
  5
173A
  8
DEFPOINTS
 62
     0
 10
2984.6048409482769
 20
1651.801948454236
 30
0.0
  0
POINT
  5
173B
  8
DEFPOINTS
 62
     0
 10
2878.538823771356
 20
1545.735931277314
 30
0.0
  0
ENDBLK
  5
8F1
  8
0
  0
BLOCK
  8
0
  2
*D25
 70
     1
 10
0.0
 20
0.0
 30
0.0
  3
*D25
  1

  0
LINE
  5
1723
  8
SUNPOU
 10
2859.6826429400448
 20
1845.0778019767649
 30
0.0
 11
3109.5270389565112
 21
2094.9221979932322
 31
0.0
  0
SOLID
  5
1724
  8
SUNPOU
 10
2857.3256203360902
 20
1847.4348245807209
 30
0.0
 11
2862.0396655440009
 21
1842.7207793728101
 31
0.0
 12
2845.5405073163138
 22
1830.935666353035
 32
0.0
 13
2845.5405073163138
 23
1830.935666353035
 33
0.0
  0
SOLID
  5
1725
  8
SUNPOU
 10
3107.170016352557
 20
2097.2792205971868
 30
0.0
 11
3111.8840615604672
 21
2092.5651753892762
 31
0.0
 12
3123.6691745802432
 22
2109.0643336169628
 32
0.0
 13
3123.6691745802432
 23
2109.0643336169628
 33
0.0
  0
TEXT
  8
SUNPOU
  40
30
  5
17BA
  72
0
  71
0
 10
2905.51
 20
1935.99
 30
0.000000
  1
%%C118
  7
EXT08
  0
POINT
  5
1727
  8
DEFPOINTS
 62
     0
 10
2845.5405073163138
 20
1830.9356663530359
 30
0.0
  0
POINT
  5
1728
  8
DEFPOINTS
 62
     0
 10
3123.6691745802409
 20
2109.0643336169642
 30
0.0
  0
POINT
  5
1729
  8
DEFPOINTS
 62
     0
 10
3123.6691745802432
 20
2109.0643336169628
 30
0.0
  0
ENDBLK
  5
913
  8
0
  0
BLOCK
  8
0
  2
*D26
 70
     1
 10
0.0
 20
0.0
 30
0.0
  3
*D26
  1

  0
LINE
  5
1796
  8
SUNPOU
 10
634.60484094827564
 20
1937.022061470916
 30
0.0
 11
634.60484094827575
 21
1880.9398505515819
 31
0.0
  0
LINE
  5
1797
  8
SUNPOU
 10
650.2928746428546
 20
1937.7070158144011
 30
0.0
 11
655.18076139046013
 21
1881.838214639298
 31
0.0
  0
ARC
  5
1798
  8
SUNPOU
 10
634.60484094827541
 20
2117.0220614709169
 30
0.0
 40
226.08221091933549
 50
259.859533237471
 51
264.92976661873553
  0
ARC
  5
1799
  8
SUNPOU
 10
634.60484094827541
 20
2117.0220614709169
 30
0.0
 40
226.08221091933549
 50
280.0702333812647
 51
285.14046676252929
  0
ARC
  5
179A
  8
SUNPOU
 10
634.60484094827541
 20
2117.0220614709169
 30
0.0
 40
226.08221091933549
 50
270.00000000000011
 51
275.00000000000023
  0
SOLID
  5
179B
  8
SUNPOU
 10
614.77185394980631
 20
1895.1545555032551
 30
0.0
 11
614.47697596539706
 21
1888.494413506364
 31
0.0
 12
634.60484094827564
 22
1890.9398505515819
 32
0.0
 13
634.60484094827564
 23
1890.9398505515819
 33
0.0
  0
SOLID
  5
179C
  8
SUNPOU
 10
674.57361022485213
 20
1891.1182892237589
 30
0.0
 11
673.69938471765579
 21
1897.7273870598499
 31
0.0
 12
654.30920396298347
 22
1891.800161620215
 32
0.0
 13
654.30920396298347
 23
1891.800161620215
 33
0.0
  0
TEXT
  8
SUNPOU
  40
30
  5
17BB
  72
0
  71
0
 10
647.199
 20
1879.64
 30
0.000000
  1
5°0'
  7
EXT08
  0
POINT
  5
179E
  8
DEFPOINTS
 62
     0
 10
641.18037846568529
 20
1891.0354946123271
 30
0.0
  0
POINT
  5
179F
  8
DEFPOINTS
 62
     0
 10
649.42131721537805
 20
1947.668962795319
 30
0.0
  0
POINT
  5
17A0
  8
DEFPOINTS
 62
     0
 10
634.60484094827541
 20
1947.022061470916
 30
0.0
  0
POINT
  5
17A1
  8
DEFPOINTS
 62
     0
 10
634.60484094827564
 20
2258.693384131132
 30
0.0
  0
POINT
  5
17A2
  8
DEFPOINTS
 62
     0
 10
634.60484094827541
 20
2117.022061470916
 30
0.0
  0
ENDBLK
  5
E9E
  8
0
  0
ENDSEC
  0
SECTION
  2
ENTITIES
  0
TEXT
  5
1C6
  8
MOJI2
 10
332.78669342153353
 20
2475.8259014658779
 30
0.0
 40
40.0
  1
YH-3-KSD
 41
0.8
  7
EXT08
  0
LINE
  5
1C7
  8
MOJI2
 10
319.60484097585049
 20
2460.0000000657419
 30
0.0
 11
595.81262738148826
 21
2460.0000000657419
 31
0.0
  0
LINE
  5
1C8
  8
MOJI
 10
761.60484094827552
 20
1255.0
 30
0.0
 11
1062.9217567457979
 21
1255.0
 31
0.0
  0
TEXT
  5
1C9
  8
MOJI
 10
772.90318630993534
 20
1263.6947247700709
 30
0.0
 40
30.0
  1
支柱 %%C114×1180
 41
0.8
  7
EXT08
  0
TEXT
  5
1CA
  8
MOJI
 10
821.49139033297615
 20
1213.4229179328049
 30
0.0
 40
30.0
  1
FCD450
 41
0.8
  7
EXT08
  0
DIMENSION
  5
1CB
  8
SUNPOU
  2
*D5
 10
194.60484094827549
 20
860.0
 30
0.0
 11
167.60484094827541
 21
1260.0
 31
0.0
 70
     0
 13
634.60484094827541
 23
1660.0
 33
0.0
 14
194.60484094827549
 24
860.0
 34
0.0
 50
90.0
1001
ACAD
1000
DSTYLE
1002
{
1070
   287
1070
     5
1070
   287
1070
     5
1070
    40
1040
10.0
1070
    41
1040
2.0
1070
    42
1040
1.0
1070
    43
1040
6.0
1070
    44
1040
1.0
1070
    73
1070
     0
1070
    74
1070
     0
1070
    77
1070
     1
1070
    78
1070
     8
1070
   140
1040
3.0
1070
   147
1040
1.1999999999999991
1070
   172
1070
     1
1070
   176
1070
   256
1070
   177
1070
   256
1070
   178
1070
   256
1070
   271
1070
     1
1070
   275
1070
     1
1070
   279
1070
     2
1070
   340
1005
3AA
1002
}
  0
LINE
  5
1CC
  8
MOJI
 10
759.60484094827541
 20
1725.0
 30
0.0
 11
1100.7973794552611
 21
1725.0
 31
0.0
  0
TEXT
  5
1CD
  8
MOJI
 10
774.76278876900778
 20
1735.2404603679929
 30
0.0
 40
30.0
  1
反射板 ポリカーボネート
 41
0.8
  7
EXT08
  0
TEXT
  5
1CE
  8
MOJI
 10
344.74602818052608
 20
869.93564453938814
 30
0.0
 40
30.0
  1
GL
 41
0.8
  7
EXT08
  0
LINE
  5
1CF
  8
MOJI
 10
761.60484094827552
 20
1362.441027590485
 30
0.0
 11
1032.500865545275
 21
1362.441027590485
 31
0.0
  0
TEXT
  5
1D0
  8
MOJI
 10
777.27646203464599
 20
1372.669910865694
 30
0.0
 40
30.0
  1
ブラインドリベット
 41
0.8
  7
EXT08
  0
TEXT
  5
1D1
  8
MOJI
 10
810.45685347077176
 20
1322.2074254189849
 30
0.0
 40
30.0
  1
NSA4-10
 41
0.8
  7
EXT08
  0
LINE
  5
1D2
  8
CENTER
 10
459.60484094827541
 20
2117.022061470916
 30
0.0
 11
809.60484094827541
 21
2117.022061470916
 31
0.0
  0
LINE
  5
1D4
  8
CENTER
 10
634.60484094827541
 20
1947.022061470916
 30
0.0
 11
634.60484094827541
 21
2258.693384131132
 31
0.0
  0
INSERT
  5
1D5
  8
MOJI
  2
1-10BASE
 10
0.0
 20
0.0
 30
0.0
  0
LINE
  5
1D6
  8
MOJI
 10
3176.1806318113422
 20
1608.3333334395179
 30
0.0
 11
3449.0560138024348
 21
1608.3333334395179
 31
0.0
  0
LINE
  5
1D7
  8
SJC
 10
3384.6048405482761
 20
1284.9999992
 30
0.0
 11
3351.2715072482761
 21
1251.6666659
 31
0.0
  0
LINE
  5
1D8
  8
SUNPOU
 10
3317.938173948276
 20
1284.9999992
 30
0.0
 11
3411.2715071882749
 21
1284.9999992
 31
0.0
  0
CIRCLE
  5
1D9
  8
SJC
 10
3317.938173948276
 20
1284.9999992
 30
0.0
 40
9.9999999899999992
  0
LINE
  5
1DA
  8
SJC
 10
3351.2715072482761
 20
1251.6666659
 30
0.0
 11
3351.2715072482761
 21
1284.9999992
 31
0.0
  0
LINE
  5
1DC
  8
MOJI2
 10
2689.604841248276
 20
2493.3333312999998
 30
0.0
 11
3013.614242526095
 21
2493.3333312999998
 31
0.0
  0
LINE
  5
1DD
  8
MOJI
 10
1759.6048409482751
 20
1040.0
 30
0.0
 11
2005.329218238812
 21
1040.0
 31
0.0
  0
LINE
  5
1DF
  8
MOJI
 10
1959.6048409482751
 20
630.0
 30
0.0
 11
2224.2849643336481
 21
630.0
 31
0.0
  0
LINE
  5
1F3
  8
MOJI2
 10
1611.1899286196731
 20
1770.0
 30
0.0
 11
1775.9371010187881
 21
1770.0
 31
0.0
  0
LINE
  5
1F4
  8
SJC
 10
1717.1048409482751
 20
1502.5
 30
0.0
 11
1757.1048409482751
 21
1462.5
 31
0.0
  0
LINE
  5
1F5
  8
SJC
 10
1622.1048409482751
 20
1407.5
 30
0.0
 11
1662.1048409482751
 21
1367.5
 31
0.0
  0
CIRCLE
  5
1F6
  8
SJC
 10
1742.1048409482751
 20
1382.5
 30
0.0
 40
6.0
1001
ACAD
1000
ASC_BOUNDS
1002
{
1070
    19
1002
}
  0
CIRCLE
  5
1F7
  8
SJC
 10
1637.104840948276
 20
1487.5
 30
0.0
 40
6.0
1001
ACAD
1000
ASC_BOUNDS
1002
{
1070
    19
1002
}
  0
CIRCLE
  5
1F8
  8
HASEN
 10
1689.6048409482751
 20
1435.0
 30
0.0
 40
62.5
1001
ACAD
1000
ASC_BOUNDS
1002
{
1070
    19
1002
}
  0
LINE
  5
20B
  8
SJC
 10
1489.6048409482751
 20
1635.0
 30
0.0
 11
1489.6048409482751
 21
1235.0
 31
0.0
1001
ACAD
1000
ASC_BOUNDS
1002
{
1070
    19
1002
}
  0
LINE
  5
20C
  8
SJC
 10
1889.6048409482751
 20
1635.0
 30
0.0
 11
1489.6048409482751
 21
1635.0
 31
0.0
1001
ACAD
1000
ASC_BOUNDS
1002
{
1070
    19
1002
}
  0
LINE
  5
20D
  8
SJC
 10
1889.6048409482751
 20
1235.0
 30
0.0
 11
1889.6048409482751
 21
1635.0
 31
0.0
1001
ACAD
1000
ASC_BOUNDS
1002
{
1070
    19
1002
}
  0
LINE
  5
20E
  8
SJC
 10
1489.6048409482751
 20
1235.0
 30
0.0
 11
1889.6048409482751
 21
1235.0
 31
0.0
1001
ACAD
1000
ASC_BOUNDS
1002
{
1070
    19
1002
}
  0
LINE
  5
20F
  8
HASEN
 10
1627.1048409482751
 20
467.0
 30
0.0
 11
1752.1048409482751
 21
467.0
 31
0.0
  0
LINE
  5
210
  8
HASEN
 10
1627.1048409482751
 20
480.0
 30
0.0
 11
1752.1048409482751
 21
480.0
 31
0.0
  0
LINE
  5
211
  8
SJC
 10
1752.1048409482751
 20
467.0
 30
0.0
 11
1814.6048409482751
 21
467.0
 31
0.0
1001
ACAD
1000
ASC_BOUNDS
1002
{
1070
    19
1002
}
  0
LINE
  5
212
  8
SJC
 10
1752.1048409482751
 20
480.0
 30
0.0
 11
1814.6048409482751
 21
480.0
 31
0.0
1001
ACAD
1000
ASC_BOUNDS
1002
{
1070
    19
1005
0
1005
0
1002
}
  0
ARC
  5
213
  8
SJC2
 10
1742.1048409482751
 20
863.20000000000005
 30
0.0
 40
6.0
 50
0.0
 51
180.0
  0
ARC
  5
214
  8
SJC2
 10
1637.104840948276
 20
863.20000000000005
 30
0.0
 40
6.0
 50
0.0
 51
180.0
  0
LINE
  5
215
  8
SJC2
 10
1622.1048409482751
 20
863.20000000000005
 30
0.0
 11
1622.1048409482751
 21
856.79999999999995
 31
0.0
1001
ACAD
1000
ASC_BOUNDS
1002
{
1070
    19
1002
}
  0
LINE
  5
216
  8
SJC2
 10
1757.1048409482751
 20
863.20000000000005
 30
0.0
 11
1622.1048409482751
 21
863.20000000000005
 31
0.0
  0
LINE
  5
217
  8
SJC2
 10
1757.1048409482751
 20
856.79999999999995
 30
0.0
 11
1757.1048409482751
 21
863.20000000000005
 31
0.0
1001
ACAD
1000
ASC_BOUNDS
1002
{
1070
    19
1002
}
  0
LINE
  5
218
  8
SJC2
 10
1622.1048409482751
 20
856.79999999999995
 30
0.0
 11
1757.1048409482751
 21
856.79999999999995
 31
0.0
1001
ACAD
1000
ASC_BOUNDS
1002
{
1070
    19
1005
0
1005
0
1002
}
  0
LINE
  5
219
  8
SJC
 10
1564.6048409482751
 20
467.0
 30
0.0
 11
1564.6048409482751
 21
480.0
 31
0.0
1001
ACAD
1000
ASC_BOUNDS
1002
{
1070
    19
1002
}
  0
LINE
  5
21A
  8
SJC
 10
1814.6048409482751
 20
467.0
 30
0.0
 11
1814.6048409482751
 21
480.0
 31
0.0
1001
ACAD
1000
ASC_BOUNDS
1002
{
1070
    19
1002
}
  0
LINE
  5
21B
  8
SJC
 10
1564.6048409482751
 20
467.0
 30
0.0
 11
1627.1048409482751
 21
467.0
 31
0.0
1001
ACAD
1000
ASC_BOUNDS
1002
{
1070
    19
1002
}
  0
LINE
  5
21C
  8
SJC
 10
1564.6048409482751
 20
480.0
 30
0.0
 11
1627.1048409482751
 21
480.0
 31
0.0
1001
ACAD
1000
ASC_BOUNDS
1002
{
1070
    19
1002
}
  0
LINE
  5
21D
  8
SJC
 10
1752.1048409482751
 20
430.0
 30
0.0
 11
1752.1048409482751
 21
856.79999999999995
 31
0.0
1001
ACAD
1000
ASC_BOUNDS
1002
{
1070
    19
1005
0
1005
0
1002
}
  0
LINE
  5
21E
  8
SJC
 10
1627.1048409482751
 20
430.0
 30
0.0
 11
1627.1048409482751
 21
856.79999999999995
 31
0.0
1001
ACAD
1000
ASC_BOUNDS
1002
{
1070
    19
1002
}
  0
LINE
  5
21F
  8
SJC
 10
1391.3294810414559
 20
860.0
 30
0.0
 11
2139.604840948276
 21
860.0
 31
0.0
1001
ACAD
1000
ASC_BOUNDS
1002
{
1070
    19
1005
0
1005
0
1002
}
  0
LINE
  5
220
  8
CENTER
 10
1689.6048409482751
 20
380.0
 30
0.0
 11
1689.6048409482751
 21
960.0
 31
0.0
  0
LINE
  5
221
  8
SJC
 10
1489.6048409482751
 20
430.0
 30
0.0
 11
1489.6048409482751
 21
860.0
 31
0.0
1001
ACAD
1000
ASC_BOUNDS
1002
{
1070
    19
1002
}
  0
LINE
  5
222
  8
SJC
 10
1889.6048409482751
 20
430.0
 30
0.0
 11
1889.6048409482751
 21
860.0
 31
0.0
1001
ACAD
1000
ASC_BOUNDS
1002
{
1070
    19
1005
0
1005
0
1002
}
  0
LINE
  5
223
  8
SJC
 10
1489.6048409482751
 20
430.0
 30
0.0
 11
1889.6048409482751
 21
430.0
 31
0.0
1001
ACAD
1000
ASC_BOUNDS
1002
{
1070
    19
1005
0
1005
0
1002
}
  0
TEXT
  5
228
  8
MOJI2
 10
1621.1899286196731
 20
1780.0
 30
0.0
 40
40.0
  1
脱 着 時
 41
0.8
  7
EXT08
  0
DIMENSION
  5
229
  8
SUNPOU
  2
*D10
 10
1339.6048409482751
 20
480.0
 30
0.0
 11
1309.5226308235319
 21
455.0
 31
0.0
 70
   128
 13
1480.42463707139
 23
430.0
 33
0.0
 14
1480.42463707139
 24
480.0
 34
0.0
 50
90.0
1001
ACAD
1000
DSTYLE
1002
{
1070
   287
1070
     5
1070
   287
1070
     5
1070
    40
1040
10.0
1070
    41
1040
2.0
1070
    42
1040
1.0
1070
    43
1040
6.0
1070
    44
1040
1.0
1070
    73
1070
     0
1070
    74
1070
     0
1070
    77
1070
     1
1070
    78
1070
     8
1070
   140
1040
3.0
1070
   147
1040
1.1999999999999991
1070
   172
1070
     1
1070
   176
1070
   256
1070
   177
1070
   256
1070
   178
1070
   256
1070
   271
1070
     1
1070
   275
1070
     1
1070
   279
1070
     2
1070
   340
1005
3AA
1002
}
  0
TEXT
  5
22B
  8
MOJI
 10
1967.546635983472
 20
640.0
 30
0.0
 40
30.0
  1
ネカセ%%C13×250
 41
0.8
  7
EXT08
  0
TEXT
  5
22D
  8
MOJI
 10
1766.607679167852
 20
1049.967484398195
 30
0.0
 40
30.0
  1
カバー PL t3.2
 41
0.8
  7
EXT08
  0
TEXT
  5
22E
  8
MOJI
 10
1787.921834292501
 20
997.67508071457121
 30
0.0
 40
30.0
  1
溶融亜鉛めっき
 41
0.8
  7
EXT08
  0
TEXT
  5
22F
  8
MOJI
 10
3199.6048407482749
 20
1618.3333334395179
 30
0.0
 40
30.0
  1
ボルトM12×25
 41
0.8
  7
EXT08
  0
TEXT
  5
230
  8
MOJI
 10
3224.675961369162
 20
1567.328652709368
 30
0.0
 40
30.0
  1
溶融亜鉛めっき
 41
0.8
  7
EXT08
  0
TEXT
  5
231
  8
MOJI2
 10
2701.685467677145
 20
2503.3333312999998
 30
0.0
 40
40.0
  1
カギ部取付詳細図
 41
0.8
  7
EXT08
  0
TEXT
  5
232
  8
MOJI
 10
2272.0485351176412
 20
1329.1564324999999
 30
0.0
 40
30.0
  1
ガイド管 %%C21.7×t2.8
 41
0.8
  7
EXT08
  0
TEXT
  5
234
  8
MOJI
 10
2283.8686191094848
 20
1277.5320827180069
 30
0.0
 40
30.0
  1
SGP＋溶融亜鉛めっき
 41
0.8
  7
EXT08
  0
LINE
  5
235
  8
MOJI
 10
2617.9381746482768
 20
1318.3333325000001
 30
0.0
 11
2259.8314531991309
 21
1318.3333325000001
 31
0.0
  0
TEXT
  5
236
  8
MOJI
 10
2338.86938725153
 20
1228.3333325999999
 30
0.0
 40
30.0
  1
錠前棒 %%C10×150
 41
0.8
  7
EXT08
  0
LINE
  5
237
  8
MOJI
 10
2617.938174648275
 20
1218.3333325999999
 30
0.0
 11
2328.86938725153
 21
1218.3333325999999
 31
0.0
  0
TEXT
  5
238
  8
MOJI
 10
2430.0781639998409
 20
813.33333300000015
 30
0.0
 40
30.0
  1
錠リング %%C5
 41
0.8
  7
EXT08
  0
TEXT
  5
239
  8
MOJI
 10
2459.4876039547371
 20
764.24534630912547
 30
0.0
 40
30.0
  1
ステンレス
 41
0.8
  7
EXT08
  0
SOLID
  5
23A
  8
MOJI
 10
2741.8549586069312
 20
940.98662165300891
 30
0.0
 11
2746.728660395217
 21
936.43783331727525
 31
0.0
 12
2757.9381745082742
 22
953.33333284999935
 32
0.0
 13
2757.9381745082742
 23
953.33333284999935
 33
0.0
  0
LINE
  5
23B
  8
MOJI
 10
2744.2918095010741
 20
938.71222748514208
 30
0.0
 11
2617.9381746482741
 21
803.33333299999936
 31
0.0
  0
LINE
  5
23C
  8
MOJI
 10
2617.9381746482741
 20
803.33333299999936
 30
0.0
 11
2417.861082081331
 21
803.33333300000015
 31
0.0
  0
TEXT
  5
23D
  8
MOJI
 10
3409.860196396402
 20
1181.7288298035819
 30
0.0
 40
30.0
  1
南京錠 真ちゅう
 41
0.8
  7
EXT08
  0
LINE
  5
240
  8
MOJI
 10
3384.604840548277
 20
1169.9999992999999
 30
0.0
 11
3628.0306873096888
 21
1169.9999992999999
 31
0.0
  0
DIMENSION
  5
241
  8
SUNPOU
  2
*D21
 10
2931.2715076682762
 20
1086.6666660500009
 30
0.0
 11
2901.2715076682762
 21
1180.0
 31
0.0
 70
   128
 13
2931.2715076682762
 23
1119.9999993500001
 33
0.0
 14
2931.2715076682762
 24
1086.6666660500009
 34
0.0
 50
90.0
1001
ACAD
1000
DSTYLE
1002
{
1070
   287
1070
     5
1070
   287
1070
     5
1070
    40
1040
10.0
1070
    41
1040
2.0
1070
    42
1040
1.0
1070
    43
1040
6.0
1070
    44
1040
1.0
1070
    73
1070
     0
1070
    74
1070
     0
1070
    77
1070
     1
1070
    78
1070
     8
1070
   140
1040
3.0
1070
   144
1040
0.3
1070
   147
1040
1.1999999999999991
1070
   172
1070
     1
1070
   176
1070
   256
1070
   177
1070
   256
1070
   178
1070
   256
1070
   271
1070
     1
1070
   275
1070
     1
1070
   279
1070
     2
1070
   340
1005
3AA
1002
}
  0
DIMENSION
  5
242
  8
SUNPOU
  2
*D8
 10
834.60484094827541
 20
281.51757292125149
 30
0.0
 11
634.60484094827541
 21
308.51757292125149
 31
0.0
 70
     0
  1
□<>
 13
434.60484094827541
 23
434.60484094827541
 33
0.0
 14
834.60484094827541
 24
430.0
 34
0.0
1001
ACAD
1000
DSTYLE
1002
{
1070
   287
1070
     5
1070
   287
1070
     5
1070
    40
1040
10.0
1070
    41
1040
2.0
1070
    42
1040
1.0
1070
    43
1040
6.0
1070
    44
1040
1.0
1070
    73
1070
     0
1070
    74
1070
     0
1070
    77
1070
     1
1070
    78
1070
     8
1070
   140
1040
3.0
1070
   147
1040
1.1999999999999991
1070
   172
1070
     1
1070
   176
1070
   256
1070
   177
1070
   256
1070
   178
1070
   256
1070
   271
1070
     1
1070
   275
1070
     1
1070
   279
1070
     2
1070
   340
1005
3AA
1002
}
  0
LINE
  5
243
  8
SJC
 10
434.60484094827541
 20
430.0
 30
0.0
 11
834.60484094827541
 21
430.0
 31
0.0
1001
ACAD
1000
ASC_BOUNDS
1002
{
1070
    19
1005
0
1005
0
1002
}
  0
LINE
  5
24E
  8
SJC
 10
434.60484094827541
 20
430.0
 30
0.0
 11
434.60484094827541
 21
860.0
 31
0.0
1001
ACAD
1000
ASC_BOUNDS
1002
{
1070
    19
1002
}
  0
LINE
  5
24F
  8
SJC
 10
572.10484094827541
 20
430.0
 30
0.0
 11
572.10484094827541
 21
856.79999999999995
 31
0.0
1001
ACAD
1000
ASC_BOUNDS
1002
{
1070
    19
1002
}
  0
LINE
  5
250
  8
SJC
 10
697.10484094827541
 20
430.0
 30
0.0
 11
697.10484094827541
 21
856.79999999999995
 31
0.0
1001
ACAD
1000
ASC_BOUNDS
1002
{
1070
    19
1002
}
  0
DIMENSION
  5
254
  8
SUNPOU
  2
*D7
 10
284.60484094827552
 20
480.0
 30
0.0
 11
252.73088311839089
 21
455.0
 31
0.0
 70
   128
 13
414.60484094827552
 23
430.0
 33
0.0
 14
414.60484094827552
 24
480.0
 34
0.0
 50
90.0
1001
ACAD
1000
DSTYLE
1002
{
1070
   287
1070
     5
1070
   287
1070
     5
1070
    40
1040
10.0
1070
    41
1040
2.0
1070
    42
1040
1.0
1070
    43
1040
6.0
1070
    44
1040
1.0
1070
    73
1070
     0
1070
    74
1070
     0
1070
    77
1070
     1
1070
    78
1070
     8
1070
   140
1040
3.0
1070
   147
1040
1.1999999999999991
1070
   172
1070
     1
1070
   176
1070
   256
1070
   177
1070
   256
1070
   178
1070
   256
1070
   271
1070
     1
1070
   275
1070
     1
1070
   279
1070
     2
1070
   340
1005
3AA
1002
}
  0
LINE
  5
255
  8
HASEN
 10
572.10484094827541
 20
480.0
 30
0.0
 11
697.10484094827541
 21
480.0
 31
0.0
  0
LINE
  5
256
  8
HASEN
 10
572.10484094827541
 20
467.0
 30
0.0
 11
697.10484094827541
 21
467.0
 31
0.0
  0
LINE
  5
257
  8
SJC
 10
509.60484094827541
 20
480.0
 30
0.0
 11
572.10484094827541
 21
480.0
 31
0.0
1001
ACAD
1000
ASC_BOUNDS
1002
{
1070
    19
1002
}
  0
LINE
  5
258
  8
SJC
 10
509.60484094827541
 20
467.0
 30
0.0
 11
572.10484094827541
 21
467.0
 31
0.0
1001
ACAD
1000
ASC_BOUNDS
1002
{
1070
    19
1002
}
  0
LINE
  5
259
  8
SJC
 10
509.60484094827541
 20
467.0
 30
0.0
 11
509.60484094827541
 21
480.0
 31
0.0
1001
ACAD
1000
ASC_BOUNDS
1002
{
1070
    19
1002
}
  0
LINE
  5
25A
  8
SJC
 10
697.10484094827541
 20
480.0
 30
0.0
 11
759.60484094827541
 21
480.0
 31
0.0
1001
ACAD
1000
ASC_BOUNDS
1002
{
1070
    19
1002
}
  0
LINE
  5
25B
  8
SJC
 10
697.10484094827541
 20
467.0
 30
0.0
 11
759.60484094827541
 21
467.0
 31
0.0
1001
ACAD
1000
ASC_BOUNDS
1002
{
1070
    19
1002
}
  0
LINE
  5
25C
  8
SJC
 10
759.60484094827541
 20
467.0
 30
0.0
 11
759.60484094827541
 21
480.0
 31
0.0
1001
ACAD
1000
ASC_BOUNDS
1002
{
1070
    19
1002
}
  0
LINE
  5
263
  8
SJC2
 10
567.10484094827552
 20
856.79999999999995
 30
0.0
 11
702.10484094827552
 21
856.79999999999995
 31
0.0
1001
ACAD
1000
ASC_BOUNDS
1002
{
1070
    19
1002
}
  0
LINE
  5
264
  8
SJC2
 10
567.10484094827552
 20
860.0
 30
0.0
 11
567.10484094827552
 21
856.79999999999995
 31
0.0
1001
ACAD
1000
ASC_BOUNDS
1002
{
1070
    19
1002
}
  0
LINE
  5
265
  8
SJC2
 10
702.10484094827552
 20
856.79999999999995
 30
0.0
 11
702.10484094827552
 21
860.0
 31
0.0
  0
LINE
  5
266
  8
SJC
 10
834.60484094827541
 20
430.0
 30
0.0
 11
834.60484094827541
 21
860.0
 31
0.0
1001
ACAD
1000
ASC_BOUNDS
1002
{
1070
    19
1002
}
  0
LINE
  5
267
  8
CENTER
 10
634.60484094827541
 20
380.0
 30
0.0
 11
634.60484094827541
 21
1695.515727312785
 31
0.0
  0
LINE
  5
268
  8
SJC
 10
320.60931715476909
 20
860.0
 30
0.0
 11
1084.6048409482751
 21
860.0
 31
0.0
1001
ACAD
1000
ASC_BOUNDS
1002
{
1070
    19
1005
0
1005
0
1002
}
  0
POLYLINE
  5
269
  8
SJC2
 66
     1
 10
0.0
 20
0.0
 30
0.0
 70
     1
  0
VERTEX
  5
16F8
  8
SJC2
 10
577.60484094827552
 20
920.0
 30
0.0
 42
0.1627885549838908
  0
VERTEX
  5
16F9
  8
SJC2
 10
579.50689463732476
 20
920.6361224605746
 30
0.0
 42
0.1060097140408265
  0
VERTEX
  5
16FA
  8
SJC2
 10
581.49392824480128
 20
922.92893218813458
 30
0.0
 42
0.0698253221765858
  0
VERTEX
  5
16FB
  8
SJC2
 10
582.65206357000625
 20
925.9741633091644
 30
0.0
 42
0.0560572371697452
  0
VERTEX
  5
16FC
  8
SJC2
 10
583.10484094827552
 20
930.0
 30
0.0
 42
0.0560572371697685
  0
VERTEX
  5
16FD
  8
SJC2
 10
582.65206357000625
 20
934.02583669083583
 30
0.0
 42
0.0698253221766001
  0
VERTEX
  5
16FE
  8
SJC2
 10
581.49392824480128
 20
937.0710678118653
 30
0.0
 42
0.1060097140408224
  0
VERTEX
  5
16FF
  8
SJC2
 10
579.50689463732567
 20
939.36387753942506
 30
0.0
 42
0.1627885549839276
  0
VERTEX
  5
1700
  8
SJC2
 10
577.60484094827552
 20
940.0
 30
0.0
 42
0.1627885549838633
  0
VERTEX
  5
1701
  8
SJC2
 10
575.70278725922606
 20
939.3638775394254
 30
0.0
 42
0.1060097140408141
  0
VERTEX
  5
1702
  8
SJC2
 10
573.71575365174965
 20
937.0710678118653
 30
0.0
 42
0.0698253221766022
  0
VERTEX
  5
1703
  8
SJC2
 10
572.5576183265448
 20
934.02583669083538
 30
0.0
 42
0.0560572371697592
  0
VERTEX
  5
1704
  8
SJC2
 10
572.10484094827541
 20
930.0
 30
0.0
 42
0.0560572371697531
  0
VERTEX
  5
1705
  8
SJC2
 10
572.5576183265448
 20
925.97416330916496
 30
0.0
 42
0.0698253221766169
  0
VERTEX
  5
1706
  8
SJC2
 10
573.71575365174965
 20
922.92893218813458
 30
0.0
 42
0.1060097140407959
  0
VERTEX
  5
1707
  8
SJC2
 10
575.70278725922515
 20
920.6361224605746
 30
0.0
 42
0.1627885549838908
  0
SEQEND
  5
1708
  8
SJC2
  0
LINE
  5
27B
  8
SJC2
 10
579.10484094827552
 20
860.0
 30
0.0
 11
579.10484094827552
 21
920.3784736660773
 31
0.0
  0
LINE
  5
27C
  8
SJC2
 10
575.10484094827552
 20
860.0
 30
0.0
 11
575.10484094827552
 21
921.13927682283065
 31
0.0
  0
LINE
  5
27D
  8
SJC2
 10
579.10484094827552
 20
939.62152633392247
 30
0.0
 11
579.10484094827552
 21
940.0
 31
0.0
  0
LINE
  5
27E
  8
SJC2
 10
575.10484094827552
 20
938.86072317716912
 30
0.0
 11
575.10484094827552
 21
940.0
 31
0.0
  0
LINE
  5
27F
  8
SJC2
 10
583.10484094827552
 20
860.0
 30
0.0
 11
583.10484094827552
 21
930.0
 31
0.0
  0
LINE
  5
280
  8
SJC2
 10
572.10484094827541
 20
860.0
 30
0.0
 11
572.10484094827541
 21
930.0
 31
0.0
  0
LINE
  5
281
  8
MOJI
 10
811.60484094827495
 20
1060.0
 30
0.0
 11
1227.9829873857111
 21
1060.0
 31
0.0
  0
TEXT
  5
282
  8
MOJI
 10
828.71254754910933
 20
1070.522523270176
 30
0.0
 40
30.0
  1
サヤ管 □125×125×t3.2
 41
0.8
  7
EXT08
  0
TEXT
  5
283
  8
MOJI
 10
894.87009324236033
 20
1019.2251793892181
 30
0.0
 40
30.0
  1
溶融亜鉛めっき
 41
0.8
  7
EXT08
  0
LINE
  5
284
  8
MOJI
 10
1969.9690620174799
 20
262.89141704667691
 30
0.0
 11
3618.0477503434272
 21
262.89141704667691
 31
0.0
  0
TEXT
  5
286
  8
MOJI
 10
1975.0153247508929
 20
283.96702816683768
 30
0.0
 40
40.0
  1
（仕様） ダクタイル鋳鉄(FCD450)＋亜鉛溶射(ZS-40)＋ウレタン系樹脂塗装(2回塗り)
 41
0.8
  7
EXT08
  0
DIMENSION
  5
2AC
  8
SUNPOU
  2
*D6
 10
334.60484094827552
 20
1580.0
 30
0.0
 11
304.61059655009922
 21
1620.0
 31
0.0
 70
   128
 13
634.54234094827552
 23
1660.0
 33
0.0
 14
557.60484094827552
 24
1579.9999999999991
 34
0.0
 50
90.0
1001
ACAD
1000
DSTYLE
1002
{
1070
   287
1070
     5
1070
   287
1070
     5
1070
    40
1040
10.0
1070
    41
1040
2.0
1070
    42
1040
1.0
1070
    43
1040
6.0
1070
    44
1040
1.0
1070
    73
1070
     0
1070
    74
1070
     0
1070
    77
1070
     1
1070
    78
1070
     8
1070
   140
1040
3.0
1070
   147
1040
1.1999999999999991
1070
   172
1070
     1
1070
   176
1070
   256
1070
   177
1070
   256
1070
   178
1070
   256
1070
   271
1070
     1
1070
   275
1070
     1
1070
   279
1070
     2
1070
   340
1005
3AA
1002
}
  0
DIMENSION
  5
2AD
  8
SUNPOU
  2
*D4
 10
334.60484094827552
 20
1399.999999999998
 30
0.0
 11
307.60484094827541
 21
1489.999999999998
 31
0.0
 70
     0
 13
602.10484094827552
 23
1579.999999999998
 33
0.0
 14
602.10484094827552
 24
1399.999999999998
 34
0.0
 50
90.0
1001
ACAD
1000
DSTYLE
1002
{
1070
   287
1070
     5
1070
   287
1070
     5
1070
    40
1040
10.0
1070
    41
1040
2.0
1070
    42
1040
1.0
1070
    43
1040
6.0
1070
    44
1040
1.0
1070
    73
1070
     0
1070
    74
1070
     0
1070
    77
1070
     1
1070
    78
1070
     8
1070
   140
1040
3.0
1070
   147
1040
1.1999999999999991
1070
   172
1070
     1
1070
   176
1070
   256
1070
   177
1070
   256
1070
   178
1070
   256
1070
   271
1070
     1
1070
   275
1070
     1
1070
   279
1070
     2
1070
   340
1005
3AA
1002
}
  0
SOLID
  5
2B1
  8
MOJI
 10
2707.6471812687992
 20
1151.6829516775369
 30
0.0
 11
2703.5134846495689
 21
1146.4525600378399
 31
0.0
 12
2721.2715078782762
 22
1136.6666660000001
 32
0.0
 13
2721.2715078782762
 23
1136.6666660000001
 33
0.0
  0
LINE
  5
2B2
  8
MOJI
 10
2705.580332959184
 20
1149.0677558576881
 30
0.0
 11
2617.938174648275
 21
1218.3333325999999
 31
0.0
  0
SOLID
  5
2B3
  8
MOJI
 10
2870.1317437863099
 20
1145.8666859612099
 30
0.0
 11
2866.3086614903482
 21
1140.405139824561
 31
0.0
 12
2884.6048410482772
 22
1131.666666005
 32
0.0
 13
2884.6048410482772
 23
1131.666666005
 33
0.0
  0
LINE
  5
2B4
  8
MOJI
 10
2868.2202026383288
 20
1143.135912892885
 30
0.0
 11
2617.9381746482768
 21
1318.333332500001
 31
0.0
  0
SOLID
  5
2B5
  8
SUNPOU
 10
3191.015131926159
 20
1151.4085447872851
 30
0.0
 11
3186.2658582013701
 21
1156.0870962224481
 31
0.0
 12
3174.6048407582739
 22
1139.4999993304989
 32
0.0
 13
3174.6048407582739
 23
1139.4999993304989
 33
0.0
  0
LINE
  5
2B6
  8
SUNPOU
 10
3188.6404950637648
 20
1153.7478205048669
 30
0.0
 11
3317.9381739482742
 21
1284.9999991999989
 31
0.0
  0
TEXT
  5
2B7
  8
MOJI
 10
2423.664362520205
 20
1178.2593372800959
 30
0.0
 40
30.0
  1
ステンレス
 41
0.8
  7
EXT08
  0
INSERT
  5
2BA
  8
HATCH
  2
*X1
 10
-635.39515905172448
 20
-110.00000000000129
 30
0.0
1001
ACAD
1000
HATCH
1002
{
1070
    16
1000
ANSI37
1040
70.0
1040
0.0
1002
}
  0
LINE
  5
2BB
  8
SJC
 10
602.10484094827552
 20
1414.999999999998
 30
0.0
 11
667.10484094827552
 21
1479.999999999998
 31
0.0
  0
LINE
  5
2BC
  8
SJC
 10
602.10484094827552
 20
1499.999999999998
 30
0.0
 11
667.10484094827552
 21
1564.999999999998
 31
0.0
  0
LINE
  5
2BD
  8
SJC
 10
602.10484094827552
 20
1414.999999999998
 30
0.0
 11
667.10484094827552
 21
1414.999999999998
 31
0.0
  0
LINE
  5
2BE
  8
SJC
 10
602.10484094827552
 20
1564.999999999998
 30
0.0
 11
667.10484094827552
 21
1564.999999999998
 31
0.0
  0
LINE
  5
2BF
  8
SJC
 10
602.10484094827552
 20
1399.999999999998
 30
0.0
 11
667.10484094827552
 21
1399.999999999998
 31
0.0
  0
LINE
  5
2C0
  8
SJC
 10
602.10484094827552
 20
1579.999999999998
 30
0.0
 11
667.10484094827552
 21
1579.999999999998
 31
0.0
  0
LINE
  5
2C1
  8
SJC2
 10
610.60484094827552
 20
1564.999999999998
 30
0.0
 11
610.60484094827552
 21
1414.999999999998
 31
0.0
  0
LINE
  5
2C2
  8
SJC2
 10
618.60484094827552
 20
1564.999999999998
 30
0.0
 11
618.60484094827552
 21
1414.999999999998
 31
0.0
  0
LINE
  5
2C3
  8
SJC2
 10
614.60484094827552
 20
1564.999999999998
 30
0.0
 11
614.60484094827552
 21
1414.999999999998
 31
0.0
  0
LINE
  5
2C4
  8
SJC
 10
602.10484094827552
 20
1579.999999999998
 30
0.0
 11
602.10484094827552
 21
1399.999999999998
 31
0.0
  0
CIRCLE
  5
2C7
  8
SJC2
 10
634.60484094827541
 20
1407.499999999998
 30
0.0
 40
2.8500000000000001
  0
CIRCLE
  5
2C9
  8
SJC2
 10
634.60484094827541
 20
1572.499999999998
 30
0.0
 40
2.8500000000000001
  0
LINE
  5
2CA
  8
SJC2
 10
650.60484094827552
 20
1564.999999999998
 30
0.0
 11
650.60484094827552
 21
1414.999999999998
 31
0.0
  0
LINE
  5
2CB
  8
SJC2
 10
658.60484094827552
 20
1564.999999999998
 30
0.0
 11
658.60484094827552
 21
1414.999999999998
 31
0.0
  0
LINE
  5
2CC
  8
SJC2
 10
654.60484094827552
 20
1564.999999999998
 30
0.0
 11
654.60484094827552
 21
1414.999999999998
 31
0.0
  0
LINE
  5
2CD
  8
SJC
 10
667.10484094827552
 20
1579.999999999998
 30
0.0
 11
667.10484094827552
 21
1399.999999999998
 31
0.0
  0
ARC
  5
2D1
  8
SJC
 10
634.60484094827541
 20
1599.3875000000021
 30
0.0
 40
60.61249999999805
 50
19.8811460662229
 51
160.11885393377659
  0
LINE
  5
2D2
  8
SJC
 10
691.60484094827461
 20
1620.0
 30
0.0
 11
691.60484094827461
 21
860.0
 31
0.0
  0
LINE
  5
2D3
  8
SJC
 10
577.60484094827461
 20
1619.999999999995
 30
0.0
 11
577.60484094827461
 21
940.0
 31
0.0
  0
DIMENSION
  5
2D6
  8
SUNPOU
  2
*D9
 10
1249.6048409482751
 20
860.0
 30
0.0
 11
1222.6048409482751
 21
645.00000000000011
 31
0.0
 70
     0
 13
1480.36213707139
 23
430.0
 33
0.0
 14
1249.6048409482751
 24
860.0
 34
0.0
 50
90.0
1001
ACAD
1000
DSTYLE
1002
{
1070
   287
1070
     5
1070
   287
1070
     5
1070
    40
1040
10.0
1070
    41
1040
2.0
1070
    42
1040
1.0
1070
    43
1040
6.0
1070
    44
1040
1.0
1070
    73
1070
     0
1070
    74
1070
     0
1070
    77
1070
     1
1070
    78
1070
     8
1070
   140
1040
3.0
1070
   147
1040
1.1999999999999991
1070
   172
1070
     1
1070
   176
1070
   256
1070
   177
1070
   256
1070
   178
1070
   256
1070
   271
1070
     1
1070
   275
1070
     1
1070
   279
1070
     2
1070
   340
1005
3AA
1002
}
  0
INSERT
  5
2D9
  8
HATCH
  2
*X2
 10
-348.72849235172362
 20
-2863.3333333
 30
0.0
 41
3.3333333332999988
 42
3.3333333332999988
 43
3.3333333332999988
1001
ACAD
1000
HATCH
1002
{
1070
    16
1000
ANSI31
1040
40.0
1040
0.0
1002
}
  0
CIRCLE
  5
2DA
  8
SJC
 10
2984.6048409482769
 20
1969.999999984999
 30
0.0
 40
189.99999999810001
  0
ARC
  5
2DB
  8
SJC
 10
2984.6048409482769
 20
1969.999999984999
 30
0.0
 40
196.66666666469999
 50
4.8614053957978092
 51
175.13859460420241
  0
CIRCLE
  5
2DC
  8
SJC
 10
2984.6048409482769
 20
1969.999999984999
 30
0.0
 40
156.6666666651
  0
LINE
  5
2DD
  8
SJC
 10
2827.9381742831761
 20
470.0
 30
0.0
 11
2827.9381742831761
 21
1067.1666666606941
 31
0.0
  0
LINE
  5
2DE
  8
SJC
 10
2794.6048409501759
 20
470.0
 30
0.0
 11
2794.6048409501759
 21
1086.6666666604999
 31
0.0
  0
LINE
  5
2DF
  8
SJC
 10
3141.271507613375
 20
470.0
 30
0.0
 11
3141.271507613375
 21
1067.1666666606941
 31
0.0
  0
LINE
  5
2E0
  8
SJC
 10
3174.604840946376
 20
470.0
 30
0.0
 11
3174.604840946376
 21
1084.285714279571
 31
0.0
  0
LINE
  5
2E1
  8
SJC
 10
2691.2715076178761
 20
470.0
 30
0.0
 11
2691.2715076178761
 21
854.99999999614977
 31
0.0
  0
LINE
  5
2E2
  8
SJC
 10
2699.9381742844548
 20
470.0
 30
0.0
 11
2699.9381742844548
 21
854.99999999614977
 31
0.0
  0
LINE
  5
2E3
  8
CENTER
 10
2984.6048409482751
 20
370.00000000099999
 30
0.0
 11
2984.6048409482751
 21
1453.3333333235
 31
0.0
  0
LINE
  5
2E4
  8
SJC
 10
3269.2715076120958
 20
470.0
 30
0.0
 11
3269.2715076120958
 21
854.99999999614977
 31
0.0
  0
LINE
  5
2E5
  8
SJC
 10
3277.9381742786759
 20
470.0
 30
0.0
 11
3277.9381742786759
 21
854.99999999614977
 31
0.0
  0
LINE
  5
2E6
  8
SJC
 10
2651.2715076182758
 20
470.0
 30
0.0
 11
2951.2715076152758
 21
470.0
 31
0.0
  0
LINE
  5
2E7
  8
SJC
 10
3017.9381742812761
 20
470.0
 30
0.0
 11
3317.9381742782748
 21
470.0
 31
0.0
  0
LINE
  5
2E8
  8
SJC
 10
2951.2715076152758
 20
470.0
 30
0.0
 11
2967.938174281775
 21
523.33333333279995
 31
0.0
  0
LINE
  5
2E9
  8
SJC
 10
3001.2715076147761
 20
416.66666666719988
 30
0.0
 11
3017.9381742812761
 21
470.0
 31
0.0
  0
LINE
  5
2EA
  8
SJC
 10
2967.938174281775
 20
523.33333333279995
 30
0.0
 11
3001.2715076147761
 21
416.66666666719988
 31
0.0
  0
LINE
  5
2EB
  8
SJC
 10
2827.9381742831761
 20
1139.499999993305
 30
0.0
 11
2827.9381742831761
 21
1349.9999999912
 31
0.0
  0
LINE
  5
2EC
  8
SJC
 10
2794.6048409501759
 20
1119.9999999935001
 30
0.0
 11
2794.6048409501759
 21
1349.9999999912
 31
0.0
  0
LINE
  5
2ED
  8
SJC
 10
3141.271507613375
 20
1139.499999993305
 30
0.0
 11
3141.271507613375
 21
1349.9999999912
 31
0.0
  0
LINE
  5
2EE
  8
SJC
 10
3174.604840946376
 20
1122.3809523744289
 30
0.0
 11
3174.604840946376
 21
1349.9999999912
 31
0.0
  0
LINE
  5
2EF
  8
SJC
 10
3001.2715076147761
 20
1296.6666666583999
 30
0.0
 11
3017.9381742812761
 21
1349.9999999912
 31
0.0
  0
LINE
  5
2F0
  8
SJC
 10
2967.938174281775
 20
1403.333333324
 30
0.0
 11
3001.2715076147761
 21
1296.6666666583999
 31
0.0
  0
LINE
  5
2F1
  8
SJC
 10
2794.6048409501759
 20
1139.4999999933041
 30
0.0
 11
3174.604840946376
 21
1139.4999999933041
 31
0.0
  0
LINE
  5
2F2
  8
SJC
 10
2794.6048409501759
 20
1067.166666660695
 30
0.0
 11
3174.604840946376
 21
1067.166666660695
 31
0.0
  0
LINE
  5
2F3
  8
SJC
 10
2774.604840950376
 20
1086.6666666604999
 30
0.0
 11
3141.271507613375
 21
1086.6666666604999
 31
0.0
  0
LINE
  5
2F4
  8
SJC
 10
2774.604840950376
 20
1119.9999999935001
 30
0.0
 11
3141.271507613375
 21
1119.9999999935001
 31
0.0
  0
LINE
  5
2F5
  8
SJC
 10
2794.6048409501759
 20
1130.1666666600649
 30
0.0
 11
3174.604840946376
 21
1130.1666666600649
 31
0.0
  0
LINE
  5
2F6
  8
CENTER
 10
2651.2715076182758
 20
1103.333333327
 30
0.0
 11
3317.9381742782748
 21
1103.333333327
 31
0.0
  0
LINE
  5
2F7
  8
SJC
 10
2774.604840950376
 20
789.99999999679994
 30
0.0
 11
2774.604840950376
 21
1128.3333333267501
 31
0.0
  0
LINE
  5
2F8
  8
SJC
 10
2757.938174283875
 20
789.99999999679994
 30
0.0
 11
2757.938174283875
 21
1128.3333333267501
 31
0.0
  0
LINE
  5
2F9
  8
HASEN
 10
2774.604840950376
 20
789.99999999679994
 30
0.0
 11
2774.604840950376
 21
556.66666666579999
 31
0.0
  0
LINE
  5
2FA
  8
HASEN
 10
2757.938174283875
 20
789.99999999679994
 30
0.0
 11
2757.938174283875
 21
556.66666666579999
 31
0.0
  0
ARC
  5
2FB
  8
HASEN
 10
2766.2715076171262
 20
561.11111111019977
 30
0.0
 40
9.4444444443498821
 50
208.0724869358516
 51
331.9275130641484
  0
LINE
  5
2FC
  8
HASEN
 10
2751.2715076172749
 20
556.66666666579999
 30
0.0
 11
2751.2715076172749
 21
589.99999999880004
 31
0.0
  0
LINE
  5
2FD
  8
HASEN
 10
2781.2715076169761
 20
556.66666666579999
 30
0.0
 11
2781.2715076169761
 21
589.99999999880004
 31
0.0
  0
LINE
  5
2FE
  8
HASEN
 10
2751.2715076172749
 20
589.99999999880004
 30
0.0
 11
2781.2715076169761
 21
589.99999999880004
 31
0.0
  0
LINE
  5
2FF
  8
HASEN
 10
2751.2715076172749
 20
573.33333333229984
 30
0.0
 11
2781.2715076169761
 21
573.33333333229984
 31
0.0
  0
LINE
  5
300
  8
HASEN
 10
2751.2715076172749
 20
556.66666666579999
 30
0.0
 11
2781.2715076169761
 21
556.66666666579999
 31
0.0
  0
ARC
  5
301
  8
SJC
 10
2766.2715076171262
 20
794.44444444119972
 30
0.0
 40
9.4444444443498821
 50
208.0724869358516
 51
331.9275130641484
  0
LINE
  5
302
  8
SJC
 10
2751.2715076172749
 20
789.99999999679994
 30
0.0
 11
2751.2715076172749
 21
823.33333332979998
 31
0.0
  0
LINE
  5
303
  8
SJC
 10
2781.2715076169761
 20
789.99999999679994
 30
0.0
 11
2781.2715076169761
 21
823.33333332979998
 31
0.0
  0
LINE
  5
304
  8
SJC
 10
2751.2715076172749
 20
823.33333332979998
 30
0.0
 11
2781.2715076169761
 21
823.33333332979998
 31
0.0
  0
LINE
  5
305
  8
SJC
 10
2751.2715076172749
 20
806.66666666330002
 30
0.0
 11
2781.2715076169761
 21
806.66666666330002
 31
0.0
  0
LINE
  5
306
  8
SJC
 10
2751.2715076172749
 20
789.99999999679994
 30
0.0
 11
2781.2715076169761
 21
789.99999999679994
 31
0.0
  0
LINE
  5
307
  8
SJC
 10
2757.938174283875
 20
869.99999999600016
 30
0.0
 11
2687.9381742845758
 21
869.99999999600016
 31
0.0
  0
LINE
  5
308
  8
SJC
 10
2787.9381742835758
 20
869.99999999600016
 30
0.0
 11
2774.604840950376
 21
869.99999999600016
 31
0.0
  0
LINE
  5
309
  8
SJC
 10
2757.938174283875
 20
854.99999999614977
 30
0.0
 11
2687.9381742845758
 21
854.99999999614977
 31
0.0
  0
LINE
  5
30A
  8
SJC
 10
2787.9381742835758
 20
854.99999999614977
 30
0.0
 11
2774.604840950376
 21
854.99999999614977
 31
0.0
  0
LINE
  5
30B
  8
SJC
 10
2687.9381742845758
 20
854.99999999614977
 30
0.0
 11
2687.9381742845758
 21
869.99999999600016
 31
0.0
  0
LINE
  5
30C
  8
SJC
 10
2787.9381742835758
 20
854.99999999614977
 30
0.0
 11
2787.9381742835758
 21
869.99999999600016
 31
0.0
  0
LINE
  5
30D
  8
SJC
 10
2744.6048409506761
 20
1069.9999999939989
 30
0.0
 11
2744.6048409506761
 21
1136.6666666599999
 31
0.0
  0
LINE
  5
30E
  8
SJC
 10
2721.2715076175759
 20
1069.9999999939989
 30
0.0
 11
2721.2715076175759
 21
1136.6666666599999
 31
0.0
  0
LINE
  5
30F
  8
SJC
 10
2757.9381742838741
 20
1128.333333326749
 30
0.0
 11
2757.938174283875
 21
1078.3333333272501
 31
0.0
  0
LINE
  5
310
  8
SJC
 10
2774.604840950376
 20
1078.3333333272501
 30
0.0
 11
2774.6048409503742
 21
1128.333333326749
 31
0.0
  0
LINE
  5
311
  8
SJC
 10
2744.6048409506761
 20
1086.6666666604999
 30
0.0
 11
2757.938174283875
 21
1086.6666666604999
 31
0.0
  0
LINE
  5
312
  8
SJC
 10
2721.2715076175759
 20
1069.9999999939989
 30
0.0
 11
2744.6048409506761
 21
1069.9999999939989
 31
0.0
  0
LINE
  5
313
  8
SJC
 10
2721.2715076175759
 20
1136.6666666599999
 30
0.0
 11
2744.6048409506761
 21
1136.6666666599999
 31
0.0
  0
LINE
  5
314
  8
SJC
 10
2744.6048409506761
 20
1119.9999999935001
 30
0.0
 11
2757.938174283875
 21
1119.9999999935001
 31
0.0
  0
ARC
  5
315
  8
SJC
 10
2766.2715076171239
 20
1128.333333326749
 30
0.0
 40
8.3333333332499997
 50
0.0
 51
180.0
  0
LINE
  5
316
  8
SJC
 10
3181.2715076129762
 20
854.99999999614977
 30
0.0
 11
3281.2715076119762
 21
854.99999999614977
 31
0.0
  0
LINE
  5
317
  8
SJC
 10
3181.2715076129762
 20
869.99999999600016
 30
0.0
 11
3281.2715076119762
 21
869.99999999600016
 31
0.0
  0
LINE
  5
318
  8
SJC
 10
3181.2715076129762
 20
854.99999999614977
 30
0.0
 11
3181.2715076129762
 21
869.99999999600016
 31
0.0
  0
LINE
  5
319
  8
SJC
 10
3281.2715076119762
 20
854.99999999614977
 30
0.0
 11
3281.2715076119762
 21
869.99999999600016
 31
0.0
  0
LINE
  5
31A
  8
SJC
 10
3241.271507612375
 20
1083.3333333272001
 30
0.0
 11
3241.271507612375
 21
1123.3333333267999
 31
0.0
  0
LINE
  5
31B
  8
SJC
 10
3210.6048409460168
 20
1083.333333327201
 30
0.0
 11
3241.271507612375
 21
1083.3333333272001
 31
0.0
  0
ARC
  5
31C
  8
SJC
 10
3204.604840946075
 20
1103.333333327
 30
0.0
 40
9.9999999998999982
 50
306.86989764584831
 51
233.1301023541638
  0
LINE
  5
31D
  8
SJC
 10
3187.9381742795758
 20
1083.333333327201
 30
0.0
 11
3198.604840946135
 21
1083.3333333272001
 31
0.0
  0
LINE
  5
31E
  8
SJC
 10
3198.604840946135
 20
1103.333333327
 30
0.0
 11
3210.6048409460168
 21
1103.333333327
 31
0.0
  0
LINE
  5
31F
  8
SJC
 10
3210.6048409460159
 20
1067.166666660695
 30
0.0
 11
3210.6048409460168
 21
1103.333333327
 31
0.0
  0
LINE
  5
320
  8
SJC
 10
3198.604840946135
 20
1067.166666660695
 30
0.0
 11
3198.604840946135
 21
1103.333333327
 31
0.0
  0
LINE
  5
321
  8
SJC
 10
3141.271507613375
 20
1086.6666666604999
 30
0.0
 11
3187.9381742795758
 21
1083.333333327201
 31
0.0
  0
LINE
  5
322
  8
SJC
 10
3187.9381742795758
 20
1067.166666660695
 30
0.0
 11
3221.271507612576
 21
1067.166666660695
 31
0.0
  0
LINE
  5
323
  8
SJC
 10
3187.9381742795758
 20
973.83333332829613
 30
0.0
 11
3221.271507612576
 21
973.83333332829613
 31
0.0
  0
LINE
  5
324
  8
SJC
 10
3187.9381742795758
 20
973.83333332829613
 30
0.0
 11
3187.9381742795758
 21
1067.166666660695
 31
0.0
  0
LINE
  5
325
  8
SJC
 10
3221.271507612576
 20
973.83333332829613
 30
0.0
 11
3221.271507612576
 21
1067.166666660695
 31
0.0
  0
LINE
  5
326
  8
SJC
 10
3187.9381742795758
 20
1123.3333333267999
 30
0.0
 11
3241.271507612375
 21
1123.3333333267999
 31
0.0
  0
LINE
  5
327
  8
SJC
 10
3141.271507613375
 20
1119.9999999935001
 30
0.0
 11
3187.9381742795758
 21
1123.3333333267999
 31
0.0
  0
LINE
  5
328
  8
SJC
 10
2651.2715076182758
 20
1349.9999999912
 30
0.0
 11
2951.2715076152758
 21
1349.9999999912
 31
0.0
  0
ARC
  5
329
  8
SJC
 10
2984.6048409482769
 20
1969.999999984999
 30
0.0
 40
196.66666666469999
 50
184.86140539579819
 51
355.13859460420201
  0
LINE
  5
32A
  8
SJC
 10
2774.6048409503769
 20
1953.3333333185001
 30
0.0
 11
2795.3372467291251
 21
1953.3333333184989
 31
0.0
  0
LINE
  5
32B
  8
SJC
 10
2774.604840950376
 20
1986.666666651498
 30
0.0
 11
2795.3372467291251
 21
1986.666666651498
 31
0.0
  0
ARC
  5
32C
  8
SJC
 10
2766.2715076171262
 20
1944.9999999852489
 30
0.0
 40
8.3333333332499997
 50
180.0
 51
0.0
  0
LINE
  5
32D
  8
SJC
 10
2744.604840950677
 20
1953.3333333184989
 30
0.0
 11
2757.9381742838768
 21
1953.333333318498
 31
0.0
  0
ARC
  5
32E
  8
SJC
 10
2766.2715076171262
 20
1994.9999999847471
 30
0.0
 40
8.3333333332499997
 50
0.0
 51
180.0
  0
LINE
  5
32F
  8
SJC
 10
2744.604840950677
 20
1986.666666651498
 30
0.0
 11
2757.9381742838768
 21
1986.666666651498
 31
0.0
  0
LINE
  5
330
  8
SJC
 10
2721.2715076175768
 20
1936.666666651997
 30
0.0
 11
2721.2715076175759
 21
2003.333333317998
 31
0.0
  0
LINE
  5
331
  8
SJC
 10
2721.2715076175759
 20
2003.333333317998
 30
0.0
 11
2744.604840950677
 21
2003.333333317998
 31
0.0
  0
LINE
  5
332
  8
SJC
 10
2774.604840950376
 20
1944.9999999852489
 30
0.0
 11
2774.604840950376
 21
1994.9999999847471
 31
0.0
  0
LINE
  5
333
  8
SJC
 10
2757.938174283875
 20
1994.9999999847471
 30
0.0
 11
2757.938174283875
 21
1944.9999999852489
 31
0.0
  0
LINE
  5
334
  8
SJC
 10
2721.2715076175768
 20
1936.666666651997
 30
0.0
 11
2744.604840950677
 21
1936.666666651997
 31
0.0
  0
LINE
  5
335
  8
SJC
 10
2744.604840950677
 20
1936.666666651997
 30
0.0
 11
2744.604840950677
 21
2003.333333317998
 31
0.0
  0
LINE
  5
336
  8
SJC
 10
3017.9381742812761
 20
1349.9999999912
 30
0.0
 11
3317.9381742782748
 21
1349.9999999912
 31
0.0
  0
LINE
  5
337
  8
SJC
 10
2951.2715076152758
 20
1349.9999999912
 30
0.0
 11
2967.938174281775
 21
1403.333333324
 31
0.0
  0
LINE
  5
338
  8
SJC
 10
2828.8272216758628
 20
1953.3333333185001
 30
0.0
 11
3140.3824602206919
 21
1953.3333333185001
 31
0.0
  0
LINE
  5
339
  8
SJC
 10
2828.8272216758628
 20
1986.666666651498
 30
0.0
 11
3140.3824602206919
 21
1986.666666651498
 31
0.0
  0
CIRCLE
  5
33A
  8
SJC
 10
2984.6048409482769
 20
1722.0388411597501
 30
0.0
 40
19.999999999799989
  0
LINE
  5
33B
  8
SJC
 10
2984.6048409482751
 20
1708.70550782655
 30
0.0
 11
2984.6048409482751
 21
1735.3721744929501
 31
0.0
  0
LINE
  5
33C
  8
SJC
 10
2971.2715076150762
 20
1722.0388411597501
 30
0.0
 11
2997.9381742814749
 21
1722.038841159751
 31
0.0
  0
LINE
  5
33D
  8
SJC
 10
3198.6048409461382
 20
1964.6666666517201
 30
0.0
 11
3259.7571974828579
 21
1964.6666666517201
 31
0.0
  0
LINE
  5
33E
  8
SJC
 10
3198.6048409461382
 20
1975.3333333182779
 30
0.0
 11
3259.7571974828552
 21
1975.3333333182791
 31
0.0
  0
LINE
  5
33F
  8
SJC
 10
3173.8724351674291
 20
1953.3333333185001
 30
0.0
 11
3187.9381742795772
 21
1953.3333333184989
 31
0.0
  0
LINE
  5
340
  8
SJC
 10
3173.8724351674291
 20
1986.666666651498
 30
0.0
 11
3187.9381742795772
 21
1986.666666651498
 31
0.0
  0
LINE
  5
341
  8
SJC
 10
3210.6048409460168
 20
1975.3333333182779
 30
0.0
 11
3210.6048409460168
 21
2005.999999984638
 31
0.0
  0
LINE
  5
342
  8
SJC
 10
3210.6048409460168
 20
1933.999999985359
 30
0.0
 11
3210.6048409460168
 21
1964.6666666517201
 31
0.0
  0
LINE
  5
343
  8
SJC
 10
3221.271507612576
 20
1975.3333333182779
 30
0.0
 11
3221.271507612576
 21
2016.6666666511981
 31
0.0
  0
LINE
  5
344
  8
SJC
 10
3221.2715076125769
 20
1923.3333333187991
 30
0.0
 11
3221.2715076125769
 21
1964.666666651719
 31
0.0
  0
LINE
  5
345
  8
SJC
 10
3198.6048409461382
 20
1975.333333318277
 30
0.0
 11
3198.6048409461382
 21
2005.999999984638
 31
0.0
  0
LINE
  5
346
  8
SJC
 10
3198.6048409461382
 20
1933.999999985359
 30
0.0
 11
3198.6048409461382
 21
1964.6666666517201
 31
0.0
  0
LINE
  5
347
  8
SJC
 10
3187.9381742795772
 20
1986.666666651498
 30
0.0
 11
3198.6048409461382
 21
1975.3333333182779
 31
0.0
  0
LINE
  5
348
  8
SJC
 10
3187.9381742795772
 20
1953.3333333184989
 30
0.0
 11
3198.6048409461382
 21
1964.6666666517201
 31
0.0
  0
LINE
  5
349
  8
SJC
 10
3198.6048409461382
 20
2005.999999984638
 30
0.0
 11
3210.6048409460168
 21
2005.999999984638
 31
0.0
  0
LINE
  5
34A
  8
SJC
 10
3198.6048409461382
 20
1933.999999985359
 30
0.0
 11
3210.6048409460168
 21
1933.999999985358
 31
0.0
  0
LINE
  5
34B
  8
SJC
 10
3187.9381742795772
 20
1986.666666651498
 30
0.0
 11
3187.9381742795772
 21
2016.666666651199
 31
0.0
  0
LINE
  5
34C
  8
SJC
 10
3187.9381742795772
 20
2016.666666651199
 30
0.0
 11
3221.271507612576
 21
2016.6666666511981
 31
0.0
  0
LINE
  5
34D
  8
SJC
 10
3187.9381742795772
 20
1923.3333333187991
 30
0.0
 11
3187.9381742795772
 21
1953.3333333184989
 31
0.0
  0
LINE
  5
34E
  8
SJC
 10
3187.9381742795772
 20
1923.3333333187991
 30
0.0
 11
3221.2715076125769
 21
1923.3333333187991
 31
0.0
  0
LINE
  5
34F
  8
SJC
 10
2971.2715076150762
 20
2217.961158810248
 30
0.0
 11
2997.9381742814749
 21
2217.9611588102471
 31
0.0
  0
LINE
  5
350
  8
SJC
 10
2984.6048409482751
 20
2231.2944921434469
 30
0.0
 11
2984.6048409482751
 21
2204.6278254770468
 31
0.0
  0
CIRCLE
  5
351
  8
SJC
 10
2984.6048409482751
 20
2217.9611588102471
 30
0.0
 40
19.999999999799989
  0
LINE
  5
352
  8
HASEN
 10
2723.3103487898261
 20
2003.333333317998
 30
0.0
 11
2984.6048409482769
 21
2264.627825476447
 31
0.0
  0
LINE
  5
354
  8
HASEN
 10
2984.6048409482769
 20
2264.627825476447
 30
0.0
 11
3279.2326664397251
 21
1969.999999984997
 31
0.0
  0
LINE
  5
356
  8
HASEN
 10
3279.2326664397251
 20
1969.999999984997
 30
0.0
 11
2984.604840948276
 21
1675.3721744935481
 31
0.0
  0
LINE
  5
358
  8
HASEN
 10
2984.604840948276
 20
1675.3721744935481
 30
0.0
 11
2723.310348789832
 21
1936.666666651997
 31
0.0
  0
LINE
  5
359
  8
SJC
 10
2666.4067894175109
 20
1969.999999984999
 30
0.0
 11
2984.6048409482769
 21
2288.1980515157611
 31
0.0
  0
LINE
  5
35B
  8
SJC
 10
2984.6048409482769
 20
2288.1980515157611
 30
0.0
 11
3302.8028924790419
 21
1969.9999999849981
 31
0.0
  0
LINE
  5
35D
  8
SJC
 10
3302.8028924790419
 20
1969.9999999849981
 30
0.0
 11
2984.6048409482769
 21
1651.8019484542349
 31
0.0
  0
LINE
  5
35F
  8
SJC
 10
2984.6048409482769
 20
1651.8019484542349
 30
0.0
 11
2666.4067894175109
 21
1969.999999984999
 31
0.0
  0
LINE
  5
361
  8
HASEN
 10
2737.4524844134162
 20
2003.333333317998
 30
0.0
 11
2984.6048409482769
 21
2250.4856898528569
 31
0.0
  0
LINE
  5
363
  8
HASEN
 10
2984.6048409482769
 20
2250.4856898528569
 30
0.0
 11
3218.423864149936
 21
2016.6666666511981
 31
0.0
  0
LINE
  5
364
  8
HASEN
 10
3218.4238641499351
 20
1923.3333333187979
 30
0.0
 11
2984.604840948276
 21
1689.5143101171379
 31
0.0
  0
LINE
  5
366
  8
HASEN
 10
2984.604840948276
 20
1689.5143101171379
 30
0.0
 11
2737.4524844134212
 21
1936.666666651997
 31
0.0
  0
DIMENSION
  5
367
  8
SUNPOU
  2
*D25
 10
3123.6691745802432
 20
2109.0643336169628
 30
0.0
 11
2965.512957856241
 21
1989.0918830770349
 31
0.0
 70
     1
  1
%%C<>
 13
2845.5405073163138
 23
1830.935666353035
 33
0.0
 14
3123.6691745802409
 24
2109.0643336169628
 34
0.0
1001
ACAD
1000
DSTYLE
1002
{
1070
   287
1070
     5
1070
   287
1070
     5
1070
    40
1040
10.0
1070
    41
1040
2.0
1070
    42
1040
1.0
1070
    43
1040
6.0
1070
    44
1040
1.0
1070
    73
1070
     0
1070
    74
1070
     0
1070
    77
1070
     1
1070
    78
1070
     8
1070
   140
1040
3.0
1070
   144
1040
0.3
1070
   147
1040
1.1999999999999991
1070
   172
1070
     1
1070
   176
1070
   256
1070
   177
1070
   256
1070
   178
1070
   256
1070
   271
1070
     1
1070
   275
1070
     1
1070
   279
1070
     2
1070
   340
1005
3AA
1002
}
  0
DIMENSION
  5
368
  8
SUNPOU
  2
*D23
 10
2878.538823771356
 20
2394.2640686926811
 30
0.0
 11
2700.3479149139371
 21
2254.256926019335
 31
0.0
 70
     1
 13
2666.4067894175118
 23
1969.9999999849949
 33
0.0
 14
2984.6048409482769
 24
2288.1980515157602
 34
0.0
1001
ACAD
1000
DSTYLE
1002
{
1070
   287
1070
     5
1070
   287
1070
     5
1070
    40
1040
10.0
1070
    41
1040
2.0
1070
    42
1040
1.0
1070
    43
1040
6.0
1070
    44
1040
1.0
1070
    73
1070
     0
1070
    74
1070
     0
1070
    77
1070
     1
1070
    78
1070
     8
1070
   140
1040
3.0
1070
   144
1040
0.3
1070
   147
1040
1.1999999999999991
1070
   172
1070
     1
1070
   176
1070
   256
1070
   177
1070
   256
1070
   178
1070
   256
1070
   271
1070
     1
1070
   275
1070
     1
1070
   279
1070
     2
1070
   340
1005
3AA
1002
}
  0
DIMENSION
  5
369
  8
SUNPOU
  2
*D24
 10
2878.538823771356
 20
1545.735931277314
 30
0.0
 11
2738.5316810980098
 21
1723.926840134734
 31
0.0
 70
     1
 13
2666.4067894175118
 23
1969.9999999849999
 33
0.0
 14
2984.6048409482769
 24
1651.8019484542349
 34
0.0
1001
ACAD
1000
DSTYLE
1002
{
1070
   287
1070
     5
1070
   287
1070
     5
1070
    40
1040
10.0
1070
    41
1040
2.0
1070
    42
1040
1.0
1070
    43
1040
6.0
1070
    44
1040
1.0
1070
    73
1070
     0
1070
    74
1070
     0
1070
    77
1070
     1
1070
    78
1070
     8
1070
   140
1040
3.0
1070
   144
1040
0.3
1070
   147
1040
1.1999999999999991
1070
   172
1070
     1
1070
   176
1070
   256
1070
   177
1070
   256
1070
   178
1070
   256
1070
   271
1070
     1
1070
   275
1070
     1
1070
   279
1070
     2
1070
   340
1005
3AA
1002
}
  0
DIMENSION
  5
36A
  8
SUNPOU
  2
*D22
 10
3451.2715076102759
 20
869.99999999599993
 30
0.0
 11
3421.271507610275
 21
930.6448766938297
 31
0.0
 70
   128
  1
t<>
 13
3297.9381742784749
 23
854.99999999614977
 33
0.0
 14
3297.9381742784749
 24
869.99999999600016
 34
0.0
 50
90.0
1001
ACAD
1000
DSTYLE
1002
{
1070
   287
1070
     5
1070
   287
1070
     5
1070
    40
1040
10.0
1070
    41
1040
2.0
1070
    42
1040
1.0
1070
    43
1040
6.0
1070
    44
1040
1.0
1070
    73
1070
     0
1070
    74
1070
     0
1070
    77
1070
     1
1070
    78
1070
     8
1070
   140
1040
3.0
1070
   144
1040
0.3
1070
   147
1040
1.1999999999999991
1070
   172
1070
     1
1070
   176
1070
   256
1070
   177
1070
   256
1070
   178
1070
   256
1070
   271
1070
     1
1070
   275
1070
     1
1070
   279
1070
     2
1070
   340
1005
3AA
1002
}
  0
DIMENSION
  5
36B
  8
SUNPOU
  2
*D19
 10
2531.2715076194759
 20
1103.333333327
 30
0.0
 11
2504.271507619475
 21
986.66666666150047
 31
0.0
 70
     0
 13
2671.2715076180762
 23
869.99999999600016
 33
0.0
 14
2634.6048409517762
 24
1103.333333327
 34
0.0
 50
90.0
1001
ACAD
1000
DSTYLE
1002
{
1070
   287
1070
     5
1070
   287
1070
     5
1070
    40
1040
10.0
1070
    41
1040
2.0
1070
    42
1040
1.0
1070
    43
1040
6.0
1070
    44
1040
1.0
1070
    73
1070
     0
1070
    74
1070
     0
1070
    77
1070
     1
1070
    78
1070
     8
1070
   140
1040
3.0
1070
   144
1040
0.3
1070
   147
1040
1.1999999999999991
1070
   172
1070
     1
1070
   176
1070
   256
1070
   177
1070
   256
1070
   178
1070
   256
1070
   271
1070
     1
1070
   275
1070
     1
1070
   279
1070
     2
1070
   340
1005
3AA
1002
}
  0
DIMENSION
  5
36C
  8
SUNPOU
  2
*D20
 10
3174.604840946376
 20
1469.9999999900001
 30
0.0
 11
2984.6048409482751
 21
1496.9999999900001
 31
0.0
 70
     0
  1
%%C<>
 13
2794.6048409501759
 23
1366.6666666577
 33
0.0
 14
3174.604840946376
 24
1366.6666666577
 34
0.0
1001
ACAD
1000
DSTYLE
1002
{
1070
   287
1070
     5
1070
   287
1070
     5
1070
    40
1040
10.0
1070
    41
1040
2.0
1070
    42
1040
1.0
1070
    43
1040
6.0
1070
    44
1040
1.0
1070
    73
1070
     0
1070
    74
1070
     0
1070
    77
1070
     1
1070
    78
1070
     8
1070
   140
1040
3.0
1070
   144
1040
0.3
1070
   147
1040
1.1999999999999991
1070
   172
1070
     1
1070
   176
1070
   256
1070
   177
1070
   256
1070
   178
1070
   256
1070
   271
1070
     1
1070
   275
1070
     1
1070
   279
1070
     2
1070
   340
1005
3AA
1002
}
  0
LINE
  5
36D
  8
HASEN
 10
1748.9048409482759
 20
430.0
 30
0.0
 11
1748.9048409482759
 21
856.79999999999995
 31
0.0
  0
LINE
  5
36E
  8
HASEN
 10
1630.3048409482749
 20
430.0
 30
0.0
 11
1630.3048409482749
 21
856.79999999999995
 31
0.0
  0
LINE
  5
36F
  8
HASEN
 10
693.90484094827571
 20
430.0
 30
0.0
 11
693.90484094827571
 21
856.79999999999995
 31
0.0
  0
LINE
  5
370
  8
HASEN
 10
575.30484094827534
 20
430.0
 30
0.0
 11
575.30484094827534
 21
856.79999999999995
 31
0.0
  0
LINE
  5
371
  8
HASEN
 10
3221.2715076125792
 20
2013.819023188556
 30
0.0
 11
3265.0905308161368
 21
1969.999999984997
 31
0.0
  0
LINE
  5
373
  8
HASEN
 10
3265.0905308161368
 20
1969.999999984997
 30
0.0
 11
3221.2715076125792
 21
1926.1809767814409
 31
0.0
  0
LINE
  5
374
  8
HASEN
 10
2721.2715076175768
 20
1938.7055078242499
 30
0.0
 11
2689.9770154568282
 21
1969.9999999849999
 31
0.0
  0
LINE
  5
376
  8
HASEN
 10
2721.2715076175768
 20
1952.84764344784
 30
0.0
 11
2704.119151080421
 21
1969.9999999849981
 31
0.0
  0
LINE
  5
378
  8
HASEN
 10
2689.9770154568282
 20
1969.9999999849999
 30
0.0
 11
2721.2715076175768
 21
2001.2944921457481
 31
0.0
  0
LINE
  5
379
  8
HASEN
 10
2704.119151080421
 20
1969.9999999849981
 30
0.0
 11
2721.2715076175768
 21
1987.1523565221589
 31
0.0
  0
DIMENSION
  5
37A
  8
SUNPOU
  2
*D11
 10
691.60484094827552
 20
1778.7249154678771
 30
0.0
 11
634.60484094827541
 21
1805.7249154678771
 31
0.0
 70
     0
  1
%%c<>
 13
577.60484094827552
 23
1660.0625
 33
0.0
 14
691.60484094827552
 24
1660.0625
 34
0.0
1001
ACAD
1000
DSTYLE
1002
{
1070
   287
1070
     5
1070
   287
1070
     5
1070
    40
1040
10.0
1070
    41
1040
2.0
1070
    42
1040
1.0
1070
    43
1040
6.0
1070
    44
1040
1.0
1070
    73
1070
     0
1070
    74
1070
     0
1070
    77
1070
     1
1070
    78
1070
     8
1070
   140
1040
3.0
1070
   147
1040
1.1999999999999991
1070
   172
1070
     1
1070
   176
1070
   256
1070
   177
1070
   256
1070
   178
1070
   256
1070
   271
1070
     1
1070
   275
1070
     1
1070
   279
1070
     2
1070
   340
1005
3AA
1002
}
  0
INSERT
  5
394
  8
ZWAKU
  2
CALCOMP_TECHJET720A3
 10
0.0
 20
0.0
 30
0.0
 41
10.0
 42
10.0
 43
10.0
  0
TEXT
  5
396
  8
INFORMATION
 10
1.0
 20
2.0
 30
0.0
 40
0.8
  1
PLOTTER=CALCOMP_TECHJET720
 41
0.8
  7
EXT08
  0
TEXT
  5
397
  8
INFORMATION
 10
1.0
 20
3.0
 30
0.0
 40
0.8
  1
PAPER=A3
 41
0.8
  7
EXT08
  0
TEXT
  5
3AE
  8
INFORMATION
 10
1.0
 20
1.0
 30
0.0
 40
0.8
  1
VERSION=2.1
 41
0.8
  7
EXT08
  0
LINE
  5
3AF
  8
MOJI2
 10
319.60484097585049
 20
2450.0000000657419
 30
0.0
 11
595.81262738148826
 21
2450.0000000657419
 31
0.0
  0
LINE
  5
3B0
  8
MOJI2
 10
1611.1899286196731
 20
1760.0
 30
0.0
 11
1775.9371010187881
 21
1760.0
 31
0.0
  0
LINE
  5
3B1
  8
MOJI2
 10
2689.604841248276
 20
2483.3333312999998
 30
0.0
 11
3013.614242526095
 21
2483.3333312999998
 31
0.0
  0
LINE
  5
4D8
  8
HATCH
 10
1489.6048409482751
 20
1312.828145651639
 30
0.0
 11
1622.104840948276
 21
1445.328145651639
 31
0.0
  0
LINE
  5
4D9
  8
HATCH
 10
1679.2766952966369
 20
1502.5
 30
0.0
 11
1811.7766952966369
 21
1635.0
 31
0.0
  0
LINE
  5
4DB
  8
HATCH
 10
1489.6048409482751
 20
1489.6048409482751
 30
0.0
 11
1635.0
 21
1635.0
 31
0.0
  0
LINE
  5
4DC
  8
HATCH
 10
1588.5533905932739
 20
1235.0
 30
0.0
 11
1721.0533905932739
 21
1367.5
 31
0.0
  0
LINE
  5
4DD
  8
HATCH
 10
1757.1048409482751
 20
1403.5514503550021
 30
0.0
 11
1889.6048409482751
 21
1536.051450355001
 31
0.0
  0
LINE
  5
4DF
  8
HATCH
 10
1765.3300858899099
 20
1235.0
 30
0.0
 11
1889.6048409482751
 21
1359.274755058364
 31
0.0
  0
LINE
  5
4E0
  8
HATCH
 10
1489.6048409482751
 20
1334.9252325637181
 30
0.0
 11
1622.104840948276
 21
1467.4252325637181
 31
0.0
  0
LINE
  5
4E1
  8
HATCH
 10
1657.179608384557
 20
1502.5
 30
0.0
 11
1789.679608384557
 21
1635.0
 31
0.0
  0
LINE
  5
4E2
  8
0
 62
     0
 10
1636.241977047946
 20
1481.562368663389
 30
0.0
 11
1643.042472284887
 21
1488.36286390033
 31
0.0
  0
LINE
  5
4E3
  8
HATCH
 10
1489.6048409482751
 20
1511.701927860355
 30
0.0
 11
1612.9029130879201
 21
1635.0
 31
0.0
  0
LINE
  5
4E4
  8
HATCH
 10
1566.456303681194
 20
1235.0
 30
0.0
 11
1698.956303681194
 21
1367.5
 31
0.0
  0
LINE
  5
4E5
  8
HATCH
 10
1757.1048409482751
 20
1425.648537267082
 30
0.0
 11
1889.6048409482751
 21
1558.1485372670811
 31
0.0
  0
LINE
  5
4E7
  8
HATCH
 10
1743.2329989778309
 20
1235.0
 30
0.0
 11
1889.6048409482751
 21
1381.3718419704439
 31
0.0
  0
LINE
  5
4E8
  8
HATCH
 10
1489.6048409482751
 20
1357.022319475798
 30
0.0
 11
1622.104840948276
 21
1489.522319475798
 31
0.0
  0
LINE
  5
4E9
  8
HATCH
 10
1635.0825214724771
 20
1502.5
 30
0.0
 11
1767.5825214724771
 21
1635.0
 31
0.0
  0
LINE
  5
4EA
  8
HATCH
 10
1489.6048409482751
 20
1533.7990147724349
 30
0.0
 11
1590.8058261758399
 21
1635.0
 31
0.0
  0
LINE
  5
4EB
  8
HATCH
 10
1544.359216769114
 20
1235.0
 30
0.0
 11
1676.859216769114
 21
1367.5
 31
0.0
  0
LINE
  5
4EC
  8
HATCH
 10
1757.1048409482751
 20
1447.745624179161
 30
0.0
 11
1889.6048409482751
 21
1580.2456241791599
 31
0.0
  0
LINE
  5
4EE
  8
HATCH
 10
1721.135912065751
 20
1235.0
 30
0.0
 11
1889.6048409482751
 21
1403.4689288825241
 31
0.0
  0
LINE
  5
4EF
  8
SJC
 10
1757.1048409482751
 20
1502.5
 30
0.0
 11
1622.1048409482751
 21
1502.5
 31
0.0
  0
LINE
  5
4F0
  8
SJC
 10
1622.1048409482751
 20
1502.5
 30
0.0
 11
1622.1048409482751
 21
1367.5
 31
0.0
  0
LINE
  5
4F1
  8
SJC
 10
1622.1048409482751
 20
1367.5
 30
0.0
 11
1757.1048409482751
 21
1367.5
 31
0.0
  0
LINE
  5
4F2
  8
SJC
 10
1757.1048409482751
 20
1367.5
 30
0.0
 11
1757.1048409482751
 21
1502.5
 31
0.0
  0
INSERT
  5
710
  8
HATCH
  2
*X12
 10
0.0
 20
0.0
 30
0.0
1001
ACAD
1000
HATCH
1002
{
1070
    19
1000
PLAST
1040
500.0
1040
0.7853981633974483
1002
}
  0
DIMENSION
  5
731
  8
SUNPOU
  2
*D13
 10
284.60484094827552
 20
860.0
 30
0.0
 11
257.60484094827541
 21
670.00000000000011
 31
0.0
 70
     0
 13
404.60484094827552
 23
480.0
 33
0.0
 14
320.60931715476909
 24
860.0
 34
0.0
 50
90.0
1001
ACAD
1000
DSTYLE
1002
{
1070
   287
1070
     5
1070
   287
1070
     5
1070
    40
1040
10.0
1070
    41
1040
2.0
1070
    42
1040
1.0
1070
    43
1040
6.0
1070
    44
1040
1.0
1070
    73
1070
     0
1070
    74
1070
     0
1070
    77
1070
     1
1070
    78
1070
     8
1070
   140
1040
3.0
1070
   147
1040
1.1999999999999991
1070
   172
1070
     1
1070
   176
1070
   256
1070
   177
1070
   256
1070
   178
1070
   256
1070
   271
1070
     1
1070
   275
1070
     1
1070
   279
1070
     2
1070
   340
1005
3AA
1002
}
  0
DIMENSION
  5
73E
  8
SUNPOU
  2
*D14
 10
194.60484094827549
 20
860.00000000000011
 30
0.0
 11
167.6048409482753
 21
645.00000000000011
 31
0.0
 70
     0
 13
434.60484094827541
 23
430.0
 33
0.0
 14
320.60931715476909
 24
860.0
 34
0.0
 50
90.0
1001
ACAD
1000
DSTYLE
1002
{
1070
   287
1070
     5
1070
   287
1070
     5
1070
    40
1040
10.0
1070
    41
1040
2.0
1070
    42
1040
1.0
1070
    43
1040
6.0
1070
    44
1040
1.0
1070
    73
1070
     0
1070
    74
1070
     0
1070
    77
1070
     1
1070
    78
1070
     8
1070
   140
1040
3.0
1070
   147
1040
1.1999999999999991
1070
   172
1070
     1
1070
   176
1070
   256
1070
   177
1070
   256
1070
   178
1070
   256
1070
   271
1070
     1
1070
   275
1070
     1
1070
   279
1070
     2
1070
   340
1005
3AA
1002
}
  0
DIMENSION
  5
755
  8
SUNPOU
  2
*D15
 10
1889.6048409482751
 20
281.51757292125149
 30
0.0
 11
1689.6048409482751
 21
308.51757292125149
 31
0.0
 70
     0
  1
□<>
 13
1489.6048409482751
 23
434.60484094827541
 33
0.0
 14
1889.6048409482751
 24
430.0
 34
0.0
1001
ACAD
1000
DSTYLE
1002
{
1070
   287
1070
     5
1070
   287
1070
     5
1070
    40
1040
10.0
1070
    41
1040
2.0
1070
    42
1040
1.0
1070
    43
1040
6.0
1070
    44
1040
1.0
1070
    73
1070
     0
1070
    74
1070
     0
1070
    77
1070
     1
1070
    78
1070
     8
1070
   140
1040
3.0
1070
   147
1040
1.1999999999999991
1070
   172
1070
     1
1070
   176
1070
   256
1070
   177
1070
   256
1070
   178
1070
   256
1070
   271
1070
     1
1070
   275
1070
     1
1070
   279
1070
     2
1070
   340
1005
3AA
1002
}
  0
DIMENSION
  5
7F4
  8
SUNPOU
  2
*D16
 10
1249.6048409482751
 20
863.20000000000005
 30
0.0
 11
1214.6469808409911
 21
861.59999999999991
 31
0.0
 70
   128
 13
1391.3294810414559
 23
860.0
 33
0.0
 14
1622.1048409482751
 24
863.20000000000005
 34
0.0
 50
90.0
1001
ACAD
1000
DSTYLE
1002
{
1070
   287
1070
     5
1070
   287
1070
     5
1070
    40
1040
10.0
1070
    41
1040
2.0
1070
    42
1040
1.0
1070
    43
1040
6.0
1070
    44
1040
1.0
1070
    73
1070
     0
1070
    74
1070
     0
1070
    77
1070
     1
1070
    78
1070
     8
1070
   140
1040
3.0
1070
   147
1040
1.1999999999999991
1070
   172
1070
     1
1070
   176
1070
   256
1070
   177
1070
   256
1070
   178
1070
   256
1070
   271
1070
     1
1070
   275
1070
     1
1070
   279
1070
     2
1070
   340
1005
3AA
1002
}
  0
INSERT
  5
820
  8
HATCH
  2
*X17
 10
0.0
 20
0.0
 30
0.0
1001
ACAD
1000
HATCH
1002
{
1070
    19
1000
PLAST
1040
500.0
1040
0.7853981633974483
1002
}
  0
DIMENSION
  5
841
  8
SUNPOU
  2
*D18
 10
1339.6048409482751
 20
860.0
 30
0.0
 11
1312.6048409482751
 21
670.00000000000023
 31
0.0
 70
     0
 13
1470.42463707139
 23
480.0
 33
0.0
 14
1391.3294810414559
 24
860.0
 34
0.0
 50
90.0
1001
ACAD
1000
DSTYLE
1002
{
1070
   287
1070
     5
1070
   287
1070
     5
1070
    40
1040
10.0
1070
    41
1040
2.0
1070
    42
1040
1.0
1070
    43
1040
6.0
1070
    44
1040
1.0
1070
    73
1070
     0
1070
    74
1070
     0
1070
    77
1070
     1
1070
    78
1070
     8
1070
   140
1040
3.0
1070
   147
1040
1.1999999999999991
1070
   172
1070
     1
1070
   176
1070
   256
1070
   177
1070
   256
1070
   178
1070
   256
1070
   271
1070
     1
1070
   275
1070
     1
1070
   279
1070
     2
1070
   340
1005
3AA
1002
}
  0
SOLID
  5
85C
  8
MOJI
  6
CONTINUOUS
 10
655.53116290743981
 20
1533.775145908307
 30
0.0
 11
649.72503772417531
 21
1537.051325818004
 31
0.0
 12
642.79956058671451
 22
1517.9948603133621
 32
0.0
 13
642.79956058671451
 23
1517.9948603133621
 33
0.0
  0
LINE
  5
85D
  8
MOJI
  6
CONTINUOUS
 10
652.62810031580761
 20
1535.4132358631559
 30
0.0
 11
759.60484094827564
 21
1725.0
 31
0.0
  0
SOLID
  5
860
  8
MOJI
  6
CONTINUOUS
 10
1699.960448409845
 20
877.43193922697628
 30
0.0
 11
1693.747083932903
 21
879.84824763467611
 31
0.0
 12
1689.6048409482751
 22
860.00000000000034
 32
0.0
 13
1689.6048409482751
 23
860.00000000000034
 33
0.0
  0
LINE
  5
861
  8
MOJI
  6
CONTINUOUS
 10
1696.853766171374
 20
878.64009343082591
 30
0.0
 11
1759.6048409482751
 21
1040.0
 31
0.0
  0
SOLID
  5
862
  8
MOJI
  6
CONTINUOUS
 10
703.1525653273352
 20
1123.279526502128
 30
0.0
 11
697.12312016873318
 21
1126.1238604353809
 31
0.0
 12
691.60484094827473
 22
1106.6133579929481
 32
0.0
 13
691.60484094827473
 23
1106.6133579929481
 33
0.0
  0
LINE
  5
863
  8
MOJI
  6
CONTINUOUS
 10
700.13784274803425
 20
1124.701693468754
 30
0.0
 11
761.60484094827575
 21
1255.0
 31
0.0
  0
SOLID
  5
864
  8
MOJI
  6
CONTINUOUS
 10
707.96747784952356
 20
806.48184763134736
 30
0.0
 11
701.82768802023793
 21
809.0794282935492
 31
0.0
 12
697.10484094827541
 22
789.36126847459116
 32
0.0
 13
697.10484094827541
 23
789.36126847459116
 33
0.0
  0
LINE
  5
865
  8
MOJI
  6
CONTINUOUS
 10
704.89758293488069
 20
807.78063796244828
 30
0.0
 11
811.60484094827495
 21
1060.0
 31
0.0
  0
SOLID
  5
866
  8
MOJI
  6
CONTINUOUS
 10
1814.134379463087
 20
491.12016363965353
 30
0.0
 11
1809.611383630637
 21
496.01781135504558
 31
0.0
 12
1797.1799384006849
 22
480.00000000000011
 32
0.0
 13
1797.1799384006849
 23
480.00000000000011
 33
0.0
  0
LINE
  5
867
  8
MOJI
  6
CONTINUOUS
 10
1811.8728815468619
 20
493.56898749734938
 30
0.0
 11
1959.604840948276
 21
629.99999999999977
 31
0.0
  0
SOLID
  5
8D8
  8
MOJI
  6
CONTINUOUS
 10
3237.970222426271
 20
1023.672333955185
 30
0.0
 11
3233.3376615647599
 21
1028.466478749498
 31
0.0
 12
3221.271507612576
 22
1012.171723767808
 32
0.0
 13
3221.271507612576
 23
1012.171723767808
 33
0.0
  0
LINE
  5
8D9
  8
MOJI
  6
CONTINUOUS
 10
3235.6539419955152
 20
1026.069406352341
 30
0.0
 11
3384.604840548277
 21
1169.9999992999999
 31
0.0
  0
SOLID
  5
914
  8
MOJI
  6
CONTINUOUS
 10
3000.1022908296932
 20
1708.964432634539
 30
0.0
 11
3003.5049395469819
 21
1714.6973573812261
 31
0.0
 12
2984.6048409482769
 22
1722.038841159751
 32
0.0
 13
2984.6048409482769
 23
1722.038841159751
 33
0.0
  0
LINE
  5
915
  8
MOJI
  6
CONTINUOUS
 10
3001.8036151883362
 20
1711.8308950078831
 30
0.0
 11
3176.1806318113431
 21
1608.333333439519
 31
0.0
  0
INSERT
  5
B36
  8
MOJI
  2
1-10BASE
 10
3700.0
 20
0.0
 30
0.0
  0
TEXT
  5
CC9
  8
INFORMATION
 10
3701.0
 20
2.0
 30
0.0
 40
0.8
  1
PLOTTER=CALCOMP_TECHJET720
 41
0.8
  7
EXT08
  0
TEXT
  5
CCA
  8
INFORMATION
 10
3701.0
 20
3.0
 30
0.0
 40
0.8
  1
PAPER=A3
 41
0.8
  7
EXT08
  0
DIMENSION
  5
E1F
  8
SUNPOU
  2
*D26
 10
634.60484094827541
 20
2117.022061470916
 30
0.0
 11
707.19869301395192
 21
1932.7354839539489
 31
0.0
 70
   130
 13
634.60484094827541
 23
1947.022061470916
 33
0.0
 14
634.60484094827541
 24
2258.693384131132
 34
0.0
 15
649.42131721537794
 25
1947.668962795319
 35
0.0
 16
641.18037846568529
 26
1891.0354946123271
 36
0.0
1001
ACAD
1000
DSTYLE
1002
{
1070
   287
1070
     5
1070
   271
1070
     1
1070
   287
1070
     5
1070
   271
1070
     1
1070
    40
1040
10.0
1070
    41
1040
2.0
1070
    42
1040
1.0
1070
    43
1040
6.0
1070
    44
1040
1.0
1070
    73
1070
     0
1070
    74
1070
     0
1070
    77
1070
     1
1070
    78
1070
     8
1070
    79
1070
     2
1070
   140
1040
3.0
1070
   144
1040
0.3
1070
   147
1040
1.1999999999999991
1070
   172
1070
     1
1070
   176
1070
   256
1070
   177
1070
   256
1070
   178
1070
   256
1070
   179
1070
     1
1070
   271
1070
     1
1070
   275
1070
     1
1070
   279
1070
     2
1070
   340
1005
3AA
1002
}
  0
LINE
  5
E20
  8
CENTER
 10
649.42131721537771
 20
1947.668962795319
 30
0.0
 11
634.60484094827541
 21
2117.022061470916
 31
0.0
  0
LINE
  5
E21
  8
SJC
 10
702.10484094827552
 20
2184.5220614709151
 30
0.0
 11
702.10484094827552
 21
2049.5220614709151
 31
0.0
  0
LINE
  5
E22
  8
SJC
 10
567.10484094827552
 20
2049.5220614709151
 30
0.0
 11
567.10484094827643
 21
2184.522061470916
 31
0.0
  0
LINE
  5
E23
  8
SJC2
 10
590.76422051471025
 20
2059.0393054136189
 30
0.0
 11
576.62208489097975
 21
2073.1814410373499
 31
0.0
  0
LINE
  5
E24
  8
SJC2
 10
581.21827896869218
 20
2074.242101209129
 30
0.0
 11
591.82488068648945
 21
2063.6354994913308
 31
0.0
  0
LINE
  5
E25
  8
SJC2
 10
595.36041459242176
 20
2067.1710333972642
 30
0.0
 11
584.75381287462449
 21
2077.7776351150619
 31
0.0
  0
LINE
  5
E26
  8
SJC2
 10
571.67233742267297
 20
2068.2316935690442
 30
0.0
 11
576.62208489097975
 21
2073.1814410373499
 31
0.0
  0
LINE
  5
E27
  8
SJC2
 10
580.15761879691206
 20
2069.6459071314171
 30
0.0
 11
582.98604592165793
 21
2072.4743342561628
 31
0.0
  0
LINE
  5
E28
  8
SJC2
 10
593.59264763945612
 20
2068.9388003502308
 30
0.0
 11
597.99065505443923
 21
2073.336807765214
 31
0.0
  0
ARC
  5
E29
  8
SJC2
 10
634.60484094827541
 20
2117.022061470916
 30
0.0
 40
59.0
 50
229.8614053957983
 51
40.138594604201991
  0
LINE
  5
E2A
  8
SJC2
 10
634.60484094827541
 20
2070.1915529098101
 30
0.0
 11
606.04548082119618
 21
2067.6929326611371
 31
0.0
  0
LINE
  5
E2B
  8
SJC2
 10
605.25165378592283
 20
2068.161132259409
 30
0.0
 11
604.4570810438654
 21
2077.2431402594748
 31
0.0
  0
LINE
  5
E2C
  8
CENTER
 10
634.60484094827541
 20
1947.022061470916
 30
0.0
 11
634.60484094827541
 21
2258.693384131132
 31
0.0
  0
CIRCLE
  5
E2D
  8
SJC2
 10
634.60484094827541
 20
2117.022061470916
 30
0.0
 40
57.0
  0
LINE
  5
E2E
  8
SJC
 10
702.10484094827552
 20
2049.5220614709151
 30
0.0
 11
567.10484094827552
 21
2049.5220614709151
 31
0.0
  0
LINE
  5
E2F
  8
SJC2
 10
585.81447304640449
 20
2054.0895579453131
 30
0.0
 11
590.76422051471025
 21
2059.0393054136189
 31
0.0
  0
LINE
  5
E30
  8
SJC2
 10
585.81447304640449
 20
2054.0895579453131
 30
0.0
 11
571.67233742267297
 21
2068.2316935690442
 31
0.0
  0
LINE
  5
E31
  8
SJC2
 10
587.22868660877702
 20
2062.5748393195522
 30
0.0
 11
590.05711373352358
 21
2065.403266444298
 31
0.0
  0
ARC
  5
E32
  8
SJC2
 10
593.59264763945612
 20
2065.403266444298
 30
0.0
 40
2.5
 50
225.0
 51
45.0
  0
LINE
  5
E33
  8
SJC
 10
567.10484094827643
 20
2184.522061470916
 30
0.0
 11
702.10484094827552
 21
2184.5220614709151
 31
0.0
  0
LINE
  5
E34
  8
SJC2
 10
598.02388375862745
 20
2087.512172093132
 30
0.0
 11
664.11473032606045
 21
2153.6030186605649
 31
0.0
  0
LINE
  5
E35
  8
SJC2
 10
612.65216266242805
 20
2087.9983153732019
 30
0.0
 11
671.1857981379253
 21
2146.5319508487
 31
0.0
  0
ARC
  5
E36
  8
SJC2
 10
634.60484094827541
 20
2117.022061470916
 30
0.0
 40
59.0
 50
49.86140539579781
 51
220.13859460420241
  0
LINE
  5
E37
  8
SJC2
 10
637.96033704406
 20
2078.6685655943838
 30
0.0
 11
671.33285943013368
 21
2081.5882829764309
 31
0.0
  0
LINE
  5
E38
  8
SJC2
 10
637.8296034299392
 20
2080.162857641521
 30
0.0
 11
671.20212581601197
 21
2083.0825750235681
 31
0.0
  0
LINE
  5
E39
  8
SJC2
 10
636.95804600246265
 20
2090.1248046224391
 30
0.0
 11
675.28242123845303
 21
2093.4777529923022
 31
0.0
  0
ARC
  5
E3A
  8
SJC2
 10
634.60484094827541
 20
2117.022061470916
 30
0.0
 40
47.0
 50
329.93760962356998
 51
220.06239037643039
  0
LINE
  5
E3B
  8
CENTER
 10
459.60484094827541
 20
2117.022061470916
 30
0.0
 11
809.60484094827541
 21
2117.022061470916
 31
0.0
  0
LINE
  5
E3C
  8
SJC2
 10
671.29623354620605
 20
2073.4016338111078
 30
0.0
 11
638.67085718370163
 21
2070.547283236122
 31
0.0
  0
LINE
  5
E3D
  8
SJC2
 10
598.63367076647137
 20
2086.7718562525761
 30
0.0
 11
634.60484094827541
 21
2089.9189258572451
 31
0.0
  0
ARC
  5
E3E
  8
SJC2
 10
582.98604592165793
 20
2076.0098681620948
 30
0.0
 40
2.5
 50
45.0
 51
225.0
  0
LINE
  5
E3F
  8
SJC2
 10
586.52157982759115
 20
2076.0098681620948
 30
0.0
 11
590.91958724257427
 21
2080.4078755770788
 31
0.0
  0
LINE
  5
E40
  8
SJC2
 10
611.92854127955343
 20
2077.896808330082
 30
0.0
 11
611.05698385207688
 21
2087.8587553110001
 31
0.0
  0
LINE
  5
E41
  8
SJC2
 10
604.4570810438654
 20
2077.2431402594748
 30
0.0
 11
634.60484094827541
 21
2079.8807274818118
 31
0.0
  0
LINE
  5
E42
  8
SJC2
 10
604.587814657987
 20
2075.7488482123372
 30
0.0
 11
634.60484094827541
 21
2078.374997725497
 31
0.0
  0
LINE
  5
E43
  8
SJC2
 10
663.73066558032394
 20
2082.42890695296
 30
0.0
 11
662.85910815284751
 21
2092.390853933879
 31
0.0
  0
LINE
  5
E44
  8
SJC2
 10
671.99669855806951
 20
2074.0005670235032
 30
0.0
 11
671.20212581601197
 21
2083.0825750235681
 31
0.0
  0
LINE
  5
E45
  8
SJC2
 10
687.63784953726645
 20
2150.2560801866839
 30
0.0
 11
681.27388850658826
 21
2156.620041217363
 31
0.0
  0
LINE
  5
E46
  8
SJC2
 10
687.63784953726724
 20
2154.7815635862771
 30
0.0
 11
681.13246715035075
 21
2161.2869459731942
 31
0.0
  0
LINE
  5
E47
  8
SJC2
 10
690.18343394953808
 20
2157.3271479985492
 30
0.0
 11
683.67805156262227
 21
2163.8325303854649
 31
0.0
  0
LINE
  5
E48
  8
SJC2
 10
678.86972545055414
 20
2163.5496876729899
 30
0.0
 11
690.31661584888479
 21
2174.9965780713219
 31
0.0
  0
LINE
  5
E49
  8
SJC2
 10
681.13246715035075
 20
2161.2869459731942
 30
0.0
 11
692.5793575486814
 21
2172.7338363715248
 31
0.0
  0
LINE
  5
E4A
  8
SJC2
 10
667.8388596640433
 20
2170.0550700599069
 30
0.0
 11
674.90992747590917
 21
2177.1261378717718
 31
0.0
  0
LINE
  5
E4B
  8
SJC2
 10
674.2028206947233
 20
2163.6911090292278
 30
0.0
 11
667.8388596640433
 21
2170.0550700599069
 31
0.0
  0
LINE
  5
E4C
  8
SJC2
 10
672.36434306363844
 20
2170.0550700599069
 30
0.0
 11
674.90992747590997
 21
2172.6006544721781
 31
0.0
  0
LINE
  5
E4D
  8
SJC2
 10
681.27388850658826
 20
2156.620041217363
 30
0.0
 11
681.13246715035075
 21
2161.2869459731942
 31
0.0
  0
LINE
  5
E4E
  8
SJC2
 10
674.2028206947233
 20
2163.6911090292278
 30
0.0
 11
678.86972545055414
 21
2163.5496876729899
 31
0.0
  0
LINE
  5
E4F
  8
SJC2
 10
678.86972545055414
 20
2163.5496876729899
 30
0.0
 11
672.36434306363844
 21
2170.0550700599069
 31
0.0
  0
LINE
  5
E50
  8
SJC2
 10
683.67805156262227
 20
2168.358013785059
 30
0.0
 11
674.90992747590917
 21
2177.1261378717718
 31
0.0
  0
LINE
  5
E51
  8
SJC2
 10
681.41530986282567
 20
2166.095272085262
 30
0.0
 11
674.90992747590997
 21
2172.6006544721781
 31
0.0
  0
LINE
  5
E52
  8
SJC2
 10
671.21902684211273
 20
2160.7073151766181
 30
0.0
 11
674.2028206947233
 21
2163.6911090292278
 31
0.0
  0
LINE
  5
E53
  8
SJC2
 10
678.29009465397837
 20
2153.6362473647532
 30
0.0
 11
681.27388850658826
 21
2156.620041217363
 31
0.0
  0
LINE
  5
E54
  8
SJC2
 10
687.63784953726645
 20
2150.2560801866839
 30
0.0
 11
694.70891734913209
 21
2157.3271479985492
 31
0.0
  0
LINE
  5
E55
  8
SJC2
 10
687.63784953726724
 20
2154.7815635862771
 30
0.0
 11
690.18343394953808
 21
2157.3271479985492
 31
0.0
  0
LINE
  5
E56
  8
SJC2
 10
694.70891734913209
 20
2157.3271479985492
 30
0.0
 11
685.9407932624199
 21
2166.095272085262
 31
0.0
  0
TEXT
  5
E58
  8
MOJI2
 10
563.1217004396658
 20
2320.4887585393071
 30
0.0
 40
40.0
  1
A-A断面
 41
0.8
  7
EXT08
  0
LINE
  5
E59
  8
MOJI2
 10
543.40731090812278
 20
2310.4887585393062
 30
0.0
 11
734.67138478903144
 21
2310.4887585393062
 31
0.0
  0
TEXT
  5
E5A
  8
MOJI
 10
459.60484094827541
 20
1434.9999999999991
 30
0.0
 40
30.0
  1
A
 41
0.8
  7
EXT08
  0
LINE
  5
E5B
  8
MOJI
 10
444.60484094827552
 20
1534.9999999999991
 30
0.0
 11
504.60484094827552
 21
1534.9999999999991
 31
0.0
  0
LINE
  5
E5C
  8
MOJI
 10
474.60484094827552
 20
1564.9999999999991
 30
0.0
 11
562.60484094827552
 21
1564.9999999999991
 31
0.0
  0
LINE
  5
E5D
  8
MOJI
 10
444.60484094827552
 20
1534.9999999999991
 30
0.0
 11
474.60484094827552
 21
1479.9999999999991
 31
0.0
  0
LINE
  5
E5E
  8
MOJI
 10
474.60484094827552
 20
1564.9999999999991
 30
0.0
 11
474.60484094827552
 21
1479.9999999999991
 31
0.0
  0
LINE
  5
E5F
  8
MOJI
 10
824.60484094827552
 20
1534.9999999999991
 30
0.0
 11
794.60484094827552
 21
1479.9999999999991
 31
0.0
  0
LINE
  5
E60
  8
MOJI
 10
764.60484094827552
 20
1534.9999999999991
 30
0.0
 11
824.60484094827552
 21
1534.9999999999991
 31
0.0
  0
TEXT
  5
E61
  8
MOJI
 10
779.60484094827552
 20
1434.9999999999991
 30
0.0
 40
30.0
  1
A
 41
0.8
  7
EXT08
  0
LINE
  5
E62
  8
MOJI
 10
706.60484094827552
 20
1564.9999999999991
 30
0.0
 11
794.60484094827552
 21
1564.9999999999991
 31
0.0
  0
LINE
  5
E63
  8
MOJI
 10
794.60484094827552
 20
1564.9999999999991
 30
0.0
 11
794.60484094827552
 21
1480.0
 31
0.0
  0
SOLID
  5
E7F
  8
MOJI
  6
CONTINUOUS
 10
655.12382011862428
 20
1397.4359852253699
 30
0.0
 11
657.39272138310105
 21
1403.7046797861619
 31
0.0
 12
637.45218706848732
 22
1407.3770362991961
 32
0.0
 13
637.45218706848732
 23
1407.3770362991961
 33
0.0
  0
LINE
  5
E80
  8
MOJI
  6
CONTINUOUS
 10
656.25827075086272
 20
1400.5703325057659
 30
0.0
 11
761.60484094827552
 21
1362.441027590485
 31
0.0
  0
TEXT
  5
F99
  8
INFORMATION
 10
1.0
 20
1.0
 30
0.0
 40
0.8
  1
VERSION=3.0
 41
0.8
  7
EXT08
  0
ENDSEC
  0
EOF
