  0
SECTION
  2
HEADER
  9
$ACADVER
  1
AC1018
  9
$ACADMAINTVER
 70
    39
  9
$DWGCODEPAGE
  3
ANSI_932
  9
$INSBASE
 10
0.0
 20
0.0
 30
0.0
  9
$EXTMIN
 10
-0.1922460740788665
 20
-0.1359454380999523
 30
-0.0015258207003583
  9
$EXTMAX
 10
5550.375380006594
 20
4005.122232749271
 30
0.0000000349246037
  9
$LIMMIN
 10
0.0
 20
0.0
  9
$LIMMAX
 10
6300.0
 20
4455.0
  9
$ORTHOMODE
 70
     1
  9
$REGENMODE
 70
     1
  9
$FILLMODE
 70
     1
  9
$QTEXTMODE
 70
     0
  9
$MIRRTEXT
 70
     0
  9
$LTSCALE
 40
150.0
  9
$ATTMODE
 70
     1
  9
$TEXTSIZE
 40
45.0
  9
$TRACEWID
 40
0.05
  9
$TEXTSTYLE
  7
EXT08
  9
$CLAYER
  8
SJC
  9
$CELTYPE
  6
BYLAYER
  9
$CECOLOR
 62
   256
  9
$CELTSCALE
 40
1.0
  9
$DISPSILH
 70
     0
  9
$DIMSCALE
 40
15.0
  9
$DIMASZ
 40
2.0
  9
$DIMEXO
 40
1.0
  9
$DIMDLI
 40
6.0
  9
$DIMRND
 40
0.0
  9
$DIMDLE
 40
0.0
  9
$DIMEXE
 40
1.0
  9
$DIMTP
 40
0.0
  9
$DIMTM
 40
0.0
  9
$DIMTXT
 40
3.0
  9
$DIMCEN
 40
0.09
  9
$DIMTSZ
 40
0.0
  9
$DIMTOL
 70
     0
  9
$DIMLIM
 70
     0
  9
$DIMTIH
 70
     0
  9
$DIMTOH
 70
     0
  9
$DIMSE1
 70
     0
  9
$DIMSE2
 70
     0
  9
$DIMTAD
 70
     1
  9
$DIMZIN
 70
     8
  9
$DIMBLK
  1

  9
$DIMASO
 70
     1
  9
$DIMSHO
 70
     1
  9
$DIMPOST
  1

  9
$DIMAPOST
  1

  9
$DIMALT
 70
     0
  9
$DIMALTD
 70
     2
  9
$DIMALTF
 40
25.4
  9
$DIMLFAC
 40
1.0
  9
$DIMTOFL
 70
     1
  9
$DIMTVP
 40
0.0
  9
$DIMTIX
 70
     0
  9
$DIMSOXD
 70
     0
  9
$DIMSAH
 70
     0
  9
$DIMBLK1
  1

  9
$DIMBLK2
  1

  9
$DIMSTYLE
  2
SJC
  9
$DIMCLRD
 70
     0
  9
$DIMCLRE
 70
     0
  9
$DIMCLRT
 70
     0
  9
$DIMTFAC
 40
1.0
  9
$DIMGAP
 40
1.199999999999999
  9
$DIMJUST
 70
     0
  9
$DIMSD1
 70
     0
  9
$DIMSD2
 70
     0
  9
$DIMTOLJ
 70
     1
  9
$DIMTZIN
 70
     0
  9
$DIMALTZ
 70
     0
  9
$DIMALTTZ
 70
     0
  9
$DIMUPT
 70
     0
  9
$DIMDEC
 70
     2
  9
$DIMTDEC
 70
     4
  9
$DIMALTU
 70
     2
  9
$DIMALTTD
 70
     2
  9
$DIMTXSTY
  7
EXT08
  9
$DIMAUNIT
 70
     0
  9
$DIMADEC
 70
     2
  9
$DIMALTRND
 40
0.0
  9
$DIMAZIN
 70
     0
  9
$DIMDSEP
 70
    46
  9
$DIMATFIT
 70
     3
  9
$DIMFRAC
 70
     0
  9
$DIMLDRBLK
  1

  9
$DIMLUNIT
 70
     2
  9
$DIMLWD
 70
    -2
  9
$DIMLWE
 70
    -2
  9
$DIMTMOVE
 70
     2
  9
$LUNITS
 70
     2
  9
$LUPREC
 70
     2
  9
$SKETCHINC
 40
0.1
  9
$FILLETRAD
 40
0.0
  9
$AUNITS
 70
     1
  9
$AUPREC
 70
     2
  9
$MENU
  1
C:\r13\win\SUPPORT\sjc
  9
$ELEVATION
 40
0.0
  9
$PELEVATION
 40
0.0
  9
$THICKNESS
 40
0.0
  9
$LIMCHECK
 70
     0
  9
$CHAMFERA
 40
0.0
  9
$CHAMFERB
 40
0.0
  9
$CHAMFERC
 40
0.0
  9
$CHAMFERD
 40
0.0
  9
$SKPOLY
 70
     0
  9
$TDCREATE
 40
2450221.664506829
  9
$TDUCREATE
 40
2450221.289506829
  9
$TDUPDATE
 40
2453791.570988669
  9
$TDUUPDATE
 40
2453791.195988669
  9
$TDINDWG
 40
0.0442743403
  9
$TDUSRTIMER
 40
0.0442743403
  9
$USRTIMER
 70
     1
  9
$ANGBASE
 50
0.0
  9
$ANGDIR
 70
     0
  9
$PDMODE
 70
    33
  9
$PDSIZE
 40
5.0
  9
$PLINEWID
 40
0.0
  9
$SPLFRAME
 70
     0
  9
$SPLINETYPE
 70
     6
  9
$SPLINESEGS
 70
     8
  9
$HANDSEED
  5
64F
  9
$SURFTAB1
 70
     6
  9
$SURFTAB2
 70
     6
  9
$SURFTYPE
 70
     6
  9
$SURFU
 70
     6
  9
$SURFV
 70
     6
  9
$UCSBASE
  2

  9
$UCSNAME
  2

  9
$UCSORG
 10
0.0
 20
0.0
 30
0.0
  9
$UCSXDIR
 10
1.0
 20
0.0
 30
0.0
  9
$UCSYDIR
 10
0.0
 20
1.0
 30
0.0
  9
$UCSORTHOREF
  2

  9
$UCSORTHOVIEW
 70
     0
  9
$UCSORGTOP
 10
0.0
 20
0.0
 30
0.0
  9
$UCSORGBOTTOM
 10
0.0
 20
0.0
 30
0.0
  9
$UCSORGLEFT
 10
0.0
 20
0.0
 30
0.0
  9
$UCSORGRIGHT
 10
0.0
 20
0.0
 30
0.0
  9
$UCSORGFRONT
 10
0.0
 20
0.0
 30
0.0
  9
$UCSORGBACK
 10
0.0
 20
0.0
 30
0.0
  9
$PUCSBASE
  2

  9
$PUCSNAME
  2

  9
$PUCSORG
 10
0.0
 20
0.0
 30
0.0
  9
$PUCSXDIR
 10
1.0
 20
0.0
 30
0.0
  9
$PUCSYDIR
 10
0.0
 20
1.0
 30
0.0
  9
$PUCSORTHOREF
  2

  9
$PUCSORTHOVIEW
 70
     0
  9
$PUCSORGTOP
 10
0.0
 20
0.0
 30
0.0
  9
$PUCSORGBOTTOM
 10
0.0
 20
0.0
 30
0.0
  9
$PUCSORGLEFT
 10
0.0
 20
0.0
 30
0.0
  9
$PUCSORGRIGHT
 10
0.0
 20
0.0
 30
0.0
  9
$PUCSORGFRONT
 10
0.0
 20
0.0
 30
0.0
  9
$PUCSORGBACK
 10
0.0
 20
0.0
 30
0.0
  9
$USERI1
 70
     3
  9
$USERI2
 70
    15
  9
$USERI3
 70
     0
  9
$USERI4
 70
     0
  9
$USERI5
 70
     0
  9
$USERR1
 40
0.0666666666666667
  9
$USERR2
 40
0.0
  9
$USERR3
 40
0.0
  9
$USERR4
 40
0.0
  9
$USERR5
 40
0.0
  9
$WORLDVIEW
 70
     1
  9
$SHADEDGE
 70
     3
  9
$SHADEDIF
 70
    70
  9
$TILEMODE
 70
     1
  9
$MAXACTVP
 70
    16
  9
$PINSBASE
 10
0.0
 20
0.0
 30
0.0
  9
$PLIMCHECK
 70
     0
  9
$PEXTMIN
 10
1.000000000000000E+20
 20
1.000000000000000E+20
 30
1.000000000000000E+20
  9
$PEXTMAX
 10
-1.000000000000000E+20
 20
-1.000000000000000E+20
 30
-1.000000000000000E+20
  9
$PLIMMIN
 10
0.0
 20
0.0
  9
$PLIMMAX
 10
12.0
 20
9.0
  9
$UNITMODE
 70
     0
  9
$VISRETAIN
 70
     0
  9
$PLINEGEN
 70
     0
  9
$PSLTSCALE
 70
     1
  9
$TREEDEPTH
 70
  3020
  9
$CMLSTYLE
  2
STANDARD
  9
$CMLJUST
 70
     0
  9
$CMLSCALE
 40
1.0
  9
$PROXYGRAPHICS
 70
     1
  9
$MEASUREMENT
 70
     0
  9
$CELWEIGHT
370
    -1
  9
$ENDCAPS
280
     0
  9
$JOINSTYLE
280
     0
  9
$LWDISPLAY
290
     0
  9
$INSUNITS
 70
     0
  9
$HYPERLINKBASE
  1

  9
$STYLESHEET
  1
CALCOMP_TECHJET720.CTB
  9
$XEDIT
290
     1
  9
$CEPSNTYPE
380
     0
  9
$PSTYLEMODE
290
     1
  9
$FINGERPRINTGUID
  2
{539068AA-D932-4F08-BB5C-72370AE9142F}
  9
$VERSIONGUID
  2
{16D41A48-36D2-47A0-97FB-68BEAEC3B08A}
  9
$EXTNAMES
290
     1
  9
$PSVPSCALE
 40
0.0
  9
$OLESTARTUP
290
     0
  9
$SORTENTS
280
   127
  9
$INDEXCTL
280
     0
  9
$HIDETEXT
280
     0
  9
$XCLIPFRAME
290
     0
  9
$HALOGAP
280
     0
  9
$OBSCOLOR
 70
   257
  9
$OBSLTYPE
280
     0
  9
$INTERSECTIONDISPLAY
280
     0
  9
$INTERSECTIONCOLOR
 70
   257
  9
$DIMASSOC
280
     1
  9
$PROJECTNAME
  1

  0
ENDSEC
  0
SECTION
  2
CLASSES
  0
CLASS
  1
ACDBDICTIONARYWDFLT
  2
AcDbDictionaryWithDefault
  3
ObjectDBX Classes
 90
        0
 91
        1
280
     0
281
     0
  0
CLASS
  1
TABLESTYLE
  2
AcDbTableStyle
  3
ObjectDBX Classes
 90
     2047
 91
        1
280
     0
281
     0
  0
CLASS
  1
DICTIONARYVAR
  2
AcDbDictionaryVar
  3
ObjectDBX Classes
 90
        0
 91
       13
280
     0
281
     0
  0
ENDSEC
  0
SECTION
  2
TABLES
  0
TABLE
  2
VPORT
  5
8
330
0
100
AcDbSymbolTable
 70
     6
  0
VPORT
  5
64E
330
8
100
AcDbSymbolTableRecord
100
AcDbViewportTableRecord
  2
*Active
 70
     0
 10
0.0
 20
0.0
 11
1.0
 21
1.0
 12
3149.903876962961
 22
2227.43202728095
 13
0.0
 23
0.0
 14
10.0
 24
10.0
 15
0.0
 25
0.0
 16
0.0
 26
0.0
 36
1.0
 17
0.0
 27
0.0
 37
0.0
 40
4503.299577280674
 41
1.815884476534296
 42
50.0
 43
0.0
 44
0.0
 50
0.0
 51
0.0
 71
     0
 72
 10000
 73
     1
 74
     0
 75
     0
 76
     0
 77
     0
 78
     0
281
     0
 65
     1
110
0.0
120
0.0
130
0.0
111
1.0
121
0.0
131
0.0
112
0.0
122
1.0
132
0.0
 79
     0
146
0.0
  0
ENDTAB
  0
TABLE
  2
LTYPE
  5
5
330
0
100
AcDbSymbolTable
 70
     5
  0
LTYPE
  5
12
330
5
100
AcDbSymbolTableRecord
100
AcDbLinetypeTableRecord
  2
BYBLOCK
 70
     0
  3

 72
    65
 73
     0
 40
0.0
  0
LTYPE
  5
13
330
5
100
AcDbSymbolTableRecord
100
AcDbLinetypeTableRecord
  2
BYLAYER
 70
     0
  3

 72
    65
 73
     0
 40
0.0
  0
LTYPE
  5
14
330
5
100
AcDbSymbolTableRecord
100
AcDbLinetypeTableRecord
  2
CONTINUOUS
 70
     0
  3
Solid line
 72
    65
 73
     0
 40
0.0
  0
LTYPE
  5
4C
330
5
100
AcDbSymbolTableRecord
100
AcDbLinetypeTableRecord
  2
CENTER
 70
     0
  3
____ _ ____ _ ____ _ ____ _ ____ _ ____ _ ____ 
 72
    65
 73
     4
 40
2.0
 49
1.25
 74
     0
 49
-0.25
 74
     0
 49
0.25
 74
     0
 49
-0.25
 74
     0
  0
LTYPE
  5
4D
330
5
100
AcDbSymbolTableRecord
100
AcDbLinetypeTableRecord
  2
HIDDEN
 70
     0
  3
__ __ __ __ __ __ __ __ __ __ __ __ __ __ __ __
 72
    65
 73
     2
 40
0.375
 49
0.25
 74
     0
 49
-0.125
 74
     0
  0
LTYPE
  5
4E
330
5
100
AcDbSymbolTableRecord
100
AcDbLinetypeTableRecord
  2
HIDDEN2
 70
     0
  3
_ _ _ _ _ _ _ _ _ _ _ _ _ _ _ _ _ _ _ _ _ _ _ _
 72
    65
 73
     2
 40
0.1875
 49
0.125
 74
     0
 49
-0.0625
 74
     0
  0
LTYPE
  5
4F
330
5
100
AcDbSymbolTableRecord
100
AcDbLinetypeTableRecord
  2
PHANTOM
 70
     0
  3
______  __  __  ______  __  __  ______  __  __ 
 72
    65
 73
     6
 40
2.5
 49
1.25
 74
     0
 49
-0.25
 74
     0
 49
0.25
 74
     0
 49
-0.25
 74
     0
 49
0.25
 74
     0
 49
-0.25
 74
     0
  0
ENDTAB
  0
TABLE
  2
LAYER
  5
2
330
0
100
AcDbSymbolTable
 70
    15
  0
LAYER
  5
F
330
2
100
AcDbSymbolTableRecord
100
AcDbLayerTableRecord
  2
0
 70
     0
 62
     7
  6
CONTINUOUS
370
    -3
390
5FB
  0
LAYER
  5
5A
330
2
100
AcDbSymbolTableRecord
100
AcDbLayerTableRecord
  2
CENTER
 70
     0
 62
     3
  6
CENTER
370
    -3
390
5FB
  0
LAYER
  5
5B
330
2
100
AcDbSymbolTableRecord
100
AcDbLayerTableRecord
  2
HASEN
 70
     0
 62
     7
  6
HIDDEN
370
    -3
390
5FB
  0
LAYER
  5
5C
330
2
100
AcDbSymbolTableRecord
100
AcDbLayerTableRecord
  2
HOJO
 70
     0
 62
     8
  6
CONTINUOUS
370
    -3
390
5FB
  0
LAYER
  5
5D
330
2
100
AcDbSymbolTableRecord
100
AcDbLayerTableRecord
  2
KASOU
 70
     0
 62
     2
  6
PHANTOM
370
    -3
390
5FB
  0
LAYER
  5
5E
330
2
100
AcDbSymbolTableRecord
100
AcDbLayerTableRecord
  2
MOJI
 70
     0
 62
     6
  6
CONTINUOUS
370
    -3
390
5FB
  0
LAYER
  5
5F
330
2
100
AcDbSymbolTableRecord
100
AcDbLayerTableRecord
  2
SJC
 70
     0
 62
     1
  6
CONTINUOUS
370
    -3
390
5FB
  0
LAYER
  5
60
330
2
100
AcDbSymbolTableRecord
100
AcDbLayerTableRecord
  2
SUNPOU
 70
     0
 62
     4
  6
CONTINUOUS
370
    -3
390
5FB
  0
LAYER
  5
61
330
2
100
AcDbSymbolTableRecord
100
AcDbLayerTableRecord
  2
WAKU
 70
     0
 62
    -5
  6
CONTINUOUS
370
    -3
390
5FB
  0
LAYER
  5
62
330
2
100
AcDbSymbolTableRecord
100
AcDbLayerTableRecord
  2
DEFPOINTS
 70
     0
 62
     7
  6
CONTINUOUS
290
     0
370
    -3
390
5FB
  0
LAYER
  5
63
330
2
100
AcDbSymbolTableRecord
100
AcDbLayerTableRecord
  2
ZWAKU
 70
     0
 62
    -7
  6
CONTINUOUS
370
    -3
390
5FB
  0
LAYER
  5
270
330
2
100
AcDbSymbolTableRecord
100
AcDbLayerTableRecord
  2
INFORMATION
 70
     1
 62
     7
  6
CONTINUOUS
370
    -3
390
5FB
  0
LAYER
  5
273
330
2
100
AcDbSymbolTableRecord
100
AcDbLayerTableRecord
  2
SJC2
 70
     0
 62
     7
  6
CONTINUOUS
370
    -3
390
5FB
  0
LAYER
  5
274
330
2
100
AcDbSymbolTableRecord
100
AcDbLayerTableRecord
  2
MOJI2
 70
     0
 62
     1
  6
CONTINUOUS
370
    -3
390
5FB
  0
LAYER
  5
275
330
2
100
AcDbSymbolTableRecord
100
AcDbLayerTableRecord
  2
HATCH
 70
     0
 62
     2
  6
CONTINUOUS
370
    -3
390
5FB
  0
ENDTAB
  0
TABLE
  2
STYLE
  5
3
330
0
100
AcDbSymbolTable
 70
    11
  0
STYLE
  5
10
330
3
100
AcDbSymbolTableRecord
100
AcDbTextStyleTableRecord
  2
STANDARD
 70
     0
 40
0.0
 41
1.0
 50
0.0
 71
     0
 42
3.0
  3
ROMANS.SHX
  4
BIGFONT
  0
STYLE
  5
48
330
3
100
AcDbSymbolTableRecord
100
AcDbTextStyleTableRecord
  2
USER
 70
     0
 40
0.0
 41
1.0
 50
0.0
 71
     0
 42
35.0
  3
TXT
  4
BIGFONT
  0
STYLE
  5
49
330
3
100
AcDbSymbolTableRecord
100
AcDbTextStyleTableRecord
  2
TEXT6060
 70
     0
 40
60.0
 41
1.0
 50
0.0
 71
     0
 42
60.0
  3
TXT
  4
BIGFONT
  0
STYLE
  5
4A
330
3
100
AcDbSymbolTableRecord
100
AcDbTextStyleTableRecord
  2
SIMPLEX
 70
     0
 40
0.0
 41
1.0
 50
0.0
 71
     0
 42
0.0
  3
SCRIPTS.SHX
  4

  0
STYLE
  5
4B
330
3
100
AcDbSymbolTableRecord
100
AcDbTextStyleTableRecord
  2
KANJI
 70
     0
 40
0.0
 41
1.0
 50
0.0
 71
     0
 42
0.0
  3
ROMANS.SHX
  4
BIGFONT.SHX
  0
STYLE
  5
286
330
3
100
AcDbSymbolTableRecord
100
AcDbTextStyleTableRecord
  2
TATEEXT
 70
     4
 40
0.0
 41
1.0
 50
0.0
 71
     0
 42
0.0
  3
ROMANS
  4
EXTFONT
  0
STYLE
  5
287
330
3
100
AcDbSymbolTableRecord
100
AcDbTextStyleTableRecord
  2
TATEBIG
 70
     4
 40
0.0
 41
1.0
 50
0.0
 71
     0
 42
0.0
  3
ROMANS
  4
BIGFONT
  0
STYLE
  5
288
330
3
100
AcDbSymbolTableRecord
100
AcDbTextStyleTableRecord
  2
EXT08
 70
     0
 40
0.0
 41
0.8
 50
0.0
 71
     0
 42
45.0
  3
ROMANS
  4
EXTFONT
  0
STYLE
  5
289
330
3
100
AcDbSymbolTableRecord
100
AcDbTextStyleTableRecord
  2
EXT
 70
     0
 40
0.0
 41
1.0
 50
0.0
 71
     0
 42
0.0
  3
ROMANS
  4
EXTFONT
  0
STYLE
  5
28A
330
3
100
AcDbSymbolTableRecord
100
AcDbTextStyleTableRecord
  2
KANJI08
 70
     0
 40
0.0
 41
0.8
 50
0.0
 71
     0
 42
0.0
  3
ROMANS
  4
BIGFONT
  0
ENDTAB
  0
TABLE
  2
VIEW
  5
6
330
0
100
AcDbSymbolTable
 70
     0
  0
ENDTAB
  0
TABLE
  2
UCS
  5
7
330
0
100
AcDbSymbolTable
 70
     0
  0
ENDTAB
  0
TABLE
  2
APPID
  5
9
330
0
100
AcDbSymbolTable
 70
     2
  0
APPID
  5
11
330
9
100
AcDbSymbolTableRecord
100
AcDbRegAppTableRecord
  2
ACAD
 70
     0
  0
APPID
  5
62D
330
9
100
AcDbSymbolTableRecord
100
AcDbRegAppTableRecord
  2
ACAD_PSEXT
 70
     0
  0
ENDTAB
  0
TABLE
  2
DIMSTYLE
  5
A
330
0
100
AcDbSymbolTable
 70
     6
100
AcDbDimStyleTable
 71
     4
340
28B
340
617
340
613
340
60D
  0
DIMSTYLE
105
52
330
A
100
AcDbSymbolTableRecord
100
AcDbDimStyleTableRecord
  2
S01-20AX
 70
     0
 41
40.0
 44
20.0
 73
     0
 74
     0
 77
     1
 78
     8
140
60.0
146
0.003
172
     1
174
     1
271
     1
272
     1
275
     1
279
     2
284
     8
285
     8
286
     8
340
4B
  0
DIMSTYLE
105
28B
102
{ACAD_REACTORS
330
173
330
1AD
330
1AE
330
1AF
330
1B2
330
1B6
330
1B7
330
258
330
4BC
102
}
330
A
100
AcDbSymbolTableRecord
100
AcDbDimStyleTableRecord
  2
SJC
 70
     0
340
10
  0
DIMSTYLE
105
60D
330
A
100
AcDbSymbolTableRecord
100
AcDbDimStyleTableRecord
  2
STANDARD
 70
     0
 40
15.0
 41
2.0
 42
1.0
 43
6.0
 44
1.0
 73
     0
 74
     0
 77
     1
 78
     8
140
3.0
147
1.199999999999999
172
     1
271
     2
340
288
  0
DIMSTYLE
105
613
330
A
100
AcDbSymbolTableRecord
100
AcDbDimStyleTableRecord
  2
RUISEKI1
 70
     0
 40
15.0
 41
2.0
 42
1.0
 43
6.0
 44
30.0
 73
     0
 74
     0
 77
     1
 78
     8
140
3.0
147
1.5
172
     1
173
     1
271
     2
340
288
343
60E
  0
DIMSTYLE
105
617
330
A
100
AcDbSymbolTableRecord
100
AcDbDimStyleTableRecord
  2
RUISEKI2
 70
     0
 40
15.0
 41
2.0
 42
1.0
 43
6.0
 44
30.0
 73
     0
 74
     0
 77
     1
 78
     8
140
3.0
147
1.5
172
     1
173
     1
271
     2
340
288
343
614
  0
ENDTAB
  0
TABLE
  2
BLOCK_RECORD
  5
1
330
0
100
AcDbSymbolTable
 70
    15
  0
BLOCK_RECORD
  5
18
330
1
100
AcDbSymbolTableRecord
100
AcDbBlockTableRecord
  2
*MODEL_SPACE
340
602
  0
BLOCK_RECORD
  5
15
330
1
100
AcDbSymbolTableRecord
100
AcDbBlockTableRecord
  2
*PAPER_SPACE
340
603
  0
BLOCK_RECORD
  5
266
330
1
100
AcDbSymbolTableRecord
100
AcDbBlockTableRecord
  2
CALCOMP_TECHJET720A3
340
0
102
{BLKREFS
331
26F
102
}
  0
BLOCK_RECORD
  5
28D
330
1
100
AcDbSymbolTableRecord
100
AcDbBlockTableRecord
  2
*D1
340
0
  0
BLOCK_RECORD
  5
299
330
1
100
AcDbSymbolTableRecord
100
AcDbBlockTableRecord
  2
*D2
340
0
  0
BLOCK_RECORD
  5
2A5
330
1
100
AcDbSymbolTableRecord
100
AcDbBlockTableRecord
  2
*D3
340
0
  0
BLOCK_RECORD
  5
2B1
330
1
100
AcDbSymbolTableRecord
100
AcDbBlockTableRecord
  2
*D4
340
0
  0
BLOCK_RECORD
  5
2C9
330
1
100
AcDbSymbolTableRecord
100
AcDbBlockTableRecord
  2
*D5
340
0
  0
BLOCK_RECORD
  5
2D5
330
1
100
AcDbSymbolTableRecord
100
AcDbBlockTableRecord
  2
*D6
340
0
  0
BLOCK_RECORD
  5
2E1
330
1
100
AcDbSymbolTableRecord
100
AcDbBlockTableRecord
  2
*D7
340
0
  0
BLOCK_RECORD
  5
2F5
330
1
100
AcDbSymbolTableRecord
100
AcDbBlockTableRecord
  2
*D8
340
0
  0
BLOCK_RECORD
  5
3B1
330
1
100
AcDbSymbolTableRecord
100
AcDbBlockTableRecord
  2
B0040021
340
0
102
{BLKREFS
331
3C0
102
}
  0
BLOCK_RECORD
  5
4B4
330
1
100
AcDbSymbolTableRecord
100
AcDbBlockTableRecord
  2
*D10
340
0
  0
BLOCK_RECORD
  5
5C1
330
1
100
AcDbSymbolTableRecord
100
AcDbBlockTableRecord
  2
*X11
340
0
102
{BLKREFS
331
5C3
331
5D5
102
}
  0
BLOCK_RECORD
  5
60E
330
1
100
AcDbSymbolTableRecord
100
AcDbBlockTableRecord
  2
_Dot
340
0
  0
BLOCK_RECORD
  5
614
330
1
100
AcDbSymbolTableRecord
100
AcDbBlockTableRecord
  2
_None
340
0
  0
ENDTAB
  0
ENDSEC
  0
SECTION
  2
BLOCKS
  0
BLOCK
  5
66
330
18
100
AcDbEntity
  8
0
100
AcDbBlockBegin
  2
*MODEL_SPACE
 70
     0
 10
0.0
 20
0.0
 30
0.0
  3
*MODEL_SPACE
  1

  0
ENDBLK
  5
67
330
18
100
AcDbEntity
  8
0
100
AcDbBlockEnd
  0
BLOCK
  5
64
330
15
100
AcDbEntity
 67
     1
  8
0
100
AcDbBlockBegin
  2
*PAPER_SPACE
 70
     0
 10
0.0
 20
0.0
 30
0.0
  3
*PAPER_SPACE
  1

  0
ENDBLK
  5
65
330
15
100
AcDbEntity
 67
     1
  8
0
100
AcDbBlockEnd
  0
BLOCK
  5
26D
330
266
100
AcDbEntity
  8
0
100
AcDbBlockBegin
  2
CALCOMP_TECHJET720A3
 70
     0
 10
0.0
 20
0.0
 30
0.0
  3
CALCOMP_TECHJET720A3
  1

  0
LWPOLYLINE
  5
267
330
266
100
AcDbEntity
  8
ZWAKU
100
AcDbPolyline
 90
        4
 70
     1
 43
0.0
 10
0.0
 20
0.0
 10
0.0
 20
267.0
 10
370.0
 20
267.0
 10
370.0
 20
0.0
  0
ENDBLK
  5
26E
330
266
100
AcDbEntity
  8
0
100
AcDbBlockEnd
  0
BLOCK
  5
302
330
28D
100
AcDbEntity
  8
0
100
AcDbBlockBegin
  2
*D1
 70
     1
 10
0.0
 20
0.0
 30
0.0
  3
*D1
  1

  0
LINE
  5
303
330
28D
100
AcDbEntity
  8
0
  6
ByBlock
 62
     0
100
AcDbLine
 10
1392.773654553934
 20
2970.719734672091
 30
0.0
 11
1392.773654553934
 21
3498.873627804812
 31
0.0
  0
LINE
  5
304
330
28D
100
AcDbEntity
  8
0
  6
ByBlock
 62
     0
100
AcDbLine
 10
4392.773654553934
 20
3020.719734672091
 30
0.0
 11
4392.773654553934
 21
3498.873627804812
 31
0.0
  0
LINE
  5
305
330
28D
100
AcDbEntity
  8
0
  6
ByBlock
 62
     0
100
AcDbLine
 10
1422.773654553935
 20
3483.873627804812
 30
0.0
 11
4362.773654553935
 21
3483.873627804812
 31
0.0
  0
SOLID
  5
306
330
28D
100
AcDbEntity
  8
0
  6
ByBlock
 62
     0
100
AcDbTrace
 10
1422.773654553935
 20
3488.873627804812
 30
0.0
 11
1422.773654553935
 21
3478.873627804811
 31
0.0
 12
1392.773654553934
 22
3483.873627804812
 32
0.0
 13
1392.773654553934
 23
3483.873627804812
 33
0.0
  0
SOLID
  5
307
330
28D
100
AcDbEntity
  8
0
  6
ByBlock
 62
     0
100
AcDbTrace
 10
4362.773654553935
 20
3488.873627804812
 30
0.0
 11
4362.773654553935
 21
3478.873627804811
 31
0.0
 12
4392.773654553934
 22
3483.873627804812
 32
0.0
 13
4392.773654553934
 23
3483.873627804812
 33
0.0
  0
MTEXT
  5
308
330
28D
100
AcDbEntity
  8
0
  6
ByBlock
 62
     0
100
AcDbMText
 10
2892.773654553935
 20
3524.373627804811
 30
0.0
 40
45.0
 41
0.0
 71
     5
 72
     5
  1
\A1;L
  7
EXT08
 73
     1
 44
1.0
  0
POINT
  5
309
330
28D
100
AcDbEntity
  8
DEFPOINTS
  6
ByBlock
 62
     0
100
AcDbPoint
 10
1392.773654553934
 20
2955.719734672091
 30
0.0
  0
POINT
  5
30A
330
28D
100
AcDbEntity
  8
DEFPOINTS
  6
ByBlock
 62
     0
100
AcDbPoint
 10
4392.773654553934
 20
3005.719734672091
 30
0.0
  0
POINT
  5
30B
330
28D
100
AcDbEntity
  8
DEFPOINTS
  6
ByBlock
 62
     0
100
AcDbPoint
 10
4392.773654553934
 20
3483.873627804812
 30
0.0
  0
ENDBLK
  5
30C
330
28D
100
AcDbEntity
  8
0
100
AcDbBlockEnd
  0
BLOCK
  5
57D
330
299
100
AcDbEntity
  8
0
100
AcDbBlockBegin
  2
*D2
 70
     1
 10
0.0
 20
0.0
 30
0.0
  3
*D2
  1

  0
LINE
  5
57E
330
299
100
AcDbEntity
  8
0
  6
ByBlock
 62
     0
100
AcDbLine
 10
1577.773654553934
 20
2785.969734672091
 30
0.0
 11
745.673003463381
 21
2785.969734672091
 31
0.0
  0
LINE
  5
57F
330
299
100
AcDbEntity
  8
0
  6
ByBlock
 62
     0
100
AcDbLine
 10
1177.773654553934
 20
1685.969734672091
 30
0.0
 11
745.673003463381
 21
1685.969734672091
 31
0.0
  0
LINE
  5
580
330
299
100
AcDbEntity
  8
0
  6
ByBlock
 62
     0
100
AcDbLine
 10
760.6730034633811
 20
2755.969734672091
 30
0.0
 11
760.6730034633811
 21
1715.969734672091
 31
0.0
  0
SOLID
  5
581
330
299
100
AcDbEntity
  8
0
  6
ByBlock
 62
     0
100
AcDbTrace
 10
755.673003463381
 20
2755.969734672091
 30
0.0
 11
765.673003463381
 21
2755.969734672091
 31
0.0
 12
760.6730034633811
 22
2785.969734672091
 32
0.0
 13
760.6730034633811
 23
2785.969734672091
 33
0.0
  0
SOLID
  5
582
330
299
100
AcDbEntity
  8
0
  6
ByBlock
 62
     0
100
AcDbTrace
 10
755.673003463381
 20
1715.969734672091
 30
0.0
 11
765.673003463381
 21
1715.969734672091
 31
0.0
 12
760.6730034633811
 22
1685.969734672091
 32
0.0
 13
760.6730034633811
 23
1685.969734672091
 33
0.0
  0
MTEXT
  5
583
330
299
100
AcDbEntity
  8
0
  6
ByBlock
 62
     0
100
AcDbMText
 10
720.173003463381
 20
2235.969734672091
 30
0.0
 40
45.0
 41
0.0
 71
     5
 72
     5
  1
\A1;1100
  7
EXT08
 11
0.0
 21
1.0
 31
0.0
 73
     1
 44
1.0
  0
POINT
  5
584
330
299
100
AcDbEntity
  8
DEFPOINTS
  6
ByBlock
 62
     0
100
AcDbPoint
 10
1592.773654553935
 20
2785.969734672091
 30
0.0
  0
POINT
  5
585
330
299
100
AcDbEntity
  8
DEFPOINTS
  6
ByBlock
 62
     0
100
AcDbPoint
 10
1192.773654553934
 20
1685.969734672091
 30
0.0
  0
POINT
  5
586
330
299
100
AcDbEntity
  8
DEFPOINTS
  6
ByBlock
 62
     0
100
AcDbPoint
 10
760.6730034633811
 20
1685.969734672091
 30
0.0
  0
ENDBLK
  5
587
330
299
100
AcDbEntity
  8
0
100
AcDbBlockEnd
  0
BLOCK
  5
588
330
2A5
100
AcDbEntity
  8
0
100
AcDbBlockBegin
  2
*D3
 70
     1
 10
0.0
 20
0.0
 30
0.0
  3
*D3
  1

  0
LINE
  5
589
330
2A5
100
AcDbEntity
  8
0
  6
ByBlock
 62
     0
100
AcDbLine
 10
1577.773654553934
 20
2785.969734672091
 30
0.0
 11
858.4146704744934
 21
2785.969734672091
 31
0.0
  0
LINE
  5
58A
330
2A5
100
AcDbEntity
  8
0
  6
ByBlock
 62
     0
100
AcDbLine
 10
1107.192895048646
 20
1985.969734672091
 30
0.0
 11
858.4146704744934
 21
1985.969734672091
 31
0.0
  0
LINE
  5
58B
330
2A5
100
AcDbEntity
  8
0
  6
ByBlock
 62
     0
100
AcDbLine
 10
873.4146704744935
 20
2755.969734672091
 30
0.0
 11
873.4146704744935
 21
2015.969734672091
 31
0.0
  0
SOLID
  5
58C
330
2A5
100
AcDbEntity
  8
0
  6
ByBlock
 62
     0
100
AcDbTrace
 10
868.4146704744934
 20
2755.969734672091
 30
0.0
 11
878.4146704744935
 21
2755.969734672091
 31
0.0
 12
873.4146704744935
 22
2785.969734672091
 32
0.0
 13
873.4146704744935
 23
2785.969734672091
 33
0.0
  0
SOLID
  5
58D
330
2A5
100
AcDbEntity
  8
0
  6
ByBlock
 62
     0
100
AcDbTrace
 10
868.4146704744934
 20
2015.969734672091
 30
0.0
 11
878.4146704744935
 21
2015.969734672091
 31
0.0
 12
873.4146704744935
 22
1985.969734672091
 32
0.0
 13
873.4146704744935
 23
1985.969734672091
 33
0.0
  0
MTEXT
  5
58E
330
2A5
100
AcDbEntity
  8
0
  6
ByBlock
 62
     0
100
AcDbMText
 10
832.9146704744935
 20
2385.969734672091
 30
0.0
 40
45.0
 41
0.0
 71
     5
 72
     5
  1
\A1;800
  7
EXT08
 11
0.0
 21
1.0
 31
0.0
 73
     1
 44
1.0
  0
POINT
  5
58F
330
2A5
100
AcDbEntity
  8
DEFPOINTS
  6
ByBlock
 62
     0
100
AcDbPoint
 10
1592.773654553935
 20
2785.969734672091
 30
0.0
  0
POINT
  5
590
330
2A5
100
AcDbEntity
  8
DEFPOINTS
  6
ByBlock
 62
     0
100
AcDbPoint
 10
1122.192895048646
 20
1985.969734672091
 30
0.0
  0
POINT
  5
591
330
2A5
100
AcDbEntity
  8
DEFPOINTS
  6
ByBlock
 62
     0
100
AcDbPoint
 10
873.4146704744935
 20
1985.969734672091
 30
0.0
  0
ENDBLK
  5
592
330
2A5
100
AcDbEntity
  8
0
100
AcDbBlockEnd
  0
BLOCK
  5
4D8
330
2B1
100
AcDbEntity
  8
0
100
AcDbBlockBegin
  2
*D4
 70
     1
 10
0.0
 20
0.0
 30
0.0
  3
*D4
  1

  0
LINE
  5
4D9
330
2B1
100
AcDbEntity
  8
0
  6
ByBlock
 62
     0
100
AcDbLine
 10
1107.192895048646
 20
1985.969734672091
 30
0.0
 11
858.4146704744934
 21
1985.969734672091
 31
0.0
  0
LINE
  5
4DA
330
2B1
100
AcDbEntity
  8
0
  6
ByBlock
 62
     0
100
AcDbLine
 10
1177.773654553934
 20
1685.969734672091
 30
0.0
 11
858.4146704744934
 21
1685.969734672091
 31
0.0
  0
LINE
  5
4DB
330
2B1
100
AcDbEntity
  8
0
  6
ByBlock
 62
     0
100
AcDbLine
 10
873.4146704744935
 20
1955.969734672091
 30
0.0
 11
873.4146704744935
 21
1715.969734672091
 31
0.0
  0
SOLID
  5
4DC
330
2B1
100
AcDbEntity
  8
0
  6
ByBlock
 62
     0
100
AcDbTrace
 10
868.4146704744934
 20
1955.969734672091
 30
0.0
 11
878.4146704744935
 21
1955.969734672091
 31
0.0
 12
873.4146704744935
 22
1985.969734672091
 32
0.0
 13
873.4146704744935
 23
1985.969734672091
 33
0.0
  0
SOLID
  5
4DD
330
2B1
100
AcDbEntity
  8
0
  6
ByBlock
 62
     0
100
AcDbTrace
 10
868.4146704744934
 20
1715.969734672091
 30
0.0
 11
878.4146704744935
 21
1715.969734672091
 31
0.0
 12
873.4146704744935
 22
1685.969734672091
 32
0.0
 13
873.4146704744935
 23
1685.969734672091
 33
0.0
  0
MTEXT
  5
4DE
330
2B1
100
AcDbEntity
  8
0
  6
ByBlock
 62
     0
100
AcDbMText
 10
832.9146704744935
 20
1835.969734672091
 30
0.0
 40
45.0
 41
0.0
 71
     5
 72
     5
  1
\A1;300
  7
EXT08
 11
0.0
 21
1.0
 31
0.0
 73
     1
 44
1.0
  0
POINT
  5
4DF
330
2B1
100
AcDbEntity
  8
DEFPOINTS
  6
ByBlock
 62
     0
100
AcDbPoint
 10
1122.192895048646
 20
1985.969734672091
 30
0.0
  0
POINT
  5
4E0
330
2B1
100
AcDbEntity
  8
DEFPOINTS
  6
ByBlock
 62
     0
100
AcDbPoint
 10
1192.773654553934
 20
1685.969734672091
 30
0.0
  0
POINT
  5
4E1
330
2B1
100
AcDbEntity
  8
DEFPOINTS
  6
ByBlock
 62
     0
100
AcDbPoint
 10
873.4146704744935
 20
1685.969734672091
 30
0.0
  0
ENDBLK
  5
4E2
330
2B1
100
AcDbEntity
  8
0
100
AcDbBlockEnd
  0
BLOCK
  5
593
330
2C9
100
AcDbEntity
  8
0
100
AcDbBlockBegin
  2
*D5
 70
     1
 10
0.0
 20
0.0
 30
0.0
  3
*D5
  1

  0
LINE
  5
594
330
2C9
100
AcDbEntity
  8
0
  6
ByBlock
 62
     0
100
AcDbLine
 10
1433.044895530352
 20
2230.969734672091
 30
0.0
 11
958.9478727679498
 21
2230.969734672091
 31
0.0
  0
LINE
  5
595
330
2C9
100
AcDbEntity
  8
0
  6
ByBlock
 62
     0
100
AcDbLine
 10
1107.192895048646
 20
1985.969734672091
 30
0.0
 11
958.9478727679498
 21
1985.969734672091
 31
0.0
  0
LINE
  5
596
330
2C9
100
AcDbEntity
  8
0
  6
ByBlock
 62
     0
100
AcDbLine
 10
973.9478727679497
 20
2200.969734672091
 30
0.0
 11
973.9478727679497
 21
2015.969734672091
 31
0.0
  0
SOLID
  5
597
330
2C9
100
AcDbEntity
  8
0
  6
ByBlock
 62
     0
100
AcDbTrace
 10
968.9478727679498
 20
2200.969734672091
 30
0.0
 11
978.9478727679497
 21
2200.969734672091
 31
0.0
 12
973.9478727679497
 22
2230.969734672091
 32
0.0
 13
973.9478727679497
 23
2230.969734672091
 33
0.0
  0
SOLID
  5
598
330
2C9
100
AcDbEntity
  8
0
  6
ByBlock
 62
     0
100
AcDbTrace
 10
968.9478727679498
 20
2015.969734672091
 30
0.0
 11
978.9478727679497
 21
2015.969734672091
 31
0.0
 12
973.9478727679497
 22
1985.969734672091
 32
0.0
 13
973.9478727679497
 23
1985.969734672091
 33
0.0
  0
MTEXT
  5
599
330
2C9
100
AcDbEntity
  8
0
  6
ByBlock
 62
     0
100
AcDbMText
 10
933.4478727679497
 20
2108.469734672091
 30
0.0
 40
45.0
 41
0.0
 71
     5
 72
     5
  1
\A1;245
  7
EXT08
 11
0.0
 21
1.0
 31
0.0
 73
     1
 44
1.0
  0
POINT
  5
59A
330
2C9
100
AcDbEntity
  8
DEFPOINTS
  6
ByBlock
 62
     0
100
AcDbPoint
 10
1448.044895530353
 20
2230.969734672091
 30
0.0
  0
POINT
  5
59B
330
2C9
100
AcDbEntity
  8
DEFPOINTS
  6
ByBlock
 62
     0
100
AcDbPoint
 10
1122.192895048646
 20
1985.969734672091
 30
0.0
  0
POINT
  5
59C
330
2C9
100
AcDbEntity
  8
DEFPOINTS
  6
ByBlock
 62
     0
100
AcDbPoint
 10
973.9478727679497
 20
1985.969734672091
 30
0.0
  0
ENDBLK
  5
59D
330
2C9
100
AcDbEntity
  8
0
100
AcDbBlockEnd
  0
BLOCK
  5
525
330
2D5
100
AcDbEntity
  8
0
100
AcDbBlockBegin
  2
*D6
 70
     1
 10
0.0
 20
0.0
 30
0.0
  3
*D6
  1

  0
LINE
  5
526
330
2D5
100
AcDbEntity
  8
0
  6
ByBlock
 62
     0
100
AcDbLine
 10
1433.044895530352
 20
2750.969734672091
 30
0.0
 11
958.9478727679498
 21
2750.969734672091
 31
0.0
  0
LINE
  5
527
330
2D5
100
AcDbEntity
  8
0
  6
ByBlock
 62
     0
100
AcDbLine
 10
1433.044895530352
 20
2505.969734672091
 30
0.0
 11
958.9478727679498
 21
2505.969734672091
 31
0.0
  0
LINE
  5
528
330
2D5
100
AcDbEntity
  8
0
  6
ByBlock
 62
     0
100
AcDbLine
 10
973.9478727679497
 20
2720.969734672091
 30
0.0
 11
973.9478727679497
 21
2535.969734672091
 31
0.0
  0
SOLID
  5
529
330
2D5
100
AcDbEntity
  8
0
  6
ByBlock
 62
     0
100
AcDbTrace
 10
968.9478727679498
 20
2720.969734672091
 30
0.0
 11
978.9478727679497
 21
2720.969734672091
 31
0.0
 12
973.9478727679497
 22
2750.969734672091
 32
0.0
 13
973.9478727679497
 23
2750.969734672091
 33
0.0
  0
SOLID
  5
52A
330
2D5
100
AcDbEntity
  8
0
  6
ByBlock
 62
     0
100
AcDbTrace
 10
968.9478727679498
 20
2535.969734672091
 30
0.0
 11
978.9478727679497
 21
2535.969734672091
 31
0.0
 12
973.9478727679497
 22
2505.969734672091
 32
0.0
 13
973.9478727679497
 23
2505.969734672091
 33
0.0
  0
MTEXT
  5
52B
330
2D5
100
AcDbEntity
  8
0
  6
ByBlock
 62
     0
100
AcDbMText
 10
933.4478727679497
 20
2628.469734672091
 30
0.0
 40
45.0
 41
0.0
 71
     5
 72
     5
  1
\A1;245
  7
EXT08
 11
0.0
 21
1.0
 31
0.0
 73
     1
 44
1.0
  0
POINT
  5
52C
330
2D5
100
AcDbEntity
  8
DEFPOINTS
  6
ByBlock
 62
     0
100
AcDbPoint
 10
1448.044895530353
 20
2750.969734672091
 30
0.0
  0
POINT
  5
52D
330
2D5
100
AcDbEntity
  8
DEFPOINTS
  6
ByBlock
 62
     0
100
AcDbPoint
 10
1448.044895530353
 20
2505.969734672091
 30
0.0
  0
POINT
  5
52E
330
2D5
100
AcDbEntity
  8
DEFPOINTS
  6
ByBlock
 62
     0
100
AcDbPoint
 10
973.9478727679497
 20
2505.969734672091
 30
0.0
  0
ENDBLK
  5
52F
330
2D5
100
AcDbEntity
  8
0
100
AcDbBlockEnd
  0
BLOCK
  5
504
330
2E1
100
AcDbEntity
  8
0
100
AcDbBlockBegin
  2
*D7
 70
     1
 10
0.0
 20
0.0
 30
0.0
  3
*D7
  1

  0
LINE
  5
505
330
2E1
100
AcDbEntity
  8
0
  6
ByBlock
 62
     0
100
AcDbLine
 10
1577.773654553934
 20
3075.969734672091
 30
0.0
 11
958.9478727679498
 21
3075.969734672091
 31
0.0
  0
LINE
  5
506
330
2E1
100
AcDbEntity
  8
0
  6
ByBlock
 62
     0
100
AcDbLine
 10
1433.044895530352
 20
2765.969734672091
 30
0.0
 11
958.9478727679498
 21
2765.969734672091
 31
0.0
  0
LINE
  5
507
330
2E1
100
AcDbEntity
  8
0
  6
ByBlock
 62
     0
100
AcDbLine
 10
973.9478727679497
 20
3045.969734672091
 30
0.0
 11
973.9478727679497
 21
2795.969734672091
 31
0.0
  0
SOLID
  5
508
330
2E1
100
AcDbEntity
  8
0
  6
ByBlock
 62
     0
100
AcDbTrace
 10
968.9478727679498
 20
3045.969734672091
 30
0.0
 11
978.9478727679497
 21
3045.969734672091
 31
0.0
 12
973.9478727679497
 22
3075.969734672091
 32
0.0
 13
973.9478727679497
 23
3075.969734672091
 33
0.0
  0
SOLID
  5
509
330
2E1
100
AcDbEntity
  8
0
  6
ByBlock
 62
     0
100
AcDbTrace
 10
968.9478727679498
 20
2795.969734672091
 30
0.0
 11
978.9478727679497
 21
2795.969734672091
 31
0.0
 12
973.9478727679497
 22
2765.969734672091
 32
0.0
 13
973.9478727679497
 23
2765.969734672091
 33
0.0
  0
MTEXT
  5
50A
330
2E1
100
AcDbEntity
  8
0
  6
ByBlock
 62
     0
100
AcDbMText
 10
933.4478727679497
 20
2920.969734672091
 30
0.0
 40
45.0
 41
0.0
 71
     5
 72
     5
  1
\A1;310
  7
EXT08
 11
0.0
 21
1.0
 31
0.0
 73
     1
 44
1.0
  0
POINT
  5
50B
330
2E1
100
AcDbEntity
  8
DEFPOINTS
  6
ByBlock
 62
     0
100
AcDbPoint
 10
1592.773654553935
 20
3075.969734672091
 30
0.0
  0
POINT
  5
50C
330
2E1
100
AcDbEntity
  8
DEFPOINTS
  6
ByBlock
 62
     0
100
AcDbPoint
 10
1448.044895530353
 20
2765.969734672091
 30
0.0
  0
POINT
  5
50D
330
2E1
100
AcDbEntity
  8
DEFPOINTS
  6
ByBlock
 62
     0
100
AcDbPoint
 10
973.9478727679497
 20
2765.969734672091
 30
0.0
  0
ENDBLK
  5
50E
330
2E1
100
AcDbEntity
  8
0
100
AcDbBlockEnd
  0
BLOCK
  5
4E3
330
2F5
100
AcDbEntity
  8
0
100
AcDbBlockBegin
  2
*D8
 70
     1
 10
0.0
 20
0.0
 30
0.0
  3
*D8
  1

  0
LINE
  5
4E4
330
2F5
100
AcDbEntity
  8
0
  6
ByBlock
 62
     0
100
AcDbLine
 10
1242.773654553934
 20
1619.070334789537
 30
0.0
 11
1242.773654553934
 21
1387.925389111101
 31
0.0
  0
LINE
  5
4E5
330
2F5
100
AcDbEntity
  8
0
  6
ByBlock
 62
     0
100
AcDbLine
 10
1542.773654553935
 20
1619.070334789537
 30
0.0
 11
1542.773654553935
 21
1387.925389111101
 31
0.0
  0
LINE
  5
4E6
330
2F5
100
AcDbEntity
  8
0
  6
ByBlock
 62
     0
100
AcDbLine
 10
1272.773654553934
 20
1402.925389111102
 30
0.0
 11
1512.773654553934
 21
1402.925389111102
 31
0.0
  0
SOLID
  5
4E7
330
2F5
100
AcDbEntity
  8
0
  6
ByBlock
 62
     0
100
AcDbTrace
 10
1272.773654553934
 20
1407.925389111101
 30
0.0
 11
1272.773654553934
 21
1397.925389111101
 31
0.0
 12
1242.773654553934
 22
1402.925389111102
 32
0.0
 13
1242.773654553934
 23
1402.925389111102
 33
0.0
  0
SOLID
  5
4E8
330
2F5
100
AcDbEntity
  8
0
  6
ByBlock
 62
     0
100
AcDbTrace
 10
1512.773654553934
 20
1407.925389111101
 30
0.0
 11
1512.773654553934
 21
1397.925389111101
 31
0.0
 12
1542.773654553935
 22
1402.925389111102
 32
0.0
 13
1542.773654553935
 23
1402.925389111102
 33
0.0
  0
MTEXT
  5
4E9
330
2F5
100
AcDbEntity
  8
0
  6
ByBlock
 62
     0
100
AcDbMText
 10
1392.773654553934
 20
1443.425389111101
 30
0.0
 40
45.0
 41
0.0
 71
     5
 72
     5
  1
\A1;\U+25a1300
  7
EXT08
 73
     1
 44
1.0
  0
POINT
  5
4EA
330
2F5
100
AcDbEntity
  8
DEFPOINTS
  6
ByBlock
 62
     0
100
AcDbPoint
 10
1242.773654553934
 20
1634.070334789537
 30
0.0
  0
POINT
  5
4EB
330
2F5
100
AcDbEntity
  8
DEFPOINTS
  6
ByBlock
 62
     0
100
AcDbPoint
 10
1542.773654553935
 20
1634.070334789537
 30
0.0
  0
POINT
  5
4EC
330
2F5
100
AcDbEntity
  8
DEFPOINTS
  6
ByBlock
 62
     0
100
AcDbPoint
 10
1542.773654553935
 20
1402.925389111102
 30
0.0
  0
ENDBLK
  5
4ED
330
2F5
100
AcDbEntity
  8
0
100
AcDbBlockEnd
  0
BLOCK
  5
3BE
330
3B1
100
AcDbEntity
  8
0
100
AcDbBlockBegin
  2
B0040021
 70
     0
 10
0.0
 20
0.0
 30
0.0
  3
B0040021
  1

  0
LINE
  5
3B2
330
3B1
100
AcDbEntity
  8
HATCH
100
AcDbLine
 10
68.03459680887726
 20
0.0
 30
0.0
 11
49.01729840443886
 21
-19.01729840443841
 31
0.0
  0
LINE
  5
3B3
330
3B1
100
AcDbEntity
  8
HATCH
100
AcDbLine
 10
30.0
 20
0.0
 30
0.0
 11
64.01729840443841
 21
-34.01729840443886
 31
0.0
  0
LINE
  5
3B4
330
3B1
100
AcDbEntity
  8
HATCH
100
AcDbLine
 10
22.5
 20
-7.5
 30
0.0
 11
49.01729840443841
 21
-34.01729840443886
 31
0.0
  0
LINE
  5
3B5
330
3B1
100
AcDbEntity
  8
HATCH
100
AcDbLine
 10
15.0
 20
-15.0
 30
0.0
 11
34.01729840443841
 21
-34.01729840443886
 31
0.0
  0
LINE
  5
3B6
330
3B1
100
AcDbEntity
  8
HATCH
100
AcDbLine
 10
0.0
 20
0.0
 30
0.0
 11
-34.01729840443841
 21
-34.01729840443886
 31
0.0
  0
LINE
  5
3B7
330
3B1
100
AcDbEntity
  8
HATCH
100
AcDbLine
 10
30.0
 20
0.0
 30
0.0
 11
-4.017298404438406
 21
-34.01729840443886
 31
0.0
  0
LINE
  5
3B8
330
3B1
100
AcDbEntity
  8
HATCH
100
AcDbLine
 10
15.0
 20
0.0
 30
0.0
 11
-19.01729840443841
 21
-34.01729840443886
 31
0.0
  0
LINE
  5
3B9
330
3B1
100
AcDbEntity
  8
HATCH
100
AcDbLine
 10
90.53459680887726
 20
-7.5
 30
0.0
 11
117.0518952133161
 21
-34.01729840443886
 31
0.0
  0
LINE
  5
3BA
330
3B1
100
AcDbEntity
  8
HATCH
100
AcDbLine
 10
98.03459680887726
 20
0.0
 30
0.0
 11
132.0518952133161
 21
-34.01729840443886
 31
0.0
  0
LINE
  5
3BB
330
3B1
100
AcDbEntity
  8
HATCH
100
AcDbLine
 10
83.03459680887726
 20
0.0
 30
0.0
 11
56.51729840443886
 21
-26.51729840443841
 31
0.0
  0
LINE
  5
3BC
330
3B1
100
AcDbEntity
  8
HATCH
100
AcDbLine
 10
83.03459680887726
 20
-15.0
 30
0.0
 11
102.0518952133161
 21
-34.01729840443886
 31
0.0
  0
LINE
  5
3BD
330
3B1
100
AcDbEntity
  8
HATCH
100
AcDbLine
 10
98.03459680887726
 20
0.0
 30
0.0
 11
64.01729840443841
 21
-34.01729840443886
 31
0.0
  0
ENDBLK
  5
3BF
330
3B1
100
AcDbEntity
  8
0
100
AcDbBlockEnd
  0
BLOCK
  5
4B5
330
4B4
100
AcDbEntity
  8
0
100
AcDbBlockBegin
  2
*D10
 70
     1
 10
0.0
 20
0.0
 30
0.0
  3
*D10
  1

  0
LINE
  5
4B6
330
4B4
100
AcDbEntity
  8
0
  6
ByBlock
 62
     0
100
AcDbLine
 10
1592.773654553935
 20
2855.719734672091
 30
0.0
 11
1477.618139895111
 21
2980.776551534115
 31
0.0
  0
SOLID
  5
4B7
330
4B4
100
AcDbEntity
  8
0
  6
ByBlock
 62
     0
100
AcDbTrace
 10
1481.296281567524
 20
2984.163478435844
 30
0.0
 11
1473.939998222699
 21
2977.389624632384
 31
0.0
 12
1457.296578484731
 22
3002.845401568589
 32
0.0
 13
1457.296578484731
 23
3002.845401568589
 33
0.0
  0
MTEXT
  5
4B8
330
4B4
100
AcDbEntity
  8
0
  6
ByBlock
 62
     0
100
AcDbMText
 10
1554.828064065874
 20
2956.716676024354
 30
0.0
 40
45.0
 41
0.0
 71
     5
 72
     5
  1
\A1;R200
  7
EXT08
 11
0.6773853803460176
 21
-0.7356283344824891
 31
0.0
 73
     1
 44
1.0
  0
POINT
  5
4B9
330
4B4
100
AcDbEntity
  8
DEFPOINTS
  6
ByBlock
 62
     0
100
AcDbPoint
 10
1457.296578484731
 20
3002.845401568589
 30
0.0
  0
POINT
  5
4BA
330
4B4
100
AcDbEntity
  8
DEFPOINTS
  6
ByBlock
 62
     0
100
AcDbPoint
 10
1592.773654553935
 20
2855.719734672091
 30
0.0
  0
ENDBLK
  5
4BB
330
4B4
100
AcDbEntity
  8
0
100
AcDbBlockEnd
  0
BLOCK
  5
5C2
330
5C1
100
AcDbEntity
  8
0
100
AcDbBlockBegin
  2
*X11
 70
     1
 10
0.0
 20
0.0
 30
0.0
  3
*X11
  1

  0
LINE
  5
5C4
330
5C1
100
AcDbEntity
  8
0
 62
     0
100
AcDbLine
 10
1332.416344078817
 20
1685.969734672091
 30
0.0
 11
1362.523654553934
 21
1716.077045147208
 31
0.0
  0
LINE
  5
5C5
330
5C1
100
AcDbEntity
  8
0
 62
     0
100
AcDbLine
 10
1423.023654553935
 20
1776.577045147208
 30
0.0
 11
1542.773654553935
 21
1896.327045147208
 31
0.0
  0
LINE
  5
5C6
330
5C1
100
AcDbEntity
  8
0
 62
     0
100
AcDbLine
 10
1242.773654553934
 20
1773.103740443845
 30
0.0
 11
1362.523654553934
 21
1892.853740443845
 31
0.0
  0
LINE
  5
5C7
330
5C1
100
AcDbEntity
  8
0
 62
     0
100
AcDbLine
 10
1423.023654553935
 20
1953.353740443845
 30
0.0
 11
1455.63964878218
 21
1985.969734672091
 31
0.0
  0
LINE
  5
5C8
330
5C1
100
AcDbEntity
  8
0
 62
     0
100
AcDbLine
 10
1242.773654553934
 20
1949.880435740482
 30
0.0
 11
1278.862953485543
 21
1985.969734672091
 31
0.0
  0
LINE
  5
5C9
330
5C1
100
AcDbEntity
  8
0
 62
     0
100
AcDbLine
 10
1509.193039375454
 20
1685.969734672091
 30
0.0
 11
1542.773654553935
 21
1719.550349850571
 31
0.0
  0
LINE
  5
5CA
330
5C1
100
AcDbEntity
  8
0
 62
     0
100
AcDbLine
 10
1310.319257166737
 20
1685.969734672091
 30
0.0
 11
1362.523654553934
 21
1738.174132059288
 31
0.0
  0
LINE
  5
5CB
330
5C1
100
AcDbEntity
  8
0
 62
     0
100
AcDbLine
 10
1423.023654553935
 20
1798.674132059288
 30
0.0
 11
1542.773654553935
 21
1918.424132059288
 31
0.0
  0
LINE
  5
5CC
330
5C1
100
AcDbEntity
  8
0
 62
     0
100
AcDbLine
 10
1242.773654553934
 20
1795.200827355924
 30
0.0
 11
1362.523654553934
 21
1914.950827355925
 31
0.0
  0
LINE
  5
5CD
330
5C1
100
AcDbEntity
  8
0
 62
     0
100
AcDbLine
 10
1423.023654553935
 20
1975.450827355925
 30
0.0
 11
1433.5425618701
 21
1985.969734672091
 31
0.0
  0
LINE
  5
5CE
330
5C1
100
AcDbEntity
  8
0
 62
     0
100
AcDbLine
 10
1242.773654553934
 20
1971.977522652561
 30
0.0
 11
1256.765866573464
 21
1985.969734672091
 31
0.0
  0
LINE
  5
5CF
330
5C1
100
AcDbEntity
  8
0
 62
     0
100
AcDbLine
 10
1487.095952463374
 20
1685.969734672091
 30
0.0
 11
1542.773654553935
 21
1741.647436762651
 31
0.0
  0
LINE
  5
5D0
330
5C1
100
AcDbEntity
  8
0
 62
     0
100
AcDbLine
 10
1288.222170254657
 20
1685.969734672091
 30
0.0
 11
1362.523654553934
 21
1760.271218971368
 31
0.0
  0
LINE
  5
5D1
330
5C1
100
AcDbEntity
  8
0
 62
     0
100
AcDbLine
 10
1423.023654553935
 20
1820.771218971368
 30
0.0
 11
1542.773654553935
 21
1940.521218971367
 31
0.0
  0
LINE
  5
5D2
330
5C1
100
AcDbEntity
  8
0
 62
     0
100
AcDbLine
 10
1242.773654553934
 20
1817.297914268004
 30
0.0
 11
1362.523654553934
 21
1937.047914268004
 31
0.0
  0
LINE
  5
5D3
330
5C1
100
AcDbEntity
  8
0
 62
     0
100
AcDbLine
 10
1464.998865551295
 20
1685.969734672091
 30
0.0
 11
1542.773654553935
 21
1763.744523674731
 31
0.0
  0
ENDBLK
  5
5D4
330
5C1
100
AcDbEntity
  8
0
100
AcDbBlockEnd
  0
BLOCK
  5
611
330
60E
100
AcDbEntity
  8
0
100
AcDbBlockBegin
  2
_Dot
 70
     0
 10
0.0
 20
0.0
 30
0.0
  3
_Dot
  1

  0
LWPOLYLINE
  5
60F
330
60E
100
AcDbEntity
  8
0
  6
ByBlock
 62
     0
100
AcDbPolyline
 90
        2
 70
     1
 43
0.5
 10
-0.25
 20
0.0
 42
1.0
 10
0.25
 20
0.0
 42
1.0
  0
LINE
  5
610
330
60E
100
AcDbEntity
  8
0
  6
ByBlock
 62
     0
370
    -2
100
AcDbLine
 10
-0.5
 20
0.0
 30
0.0
 11
-1.0
 21
0.0
 31
0.0
  0
ENDBLK
  5
612
330
60E
100
AcDbEntity
  8
0
100
AcDbBlockEnd
  0
BLOCK
  5
615
330
614
100
AcDbEntity
  8
0
100
AcDbBlockBegin
  2
_None
 70
     0
 10
0.0
 20
0.0
 30
0.0
  3
_None
  1

  0
ENDBLK
  5
616
330
614
100
AcDbEntity
  8
0
100
AcDbBlockEnd
  0
ENDSEC
  0
SECTION
  2
ENTITIES
  0
LINE
  5
E1
330
18
100
AcDbEntity
  8
SJC
100
AcDbLine
 10
1423.023654553935
 20
1985.969734672091
 30
0.0
 11
4362.523654553934
 21
1985.969734672091
 31
0.0
1001
ACAD
1000
ASC_BOUNDS
1002
{
1070
    19
1005
5C3
1002
}
  0
LINE
  5
E2
330
18
100
AcDbEntity
  8
SJC
100
AcDbLine
 10
1592.773654553935
 20
2725.469734672091
 30
0.0
 11
4192.773654553934
 21
2725.469734672091
 31
0.0
  0
LINE
  5
E3
330
18
100
AcDbEntity
  8
CENTER
100
AcDbLine
 10
1592.773654553935
 20
2755.719734672091
 30
0.0
 11
4192.773654553934
 21
2755.719734672091
 31
0.0
  0
LINE
  5
E4
330
18
100
AcDbEntity
  8
SJC
100
AcDbLine
 10
1592.773654553935
 20
2785.969734672091
 30
0.0
 11
4192.773654553934
 21
2785.969734672091
 31
0.0
  0
LINE
  5
F1
330
18
100
AcDbEntity
  8
SJC
100
AcDbLine
 10
1192.773654553934
 20
1685.969734672091
 30
0.0
 11
1592.773654553935
 21
1685.969734672091
 31
0.0
1001
ACAD
1000
ASC_BOUNDS
1002
{
1070
    19
1005
5C3
1005
5C3
1002
}
  0
LINE
  5
F2
330
18
100
AcDbEntity
  8
SJC
100
AcDbLine
 10
1192.773654553934
 20
1635.969734672091
 30
0.0
 11
1592.773654553935
 21
1635.969734672091
 31
0.0
  0
LINE
  5
F3
330
18
100
AcDbEntity
  8
SJC
100
AcDbLine
 10
1242.773654553934
 20
1685.969734672091
 30
0.0
 11
1242.773654553934
 21
1985.969734672091
 31
0.0
1001
ACAD
1000
ASC_BOUNDS
1002
{
1070
    19
1005
5C3
1002
}
  0
POLYLINE
  5
F4
330
18
100
AcDbEntity
  8
HATCH
100
AcDb2dPolyline
 66
     1
 10
0.0
 20
0.0
 30
0.0
 70
     3
  0
VERTEX
  5
F5
330
F4
100
AcDbEntity
  8
HATCH
100
AcDbVertex
100
AcDb2dVertex
 10
1192.773654553934
 20
1660.969734672091
 30
0.0
 42
-0.1703036214138359
  0
VERTEX
  5
F6
330
F4
100
AcDbEntity
  8
HATCH
100
AcDbVertex
100
AcDb2dVertex
 10
1199.265843960353
 20
1679.477545265673
 30
0.0
 42
-0.2278377915826702
 70
     1
  0
VERTEX
  5
F7
330
F4
100
AcDbEntity
  8
HATCH
100
AcDbVertex
100
AcDb2dVertex
 10
1212.773654553935
 20
1685.969734672091
 30
0.0
 42
-0.2278377915826684
  0
VERTEX
  5
F8
330
F4
100
AcDbEntity
  8
HATCH
100
AcDbVertex
100
AcDb2dVertex
 10
1226.281465147516
 20
1679.477545265673
 30
0.0
 42
-0.1703036214138354
 70
     1
  0
VERTEX
  5
F9
330
F4
100
AcDbEntity
  8
HATCH
100
AcDbVertex
100
AcDb2dVertex
 10
1232.773654553934
 20
1660.969734672091
 30
0.0
 42
-0.1703036214138303
  0
VERTEX
  5
FA
330
F4
100
AcDbEntity
  8
HATCH
100
AcDbVertex
100
AcDb2dVertex
 10
1226.281465147517
 20
1642.461924078508
 30
0.0
 42
-0.2278377915826667
 70
     1
  0
VERTEX
  5
FB
330
F4
100
AcDbEntity
  8
HATCH
100
AcDbVertex
100
AcDb2dVertex
 10
1212.773654553935
 20
1635.969734672091
 30
0.0
 42
-0.2278377915826721
  0
VERTEX
  5
FC
330
F4
100
AcDbEntity
  8
HATCH
100
AcDbVertex
100
AcDb2dVertex
 10
1199.265843960352
 20
1642.461924078509
 30
0.0
 42
-0.1703036214138317
 70
     1
  0
SEQEND
  5
FD
330
F4
100
AcDbEntity
  8
HATCH
  0
LINE
  5
FE
330
18
100
AcDbEntity
  8
SJC
100
AcDbLine
 10
1192.773654553934
 20
1635.969734672091
 30
0.0
 11
1192.773654553934
 21
1685.969734672091
 31
0.0
  0
POLYLINE
  5
109
330
18
100
AcDbEntity
  8
HATCH
100
AcDb2dPolyline
 66
     1
 10
0.0
 20
0.0
 30
0.0
 70
     3
  0
VERTEX
  5
10A
330
109
100
AcDbEntity
  8
HATCH
100
AcDbVertex
100
AcDb2dVertex
 10
1272.773654553934
 20
1660.969734672091
 30
0.0
 42
-0.1703036214138359
  0
VERTEX
  5
10B
330
109
100
AcDbEntity
  8
HATCH
100
AcDbVertex
100
AcDb2dVertex
 10
1279.265843960353
 20
1679.477545265673
 30
0.0
 42
-0.2278377915826702
 70
     1
  0
VERTEX
  5
10C
330
109
100
AcDbEntity
  8
HATCH
100
AcDbVertex
100
AcDb2dVertex
 10
1292.773654553935
 20
1685.969734672091
 30
0.0
 42
-0.2278377915826684
  0
VERTEX
  5
10D
330
109
100
AcDbEntity
  8
HATCH
100
AcDbVertex
100
AcDb2dVertex
 10
1306.281465147516
 20
1679.477545265673
 30
0.0
 42
-0.1703036214138354
 70
     1
  0
VERTEX
  5
10E
330
109
100
AcDbEntity
  8
HATCH
100
AcDbVertex
100
AcDb2dVertex
 10
1312.773654553935
 20
1660.969734672091
 30
0.0
 42
-0.1703036214138303
  0
VERTEX
  5
10F
330
109
100
AcDbEntity
  8
HATCH
100
AcDbVertex
100
AcDb2dVertex
 10
1306.281465147517
 20
1642.461924078508
 30
0.0
 42
-0.2278377915826667
 70
     1
  0
VERTEX
  5
110
330
109
100
AcDbEntity
  8
HATCH
100
AcDbVertex
100
AcDb2dVertex
 10
1292.773654553935
 20
1635.969734672091
 30
0.0
 42
-0.2278377915826721
  0
VERTEX
  5
111
330
109
100
AcDbEntity
  8
HATCH
100
AcDbVertex
100
AcDb2dVertex
 10
1279.265843960352
 20
1642.461924078509
 30
0.0
 42
-0.1703036214138317
 70
     1
  0
SEQEND
  5
112
330
109
100
AcDbEntity
  8
HATCH
  0
POLYLINE
  5
113
330
18
100
AcDbEntity
  8
HATCH
100
AcDb2dPolyline
 66
     1
 10
0.0
 20
0.0
 30
0.0
 70
     3
  0
VERTEX
  5
114
330
113
100
AcDbEntity
  8
HATCH
100
AcDbVertex
100
AcDb2dVertex
 10
1232.773654553934
 20
1660.969734672091
 30
0.0
 42
-0.1703036214138359
  0
VERTEX
  5
115
330
113
100
AcDbEntity
  8
HATCH
100
AcDbVertex
100
AcDb2dVertex
 10
1239.265843960353
 20
1679.477545265673
 30
0.0
 42
-0.2278377915826702
 70
     1
  0
VERTEX
  5
116
330
113
100
AcDbEntity
  8
HATCH
100
AcDbVertex
100
AcDb2dVertex
 10
1252.773654553934
 20
1685.969734672091
 30
0.0
 42
-0.2278377915826684
  0
VERTEX
  5
117
330
113
100
AcDbEntity
  8
HATCH
100
AcDbVertex
100
AcDb2dVertex
 10
1266.281465147516
 20
1679.477545265673
 30
0.0
 42
-0.1703036214138354
 70
     1
  0
VERTEX
  5
118
330
113
100
AcDbEntity
  8
HATCH
100
AcDbVertex
100
AcDb2dVertex
 10
1272.773654553934
 20
1660.969734672091
 30
0.0
 42
-0.1703036214138303
  0
VERTEX
  5
119
330
113
100
AcDbEntity
  8
HATCH
100
AcDbVertex
100
AcDb2dVertex
 10
1266.281465147517
 20
1642.461924078508
 30
0.0
 42
-0.2278377915826667
 70
     1
  0
VERTEX
  5
11A
330
113
100
AcDbEntity
  8
HATCH
100
AcDbVertex
100
AcDb2dVertex
 10
1252.773654553934
 20
1635.969734672091
 30
0.0
 42
-0.2278377915826721
  0
VERTEX
  5
11B
330
113
100
AcDbEntity
  8
HATCH
100
AcDbVertex
100
AcDb2dVertex
 10
1239.265843960352
 20
1642.461924078509
 30
0.0
 42
-0.1703036214138317
 70
     1
  0
SEQEND
  5
11C
330
113
100
AcDbEntity
  8
HATCH
  0
LINE
  5
120
330
18
100
AcDbEntity
  8
CENTER
100
AcDbLine
 10
1392.773654553934
 20
1676.35540994918
 30
0.0
 11
1392.773654553934
 21
2555.719734672091
 31
0.0
  0
LINE
  5
121
330
18
100
AcDbEntity
  8
SJC
100
AcDbLine
 10
1542.773654553935
 20
1685.969734672091
 30
0.0
 11
1542.773654553935
 21
1985.969734672091
 31
0.0
1001
ACAD
1000
ASC_BOUNDS
1002
{
1070
    19
1005
5C3
1002
}
  0
POLYLINE
  5
123
330
18
100
AcDbEntity
  8
HATCH
100
AcDb2dPolyline
 66
     1
 10
0.0
 20
0.0
 30
0.0
 70
     3
  0
VERTEX
  5
124
330
123
100
AcDbEntity
  8
HATCH
100
AcDbVertex
100
AcDb2dVertex
 10
1512.773654553934
 20
1660.969734672091
 30
0.0
 42
-0.1703036214138359
  0
VERTEX
  5
125
330
123
100
AcDbEntity
  8
HATCH
100
AcDbVertex
100
AcDb2dVertex
 10
1519.265843960353
 20
1679.477545265673
 30
0.0
 42
-0.2278377915826702
 70
     1
  0
VERTEX
  5
126
330
123
100
AcDbEntity
  8
HATCH
100
AcDbVertex
100
AcDb2dVertex
 10
1532.773654553935
 20
1685.969734672091
 30
0.0
 42
-0.2278377915826684
  0
VERTEX
  5
127
330
123
100
AcDbEntity
  8
HATCH
100
AcDbVertex
100
AcDb2dVertex
 10
1546.281465147516
 20
1679.477545265673
 30
0.0
 42
-0.1703036214138354
 70
     1
  0
VERTEX
  5
128
330
123
100
AcDbEntity
  8
HATCH
100
AcDbVertex
100
AcDb2dVertex
 10
1552.773654553934
 20
1660.969734672091
 30
0.0
 42
-0.1703036214138303
  0
VERTEX
  5
129
330
123
100
AcDbEntity
  8
HATCH
100
AcDbVertex
100
AcDb2dVertex
 10
1546.281465147517
 20
1642.461924078508
 30
0.0
 42
-0.2278377915826667
 70
     1
  0
VERTEX
  5
12A
330
123
100
AcDbEntity
  8
HATCH
100
AcDbVertex
100
AcDb2dVertex
 10
1532.773654553935
 20
1635.969734672091
 30
0.0
 42
-0.2278377915826721
  0
VERTEX
  5
12B
330
123
100
AcDbEntity
  8
HATCH
100
AcDbVertex
100
AcDb2dVertex
 10
1519.265843960352
 20
1642.461924078509
 30
0.0
 42
-0.1703036214138317
 70
     1
  0
SEQEND
  5
12C
330
123
100
AcDbEntity
  8
HATCH
  0
POLYLINE
  5
12D
330
18
100
AcDbEntity
  8
HATCH
100
AcDb2dPolyline
 66
     1
 10
0.0
 20
0.0
 30
0.0
 70
     3
  0
VERTEX
  5
12E
330
12D
100
AcDbEntity
  8
HATCH
100
AcDbVertex
100
AcDb2dVertex
 10
1472.773654553934
 20
1660.969734672091
 30
0.0
 42
-0.1703036214138359
  0
VERTEX
  5
12F
330
12D
100
AcDbEntity
  8
HATCH
100
AcDbVertex
100
AcDb2dVertex
 10
1479.265843960353
 20
1679.477545265673
 30
0.0
 42
-0.2278377915826702
 70
     1
  0
VERTEX
  5
130
330
12D
100
AcDbEntity
  8
HATCH
100
AcDbVertex
100
AcDb2dVertex
 10
1492.773654553935
 20
1685.969734672091
 30
0.0
 42
-0.2278377915826684
  0
VERTEX
  5
131
330
12D
100
AcDbEntity
  8
HATCH
100
AcDbVertex
100
AcDb2dVertex
 10
1506.281465147516
 20
1679.477545265673
 30
0.0
 42
-0.1703036214138354
 70
     1
  0
VERTEX
  5
132
330
12D
100
AcDbEntity
  8
HATCH
100
AcDbVertex
100
AcDb2dVertex
 10
1512.773654553934
 20
1660.969734672091
 30
0.0
 42
-0.1703036214138303
  0
VERTEX
  5
133
330
12D
100
AcDbEntity
  8
HATCH
100
AcDbVertex
100
AcDb2dVertex
 10
1506.281465147517
 20
1642.461924078508
 30
0.0
 42
-0.2278377915826667
 70
     1
  0
VERTEX
  5
134
330
12D
100
AcDbEntity
  8
HATCH
100
AcDbVertex
100
AcDb2dVertex
 10
1492.773654553935
 20
1635.969734672091
 30
0.0
 42
-0.2278377915826721
  0
VERTEX
  5
135
330
12D
100
AcDbEntity
  8
HATCH
100
AcDbVertex
100
AcDb2dVertex
 10
1479.265843960352
 20
1642.461924078509
 30
0.0
 42
-0.1703036214138317
 70
     1
  0
SEQEND
  5
136
330
12D
100
AcDbEntity
  8
HATCH
  0
POLYLINE
  5
14B
330
18
100
AcDbEntity
  8
HATCH
100
AcDb2dPolyline
 66
     1
 10
0.0
 20
0.0
 30
0.0
 70
     3
  0
VERTEX
  5
14C
330
14B
100
AcDbEntity
  8
HATCH
100
AcDbVertex
100
AcDb2dVertex
 10
1552.773654553934
 20
1660.969734672091
 30
0.0
 42
-0.1703036214138359
  0
VERTEX
  5
14D
330
14B
100
AcDbEntity
  8
HATCH
100
AcDbVertex
100
AcDb2dVertex
 10
1559.265843960353
 20
1679.477545265673
 30
0.0
 42
-0.2278377915826702
 70
     1
  0
VERTEX
  5
14E
330
14B
100
AcDbEntity
  8
HATCH
100
AcDbVertex
100
AcDb2dVertex
 10
1572.773654553935
 20
1685.969734672091
 30
0.0
 42
-0.2278377915826684
  0
VERTEX
  5
14F
330
14B
100
AcDbEntity
  8
HATCH
100
AcDbVertex
100
AcDb2dVertex
 10
1586.281465147516
 20
1679.477545265673
 30
0.0
 42
-0.1703036214138354
 70
     1
  0
VERTEX
  5
150
330
14B
100
AcDbEntity
  8
HATCH
100
AcDbVertex
100
AcDb2dVertex
 10
1592.773654553935
 20
1660.969734672091
 30
0.0
 42
-0.1703036214138303
  0
VERTEX
  5
151
330
14B
100
AcDbEntity
  8
HATCH
100
AcDbVertex
100
AcDb2dVertex
 10
1586.281465147517
 20
1642.461924078508
 30
0.0
 42
-0.2278377915826667
 70
     1
  0
VERTEX
  5
152
330
14B
100
AcDbEntity
  8
HATCH
100
AcDbVertex
100
AcDb2dVertex
 10
1572.773654553935
 20
1635.969734672091
 30
0.0
 42
-0.2278377915826721
  0
VERTEX
  5
153
330
14B
100
AcDbEntity
  8
HATCH
100
AcDbVertex
100
AcDb2dVertex
 10
1559.265843960352
 20
1642.461924078509
 30
0.0
 42
-0.1703036214138317
 70
     1
  0
SEQEND
  5
154
330
14B
100
AcDbEntity
  8
HATCH
  0
LINE
  5
155
330
18
100
AcDbEntity
  8
SJC
100
AcDbLine
 10
1592.773654553935
 20
1635.969734672091
 30
0.0
 11
1592.773654553935
 21
1685.969734672091
 31
0.0
  0
LINE
  5
167
330
18
100
AcDbEntity
  8
SJC
100
AcDbLine
 10
1423.023654553935
 20
1685.969734672091
 30
0.0
 11
1423.023654553935
 21
2213.96973467209
 31
0.0
1001
ACAD
1000
ASC_BOUNDS
1002
{
1070
    19
1005
5C3
1002
}
  0
LINE
  5
16C
330
18
100
AcDbEntity
  8
SJC
100
AcDbLine
 10
4423.023654553935
 20
1685.969734672091
 30
0.0
 11
4423.023654553935
 21
2555.719734672091
 31
0.0
1001
ACAD
1000
ASC_BOUNDS
1002
{
1070
    19
1002
}
  0
LINE
  5
16D
330
18
100
AcDbEntity
  8
SJC
100
AcDbLine
 10
4362.523654553934
 20
1685.969734672091
 30
0.0
 11
4362.523654553934
 21
2213.969734672091
 31
0.0
1001
ACAD
1000
ASC_BOUNDS
1002
{
1070
    19
1002
}
  0
LINE
  5
16E
330
18
100
AcDbEntity
  8
SJC
100
AcDbLine
 10
4423.023654553935
 20
1985.969734672091
 30
0.0
 11
4772.773654553935
 21
1985.969734672091
 31
0.0
1001
ACAD
1000
ASC_BOUNDS
1002
{
1070
    19
1002
}
  0
DIMENSION
  5
173
330
18
100
AcDbEntity
  8
SUNPOU
100
AcDbDimension
  2
*D8
 10
1542.773654553935
 20
1402.925389111102
 30
0.0
 11
1392.773654553934
 21
1443.425389111101
 31
0.0
 70
    32
  1
□300
 71
     5
 42
-1.0
  3
SJC
100
AcDbAlignedDimension
 13
1242.773654553934
 23
1634.070334789537
 33
0.0
 14
1542.773654553935
 24
1634.070334789537
 34
0.0
100
AcDbRotatedDimension
1001
ACAD
1000
DSTYLE
1002
{
1070
    40
1040
15.0
1070
    41
1040
2.0
1070
    42
1040
1.0
1070
    43
1040
6.0
1070
    44
1040
1.0
1070
    73
1070
     0
1070
    74
1070
     0
1070
    77
1070
     1
1070
    78
1070
     8
1070
   140
1040
3.0
1070
   147
1040
1.199999999999999
1070
   172
1070
     1
1070
   271
1070
     2
1070
   279
1070
     2
1070
   340
1005
288
1002
}
  0
TEXT
  5
174
330
18
100
AcDbEntity
  8
MOJI2
100
AcDbText
 10
793.1707771335734
 20
3234.782118592999
 30
0.0
 40
60.0
  1
設置図 (1/15)
 41
0.8
  7
EXT08
100
AcDbText
  0
LINE
  5
177
330
18
100
AcDbEntity
  8
MOJI
100
AcDbLine
 10
2180.314139129629
 20
2555.969734672091
 30
0.0
 11
2705.967702021696
 21
2555.969734672091
 31
0.0
  0
LINE
  5
178
330
18
100
AcDbEntity
  8
MOJI
100
AcDbLine
 10
2192.773654553934
 20
2081.969734672091
 30
0.0
 11
2885.638011065873
 21
2081.969734672091
 31
0.0
  0
TEXT
  5
179
330
18
100
AcDbEntity
  8
MOJI
100
AcDbText
 10
2276.204422982377
 20
2575.969734672091
 30
0.0
 40
45.0
  1
主柱 %%c60.5×t3.2
 41
0.8
  7
EXT08
100
AcDbText
  0
TEXT
  5
17A
330
18
100
AcDbEntity
  8
MOJI
100
AcDbText
 10
2291.757038629351
 20
2101.213169573668
 30
0.0
 40
45.0
  1
ビームパイプ %%c34.0×t2.3
 41
0.8
  7
EXT08
100
AcDbText
  0
TEXT
  5
17B
330
18
100
AcDbEntity
  8
MOJI
100
AcDbText
 10
1128.656249607375
 20
1994.874767891351
 30
0.0
 40
45.0
  1
GL
 41
0.8
  7
EXT08
100
AcDbText
  0
LINE
  5
17C
330
18
100
AcDbEntity
  8
MOJI
100
AcDbLine
 10
2586.806402689115
 20
542.2367473527113
 30
0.0
 11
2586.806402689115
 21
769.8811027752372
 31
0.0
  0
LINE
  5
17D
330
18
100
AcDbEntity
  8
MOJI
100
AcDbLine
 10
2586.806402689115
 20
769.8811027752372
 30
0.0
 11
3750.686727959855
 21
769.8811027752372
 31
0.0
  0
LINE
  5
17E
330
18
100
AcDbEntity
  8
MOJI
100
AcDbLine
 10
3750.686727959855
 20
769.8811027752372
 30
0.0
 11
3750.686727959855
 21
542.2367473527113
 31
0.0
  0
LINE
  5
17F
330
18
100
AcDbEntity
  8
MOJI
100
AcDbLine
 10
2978.57245089217
 20
542.2367473527113
 30
0.0
 11
2978.57245089217
 21
769.8811027752372
 31
0.0
  0
LINE
  5
180
330
18
100
AcDbEntity
  8
MOJI
100
AcDbLine
 10
2687.810763400119
 20
542.2367473527113
 30
0.0
 11
2687.810763400119
 21
769.8811027752372
 31
0.0
  0
LINE
  5
181
330
18
100
AcDbEntity
  8
MOJI
100
AcDbLine
 10
3207.7851843849
 20
542.2367473527113
 30
0.0
 11
3207.7851843849
 21
769.8811027752372
 31
0.0
  0
TEXT
  5
182
330
18
100
AcDbEntity
  8
MOJI
100
AcDbText
 10
2602.936639314826
 20
710.5466815811452
 30
0.0
 40
45.0
  1
部番
 41
0.8
  7
EXT08
100
AcDbText
  0
TEXT
  5
183
330
18
100
AcDbEntity
  8
MOJI
100
AcDbText
 10
2715.758296259318
 20
710.5466815811452
 30
0.0
 40
45.0
  1
部   品   名
 41
0.8
  7
EXT08
100
AcDbText
  0
TEXT
  5
184
330
18
100
AcDbEntity
  8
MOJI
100
AcDbText
 10
3001.296716395467
 20
712.9179769501298
 30
0.0
 40
45.0
  1
材　   質
 41
0.8
  7
EXT08
100
AcDbText
  0
TEXT
  5
185
330
18
100
AcDbEntity
  8
MOJI
100
AcDbText
 10
3383.3313277449
 20
715.2892723191144
 30
0.0
 40
45.0
  1
摘　 　要
 41
0.8
  7
EXT08
100
AcDbText
  0
TEXT
  5
186
330
18
100
AcDbEntity
  8
MOJI
100
AcDbText
 10
2635.831950325503
 20
639.1165580679149
 30
0.0
 40
45.0
  1
1
 41
0.8
  7
EXT08
100
AcDbText
  0
TEXT
  5
187
330
18
100
AcDbEntity
  8
MOJI
100
AcDbText
 10
2635.831950325503
 20
567.6864182967888
 30
0.0
 40
45.0
  1
2
 41
0.8
  7
EXT08
100
AcDbText
  0
TEXT
  5
188
330
18
100
AcDbEntity
  8
MOJI
100
AcDbText
 10
2712.594552132746
 20
563.3635417327256
 30
0.0
 40
45.0
  1
ビームパイプ
 41
0.8
  7
EXT08
100
AcDbText
  0
TEXT
  5
189
330
18
100
AcDbEntity
  8
MOJI
100
AcDbText
 10
2712.594552132746
 20
639.1165580679149
 30
0.0
 40
45.0
  1
主　　　　柱
 41
0.8
  7
EXT08
100
AcDbText
  0
TEXT
  5
18A
330
18
100
AcDbEntity
  8
MOJI
100
AcDbText
 10
2996.277641750546
 20
639.1165580679149
 30
0.0
 40
45.0
  1
STK400
 41
0.8
  7
EXT08
100
AcDbText
  0
TEXT
  5
18C
330
18
100
AcDbEntity
  8
MOJI
100
AcDbText
 10
3232.8632048649
 20
639.1165580679149
 30
0.0
 40
45.0
  1
亜鉛めっき＋静電粉体塗装
 41
0.8
  7
EXT08
100
AcDbText
  0
LINE
  5
18E
330
18
100
AcDbEntity
  8
MOJI
100
AcDbLine
 10
2577.878079464632
 20
821.5561320548335
 30
0.0
 11
2577.878079464634
 21
1271.542354084667
 31
0.0
  0
LINE
  5
18F
330
18
100
AcDbEntity
  8
MOJI
100
AcDbLine
 10
2577.878079464634
 20
1271.542354084667
 30
0.0
 11
3262.379972080721
 21
1271.542354084667
 31
0.0
  0
LINE
  5
190
330
18
100
AcDbEntity
  8
MOJI
100
AcDbLine
 10
3262.379972080721
 20
1196.544650413028
 30
0.0
 11
2577.878079464634
 21
1196.544650413028
 31
0.0
  0
LINE
  5
191
330
18
100
AcDbEntity
  8
MOJI
100
AcDbLine
 10
2937.700748607963
 20
821.5561320548335
 30
0.0
 11
2937.700748607964
 21
1271.542354084667
 31
0.0
  0
LINE
  5
192
330
18
100
AcDbEntity
  8
MOJI
100
AcDbLine
 10
3262.379972080721
 20
821.5561320548335
 30
0.0
 11
3262.379972080722
 21
1271.542354084667
 31
0.0
  0
TEXT
  5
193
330
18
100
AcDbEntity
  8
MOJI
100
AcDbText
 10
2664.195936281327
 20
1213.622905333509
 30
0.0
 40
45.0
  1
品　　種
 41
0.8
  7
EXT08
100
AcDbText
  0
TEXT
  5
194
330
18
100
AcDbEntity
  8
MOJI
100
AcDbText
 10
3072.01433163185
 20
1216.914495143252
 30
0.0
 40
45.0
  1
L
 41
0.8
  7
EXT08
100
AcDbText
  0
TEXT
  5
195
330
18
100
AcDbEntity
  8
MOJI
100
AcDbText
 10
2607.350588774488
 20
1140.302470099505
 30
0.0
 40
45.0
  1
SP-G2-30
 41
0.8
  7
EXT08
100
AcDbText
  0
TEXT
  5
196
330
18
100
AcDbEntity
  8
MOJI
100
AcDbText
 10
3020.048858798809
 20
1137.109766507352
 30
0.0
 40
45.0
  1
3000
 41
0.8
  7
EXT08
100
AcDbText
  0
TEXT
  5
197
330
18
100
AcDbEntity
  8
MOJI
100
AcDbText
 10
3020.048858798809
 20
913.7938972995687
 30
0.0
 40
45.0
  1
1500
 41
0.8
  7
EXT08
100
AcDbText
  0
TEXT
  5
198
330
18
100
AcDbEntity
  8
MOJI
100
AcDbText
 10
3020.048858798809
 20
840.0567078486393
 30
0.0
 40
45.0
  1
1000
 41
0.8
  7
EXT08
100
AcDbText
  0
ARC
  5
199
330
18
100
AcDbEntity
  8
CENTER
100
AcDbCircle
 10
1592.773654553935
 20
2555.719734672091
 30
0.0
 40
200.0
100
AcDbArc
 50
90.0
 51
180.0
  0
ARC
  5
19A
330
18
100
AcDbEntity
  8
SJC
100
AcDbCircle
 10
1592.773654553935
 20
2555.719734672091
 30
0.0
 40
230.25
100
AcDbArc
 50
90.0
 51
180.0
  0
ARC
  5
19B
330
18
100
AcDbEntity
  8
SJC
100
AcDbCircle
 10
1592.773654553935
 20
2555.719734672091
 30
0.0
 40
169.75
100
AcDbArc
 50
90.0
 51
180.0
  0
LINE
  5
19C
330
18
100
AcDbEntity
  8
SJC
100
AcDbLine
 10
1423.023654553935
 20
2213.969734672091
 30
0.0
 11
4362.523654553934
 21
2213.969734672091
 31
0.0
  0
LINE
  5
19D
330
18
100
AcDbEntity
  8
SJC
100
AcDbLine
 10
1423.023654553935
 20
2247.969734672091
 30
0.0
 11
4362.523654553934
 21
2247.969734672091
 31
0.0
  0
ARC
  5
19E
330
18
100
AcDbEntity
  8
SJC
100
AcDbCircle
 10
1448.044895530353
 20
2230.969734672091
 30
0.0
 40
30.25
100
AcDbArc
 50
145.8069207305365
 51
214.1930792694636
  0
ARC
  5
19F
330
18
100
AcDbEntity
  8
SJC
100
AcDbCircle
 10
4337.502413577516
 20
2230.969734672091
 30
0.0
 40
30.25
100
AcDbArc
 50
325.8069207305368
 51
34.19307926946395
  0
LINE
  5
1A0
330
18
100
AcDbEntity
  8
SJC
100
AcDbLine
 10
1423.023654553935
 20
2492.969734672091
 30
0.0
 11
4362.523654553934
 21
2492.969734672091
 31
0.0
  0
LINE
  5
1A1
330
18
100
AcDbEntity
  8
SJC
100
AcDbLine
 10
1423.023654553935
 20
2458.969734672091
 30
0.0
 11
4362.523654553934
 21
2458.969734672091
 31
0.0
  0
ARC
  5
1A2
330
18
100
AcDbEntity
  8
SJC
100
AcDbCircle
 10
1448.044895530353
 20
2475.969734672091
 30
0.0
 40
30.25
100
AcDbArc
 50
145.8069207305365
 51
214.1930792694636
  0
ARC
  5
1A3
330
18
100
AcDbEntity
  8
SJC
100
AcDbCircle
 10
4337.502413577516
 20
2475.969734672091
 30
0.0
 40
30.25
100
AcDbArc
 50
325.8069207305368
 51
34.19307926946395
  0
LINE
  5
1A4
330
18
100
AcDbEntity
  8
SJC
100
AcDbLine
 10
1423.023654553935
 20
2492.969734672091
 30
0.0
 11
1423.023654553935
 21
2555.719734672091
 31
0.0
  0
LINE
  5
1A5
330
18
100
AcDbEntity
  8
SJC
100
AcDbLine
 10
1423.023654553935
 20
2247.969734672092
 30
0.0
 11
1423.023654553935
 21
2458.969734672091
 31
0.0
  0
LINE
  5
1A6
330
18
100
AcDbEntity
  8
SJC
100
AcDbLine
 10
4362.523654553934
 20
2492.969734672091
 30
0.0
 11
4362.523654553934
 21
2555.719734672091
 31
0.0
  0
LINE
  5
1A7
330
18
100
AcDbEntity
  8
SJC
100
AcDbLine
 10
4362.523654553934
 20
2247.969734672091
 30
0.0
 11
4362.523654553934
 21
2458.969734672091
 31
0.0
  0
DIMENSION
  5
1AD
330
18
100
AcDbEntity
  8
SUNPOU
100
AcDbDimension
  2
*D7
 10
973.9478727679497
 20
2475.969734672091
 30
0.0
 11
933.4478727679497
 21
2920.969734672091
 31
0.0
 12
0.0
 22
-290.0
 32
0.0
 70
    32
 71
     5
 42
-1.0
  3
SJC
100
AcDbAlignedDimension
 13
1592.773654553935
 23
2785.969734672091
 33
0.0
 14
1448.044895530353
 24
2475.969734672091
 34
0.0
 50
90.0
100
AcDbRotatedDimension
1001
ACAD
1000
DSTYLE
1002
{
1070
    40
1040
15.0
1070
    41
1040
2.0
1070
    42
1040
1.0
1070
    43
1040
6.0
1070
    44
1040
1.0
1070
    73
1070
     0
1070
    74
1070
     0
1070
    77
1070
     1
1070
    78
1070
     8
1070
   140
1040
3.0
1070
   147
1040
1.199999999999999
1070
   172
1070
     1
1070
   271
1070
     2
1070
   279
1070
     2
1070
   340
1005
288
1002
}
  0
DIMENSION
  5
1AE
330
18
100
AcDbEntity
  8
SUNPOU
100
AcDbDimension
  2
*D6
 10
973.9478727679497
 20
2230.969734672091
 30
0.0
 11
933.4478727679497
 21
2628.469734672091
 31
0.0
 12
0.0
 22
-275.0
 32
0.0
 70
    32
 71
     5
 42
-1.0
  3
SJC
100
AcDbAlignedDimension
 13
1448.044895530353
 23
2475.969734672091
 33
0.0
 14
1448.044895530353
 24
2230.969734672091
 34
0.0
 50
90.0
100
AcDbRotatedDimension
1001
ACAD
1000
DSTYLE
1002
{
1070
    40
1040
15.0
1070
    41
1040
2.0
1070
    42
1040
1.0
1070
    43
1040
6.0
1070
    44
1040
1.0
1070
    73
1070
     0
1070
    74
1070
     0
1070
    77
1070
     1
1070
    78
1070
     8
1070
   140
1040
3.0
1070
   147
1040
1.199999999999999
1070
   172
1070
     1
1070
   271
1070
     2
1070
   279
1070
     2
1070
   340
1005
288
1002
}
  0
DIMENSION
  5
1AF
330
18
100
AcDbEntity
  8
SUNPOU
100
AcDbDimension
  2
*D5
 10
973.9478727679497
 20
1985.969734672091
 30
0.0
 11
933.4478727679497
 21
2108.469734672091
 31
0.0
 70
    32
 71
     5
 42
-1.0
  3
SJC
100
AcDbAlignedDimension
 13
1448.044895530353
 23
2230.969734672091
 33
0.0
 14
1122.192895048646
 24
1985.969734672091
 34
0.0
 50
90.0
100
AcDbRotatedDimension
1001
ACAD
1000
DSTYLE
1002
{
1070
    40
1040
15.0
1070
    41
1040
2.0
1070
    42
1040
1.0
1070
    43
1040
6.0
1070
    44
1040
1.0
1070
    73
1070
     0
1070
    74
1070
     0
1070
    77
1070
     1
1070
    78
1070
     8
1070
   140
1040
3.0
1070
   147
1040
1.199999999999999
1070
   172
1070
     1
1070
   271
1070
     2
1070
   279
1070
     2
1070
   340
1005
288
1002
}
  0
LINE
  5
1B0
330
18
100
AcDbEntity
  8
SJC
100
AcDbLine
 10
1122.192895048646
 20
1985.969734672091
 30
0.0
 11
1362.523654553934
 21
1985.969734672091
 31
0.0
1001
ACAD
1000
ASC_BOUNDS
1002
{
1070
    19
1005
5C3
1002
}
  0
DIMENSION
  5
1B2
330
18
100
AcDbEntity
  8
SUNPOU
100
AcDbDimension
  2
*D4
 10
873.4146704744935
 20
1685.969734672091
 30
0.0
 11
832.9146704744935
 21
1835.969734672091
 31
0.0
 70
    32
 71
     5
 42
-1.0
  3
SJC
100
AcDbAlignedDimension
 13
1122.192895048646
 23
1985.969734672091
 33
0.0
 14
1192.773654553934
 24
1685.969734672091
 34
0.0
 50
90.0
100
AcDbRotatedDimension
1001
ACAD
1000
DSTYLE
1002
{
1070
    40
1040
15.0
1070
    41
1040
2.0
1070
    42
1040
1.0
1070
    43
1040
6.0
1070
    44
1040
1.0
1070
    73
1070
     0
1070
    74
1070
     0
1070
    77
1070
     1
1070
    78
1070
     8
1070
   140
1040
3.0
1070
   147
1040
1.199999999999999
1070
   172
1070
     1
1070
   271
1070
     2
1070
   279
1070
     2
1070
   340
1005
288
1002
}
  0
TEXT
  5
1B3
330
18
100
AcDbEntity
  8
MOJI
100
AcDbText
 10
2607.350588774487
 20
918.215676339116
 30
0.0
 40
45.0
  1
SP-G2-15
 41
0.8
  7
EXT08
100
AcDbText
  0
TEXT
  5
1B4
330
18
100
AcDbEntity
  8
MOJI
100
AcDbText
 10
2605.703980616956
 20
840.0567241065349
 30
0.0
 40
45.0
  1
SP-G2-10
 41
0.8
  7
EXT08
100
AcDbText
  0
LINE
  5
1B5
330
18
100
AcDbEntity
  8
MOJI2
100
AcDbLine
 10
784.3363588803179
 20
3207.795326087268
 30
0.0
 11
962.8678370086552
 21
3207.795326087268
 31
0.0
  0
DIMENSION
  5
1B6
330
18
100
AcDbEntity
  8
SUNPOU
100
AcDbDimension
  2
*D3
 10
873.4146704744935
 20
1985.969734672091
 30
0.0
 11
832.9146704744935
 21
2385.969734672091
 31
0.0
 70
    32
 71
     5
 42
-1.0
  3
SJC
100
AcDbAlignedDimension
 13
1592.773654553935
 23
2785.969734672091
 33
0.0
 14
1122.192895048646
 24
1985.969734672091
 34
0.0
 50
90.0
100
AcDbRotatedDimension
1001
ACAD
1000
DSTYLE
1002
{
1070
    40
1040
15.0
1070
    41
1040
2.0
1070
    42
1040
1.0
1070
    43
1040
6.0
1070
    44
1040
1.0
1070
    73
1070
     0
1070
    74
1070
     0
1070
    77
1070
     1
1070
    78
1070
     8
1070
   140
1040
3.0
1070
   147
1040
1.199999999999999
1070
   172
1070
     1
1070
   271
1070
     2
1070
   279
1070
     2
1070
   340
1005
288
1002
}
  0
DIMENSION
  5
1B7
330
18
100
AcDbEntity
  8
SUNPOU
100
AcDbDimension
  2
*D2
 10
760.6730034633811
 20
1685.969734672091
 30
0.0
 11
720.173003463381
 21
2235.969734672091
 31
0.0
 70
    32
 71
     5
 42
-1.0
  3
SJC
100
AcDbAlignedDimension
 13
1592.773654553935
 23
2785.969734672091
 33
0.0
 14
1192.773654553934
 24
1685.969734672091
 34
0.0
 50
90.0
100
AcDbRotatedDimension
1001
ACAD
1000
DSTYLE
1002
{
1070
    40
1040
15.0
1070
    41
1040
2.0
1070
    42
1040
1.0
1070
    43
1040
6.0
1070
    44
1040
1.0
1070
    73
1070
     0
1070
    74
1070
     0
1070
    77
1070
     1
1070
    78
1070
     8
1070
   140
1040
3.0
1070
   147
1040
1.199999999999999
1070
   172
1070
     1
1070
   271
1070
     2
1070
   279
1070
     2
1070
   340
1005
288
1002
}
  0
LINE
  5
1BE
330
18
100
AcDbEntity
  8
SJC
100
AcDbLine
 10
1362.523654553934
 20
1685.969734672091
 30
0.0
 11
1362.523654553934
 21
2555.719734672091
 31
0.0
1001
ACAD
1000
ASC_BOUNDS
1002
{
1070
    19
1005
5C3
1002
}
  0
POLYLINE
  5
1CB
330
18
100
AcDbEntity
  8
HATCH
100
AcDb2dPolyline
 66
     1
 10
0.0
 20
0.0
 30
0.0
 70
     3
  0
VERTEX
  5
1CC
330
1CB
100
AcDbEntity
  8
HATCH
100
AcDbVertex
100
AcDb2dVertex
 10
4192.773654553934
 20
1660.969734672091
 30
0.0
 42
-0.1703036214138359
  0
VERTEX
  5
1CD
330
1CB
100
AcDbEntity
  8
HATCH
100
AcDbVertex
100
AcDb2dVertex
 10
4199.265843960353
 20
1679.477545265673
 30
0.0
 42
-0.2278377915826702
 70
     1
  0
VERTEX
  5
1CE
330
1CB
100
AcDbEntity
  8
HATCH
100
AcDbVertex
100
AcDb2dVertex
 10
4212.773654553934
 20
1685.969734672091
 30
0.0
 42
-0.2278377915826684
  0
VERTEX
  5
1CF
330
1CB
100
AcDbEntity
  8
HATCH
100
AcDbVertex
100
AcDb2dVertex
 10
4226.281465147517
 20
1679.477545265673
 30
0.0
 42
-0.1703036214138354
 70
     1
  0
VERTEX
  5
1D0
330
1CB
100
AcDbEntity
  8
HATCH
100
AcDbVertex
100
AcDb2dVertex
 10
4232.773654553934
 20
1660.969734672091
 30
0.0
 42
-0.1703036214138303
  0
VERTEX
  5
1D1
330
1CB
100
AcDbEntity
  8
HATCH
100
AcDbVertex
100
AcDb2dVertex
 10
4226.281465147517
 20
1642.461924078508
 30
0.0
 42
-0.2278377915826667
 70
     1
  0
VERTEX
  5
1D2
330
1CB
100
AcDbEntity
  8
HATCH
100
AcDbVertex
100
AcDb2dVertex
 10
4212.773654553934
 20
1635.969734672091
 30
0.0
 42
-0.2278377915826721
  0
VERTEX
  5
1D3
330
1CB
100
AcDbEntity
  8
HATCH
100
AcDbVertex
100
AcDb2dVertex
 10
4199.265843960353
 20
1642.461924078509
 30
0.0
 42
-0.1703036214138317
 70
     1
  0
SEQEND
  5
1D4
330
1CB
100
AcDbEntity
  8
HATCH
  0
LINE
  5
1D5
330
18
100
AcDbEntity
  8
SJC
100
AcDbLine
 10
4192.773654553934
 20
1635.969734672091
 30
0.0
 11
4592.773654553934
 21
1635.969734672091
 31
0.0
  0
LINE
  5
1D6
330
18
100
AcDbEntity
  8
SJC
100
AcDbLine
 10
4192.773654553934
 20
1685.969734672091
 30
0.0
 11
4592.773654553934
 21
1685.969734672091
 31
0.0
1001
ACAD
1000
ASC_BOUNDS
1002
{
1070
    19
1005
0
1002
}
  0
LINE
  5
1D7
330
18
100
AcDbEntity
  8
SJC
100
AcDbLine
 10
4192.773654553934
 20
1635.969734672091
 30
0.0
 11
4192.773654553934
 21
1685.969734672091
 31
0.0
  0
LINE
  5
1DE
330
18
100
AcDbEntity
  8
SJC
100
AcDbLine
 10
4242.773654553935
 20
1685.969734672091
 30
0.0
 11
4242.773654553935
 21
1985.969734672091
 31
0.0
1001
ACAD
1000
ASC_BOUNDS
1002
{
1070
    19
1002
}
  0
LINE
  5
1DF
330
18
100
AcDbEntity
  8
SJC
100
AcDbLine
 10
4542.773654553935
 20
1685.969734672091
 30
0.0
 11
4542.773654553935
 21
1985.969734672091
 31
0.0
1001
ACAD
1000
ASC_BOUNDS
1002
{
1070
    19
1002
}
  0
POLYLINE
  5
1E6
330
18
100
AcDbEntity
  8
HATCH
100
AcDb2dPolyline
 66
     1
 10
0.0
 20
0.0
 30
0.0
 70
     3
  0
VERTEX
  5
1E7
330
1E6
100
AcDbEntity
  8
HATCH
100
AcDbVertex
100
AcDb2dVertex
 10
4512.773654553934
 20
1660.969734672091
 30
0.0
 42
-0.1703036214138359
  0
VERTEX
  5
1E8
330
1E6
100
AcDbEntity
  8
HATCH
100
AcDbVertex
100
AcDb2dVertex
 10
4519.265843960353
 20
1679.477545265673
 30
0.0
 42
-0.2278377915826702
 70
     1
  0
VERTEX
  5
1E9
330
1E6
100
AcDbEntity
  8
HATCH
100
AcDbVertex
100
AcDb2dVertex
 10
4532.773654553934
 20
1685.969734672091
 30
0.0
 42
-0.2278377915826684
  0
VERTEX
  5
1EA
330
1E6
100
AcDbEntity
  8
HATCH
100
AcDbVertex
100
AcDb2dVertex
 10
4546.281465147516
 20
1679.477545265673
 30
0.0
 42
-0.1703036214138354
 70
     1
  0
VERTEX
  5
1EB
330
1E6
100
AcDbEntity
  8
HATCH
100
AcDbVertex
100
AcDb2dVertex
 10
4552.773654553934
 20
1660.969734672091
 30
0.0
 42
-0.1703036214138303
  0
VERTEX
  5
1EC
330
1E6
100
AcDbEntity
  8
HATCH
100
AcDbVertex
100
AcDb2dVertex
 10
4546.281465147516
 20
1642.461924078508
 30
0.0
 42
-0.2278377915826667
 70
     1
  0
VERTEX
  5
1ED
330
1E6
100
AcDbEntity
  8
HATCH
100
AcDbVertex
100
AcDb2dVertex
 10
4532.773654553934
 20
1635.969734672091
 30
0.0
 42
-0.2278377915826721
  0
VERTEX
  5
1EE
330
1E6
100
AcDbEntity
  8
HATCH
100
AcDbVertex
100
AcDb2dVertex
 10
4519.265843960353
 20
1642.461924078509
 30
0.0
 42
-0.1703036214138317
 70
     1
  0
SEQEND
  5
1EF
330
1E6
100
AcDbEntity
  8
HATCH
  0
POLYLINE
  5
1FB
330
18
100
AcDbEntity
  8
HATCH
100
AcDb2dPolyline
 66
     1
 10
0.0
 20
0.0
 30
0.0
 70
     3
  0
VERTEX
  5
1FC
330
1FB
100
AcDbEntity
  8
HATCH
100
AcDbVertex
100
AcDb2dVertex
 10
4232.773654553934
 20
1660.969734672091
 30
0.0
 42
-0.1703036214138359
  0
VERTEX
  5
1FD
330
1FB
100
AcDbEntity
  8
HATCH
100
AcDbVertex
100
AcDb2dVertex
 10
4239.265843960352
 20
1679.477545265673
 30
0.0
 42
-0.2278377915826702
 70
     1
  0
VERTEX
  5
1FE
330
1FB
100
AcDbEntity
  8
HATCH
100
AcDbVertex
100
AcDb2dVertex
 10
4252.773654553934
 20
1685.969734672091
 30
0.0
 42
-0.2278377915826684
  0
VERTEX
  5
1FF
330
1FB
100
AcDbEntity
  8
HATCH
100
AcDbVertex
100
AcDb2dVertex
 10
4266.281465147517
 20
1679.477545265673
 30
0.0
 42
-0.1703036214138354
 70
     1
  0
VERTEX
  5
200
330
1FB
100
AcDbEntity
  8
HATCH
100
AcDbVertex
100
AcDb2dVertex
 10
4272.773654553935
 20
1660.969734672091
 30
0.0
 42
-0.1703036214138303
  0
VERTEX
  5
201
330
1FB
100
AcDbEntity
  8
HATCH
100
AcDbVertex
100
AcDb2dVertex
 10
4266.281465147517
 20
1642.461924078508
 30
0.0
 42
-0.2278377915826667
 70
     1
  0
VERTEX
  5
202
330
1FB
100
AcDbEntity
  8
HATCH
100
AcDbVertex
100
AcDb2dVertex
 10
4252.773654553934
 20
1635.969734672091
 30
0.0
 42
-0.2278377915826721
  0
VERTEX
  5
203
330
1FB
100
AcDbEntity
  8
HATCH
100
AcDbVertex
100
AcDb2dVertex
 10
4239.265843960352
 20
1642.461924078509
 30
0.0
 42
-0.1703036214138317
 70
     1
  0
SEQEND
  5
204
330
1FB
100
AcDbEntity
  8
HATCH
  0
POLYLINE
  5
205
330
18
100
AcDbEntity
  8
HATCH
100
AcDb2dPolyline
 66
     1
 10
0.0
 20
0.0
 30
0.0
 70
     3
  0
VERTEX
  5
206
330
205
100
AcDbEntity
  8
HATCH
100
AcDbVertex
100
AcDb2dVertex
 10
4272.773654553935
 20
1660.969734672091
 30
0.0
 42
-0.1703036214138359
  0
VERTEX
  5
207
330
205
100
AcDbEntity
  8
HATCH
100
AcDbVertex
100
AcDb2dVertex
 10
4279.265843960352
 20
1679.477545265673
 30
0.0
 42
-0.2278377915826702
 70
     1
  0
VERTEX
  5
208
330
205
100
AcDbEntity
  8
HATCH
100
AcDbVertex
100
AcDb2dVertex
 10
4292.773654553935
 20
1685.969734672091
 30
0.0
 42
-0.2278377915826684
  0
VERTEX
  5
209
330
205
100
AcDbEntity
  8
HATCH
100
AcDbVertex
100
AcDb2dVertex
 10
4306.281465147516
 20
1679.477545265673
 30
0.0
 42
-0.1703036214138354
 70
     1
  0
VERTEX
  5
20A
330
205
100
AcDbEntity
  8
HATCH
100
AcDbVertex
100
AcDb2dVertex
 10
4312.773654553935
 20
1660.969734672091
 30
0.0
 42
-0.1703036214138303
  0
VERTEX
  5
20B
330
205
100
AcDbEntity
  8
HATCH
100
AcDbVertex
100
AcDb2dVertex
 10
4306.281465147516
 20
1642.461924078508
 30
0.0
 42
-0.2278377915826667
 70
     1
  0
VERTEX
  5
20C
330
205
100
AcDbEntity
  8
HATCH
100
AcDbVertex
100
AcDb2dVertex
 10
4292.773654553935
 20
1635.969734672091
 30
0.0
 42
-0.2278377915826721
  0
VERTEX
  5
20D
330
205
100
AcDbEntity
  8
HATCH
100
AcDbVertex
100
AcDb2dVertex
 10
4279.265843960352
 20
1642.461924078509
 30
0.0
 42
-0.1703036214138317
 70
     1
  0
SEQEND
  5
20E
330
205
100
AcDbEntity
  8
HATCH
  0
POLYLINE
  5
22F
330
18
100
AcDbEntity
  8
HATCH
100
AcDb2dPolyline
 66
     1
 10
0.0
 20
0.0
 30
0.0
 70
     3
  0
VERTEX
  5
230
330
22F
100
AcDbEntity
  8
HATCH
100
AcDbVertex
100
AcDb2dVertex
 10
4472.773654553935
 20
1660.969734672091
 30
0.0
 42
-0.1703036214138359
  0
VERTEX
  5
231
330
22F
100
AcDbEntity
  8
HATCH
100
AcDbVertex
100
AcDb2dVertex
 10
4479.265843960352
 20
1679.477545265673
 30
0.0
 42
-0.2278377915826702
 70
     1
  0
VERTEX
  5
232
330
22F
100
AcDbEntity
  8
HATCH
100
AcDbVertex
100
AcDb2dVertex
 10
4492.773654553935
 20
1685.969734672091
 30
0.0
 42
-0.2278377915826684
  0
VERTEX
  5
233
330
22F
100
AcDbEntity
  8
HATCH
100
AcDbVertex
100
AcDb2dVertex
 10
4506.281465147516
 20
1679.477545265673
 30
0.0
 42
-0.1703036214138354
 70
     1
  0
VERTEX
  5
234
330
22F
100
AcDbEntity
  8
HATCH
100
AcDbVertex
100
AcDb2dVertex
 10
4512.773654553934
 20
1660.969734672091
 30
0.0
 42
-0.1703036214138303
  0
VERTEX
  5
235
330
22F
100
AcDbEntity
  8
HATCH
100
AcDbVertex
100
AcDb2dVertex
 10
4506.281465147516
 20
1642.461924078508
 30
0.0
 42
-0.2278377915826667
 70
     1
  0
VERTEX
  5
236
330
22F
100
AcDbEntity
  8
HATCH
100
AcDbVertex
100
AcDb2dVertex
 10
4492.773654553935
 20
1635.969734672091
 30
0.0
 42
-0.2278377915826721
  0
VERTEX
  5
237
330
22F
100
AcDbEntity
  8
HATCH
100
AcDbVertex
100
AcDb2dVertex
 10
4479.265843960352
 20
1642.461924078509
 30
0.0
 42
-0.1703036214138317
 70
     1
  0
SEQEND
  5
238
330
22F
100
AcDbEntity
  8
HATCH
  0
LINE
  5
23C
330
18
100
AcDbEntity
  8
SJC
100
AcDbLine
 10
4592.773654553934
 20
1635.969734672091
 30
0.0
 11
4592.773654553934
 21
1685.969734672091
 31
0.0
  0
POLYLINE
  5
23D
330
18
100
AcDbEntity
  8
HATCH
100
AcDb2dPolyline
 66
     1
 10
0.0
 20
0.0
 30
0.0
 70
     3
  0
VERTEX
  5
23E
330
23D
100
AcDbEntity
  8
HATCH
100
AcDbVertex
100
AcDb2dVertex
 10
4552.773654553934
 20
1660.969734672091
 30
0.0
 42
-0.1703036214138359
  0
VERTEX
  5
23F
330
23D
100
AcDbEntity
  8
HATCH
100
AcDbVertex
100
AcDb2dVertex
 10
4559.265843960353
 20
1679.477545265673
 30
0.0
 42
-0.2278377915826702
 70
     1
  0
VERTEX
  5
240
330
23D
100
AcDbEntity
  8
HATCH
100
AcDbVertex
100
AcDb2dVertex
 10
4572.773654553935
 20
1685.969734672091
 30
0.0
 42
-0.2278377915826684
  0
VERTEX
  5
241
330
23D
100
AcDbEntity
  8
HATCH
100
AcDbVertex
100
AcDb2dVertex
 10
4586.281465147516
 20
1679.477545265673
 30
0.0
 42
-0.1703036214138354
 70
     1
  0
VERTEX
  5
242
330
23D
100
AcDbEntity
  8
HATCH
100
AcDbVertex
100
AcDb2dVertex
 10
4592.773654553934
 20
1660.969734672091
 30
0.0
 42
-0.1703036214138303
  0
VERTEX
  5
243
330
23D
100
AcDbEntity
  8
HATCH
100
AcDbVertex
100
AcDb2dVertex
 10
4586.281465147516
 20
1642.461924078508
 30
0.0
 42
-0.2278377915826667
 70
     1
  0
VERTEX
  5
244
330
23D
100
AcDbEntity
  8
HATCH
100
AcDbVertex
100
AcDb2dVertex
 10
4572.773654553935
 20
1635.969734672091
 30
0.0
 42
-0.2278377915826721
  0
VERTEX
  5
245
330
23D
100
AcDbEntity
  8
HATCH
100
AcDbVertex
100
AcDb2dVertex
 10
4559.265843960353
 20
1642.461924078509
 30
0.0
 42
-0.1703036214138317
 70
     1
  0
SEQEND
  5
246
330
23D
100
AcDbEntity
  8
HATCH
  0
TEXT
  5
24D
330
18
100
AcDbEntity
  8
MOJI
100
AcDbText
 10
2207.022261656492
 20
2577.014760141218
 30
0.0
 40
45.0
  1
1
 41
0.8
  7
EXT08
100
AcDbText
  0
TEXT
  5
24F
330
18
100
AcDbEntity
  8
MOJI
100
AcDbText
 10
2222.641090019413
 20
2111.420480700786
 30
0.0
 40
45.0
  1
2
 41
0.8
  7
EXT08
100
AcDbText
  0
LINE
  5
251
330
18
100
AcDbEntity
  8
MOJI
100
AcDbLine
 10
3262.379972080721
 20
1121.546946741389
 30
0.0
 11
2577.878079464634
 21
1121.546946741389
 31
0.0
  0
LINE
  5
252
330
18
100
AcDbEntity
  8
MOJI
100
AcDbLine
 10
3262.379972080721
 20
1046.54924306975
 30
0.0
 11
2577.878079464634
 21
1046.54924306975
 31
0.0
  0
LINE
  5
253
330
18
100
AcDbEntity
  8
MOJI
100
AcDbLine
 10
3262.379972080721
 20
971.5515393981116
 30
0.0
 11
2577.878079464634
 21
971.5515393981116
 31
0.0
  0
LINE
  5
254
330
18
100
AcDbEntity
  8
MOJI
100
AcDbLine
 10
2586.806402689115
 20
693.9996509677285
 30
0.0
 11
3750.686727959855
 21
693.9996509677285
 31
0.0
  0
LINE
  5
255
330
18
100
AcDbEntity
  8
MOJI
100
AcDbLine
 10
2586.806402689115
 20
618.1181991602199
 30
0.0
 11
3750.686727959855
 21
618.1181991602199
 31
0.0
  0
LINE
  5
256
330
18
100
AcDbEntity
  8
MOJI
100
AcDbLine
 10
2586.806402689115
 20
542.2367473527113
 30
0.0
 11
3750.686727959855
 21
542.2367473527113
 31
0.0
  0
LINE
  5
257
330
18
100
AcDbEntity
  8
CENTER
100
AcDbLine
 10
4392.773654553934
 20
1676.35540994918
 30
0.0
 11
4392.773654553934
 21
2555.719734672091
 31
0.0
  0
DIMENSION
  5
258
330
18
100
AcDbEntity
  8
SUNPOU
100
AcDbDimension
  2
*D1
 10
4392.773654553934
 20
3083.873627804811
 30
0.0
 11
2892.773654553935
 21
3524.373627804811
 31
0.0
 12
0.0
 22
-400.0
 32
0.0
 70
    32
  1
L
 71
     5
 42
-1.0
  3
SJC
100
AcDbAlignedDimension
 13
1392.773654553934
 23
2555.719734672091
 33
0.0
 14
4392.773654553934
 24
2605.719734672091
 34
0.0
100
AcDbRotatedDimension
1001
ACAD
1000
DSTYLE
1002
{
1070
    40
1040
15.0
1070
    41
1040
2.0
1070
    42
1040
1.0
1070
    43
1040
6.0
1070
    44
1040
1.0
1070
    73
1070
     0
1070
    74
1070
     0
1070
    77
1070
     1
1070
    78
1070
     8
1070
   140
1040
3.0
1070
   147
1040
1.199999999999999
1070
   172
1070
     1
1070
   271
1070
     2
1070
   279
1070
     2
1070
   340
1005
288
1002
}
  0
INSERT
  5
26F
330
18
100
AcDbEntity
  8
ZWAKU
100
AcDbBlockReference
  2
CALCOMP_TECHJET720A3
 10
0.0
 20
0.0
 30
0.0
 41
15.0
 42
15.0
 43
15.0
  0
TEXT
  5
271
330
18
100
AcDbEntity
  8
INFORMATION
100
AcDbText
 10
1.0
 20
2.0
 30
0.0
 40
0.8
  1
PLOTTER=CALCOMP_TECHJET720
  7
EXT08
100
AcDbText
  0
TEXT
  5
272
330
18
100
AcDbEntity
  8
INFORMATION
100
AcDbText
 10
1.0
 20
3.0
 30
0.0
 40
0.8
  1
PAPER=A3
  7
EXT08
100
AcDbText
  0
LINE
  5
36C
330
18
100
AcDbEntity
  8
MOJI2
100
AcDbLine
 10
784.3363588803179
 20
3222.795326087267
 30
0.0
 11
962.8678370086552
 21
3222.795326087267
 31
0.0
  0
CIRCLE
  5
3A1
330
18
100
AcDbEntity
  8
MOJI
100
AcDbCircle
 10
2226.035565690741
 20
2598.323563299677
 30
0.0
 40
36.0
  0
CIRCLE
  5
3A8
330
18
100
AcDbEntity
  8
MOJI
100
AcDbCircle
 10
2237.484229503316
 20
2132.002732351659
 30
0.0
 40
36.0
  0
INSERT
  5
3C0
330
18
100
AcDbEntity
  8
MOJI
100
AcDbBlockReference
  2
B0040021
 10
1811.477318903973
 20
1985.969734672091
 30
0.0
  0
LINE
  5
40B
330
18
100
AcDbEntity
  8
MOJI
100
AcDbLine
 10
3262.37997208072
 20
821.5561320548335
 30
0.0
 11
2577.878079464633
 21
821.5561320548335
 31
0.0
  0
LINE
  5
40C
330
18
100
AcDbEntity
  8
MOJI
100
AcDbLine
 10
3262.37997208072
 20
896.5538357264724
 30
0.0
 11
2577.878079464633
 21
896.5538357264724
 31
0.0
  0
TEXT
  5
40D
330
18
100
AcDbEntity
  8
MOJI
100
AcDbText
 10
3020.048858798809
 20
1063.789304642847
 30
0.0
 40
45.0
  1
2500
 41
0.8
  7
EXT08
100
AcDbText
  0
TEXT
  5
40E
330
18
100
AcDbEntity
  8
MOJI
100
AcDbText
 10
3020.048858798809
 20
990.0521151919175
 30
0.0
 40
45.0
  1
2000
 41
0.8
  7
EXT08
100
AcDbText
  0
TEXT
  5
40F
330
18
100
AcDbEntity
  8
MOJI
100
AcDbText
 10
2607.350588774487
 20
1068.211083682394
 30
0.0
 40
45.0
  1
SP-G2-25
 41
0.8
  7
EXT08
100
AcDbText
  0
TEXT
  5
410
330
18
100
AcDbEntity
  8
MOJI
100
AcDbText
 10
2605.703980616956
 20
990.052131449813
 30
0.0
 40
45.0
  1
SP-G2-20
 41
0.8
  7
EXT08
100
AcDbText
  0
DIMENSION
  5
4BC
330
18
100
AcDbEntity
  8
SUNPOU
100
AcDbDimension
  2
*D10
 10
1592.773654553935
 20
2555.719734672091
 30
0.0
 11
1554.828064065874
 21
2956.716676024354
 31
0.0
 12
0.0
 22
-300.0
 32
0.0
 70
    36
 71
     5
 42
-1.0
  3
SJC
100
AcDbRadialDimension
 15
1457.296578484731
 25
2702.845401568589
 35
0.0
 40
0.0
1001
ACAD
1000
DSTYLE
1002
{
1070
    78
1070
     8
1070
   140
1040
3.0
1070
   340
1005
288
1070
    74
1070
     0
1070
   172
1070
     1
1070
    73
1070
     0
1070
    77
1070
     1
1070
    40
1040
15.0
1070
   147
1040
1.199999999999999
1070
    42
1040
1.0
1070
    44
1040
1.0
1070
    43
1040
6.0
1070
   271
1070
     2
1070
    41
1040
2.0
1002
}
  0
SOLID
  5
59E
330
18
100
AcDbEntity
  8
MOJI
  6
Continuous
100
AcDbTrace
 10
2083.199024321508
 20
2428.801294020489
 30
0.0
 11
2092.774975884476
 21
2431.682465945885
 31
0.0
 12
2079.343484326804
 22
2458.969734672091
 32
0.0
 13
2079.343484326804
 23
2458.969734672091
 33
0.0
  0
LINE
  5
59F
330
18
100
AcDbEntity
  8
MOJI
  6
Continuous
100
AcDbLine
 10
2087.987000102991
 20
2430.241879983187
 30
0.0
 11
2192.773654553934
 21
2081.969734672091
 31
0.0
  0
SOLID
  5
5A0
330
18
100
AcDbEntity
  8
MOJI
  6
Continuous
100
AcDbTrace
 10
2156.913591179987
 20
2183.801294020489
 30
0.0
 11
2166.489542742955
 21
2186.682465945884
 31
0.0
 12
2153.058051185284
 22
2213.969734672091
 32
0.0
 13
2153.058051185284
 23
2213.969734672091
 33
0.0
  0
INSERT
  5
5C3
330
18
100
AcDbEntity
  8
HATCH
100
AcDbBlockReference
  2
*X11
 10
0.0
 20
0.0
 30
0.0
1001
ACAD
1000
HATCH
1002
{
1070
    19
1000
PLAST
1040
500.0
1040
0.7853981633974483
1000
ASC_BOUNDS
1070
     2
1070
     1
1070
     4
1005
1B0
1005
F3
1005
F1
1005
1BE
1070
     1
1070
     4
1005
E1
1005
167
1005
F1
1005
121
1000
ASC_SEEDPOINT
1011
1487.130112410119
1021
1854.0478917703
1031
0.0
1002
}
  0
INSERT
  5
5D5
330
18
100
AcDbEntity
  8
HATCH
100
AcDbBlockReference
  2
*X11
 10
3000.0
 20
0.0
 30
0.0
1001
ACAD
1000
HATCH
1002
{
1070
    19
1000
PLAST
1040
500.0
1040
0.7853981633974483
1002
}
  0
TEXT
  5
5EF
330
18
100
AcDbEntity
  8
MOJI
100
AcDbText
 10
3232.8632048649
 20
563.2351062604063
 30
0.0
 40
45.0
  1
亜鉛めっき＋静電粉体塗装
 41
0.8
  7
EXT08
100
AcDbText
  0
TEXT
  5
5F0
330
18
100
AcDbEntity
  8
MOJI
100
AcDbText
 10
2996.277641750546
 20
563.2351062604063
 30
0.0
 40
45.0
  1
STK400
 41
0.8
  7
EXT08
100
AcDbText
  0
ARC
  5
60A
330
18
100
AcDbEntity
  8
CENTER
100
AcDbCircle
 10
4192.773654553934
 20
2555.719734672091
 30
0.0
 40
200.0
100
AcDbArc
 50
0.000000000000007
 51
90.0
  0
ARC
  5
60B
330
18
100
AcDbEntity
  8
SJC
100
AcDbCircle
 10
4192.773654553934
 20
2555.719734672091
 30
0.0
 40
230.25
100
AcDbArc
 50
0.000000000000007
 51
90.0
  0
ARC
  5
60C
330
18
100
AcDbEntity
  8
SJC
100
AcDbCircle
 10
4192.773654553934
 20
2555.719734672091
 30
0.0
 40
169.75
100
AcDbArc
 50
0.000000000000007
 51
90.0
  0
TEXT
  5
618
330
18
100
AcDbEntity
  8
INFORMATION
100
AcDbText
 10
1.0
 20
1.0
 30
0.0
 40
0.8
  1
VERSION=3.0
100
AcDbText
  0
LEADER
  5
636
330
18
100
AcDbEntity
  8
MOJI
100
AcDbLeader
  3
SJC
 76
     2
 10
2074.869719040982
 20
2725.469734672091
 30
0.0
 10
2180.314139129629
 20
2555.969734672091
 30
0.0
1001
ACAD
1000
DSTYLE
1002
{
1070
    40
1040
15.0
1070
    41
1040
2.0
1070
    42
1040
1.0
1070
    43
1040
6.0
1070
    44
1040
1.0
1070
    73
1070
     0
1070
    74
1070
     0
1070
    77
1070
     0
1070
    78
1070
     8
1070
   140
1040
3.0
1070
   147
1040
1.199999999999999
1070
   172
1070
     1
1070
   179
1070
     2
1070
   271
1070
     2
1070
   279
1070
     2
1070
   340
1005
288
1002
}
  0
ENDSEC
  0
SECTION
  2
OBJECTS
  0
DICTIONARY
  5
C
330
0
100
AcDbDictionary
281
     1
  3
ACAD_COLOR
350
5FD
  3
ACAD_GROUP
350
D
  3
ACAD_LAYOUT
350
600
  3
ACAD_MATERIAL
350
5FC
  3
ACAD_MLINESTYLE
350
E
  3
ACAD_PLOTSETTINGS
350
601
  3
ACAD_PLOTSTYLENAME
350
5FA
  3
ACAD_TABLESTYLE
350
5FE
  3
AcDbVariableDictionary
350
64C
  0
DICTIONARY
  5
5FD
102
{ACAD_REACTORS
330
C
102
}
330
C
100
AcDbDictionary
281
     1
  0
DICTIONARY
  5
D
102
{ACAD_REACTORS
330
C
102
}
330
C
100
AcDbDictionary
281
     1
  0
DICTIONARY
  5
600
102
{ACAD_REACTORS
330
C
102
}
330
C
100
AcDbDictionary
281
     1
  3
Model
350
602
  3
レイアウト1
350
603
  0
DICTIONARY
  5
5FC
102
{ACAD_REACTORS
330
C
102
}
330
C
100
AcDbDictionary
281
     1
  0
DICTIONARY
  5
E
102
{ACAD_REACTORS
330
C
102
}
330
C
100
AcDbDictionary
281
     1
  3
STANDARD
350
1B
  0
DICTIONARY
  5
601
102
{ACAD_REACTORS
330
C
102
}
330
C
100
AcDbDictionary
281
     1
  0
ACDBDICTIONARYWDFLT
  5
5FA
102
{ACAD_REACTORS
330
C
102
}
330
C
100
AcDbDictionary
281
     1
  3
Normal
350
5FB
100
AcDbDictionaryWithDefault
340
5FB
  0
DICTIONARY
  5
5FE
102
{ACAD_REACTORS
330
C
102
}
330
C
100
AcDbDictionary
281
     1
  3
Standard
350
5FF
  0
DICTIONARY
  5
64C
102
{ACAD_REACTORS
330
C
102
}
330
C
100
AcDbDictionary
281
     1
  3
CTABLESTYLE
350
64D
  0
LAYOUT
  5
602
102
{ACAD_REACTORS
330
600
102
}
330
600
100
AcDbPlotSettings
  1

  2
none_device
  4
Letter_(8.50_x_11.00_Inches)
  6

 40
6.349999904632568
 41
6.349999904632568
 42
6.350006103515625
 43
6.350006103515625
 44
215.8999938964844
 45
279.3999938964844
 46
0.0
 47
0.0
 48
0.0
 49
0.0
140
0.0
141
0.0
142
1.0
143
778.8068730410942
 70
 11952
 72
     0
 73
     1
 74
     0
  7
SJCCAD.ctb
 75
     0
147
0.0012840153761037
 76
     0
 77
     2
 78
   300
148
23846.3333288472
149
615.131138528434
100
AcDbLayout
  1
Model
 70
     1
 71
     0
 10
0.0
 20
0.0
 11
12.0
 21
9.0
 12
0.0
 22
0.0
 32
0.0
 14
0.0
 24
0.0
 34
0.0
 15
0.0
 25
0.0
 35
0.0
146
0.0
 13
0.0
 23
0.0
 33
0.0
 16
1.0
 26
0.0
 36
0.0
 17
0.0
 27
1.0
 37
0.0
 76
     0
330
18
1001
ACAD_PSEXT
1000
なし
1000
なし
1000
適切ではありません
1000
新しいプロッタ環境設定名を選択しない限り、レイアウトは印刷されません。
1070
     0
  0
LAYOUT
  5
603
102
{ACAD_REACTORS
330
600
102
}
330
600
100
AcDbPlotSettings
  1

  2
RICOH imagio MF5550 RPS
  4

  6

 40
0.0
 41
0.0
 42
0.0
 43
0.0
 44
0.0
 45
0.0
 46
0.0
 47
0.0
 48
0.0
 49
0.0
140
0.0
141
0.0
142
1.0
143
1.0
 70
   688
 72
     0
 73
     0
 74
     5
  7
SJCCAD.ctb
 75
    16
147
1.0
 76
     0
 77
     2
 78
   300
148
0.0
149
0.0
100
AcDbLayout
  1
レイアウト1
 70
     1
 71
     1
 10
0.0
 20
0.0
 11
12.0
 21
9.0
 12
0.0
 22
0.0
 32
0.0
 14
1.000000000000000E+20
 24
1.000000000000000E+20
 34
1.000000000000000E+20
 15
-1.000000000000000E+20
 25
-1.000000000000000E+20
 35
-1.000000000000000E+20
146
0.0
 13
0.0
 23
0.0
 33
0.0
 16
1.0
 26
0.0
 36
0.0
 17
0.0
 27
1.0
 37
0.0
 76
     0
330
15
  0
MLINESTYLE
  5
1B
102
{ACAD_REACTORS
330
E
102
}
330
E
100
AcDbMlineStyle
  2
STANDARD
 70
     0
  3

 62
     0
 51
90.0
 52
90.0
 71
     2
 49
0.5
 62
   256
  6
BYLAYER
 49
-0.5
 62
   256
  6
BYLAYER
  0
ACDBPLACEHOLDER
  5
5FB
102
{ACAD_REACTORS
330
5FA
102
}
330
5FA
  0
TABLESTYLE
  5
5FF
102
{ACAD_REACTORS
330
5FE
102
}
330
5FE
100
AcDbTableStyle
  3
Standard
 70
     0
 71
     0
 40
0.06
 41
0.06
280
     0
281
     0
  7
STANDARD
140
0.18
170
     2
 62
     0
 63
     7
283
     0
274
    -2
284
     1
 64
     0
275
    -2
285
     1
 65
     0
276
    -2
286
     1
 66
     0
277
    -2
287
     1
 67
     0
278
    -2
288
     1
 68
     0
279
    -2
289
     1
 69
     0
  7
STANDARD
140
0.25
170
     5
 62
     0
 63
     7
283
     0
274
    -2
284
     1
 64
     0
275
    -2
285
     1
 65
     0
276
    -2
286
     1
 66
     0
277
    -2
287
     1
 67
     0
278
    -2
288
     1
 68
     0
279
    -2
289
     1
 69
     0
  7
STANDARD
140
0.18
170
     5
 62
     0
 63
     7
283
     0
274
    -2
284
     1
 64
     0
275
    -2
285
     1
 65
     0
276
    -2
286
     1
 66
     0
277
    -2
287
     1
 67
     0
278
    -2
288
     1
 68
     0
279
    -2
289
     1
 69
     0
  0
DICTIONARYVAR
  5
64D
102
{ACAD_REACTORS
330
64C
102
}
330
64C
100
DictionaryVariables
280
     0
  1
STANDARD
  0
ENDSEC
  0
EOF
