  0
SECTION
  2
HEADER
  9
$ACADVER
  1
AC1009
  9
$INSBASE
 10
0.0
 20
0.0
 30
0.0
  9
$EXTMIN
 10
0.0
 20
0.0
 30
0.0
  9
$EXTMAX
 10
8040.0
 20
5490.0
 30
0.0
  9
$LIMMIN
 10
0.0
 20
0.0
  9
$LIMMAX
 10
8400.0
 20
5940.0
  9
$ORTHOMODE
 70
     1
  9
$REGENMODE
 70
     1
  9
$FILLMODE
 70
     1
  9
$QTEXTMODE
 70
     0
  9
$MIRRTEXT
 70
     0
  9
$DRAGMODE
 70
     2
  9
$LTSCALE
 40
200.0
  9
$OSMODE
 70
  3071
  9
$ATTMODE
 70
     1
  9
$TEXTSIZE
 40
60.0
  9
$TRACEWID
 40
1.0
  9
$TEXTSTYLE
  7
EXT08
  9
$CLAYER
  8
SJC
  9
$CELTYPE
  6
BYLAYER
  9
$CECOLOR
 62
   256
  9
$DIMSCALE
 40
20.0
  9
$DIMASZ
 40
2.0
  9
$DIMEXO
 40
1.0
  9
$DIMDLI
 40
6.0
  9
$DIMRND
 40
0.0
  9
$DIMDLE
 40
0.0
  9
$DIMEXE
 40
1.0
  9
$DIMTP
 40
0.0
  9
$DIMTM
 40
0.0
  9
$DIMTXT
 40
3.0
  9
$DIMCEN
 40
0.09
  9
$DIMTSZ
 40
0.0
  9
$DIMTOL
 70
     0
  9
$DIMLIM
 70
     0
  9
$DIMTIH
 70
     0
  9
$DIMTOH
 70
     0
  9
$DIMSE1
 70
     0
  9
$DIMSE2
 70
     0
  9
$DIMTAD
 70
     1
  9
$DIMZIN
 70
     8
  9
$DIMBLK
  1

  9
$DIMASO
 70
     1
  9
$DIMSHO
 70
     1
  9
$DIMPOST
  1

  9
$DIMAPOST
  1

  9
$DIMALT
 70
     0
  9
$DIMALTD
 70
     2
  9
$DIMALTF
 40
25.399999999999999
  9
$DIMLFAC
 40
1.0
  9
$DIMTOFL
 70
     1
  9
$DIMTVP
 40
0.0
  9
$DIMTIX
 70
     0
  9
$DIMSOXD
 70
     0
  9
$DIMSAH
 70
     0
  9
$DIMBLK1
  1

  9
$DIMBLK2
  1

  9
$DIMSTYLE
  2
SJC
  9
$DIMCLRD
 70
     0
  9
$DIMCLRE
 70
     0
  9
$DIMCLRT
 70
     0
  9
$DIMTFAC
 40
1.0
  9
$DIMGAP
 40
1.1999999999999991
  9
$LUNITS
 70
     2
  9
$LUPREC
 70
     2
  9
$SKETCHINC
 40
1.0
  9
$FILLETRAD
 40
0.0
  9
$AUNITS
 70
     1
  9
$AUPREC
 70
     2
  9
$MENU
  1
C:\r13\win\SUPPORT\sjc
  9
$ELEVATION
 40
0.0
  9
$PELEVATION
 40
0.0
  9
$THICKNESS
 40
0.0
  9
$LIMCHECK
 70
     0
  9
$BLIPMODE
 70
     0
  9
$CHAMFERA
 40
10.0
  9
$CHAMFERB
 40
10.0
  9
$SKPOLY
 70
     0
  9
$TDCREATE
 40
2451466.6196559379
  9
$TDUPDATE
 40
2453914.6870012269
  9
$TDINDWG
 40
1.4889088773000001
  9
$TDUSRTIMER
 40
1.4889088773000001
  9
$USRTIMER
 70
     1
  9
$ANGBASE
 50
0.0
  9
$ANGDIR
 70
     0
  9
$PDMODE
 70
    33
  9
$PDSIZE
 40
5.0
  9
$PLINEWID
 40
0.0
  9
$COORDS
 70
     1
  9
$SPLFRAME
 70
     0
  9
$SPLINETYPE
 70
     6
  9
$SPLINESEGS
 70
     8
  9
$ATTDIA
 70
     0
  9
$ATTREQ
 70
     1
  9
$HANDLING
 70
     1
  9
$HANDSEED
  5
1D3A2
  9
$SURFTAB1
 70
     6
  9
$SURFTAB2
 70
     6
  9
$SURFTYPE
 70
     6
  9
$SURFU
 70
     6
  9
$SURFV
 70
     6
  9
$UCSNAME
  2

  9
$UCSORG
 10
0.0
 20
0.0
 30
0.0
  9
$UCSXDIR
 10
1.0
 20
0.0
 30
0.0
  9
$UCSYDIR
 10
0.0
 20
1.0
 30
0.0
  9
$PUCSNAME
  2

  9
$PUCSORG
 10
0.0
 20
0.0
 30
0.0
  9
$PUCSXDIR
 10
1.0
 20
0.0
 30
0.0
  9
$PUCSYDIR
 10
0.0
 20
1.0
 30
0.0
  9
$USERI1
 70
     3
  9
$USERI2
 70
    20
  9
$USERI3
 70
     0
  9
$USERI4
 70
     0
  9
$USERI5
 70
     0
  9
$USERR1
 40
0.0
  9
$USERR2
 40
0.0
  9
$USERR3
 40
0.0
  9
$USERR4
 40
0.0
  9
$USERR5
 40
0.0
  9
$WORLDVIEW
 70
     1
  9
$SHADEDGE
 70
     3
  9
$SHADEDIF
 70
    70
  9
$TILEMODE
 70
     1
  9
$MAXACTVP
 70
    16
  9
$PLIMCHECK
 70
     0
  9
$PEXTMIN
 10
1.0000000000000000E+020
 20
1.0000000000000000E+020
 30
1.0000000000000000E+020
  9
$PEXTMAX
 10
-1.0000000000000000E+020
 20
-1.0000000000000000E+020
 30
-1.0000000000000000E+020
  9
$PLIMMIN
 10
0.0
 20
0.0
  9
$PLIMMAX
 10
420.0
 20
297.0
  9
$UNITMODE
 70
     0
  9
$VISRETAIN
 70
     0
  9
$PLINEGEN
 70
     0
  9
$PSLTSCALE
 70
     1
  0
ENDSEC
  0
SECTION
  2
TABLES
  0
TABLE
  2
VPORT
 70
     2
  0
VPORT
  2
*ACTIVE
 70
     0
 10
0.0
 20
0.0
 11
1.0
 21
1.0
 12
8255.8999617120517
 22
2969.8187366502589
 13
0.0
 23
0.0
 14
10.0
 24
10.0
 15
10.0
 25
10.0
 16
0.0
 26
0.0
 36
1.0
 17
0.0
 27
0.0
 37
0.0
 40
6008.2523841474758
 41
3.264317180616739
 42
50.0
 43
0.0
 44
0.0
 50
0.0
 51
0.0
 71
     0
 72
   100
 73
     1
 74
     0
 75
     0
 76
     0
 77
     0
 78
     0
  0
ENDTAB
  0
TABLE
  2
LTYPE
 70
     4
  0
LTYPE
  2
CONTINUOUS
 70
     0
  3
Solid line
 72
    65
 73
     0
 40
0.0
  0
LTYPE
  2
CENTER
 70
     0
  3
____ _ ____ _ ____ _ ____ _ ____ _ ____ _ ____ 
 72
    65
 73
     4
 40
2.0
 49
1.25
 49
-0.25
 49
0.25
 49
-0.25
  0
LTYPE
  2
HIDDEN
 70
     0
  3
__ __ __ __ __ __ __ __ __ __ __ __ __ __ __ __
 72
    65
 73
     2
 40
0.375
 49
0.25
 49
-0.125
  0
LTYPE
  2
PHANTOM
 70
     0
  3
Phantom ______  __  __  ______  __  __  ______
 72
    65
 73
     6
 40
2.5
 49
1.25
 49
-0.25
 49
0.25
 49
-0.25
 49
0.25
 49
-0.25
  0
ENDTAB
  0
TABLE
  2
LAYER
 70
    15
  0
LAYER
  2
0
 70
     0
 62
     7
  6
CONTINUOUS
  0
LAYER
  2
ZWAKU
 70
     1
 62
    -7
  6
CONTINUOUS
  0
LAYER
  2
CENTER
 70
     0
 62
     3
  6
CENTER
  0
LAYER
  2
HASEN
 70
     0
 62
     7
  6
HIDDEN
  0
LAYER
  2
MOJI
 70
     0
 62
     6
  6
CONTINUOUS
  0
LAYER
  2
SUNPOU
 70
     0
 62
     4
  6
CONTINUOUS
  0
LAYER
  2
SJC
 70
     0
 62
     1
  6
CONTINUOUS
  0
LAYER
  2
INFORMATION
 70
     1
 62
     7
  6
CONTINUOUS
  0
LAYER
  2
SJC2
 70
     0
 62
     7
  6
CONTINUOUS
  0
LAYER
  2
HATCH
 70
     0
 62
     2
  6
CONTINUOUS
  0
LAYER
  2
DEFPOINTS
 70
     0
 62
     7
  6
CONTINUOUS
  0
LAYER
  2
KASOU
 70
     0
 62
     2
  6
PHANTOM
  0
LAYER
  2
WAKU
 70
     0
 62
     5
  6
CONTINUOUS
  0
LAYER
  2
MOJI2
 70
     0
 62
     1
  6
CONTINUOUS
  0
LAYER
  2
HOJO
 70
     0
 62
     8
  6
CONTINUOUS
  0
ENDTAB
  0
TABLE
  2
STYLE
 70
     8
  0
STYLE
  2
STANDARD
 70
     0
 40
0.0
 41
1.0
 50
0.0
 71
     0
 42
3.0
  3
ISOCP
  4

  0
STYLE
  2
EXT08
 70
     0
 40
0.0
 41
0.8
 50
0.0
 71
     0
 42
60.0
  3
ROMANS
  4
EXTFONT
  0
STYLE
  2
SIMPLEX
 70
     0
 40
0.0
 41
1.0
 50
0.0
 71
     0
 42
0.0
  3
SCRIPTS.shx
  4

  0
STYLE
  2
TATEEXT
 70
     4
 40
0.0
 41
1.0
 50
0.0
 71
     0
 42
0.0
  3
ROMANS.shx
  4
EXTFONT.shx
  0
STYLE
  2
TATEBIG
 70
     4
 40
0.0
 41
1.0
 50
0.0
 71
     0
 42
0.0
  3
ROMANS.shx
  4
BIGFONT.shx
  0
STYLE
  2
EXT
 70
     0
 40
0.0
 41
1.0
 50
0.0
 71
     0
 42
0.0
  3
ROMANS.shx
  4
EXTFONT.shx
  0
STYLE
  2
KANJI08
 70
     0
 40
0.0
 41
0.8
 50
0.0
 71
     0
 42
0.0
  3
ROMANS.shx
  4
BIGFONT.shx
  0
STYLE
  2
KANJI
 70
     0
 40
0.0
 41
1.0
 50
0.0
 71
     0
 42
3.0
  3
ROMANS.shx
  4
BIGFONT.shx
  0
ENDTAB
  0
TABLE
  2
VIEW
 70
     0
  0
ENDTAB
  0
TABLE
  2
UCS
 70
     0
  0
ENDTAB
  0
TABLE
  2
APPID
 70
     2
  0
APPID
  2
ACAD
 70
     0
  0
APPID
  2
ACAD_PSEXT
 70
     0
  0
ENDTAB
  0
TABLE
  2
DIMSTYLE
 70
     4
  0
DIMSTYLE
  2
STANDARD
 70
     0
  3

  4

  5

  6

  7

 40
1.0
 41
0.18
 42
0.0625
 43
0.38
 44
0.18
 45
0.0
 46
0.0
 47
0.0
 48
0.0
140
0.18
141
0.09
142
0.0
143
25.399999999999999
144
1.0
145
0.0
146
1.0
147
0.09
 71
     0
 72
     0
 73
     1
 74
     1
 75
     0
 76
     0
 77
     0
 78
     0
170
     0
171
     2
172
     0
173
     0
174
     0
175
     0
176
     0
177
     0
178
     0
  0
DIMSTYLE
  2
SJC
 70
     0
  3

  4

  5

  6

  7

 40
1.0
 41
0.18
 42
0.0625
 43
0.38
 44
0.18
 45
0.0
 46
0.0
 47
0.0
 48
0.0
140
0.18
141
0.09
142
0.0
143
25.399999999999999
144
1.0
145
0.0
146
1.0
147
0.09
 71
     0
 72
     0
 73
     1
 74
     1
 75
     0
 76
     0
 77
     0
 78
     0
170
     0
171
     2
172
     0
173
     0
174
     0
175
     0
176
     0
177
     0
178
     0
  0
DIMSTYLE
  2
RUISEKI1
 70
     0
  3

  4

  5

  6
DOT
  7

 40
20.0
 41
2.0
 42
1.0
 43
6.0
 44
30.0
 45
0.0
 46
0.0
 47
0.0
 48
0.0
140
0.18
141
0.09
142
0.0
143
25.399999999999999
144
1.0
145
0.0
146
1.0
147
1.5
 71
     0
 72
     0
 73
     1
 74
     1
 75
     0
 76
     0
 77
     1
 78
     0
170
     0
171
     2
172
     0
173
     1
174
     0
175
     0
176
     0
177
     0
178
     0
  0
DIMSTYLE
  2
RUISEKI2
 70
     0
  3

  4

  5

  6
NONE
  7

 40
20.0
 41
2.0
 42
1.0
 43
6.0
 44
30.0
 45
0.0
 46
0.0
 47
0.0
 48
0.0
140
0.18
141
0.09
142
0.0
143
25.399999999999999
144
1.0
145
0.0
146
1.0
147
1.5
 71
     0
 72
     0
 73
     1
 74
     1
 75
     0
 76
     0
 77
     1
 78
     0
170
     0
171
     2
172
     0
173
     1
174
     0
175
     0
176
     0
177
     0
178
     0
  0
ENDTAB
  0
ENDSEC
  0
SECTION
  2
BLOCKS
  0
BLOCK
  8
0
  2
$MODEL_SPACE
 70
     0
 10
0.0
 20
0.0
 30
0.0
  3
$MODEL_SPACE
  1

  0
ENDBLK
  5
1C
  8
0
  0
BLOCK
 67
     1
  8
0
  2
$PAPER_SPACE
 70
     0
 10
0.0
 20
0.0
 30
0.0
  3
$PAPER_SPACE
  1

  0
ENDBLK
  5
19
 67
     1
  8
0
  0
BLOCK
  8
0
  2
CALCOMP_TECHJET720A3
 70
     0
 10
0.0
 20
0.0
 30
0.0
  3
CALCOMP_TECHJET720A3
  1

  0
POLYLINE
  5
5E3
  8
ZWAKU
 62
     2
 66
     1
 10
0.0
 20
0.0
 30
0.0
 70
     1
  0
VERTEX
  5
1CFE0
  8
ZWAKU
 62
     2
 10
0.0
 20
0.0
 30
0.0
  0
VERTEX
  5
1CFE1
  8
ZWAKU
 62
     2
 10
0.0
 20
267.0
 30
0.0
  0
VERTEX
  5
1CFE2
  8
ZWAKU
 62
     2
 10
370.0
 20
267.0
 30
0.0
  0
VERTEX
  5
1CFE3
  8
ZWAKU
 62
     2
 10
370.0
 20
0.0
 30
0.0
  0
SEQEND
  5
1CFE4
  8
ZWAKU
 62
     2
  0
ENDBLK
  5
5EA
  8
0
  0
BLOCK
  8
0
  2
CANON_LBP-830A3
 70
     0
 10
0.0
 20
0.0
 30
0.0
  3
CANON_LBP-830A3
  1

  0
POLYLINE
  5
5EC
  8
ZWAKU
 66
     1
 10
0.0
 20
0.0
 30
0.0
 70
     1
  0
VERTEX
  5
1CFE5
  8
ZWAKU
 10
0.0
 20
0.0
 30
0.0
  0
VERTEX
  5
1CFE6
  8
ZWAKU
 10
0.0
 20
274.5
 30
0.0
  0
VERTEX
  5
1CFE7
  8
ZWAKU
 10
402.0
 20
274.5
 30
0.0
  0
VERTEX
  5
1CFE8
  8
ZWAKU
 10
402.0
 20
0.0
 30
0.0
  0
SEQEND
  5
1CFE9
  8
ZWAKU
  0
ENDBLK
  5
5F3
  8
0
  0
BLOCK
  8
0
  2
B0040007
 70
     0
 10
0.0
 20
0.0
 30
0.0
  3
B0040007
  1

  0
LINE
  5
1232D
  8
HATCH
 10
9.6000000000000227
 20
-2.4000000000000901
 30
0.0
 11
10.399999999999981
 21
-1.5999999999999091
 31
0.0
  0
LINE
  5
1232E
  8
HATCH
 10
8.0
 20
-2.4000000000000901
 30
0.0
 11
10.399999999999981
 21
0.0
 31
0.0
  0
LINE
  5
1232F
  8
HATCH
 10
9.6000000000000227
 20
-0.7999999999999546
 30
0.0
 11
8.7999999999999545
 21
0.0
 31
0.0
  0
TEXT
  5
12330
  8
MOJI
 10
-0.1065189878078172
 20
0.6260561220324235
 30
0.0
 40
2.0
  1
G.L.
 41
0.8
  7
EXT08
  0
LINE
  5
12331
  8
HATCH
 10
6.4000000000000901
 20
-2.4000000000000901
 30
0.0
 11
7.2000000000000446
 21
-1.5999999999999091
 31
0.0
  0
LINE
  5
12332
  8
HATCH
 10
4.7999999999999536
 20
-2.4000000000000901
 30
0.0
 11
6.4000000000000901
 21
-0.7999999999999546
 31
0.0
  0
LINE
  5
12333
  8
HATCH
 10
1.6000000000000221
 20
-2.4000000000000901
 30
0.0
 11
3.200000000000045
 21
-0.7999999999999546
 31
0.0
  0
LINE
  5
12334
  8
HATCH
 10
0.7999999999999546
 20
-1.5999999999999091
 30
0.0
 11
0.0
 21
-0.8000000000001818
 31
0.0
  0
LINE
  5
12335
  8
HATCH
 10
3.200000000000045
 20
-2.4000000000000901
 30
0.0
 11
5.5999999999999091
 21
0.0
 31
0.0
  0
LINE
  5
12336
  8
HATCH
 10
4.0
 20
-1.5999999999999091
 30
0.0
 11
2.3999999999999768
 21
0.0
 31
0.0
  0
LINE
  5
12337
  8
HATCH
 10
0.0
 20
-2.4000000000000901
 30
0.0
 11
2.3999999999999768
 21
0.0
 31
0.0
  0
LINE
  5
12338
  8
HATCH
 10
1.6000000000000221
 20
-0.7999999999999546
 30
0.0
 11
0.7999999999999546
 21
0.0
 31
0.0
  0
LINE
  5
12339
  8
HATCH
 10
4.7999999999999536
 20
-0.7999999999999546
 30
0.0
 11
4.0
 21
0.0
 31
0.0
  0
LINE
  5
1233A
  8
HATCH
 10
8.0
 20
-2.4000000000000901
 30
0.0
 11
5.6000000000000218
 21
0.0
 31
0.0
  0
LINE
  5
1233B
  8
HATCH
 10
8.7999999999999545
 20
-1.5999999999999091
 30
0.0
 11
7.2000000000000446
 21
0.0
 31
0.0
  0
ENDBLK
  5
1233D
  8
0
  0
BLOCK
  8
0
  2
*D3
 70
     1
 10
0.0
 20
0.0
 30
0.0
  3
*D3
  1

  0
LINE
  5
1B5C5
  8
SUNPOU
 10
5002.5635618658052
 20
2670.0
 30
0.0
 11
5002.5635618658052
 21
2495.6247352848159
 31
0.0
  0
LINE
  5
1B5C6
  8
SUNPOU
 10
5302.5635618658052
 20
2670.0
 30
0.0
 11
5302.5635618658052
 21
2495.6247352848159
 31
0.0
  0
LINE
  5
1B5C7
  8
SUNPOU
 10
5042.5635618658052
 20
2515.6247352848159
 30
0.0
 11
5262.5635618658052
 21
2515.6247352848159
 31
0.0
  0
SOLID
  5
1B5C8
  8
SUNPOU
 10
5042.5635618658052
 20
2522.2914019514828
 30
0.0
 11
5042.5635618658052
 21
2508.9580686181498
 31
0.0
 12
5002.5635618658052
 22
2515.6247352848159
 32
0.0
 13
5002.5635618658052
 23
2515.6247352848159
 33
0.0
  0
SOLID
  5
1B5C9
  8
SUNPOU
 10
5262.5635618658052
 20
2522.2914019514828
 30
0.0
 11
5262.5635618658052
 21
2508.9580686181498
 31
0.0
 12
5302.5635618658052
 22
2515.6247352848159
 32
0.0
 13
5302.5635618658052
 23
2515.6247352848159
 33
0.0
  0
INSERT
  5
1B5CA
  8
SJC
  2
*U41
 10
0.0
 20
0.0
 30
0.0
  0
POINT
  5
1B5CB
  8
DEFPOINTS
 62
     0
 10
5002.5635618658052
 20
2690.0
 30
0.0
  0
POINT
  5
1B5CC
  8
DEFPOINTS
 62
     0
 10
5302.5635618658052
 20
2690.0
 30
0.0
  0
POINT
  5
1B5CD
  8
DEFPOINTS
 62
     0
 10
5302.5635618658052
 20
2515.6247352848159
 30
0.0
  0
ENDBLK
  5
16F92
  8
0
  0
BLOCK
  8
0
  2
*D4
 70
     1
 10
0.0
 20
0.0
 30
0.0
  3
*D4
  1

  0
LINE
  5
1CFEE
  8
SUNPOU
 10
6895.0000000000018
 20
2940.0
 30
0.0
 11
7245.0000000000027
 21
2939.9999999999991
 31
0.0
  0
LINE
  5
1CFEF
  8
SUNPOU
 10
7045.0000000000027
 20
3140.0
 30
0.0
 11
7245.0000000000027
 21
3140.0
 31
0.0
  0
LINE
  5
1CFF0
  8
SUNPOU
 10
7225.0000000000036
 20
2980.0
 30
0.0
 11
7225.0000000000036
 21
3100.0
 31
0.0
  0
SOLID
  5
1CFF1
  8
SUNPOU
 10
7218.3333333333367
 20
2980.0
 30
0.0
 11
7231.6666666666697
 21
2980.0
 31
0.0
 12
7225.0000000000036
 22
2939.9999999999991
 32
0.0
 13
7225.0000000000036
 23
2939.9999999999991
 33
0.0
  0
SOLID
  5
1CFF2
  8
SUNPOU
 10
7218.3333333333367
 20
3100.0
 30
0.0
 11
7231.6666666666697
 21
3100.0
 31
0.0
 12
7225.0000000000036
 22
3140.0
 32
0.0
 13
7225.0000000000036
 23
3140.0
 33
0.0
  0
TEXT
  8
SUNPOU
  40
60
  5
1D398
  72
0
  71
0
 10
7045.00
 20
2933.80
 30
0.000000
  1
200
  7
EXT08
  0
POINT
  5
1CFF4
  8
DEFPOINTS
 62
     0
 10
6875.0000000000009
 20
2940.0
 30
0.0
  0
POINT
  5
1CFF5
  8
DEFPOINTS
 62
     0
 10
7025.0000000000036
 20
3140.0
 30
0.0
  0
POINT
  5
1CFF6
  8
DEFPOINTS
 62
     0
 10
7225.0000000000036
 20
3140.0
 30
0.0
  0
ENDBLK
  5
16F9E
  8
0
  0
BLOCK
  8
0
  2
*D5
 70
     1
 10
0.0
 20
0.0
 30
0.0
  3
*D5
  1

  0
LINE
  5
1B5D7
  8
SUNPOU
 62
     0
 10
5302.5635618658098
 20
3160.0000000000009
 30
0.0
 11
5302.5635618658098
 21
3304.4226375089502
 31
0.0
  0
LINE
  5
1B5D8
  8
SUNPOU
 62
     0
 10
5802.5635618658098
 20
3160.0000000000018
 30
0.0
 11
5802.5635618658098
 21
3304.4226375089502
 31
0.0
  0
LINE
  5
1B5D9
  8
SUNPOU
 62
     0
 10
5342.5635618658089
 20
3284.4226375089502
 30
0.0
 11
5762.5635618658089
 21
3284.4226375089502
 31
0.0
  0
SOLID
  5
1B5DA
  8
SUNPOU
 62
     0
 10
5342.5635618658089
 20
3291.0893041756158
 30
0.0
 11
5342.5635618658089
 21
3277.7559708422841
 31
0.0
 12
5302.5635618658098
 22
3284.4226375089502
 32
0.0
 13
5302.5635618658098
 23
3284.4226375089502
 33
0.0
  0
SOLID
  5
1B5DB
  8
SUNPOU
 62
     0
 10
5762.5635618658089
 20
3291.0893041756158
 30
0.0
 11
5762.5635618658089
 21
3277.7559708422841
 31
0.0
 12
5802.5635618658098
 22
3284.4226375089502
 32
0.0
 13
5802.5635618658098
 23
3284.4226375089502
 33
0.0
  0
INSERT
  5
1B5DC
  8
SJC
  2
*U42
 10
0.0
 20
0.0
 30
0.0
  0
POINT
  5
1B5DD
  8
DEFPOINTS
 62
     0
 10
5302.5635618658098
 20
3140.0000000000009
 30
0.0
  0
POINT
  5
1B5DE
  8
DEFPOINTS
 62
     0
 10
5802.5635618658098
 20
3140.0000000000018
 30
0.0
  0
POINT
  5
1B5DF
  8
DEFPOINTS
 62
     0
 10
5802.5635618658098
 20
3284.4226375089502
 30
0.0
  0
ENDBLK
  5
18947
  8
0
  0
BLOCK
  8
0
  2
*D6
 70
     1
 10
0.0
 20
0.0
 30
0.0
  3
*D6
  1

  0
LINE
  5
1D00F
  8
SUNPOU
 62
     0
 10
580.0
 20
4240.0
 30
0.0
 11
247.80698034848899
 21
4240.0
 31
0.0
  0
LINE
  5
1D010
  8
SUNPOU
 62
     0
 10
347.54800335775332
 20
3140.0
 30
0.0
 11
247.80698034848879
 21
3140.0
 31
0.0
  0
LINE
  5
1D011
  8
SUNPOU
 62
     0
 10
267.80698034848899
 20
4200.0
 30
0.0
 11
267.80698034848882
 21
3180.0
 31
0.0
  0
TEXT
  8
SUNPOU
  40
60
  5
1D399
  62
0
  72
0
  71
0
 10
93.8070
 20
3623.80
 30
0.000000
  1
1100
  7
EXT08
  0
SOLID
  5
1D013
  8
SUNPOU
 62
     0
 10
261.14031368182231
 20
4200.0
 30
0.0
 11
274.47364701515568
 21
4200.0
 31
0.0
 12
267.80698034848899
 22
4240.0
 32
0.0
 13
267.80698034848899
 23
4240.0
 33
0.0
  0
SOLID
  5
1D014
  8
SUNPOU
 62
     0
 10
261.14031368182208
 20
3180.0
 30
0.0
 11
274.47364701515551
 21
3180.0
 31
0.0
 12
267.80698034848882
 22
3140.0
 32
0.0
 13
267.80698034848882
 23
3140.0
 33
0.0
  0
POINT
  5
1D015
  8
DEFPOINTS
 62
     0
 10
600.0
 20
4240.0
 30
0.0
  0
POINT
  5
1D016
  8
DEFPOINTS
 62
     0
 10
367.54800335775332
 20
3140.0
 30
0.0
  0
POINT
  5
1D017
  8
DEFPOINTS
 62
     0
 10
267.80698034848882
 20
3140.0
 30
0.0
  0
ENDBLK
  5
194F8
  8
0
  0
BLOCK
  8
0
  2
*D7
 70
     1
 10
0.0
 20
0.0
 30
0.0
  3
*D7
  1

  0
LINE
  5
1D018
  8
SUNPOU
 62
     0
 10
650.0
 20
4398.0000000000018
 30
0.0
 11
650.0
 21
4530.7093171591987
 31
0.0
  0
LINE
  5
1D019
  8
SUNPOU
 62
     0
 10
2650.0
 20
4398.0000000000018
 30
0.0
 11
2650.0
 21
4530.7093171591987
 31
0.0
  0
LINE
  5
1D01A
  8
SUNPOU
 62
     0
 10
690.0
 20
4510.7093171591987
 30
0.0
 11
2609.9999999999991
 21
4510.7093171591987
 31
0.0
  0
SOLID
  5
1D01B
  8
SUNPOU
 62
     0
 10
690.0
 20
4517.3759838258648
 30
0.0
 11
690.0
 21
4504.0426504925308
 31
0.0
 12
650.0
 22
4510.7093171591987
 32
0.0
 13
650.0
 23
4510.7093171591987
 33
0.0
  0
SOLID
  5
1D01C
  8
SUNPOU
 62
     0
 10
2609.9999999999991
 20
4517.3759838258648
 30
0.0
 11
2609.9999999999991
 21
4504.0426504925308
 31
0.0
 12
2650.0
 22
4510.7093171591987
 32
0.0
 13
2650.0
 23
4510.7093171591987
 33
0.0
  0
TEXT
  8
SUNPOU
  40
60
  5
1D39A
  62
0
  72
0
  71
0
 10
1530.00
 20
4458.51
 30
0.000000
  1
2000
  7
EXT08
  0
POINT
  5
1D01E
  8
DEFPOINTS
 62
     0
 10
650.0
 20
4378.0000000000018
 30
0.0
  0
POINT
  5
1D01F
  8
DEFPOINTS
 62
     0
 10
2650.0
 20
4378.0000000000018
 30
0.0
  0
POINT
  5
1D020
  8
DEFPOINTS
 62
     0
 10
2650.0
 20
4510.7093171591987
 30
0.0
  0
ENDBLK
  5
19504
  8
0
  0
BLOCK
  8
0
  2
*D8
 70
     1
 10
0.0
 20
0.0
 30
0.0
  3
*D8
  1

  0
LINE
  5
1D021
  8
SUNPOU
 62
     0
 10
379.99999999999818
 20
3140.0
 30
0.0
 11
347.54800335775309
 21
3140.0
 31
0.0
  0
LINE
  5
1D022
  8
SUNPOU
 62
     0
 10
529.61718471919255
 20
3400.0
 30
0.0
 11
347.5480033577532
 21
3400.0
 31
0.0
  0
LINE
  5
1D023
  8
SUNPOU
 62
     0
 10
367.5480033577532
 20
3180.0
 30
0.0
 11
367.5480033577532
 21
3360.0
 31
0.0
  0
SOLID
  5
1D024
  8
SUNPOU
 62
     0
 10
360.88133669108652
 20
3180.0
 30
0.0
 11
374.21467002441989
 21
3180.0
 31
0.0
 12
367.5480033577532
 22
3140.0
 32
0.0
 13
367.5480033577532
 23
3140.0
 33
0.0
  0
SOLID
  5
1D025
  8
SUNPOU
 62
     0
 10
360.88133669108652
 20
3360.0
 30
0.0
 11
374.21467002441989
 21
3360.0
 31
0.0
 12
367.5480033577532
 22
3400.0
 32
0.0
 13
367.5480033577532
 23
3400.0
 33
0.0
  0
TEXT
  8
SUNPOU
  40
60
  5
1D39B
  62
0
  72
0
  71
0
 10
193.548
 20
3163.80
 30
0.000000
  1
260
  7
EXT08
  0
POINT
  5
1D027
  8
DEFPOINTS
 62
     0
 10
399.99999999999818
 20
3140.0
 30
0.0
  0
POINT
  5
1D028
  8
DEFPOINTS
 62
     0
 10
549.61718471919255
 20
3400.0
 30
0.0
  0
POINT
  5
1D029
  8
DEFPOINTS
 62
     0
 10
367.5480033577532
 20
3400.0
 30
0.0
  0
ENDBLK
  5
19510
  8
0
  0
BLOCK
  8
0
  2
*D9
 70
     1
 10
0.0
 20
0.0
 30
0.0
  3
*D9
  1

  0
LINE
  5
1D02A
  8
SUNPOU
 62
     0
 10
529.61718471919255
 20
3940.0
 30
0.0
 11
347.54800335775332
 21
3940.0
 31
0.0
  0
LINE
  5
1D02B
  8
SUNPOU
 62
     0
 10
529.61718471919255
 20
4210.0
 30
0.0
 11
347.54800335775332
 21
4210.0
 31
0.0
  0
LINE
  5
1D02C
  8
SUNPOU
 62
     0
 10
367.54800335775332
 20
3980.0
 30
0.0
 11
367.54800335775332
 21
4170.0
 31
0.0
  0
SOLID
  5
1D02D
  8
SUNPOU
 62
     0
 10
360.88133669108657
 20
3980.0
 30
0.0
 11
374.21467002442
 21
3980.0
 31
0.0
 12
367.54800335775332
 22
3940.0
 32
0.0
 13
367.54800335775332
 23
3940.0
 33
0.0
  0
SOLID
  5
1D02E
  8
SUNPOU
 62
     0
 10
360.88133669108657
 20
4170.0
 30
0.0
 11
374.21467002442
 21
4170.0
 31
0.0
 12
367.54800335775332
 22
4210.0
 32
0.0
 13
367.54800335775332
 23
4210.0
 33
0.0
  0
TEXT
  8
SUNPOU
  40
60
  5
1D39C
  62
0
  72
0
  71
0
 10
193.548
 20
3968.80
 30
0.000000
  1
270
  7
EXT08
  0
POINT
  5
1D030
  8
DEFPOINTS
 62
     0
 10
549.61718471919255
 20
3940.0
 30
0.0
  0
POINT
  5
1D031
  8
DEFPOINTS
 62
     0
 10
549.61718471919255
 20
4210.0
 30
0.0
  0
POINT
  5
1D032
  8
DEFPOINTS
 62
     0
 10
367.54800335775332
 20
4210.0
 30
0.0
  0
ENDBLK
  5
19528
  8
0
  0
BLOCK
  8
0
  2
A$C48967E8F
 70
     0
 10
0.0
 20
0.0
 30
0.0
  3
A$C48967E8F
  1

  0
POLYLINE
  5
197F6
  8
HASEN
 66
     1
 10
0.0
 20
0.0
 30
0.0
 70
     1
  0
VERTEX
  5
1D033
  8
HASEN
 10
99.500012562082702
 20
3.999996129131886
 30
0.0
  0
VERTEX
  5
1D034
  8
HASEN
 10
9.5000125620827021
 20
3.9999961291323411
 30
0.0
 42
-0.4142135623730951
  0
VERTEX
  5
1D035
  8
HASEN
 10
4.0000125620827021
 20
9.4999961291323416
 30
0.0
  0
VERTEX
  5
1D036
  8
HASEN
 10
4.0000125620827021
 20
99.499996129131887
 30
0.0
 42
-0.4142135623730951
  0
VERTEX
  5
1D037
  8
HASEN
 10
9.5000125620827021
 20
104.9999961291319
 30
0.0
  0
VERTEX
  5
1D038
  8
HASEN
 10
99.500012562082702
 20
104.9999961291323
 30
0.0
 42
-0.4142135623730951
  0
VERTEX
  5
1D039
  8
HASEN
 10
105.0000125620827
 20
99.499996129132342
 30
0.0
  0
VERTEX
  5
1D03A
  8
HASEN
 10
105.0000125620827
 20
9.4999961291318868
 30
0.0
 42
-0.4142135623730951
  0
SEQEND
  5
1D03B
  8
HASEN
  0
POLYLINE
  5
197F7
  8
SJC
 66
     1
 10
0.0
 20
0.0
 30
0.0
 70
     1
  0
VERTEX
  5
1D03C
  8
SJC
 10
99.500012562082702
 20
-0.0000038708681132
 30
0.0
  0
VERTEX
  5
1D03D
  8
SJC
 10
9.5000125620827021
 20
-0.0000038708676584
 30
0.0
 42
-0.4142135623730951
  0
VERTEX
  5
1D03E
  8
SJC
 10
0.0000125620827021
 20
9.4999961291323416
 30
0.0
  0
VERTEX
  5
1D03F
  8
SJC
 10
0.0000125620827021
 20
99.499996129131887
 30
0.0
 42
-0.4142135623730951
  0
VERTEX
  5
1D040
  8
SJC
 10
9.5000125620827021
 20
108.9999961291319
 30
0.0
  0
VERTEX
  5
1D041
  8
SJC
 10
99.500012562082702
 20
108.9999961291323
 30
0.0
 42
-0.4142135623730951
  0
VERTEX
  5
1D042
  8
SJC
 10
109.0000125620827
 20
99.499996129132342
 30
0.0
  0
VERTEX
  5
1D043
  8
SJC
 10
109.0000125620827
 20
9.4999961291318868
 30
0.0
 42
-0.4142135623730951
  0
SEQEND
  5
1D044
  8
SJC
  0
POLYLINE
  5
197F8
  8
SJC
 66
     1
 10
0.0
 20
0.0
 30
0.0
 70
     1
  0
VERTEX
  5
1D045
  8
SJC
 10
19.50001256208224
 20
18.499996129132342
 30
0.0
 42
-0.4142135623730951
  0
VERTEX
  5
1D046
  8
SJC
 10
18.500012562082251
 20
19.499996129132342
 30
0.0
  0
VERTEX
  5
1D047
  8
SJC
 10
18.500012562082251
 20
89.499996129132342
 30
0.0
 42
-0.4142135623730951
  0
VERTEX
  5
1D048
  8
SJC
 10
19.50001256208224
 20
90.499996129132342
 30
0.0
  0
VERTEX
  5
1D049
  8
SJC
 10
89.500012562085416
 20
90.499996129132342
 30
0.0
 42
-0.4142135623730951
  0
VERTEX
  5
1D04A
  8
SJC
 10
90.500012562085445
 20
89.499996129132342
 30
0.0
  0
VERTEX
  5
1D04B
  8
SJC
 10
90.500012562085445
 20
19.499996129132342
 30
0.0
 42
-0.4142135623730951
  0
VERTEX
  5
1D04C
  8
SJC
 10
89.500012562083612
 20
18.499996129132342
 30
0.0
  0
SEQEND
  5
1D04D
  8
SJC
  0
LINE
  5
197F9
  8
SJC2
 10
18.500012562082251
 20
89.499996129132342
 30
0.0
 11
0.0000125620827021
 21
99.499996129131887
 31
0.0
  0
LINE
  5
197FA
  8
SJC2
 10
0.0000125620827021
 20
9.4999961291323416
 30
0.0
 11
18.500012562082251
 21
19.499996129132342
 31
0.0
  0
LINE
  5
197FB
  8
SJC2
 10
19.50001256208224
 20
90.499996129132342
 30
0.0
 11
9.5000125620827021
 21
108.9999961291319
 31
0.0
  0
LINE
  5
197FC
  8
SJC2
 10
99.500012562082702
 20
108.9999961291323
 30
0.0
 11
89.500012562083612
 21
90.499996129132342
 31
0.0
  0
LINE
  5
197FD
  8
SJC2
 10
90.500012562085445
 20
19.499996129132342
 30
0.0
 11
109.0000125620827
 21
9.4999961291318868
 31
0.0
  0
LINE
  5
197FE
  8
SJC2
 10
99.500012562082702
 20
-0.0000038708681132
 30
0.0
 11
89.500012562083612
 21
18.499996129132342
 31
0.0
  0
LINE
  5
197FF
  8
SJC2
 10
9.5000125620827021
 20
-0.0000038708676584
 30
0.0
 11
19.50001256208224
 21
18.499996129132342
 31
0.0
  0
LINE
  5
19800
  8
SJC2
 10
90.500012562083612
 20
89.499996129132342
 30
0.0
 11
109.0000125620827
 21
99.499996129132342
 31
0.0
  0
ENDBLK
  5
19803
  8
0
  0
BLOCK
  8
0
  2
*D11
 70
     1
 10
0.0
 20
0.0
 30
0.0
  3
*D11
  1

  0
LINE
  5
1D04E
  8
SUNPOU
 62
     0
 10
594.33333333333223
 20
4328.0
 30
0.0
 11
149.6573253784359
 21
4328.0
 31
0.0
  0
LINE
  5
1D04F
  8
SUNPOU
 62
     0
 10
380.0
 20
3140.0
 30
0.0
 11
149.65732537843559
 21
3140.0
 31
0.0
  0
LINE
  5
1D050
  8
SUNPOU
 62
     0
 10
169.6573253784359
 20
4288.0
 30
0.0
 11
169.65732537843559
 21
3180.0
 31
0.0
  0
TEXT
  8
SUNPOU
  40
60
  5
1D39D
  62
0
  72
0
  71
0
 10
-4.34267
 20
3667.80
 30
0.000000
  1
1188
  7
EXT08
  0
SOLID
  5
1D052
  8
SUNPOU
 62
     0
 10
162.99065871176921
 20
4288.0
 30
0.0
 11
176.3239920451025
 21
4288.0
 31
0.0
 12
169.6573253784359
 22
4328.0
 32
0.0
 13
169.6573253784359
 23
4328.0
 33
0.0
  0
SOLID
  5
1D053
  8
SUNPOU
 62
     0
 10
162.99065871176899
 20
3180.0
 30
0.0
 11
176.3239920451023
 21
3180.0
 31
0.0
 12
169.65732537843559
 22
3140.0
 32
0.0
 13
169.65732537843559
 23
3140.0
 33
0.0
  0
POINT
  5
1D054
  8
DEFPOINTS
 62
     0
 10
614.33333333333223
 20
4328.0
 30
0.0
  0
POINT
  5
1D055
  8
DEFPOINTS
 62
     0
 10
400.0
 20
3140.0
 30
0.0
  0
POINT
  5
1D056
  8
DEFPOINTS
 62
     0
 10
169.65732537843559
 20
3140.0
 30
0.0
  0
ENDBLK
  5
19820
  8
0
  0
BLOCK
  8
0
  2
*D12
 70
     1
 10
0.0
 20
0.0
 30
0.0
  3
*D12
  1

  0
LINE
  5
1B60D
  8
SUNPOU
 10
4982.5635618658062
 20
2690.0000000000009
 30
0.0
 11
4879.9409021297452
 21
2690.0000000000009
 31
0.0
  0
LINE
  5
1B60E
  8
SUNPOU
 10
5082.5635618658062
 20
4310.0
 30
0.0
 11
4879.9409021297452
 21
4310.0
 31
0.0
  0
LINE
  5
1B60F
  8
SUNPOU
 10
4899.9409021297452
 20
2730.0000000000009
 30
0.0
 11
4899.9409021297452
 21
4270.0
 31
0.0
  0
SOLID
  5
1B610
  8
SUNPOU
 10
4893.2742354630782
 20
2730.0000000000009
 30
0.0
 11
4906.6075687964121
 21
2730.0000000000009
 31
0.0
 12
4899.9409021297452
 22
2690.0000000000009
 32
0.0
 13
4899.9409021297452
 23
2690.0000000000009
 33
0.0
  0
SOLID
  5
1B611
  8
SUNPOU
 10
4893.2742354630782
 20
4270.0
 30
0.0
 11
4906.6075687964121
 21
4270.0
 31
0.0
 12
4899.9409021297452
 22
4310.0
 32
0.0
 13
4899.9409021297452
 23
4310.0
 33
0.0
  0
INSERT
  5
1B612
  8
SJC
  2
*U43
 10
0.0
 20
0.0
 30
0.0
  0
POINT
  5
1B613
  8
DEFPOINTS
 62
     0
 10
5002.5635618658052
 20
2690.0000000000009
 30
0.0
  0
POINT
  5
1B614
  8
DEFPOINTS
 62
     0
 10
5102.5635618658071
 20
4310.0
 30
0.0
  0
POINT
  5
1B615
  8
DEFPOINTS
 62
     0
 10
4899.9409021297452
 20
4310.0
 30
0.0
  0
ENDBLK
  5
1A479
  8
0
  0
BLOCK
  8
0
  2
*D13
 70
     1
 10
0.0
 20
0.0
 30
0.0
  3
*D13
  1

  0
LINE
  5
1B616
  8
SUNPOU
 10
6755.0000000000018
 20
2940.0
 30
0.0
 11
6480.6929404822458
 21
2940.0
 31
0.0
  0
LINE
  5
1B617
  8
SUNPOU
 10
6755.0
 20
4310.0
 30
0.0
 11
6480.6929404822458
 21
4310.0
 31
0.0
  0
LINE
  5
1B618
  8
SUNPOU
 10
6500.692940482244
 20
2980.0
 30
0.0
 11
6500.692940482244
 21
4270.0
 31
0.0
  0
SOLID
  5
1B619
  8
SUNPOU
 10
6494.026273815578
 20
2980.0
 30
0.0
 11
6507.3596071489119
 21
2980.0
 31
0.0
 12
6500.692940482244
 22
2940.0
 32
0.0
 13
6500.692940482244
 23
2940.0
 33
0.0
  0
SOLID
  5
1B61A
  8
SUNPOU
 10
6494.026273815578
 20
4270.0
 30
0.0
 11
6507.3596071489119
 21
4270.0
 31
0.0
 12
6500.692940482244
 22
4310.0
 32
0.0
 13
6500.692940482244
 23
4310.0
 33
0.0
  0
INSERT
  5
1B61B
  8
SJC
  2
*U44
 10
0.0
 20
0.0
 30
0.0
  0
POINT
  5
1B61C
  8
DEFPOINTS
 62
     0
 10
6775.0000000000027
 20
2940.0
 30
0.0
  0
POINT
  5
1B61D
  8
DEFPOINTS
 62
     0
 10
6775.0
 20
4310.0
 30
0.0
  0
POINT
  5
1B61E
  8
DEFPOINTS
 62
     0
 10
6500.692940482244
 20
4310.0
 30
0.0
  0
ENDBLK
  5
1A4BC
  8
0
  0
BLOCK
  8
0
  2
*D14
 70
     1
 10
0.0
 20
0.0
 30
0.0
  3
*D14
  1

  0
LINE
  5
1B61F
  8
SUNPOU
 10
5237.8154279995297
 20
4210.0000000000027
 30
0.0
 11
5861.3950857833806
 21
4210.0000000000027
 31
0.0
  0
LINE
  5
1B620
  8
SUNPOU
 10
5208.2302285324749
 20
4328.0000000000009
 30
0.0
 11
5861.3950857833806
 21
4328.0000000000009
 31
0.0
  0
LINE
  5
1B621
  8
SUNPOU
 10
5841.3950857833806
 20
4250.0000000000018
 30
0.0
 11
5841.3950857833806
 21
4288.0000000000009
 31
0.0
  0
SOLID
  5
1B622
  8
SUNPOU
 10
5834.7284191167137
 20
4250.0000000000018
 30
0.0
 11
5848.0617524500467
 21
4250.0000000000018
 31
0.0
 12
5841.3950857833806
 22
4210.0000000000027
 32
0.0
 13
5841.3950857833806
 23
4210.0000000000027
 33
0.0
  0
SOLID
  5
1B623
  8
SUNPOU
 10
5834.7284191167137
 20
4288.0000000000009
 30
0.0
 11
5848.0617524500467
 21
4288.0000000000009
 31
0.0
 12
5841.3950857833806
 22
4328.0000000000009
 32
0.0
 13
5841.3950857833806
 23
4328.0000000000009
 33
0.0
  0
INSERT
  5
1B624
  8
SJC
  2
*U45
 10
0.0
 20
0.0
 30
0.0
  0
POINT
  5
1B625
  8
DEFPOINTS
 62
     0
 10
5217.8154279995288
 20
4210.0000000000027
 30
0.0
  0
POINT
  5
1B626
  8
DEFPOINTS
 62
     0
 10
5188.2302285324758
 20
4328.0000000000009
 30
0.0
  0
POINT
  5
1B627
  8
DEFPOINTS
 62
     0
 10
5841.3950857833806
 20
4328.0000000000009
 30
0.0
  0
ENDBLK
  5
1A75A
  8
0
  0
BLOCK
  8
0
  2
*D15
 70
     1
 10
0.0
 20
0.0
 30
0.0
  3
*D15
  1

  0
LINE
  5
1B836
  8
SUNPOU
 10
6880.6666666666733
 20
4328.0000000000009
 30
0.0
 11
7375.0000000000036
 21
4328.0000000000009
 31
0.0
  0
LINE
  5
1B837
  8
SUNPOU
 10
7152.2932346655389
 20
2940.0
 30
0.0
 11
7375.0000000000036
 21
2939.9999999999991
 31
0.0
  0
LINE
  5
1B838
  8
SUNPOU
 10
7355.0000000000027
 20
4288.0000000000009
 30
0.0
 11
7355.0000000000027
 21
2980.0
 31
0.0
  0
SOLID
  5
1B839
  8
SUNPOU
 10
7348.3333333333358
 20
4288.0000000000009
 30
0.0
 11
7361.6666666666697
 21
4288.0000000000009
 31
0.0
 12
7355.0000000000027
 22
4328.0000000000009
 32
0.0
 13
7355.0000000000027
 23
4328.0000000000009
 33
0.0
  0
SOLID
  5
1B83A
  8
SUNPOU
 10
7348.3333333333358
 20
2980.0
 30
0.0
 11
7361.6666666666697
 21
2980.0
 31
0.0
 12
7355.0000000000027
 22
2939.9999999999991
 32
0.0
 13
7355.0000000000027
 23
2939.9999999999991
 33
0.0
  0
INSERT
  5
1B83B
  8
SJC
  2
*U50
 10
0.0
 20
0.0
 30
0.0
  0
POINT
  5
1B83C
  8
DEFPOINTS
 62
     0
 10
6860.6666666666733
 20
4328.0000000000009
 30
0.0
  0
POINT
  5
1B83D
  8
DEFPOINTS
 62
     0
 10
7132.2932346655398
 20
2940.0
 30
0.0
  0
POINT
  5
1B83E
  8
DEFPOINTS
 62
     0
 10
7355.0000000000027
 20
2939.9999999999991
 30
0.0
  0
ENDBLK
  5
1A7BC
  8
0
  0
BLOCK
  8
0
  2
*D16
 70
     1
 10
0.0
 20
0.0
 30
0.0
  3
*D16
  1

  0
LINE
  5
1B631
  8
SUNPOU
 10
6910.2518661337272
 20
4210.0000000000027
 30
0.0
 11
7245.0000000000027
 21
4210.0000000000027
 31
0.0
  0
LINE
  5
1B632
  8
SUNPOU
 10
7225.0000000000036
 20
3180.0
 30
0.0
 11
7225.0000000000036
 21
4170.0000000000036
 31
0.0
  0
SOLID
  5
1B633
  8
SUNPOU
 10
7218.3333333333367
 20
3180.0
 30
0.0
 11
7231.6666666666697
 21
3180.0
 31
0.0
 12
7225.0000000000036
 22
3140.0
 32
0.0
 13
7225.0000000000036
 23
3140.0
 33
0.0
  0
SOLID
  5
1B634
  8
SUNPOU
 10
7218.3333333333367
 20
4170.0000000000036
 30
0.0
 11
7231.6666666666697
 21
4170.0000000000036
 31
0.0
 12
7225.0000000000036
 22
4210.0000000000027
 32
0.0
 13
7225.0000000000036
 23
4210.0000000000027
 33
0.0
  0
INSERT
  5
1B635
  8
SJC
  2
*U46
 10
0.0
 20
0.0
 30
0.0
  0
POINT
  5
1B636
  8
DEFPOINTS
 62
     0
 10
7225.0000000000036
 20
3140.0
 30
0.0
  0
POINT
  5
1B637
  8
DEFPOINTS
 62
     0
 10
6890.2518661337272
 20
4210.0000000000027
 30
0.0
  0
POINT
  5
1B638
  8
DEFPOINTS
 62
     0
 10
7225.0000000000036
 20
4210.0000000000027
 30
0.0
  0
ENDBLK
  5
1A7C7
  8
0
  0
BLOCK
  8
0
  2
*D17
 70
     1
 10
0.0
 20
0.0
 30
0.0
  3
*D17
  1

  0
LINE
  5
1B639
  8
SUNPOU
 10
6910.2518661337272
 20
4210.0000000000027
 30
0.0
 11
7245.0000000000027
 21
4210.0000000000027
 31
0.0
  0
LINE
  5
1B63A
  8
SUNPOU
 10
6880.6666666666733
 20
4328.0000000000009
 30
0.0
 11
7245.0000000000027
 21
4328.0000000000009
 31
0.0
  0
LINE
  5
1B63B
  8
SUNPOU
 10
7225.0000000000036
 20
4250.0000000000027
 30
0.0
 11
7225.0000000000036
 21
4288.0000000000009
 31
0.0
  0
SOLID
  5
1B63C
  8
SUNPOU
 10
7218.3333333333367
 20
4250.0000000000027
 30
0.0
 11
7231.6666666666697
 21
4250.0000000000027
 31
0.0
 12
7225.0000000000036
 22
4210.0000000000027
 32
0.0
 13
7225.0000000000036
 23
4210.0000000000027
 33
0.0
  0
SOLID
  5
1B63D
  8
SUNPOU
 10
7218.3333333333367
 20
4288.0000000000009
 30
0.0
 11
7231.6666666666697
 21
4288.0000000000009
 31
0.0
 12
7225.0000000000036
 22
4328.0000000000009
 32
0.0
 13
7225.0000000000036
 23
4328.0000000000009
 33
0.0
  0
INSERT
  5
1B63E
  8
SJC
  2
*U47
 10
0.0
 20
0.0
 30
0.0
  0
POINT
  5
1B63F
  8
DEFPOINTS
 62
     0
 10
6890.2518661337272
 20
4210.0000000000027
 30
0.0
  0
POINT
  5
1B640
  8
DEFPOINTS
 62
     0
 10
6860.6666666666733
 20
4328.0000000000009
 30
0.0
  0
POINT
  5
1B641
  8
DEFPOINTS
 62
     0
 10
7225.0000000000036
 20
4328.0000000000009
 30
0.0
  0
ENDBLK
  5
1A7D3
  8
0
  0
BLOCK
  8
0
  2
*D18
 70
     1
 10
0.0
 20
0.0
 30
0.0
  3
*D18
  1

  0
LINE
  5
1B82D
  8
SUNPOU
 10
5503.7284191167173
 20
4328.0000000000009
 30
0.0
 11
5998.0617524500467
 21
4328.0000000000009
 31
0.0
  0
LINE
  5
1B82E
  8
SUNPOU
 10
5322.5635618658062
 20
2690.0
 30
0.0
 11
5998.0617524500467
 21
2690.0
 31
0.0
  0
LINE
  5
1B82F
  8
SUNPOU
 10
5978.0617524500476
 20
4288.0000000000009
 30
0.0
 11
5978.0617524500476
 21
2730.0
 31
0.0
  0
SOLID
  5
1B830
  8
SUNPOU
 10
5971.3950857833806
 20
4288.0000000000009
 30
0.0
 11
5984.7284191167146
 21
4288.0000000000009
 31
0.0
 12
5978.0617524500476
 22
4328.0000000000009
 32
0.0
 13
5978.0617524500476
 23
4328.0000000000009
 33
0.0
  0
SOLID
  5
1B831
  8
SUNPOU
 10
5971.3950857833806
 20
2730.0
 30
0.0
 11
5984.7284191167146
 21
2730.0
 31
0.0
 12
5978.0617524500476
 22
2690.0
 32
0.0
 13
5978.0617524500476
 23
2690.0
 33
0.0
  0
INSERT
  5
1B832
  8
SJC
  2
*U49
 10
0.0
 20
0.0
 30
0.0
  0
POINT
  5
1B833
  8
DEFPOINTS
 62
     0
 10
5483.7284191167164
 20
4328.0000000000009
 30
0.0
  0
POINT
  5
1B834
  8
DEFPOINTS
 62
     0
 10
5302.5635618658052
 20
2690.0
 30
0.0
  0
POINT
  5
1B835
  8
DEFPOINTS
 62
     0
 10
5978.0617524500476
 20
2690.0
 30
0.0
  0
ENDBLK
  5
1AA0C
  8
0
  0
BLOCK
  8
0
  2
*D19
 70
     1
 10
0.0
 20
0.0
 30
0.0
  3
*D19
  1

  0
LINE
  5
1B64B
  8
SUNPOU
 10
5533.3136185837702
 20
4210.0000000000027
 30
0.0
 11
5868.0617524500476
 21
4210.0000000000027
 31
0.0
  0
LINE
  5
1B64C
  8
SUNPOU
 10
5848.0617524500467
 20
3180.0
 30
0.0
 11
5848.0617524500467
 21
4170.0000000000036
 31
0.0
  0
SOLID
  5
1B64D
  8
SUNPOU
 10
5841.3950857833806
 20
3180.0
 30
0.0
 11
5854.7284191167137
 21
3180.0
 31
0.0
 12
5848.0617524500467
 22
3140.0
 32
0.0
 13
5848.0617524500467
 23
3140.0
 33
0.0
  0
SOLID
  5
1B64E
  8
SUNPOU
 10
5841.3950857833806
 20
4170.0000000000036
 30
0.0
 11
5854.7284191167137
 21
4170.0000000000036
 31
0.0
 12
5848.0617524500467
 22
4210.0000000000027
 32
0.0
 13
5848.0617524500467
 23
4210.0000000000027
 33
0.0
  0
INSERT
  5
1B64F
  8
SJC
  2
*U48
 10
0.0
 20
0.0
 30
0.0
  0
POINT
  5
1B650
  8
DEFPOINTS
 62
     0
 10
5848.0617524500467
 20
3140.0
 30
0.0
  0
POINT
  5
1B651
  8
DEFPOINTS
 62
     0
 10
5513.3136185837711
 20
4210.0000000000027
 30
0.0
  0
POINT
  5
1B652
  8
DEFPOINTS
 62
     0
 10
5848.0617524500467
 20
4210.0000000000027
 30
0.0
  0
ENDBLK
  5
1AA17
  8
0
  0
BLOCK
  8
0
  2
*D20
 70
     1
 10
0.0
 20
0.0
 30
0.0
  3
*D20
  1

  0
LINE
  5
1D08C
  8
SUNPOU
 62
     0
 10
2650.0
 20
4398.0000000000018
 30
0.0
 11
2650.0
 21
4530.7093171591987
 31
0.0
  0
LINE
  5
1D08D
  8
SUNPOU
 62
     0
 10
4650.0
 20
4398.0000000000018
 30
0.0
 11
4650.0
 21
4530.7093171591987
 31
0.0
  0
LINE
  5
1D08E
  8
SUNPOU
 62
     0
 10
2690.0
 20
4510.7093171591987
 30
0.0
 11
4610.0
 21
4510.7093171591987
 31
0.0
  0
SOLID
  5
1D08F
  8
SUNPOU
 62
     0
 10
2690.0
 20
4517.3759838258648
 30
0.0
 11
2690.0
 21
4504.0426504925308
 31
0.0
 12
2650.0
 22
4510.7093171591987
 32
0.0
 13
2650.0
 23
4510.7093171591987
 33
0.0
  0
SOLID
  5
1D090
  8
SUNPOU
 62
     0
 10
4610.0
 20
4517.3759838258648
 30
0.0
 11
4610.0
 21
4504.0426504925308
 31
0.0
 12
4650.0
 22
4510.7093171591987
 32
0.0
 13
4650.0
 23
4510.7093171591987
 33
0.0
  0
TEXT
  8
SUNPOU
  40
60
  5
1D39E
  62
0
  72
0
  71
0
 10
3530.00
 20
4458.51
 30
0.000000
  1
2000
  7
EXT08
  0
POINT
  5
1D092
  8
DEFPOINTS
 62
     0
 10
2650.0
 20
4378.0000000000018
 30
0.0
  0
POINT
  5
1D093
  8
DEFPOINTS
 62
     0
 10
4650.0
 20
4378.0000000000018
 30
0.0
  0
POINT
  5
1D094
  8
DEFPOINTS
 62
     0
 10
4650.0
 20
4510.7093171591987
 30
0.0
  0
ENDBLK
  5
1ACE4
  8
0
  0
BLOCK
  8
0
  2
A$C2C1202F5
 70
     0
 10
0.0
 20
0.0
 30
0.0
  3
A$C2C1202F5
  1

  0
ARC
  5
1ADCE
  8
SJC
 10
106.0660117438383
 20
20.00000323606309
 30
0.0
 40
20.0
 50
224.99999999999079
 51
44.999999999990777
  0
LINE
  5
1ADCF
  8
SJC
 10
-0.0000054341435316
 20
97.781749166582372
 30
0.0
 11
28.284265813315869
 21
126.0660204140449
 31
0.0
  0
POLYLINE
  5
1ADD0
  8
SJC
 66
     1
 10
0.0
 20
0.0
 30
0.0
  0
VERTEX
  5
1D095
  8
SJC
 10
120.208147367568
 20
34.142138859793697
 30
0.0
  0
VERTEX
  5
1D096
  8
SJC
 10
28.284265813315869
 20
126.0660204140449
 30
0.0
  0
SEQEND
  5
1D097
  8
SJC
  0
LINE
  5
1ADD1
  8
SJC
 10
91.923876120104964
 20
5.8578676123315736
 30
0.0
 11
-0.0000054341435316
 21
97.781749166582586
 31
0.0
  0
ARC
  5
1ADD2
  8
HASEN
 10
106.0660117438383
 20
20.00000323606309
 30
0.0
 40
20.0
 50
44.999999999990777
 51
224.99999999999079
  0
ENDBLK
  5
1ADD6
  8
0
  0
BLOCK
  8
0
  2
A$C5D865D77
 70
     0
 10
0.0
 20
0.0
 30
0.0
  3
A$C5D865D77
  1

  0
LINE
  5
1B1AB
  8
HATCH
 10
278.37451785606032
 20
53.487334931977777
 30
0.0
 11
312.45277627275209
 21
29.742483906153669
 31
0.0
1001
ACAD
1000
ASC_BOUNDS
1002
{
1070
    19
1002
}
  0
LINE
  5
1B1AC
  8
HATCH
 10
168.8720341008848
 20
55.231001032357661
 30
0.0
 11
202.9502925175766
 21
31.486150006533538
 31
0.0
1001
ACAD
1000
ASC_BOUNDS
1002
{
1070
    19
1002
}
  0
LINE
  5
1B1AD
  8
HATCH
 10
149.16173514002
 20
49.463691926642703
 30
0.0
 11
193.80333739109119
 21
18.358575519446731
 31
0.0
  0
LINE
  5
1B1AE
  8
HATCH
 10
258.66421889519552
 20
47.72002582626282
 30
0.0
 11
303.30582114626299
 21
16.614909419066858
 31
0.0
  0
LINE
  5
1B1AF
  8
HATCH
 10
238.99602871078969
 20
55.231001032357661
 30
0.0
 11
202.9423774924617
 21
3.4873349319782392
 31
0.0
  0
LINE
  5
1B1B0
  8
HATCH
 10
258.4969654795604
 20
55.231001032357661
 30
0.0
 11
222.44331426123239
 21
3.4873349319782392
 31
0.0
  0
LINE
  5
1B1B1
  8
HATCH
 10
219.49509194202261
 20
55.231001032357661
 30
0.0
 11
183.44144072369451
 21
3.487334931978693
 31
0.0
1001
ACAD
1000
ASC_BOUNDS
1002
{
1070
    19
1002
}
  0
LINE
  5
1B1B2
  8
HATCH
 10
328.99757569719799
 20
53.487334931977777
 30
0.0
 11
292.94392447886639
 21
1.743668831598824
 31
0.0
1001
ACAD
1000
ASC_BOUNDS
1002
{
1070
    19
1002
}
  0
LINE
  5
1B1B3
  8
HATCH
 10
147.77954018347731
 20
55.231001032357661
 30
0.0
 11
112.9408305060569
 21
5.2310010323581082
 31
0.0
  0
LINE
  5
1B1B4
  8
HATCH
 10
348.49851246596518
 20
53.487334931977777
 30
0.0
 11
312.44486124763711
 21
1.7436688315983699
 31
0.0
  0
LINE
  5
1B1B5
  8
HATCH
 10
367.99944923473589
 20
53.487334931977777
 30
0.0
 11
331.9457980164043
 21
1.7436688315983699
 31
0.0
  0
LINE
  5
1B1B6
  8
HATCH
 10
140.01478001353459
 20
36.336117439554528
 30
0.0
 11
184.65638226460209
 21
5.2310010323581082
 31
0.0
  0
LINE
  5
1B1B7
  8
HATCH
 10
249.5172637687065
 20
34.592451339174659
 30
0.0
 11
294.15886601977758
 21
3.4873349319782392
 31
0.0
  0
LINE
  5
1B1B8
  8
HATCH
 10
57.872034100884768
 20
55.231001032357661
 30
0.0
 11
92.140515198560024
 21
31.3536077513977
 31
0.0
1001
ACAD
1000
ASC_BOUNDS
1002
{
1070
    19
1002
}
  0
LINE
  5
1B1B9
  8
HATCH
 10
38.161735140020028
 20
49.463691926642703
 30
0.0
 11
82.993560072070977
 21
18.226033264309532
 31
0.0
  0
LINE
  5
1B1BA
  8
HATCH
 10
108.77766664593941
 20
55.231001032357661
 30
0.0
 11
73.938956968519051
 21
5.2310010323581082
 31
0.0
1001
ACAD
1000
ASC_BOUNDS
1002
{
1070
    19
1002
}
  0
LINE
  5
1B1BB
  8
HATCH
 10
17.278603414706591
 20
55.231001032357661
 30
0.0
 11
0.0000292760050797
 21
30.433047407368122
 31
0.0
  0
LINE
  5
1B1BC
  8
HATCH
 10
36.779540183477373
 20
55.231001032357661
 30
0.0
 11
1.940830506056954
 21
5.2310010323581082
 31
0.0
1001
ACAD
1000
ASC_BOUNDS
1002
{
1070
    19
1002
}
  0
LINE
  5
1B1BD
  8
HATCH
 10
29.014780013534619
 20
36.336117439554528
 30
0.0
 11
73.656382264602144
 21
5.2310010323581082
 31
0.0
  0
LINE
  5
1B1BE
  8
HATCH
 10
128.27860341470659
 20
55.231001032357661
 30
0.0
 11
93.439893737286184
 21
5.2310010323581082
 31
0.0
  0
LINE
  5
1B1BF
  8
HATCH
 10
368.16670265036743
 20
45.976359725882951
 30
0.0
 11
412.80830490143848
 21
14.871243318686989
 31
0.0
  0
LINE
  5
1B1C0
  8
HATCH
 10
387.87700161123212
 20
51.743668831597908
 30
0.0
 11
421.95526002792758
 21
27.9988178057738
 31
0.0
1001
ACAD
1000
ASC_BOUNDS
1002
{
1070
    19
1002
}
  0
LINE
  5
1B1C1
  8
HATCH
 10
440.92994253419238
 20
55.231001032357192
 30
0.0
 11
402.44640823404183
 21
0.0000027312189559
 31
0.0
1001
ACAD
1000
ASC_BOUNDS
1002
{
1070
    19
1002
}
  0
LINE
  5
1B1C2
  8
HATCH
 10
359.01974752388202
 20
32.84878523879479
 30
0.0
 11
403.66134977495312
 21
1.7436688315983699
 31
0.0
  0
LINE
  5
1B1C3
  8
HATCH
 10
497.37948536640761
 20
50.000002731218053
 30
0.0
 11
531.45774378309943
 21
26.255151705393931
 31
0.0
1001
ACAD
1000
ASC_BOUNDS
1002
{
1070
    19
1002
}
  0
LINE
  5
1B1C4
  8
HATCH
 10
477.6691864055428
 20
44.232693625503089
 30
0.0
 11
522.31078865661402
 21
13.12757721830712
 31
0.0
  0
LINE
  5
1B1C5
  8
HATCH
 10
460.43087930295951
 20
55.231001032357661
 30
0.0
 11
421.9473450028126
 21
0.0000027312185011
 31
0.0
  0
LINE
  5
1B1C6
  8
HATCH
 10
479.93181607173022
 20
55.231001032357661
 30
0.0
 11
441.44828177157967
 21
0.0000027312185011
 31
0.0
  0
LINE
  5
1B1C7
  8
HATCH
 10
468.52223127905739
 20
31.105119138414921
 30
0.0
 11
513.16383353012486
 21
0.0000027312185011
 31
0.0
  0
ENDBLK
  5
1B1CB
  8
0
  0
BLOCK
  8
0
  2
A$C0841633C
 70
     0
 10
0.0
 20
0.0
 30
0.0
  3
A$C0841633C
  1

  0
CIRCLE
  5
1B1D0
  8
HATCH
 10
86.871951623114001
 20
102.18482730461891
 30
0.0
 40
5.0
  0
CIRCLE
  5
1B1D1
  8
HATCH
 10
312.52501605296129
 20
93.016453854427255
 30
0.0
 40
5.0
  0
CIRCLE
  5
1B1D2
  8
HATCH
 10
268.49514324019037
 20
89.34911683192604
 30
0.0
 40
3.0
  0
CIRCLE
  5
1B1D3
  8
HATCH
 10
248.31477862033711
 20
32.505135533668643
 30
0.0
 40
3.0
  0
CIRCLE
  5
1B1D4
  8
HATCH
 10
143.74390190960551
 20
4.9999945871336422
 30
0.0
 40
5.0
  0
CIRCLE
  5
1B1D5
  8
HATCH
 10
85.037364842981333
 20
36.172513748087567
 30
0.0
 40
5.0
  0
CIRCLE
  5
1B1D6
  8
HATCH
 10
28.849539516737419
 20
67.345012313082407
 30
0.0
 40
3.0
  0
CIRCLE
  5
1B1D7
  8
HATCH
 10
286.84092107991091
 20
201.20333883133429
 30
0.0
 40
3.0
  0
CIRCLE
  5
1B1D8
  8
HATCH
 10
338.20908103881078
 20
129.6899682511534
 30
0.0
 40
3.0
  0
CIRCLE
  5
1B1D9
  8
HATCH
 10
341.87828458627342
 20
170.0308196703804
 30
0.0
 40
5.0
  0
CIRCLE
  5
1B1DA
  8
HATCH
 10
264.82599966712593
 20
146.1930569382657
 30
0.0
 40
5.0
  0
CIRCLE
  5
1B1DB
  8
HATCH
 10
70.360730576325295
 20
203.03701764056399
 30
0.0
 40
8.0
  0
CIRCLE
  5
1B1DC
  8
HATCH
 10
27.014952736604759
 20
135.19100467884391
 30
0.0
 40
3.0
  0
CIRCLE
  5
1B1DD
  8
HATCH
 10
63.022413442997269
 20
159.02878800691809
 30
0.0
 40
3.0
  0
CIRCLE
  5
1B1DE
  8
HATCH
 10
325.36706353948472
 20
234.20951620555891
 30
0.0
 40
8.0
  0
CIRCLE
  5
1B1DF
  8
HATCH
 10
5.0000313238197123
 20
225.0411221594081
 30
0.0
 40
5.0
  0
ENDBLK
  5
1B1E3
  8
0
  0
BLOCK
  8
0
  2
*D24
 70
     1
 10
0.0
 20
0.0
 30
0.0
  3
*D24
  1

  0
LINE
  5
1D0B2
  8
SUNPOU
 62
     0
 10
529.61718471919255
 20
3940.0
 30
0.0
 11
347.54800335775332
 21
3940.0
 31
0.0
  0
LINE
  5
1D0B3
  8
SUNPOU
 62
     0
 10
529.61718471919255
 20
3670.0
 30
0.0
 11
347.54800335775332
 21
3670.0
 31
0.0
  0
LINE
  5
1D0B4
  8
SUNPOU
 62
     0
 10
367.54800335775332
 20
3900.0
 30
0.0
 11
367.54800335775332
 21
3710.0
 31
0.0
  0
SOLID
  5
1D0B5
  8
SUNPOU
 62
     0
 10
360.88133669108657
 20
3900.0
 30
0.0
 11
374.21467002442
 21
3900.0
 31
0.0
 12
367.54800335775332
 22
3940.0
 32
0.0
 13
367.54800335775332
 23
3940.0
 33
0.0
  0
SOLID
  5
1D0B6
  8
SUNPOU
 62
     0
 10
360.88133669108657
 20
3710.0
 30
0.0
 11
374.21467002441989
 21
3710.0
 31
0.0
 12
367.54800335775332
 22
3670.0
 32
0.0
 13
367.54800335775332
 23
3670.0
 33
0.0
  0
TEXT
  8
SUNPOU
  40
60
  5
1D39F
  62
0
  72
0
  71
0
 10
193.548
 20
3698.80
 30
0.000000
  1
270
  7
EXT08
  0
POINT
  5
1D0B8
  8
DEFPOINTS
 62
     0
 10
549.61718471919255
 20
3940.0
 30
0.0
  0
POINT
  5
1D0B9
  8
DEFPOINTS
 62
     0
 10
549.61718471919255
 20
3670.0
 30
0.0
  0
POINT
  5
1D0BA
  8
DEFPOINTS
 62
     0
 10
367.54800335775332
 20
3670.0
 30
0.0
  0
ENDBLK
  5
1B37E
  8
0
  0
BLOCK
  8
0
  2
*D25
 70
     1
 10
0.0
 20
0.0
 30
0.0
  3
*D25
  1

  0
LINE
  5
1D0D5
  8
SUNPOU
 62
     0
 10
5822.5635618658089
 20
3140.0000000000018
 30
0.0
 11
5868.0617524500476
 21
3140.0000000000018
 31
0.0
  0
LINE
  5
1D0D6
  8
SUNPOU
 62
     0
 10
5322.5635618658062
 20
2690.0
 30
0.0
 11
5868.0617524500476
 21
2690.0
 31
0.0
  0
LINE
  5
1D0D7
  8
SUNPOU
 62
     0
 10
5848.0617524500467
 20
3100.0000000000032
 30
0.0
 11
5848.0617524500467
 21
2730.0
 31
0.0
  0
SOLID
  5
1D0D8
  8
SUNPOU
 62
     0
 10
5841.3950857833806
 20
3100.0000000000032
 30
0.0
 11
5854.7284191167137
 21
3100.0000000000032
 31
0.0
 12
5848.0617524500467
 22
3140.0000000000018
 32
0.0
 13
5848.0617524500467
 23
3140.0000000000018
 33
0.0
  0
SOLID
  5
1D0D9
  8
SUNPOU
 62
     0
 10
5841.3950857833806
 20
2730.0
 30
0.0
 11
5854.7284191167137
 21
2730.0
 31
0.0
 12
5848.0617524500467
 22
2690.0
 32
0.0
 13
5848.0617524500467
 23
2690.0
 33
0.0
  0
TEXT
  8
SUNPOU
  40
60
  5
1D3A0
  62
0
  72
0
  71
0
 10
5674.06
 20
2808.80
 30
0.000000
  1
450
  7
EXT08
  0
POINT
  5
1D0DB
  8
DEFPOINTS
 62
     0
 10
5802.5635618658098
 20
3140.0000000000018
 30
0.0
  0
POINT
  5
1D0DC
  8
DEFPOINTS
 62
     0
 10
5302.5635618658052
 20
2690.0
 30
0.0
  0
POINT
  5
1D0DD
  8
DEFPOINTS
 62
     0
 10
5848.0617524500467
 20
2690.0
 30
0.0
  0
ENDBLK
  5
1B43E
  8
0
  0
BLOCK
  8
0
  2
*D26
 70
     1
 10
0.0
 20
0.0
 30
0.0
  3
*D26
  1

  0
LINE
  5
1D122
  8
SUNPOU
 62
     0
 10
529.61718471919255
 20
3400.0
 30
0.0
 11
347.5480033577532
 21
3400.0
 31
0.0
  0
LINE
  5
1D123
  8
SUNPOU
 62
     0
 10
529.61718471919255
 20
3670.0
 30
0.0
 11
347.54800335775332
 21
3670.0
 31
0.0
  0
LINE
  5
1D124
  8
SUNPOU
 62
     0
 10
367.5480033577532
 20
3440.0
 30
0.0
 11
367.54800335775332
 21
3630.0
 31
0.0
  0
SOLID
  5
1D125
  8
SUNPOU
 62
     0
 10
360.88133669108652
 20
3440.0
 30
0.0
 11
374.21467002441989
 21
3440.0
 31
0.0
 12
367.5480033577532
 22
3400.0
 32
0.0
 13
367.5480033577532
 23
3400.0
 33
0.0
  0
SOLID
  5
1D126
  8
SUNPOU
 62
     0
 10
360.88133669108657
 20
3630.0
 30
0.0
 11
374.21467002441989
 21
3630.0
 31
0.0
 12
367.54800335775332
 22
3670.0
 32
0.0
 13
367.54800335775332
 23
3670.0
 33
0.0
  0
TEXT
  8
SUNPOU
  40
60
  5
1D3A1
  62
0
  72
0
  71
0
 10
193.548
 20
3428.80
 30
0.000000
  1
270
  7
EXT08
  0
POINT
  5
1D128
  8
DEFPOINTS
 62
     0
 10
549.61718471919255
 20
3400.0
 30
0.0
  0
POINT
  5
1D129
  8
DEFPOINTS
 62
     0
 10
549.61718471919255
 20
3670.0
 30
0.0
  0
POINT
  5
1D12A
  8
DEFPOINTS
 62
     0
 10
367.54800335775332
 20
3670.0
 30
0.0
  0
ENDBLK
  5
1B71B
  8
0
  0
BLOCK
  8
0
  2
A$C12142988
 70
     0
 10
0.0
 20
0.0
 30
0.0
  3
A$C12142988
  1

  0
LINE
  5
1BAF4
  8
SJC2
 10
4.0041246783757742
 20
2.7500045166125342
 30
0.0
 11
4.8494241399960174
 21
2.7500045166125342
 31
0.0
  0
LINE
  5
1BAF5
  8
SJC2
 10
6.004124678375546
 20
2.7500045166125342
 30
0.0
 11
6.8494241399960174
 21
2.7500045166125342
 31
0.0
  0
LINE
  5
1BAF6
  8
SJC2
 10
8.0041246783753195
 20
2.7500045166123068
 30
0.0
 11
10.1500052628171
 21
2.7500045166125342
 31
0.0
  0
LINE
  5
1BAF7
  8
SJC2
 10
12.900005262816419
 20
0.0000045166125346
 30
0.0
 11
13.000005262816559
 21
0.0000045166125346
 31
0.0
  0
LINE
  5
1BAF8
  8
SJC2
 10
12.900005262816871
 20
8.5000045166123073
 30
0.0
 11
13.000005262816559
 21
8.5000045166125346
 31
0.0
  0
LINE
  5
1BAF9
  8
SJC2
 10
3.6213256063751942
 20
5.7500045166123073
 30
0.0
 11
4.5814749475655381
 21
5.7500045166132159
 31
0.0
  0
LINE
  5
1BAFA
  8
SJC2
 10
5.7361754859446128
 20
5.7500045166125338
 30
0.0
 11
6.5814749475650842
 21
5.7500045166125338
 31
0.0
  0
LINE
  5
1BAFB
  8
SJC2
 10
7.7361754859439307
 20
5.750004516612079
 30
0.0
 11
8.5814749475646295
 21
5.7500045166123073
 31
0.0
  0
LINE
  5
1BAFC
  8
SJC2
 10
9.7361754859443863
 20
5.750004516612762
 30
0.0
 11
10.1500052628171
 21
5.7500045166125338
 31
0.0
  0
LINE
  5
1BAFD
  8
SJC2
 10
13.000005262816559
 20
0.0000045166125346
 30
0.0
 11
13.00000526281633
 21
8.5000045166125346
 31
0.0
  0
LINE
  5
1BAFE
  8
SJC2
 10
12.90000526281665
 20
0.0000045166125346
 30
0.0
 11
12.900005262816871
 21
8.5000045166123073
 31
0.0
  0
LINE
  5
1BAFF
  8
SJC2
 10
12.90000526281665
 20
8.5000045166125346
 30
0.0
 11
10.15000526281756
 21
5.7500045166125338
 31
0.0
  0
LINE
  5
1BB00
  8
SJC2
 10
12.90000526281665
 20
0.0000045166125346
 30
0.0
 11
10.150005262817331
 21
2.7500045166125342
 31
0.0
  0
LINE
  5
1BB01
  8
SJC2
 10
10.15000526281756
 20
5.7500045166125338
 30
0.0
 11
10.150005262817331
 21
2.7500045166125342
 31
0.0
  0
LINE
  5
1BB02
  8
SJC2
 10
0.0000052628165577
 20
4.2500045166125338
 30
0.0
 11
3.6213256063758759
 21
5.7500045166123073
 31
0.0
  0
LINE
  5
1BB03
  8
SJC2
 10
0.0000052628165577
 20
4.2500045166125338
 30
0.0
 11
2.9983955624684309
 21
3.0080305892095112
 31
0.0
  0
LINE
  5
1BB04
  8
SJC2
 10
7.1380992745910126
 20
2.250004516612079
 30
0.0
 11
9.447500351349845
 21
6.2500045166125338
 31
0.0
  0
LINE
  5
1BB05
  8
SJC2
 10
8.0041246783753195
 20
2.7500045166123068
 30
0.0
 11
9.7361754859446137
 21
5.7500045166125338
 31
0.0
  0
LINE
  5
1BB06
  8
SJC2
 10
6.8494241399962439
 20
2.7500045166125342
 30
0.0
 11
8.5814749475648568
 21
5.7500045166125338
 31
0.0
  0
LINE
  5
1BB07
  8
SJC2
 10
5.1380992745907861
 20
2.2500045166125342
 30
0.0
 11
7.4475003513493903
 21
6.2500045166125338
 31
0.0
  0
LINE
  5
1BB08
  8
SJC2
 10
6.004124678375546
 20
2.7500045166123068
 30
0.0
 11
7.7361754859443863
 21
5.7500045166125338
 31
0.0
  0
LINE
  5
1BB09
  8
SJC2
 10
4.8494241399962439
 20
2.7500045166123068
 30
0.0
 11
6.5814749475650842
 21
5.750004516612079
 31
0.0
  0
LINE
  5
1BB0A
  8
SJC2
 10
6.581474947564856
 20
5.7500045166123073
 30
0.0
 11
7.4475003513493903
 21
6.2500045166125338
 31
0.0
  0
LINE
  5
1BB0B
  8
SJC2
 10
7.4475003513493903
 20
6.2500045166125338
 30
0.0
 11
7.7361754859443863
 21
5.7500045166125338
 31
0.0
  0
LINE
  5
1BB0C
  8
SJC2
 10
8.5814749475650842
 20
5.7500045166125338
 30
0.0
 11
9.4475003513493903
 21
6.2500045166125338
 31
0.0
  0
LINE
  5
1BB0D
  8
SJC2
 10
9.4475003513493903
 20
6.2500045166125338
 30
0.0
 11
9.7361754859443863
 21
5.7500045166125338
 31
0.0
  0
LINE
  5
1BB0E
  8
SJC2
 10
4.8494241399962439
 20
2.7500045166125342
 30
0.0
 11
5.1380992745910126
 21
2.2500045166125342
 31
0.0
  0
LINE
  5
1BB0F
  8
SJC2
 10
5.1380992745910126
 20
2.2500045166125342
 30
0.0
 11
6.004124678375546
 21
2.7500045166125342
 31
0.0
  0
LINE
  5
1BB10
  8
SJC2
 10
6.8494241399962439
 20
2.7500045166125342
 30
0.0
 11
7.1380992745910126
 21
2.2500045166125342
 31
0.0
  0
LINE
  5
1BB11
  8
SJC2
 10
7.1380992745910126
 20
2.2500045166125342
 30
0.0
 11
8.0041246783755469
 21
2.7500045166125342
 31
0.0
  0
LINE
  5
1BB12
  8
SJC2
 10
3.1380992745907861
 20
2.2500045166125342
 30
0.0
 11
5.4475003513493903
 21
6.2500045166125338
 31
0.0
  0
LINE
  5
1BB13
  8
SJC2
 10
4.004124678375546
 20
2.7500045166123068
 30
0.0
 11
5.7361754859443863
 21
5.7500045166125338
 31
0.0
  0
LINE
  5
1BB14
  8
SJC2
 10
2.8494241399962439
 20
2.7500045166123068
 30
0.0
 11
4.5814749475650842
 21
5.750004516612079
 31
0.0
  0
LINE
  5
1BB15
  8
SJC2
 10
4.581474947564856
 20
5.7500045166123073
 30
0.0
 11
5.4475003513493903
 21
6.2500045166125338
 31
0.0
  0
LINE
  5
1BB16
  8
SJC2
 10
5.4475003513493903
 20
6.2500045166125338
 30
0.0
 11
5.7361754859443863
 21
5.7500045166125338
 31
0.0
  0
LINE
  5
1BB17
  8
SJC2
 10
2.8494241399962439
 20
2.7500045166125342
 30
0.0
 11
3.138099274591013
 21
2.2500045166125342
 31
0.0
  0
LINE
  5
1BB18
  8
SJC2
 10
3.138099274591013
 20
2.2500045166125342
 30
0.0
 11
4.004124678375546
 21
2.7500045166125342
 31
0.0
  0
ENDBLK
  5
1BB19
  8
0
  0
BLOCK
  8
0
  2
A$C315B27E3
 70
     0
 10
0.0
 20
0.0
 30
0.0
  3
A$C315B27E3
  1

  0
LINE
  5
1BB5D
  8
HASEN
 10
2.0143228936913138
 20
-0.0000027215905902
 30
0.0
 11
4.9856902646888548
 21
-0.0000027215905902
 31
0.0
  0
LINE
  5
1BB5E
  8
HASEN
 10
0.0000065791900852
 20
2.5999972784093179
 30
0.0
 11
7.0000065791900852
 21
2.5999972784093179
 31
0.0
  0
LINE
  5
1BB5F
  8
HASEN
 10
0.0000065791900852
 20
2.5999972784093179
 30
0.0
 11
0.0717432324127003
 21
1.780043580051369
 31
0.0
  0
LINE
  5
1BB60
  8
HASEN
 10
7.0000065791900852
 20
2.5999972784093179
 30
0.0
 11
6.92826992596747
 21
1.780043580051369
 31
0.0
  0
ARC
  5
1BB61
  8
HASEN
 10
2.0143228936913138
 20
1.949997278409227
 30
0.0
 40
1.95
 50
184.9999999999464
 51
270.0
  0
ARC
  5
1BB62
  8
HASEN
 10
4.9856902646888548
 20
1.949997278409227
 30
0.0
 40
1.95
 50
270.0
 51
355.0000000000536
  0
ENDBLK
  5
1BB63
  8
0
  0
BLOCK
  8
0
  2
A$C7
 70
     0
 10
0.0
 20
0.0
 30
0.0
  3
A$C7
  1

  0
CIRCLE
  5
1C5D0
  8
SJC2
 10
5.5391237169674241
 20
5.0769638849797039
 30
0.0
 40
5.0
  0
LINE
  5
1C5D1
  8
SJC2
 10
7.4836673652303034
 20
2.4253134555297029
 30
0.0
 11
5.7159004122636361
 21
4.1930804084963711
 31
0.0
  0
LINE
  5
1C5D2
  8
SJC2
 10
6.423007193450303
 20
4.9001871896834919
 30
0.0
 11
8.1907741464169703
 21
3.132420236716825
 31
0.0
  0
LINE
  5
1C5D3
  8
SJC2
 10
5.7159004122636361
 20
5.9608473614630384
 30
0.0
 11
7.4836673652303034
 21
7.7286143144292501
 31
0.0
  0
LINE
  5
1C5D4
  8
SJC2
 10
6.423007193450303
 20
5.2537405802768262
 30
0.0
 11
8.1907741464169703
 21
7.021507533242584
 31
0.0
  0
ARC
  5
1C5D5
  8
SJC2
 10
3.2410266781112109
 20
7.3750609238359166
 30
0.0
 40
0.5
 50
135.0
 51
225.0
  0
LINE
  5
1C5D6
  8
SJC2
 10
2.887473287517877
 20
7.7286143144292501
 30
0.0
 11
2.8874732875174232
 21
7.7286143144292501
 31
0.0
  0
ARC
  5
1C5D7
  8
SJC2
 10
3.2410266781107562
 20
7.3750609238359166
 30
0.0
 40
0.5
 50
45.0
 51
135.0
  0
ARC
  5
1C5D8
  8
SJC2
 10
3.241026678110301
 20
2.7788668461234911
 30
0.0
 40
0.5
 50
135.0
 51
225.0
  0
LINE
  5
1C5D9
  8
SJC2
 10
2.887473287517877
 20
2.4253134555301581
 30
0.0
 11
2.8874732875174232
 21
2.4253134555301581
 31
0.0
  0
ARC
  5
1C5DA
  8
SJC2
 10
3.2410266781107562
 20
2.7788668461234911
 30
0.0
 40
0.5
 50
224.9999999999996
 51
315.0
  0
ARC
  5
1C5DB
  8
SJC2
 10
4.4784635451874228
 20
5.0769638849797039
 30
0.0
 40
0.25
 50
315.0
 51
44.999999999998003
  0
ARC
  5
1C5DC
  8
SJC2
 10
6.5997838887469689
 20
5.0769638849797039
 30
0.0
 40
0.25
 50
135.0
 51
225.0
  0
LINE
  5
1C5DD
  8
SJC2
 10
5.3623470216703017
 20
5.9608473614630384
 30
0.0
 11
3.5945800687040901
 21
7.7286143144292501
 31
0.0
  0
ARC
  5
1C5DE
  8
SJC2
 10
5.5391237169669694
 20
6.1376240567597051
 30
0.0
 40
0.25
 50
225.0
 51
314.9999999999979
  0
LINE
  5
1C5DF
  8
SJC2
 10
3.5945800687045439
 20
2.4253134555301581
 30
0.0
 11
5.3623470216703017
 21
4.1930804084963711
 31
0.0
  0
ARC
  5
1C5E0
  8
SJC2
 10
5.5391237169669694
 20
4.0163037131997044
 30
0.0
 40
0.25
 50
44.99999999999401
 51
135.0
  0
LINE
  5
1C5E1
  8
SJC2
 10
4.6552402404836348
 20
5.2537405802768262
 30
0.0
 11
2.887473287517877
 21
7.021507533242584
 31
0.0
  0
LINE
  5
1C5E2
  8
SJC2
 10
2.887473287517877
 20
3.132420236716825
 30
0.0
 11
4.6552402404836348
 21
4.9001871896834919
 31
0.0
  0
LINE
  5
1C5E3
  8
SJC2
 10
8.1907741464169703
 20
7.7286143144292501
 30
0.0
 11
8.1907741464165156
 21
7.7286143144292501
 31
0.0
  0
ARC
  5
1C5E4
  8
SJC2
 10
7.837220755823636
 20
7.3750609238359166
 30
0.0
 40
0.5
 50
315.0
 51
45.0
  0
ARC
  5
1C5E5
  8
SJC2
 10
7.8372207558231821
 20
7.3750609238359166
 30
0.0
 40
0.5
 50
45.0
 51
134.99999999999989
  0
ARC
  5
1C5E6
  8
SJC2
 10
7.837220755823636
 20
2.7788668461234911
 30
0.0
 40
0.5
 50
315.0
 51
44.999999999999758
  0
LINE
  5
1C5E7
  8
SJC2
 10
8.1907741464169703
 20
2.4253134555301581
 30
0.0
 11
8.1907741464169703
 21
2.4253134555301581
 31
0.0
  0
ARC
  5
1C5E8
  8
SJC2
 10
7.837220755823636
 20
2.7788668461234911
 30
0.0
 40
0.5
 50
224.9999999999998
 51
314.99999999999932
  0
ENDBLK
  5
1C5E9
  8
0
  0
BLOCK
  8
0
  2
A$CD2
 70
     0
 10
0.0
 20
0.0
 30
0.0
  3
A$CD2
  1

  0
INSERT
  5
1C5EC
  8
HATCH
  2
A$C7
 10
5.3649640121302582
 20
3.1876241380141428
 30
0.0
  0
ENDBLK
  5
1C5ED
  8
0
  0
BLOCK
  8
0
  2
A$C4E2029BC
 70
     0
 10
0.0
 20
0.0
 30
0.0
  3
A$C4E2029BC
  1

  0
CIRCLE
  5
1C5F1
  8
SJC2
 10
4.999997757768142
 20
5.0000024490054784
 30
0.0
 40
5.0
  0
INSERT
  5
1C5F2
  8
MOJI
  2
A$CD2
 10
-4.26847681196341
 20
-2.0248973705402018
 30
0.0
 41
0.8500000000003637
 42
0.8500000000003637
 43
0.85
  0
ENDBLK
  5
1C5F3
  8
0
  0
BLOCK
  8
0
  2
A$C36520080
 70
     0
 10
0.0
 20
0.0
 30
0.0
  3
A$C36520080
  1

  0
LINE
  5
1C8C1
  8
SJC
 10
95.001371647877477
 20
38.488159235041849
 30
0.0
 11
95.001371647877534
 21
27.486331971943859
 31
0.0
  0
LINE
  5
1C8C2
  8
SJC
 10
120.00137164787741
 20
38.488159235046403
 30
0.0
 11
95.00137164787634
 21
38.488159235044122
 31
0.0
  0
LINE
  5
1C8C3
  8
SJC
 10
66.000001200611166
 20
68.488159235051171
 30
0.0
 11
75.016418953764742
 21
68.488159235051171
 31
0.0
  0
LINE
  5
1C8C4
  8
SJC
 10
81.000001200608722
 20
68.488159235050944
 30
0.0
 11
90.016418953764784
 21
68.488159235050944
 31
0.0
  0
LINE
  5
1C8C5
  8
SJC
 10
96.000001200608096
 20
68.488159235050944
 30
0.0
 11
105.0164189537649
 21
68.488159235050944
 31
0.0
  0
LINE
  5
1C8C6
  8
SJC
 10
111.0000012006074
 20
68.488159235051398
 30
0.0
 11
112.5013716478777
 21
68.488159235051398
 31
0.0
  0
LINE
  5
1C8C7
  8
SJC
 10
120.209603232478
 20
68.488159235051398
 30
0.0
 11
139.59814221335759
 21
68.488159235051626
 31
0.0
  0
LINE
  5
1C8C8
  8
SJC
 10
120.0013716478754
 20
67.489261076985713
 30
0.0
 11
120.0013716478754
 21
67.488159235041849
 31
0.0
  0
LINE
  5
1C8C9
  8
SJC
 10
139.59814221335091
 20
68.488159235052308
 30
0.0
 11
142.9366968952815
 21
68.19313070456792
 31
0.0
  0
LINE
  5
1C8CA
  8
SJC
 10
135.02677328756201
 20
2.9072469044715481
 30
0.0
 11
128.81306688854531
 21
0.2056354266378548
 31
0.0
  0
LINE
  5
1C8CB
  8
SJC
 10
120.0013716478777
 20
27.488159235041621
 30
0.0
 11
125.3698589372341
 21
1.983370871194438
 31
0.0
  0
LINE
  5
1C8CC
  8
SJC
 10
137.96029817538121
 20
6.6422212559948539
 30
0.0
 11
147.42693360156699
 21
62.361881154901539
 31
0.0
  0
LINE
  5
1C8CD
  8
SJC
 10
116.00137164787679
 20
38.488159235042083
 30
0.0
 11
116.5013716478763
 21
38.488159235042083
 31
0.0
  0
LINE
  5
1C8CE
  8
SJC
 10
116.00137164787679
 20
63.988159235041387
 30
0.0
 11
116.5013716478763
 21
63.988159235041387
 31
0.0
  0
ARC
  5
1C8CF
  8
SJC
 10
116.00137164787679
 20
67.488159235041849
 30
0.0
 40
3.5
 50
180.0
 51
270.0
  0
ARC
  5
1C8D0
  8
SJC
 10
127.8162516100094
 20
2.4983105672706638
 30
0.0
 40
2.5
 50
191.88663200406231
 51
293.4985656759419
  0
ARC
  5
1C8D1
  8
SJC
 10
133.0331427304902
 20
7.4925971857378491
 30
0.0
 40
5.0
 50
293.4985656759419
 51
350.2078094440908
  0
ARC
  5
1C8D2
  8
SJC
 10
142.49977815670781
 20
63.212257084821658
 30
0.0
 40
5.0
 50
350.2078094440908
 51
84.986886244970336
  0
ARC
  5
1C8D3
  8
SJC
 10
122.5013716478754
 20
67.489261076985713
 30
0.0
 40
2.5
 50
156.44937121250479
 51
180.0
  0
ARC
  5
1C8D4
  8
SJC
 10
116.5013716478763
 20
67.488159235041849
 30
0.0
 40
3.5
 50
270.0
 51
0.0
  0
LINE
  5
1C8D5
  8
SJC
 10
120.0013716478754
 20
67.489261076985713
 30
0.0
 11
120.0013716478777
 21
27.488159235041621
 31
0.0
  0
LINE
  5
1C8D6
  8
SJC
 10
116.00137164787679
 20
38.488159235042083
 30
0.0
 11
116.5013716478763
 21
38.488159235042083
 31
0.0
  0
LINE
  5
1C8D7
  8
SJC
 10
112.5013716478777
 20
67.488159235041849
 30
0.0
 11
112.5013716478777
 21
68.488159235051853
 31
0.0
  0
LINE
  5
1C8D8
  8
SJC
 10
116.00137164787679
 20
63.988159235042083
 30
0.0
 11
116.5013716478763
 21
63.988159235042083
 31
0.0
  0
LINE
  5
1C8D9
  8
SJC
 10
87.500001200554166
 20
37.488159235041621
 30
0.0
 11
82.500001200551878
 21
37.488159235042993
 31
0.0
  0
LINE
  5
1C8DA
  8
SJC
 10
50.000001200551878
 20
42.488159235041621
 30
0.0
 11
55.000001200551878
 21
42.488159235041621
 31
0.0
  0
LINE
  5
1C8DB
  8
SJC
 10
31.164400187856931
 20
67.682225732924962
 30
0.0
 11
45.000001200551878
 21
69.988159235040484
 31
0.0
  0
LINE
  5
1C8DC
  8
SJC
 10
30.000001200551878
 20
69.98815923504003
 30
0.0
 11
30.000001200551878
 21
68.668619656757301
 31
0.0
  0
LINE
  5
1C8DD
  8
SJC
 10
46.16440018785692
 20
67.682225732924962
 30
0.0
 11
60.000001200551878
 21
69.988159235041167
 31
0.0
  0
LINE
  5
1C8DE
  8
SJC
 10
45.000001200551878
 20
69.988159235040484
 30
0.0
 11
45.000001200551878
 21
68.668619656757301
 31
0.0
  0
LINE
  5
1C8DF
  8
SJC
 10
61.16440018785692
 20
67.682225732925644
 30
0.0
 11
66.000001200611734
 21
68.488159235051398
 31
0.0
  0
LINE
  5
1C8E0
  8
SJC
 10
60.000001200551878
 20
69.988159235041167
 30
0.0
 11
60.000001200551878
 21
68.668619656757301
 31
0.0
  0
LINE
  5
1C8E1
  8
SJC
 10
76.164400187856927
 20
67.682225732925644
 30
0.0
 11
81.000001200612246
 21
68.488159235051626
 31
0.0
  0
LINE
  5
1C8E2
  8
SJC
 10
91.164400187856927
 20
67.682225732926099
 30
0.0
 11
96.000001200609915
 21
68.488159235051626
 31
0.0
  0
LINE
  5
1C8E3
  8
SJC
 10
67.500001200551878
 20
37.488159235042993
 30
0.0
 11
63.947214796051639
 21
39.264552437291968
 31
0.0
  0
LINE
  5
1C8E4
  8
SJC
 10
67.500001200551878
 20
38.370125246292901
 30
0.0
 11
67.500001200551878
 21
37.488159235042993
 31
0.0
  0
LINE
  5
1C8E5
  8
SJC
 10
72.500001200551878
 20
37.488159235042993
 30
0.0
 11
68.947214796051639
 21
39.264552437292423
 31
0.0
  0
LINE
  5
1C8E6
  8
SJC
 10
72.500001200551878
 20
38.370125246292901
 30
0.0
 11
72.500001200551878
 21
37.488159235042993
 31
0.0
  0
LINE
  5
1C8E7
  8
SJC
 10
77.500001200551878
 20
37.488159235042993
 30
0.0
 11
73.947214796051639
 21
39.264552437292423
 31
0.0
  0
LINE
  5
1C8E8
  8
SJC
 10
77.500001200551878
 20
38.370125246292901
 30
0.0
 11
77.500001200551878
 21
37.488159235042993
 31
0.0
  0
LINE
  5
1C8E9
  8
SJC
 10
82.500001200551878
 20
37.488159235042993
 30
0.0
 11
78.947214796051639
 21
39.264552437292423
 31
0.0
  0
LINE
  5
1C8EA
  8
SJC
 10
35.000001200551878
 20
42.488159235041621
 30
0.0
 11
31.447214796051639
 21
44.264552437291961
 31
0.0
  0
LINE
  5
1C8EB
  8
SJC
 10
35.000001200551878
 20
43.370125246292218
 30
0.0
 11
35.000001200551878
 21
42.488159235041621
 31
0.0
  0
LINE
  5
1C8EC
  8
SJC
 10
40.000001200551878
 20
42.488159235041621
 30
0.0
 11
36.447214796051639
 21
44.264552437291961
 31
0.0
  0
LINE
  5
1C8ED
  8
SJC
 10
40.000001200551878
 20
43.370125246292218
 30
0.0
 11
40.000001200551878
 21
42.488159235041621
 31
0.0
  0
LINE
  5
1C8EE
  8
SJC
 10
45.000001200551878
 20
42.488159235041621
 30
0.0
 11
41.447214796051639
 21
44.264552437291961
 31
0.0
  0
LINE
  5
1C8EF
  8
SJC
 10
45.000001200551878
 20
43.370125246292218
 30
0.0
 11
45.000001200551878
 21
42.488159235041621
 31
0.0
  0
LINE
  5
1C8F0
  8
SJC
 10
50.000001200551878
 20
42.488159235041621
 30
0.0
 11
46.447214796051639
 21
44.264552437291961
 31
0.0
  0
LINE
  5
1C8F1
  8
SJC
 10
106.1644001878569
 20
67.682225732926099
 30
0.0
 11
111.0000012006128
 21
68.48815923505208
 31
0.0
  0
LINE
  5
1C8F2
  8
SJC
 10
2.2923875009162198
 20
67.679191426738953
 30
0.0
 11
30.000001200551878
 21
69.98815923504003
 31
0.0
  0
LINE
  5
1C8F3
  8
SJC
 10
95.000001200554166
 20
27.488159235041621
 30
0.0
 11
95.000001200554166
 21
33.370125246291543
 31
0.0
  0
LINE
  5
1C8F4
  8
SJC
 10
87.500001200554166
 20
37.488159235041621
 30
0.0
 11
95.000001200554166
 21
27.488159235041621
 31
0.0
  0
LINE
  5
1C8F5
  8
SJC
 10
62.500001200554152
 20
32.488159235041621
 30
0.0
 11
62.500001200554152
 21
38.370125246292218
 31
0.0
  0
LINE
  5
1C8F6
  8
SJC
 10
30.000001200551878
 20
37.488159235041621
 30
0.0
 11
30.000001200551878
 21
43.370125246291529
 31
0.0
  0
LINE
  5
1C8F7
  8
SJC
 10
0.0000012005496046
 20
65.187827031126972
 30
0.0
 11
0.0000012005496046
 21
58.826118631261807
 31
0.0
  0
LINE
  5
1C8F8
  8
SJC
 10
55.000001200554152
 20
42.488159235041621
 30
0.0
 11
62.500001200554152
 21
32.488159235041167
 31
0.0
  0
LINE
  5
1C8F9
  8
SJC
 10
1.1132507099871409
 20
56.745992895417658
 30
0.0
 11
30.000001200551878
 21
37.488159235041621
 31
0.0
  0
ARC
  5
1C8FA
  8
SJC
 10
2.5000012005496042
 20
65.187827031126972
 30
0.0
 40
2.5
 50
94.763641690730495
 51
180.0
  0
ARC
  5
1C8FB
  8
SJC
 10
2.5000012005496042
 20
58.826118631261807
 30
0.0
 40
2.5
 50
180.0
 51
236.309932474032
  0
ARC
  5
1C8FC
  8
SJC
 10
31.000001200553239
 20
43.370125246291529
 30
0.0
 40
1.0
 50
63.434948822933663
 51
180.0
  0
ARC
  5
1C8FD
  8
SJC
 10
31.000001200553239
 20
68.668619656757301
 30
0.0
 40
1.0
 50
180.0
 51
279.46232220803421
  0
ARC
  5
1C8FE
  8
SJC
 10
46.000001200553243
 20
68.668619656757301
 30
0.0
 40
1.0
 50
180.0
 51
279.46232220803421
  0
ARC
  5
1C8FF
  8
SJC
 10
61.000001200553243
 20
68.668619656757301
 30
0.0
 40
1.0
 50
180.0
 51
279.46232220803421
  0
ARC
  5
1C900
  8
SJC
 10
76.000001200553243
 20
68.668619656757755
 30
0.0
 40
1.0
 50
190.39657920862049
 51
279.46232220803421
  0
ARC
  5
1C901
  8
SJC
 10
91.000001200553257
 20
68.668619656757755
 30
0.0
 40
1.0
 50
190.39657920860711
 51
279.46232220803421
  0
ARC
  5
1C902
  8
SJC
 10
106.0000012005532
 20
68.668619656758437
 30
0.0
 40
1.0
 50
190.39657920863331
 51
279.46232220803421
  0
ARC
  5
1C903
  8
SJC
 10
63.500001200553243
 20
38.370125246292218
 30
0.0
 40
1.0
 50
63.434948822933663
 51
180.0
  0
ARC
  5
1C904
  8
SJC
 10
36.000001200553243
 20
43.370125246292218
 30
0.0
 40
1.0
 50
63.434948822933663
 51
180.0
  0
ARC
  5
1C905
  8
SJC
 10
41.000001200550969
 20
43.370125246292218
 30
0.0
 40
1.0
 50
63.434948822933663
 51
180.0
  0
ARC
  5
1C906
  8
SJC
 10
46.000001200553243
 20
43.370125246292218
 30
0.0
 40
1.0
 50
63.434948822933663
 51
180.0
  0
ARC
  5
1C907
  8
SJC
 10
68.500001200550969
 20
38.370125246292901
 30
0.0
 40
1.0
 50
63.434948822933663
 51
180.0
  0
ARC
  5
1C908
  8
SJC
 10
73.500001200550969
 20
38.370125246292901
 30
0.0
 40
1.0
 50
63.434948822933663
 51
180.0
  0
ARC
  5
1C909
  8
SJC
 10
78.500001200550969
 20
38.370125246292901
 30
0.0
 40
1.0
 50
63.434948822933663
 51
180.0
  0
ENDBLK
  5
1C90A
  8
0
  0
BLOCK
  8
0
  2
A$C28A45961
 70
     0
 10
0.0
 20
0.0
 30
0.0
  3
A$C28A45961
  1

  0
LINE
  5
1CBB7
  8
SJC2
 10
0.0416491711204117
 20
13.65650603108906
 30
0.0
 11
3.9193569672963799
 21
13.65650603108906
 31
0.0
  0
LINE
  5
1CBB8
  8
SJC2
 10
0.00000285419992
 20
13.45672639947588
 30
0.0
 11
0.00000285419992
 21
13.45650603108743
 31
0.0
  0
LINE
  5
1CBB9
  8
SJC2
 10
3.9193569672950161
 20
13.656506031089521
 30
0.0
 11
4.5870679036811453
 21
13.597500324992319
 31
0.0
  0
LINE
  5
1CBBA
  8
SJC2
 10
3.0050831821372408
 20
0.5403235649732779
 30
0.0
 11
1.7623419023339011
 21
0.0000012694063116
 31
0.0
  0
LINE
  5
1CBBB
  8
SJC2
 10
0.0000028542003747
 20
5.4565060310874278
 30
0.0
 11
1.07370031207165
 21
0.3555483583177192
 31
0.0
  0
LINE
  5
1CBBC
  8
SJC2
 10
3.591788159701081
 20
1.2873184352779381
 30
0.0
 11
5.4851152449382417
 21
12.43125041505936
 31
0.0
  0
ARC
  5
1CBBD
  8
SJC2
 10
1.56297884662672
 20
0.4585362975331009
 30
0.0
 40
0.5
 50
191.8866320040228
 51
293.49856567596788
  0
ARC
  5
1CBBE
  8
SJC2
 10
2.6063570707228791
 20
1.4573936212264009
 30
0.0
 40
1.0
 50
293.49856567596788
 51
350.20780944413048
  0
ARC
  5
1CBBF
  8
SJC2
 10
4.4996841559664063
 20
12.6013256010433
 30
0.0
 40
1.0
 50
350.20780944413048
 51
84.986886244949744
  0
ARC
  5
1CBC0
  8
SJC2
 10
0.50000285419992
 20
13.45672639947588
 30
0.0
 40
0.5
 50
156.44937121254449
 51
180.0
  0
LINE
  5
1CBC1
  8
SJC2
 10
0.00000285419992
 20
13.45672639947588
 30
0.0
 11
0.0000028542003747
 21
5.4565060310874278
 31
0.0
  0
ENDBLK
  5
1CBC5
  8
0
  0
BLOCK
  8
0
  2
_DOT
 70
     0
 10
0.0
 20
0.0
 30
0.0
  3
_DOT
  1

  0
POLYLINE
  5
1CF05
  8
0
  6
BYBLOCK
 62
     0
 66
     1
 10
0.0
 20
0.0
 30
0.0
 70
     1
 40
0.5
 41
0.5
  0
VERTEX
  5
1D395
  8
0
  6
BYBLOCK
 62
     0
 10
-0.25
 20
0.0
 30
0.0
 42
1.0
  0
VERTEX
  5
1D396
  8
0
  6
BYBLOCK
 62
     0
 10
0.25
 20
0.0
 30
0.0
 42
1.0
  0
SEQEND
  5
1D397
  8
0
  6
BYBLOCK
 62
     0
  0
LINE
  5
1CF06
  8
0
  6
BYBLOCK
 62
     0
 10
-0.5
 20
0.0
 30
0.0
 11
-1.0
 21
0.0
 31
0.0
  0
ENDBLK
  5
1CF08
  8
0
  0
BLOCK
  8
0
  2
_NONE
 70
     0
 10
0.0
 20
0.0
 30
0.0
  3
_NONE
  1

  0
ENDBLK
  5
1CF0C
  8
0
  0
BLOCK
  8
0
  2
*U36
 70
     1
 10
0.0
 20
0.0
 30
0.0
  3
*U36
  1

  0
SOLID
  5
1CFF8
  8
SUNPOU
 10
700.31791781124048
 20
3220.2017732120821
 30
0.0
 11
692.53681319931445
 21
3260.0000000000018
 31
0.0
 12
712.80485057424562
 22
3224.8766302098911
 32
0.0
 13
712.80485057424562
 23
3224.8766302098911
 33
0.0
  0
POLYLINE
  5
1CFF9
  8
SUNPOU
 66
     1
 10
0.0
 20
0.0
 30
0.0
  0
VERTEX
  5
1CFFA
  8
SUNPOU
 10
706.56138419274305
 20
3222.5392017109871
 30
0.0
  0
VERTEX
  5
1CFFB
  8
SUNPOU
 10
812.33839039136183
 20
2940.0
 30
0.0
  0
SEQEND
  5
1CFFC
  8
SUNPOU
  0
ENDBLK
  5
1CFFE
  8
0
  0
BLOCK
  8
0
  2
*U37
 70
     1
 10
0.0
 20
0.0
 30
0.0
  3
*U37
  1

  0
SOLID
  5
1D000
  8
SUNPOU
 10
1937.025170478378
 20
3779.8555087348582
 30
0.0
 11
1931.292434176466
 21
3820.0000000000009
 31
0.0
 12
1949.735127845348
 22
3783.8847470633241
 32
0.0
 13
1949.735127845348
 23
3783.8847470633241
 33
0.0
  0
POLYLINE
  5
1D001
  8
SUNPOU
 66
     1
 10
0.0
 20
0.0
 30
0.0
  0
VERTEX
  5
1D002
  8
SUNPOU
 10
1943.3801491618631
 20
3781.8701278990902
 30
0.0
  0
VERTEX
  5
1D003
  8
SUNPOU
 10
2210.265024459437
 20
2940.0000000000059
 30
0.0
  0
SEQEND
  5
1D004
  8
SUNPOU
  0
ENDBLK
  5
1D006
  8
0
  0
BLOCK
  8
0
  2
*U38
 70
     1
 10
0.0
 20
0.0
 30
0.0
  3
*U38
  1

  0
SOLID
  5
1D008
  8
SUNPOU
 10
1956.7017792037111
 20
4146.0799291905123
 30
0.0
 11
1955.2154175884909
 21
4186.6044300954372
 31
0.0
 12
1969.764516707188
 22
4148.7525059794989
 32
0.0
 13
1969.764516707188
 23
4148.7525059794989
 33
0.0
  0
POLYLINE
  5
1D009
  8
SUNPOU
 66
     1
 10
0.0
 20
0.0
 30
0.0
  0
VERTEX
  5
1D00A
  8
SUNPOU
 10
1963.23314795545
 20
4147.4162175850051
 30
0.0
  0
VERTEX
  5
1D00B
  8
SUNPOU
 10
2210.265024459437
 20
2940.0000000000059
 30
0.0
  0
SEQEND
  5
1D00C
  8
SUNPOU
  0
ENDBLK
  5
1D00E
  8
0
  0
BLOCK
  8
0
  2
*X39
 70
     1
 10
0.0
 20
0.0
 30
0.0
  3
*X39
  1

  0
LINE
  5
1D099
  8
0
 62
     0
 10
5300.2290732122428
 20
2689.9999999999991
 30
0.0
 11
5302.5635618658034
 21
2692.3344886535601
 31
0.0
  0
LINE
  5
1D09A
  8
0
 62
     0
 10
5202.5635618658062
 20
2733.7558448908721
 30
0.0
 11
5302.5635618658052
 21
2833.7558448908708
 31
0.0
  0
LINE
  5
1D09B
  8
0
 62
     0
 10
5202.5635618658062
 20
2875.177201128181
 30
0.0
 11
5302.5635618658062
 21
2975.177201128181
 31
0.0
  0
LINE
  5
1D09C
  8
0
 62
     0
 10
5017.3863607376252
 20
2690.0
 30
0.0
 11
5102.5635618658071
 21
2775.177201128181
 31
0.0
  0
LINE
  5
1D09D
  8
0
 62
     0
 10
5202.5635618658062
 20
3016.5985573654912
 30
0.0
 11
5302.563561865808
 21
3116.598557365493
 31
0.0
  0
LINE
  5
1D09E
  8
0
 62
     0
 10
5002.5635618658062
 20
2816.5985573654912
 30
0.0
 11
5102.5635618658071
 21
2916.5985573654912
 31
0.0
  0
LINE
  5
1D09F
  8
0
 62
     0
 10
5002.5635618658071
 20
2958.0199136028018
 30
0.0
 11
5102.5635618658052
 21
3058.0199136028
 31
0.0
  0
LINE
  5
1D0A0
  8
0
 62
     0
 10
5002.563561865808
 20
3099.441269840112
 30
0.0
 11
5043.1222920256951
 21
3139.9999999999991
 31
0.0
  0
LINE
  5
1D0A1
  8
0
 62
     0
 10
5202.5635618658062
 20
2716.0781753612082
 30
0.0
 11
5302.5635618658043
 21
2816.0781753612068
 31
0.0
  0
LINE
  5
1D0A2
  8
0
 62
     0
 10
5202.5635618658062
 20
2857.4995315985179
 30
0.0
 11
5302.5635618658062
 21
2957.4995315985179
 31
0.0
  0
LINE
  5
1D0A3
  8
0
 62
     0
 10
5035.0640302672891
 20
2690.0
 30
0.0
 11
5102.5635618658071
 21
2757.499531598517
 31
0.0
  0
LINE
  5
1D0A4
  8
0
 62
     0
 10
5202.5635618658062
 20
2998.9208878358272
 30
0.0
 11
5302.563561865808
 21
3098.9208878358281
 31
0.0
  0
LINE
  5
1D0A5
  8
0
 62
     0
 10
5002.5635618658071
 20
2798.9208878358272
 30
0.0
 11
5102.5635618658071
 21
2898.9208878358272
 31
0.0
  0
LINE
  5
1D0A6
  8
0
 62
     0
 10
5002.5635618658071
 20
2940.3422440731379
 30
0.0
 11
5102.5635618658052
 21
3040.342244073136
 31
0.0
  0
LINE
  5
1D0A7
  8
0
 62
     0
 10
5002.563561865808
 20
3081.7636003104481
 30
0.0
 11
5060.799961555359
 21
3139.9999999999991
 31
0.0
  0
LINE
  5
1D0A8
  8
0
 62
     0
 10
5202.5635618658062
 20
2698.4005058315452
 30
0.0
 11
5302.5635618658034
 21
2798.4005058315429
 31
0.0
  0
LINE
  5
1D0A9
  8
0
 62
     0
 10
5202.5635618658062
 20
2839.821862068854
 30
0.0
 11
5302.5635618658062
 21
2939.821862068854
 31
0.0
  0
LINE
  5
1D0AA
  8
0
 62
     0
 10
5052.7416997969522
 20
2690.0
 30
0.0
 11
5102.5635618658071
 21
2739.821862068854
 31
0.0
  0
LINE
  5
1D0AB
  8
0
 62
     0
 10
5202.5635618658062
 20
2981.2432183061628
 30
0.0
 11
5302.563561865808
 21
3081.2432183061651
 31
0.0
  0
LINE
  5
1D0AC
  8
0
 62
     0
 10
5002.5635618658071
 20
2781.2432183061642
 30
0.0
 11
5102.5635618658071
 21
2881.2432183061628
 31
0.0
  0
LINE
  5
1D0AD
  8
0
 62
     0
 10
5202.5635618658062
 20
3122.664574543473
 30
0.0
 11
5219.8989873223354
 21
3140.0000000000018
 31
0.0
  0
LINE
  5
1D0AE
  8
0
 62
     0
 10
5002.5635618658071
 20
2922.6645745434739
 30
0.0
 11
5102.5635618658052
 21
3022.6645745434721
 31
0.0
  0
LINE
  5
1D0AF
  8
0
 62
     0
 10
5002.5635618658089
 20
3064.085930780785
 30
0.0
 11
5078.4776310850229
 21
3140.0
 31
0.0
  0
ENDBLK
  5
1D0B1
  8
0
  0
BLOCK
  8
0
  2
*U40
 70
     1
 10
0.0
 20
0.0
 30
0.0
  3
*U40
  1

  0
SOLID
  5
1D0CE
  8
SUNPOU
 10
1965.3570509630081
 20
3421.1800613640421
 30
0.0
 11
1953.6328533894041
 21
3460.0000000000009
 31
0.0
 12
1977.3135609220419
 22
3427.0808788817499
 32
0.0
 13
1977.3135609220419
 23
3427.0808788817499
 33
0.0
  0
POLYLINE
  5
1D0CF
  8
SUNPOU
 66
     1
 10
0.0
 20
0.0
 30
0.0
  0
VERTEX
  5
1D0D0
  8
SUNPOU
 10
1971.3353059425251
 20
3424.130470122896
 30
0.0
  0
VERTEX
  5
1D0D1
  8
SUNPOU
 10
2210.265024459437
 20
2940.0000000000059
 30
0.0
  0
SEQEND
  5
1D0D2
  8
SUNPOU
  0
ENDBLK
  5
1D0D4
  8
0
  0
BLOCK
  8
0
  2
*U41
 70
     1
 10
0.0
 20
0.0
 30
0.0
  3
*U41
  1

  0
TEXT
  5
1D0DF
  8
SUNPOU
 10
5061.820704722948
 20
2545.6247352848159
 30
0.0
 40
60.0
  1
□300
 41
0.8
  7
EXT08
  0
ENDBLK
  5
1D0E1
  8
0
  0
BLOCK
  8
0
  2
*U42
 70
     1
 10
0.0
 20
0.0
 30
0.0
  3
*U42
  1

  0
TEXT
  5
1D0E3
  8
SUNPOU
 62
     0
 10
5398.1544372569087
 20
3308.4226375089502
 30
0.0
 40
60.0
  1
500以上
 41
0.8
  7
EXT08
  0
ENDBLK
  5
1D0E5
  8
0
  0
BLOCK
  8
0
  2
*U43
 70
     1
 10
0.0
 20
0.0
 30
0.0
  3
*U43
  1

  0
TEXT
  5
1D0E7
  8
SUNPOU
 10
4850.2266164154589
 20
3370.8285714285712
 30
0.0
 40
60.0
  1
(支柱全長) 1620
 50
90.0
 41
0.8
  7
EXT08
  0
ENDBLK
  5
1D0E9
  8
0
  0
BLOCK
  8
0
  2
*U44
 70
     1
 10
0.0
 20
0.0
 30
0.0
  3
*U44
  1

  0
TEXT
  5
1D0EB
  8
SUNPOU
 10
6450.9786547679578
 20
3520.8285714285721
 30
0.0
 40
60.0
  1
(支柱全長) 1370
 50
90.0
 41
0.8
  7
EXT08
  0
ENDBLK
  5
1D0ED
  8
0
  0
BLOCK
  8
0
  2
*U45
 70
     1
 10
0.0
 20
0.0
 30
0.0
  3
*U45
  1

  0
TEXT
  5
1D0EF
  8
SUNPOU
 10
5811.3950857833797
 20
4197.0000000000018
 30
0.0
 40
60.0
  1
118
 50
90.0
 41
0.8
  7
EXT08
  0
ENDBLK
  5
1D0F1
  8
0
  0
BLOCK
  8
0
  2
*U46
 70
     1
 10
0.0
 20
0.0
 30
0.0
  3
*U46
  1

  0
TEXT
  5
1D0F3
  8
SUNPOU
 10
7201.0000000000036
 20
3580.1428571428601
 30
0.0
 40
60.0
  1
1070
 50
90.0
 41
0.8
  7
EXT08
  0
ENDBLK
  5
1D0F5
  8
0
  0
BLOCK
  8
0
  2
*U47
 70
     1
 10
0.0
 20
0.0
 30
0.0
  3
*U47
  1

  0
TEXT
  5
1D0F7
  8
SUNPOU
 10
7195.0000000000027
 20
4197.0000000000027
 30
0.0
 40
60.0
  1
118
 50
90.0
 41
0.8
  7
EXT08
  0
ENDBLK
  5
1D0F9
  8
0
  0
BLOCK
  8
0
  2
*U48
 70
     1
 10
0.0
 20
0.0
 30
0.0
  3
*U48
  1

  0
TEXT
  5
1D0FB
  8
SUNPOU
 10
5824.0617524500458
 20
3580.1428571428601
 30
0.0
 40
60.0
  1
1070
 50
90.0
 41
0.8
  7
EXT08
  0
ENDBLK
  5
1D0FD
  8
0
  0
BLOCK
  8
0
  2
*U49
 70
     1
 10
0.0
 20
0.0
 30
0.0
  3
*U49
  1

  0
TEXT
  5
1D12C
  8
SUNPOU
 10
5954.0617524500467
 20
3414.1428571428578
 30
0.0
 40
60.0
  1
1638
 50
90.0
 41
0.8
  7
EXT08
  0
ENDBLK
  5
1D12E
  8
0
  0
BLOCK
  8
0
  2
*U50
 70
     1
 10
0.0
 20
0.0
 30
0.0
  3
*U50
  1

  0
TEXT
  5
1D130
  8
SUNPOU
 10
7331.0000000000027
 20
3539.1428571428578
 30
0.0
 40
60.0
  1
1388
 50
90.0
 41
0.8
  7
EXT08
  0
ENDBLK
  5
1D132
  8
0
  0
BLOCK
  8
0
  2
*U51
 70
     1
 10
0.0
 20
0.0
 30
0.0
  3
*U51
  1

  0
SOLID
  5
1D15A
  8
SUNPOU
 10
-1740.143163974775
 20
1889.7243494846871
 30
0.0
 11
-1725.9166666666711
 21
1851.749999999977
 31
0.0
 12
-1751.690169358568
 22
1883.057682818021
 32
0.0
 13
-1751.690169358568
 23
1883.057682818021
 33
0.0
210
0.0
220
0.0
230
-1.0
  0
POLYLINE
  5
1D15B
  8
SUNPOU
 66
     1
 10
0.0
 20
0.0
 30
0.0
210
0.0
220
0.0
230
-1.0
  0
VERTEX
  5
1D15C
  8
SUNPOU
 10
-1745.9166666666711
 20
1886.3910161513541
 30
0.0
  0
VERTEX
  5
1D15D
  8
SUNPOU
 10
-1869.134333939701
 20
2099.810276258359
 30
0.0
  0
SEQEND
  5
1D15E
  8
SUNPOU
  0
ENDBLK
  5
1D160
  8
0
  0
BLOCK
  8
0
  2
*U52
 70
     1
 10
0.0
 20
0.0
 30
0.0
  3
*U52
  1

  0
SOLID
  5
1D162
  8
SUNPOU
 10
-1705.432665361207
 20
856.54337204251794
 30
0.0
 11
-1679.6591626693109
 21
887.85105486056227
 31
0.0
 12
-1693.8856599774149
 22
849.87670537585132
 32
0.0
 13
-1693.8856599774149
 23
849.87670537585132
 33
0.0
210
0.0
220
0.0
230
-1.0
  0
POLYLINE
  5
1D163
  8
SUNPOU
 66
     1
 10
0.0
 20
0.0
 30
0.0
210
0.0
220
0.0
230
-1.0
  0
VERTEX
  5
1D164
  8
SUNPOU
 10
-1699.6591626693121
 20
853.21003870918457
 30
0.0
  0
VERTEX
  5
1D165
  8
SUNPOU
 10
-1869.134333939701
 20
559.67043144743116
 30
0.0
  0
SEQEND
  5
1D166
  8
SUNPOU
  0
ENDBLK
  5
1D168
  8
0
  0
BLOCK
  8
0
  2
*X53
 70
     1
 10
0.0
 20
0.0
 30
0.0
  3
*X53
  1

  0
LINE
  5
1D16A
  8
0
 62
     0
 10
1740.0
 20
502.56313292354179
 30
0.0
 11
1750.0000000000009
 21
512.56313292354355
 31
0.0
  0
LINE
  5
1D16B
  8
0
 62
     0
 10
1740.0
 20
537.91847198286928
 30
0.0
 11
1750.0000000000009
 21
547.9184719828711
 31
0.0
  0
LINE
  5
1D16C
  8
0
 62
     0
 10
1740.0
 20
573.27381104219683
 30
0.0
 11
1750.0000000000009
 21
583.27381104219808
 31
0.0
  0
LINE
  5
1D16D
  8
0
 62
     0
 10
1740.0
 20
608.62915010152415
 30
0.0
 11
1750.0000000000009
 21
618.62915010152562
 31
0.0
  0
LINE
  5
1D16E
  8
0
 62
     0
 10
1740.0
 20
643.98448916085158
 30
0.0
 11
1750.0000000000009
 21
653.98448916085283
 31
0.0
  0
LINE
  5
1D16F
  8
0
 62
     0
 10
1740.0
 20
679.33982822017902
 30
0.0
 11
1750.0000000000009
 21
689.33982822018015
 31
0.0
  0
LINE
  5
1D170
  8
0
 62
     0
 10
1740.0
 20
714.69516727950668
 30
0.0
 11
1750.0000000000009
 21
724.69516727950736
 31
0.0
  0
LINE
  5
1D171
  8
0
 62
     0
 10
1740.0
 20
750.05050633883411
 30
0.0
 11
1750.0000000000009
 21
760.05050633883457
 31
0.0
  0
LINE
  5
1D172
  8
0
 62
     0
 10
1740.0000000000009
 20
785.40584539816166
 30
0.0
 11
1750.0000000000009
 21
795.40584539816166
 31
0.0
  0
LINE
  5
1D173
  8
0
 62
     0
 10
1740.0000000000009
 20
820.76118445748909
 30
0.0
 11
1750.0000000000009
 21
830.76118445748909
 31
0.0
  0
LINE
  5
1D174
  8
0
 62
     0
 10
1740.0000000000009
 20
856.11652351681676
 30
0.0
 11
1750.0000000000009
 21
866.11652351681619
 31
0.0
  0
LINE
  5
1D175
  8
0
 62
     0
 10
1740.0000000000009
 20
891.47186257614408
 30
0.0
 11
1750.0
 21
901.47186257614351
 31
0.0
  0
LINE
  5
1D176
  8
0
 62
     0
 10
1740.0000000000009
 20
926.8272016354714
 30
0.0
 11
1750.0
 21
936.82720163547071
 31
0.0
  0
LINE
  5
1D177
  8
0
 62
     0
 10
1740.0000000000009
 20
962.18254069479894
 30
0.0
 11
1750.0
 21
972.18254069479804
 31
0.0
  0
LINE
  5
1D178
  8
0
 62
     0
 10
1740.0000000000009
 20
997.53787975412638
 30
0.0
 11
1750.0
 21
1007.537879754125
 31
0.0
  0
LINE
  5
1D179
  8
0
 62
     0
 10
1740.0000000000009
 20
1032.893218813454
 30
0.0
 11
1750.0
 21
1042.893218813452
 31
0.0
  0
LINE
  5
1D17A
  8
0
 62
     0
 10
1740.0000000000009
 20
1068.248557872781
 30
0.0
 11
1750.0
 21
1078.2485578727801
 31
0.0
  0
LINE
  5
1D17B
  8
0
 62
     0
 10
1740.000000000002
 20
1103.6038969321089
 30
0.0
 11
1750.0
 21
1113.6038969321071
 31
0.0
  0
LINE
  5
1D17C
  8
0
 62
     0
 10
1740.000000000002
 20
1457.1572875253819
 30
0.0
 11
1750.0
 21
1467.157287525381
 31
0.0
  0
LINE
  5
1D17D
  8
0
 62
     0
 10
1740.000000000002
 20
1492.51262658471
 30
0.0
 11
1750.0
 21
1502.512626584708
 31
0.0
  0
LINE
  5
1D17E
  8
0
 62
     0
 10
1740.000000000002
 20
1527.867965644037
 30
0.0
 11
1750.0
 21
1537.8679656440349
 31
0.0
  0
LINE
  5
1D17F
  8
0
 62
     0
 10
1740.000000000002
 20
1563.2233047033651
 30
0.0
 11
1750.0
 21
1573.2233047033631
 31
0.0
  0
LINE
  5
1D180
  8
0
 62
     0
 10
1740.000000000002
 20
1598.5786437626921
 30
0.0
 11
1750.0
 21
1608.57864376269
 31
0.0
  0
LINE
  5
1D181
  8
0
 62
     0
 10
1740.000000000002
 20
1633.93398282202
 30
0.0
 11
1750.0
 21
1643.9339828220179
 31
0.0
  0
LINE
  5
1D182
  8
0
 62
     0
 10
1740.000000000002
 20
1669.289321881347
 30
0.0
 11
1750.0
 21
1679.2893218813449
 31
0.0
  0
LINE
  5
1D183
  8
0
 62
     0
 10
1740.0000000000009
 20
1704.6446609406739
 30
0.0
 11
1750.0
 21
1714.6446609406721
 31
0.0
  0
ENDBLK
  5
1D185
  8
0
  0
BLOCK
  8
0
  2
*X54
 70
     1
 10
0.0
 20
0.0
 30
0.0
  3
*X54
  1

  0
LINE
  5
1D18E
  8
0
 62
     0
 10
1772.499999999998
 20
1798.3892449920661
 30
0.0
 11
1689.6574607076329
 21
1881.2317842844309
 31
0.0
  0
LINE
  5
1D18F
  8
0
 62
     0
 10
1772.499999999998
 20
1780.7115754624019
 30
0.0
 11
1664.2115754624219
 21
1888.9999999999779
 31
0.0
  0
LINE
  5
1D190
  8
0
 62
     0
 10
1666.5339059327589
 20
1868.9999999999779
 30
0.0
 11
1646.5339059327589
 21
1888.9999999999779
 31
0.0
  0
LINE
  5
1D191
  8
0
 62
     0
 10
1772.499999999998
 20
1763.0339059327389
 30
0.0
 11
1752.4999999999959
 21
1783.0339059327409
 31
0.0
  0
LINE
  5
1D192
  8
0
 62
     0
 10
1648.856236403095
 20
1868.9999999999779
 30
0.0
 11
1628.856236403095
 21
1888.9999999999779
 31
0.0
  0
LINE
  5
1D193
  8
0
 62
     0
 10
1772.499999999998
 20
1745.3562364030749
 30
0.0
 11
1752.4999999999959
 21
1765.356236403077
 31
0.0
  0
LINE
  5
1D194
  8
0
 62
     0
 10
1631.178566873431
 20
1868.9999999999779
 30
0.0
 11
1611.178566873431
 21
1888.9999999999779
 31
0.0
  0
LINE
  5
1D195
  8
0
 62
     0
 10
1772.499999999998
 20
1727.678566873411
 30
0.0
 11
1752.4999999999959
 21
1747.678566873413
 31
0.0
  0
LINE
  5
1D196
  8
0
 62
     0
 10
1613.500897343768
 20
1868.9999999999779
 30
0.0
 11
1593.500897343768
 21
1888.9999999999779
 31
0.0
  0
LINE
  5
1D197
  8
0
 62
     0
 10
1772.404151054945
 20
1710.0967462888009
 30
0.0
 11
1752.4999999999959
 21
1730.00089734375
 31
0.0
  0
LINE
  5
1D198
  8
0
 62
     0
 10
1595.823227814104
 20
1868.9999999999779
 30
0.0
 11
1575.823227814104
 21
1888.9999999999779
 31
0.0
  0
LINE
  5
1D199
  8
0
 62
     0
 10
1764.1616139070511
 20
1700.6616139070311
 30
0.0
 11
1752.4999999999959
 21
1712.3232278140861
 31
0.0
  0
LINE
  5
1D19A
  8
0
 62
     0
 10
1578.1455582844401
 20
1868.9999999999779
 30
0.0
 11
1558.1455582844401
 21
1888.9999999999779
 31
0.0
  0
LINE
  5
1D19B
  8
0
 62
     0
 10
1560.4678887547771
 20
1868.9999999999779
 30
0.0
 11
1540.4678887547759
 21
1888.9999999999779
 31
0.0
  0
LINE
  5
1D19C
  8
0
 62
     0
 10
1542.7902192251131
 20
1868.9999999999779
 30
0.0
 11
1522.7902192251131
 21
1888.9999999999791
 31
0.0
  0
LINE
  5
1D19D
  8
0
 62
     0
 10
1525.1125496954501
 20
1868.9999999999779
 30
0.0
 11
1505.1125496954489
 21
1888.9999999999779
 31
0.0
  0
LINE
  5
1D19E
  8
0
 62
     0
 10
1507.4348801657859
 20
1868.9999999999779
 30
0.0
 11
1500.0
 21
1876.4348801657641
 31
0.0
  0
ENDBLK
  5
1D1A0
  8
0
  0
BLOCK
  8
0
  2
*X55
 70
     1
 10
0.0
 20
0.0
 30
0.0
  3
*X55
  1

  0
LINE
  5
1D1A2
  8
0
 62
     0
 10
2166.6841536982911
 20
1439.5604303531011
 30
0.0
 11
2164.7445840514101
 21
1441.499999999982
 31
0.0
  0
LINE
  5
1D1A3
  8
0
 62
     0
 10
2162.0669145217439
 20
1426.4999999999841
 30
0.0
 11
2147.0669145217462
 21
1441.499999999982
 31
0.0
  0
LINE
  5
1D1A4
  8
0
 62
     0
 10
2144.3892449920809
 20
1426.4999999999841
 30
0.0
 11
2129.3892449920818
 21
1441.499999999982
 31
0.0
  0
LINE
  5
1D1A5
  8
0
 62
     0
 10
2126.7115754624169
 20
1426.4999999999841
 30
0.0
 11
2111.7115754624178
 21
1441.499999999982
 31
0.0
  0
LINE
  5
1D1A6
  8
0
 62
     0
 10
2109.033905932753
 20
1426.4999999999841
 30
0.0
 11
2094.0339059327548
 21
1441.499999999982
 31
0.0
  0
LINE
  5
1D1A7
  8
0
 62
     0
 10
2091.356236403089
 20
1426.4999999999841
 30
0.0
 11
2076.35623640309
 21
1441.4999999999829
 31
0.0
  0
LINE
  5
1D1A8
  8
0
 62
     0
 10
2073.678566873426
 20
1426.4999999999841
 30
0.0
 11
2058.678566873426
 21
1441.4999999999829
 31
0.0
  0
LINE
  5
1D1A9
  8
0
 62
     0
 10
2056.0008973437621
 20
1426.4999999999841
 30
0.0
 11
2041.000897343763
 21
1441.4999999999829
 31
0.0
  0
LINE
  5
1D1AA
  8
0
 62
     0
 10
2038.3232278140979
 20
1426.4999999999841
 30
0.0
 11
2023.323227814099
 21
1441.4999999999829
 31
0.0
  0
LINE
  5
1D1AB
  8
0
 62
     0
 10
2020.6455582844339
 20
1426.4999999999841
 30
0.0
 11
2005.6455582844351
 21
1441.4999999999829
 31
0.0
  0
LINE
  5
1D1AC
  8
0
 62
     0
 10
2002.9678887547709
 20
1426.4999999999841
 30
0.0
 11
1987.9678887547709
 21
1441.4999999999829
 31
0.0
  0
LINE
  5
1D1AD
  8
0
 62
     0
 10
1985.290219225107
 20
1426.4999999999841
 30
0.0
 11
1970.290219225107
 21
1441.4999999999829
 31
0.0
  0
LINE
  5
1D1AE
  8
0
 62
     0
 10
1967.612549695443
 20
1426.4999999999841
 30
0.0
 11
1952.6125496954439
 21
1441.4999999999829
 31
0.0
  0
LINE
  5
1D1AF
  8
0
 62
     0
 10
2235.8404428338458
 20
1158.2721068615811
 30
0.0
 11
2222.612549695446
 21
1171.499999999982
 31
0.0
  0
LINE
  5
1D1B0
  8
0
 62
     0
 10
1949.9348801657791
 20
1426.4999999999841
 30
0.0
 11
1934.93488016578
 21
1441.4999999999841
 31
0.0
  0
LINE
  5
1D1B1
  8
0
 62
     0
 10
2219.934880165782
 20
1156.499999999982
 30
0.0
 11
2204.934880165782
 21
1171.499999999982
 31
0.0
  0
LINE
  5
1D1B2
  8
0
 62
     0
 10
1932.257210636116
 20
1426.4999999999841
 30
0.0
 11
1917.257210636116
 21
1441.4999999999841
 31
0.0
  0
LINE
  5
1D1B3
  8
0
 62
     0
 10
2202.2572106361181
 20
1156.499999999982
 30
0.0
 11
2187.2572106361181
 21
1171.499999999982
 31
0.0
  0
LINE
  5
1D1B4
  8
0
 62
     0
 10
1914.579541106451
 20
1426.4999999999841
 30
0.0
 11
1899.5795411064521
 21
1441.4999999999841
 31
0.0
  0
LINE
  5
1D1B5
  8
0
 62
     0
 10
2184.5795411064551
 20
1156.499999999982
 30
0.0
 11
2169.5795411064541
 21
1171.499999999982
 31
0.0
  0
LINE
  5
1D1B6
  8
0
 62
     0
 10
1896.9018715767879
 20
1426.4999999999841
 30
0.0
 11
1881.9018715767891
 21
1441.4999999999841
 31
0.0
  0
LINE
  5
1D1B7
  8
0
 62
     0
 10
2166.9018715767911
 20
1156.499999999982
 30
0.0
 11
2151.9018715767911
 21
1171.499999999982
 31
0.0
  0
LINE
  5
1D1B8
  8
0
 62
     0
 10
1879.224202047124
 20
1426.4999999999841
 30
0.0
 11
1864.2242020471249
 21
1441.4999999999841
 31
0.0
  0
LINE
  5
1D1B9
  8
0
 62
     0
 10
2149.2242020471272
 20
1156.499999999982
 30
0.0
 11
2134.2242020471272
 21
1171.499999999982
 31
0.0
  0
LINE
  5
1D1BA
  8
0
 62
     0
 10
1861.5465325174609
 20
1426.4999999999841
 30
0.0
 11
1846.5465325174609
 21
1441.4999999999841
 31
0.0
  0
LINE
  5
1D1BB
  8
0
 62
     0
 10
2131.5465325174632
 20
1156.499999999982
 30
0.0
 11
2116.5465325174632
 21
1171.4999999999829
 31
0.0
  0
LINE
  5
1D1BC
  8
0
 62
     0
 10
1843.868862987797
 20
1426.4999999999841
 30
0.0
 11
1828.868862987797
 21
1441.4999999999841
 31
0.0
  0
LINE
  5
1D1BD
  8
0
 62
     0
 10
2113.8688629877988
 20
1156.499999999982
 30
0.0
 11
2098.8688629877988
 21
1171.499999999982
 31
0.0
  0
LINE
  5
1D1BE
  8
0
 62
     0
 10
1826.1911934581331
 20
1426.499999999985
 30
0.0
 11
1811.1911934581331
 21
1441.4999999999841
 31
0.0
  0
LINE
  5
1D1BF
  8
0
 62
     0
 10
2096.1911934581349
 20
1156.499999999982
 30
0.0
 11
2081.1911934581349
 21
1171.4999999999829
 31
0.0
  0
LINE
  5
1D1C0
  8
0
 62
     0
 10
1808.5135239284691
 20
1426.499999999985
 30
0.0
 11
1793.51352392847
 21
1441.499999999985
 31
0.0
  0
LINE
  5
1D1C1
  8
0
 62
     0
 10
2078.5135239284718
 20
1156.499999999982
 30
0.0
 11
2063.5135239284718
 21
1171.4999999999829
 31
0.0
  0
LINE
  5
1D1C2
  8
0
 62
     0
 10
1790.8358543988061
 20
1426.499999999985
 30
0.0
 11
1775.8358543988061
 21
1441.499999999985
 31
0.0
  0
LINE
  5
1D1C3
  8
0
 62
     0
 10
2060.8358543988079
 20
1156.499999999982
 30
0.0
 11
2045.835854398807
 21
1171.4999999999829
 31
0.0
  0
LINE
  5
1D1C4
  8
0
 62
     0
 10
1773.1581848691419
 20
1426.499999999985
 30
0.0
 11
1758.1581848691419
 21
1441.499999999985
 31
0.0
  0
LINE
  5
1D1C5
  8
0
 62
     0
 10
2043.158184869144
 20
1156.4999999999829
 30
0.0
 11
2028.158184869144
 21
1171.4999999999829
 31
0.0
  0
LINE
  5
1D1C6
  8
0
 62
     0
 10
1755.480515339478
 20
1426.499999999985
 30
0.0
 11
1740.480515339478
 21
1441.499999999985
 31
0.0
  0
LINE
  5
1D1C7
  8
0
 62
     0
 10
2025.48051533948
 20
1156.4999999999829
 30
0.0
 11
2010.48051533948
 21
1171.4999999999829
 31
0.0
  0
LINE
  5
1D1C8
  8
0
 62
     0
 10
1737.802845809814
 20
1426.499999999985
 30
0.0
 11
1722.802845809814
 21
1441.499999999985
 31
0.0
  0
LINE
  5
1D1C9
  8
0
 62
     0
 10
2007.802845809817
 20
1156.4999999999829
 30
0.0
 11
1992.8028458098161
 21
1171.4999999999829
 31
0.0
  0
LINE
  5
1D1CA
  8
0
 62
     0
 10
1720.125176280151
 20
1426.499999999985
 30
0.0
 11
1705.1251762801501
 21
1441.499999999985
 31
0.0
  0
LINE
  5
1D1CB
  8
0
 62
     0
 10
1990.1251762801519
 20
1156.4999999999829
 30
0.0
 11
1975.1251762801519
 21
1171.4999999999829
 31
0.0
  0
LINE
  5
1D1CC
  8
0
 62
     0
 10
1972.4475067504891
 20
1156.4999999999829
 30
0.0
 11
1957.4475067504891
 21
1171.4999999999829
 31
0.0
  0
LINE
  5
1D1CD
  8
0
 62
     0
 10
1954.7698372208249
 20
1156.4999999999829
 30
0.0
 11
1939.7698372208249
 21
1171.4999999999829
 31
0.0
  0
LINE
  5
1D1CE
  8
0
 62
     0
 10
1937.092167691161
 20
1156.4999999999829
 30
0.0
 11
1922.092167691161
 21
1171.4999999999829
 31
0.0
  0
LINE
  5
1D1CF
  8
0
 62
     0
 10
1637.5
 20
1438.4144981614811
 30
0.0
 11
1634.4144981614961
 21
1441.499999999985
 31
0.0
  0
LINE
  5
1D1D0
  8
0
 62
     0
 10
1919.414498161497
 20
1156.4999999999829
 30
0.0
 11
1904.414498161497
 21
1171.4999999999829
 31
0.0
  0
LINE
  5
1D1D1
  8
0
 62
     0
 10
1631.7368286318331
 20
1426.4999999999841
 30
0.0
 11
1616.736828631834
 21
1441.4999999999829
 31
0.0
  0
LINE
  5
1D1D2
  8
0
 62
     0
 10
1901.736828631834
 20
1156.4999999999829
 30
0.0
 11
1886.7368286318331
 21
1171.4999999999829
 31
0.0
  0
LINE
  5
1D1D3
  8
0
 62
     0
 10
1614.05915910217
 20
1426.4999999999829
 30
0.0
 11
1600.0
 21
1440.5591591021539
 31
0.0
  0
LINE
  5
1D1D4
  8
0
 62
     0
 10
1884.05915910217
 20
1156.4999999999841
 30
0.0
 11
1869.0591591021689
 21
1171.4999999999841
 31
0.0
  0
LINE
  5
1D1D5
  8
0
 62
     0
 10
1866.3814895725061
 20
1156.4999999999841
 30
0.0
 11
1851.3814895725061
 21
1171.4999999999841
 31
0.0
  0
LINE
  5
1D1D6
  8
0
 62
     0
 10
1848.7038200428419
 20
1156.4999999999841
 30
0.0
 11
1833.7038200428419
 21
1171.4999999999841
 31
0.0
  0
LINE
  5
1D1D7
  8
0
 62
     0
 10
1831.0261505131789
 20
1156.4999999999841
 30
0.0
 11
1816.026150513178
 21
1171.4999999999841
 31
0.0
  0
LINE
  5
1D1D8
  8
0
 62
     0
 10
1813.3484809835149
 20
1156.4999999999841
 30
0.0
 11
1798.348480983514
 21
1171.4999999999841
 31
0.0
  0
LINE
  5
1D1D9
  8
0
 62
     0
 10
1795.670811453851
 20
1156.4999999999841
 30
0.0
 11
1780.670811453851
 21
1171.4999999999841
 31
0.0
  0
LINE
  5
1D1DA
  8
0
 62
     0
 10
1777.9931419241871
 20
1156.4999999999841
 30
0.0
 11
1762.9931419241871
 21
1171.4999999999841
 31
0.0
  0
LINE
  5
1D1DB
  8
0
 62
     0
 10
1760.3154723945231
 20
1156.4999999999841
 30
0.0
 11
1745.3154723945231
 21
1171.4999999999841
 31
0.0
  0
LINE
  5
1D1DC
  8
0
 62
     0
 10
1742.6378028648589
 20
1156.4999999999841
 30
0.0
 11
1727.6378028648589
 21
1171.4999999999841
 31
0.0
  0
LINE
  5
1D1DD
  8
0
 62
     0
 10
1724.9601333351959
 20
1156.499999999985
 30
0.0
 11
1709.960133335195
 21
1171.499999999985
 31
0.0
  0
LINE
  5
1D1DE
  8
0
 62
     0
 10
1707.282463805532
 20
1156.499999999985
 30
0.0
 11
1702.5
 21
1161.282463805517
 31
0.0
  0
LINE
  5
1D1DF
  8
0
 62
     0
 10
1636.5717856868771
 20
1156.499999999985
 30
0.0
 11
1621.571785686878
 21
1171.4999999999829
 31
0.0
  0
LINE
  5
1D1E0
  8
0
 62
     0
 10
1618.894116157215
 20
1156.4999999999829
 30
0.0
 11
1603.894116157215
 21
1171.499999999982
 31
0.0
  0
LINE
  5
1D1E1
  8
0
 62
     0
 10
1601.2164466275519
 20
1156.499999999982
 30
0.0
 11
1600.0
 21
1157.7164466275351
 31
0.0
  0
ENDBLK
  5
1D1E3
  8
0
  0
BLOCK
  8
0
  2
*X56
 70
     1
 10
0.0
 20
0.0
 30
0.0
  3
*X56
  1

  0
LINE
  5
1D1E5
  8
0
 62
     0
 10
2209.6601717798121
 20
1148.9999999999909
 30
0.0
 11
2217.160171779803
 21
1156.4999999999809
 31
0.0
  0
LINE
  5
1D1E6
  8
0
 62
     0
 10
2174.3048327204838
 20
1148.99999999999
 30
0.0
 11
2181.804832720476
 21
1156.4999999999809
 31
0.0
  0
LINE
  5
1D1E7
  8
0
 62
     0
 10
2138.9494936611559
 20
1148.99999999999
 30
0.0
 11
2146.4494936611491
 21
1156.499999999982
 31
0.0
  0
LINE
  5
1D1E8
  8
0
 62
     0
 10
2103.5941546018289
 20
1148.9999999999891
 30
0.0
 11
2111.0941546018212
 21
1156.499999999982
 31
0.0
  0
LINE
  5
1D1E9
  8
0
 62
     0
 10
2068.238815542501
 20
1148.9999999999891
 30
0.0
 11
2075.7388155424942
 21
1156.499999999982
 31
0.0
  0
LINE
  5
1D1EA
  8
0
 62
     0
 10
2032.883476483172
 20
1148.9999999999879
 30
0.0
 11
2040.383476483167
 21
1156.499999999982
 31
0.0
  0
LINE
  5
1D1EB
  8
0
 62
     0
 10
1997.528137423845
 20
1148.9999999999879
 30
0.0
 11
2005.02813742384
 21
1156.4999999999829
 31
0.0
  0
LINE
  5
1D1EC
  8
0
 62
     0
 10
1962.1727983645169
 20
1148.999999999987
 30
0.0
 11
1969.672798364513
 21
1156.4999999999829
 31
0.0
  0
LINE
  5
1D1ED
  8
0
 62
     0
 10
1926.817459305189
 20
1148.999999999987
 30
0.0
 11
1934.317459305186
 21
1156.4999999999829
 31
0.0
  0
LINE
  5
1D1EE
  8
0
 62
     0
 10
1891.4621202458609
 20
1148.9999999999859
 30
0.0
 11
1898.9621202458579
 21
1156.4999999999829
 31
0.0
  0
LINE
  5
1D1EF
  8
0
 62
     0
 10
2148.606781186531
 20
1441.499999999982
 30
0.0
 11
2156.1067811865291
 21
1448.999999999982
 31
0.0
  0
LINE
  5
1D1F0
  8
0
 62
     0
 10
1856.106781186533
 20
1148.9999999999859
 30
0.0
 11
1863.6067811865321
 21
1156.4999999999841
 31
0.0
  0
LINE
  5
1D1F1
  8
0
 62
     0
 10
2113.2514421272031
 20
1441.4999999999829
 30
0.0
 11
2120.7514421272022
 21
1448.999999999982
 31
0.0
  0
LINE
  5
1D1F2
  8
0
 62
     0
 10
1820.7514421272051
 20
1148.999999999985
 30
0.0
 11
1828.251442127204
 21
1156.4999999999841
 31
0.0
  0
LINE
  5
1D1F3
  8
0
 62
     0
 10
2077.8961030678761
 20
1441.499999999982
 30
0.0
 11
2085.3961030678752
 21
1448.999999999982
 31
0.0
  0
LINE
  5
1D1F4
  8
0
 62
     0
 10
1785.3961030678779
 20
1148.999999999985
 30
0.0
 11
1792.896103067877
 21
1156.4999999999841
 31
0.0
  0
LINE
  5
1D1F5
  8
0
 62
     0
 10
2042.5407640085491
 20
1441.4999999999829
 30
0.0
 11
2050.0407640085482
 21
1448.999999999982
 31
0.0
  0
LINE
  5
1D1F6
  8
0
 62
     0
 10
1750.04076400855
 20
1148.9999999999841
 30
0.0
 11
1757.54076400855
 21
1156.4999999999841
 31
0.0
  0
LINE
  5
1D1F7
  8
0
 62
     0
 10
2007.1854249492219
 20
1441.4999999999829
 30
0.0
 11
2014.6854249492201
 21
1448.999999999982
 31
0.0
  0
LINE
  5
1D1F8
  8
0
 62
     0
 10
1714.6854249492219
 20
1148.9999999999841
 30
0.0
 11
1722.185424949223
 21
1156.499999999985
 31
0.0
  0
LINE
  5
1D1F9
  8
0
 62
     0
 10
1971.830085889894
 20
1441.4999999999829
 30
0.0
 11
1979.3300858898931
 21
1448.999999999982
 31
0.0
  0
LINE
  5
1D1FA
  8
0
 62
     0
 10
1936.474746830567
 20
1441.4999999999829
 30
0.0
 11
1943.974746830565
 21
1448.999999999982
 31
0.0
  0
LINE
  5
1D1FB
  8
0
 62
     0
 10
1901.11940777124
 20
1441.4999999999841
 30
0.0
 11
1908.619407771238
 21
1448.999999999982
 31
0.0
  0
LINE
  5
1D1FC
  8
0
 62
     0
 10
1608.619407771238
 20
1148.999999999982
 30
0.0
 11
1616.1194077712389
 21
1156.4999999999829
 31
0.0
  0
LINE
  5
1D1FD
  8
0
 62
     0
 10
1865.7640687119119
 20
1441.4999999999841
 30
0.0
 11
1873.264068711911
 21
1448.999999999982
 31
0.0
  0
LINE
  5
1D1FE
  8
0
 62
     0
 10
1830.408729652585
 20
1441.4999999999841
 30
0.0
 11
1837.9087296525829
 21
1448.999999999982
 31
0.0
  0
LINE
  5
1D1FF
  8
0
 62
     0
 10
1795.053390593258
 20
1441.4999999999841
 30
0.0
 11
1802.5533905932559
 21
1448.999999999982
 31
0.0
  0
LINE
  5
1D200
  8
0
 62
     0
 10
1759.698051533931
 20
1441.4999999999841
 30
0.0
 11
1767.1980515339289
 21
1448.999999999982
 31
0.0
  0
LINE
  5
1D201
  8
0
 62
     0
 10
1724.342712474604
 20
1441.499999999985
 30
0.0
 11
1731.8427124746011
 21
1448.999999999982
 31
0.0
  0
LINE
  5
1D202
  8
0
 62
     0
 10
1618.2766952966199
 20
1441.4999999999829
 30
0.0
 11
1625.776695296619
 21
1448.999999999982
 31
0.0
  0
ENDBLK
  5
1D204
  8
0
  0
BLOCK
  8
0
  2
*X57
 70
     1
 10
0.0
 20
0.0
 30
0.0
  3
*X57
  1

  0
LINE
  5
1D22F
  8
0
 62
     0
 10
3984.6641832418632
 20
1050.1710413176911
 30
0.0
 11
3998.8289586818328
 21
1064.33581675766
 31
0.0
  0
LINE
  5
1D230
  8
0
 62
     0
 10
3987.5662186786249
 20
1088.4284158137791
 30
0.0
 11
3999.9999999995462
 21
1100.8621971347011
 31
0.0
  0
LINE
  5
1D231
  8
0
 62
     0
 10
3948.1378028648228
 20
1048.9999999999791
 30
0.0
 11
3960.571584185745
 21
1061.4337813209011
 31
0.0
  0
LINE
  5
1D232
  8
0
 62
     0
 10
3989.9999999995571
 20
1126.217536194039
 30
0.0
 11
3999.9999999995471
 21
1136.217536194029
 31
0.0
  0
LINE
  5
1D233
  8
0
 62
     0
 10
3912.7824638054972
 20
1048.9999999999791
 30
0.0
 11
3922.7824638054858
 21
1058.9999999999691
 31
0.0
  0
LINE
  5
1D234
  8
0
 62
     0
 10
3989.9999999995571
 20
1161.572875253366
 30
0.0
 11
3999.9999999995471
 21
1171.572875253356
 31
0.0
  0
LINE
  5
1D235
  8
0
 62
     0
 10
3877.4271247461679
 20
1048.9999999999791
 30
0.0
 11
3887.4271247461588
 21
1058.9999999999691
 31
0.0
  0
LINE
  5
1D236
  8
0
 62
     0
 10
3842.0717856868418
 20
1048.9999999999791
 30
0.0
 11
3852.0717856868309
 21
1058.9999999999691
 31
0.0
  0
LINE
  5
1D237
  8
0
 62
     0
 10
3806.7164466275149
 20
1048.9999999999791
 30
0.0
 11
3816.7164466275049
 21
1058.9999999999691
 31
0.0
  0
LINE
  5
1D238
  8
0
 62
     0
 10
3771.361107568187
 20
1048.9999999999791
 30
0.0
 11
3781.361107568177
 21
1058.9999999999691
 31
0.0
  0
LINE
  5
1D239
  8
0
 62
     0
 10
3736.00576850886
 20
1048.9999999999791
 30
0.0
 11
3746.0057685088491
 21
1058.9999999999679
 31
0.0
  0
LINE
  5
1D23A
  8
0
 62
     0
 10
3700.6504294495321
 20
1048.9999999999791
 30
0.0
 11
3710.6504294495221
 21
1058.9999999999691
 31
0.0
  0
LINE
  5
1D23B
  8
0
 62
     0
 10
3665.2950903902051
 20
1048.9999999999791
 30
0.0
 11
3675.2950903901951
 21
1058.9999999999691
 31
0.0
  0
LINE
  5
1D23C
  8
0
 62
     0
 10
3989.9999999995539
 20
1409.060248668656
 30
0.0
 11
3999.9999999995448
 21
1419.0602486686471
 31
0.0
  0
LINE
  5
1D23D
  8
0
 62
     0
 10
3629.9397513308782
 20
1048.9999999999791
 30
0.0
 11
3639.9397513308681
 21
1058.9999999999691
 31
0.0
  0
LINE
  5
1D23E
  8
0
 62
     0
 10
3989.9999999995548
 20
1444.4155877279841
 30
0.0
 11
3999.9999999995448
 21
1454.4155877279741
 31
0.0
  0
LINE
  5
1D23F
  8
0
 62
     0
 10
3594.5844122715498
 20
1048.9999999999791
 30
0.0
 11
3604.5844122715398
 21
1058.9999999999691
 31
0.0
  0
LINE
  5
1D240
  8
0
 62
     0
 10
3989.9999999995548
 20
1479.770926787312
 30
0.0
 11
3999.9999999995448
 21
1489.770926787302
 31
0.0
  0
LINE
  5
1D241
  8
0
 62
     0
 10
3559.2290732122228
 20
1048.9999999999791
 30
0.0
 11
3569.2290732122128
 21
1058.9999999999691
 31
0.0
  0
LINE
  5
1D242
  8
0
 62
     0
 10
3989.9999999995571
 20
1515.1262658466401
 30
0.0
 11
3999.9999999995448
 21
1525.1262658466289
 31
0.0
  0
LINE
  5
1D243
  8
0
 62
     0
 10
3523.8737341528949
 20
1048.9999999999791
 30
0.0
 11
3533.8737341528858
 21
1058.9999999999691
 31
0.0
  0
LINE
  5
1D244
  8
0
 62
     0
 10
3978.1778962851208
 20
1538.6595011915319
 30
0.0
 11
3986.5972630264819
 21
1547.0788679328921
 31
0.0
  0
LINE
  5
1D245
  8
0
 62
     0
 10
3501.9211320666332
 20
1062.4027369730429
 30
0.0
 11
3510.3404988079919
 21
1070.8221037144031
 31
0.0
  0
LINE
  5
1D246
  8
0
 62
     0
 10
3943.163056033794
 20
1538.9999999995321
 30
0.0
 11
3953.1630560337849
 21
1548.999999999523
 31
0.0
  0
LINE
  5
1D247
  8
0
 62
     0
 10
3500.0
 20
1095.836943965739
 30
0.0
 11
3509.9999999999932
 21
1105.8369439657311
 31
0.0
  0
LINE
  5
1D248
  8
0
 62
     0
 10
3907.807716974467
 20
1538.9999999995321
 30
0.0
 11
3917.8077169744579
 21
1548.999999999523
 31
0.0
  0
LINE
  5
1D249
  8
0
 62
     0
 10
3500.0
 20
1131.1922830250651
 30
0.0
 11
3509.9999999999932
 21
1141.192283025058
 31
0.0
  0
LINE
  5
1D24A
  8
0
 62
     0
 10
3872.4523779151391
 20
1538.9999999995321
 30
0.0
 11
3882.45237791513
 21
1548.9999999995221
 31
0.0
  0
LINE
  5
1D24B
  8
0
 62
     0
 10
3500.0
 20
1166.547622084393
 30
0.0
 11
3509.9999999999932
 21
1176.5476220843859
 31
0.0
  0
LINE
  5
1D24C
  8
0
 62
     0
 10
3837.0970388558121
 20
1538.9999999995321
 30
0.0
 11
3847.0970388558021
 21
1548.9999999995221
 31
0.0
  0
LINE
  5
1D24D
  8
0
 62
     0
 10
3801.7416997964851
 20
1538.9999999995321
 30
0.0
 11
3811.7416997964742
 21
1548.9999999995221
 31
0.0
  0
LINE
  5
1D24E
  8
0
 62
     0
 10
3766.3863607371568
 20
1538.9999999995321
 30
0.0
 11
3776.3863607371482
 21
1548.9999999995221
 31
0.0
  0
LINE
  5
1D24F
  8
0
 62
     0
 10
3731.0310216778298
 20
1538.9999999995321
 30
0.0
 11
3741.0310216778198
 21
1548.9999999995221
 31
0.0
  0
LINE
  5
1D250
  8
0
 62
     0
 10
3695.6756826185019
 20
1538.9999999995321
 30
0.0
 11
3705.6756826184928
 21
1548.999999999523
 31
0.0
  0
LINE
  5
1D251
  8
0
 62
     0
 10
3660.3203435591749
 20
1538.9999999995321
 30
0.0
 11
3670.3203435591649
 21
1548.999999999523
 31
0.0
  0
LINE
  5
1D252
  8
0
 62
     0
 10
3624.9650044998471
 20
1538.9999999995321
 30
0.0
 11
3634.965004499838
 21
1548.9999999995221
 31
0.0
  0
LINE
  5
1D253
  8
0
 62
     0
 10
3500.0000000000018
 20
1414.0349954996859
 30
0.0
 11
3509.9999999999932
 21
1424.0349954996771
 31
0.0
  0
LINE
  5
1D254
  8
0
 62
     0
 10
3589.6096654405201
 20
1538.9999999995309
 30
0.0
 11
3599.609665440511
 21
1548.999999999523
 31
0.0
  0
LINE
  5
1D255
  8
0
 62
     0
 10
3500.0000000000018
 20
1449.3903345590129
 30
0.0
 11
3509.9999999999932
 21
1459.3903345590049
 31
0.0
  0
LINE
  5
1D256
  8
0
 62
     0
 10
3554.2543263811922
 20
1538.9999999995321
 30
0.0
 11
3564.2543263811831
 21
1548.9999999995221
 31
0.0
  0
LINE
  5
1D257
  8
0
 62
     0
 10
3500.0000000000009
 20
1484.7456736183401
 30
0.0
 11
3509.9999999999932
 21
1494.7456736183319
 31
0.0
  0
LINE
  5
1D258
  8
0
 62
     0
 10
3515.5389045060479
 20
1535.639917183714
 30
0.0
 11
3528.8989873218561
 21
1548.999999999523
 31
0.0
  0
LINE
  5
1D259
  8
0
 62
     0
 10
3500.0
 20
1520.1010126776671
 30
0.0
 11
3513.360082815811
 21
1533.4610954934781
 31
0.0
  0
ENDBLK
  5
1D25B
  8
0
  0
BLOCK
  8
0
  2
*X58
 70
     1
 10
0.0
 20
0.0
 30
0.0
  3
*X58
  1

  0
LINE
  5
1D25D
  8
0
 62
     0
 10
3989.9239055211519
 20
1525.508987733918
 30
0.0
 11
3976.5089877339419
 21
1538.9239055211281
 31
0.0
  0
LINE
  5
1D25E
  8
0
 62
     0
 10
3969.4178161319091
 20
1528.3374075934969
 30
0.0
 11
3961.0321912676209
 21
1536.7230324577849
 31
0.0
  0
LINE
  5
1D25F
  8
0
 62
     0
 10
3987.7230324578081
 20
1510.0321912675979
 30
0.0
 11
3979.3374075935212
 21
1518.417816131885
 31
0.0
  0
LINE
  5
1D260
  8
0
 62
     0
 10
3961.5992895569411
 20
1518.4782646388021
 30
0.0
 11
3955.3081184820971
 21
1524.769435713645
 31
0.0
  0
LINE
  5
1D261
  8
0
 62
     0
 10
3975.769435713667
 20
1504.3081184820751
 30
0.0
 11
3969.4782646388239
 21
1510.5992895569191
 31
0.0
  0
LINE
  5
1D262
  8
0
 62
     0
 10
3951.0775541962012
 20
1528.9999999995409
 30
0.0
 11
3941.0775541962098
 21
1538.9999999995321
 31
0.0
  0
LINE
  5
1D263
  8
0
 62
     0
 10
3989.9999999995571
 20
1490.0775541961859
 30
0.0
 11
3979.999999999563
 21
1500.0775541961791
 31
0.0
  0
LINE
  5
1D264
  8
0
 62
     0
 10
3933.3998846665372
 20
1528.9999999995409
 30
0.0
 11
3923.3998846665459
 21
1538.9999999995321
 31
0.0
  0
LINE
  5
1D265
  8
0
 62
     0
 10
3989.9999999995562
 20
1472.3998846665229
 30
0.0
 11
3979.999999999563
 21
1482.3998846665149
 31
0.0
  0
LINE
  5
1D266
  8
0
 62
     0
 10
3915.7222151368742
 20
1528.9999999995409
 30
0.0
 11
3905.7222151368828
 21
1538.9999999995321
 31
0.0
  0
LINE
  5
1D267
  8
0
 62
     0
 10
3989.9999999995548
 20
1454.7222151368589
 30
0.0
 11
3979.999999999563
 21
1464.722215136851
 31
0.0
  0
LINE
  5
1D268
  8
0
 62
     0
 10
3898.0445456072098
 20
1528.9999999995409
 30
0.0
 11
3888.0445456072189
 21
1538.9999999995321
 31
0.0
  0
LINE
  5
1D269
  8
0
 62
     0
 10
3989.9999999995539
 20
1437.0445456071959
 30
0.0
 11
3979.999999999563
 21
1447.044545607188
 31
0.0
  0
LINE
  5
1D26A
  8
0
 62
     0
 10
3880.3668760775458
 20
1528.9999999995421
 30
0.0
 11
3870.3668760775558
 21
1538.9999999995321
 31
0.0
  0
LINE
  5
1D26B
  8
0
 62
     0
 10
3989.9999999995548
 20
1419.3668760775331
 30
0.0
 11
3979.999999999563
 21
1429.366876077524
 31
0.0
  0
LINE
  5
1D26C
  8
0
 62
     0
 10
3862.6892065478828
 20
1528.9999999995409
 30
0.0
 11
3852.6892065478919
 21
1538.9999999995321
 31
0.0
  0
LINE
  5
1D26D
  8
0
 62
     0
 10
3987.6892065474522
 20
1403.9999999999729
 30
0.0
 11
3979.999999999563
 21
1411.689206547861
 31
0.0
  0
LINE
  5
1D26E
  8
0
 62
     0
 10
3845.011537018218
 20
1528.9999999995409
 30
0.0
 11
3835.011537018227
 21
1538.9999999995321
 31
0.0
  0
LINE
  5
1D26F
  8
0
 62
     0
 10
3827.3338674885558
 20
1528.9999999995421
 30
0.0
 11
3817.3338674885649
 21
1538.9999999995321
 31
0.0
  0
LINE
  5
1D270
  8
0
 62
     0
 10
3809.656197958891
 20
1528.9999999995421
 30
0.0
 11
3799.6561979589001
 21
1538.9999999995321
 31
0.0
  0
LINE
  5
1D271
  8
0
 62
     0
 10
3791.9785284292279
 20
1528.9999999995409
 30
0.0
 11
3781.978528429237
 21
1538.9999999995321
 31
0.0
  0
LINE
  5
1D272
  8
0
 62
     0
 10
3774.6504294496572
 20
1528.650429449448
 30
0.0
 11
3764.3008588995731
 21
1538.9999999995321
 31
0.0
  0
LINE
  5
1D273
  8
0
 62
     0
 10
3750.0
 20
1535.6231893694419
 30
0.0
 11
3748.835319319076
 21
1536.7878700503661
 31
0.0
  0
LINE
  5
1D274
  8
0
 62
     0
 10
3747.787870050608
 20
1537.8353193188341
 30
0.0
 11
3746.6231893699101
 21
1538.9999999995321
 31
0.0
  0
LINE
  5
1D275
  8
0
 62
     0
 10
3761.623189369896
 20
1523.9999999995459
 30
0.0
 11
3750.0
 21
1535.6231893694419
 31
0.0
  0
LINE
  5
1D276
  8
0
 62
     0
 10
3743.945519840232
 20
1523.9999999995459
 30
0.0
 11
3728.9455198402461
 21
1538.9999999995321
 31
0.0
  0
LINE
  5
1D277
  8
0
 62
     0
 10
3721.2678503105731
 20
1528.9999999995409
 30
0.0
 11
3711.2678503105822
 21
1538.9999999995321
 31
0.0
  0
LINE
  5
1D278
  8
0
 62
     0
 10
3703.59018078091
 20
1528.9999999995409
 30
0.0
 11
3693.5901807809191
 21
1538.9999999995321
 31
0.0
  0
LINE
  5
1D279
  8
0
 62
     0
 10
3685.9125112512461
 20
1528.9999999995409
 30
0.0
 11
3675.9125112512552
 21
1538.9999999995321
 31
0.0
  0
LINE
  5
1D27A
  8
0
 62
     0
 10
3668.2348417215821
 20
1528.9999999995409
 30
0.0
 11
3658.2348417215908
 21
1538.9999999995321
 31
0.0
  0
LINE
  5
1D27B
  8
0
 62
     0
 10
3650.5571721919182
 20
1528.9999999995409
 30
0.0
 11
3640.5571721919268
 21
1538.9999999995321
 31
0.0
  0
LINE
  5
1D27C
  8
0
 62
     0
 10
3989.9999999995539
 20
1189.557172191905
 30
0.0
 11
3985.5571721914871
 21
1193.999999999972
 31
0.0
  0
LINE
  5
1D27D
  8
0
 62
     0
 10
3632.8795026622538
 20
1528.9999999995421
 30
0.0
 11
3622.8795026622638
 21
1538.9999999995321
 31
0.0
  0
LINE
  5
1D27E
  8
0
 62
     0
 10
3989.9999999995548
 20
1171.8795026622411
 30
0.0
 11
3979.9999999995662
 21
1181.8795026622311
 31
0.0
  0
LINE
  5
1D27F
  8
0
 62
     0
 10
3615.2018331325912
 20
1528.9999999995421
 30
0.0
 11
3605.2018331325999
 21
1538.9999999995321
 31
0.0
  0
LINE
  5
1D280
  8
0
 62
     0
 10
3989.9999999995548
 20
1154.2018331325769
 30
0.0
 11
3979.9999999995639
 21
1164.2018331325669
 31
0.0
  0
LINE
  5
1D281
  8
0
 62
     0
 10
3597.5241636029268
 20
1528.9999999995421
 30
0.0
 11
3587.5241636029359
 21
1538.9999999995321
 31
0.0
  0
LINE
  5
1D282
  8
0
 62
     0
 10
3989.9999999995548
 20
1136.5241636029129
 30
0.0
 11
3979.9999999995639
 21
1146.5241636029041
 31
0.0
  0
LINE
  5
1D283
  8
0
 62
     0
 10
3579.8464940732629
 20
1528.9999999995421
 30
0.0
 11
3569.8464940732729
 21
1538.9999999995321
 31
0.0
  0
LINE
  5
1D284
  8
0
 62
     0
 10
3989.9999999995562
 20
1118.846494073249
 30
0.0
 11
3979.9999999995639
 21
1128.846494073241
 31
0.0
  0
LINE
  5
1D285
  8
0
 62
     0
 10
3562.1688245435989
 20
1528.9999999995421
 30
0.0
 11
3552.1688245436089
 21
1538.9999999995321
 31
0.0
  0
LINE
  5
1D286
  8
0
 62
     0
 10
3989.9999999995571
 20
1101.1688245435851
 30
0.0
 11
3979.9999999995639
 21
1111.1688245435771
 31
0.0
  0
LINE
  5
1D287
  8
0
 62
     0
 10
3545.1613961316079
 20
1528.3297588818691
 30
0.0
 11
3534.491155013945
 21
1538.9999999995321
 31
0.0
  0
LINE
  5
1D288
  8
0
 62
     0
 10
3989.9999999995571
 20
1083.4911550139209
 30
0.0
 11
3979.3297588818918
 21
1094.161396131585
 31
0.0
  0
LINE
  5
1D289
  8
0
 62
     0
 10
3526.84237269391
 20
1528.9711127899029
 30
0.0
 11
3518.362137031163
 21
1537.4513484526501
 31
0.0
  0
LINE
  5
1D28A
  8
0
 62
     0
 10
3988.4513484526742
 20
1067.36213703114
 30
0.0
 11
3979.9711127899241
 21
1075.842372693889
 31
0.0
  0
LINE
  5
1D28B
  8
0
 62
     0
 10
3530.5135491093488
 20
1507.622266844802
 30
0.0
 11
3510.4578928150181
 21
1527.677923139132
 31
0.0
  0
LINE
  5
1D28C
  8
0
 62
     0
 10
3978.6779231391552
 20
1059.457892814994
 30
0.0
 11
3958.6222668448272
 21
1079.5135491093231
 31
0.0
  0
LINE
  5
1D28D
  8
0
 62
     0
 10
3519.9999999999818
 20
1500.458146424505
 30
0.0
 11
3512.3394931113862
 21
1508.118653313101
 31
0.0
  0
LINE
  5
1D28E
  8
0
 62
     0
 10
3959.118653313124
 20
1061.3394931113619
 30
0.0
 11
3951.4581464245261
 21
1068.9999999999609
 31
0.0
  0
LINE
  5
1D28F
  8
0
 62
     0
 10
3519.9999999999818
 20
1482.7804768948411
 30
0.0
 11
3509.9999999999932
 21
1492.7804768948299
 31
0.0
  0
LINE
  5
1D290
  8
0
 62
     0
 10
3943.780476894854
 20
1058.9999999999691
 30
0.0
 11
3933.7804768948622
 21
1068.99999999996
 31
0.0
  0
LINE
  5
1D291
  8
0
 62
     0
 10
3519.9999999999818
 20
1465.1028073651769
 30
0.0
 11
3509.9999999999932
 21
1475.1028073651671
 31
0.0
  0
LINE
  5
1D292
  8
0
 62
     0
 10
3926.1028073651901
 20
1058.9999999999691
 30
0.0
 11
3916.1028073651992
 21
1068.9999999999609
 31
0.0
  0
LINE
  5
1D293
  8
0
 62
     0
 10
3519.9999999999818
 20
1447.4251378355141
 30
0.0
 11
3509.9999999999932
 21
1457.425137835502
 31
0.0
  0
LINE
  5
1D294
  8
0
 62
     0
 10
3908.4251378355261
 20
1058.9999999999691
 30
0.0
 11
3898.4251378355339
 21
1068.99999999996
 31
0.0
  0
LINE
  5
1D295
  8
0
 62
     0
 10
3519.9999999999818
 20
1429.7474683058499
 30
0.0
 11
3509.9999999999932
 21
1439.747468305839
 31
0.0
  0
LINE
  5
1D296
  8
0
 62
     0
 10
3890.7474683058631
 20
1058.9999999999691
 30
0.0
 11
3880.7474683058708
 21
1068.9999999999609
 31
0.0
  0
LINE
  5
1D297
  8
0
 62
     0
 10
3519.9999999999809
 20
1412.069798776186
 30
0.0
 11
3509.9999999999932
 21
1422.069798776175
 31
0.0
  0
LINE
  5
1D298
  8
0
 62
     0
 10
3873.0697987761991
 20
1058.9999999999691
 30
0.0
 11
3863.0697987762069
 21
1068.99999999996
 31
0.0
  0
LINE
  5
1D299
  8
0
 62
     0
 10
3510.392129246532
 20
1403.9999999999729
 30
0.0
 11
3509.9999999999932
 21
1404.392129246512
 31
0.0
  0
LINE
  5
1D29A
  8
0
 62
     0
 10
3855.3921292465352
 20
1058.9999999999691
 30
0.0
 11
3845.3921292465438
 21
1068.9999999999609
 31
0.0
  0
LINE
  5
1D29B
  8
0
 62
     0
 10
3837.7144597168708
 20
1058.9999999999691
 30
0.0
 11
3827.7144597168799
 21
1068.99999999996
 31
0.0
  0
LINE
  5
1D29C
  8
0
 62
     0
 10
3820.0367901872069
 20
1058.9999999999691
 30
0.0
 11
3810.036790187216
 21
1068.99999999996
 31
0.0
  0
LINE
  5
1D29D
  8
0
 62
     0
 10
3802.3591206575438
 20
1058.99999999997
 30
0.0
 11
3792.3591206575529
 21
1068.99999999996
 31
0.0
  0
LINE
  5
1D29E
  8
0
 62
     0
 10
3784.6814511278799
 20
1058.9999999999691
 30
0.0
 11
3769.6814511278931
 21
1073.9999999999559
 31
0.0
  0
LINE
  5
1D29F
  8
0
 62
     0
 10
3767.0037815982159
 20
1058.99999999997
 30
0.0
 11
3752.0037815982291
 21
1073.9999999999559
 31
0.0
  0
LINE
  5
1D2A0
  8
0
 62
     0
 10
3747.9276976377419
 20
1060.398414430781
 30
0.0
 11
3734.3261120685661
 21
1073.9999999999559
 31
0.0
  0
LINE
  5
1D2A1
  8
0
 62
     0
 10
3731.6484425388899
 20
1058.9999999999691
 30
0.0
 11
3721.648442538899
 21
1068.99999999996
 31
0.0
  0
LINE
  5
1D2A2
  8
0
 62
     0
 10
3713.9707730092259
 20
1058.9999999999691
 30
0.0
 11
3703.970773009235
 21
1068.99999999996
 31
0.0
  0
LINE
  5
1D2A3
  8
0
 62
     0
 10
3696.293103479562
 20
1058.9999999999691
 30
0.0
 11
3686.293103479572
 21
1068.99999999996
 31
0.0
  0
LINE
  5
1D2A4
  8
0
 62
     0
 10
3678.615433949898
 20
1058.9999999999691
 30
0.0
 11
3668.6154339499071
 21
1068.99999999996
 31
0.0
  0
LINE
  5
1D2A5
  8
0
 62
     0
 10
3660.937764420235
 20
1058.9999999999691
 30
0.0
 11
3650.9377644202432
 21
1068.99999999996
 31
0.0
  0
LINE
  5
1D2A6
  8
0
 62
     0
 10
3519.9999999999841
 20
1182.260094890556
 30
0.0
 11
3509.9999999999932
 21
1192.260094890547
 31
0.0
  0
LINE
  5
1D2A7
  8
0
 62
     0
 10
3643.2600948905711
 20
1058.9999999999691
 30
0.0
 11
3633.2600948905801
 21
1068.99999999996
 31
0.0
  0
LINE
  5
1D2A8
  8
0
 62
     0
 10
3519.9999999999832
 20
1164.582425360893
 30
0.0
 11
3509.9999999999918
 21
1174.5824253608839
 31
0.0
  0
LINE
  5
1D2A9
  8
0
 62
     0
 10
3625.5824253609071
 20
1058.9999999999691
 30
0.0
 11
3615.5824253609162
 21
1068.99999999996
 31
0.0
  0
LINE
  5
1D2AA
  8
0
 62
     0
 10
3519.9999999999832
 20
1146.90475583123
 30
0.0
 11
3509.9999999999932
 21
1156.90475583122
 31
0.0
  0
LINE
  5
1D2AB
  8
0
 62
     0
 10
3607.9047558312432
 20
1058.9999999999691
 30
0.0
 11
3597.9047558312518
 21
1068.99999999996
 31
0.0
  0
LINE
  5
1D2AC
  8
0
 62
     0
 10
3519.9999999999818
 20
1129.2270863015669
 30
0.0
 11
3509.9999999999932
 21
1139.227086301556
 31
0.0
  0
LINE
  5
1D2AD
  8
0
 62
     0
 10
3590.2270863015801
 20
1058.9999999999691
 30
0.0
 11
3580.2270863015892
 21
1068.99999999996
 31
0.0
  0
LINE
  5
1D2AE
  8
0
 62
     0
 10
3519.9999999999818
 20
1111.549416771903
 30
0.0
 11
3509.9999999999932
 21
1121.549416771893
 31
0.0
  0
LINE
  5
1D2AF
  8
0
 62
     0
 10
3572.5494167719162
 20
1058.9999999999691
 30
0.0
 11
3562.5494167719248
 21
1068.99999999996
 31
0.0
  0
LINE
  5
1D2B0
  8
0
 62
     0
 10
3528.8856682663509
 20
1084.9860789758709
 30
0.0
 11
3509.9999999999932
 21
1103.871747242229
 31
0.0
  0
LINE
  5
1D2B1
  8
0
 62
     0
 10
3554.8717472422518
 20
1058.9999999999691
 30
0.0
 11
3535.9860789758941
 21
1077.8856682663279
 31
0.0
  0
LINE
  5
1D2B2
  8
0
 62
     0
 10
3520.006510439634
 20
1076.1875672729241
 30
0.0
 11
3509.9999999999932
 21
1086.1940777125651
 31
0.0
  0
LINE
  5
1D2B3
  8
0
 62
     0
 10
3537.1940777125892
 20
1058.99999999997
 30
0.0
 11
3527.1875672729461
 21
1069.0065104396119
 31
0.0
  0
LINE
  5
1D2B4
  8
0
 62
     0
 10
3517.5160323254172
 20
1061.0003758574769
 30
0.0
 11
3512.0003758574999
 21
1066.5160323253931
 31
0.0
  0
ENDBLK
  5
1D2B6
  8
0
  0
BLOCK
  8
0
  2
*X59
 70
     1
 10
0.0
 20
0.0
 30
0.0
  3
*X59
  1

  0
LINE
  5
1D332
  8
0
 62
     0
 10
1740.000000000002
 20
1724.8232278140799
 30
0.0
 11
1728.323227814104
 21
1736.4999999999779
 31
0.0
  0
LINE
  5
1D333
  8
0
 62
     0
 10
1740.000000000002
 20
1707.1455582844169
 30
0.0
 11
1725.0
 21
1722.145558284418
 31
0.0
  0
LINE
  5
1D334
  8
0
 62
     0
 10
1740.0000000000009
 20
1689.4678887547529
 30
0.0
 11
1724.9999999999991
 21
1704.467888754755
 31
0.0
  0
LINE
  5
1D335
  8
0
 62
     0
 10
1740.000000000002
 20
1671.7902192250899
 30
0.0
 11
1725.0
 21
1686.7902192250911
 31
0.0
  0
LINE
  5
1D336
  8
0
 62
     0
 10
1740.0000000000009
 20
1654.112549695426
 30
0.0
 11
1724.9999999999991
 21
1669.1125496954271
 31
0.0
  0
LINE
  5
1D337
  8
0
 62
     0
 10
1740.000000000002
 20
1636.434880165762
 30
0.0
 11
1725.0
 21
1651.4348801657641
 31
0.0
  0
LINE
  5
1D338
  8
0
 62
     0
 10
1740.000000000002
 20
1618.7572106360981
 30
0.0
 11
1725.0
 21
1633.7572106360999
 31
0.0
  0
LINE
  5
1D339
  8
0
 62
     0
 10
1740.0000000000009
 20
1601.0795411064339
 30
0.0
 11
1725.0
 21
1616.079541106436
 31
0.0
  0
LINE
  5
1D33A
  8
0
 62
     0
 10
1740.000000000002
 20
1583.4018715767711
 30
0.0
 11
1725.0
 21
1598.4018715767729
 31
0.0
  0
LINE
  5
1D33B
  8
0
 62
     0
 10
1740.0000000000009
 20
1565.7242020471069
 30
0.0
 11
1724.9999999999991
 21
1580.724202047109
 31
0.0
  0
LINE
  5
1D33C
  8
0
 62
     0
 10
1740.000000000002
 20
1548.046532517443
 30
0.0
 11
1725.0
 21
1563.046532517445
 31
0.0
  0
LINE
  5
1D33D
  8
0
 62
     0
 10
1740.0000000000009
 20
1530.3688629877799
 30
0.0
 11
1724.9999999999991
 21
1545.3688629877811
 31
0.0
  0
LINE
  5
1D33E
  8
0
 62
     0
 10
1740.0000000000009
 20
1512.691193458116
 30
0.0
 11
1725.0
 21
1527.6911934581181
 31
0.0
  0
LINE
  5
1D33F
  8
0
 62
     0
 10
1740.000000000002
 20
1495.0135239284521
 30
0.0
 11
1725.0
 21
1510.0135239284541
 31
0.0
  0
LINE
  5
1D340
  8
0
 62
     0
 10
1740.0000000000009
 20
1477.335854398789
 30
0.0
 11
1725.0
 21
1492.3358543987899
 31
0.0
  0
LINE
  5
1D341
  8
0
 62
     0
 10
1740.000000000002
 20
1459.6581848691251
 30
0.0
 11
1725.0
 21
1474.6581848691269
 31
0.0
  0
LINE
  5
1D342
  8
0
 62
     0
 10
1727.9805153394821
 20
1453.9999999999809
 30
0.0
 11
1724.9999999999991
 21
1456.980515339463
 31
0.0
  0
LINE
  5
1D343
  8
0
 62
     0
 10
1740.0000000000009
 20
1106.104794275851
 30
0.0
 11
1727.104794275876
 21
1118.9999999999759
 31
0.0
  0
LINE
  5
1D344
  8
0
 62
     0
 10
1740.0000000000009
 20
1088.4271247461879
 30
0.0
 11
1725.0
 21
1103.42712474619
 31
0.0
  0
LINE
  5
1D345
  8
0
 62
     0
 10
1740.0000000000009
 20
1070.749455216524
 30
0.0
 11
1724.9999999999991
 21
1085.749455216526
 31
0.0
  0
LINE
  5
1D346
  8
0
 62
     0
 10
1740.0000000000009
 20
1053.0717856868609
 30
0.0
 11
1725.0
 21
1068.0717856868621
 31
0.0
  0
LINE
  5
1D347
  8
0
 62
     0
 10
1740.0000000000009
 20
1035.394116157197
 30
0.0
 11
1725.0
 21
1050.3941161571979
 31
0.0
  0
LINE
  5
1D348
  8
0
 62
     0
 10
1740.0000000000009
 20
1017.7164466275329
 30
0.0
 11
1725.0
 21
1032.7164466275351
 31
0.0
  0
LINE
  5
1D349
  8
0
 62
     0
 10
1740.0000000000009
 20
1000.03877709787
 30
0.0
 11
1725.0
 21
1015.038777097871
 31
0.0
  0
LINE
  5
1D34A
  8
0
 62
     0
 10
1740.0000000000009
 20
982.36110756820619
 30
0.0
 11
1725.0
 21
997.36110756820722
 31
0.0
  0
LINE
  5
1D34B
  8
0
 62
     0
 10
1740.0000000000009
 20
964.68343803854259
 30
0.0
 11
1725.0
 21
979.6834380385435
 31
0.0
  0
LINE
  5
1D34C
  8
0
 62
     0
 10
1740.0000000000009
 20
947.00576850887876
 30
0.0
 11
1725.0
 21
962.00576850887967
 31
0.0
  0
LINE
  5
1D34D
  8
0
 62
     0
 10
1740.0000000000009
 20
929.32809897921527
 30
0.0
 11
1725.0
 21
944.32809897921595
 31
0.0
  0
LINE
  5
1D34E
  8
0
 62
     0
 10
1740.0000000000009
 20
911.65042944955155
 30
0.0
 11
1725.0
 21
926.65042944955235
 31
0.0
  0
LINE
  5
1D34F
  8
0
 62
     0
 10
1740.0000000000009
 20
893.97275991988795
 30
0.0
 11
1725.0
 21
908.9727599198884
 31
0.0
  0
LINE
  5
1D350
  8
0
 62
     0
 10
1740.0000000000009
 20
876.29509039022435
 30
0.0
 11
1725.0
 21
891.29509039022491
 31
0.0
  0
LINE
  5
1D351
  8
0
 62
     0
 10
1740.0000000000009
 20
858.61742086056074
 30
0.0
 11
1725.0
 21
873.61742086056086
 31
0.0
  0
LINE
  5
1D352
  8
0
 62
     0
 10
1740.0000000000009
 20
840.93975133089702
 30
0.0
 11
1725.0
 21
855.93975133089737
 31
0.0
  0
LINE
  5
1D353
  8
0
 62
     0
 10
1740.0000000000009
 20
823.26208180123319
 30
0.0
 11
1725.0
 21
838.26208180123365
 31
0.0
  0
LINE
  5
1D354
  8
0
 62
     0
 10
1740.0000000000009
 20
805.5844122715697
 30
0.0
 11
1725.0000000000009
 21
820.5844122715697
 31
0.0
  0
LINE
  5
1D355
  8
0
 62
     0
 10
1740.0
 20
787.90674274190587
 30
0.0
 11
1725.0
 21
802.90674274190587
 31
0.0
  0
LINE
  5
1D356
  8
0
 62
     0
 10
1740.0
 20
770.2290732122425
 30
0.0
 11
1725.0000000000009
 21
785.22907321224238
 31
0.0
  0
LINE
  5
1D357
  8
0
 62
     0
 10
1740.0000000000009
 20
752.55140368257878
 30
0.0
 11
1725.0000000000009
 21
767.55140368257855
 31
0.0
  0
LINE
  5
1D358
  8
0
 62
     0
 10
1740.0
 20
734.87373415291506
 30
0.0
 11
1725.0000000000009
 21
749.87373415291472
 31
0.0
  0
LINE
  5
1D359
  8
0
 62
     0
 10
1740.0
 20
717.19606462325157
 30
0.0
 11
1725.0000000000009
 21
732.19606462325123
 31
0.0
  0
LINE
  5
1D35A
  8
0
 62
     0
 10
1740.0
 20
699.51839509358774
 30
0.0
 11
1725.0000000000009
 21
714.51839509358729
 31
0.0
  0
LINE
  5
1D35B
  8
0
 62
     0
 10
1740.0
 20
681.84072556392437
 30
0.0
 11
1725.0000000000009
 21
696.84072556392368
 31
0.0
  0
LINE
  5
1D35C
  8
0
 62
     0
 10
1740.0
 20
664.16305603426065
 30
0.0
 11
1725.0000000000009
 21
679.16305603425974
 31
0.0
  0
LINE
  5
1D35D
  8
0
 62
     0
 10
1740.0
 20
646.48538650459705
 30
0.0
 11
1725.0000000000009
 21
661.48538650459614
 31
0.0
  0
LINE
  5
1D35E
  8
0
 62
     0
 10
1740.0
 20
628.80771697493356
 30
0.0
 11
1725.0000000000009
 21
643.80771697493242
 31
0.0
  0
LINE
  5
1D35F
  8
0
 62
     0
 10
1740.0
 20
611.13004744526984
 30
0.0
 11
1725.0000000000009
 21
626.13004744526859
 31
0.0
  0
LINE
  5
1D360
  8
0
 62
     0
 10
1740.0
 20
593.45237791560623
 30
0.0
 11
1725.000000000002
 21
608.45237791560487
 31
0.0
  0
LINE
  5
1D361
  8
0
 62
     0
 10
1740.0
 20
575.77470838594252
 30
0.0
 11
1725.0000000000009
 21
590.77470838594115
 31
0.0
  0
LINE
  5
1D362
  8
0
 62
     0
 10
1740.0
 20
558.0970388562788
 30
0.0
 11
1725.000000000002
 21
573.09703885627744
 31
0.0
  0
LINE
  5
1D363
  8
0
 62
     0
 10
1740.0
 20
540.41936932661497
 30
0.0
 11
1725.000000000002
 21
555.41936932661349
 31
0.0
  0
LINE
  5
1D364
  8
0
 62
     0
 10
1740.0
 20
522.74169979695171
 30
0.0
 11
1725.000000000002
 21
537.74169979694989
 31
0.0
  0
LINE
  5
1D365
  8
0
 62
     0
 10
1740.0
 20
505.06403026728799
 30
0.0
 11
1725.000000000002
 21
520.06403026728617
 31
0.0
  0
LINE
  5
1D366
  8
0
 62
     0
 10
1727.386360737624
 20
500.0000000000004
 30
0.0
 11
1725.000000000002
 21
502.3863607376224
 31
0.0
  0
ENDBLK
  5
1D368
  8
0
  0
BLOCK
  8
0
  2
*U60
 70
     1
 10
0.0
 20
0.0
 30
0.0
  3
*U60
  1

  0
SOLID
  5
1D386
  8
SUNPOU
 10
-1802.720056126421
 20
1087.7599939410341
 30
0.0
 11
-1772.6922442405969
 21
1115.01389197038
 31
0.0
 12
-1792.257829096048
 22
1079.494427817488
 32
0.0
 13
-1792.257829096048
 23
1079.494427817488
 33
0.0
210
0.0
220
0.0
230
-1.0
  0
POLYLINE
  5
1D387
  8
SUNPOU
 66
     1
 10
0.0
 20
0.0
 30
0.0
210
0.0
220
0.0
230
-1.0
  0
VERTEX
  5
1D388
  8
SUNPOU
 10
-1797.4889426112341
 20
1083.6272108792609
 30
0.0
  0
VERTEX
  5
1D389
  8
SUNPOU
 10
-1919.134333939701
 20
929.65328069054794
 30
0.0
  0
SEQEND
  5
1D38A
  8
SUNPOU
  0
ENDBLK
  5
1D38C
  8
0
  0
BLOCK
  8
0
  2
*U61
 70
     1
 10
0.0
 20
0.0
 30
0.0
  3
*U61
  1

  0
SOLID
  5
1D38E
  8
SUNPOU
 10
-1796.0702260395501
 20
1794.2838503612829
 30
0.0
 11
-1772.499999999998
 21
1761.2855339059111
 31
0.0
 12
-1805.4983164553701
 22
1784.855759945463
 32
0.0
 13
-1805.4983164553701
 23
1784.855759945463
 33
0.0
210
0.0
220
0.0
230
-1.0
  0
POLYLINE
  5
1D38F
  8
SUNPOU
 66
     1
 10
0.0
 20
0.0
 30
0.0
210
0.0
220
0.0
230
-1.0
  0
VERTEX
  5
1D390
  8
SUNPOU
 10
-1800.7842712474601
 20
1789.569805153373
 30
0.0
  0
VERTEX
  5
1D391
  8
SUNPOU
 10
-1869.134333939701
 20
1857.919867845615
 30
0.0
  0
SEQEND
  5
1D392
  8
SUNPOU
  0
ENDBLK
  5
1D394
  8
0
  0
ENDSEC
  0
SECTION
  2
ENTITIES
  0
INSERT
  5
39CB
  8
ZWAKU
  2
CALCOMP_TECHJET720A3
 10
0.0
 20
0.0
 30
0.0
 41
20.0
 42
20.0
 43
20.0
  0
INSERT
  5
5281
  8
ZWAKU
  2
CANON_LBP-830A3
 10
0.0
 20
0.0
 30
0.0
 41
20.0
 42
20.0
 43
20.0
  0
TEXT
  5
5282
  8
INFORMATION
 10
1.0
 20
2.0
 30
0.0
 40
0.8
  1
PLOTTER=CANON_LBP-830
  0
TEXT
  5
5283
  8
INFORMATION
 10
1.0
 20
3.0
 30
0.0
 40
0.8
  1
PAPER=A3
  0
TEXT
  5
5284
  8
INFORMATION
 10
1.0
 20
1.0
 30
0.0
 40
0.8
  1
VERSION=3.0
  0
TEXT
  5
67DE
  8
INFORMATION
 10
8041.0
 20
2.0
 30
0.0
 40
0.8
  1
PLOTTER=CANON_LBP-830
  0
TEXT
  5
67DF
  8
INFORMATION
 10
8041.0
 20
3.0
 30
0.0
 40
0.8
  1
PAPER=A3
  0
TEXT
  5
67E0
  8
INFORMATION
 10
8041.0
 20
1.0
 30
0.0
 40
0.8
  1
VERSION=3.0
  0
TEXT
  5
6906
  8
INFORMATION
 10
16081.0
 20
2.0
 30
0.0
 40
0.8
  1
PLOTTER=CANON_LBP-A309G2
  0
TEXT
  5
6907
  8
INFORMATION
 10
16081.0
 20
3.0
 30
0.0
 40
0.8
  1
PAPER=A3
  0
TEXT
  5
6908
  8
INFORMATION
 10
16081.0
 20
1.0
 30
0.0
 40
0.8
  1
VERSION=2.1
  0
TEXT
  5
692D
  8
INFORMATION
 10
21826.288980116591
 20
1829.277671044948
 30
0.0
 40
0.8
  1
PLOTTER=CANON_LBP-A309G2
  0
TEXT
  5
692E
  8
INFORMATION
 10
21826.288980116591
 20
1830.2776710449491
 30
0.0
 40
0.8
  1
PAPER=B4
  0
TEXT
  5
692F
  8
INFORMATION
 10
21826.288980116591
 20
1828.2776710449491
 30
0.0
 40
0.8
  1
VERSION=2.1
  0
TEXT
  5
6A55
  8
INFORMATION
 10
19253.26397994201
 20
1055.4596706914911
 30
0.0
 40
0.8
  1
PLOTTER=CALCOMP_TECHJET720
  0
TEXT
  5
6A56
  8
INFORMATION
 10
19253.26397994201
 20
1056.4596706914911
 30
0.0
 40
0.8
  1
PAPER=A3
  0
TEXT
  5
6A57
  8
INFORMATION
 10
19253.26397994201
 20
1054.4596706914911
 30
0.0
 40
0.8
  1
VERSION=2.1
  0
TEXT
  5
6AD6
  8
INFORMATION
 10
16081.0
 20
2.0
 30
0.0
 40
0.8
  1
PLOTTER=CANON_LBP-830
  0
TEXT
  5
6AD7
  8
INFORMATION
 10
16081.0
 20
3.0
 30
0.0
 40
0.8
  1
PAPER=A3
  0
TEXT
  5
6AD8
  8
INFORMATION
 10
16081.0
 20
1.0
 30
0.0
 40
0.8
  1
VERSION=3.0
  0
TEXT
  5
7630
  8
INFORMATION
 10
1.0
 20
5492.0
 30
0.0
 40
0.8
  1
PLOTTER=CANON_LBP-830
  0
TEXT
  5
7631
  8
INFORMATION
 10
1.0
 20
5493.0
 30
0.0
 40
0.8
  1
PAPER=A3
  0
TEXT
  5
7632
  8
INFORMATION
 10
1.0
 20
5491.0
 30
0.0
 40
0.8
  1
VERSION=3.0
  0
TEXT
  5
7758
  8
INFORMATION
 10
8041.0
 20
5492.0
 30
0.0
 40
0.8
  1
PLOTTER=CANON_LBP-A309G2
  0
TEXT
  5
7759
  8
INFORMATION
 10
8041.0
 20
5493.0
 30
0.0
 40
0.8
  1
PAPER=A3
  0
TEXT
  5
775A
  8
INFORMATION
 10
8041.0
 20
5491.0
 30
0.0
 40
0.8
  1
VERSION=2.1
  0
TEXT
  5
775B
  8
INFORMATION
 10
13786.288980116589
 20
7319.2776710449489
 30
0.0
 40
0.8
  1
PLOTTER=CANON_LBP-A309G2
  0
TEXT
  5
775C
  8
INFORMATION
 10
13786.288980116589
 20
7320.277671044948
 30
0.0
 40
0.8
  1
PAPER=B4
  0
TEXT
  5
775D
  8
INFORMATION
 10
13786.288980116589
 20
7318.2776710449489
 30
0.0
 40
0.8
  1
VERSION=2.1
  0
TEXT
  5
77CE
  8
INFORMATION
 10
11213.263979941999
 20
6545.4596706914908
 30
0.0
 40
0.8
  1
PLOTTER=CALCOMP_TECHJET720
  0
TEXT
  5
77CF
  8
INFORMATION
 10
11213.263979941999
 20
6546.4596706914899
 30
0.0
 40
0.8
  1
PAPER=A3
  0
TEXT
  5
77D0
  8
INFORMATION
 10
11213.263979941999
 20
6544.4596706914908
 30
0.0
 40
0.8
  1
VERSION=2.1
  0
TEXT
  5
783B
  8
INFORMATION
 10
8041.0
 20
5492.0
 30
0.0
 40
0.8
  1
PLOTTER=CANON_LBP-830
  0
TEXT
  5
783C
  8
INFORMATION
 10
8041.0
 20
5493.0
 30
0.0
 40
0.8
  1
PAPER=A3
  0
TEXT
  5
783D
  8
INFORMATION
 10
8041.0
 20
5491.0
 30
0.0
 40
0.8
  1
VERSION=3.0
  0
TEXT
  5
833D
  8
INFORMATION
 10
8041.0
 20
2.0
 30
0.0
 40
0.8
  1
PLOTTER=CANON_LBP-830
  0
TEXT
  5
833E
  8
INFORMATION
 10
8041.0
 20
3.0
 30
0.0
 40
0.8
  1
PAPER=A3
  0
TEXT
  5
833F
  8
INFORMATION
 10
8041.0
 20
1.0
 30
0.0
 40
0.8
  1
VERSION=3.0
  0
TEXT
  5
8465
  8
INFORMATION
 10
16081.0
 20
2.0
 30
0.0
 40
0.8
  1
PLOTTER=CANON_LBP-A309G2
  0
TEXT
  5
8466
  8
INFORMATION
 10
16081.0
 20
3.0
 30
0.0
 40
0.8
  1
PAPER=A3
  0
TEXT
  5
8467
  8
INFORMATION
 10
16081.0
 20
1.0
 30
0.0
 40
0.8
  1
VERSION=2.1
  0
TEXT
  5
8468
  8
INFORMATION
 10
21826.288980116591
 20
1829.277671044948
 30
0.0
 40
0.8
  1
PLOTTER=CANON_LBP-A309G2
  0
TEXT
  5
8469
  8
INFORMATION
 10
21826.288980116591
 20
1830.2776710449491
 30
0.0
 40
0.8
  1
PAPER=B4
  0
TEXT
  5
846A
  8
INFORMATION
 10
21826.288980116591
 20
1828.2776710449491
 30
0.0
 40
0.8
  1
VERSION=2.1
  0
TEXT
  5
84DB
  8
INFORMATION
 10
19253.26397994201
 20
1055.4596706914911
 30
0.0
 40
0.8
  1
PLOTTER=CALCOMP_TECHJET720
  0
TEXT
  5
84DC
  8
INFORMATION
 10
19253.26397994201
 20
1056.4596706914911
 30
0.0
 40
0.8
  1
PAPER=A3
  0
TEXT
  5
84DD
  8
INFORMATION
 10
19253.26397994201
 20
1054.4596706914911
 30
0.0
 40
0.8
  1
VERSION=2.1
  0
TEXT
  5
853C
  8
INFORMATION
 10
16081.0
 20
2.0
 30
0.0
 40
0.8
  1
PLOTTER=CANON_LBP-830
  0
TEXT
  5
853D
  8
INFORMATION
 10
16081.0
 20
3.0
 30
0.0
 40
0.8
  1
PAPER=A3
  0
TEXT
  5
853E
  8
INFORMATION
 10
16081.0
 20
1.0
 30
0.0
 40
0.8
  1
VERSION=3.0
  0
TEXT
  5
8F2D
  8
INFORMATION
 10
8041.0
 20
2.0
 30
0.0
 40
0.8
  1
PLOTTER=CANON_LBP-830
  0
TEXT
  5
8F2E
  8
INFORMATION
 10
8041.0
 20
3.0
 30
0.0
 40
0.8
  1
PAPER=A3
  0
TEXT
  5
8F2F
  8
INFORMATION
 10
8041.0
 20
1.0
 30
0.0
 40
0.8
  1
VERSION=3.0
  0
TEXT
  5
903B
  8
INFORMATION
 10
16081.0
 20
2.0
 30
0.0
 40
0.8
  1
PLOTTER=CANON_LBP-A309G2
  0
TEXT
  5
903C
  8
INFORMATION
 10
16081.0
 20
3.0
 30
0.0
 40
0.8
  1
PAPER=A3
  0
TEXT
  5
903D
  8
INFORMATION
 10
16081.0
 20
1.0
 30
0.0
 40
0.8
  1
VERSION=2.1
  0
TEXT
  5
903E
  8
INFORMATION
 10
21826.288980116591
 20
1829.277671044948
 30
0.0
 40
0.8
  1
PLOTTER=CANON_LBP-A309G2
  0
TEXT
  5
903F
  8
INFORMATION
 10
21826.288980116591
 20
1830.2776710449491
 30
0.0
 40
0.8
  1
PAPER=B4
  0
TEXT
  5
9040
  8
INFORMATION
 10
21826.288980116591
 20
1828.2776710449491
 30
0.0
 40
0.8
  1
VERSION=2.1
  0
TEXT
  5
90B1
  8
INFORMATION
 10
19253.26397994201
 20
1055.4596706914911
 30
0.0
 40
0.8
  1
PLOTTER=CALCOMP_TECHJET720
  0
TEXT
  5
90B2
  8
INFORMATION
 10
19253.26397994201
 20
1056.4596706914911
 30
0.0
 40
0.8
  1
PAPER=A3
  0
TEXT
  5
90B3
  8
INFORMATION
 10
19253.26397994201
 20
1054.4596706914911
 30
0.0
 40
0.8
  1
VERSION=2.1
  0
TEXT
  5
90E9
  8
INFORMATION
 10
16081.0
 20
2.0
 30
0.0
 40
0.8
  1
PLOTTER=CANON_LBP-830
  0
TEXT
  5
90EA
  8
INFORMATION
 10
16081.0
 20
3.0
 30
0.0
 40
0.8
  1
PAPER=A3
  0
TEXT
  5
90EB
  8
INFORMATION
 10
16081.0
 20
1.0
 30
0.0
 40
0.8
  1
VERSION=3.0
  0
TEXT
  5
95B0
  8
MOJI
 10
7244.7619047619037
 20
506.99999999974841
 30
0.0
 40
50.0
  1
11
 41
0.8
  7
EXT08
 72
     4
 11
7280.0
 21
531.99999999974841
 31
0.0
  0
TEXT
  5
95B1
  8
MOJI
 10
7241.9047619047633
 20
410.9999999994821
 30
0.0
 40
49.999999999999957
  1
40
 41
0.8
  7
EXT08
 72
     4
 11
7280.0
 21
435.9999999994821
 31
0.0
  0
TEXT
  5
95B2
  8
MOJI
 10
7237.333333333333
 20
698.99999999974534
 30
0.0
 40
50.0
  1
数量
 41
0.8
  7
EXT08
 72
     4
 11
7280.0
 21
723.99999999974534
 31
0.0
  0
TEXT
  5
95B3
  8
MOJI
 10
6841.9523809523807
 20
698.99999999974534
 30
0.0
 40
50.0
  1
摘要
 41
0.8
  7
EXT08
 72
     4
 11
6885.0
 21
723.99999999974534
 31
0.0
  0
TEXT
  5
95B5
  8
MOJI
 10
6695.666666666667
 20
506.99999999974841
 30
0.0
 40
50.0
  1
アルミ＋樹脂被覆
 41
0.8
  7
EXT08
 72
     4
 11
6885.0
 21
531.99999999974841
 31
0.0
  0
LINE
  5
95C6
  8
SJC2
 10
6560.0
 20
771.99999999974705
 30
0.0
 11
6560.0
 21
100.00000000005041
 31
0.0
  0
LINE
  5
95C7
  8
SJC2
 10
7210.0
 20
771.99999999974705
 30
0.0
 11
7210.0
 21
100.00000000005041
 31
0.0
  0
LINE
  5
95C8
  8
MOJI
 10
7350.0
 20
771.99999999974705
 30
0.0
 11
7350.0
 21
100.00000000005041
 31
0.0
  0
LINE
  5
95C9
  8
MOJI
 10
6060.0
 20
819.99999999974796
 30
0.0
 11
6060.0
 21
915.99999999974841
 31
0.0
  0
TEXT
  5
95CA
  8
MOJI
 10
5617.333333333333
 20
506.99999999974619
 30
0.0
 40
50.0
  1
支柱
 41
0.8
  7
EXT08
 72
     4
 11
5660.0
 21
531.99999999974625
 31
0.0
  0
TEXT
  5
95CB
  8
MOJI
 10
5617.333333333333
 20
410.9999999994825
 30
0.0
 40
49.999999999999957
  1
横木
 41
0.8
  7
EXT08
 72
     4
 11
5660.0
 21
435.9999999994825
 31
0.0
  0
TEXT
  5
95CC
  8
MOJI
 10
5594.666666666667
 20
698.99999999974125
 30
0.0
 40
50.0
  1
部材名
 41
0.8
  7
EXT08
 72
     4
 11
5660.0
 21
723.99999999974125
 31
0.0
  0
LINE
  5
95CD
  8
MOJI
 10
5160.0
 20
819.99999999974796
 30
0.0
 11
5160.0
 21
915.99999999974841
 31
0.0
  0
TEXT
  5
95CE
  8
MOJI
 10
5193.8095238095229
 20
602.99999999974534
 30
0.0
 40
50.0
  1
1
 41
0.8
  7
EXT08
 72
     4
 11
5210.0
 21
627.99999999974534
 31
0.0
  0
TEXT
  5
95CF
  8
MOJI
 10
5190.9523809523807
 20
506.99999999974528
 30
0.0
 40
50.0
  1
2
 41
0.8
  7
EXT08
 72
     4
 11
5210.0
 21
531.99999999974534
 31
0.0
  0
LINE
  5
95D0
  8
MOJI
 10
5160.0
 20
771.99999999974568
 30
0.0
 11
5260.0
 21
675.99999999974477
 31
0.0
  0
LINE
  5
95D1
  8
MOJI
 10
5160.0
 20
819.99999999974796
 30
0.0
 11
6060.0
 21
819.99999999974796
 31
0.0
  0
LINE
  5
95D2
  8
MOJI
 10
5160.0
 20
915.99999999974841
 30
0.0
 11
6060.0
 21
915.99999999974841
 31
0.0
  0
TEXT
  5
95D3
  8
MOJI
 10
5244.0952380952394
 20
847.76190476165334
 30
0.0
 40
50.0
  1
部材数量表 （20m, 1連当たり）
 41
0.8
  7
EXT08
 72
     4
 11
5610.0
 21
867.99999999974864
 31
0.0
  0
TEXT
  5
95D9
  8
MOJI
 10
5190.9523809523807
 20
410.99999999974352
 30
0.0
 40
50.0
  1
3
 41
0.8
  7
EXT08
 72
     4
 11
5210.0
 21
435.99999999974352
 31
0.0
  0
TEXT
  5
95DA
  8
MOJI
 10
5190.0
 20
314.9999999997421
 30
0.0
 40
50.0
  1
4
 41
0.8
  7
EXT08
 72
     4
 11
5210.0
 21
339.9999999997421
 31
0.0
  0
TEXT
  5
95DB
  8
MOJI
 10
5190.0
 20
122.99999999974121
 30
0.0
 40
50.0
  1
6
 41
0.8
  7
EXT08
 72
     4
 11
5210.0
 21
147.99999999974119
 31
0.0
  0
TEXT
  5
95DD
  8
MOJI
 10
5190.9523809523807
 20
218.99999999974349
 30
0.0
 40
50.0
  1
5
 41
0.8
  7
EXT08
 72
     4
 11
5210.0
 21
243.99999999974349
 31
0.0
  0
LINE
  5
95E6
  8
MOJI
 10
5260.0
 20
771.99999999974762
 30
0.0
 11
5260.0
 21
100.00000000004999
 31
0.0
  0
LINE
  5
95E7
  8
MOJI
 10
5160.0
 20
771.99999999974762
 30
0.0
 11
5160.0
 21
100.00000000004999
 31
0.0
  0
LINE
  5
95E8
  8
MOJI
 10
6060.0
 20
771.99999999974705
 30
0.0
 11
6060.0
 21
100.00000000005041
 31
0.0
  0
LINE
  5
95EA
  8
SJC2
 10
5160.0
 20
483.99999999974352
 30
0.0
 11
7350.0
 21
483.99999999974528
 31
0.0
  0
LINE
  5
95EB
  8
SJC2
 10
5160.0
 20
483.99999999969299
 30
0.0
 11
7350.0
 21
483.99999999969481
 31
0.0
  0
LINE
  5
95EC
  8
SJC2
 10
5160.0
 20
291.99999999969299
 30
0.0
 11
7350.0
 21
291.99999999969441
 31
0.0
  0
LINE
  5
95ED
  8
MOJI
 10
5160.0
 20
100.0000000000509
 30
0.0
 11
7350.0
 21
100.00000000005041
 31
0.0
  0
LINE
  5
95EE
  8
SJC2
 10
5160.0
 20
195.9999999996912
 30
0.0
 11
7350.0
 21
195.9999999996939
 31
0.0
  0
LINE
  5
95EF
  8
SJC2
 10
5160.0
 20
387.99999999969322
 30
0.0
 11
7350.0
 21
387.99999999969441
 31
0.0
  0
LINE
  5
95F3
  8
MOJI
 10
5160.0
 20
771.99999999974568
 30
0.0
 11
7350.0
 21
771.99999999974762
 31
0.0
  0
LINE
  5
95F4
  8
MOJI
 10
5160.0
 20
675.99999999974477
 30
0.0
 11
7350.0
 21
675.99999999974477
 31
0.0
  0
LINE
  5
95F5
  8
SJC2
 10
5160.0
 20
579.99999999974591
 30
0.0
 11
7350.0
 21
579.99999999974716
 31
0.0
  0
TEXT
  5
95FF
  8
MOJI
 10
6074.1666666666661
 20
506.99999999974841
 30
0.0
 40
50.0
  1
A6063S-T5+木粉入り変性PE
 41
0.5
  7
EXT08
 72
     4
 11
6310.0
 21
531.99999999974841
 31
0.0
  0
TEXT
  5
9600
  8
MOJI
 10
6267.333333333333
 20
698.99999999974386
 30
0.0
 40
50.0
  1
材質
 41
0.8
  7
EXT08
 72
     4
 11
6310.0
 21
723.99999999974386
 31
0.0
  0
TEXT
  5
9602
  8
MOJI
 10
5521.6190476190468
 20
602.99999999974386
 30
0.0
 40
50.0
  1
頭部キャップ
 41
0.8
  7
EXT08
 72
     4
 11
5660.0
 21
627.99999999974386
 31
0.0
  0
TEXT
  5
9603
  8
MOJI
 10
6275.0
 20
602.99999999974625
 30
0.0
 40
50.0
  1
PE
 41
0.7
  7
EXT08
 72
     4
 11
6310.0
 21
627.99999999974625
 31
0.0
  0
TEXT
  5
9604
  8
MOJI
 10
7244.7619047619037
 20
602.99999999974625
 30
0.0
 40
50.0
  1
11
 41
0.8
  7
EXT08
 72
     4
 11
7280.0
 21
627.99999999974625
 31
0.0
  0
TEXT
  5
16B42
  8
INFORMATION
 10
8041.0
 20
2.0
 30
0.0
 40
0.8
  1
PLOTTER=CANON_LBP-830
  0
TEXT
  5
16B43
  8
INFORMATION
 10
8041.0
 20
3.0
 30
0.0
 40
0.8
  1
PAPER=A3
  0
TEXT
  5
16B44
  8
INFORMATION
 10
8041.0
 20
1.0
 30
0.0
 40
0.8
  1
VERSION=3.0
  0
TEXT
  5
16B56
  8
INFORMATION
 10
16081.0
 20
2.0
 30
0.0
 40
0.8
  1
PLOTTER=CANON_LBP-830
  0
TEXT
  5
16B57
  8
INFORMATION
 10
16081.0
 20
3.0
 30
0.0
 40
0.8
  1
PAPER=A3
  0
TEXT
  5
16B58
  8
INFORMATION
 10
16081.0
 20
1.0
 30
0.0
 40
0.8
  1
VERSION=3.0
  0
TEXT
  5
16B5C
  8
INFORMATION
 10
24121.0
 20
2.0
 30
0.0
 40
0.8
  1
PLOTTER=CANON_LBP-A309G2
  0
TEXT
  5
16B5D
  8
INFORMATION
 10
24121.0
 20
3.0
 30
0.0
 40
0.8
  1
PAPER=A3
  0
TEXT
  5
16B5E
  8
INFORMATION
 10
24121.0
 20
1.0
 30
0.0
 40
0.8
  1
VERSION=2.1
  0
TEXT
  5
16B5F
  8
INFORMATION
 10
29866.288980116598
 20
1829.277671044948
 30
0.0
 40
0.8
  1
PLOTTER=CANON_LBP-A309G2
  0
TEXT
  5
16B60
  8
INFORMATION
 10
29866.288980116598
 20
1830.2776710449491
 30
0.0
 40
0.8
  1
PAPER=B4
  0
TEXT
  5
16B61
  8
INFORMATION
 10
29866.288980116598
 20
1828.2776710449491
 30
0.0
 40
0.8
  1
VERSION=2.1
  0
TEXT
  5
16B66
  8
INFORMATION
 10
27293.26397994201
 20
1055.4596706914911
 30
0.0
 40
0.8
  1
PLOTTER=CALCOMP_TECHJET720
  0
TEXT
  5
16B67
  8
INFORMATION
 10
27293.26397994201
 20
1056.4596706914911
 30
0.0
 40
0.8
  1
PAPER=A3
  0
TEXT
  5
16B68
  8
INFORMATION
 10
27293.26397994201
 20
1054.4596706914911
 30
0.0
 40
0.8
  1
VERSION=2.1
  0
TEXT
  5
16B7A
  8
INFORMATION
 10
24121.0
 20
2.0
 30
0.0
 40
0.8
  1
PLOTTER=CANON_LBP-830
  0
TEXT
  5
16B7B
  8
INFORMATION
 10
24121.0
 20
3.0
 30
0.0
 40
0.8
  1
PAPER=A3
  0
TEXT
  5
16B7C
  8
INFORMATION
 10
24121.0
 20
1.0
 30
0.0
 40
0.8
  1
VERSION=3.0
  0
TEXT
  5
16B92
  8
INFORMATION
 10
8041.0
 20
5492.0
 30
0.0
 40
0.8
  1
PLOTTER=CANON_LBP-830
  0
TEXT
  5
16B93
  8
INFORMATION
 10
8041.0
 20
5493.0
 30
0.0
 40
0.8
  1
PAPER=A3
  0
TEXT
  5
16B94
  8
INFORMATION
 10
8041.0
 20
5491.0
 30
0.0
 40
0.8
  1
VERSION=3.0
  0
TEXT
  5
16B95
  8
INFORMATION
 10
16081.0
 20
5492.0
 30
0.0
 40
0.8
  1
PLOTTER=CANON_LBP-A309G2
  0
TEXT
  5
16B96
  8
INFORMATION
 10
16081.0
 20
5493.0
 30
0.0
 40
0.8
  1
PAPER=A3
  0
TEXT
  5
16B97
  8
INFORMATION
 10
16081.0
 20
5491.0
 30
0.0
 40
0.8
  1
VERSION=2.1
  0
TEXT
  5
16B98
  8
INFORMATION
 10
21826.288980116591
 20
7319.2776710449489
 30
0.0
 40
0.8
  1
PLOTTER=CANON_LBP-A309G2
  0
TEXT
  5
16B99
  8
INFORMATION
 10
21826.288980116591
 20
7320.277671044948
 30
0.0
 40
0.8
  1
PAPER=B4
  0
TEXT
  5
16B9A
  8
INFORMATION
 10
21826.288980116591
 20
7318.2776710449489
 30
0.0
 40
0.8
  1
VERSION=2.1
  0
TEXT
  5
16B9B
  8
INFORMATION
 10
19253.26397994201
 20
6545.4596706914908
 30
0.0
 40
0.8
  1
PLOTTER=CALCOMP_TECHJET720
  0
TEXT
  5
16B9C
  8
INFORMATION
 10
19253.26397994201
 20
6546.4596706914899
 30
0.0
 40
0.8
  1
PAPER=A3
  0
TEXT
  5
16B9D
  8
INFORMATION
 10
19253.26397994201
 20
6544.4596706914908
 30
0.0
 40
0.8
  1
VERSION=2.1
  0
TEXT
  5
16B9E
  8
INFORMATION
 10
16081.0
 20
5492.0
 30
0.0
 40
0.8
  1
PLOTTER=CANON_LBP-830
  0
TEXT
  5
16B9F
  8
INFORMATION
 10
16081.0
 20
5493.0
 30
0.0
 40
0.8
  1
PAPER=A3
  0
TEXT
  5
16BA0
  8
INFORMATION
 10
16081.0
 20
5491.0
 30
0.0
 40
0.8
  1
VERSION=3.0
  0
TEXT
  5
16BA1
  8
INFORMATION
 10
16081.0
 20
2.0
 30
0.0
 40
0.8
  1
PLOTTER=CANON_LBP-830
  0
TEXT
  5
16BA2
  8
INFORMATION
 10
16081.0
 20
3.0
 30
0.0
 40
0.8
  1
PAPER=A3
  0
TEXT
  5
16BA3
  8
INFORMATION
 10
16081.0
 20
1.0
 30
0.0
 40
0.8
  1
VERSION=3.0
  0
TEXT
  5
16BA4
  8
INFORMATION
 10
24121.0
 20
2.0
 30
0.0
 40
0.8
  1
PLOTTER=CANON_LBP-A309G2
  0
TEXT
  5
16BA5
  8
INFORMATION
 10
24121.0
 20
3.0
 30
0.0
 40
0.8
  1
PAPER=A3
  0
TEXT
  5
16BA6
  8
INFORMATION
 10
24121.0
 20
1.0
 30
0.0
 40
0.8
  1
VERSION=2.1
  0
TEXT
  5
16BA7
  8
INFORMATION
 10
29866.288980116598
 20
1829.277671044948
 30
0.0
 40
0.8
  1
PLOTTER=CANON_LBP-A309G2
  0
TEXT
  5
16BA8
  8
INFORMATION
 10
29866.288980116598
 20
1830.2776710449491
 30
0.0
 40
0.8
  1
PAPER=B4
  0
TEXT
  5
16BA9
  8
INFORMATION
 10
29866.288980116598
 20
1828.2776710449491
 30
0.0
 40
0.8
  1
VERSION=2.1
  0
TEXT
  5
16BAA
  8
INFORMATION
 10
27293.26397994201
 20
1055.4596706914911
 30
0.0
 40
0.8
  1
PLOTTER=CALCOMP_TECHJET720
  0
TEXT
  5
16BAB
  8
INFORMATION
 10
27293.26397994201
 20
1056.4596706914911
 30
0.0
 40
0.8
  1
PAPER=A3
  0
TEXT
  5
16BAC
  8
INFORMATION
 10
27293.26397994201
 20
1054.4596706914911
 30
0.0
 40
0.8
  1
VERSION=2.1
  0
TEXT
  5
16BAD
  8
INFORMATION
 10
24121.0
 20
2.0
 30
0.0
 40
0.8
  1
PLOTTER=CANON_LBP-830
  0
TEXT
  5
16BAE
  8
INFORMATION
 10
24121.0
 20
3.0
 30
0.0
 40
0.8
  1
PAPER=A3
  0
TEXT
  5
16BAF
  8
INFORMATION
 10
24121.0
 20
1.0
 30
0.0
 40
0.8
  1
VERSION=3.0
  0
TEXT
  5
16BB0
  8
SJC
 10
6487.8857142857214
 20
4918.2000000000126
 30
0.0
 40
64.0
  1
<連続基礎式>
 41
0.8
  7
EXT08
 72
     4
 11
6700.0000000000073
 21
4950.2000000000126
 31
0.0
  0
TEXT
  5
16BB1
  8
SJC
 10
6415.9619047619126
 20
4818.2000000000126
 30
0.0
 40
64.0
  1
TKC-411-20W
 41
0.8
  7
EXT08
 72
     4
 11
6700.0000000000073
 21
4850.2000000000116
 31
0.0
  0
TEXT
  5
16BB2
  8
SJC
 10
5118.6409335889384
 20
4818.2000000000126
 30
0.0
 40
64.0
  1
TKC-411-20C
 41
0.8
  7
EXT08
 72
     4
 11
5397.8028383508426
 21
4850.2000000000116
 31
0.0
  0
TEXT
  5
16BB3
  8
SJC
 10
5062.8085526365567
 20
4918.2000000000126
 30
0.0
 40
64.0
  1
<コンクリート基礎式>
 41
0.8
  7
EXT08
 72
     4
 11
5397.8028383508426
 21
4950.2000000000126
 31
0.0
  0
TEXT
  5
16BB4
  8
MOJI
 10
72.208028168908641
 20
4749.9999999999936
 30
0.0
 40
100.0
  1
設置図
 41
0.8
  7
EXT08
  0
TEXT
  5
16BB8
  8
INFORMATION
 10
16081.0
 20
2.0
 30
0.0
 40
0.8
  1
PLOTTER=CANON_LBP-830
  0
TEXT
  5
16BB9
  8
INFORMATION
 10
16081.0
 20
3.0
 30
0.0
 40
0.8
  1
PAPER=A3
  0
TEXT
  5
16BBA
  8
INFORMATION
 10
16081.0
 20
1.0
 30
0.0
 40
0.8
  1
VERSION=3.0
  0
TEXT
  5
16BBB
  8
INFORMATION
 10
24121.0
 20
2.0
 30
0.0
 40
0.8
  1
PLOTTER=CANON_LBP-A309G2
  0
TEXT
  5
16BBC
  8
INFORMATION
 10
24121.0
 20
3.0
 30
0.0
 40
0.8
  1
PAPER=A3
  0
TEXT
  5
16BBD
  8
INFORMATION
 10
24121.0
 20
1.0
 30
0.0
 40
0.8
  1
VERSION=2.1
  0
TEXT
  5
16BBE
  8
INFORMATION
 10
29866.288980116598
 20
1829.277671044948
 30
0.0
 40
0.8
  1
PLOTTER=CANON_LBP-A309G2
  0
TEXT
  5
16BBF
  8
INFORMATION
 10
29866.288980116598
 20
1830.2776710449491
 30
0.0
 40
0.8
  1
PAPER=B4
  0
TEXT
  5
16BC0
  8
INFORMATION
 10
29866.288980116598
 20
1828.2776710449491
 30
0.0
 40
0.8
  1
VERSION=2.1
  0
TEXT
  5
16BC1
  8
INFORMATION
 10
27293.26397994201
 20
1055.4596706914911
 30
0.0
 40
0.8
  1
PLOTTER=CALCOMP_TECHJET720
  0
TEXT
  5
16BC2
  8
INFORMATION
 10
27293.26397994201
 20
1056.4596706914911
 30
0.0
 40
0.8
  1
PAPER=A3
  0
TEXT
  5
16BC3
  8
INFORMATION
 10
27293.26397994201
 20
1054.4596706914911
 30
0.0
 40
0.8
  1
VERSION=2.1
  0
TEXT
  5
16BC4
  8
INFORMATION
 10
24121.0
 20
2.0
 30
0.0
 40
0.8
  1
PLOTTER=CANON_LBP-830
  0
TEXT
  5
16BC5
  8
INFORMATION
 10
24121.0
 20
3.0
 30
0.0
 40
0.8
  1
PAPER=A3
  0
LINE
  5
16BD5
  8
SJC
 10
6875.0000000000027
 20
3140.0
 30
0.0
 11
7025.0000000000036
 21
3140.0
 31
0.0
  0
LINE
  5
16BD8
  8
SJC
 10
6625.0000000000036
 20
3139.9999999999991
 30
0.0
 11
6775.0000000000027
 21
3139.9999999999991
 31
0.0
  0
LINE
  5
16BDB
  8
SJC
 10
6875.0000000000009
 20
2940.0
 30
0.0
 11
6775.0000000000027
 21
2940.0
 31
0.0
  0
LINE
  5
16BE3
  8
SJC
 10
5302.5635618658098
 20
3140.0
 30
0.0
 11
5302.5635618658052
 21
2690.0
 31
0.0
1001
ACAD
1000
ASC_BOUNDS
1002
{
1070
    19
1005
1B14F
1002
}
  0
LINE
  5
16BE4
  8
SJC
 10
5002.5635618658089
 20
3140.0
 30
0.0
 11
5002.5635618658052
 21
2690.0000000000009
 31
0.0
1001
ACAD
1000
ASC_BOUNDS
1002
{
1070
    19
1005
1B14F
1002
}
  0
LINE
  5
16BE5
  8
SJC
 10
5002.5635618658052
 20
2690.0
 30
0.0
 11
5302.5635618658052
 21
2690.0
 31
0.0
1001
ACAD
1000
ASC_BOUNDS
1002
{
1070
    19
1005
1B14F
1005
1B14F
1005
0
1005
0
1005
0
1005
0
1002
}
  0
DIMENSION
  5
16BF6
  8
SUNPOU
  2
*D3
 10
5302.5635618658052
 20
2515.6247352848159
 30
0.0
 11
5152.5635618658052
 21
2575.6247352848159
 31
0.0
 70
     0
  1
□300
 13
5002.5635618658052
 23
2690.0
 33
0.0
 14
5302.5635618658052
 24
2690.0
 34
0.0
1001
ACAD
1000
DSTYLE
1002
{
1070
    78
1070
     8
1070
   140
1040
3.0
1070
   340
1005
62
1070
   145
1040
1.0
1070
    74
1070
     0
1070
   172
1070
     1
1070
    73
1070
     0
1070
    40
1040
20.0
1070
   147
1040
0.0
1070
    42
1040
1.0
1070
    44
1040
1.0
1070
    43
1040
6.0
1070
   178
1070
   256
1070
   177
1070
   256
1070
   176
1070
   256
1070
    41
1040
2.0
1002
}
  0
DIMENSION
  5
16BF7
  8
SUNPOU
  2
*D4
 10
7225.0000000000036
 20
3140.0
 30
0.0
 11
7165.0000000000027
 21
3040.0000000000009
 31
0.0
 70
     0
 13
6875.0000000000009
 23
2940.0
 33
0.0
 14
7025.0000000000036
 24
3140.0
 34
0.0
 50
90.0
1001
ACAD
1000
DSTYLE
1002
{
1070
   287
1070
     5
1070
   287
1070
     5
1070
   287
1070
     5
1070
   287
1070
     5
1070
    40
1040
20.0
1070
    41
1040
2.0
1070
    42
1040
1.0
1070
    43
1040
6.0
1070
    44
1040
1.0
1070
    73
1070
     0
1070
    74
1070
     0
1070
    78
1070
     8
1070
   140
1040
3.0
1070
   145
1040
1.0
1070
   147
1040
0.0
1070
   172
1070
     1
1070
   176
1070
   256
1070
   177
1070
   256
1070
   178
1070
   256
1070
   279
1070
     2
1070
   340
1005
62
1002
}
  0
TEXT
  5
16C6D
  8
MOJI
 10
2315.1125774174329
 20
2960.0000000000018
 30
0.0
 40
60.0
  1
横木：角型テンダーウッド(□40×60)
 41
0.8
  7
EXT08
  0
LINE
  5
16C6E
  8
SUNPOU
 10
2210.2650244594379
 20
2940.0000000000018
 30
0.0
 11
3379.4561858036718
 21
2940.0000000000032
 31
0.0
  0
TEXT
  5
16C6F
  8
MOJI
 10
2247.0835225395608
 20
2970.5265002255678
 30
0.0
 40
40.0
  1
3
 41
0.8
  7
EXT08
 72
     4
 11
2262.3216177776571
 21
2990.5265002255678
 31
0.0
  0
CIRCLE
  5
16C70
  8
MOJI
 10
2262.3216177776571
 20
2990.5265002255678
 30
0.0
 40
35.0
  0
TEXT
  5
16C71
  8
MOJI
 10
2315.1125774174329
 20
2868.5714285714312
 30
0.0
 40
60.0
  1
芯材アルミパイプ □37\U+00d757
 41
0.8
  7
EXT08
  0
INSERT
  5
16CA8
  8
SJC
  2
B0040007
 10
400.0
 20
3140.0
 30
0.0
 41
20.0
 42
20.0
 43
20.0
  0
LINE
  5
16CA9
  8
SJC
 10
5102.5635618658071
 20
3140.0
 30
0.0
 11
4902.5635618658052
 21
3139.9999999999991
 31
0.0
1001
ACAD
1000
ASC_BOUNDS
1002
{
1070
    19
1005
1B14F
1002
}
  0
TEXT
  5
17B45
  8
MOJI
 10
6468.8607544992046
 20
5140.0
 30
0.0
 40
60.0
  1
TKC-411-20
 41
0.8
  7
EXT08
 11
6468.8607544992046
 21
5170.0
 31
0.0
 73
     2
  0
TEXT
  5
17B46
  8
MOJI
 10
6468.8607544992046
 20
5040.0
 30
0.0
 40
60.0
  1
KREH00807※1
 41
0.8
  7
EXT08
 11
6468.8607544992046
 21
5070.0
 31
0.0
 73
     2
  0
TEXT
  5
17B47
  8
MOJI
 10
6468.8607544992046
 20
5240.0
 30
0.0
 40
60.0
  1
角型テンダーウッド 横木柵
 41
0.8
  7
EXT08
 11
6468.8607544992046
 21
5270.0
 31
0.0
 73
     2
  0
LINE
  5
17B49
  8
SJC
 10
6158.8607544992046
 20
5320.0
 30
0.0
 11
7347.7924203570728
 21
5320.0
 31
0.0
  0
LINE
  5
17B4A
  8
SJC
 10
6128.8607544992037
 20
5220.0
 30
0.0
 11
7377.7924203570728
 21
5220.0
 31
0.0
  0
LINE
  5
17B4B
  8
SJC
 10
6128.8607544992037
 20
5120.0
 30
0.0
 11
7377.7924203570728
 21
5120.0
 31
0.0
  0
LINE
  5
17B4C
  8
SJC
 10
6158.8607544992046
 20
5020.0
 30
0.0
 11
7347.7924203570728
 21
5020.0
 31
0.0
  0
LINE
  5
17B4D
  8
SJC
 10
6428.8607544992037
 20
5020.0
 30
0.0
 11
6428.8607544992037
 21
5320.0
 31
0.0
  0
TEXT
  5
17B4E
  8
MOJI
 10
6194.4036116420621
 20
5238.8000000000011
 30
0.0
 40
60.0
  1
タイプ
 41
0.8
  7
EXT08
 72
     4
 11
6278.8607544992046
 21
5270.0
 31
0.0
  0
LINE
  5
17B4F
  8
SJC
 10
6128.8607544992037
 20
5050.0
 30
0.0
 11
6128.8607544992037
 21
5290.0
 31
0.0
  0
TEXT
  5
17B50
  8
MOJI
 10
6168.460754499205
 20
5040.0
 30
0.0
 40
60.0
  1
図面番号
 41
0.8
  7
EXT08
 72
     4
 11
6278.8607544992046
 21
5070.0
 31
0.0
  0
TEXT
  5
17B51
  8
MOJI
 10
6198.8607544992046
 20
5140.0
 30
0.0
 40
60.0
  1
品  番
 41
0.8
  7
EXT08
 72
     4
 11
6278.8607544992046
 21
5170.0
 31
0.0
  0
ARC
  5
17B52
  8
SJC
 10
6158.8607544992046
 20
5050.0
 30
0.0
 40
30.0
 50
180.0
 51
270.0
  0
ARC
  5
17B53
  8
SJC
 10
6158.8607544992046
 20
5290.0
 30
0.0
 40
30.0
 50
90.0
 51
180.0
  0
LINE
  5
17B54
  8
SJC
 10
7377.7924203570728
 20
5050.0
 30
0.0
 11
7377.7924203570728
 21
5290.0
 31
0.0
  0
ARC
  5
17B55
  8
SJC
 10
7347.7924203570728
 20
5050.0
 30
0.0
 40
30.0
 50
270.0
 51
0.0
  0
ARC
  5
17B56
  8
SJC
 10
7347.7924203570728
 20
5290.0
 30
0.0
 40
30.0
 50
0.0
 51
90.0
  0
LINE
  5
1891A
  8
SJC
 10
5202.5635618658062
 20
3140.0000000000018
 30
0.0
 11
5802.5635618658098
 21
3139.9999999999991
 31
0.0
1001
ACAD
1000
ASC_BOUNDS
1002
{
1070
    19
1005
1B14F
1002
}
  0
DIMENSION
  5
1891B
  8
SUNPOU
  2
*D5
 10
5802.5635618658098
 20
3284.4226375089502
 30
0.0
 11
5527.75443725691
 21
3284.4226375089502
 31
0.0
 70
   128
  1
<>以上
 13
5302.5635618658098
 23
3140.0000000000009
 33
0.0
 14
5802.5635618658098
 24
3140.0000000000018
 34
0.0
1001
ACAD
1000
DSTYLE
1002
{
1070
    40
1040
20.0
1070
    41
1040
2.0
1070
    42
1040
1.0
1070
    43
1040
6.0
1070
    44
1040
1.0
1070
    73
1070
     0
1070
    74
1070
     0
1070
    77
1070
     1
1070
    78
1070
     8
1070
   140
1040
3.0
1070
   147
1040
1.1999999999999991
1070
   172
1070
     1
1070
   271
1070
     2
1070
   340
1005
62
1002
}
  0
LINE
  5
18930
  8
SJC
 10
5802.5635618658098
 20
3140.0000000000018
 30
0.0
 11
6272.1954301168589
 21
2826.9120878326371
 31
0.0
  0
TEXT
  5
1893A
  8
SUNPOU
 10
5984.4171170694681
 20
3029.1210297521739
 30
0.0
 40
60.0
  1
1：1.5より緩やか
 41
0.8
  7
EXT08
 11
5984.4171170694681
 21
3059.1210297521752
 31
0.0
 73
     2
  0
TEXT
  5
1893B
  8
SUNPOU
 10
5939.3252622740247
 20
3114.8008369268268
 30
0.0
 40
60.0
  1
　法勾配
 41
0.8
  7
EXT08
 11
5939.3252622740247
 21
3144.8008369268268
 31
0.0
 73
     2
  0
LINE
  5
19472
  8
SJC
 10
399.99999999999818
 20
3140.0
 30
0.0
 11
4750.3828152808064
 21
3140.0
 31
0.0
  0
INSERT
  5
19474
  8
SJC
  2
B0040007
 10
399.99999999999818
 20
3140.0
 30
0.0
 41
20.0
 42
20.0
 43
20.0
  0
INSERT
  5
19476
  8
SJC
  2
*U36
 10
0.0
 20
0.0
 30
0.0
1001
ACAD
1000
DSTYLE
1002
{
1070
     5
1000

1070
    40
1040
20.0
1070
    41
1040
2.0
1070
    42
1040
1.0
1070
    43
1040
6.0
1070
    44
1040
1.0
1070
    73
1070
     0
1070
    74
1070
     0
1070
    77
1070
     1
1070
    78
1070
     8
1070
   140
1040
3.0
1070
   147
1040
1.1999999999999991
1070
   172
1070
     1
1070
   179
1070
     2
1070
   271
1070
     2
1070
   279
1070
     2
1070
   340
1005
62
1070
   342
1005
0
1002
}
  0
INSERT
  5
19478
  8
SJC
  2
*U37
 10
0.0
 20
0.0
 30
0.0
1001
ACAD
1000
DSTYLE
1002
{
1070
     5
1000

1070
    40
1040
20.0
1070
    41
1040
2.0
1070
    42
1040
1.0
1070
    43
1040
6.0
1070
    44
1040
1.0
1070
    73
1070
     0
1070
    74
1070
     0
1070
    77
1070
     1
1070
    78
1070
     8
1070
   140
1040
3.0
1070
   147
1040
1.1999999999999991
1070
   172
1070
     1
1070
   179
1070
     2
1070
   271
1070
     2
1070
   279
1070
     2
1070
   340
1005
62
1070
   342
1005
0
1002
}
  0
LINE
  5
1947E
  8
SJC
 10
700.0
 20
3140.0
 30
0.0
 11
700.0
 21
4290.0
 31
0.0
  0
LINE
  5
1947F
  8
SJC
 10
600.0
 20
3140.0
 30
0.0
 11
600.0
 21
4290.0
 31
0.0
  0
LINE
  5
19480
  8
CENTER
 10
650.0
 20
3072.8619472302021
 30
0.0
 11
650.0
 21
4378.0000000000018
 31
0.0
  0
LINE
  5
19481
  8
CENTER
 10
4750.3828152808064
 20
4840.9083869432961
 30
0.0
 11
549.61718471919255
 21
4840.9083869432943
 31
0.0
  0
LINE
  5
19482
  8
SJC
 10
4595.5
 20
4820.9083869432952
 30
0.0
 11
2704.5
 21
4820.9083869432952
 31
0.0
  0
LINE
  5
19483
  8
SJC
 10
2595.5
 20
4820.9083869432943
 30
0.0
 11
704.49999999999977
 21
4820.9083869432943
 31
0.0
  0
LINE
  5
19485
  8
SJC
 10
4595.5
 20
4860.9083869432952
 30
0.0
 11
2704.5
 21
4860.9083869432952
 31
0.0
  0
LINE
  5
19486
  8
SJC
 10
2595.5
 20
4860.9083869432943
 30
0.0
 11
704.49999999999977
 21
4860.9083869432943
 31
0.0
  0
LINE
  5
1948E
  8
CENTER
 10
2650.0
 20
4753.9552590582161
 30
0.0
 11
2650.0
 21
4927.8615148283707
 31
0.0
  0
INSERT
  5
1949A
  8
SJC
  2
*U38
 10
0.0
 20
0.0
 30
0.0
1001
ACAD
1000
DSTYLE
1002
{
1070
     5
1000

1070
    40
1040
20.0
1070
    41
1040
2.0
1070
    42
1040
1.0
1070
    43
1040
6.0
1070
    44
1040
1.0
1070
    73
1070
     0
1070
    74
1070
     0
1070
    77
1070
     1
1070
    78
1070
     8
1070
   140
1040
3.0
1070
   147
1040
1.1999999999999991
1070
   172
1070
     1
1070
   179
1070
     2
1070
   271
1070
     2
1070
   279
1070
     2
1070
   340
1005
62
1070
   342
1005
0
1002
}
  0
DIMENSION
  5
1949B
  8
SUNPOU
  2
*D6
 10
267.80698034848882
 20
3140.0
 30
0.0
 11
213.80698034848811
 21
3730.0
 31
0.0
 70
   128
 13
600.0
 23
4240.0
 33
0.0
 14
367.54800335775332
 24
3140.0
 34
0.0
 50
90.0
1001
ACAD
1000
DSTYLE
1002
{
1070
   287
1070
     5
1070
    40
1040
20.0
1070
    41
1040
2.0
1070
    42
1040
1.0
1070
    43
1040
6.0
1070
    44
1040
1.0
1070
    73
1070
     0
1070
    74
1070
     0
1070
    77
1070
     1
1070
    78
1070
     8
1070
   140
1040
3.0
1070
   147
1040
1.1999999999999991
1070
   172
1070
     1
1070
   271
1070
     2
1070
   279
1070
     2
1070
   340
1005
62
1002
}
  0
DIMENSION
  5
1949C
  8
SUNPOU
  2
*D7
 10
2650.0
 20
4510.7093171591987
 30
0.0
 11
1649.9999999999991
 21
4564.7093171591987
 31
0.0
 70
     0
 13
650.0
 23
4378.0000000000018
 33
0.0
 14
2650.0
 24
4378.0000000000018
 34
0.0
1001
ACAD
1000
DSTYLE
1002
{
1070
   287
1070
     5
1070
    40
1040
20.0
1070
    41
1040
2.0
1070
    42
1040
1.0
1070
    43
1040
6.0
1070
    44
1040
1.0
1070
    73
1070
     0
1070
    74
1070
     0
1070
    77
1070
     1
1070
    78
1070
     8
1070
   140
1040
3.0
1070
   147
1040
1.1999999999999991
1070
   172
1070
     1
1070
   271
1070
     2
1070
   279
1070
     2
1070
   340
1005
62
1002
}
  0
LINE
  5
1949D
  8
CENTER
 10
2650.0
 20
3072.8619472302021
 30
0.0
 11
2650.0
 21
4378.0000000000018
 31
0.0
  0
LINE
  5
194BE
  8
CENTER
 10
549.61718471919255
 20
4210.0
 30
0.0
 11
4750.3828152808082
 21
4210.0000000000027
 31
0.0
  0
LINE
  5
194BF
  8
SJC
 10
700.0
 20
4240.0
 30
0.0
 11
2600.0
 21
4240.0000000000018
 31
0.0
  0
LINE
  5
194C0
  8
SJC
 10
700.0
 20
4180.0
 30
0.0
 11
2600.0
 21
4180.0000000000009
 31
0.0
  0
LINE
  5
194D0
  8
SJC
 10
2700.0
 20
4240.0
 30
0.0
 11
4600.0
 21
4240.0
 31
0.0
  0
LINE
  5
194D1
  8
SJC
 10
2700.0
 20
4180.0
 30
0.0
 11
4600.0
 21
4180.0000000000337
 31
0.0
  0
DIMENSION
  5
194D4
  8
SUNPOU
  2
*D8
 10
367.5480033577532
 20
3400.0
 30
0.0
 11
313.54800335775269
 21
3270.0
 31
0.0
 70
     0
 13
399.99999999999818
 23
3140.0
 33
0.0
 14
549.61718471919255
 24
3400.0
 34
0.0
 50
90.0
1001
ACAD
1000
DSTYLE
1002
{
1070
   287
1070
     5
1070
    40
1040
20.0
1070
    41
1040
2.0
1070
    42
1040
1.0
1070
    43
1040
6.0
1070
    44
1040
1.0
1070
    73
1070
     0
1070
    74
1070
     0
1070
    77
1070
     1
1070
    78
1070
     8
1070
   140
1040
3.0
1070
   147
1040
1.1999999999999991
1070
   172
1070
     1
1070
   271
1070
     2
1070
   279
1070
     2
1070
   340
1005
62
1002
}
  0
DIMENSION
  5
194D6
  8
SUNPOU
  2
*D9
 10
367.54800335775332
 20
4210.0
 30
0.0
 11
313.54800335775258
 21
4075.0
 31
0.0
 70
     0
 13
549.61718471919255
 23
3940.0
 33
0.0
 14
549.61718471919255
 24
4210.0
 34
0.0
 50
90.0
1001
ACAD
1000
DSTYLE
1002
{
1070
   287
1070
     5
1070
    40
1040
20.0
1070
    41
1040
2.0
1070
    42
1040
1.0
1070
    43
1040
6.0
1070
    44
1040
1.0
1070
    73
1070
     0
1070
    74
1070
     0
1070
    77
1070
     1
1070
    78
1070
     8
1070
   140
1040
3.0
1070
   147
1040
1.1999999999999991
1070
   172
1070
     1
1070
   271
1070
     2
1070
   279
1070
     2
1070
   340
1005
62
1002
}
  0
LINE
  5
194E3
  8
CENTER
 10
650.0
 20
4753.9552590582161
 30
0.0
 11
650.0
 21
4927.8615148283707
 31
0.0
  0
INSERT
  5
19804
  8
SJC
  2
A$C48967E8F
 10
595.49998743791696
 20
4786.408390814162
 30
0.0
  0
INSERT
  5
19806
  8
SJC
  2
A$C48967E8F
 10
2595.4999874379168
 20
4786.408390814162
 30
0.0
  0
DIMENSION
  5
19814
  8
SUNPOU
  2
*D11
 10
169.65732537843559
 20
3140.0
 30
0.0
 11
115.6573253784352
 21
3774.0
 31
0.0
 70
   128
 13
614.33333333333223
 23
4328.0
 33
0.0
 14
400.0
 24
3140.0
 34
0.0
 50
90.0
1001
ACAD
1000
DSTYLE
1002
{
1070
   287
1070
     5
1070
    40
1040
20.0
1070
    41
1040
2.0
1070
    42
1040
1.0
1070
    43
1040
6.0
1070
    44
1040
1.0
1070
    73
1070
     0
1070
    74
1070
     0
1070
    77
1070
     1
1070
    78
1070
     8
1070
   140
1040
3.0
1070
   147
1040
1.1999999999999991
1070
   172
1070
     1
1070
   271
1070
     2
1070
   279
1070
     2
1070
   340
1005
62
1002
}
  0
LINE
  5
19871
  8
CENTER
 10
5152.5635618658062
 20
2640.0
 30
0.0
 11
5152.5635618658071
 21
4378.0
 31
0.0
  0
LINE
  5
19872
  8
SJC
 10
5202.5635618658062
 20
2690.0
 30
0.0
 11
5202.5635618658062
 21
4290.0000000000009
 31
0.0
1001
ACAD
1000
ASC_BOUNDS
1002
{
1070
    19
1005
1B14F
1002
}
  0
LINE
  5
19873
  8
SJC
 10
5102.5635618658071
 20
2690.0
 30
0.0
 11
5102.5635618658071
 21
4290.0000000000009
 31
0.0
1001
ACAD
1000
ASC_BOUNDS
1002
{
1070
    19
1005
1B14F
1002
}
  0
TEXT
  5
1988F
  8
MOJI
 10
917.18594334935733
 20
2960.0
 30
0.0
 40
60.0
  1
支柱：角型テンダーウッド(□100\U+00d7100)
 41
0.8
  7
EXT08
  0
LINE
  5
19890
  8
SUNPOU
 10
812.33839039136183
 20
2940.0
 30
0.0
 11
2066.2299118241681
 21
2940.0000000000009
 31
0.0
  0
TEXT
  5
19891
  8
MOJI
 10
849.15688847148544
 20
2970.5265002255669
 30
0.0
 40
40.0
  1
2
 41
0.8
  7
EXT08
 72
     4
 11
864.39498370958063
 21
2990.5265002255669
 31
0.0
  0
CIRCLE
  5
19892
  8
MOJI
 10
864.39498370958063
 20
2990.5265002255669
 30
0.0
 40
35.0
  0
TEXT
  5
19893
  8
MOJI
 10
917.18594334935733
 20
2868.5714285714298
 30
0.0
 40
60.0
  1
芯材アルミパイプ □96\U+00d796
 41
0.8
  7
EXT08
  0
LINE
  5
19897
  8
CENTER
 10
4650.0
 20
3072.8619472302021
 30
0.0
 11
4650.0
 21
4378.0000000000018
 31
0.0
  0
LINE
  5
198B0
  8
SJC
 10
4700.0
 20
4240.0
 30
0.0
 11
4750.3828152808046
 21
4240.0
 31
0.0
  0
LINE
  5
198B1
  8
SJC
 10
4700.0
 20
4180.0
 30
0.0
 11
4750.3828152808046
 21
4180.0000000000009
 31
0.0
  0
POLYLINE
  5
198B6
  8
HASEN
 66
     1
 10
0.0
 20
0.0
 30
0.0
 70
     1
  0
VERTEX
  5
1D057
  8
HASEN
 10
5132.5635618658062
 20
4185.0000000000118
 30
0.0
  0
VERTEX
  5
1D058
  8
HASEN
 10
5132.5635618658062
 20
4235.0000000000027
 30
0.0
 42
-0.4142135623730884
  0
VERTEX
  5
1D059
  8
HASEN
 10
5137.5635618658071
 20
4240.0000000000027
 30
0.0
  0
VERTEX
  5
1D05A
  8
HASEN
 10
5167.5635618658071
 20
4240.0000000000036
 30
0.0
 42
-0.4142135623731096
  0
VERTEX
  5
1D05B
  8
HASEN
 10
5172.5635618658071
 20
4235.0000000000036
 30
0.0
  0
VERTEX
  5
1D05C
  8
HASEN
 10
5172.5635618658052
 20
4185.0000000000118
 30
0.0
 42
-0.4142135623730831
  0
VERTEX
  5
1D05D
  8
HASEN
 10
5167.5635618658052
 20
4180.0000000000118
 30
0.0
  0
VERTEX
  5
1D05E
  8
HASEN
 10
5137.5635618658071
 20
4180.0000000000118
 30
0.0
 42
-0.4142135623730928
  0
SEQEND
  5
1D05F
  8
HASEN
  0
LINE
  5
198B7
  8
CENTER
 10
5087.3116957320826
 20
4210.0000000000027
 30
0.0
 11
5217.8154279995288
 21
4210.0000000000027
 31
0.0
  0
LINE
  5
198F4
  8
CENTER
 10
6825.0000000000018
 20
2890.0
 30
0.0
 11
6825.0000000000009
 21
4378.0
 31
0.0
  0
LINE
  5
198F5
  8
SJC
 10
6875.0000000000027
 20
2940.0
 30
0.0
 11
6875.0000000000027
 21
4290.0
 31
0.0
  0
LINE
  5
198F6
  8
SJC
 10
6775.0000000000027
 20
2940.0
 30
0.0
 11
6775.0000000000018
 21
4290.0
 31
0.0
  0
POLYLINE
  5
198F9
  8
HASEN
 66
     1
 10
0.0
 20
0.0
 30
0.0
 70
     1
  0
VERTEX
  5
1D060
  8
HASEN
 10
6805.0000000000027
 20
4185.0000000000118
 30
0.0
  0
VERTEX
  5
1D061
  8
HASEN
 10
6805.0000000000027
 20
4235.0000000000027
 30
0.0
 42
-0.4142135623730884
  0
VERTEX
  5
1D062
  8
HASEN
 10
6810.0000000000018
 20
4240.0000000000027
 30
0.0
  0
VERTEX
  5
1D063
  8
HASEN
 10
6840.0000000000027
 20
4240.0000000000045
 30
0.0
 42
-0.4142135623731096
  0
VERTEX
  5
1D064
  8
HASEN
 10
6845.0000000000027
 20
4235.0000000000045
 30
0.0
  0
VERTEX
  5
1D065
  8
HASEN
 10
6845.0000000000018
 20
4185.0000000000118
 30
0.0
 42
-0.4142135623730831
  0
VERTEX
  5
1D066
  8
HASEN
 10
6840.0000000000018
 20
4180.0000000000127
 30
0.0
  0
VERTEX
  5
1D067
  8
HASEN
 10
6810.0000000000018
 20
4180.0000000000127
 30
0.0
 42
-0.4142135623730928
  0
SEQEND
  5
1D068
  8
HASEN
  0
LINE
  5
198FA
  8
CENTER
 10
6759.7481338662792
 20
4210.0000000000027
 30
0.0
 11
6890.2518661337272
 21
4210.0000000000027
 31
0.0
  0
TEXT
  5
19943
  8
MOJI
 10
6695.666666666667
 20
410.9999999997483
 30
0.0
 40
50.0
  1
アルミ＋樹脂被覆
 41
0.8
  7
EXT08
 72
     4
 11
6885.0
 21
435.9999999997483
 31
0.0
  0
TEXT
  5
19944
  8
MOJI
 10
6074.1666666666661
 20
410.9999999997483
 30
0.0
 40
50.0
  1
A6063S-T5+木粉入り変性PE
 41
0.5
  7
EXT08
 72
     4
 11
6310.0
 21
435.9999999997483
 31
0.0
  0
LINE
  5
1A354
  8
CENTER
 10
4650.0
 20
4753.9552590582161
 30
0.0
 11
4650.0
 21
4927.8615148283707
 31
0.0
  0
INSERT
  5
1A35E
  8
SJC
  2
A$C48967E8F
 10
4595.4999874379173
 20
4786.408390814162
 30
0.0
  0
DIMENSION
  5
1A46D
  8
SUNPOU
  2
*D12
 10
4899.9409021297452
 20
4310.0
 30
0.0
 11
4899.9409021297452
 21
3625.0000000000009
 31
0.0
 70
   128
  1
(支柱全長) <>
 13
5002.5635618658052
 23
2690.0000000000009
 33
0.0
 14
5102.5635618658071
 24
4310.0
 34
0.0
 50
90.0
1001
ACAD
1000
DSTYLE
1002
{
1070
   340
1005
62
1070
   140
1040
3.0
1070
    78
1070
     8
1070
    74
1070
     0
1070
   172
1070
     1
1070
    73
1070
     0
1070
   272
1070
     4
1070
    77
1070
     1
1070
    40
1040
20.0
1070
   147
1040
1.1999999999999991
1070
    42
1040
1.0
1070
    44
1040
1.0
1070
    43
1040
6.0
1070
   271
1070
     4
1070
   178
1070
   256
1070
   177
1070
   256
1070
   176
1070
   256
1070
   275
1070
     0
1070
    41
1040
2.0
1002
}
  0
DIMENSION
  5
1A4B0
  8
SUNPOU
  2
*D13
 10
6500.692940482244
 20
4310.0
 30
0.0
 11
6500.692940482244
 21
3775.0
 31
0.0
 70
   128
  1
(支柱全長) <>
 13
6775.0000000000027
 23
2940.0
 33
0.0
 14
6775.0
 24
4310.0
 34
0.0
 50
90.0
1001
ACAD
1000
DSTYLE
1002
{
1070
   340
1005
62
1070
   140
1040
3.0
1070
    78
1070
     8
1070
    74
1070
     0
1070
   172
1070
     1
1070
    73
1070
     0
1070
   272
1070
     4
1070
    77
1070
     1
1070
    40
1040
20.0
1070
   147
1040
1.1999999999999991
1070
    42
1040
1.0
1070
    44
1040
1.0
1070
    43
1040
6.0
1070
   271
1070
     4
1070
   178
1070
   256
1070
   177
1070
   256
1070
   176
1070
   256
1070
   275
1070
     0
1070
    41
1040
2.0
1002
}
  0
DIMENSION
  5
1A736
  8
SUNPOU
  2
*D14
 10
5841.3950857833806
 20
4328.0000000000009
 30
0.0
 11
5781.3950857833797
 21
4269.0000000000018
 31
0.0
 70
     0
 13
5217.8154279995288
 23
4210.0000000000027
 33
0.0
 14
5188.2302285324758
 24
4328.0000000000009
 34
0.0
 50
90.0
1001
ACAD
1000
DSTYLE
1002
{
1070
    40
1040
20.0
1070
    41
1040
2.0
1070
    42
1040
1.0
1070
    43
1040
6.0
1070
    44
1040
1.0
1070
    73
1070
     0
1070
    74
1070
     0
1070
    78
1070
     8
1070
   140
1040
3.0
1070
   145
1040
1.0
1070
   147
1040
0.0
1070
   172
1070
     1
1070
   176
1070
   256
1070
   177
1070
   256
1070
   178
1070
   256
1070
   271
1070
     0
1070
   340
1005
62
1002
}
  0
DIMENSION
  5
1A7AE
  8
SUNPOU
  2
*D15
 10
7355.0000000000027
 20
2939.9999999999991
 30
0.0
 11
7301.0000000000027
 21
3634.0000000000018
 31
0.0
 70
     0
 13
6860.6666666666733
 23
4328.0000000000009
 33
0.0
 14
7132.2932346655398
 24
2940.0
 34
0.0
 50
90.0
1001
ACAD
1000
DSTYLE
1002
{
1070
    40
1040
20.0
1070
    41
1040
2.0
1070
    42
1040
1.0
1070
    43
1040
6.0
1070
    44
1040
1.0
1070
    73
1070
     0
1070
    74
1070
     0
1070
    77
1070
     1
1070
    78
1070
     8
1070
   140
1040
3.0
1070
   147
1040
1.1999999999999991
1070
   172
1070
     1
1070
   176
1070
   256
1070
   177
1070
   256
1070
   178
1070
   256
1070
   271
1070
     0
1070
   340
1005
62
1002
}
  0
DIMENSION
  5
1A7AF
  8
SUNPOU
  2
*D16
 10
7225.0000000000036
 20
4210.0000000000027
 30
0.0
 11
7171.0000000000018
 21
3675.0000000000041
 31
0.0
 70
     0
 13
7225.0000000000036
 23
3140.0
 33
0.0
 14
6890.2518661337272
 24
4210.0000000000027
 34
0.0
 50
90.0
1001
ACAD
1000
DSTYLE
1002
{
1070
   340
1005
62
1070
   140
1040
3.0
1070
    78
1070
     8
1070
    74
1070
     0
1070
   172
1070
     1
1070
    73
1070
     0
1070
   272
1070
     4
1070
    77
1070
     1
1070
    40
1040
20.0
1070
   147
1040
1.1999999999999991
1070
    42
1040
1.0
1070
    44
1040
1.0
1070
    43
1040
6.0
1070
   271
1070
     4
1070
   178
1070
   256
1070
   177
1070
   256
1070
   176
1070
   256
1070
   275
1070
     0
1070
    41
1040
2.0
1002
}
  0
DIMENSION
  5
1A7B0
  8
SUNPOU
  2
*D17
 10
7225.0000000000036
 20
4328.0000000000009
 30
0.0
 11
7165.0000000000027
 21
4269.0000000000036
 31
0.0
 70
     0
 13
6890.2518661337272
 23
4210.0000000000027
 33
0.0
 14
6860.6666666666733
 24
4328.0000000000009
 34
0.0
 50
90.0
1001
ACAD
1000
DSTYLE
1002
{
1070
    40
1040
20.0
1070
    41
1040
2.0
1070
    42
1040
1.0
1070
    43
1040
6.0
1070
    44
1040
1.0
1070
    73
1070
     0
1070
    74
1070
     0
1070
    78
1070
     8
1070
   140
1040
3.0
1070
   145
1040
1.0
1070
   147
1040
0.0
1070
   172
1070
     1
1070
   176
1070
   256
1070
   177
1070
   256
1070
   178
1070
   256
1070
   271
1070
     0
1070
   340
1005
62
1002
}
  0
LINE
  5
1A937
  8
SJC
 10
4704.5
 20
4820.9083869432952
 30
0.0
 11
4750.3828152808046
 21
4820.9083869432943
 31
0.0
  0
LINE
  5
1A938
  8
SJC
 10
4704.5
 20
4860.9083869432952
 30
0.0
 11
4750.3828152808046
 21
4860.9083869432943
 31
0.0
  0
DIMENSION
  5
1A9FF
  8
SUNPOU
  2
*D18
 10
5978.0617524500476
 20
2690.0
 30
0.0
 11
5924.0617524500467
 21
3509.0000000000018
 31
0.0
 70
     0
 13
5483.7284191167164
 23
4328.0000000000009
 33
0.0
 14
5302.5635618658052
 24
2690.0
 34
0.0
 50
90.0
1001
ACAD
1000
DSTYLE
1002
{
1070
    40
1040
20.0
1070
    41
1040
2.0
1070
    42
1040
1.0
1070
    43
1040
6.0
1070
    44
1040
1.0
1070
    73
1070
     0
1070
    74
1070
     0
1070
    77
1070
     1
1070
    78
1070
     8
1070
   140
1040
3.0
1070
   147
1040
1.1999999999999991
1070
   172
1070
     1
1070
   176
1070
   256
1070
   177
1070
   256
1070
   178
1070
   256
1070
   271
1070
     0
1070
   340
1005
62
1002
}
  0
DIMENSION
  5
1AA00
  8
SUNPOU
  2
*D19
 10
5848.0617524500467
 20
4210.0000000000027
 30
0.0
 11
5794.0617524500467
 21
3675.0000000000018
 31
0.0
 70
     0
 13
5848.0617524500467
 23
3140.0
 33
0.0
 14
5513.3136185837711
 24
4210.0000000000027
 34
0.0
 50
90.0
1001
ACAD
1000
DSTYLE
1002
{
1070
   340
1005
62
1070
   140
1040
3.0
1070
    78
1070
     8
1070
    74
1070
     0
1070
   172
1070
     1
1070
    73
1070
     0
1070
   272
1070
     4
1070
    77
1070
     1
1070
    40
1040
20.0
1070
   147
1040
1.1999999999999991
1070
    42
1040
1.0
1070
    44
1040
1.0
1070
    43
1040
6.0
1070
   271
1070
     4
1070
   178
1070
   256
1070
   177
1070
   256
1070
   176
1070
   256
1070
   275
1070
     0
1070
    41
1040
2.0
1002
}
  0
LINE
  5
1AC6D
  8
SJC
 10
5098.0635618658071
 20
4312.5
 30
0.0
 11
5098.0635618658071
 21
4292.4142135623742
 31
0.0
  0
ARC
  5
1AC6E
  8
SJC
 10
5099.0635618658062
 20
4312.5
 30
0.0
 40
1.0
 50
126.8698976458127
 51
180.0
  0
LINE
  5
1AC6F
  8
SJC
 10
5100.4777754281804
 20
4290.0000000000009
 30
0.0
 11
5204.6493483034328
 21
4290.0000000000009
 31
0.0
  0
ARC
  5
1AC70
  8
SJC
 10
5100.4777754281804
 20
4291.0000000000009
 30
0.0
 40
1.0
 50
225.0
 51
270.0
  0
LINE
  5
1AC71
  8
SJC
 10
5098.3564550846204
 20
4291.7071067811876
 30
0.0
 11
5099.7706686469937
 21
4290.2928932188142
 31
0.0
  0
ARC
  5
1AC72
  8
SJC
 10
5099.063561865808
 20
4292.4142135623742
 30
0.0
 40
1.0
 50
180.0
 51
225.0
  0
POLYLINE
  5
1AC73
  8
SJC
 66
     1
 10
0.0
 20
0.0
 30
0.0
  0
VERTEX
  5
1D069
  8
SJC
 10
5098.4635618658058
 20
4313.3000000000002
 30
0.0
  0
VERTEX
  5
1D06A
  8
SJC
 10
5116.2968951991379
 20
4327.8000000000002
 30
0.0
 42
-0.1622776601683866
  0
VERTEX
  5
1D06B
  8
SJC
 10
5116.8968951991401
 20
4328.0000000000009
 30
0.0
  0
VERTEX
  5
1D06C
  8
SJC
 10
5188.2302285324758
 20
4328.0000000000009
 30
0.0
 42
-0.1622776601683866
  0
VERTEX
  5
1D06D
  8
SJC
 10
5188.8302285324753
 20
4327.8000000000002
 30
0.0
  0
VERTEX
  5
1D06E
  8
SJC
 10
5206.6635618658074
 20
4313.3000000000002
 30
0.0
  0
SEQEND
  5
1D06F
  8
SJC
  0
LINE
  5
1AC75
  8
SJC
 10
5207.0635618658062
 20
4312.5
 30
0.0
 11
5207.0635618658062
 21
4292.4142135623742
 31
0.0
  0
ARC
  5
1AC76
  8
SJC
 10
5206.0635618658062
 20
4312.5
 30
0.0
 40
1.0
 50
0.0
 51
53.130102354187251
  0
ARC
  5
1AC77
  8
SJC
 10
5204.6493483034328
 20
4291.0000000000009
 30
0.0
 40
1.0
 50
270.0
 51
315.0
  0
LINE
  5
1AC78
  8
SJC
 10
5206.7706686469928
 20
4291.7071067811876
 30
0.0
 11
5205.3564550846186
 21
4290.2928932188142
 31
0.0
  0
ARC
  5
1AC79
  8
SJC
 10
5206.0635618658062
 20
4292.4142135623742
 30
0.0
 40
1.0
 50
315.0
 51
0.0
  0
LINE
  5
1AC7A
  8
SJC
 10
5098.1975364620221
 20
4313.0
 30
0.0
 11
5206.9295872695911
 21
4313.0000000000009
 31
0.0
  0
LINE
  5
1AC7B
  8
SJC2
 10
5098.1533821446828
 20
4292.0
 30
0.0
 11
5206.9737415869313
 21
4292.0
 31
0.0
  0
LINE
  5
1AC7C
  8
SJC2
 10
5188.6080298516408
 20
4327.9258866902792
 30
0.0
 11
5197.5635618658071
 21
4313.0000000000009
 31
0.0
  0
LINE
  5
1AC7D
  8
SJC2
 10
5197.5635618658071
 20
4313.0000000000009
 30
0.0
 11
5197.5635618658071
 21
4292.0
 31
0.0
  0
LINE
  5
1AC7E
  8
SJC2
 10
5197.5635618658071
 20
4292.0
 30
0.0
 11
5195.5635618658071
 21
4290.0000000000009
 31
0.0
  0
LINE
  5
1AC7F
  8
SJC2
 10
5107.5635618658062
 20
4313.0000000000009
 30
0.0
 11
5107.5635618658062
 21
4292.0
 31
0.0
  0
LINE
  5
1AC80
  8
SJC2
 10
5107.5635618658062
 20
4292.0
 30
0.0
 11
5109.5635618658052
 21
4290.0000000000009
 31
0.0
  0
LINE
  5
1AC81
  8
SJC2
 10
5116.5190938799724
 20
4327.9258866902792
 30
0.0
 11
5107.5635618658062
 21
4313.0000000000009
 31
0.0
  0
LINE
  5
1AC82
  8
SJC
 10
6770.5000000000018
 20
4312.5
 30
0.0
 11
6770.5000000000036
 21
4292.4142135623742
 31
0.0
  0
ARC
  5
1AC83
  8
SJC
 10
6771.5000000000027
 20
4312.5
 30
0.0
 40
1.0
 50
126.8698976458127
 51
180.0
  0
LINE
  5
1AC84
  8
SJC
 10
6772.914213562377
 20
4290.0000000000009
 30
0.0
 11
6877.0857864376312
 21
4290.0000000000009
 31
0.0
  0
ARC
  5
1AC85
  8
SJC
 10
6772.914213562377
 20
4291.0000000000009
 30
0.0
 40
1.0
 50
225.0
 51
270.0
  0
LINE
  5
1AC86
  8
SJC
 10
6770.792893218817
 20
4291.7071067811876
 30
0.0
 11
6772.2071067811912
 21
4290.2928932188142
 31
0.0
  0
ARC
  5
1AC87
  8
SJC
 10
6771.5000000000027
 20
4292.4142135623742
 30
0.0
 40
1.0
 50
180.0
 51
225.0
  0
POLYLINE
  5
1AC88
  8
SJC
 66
     1
 10
0.0
 20
0.0
 30
0.0
  0
VERTEX
  5
1D070
  8
SJC
 10
6770.9000000000033
 20
4313.3000000000002
 30
0.0
  0
VERTEX
  5
1D071
  8
SJC
 10
6788.7333333333363
 20
4327.8000000000002
 30
0.0
 42
-0.1622776601683866
  0
VERTEX
  5
1D072
  8
SJC
 10
6789.3333333333358
 20
4328.0000000000009
 30
0.0
  0
VERTEX
  5
1D073
  8
SJC
 10
6860.6666666666733
 20
4328.0000000000009
 30
0.0
 42
-0.1622776601683866
  0
VERTEX
  5
1D074
  8
SJC
 10
6861.2666666666719
 20
4327.8000000000002
 30
0.0
  0
VERTEX
  5
1D075
  8
SJC
 10
6879.100000000004
 20
4313.3000000000002
 30
0.0
  0
SEQEND
  5
1D076
  8
SJC
  0
LINE
  5
1AC8A
  8
SJC
 10
6879.5000000000027
 20
4312.5
 30
0.0
 11
6879.5000000000027
 21
4292.4142135623742
 31
0.0
  0
ARC
  5
1AC8B
  8
SJC
 10
6878.5000000000018
 20
4312.5
 30
0.0
 40
1.0
 50
0.0
 51
53.130102354187251
  0
ARC
  5
1AC8C
  8
SJC
 10
6877.0857864376312
 20
4291.0000000000009
 30
0.0
 40
1.0
 50
270.0
 51
315.0
  0
LINE
  5
1AC8D
  8
SJC
 10
6879.2071067811894
 20
4291.7071067811876
 30
0.0
 11
6877.7928932188161
 21
4290.2928932188142
 31
0.0
  0
ARC
  5
1AC8E
  8
SJC
 10
6878.5000000000018
 20
4292.4142135623742
 30
0.0
 40
1.0
 50
315.0
 51
0.0
  0
LINE
  5
1AC8F
  8
SJC
 10
6770.6339745962177
 20
4313.0
 30
0.0
 11
6879.3660254037868
 21
4313.0000000000009
 31
0.0
  0
LINE
  5
1AC90
  8
SJC2
 10
6770.5898202788803
 20
4292.0
 30
0.0
 11
6879.4101797211279
 21
4292.0
 31
0.0
  0
LINE
  5
1AC91
  8
SJC2
 10
6861.0444679858383
 20
4327.9258866902792
 30
0.0
 11
6870.0000000000027
 21
4313.0000000000009
 31
0.0
  0
LINE
  5
1AC92
  8
SJC2
 10
6870.0000000000027
 20
4313.0000000000009
 30
0.0
 11
6870.0000000000027
 21
4292.0
 31
0.0
  0
LINE
  5
1AC93
  8
SJC2
 10
6870.0000000000027
 20
4292.0
 30
0.0
 11
6868.0000000000027
 21
4290.0000000000009
 31
0.0
  0
LINE
  5
1AC94
  8
SJC2
 10
6780.0000000000018
 20
4313.0000000000009
 30
0.0
 11
6780.0000000000018
 21
4292.0
 31
0.0
  0
LINE
  5
1AC95
  8
SJC2
 10
6780.0000000000018
 20
4292.0
 30
0.0
 11
6782.0000000000018
 21
4290.0000000000009
 31
0.0
  0
LINE
  5
1AC96
  8
SJC2
 10
6788.9555320141699
 20
4327.9258866902792
 30
0.0
 11
6780.0000000000018
 21
4313.0000000000009
 31
0.0
  0
LINE
  5
1AC97
  8
SJC
 10
595.5
 20
4312.5
 30
0.0
 11
595.5
 21
4292.4142135623733
 31
0.0
  0
ARC
  5
1AC98
  8
SJC
 10
596.49999999999989
 20
4312.5
 30
0.0
 40
1.0
 50
126.8698976458336
 51
180.0
  0
LINE
  5
1AC99
  8
SJC
 10
597.91421356237333
 20
4290.0
 30
0.0
 11
702.08578643762655
 21
4290.0
 31
0.0
  0
ARC
  5
1AC9A
  8
SJC
 10
597.91421356237333
 20
4291.0
 30
0.0
 40
1.0
 50
225.00000000000921
 51
270.0
  0
LINE
  5
1AC9B
  8
SJC
 10
595.79289321881333
 20
4291.7071067811867
 30
0.0
 11
597.20710678118655
 21
4290.2928932188133
 31
0.0
  0
ARC
  5
1AC9C
  8
SJC
 10
596.49999999999989
 20
4292.4142135623733
 30
0.0
 40
1.0
 50
180.0
 51
225.00000000000921
  0
POLYLINE
  5
1AC9D
  8
SJC
 66
     1
 10
0.0
 20
0.0
 30
0.0
  0
VERTEX
  5
1D077
  8
SJC
 10
595.89999999999964
 20
4313.2999999999993
 30
0.0
  0
VERTEX
  5
1D078
  8
SJC
 10
613.73333333333221
 20
4327.7999999999984
 30
0.0
 42
-0.1622776601683866
  0
VERTEX
  5
1D079
  8
SJC
 10
614.33333333333223
 20
4328.0
 30
0.0
  0
VERTEX
  5
1D07A
  8
SJC
 10
685.6666666666689
 20
4328.0
 30
0.0
 42
-0.1622776601683866
  0
VERTEX
  5
1D07B
  8
SJC
 10
686.26666666666893
 20
4327.7999999999984
 30
0.0
  0
VERTEX
  5
1D07C
  8
SJC
 10
704.09999999999991
 20
4313.3000000000002
 30
0.0
  0
SEQEND
  5
1D07D
  8
SJC
  0
LINE
  5
1AC9F
  8
SJC
 10
704.49999999999989
 20
4312.5
 30
0.0
 11
704.49999999999989
 21
4292.4142135623733
 31
0.0
  0
ARC
  5
1ACA0
  8
SJC
 10
703.5
 20
4312.5
 30
0.0
 40
1.0
 50
0.0
 51
53.130102354166411
  0
ARC
  5
1ACA1
  8
SJC
 10
702.08578643762655
 20
4291.0
 30
0.0
 40
1.0
 50
270.0
 51
314.99999999999079
  0
LINE
  5
1ACA2
  8
SJC
 10
704.20710678118667
 20
4291.7071067811867
 30
0.0
 11
702.79289321881333
 21
4290.2928932188133
 31
0.0
  0
ARC
  5
1ACA3
  8
SJC
 10
703.5
 20
4292.4142135623733
 30
0.0
 40
1.0
 50
314.99999999999079
 51
0.0
  0
LINE
  5
1ACA4
  8
SJC
 10
595.63397459621501
 20
4312.9999999999982
 30
0.0
 11
704.36602540378396
 21
4313.0
 31
0.0
  0
LINE
  5
1ACA5
  8
SJC2
 10
595.58982027887566
 20
4292.0
 30
0.0
 11
704.41017972112422
 21
4292.0
 31
0.0
  0
LINE
  5
1ACA6
  8
SJC2
 10
686.04446798583456
 20
4327.9258866902792
 30
0.0
 11
695.00000000000091
 21
4313.0
 31
0.0
  0
LINE
  5
1ACA7
  8
SJC2
 10
695.00000000000091
 20
4313.0
 30
0.0
 11
695.00000000000091
 21
4292.0
 31
0.0
  0
LINE
  5
1ACA8
  8
SJC2
 10
695.00000000000091
 20
4292.0
 30
0.0
 11
693.00000000000091
 21
4290.0
 31
0.0
  0
LINE
  5
1ACA9
  8
SJC2
 10
604.99999999999898
 20
4313.0
 30
0.0
 11
604.99999999999898
 21
4292.0
 31
0.0
  0
LINE
  5
1ACAA
  8
SJC2
 10
604.99999999999898
 20
4292.0
 30
0.0
 11
606.99999999999909
 21
4290.0
 31
0.0
  0
LINE
  5
1ACAB
  8
SJC2
 10
613.95553201416624
 20
4327.9258866902792
 30
0.0
 11
605.0
 21
4313.0
 31
0.0
  0
LINE
  5
1ACAC
  8
SJC
 10
2700.0
 20
3140.0
 30
0.0
 11
2700.0
 21
4290.0
 31
0.0
  0
LINE
  5
1ACAD
  8
SJC
 10
2600.0
 20
3140.0
 30
0.0
 11
2600.0
 21
4290.0
 31
0.0
  0
LINE
  5
1ACAE
  8
SJC
 10
2595.5
 20
4312.5
 30
0.0
 11
2595.5
 21
4292.4142135623733
 31
0.0
  0
ARC
  5
1ACAF
  8
SJC
 10
2596.5
 20
4312.5
 30
0.0
 40
1.0
 50
126.8698976458336
 51
180.0
  0
LINE
  5
1ACB0
  8
SJC
 10
2597.9142135623729
 20
4290.0
 30
0.0
 11
2702.0857864376271
 21
4290.0
 31
0.0
  0
ARC
  5
1ACB1
  8
SJC
 10
2597.9142135623729
 20
4291.0
 30
0.0
 40
1.0
 50
225.00000000000921
 51
270.0
  0
LINE
  5
1ACB2
  8
SJC
 10
2595.7928932188138
 20
4291.7071067811867
 30
0.0
 11
2597.2071067811871
 21
4290.2928932188133
 31
0.0
  0
ARC
  5
1ACB3
  8
SJC
 10
2596.5
 20
4292.4142135623733
 30
0.0
 40
1.0
 50
180.0
 51
225.00000000000921
  0
POLYLINE
  5
1ACB4
  8
SJC
 66
     1
 10
0.0
 20
0.0
 30
0.0
  0
VERTEX
  5
1D07E
  8
SJC
 10
2595.9000000000001
 20
4313.2999999999993
 30
0.0
  0
VERTEX
  5
1D07F
  8
SJC
 10
2613.7333333333322
 20
4327.7999999999984
 30
0.0
 42
-0.1622776601683866
  0
VERTEX
  5
1D080
  8
SJC
 10
2614.3333333333321
 20
4328.0
 30
0.0
  0
VERTEX
  5
1D081
  8
SJC
 10
2685.6666666666688
 20
4328.0
 30
0.0
 42
-0.1622776601683866
  0
VERTEX
  5
1D082
  8
SJC
 10
2686.2666666666692
 20
4327.7999999999984
 30
0.0
  0
VERTEX
  5
1D083
  8
SJC
 10
2704.0999999999999
 20
4313.3000000000002
 30
0.0
  0
SEQEND
  5
1D084
  8
SJC
  0
LINE
  5
1ACB5
  8
SJC
 10
2704.5
 20
4312.5
 30
0.0
 11
2704.5
 21
4292.4142135623733
 31
0.0
  0
ARC
  5
1ACB6
  8
SJC
 10
2703.5
 20
4312.5
 30
0.0
 40
1.0
 50
0.0
 51
53.130102354166411
  0
ARC
  5
1ACB7
  8
SJC
 10
2702.0857864376271
 20
4291.0
 30
0.0
 40
1.0
 50
270.0
 51
314.99999999999079
  0
LINE
  5
1ACB8
  8
SJC
 10
2704.2071067811871
 20
4291.7071067811867
 30
0.0
 11
2702.7928932188129
 21
4290.2928932188133
 31
0.0
  0
ARC
  5
1ACB9
  8
SJC
 10
2703.5
 20
4292.4142135623733
 30
0.0
 40
1.0
 50
314.99999999999079
 51
0.0
  0
LINE
  5
1ACBA
  8
SJC
 10
2595.633974596215
 20
4312.9999999999982
 30
0.0
 11
2704.3660254037841
 21
4313.0
 31
0.0
  0
LINE
  5
1ACBB
  8
SJC2
 10
2595.5898202788758
 20
4292.0
 30
0.0
 11
2704.4101797211242
 21
4292.0
 31
0.0
  0
LINE
  5
1ACBC
  8
SJC2
 10
2686.0444679858342
 20
4327.9258866902792
 30
0.0
 11
2695.0
 21
4313.0
 31
0.0
  0
LINE
  5
1ACBD
  8
SJC2
 10
2695.0
 20
4313.0
 30
0.0
 11
2695.0
 21
4292.0
 31
0.0
  0
LINE
  5
1ACBE
  8
SJC2
 10
2695.0
 20
4292.0
 30
0.0
 11
2693.0
 21
4290.0
 31
0.0
  0
LINE
  5
1ACBF
  8
SJC2
 10
2604.9999999999991
 20
4313.0
 30
0.0
 11
2604.9999999999991
 21
4292.0
 31
0.0
  0
LINE
  5
1ACC0
  8
SJC2
 10
2604.9999999999991
 20
4292.0
 30
0.0
 11
2606.9999999999991
 21
4290.0
 31
0.0
  0
LINE
  5
1ACC1
  8
SJC2
 10
2613.9555320141671
 20
4327.9258866902792
 30
0.0
 11
2605.0
 21
4313.0
 31
0.0
  0
LINE
  5
1ACC2
  8
SJC
 10
4700.0
 20
3140.0
 30
0.0
 11
4700.0
 21
4290.0
 31
0.0
  0
LINE
  5
1ACC3
  8
SJC
 10
4600.0
 20
3140.0
 30
0.0
 11
4600.0
 21
4290.0
 31
0.0
  0
LINE
  5
1ACC4
  8
SJC
 10
4595.5
 20
4312.5
 30
0.0
 11
4595.5
 21
4292.4142135623733
 31
0.0
  0
ARC
  5
1ACC5
  8
SJC
 10
4596.5
 20
4312.5
 30
0.0
 40
1.0
 50
126.8698976458336
 51
180.0
  0
LINE
  5
1ACC6
  8
SJC
 10
4597.9142135623733
 20
4290.0
 30
0.0
 11
4702.0857864376267
 21
4290.0
 31
0.0
  0
ARC
  5
1ACC7
  8
SJC
 10
4597.9142135623733
 20
4291.0
 30
0.0
 40
1.0
 50
225.00000000000921
 51
270.0
  0
LINE
  5
1ACC8
  8
SJC
 10
4595.7928932188133
 20
4291.7071067811867
 30
0.0
 11
4597.2071067811858
 21
4290.2928932188133
 31
0.0
  0
ARC
  5
1ACC9
  8
SJC
 10
4596.5
 20
4292.4142135623733
 30
0.0
 40
1.0
 50
180.0
 51
225.00000000000921
  0
POLYLINE
  5
1ACCA
  8
SJC
 66
     1
 10
0.0
 20
0.0
 30
0.0
  0
VERTEX
  5
1D085
  8
SJC
 10
4595.8999999999987
 20
4313.2999999999993
 30
0.0
  0
VERTEX
  5
1D086
  8
SJC
 10
4613.7333333333308
 20
4327.7999999999984
 30
0.0
 42
-0.1622776601683866
  0
VERTEX
  5
1D087
  8
SJC
 10
4614.3333333333321
 20
4328.0
 30
0.0
  0
VERTEX
  5
1D088
  8
SJC
 10
4685.6666666666679
 20
4328.0
 30
0.0
 42
-0.1622776601683866
  0
VERTEX
  5
1D089
  8
SJC
 10
4686.2666666666692
 20
4327.7999999999984
 30
0.0
  0
VERTEX
  5
1D08A
  8
SJC
 10
4704.1000000000004
 20
4313.3000000000002
 30
0.0
  0
SEQEND
  5
1D08B
  8
SJC
  0
LINE
  5
1ACCB
  8
SJC
 10
4704.5
 20
4312.5
 30
0.0
 11
4704.5
 21
4292.4142135623733
 31
0.0
  0
ARC
  5
1ACCC
  8
SJC
 10
4703.5
 20
4312.5
 30
0.0
 40
1.0
 50
0.0
 51
53.130102354166411
  0
ARC
  5
1ACCD
  8
SJC
 10
4702.0857864376267
 20
4291.0
 30
0.0
 40
1.0
 50
270.0
 51
314.99999999999079
  0
LINE
  5
1ACCE
  8
SJC
 10
4704.2071067811858
 20
4291.7071067811867
 30
0.0
 11
4702.7928932188133
 21
4290.2928932188133
 31
0.0
  0
ARC
  5
1ACCF
  8
SJC
 10
4703.5
 20
4292.4142135623733
 30
0.0
 40
1.0
 50
314.99999999999079
 51
0.0
  0
LINE
  5
1ACD0
  8
SJC
 10
4595.633974596215
 20
4312.9999999999982
 30
0.0
 11
4704.3660254037841
 21
4313.0
 31
0.0
  0
LINE
  5
1ACD1
  8
SJC2
 10
4595.5898202788758
 20
4292.0
 30
0.0
 11
4704.4101797211242
 21
4292.0
 31
0.0
  0
LINE
  5
1ACD2
  8
SJC2
 10
4686.0444679858329
 20
4327.9258866902792
 30
0.0
 11
4695.0
 21
4313.0
 31
0.0
  0
LINE
  5
1ACD3
  8
SJC2
 10
4695.0
 20
4313.0
 30
0.0
 11
4695.0
 21
4292.0
 31
0.0
  0
LINE
  5
1ACD4
  8
SJC2
 10
4695.0
 20
4292.0
 30
0.0
 11
4693.0
 21
4290.0
 31
0.0
  0
LINE
  5
1ACD5
  8
SJC2
 10
4604.9999999999991
 20
4313.0
 30
0.0
 11
4604.9999999999991
 21
4292.0
 31
0.0
  0
LINE
  5
1ACD6
  8
SJC2
 10
4604.9999999999991
 20
4292.0
 30
0.0
 11
4606.9999999999991
 21
4290.0
 31
0.0
  0
LINE
  5
1ACD7
  8
SJC2
 10
4613.9555320141653
 20
4327.9258866902792
 30
0.0
 11
4605.0
 21
4313.0
 31
0.0
  0
DIMENSION
  5
1ACD8
  8
SUNPOU
  2
*D20
 10
4650.0
 20
4510.7093171591987
 30
0.0
 11
3650.0
 21
4564.7093171591987
 31
0.0
 70
     0
 13
2650.0
 23
4378.0000000000018
 33
0.0
 14
4650.0
 24
4378.0000000000018
 34
0.0
1001
ACAD
1000
DSTYLE
1002
{
1070
   287
1070
     5
1070
    40
1040
20.0
1070
    41
1040
2.0
1070
    42
1040
1.0
1070
    43
1040
6.0
1070
    44
1040
1.0
1070
    73
1070
     0
1070
    74
1070
     0
1070
    77
1070
     1
1070
    78
1070
     8
1070
   140
1040
3.0
1070
   147
1040
1.1999999999999991
1070
   172
1070
     1
1070
   271
1070
     2
1070
   279
1070
     2
1070
   340
1005
62
1002
}
  0
INSERT
  5
1B14F
  8
HATCH
  6
CONTINUOUS
  2
*X39
 10
0.0
 20
0.0
 30
0.0
1001
ACAD
1000
HATCH
1002
{
1070
    19
1000
PLAST
1040
400.0
1040
0.7853981633974483
1000
ASC_BOUNDS
1070
     2
1070
     1
1070
     4
1005
16BE3
1005
16BE5
1005
19872
1005
1891A
1070
     1
1070
     4
1005
19873
1005
16BE5
1005
16BE4
1005
16CA9
1000
ASC_SEEDPOINT
1011
5050.8009661243268
1021
0.0
1031
0.0
1021
2953.765044082807
1031
0.0
1000
R14_HATCH_DATA
1000
1B14F
1011
1.0
1021
0.0
1031
0.0
1021
0.0
1031
0.0
1011
0.0
1021
0.0
1031
0.0
1021
1.0
1031
0.0
1011
0.0
1021
0.0
1031
0.0
1021
0.0
1031
1.0
1040
0.0
1010
0.0
1020
0.0
1030
1.0
1000
PLAST
1070
     0
1070
     1
1071
        2
1071
        7
1070
     0
1070
     1
1071
        4
1040
5002.5635618658052
1040
2690.0000000000009
1040
5102.5635618658071
1040
2690.0000000000009
1040
5102.5635618658052
1040
3140.0
1040
5002.5635618658089
1040
3139.9999999999991
1071
        4
1005
16CA9
1005
16BE4
1005
16BE5
1005
19873
1071
        7
1070
     0
1070
     1
1071
        4
1040
5202.5635618658062
1040
2689.9999999999991
1040
5302.5635618658034
1040
2689.9999999999991
1040
5302.563561865808
1040
3140.0000000000009
1040
5202.5635618658062
1040
3140.0000000000018
1071
        4
1005
1891A
1005
19872
1005
16BE5
1005
16BE3
1070
     0
1070
     1
1040
0.7853981633974483
1040
400.0
1070
     0
1070
     3
1040
0.7853981633974483
1040
0.0
1040
-100.0
1040
-70.710678118654741
1040
70.710678118654755
1070
     0
1040
0.7853981633974483
1040
-8.8388347648318426
1040
-91.161165235168156
1040
-70.710678118654741
1040
70.710678118654755
1070
     0
1040
0.7853981633974483
1040
-17.677669529663682
1040
-82.322330470336311
1040
-70.710678118654741
1040
70.710678118654755
1070
     0
1040
1.883706754901713
1071
        2
1040
5050.8009661243268
1040
2953.765044082807
1040
0.0
1040
5235.5017728364328
1040
2957.5324464221271
1040
0.0
1002
}
  0
INSERT
  5
1B1CC
  8
HATCH
  2
A$C5D865D77
 10
5302.5635325898038
 20
3083.0895510470882
 30
0.0
  0
INSERT
  5
1B1E4
  8
HATCH
  2
A$C0841633C
 10
6648.5183484279696
 20
2882.2881209100242
 30
0.0
  0
CIRCLE
  5
1B24A
  8
MOJI
 10
5210.0
 20
627.99999999974534
 30
0.0
 40
35.0
  0
CIRCLE
  5
1B24C
  8
MOJI
 10
5210.0
 20
531.99999999974636
 30
0.0
 40
35.0
  0
CIRCLE
  5
1B24D
  8
MOJI
 10
5210.0
 20
435.99999999974398
 30
0.0
 40
35.0
  0
CIRCLE
  5
1B24E
  8
MOJI
 10
5210.0
 20
339.99999999969373
 30
0.0
 40
35.0
  0
CIRCLE
  5
1B24F
  8
MOJI
 10
5210.0
 20
243.99999999969361
 30
0.0
 40
35.0
  0
CIRCLE
  5
1B250
  8
MOJI
 10
5210.0
 20
147.99999999969179
 30
0.0
 40
35.0
  0
LINE
  5
1B34E
  8
CENTER
 10
549.61718471919255
 20
3400.0
 30
0.0
 11
4750.3828152808082
 21
3400.0000000000032
 31
0.0
  0
LINE
  5
1B34F
  8
SJC
 10
700.0
 20
3430.0000000000009
 30
0.0
 11
2600.0
 21
3430.0000000000032
 31
0.0
  0
LINE
  5
1B350
  8
SJC
 10
700.0
 20
3370.0
 30
0.0
 11
2600.0
 21
3370.0000000000009
 31
0.0
  0
LINE
  5
1B353
  8
SJC
 10
2700.0
 20
3430.0
 30
0.0
 11
4600.0
 21
3430.0
 31
0.0
  0
LINE
  5
1B354
  8
SJC
 10
2700.0
 20
3370.0
 30
0.0
 11
4600.0
 21
3370.000000000035
 31
0.0
  0
LINE
  5
1B355
  8
SJC
 10
4700.0
 20
3430.0
 30
0.0
 11
4750.3828152808046
 21
3430.0
 31
0.0
  0
LINE
  5
1B356
  8
SJC
 10
4700.0
 20
3370.0
 30
0.0
 11
4750.3828152808046
 21
3370.0000000000009
 31
0.0
  0
DIMENSION
  5
1B372
  8
SUNPOU
  2
*D24
 10
367.54800335775332
 20
3670.0
 30
0.0
 11
313.54800335775269
 21
3805.0
 31
0.0
 70
     0
 13
549.61718471919255
 23
3940.0
 33
0.0
 14
549.61718471919255
 24
3670.0
 34
0.0
 50
90.0
1001
ACAD
1000
DSTYLE
1002
{
1070
   287
1070
     5
1070
    40
1040
20.0
1070
    41
1040
2.0
1070
    42
1040
1.0
1070
    43
1040
6.0
1070
    44
1040
1.0
1070
    73
1070
     0
1070
    74
1070
     0
1070
    77
1070
     1
1070
    78
1070
     8
1070
   140
1040
3.0
1070
   147
1040
1.1999999999999991
1070
   172
1070
     1
1070
   271
1070
     2
1070
   279
1070
     2
1070
   340
1005
62
1002
}
  0
POLYLINE
  5
1B3A2
  8
HASEN
 66
     1
 10
0.0
 20
0.0
 30
0.0
 70
     1
  0
VERTEX
  5
1D0BB
  8
HASEN
 10
5132.5635618658062
 20
3375.0000000000118
 30
0.0
  0
VERTEX
  5
1D0BC
  8
HASEN
 10
5132.5635618658062
 20
3425.0000000000041
 30
0.0
 42
-0.4142135623730884
  0
VERTEX
  5
1D0BD
  8
HASEN
 10
5137.5635618658071
 20
3430.0000000000041
 30
0.0
  0
VERTEX
  5
1D0BE
  8
HASEN
 10
5167.5635618658071
 20
3430.000000000005
 30
0.0
 42
-0.4142135623731096
  0
VERTEX
  5
1D0BF
  8
HASEN
 10
5172.5635618658071
 20
3425.000000000005
 30
0.0
  0
VERTEX
  5
1D0C0
  8
HASEN
 10
5172.5635618658052
 20
3375.0000000000118
 30
0.0
 42
-0.4142135623730831
  0
VERTEX
  5
1D0C1
  8
HASEN
 10
5167.5635618658052
 20
3370.0000000000118
 30
0.0
  0
VERTEX
  5
1D0C2
  8
HASEN
 10
5137.5635618658071
 20
3370.0000000000118
 30
0.0
 42
-0.4142135623730928
  0
SEQEND
  5
1D0C3
  8
HASEN
  0
LINE
  5
1B3A3
  8
CENTER
 10
5087.3116957320826
 20
3400.0000000000032
 30
0.0
 11
5217.8154279995288
 21
3400.0000000000032
 31
0.0
  0
POLYLINE
  5
1B3A8
  8
HASEN
 66
     1
 10
0.0
 20
0.0
 30
0.0
 70
     1
  0
VERTEX
  5
1D0C4
  8
HASEN
 10
6805.0000000000027
 20
3375.0000000000132
 30
0.0
  0
VERTEX
  5
1D0C5
  8
HASEN
 10
6805.0000000000027
 20
3425.0000000000041
 30
0.0
 42
-0.4142135623730884
  0
VERTEX
  5
1D0C6
  8
HASEN
 10
6810.0000000000018
 20
3430.0000000000041
 30
0.0
  0
VERTEX
  5
1D0C7
  8
HASEN
 10
6840.0000000000027
 20
3430.000000000005
 30
0.0
 42
-0.4142135623731096
  0
VERTEX
  5
1D0C8
  8
HASEN
 10
6845.0000000000027
 20
3425.0000000000059
 30
0.0
  0
VERTEX
  5
1D0C9
  8
HASEN
 10
6845.0000000000018
 20
3375.0000000000132
 30
0.0
 42
-0.4142135623730831
  0
VERTEX
  5
1D0CA
  8
HASEN
 10
6840.0000000000018
 20
3370.0000000000132
 30
0.0
  0
VERTEX
  5
1D0CB
  8
HASEN
 10
6810.0000000000018
 20
3370.0000000000132
 30
0.0
 42
-0.4142135623730928
  0
SEQEND
  5
1D0CC
  8
HASEN
  0
LINE
  5
1B3A9
  8
CENTER
 10
6759.7481338662792
 20
3400.0000000000041
 30
0.0
 11
6890.2518661337272
 21
3400.0000000000041
 31
0.0
  0
INSERT
  5
1B3AA
  8
SJC
  2
*U40
 10
0.0
 20
0.0
 30
0.0
1001
ACAD
1000
DSTYLE
1002
{
1070
     5
1000

1070
    40
1040
20.0
1070
    41
1040
2.0
1070
    42
1040
1.0
1070
    43
1040
6.0
1070
    44
1040
1.0
1070
    73
1070
     0
1070
    74
1070
     0
1070
    77
1070
     1
1070
    78
1070
     8
1070
   140
1040
3.0
1070
   147
1040
1.1999999999999991
1070
   172
1070
     1
1070
   179
1070
     2
1070
   271
1070
     2
1070
   279
1070
     2
1070
   340
1005
62
1070
   342
1005
0
1002
}
  0
DIMENSION
  5
1B432
  8
SUNPOU
  2
*D25
 10
5848.0617524500467
 20
2690.0
 30
0.0
 11
5794.0617524500467
 21
2915.0000000000032
 31
0.0
 70
     0
 13
5802.5635618658098
 23
3140.0000000000018
 33
0.0
 14
5302.5635618658052
 24
2690.0
 34
0.0
 50
90.0
1001
ACAD
1000
DSTYLE
1002
{
1070
   287
1070
     5
1070
    40
1040
20.0
1070
    41
1040
2.0
1070
    42
1040
1.0
1070
    43
1040
6.0
1070
    44
1040
1.0
1070
    73
1070
     0
1070
    74
1070
     0
1070
    77
1070
     1
1070
    78
1070
     8
1070
   140
1040
3.0
1070
   147
1040
1.1999999999999991
1070
   172
1070
     1
1070
   179
1070
     2
1070
   271
1070
     2
1070
   279
1070
     2
1070
   340
1005
62
1002
}
  0
LINE
  5
1B6DA
  8
CENTER
 10
549.61718471919255
 20
3670.0
 30
0.0
 11
4750.3828152808082
 21
3670.0000000000032
 31
0.0
  0
LINE
  5
1B6DB
  8
SJC
 10
700.0
 20
3700.0000000000009
 30
0.0
 11
2600.0
 21
3700.0000000000032
 31
0.0
  0
LINE
  5
1B6DC
  8
SJC
 10
700.0
 20
3640.0000000000009
 30
0.0
 11
2600.0
 21
3640.0000000000009
 31
0.0
  0
LINE
  5
1B6DF
  8
SJC
 10
2700.0
 20
3700.0
 30
0.0
 11
4600.0
 21
3700.0
 31
0.0
  0
LINE
  5
1B6E0
  8
SJC
 10
2700.0
 20
3640.0
 30
0.0
 11
4600.0
 21
3640.000000000035
 31
0.0
  0
LINE
  5
1B6E1
  8
SJC
 10
4700.0
 20
3700.0
 30
0.0
 11
4750.3828152808046
 21
3700.0
 31
0.0
  0
LINE
  5
1B6E2
  8
SJC
 10
4700.0
 20
3640.0
 30
0.0
 11
4750.3828152808046
 21
3640.0000000000009
 31
0.0
  0
POLYLINE
  5
1B6E3
  8
HASEN
 66
     1
 10
0.0
 20
0.0
 30
0.0
 70
     1
  0
VERTEX
  5
1D0FE
  8
HASEN
 10
5132.5635618658062
 20
3645.0000000000118
 30
0.0
  0
VERTEX
  5
1D0FF
  8
HASEN
 10
5132.5635618658062
 20
3695.0000000000041
 30
0.0
 42
-0.4142135623730884
  0
VERTEX
  5
1D100
  8
HASEN
 10
5137.5635618658071
 20
3700.0000000000041
 30
0.0
  0
VERTEX
  5
1D101
  8
HASEN
 10
5167.5635618658071
 20
3700.000000000005
 30
0.0
 42
-0.4142135623731096
  0
VERTEX
  5
1D102
  8
HASEN
 10
5172.5635618658071
 20
3695.000000000005
 30
0.0
  0
VERTEX
  5
1D103
  8
HASEN
 10
5172.5635618658052
 20
3645.0000000000118
 30
0.0
 42
-0.4142135623730831
  0
VERTEX
  5
1D104
  8
HASEN
 10
5167.5635618658052
 20
3640.0000000000118
 30
0.0
  0
VERTEX
  5
1D105
  8
HASEN
 10
5137.5635618658071
 20
3640.0000000000118
 30
0.0
 42
-0.4142135623730928
  0
SEQEND
  5
1D106
  8
HASEN
  0
LINE
  5
1B6E4
  8
CENTER
 10
5087.3116957320826
 20
3670.0000000000032
 30
0.0
 11
5217.8154279995288
 21
3670.0000000000032
 31
0.0
  0
POLYLINE
  5
1B6E5
  8
HASEN
 66
     1
 10
0.0
 20
0.0
 30
0.0
 70
     1
  0
VERTEX
  5
1D107
  8
HASEN
 10
6805.0000000000027
 20
3645.0000000000132
 30
0.0
  0
VERTEX
  5
1D108
  8
HASEN
 10
6805.0000000000027
 20
3695.0000000000041
 30
0.0
 42
-0.4142135623730884
  0
VERTEX
  5
1D109
  8
HASEN
 10
6810.0000000000018
 20
3700.0000000000041
 30
0.0
  0
VERTEX
  5
1D10A
  8
HASEN
 10
6840.0000000000027
 20
3700.0000000000059
 30
0.0
 42
-0.4142135623731096
  0
VERTEX
  5
1D10B
  8
HASEN
 10
6845.0000000000027
 20
3695.0000000000059
 30
0.0
  0
VERTEX
  5
1D10C
  8
HASEN
 10
6845.0000000000018
 20
3645.0000000000132
 30
0.0
 42
-0.4142135623730831
  0
VERTEX
  5
1D10D
  8
HASEN
 10
6840.0000000000018
 20
3640.0000000000132
 30
0.0
  0
VERTEX
  5
1D10E
  8
HASEN
 10
6810.0000000000018
 20
3640.0000000000132
 30
0.0
 42
-0.4142135623730928
  0
SEQEND
  5
1D10F
  8
HASEN
  0
LINE
  5
1B6E6
  8
CENTER
 10
6759.7481338662792
 20
3670.0000000000041
 30
0.0
 11
6890.2518661337272
 21
3670.0000000000041
 31
0.0
  0
LINE
  5
1B6E7
  8
CENTER
 10
549.61718471919255
 20
3940.0
 30
0.0
 11
4750.3828152808082
 21
3940.0000000000032
 31
0.0
  0
LINE
  5
1B6E8
  8
SJC
 10
700.0
 20
3970.0
 30
0.0
 11
2600.0
 21
3970.0000000000032
 31
0.0
  0
LINE
  5
1B6E9
  8
SJC
 10
700.0
 20
3910.0000000000009
 30
0.0
 11
2600.0
 21
3910.0000000000009
 31
0.0
  0
LINE
  5
1B6EC
  8
SJC
 10
2700.0
 20
3970.0
 30
0.0
 11
4600.0
 21
3970.0
 31
0.0
  0
LINE
  5
1B6ED
  8
SJC
 10
2700.0
 20
3910.0
 30
0.0
 11
4600.0
 21
3910.000000000035
 31
0.0
  0
LINE
  5
1B6EE
  8
SJC
 10
4700.0
 20
3970.0
 30
0.0
 11
4750.3828152808046
 21
3970.0
 31
0.0
  0
LINE
  5
1B6EF
  8
SJC
 10
4700.0
 20
3910.0
 30
0.0
 11
4750.3828152808046
 21
3910.0000000000009
 31
0.0
  0
POLYLINE
  5
1B6F0
  8
HASEN
 66
     1
 10
0.0
 20
0.0
 30
0.0
 70
     1
  0
VERTEX
  5
1D110
  8
HASEN
 10
5132.5635618658062
 20
3915.0000000000118
 30
0.0
  0
VERTEX
  5
1D111
  8
HASEN
 10
5132.5635618658062
 20
3965.0000000000032
 30
0.0
 42
-0.4142135623730884
  0
VERTEX
  5
1D112
  8
HASEN
 10
5137.5635618658071
 20
3970.0000000000041
 30
0.0
  0
VERTEX
  5
1D113
  8
HASEN
 10
5167.5635618658071
 20
3970.000000000005
 30
0.0
 42
-0.4142135623731096
  0
VERTEX
  5
1D114
  8
HASEN
 10
5172.5635618658071
 20
3965.000000000005
 30
0.0
  0
VERTEX
  5
1D115
  8
HASEN
 10
5172.5635618658052
 20
3915.0000000000118
 30
0.0
 42
-0.4142135623730831
  0
VERTEX
  5
1D116
  8
HASEN
 10
5167.5635618658052
 20
3910.0000000000118
 30
0.0
  0
VERTEX
  5
1D117
  8
HASEN
 10
5137.5635618658071
 20
3910.0000000000118
 30
0.0
 42
-0.4142135623730928
  0
SEQEND
  5
1D118
  8
HASEN
  0
LINE
  5
1B6F1
  8
CENTER
 10
5087.3116957320826
 20
3940.0000000000032
 30
0.0
 11
5217.8154279995288
 21
3940.0000000000032
 31
0.0
  0
POLYLINE
  5
1B6F2
  8
HASEN
 66
     1
 10
0.0
 20
0.0
 30
0.0
 70
     1
  0
VERTEX
  5
1D119
  8
HASEN
 10
6805.0000000000027
 20
3915.0000000000132
 30
0.0
  0
VERTEX
  5
1D11A
  8
HASEN
 10
6805.0000000000027
 20
3965.0000000000032
 30
0.0
 42
-0.4142135623730884
  0
VERTEX
  5
1D11B
  8
HASEN
 10
6810.0000000000018
 20
3970.0000000000041
 30
0.0
  0
VERTEX
  5
1D11C
  8
HASEN
 10
6840.0000000000027
 20
3970.000000000005
 30
0.0
 42
-0.4142135623731096
  0
VERTEX
  5
1D11D
  8
HASEN
 10
6845.0000000000027
 20
3965.0000000000059
 30
0.0
  0
VERTEX
  5
1D11E
  8
HASEN
 10
6845.0000000000018
 20
3915.0000000000132
 30
0.0
 42
-0.4142135623730831
  0
VERTEX
  5
1D11F
  8
HASEN
 10
6840.0000000000018
 20
3910.0000000000132
 30
0.0
  0
VERTEX
  5
1D120
  8
HASEN
 10
6810.0000000000018
 20
3910.0000000000132
 30
0.0
 42
-0.4142135623730928
  0
SEQEND
  5
1D121
  8
HASEN
  0
LINE
  5
1B6F3
  8
CENTER
 10
6759.7481338662792
 20
3940.0000000000032
 30
0.0
 11
6890.2518661337272
 21
3940.0000000000032
 31
0.0
  0
DIMENSION
  5
1B70F
  8
SUNPOU
  2
*D26
 10
367.54800335775332
 20
3670.0
 30
0.0
 11
313.54800335775269
 21
3535.0
 31
0.0
 70
     0
 13
549.61718471919255
 23
3400.0
 33
0.0
 14
549.61718471919255
 24
3670.0
 34
0.0
 50
90.0
1001
ACAD
1000
DSTYLE
1002
{
1070
   287
1070
     5
1070
    40
1040
20.0
1070
    41
1040
2.0
1070
    42
1040
1.0
1070
    43
1040
6.0
1070
    44
1040
1.0
1070
    73
1070
     0
1070
    74
1070
     0
1070
    77
1070
     1
1070
    78
1070
     8
1070
   140
1040
3.0
1070
   147
1040
1.1999999999999991
1070
   172
1070
     1
1070
   271
1070
     2
1070
   279
1070
     2
1070
   340
1005
62
1002
}
  0
TEXT
  5
1BDC4
  8
INFORMATION
 10
1.0
 20
1.0
 30
0.0
 40
0.8
  1
VERSION=3.0
  0
TEXT
  5
1C17F
  8
INFORMATION
 10
8041.0
 20
2.0
 30
0.0
 40
0.8
  1
PLOTTER=CANON_LBP-830
  0
TEXT
  5
1C180
  8
INFORMATION
 10
8041.0
 20
3.0
 30
0.0
 40
0.8
  1
PAPER=A3
  0
TEXT
  5
1C181
  8
INFORMATION
 10
8041.0
 20
1.0
 30
0.0
 40
0.8
  1
VERSION=3.0
  0
TEXT
  5
1C182
  8
INFORMATION
 10
16081.0
 20
2.0
 30
0.0
 40
0.8
  1
PLOTTER=CANON_LBP-830
  0
TEXT
  5
1C183
  8
INFORMATION
 10
16081.0
 20
3.0
 30
0.0
 40
0.8
  1
PAPER=A3
  0
TEXT
  5
1C184
  8
INFORMATION
 10
16081.0
 20
1.0
 30
0.0
 40
0.8
  1
VERSION=3.0
  0
TEXT
  5
1C185
  8
INFORMATION
 10
24121.0
 20
2.0
 30
0.0
 40
0.8
  1
PLOTTER=CANON_LBP-A309G2
  0
TEXT
  5
1C186
  8
INFORMATION
 10
24121.0
 20
3.0
 30
0.0
 40
0.8
  1
PAPER=A3
  0
TEXT
  5
1C187
  8
INFORMATION
 10
24121.0
 20
1.0
 30
0.0
 40
0.8
  1
VERSION=2.1
  0
TEXT
  5
1C188
  8
INFORMATION
 10
29866.288980116598
 20
1829.277671044948
 30
0.0
 40
0.8
  1
PLOTTER=CANON_LBP-A309G2
  0
TEXT
  5
1C189
  8
INFORMATION
 10
29866.288980116598
 20
1830.2776710449491
 30
0.0
 40
0.8
  1
PAPER=B4
  0
TEXT
  5
1C18A
  8
INFORMATION
 10
29866.288980116598
 20
1828.2776710449491
 30
0.0
 40
0.8
  1
VERSION=2.1
  0
TEXT
  5
1C18B
  8
INFORMATION
 10
27293.26397994201
 20
1055.4596706914911
 30
0.0
 40
0.8
  1
PLOTTER=CALCOMP_TECHJET720
  0
TEXT
  5
1C18C
  8
INFORMATION
 10
27293.26397994201
 20
1056.4596706914911
 30
0.0
 40
0.8
  1
PAPER=A3
  0
TEXT
  5
1C18D
  8
INFORMATION
 10
27293.26397994201
 20
1054.4596706914911
 30
0.0
 40
0.8
  1
VERSION=2.1
  0
TEXT
  5
1C18E
  8
INFORMATION
 10
24121.0
 20
2.0
 30
0.0
 40
0.8
  1
PLOTTER=CANON_LBP-830
  0
TEXT
  5
1C18F
  8
INFORMATION
 10
24121.0
 20
3.0
 30
0.0
 40
0.8
  1
PAPER=A3
  0
TEXT
  5
1C190
  8
INFORMATION
 10
24121.0
 20
1.0
 30
0.0
 40
0.8
  1
VERSION=3.0
  0
TEXT
  5
1C191
  8
INFORMATION
 10
8041.0
 20
5492.0
 30
0.0
 40
0.8
  1
PLOTTER=CANON_LBP-830
  0
TEXT
  5
1C192
  8
INFORMATION
 10
8041.0
 20
5493.0
 30
0.0
 40
0.8
  1
PAPER=A3
  0
TEXT
  5
1C193
  8
INFORMATION
 10
8041.0
 20
5491.0
 30
0.0
 40
0.8
  1
VERSION=3.0
  0
TEXT
  5
1C194
  8
INFORMATION
 10
16081.0
 20
5492.0
 30
0.0
 40
0.8
  1
PLOTTER=CANON_LBP-A309G2
  0
TEXT
  5
1C195
  8
INFORMATION
 10
16081.0
 20
5493.0
 30
0.0
 40
0.8
  1
PAPER=A3
  0
TEXT
  5
1C196
  8
INFORMATION
 10
16081.0
 20
5491.0
 30
0.0
 40
0.8
  1
VERSION=2.1
  0
TEXT
  5
1C197
  8
INFORMATION
 10
21826.288980116591
 20
7319.2776710449489
 30
0.0
 40
0.8
  1
PLOTTER=CANON_LBP-A309G2
  0
TEXT
  5
1C198
  8
INFORMATION
 10
21826.288980116591
 20
7320.277671044948
 30
0.0
 40
0.8
  1
PAPER=B4
  0
TEXT
  5
1C199
  8
INFORMATION
 10
21826.288980116591
 20
7318.2776710449489
 30
0.0
 40
0.8
  1
VERSION=2.1
  0
TEXT
  5
1C19A
  8
INFORMATION
 10
19253.26397994201
 20
6545.4596706914908
 30
0.0
 40
0.8
  1
PLOTTER=CALCOMP_TECHJET720
  0
TEXT
  5
1C19B
  8
INFORMATION
 10
19253.26397994201
 20
6546.4596706914899
 30
0.0
 40
0.8
  1
PAPER=A3
  0
TEXT
  5
1C19C
  8
INFORMATION
 10
19253.26397994201
 20
6544.4596706914908
 30
0.0
 40
0.8
  1
VERSION=2.1
  0
TEXT
  5
1C19D
  8
INFORMATION
 10
16081.0
 20
5492.0
 30
0.0
 40
0.8
  1
PLOTTER=CANON_LBP-830
  0
TEXT
  5
1C19E
  8
INFORMATION
 10
16081.0
 20
5493.0
 30
0.0
 40
0.8
  1
PAPER=A3
  0
TEXT
  5
1C19F
  8
INFORMATION
 10
16081.0
 20
5491.0
 30
0.0
 40
0.8
  1
VERSION=3.0
  0
TEXT
  5
1C1A0
  8
INFORMATION
 10
16081.0
 20
2.0
 30
0.0
 40
0.8
  1
PLOTTER=CANON_LBP-830
  0
TEXT
  5
1C1A1
  8
INFORMATION
 10
16081.0
 20
3.0
 30
0.0
 40
0.8
  1
PAPER=A3
  0
TEXT
  5
1C1A2
  8
INFORMATION
 10
16081.0
 20
1.0
 30
0.0
 40
0.8
  1
VERSION=3.0
  0
TEXT
  5
1C1A3
  8
INFORMATION
 10
24121.0
 20
2.0
 30
0.0
 40
0.8
  1
PLOTTER=CANON_LBP-A309G2
  0
TEXT
  5
1C1A4
  8
INFORMATION
 10
24121.0
 20
3.0
 30
0.0
 40
0.8
  1
PAPER=A3
  0
TEXT
  5
1C1A5
  8
INFORMATION
 10
24121.0
 20
1.0
 30
0.0
 40
0.8
  1
VERSION=2.1
  0
TEXT
  5
1C1A6
  8
INFORMATION
 10
29866.288980116598
 20
1829.277671044948
 30
0.0
 40
0.8
  1
PLOTTER=CANON_LBP-A309G2
  0
TEXT
  5
1C1A7
  8
INFORMATION
 10
29866.288980116598
 20
1830.2776710449491
 30
0.0
 40
0.8
  1
PAPER=B4
  0
TEXT
  5
1C1A8
  8
INFORMATION
 10
29866.288980116598
 20
1828.2776710449491
 30
0.0
 40
0.8
  1
VERSION=2.1
  0
TEXT
  5
1C1A9
  8
INFORMATION
 10
27293.26397994201
 20
1055.4596706914911
 30
0.0
 40
0.8
  1
PLOTTER=CALCOMP_TECHJET720
  0
TEXT
  5
1C1AA
  8
INFORMATION
 10
27293.26397994201
 20
1056.4596706914911
 30
0.0
 40
0.8
  1
PAPER=A3
  0
TEXT
  5
1C1AB
  8
INFORMATION
 10
27293.26397994201
 20
1054.4596706914911
 30
0.0
 40
0.8
  1
VERSION=2.1
  0
TEXT
  5
1C1AC
  8
INFORMATION
 10
24121.0
 20
2.0
 30
0.0
 40
0.8
  1
PLOTTER=CANON_LBP-830
  0
TEXT
  5
1C1AD
  8
INFORMATION
 10
24121.0
 20
3.0
 30
0.0
 40
0.8
  1
PAPER=A3
  0
TEXT
  5
1C1AE
  8
INFORMATION
 10
24121.0
 20
1.0
 30
0.0
 40
0.8
  1
VERSION=3.0
  0
TEXT
  5
1C1AF
  8
INFORMATION
 10
16081.0
 20
2.0
 30
0.0
 40
0.8
  1
PLOTTER=CANON_LBP-830
  0
TEXT
  5
1C1B0
  8
INFORMATION
 10
16081.0
 20
3.0
 30
0.0
 40
0.8
  1
PAPER=A3
  0
TEXT
  5
1C1B1
  8
INFORMATION
 10
16081.0
 20
1.0
 30
0.0
 40
0.8
  1
VERSION=3.0
  0
TEXT
  5
1C1B2
  8
INFORMATION
 10
24121.0
 20
2.0
 30
0.0
 40
0.8
  1
PLOTTER=CANON_LBP-A309G2
  0
TEXT
  5
1C1B3
  8
INFORMATION
 10
24121.0
 20
3.0
 30
0.0
 40
0.8
  1
PAPER=A3
  0
TEXT
  5
1C1B4
  8
INFORMATION
 10
24121.0
 20
1.0
 30
0.0
 40
0.8
  1
VERSION=2.1
  0
TEXT
  5
1C1B5
  8
INFORMATION
 10
29866.288980116598
 20
1829.277671044948
 30
0.0
 40
0.8
  1
PLOTTER=CANON_LBP-A309G2
  0
TEXT
  5
1C1B6
  8
INFORMATION
 10
29866.288980116598
 20
1830.2776710449491
 30
0.0
 40
0.8
  1
PAPER=B4
  0
TEXT
  5
1C1B7
  8
INFORMATION
 10
29866.288980116598
 20
1828.2776710449491
 30
0.0
 40
0.8
  1
VERSION=2.1
  0
TEXT
  5
1C1B8
  8
INFORMATION
 10
27293.26397994201
 20
1055.4596706914911
 30
0.0
 40
0.8
  1
PLOTTER=CALCOMP_TECHJET720
  0
TEXT
  5
1C1B9
  8
INFORMATION
 10
27293.26397994201
 20
1056.4596706914911
 30
0.0
 40
0.8
  1
PAPER=A3
  0
TEXT
  5
1C1BA
  8
INFORMATION
 10
27293.26397994201
 20
1054.4596706914911
 30
0.0
 40
0.8
  1
VERSION=2.1
  0
TEXT
  5
1C1BB
  8
INFORMATION
 10
24121.0
 20
2.0
 30
0.0
 40
0.8
  1
PLOTTER=CANON_LBP-830
  0
TEXT
  5
1C1BC
  8
INFORMATION
 10
24121.0
 20
3.0
 30
0.0
 40
0.8
  1
PAPER=A3
  0
TEXT
  5
1C1BD
  8
INFORMATION
 10
24121.0
 20
1.0
 30
0.0
 40
0.8
  1
VERSION=3.0
  0
TEXT
  5
1C1C3
  8
MOJI
 10
7241.9047619047633
 20
314.99999999917139
 30
0.0
 40
49.999999999999957
  1
20
 41
0.8
  7
EXT08
 72
     4
 11
7280.0
 21
339.99999999917139
 31
0.0
  0
TEXT
  5
1C1C4
  8
MOJI
 10
6773.0
 20
314.99999999917412
 30
0.0
 40
49.999999999999957
  1
亜鉛めっき
 41
0.8
  7
EXT08
 72
     4
 11
6885.0
 21
339.99999999917412
 31
0.0
  0
TEXT
  5
1C1D3
  8
MOJI
 10
5572.0
 20
314.99999999917139
 30
0.0
 40
49.999999999999957
  1
取付ピン
 41
0.8
  7
EXT08
 72
     4
 11
5660.0
 21
339.99999999917139
 31
0.0
  0
TEXT
  5
1C1E4
  8
MOJI
 10
6214.7619047619037
 20
314.99999999917139
 30
0.0
 40
49.999999999999957
  1
SS400
 41
0.8
  7
EXT08
 72
     4
 11
6310.0
 21
339.99999999917139
 31
0.0
  0
TEXT
  5
1C1EA
  8
INFORMATION
 10
16081.0
 20
2.0
 30
0.0
 40
0.8
  1
PLOTTER=CANON_LBP-830
  0
TEXT
  5
1C1EB
  8
INFORMATION
 10
16081.0
 20
3.0
 30
0.0
 40
0.8
  1
PAPER=A3
  0
TEXT
  5
1C1EC
  8
INFORMATION
 10
16081.0
 20
1.0
 30
0.0
 40
0.8
  1
VERSION=3.0
  0
TEXT
  5
1C1ED
  8
INFORMATION
 10
24121.0
 20
2.0
 30
0.0
 40
0.8
  1
PLOTTER=CANON_LBP-830
  0
TEXT
  5
1C1EE
  8
INFORMATION
 10
24121.0
 20
3.0
 30
0.0
 40
0.8
  1
PAPER=A3
  0
TEXT
  5
1C1EF
  8
INFORMATION
 10
24121.0
 20
1.0
 30
0.0
 40
0.8
  1
VERSION=3.0
  0
TEXT
  5
1C1F0
  8
INFORMATION
 10
32161.0
 20
2.0
 30
0.0
 40
0.8
  1
PLOTTER=CANON_LBP-A309G2
  0
TEXT
  5
1C1F1
  8
INFORMATION
 10
32161.0
 20
3.0
 30
0.0
 40
0.8
  1
PAPER=A3
  0
TEXT
  5
1C1F2
  8
INFORMATION
 10
32161.0
 20
1.0
 30
0.0
 40
0.8
  1
VERSION=2.1
  0
TEXT
  5
1C1F3
  8
INFORMATION
 10
37906.288980116602
 20
1829.277671044948
 30
0.0
 40
0.8
  1
PLOTTER=CANON_LBP-A309G2
  0
TEXT
  5
1C1F4
  8
INFORMATION
 10
37906.288980116602
 20
1830.2776710449491
 30
0.0
 40
0.8
  1
PAPER=B4
  0
TEXT
  5
1C1F5
  8
INFORMATION
 10
37906.288980116602
 20
1828.2776710449491
 30
0.0
 40
0.8
  1
VERSION=2.1
  0
TEXT
  5
1C1F6
  8
INFORMATION
 10
35333.263979942007
 20
1055.4596706914911
 30
0.0
 40
0.8
  1
PLOTTER=CALCOMP_TECHJET720
  0
TEXT
  5
1C1F7
  8
INFORMATION
 10
35333.263979942007
 20
1056.4596706914911
 30
0.0
 40
0.8
  1
PAPER=A3
  0
TEXT
  5
1C1F8
  8
INFORMATION
 10
35333.263979942007
 20
1054.4596706914911
 30
0.0
 40
0.8
  1
VERSION=2.1
  0
TEXT
  5
1C1F9
  8
INFORMATION
 10
32161.0
 20
2.0
 30
0.0
 40
0.8
  1
PLOTTER=CANON_LBP-830
  0
TEXT
  5
1C1FA
  8
INFORMATION
 10
32161.0
 20
3.0
 30
0.0
 40
0.8
  1
PAPER=A3
  0
TEXT
  5
1C1FB
  8
INFORMATION
 10
32161.0
 20
1.0
 30
0.0
 40
0.8
  1
VERSION=3.0
  0
TEXT
  5
1C1FC
  8
INFORMATION
 10
16081.0
 20
5492.0
 30
0.0
 40
0.8
  1
PLOTTER=CANON_LBP-830
  0
TEXT
  5
1C1FD
  8
INFORMATION
 10
16081.0
 20
5493.0
 30
0.0
 40
0.8
  1
PAPER=A3
  0
TEXT
  5
1C1FE
  8
INFORMATION
 10
16081.0
 20
5491.0
 30
0.0
 40
0.8
  1
VERSION=3.0
  0
TEXT
  5
1C1FF
  8
INFORMATION
 10
24121.0
 20
5492.0
 30
0.0
 40
0.8
  1
PLOTTER=CANON_LBP-A309G2
  0
TEXT
  5
1C200
  8
INFORMATION
 10
24121.0
 20
5493.0
 30
0.0
 40
0.8
  1
PAPER=A3
  0
TEXT
  5
1C201
  8
INFORMATION
 10
24121.0
 20
5491.0
 30
0.0
 40
0.8
  1
VERSION=2.1
  0
TEXT
  5
1C202
  8
INFORMATION
 10
29866.288980116598
 20
7319.2776710449489
 30
0.0
 40
0.8
  1
PLOTTER=CANON_LBP-A309G2
  0
TEXT
  5
1C203
  8
INFORMATION
 10
29866.288980116598
 20
7320.277671044948
 30
0.0
 40
0.8
  1
PAPER=B4
  0
TEXT
  5
1C204
  8
INFORMATION
 10
29866.288980116598
 20
7318.2776710449489
 30
0.0
 40
0.8
  1
VERSION=2.1
  0
TEXT
  5
1C205
  8
INFORMATION
 10
27293.26397994201
 20
6545.4596706914908
 30
0.0
 40
0.8
  1
PLOTTER=CALCOMP_TECHJET720
  0
TEXT
  5
1C206
  8
INFORMATION
 10
27293.26397994201
 20
6546.4596706914899
 30
0.0
 40
0.8
  1
PAPER=A3
  0
TEXT
  5
1C207
  8
INFORMATION
 10
27293.26397994201
 20
6544.4596706914908
 30
0.0
 40
0.8
  1
VERSION=2.1
  0
TEXT
  5
1C208
  8
INFORMATION
 10
24121.0
 20
5492.0
 30
0.0
 40
0.8
  1
PLOTTER=CANON_LBP-830
  0
TEXT
  5
1C209
  8
INFORMATION
 10
24121.0
 20
5493.0
 30
0.0
 40
0.8
  1
PAPER=A3
  0
TEXT
  5
1C20A
  8
INFORMATION
 10
24121.0
 20
5491.0
 30
0.0
 40
0.8
  1
VERSION=3.0
  0
TEXT
  5
1C20B
  8
INFORMATION
 10
24121.0
 20
2.0
 30
0.0
 40
0.8
  1
PLOTTER=CANON_LBP-830
  0
TEXT
  5
1C20C
  8
INFORMATION
 10
24121.0
 20
3.0
 30
0.0
 40
0.8
  1
PAPER=A3
  0
TEXT
  5
1C20D
  8
INFORMATION
 10
24121.0
 20
1.0
 30
0.0
 40
0.8
  1
VERSION=3.0
  0
TEXT
  5
1C20E
  8
INFORMATION
 10
32161.0
 20
2.0
 30
0.0
 40
0.8
  1
PLOTTER=CANON_LBP-A309G2
  0
TEXT
  5
1C20F
  8
INFORMATION
 10
32161.0
 20
3.0
 30
0.0
 40
0.8
  1
PAPER=A3
  0
TEXT
  5
1C210
  8
INFORMATION
 10
32161.0
 20
1.0
 30
0.0
 40
0.8
  1
VERSION=2.1
  0
TEXT
  5
1C211
  8
INFORMATION
 10
37906.288980116602
 20
1829.277671044948
 30
0.0
 40
0.8
  1
PLOTTER=CANON_LBP-A309G2
  0
TEXT
  5
1C212
  8
INFORMATION
 10
37906.288980116602
 20
1830.2776710449491
 30
0.0
 40
0.8
  1
PAPER=B4
  0
TEXT
  5
1C213
  8
INFORMATION
 10
37906.288980116602
 20
1828.2776710449491
 30
0.0
 40
0.8
  1
VERSION=2.1
  0
TEXT
  5
1C214
  8
INFORMATION
 10
35333.263979942007
 20
1055.4596706914911
 30
0.0
 40
0.8
  1
PLOTTER=CALCOMP_TECHJET720
  0
TEXT
  5
1C215
  8
INFORMATION
 10
35333.263979942007
 20
1056.4596706914911
 30
0.0
 40
0.8
  1
PAPER=A3
  0
TEXT
  5
1C216
  8
INFORMATION
 10
35333.263979942007
 20
1054.4596706914911
 30
0.0
 40
0.8
  1
VERSION=2.1
  0
TEXT
  5
1C217
  8
INFORMATION
 10
32161.0
 20
2.0
 30
0.0
 40
0.8
  1
PLOTTER=CANON_LBP-830
  0
TEXT
  5
1C218
  8
INFORMATION
 10
32161.0
 20
3.0
 30
0.0
 40
0.8
  1
PAPER=A3
  0
TEXT
  5
1C219
  8
INFORMATION
 10
32161.0
 20
1.0
 30
0.0
 40
0.8
  1
VERSION=3.0
  0
TEXT
  5
1C21F
  8
INFORMATION
 10
24121.0
 20
2.0
 30
0.0
 40
0.8
  1
PLOTTER=CANON_LBP-830
  0
TEXT
  5
1C220
  8
INFORMATION
 10
24121.0
 20
3.0
 30
0.0
 40
0.8
  1
PAPER=A3
  0
TEXT
  5
1C221
  8
INFORMATION
 10
24121.0
 20
1.0
 30
0.0
 40
0.8
  1
VERSION=3.0
  0
TEXT
  5
1C222
  8
INFORMATION
 10
32161.0
 20
2.0
 30
0.0
 40
0.8
  1
PLOTTER=CANON_LBP-A309G2
  0
TEXT
  5
1C223
  8
INFORMATION
 10
32161.0
 20
3.0
 30
0.0
 40
0.8
  1
PAPER=A3
  0
TEXT
  5
1C224
  8
INFORMATION
 10
32161.0
 20
1.0
 30
0.0
 40
0.8
  1
VERSION=2.1
  0
TEXT
  5
1C225
  8
INFORMATION
 10
37906.288980116602
 20
1829.277671044948
 30
0.0
 40
0.8
  1
PLOTTER=CANON_LBP-A309G2
  0
TEXT
  5
1C226
  8
INFORMATION
 10
37906.288980116602
 20
1830.2776710449491
 30
0.0
 40
0.8
  1
PAPER=B4
  0
TEXT
  5
1C227
  8
INFORMATION
 10
37906.288980116602
 20
1828.2776710449491
 30
0.0
 40
0.8
  1
VERSION=2.1
  0
TEXT
  5
1C228
  8
INFORMATION
 10
35333.263979942007
 20
1055.4596706914911
 30
0.0
 40
0.8
  1
PLOTTER=CALCOMP_TECHJET720
  0
TEXT
  5
1C229
  8
INFORMATION
 10
35333.263979942007
 20
1056.4596706914911
 30
0.0
 40
0.8
  1
PAPER=A3
  0
TEXT
  5
1C22A
  8
INFORMATION
 10
35333.263979942007
 20
1054.4596706914911
 30
0.0
 40
0.8
  1
VERSION=2.1
  0
TEXT
  5
1C22B
  8
INFORMATION
 10
32161.0
 20
2.0
 30
0.0
 40
0.8
  1
PLOTTER=CANON_LBP-830
  0
TEXT
  5
1C22C
  8
INFORMATION
 10
32161.0
 20
3.0
 30
0.0
 40
0.8
  1
PAPER=A3
  0
TEXT
  5
1C279
  8
MOJI
 10
5303.027981456984
 20
976.86142327452615
 30
0.0
 40
60.0
  1
※基礎は（水平・垂直）地耐力200kN/m の場合の参考寸法です。
 41
0.8
  7
EXT08
  0
TEXT
  5
1C27A
  8
MOJI
 10
5300.2981628474263
 20
1171.4026080139699
 30
0.0
 40
60.0
  1
※注記：支柱及び横木の外寸は標準値です。
 41
0.8
  7
EXT08
  0
TEXT
  5
1C27B
  8
MOJI
 10
5300.0554679426568
 20
1074.6773064438651
 30
0.0
 40
60.0
  1
　　　：仕様は予告なく変更することがあります。
 41
0.8
  7
EXT08
  0
TEXT
  5
1C27C
  8
MOJI
 10
6458.4724557676454
 20
1015.244845166818
 30
0.0
 40
30.0
  1
2
 41
0.8
  7
EXT08
  0
TEXT
  5
1C33B
  8
MOJI
 10
7241.9047619047633
 20
218.99999999917091
 30
0.0
 40
49.999999999999957
  1
22
 41
0.8
  7
EXT08
 72
     4
 11
7280.0
 21
243.99999999917091
 31
0.0
  0
TEXT
  5
1C33C
  8
MOJI
 10
6598.0714285714294
 20
218.99999999917361
 30
0.0
 40
49.999999999999957
  1
\U+03c64\U+00d716 十字穴付皿テクスビス
 41
0.65
  7
EXT08
 72
     4
 11
6885.0
 21
243.99999999917361
 31
0.0
  0
TEXT
  5
1C33D
  8
MOJI
 10
5416.0
 20
218.99999999917091
 30
0.0
 40
49.999999999999957
  1
頭部キャップ 取付ビス
 41
0.8
  7
EXT08
 72
     4
 11
5660.0
 21
243.99999999917091
 31
0.0
  0
TEXT
  5
1C33E
  8
MOJI
 10
6160.0952380952376
 20
218.99999999917091
 30
0.0
 40
49.999999999999957
  1
SUSテンパー
 41
0.8
  7
EXT08
 72
     4
 11
6310.0
 21
243.99999999917091
 31
0.0
  0
TEXT
  5
1C3A6
  8
MOJI
 10
7241.9047619047633
 20
122.9999999995274
 30
0.0
 40
49.999999999999957
  1
80
 41
0.8
  7
EXT08
 72
     4
 11
7280.0
 21
147.9999999995274
 31
0.0
  0
TEXT
  5
1C3AB
  8
MOJI
 10
5589.333333333333
 20
122.9999999991704
 30
0.0
 40
49.999999999999957
  1
クサビ
 41
0.8
  7
EXT08
 72
     4
 11
5660.0
 21
147.99999999917031
 31
0.0
  0
TEXT
  5
1C3AC
  8
MOJI
 10
6270.0
 20
122.9999999991704
 30
0.0
 40
49.999999999999957
  1
PE
 41
0.8
  7
EXT08
 72
     4
 11
6310.0
 21
147.99999999917031
 31
0.0
  0
INSERT
  5
1C54D
  8
SJC
  2
A$C315B27E3
 10
5149.0635552866152
 20
4177.4000027216016
 30
0.0
  0
INSERT
  5
1C54E
  8
SJC
  2
A$C315B27E3
 10
5149.0635552866152
 20
3907.400002721603
 30
0.0
  0
INSERT
  5
1C54F
  8
SJC
  2
A$C315B27E3
 10
5149.0635552866152
 20
3637.400002721603
 30
0.0
  0
INSERT
  5
1C550
  8
SJC
  2
A$C315B27E3
 10
5149.0635552866152
 20
3367.400002721602
 30
0.0
  0
INSERT
  5
1C551
  8
SJC
  2
A$C315B27E3
 10
6821.4999934208117
 20
4177.4000027216034
 30
0.0
  0
INSERT
  5
1C552
  8
SJC
  2
A$C315B27E3
 10
6821.4999934208117
 20
3907.4000027216039
 30
0.0
  0
INSERT
  5
1C553
  8
SJC
  2
A$C315B27E3
 10
6821.4999934208117
 20
3637.4000027216039
 30
0.0
  0
INSERT
  5
1C554
  8
SJC
  2
A$C315B27E3
 10
6821.4999934208117
 20
3367.400002721603
 30
0.0
  0
INSERT
  5
1C624
  8
SJC
  2
A$C4E2029BC
 10
5157.5635641080344
 20
4293.9999975509927
 30
0.0
  0
INSERT
  5
1C625
  8
SJC
  2
A$C4E2029BC
 10
6830.0000022422291
 20
4293.9999975509927
 30
0.0
  0
TEXT
  5
1CA43
  8
MOJI
 10
1968.465153116043
 20
2119.810276258359
 30
0.0
 40
60.0
  1
頭部キャップ
 41
0.8
  7
EXT08
  0
LINE
  5
1CA44
  8
SUNPOU
 10
1869.134333939701
 20
2099.810276258359
 30
0.0
 11
2391.776425543238
 21
2099.810276258359
 31
0.0
  0
INSERT
  5
1CA45
  8
SJC
  2
*U51
 10
0.0
 20
0.0
 30
0.0
1001
ACAD
1000
DSTYLE
1002
{
1070
     5
1000

1070
    40
1040
20.0
1070
    41
1040
2.0
1070
    42
1040
1.0
1070
    43
1040
6.0
1070
    44
1040
1.0
1070
    73
1070
     0
1070
    74
1070
     0
1070
    77
1070
     1
1070
    78
1070
     8
1070
   140
1040
3.0
1070
   147
1040
1.1999999999999991
1070
   172
1070
     1
1070
   179
1070
     2
1070
   271
1070
     2
1070
   279
1070
     2
1070
   340
1005
62
1070
   342
1005
0
1002
}
  0
CIRCLE
  5
1CA46
  8
MOJI
 10
1915.6741934762649
 20
2150.3367764839259
 30
0.0
 40
35.0
  0
TEXT
  5
1CA47
  8
MOJI
 10
1902.721812523884
 20
2130.3367764839259
 30
0.0
 40
40.0
  1
1
 41
0.8
  7
EXT08
 72
     4
 11
1915.6741934762649
 21
2150.3367764839259
 31
0.0
  0
LINE
  5
1CA48
  8
SUNPOU
 10
1919.134333939701
 20
929.65328069054794
 30
0.0
 11
2395.0978174344232
 21
929.65328069054817
 31
0.0
  0
TEXT
  5
1CA49
  8
MOJI
 10
2013.9818868976961
 20
949.65328069054794
 30
0.0
 40
60.0
  1
クサビ
 41
0.8
  7
EXT08
  0
TEXT
  5
1CA4A
  8
MOJI
 10
1945.1909272579201
 20
960.1797809161144
 30
0.0
 40
40.0
  1
6
 41
0.8
  7
EXT08
 72
     4
 11
1961.1909272579201
 21
980.17978091611428
 31
0.0
  0
CIRCLE
  5
1CA4B
  8
MOJI
 10
1961.1909272579201
 20
980.17978091611428
 30
0.0
 40
35.0
  0
LINE
  5
1CA4C
  8
SUNPOU
 10
1869.134333939701
 20
559.67043144743116
 30
0.0
 11
2313.0859552200782
 21
559.6704314474315
 31
0.0
  0
TEXT
  5
1CA4D
  8
MOJI
 10
1949.969327465305
 20
488.24186001886039
 30
0.0
 40
60.0
  1
φ8×1000
 41
0.8
  7
EXT08
  0
TEXT
  5
1CA4E
  8
MOJI
 10
1973.9818868976961
 20
579.67043144743116
 30
0.0
 40
60.0
  1
取付ピン
 41
0.8
  7
EXT08
  0
TEXT
  5
1CA4F
  8
MOJI
 10
1905.1909272579189
 20
590.19693167299749
 30
0.0
 40
40.0
  1
4
 41
0.8
  7
EXT08
 72
     4
 11
1921.1909272579189
 21
610.19693167299761
 31
0.0
  0
CIRCLE
  5
1CA50
  8
MOJI
 10
1921.1909272579189
 20
610.19693167299761
 30
0.0
 40
35.0
  0
INSERT
  5
1CA51
  8
SJC
  2
*U52
 10
0.0
 20
0.0
 30
0.0
1001
ACAD
1000
DSTYLE
1002
{
1070
     5
1000

1070
    40
1040
20.0
1070
    41
1040
2.0
1070
    42
1040
1.0
1070
    43
1040
6.0
1070
    44
1040
1.0
1070
    73
1070
     0
1070
    74
1070
     0
1070
    77
1070
     1
1070
    78
1070
     8
1070
   140
1040
3.0
1070
   147
1040
1.1999999999999991
1070
   172
1070
     1
1070
   179
1070
     2
1070
   271
1070
     2
1070
   279
1070
     2
1070
   340
1005
62
1070
   342
1005
0
1002
}
  0
LINE
  5
1CA52
  8
SUNPOU
 10
1074.9999999947049
 20
1674.0000000000009
 30
0.0
 11
924.99999999470481
 21
1674.0000000000009
 31
0.0
  0
LINE
  5
1CA53
  8
SUNPOU
 10
894.99999999470492
 20
1599.0000000000009
 30
0.0
 11
954.99999999470492
 21
1599.0000000000009
 31
0.0
  0
LINE
  5
1CA54
  8
SUNPOU
 10
924.99999999470481
 20
1524.0000000000009
 30
0.0
 11
894.99999999470492
 21
1599.0000000000009
 31
0.0
  0
LINE
  5
1CA55
  8
SUNPOU
 10
924.99999999470481
 20
1674.0000000000009
 30
0.0
 11
924.99999999470481
 21
1524.0000000000009
 31
0.0
  0
TEXT
  5
1CA56
  8
MOJI
 10
841.90453195556893
 20
1484.2047924680669
 30
0.0
 40
60.0
  1
A
 41
0.8
  7
EXT08
 72
     1
 11
862.47596052699726
 21
1514.2047924680669
 31
0.0
 73
     2
  0
TEXT
  5
1CA57
  8
MOJI
 10
2121.5240394624111
 20
1484.2047924680669
 30
0.0
 40
60.0
  1
A
 41
0.8
  7
EXT08
 72
     1
 11
2142.09546803384
 21
1514.2047924680669
 31
0.0
 73
     2
  0
LINE
  5
1CA58
  8
SUNPOU
 10
1924.9999999947049
 20
1674.0000000000009
 30
0.0
 11
2074.9999999947049
 21
1674.0000000000009
 31
0.0
  0
LINE
  5
1CA59
  8
SUNPOU
 10
2074.9999999947049
 20
1674.0000000000009
 30
0.0
 11
2074.9999999947049
 21
1524.0000000000009
 31
0.0
  0
LINE
  5
1CA5A
  8
SUNPOU
 10
2104.9999999947049
 20
1599.0000000000009
 30
0.0
 11
2044.9999999947049
 21
1599.0000000000009
 31
0.0
  0
LINE
  5
1CA5B
  8
SUNPOU
 10
2074.9999999947049
 20
1524.0000000000009
 30
0.0
 11
2104.9999999947049
 21
1599.0000000000009
 31
0.0
  0
INSERT
  5
1CA5C
  8
HATCH
  6
CONTINUOUS
  2
*X53
 10
0.0
 20
0.0
 30
0.0
1001
ACAD
1000
HATCH
1002
{
1070
    19
1000
ANSI31
1040
200.0
1040
0.0
1000
R14_HATCH_DATA
1000
1CA5C
1011
1.0
1021
0.0
1031
0.0
1021
0.0
1031
0.0
1011
0.0
1021
0.0
1031
0.0
1021
1.0
1031
0.0
1011
0.0
1021
0.0
1031
0.0
1021
0.0
1031
1.0
1040
0.0
1010
0.0
1020
0.0
1030
1.0
1000
ANSI31
1070
     0
1070
     0
1071
        2
1071
        7
1070
     0
1070
     1
1071
        7
1040
1750.0
1040
1736.499999999977
1040
1747.520597077792
1040
1736.499999999977
1040
1743.1904700588709
1040
1733.9999999999779
1040
1741.7470943858971
1040
1736.4999999999779
1040
1740.000000000002
1040
1736.4999999999779
1040
1740.000000000002
1040
1453.9999999999809
1040
1750.0
1040
1453.9999999999809
1071
        0
1071
        7
1070
     0
1070
     1
1071
        4
1040
1750.0
1040
1118.9999999999779
1040
1740.000000000002
1040
1118.9999999999779
1040
1740.0
1040
500.00000000000023
1040
1750.0000000000009
1040
500.00000000000023
1071
        0
1070
     0
1070
     1
1040
0.0
1040
200.0
1070
     0
1070
     1
1040
0.7853981633974483
1040
0.0
1040
0.0
1040
-17.677669529663682
1040
17.677669529663689
1070
     0
1040
3.1703340871218262
1071
        2
1040
1745.830867769346
1040
1520.1992692896731
1040
0.0
1040
1745.830867769346
1040
1054.160162701859
1040
0.0
1002
}
  0
POLYLINE
  5
1CA5D
  8
SUNPOU
 66
     1
 10
0.0
 20
0.0
 30
0.0
1001
ACAD
1000
ASC_BOUNDS
1002
{
1070
    19
1005
0
1002
}
  0
VERTEX
  5
1D186
  8
SUNPOU
 10
1925.0
 20
500.00000000000011
 30
0.0
  0
VERTEX
  5
1D187
  8
SUNPOU
 10
1580.0
 20
500.00000000000023
 30
0.0
  0
VERTEX
  5
1D188
  8
SUNPOU
 10
1580.0
 20
540.00000000000023
 30
0.0
  0
VERTEX
  5
1D189
  8
SUNPOU
 10
1420.0
 20
460.00000000000023
 30
0.0
  0
VERTEX
  5
1D18A
  8
SUNPOU
 10
1420.0
 20
500.00000000000023
 30
0.0
  0
VERTEX
  5
1D18B
  8
SUNPOU
 10
1075.0
 20
500.00000000000028
 30
0.0
  0
SEQEND
  5
1D18C
  8
SUNPOU
  0
TEXT
  5
1CA5E
  8
MOJI
 10
1968.465153116043
 20
2019.810276258359
 30
0.0
 40
60.0
  1
(現場取り付け)
 41
0.8
  7
EXT08
  0
TEXT
  5
1CA5F
  8
SJC
 10
1272.0
 20
2310.0
 30
0.0
 40
100.0
  1
%%u取付部詳細
 41
0.8
  7
EXT08
 72
     4
 11
1500.0
 21
2350.0
 31
0.0
  0
TEXT
  5
1CA60
  8
SJC
 10
3520.4761904761899
 20
2310.0
 30
0.0
 40
100.0
  1
%%uＡ-Ａ断面
 41
0.8
  7
EXT08
 72
     4
 11
3750.0
 21
2350.0
 31
0.0
  0
LINE
  5
1CA61
  8
SJC
 10
1563.9339828220179
 20
1538.9999999999959
 30
0.0
 11
1650.000000000003
 21
1538.9999999999959
 31
0.0
  0
LINE
  5
1CA62
  8
SJC
 10
1563.9339828220179
 20
1498.9999999999959
 30
0.0
 11
1640.0000000000041
 21
1498.9999999999959
 31
0.0
  0
INSERT
  5
1CA63
  8
HATCH
  6
CONTINUOUS
  2
*X54
 10
0.0
 20
0.0
 30
0.0
1001
ACAD
1000
HATCH
1002
{
1070
    19
1000
ANSI31
1040
100.0
1040
1.5707963267948959
1000
R14_HATCH_DATA
1000
1CA63
1011
1.0
1021
0.0
1031
0.0
1021
0.0
1031
0.0
1011
0.0
1021
0.0
1031
0.0
1021
1.0
1031
0.0
1011
0.0
1021
0.0
1031
0.0
1021
0.0
1031
1.0
1040
0.0
1010
0.0
1020
0.0
1030
1.0
1000
ANSI31
1070
     0
1070
     0
1071
        1
1071
        7
1070
     1
1070
     1
1071
       15
1040
1681.3333333333451
1040
1887.9999999999741
1040
0.1622776601683866
1040
1678.3333333333451
1040
1888.9999999999779
1040
0.0
1040
1500.0
1040
1888.9999999999779
1040
0.0
1040
1500.0
1040
1868.9999999999779
1040
0.0
1040
1672.9986747295211
1040
1868.9999999999779
1040
0.0
1040
1737.4999999999959
1040
1798.9999999999779
1040
0.0
1040
1750.0
1040
1798.9999999999779
1040
0.0
1040
1752.4999999999959
1040
1798.9999999999779
1040
0.0
1040
1752.4999999999959
1040
1698.9999999999779
1040
0.0
1040
1760.4289321881331
1040
1698.9999999999779
1040
0.198912367379557
1040
1763.9644660940651
1040
1700.4644660940439
1040
0.0
1040
1771.0355339059311
1040
1707.5355339059111
1040
0.1989123673796753
1040
1772.499999999998
1040
1711.0710678118451
1040
0.0
1040
1772.499999999998
1040
1811.4999999999779
1040
0.2154855501210724
1040
1770.803817436075
1040
1815.252970869712
1040
0.0
1071
        0
1070
     0
1070
     1
1040
1.5707963267948959
1040
100.0
1070
     0
1070
     1
1040
2.3561944901923439
1040
0.0
1040
0.0
1040
-8.8388347648318444
1040
-8.8388347648318426
1070
     0
1040
1.466219563669428
1071
        1
1040
1680.641455940189
1040
1878.0881905325291
1040
0.0
1002
}
  0
LINE
  5
1CA64
  8
CENTER
 10
1500.0
 20
2100.0
 30
0.0
 11
1500.0
 21
400.00000000000011
 31
0.0
1001
ACAD
1000
ASC_BOUNDS
1002
{
1070
    19
1002
}
  0
LINE
  5
1CA65
  8
SJC
 10
1563.9339828220179
 20
1538.9999999999959
 30
0.0
 11
1563.9339828220179
 21
1498.9999999999959
 31
0.0
  0
INSERT
  5
1CA66
  8
HATCH
  6
CONTINUOUS
  2
*X55
 10
0.0
 20
0.0
 30
0.0
1001
ACAD
1000
HATCH
1002
{
1070
    19
1000
ANSI31
1040
100.0
1040
1.5707963267948959
1000
R14_HATCH_DATA
1000
1CA66
1011
1.0
1021
0.0
1031
0.0
1021
0.0
1031
0.0
1011
0.0
1021
0.0
1031
0.0
1021
1.0
1031
0.0
1011
0.0
1021
0.0
1031
0.0
1021
0.0
1031
1.0
1040
0.0
1010
0.0
1020
0.0
1030
1.0
1000
ANSI31
1070
     0
1070
     0
1071
        4
1071
        7
1070
     0
1070
     1
1071
        4
1040
1637.5
1040
1441.499999999985
1040
1600.0
1040
1441.499999999982
1040
1600.0
1040
1426.499999999982
1040
1637.5
1040
1426.4999999999841
1071
        0
1071
        7
1070
     0
1070
     1
1071
        6
1040
2167.5291988964059
1040
1436.0308014654611
1040
2166.2197921269531
1040
1441.499999999982
1040
1702.5
1040
1441.499999999985
1040
1702.5
1040
1426.499999999985
1040
2171.0648063723302
1040
1426.4999999999841
1040
2169.3666816358241
1040
1430.6115303714009
1071
        0
1071
        7
1070
     0
1070
     1
1071
        4
1040
1637.5
1040
1171.4999999999841
1040
1600.0
1040
1171.499999999982
1040
1600.0
1040
1156.499999999982
1040
1637.5
1040
1156.499999999985
1071
        0
1071
        7
1070
     0
1070
     1
1071
        5
1040
2230.5971265323501
1040
1171.499999999982
1040
1702.5
1040
1171.4999999999841
1040
1702.5
1040
1156.499999999985
1040
2236.5032975753329
1040
1156.4999999999809
1040
2234.3485713476689
1040
1162.260545854034
1071
        0
1070
     0
1070
     1
1040
1.5707963267948959
1040
100.0
1070
     0
1070
     1
1040
2.3561944901923439
1040
0.0
1040
0.0
1040
-8.8388347648318444
1040
-8.8388347648318426
1070
     0
1040
3.2773965201036841
1071
        4
1040
1627.2845208092911
1040
1430.7548251192709
1040
0.0
1040
1755.1705642495649
1040
1430.7548251192709
1040
0.0
1040
1614.1680089298311
1040
1165.2856824856281
1040
0.0
1040
1732.216685999068
1040
1165.2856824856281
1040
0.0
1002
}
  0
INSERT
  5
1CA67
  8
HATCH
  6
CONTINUOUS
  2
*X56
 10
0.0
 20
0.0
 30
0.0
1001
ACAD
1000
HATCH
1002
{
1070
    19
1000
ANSI31
1040
200.0
1040
0.0
1000
R14_HATCH_DATA
1000
1CA67
1011
1.0
1021
0.0
1031
0.0
1021
0.0
1031
0.0
1011
0.0
1021
0.0
1031
0.0
1021
1.0
1031
0.0
1011
0.0
1021
0.0
1031
0.0
1021
0.0
1031
1.0
1040
0.0
1010
0.0
1020
0.0
1030
1.0
1000
ANSI31
1070
     0
1070
     0
1071
        4
1071
        7
1070
     0
1070
     1
1071
        4
1040
1637.5
1040
1441.499999999985
1040
1637.5
1040
1448.999999999982
1040
1600.0
1040
1448.999999999982
1040
1600.0
1040
1441.499999999982
1071
        0
1071
        7
1070
     0
1070
     1
1071
        5
1040
1702.5
1040
1448.999999999982
1040
1702.5
1040
1441.499999999985
1040
2166.2202589727308
1040
1441.499999999982
1040
2165.5476403845391
1040
1447.1063981207869
1040
2165.5395735628808
1040
1448.999999999982
1071
        0
1071
        7
1070
     0
1070
     1
1071
        4
1040
1600.0
1040
1156.499999999982
1040
1600.0
1040
1148.999999999982
1040
1637.5
1040
1148.9999999999829
1040
1637.5
1040
1156.499999999985
1071
        0
1071
        7
1070
     0
1070
     1
1071
        4
1040
1702.5
1040
1156.499999999985
1040
1702.5
1040
1148.9999999999841
1040
2239.308664829909
1040
1148.9999999999909
1040
2236.5032975753329
1040
1156.4999999999809
1071
        0
1070
     0
1070
     1
1040
0.0
1040
200.0
1070
     0
1070
     1
1040
0.7853981633974483
1040
0.0
1040
0.0
1040
-17.677669529663682
1040
17.677669529663689
1070
     0
1040
1.6110077877129789
1071
        4
1040
1629.007015774579
1040
1444.6375916638931
1040
0.0
1040
1716.047416069079
1040
1446.248607480389
1040
0.0
1040
1629.007015774579
1040
1153.0451694512369
1040
0.0
1040
1720.8830016581189
1040
1153.0451694512369
1040
0.0
1002
}
  0
POLYLINE
  5
1CA68
  8
MOJI
 66
     1
 10
0.0
 20
0.0
 30
0.0
  0
VERTEX
  5
1D205
  8
MOJI
 10
2165.5395735628808
 20
1448.999999999995
 30
0.0
  0
VERTEX
  5
1D206
  8
MOJI
 10
2165.5476403845391
 20
1447.1063981207831
 30
0.0
  0
VERTEX
  5
1D207
  8
MOJI
 10
2166.2207278980109
 20
1441.496091422586
 30
0.0
  0
VERTEX
  5
1D208
  8
MOJI
 10
2167.5291988964041
 20
1436.0308014654649
 30
0.0
  0
VERTEX
  5
1D209
  8
MOJI
 10
2169.3666816358259
 20
1430.6115303713971
 30
0.0
  0
VERTEX
  5
1D20A
  8
MOJI
 10
2171.6268043723881
 20
1425.139280262355
 30
0.0
  0
VERTEX
  5
1D20B
  8
MOJI
 10
2174.2031953621972
 20
1419.515053260315
 30
0.0
  0
VERTEX
  5
1D20C
  8
MOJI
 10
2176.9894828613669
 20
1413.6398514872501
 30
0.0
  0
VERTEX
  5
1D20D
  8
MOJI
 10
2179.879295126002
 20
1407.4146770651371
 30
0.0
  0
VERTEX
  5
1D20E
  8
MOJI
 10
2182.7662604122161
 20
1400.7405321159481
 30
0.0
  0
VERTEX
  5
1D20F
  8
MOJI
 10
2185.5680209688999
 20
1393.559303562753
 30
0.0
  0
VERTEX
  5
1D210
  8
MOJI
 10
2188.2982750160609
 20
1385.976417532999
 30
0.0
  0
VERTEX
  5
1D211
  8
MOJI
 10
2190.994734766507
 20
1378.1381849552299
 30
0.0
  0
VERTEX
  5
1D212
  8
MOJI
 10
2193.695112433028
 20
1370.190916757985
 30
0.0
  0
VERTEX
  5
1D213
  8
MOJI
 10
2196.4371202284219
 20
1362.2809238698071
 30
0.0
  0
VERTEX
  5
1D214
  8
MOJI
 10
2199.2584703654888
 20
1354.554517219239
 30
0.0
  0
VERTEX
  5
1D215
  8
MOJI
 10
2202.1968750570209
 20
1347.158007734824
 30
0.0
  0
VERTEX
  5
1D216
  8
MOJI
 10
2205.2900465158182
 20
1340.2377063451011
 30
0.0
  0
VERTEX
  5
1D217
  8
MOJI
 10
2208.5486191607379
 20
1333.89129396354
 30
0.0
  0
VERTEX
  5
1D218
  8
MOJI
 10
2211.8749162348959
 20
1328.021931443317
 30
0.0
  0
VERTEX
  5
1D219
  8
MOJI
 10
2215.1441831874631
 20
1322.484149622539
 30
0.0
  0
VERTEX
  5
1D21A
  8
MOJI
 10
2218.2316654676192
 20
1317.132479339306
 30
0.0
  0
VERTEX
  5
1D21B
  8
MOJI
 10
2221.0126085245411
 20
1311.821451431724
 30
0.0
  0
VERTEX
  5
1D21C
  8
MOJI
 10
2223.3622578073969
 20
1306.4055967378949
 30
0.0
  0
VERTEX
  5
1D21D
  8
MOJI
 10
2225.1558587653731
 20
1300.739446095924
 30
0.0
  0
VERTEX
  5
1D21E
  8
MOJI
 10
2226.2686568476361
 20
1294.6775303439131
 30
0.0
  0
VERTEX
  5
1D21F
  8
MOJI
 10
2226.6250282022279
 20
1288.098052112925
 30
0.0
  0
VERTEX
  5
1D220
  8
MOJI
 10
2226.3458717726521
 20
1280.973901205836
 30
0.0
  0
VERTEX
  5
1D221
  8
MOJI
 10
2225.601217201262
 20
1273.3016392184841
 30
0.0
  0
VERTEX
  5
1D222
  8
MOJI
 10
2224.5610941304221
 20
1265.0778277467059
 30
0.0
  0
VERTEX
  5
1D223
  8
MOJI
 10
2223.395532202494
 20
1256.299028386338
 30
0.0
  0
VERTEX
  5
1D224
  8
MOJI
 10
2222.2745610598399
 20
1246.961802733214
 30
0.0
  0
VERTEX
  5
1D225
  8
MOJI
 10
2221.3682103448209
 20
1237.0627123831759
 30
0.0
  0
VERTEX
  5
1D226
  8
MOJI
 10
2220.8465096997988
 20
1226.5983189320541
 30
0.0
  0
VERTEX
  5
1D227
  8
MOJI
 10
2220.9146069778558
 20
1215.537856654403
 30
0.0
  0
VERTEX
  5
1D228
  8
MOJI
 10
2221.9181228749708
 20
1203.741250539643
 30
0.0
  0
VERTEX
  5
1D229
  8
MOJI
 10
2224.2377962978462
 20
1191.0410982559031
 30
0.0
  0
VERTEX
  5
1D22A
  8
MOJI
 10
2228.2543661531799
 20
1177.2699974713221
 30
0.0
  0
VERTEX
  5
1D22B
  8
MOJI
 10
2234.348571347673
 20
1162.260545854029
 30
0.0
  0
VERTEX
  5
1D22C
  8
MOJI
 10
2239.3086648299068
 20
1148.9999999999959
 30
0.0
  0
SEQEND
  5
1D22D
  8
MOJI
  0
LINE
  5
1CA69
  8
SJC
 10
1690.000000000005
 20
500.00000000000023
 30
0.0
 11
1690.0000000000041
 21
1116.331506070205
 31
0.0
  0
LINE
  5
1CA6A
  8
SJC
 10
1690.0000000000041
 20
1150.5002284078621
 30
0.0
 11
1690.000000000002
 21
1498.9999999999959
 31
0.0
  0
LINE
  5
1CA6B
  8
SJC
 10
1650.000000000003
 20
500.00000000000023
 30
0.0
 11
1650.000000000003
 21
1124.6657530350881
 31
0.0
  0
LINE
  5
1CA6C
  8
SJC
 10
1650.000000000003
 20
1148.9999999999829
 30
0.0
 11
1650.000000000003
 21
1488.9999999999959
 31
0.0
  0
ARC
  5
1CA6D
  8
SJC
 10
1650.000000000003
 20
1498.9999999999959
 30
0.0
 40
40.0
 50
0.0
 51
90.0
  0
ARC
  5
1CA6E
  8
SJC
 10
1640.0000000000041
 20
1488.9999999999959
 30
0.0
 40
10.0
 50
0.0
 51
90.0
  0
LINE
  5
1CA6F
  8
CENTER
 10
4650.0
 20
1298.9999999999809
 30
0.0
 11
2850.0
 21
1298.9999999999791
 31
0.0
  0
LINE
  5
1CA70
  8
SJC
 10
2949.9999999999782
 20
1198.999999999972
 30
0.0
 11
3650.0
 21
1198.999999999972
 31
0.0
  0
INSERT
  5
1CA71
  8
HATCH
  6
CONTINUOUS
  2
*X57
 10
0.0
 20
0.0
 30
0.0
1001
ACAD
1000
HATCH
1002
{
1070
    19
1000
ANSI31
1040
200.0
1040
0.0
1000
R14_HATCH_DATA
1000
1CA71
1011
1.0
1021
0.0
1031
0.0
1021
0.0
1031
0.0
1011
0.0
1021
0.0
1031
0.0
1021
1.0
1031
0.0
1011
0.0
1021
0.0
1031
0.0
1021
0.0
1031
1.0
1040
0.0
1010
0.0
1020
0.0
1030
1.0
1000
ANSI31
1070
     0
1070
     0
1071
        4
1071
        7
1070
     1
1070
     1
1071
       13
1040
3750.0
1040
1548.999999999523
1040
0.0
1040
3522.49999999998
1040
1548.999999999523
1040
0.414213562373095
1040
3500.0
1040
1526.499999999543
1040
0.0
1040
3500.0000000000018
1040
1403.999999999972
1040
0.0
1040
3509.9999999999932
1040
1403.999999999972
1040
0.0
1040
3509.9999999999932
1040
1506.4999999995621
1040
1.0
1040
3509.9999999999932
1040
1511.499999999558
1040
0.0
1040
3509.9999999999932
1040
1523.9999999995459
1040
-0.4142135623730951
1040
3524.9999999999782
1040
1538.9999999995321
1040
0.0
1040
3537.4999999999682
1040
1538.9999999995321
1040
1.0
1040
3542.4999999999618
1040
1538.9999999995321
1040
0.0
1040
3747.4999999997772
1040
1538.9999999995321
1040
0.414213562399627
1040
3750.0
1040
1536.4999999995341
1040
0.0
1071
        0
1071
        7
1070
     1
1070
     1
1071
       13
1040
3977.4999999995671
1040
1548.999999999523
1040
0.0
1040
3750.0
1040
1548.9999999995221
1040
0.0
1040
3750.0
1040
1536.4999999995341
1040
0.4142135623466164
1040
3752.4999999997708
1040
1538.9999999995321
1040
0.0
1040
3957.4999999995862
1040
1538.9999999995321
1040
1.0
1040
3962.4999999995798
1040
1538.9999999995321
1040
0.0
1040
3974.9999999995689
1040
1538.9999999995321
1040
-0.4142135623730951
1040
3989.9999999995571
1040
1523.9999999995459
1040
0.0
1040
3989.9999999995571
1040
1511.4999999995571
1040
1.0
1040
3989.9999999995571
1040
1506.4999999995621
1040
0.0
1040
3989.9999999995539
1040
1403.999999999972
1040
0.0
1040
3999.9999999995448
1040
1403.999999999972
1040
0.0
1040
3999.9999999995448
1040
1526.499999999543
1040
0.414213562373095
1071
        0
1071
        7
1070
     1
1070
     1
1071
       13
1040
3999.9999999995448
1040
1071.4999999999579
1040
0.0
1040
3999.9999999995471
1040
1193.999999999972
1040
0.0
1040
3989.9999999995571
1040
1193.999999999972
1040
0.0
1040
3989.9999999995571
1040
1091.4999999999391
1040
1.0
1040
3989.9999999995571
1040
1086.4999999999441
1040
0.0
1040
3989.9999999995571
1040
1073.999999999955
1040
-0.4142135623730979
1040
3974.9999999995689
1040
1058.9999999999691
1040
0.0
1040
3962.4999999995798
1040
1058.9999999999691
1040
1.0
1040
3957.4999999995862
1040
1058.9999999999691
1040
0.0
1040
3752.4999999997708
1040
1058.9999999999691
1040
0.4142135623465099
1040
3750.0
1040
1061.499999999967
1040
0.0
1040
3750.0
1040
1048.9999999999791
1040
0.0
1040
3977.4999999995671
1040
1048.9999999999791
1040
0.4142135623730831
1071
        0
1071
        7
1070
     1
1070
     1
1071
       13
1040
3750.0
1040
1061.499999999967
1040
0.414213562399627
1040
3747.4999999997772
1040
1058.9999999999691
1040
0.0
1040
3542.4999999999618
1040
1058.9999999999691
1040
1.0
1040
3537.4999999999682
1040
1058.9999999999691
1040
0.0
1040
3524.9999999999782
1040
1058.9999999999691
1040
-0.4142135623730951
1040
3509.9999999999932
1040
1073.9999999999559
1040
0.0
1040
3509.9999999999932
1040
1086.4999999999441
1040
1.0
1040
3509.9999999999932
1040
1091.49999999994
1040
0.0
1040
3509.9999999999932
1040
1193.999999999972
1040
0.0
1040
3500.0
1040
1193.999999999972
1040
0.0
1040
3500.0
1040
1071.4999999999579
1040
0.414213562373095
1040
3522.49999999998
1040
1048.9999999999791
1040
0.0
1040
3750.0
1040
1048.9999999999791
1040
0.0
1071
        0
1070
     0
1070
     1
1040
0.0
1040
200.0
1070
     0
1070
     1
1040
0.7853981633974483
1040
0.0
1040
0.0
1040
-17.677669529663682
1040
17.677669529663689
1070
     0
1040
1.320679845465162
1071
        4
1040
3600.3034809643868
1040
1540.4858298791801
1040
0.0
1040
3766.797109700783
1040
1543.127158851283
1040
0.0
1040
3959.7182996676279
1040
1051.834245656471
1040
0.0
1040
3653.1586034252832
1040
1053.1549101425189
1040
0.0
1002
}
  0
INSERT
  5
1CA72
  8
HATCH
  6
CONTINUOUS
  2
*X58
 10
0.0
 20
0.0
 30
0.0
1001
ACAD
1000
HATCH
1002
{
1070
    19
1000
ANSI31
1040
100.0
1040
1.5707963267948959
1000
R14_HATCH_DATA
1000
1CA72
1011
1.0
1021
0.0
1031
0.0
1021
0.0
1031
0.0
1011
0.0
1021
0.0
1031
0.0
1021
1.0
1031
0.0
1011
0.0
1021
0.0
1031
0.0
1021
0.0
1031
1.0
1040
0.0
1010
0.0
1020
0.0
1030
1.0
1000
ANSI31
1070
     0
1070
     0
1071
        4
1071
        7
1070
     1
1070
     1
1071
       21
1040
3774.9999999997508
1040
1528.9999999995409
1040
0.0
1040
3953.1350832685571
1040
1528.9999999995409
1040
-0.4903143948259002
1040
3955.555697859927
1040
1525.8749999995439
1040
0.027948223747439
1040
3955.1734653269309
1040
1523.9578845039921
1040
1.0
1040
3965.0743422827259
1040
1522.5533790728809
1040
-2.0024539085579329
1040
3973.5533790729019
1040
1514.0743422827011
1040
1.0
1040
3974.957884504016
1040
1504.1734653269059
1040
0.0279482237474365
1040
3976.8749999995671
1040
1504.555697859907
1040
-0.4903143948258361
1040
3979.999999999563
1040
1502.1350832685289
1040
0.0
1040
3979.999999999563
1040
1403.999999999972
1040
0.0
1040
3989.9999999995539
1040
1403.999999999972
1040
0.0
1040
3989.9999999995571
1040
1506.4999999995621
1040
-1.0
1040
3989.9999999995571
1040
1511.4999999995571
1040
0.0
1040
3989.9999999995571
1040
1523.9999999995459
1040
0.4142135623730951
1040
3974.9999999995689
1040
1538.9999999995321
1040
0.0
1040
3962.4999999995798
1040
1538.9999999995321
1040
-1.0
1040
3957.4999999995862
1040
1538.9999999995321
1040
0.0
1040
3752.4999999997708
1040
1538.9999999995321
1040
-0.4142135623465632
1040
3750.0
1040
1536.4999999995341
1040
0.0
1040
3750.0
1040
1523.9999999995459
1040
0.0
1040
3769.999999999754
1040
1523.999999999545
1040
0.0
1071
        0
1071
        7
1070
     1
1070
     1
1071
       21
1040
3750.0
1040
1536.4999999995341
1040
-0.4142135623995737
1040
3747.4999999997772
1040
1538.9999999995321
1040
0.0
1040
3542.4999999999618
1040
1538.9999999995321
1040
-1.0
1040
3537.4999999999682
1040
1538.9999999995321
1040
0.0
1040
3524.9999999999782
1040
1538.9999999995321
1040
0.4142135623730951
1040
3509.9999999999932
1040
1523.9999999995459
1040
0.0
1040
3509.9999999999932
1040
1511.499999999558
1040
-1.0
1040
3509.9999999999932
1040
1506.4999999995621
1040
0.0
1040
3509.9999999999932
1040
1403.999999999972
1040
0.0
1040
3519.9999999999818
1040
1403.999999999972
1040
0.0
1040
3519.9999999999818
1040
1502.1350832685289
1040
-0.4903143948258833
1040
3523.1249999999809
1040
1504.555697859907
1040
0.0279482237474389
1040
3525.042115495537
1040
1504.173465326907
1040
1.0
1040
3526.4466209266452
1040
1514.0743422827029
1040
-2.0024539085579129
1040
3534.925657716823
1040
1522.5533790728821
1040
1.0
1040
3544.826534672623
1040
1523.957884503993
1040
0.0279482237474365
1040
3544.44430213962
1040
1525.8749999995439
1040
-0.4903143948259788
1040
3546.8649167309959
1040
1528.9999999995421
1040
0.0
1040
3724.9999999997958
1040
1528.9999999995409
1040
0.0
1040
3729.9999999997931
1040
1523.9999999995459
1040
0.0
1040
3750.0
1040
1523.9999999995459
1040
0.0
1071
        0
1071
        7
1070
     1
1070
     1
1071
       21
1040
3519.9999999999841
1040
1193.999999999972
1040
0.0
1040
3509.9999999999932
1040
1193.999999999972
1040
0.0
1040
3509.9999999999932
1040
1091.49999999994
1040
-1.0
1040
3509.9999999999932
1040
1086.4999999999441
1040
0.0
1040
3509.9999999999932
1040
1073.9999999999559
1040
0.4142135623730951
1040
3524.9999999999782
1040
1058.9999999999691
1040
0.0
1040
3537.4999999999682
1040
1058.9999999999691
1040
-1.0
1040
3542.4999999999618
1040
1058.9999999999691
1040
0.0
1040
3747.4999999997772
1040
1058.9999999999691
1040
-0.4142135623996803
1040
3750.0
1040
1061.499999999967
1040
0.0
1040
3750.0
1040
1073.9999999999559
1040
0.0
1040
3729.9999999997931
1040
1073.999999999955
1040
0.0
1040
3724.9999999997958
1040
1068.9999999999591
1040
0.0
1040
3546.8649167309959
1040
1068.99999999996
1040
-0.4903143948259107
1040
3544.44430213962
1040
1072.1249999999579
1040
0.0279482237474396
1040
3544.826534672623
1040
1074.04211549551
1040
1.0
1040
3534.925657716823
1040
1075.4466209266211
1040
-2.0024539085579942
1040
3526.4466209266452
1040
1083.925657716801
1040
1.0
1040
3525.042115495537
1040
1093.8265346725959
1040
0.0279482237474363
1040
3523.1249999999809
1040
1093.444302139595
1040
-0.4903143948259114
1040
3519.9999999999818
1040
1095.8649167309729
1040
0.0
1071
        0
1071
        7
1070
     1
1070
     1
1071
       21
1040
3962.4999999995798
1040
1058.9999999999691
1040
0.0
1040
3974.9999999995689
1040
1058.9999999999691
1040
0.4142135623730979
1040
3989.9999999995571
1040
1073.999999999955
1040
0.0
1040
3989.9999999995571
1040
1086.4999999999441
1040
-1.0
1040
3989.9999999995571
1040
1091.4999999999391
1040
0.0
1040
3989.9999999995539
1040
1193.999999999972
1040
0.0
1040
3979.9999999995662
1040
1193.999999999972
1040
0.0
1040
3979.999999999563
1040
1095.8649167309729
1040
-0.4903143948259132
1040
3976.8749999995671
1040
1093.444302139595
1040
0.0279482237474386
1040
3974.957884504016
1040
1093.8265346725941
1040
1.0
1040
3973.5533790729019
1040
1083.9256577167989
1040
-2.0024539085579298
1040
3965.0743422827259
1040
1075.44662092662
1040
1.0
1040
3955.1734653269309
1040
1074.0421154955091
1040
0.0279482237474363
1040
3955.555697859927
1040
1072.124999999957
1040
-0.4903143948259224
1040
3953.1350832685512
1040
1068.99999999996
1040
0.0
1040
3774.999999999749
1040
1068.99999999996
1040
0.0
1040
3769.9999999997572
1040
1073.9999999999559
1040
0.0
1040
3750.0
1040
1073.9999999999559
1040
0.0
1040
3750.0
1040
1061.499999999967
1040
-0.4142135623465099
1040
3752.4999999997708
1040
1058.9999999999691
1040
0.0
1040
3957.4999999995862
1040
1058.9999999999691
1040
-1.0
1071
        0
1070
     0
1070
     1
1040
1.5707963267948959
1040
100.0
1070
     0
1070
     1
1040
2.3561944901923439
1040
0.0
1040
0.0
1040
-8.8388347648318444
1040
-8.8388347648318426
1070
     0
1040
1.320679845465162
1071
        4
1040
3756.2260711777781
1040
1528.599697865415
1040
0.0
1040
3744.3336791471961
1040
1528.599697865415
1040
0.0
1040
3518.3780902579028
1040
1157.4886555648329
1040
0.0
1040
3772.0826640393652
1040
1059.7583463022529
1040
0.0
1002
}
  0
LINE
  5
1CA73
  8
SJC
 10
3500.0
 20
1193.999999999972
 30
0.0
 11
3519.9999999999818
 21
1193.999999999972
 31
0.0
  0
LINE
  5
1CA74
  8
SJC
 10
2949.9999999999932
 20
1398.999999999972
 30
0.0
 11
3650.0
 21
1398.999999999972
 31
0.0
  0
LINE
  5
1CA75
  8
SJC
 10
3500.0
 20
1403.999999999972
 30
0.0
 11
3519.9999999999818
 21
1403.999999999972
 31
0.0
  0
LINE
  5
1CA76
  8
SJC
 10
3650.0
 20
1198.9999999999759
 30
0.0
 11
3650.0
 21
1340.7157287526491
 31
0.0
  0
LINE
  5
1CA77
  8
SJC
 10
3650.0
 20
1397.284271247571
 30
0.0
 11
3650.0
 21
1398.999999999977
 31
0.0
  0
POLYLINE
  5
1CA78
  8
SJC
 66
     1
 10
0.0
 20
0.0
 30
0.0
  0
VERTEX
  5
1D2B7
  8
SJC
 10
3612.1631323687552
 20
1302.8788611214011
 30
0.0
 42
-0.4659200947388837
  0
VERTEX
  5
1D2B8
  8
SJC
 10
3589.999999999869
 20
1276.499999999977
 30
0.0
  0
VERTEX
  5
1D2B9
  8
SJC
 10
3569.9999999998709
 20
1276.499999999967
 30
0.0
 42
-1.0
  0
VERTEX
  5
1D2BA
  8
SJC
 10
3569.9999999998731
 20
1321.499999999977
 30
0.0
  0
VERTEX
  5
1D2BB
  8
SJC
 10
3574.2157287524051
 20
1321.4999999999759
 30
0.0
  0
SEQEND
  5
1D2BC
  8
SJC
  0
LINE
  5
1CA79
  8
CENTER
 10
3579.999999999869
 20
1446.499999999977
 30
0.0
 11
3579.999999999869
 21
1151.499999999972
 31
0.0
  0
LINE
  5
1CA7A
  8
CENTER
 10
3750.0
 20
864.23436057458139
 30
0.0
 11
3750.0
 21
1733.765639425354
 31
0.0
  0
POLYLINE
  5
1CA7B
  8
SJC
 66
     1
 10
0.0
 20
0.0
 30
0.0
  0
VERTEX
  5
1D2BD
  8
SJC
 10
3500.0
 20
1398.999999999972
 30
0.0
  0
VERTEX
  5
1D2BE
  8
SJC
 10
3500.0
 20
1526.499999999543
 30
0.0
 42
-0.4142135623730951
  0
VERTEX
  5
1D2BF
  8
SJC
 10
3522.49999999998
 20
1548.999999999523
 30
0.0
  0
VERTEX
  5
1D2C0
  8
SJC
 10
3977.4999999995671
 20
1548.999999999523
 30
0.0
 42
-0.4142135623730951
  0
VERTEX
  5
1D2C1
  8
SJC
 10
3999.9999999995448
 20
1526.499999999543
 30
0.0
  0
VERTEX
  5
1D2C2
  8
SJC
 10
3999.9999999995448
 20
1398.999999999972
 30
0.0
  0
SEQEND
  5
1D2C3
  8
SJC
  0
POLYLINE
  5
1CA7C
  8
SJC
 66
     1
 10
0.0
 20
0.0
 30
0.0
  0
VERTEX
  5
1D2C4
  8
SJC
 10
3999.9999999995448
 20
1198.999999999972
 30
0.0
  0
VERTEX
  5
1D2C5
  8
SJC
 10
3999.9999999995448
 20
1071.4999999999579
 30
0.0
 42
-0.4142135623730832
  0
VERTEX
  5
1D2C6
  8
SJC
 10
3977.4999999995671
 20
1048.9999999999791
 30
0.0
  0
VERTEX
  5
1D2C7
  8
SJC
 10
3522.49999999998
 20
1048.9999999999791
 30
0.0
 42
-0.4142135623730951
  0
VERTEX
  5
1D2C8
  8
SJC
 10
3500.0
 20
1071.4999999999579
 30
0.0
  0
VERTEX
  5
1D2C9
  8
SJC
 10
3500.0
 20
1198.999999999972
 30
0.0
  0
SEQEND
  5
1D2CA
  8
SJC
  0
POLYLINE
  5
1CA7D
  8
SJC
 66
     1
 10
0.0
 20
0.0
 30
0.0
  0
VERTEX
  5
1D2CB
  8
SJC
 10
3519.9999999999818
 20
1398.9999999999709
 30
0.0
  0
VERTEX
  5
1D2CC
  8
SJC
 10
3519.9999999999818
 20
1502.1350832685289
 30
0.0
 42
-0.4903143948258833
  0
VERTEX
  5
1D2CD
  8
SJC
 10
3523.1249999999809
 20
1504.555697859907
 30
0.0
 42
0.0279482237474389
  0
VERTEX
  5
1D2CE
  8
SJC
 10
3525.042115495537
 20
1504.173465326907
 30
0.0
 42
1.0000000000000011
  0
VERTEX
  5
1D2CF
  8
SJC
 10
3526.4466209266452
 20
1514.0743422827029
 30
0.0
 42
-2.0024539085579129
  0
VERTEX
  5
1D2D0
  8
SJC
 10
3534.925657716823
 20
1522.5533790728821
 30
0.0
 42
1.0000000000000131
  0
VERTEX
  5
1D2D1
  8
SJC
 10
3544.826534672623
 20
1523.957884503993
 30
0.0
 42
0.0279482237474365
  0
VERTEX
  5
1D2D2
  8
SJC
 10
3544.44430213962
 20
1525.8749999995439
 30
0.0
 42
-0.490314394825866
  0
VERTEX
  5
1D2D3
  8
SJC
 10
3546.8649167309959
 20
1528.9999999995421
 30
0.0
  0
VERTEX
  5
1D2D4
  8
SJC
 10
3724.9999999997958
 20
1528.9999999995409
 30
0.0
  0
VERTEX
  5
1D2D5
  8
SJC
 10
3729.9999999997931
 20
1523.9999999995459
 30
0.0
  0
VERTEX
  5
1D2D6
  8
SJC
 10
3769.9999999997572
 20
1523.9999999995459
 30
0.0
  0
VERTEX
  5
1D2D7
  8
SJC
 10
3774.9999999997508
 20
1528.9999999995409
 30
0.0
  0
VERTEX
  5
1D2D8
  8
SJC
 10
3953.1350832685571
 20
1528.9999999995409
 30
0.0
 42
-0.4903143948259001
  0
VERTEX
  5
1D2D9
  8
SJC
 10
3955.555697859927
 20
1525.8749999995439
 30
0.0
 42
0.027948223747439
  0
VERTEX
  5
1D2DA
  8
SJC
 10
3955.1734653269309
 20
1523.9578845039921
 30
0.0
 42
1.0
  0
VERTEX
  5
1D2DB
  8
SJC
 10
3965.0743422827259
 20
1522.5533790728809
 30
0.0
 42
-2.0024539085579329
  0
VERTEX
  5
1D2DC
  8
SJC
 10
3973.5533790729019
 20
1514.0743422827011
 30
0.0
 42
0.9999999999999998
  0
VERTEX
  5
1D2DD
  8
SJC
 10
3974.957884504016
 20
1504.1734653269059
 30
0.0
 42
0.0279482237474365
  0
VERTEX
  5
1D2DE
  8
SJC
 10
3976.8749999995671
 20
1504.555697859907
 30
0.0
 42
-0.4903143948258924
  0
VERTEX
  5
1D2DF
  8
SJC
 10
3979.999999999563
 20
1502.1350832685289
 30
0.0
  0
VERTEX
  5
1D2E0
  8
SJC
 10
3979.999999999563
 20
1398.999999999972
 30
0.0
  0
SEQEND
  5
1D2E1
  8
SJC
  0
POLYLINE
  5
1CA7E
  8
SJC
 66
     1
 10
0.0
 20
0.0
 30
0.0
  0
VERTEX
  5
1D2E2
  8
SJC
 10
3979.999999999563
 20
1198.999999999972
 30
0.0
  0
VERTEX
  5
1D2E3
  8
SJC
 10
3979.999999999563
 20
1095.8649167309729
 30
0.0
 42
-0.4903143948259133
  0
VERTEX
  5
1D2E4
  8
SJC
 10
3976.8749999995671
 20
1093.444302139595
 30
0.0
 42
0.0279482237474386
  0
VERTEX
  5
1D2E5
  8
SJC
 10
3974.957884504016
 20
1093.8265346725941
 30
0.0
 42
1.0
  0
VERTEX
  5
1D2E6
  8
SJC
 10
3973.5533790729019
 20
1083.9256577167989
 30
0.0
 42
-2.0024539085579298
  0
VERTEX
  5
1D2E7
  8
SJC
 10
3965.0743422827259
 20
1075.44662092662
 30
0.0
 42
1.0000000000000131
  0
VERTEX
  5
1D2E8
  8
SJC
 10
3955.1734653269309
 20
1074.0421154955091
 30
0.0
 42
0.0279482237474363
  0
VERTEX
  5
1D2E9
  8
SJC
 10
3955.555697859927
 20
1072.124999999957
 30
0.0
 42
-0.490314394825866
  0
VERTEX
  5
1D2EA
  8
SJC
 10
3953.1350832685512
 20
1068.99999999996
 30
0.0
  0
VERTEX
  5
1D2EB
  8
SJC
 10
3774.9999999997508
 20
1068.99999999996
 30
0.0
  0
VERTEX
  5
1D2EC
  8
SJC
 10
3769.9999999997572
 20
1073.9999999999559
 30
0.0
  0
VERTEX
  5
1D2ED
  8
SJC
 10
3729.9999999997931
 20
1073.9999999999559
 30
0.0
  0
VERTEX
  5
1D2EE
  8
SJC
 10
3724.9999999997958
 20
1068.9999999999591
 30
0.0
  0
VERTEX
  5
1D2EF
  8
SJC
 10
3546.8649167309959
 20
1068.99999999996
 30
0.0
 42
-0.4903143948259107
  0
VERTEX
  5
1D2F0
  8
SJC
 10
3544.44430213962
 20
1072.1249999999579
 30
0.0
 42
0.0279482237474396
  0
VERTEX
  5
1D2F1
  8
SJC
 10
3544.826534672623
 20
1074.04211549551
 30
0.0
 42
0.9999999999999895
  0
VERTEX
  5
1D2F2
  8
SJC
 10
3534.925657716823
 20
1075.4466209266211
 30
0.0
 42
-2.0024539085579951
  0
VERTEX
  5
1D2F3
  8
SJC
 10
3526.4466209266452
 20
1083.925657716801
 30
0.0
 42
1.0000000000000571
  0
VERTEX
  5
1D2F4
  8
SJC
 10
3525.042115495537
 20
1093.8265346725959
 30
0.0
 42
0.0279482237474363
  0
VERTEX
  5
1D2F5
  8
SJC
 10
3523.1249999999809
 20
1093.444302139595
 30
0.0
 42
-0.4903143948258835
  0
VERTEX
  5
1D2F6
  8
SJC
 10
3519.9999999999818
 20
1095.8649167309729
 30
0.0
  0
VERTEX
  5
1D2F7
  8
SJC
 10
3519.9999999999818
 20
1198.999999999972
 30
0.0
  0
SEQEND
  5
1D2F8
  8
SJC
  0
POLYLINE
  5
1CA7F
  8
SJC
 66
     1
 10
0.0
 20
0.0
 30
0.0
  0
VERTEX
  5
1D2F9
  8
SJC
 10
3509.9999999999932
 20
1398.999999999972
 30
0.0
  0
VERTEX
  5
1D2FA
  8
SJC
 10
3509.9999999999932
 20
1506.4999999995621
 30
0.0
 42
0.9999999999999998
  0
VERTEX
  5
1D2FB
  8
SJC
 10
3509.9999999999932
 20
1511.499999999558
 30
0.0
  0
VERTEX
  5
1D2FC
  8
SJC
 10
3509.9999999999932
 20
1523.9999999995459
 30
0.0
 42
-0.4142135623730951
  0
VERTEX
  5
1D2FD
  8
SJC
 10
3524.9999999999782
 20
1538.9999999995321
 30
0.0
  0
VERTEX
  5
1D2FE
  8
SJC
 10
3537.4999999999682
 20
1538.9999999995321
 30
0.0
 42
0.9999999999999998
  0
VERTEX
  5
1D2FF
  8
SJC
 10
3542.4999999999618
 20
1538.9999999995321
 30
0.0
  0
VERTEX
  5
1D300
  8
SJC
 10
3747.4999999997772
 20
1538.9999999995321
 30
0.0
 42
0.9999999999999998
  0
VERTEX
  5
1D301
  8
SJC
 10
3752.4999999997708
 20
1538.9999999995321
 30
0.0
  0
VERTEX
  5
1D302
  8
SJC
 10
3957.4999999995862
 20
1538.9999999995321
 30
0.0
 42
0.9999999999999998
  0
VERTEX
  5
1D303
  8
SJC
 10
3962.4999999995798
 20
1538.9999999995321
 30
0.0
  0
VERTEX
  5
1D304
  8
SJC
 10
3974.9999999995689
 20
1538.9999999995321
 30
0.0
 42
-0.4142135623730951
  0
VERTEX
  5
1D305
  8
SJC
 10
3989.9999999995571
 20
1523.9999999995459
 30
0.0
  0
VERTEX
  5
1D306
  8
SJC
 10
3989.9999999995571
 20
1511.4999999995571
 30
0.0
 42
0.9999999999999998
  0
VERTEX
  5
1D307
  8
SJC
 10
3989.9999999995571
 20
1506.4999999995621
 30
0.0
  0
VERTEX
  5
1D308
  8
SJC
 10
3989.9999999995571
 20
1398.999999999972
 30
0.0
  0
SEQEND
  5
1D309
  8
SJC
  0
POLYLINE
  5
1CA80
  8
SJC
 66
     1
 10
0.0
 20
0.0
 30
0.0
  0
VERTEX
  5
1D30A
  8
SJC
 10
3989.9999999995571
 20
1198.999999999972
 30
0.0
  0
VERTEX
  5
1D30B
  8
SJC
 10
3989.9999999995571
 20
1091.4999999999391
 30
0.0
 42
0.9999999999999998
  0
VERTEX
  5
1D30C
  8
SJC
 10
3989.9999999995571
 20
1086.4999999999441
 30
0.0
  0
VERTEX
  5
1D30D
  8
SJC
 10
3989.9999999995571
 20
1073.999999999955
 30
0.0
 42
-0.4142135623730979
  0
VERTEX
  5
1D30E
  8
SJC
 10
3974.9999999995689
 20
1058.9999999999691
 30
0.0
  0
VERTEX
  5
1D30F
  8
SJC
 10
3962.4999999995798
 20
1058.9999999999691
 30
0.0
 42
1.000000000000006
  0
VERTEX
  5
1D310
  8
SJC
 10
3957.4999999995862
 20
1058.9999999999691
 30
0.0
  0
VERTEX
  5
1D311
  8
SJC
 10
3752.4999999997708
 20
1058.9999999999691
 30
0.0
 42
0.9999999999999996
  0
VERTEX
  5
1D312
  8
SJC
 10
3747.4999999997772
 20
1058.9999999999691
 30
0.0
  0
VERTEX
  5
1D313
  8
SJC
 10
3542.4999999999618
 20
1058.9999999999691
 30
0.0
 42
0.9999999999999996
  0
VERTEX
  5
1D314
  8
SJC
 10
3537.4999999999682
 20
1058.9999999999691
 30
0.0
  0
VERTEX
  5
1D315
  8
SJC
 10
3524.9999999999782
 20
1058.9999999999691
 30
0.0
 42
-0.4142135623730951
  0
VERTEX
  5
1D316
  8
SJC
 10
3509.9999999999932
 20
1073.9999999999559
 30
0.0
  0
VERTEX
  5
1D317
  8
SJC
 10
3509.9999999999932
 20
1086.4999999999441
 30
0.0
 42
0.9999999999999998
  0
VERTEX
  5
1D318
  8
SJC
 10
3509.9999999999932
 20
1091.49999999994
 30
0.0
  0
VERTEX
  5
1D319
  8
SJC
 10
3509.9999999999932
 20
1198.999999999972
 30
0.0
  0
SEQEND
  5
1D31A
  8
SJC
  0
LINE
  5
1CA81
  8
SJC
 10
3850.0
 20
1198.999999999972
 30
0.0
 11
4549.9999999999891
 21
1198.999999999972
 31
0.0
  0
LINE
  5
1CA82
  8
SJC
 10
3979.999999999563
 20
1193.999999999972
 30
0.0
 11
3999.9999999995448
 21
1193.999999999972
 31
0.0
  0
LINE
  5
1CA83
  8
SJC
 10
3850.0
 20
1398.999999999972
 30
0.0
 11
4550.0000000000318
 21
1398.999999999972
 31
0.0
  0
LINE
  5
1CA84
  8
SJC
 10
3979.999999999563
 20
1403.999999999972
 30
0.0
 11
3999.9999999995448
 21
1403.999999999972
 31
0.0
  0
LINE
  5
1CA85
  8
SJC
 10
3850.0
 20
1198.9999999999759
 30
0.0
 11
3849.9999999999991
 21
1340.71572875265
 31
0.0
  0
LINE
  5
1CA86
  8
SJC
 10
3850.0
 20
1397.284271247571
 30
0.0
 11
3850.0
 21
1398.999999999977
 31
0.0
  0
POLYLINE
  5
1CA87
  8
SJC
 66
     1
 10
0.0
 20
0.0
 30
0.0
  0
VERTEX
  5
1D31B
  8
SJC
 10
3887.8368676312462
 20
1302.8788611214011
 30
0.0
 42
0.4659200947388862
  0
VERTEX
  5
1D31C
  8
SJC
 10
3910.000000000131
 20
1276.499999999977
 30
0.0
  0
VERTEX
  5
1D31D
  8
SJC
 10
3930.0000000001291
 20
1276.499999999967
 30
0.0
 42
1.0
  0
VERTEX
  5
1D31E
  8
SJC
 10
3930.0000000001269
 20
1321.499999999977
 30
0.0
  0
VERTEX
  5
1D31F
  8
SJC
 10
3925.7842712475958
 20
1321.4999999999759
 30
0.0
  0
SEQEND
  5
1D320
  8
SJC
  0
LINE
  5
1CA88
  8
CENTER
 10
3920.000000000131
 20
1446.499999999977
 30
0.0
 11
3920.000000000131
 21
1151.499999999972
 31
0.0
  0
INSERT
  5
1CA89
  8
HATCH
  2
A$C2C1202F5
 10
3813.9339882562931
 20
1278.9999967639169
 30
0.0
  0
INSERT
  5
1CA8A
  8
HATCH
  2
A$C2C1202F5
 10
3686.0660117437069
 20
1278.9999967639169
 30
0.0
 41
-1.0
  0
LINE
  5
1CA8B
  8
SJC
 10
1750.0000000000009
 20
500.00000000000023
 30
0.0
 11
1750.0
 21
1118.9999999999741
 31
0.0
  0
LINE
  5
1CA8C
  8
SJC
 10
1750.0
 20
1453.9999999999791
 30
0.0
 11
1750.0
 21
1736.499999999977
 31
0.0
  0
LINE
  5
1CA8D
  8
SJC
 10
1750.0
 20
1751.499999999977
 30
0.0
 11
1750.0
 21
1798.9999999999779
 31
0.0
  0
LINE
  5
1CA8E
  8
SJC
 10
1250.0000000000009
 20
500.00000000000023
 30
0.0
 11
1250.0000000000009
 21
1698.9999999999779
 31
0.0
  0
LINE
  5
1CA8F
  8
SJC
 10
1227.499999999998
 20
1811.4999999999779
 30
0.0
 11
1227.5
 21
1711.0710678118451
 31
0.0
  0
ARC
  5
1CA90
  8
SJC
 10
1232.499999999998
 20
1811.4999999999779
 30
0.0
 40
5.0
 50
126.86989764586551
 51
180.0
  0
LINE
  5
1CA91
  8
SJC
 10
1239.571067811866
 20
1698.9999999999779
 30
0.0
 11
1500.0
 21
1698.9999999999779
 31
0.0
  0
LINE
  5
1CA92
  8
SJC
 10
1750.0
 20
1698.9999999999779
 30
0.0
 11
1760.4289321881331
 21
1698.9999999999779
 31
0.0
  0
ARC
  5
1CA93
  8
SJC
 10
1239.571067811866
 20
1703.9999999999779
 30
0.0
 40
5.0
 50
224.999999999995
 51
270.0
  0
LINE
  5
1CA94
  8
SJC
 10
1228.964466094068
 20
1707.5355339059111
 30
0.0
 11
1236.0355339059331
 21
1700.4644660940439
 31
0.0
  0
ARC
  5
1CA95
  8
SJC
 10
1232.5
 20
1711.0710678118451
 30
0.0
 40
5.0
 50
180.0
 51
224.999999999995
  0
POLYLINE
  5
1CA96
  8
SJC
 66
     1
 10
0.0
 20
0.0
 30
0.0
  0
VERTEX
  5
1D321
  8
SJC
 10
1229.499999999998
 20
1815.4999999999741
 30
0.0
  0
VERTEX
  5
1D322
  8
SJC
 10
1318.6666666666611
 20
1887.9999999999741
 30
0.0
 42
-0.1622776601683866
  0
VERTEX
  5
1D323
  8
SJC
 10
1321.6666666666599
 20
1888.9999999999779
 30
0.0
  0
VERTEX
  5
1D324
  8
SJC
 10
1678.3333333333451
 20
1888.9999999999779
 30
0.0
 42
-0.1622776601683866
  0
VERTEX
  5
1D325
  8
SJC
 10
1681.3333333333451
 20
1887.9999999999741
 30
0.0
  0
VERTEX
  5
1D326
  8
SJC
 10
1770.5
 20
1815.4999999999779
 30
0.0
  0
SEQEND
  5
1D327
  8
SJC
  0
POLYLINE
  5
1CA97
  8
SJC
 66
     1
 10
0.0
 20
0.0
 30
0.0
  0
VERTEX
  5
1D328
  8
SJC
 10
1500.0
 20
1868.9999999999779
 30
0.0
  0
VERTEX
  5
1D329
  8
SJC
 10
1672.9986747295211
 20
1868.9999999999779
 30
0.0
  0
VERTEX
  5
1D32A
  8
SJC
 10
1737.4999999999959
 20
1798.9999999999779
 30
0.0
  0
VERTEX
  5
1D32B
  8
SJC
 10
1752.4999999999959
 20
1798.9999999999779
 30
0.0
  0
VERTEX
  5
1D32C
  8
SJC
 10
1752.4999999999959
 20
1752.708192950849
 30
0.0
  0
SEQEND
  5
1D32D
  8
SJC
  0
POLYLINE
  5
1CA98
  8
SJC
 66
     1
 10
0.0
 20
0.0
 30
0.0
  0
VERTEX
  5
1D32E
  8
SJC
 10
1752.4999999999959
 20
1736.499999999977
 30
0.0
  0
VERTEX
  5
1D32F
  8
SJC
 10
1752.4999999999959
 20
1698.9999999999779
 30
0.0
  0
SEQEND
  5
1D330
  8
SJC
  0
LINE
  5
1CA99
  8
SJC
 10
1772.499999999998
 20
1811.4999999999779
 30
0.0
 11
1772.499999999998
 21
1711.0710678118451
 31
0.0
  0
ARC
  5
1CA9A
  8
SJC
 10
1767.499999999998
 20
1811.4999999999779
 30
0.0
 40
5.0
 50
0.0
 51
53.1301023541345
  0
ARC
  5
1CA9B
  8
SJC
 10
1760.4289321881331
 20
1703.9999999999779
 30
0.0
 40
5.0
 50
270.0
 51
315.000000000005
  0
LINE
  5
1CA9C
  8
SJC
 10
1771.0355339059311
 20
1707.5355339059111
 30
0.0
 11
1763.9644660940651
 21
1700.4644660940439
 31
0.0
  0
ARC
  5
1CA9D
  8
SJC
 10
1767.499999999998
 20
1711.0710678118451
 30
0.0
 40
5.0
 50
315.000000000005
 51
0.0
  0
LINE
  5
1CA9E
  8
SJC
 10
1228.1698729810739
 20
1813.9999999999729
 30
0.0
 11
1500.0
 21
1813.999999999975
 31
0.0
  0
LINE
  5
1CA9F
  8
SJC2
 10
1227.9491013943791
 20
1708.9999999999779
 30
0.0
 11
1500.0
 21
1708.9999999999779
 31
0.0
  0
LINE
  5
1CAA0
  8
SJC2
 10
1274.9999999999941
 20
1813.9999999999779
 30
0.0
 11
1274.9999999999941
 21
1708.9999999999779
 31
0.0
  0
LINE
  5
1CAA1
  8
SJC2
 10
1274.9999999999941
 20
1708.9999999999779
 30
0.0
 11
1284.999999999995
 21
1698.9999999999779
 31
0.0
  0
LINE
  5
1CAA2
  8
SJC2
 10
1319.7776600708289
 20
1888.6294334513741
 30
0.0
 11
1274.999999999998
 21
1813.9999999999779
 31
0.0
  0
LINE
  5
1CAA3
  8
CENTER
 10
324.99999999997817
 20
1298.9999999999809
 30
0.0
 11
2675.0000000000218
 21
1298.999999999977
 31
0.0
  0
LINE
  5
1CAA4
  8
SJC
 10
1500.0
 20
1798.9999999999779
 30
0.0
 11
1750.0
 21
1798.9999999999779
 31
0.0
  0
LINE
  5
1CAA5
  8
SJC
 10
1725.0
 20
1798.9999999999779
 30
0.0
 11
1725.0
 21
1751.248737341507
 31
0.0
  0
INSERT
  5
1CAA6
  8
HATCH
  6
CONTINUOUS
  2
*X59
 10
0.0
 20
0.0
 30
0.0
1001
ACAD
1000
HATCH
1002
{
1070
    19
1000
ANSI31
1040
100.0
1040
1.5707963267948959
1000
R14_HATCH_DATA
1000
1CAA6
1011
1.0
1021
0.0
1031
0.0
1021
0.0
1031
0.0
1011
0.0
1021
0.0
1031
0.0
1021
1.0
1031
0.0
1011
0.0
1021
0.0
1031
0.0
1021
0.0
1031
1.0
1040
0.0
1010
0.0
1020
0.0
1030
1.0
1000
ANSI31
1070
     0
1070
     0
1071
        2
1071
        7
1070
     0
1070
     1
1071
        4
1040
1740.000000000002
1040
1118.9999999999779
1040
1725.0
1040
1118.9999999999759
1040
1725.000000000002
1040
500.00000000000023
1040
1740.0
1040
500.00000000000011
1071
        0
1071
        7
1070
     0
1070
     1
1071
        8
1040
1740.000000000002
1040
1736.4999999999779
1040
1737.5205970777929
1040
1736.4999999999779
1040
1733.1904700588709
1040
1733.9999999999779
1040
1731.7470943858971
1040
1736.4999999999779
1040
1727.5205970777929
1040
1736.4999999999779
1040
1725.0
1040
1735.0447325985961
1040
1725.0
1040
1453.9999999999809
1040
1740.000000000002
1040
1453.9999999999809
1071
        0
1070
     0
1070
     1
1040
1.5707963267948959
1040
100.0
1070
     0
1070
     1
1040
2.3561944901923439
1040
0.0
1040
0.0
1040
-8.8388347648318444
1040
-8.8388347648318426
1070
     0
1040
4.4675760122783768
1071
        2
1040
1729.018622515061
1040
1053.9132902947549
1040
0.0
1040
1733.4900640092669
1040
1536.4114943860161
1040
0.0
1002
}
  0
LINE
  5
1CAA7
  8
SJC
 10
1725.0
 20
1735.0447325985961
 30
0.0
 11
1725.0
 21
1453.9999999999791
 31
0.0
  0
LINE
  5
1CAA8
  8
SJC
 10
1725.0
 20
1118.9999999999741
 30
0.0
 11
1725.000000000002
 21
500.00000000000023
 31
0.0
  0
LINE
  5
1CAA9
  8
SJC
 10
1740.000000000002
 20
1798.99999999998
 30
0.0
 11
1740.000000000002
 21
1751.4999999999779
 31
0.0
  0
LINE
  5
1CAAA
  8
SJC
 10
1740.000000000002
 20
1736.4999999999779
 30
0.0
 11
1740.000000000002
 21
1453.9999999999809
 31
0.0
  0
LINE
  5
1CAAB
  8
SJC
 10
1740.000000000002
 20
1118.9999999999759
 30
0.0
 11
1740.0
 21
500.00000000000023
 31
0.0
  0
LINE
  5
1CAAC
  8
SJC
 10
1750.0
 20
1118.9999999999791
 30
0.0
 11
1725.0
 21
1118.9999999999759
 31
0.0
  0
LINE
  5
1CAAD
  8
SJC
 10
1750.0
 20
1453.9999999999809
 30
0.0
 11
1725.0
 21
1453.9999999999809
 31
0.0
  0
LINE
  5
1CAAE
  8
SJC
 10
2574.999999999985
 20
1448.9999999999809
 30
0.0
 11
1690.0000000000041
 21
1448.999999999982
 31
0.0
  0
LINE
  5
1CAAF
  8
SJC
 10
1650.000000000003
 20
1448.999999999982
 30
0.0
 11
1600.0
 21
1448.999999999982
 31
0.0
  0
LINE
  5
1CAB0
  8
SJC
 10
1600.0
 20
1448.999999999982
 30
0.0
 11
1600.0
 21
1148.999999999982
 31
0.0
  0
LINE
  5
1CAB1
  8
SJC
 10
1600.0
 20
1148.999999999982
 30
0.0
 11
1650.000000000003
 21
1148.9999999999829
 31
0.0
  0
LINE
  5
1CAB2
  8
SJC
 10
1690.0000000000041
 20
1148.9999999999841
 30
0.0
 11
2575.0000000000018
 21
1148.9999999999959
 31
0.0
  0
LINE
  5
1CAB3
  8
SJC
 10
2166.2202589727308
 20
1441.499999999982
 30
0.0
 11
1702.500000000002
 21
1441.499999999985
 31
0.0
  0
LINE
  5
1CAB4
  8
SJC
 10
1637.5
 20
1441.499999999985
 30
0.0
 11
1600.0
 21
1441.499999999982
 31
0.0
  0
LINE
  5
1CAB5
  8
SJC
 10
1600.0
 20
1156.499999999982
 30
0.0
 11
1637.5
 21
1156.499999999985
 31
0.0
  0
LINE
  5
1CAB6
  8
SJC
 10
1702.500000000002
 20
1156.499999999985
 30
0.0
 11
2236.5032975753329
 21
1156.4999999999809
 31
0.0
  0
LINE
  5
1CAB7
  8
SJC
 10
2171.0648063723302
 20
1426.4999999999841
 30
0.0
 11
1702.500000000002
 21
1426.4999999999841
 31
0.0
  0
LINE
  5
1CAB8
  8
SJC
 10
1637.5
 20
1426.4999999999841
 30
0.0
 11
1600.0
 21
1426.499999999982
 31
0.0
  0
LINE
  5
1CAB9
  8
SJC
 10
1600.0
 20
1171.499999999982
 30
0.0
 11
1637.5
 21
1171.4999999999841
 31
0.0
  0
LINE
  5
1CABA
  8
SJC
 10
1702.500000000002
 20
1171.4999999999841
 30
0.0
 11
2230.5971265323501
 21
1171.499999999982
 31
0.0
  0
LINE
  5
1CABB
  8
SJC
 10
1637.5
 20
1448.999999999982
 30
0.0
 11
1637.5
 21
1426.4999999999841
 31
0.0
  0
LINE
  5
1CABC
  8
SJC
 10
1637.5
 20
1171.4999999999841
 30
0.0
 11
1637.5
 21
1148.999999999982
 31
0.0
  0
LINE
  5
1CABD
  8
SJC
 10
1702.5
 20
1448.999999999982
 30
0.0
 11
1702.5
 21
1426.499999999982
 31
0.0
  0
LINE
  5
1CABE
  8
SJC
 10
1702.5
 20
1171.4999999999841
 30
0.0
 11
1702.5
 21
1148.999999999982
 31
0.0
  0
LINE
  5
1CABF
  8
SJC
 10
424.99999999993992
 20
1448.9999999999809
 30
0.0
 11
1250.0000000000009
 21
1448.999999999982
 31
0.0
  0
LINE
  5
1CAC0
  8
SJC
 10
1250.0000000000009
 20
1148.9999999999841
 30
0.0
 11
424.99999999995811
 21
1148.9999999999959
 31
0.0
  0
POLYLINE
  5
1CAC1
  8
SUNPOU
 66
     1
 10
0.0
 20
0.0
 30
0.0
  0
VERTEX
  5
1D369
  8
SUNPOU
 10
2574.999999999985
 20
1523.9999999999809
 30
0.0
  0
VERTEX
  5
1D36A
  8
SUNPOU
 10
2574.999999999985
 20
1378.9999999999809
 30
0.0
  0
VERTEX
  5
1D36B
  8
SUNPOU
 10
2614.9999999999859
 20
1378.9999999999809
 30
0.0
  0
VERTEX
  5
1D36C
  8
SUNPOU
 10
2534.9999999999859
 20
1218.9999999999809
 30
0.0
  0
VERTEX
  5
1D36D
  8
SUNPOU
 10
2574.999999999985
 20
1218.9999999999809
 30
0.0
  0
VERTEX
  5
1D36E
  8
SUNPOU
 10
2574.999999999985
 20
1073.9999999999809
 30
0.0
  0
SEQEND
  5
1D36F
  8
SUNPOU
  0
POLYLINE
  5
1CAC2
  8
SUNPOU
 66
     1
 10
0.0
 20
0.0
 30
0.0
  0
VERTEX
  5
1D370
  8
SUNPOU
 10
2949.999999999995
 20
1523.9999999999829
 30
0.0
  0
VERTEX
  5
1D371
  8
SUNPOU
 10
2949.999999999995
 20
1378.999999999982
 30
0.0
  0
VERTEX
  5
1D372
  8
SUNPOU
 10
2989.999999999995
 20
1378.999999999982
 30
0.0
  0
VERTEX
  5
1D373
  8
SUNPOU
 10
2909.999999999995
 20
1218.999999999982
 30
0.0
  0
VERTEX
  5
1D374
  8
SUNPOU
 10
2949.999999999995
 20
1218.999999999982
 30
0.0
  0
VERTEX
  5
1D375
  8
SUNPOU
 10
2949.9999999999968
 20
1073.999999999982
 30
0.0
  0
SEQEND
  5
1D376
  8
SUNPOU
  0
POLYLINE
  5
1CAC3
  8
SUNPOU
 66
     1
 10
0.0
 20
0.0
 30
0.0
  0
VERTEX
  5
1D377
  8
SUNPOU
 10
4550.0000000000364
 20
1523.9999999999829
 30
0.0
  0
VERTEX
  5
1D378
  8
SUNPOU
 10
4550.0000000000364
 20
1378.999999999982
 30
0.0
  0
VERTEX
  5
1D379
  8
SUNPOU
 10
4590.0000000000373
 20
1378.999999999982
 30
0.0
  0
VERTEX
  5
1D37A
  8
SUNPOU
 10
4510.0000000000364
 20
1218.999999999982
 30
0.0
  0
VERTEX
  5
1D37B
  8
SUNPOU
 10
4550.0000000000364
 20
1218.999999999982
 30
0.0
  0
VERTEX
  5
1D37C
  8
SUNPOU
 10
4550.0000000000364
 20
1073.999999999982
 30
0.0
  0
SEQEND
  5
1D37D
  8
SUNPOU
  0
POLYLINE
  5
1CAC4
  8
SUNPOU
 66
     1
 10
0.0
 20
0.0
 30
0.0
  0
VERTEX
  5
1D37E
  8
SUNPOU
 10
424.99999999993992
 20
1523.99999999998
 30
0.0
  0
VERTEX
  5
1D37F
  8
SUNPOU
 10
424.99999999993992
 20
1378.9999999999809
 30
0.0
  0
VERTEX
  5
1D380
  8
SUNPOU
 10
464.99999999993992
 20
1378.9999999999809
 30
0.0
  0
VERTEX
  5
1D381
  8
SUNPOU
 10
384.99999999993997
 20
1218.99999999998
 30
0.0
  0
VERTEX
  5
1D382
  8
SUNPOU
 10
424.99999999993992
 20
1218.99999999998
 30
0.0
  0
VERTEX
  5
1D383
  8
SUNPOU
 10
424.99999999994179
 20
1073.99999999998
 30
0.0
  0
SEQEND
  5
1D384
  8
SUNPOU
  0
INSERT
  5
1CAC5
  8
SJC
  2
*U60
 10
0.0
 20
0.0
 30
0.0
1001
ACAD
1000
DSTYLE
1002
{
1070
     5
1000

1070
    40
1040
20.0
1070
    41
1040
2.0
1070
    42
1040
1.0
1070
    43
1040
6.0
1070
    44
1040
1.0
1070
    73
1070
     0
1070
    74
1070
     0
1070
    77
1070
     1
1070
    78
1070
     8
1070
   140
1040
3.0
1070
   147
1040
1.1999999999999991
1070
   172
1070
     1
1070
   179
1070
     2
1070
   271
1070
     2
1070
   279
1070
     2
1070
   340
1005
62
1070
   342
1005
0
1002
}
  0
TEXT
  5
1CAC6
  8
MOJI
 10
1988.1084731957469
 20
849.65328069054794
 30
0.0
 40
60.0
  1
(現場取り付け)
 41
0.8
  7
EXT08
  0
LINE
  5
1CAC7
  8
SUNPOU
 10
1869.134333939701
 20
1857.919867845615
 30
0.0
 11
2553.5017269559571
 21
1857.919867845615
 31
0.0
  0
INSERT
  5
1CAC8
  8
SJC
  2
*U61
 10
0.0
 20
0.0
 30
0.0
1001
ACAD
1000
DSTYLE
1002
{
1070
     5
1000

1070
    40
1040
20.0
1070
    41
1040
2.0
1070
    42
1040
1.0
1070
    43
1040
6.0
1070
    44
1040
1.0
1070
    73
1070
     0
1070
    74
1070
     0
1070
    77
1070
     1
1070
    78
1070
     8
1070
   140
1040
3.0
1070
   147
1040
1.1999999999999991
1070
   172
1070
     1
1070
   179
1070
     2
1070
   271
1070
     2
1070
   279
1070
     2
1070
   340
1005
62
1070
   342
1005
0
1002
}
  0
TEXT
  5
1CAC9
  8
MOJI
 10
1968.465153116043
 20
1877.919867845615
 30
0.0
 40
60.0
  1
頭部キャップ取付ビス
 41
0.8
  7
EXT08
  0
CIRCLE
  5
1CACA
  8
MOJI
 10
1915.6741934762649
 20
1908.446368071182
 30
0.0
 40
35.0
  0
TEXT
  5
1CACB
  8
MOJI
 10
1900.43609823817
 20
1888.446368071182
 30
0.0
 40
40.0
  1
5
 41
0.8
  7
EXT08
 72
     4
 11
1915.6741934762649
 21
1908.446368071182
 31
0.0
  0
TEXT
  5
1CACC
  8
MOJI
 10
1968.465153116043
 20
1777.919867845615
 30
0.0
 40
60.0
  1
(現場取り付け)
 41
0.8
  7
EXT08
  0
INSERT
  5
1CACD
  8
SJC
  2
A$C12142988
 10
1707.4999736859149
 20
1722.749977416915
 30
0.0
 41
5.0
 42
5.0
 43
5.0
  0
INSERT
  5
1CACE
  8
SJC
  2
A$C36520080
 10
1629.998628352123
 20
1080.511840764932
 30
0.0
  0
LINE
  5
1CACF
  8
SJC
 10
1249.791768415402
 20
1148.9999999999829
 30
0.0
 11
1230.4032294345211
 21
1148.9999999999829
 31
0.0
  0
LINE
  5
1CAD0
  8
SJC
 10
1250.000000000003
 20
1148.001101841917
 30
0.0
 11
1250.000000000003
 21
1147.9999999999729
 31
0.0
  0
LINE
  5
1CAD1
  8
SJC
 10
1230.4032294345291
 20
1148.9999999999841
 30
0.0
 11
1227.0646747525971
 21
1148.704971469499
 31
0.0
  0
LINE
  5
1CAD2
  8
SJC
 10
1234.974598360317
 20
1083.4190876694031
 30
0.0
 11
1241.1883047593351
 21
1080.7174761915689
 31
0.0
  0
LINE
  5
1CAD3
  8
SJC
 10
1250.0000000000009
 20
1107.9999999999729
 30
0.0
 11
1244.6315127106441
 21
1082.495211636126
 31
0.0
  0
LINE
  5
1CAD4
  8
SJC
 10
1232.0410734724969
 20
1087.1540620209259
 30
0.0
 11
1222.5744380463129
 21
1142.8737219198331
 31
0.0
  0
ARC
  5
1CAD5
  8
SJC
 10
1242.185120037869
 20
1083.010151332202
 30
0.0
 40
2.5
 50
246.50143432405341
 51
348.11336799592442
  0
ARC
  5
1CAD6
  8
SJC
 10
1236.9682289173891
 20
1088.0044379506689
 30
0.0
 40
5.0
 50
189.79219055592009
 51
246.50143432405341
  0
ARC
  5
1CAD7
  8
SJC
 10
1227.5015934911719
 20
1143.724097849753
 30
0.0
 40
5.0
 50
95.013113754977468
 51
189.79219055592009
  0
ARC
  5
1CAD8
  8
SJC
 10
1247.5000000000041
 20
1148.001101841917
 30
0.0
 40
2.5
 50
0.0
 51
23.550628787475791
  0
LINE
  5
1CAD9
  8
SJC
 10
1250.000000000003
 20
1148.001101841917
 30
0.0
 11
1250.0000000000009
 21
1107.9999999999729
 31
0.0
  0
INSERT
  5
1CBC6
  8
SJC
  2
A$C28A45961
 10
700.0
 20
4166.3434939689096
 30
0.0
  0
INSERT
  5
1CBC8
  8
SJC
  2
A$C28A45961
 10
700.0
 20
3896.3434939689109
 30
0.0
  0
INSERT
  5
1CBCA
  8
SJC
  2
A$C28A45961
 10
700.0
 20
3626.34349396891
 30
0.0
  0
INSERT
  5
1CBCC
  8
SJC
  2
A$C28A45961
 10
700.0
 20
3356.34349396891
 30
0.0
  0
INSERT
  5
1CBCE
  8
SJC
  2
A$C28A45961
 10
2700.0
 20
4166.3434939689123
 30
0.0
  0
INSERT
  5
1CBCF
  8
SJC
  2
A$C28A45961
 10
2600.0
 20
4166.3434939689123
 30
0.0
 41
-1.0
  0
INSERT
  5
1CBD0
  8
SJC
  2
A$C28A45961
 10
2700.0
 20
3896.3434939689118
 30
0.0
  0
INSERT
  5
1CBD1
  8
SJC
  2
A$C28A45961
 10
2600.0
 20
3896.3434939689118
 30
0.0
 41
-1.0
  0
INSERT
  5
1CBD2
  8
SJC
  2
A$C28A45961
 10
2700.0
 20
3626.3434939689118
 30
0.0
  0
INSERT
  5
1CBD3
  8
SJC
  2
A$C28A45961
 10
2600.0
 20
3626.3434939689118
 30
0.0
 41
-1.0
  0
INSERT
  5
1CBD4
  8
SJC
  2
A$C28A45961
 10
2700.0
 20
3356.3434939689118
 30
0.0
  0
INSERT
  5
1CBD5
  8
SJC
  2
A$C28A45961
 10
2600.0
 20
3356.3434939689118
 30
0.0
 41
-1.0
  0
INSERT
  5
1CBD6
  8
SJC
  2
A$C28A45961
 10
4700.0
 20
4166.3434939689132
 30
0.0
  0
INSERT
  5
1CBD7
  8
SJC
  2
A$C28A45961
 10
4600.0
 20
4166.3434939689132
 30
0.0
 41
-1.0
  0
INSERT
  5
1CBD8
  8
SJC
  2
A$C28A45961
 10
4700.0
 20
3896.3434939689132
 30
0.0
  0
INSERT
  5
1CBD9
  8
SJC
  2
A$C28A45961
 10
4600.0
 20
3896.3434939689132
 30
0.0
 41
-1.0
  0
INSERT
  5
1CBDA
  8
SJC
  2
A$C28A45961
 10
4700.0
 20
3626.3434939689141
 30
0.0
  0
INSERT
  5
1CBDB
  8
SJC
  2
A$C28A45961
 10
4600.0
 20
3626.3434939689141
 30
0.0
 41
-1.0
  0
INSERT
  5
1CBDC
  8
SJC
  2
A$C28A45961
 10
4700.0
 20
3356.3434939689132
 30
0.0
  0
INSERT
  5
1CBDD
  8
SJC
  2
A$C28A45961
 10
4600.0
 20
3356.3434939689132
 30
0.0
 41
-1.0
  0
TEXT
  5
1CF14
  8
INFORMATION
 10
1.0
 20
1.0
 30
0.0
 40
0.8
  1
VERSION=3.0
  0
VIEWPORT
  5
22
 67
     1
  8
0
 10
261.51769911504419
 20
148.5
 30
0.0
 40
523.0353982300885
 41
297.0
 68
     1
 69
     1
1001
ACAD
1000
MVIEW
1002
{
1070
    16
1010
0.0
1020
0.0
1030
0.0
1010
0.0
1020
0.0
1030
1.0
1040
0.0
1040
297.0
1040
261.51769911504419
1040
148.5
1040
50.0
1040
0.0
1040
0.0
1070
     0
1070
   100
1070
     1
1070
     1
1070
     0
1070
     0
1070
     0
1070
     0
1040
0.0
1040
0.0
1040
0.0
1040
1.0
1040
1.0
1040
10.0
1040
10.0
1070
     0
1002
{
1002
}
1002
}
  0
ENDSEC
  0
EOF
