  0
SECTION
  2
HEADER
  9
$ACADVER
  1
AC1009
  9
$INSBASE
 10
0.0
 20
0.0
 30
0.0
  9
$EXTMIN
 10
0.0
 20
0.0
 30
0.0
  9
$EXTMAX
 10
9250.0
 20
6675.0
 30
0.0
  9
$LIMMIN
 10
0.0
 20
0.0
  9
$LIMMAX
 10
10500.0
 20
7425.0
  9
$ORTHOMODE
 70
     0
  9
$REGENMODE
 70
     1
  9
$FILLMODE
 70
     1
  9
$QTEXTMODE
 70
     0
  9
$MIRRTEXT
 70
     0
  9
$DRAGMODE
 70
     2
  9
$LTSCALE
 40
250.0
  9
$OSMODE
 70
    37
  9
$ATTMODE
 70
     1
  9
$TEXTSIZE
 40
75.0
  9
$TRACEWID
 40
0.05
  9
$TEXTSTYLE
  7
EXT08
  9
$CLAYER
  8
0
  9
$CELTYPE
  6
BYLAYER
  9
$CECOLOR
 62
   256
  9
$DIMSCALE
 40
25.0
  9
$DIMASZ
 40
2.0
  9
$DIMEXO
 40
1.0
  9
$DIMDLI
 40
6.0
  9
$DIMRND
 40
0.0
  9
$DIMDLE
 40
0.0
  9
$DIMEXE
 40
1.0
  9
$DIMTP
 40
0.0
  9
$DIMTM
 40
0.0
  9
$DIMTXT
 40
3.0
  9
$DIMCEN
 40
0.09
  9
$DIMTSZ
 40
0.0
  9
$DIMTOL
 70
     0
  9
$DIMLIM
 70
     0
  9
$DIMTIH
 70
     0
  9
$DIMTOH
 70
     0
  9
$DIMSE1
 70
     0
  9
$DIMSE2
 70
     0
  9
$DIMTAD
 70
     1
  9
$DIMZIN
 70
     8
  9
$DIMBLK
  1

  9
$DIMASO
 70
     1
  9
$DIMSHO
 70
     1
  9
$DIMPOST
  1

  9
$DIMAPOST
  1

  9
$DIMALT
 70
     0
  9
$DIMALTD
 70
     2
  9
$DIMALTF
 40
25.399999999999999
  9
$DIMLFAC
 40
1.0
  9
$DIMTOFL
 70
     1
  9
$DIMTVP
 40
0.0
  9
$DIMTIX
 70
     0
  9
$DIMSOXD
 70
     0
  9
$DIMSAH
 70
     0
  9
$DIMBLK1
  1

  9
$DIMBLK2
  1

  9
$DIMSTYLE
  2
SJC
  9
$DIMCLRD
 70
     0
  9
$DIMCLRE
 70
     0
  9
$DIMCLRT
 70
     0
  9
$DIMTFAC
 40
1.0
  9
$DIMGAP
 40
1.1999999999999991
  9
$LUNITS
 70
     2
  9
$LUPREC
 70
     2
  9
$SKETCHINC
 40
0.1
  9
$FILLETRAD
 40
0.0
  9
$AUNITS
 70
     1
  9
$AUPREC
 70
     2
  9
$MENU
  1
sjc
  9
$ELEVATION
 40
0.0
  9
$PELEVATION
 40
0.0
  9
$THICKNESS
 40
0.0
  9
$LIMCHECK
 70
     0
  9
$BLIPMODE
 70
     0
  9
$CHAMFERA
 40
0.0
  9
$CHAMFERB
 40
0.0
  9
$SKPOLY
 70
     0
  9
$TDCREATE
 40
2450402.7295391671
  9
$TDUPDATE
 40
2456429.482893148
  9
$TDINDWG
 40
0.3710535185
  9
$TDUSRTIMER
 40
0.3710535185
  9
$USRTIMER
 70
     1
  9
$ANGBASE
 50
0.0
  9
$ANGDIR
 70
     0
  9
$PDMODE
 70
    33
  9
$PDSIZE
 40
5.0
  9
$PLINEWID
 40
0.0
  9
$COORDS
 70
     1
  9
$SPLFRAME
 70
     0
  9
$SPLINETYPE
 70
     6
  9
$SPLINESEGS
 70
     8
  9
$ATTDIA
 70
     0
  9
$ATTREQ
 70
     1
  9
$HANDLING
 70
     1
  9
$HANDSEED
  5
A172
  9
$SURFTAB1
 70
     6
  9
$SURFTAB2
 70
     6
  9
$SURFTYPE
 70
     6
  9
$SURFU
 70
     6
  9
$SURFV
 70
     6
  9
$UCSNAME
  2

  9
$UCSORG
 10
0.0
 20
0.0
 30
0.0
  9
$UCSXDIR
 10
1.0
 20
0.0
 30
0.0
  9
$UCSYDIR
 10
0.0
 20
1.0
 30
0.0
  9
$PUCSNAME
  2

  9
$PUCSORG
 10
0.0
 20
0.0
 30
0.0
  9
$PUCSXDIR
 10
1.0
 20
0.0
 30
0.0
  9
$PUCSYDIR
 10
0.0
 20
1.0
 30
0.0
  9
$USERI1
 70
     3
  9
$USERI2
 70
    25
  9
$USERI3
 70
     0
  9
$USERI4
 70
     0
  9
$USERI5
 70
     0
  9
$USERR1
 40
0.0
  9
$USERR2
 40
0.0
  9
$USERR3
 40
0.0
  9
$USERR4
 40
0.0
  9
$USERR5
 40
0.0
  9
$WORLDVIEW
 70
     1
  9
$SHADEDGE
 70
     3
  9
$SHADEDIF
 70
    70
  9
$TILEMODE
 70
     1
  9
$MAXACTVP
 70
    16
  9
$PLIMCHECK
 70
     0
  9
$PEXTMIN
 10
1.0000000000000000E+020
 20
1.0000000000000000E+020
 30
1.0000000000000000E+020
  9
$PEXTMAX
 10
-1.0000000000000000E+020
 20
-1.0000000000000000E+020
 30
-1.0000000000000000E+020
  9
$PLIMMIN
 10
0.0
 20
0.0
  9
$PLIMMAX
 10
12.0
 20
9.0
  9
$UNITMODE
 70
     0
  9
$VISRETAIN
 70
     0
  9
$PLINEGEN
 70
     0
  9
$PSLTSCALE
 70
     1
  0
ENDSEC
  0
SECTION
  2
TABLES
  0
TABLE
  2
VPORT
 70
     2
  0
VPORT
  2
*ACTIVE
 70
     0
 10
0.0
 20
0.0
 11
1.0
 21
1.0
 12
6453.219257992756
 22
3712.3867121349172
 13
0.0
 23
0.0
 14
10.0
 24
10.0
 15
0.0
 25
0.0
 16
0.0
 26
0.0
 36
1.0
 17
0.0
 27
0.0
 37
0.0
 40
7489.7003231315857
 41
1.9010526315789471
 42
50.0
 43
0.0
 44
0.0
 50
0.0
 51
0.0
 71
     0
 72
   100
 73
     1
 74
     1
 75
     0
 76
     0
 77
     0
 78
     0
  0
ENDTAB
  0
TABLE
  2
LTYPE
 70
     4
  0
LTYPE
  2
CONTINUOUS
 70
     0
  3
Solid line
 72
    65
 73
     0
 40
0.0
  0
LTYPE
  2
CENTER
 70
     0
  3
____ _ ____ _ ____ _ ____ _ ____ _ ____ _ ____ 
 72
    65
 73
     4
 40
2.0
 49
1.25
 49
-0.25
 49
0.25
 49
-0.25
  0
LTYPE
  2
HIDDEN
 70
     0
  3
__ __ __ __ __ __ __ __ __ __ __ __ __ __ __ __
 72
    65
 73
     2
 40
0.375
 49
0.25
 49
-0.125
  0
LTYPE
  2
PHANTOM
 70
     0
  3
Phantom ______  __  __  ______  __  __  ______
 72
    65
 73
     6
 40
2.5
 49
1.25
 49
-0.25
 49
0.25
 49
-0.25
 49
0.25
 49
-0.25
  0
ENDTAB
  0
TABLE
  2
LAYER
 70
    17
  0
LAYER
  2
0
 70
     0
 62
     7
  6
CONTINUOUS
  0
LAYER
  2
CENTER
 70
     0
 62
     3
  6
CENTER
  0
LAYER
  2
HASEN
 70
     0
 62
     7
  6
HIDDEN
  0
LAYER
  2
MOJI
 70
     0
 62
     6
  6
CONTINUOUS
  0
LAYER
  2
SJC
 70
     0
 62
     1
  6
CONTINUOUS
  0
LAYER
  2
SUNPOU
 70
     0
 62
     4
  6
CONTINUOUS
  0
LAYER
  2
ZWAKU
 70
     1
 62
     7
  6
CONTINUOUS
  0
LAYER
  2
1
 70
     0
 62
     7
  6
CONTINUOUS
  0
LAYER
  2
DEFPOINTS
 70
     0
 62
     7
  6
CONTINUOUS
  0
LAYER
  2
INFORMATION
 70
     1
 62
     7
  6
CONTINUOUS
  0
LAYER
  2
SJC2
 70
     0
 62
     7
  6
CONTINUOUS
  0
LAYER
  2
MOJI2
 70
     0
 62
     1
  6
CONTINUOUS
  0
LAYER
  2
HATCH
 70
     0
 62
     2
  6
CONTINUOUS
  0
LAYER
  2
KASOU
 70
     0
 62
     2
  6
PHANTOM
  0
LAYER
  2
WAKU
 70
     0
 62
     5
  6
CONTINUOUS
  0
LAYER
  2
HOJO
 70
     0
 62
     8
  6
CONTINUOUS
  0
LAYER
  2
太線
 70
     0
 62
     7
  6
CONTINUOUS
  0
ENDTAB
  0
TABLE
  2
STYLE
 70
     8
  0
STYLE
  2
STANDARD
 70
     0
 40
0.0
 41
1.0
 50
0.0
 71
     0
 42
3.0
  3
ROMANS.SHX
  4
BIGFONT.SHX
  0
STYLE
  2
EXT08
 70
     0
 40
0.0
 41
0.8
 50
0.0
 71
     0
 42
75.0
  3
ROMANS
  4
EXTFONT
  0
STYLE
  2
SIMPLEX
 70
     0
 40
0.0
 41
1.0
 50
0.0
 71
     0
 42
0.0
  3
SCRIPTS.shx
  4

  0
STYLE
  2
TATEEXT
 70
     4
 40
0.0
 41
1.0
 50
0.0
 71
     0
 42
0.0
  3
ROMANS.shx
  4
EXTFONT.shx
  0
STYLE
  2
TATEBIG
 70
     4
 40
0.0
 41
1.0
 50
0.0
 71
     0
 42
0.0
  3
ROMANS.shx
  4
BIGFONT.shx
  0
STYLE
  2
EXT
 70
     0
 40
0.0
 41
1.0
 50
0.0
 71
     0
 42
0.0
  3
ROMANS.shx
  4
EXTFONT.shx
  0
STYLE
  2
KANJI08
 70
     0
 40
0.0
 41
0.8
 50
0.0
 71
     0
 42
0.0
  3
ROMANS.shx
  4
BIGFONT.shx
  0
STYLE
  2
KANJI
 70
     0
 40
0.0
 41
1.0
 50
0.0
 71
     0
 42
0.0
  3
ROMANS.shx
  4
BIGFONT.shx
  0
ENDTAB
  0
TABLE
  2
VIEW
 70
     0
  0
ENDTAB
  0
TABLE
  2
UCS
 70
     0
  0
ENDTAB
  0
TABLE
  2
APPID
 70
     6
  0
APPID
  2
ACAD
 70
     0
  0
APPID
  2
CONTENTBLOCKICON
 70
     0
  0
APPID
  2
AME_SOL
 70
     0
  0
APPID
  2
AVE_RENDER
 70
     0
  0
APPID
  2
ACAD_PSEXT
 70
     0
  0
APPID
  2
ACAD_DSTYLE_DIMTEXT_FILL
 70
     0
  0
ENDTAB
  0
TABLE
  2
DIMSTYLE
 70
     5
  0
DIMSTYLE
  2
SJC
 70
     0
  3

  4

  5

  6

  7

 40
1.0
 41
0.18
 42
0.0625
 43
0.38
 44
0.18
 45
0.0
 46
0.0
 47
0.0
 48
0.0
140
0.18
141
0.09
142
0.0
143
25.399999999999999
144
1.0
145
0.0
146
1.0
147
0.09
 71
     0
 72
     0
 73
     1
 74
     1
 75
     0
 76
     0
 77
     0
 78
     0
170
     0
171
     2
172
     0
173
     0
174
     0
175
     0
176
     0
177
     0
178
     0
  0
DIMSTYLE
  2
STANDARD
 70
     0
  3

  4

  5

  6

  7

 40
25.0
 41
2.0
 42
1.0
 43
6.0
 44
1.0
 45
0.0
 46
0.0
 47
0.0
 48
0.0
140
3.0
141
0.09
142
0.0
143
25.399999999999999
144
0.5
145
0.0
146
1.0
147
1.1999999999999991
 71
     0
 72
     0
 73
     0
 74
     0
 75
     0
 76
     0
 77
     1
 78
     8
170
     0
171
     2
172
     1
173
     0
174
     0
175
     0
176
   256
177
   256
178
   256
  0
DIMSTYLE
  2
RUISEKI1
 70
     0
  3

  4

  5

  6
DOT
  7

 40
25.0
 41
2.0
 42
1.0
 43
6.0
 44
30.0
 45
0.0
 46
0.0
 47
0.0
 48
0.0
140
3.0
141
0.09
142
0.0
143
25.399999999999999
144
0.5
145
0.0
146
1.0
147
1.5
 71
     0
 72
     0
 73
     0
 74
     0
 75
     0
 76
     0
 77
     1
 78
     8
170
     0
171
     2
172
     1
173
     1
174
     0
175
     0
176
   256
177
   256
178
   256
  0
DIMSTYLE
  2
RUISEKI2
 70
     0
  3

  4

  5

  6
NONE
  7

 40
25.0
 41
2.0
 42
1.0
 43
6.0
 44
30.0
 45
0.0
 46
0.0
 47
0.0
 48
0.0
140
3.0
141
0.09
142
0.0
143
25.399999999999999
144
0.5
145
0.0
146
1.0
147
1.5
 71
     0
 72
     0
 73
     0
 74
     0
 75
     0
 76
     0
 77
     1
 78
     8
170
     0
171
     2
172
     1
173
     1
174
     0
175
     0
176
   256
177
   256
178
   256
  0
DIMSTYLE
  2
ISO-25
 70
     0
  3

  4

  5

  6

  7

 40
1.0
 41
2.5
 42
0.625
 43
3.75
 44
1.25
 45
0.0
 46
0.0
 47
0.0
 48
0.0
140
2.5
141
2.5
142
0.0
143
0.03937007874016
144
1.0
145
0.0
146
1.0
147
0.625
 71
     0
 72
     0
 73
     0
 74
     0
 75
     0
 76
     0
 77
     1
 78
     8
170
     0
171
     3
172
     1
173
     0
174
     0
175
     0
176
     0
177
     0
178
     0
  0
ENDTAB
  0
ENDSEC
  0
SECTION
  2
BLOCKS
  0
BLOCK
  8
0
  2
$MODEL_SPACE
 70
     0
 10
0.0
 20
0.0
 30
0.0
  3
$MODEL_SPACE
  1

  0
ENDBLK
  5
B7C
  8
0
  0
BLOCK
 67
     1
  8
0
  2
$PAPER_SPACE
 70
     0
 10
0.0
 20
0.0
 30
0.0
  3
$PAPER_SPACE
  1

  0
ENDBLK
  5
B7A
 67
     1
  8
0
  0
BLOCK
  8
0
  2
CALCOMP_TECHJET720A3
 70
     0
 10
0.0
 20
0.0
 30
0.0
  3
CALCOMP_TECHJET720A3
  1

  0
POLYLINE
  5
B82
  8
ZWAKU
 66
     1
 10
0.0
 20
0.0
 30
0.0
 70
     1
  0
VERTEX
  5
9E5F
  8
ZWAKU
 10
0.0
 20
0.0
 30
0.0
  0
VERTEX
  5
9E60
  8
ZWAKU
 10
0.0
 20
267.0
 30
0.0
  0
VERTEX
  5
9E61
  8
ZWAKU
 10
370.0
 20
267.0
 30
0.0
  0
VERTEX
  5
9E62
  8
ZWAKU
 10
370.0
 20
0.0
 30
0.0
  0
SEQEND
  5
9E63
  8
ZWAKU
  0
ENDBLK
  5
B89
  8
0
  0
BLOCK
  8
0
  2
*D1
 70
     1
 10
0.0
 20
0.0
 30
0.0
  3
*D1
  1

  0
LINE
  5
9E2E
  8
SUNPOU
 62
     0
 10
834.4570311429452
 20
5632.7826474289832
 30
0.0
 11
834.4570311429452
 21
6096.9962198166841
 31
0.0
  0
LINE
  5
9E2F
  8
SUNPOU
 62
     0
 10
2834.456907463345
 20
5632.7826474289832
 30
0.0
 11
2834.456907463345
 21
6096.9962198166841
 31
0.0
  0
LINE
  5
9E30
  8
SUNPOU
 62
     0
 10
884.4570311429452
 20
6071.9962198166841
 30
0.0
 11
2784.456907463345
 21
6071.9962198166841
 31
0.0
  0
SOLID
  5
9E31
  8
SUNPOU
 62
     0
 10
884.4570311429452
 20
6080.3295531500171
 30
0.0
 11
884.4570311429452
 21
6063.662886483351
 31
0.0
 12
834.4570311429452
 22
6071.9962198166841
 32
0.0
 13
834.4570311429452
 23
6071.9962198166841
 33
0.0
  0
SOLID
  5
9E32
  8
SUNPOU
 62
     0
 10
2784.456907463345
 20
6080.3295531500171
 30
0.0
 11
2784.456907463345
 21
6063.662886483351
 31
0.0
 12
2834.456907463345
 22
6071.9962198166841
 32
0.0
 13
2834.456907463345
 23
6071.9962198166841
 33
0.0
  0
TEXT
  8
SUNPOU
  40
75
  5
A151
  62
0
  72
0
  71
0
 10
1684.46
 20
6006.75
 30
0.000000
  1
2000
  7
EXT08
  0
POINT
  5
9E34
  8
DEFPOINTS
 62
     0
 10
834.4570311429452
 20
5607.7826474289832
 30
0.0
  0
POINT
  5
9E35
  8
DEFPOINTS
 62
     0
 10
2834.456907463345
 20
5607.7826474289832
 30
0.0
  0
POINT
  5
9E36
  8
DEFPOINTS
 62
     0
 10
2834.456907463345
 20
6071.9962198166841
 30
0.0
  0
ENDBLK
  5
109C
  8
0
  0
BLOCK
  8
0
  2
*D2
 70
     1
 10
0.0
 20
0.0
 30
0.0
  3
*D2
  1

  0
LINE
  5
9E11
  8
SUNPOU
 62
     0
 10
4516.3139012210377
 20
5591.7822808603833
 30
0.0
 11
4883.4149962670645
 21
5591.7822808603833
 31
0.0
  0
LINE
  5
9E12
  8
SUNPOU
 62
     0
 10
4516.3139012210413
 20
4791.7822562734818
 30
0.0
 11
4883.4149962670645
 21
4791.7822562734818
 31
0.0
  0
LINE
  5
9E13
  8
SUNPOU
 62
     0
 10
4858.4149962670654
 20
5541.7822808603833
 30
0.0
 11
4858.4149962670654
 21
4841.7822562734818
 31
0.0
  0
SOLID
  5
9E14
  8
SUNPOU
 62
     0
 10
4850.0816629337323
 20
5541.7822808603833
 30
0.0
 11
4866.7483296003966
 21
5541.7822808603833
 31
0.0
 12
4858.4149962670654
 22
5591.7822808603833
 32
0.0
 13
4858.4149962670654
 23
5591.7822808603833
 33
0.0
  0
SOLID
  5
9E15
  8
SUNPOU
 62
     0
 10
4850.0816629337323
 20
4841.7822562734818
 30
0.0
 11
4866.7483296003966
 21
4841.7822562734818
 31
0.0
 12
4858.4149962670654
 22
4791.7822562734818
 32
0.0
 13
4858.4149962670654
 23
4791.7822562734818
 33
0.0
  0
TEXT
  8
SUNPOU
  40
75
  5
A152
  62
0
  72
0
  71
0
 10
4640.91
 20
5059.03
 30
0.000000
  1
800
  7
EXT08
  0
POINT
  5
9E17
  8
DEFPOINTS
 62
     0
 10
4491.3139012210386
 20
5591.7822808603833
 30
0.0
  0
POINT
  5
9E18
  8
DEFPOINTS
 62
     0
 10
4491.3139012210404
 20
4791.7822562734818
 30
0.0
  0
POINT
  5
9E19
  8
DEFPOINTS
 62
     0
 10
4858.4149962670654
 20
4791.7822562734818
 30
0.0
  0
ENDBLK
  5
1AC5
  8
0
  0
BLOCK
  8
0
  2
*D3
 70
     1
 10
0.0
 20
0.0
 30
0.0
  3
*D3
  1

  0
LINE
  5
9E1A
  8
SUNPOU
 62
     0
 10
4516.3139012210377
 20
5591.7822808603833
 30
0.0
 11
4706.1867952941839
 21
5591.7822808603833
 31
0.0
  0
LINE
  5
9E1B
  8
SUNPOU
 62
     0
 10
4516.3139012210377
 20
4941.7822596261831
 30
0.0
 11
4706.1867952941839
 21
4941.7822596261831
 31
0.0
  0
LINE
  5
9E1C
  8
SUNPOU
 62
     0
 10
4681.186795294183
 20
5541.7822808603833
 30
0.0
 11
4681.186795294183
 21
4991.7822596261831
 31
0.0
  0
SOLID
  5
9E1D
  8
SUNPOU
 62
     0
 10
4672.8534619608499
 20
5541.7822808603833
 30
0.0
 11
4689.520128627516
 21
5541.7822808603833
 31
0.0
 12
4681.186795294183
 22
5591.7822808603833
 32
0.0
 13
4681.186795294183
 23
5591.7822808603833
 33
0.0
  0
SOLID
  5
9E1E
  8
SUNPOU
 62
     0
 10
4672.8534619608499
 20
4991.7822596261831
 30
0.0
 11
4689.520128627516
 21
4991.7822596261831
 31
0.0
 12
4681.186795294183
 22
4941.7822596261831
 32
0.0
 13
4681.186795294183
 23
4941.7822596261831
 33
0.0
  0
TEXT
  8
SUNPOU
  40
75
  5
A153
  62
0
  72
0
  71
0
 10
4463.69
 20
5134.03
 30
0.000000
  1
650
  7
EXT08
  0
POINT
  5
9E20
  8
DEFPOINTS
 62
     0
 10
4491.3139012210386
 20
5591.7822808603833
 30
0.0
  0
POINT
  5
9E21
  8
DEFPOINTS
 62
     0
 10
4491.3139012210386
 20
4941.7822596261831
 30
0.0
  0
POINT
  5
9E22
  8
DEFPOINTS
 62
     0
 10
4681.186795294183
 20
4941.7822596261831
 30
0.0
  0
ENDBLK
  5
161B
  8
0
  0
BLOCK
  8
0
  2
*D4
 70
     1
 10
0.0
 20
0.0
 30
0.0
  3
*D4
  1

  0
LINE
  5
9E23
  8
SUNPOU
 62
     0
 10
4516.3139012210377
 20
4941.7822596261831
 30
0.0
 11
4706.1867952941839
 21
4941.7822596261831
 31
0.0
  0
LINE
  5
9E24
  8
SUNPOU
 62
     0
 10
4516.3139012210413
 20
4791.7822562734818
 30
0.0
 11
4706.1867952941839
 21
4791.7822562734818
 31
0.0
  0
LINE
  5
9E25
  8
SUNPOU
 62
     0
 10
4681.186795294183
 20
4991.7822596261831
 30
0.0
 11
4681.186795294183
 21
5041.7822596261831
 31
0.0
  0
LINE
  5
9E26
  8
SUNPOU
 62
     0
 10
4681.186795294183
 20
4741.7822562734827
 30
0.0
 11
4681.186795294183
 21
4691.7822562734827
 31
0.0
  0
TEXT
  8
SUNPOU
  40
75
  5
A154
  62
0
  72
0
  71
0
 10
4458.31
 20
4738.18
 30
0.000000
  1
150
  7
EXT08
  0
LINE
  5
9E28
  8
SUNPOU
 62
     0
 10
4681.186795294183
 20
4941.7822596261831
 30
0.0
 11
4681.186795294183
 21
4791.7822562734818
 31
0.0
  0
SOLID
  5
9E29
  8
SUNPOU
 62
     0
 10
4672.8534619608499
 20
4991.7822596261831
 30
0.0
 11
4689.520128627516
 21
4991.7822596261831
 31
0.0
 12
4681.186795294183
 22
4941.7822596261831
 32
0.0
 13
4681.186795294183
 23
4941.7822596261831
 33
0.0
  0
SOLID
  5
9E2A
  8
SUNPOU
 62
     0
 10
4672.8534619608499
 20
4741.7822562734827
 30
0.0
 11
4689.520128627516
 21
4741.7822562734827
 31
0.0
 12
4681.186795294183
 22
4791.7822562734818
 32
0.0
 13
4681.186795294183
 23
4791.7822562734818
 33
0.0
  0
POINT
  5
9E2B
  8
DEFPOINTS
 62
     0
 10
4491.3139012210386
 20
4941.7822596261831
 30
0.0
  0
POINT
  5
9E2C
  8
DEFPOINTS
 62
     0
 10
4491.3139012210404
 20
4791.7822562734818
 30
0.0
  0
POINT
  5
9E2D
  8
DEFPOINTS
 62
     0
 10
4681.186795294183
 20
4791.7822562734818
 30
0.0
  0
ENDBLK
  5
1AD2
  8
0
  0
BLOCK
  8
0
  2
*D5
 70
     1
 10
0.0
 20
0.0
 30
0.0
  3
*D5
  1

  0
LINE
  5
9E37
  8
SUNPOU
 62
     0
 10
5321.4601572621659
 20
5591.7822808603833
 30
0.0
 11
5600.3152483060221
 21
5591.7822808603833
 31
0.0
  0
LINE
  5
9E38
  8
SUNPOU
 62
     0
 10
5506.450749562795
 20
4791.7822562734818
 30
0.0
 11
5600.3152483060221
 21
4791.7822562734818
 31
0.0
  0
LINE
  5
9E39
  8
SUNPOU
 62
     0
 10
5575.3152483060221
 20
5541.7822808603833
 30
0.0
 11
5575.3152483060221
 21
4841.7822562734818
 31
0.0
  0
SOLID
  5
9E3A
  8
SUNPOU
 62
     0
 10
5566.9819149726891
 20
5541.7822808603833
 30
0.0
 11
5583.6485816393551
 21
5541.7822808603833
 31
0.0
 12
5575.3152483060221
 22
5591.7822808603833
 32
0.0
 13
5575.3152483060221
 23
5591.7822808603833
 33
0.0
  0
SOLID
  5
9E3B
  8
SUNPOU
 62
     0
 10
5566.9819149726891
 20
4841.7822562734818
 30
0.0
 11
5583.6485816393551
 21
4841.7822562734818
 31
0.0
 12
5575.3152483060221
 22
4791.7822562734818
 32
0.0
 13
5575.3152483060221
 23
4791.7822562734818
 33
0.0
  0
TEXT
  8
SUNPOU
  40
75
  5
A155
  62
0
  72
0
  71
0
 10
5357.82
 20
5059.03
 30
0.000000
  1
800
  7
EXT08
  0
POINT
  5
9E3D
  8
DEFPOINTS
 62
     0
 10
5296.460157262165
 20
5591.7822808603833
 30
0.0
  0
POINT
  5
9E3E
  8
DEFPOINTS
 62
     0
 10
5481.450749562795
 20
4791.7822562734818
 30
0.0
  0
POINT
  5
9E3F
  8
DEFPOINTS
 62
     0
 10
5575.3152483060221
 20
4791.7822562734818
 30
0.0
  0
ENDBLK
  5
1647
  8
0
  0
BLOCK
  8
0
  2
*D6
 70
     1
 10
0.0
 20
0.0
 30
0.0
  3
*D6
  1

  0
LINE
  5
9E49
  8
SUNPOU
 62
     0
 10
5296.460157262165
 20
5602.7822808602168
 30
0.0
 11
5926.0361282632366
 21
5602.7822808602168
 31
0.0
  0
LINE
  5
9E4A
  8
SUNPOU
 62
     0
 10
5496.4601606149636
 20
4391.7822462151826
 30
0.0
 11
5926.0361282632366
 21
4391.7822462151826
 31
0.0
  0
LINE
  5
9E4B
  8
SUNPOU
 62
     0
 10
5901.0361282632357
 20
5552.7822808602168
 30
0.0
 11
5901.0361282632357
 21
4441.7822462151826
 31
0.0
  0
SOLID
  5
9E4C
  8
SUNPOU
 62
     0
 10
5892.7027949299036
 20
5552.7822808602168
 30
0.0
 11
5909.3694615965687
 21
5552.7822808602168
 31
0.0
 12
5901.0361282632357
 22
5602.7822808602168
 32
0.0
 13
5901.0361282632357
 23
5602.7822808602168
 33
0.0
  0
SOLID
  5
9E4D
  8
SUNPOU
 62
     0
 10
5892.7027949299036
 20
4441.7822462151826
 30
0.0
 11
5909.3694615965687
 21
4441.7822462151826
 31
0.0
 12
5901.0361282632357
 22
4391.7822462151826
 32
0.0
 13
5901.0361282632357
 23
4391.7822462151826
 33
0.0
  0
TEXT
  8
SUNPOU
  40
75
  5
A156
  62
0
  72
0
  71
0
 10
5683.54
 20
4864.53
 30
0.000000
  1
1211
  7
EXT08
  0
POINT
  5
9E4F
  8
DEFPOINTS
 62
     0
 10
5271.460157262165
 20
5602.7822808602168
 30
0.0
  0
POINT
  5
9E50
  8
DEFPOINTS
 62
     0
 10
5471.4601606149636
 20
4391.7822462151826
 30
0.0
  0
POINT
  5
9E51
  8
DEFPOINTS
 62
     0
 10
5901.0361282632357
 20
4391.7822462151826
 30
0.0
  0
ENDBLK
  5
1673
  8
0
  0
BLOCK
  8
0
  2
*D7
 70
     1
 10
0.0
 20
0.0
 30
0.0
  3
*D7
  1

  0
LINE
  5
9E40
  8
SUNPOU
 62
     0
 10
5506.450749562795
 20
4791.7822562734818
 30
0.0
 11
5768.1008173045557
 21
4791.7822562734818
 31
0.0
  0
LINE
  5
9E41
  8
SUNPOU
 62
     0
 10
5446.4601606149636
 20
4391.7822462151826
 30
0.0
 11
5768.1008173045557
 21
4391.7822462151826
 31
0.0
  0
LINE
  5
9E42
  8
SUNPOU
 62
     0
 10
5743.1008173045548
 20
4741.7822562734827
 30
0.0
 11
5743.1008173045548
 21
4441.7822462151826
 31
0.0
  0
SOLID
  5
9E43
  8
SUNPOU
 62
     0
 10
5734.7674839712217
 20
4741.7822562734827
 30
0.0
 11
5751.4341506378887
 21
4741.7822562734827
 31
0.0
 12
5743.1008173045548
 22
4791.7822562734818
 32
0.0
 13
5743.1008173045548
 23
4791.7822562734818
 33
0.0
  0
SOLID
  5
9E44
  8
SUNPOU
 62
     0
 10
5734.7674839712217
 20
4441.7822462151826
 30
0.0
 11
5751.4341506378887
 21
4441.7822462151826
 31
0.0
 12
5743.1008173045548
 22
4391.7822462151826
 32
0.0
 13
5743.1008173045548
 23
4391.7822462151826
 33
0.0
  0
TEXT
  8
SUNPOU
  40
75
  5
A157
  62
0
  72
0
  71
0
 10
5525.60
 20
4459.03
 30
0.000000
  1
400
  7
EXT08
  0
POINT
  5
9E46
  8
DEFPOINTS
 62
     0
 10
5481.450749562795
 20
4791.7822562734818
 30
0.0
  0
POINT
  5
9E47
  8
DEFPOINTS
 62
     0
 10
5421.4601606149636
 20
4391.7822462151826
 30
0.0
  0
POINT
  5
9E48
  8
DEFPOINTS
 62
     0
 10
5743.1008173045548
 20
4391.7822462151826
 30
0.0
  0
ENDBLK
  5
167E
  8
0
  0
BLOCK
  8
0
  2
*D8
 70
     1
 10
0.0
 20
0.0
 30
0.0
  3
*D8
  1

  0
LINE
  5
9E52
  8
SUNPOU
 62
     0
 10
8636.3181774163349
 20
4800.7821039090832
 30
0.0
 11
8806.9639447503105
 21
4800.7821039090832
 31
0.0
  0
LINE
  5
9E53
  8
SUNPOU
 62
     0
 10
8731.1755424215371
 20
4791.7822562734818
 30
0.0
 11
8806.9639447503105
 21
4791.7822562734818
 31
0.0
  0
LINE
  5
9E54
  8
SUNPOU
 62
     0
 10
8781.9639447503105
 20
4850.7821039090832
 30
0.0
 11
8781.9639447503105
 21
4900.7821039090832
 31
0.0
  0
LINE
  5
9E55
  8
SUNPOU
 62
     0
 10
8781.9639447503105
 20
4741.7822562734827
 30
0.0
 11
8781.9639447503105
 21
4691.7822562734827
 31
0.0
  0
TEXT
  8
SUNPOU
  40
75
  5
A158
  62
0
  72
0
  71
0
 10
8563.84
 20
4742.91
 30
0.000000
  1
t9
  7
EXT08
  0
LINE
  5
9E57
  8
SUNPOU
 62
     0
 10
8781.9639447503105
 20
4800.7821039090832
 30
0.0
 11
8781.9639447503105
 21
4791.7822562734818
 31
0.0
  0
SOLID
  5
9E58
  8
SUNPOU
 62
     0
 10
8773.6306114169765
 20
4850.7821039090832
 30
0.0
 11
8790.2972780836444
 21
4850.7821039090832
 31
0.0
 12
8781.9639447503105
 22
4800.7821039090832
 32
0.0
 13
8781.9639447503105
 23
4800.7821039090832
 33
0.0
  0
SOLID
  5
9E59
  8
SUNPOU
 62
     0
 10
8773.6306114169765
 20
4741.7822562734827
 30
0.0
 11
8790.2972780836444
 21
4741.7822562734827
 31
0.0
 12
8781.9639447503105
 22
4791.7822562734818
 32
0.0
 13
8781.9639447503105
 23
4791.7822562734818
 33
0.0
  0
POINT
  5
9E5A
  8
DEFPOINTS
 62
     0
 10
8611.3181774163331
 20
4800.7821039090832
 30
0.0
  0
POINT
  5
9E5B
  8
DEFPOINTS
 62
     0
 10
8706.1755424215371
 20
4791.7822562734818
 30
0.0
  0
POINT
  5
9E5C
  8
DEFPOINTS
 62
     0
 10
8781.9639447503105
 20
4791.7822562734818
 30
0.0
  0
ENDBLK
  5
1B7C
  8
0
  0
BLOCK
  8
0
  2
*D9
 70
     1
 10
0.0
 20
0.0
 30
0.0
  3
*D9
  1

  0
LINE
  5
9E64
  8
SUNPOU
 62
     0
 10
5421.4601606149636
 20
4366.7822462151826
 30
0.0
 11
5421.4601606149636
 21
4153.9502948733889
 31
0.0
  0
LINE
  5
9E65
  8
SUNPOU
 62
     0
 10
5121.4601539094638
 20
4366.7822462151826
 30
0.0
 11
5121.4601539094638
 21
4153.9502948733889
 31
0.0
  0
LINE
  5
9E66
  8
SUNPOU
 62
     0
 10
5371.4601606149636
 20
4178.9502948733898
 30
0.0
 11
5171.4601539094638
 21
4178.9502948733898
 31
0.0
  0
SOLID
  5
9E67
  8
SUNPOU
 62
     0
 10
5371.4601606149636
 20
4187.2836282067219
 30
0.0
 11
5371.4601606149636
 21
4170.6169615400568
 31
0.0
 12
5421.4601606149636
 22
4178.9502948733898
 32
0.0
 13
5421.4601606149636
 23
4178.9502948733898
 33
0.0
  0
SOLID
  5
9E68
  8
SUNPOU
 62
     0
 10
5171.4601539094638
 20
4187.2836282067219
 30
0.0
 11
5171.4601539094638
 21
4170.6169615400568
 31
0.0
 12
5121.4601539094638
 22
4178.9502948733898
 32
0.0
 13
5121.4601539094638
 23
4178.9502948733898
 33
0.0
  0
TEXT
  8
SUNPOU
  40
75
  5
A159
  62
0
  72
0
  71
0
 10
5121.46
 20
4113.70
 30
0.000000
  1
□300
  7
EXT08
  0
POINT
  5
9E6A
  8
DEFPOINTS
 62
     0
 10
5421.4601606149636
 20
4391.7822462151826
 30
0.0
  0
POINT
  5
9E6B
  8
DEFPOINTS
 62
     0
 10
5121.4601539094638
 20
4391.7822462151826
 30
0.0
  0
POINT
  5
9E6C
  8
DEFPOINTS
 62
     0
 10
5121.4601539094638
 20
4178.9502948733898
 30
0.0
  0
ENDBLK
  5
1B18
  8
0
  0
BLOCK
  8
0
  2
_DOT
 70
     0
 10
0.0
 20
0.0
 30
0.0
  3
_DOT
  1

  0
POLYLINE
  5
2EBA
  8
0
  6
BYBLOCK
 62
     0
 66
     1
 10
0.0
 20
0.0
 30
0.0
 70
     1
 40
0.5
 41
0.5
  0
VERTEX
  5
9E71
  8
0
  6
BYBLOCK
 62
     0
 10
-0.25
 20
0.0
 30
0.0
 42
1.0
  0
VERTEX
  5
9E72
  8
0
  6
BYBLOCK
 62
     0
 10
0.25
 20
0.0
 30
0.0
 42
1.0
  0
SEQEND
  5
9E73
  8
0
  6
BYBLOCK
 62
     0
  0
LINE
  5
2EBB
  8
0
  6
BYBLOCK
 62
     0
 10
-0.5
 20
0.0
 30
0.0
 11
-1.0
 21
0.0
 31
0.0
  0
ENDBLK
  5
2EBD
  8
0
  0
BLOCK
  8
0
  2
_NONE
 70
     0
 10
0.0
 20
0.0
 30
0.0
  3
_NONE
  1

  0
ENDBLK
  5
2EC1
  8
0
  0
BLOCK
  8
0
  2
*D12
 70
     1
 10
0.0
 20
0.0
 30
0.0
  3
*D12
  1

  0
LINE
  5
9E88
  8
SUNPOU
 62
     0
 10
8461.3181751811353
 20
4766.7822562734818
 30
0.0
 11
8461.3181751811353
 21
4565.118104739
 31
0.0
  0
LINE
  5
9E89
  8
SUNPOU
 62
     0
 10
8611.3181751811353
 20
4766.7822562734818
 30
0.0
 11
8611.3181751811353
 21
4565.118104739
 31
0.0
  0
LINE
  5
9E8A
  8
SUNPOU
 62
     0
 10
8411.3181751811353
 20
4590.118104739
 30
0.0
 11
8361.3181751811353
 21
4590.118104739
 31
0.0
  0
LINE
  5
9E8B
  8
SUNPOU
 62
     0
 10
8661.3181751811353
 20
4590.118104739
 30
0.0
 11
8711.3181751811353
 21
4590.118104739
 31
0.0
  0
TEXT
  8
SUNPOU
  40
75
  5
A15A
  62
0
  72
0
  71
0
 10
8338.75
 20
4508.63
 30
0.000000
  1
□150
  7
EXT08
  0
LINE
  5
9E8D
  8
SUNPOU
 62
     0
 10
8461.3181751811353
 20
4590.118104739
 30
0.0
 11
8611.3181751811353
 21
4590.118104739
 31
0.0
  0
SOLID
  5
9E8E
  8
SUNPOU
 62
     0
 10
8411.3181751811353
 20
4598.4514380723331
 30
0.0
 11
8411.3181751811353
 21
4581.784771405667
 31
0.0
 12
8461.3181751811353
 22
4590.118104739
 32
0.0
 13
8461.3181751811353
 23
4590.118104739
 33
0.0
  0
SOLID
  5
9E8F
  8
SUNPOU
 62
     0
 10
8661.3181751811353
 20
4598.4514380723331
 30
0.0
 11
8661.3181751811353
 21
4581.784771405667
 31
0.0
 12
8611.3181751811353
 22
4590.118104739
 32
0.0
 13
8611.3181751811353
 23
4590.118104739
 33
0.0
  0
POINT
  5
9E90
  8
DEFPOINTS
 62
     0
 10
8461.3181751811353
 20
4791.7822562734818
 30
0.0
  0
POINT
  5
9E91
  8
DEFPOINTS
 62
     0
 10
8611.3181751811353
 20
4791.7822562734818
 30
0.0
  0
POINT
  5
9E92
  8
DEFPOINTS
 62
     0
 10
8611.3181751811353
 20
4590.118104739
 30
0.0
  0
ENDBLK
  5
493D
  8
0
  0
BLOCK
  8
0
  2
T-40樹脂キャップ
 70
     0
 10
0.0
 20
0.0
 30
0.0
  3
T-40樹脂キャップ
  1
C:\Documents and Settings\SJC\デスクトップ\G_T-40\ブロックT-40\T-40柵部品図\T-40樹脂キャップ.dwg
  0
TEXT
  5
922F
  8
INFORMATION
 10
1.0
 20
2.0
 30
0.0
 40
0.8
  1
PLOTTER=CALCOMP_TECHJET720
  0
TEXT
  5
9230
  8
INFORMATION
 10
1.0
 20
3.0
 30
0.0
 40
0.8
  1
PAPER=A3
  0
TEXT
  5
9231
  8
INFORMATION
 10
1.0
 20
1.0
 30
0.0
 40
0.8
  1
VERSION=3.0
  0
LINE
  5
9232
  8
太線
 10
-33.75
 20
-2.0
 30
0.0
 11
33.749997699327203
 21
-2.0
 31
0.0
  0
LINE
  5
9233
  8
太線
 10
-32.25
 20
-12.0
 30
0.0
 11
32.249999999998408
 21
-12.0
 31
0.0
  0
LINE
  5
9234
  8
太線
 10
33.75
 20
-2.0
 30
0.0
 11
33.75
 21
-2.0125078222808952
 31
0.0
  0
ARC
  5
9235
  8
太線
 10
0.2499999999981789
 20
-2.0125078222808952
 30
0.0
 40
34.0
 50
180.0
 51
197.08258324336069
  0
LINE
  5
9236
  8
太線
 10
33.75
 20
-2.0
 30
0.0
 11
33.75
 21
-2.0125078222808952
 31
0.0
  0
LINE
  5
9237
  8
太線
 10
33.75
 20
-2.0
 30
0.0
 11
33.75
 21
-2.0125078222808952
 31
0.0
  0
ARC
  5
9238
  8
太線
 10
-0.2500000000018212
 20
-2.0125078222808952
 30
0.0
 40
34.0
 50
342.91741675663928
 51
0.0
  0
LINE
  5
9239
  8
太線
 10
-31.25
 20
1.0
 30
0.0
 11
31.25
 21
1.0
 31
0.0
  0
ARC
  5
923A
  8
太線
 10
-0.0000000000000021
 20
-35.0
 30
0.0
 40
46.0
 50
51.586749207714533
 51
128.41325079229571
  0
ARC
  5
923B
  8
太線
 10
31.25
 20
-1.5
 30
0.0
 40
2.5
 50
0.0
 51
90.0
  0
ARC
  5
923C
  8
太線
 10
28.705400188813648
 20
1.2000000000007269
 30
0.0
 40
0.2
 50
231.5867492077042
 51
270.0
  0
LINE
  5
923D
  8
太線
 10
33.75
 20
-2.0
 30
0.0
 11
33.75
 21
-1.5
 31
0.0
  0
ARC
  5
923E
  8
太線
 10
-31.25
 20
-1.5
 30
0.0
 40
2.5
 50
90.0
 51
180.0
  0
ARC
  5
923F
  8
太線
 10
-28.705400188815481
 20
1.2000000000007269
 30
0.0
 40
0.2
 50
270.0
 51
308.4132507922958
  0
LINE
  5
9240
  8
太線
 10
-33.75
 20
-2.0
 30
0.0
 11
-33.75
 21
-1.5
 31
0.0
  0
ENDBLK
  5
7167
  8
0
  0
BLOCK
  8
0
  2
*D14
 70
     1
 10
0.0
 20
0.0
 30
0.0
  3
*D14
  1

  0
LINE
  5
9EAD
  8
SUNPOU
 62
     0
 10
598.75176148501657
 20
4791.7822562734818
 30
0.0
 11
494.22026852812252
 21
4791.7822562734818
 31
0.0
  0
LINE
  5
9EAE
  8
SUNPOU
 62
     0
 10
809.50459157010846
 20
5602.7822562734818
 30
0.0
 11
494.22026852812269
 21
5602.7822562734818
 31
0.0
  0
LINE
  5
9EAF
  8
SUNPOU
 62
     0
 10
519.22026852812235
 20
4841.7822562734818
 30
0.0
 11
519.22026852812269
 21
5552.7822562734818
 31
0.0
  0
SOLID
  5
9EB0
  8
SUNPOU
 62
     0
 10
510.8869351947892
 20
4841.7822562734818
 30
0.0
 11
527.55360186145583
 21
4841.7822562734818
 31
0.0
 12
519.22026852812235
 22
4791.7822562734818
 32
0.0
 13
519.22026852812235
 23
4791.7822562734818
 33
0.0
  0
SOLID
  5
9EB1
  8
SUNPOU
 62
     0
 10
510.88693519478937
 20
5552.7822562734818
 30
0.0
 11
527.55360186145595
 21
5552.7822562734818
 31
0.0
 12
519.22026852812269
 22
5602.7822562734818
 32
0.0
 13
519.22026852812269
 23
5602.7822562734818
 33
0.0
  0
TEXT
  8
SUNPOU
  40
75
  5
A15B
  62
0
  72
0
  71
0
 10
301.720
 20
5064.53
 30
0.000000
  1
811
  7
EXT08
  0
POINT
  5
9EB3
  8
DEFPOINTS
 62
     0
 10
623.75176148501657
 20
4791.7822562734818
 30
0.0
  0
POINT
  5
9EB4
  8
DEFPOINTS
 62
     0
 10
834.50459157010846
 20
5602.7822562734818
 30
0.0
  0
POINT
  5
9EB5
  8
DEFPOINTS
 62
     0
 10
519.22026852812269
 20
5602.7822562734818
 30
0.0
  0
ENDBLK
  5
7230
  8
0
  0
BLOCK
  8
0
  2
T-40樹脂キャップ-側
 70
     0
 10
0.0
 20
0.0
 30
0.0
  3
T-40樹脂キャップ-側
  1
C:\Documents and Settings\SJC\デスクトップ\G_T-40\ブロックT-40\T-40柵部品図\T-40樹脂キャップ-側.dwg
  0
TEXT
  5
92D1
  8
INFORMATION
 10
1.0
 20
2.0
 30
0.0
 40
0.8
  1
PLOTTER=CALCOMP_TECHJET720
  0
TEXT
  5
92D2
  8
INFORMATION
 10
1.0
 20
3.0
 30
0.0
 40
0.8
  1
PAPER=A3
  0
TEXT
  5
92D3
  8
INFORMATION
 10
1.0
 20
1.0
 30
0.0
 40
0.8
  1
VERSION=3.0
  0
LINE
  5
92D4
  8
太線
 10
-33.75
 20
-2.0
 30
0.0
 11
-9.0221948549119695
 21
-2.0
 31
0.0
  0
LINE
  5
92D5
  8
太線
 10
-32.25
 20
-12.0
 30
0.0
 11
-19.193748982416121
 21
-12.0
 31
0.0
  0
LINE
  5
92D6
  8
太線
 10
33.75
 20
-2.0
 30
0.0
 11
33.75
 21
-2.0125078222808952
 31
0.0
  0
ARC
  5
92D7
  8
太線
 10
0.2499999999981789
 20
-2.0125078222808952
 30
0.0
 40
34.0
 50
180.0
 51
197.08258324336069
  0
LINE
  5
92D8
  8
太線
 10
33.75
 20
-2.0
 30
0.0
 11
33.75
 21
-2.0125078222808952
 31
0.0
  0
LINE
  5
92D9
  8
太線
 10
33.75
 20
-2.0
 30
0.0
 11
33.75
 21
-2.0125078222808952
 31
0.0
  0
ARC
  5
92DA
  8
太線
 10
-0.2500000000018212
 20
-2.0125078222808952
 30
0.0
 40
34.0
 50
342.91741675663928
 51
0.0
  0
LINE
  5
92DB
  8
太線
 10
-31.25
 20
1.0
 30
0.0
 11
31.25
 21
1.0
 31
0.0
  0
ARC
  5
92DC
  8
太線
 10
-0.0000000000000021
 20
-35.0
 30
0.0
 40
46.0
 50
51.586749207714533
 51
128.41325079229571
  0
ARC
  5
92DD
  8
太線
 10
31.25
 20
-1.5
 30
0.0
 40
2.5
 50
0.0
 51
90.0
  0
ARC
  5
92DE
  8
太線
 10
28.705400188813648
 20
1.2000000000007269
 30
0.0
 40
0.2
 50
231.5867492077042
 51
270.0
  0
LINE
  5
92DF
  8
太線
 10
33.75
 20
-2.0
 30
0.0
 11
33.75
 21
-1.5
 31
0.0
  0
ARC
  5
92E0
  8
太線
 10
-31.25
 20
-1.5
 30
0.0
 40
2.5
 50
90.0
 51
180.0
  0
ARC
  5
92E1
  8
太線
 10
-28.705400188815481
 20
1.2000000000007269
 30
0.0
 40
0.2
 50
270.0
 51
308.4132507922958
  0
LINE
  5
92E2
  8
太線
 10
-33.75
 20
-2.0
 30
0.0
 11
-33.75
 21
-1.5
 31
0.0
  0
LINE
  5
92E3
  8
太線
 10
19.193748982416121
 20
-12.0
 30
0.0
 11
32.249999999998408
 21
-12.0
 31
0.0
  0
LINE
  5
92E4
  8
太線
 10
9.0221948549119642
 20
-2.0
 30
0.0
 11
33.749997699327203
 21
-2.0
 31
0.0
  0
ENDBLK
  5
72DA
  8
0
  0
BLOCK
  8
0
  2
*D16
 70
     1
 10
0.0
 20
0.0
 30
0.0
  3
*D16
  1

  0
LINE
  5
9EB6
  8
SUNPOU
 62
     0
 10
5321.4601572621659
 20
5591.7822808603833
 30
0.0
 11
5600.3152483060221
 21
5591.7822808603833
 31
0.0
  0
LINE
  5
9EB7
  8
SUNPOU
 62
     0
 10
5296.460157262165
 20
5602.7822808602168
 30
0.0
 11
5600.3152483060221
 21
5602.7822808602168
 31
0.0
  0
LINE
  5
9EB8
  8
SUNPOU
 62
     0
 10
5575.3152483060221
 20
5541.7822808603833
 30
0.0
 11
5575.3152483060221
 21
5491.7822808603833
 31
0.0
  0
LINE
  5
9EB9
  8
SUNPOU
 62
     0
 10
5575.3152483060221
 20
5652.7822808602168
 30
0.0
 11
5575.3152483060221
 21
5702.7822808602159
 31
0.0
  0
TEXT
  8
SUNPOU
  40
75
  5
A15C
  62
0
  72
0
  71
0
 10
5349.93
 20
5539.99
 30
0.000000
  1
11
  7
EXT08
  0
LINE
  5
9EBB
  8
SUNPOU
 62
     0
 10
5575.3152483060221
 20
5591.7822808603833
 30
0.0
 11
5575.3152483060221
 21
5602.7822808602168
 31
0.0
  0
SOLID
  5
9EBC
  8
SUNPOU
 62
     0
 10
5566.9819149726891
 20
5541.7822808603833
 30
0.0
 11
5583.6485816393551
 21
5541.7822808603833
 31
0.0
 12
5575.3152483060221
 22
5591.7822808603833
 32
0.0
 13
5575.3152483060221
 23
5591.7822808603833
 33
0.0
  0
SOLID
  5
9EBD
  8
SUNPOU
 62
     0
 10
5566.9819149726891
 20
5652.7822808602168
 30
0.0
 11
5583.6485816393551
 21
5652.7822808602168
 31
0.0
 12
5575.3152483060221
 22
5602.7822808602168
 32
0.0
 13
5575.3152483060221
 23
5602.7822808602168
 33
0.0
  0
POINT
  5
9EBE
  8
DEFPOINTS
 62
     0
 10
5296.460157262165
 20
5591.7822808603833
 30
0.0
  0
POINT
  5
9EBF
  8
DEFPOINTS
 62
     0
 10
5271.460157262165
 20
5602.7822808602168
 30
0.0
  0
POINT
  5
9EC0
  8
DEFPOINTS
 62
     0
 10
5575.3152483060221
 20
5602.7822808602168
 30
0.0
  0
ENDBLK
  5
7300
  8
0
  0
BLOCK
  8
0
  2
*D17
 70
     1
 10
0.0
 20
0.0
 30
0.0
  3
*D17
  1

  0
LINE
  5
9EC1
  8
SUNPOU
 62
     0
 10
5506.450749562795
 20
4791.7822562734818
 30
0.0
 11
5768.1008173045557
 21
4791.7822562734818
 31
0.0
  0
LINE
  5
9EC2
  8
SUNPOU
 62
     0
 10
5296.460157262165
 20
5602.7822808602168
 30
0.0
 11
5768.1008173045557
 21
5602.7822808602168
 31
0.0
  0
LINE
  5
9EC3
  8
SUNPOU
 62
     0
 10
5743.1008173045548
 20
4841.7822562734818
 30
0.0
 11
5743.1008173045548
 21
5552.7822808602168
 31
0.0
  0
SOLID
  5
9EC4
  8
SUNPOU
 62
     0
 10
5734.7674839712217
 20
4841.7822562734818
 30
0.0
 11
5751.4341506378887
 21
4841.7822562734818
 31
0.0
 12
5743.1008173045548
 22
4791.7822562734818
 32
0.0
 13
5743.1008173045548
 23
4791.7822562734818
 33
0.0
  0
SOLID
  5
9EC5
  8
SUNPOU
 62
     0
 10
5734.7674839712217
 20
5552.7822808602168
 30
0.0
 11
5751.4341506378887
 21
5552.7822808602168
 31
0.0
 12
5743.1008173045548
 22
5602.7822808602168
 32
0.0
 13
5743.1008173045548
 23
5602.7822808602168
 33
0.0
  0
TEXT
  8
SUNPOU
  40
75
  5
A15D
  62
0
  72
0
  71
0
 10
5525.60
 20
5064.53
 30
0.000000
  1
811
  7
EXT08
  0
POINT
  5
9EC7
  8
DEFPOINTS
 62
     0
 10
5481.450749562795
 20
4791.7822562734818
 30
0.0
  0
POINT
  5
9EC8
  8
DEFPOINTS
 62
     0
 10
5271.460157262165
 20
5602.7822808602168
 30
0.0
  0
POINT
  5
9EC9
  8
DEFPOINTS
 62
     0
 10
5743.1008173045548
 20
5602.7822808602168
 30
0.0
  0
ENDBLK
  5
7318
  8
0
  0
BLOCK
  8
0
  2
*D18
 70
     1
 10
0.0
 20
0.0
 30
0.0
  3
*D18
  1

  0
LINE
  5
9EE5
  8
SUNPOU
 62
     0
 10
6354.4757552630363
 20
5591.7822808603833
 30
0.0
 11
6633.3308463068934
 21
5591.7822808603833
 31
0.0
  0
LINE
  5
9EE6
  8
SUNPOU
 62
     0
 10
6319.686299928564
 20
5602.7820720671089
 30
0.0
 11
6633.3308463068934
 21
5602.7820720671089
 31
0.0
  0
LINE
  5
9EE7
  8
SUNPOU
 62
     0
 10
6608.3308463068934
 20
5541.7822808603833
 30
0.0
 11
6608.3308463068934
 21
5491.7822808603833
 31
0.0
  0
LINE
  5
9EE8
  8
SUNPOU
 62
     0
 10
6608.3308463068934
 20
5652.7820720671079
 30
0.0
 11
6608.3308463068934
 21
5702.7820720671079
 31
0.0
  0
TEXT
  8
SUNPOU
  40
75
  5
A15E
  62
0
  72
0
  71
0
 10
6382.94
 20
5539.99
 30
0.000000
  1
11
  7
EXT08
  0
LINE
  5
9EEA
  8
SUNPOU
 62
     0
 10
6608.3308463068934
 20
5591.7822808603833
 30
0.0
 11
6608.3308463068934
 21
5602.7820720671089
 31
0.0
  0
SOLID
  5
9EEB
  8
SUNPOU
 62
     0
 10
6599.9975129735603
 20
5541.7822808603833
 30
0.0
 11
6616.6641796402264
 21
5541.7822808603833
 31
0.0
 12
6608.3308463068934
 22
5591.7822808603833
 32
0.0
 13
6608.3308463068934
 23
5591.7822808603833
 33
0.0
  0
SOLID
  5
9EEC
  8
SUNPOU
 62
     0
 10
6599.9975129735603
 20
5652.7820720671079
 30
0.0
 11
6616.6641796402264
 21
5652.7820720671079
 31
0.0
 12
6608.3308463068934
 22
5602.7820720671089
 32
0.0
 13
6608.3308463068934
 23
5602.7820720671089
 33
0.0
  0
POINT
  5
9EED
  8
DEFPOINTS
 62
     0
 10
6329.4757552630363
 20
5591.7822808603833
 30
0.0
  0
POINT
  5
9EEE
  8
DEFPOINTS
 62
     0
 10
6294.686299928564
 20
5602.7820720671089
 30
0.0
  0
POINT
  5
9EEF
  8
DEFPOINTS
 62
     0
 10
6608.3308463068934
 20
5602.7820720671089
 30
0.0
  0
ENDBLK
  5
73E5
  8
0
  0
BLOCK
  8
0
  2
*D19
 70
     1
 10
0.0
 20
0.0
 30
0.0
  3
*D19
  1

  0
LINE
  5
9EF0
  8
SUNPOU
 62
     0
 10
6539.4663475636662
 20
4791.7822562734818
 30
0.0
 11
6801.116415305426
 21
4791.7822562734818
 31
0.0
  0
LINE
  5
9EF1
  8
SUNPOU
 62
     0
 10
6319.686299928564
 20
5602.7820720671089
 30
0.0
 11
6801.116415305426
 21
5602.7820720671089
 31
0.0
  0
LINE
  5
9EF2
  8
SUNPOU
 62
     0
 10
6776.1164153054269
 20
4841.7822562734818
 30
0.0
 11
6776.1164153054269
 21
5552.7820720671089
 31
0.0
  0
SOLID
  5
9EF3
  8
SUNPOU
 62
     0
 10
6767.7830819720939
 20
4841.7822562734818
 30
0.0
 11
6784.44974863876
 21
4841.7822562734818
 31
0.0
 12
6776.1164153054269
 22
4791.7822562734818
 32
0.0
 13
6776.1164153054269
 23
4791.7822562734818
 33
0.0
  0
SOLID
  5
9EF4
  8
SUNPOU
 62
     0
 10
6767.7830819720939
 20
5552.7820720671089
 30
0.0
 11
6784.44974863876
 21
5552.7820720671089
 31
0.0
 12
6776.1164153054269
 22
5602.7820720671089
 32
0.0
 13
6776.1164153054269
 23
5602.7820720671089
 33
0.0
  0
TEXT
  8
SUNPOU
  40
75
  5
A15F
  62
0
  72
0
  71
0
 10
6558.62
 20
5064.53
 30
0.000000
  1
811
  7
EXT08
  0
POINT
  5
9EF6
  8
DEFPOINTS
 62
     0
 10
6514.4663475636662
 20
4791.7822562734818
 30
0.0
  0
POINT
  5
9EF7
  8
DEFPOINTS
 62
     0
 10
6294.686299928564
 20
5602.7820720671089
 30
0.0
  0
POINT
  5
9EF8
  8
DEFPOINTS
 62
     0
 10
6776.1164153054269
 20
5602.7820720671089
 30
0.0
  0
ENDBLK
  5
73F1
  8
0
  0
BLOCK
  8
0
  2
*D20
 70
     1
 10
0.0
 20
0.0
 30
0.0
  3
*D20
  1

  0
LINE
  5
9ECA
  8
SUNPOU
 62
     0
 10
6354.4757552630363
 20
5591.7822808603833
 30
0.0
 11
6633.3308463068934
 21
5591.7822808603833
 31
0.0
  0
LINE
  5
9ECB
  8
SUNPOU
 62
     0
 10
6539.4663475636662
 20
4791.7822562734818
 30
0.0
 11
6633.3308463068934
 21
4791.7822562734818
 31
0.0
  0
LINE
  5
9ECC
  8
SUNPOU
 62
     0
 10
6608.3308463068934
 20
5541.7822808603833
 30
0.0
 11
6608.3308463068934
 21
4841.7822562734818
 31
0.0
  0
SOLID
  5
9ECD
  8
SUNPOU
 62
     0
 10
6599.9975129735603
 20
5541.7822808603833
 30
0.0
 11
6616.6641796402264
 21
5541.7822808603833
 31
0.0
 12
6608.3308463068934
 22
5591.7822808603833
 32
0.0
 13
6608.3308463068934
 23
5591.7822808603833
 33
0.0
  0
SOLID
  5
9ECE
  8
SUNPOU
 62
     0
 10
6599.9975129735603
 20
4841.7822562734818
 30
0.0
 11
6616.6641796402264
 21
4841.7822562734818
 31
0.0
 12
6608.3308463068934
 22
4791.7822562734818
 32
0.0
 13
6608.3308463068934
 23
4791.7822562734818
 33
0.0
  0
TEXT
  8
SUNPOU
  40
75
  5
A160
  62
0
  72
0
  71
0
 10
6390.83
 20
5059.03
 30
0.000000
  1
800
  7
EXT08
  0
POINT
  5
9ED0
  8
DEFPOINTS
 62
     0
 10
6329.4757552630363
 20
5591.7822808603833
 30
0.0
  0
POINT
  5
9ED1
  8
DEFPOINTS
 62
     0
 10
6514.4663475636662
 20
4791.7822562734818
 30
0.0
  0
POINT
  5
9ED2
  8
DEFPOINTS
 62
     0
 10
6608.3308463068934
 20
4791.7822562734818
 30
0.0
  0
ENDBLK
  5
73FD
  8
0
  0
BLOCK
  8
0
  2
*D21
 70
     1
 10
0.0
 20
0.0
 30
0.0
  3
*D21
  1

  0
LINE
  5
9ED3
  8
SUNPOU
 62
     0
 10
6539.4663475636662
 20
4791.7822562734818
 30
0.0
 11
6801.116415305426
 21
4791.7822562734818
 31
0.0
  0
LINE
  5
9ED4
  8
SUNPOU
 62
     0
 10
6349.9360869816637
 20
4591.7822518030844
 30
0.0
 11
6801.116415305426
 21
4591.7822518030844
 31
0.0
  0
LINE
  5
9ED5
  8
SUNPOU
 62
     0
 10
6776.1164153054269
 20
4741.7822562734827
 30
0.0
 11
6776.1164153054269
 21
4641.7822518030844
 31
0.0
  0
TEXT
  8
SUNPOU
  40
75
  5
A161
  62
0
  72
0
  71
0
 10
6553.43
 20
4559.03
 30
0.000000
  1
200
  7
EXT08
  0
SOLID
  5
9ED7
  8
SUNPOU
 62
     0
 10
6767.7830819720939
 20
4741.7822562734827
 30
0.0
 11
6784.44974863876
 21
4741.7822562734827
 31
0.0
 12
6776.1164153054269
 22
4791.7822562734818
 32
0.0
 13
6776.1164153054269
 23
4791.7822562734818
 33
0.0
  0
SOLID
  5
9ED8
  8
SUNPOU
 62
     0
 10
6767.7830819720939
 20
4641.7822518030844
 30
0.0
 11
6784.44974863876
 21
4641.7822518030844
 31
0.0
 12
6776.1164153054269
 22
4591.7822518030844
 32
0.0
 13
6776.1164153054269
 23
4591.7822518030844
 33
0.0
  0
POINT
  5
9ED9
  8
DEFPOINTS
 62
     0
 10
6514.4663475636662
 20
4791.7822562734818
 30
0.0
  0
POINT
  5
9EDA
  8
DEFPOINTS
 62
     0
 10
6324.9360869816637
 20
4591.7822518030844
 30
0.0
  0
POINT
  5
9EDB
  8
DEFPOINTS
 62
     0
 10
6776.1164153054269
 20
4591.7822518030844
 30
0.0
  0
ENDBLK
  5
7409
  8
0
  0
BLOCK
  8
0
  2
*D22
 70
     1
 10
0.0
 20
0.0
 30
0.0
  3
*D22
  1

  0
LINE
  5
9EDC
  8
SUNPOU
 62
     0
 10
6319.686299928564
 20
5602.7820720671089
 30
0.0
 11
6959.0517262641079
 21
5602.7820720671089
 31
0.0
  0
LINE
  5
9EDD
  8
SUNPOU
 62
     0
 10
6349.9360869816637
 20
4591.7822518030844
 30
0.0
 11
6959.0517262641079
 21
4591.7822518030844
 31
0.0
  0
LINE
  5
9EDE
  8
SUNPOU
 62
     0
 10
6934.0517262641079
 20
5552.7820720671089
 30
0.0
 11
6934.0517262641079
 21
4641.7822518030844
 31
0.0
  0
SOLID
  5
9EDF
  8
SUNPOU
 62
     0
 10
6925.7183929307739
 20
5552.7820720671089
 30
0.0
 11
6942.3850595974409
 21
5552.7820720671089
 31
0.0
 12
6934.0517262641079
 22
5602.7820720671089
 32
0.0
 13
6934.0517262641079
 23
5602.7820720671089
 33
0.0
  0
SOLID
  5
9EE0
  8
SUNPOU
 62
     0
 10
6925.7183929307739
 20
4641.7822518030844
 30
0.0
 11
6942.3850595974409
 21
4641.7822518030844
 31
0.0
 12
6934.0517262641079
 22
4591.7822518030844
 32
0.0
 13
6934.0517262641079
 23
4591.7822518030844
 33
0.0
  0
TEXT
  8
SUNPOU
  40
75
  5
A162
  62
0
  72
0
  71
0
 10
6716.55
 20
4964.53
 30
0.000000
  1
1011
  7
EXT08
  0
POINT
  5
9EE2
  8
DEFPOINTS
 62
     0
 10
6294.686299928564
 20
5602.7820720671089
 30
0.0
  0
POINT
  5
9EE3
  8
DEFPOINTS
 62
     0
 10
6324.9360869816637
 20
4591.7822518030844
 30
0.0
  0
POINT
  5
9EE4
  8
DEFPOINTS
 62
     0
 10
6934.0517262641079
 20
4591.7822518030844
 30
0.0
  0
ENDBLK
  5
7415
  8
0
  0
BLOCK
  8
0
  2
*D23
 70
     1
 10
0.0
 20
0.0
 30
0.0
  3
*D23
  1

  0
LINE
  5
9EF9
  8
SUNPOU
 62
     0
 10
7376.1093201123949
 20
5591.7822808603833
 30
0.0
 11
7718.7087110688408
 21
5591.7822808603833
 31
0.0
  0
LINE
  5
9EFA
  8
SUNPOU
 62
     0
 10
7593.1730222117358
 20
4791.7822562734818
 30
0.0
 11
7718.7087110688408
 21
4791.7822562734818
 31
0.0
  0
LINE
  5
9EFB
  8
SUNPOU
 62
     0
 10
7693.7087110688408
 20
5541.7822808603833
 30
0.0
 11
7693.7087110688408
 21
4841.7822562734818
 31
0.0
  0
SOLID
  5
9EFC
  8
SUNPOU
 62
     0
 10
7685.3753777355078
 20
5541.7822808603833
 30
0.0
 11
7702.0420444021729
 21
5541.7822808603833
 31
0.0
 12
7693.7087110688408
 22
5591.7822808603833
 32
0.0
 13
7693.7087110688408
 23
5591.7822808603833
 33
0.0
  0
SOLID
  5
9EFD
  8
SUNPOU
 62
     0
 10
7685.3753777355078
 20
4841.7822562734818
 30
0.0
 11
7702.0420444021729
 21
4841.7822562734818
 31
0.0
 12
7693.7087110688408
 22
4791.7822562734818
 32
0.0
 13
7693.7087110688408
 23
4791.7822562734818
 33
0.0
  0
TEXT
  8
SUNPOU
  40
75
  5
A163
  62
0
  72
0
  71
0
 10
7476.21
 20
5059.03
 30
0.000000
  1
800
  7
EXT08
  0
POINT
  5
9EFF
  8
DEFPOINTS
 62
     0
 10
7351.1093201123958
 20
5591.7822808603833
 30
0.0
  0
POINT
  5
9F00
  8
DEFPOINTS
 62
     0
 10
7568.1730222117367
 20
4791.7822562734818
 30
0.0
  0
POINT
  5
9F01
  8
DEFPOINTS
 62
     0
 10
7693.7087110688408
 20
4791.7822562734818
 30
0.0
  0
ENDBLK
  5
7479
  8
0
  0
BLOCK
  8
0
  2
*D24
 70
     1
 10
0.0
 20
0.0
 30
0.0
  3
*D24
  1

  0
LINE
  5
9F02
  8
SUNPOU
 62
     0
 10
7593.1730222117358
 20
4791.7822562734818
 30
0.0
 11
7886.4942800673743
 21
4791.7822562734818
 31
0.0
  0
LINE
  5
9F03
  8
SUNPOU
 62
     0
 10
7406.3598701048941
 20
4191.7822562734827
 30
0.0
 11
7886.4942800673743
 21
4191.7822562734827
 31
0.0
  0
LINE
  5
9F04
  8
SUNPOU
 62
     0
 10
7861.4942800673753
 20
4741.7822562734827
 30
0.0
 11
7861.4942800673753
 21
4241.7822562734827
 31
0.0
  0
SOLID
  5
9F05
  8
SUNPOU
 62
     0
 10
7853.1609467340422
 20
4741.7822562734827
 30
0.0
 11
7869.8276134007074
 21
4741.7822562734827
 31
0.0
 12
7861.4942800673753
 22
4791.7822562734818
 32
0.0
 13
7861.4942800673753
 23
4791.7822562734818
 33
0.0
  0
SOLID
  5
9F06
  8
SUNPOU
 62
     0
 10
7853.1609467340422
 20
4241.7822562734827
 30
0.0
 11
7869.8276134007074
 21
4241.7822562734827
 31
0.0
 12
7861.4942800673753
 22
4191.7822562734827
 32
0.0
 13
7861.4942800673753
 23
4191.7822562734827
 33
0.0
  0
TEXT
  8
SUNPOU
  40
75
  5
A164
  62
0
  72
0
  71
0
 10
7643.99
 20
4359.03
 30
0.000000
  1
1000
  7
EXT08
  0
POINT
  5
9F08
  8
DEFPOINTS
 62
     0
 10
7568.1730222117367
 20
4791.7822562734818
 30
0.0
  0
POINT
  5
9F09
  8
DEFPOINTS
 62
     0
 10
7381.3598701048941
 20
4191.7822562734827
 30
0.0
  0
POINT
  5
9F0A
  8
DEFPOINTS
 62
     0
 10
7861.4942800673753
 20
4191.7822562734827
 30
0.0
  0
ENDBLK
  5
7485
  8
0
  0
BLOCK
  8
0
  2
*D25
 70
     1
 10
0.0
 20
0.0
 30
0.0
  3
*D25
  1

  0
LINE
  5
9F0B
  8
SUNPOU
 62
     0
 10
7376.1093201123949
 20
5602.7820720671089
 30
0.0
 11
8044.4295910260553
 21
5602.7820720671089
 31
0.0
  0
LINE
  5
9F0C
  8
SUNPOU
 62
     0
 10
7406.3598701048941
 20
4191.7822562734827
 30
0.0
 11
8044.4295910260553
 21
4191.7822562734827
 31
0.0
  0
LINE
  5
9F0D
  8
SUNPOU
 62
     0
 10
8019.4295910260553
 20
5552.7820720671089
 30
0.0
 11
8019.4295910260553
 21
4241.7822562734827
 31
0.0
  0
SOLID
  5
9F0E
  8
SUNPOU
 62
     0
 10
8011.0962576927222
 20
5552.7820720671089
 30
0.0
 11
8027.7629243593883
 21
5552.7820720671089
 31
0.0
 12
8019.4295910260553
 22
5602.7820720671089
 32
0.0
 13
8019.4295910260553
 23
5602.7820720671089
 33
0.0
  0
SOLID
  5
9F0F
  8
SUNPOU
 62
     0
 10
8011.0962576927222
 20
4241.7822562734827
 30
0.0
 11
8027.7629243593883
 21
4241.7822562734827
 31
0.0
 12
8019.4295910260553
 22
4191.7822562734827
 32
0.0
 13
8019.4295910260553
 23
4191.7822562734827
 33
0.0
  0
TEXT
  8
SUNPOU
  40
75
  5
A165
  62
0
  72
0
  71
0
 10
7801.93
 20
4764.53
 30
0.000000
  1
1811
  7
EXT08
  0
POINT
  5
9F11
  8
DEFPOINTS
 62
     0
 10
7351.1093201123958
 20
5602.7820720671089
 30
0.0
  0
POINT
  5
9F12
  8
DEFPOINTS
 62
     0
 10
7381.3598701048941
 20
4191.7822562734827
 30
0.0
  0
POINT
  5
9F13
  8
DEFPOINTS
 62
     0
 10
8019.4295910260553
 20
4191.7822562734827
 30
0.0
  0
ENDBLK
  5
7491
  8
0
  0
BLOCK
  8
0
  2
*D26
 70
     1
 10
0.0
 20
0.0
 30
0.0
  3
*D26
  1

  0
LINE
  5
9F14
  8
SUNPOU
 62
     0
 10
7376.1093201123949
 20
5591.7822808603833
 30
0.0
 11
7718.7087110688408
 21
5591.7822808603833
 31
0.0
  0
LINE
  5
9F15
  8
SUNPOU
 62
     0
 10
7376.1093201123949
 20
5602.7820720671089
 30
0.0
 11
7718.7087110688408
 21
5602.7820720671089
 31
0.0
  0
LINE
  5
9F16
  8
SUNPOU
 62
     0
 10
7693.7087110688408
 20
5541.7822808603833
 30
0.0
 11
7693.7087110688408
 21
5491.7822808603833
 31
0.0
  0
LINE
  5
9F17
  8
SUNPOU
 62
     0
 10
7693.7087110688408
 20
5652.7820720671079
 30
0.0
 11
7693.7087110688408
 21
5702.7820720671079
 31
0.0
  0
TEXT
  8
SUNPOU
  40
75
  5
A166
  62
0
  72
0
  71
0
 10
7468.32
 20
5539.99
 30
0.000000
  1
11
  7
EXT08
  0
LINE
  5
9F19
  8
SUNPOU
 62
     0
 10
7693.7087110688408
 20
5591.7822808603833
 30
0.0
 11
7693.7087110688408
 21
5602.7820720671089
 31
0.0
  0
SOLID
  5
9F1A
  8
SUNPOU
 62
     0
 10
7685.3753777355078
 20
5541.7822808603833
 30
0.0
 11
7702.0420444021729
 21
5541.7822808603833
 31
0.0
 12
7693.7087110688408
 22
5591.7822808603833
 32
0.0
 13
7693.7087110688408
 23
5591.7822808603833
 33
0.0
  0
SOLID
  5
9F1B
  8
SUNPOU
 62
     0
 10
7685.3753777355078
 20
5652.7820720671079
 30
0.0
 11
7702.0420444021729
 21
5652.7820720671079
 31
0.0
 12
7693.7087110688408
 22
5602.7820720671089
 32
0.0
 13
7693.7087110688408
 23
5602.7820720671089
 33
0.0
  0
POINT
  5
9F1C
  8
DEFPOINTS
 62
     0
 10
7351.1093201123958
 20
5591.7822808603833
 30
0.0
  0
POINT
  5
9F1D
  8
DEFPOINTS
 62
     0
 10
7351.1093201123958
 20
5602.7820720671089
 30
0.0
  0
POINT
  5
9F1E
  8
DEFPOINTS
 62
     0
 10
7693.7087110688408
 20
5602.7820720671089
 30
0.0
  0
ENDBLK
  5
749F
  8
0
  0
BLOCK
  8
0
  2
*D27
 70
     1
 10
0.0
 20
0.0
 30
0.0
  3
*D27
  1

  0
LINE
  5
9F1F
  8
SUNPOU
 62
     0
 10
7593.1730222117358
 20
4791.7822562734818
 30
0.0
 11
7886.4942800673743
 21
4791.7822562734818
 31
0.0
  0
LINE
  5
9F20
  8
SUNPOU
 62
     0
 10
7376.1093201123949
 20
5602.7820720671089
 30
0.0
 11
7886.4942800673743
 21
5602.7820720671089
 31
0.0
  0
LINE
  5
9F21
  8
SUNPOU
 62
     0
 10
7861.4942800673753
 20
4841.7822562734818
 30
0.0
 11
7861.4942800673753
 21
5552.7820720671089
 31
0.0
  0
SOLID
  5
9F22
  8
SUNPOU
 62
     0
 10
7853.1609467340422
 20
4841.7822562734818
 30
0.0
 11
7869.8276134007074
 21
4841.7822562734818
 31
0.0
 12
7861.4942800673753
 22
4791.7822562734818
 32
0.0
 13
7861.4942800673753
 23
4791.7822562734818
 33
0.0
  0
SOLID
  5
9F23
  8
SUNPOU
 62
     0
 10
7853.1609467340422
 20
5552.7820720671089
 30
0.0
 11
7869.8276134007074
 21
5552.7820720671089
 31
0.0
 12
7861.4942800673753
 22
5602.7820720671089
 32
0.0
 13
7861.4942800673753
 23
5602.7820720671089
 33
0.0
  0
TEXT
  8
SUNPOU
  40
75
  5
A167
  62
0
  72
0
  71
0
 10
7643.99
 20
5064.53
 30
0.000000
  1
811
  7
EXT08
  0
POINT
  5
9F25
  8
DEFPOINTS
 62
     0
 10
7568.1730222117367
 20
4791.7822562734818
 30
0.0
  0
POINT
  5
9F26
  8
DEFPOINTS
 62
     0
 10
7351.1093201123958
 20
5602.7820720671089
 30
0.0
  0
POINT
  5
9F27
  8
DEFPOINTS
 62
     0
 10
7861.4942800673753
 20
5602.7820720671089
 30
0.0
  0
ENDBLK
  5
74AB
  8
0
  0
BLOCK
  8
0
  2
*D28
 70
     1
 10
0.0
 20
0.0
 30
0.0
  3
*D28
  1

  0
LINE
  5
9F28
  8
SUNPOU
 62
     0
 10
8561.3181751811353
 20
5591.7820013138926
 30
0.0
 11
8958.9821282250796
 21
5591.7820013138926
 31
0.0
  0
LINE
  5
9F29
  8
SUNPOU
 62
     0
 10
8731.1755424215371
 20
4791.7822562734818
 30
0.0
 11
8958.9821282250796
 21
4791.7822562734818
 31
0.0
  0
LINE
  5
9F2A
  8
SUNPOU
 62
     0
 10
8933.9821282250778
 20
5541.7820013138926
 30
0.0
 11
8933.9821282250778
 21
4841.7822562734818
 31
0.0
  0
SOLID
  5
9F2B
  8
SUNPOU
 62
     0
 10
8925.6487948917438
 20
5541.7820013138926
 30
0.0
 11
8942.3154615584135
 21
5541.7820013138926
 31
0.0
 12
8933.9821282250778
 22
5591.7820013138926
 32
0.0
 13
8933.9821282250778
 23
5591.7820013138926
 33
0.0
  0
SOLID
  5
9F2C
  8
SUNPOU
 62
     0
 10
8925.6487948917438
 20
4841.7822562734818
 30
0.0
 11
8942.3154615584135
 21
4841.7822562734818
 31
0.0
 12
8933.9821282250778
 22
4791.7822562734818
 32
0.0
 13
8933.9821282250778
 23
4791.7822562734818
 33
0.0
  0
TEXT
  8
SUNPOU
  40
75
  5
A168
  62
0
  72
0
  71
0
 10
8716.48
 20
5059.03
 30
0.000000
  1
800
  7
EXT08
  0
POINT
  5
9F2E
  8
DEFPOINTS
 62
     0
 10
8536.3181751811353
 20
5591.7820013138926
 30
0.0
  0
POINT
  5
9F2F
  8
DEFPOINTS
 62
     0
 10
8706.1755424215371
 20
4791.7822562734818
 30
0.0
  0
POINT
  5
9F30
  8
DEFPOINTS
 62
     0
 10
8933.9821282250778
 20
4791.7822562734818
 30
0.0
  0
ENDBLK
  5
7532
  8
0
  0
BLOCK
  8
0
  2
*D29
 70
     1
 10
0.0
 20
0.0
 30
0.0
  3
*D29
  1

  0
LINE
  5
9F31
  8
SUNPOU
 62
     0
 10
8561.3181751811353
 20
5591.7820013138926
 30
0.0
 11
8958.9821282250796
 21
5591.7820013138926
 31
0.0
  0
LINE
  5
9F32
  8
SUNPOU
 62
     0
 10
8561.3181751811353
 20
5602.7822808602168
 30
0.0
 11
8958.9821282250796
 21
5602.7822808602168
 31
0.0
  0
LINE
  5
9F33
  8
SUNPOU
 62
     0
 10
8933.9821282250778
 20
5541.7820013138926
 30
0.0
 11
8933.9821282250778
 21
5491.7820013138926
 31
0.0
  0
LINE
  5
9F34
  8
SUNPOU
 62
     0
 10
8933.9821282250778
 20
5652.7822808602168
 30
0.0
 11
8933.9821282250778
 21
5702.7822808602159
 31
0.0
  0
TEXT
  8
SUNPOU
  40
75
  5
A169
  62
0
  72
0
  71
0
 10
8711.86
 20
5539.99
 30
0.000000
  1
11
  7
EXT08
  0
LINE
  5
9F36
  8
SUNPOU
 62
     0
 10
8933.9821282250778
 20
5591.7820013138926
 30
0.0
 11
8933.9821282250778
 21
5602.7822808602168
 31
0.0
  0
SOLID
  5
9F37
  8
SUNPOU
 62
     0
 10
8925.6487948917438
 20
5541.7820013138926
 30
0.0
 11
8942.3154615584135
 21
5541.7820013138926
 31
0.0
 12
8933.9821282250778
 22
5591.7820013138926
 32
0.0
 13
8933.9821282250778
 23
5591.7820013138926
 33
0.0
  0
SOLID
  5
9F38
  8
SUNPOU
 62
     0
 10
8925.6487948917438
 20
5652.7822808602168
 30
0.0
 11
8942.3154615584135
 21
5652.7822808602168
 31
0.0
 12
8933.9821282250778
 22
5602.7822808602168
 32
0.0
 13
8933.9821282250778
 23
5602.7822808602168
 33
0.0
  0
POINT
  5
9F39
  8
DEFPOINTS
 62
     0
 10
8536.3181751811353
 20
5591.7820013138926
 30
0.0
  0
POINT
  5
9F3A
  8
DEFPOINTS
 62
     0
 10
8536.3181751811353
 20
5602.7822808602168
 30
0.0
  0
POINT
  5
9F3B
  8
DEFPOINTS
 62
     0
 10
8933.9821282250778
 20
5602.7822808602168
 30
0.0
  0
ENDBLK
  5
7540
  8
0
  0
BLOCK
  8
0
  2
*D30
 70
     1
 10
0.0
 20
0.0
 30
0.0
  3
*D30
  1

  0
LINE
  5
9F3C
  8
SUNPOU
 62
     0
 10
8731.1755424215371
 20
4791.7822562734818
 30
0.0
 11
9126.7676972236113
 21
4791.7822562734818
 31
0.0
  0
LINE
  5
9F3D
  8
SUNPOU
 62
     0
 10
8561.3181751811353
 20
5602.7822808602168
 30
0.0
 11
9126.7676972236113
 21
5602.7822808602168
 31
0.0
  0
LINE
  5
9F3E
  8
SUNPOU
 62
     0
 10
9101.7676972236113
 20
4841.7822562734818
 30
0.0
 11
9101.7676972236113
 21
5552.7822808602168
 31
0.0
  0
SOLID
  5
9F3F
  8
SUNPOU
 62
     0
 10
9093.4343638902774
 20
4841.7822562734818
 30
0.0
 11
9110.1010305569453
 21
4841.7822562734818
 31
0.0
 12
9101.7676972236113
 22
4791.7822562734818
 32
0.0
 13
9101.7676972236113
 23
4791.7822562734818
 33
0.0
  0
SOLID
  5
9F40
  8
SUNPOU
 62
     0
 10
9093.4343638902774
 20
5552.7822808602168
 30
0.0
 11
9110.1010305569453
 21
5552.7822808602168
 31
0.0
 12
9101.7676972236113
 22
5602.7822808602168
 32
0.0
 13
9101.7676972236113
 23
5602.7822808602168
 33
0.0
  0
TEXT
  8
SUNPOU
  40
75
  5
A16A
  62
0
  72
0
  71
0
 10
8884.27
 20
5064.53
 30
0.000000
  1
811
  7
EXT08
  0
POINT
  5
9F42
  8
DEFPOINTS
 62
     0
 10
8706.1755424215371
 20
4791.7822562734818
 30
0.0
  0
POINT
  5
9F43
  8
DEFPOINTS
 62
     0
 10
8536.3181751811353
 20
5602.7822808602168
 30
0.0
  0
POINT
  5
9F44
  8
DEFPOINTS
 62
     0
 10
9101.7676972236113
 20
5602.7822808602168
 30
0.0
  0
ENDBLK
  5
754C
  8
0
  0
BLOCK
  8
0
  2
*D31
 70
     1
 10
0.0
 20
0.0
 30
0.0
  3
*D31
  1

  0
LINE
  5
9F4D
  8
SUNPOU
 62
     0
 10
2834.456907463345
 20
5632.7826474289832
 30
0.0
 11
2834.456907463345
 21
6096.9962198166841
 31
0.0
  0
LINE
  5
9F4E
  8
SUNPOU
 62
     0
 10
2884.456907463345
 20
6071.9962198166841
 30
0.0
 11
4491.3139012210386
 21
6071.9962198166841
 31
0.0
  0
SOLID
  5
9F4F
  8
SUNPOU
 62
     0
 10
2884.456907463345
 20
6080.3295531500171
 30
0.0
 11
2884.456907463345
 21
6063.662886483351
 31
0.0
 12
2834.456907463345
 22
6071.9962198166841
 32
0.0
 13
2834.456907463345
 23
6071.9962198166841
 33
0.0
  0
TEXT
  8
SUNPOU
  40
75
  5
A16B
  62
0
  72
0
  71
0
 10
3537.89
 20
6006.75
 30
0.000000
  1
2000
  7
EXT08
  0
POINT
  5
9F51
  8
DEFPOINTS
 62
     0
 10
2834.456907463345
 20
5607.7826474289832
 30
0.0
  0
POINT
  5
9F52
  8
DEFPOINTS
 62
     0
 10
4491.3139012210386
 20
5647.0217332053244
 30
0.0
  0
POINT
  5
9F53
  8
DEFPOINTS
 62
     0
 10
4491.3139012210386
 20
6071.9962198166841
 30
0.0
  0
ENDBLK
  5
7811
  8
0
  0
BLOCK
  8
0
  2
部材表-樹脂キャップT-40PL
 70
     0
 10
0.0
 20
0.0
 30
0.0
  3
部材表-樹脂キャップT-40PL
  1
C:\Documents and Settings\SJC\デスクトップ\G_T-40\ブロックT-40\T-40柵部材表\部材表-樹脂キャップT-40PL.dwg
  0
TEXT
  5
9375
  8
INFORMATION
 10
1.0
 20
1.0
 30
0.0
 40
0.8
  1
VERSION=3.0
 41
0.8
  7
EXT08
  0
LINE
  5
9376
  8
MOJI
 10
-0.0000000000011693
 20
999.99999999999955
 30
0.0
 11
0.0000000000019488
 21
0.0
 31
0.0
  0
LINE
  5
9377
  8
MOJI
 10
954.54857206369843
 20
999.99999999999955
 30
0.0
 11
954.54857206369729
 21
0.0000000000002274
 31
0.0
  0
LINE
  5
9378
  8
MOJI
 10
514.03421639559701
 20
999.99999999999955
 30
0.0
 11
514.03421639559576
 21
0.0000000000002274
 31
0.0
  0
LINE
  5
9379
  8
MOJI
 10
1952.958519234598
 20
999.99999999999955
 30
0.0
 11
1952.9585192346019
 21
0.0000000000002274
 31
0.0
  0
TEXT
  5
937A
  8
MOJI
 10
-0.0000000000000117
 20
-109.37099251547249
 30
0.0
 40
75.0
  1
《注記》部品は場合により多少変更することがあります。
 41
0.8
  7
EXT08
 11
-0.0000000000000071
 21
-34.370992515472501
 31
0.0
 73
     3
  0
INSERT
  5
937B
  8
SJC
  2
元部材表-樹脂キャップT-40
 10
0.0
 20
249.99999999999989
 30
0.0
  0
TEXT
  5
937C
  8
MOJI
 10
595.55917995562004
 20
24.999999999999009
 30
0.0
 40
75.0
  1
4.6相当
 41
0.8
  7
EXT08
 72
     4
 11
733.2734656699057
 21
62.499999999998998
 31
0.0
  0
LINE
  5
937D
  8
MOJI
 10
-0.0000000000019488
 20
125.0
 30
0.0
 11
1952.9585192346019
 21
125.0
 31
0.0
  0
LINE
  5
937E
  8
MOJI
 10
-0.0000000000019488
 20
0.0
 30
0.0
 11
1952.9585192346019
 21
0.0
 31
0.0
  0
TEXT
  5
937F
  8
MOJI
 10
1105.353338242717
 20
147.5944388799239
 30
0.0
 40
74.999999987500004
  1
溶融亜鉛めっき M12
 41
0.8
  7
EXT08
 72
     1
 11
1462.4961953260499
 21
147.5944388799239
 31
0.0
  0
TEXT
  5
9380
  8
MOJI
 10
1009.6222930368471
 20
22.59443887992396
 30
0.0
 40
74.999999987500004
  1
溶融亜鉛めっき M12×30
 41
0.8
  7
EXT08
 72
     1
 11
1459.908007247514
 21
22.59443887992396
 31
0.0
  0
TEXT
  5
9381
  8
MOJI
 10
88.468488757376534
 20
17.880618549507322
 30
0.0
 40
74.999999987500004
  1
取付ボルト
 41
0.8
  7
EXT08
 72
     1
 11
254.46848872970989
 21
17.880618549507322
 31
0.0
  0
TEXT
  5
9382
  8
MOJI
 10
21.42242127500435
 20
143.54228365518901
 30
0.0
 40
74.999999987500004
  1
ナットアンカー
 41
0.8
  7
EXT08
 72
     1
 11
265.42242123433778
 21
143.54228365518901
 31
0.0
  0
ENDBLK
  5
78A2
  8
0
  0
BLOCK
  8
0
  2
BPL-横25
 70
     0
 10
0.0
 20
0.0
 30
0.0
  3
BPL-横25
  1
C:\Documents and Settings\SJC\デスクトップ\G_T-40\ブロックT-40\T-40柵BPL図\BPL-横25.dwg
  0
TEXT
  5
9390
  8
INFORMATION
 10
1.0
 20
2.0
 30
0.0
 40
0.8
  1
PLOTTER=CALCOMP_TECHJET720
  0
TEXT
  5
9391
  8
INFORMATION
 10
1.0
 20
3.0
 30
0.0
 40
0.8
  1
PAPER=A3
  0
TEXT
  5
9392
  8
INFORMATION
 10
1.0
 20
1.0
 30
0.0
 40
0.8
  1
VERSION=3.0
  0
TEXT
  5
9393
  8
MOJI
 10
-1444.644724690912
 20
-576.71847601125035
 30
0.0
 40
75.0
  1
(ドリル径%%c18,深さ55mm)
 50
359.99972432623952
 41
0.8
  7
EXT08
  0
INSERT
  5
9394
  8
0
  2
*U86
 10
0.0
 20
0.0
 30
0.0
1001
ACAD
1000
DSTYLE
1002
{
1070
     5
1000

1070
    40
1040
25.0
1070
    41
1040
2.0
1070
    42
1040
1.0
1070
    43
1040
6.0
1070
    44
1040
1.0
1070
    73
1070
     0
1070
    74
1070
     0
1070
    77
1070
     1
1070
    78
1070
     8
1070
   140
1040
3.0
1070
   144
1040
0.4
1070
   147
1040
1.1999999999999991
1070
   172
1070
     1
1070
   271
1070
     2
1070
   279
1070
     2
1070
   340
1005
BA4
1070
   342
1005
0
1002
}
  0
LINE
  5
9395
  8
MOJI
 10
-457.3207890822232
 20
-479.4132779993073
 30
0.0
 11
-1434.8974231437969
 21
-479.40852140978768
 31
0.0
  0
LINE
  5
9396
  8
MOJI
 10
-191.16096779213871
 20
252.26523803478219
 30
0.0
 11
-501.97320949365161
 21
252.26523803478219
 31
0.0
  0
LINE
  5
9397
  8
MOJI
 10
-214.7836709330804
 20
-131.91885834530009
 30
0.0
 11
-399.7484060345796
 21
-131.91885834530009
 31
0.0
  0
TEXT
  5
9398
  8
MOJI
 10
-388.15425481685639
 20
-114.116248636506
 30
0.0
 40
75.0
  1
%%c50
 41
0.8
  7
EXT08
 72
     2
 11
-228.15425481685631
 21
-76.616248636506043
 31
0.0
 73
     2
  0
DIMENSION
  5
9399
  8
SUNPOU
  2
*D46
 10
-187.5
 20
-379.94527274117081
 30
0.0
 11
-266.38325062443079
 21
-312.44527274117081
 31
0.0
 70
   128
  3
SJC
 13
-125.0
 23
-187.5000000000004
 33
0.0
 14
-187.5
 24
-187.5000000000004
 34
0.0
1001
ACAD
1000
DSTYLE
1002
{
1070
   287
1070
     5
1070
    40
1040
25.0
1070
    41
1040
2.0
1070
    42
1040
1.0
1070
    43
1040
6.0
1070
    44
1040
1.0
1070
    73
1070
     0
1070
    74
1070
     0
1070
    77
1070
     1
1070
    78
1070
     8
1070
   140
1040
3.0
1070
   144
1040
0.4
1070
   147
1040
0.8
1070
   172
1070
     1
1070
   271
1070
     2
1070
   279
1070
     2
1070
   340
1005
BA4
1002
}
  0
TEXT
  5
93A8
  8
MOJI
 10
-495.960123104486
 20
274.52064776049929
 30
0.0
 40
75.0
  1
4-%%c22
 41
0.8
  7
EXT08
 72
     2
 11
-204.5315516759147
 21
312.02064776049929
 31
0.0
 73
     2
  0
TEXT
  5
93A9
  8
MOJI
 10
-1342.0561993788051
 20
-453.02242072167508
 30
0.0
 40
75.0
  1
ナットアンカー M12
 50
359.99972432623952
 41
0.8
  7
EXT08
  0
TEXT
  5
93AA
  8
MOJI
 10
-1417.4925617846
 20
-89.864055942733103
 30
0.0
 40
75.0
  1
M12×30
 50
359.99972432623952
 41
0.8
  7
EXT08
  0
LINE
  5
93AB
  8
MOJI
 10
-1023.574538483029
 20
3.6688702293049569
 30
0.0
 11
-1415.798696298117
 21
3.6715325272489281
 31
0.0
  0
TEXT
  5
93AC
  8
MOJI
 10
-1405.583366069879
 20
28.628555467927079
 30
0.0
 40
75.0
  1
取付ボルト
 50
359.99972432623952
 41
0.8
  7
EXT08
  0
DIMENSION
  5
93AD
  8
SUNPOU
  2
*D47
 10
464.56547122827033
 20
187.49999999999989
 30
0.0
 11
397.06547122827033
 21
257.29653190508589
 31
0.0
 70
   128
  3
SJC
 13
187.5
 23
125.0
 33
0.0
 14
187.5
 24
187.5
 34
0.0
 50
90.0
1001
ACAD
1000
DSTYLE
1002
{
1070
   287
1070
     5
1070
    40
1040
25.0
1070
    41
1040
2.0
1070
    42
1040
1.0
1070
    43
1040
6.0
1070
    44
1040
1.0
1070
    73
1070
     0
1070
    74
1070
     0
1070
    77
1070
     1
1070
    78
1070
     8
1070
   140
1040
3.0
1070
   144
1040
0.4
1070
   147
1040
0.8
1070
   172
1070
     1
1070
   271
1070
     2
1070
   279
1070
     2
1070
   340
1005
BA4
1002
}
  0
INSERT
  5
93BC
  8
0
  2
*U89
 10
0.0
 20
0.0
 30
0.0
1001
ACAD
1000
DSTYLE
1002
{
1070
     5
1000

1070
    40
1040
25.0
1070
    41
1040
2.0
1070
    42
1040
1.0
1070
    43
1040
6.0
1070
    44
1040
1.0
1070
    73
1070
     0
1070
    74
1070
     0
1070
    77
1070
     1
1070
    78
1070
     8
1070
   140
1040
3.0
1070
   144
1040
0.4
1070
   147
1040
1.1999999999999991
1070
   172
1070
     1
1070
   271
1070
     2
1070
   279
1070
     2
1070
   340
1005
BA4
1070
   342
1005
0
1002
}
  0
DIMENSION
  5
93BD
  8
SUNPOU
  2
*D48
 10
619.78950501734835
 20
-187.5000000000006
 30
0.0
 11
562.28950501734835
 21
-0.0000000000002583
 31
0.0
  3
SJC
 13
187.5
 23
187.5
 33
0.0
 14
187.5
 24
-187.5000000000004
 34
0.0
 50
90.0
1001
ACAD
1000
DSTYLE
1002
{
1070
   287
1070
     5
1070
    40
1040
25.0
1070
    41
1040
2.0
1070
    42
1040
1.0
1070
    43
1040
6.0
1070
    44
1040
1.0
1070
    73
1070
     0
1070
    74
1070
     0
1070
    77
1070
     1
1070
    78
1070
     8
1070
   140
1040
3.0
1070
   144
1040
0.4
1070
   147
1040
0.8
1070
   172
1070
     1
1070
   271
1070
     2
1070
   279
1070
     2
1070
   340
1005
BA4
1002
}
  0
DIMENSION
  5
93CA
  8
SUNPOU
  2
*D49
 10
-187.5
 20
-519.43421282292434
 30
0.0
 11
-0.0000000000000249
 21
-461.93421282292428
 31
0.0
  3
SJC
 13
187.5
 23
-187.5000000000004
 33
0.0
 14
-187.5
 24
-187.5000000000004
 34
0.0
1001
ACAD
1000
DSTYLE
1002
{
1070
   287
1070
     5
1070
   287
1070
     5
1070
   287
1070
     5
1070
   287
1070
     5
1070
    40
1040
25.0
1070
    41
1040
2.0
1070
    42
1040
1.0
1070
    43
1040
6.0
1070
    44
1040
1.0
1070
    73
1070
     0
1070
    74
1070
     0
1070
    77
1070
     1
1070
    78
1070
     8
1070
   140
1040
3.0
1070
   144
1040
0.4
1070
   147
1040
0.8
1070
   172
1070
     1
1070
   271
1070
     2
1070
   279
1070
     2
1070
   340
1005
BA4
1002
}
  0
DIMENSION
  5
93D7
  8
SUNPOU
  2
*D50
 10
187.5
 20
-379.94527274117081
 30
0.0
 11
263.7979897210152
 21
-309.78470103330028
 31
0.0
 70
   128
  3
SJC
 13
125.0
 23
-187.5000000000004
 33
0.0
 14
187.5
 24
-187.5000000000004
 34
0.0
1001
ACAD
1000
DSTYLE
1002
{
1070
   287
1070
     5
1070
   287
1070
     5
1070
   287
1070
     5
1070
   287
1070
     5
1070
    40
1040
25.0
1070
    41
1040
2.0
1070
    42
1040
1.0
1070
    43
1040
6.0
1070
    44
1040
1.0
1070
    73
1070
     0
1070
    74
1070
     0
1070
    77
1070
     1
1070
    78
1070
     8
1070
   140
1040
3.0
1070
   144
1040
0.4
1070
   147
1040
1.1999999999999991
1070
   172
1070
     1
1070
   271
1070
     2
1070
   279
1070
     2
1070
   340
1005
BA4
1002
}
  0
DIMENSION
  5
93E6
  8
SUNPOU
  2
*D51
 10
-125.0
 20
-379.94527274117081
 30
0.0
 11
-0.0000000000000107
 21
-322.44527274117081
 31
0.0
  3
SJC
 13
125.0
 23
-187.5000000000004
 33
0.0
 14
-125.0
 24
-187.5000000000004
 34
0.0
1001
ACAD
1000
DSTYLE
1002
{
1070
   287
1070
     5
1070
    40
1040
25.0
1070
    41
1040
2.0
1070
    42
1040
1.0
1070
    43
1040
6.0
1070
    44
1040
1.0
1070
    73
1070
     0
1070
    74
1070
     0
1070
    77
1070
     1
1070
    78
1070
     8
1070
   140
1040
3.0
1070
   144
1040
0.4
1070
   147
1040
0.8
1070
   172
1070
     1
1070
   271
1070
     2
1070
   279
1070
     2
1070
   340
1005
BA4
1002
}
  0
CIRCLE
  5
93F3
  8
SJC
 10
125.0
 20
125.0
 30
0.0
 40
29.21875
  0
LINE
  5
93F4
  8
CENTER
 10
85.15625
 20
125.0
 30
0.0
 11
164.84375
 21
125.0
 31
0.0
  0
CIRCLE
  5
93F5
  8
SJC
 10
125.0
 20
-124.9999999999995
 30
0.0
 40
29.21875
  0
LINE
  5
93F6
  8
CENTER
 10
85.15625
 20
-124.9999999999995
 30
0.0
 11
164.84375
 21
-124.9999999999995
 31
0.0
  0
POLYLINE
  5
93F7
  8
SJC
 66
     1
 10
0.0
 20
0.0
 30
0.0
 70
     1
  0
VERTEX
  5
A044
  8
SJC
 10
-187.5
 20
187.5
 30
0.0
  0
VERTEX
  5
A045
  8
SJC
 10
-187.5
 20
-187.5000000000004
 30
0.0
  0
VERTEX
  5
A046
  8
SJC
 10
187.5
 20
-187.5000000000004
 30
0.0
  0
VERTEX
  5
A047
  8
SJC
 10
187.5
 20
187.5
 30
0.0
  0
SEQEND
  5
A048
  8
SJC
  0
LINE
  5
93F8
  8
CENTER
 10
-228.37312240032591
 20
0.0
 30
0.0
 11
228.37312240032591
 21
0.0
 31
0.0
  0
CIRCLE
  5
93F9
  8
HASEN
 10
0.0
 20
0.0
 30
0.0
 40
67.625
  0
CIRCLE
  5
93FA
  8
SJC
 10
0.0
 20
0.0
 30
0.0
 40
62.5
  0
CIRCLE
  5
93FB
  8
HASEN
 10
0.0
 20
0.0
 30
0.0
 40
75.625
  0
LINE
  5
93FC
  8
CENTER
 10
0.0
 20
228.37312240032821
 30
0.0
 11
0.0
 21
-228.37312240032901
 31
0.0
  0
INSERT
  5
93FD
  8
0
  2
*U94
 10
0.0
 20
0.0
 30
0.0
1001
ACAD
1000
DSTYLE
1002
{
1070
     5
1000

1070
    40
1040
25.0
1070
    41
1040
2.0
1070
    42
1040
1.0
1070
    43
1040
6.0
1070
    44
1040
1.0
1070
    73
1070
     0
1070
    74
1070
     0
1070
    77
1070
     1
1070
    78
1070
     8
1070
   140
1040
3.0
1070
   144
1040
0.4
1070
   147
1040
1.1999999999999991
1070
   172
1070
     1
1070
   271
1070
     2
1070
   279
1070
     2
1070
   340
1005
BA4
1070
   342
1005
0
1002
}
  0
LINE
  5
93FE
  8
CENTER
 10
-85.15625
 20
-124.9999999999995
 30
0.0
 11
-164.84375
 21
-124.9999999999995
 31
0.0
  0
LINE
  5
93FF
  8
CENTER
 10
-125.0
 20
-85.15625
 30
0.0
 11
-125.0
 21
-164.84374999999949
 31
0.0
  0
CIRCLE
  5
9400
  8
SJC
 10
-125.0
 20
-124.9999999999995
 30
0.0
 40
29.21875
  0
LINE
  5
9401
  8
CENTER
 10
125.0
 20
-85.15625
 30
0.0
 11
125.0
 21
-164.84374999999949
 31
0.0
  0
LINE
  5
9402
  8
CENTER
 10
-125.0
 20
85.15625
 30
0.0
 11
-125.0
 21
164.84375
 31
0.0
  0
LINE
  5
9403
  8
CENTER
 10
-125.0
 20
85.15625
 30
0.0
 11
-125.0
 21
164.84375
 31
0.0
  0
CIRCLE
  5
9404
  8
SJC
 10
-125.0
 20
125.0
 30
0.0
 40
29.21875
  0
LINE
  5
9405
  8
CENTER
 10
-85.15625
 20
125.0
 30
0.0
 11
-164.84375
 21
125.0
 31
0.0
  0
LINE
  5
9406
  8
CENTER
 10
125.0
 20
85.15625
 30
0.0
 11
125.0
 21
164.84375
 31
0.0
  0
DIMENSION
  5
9407
  8
SUNPOU
  2
*D52
 10
464.56547122827033
 20
-125.0000000000005
 30
0.0
 11
407.06547122827033
 21
-0.0000000000002204
 31
0.0
  3
SJC
 13
187.5
 23
125.0
 33
0.0
 14
187.5
 24
-125.0000000000004
 34
0.0
 50
90.0
1001
ACAD
1000
DSTYLE
1002
{
1070
   287
1070
     5
1070
    40
1040
25.0
1070
    41
1040
2.0
1070
    42
1040
1.0
1070
    43
1040
6.0
1070
    44
1040
1.0
1070
    73
1070
     0
1070
    74
1070
     0
1070
    77
1070
     1
1070
    78
1070
     8
1070
   140
1040
3.0
1070
   144
1040
0.4
1070
   147
1040
0.8
1070
   172
1070
     1
1070
   271
1070
     2
1070
   279
1070
     2
1070
   340
1005
BA4
1002
}
  0
DIMENSION
  5
9414
  8
SUNPOU
  2
*D53
 10
464.56547122827033
 20
-187.5000000000006
 30
0.0
 11
397.06547122827033
 21
-265.07315842497701
 31
0.0
 70
   128
  3
SJC
 13
187.5
 23
-125.0000000000004
 33
0.0
 14
187.5
 24
-187.5000000000004
 34
0.0
 50
90.0
1001
ACAD
1000
DSTYLE
1002
{
1070
   287
1070
     5
1070
    40
1040
25.0
1070
    41
1040
2.0
1070
    42
1040
1.0
1070
    43
1040
6.0
1070
    44
1040
1.0
1070
    73
1070
     0
1070
    74
1070
     0
1070
    77
1070
     1
1070
    78
1070
     8
1070
   140
1040
3.0
1070
   144
1040
0.4
1070
   147
1040
0.8
1070
   172
1070
     1
1070
   271
1070
     2
1070
   279
1070
     2
1070
   340
1005
BA4
1002
}
  0
LINE
  5
9423
  8
SJC
 10
-743.94311724320869
 20
126.7508890667373
 30
0.0
 11
-743.94311724320869
 21
-165.0000000000004
 31
0.0
  0
LINE
  5
9424
  8
SJC
 10
-895.19311724320858
 20
126.7508890667313
 30
0.0
 11
-895.19311724320858
 21
-165.0000000000004
 31
0.0
  0
LINE
  5
9425
  8
CENTER
 10
-819.56811724320505
 20
-248.04901198418199
 30
0.0
 11
-819.56811724320505
 21
157.1433011654849
 31
0.0
  0
INSERT
  5
9426
  8
SJC
  2
B0030004
 10
-694.56811305220617
 20
-151.2500000000004
 30
0.0
 41
2.5
 42
2.5
 43
2.5
 50
270.0
  0
LINE
  5
9430
  8
SJC2
 10
-670.55811305220413
 20
-290.00000000000051
 30
0.0
 11
-693.96811305221115
 21
-289.99999999999818
 31
0.0
  0
LINE
  5
9431
  8
SJC2
 10
-669.76311305220588
 20
-297.49999999999591
 30
0.0
 11
-693.36811305220897
 21
-297.49999999999818
 31
0.0
  0
LINE
  5
9432
  8
SJC
 10
-694.56811305220617
 20
-158.7500000000004
 30
0.0
 11
-664.56811305220617
 21
-158.7500000000004
 31
0.0
  0
INSERT
  5
9433
  8
SJC
  2
B0030003
 10
-694.56811305220617
 20
-151.2500000000004
 30
0.0
 41
2.5
 42
2.5
 43
2.5
 50
90.0
  0
LINE
  5
9439
  8
SJC
 10
-1007.068117243208
 20
-187.5000000000004
 30
0.0
 11
-632.06811724320858
 21
-187.5000000000004
 31
0.0
  0
LINE
  5
943A
  8
SJC
 10
-632.06811724320858
 20
-165.0000000000004
 30
0.0
 11
-1007.068117243208
 21
-165.0000000000004
 31
0.0
  0
LINE
  5
943B
  8
SJC2
 10
-668.96811305220388
 20
-304.99999999999818
 30
0.0
 11
-692.76811305220872
 21
-304.99999999999818
 31
0.0
  0
LINE
  5
943C
  8
SJC
 10
-668.17311305220574
 20
-312.49999999999818
 30
0.0
 11
-692.16811305220835
 21
-312.49999999999818
 31
0.0
  0
LINE
  5
943D
  8
SJC
 10
-672.94311305220799
 20
-329.99999999999818
 30
0.0
 11
-716.19311305220606
 21
-329.99999999999818
 31
0.0
  0
INSERT
  5
943E
  8
0
  2
*U97
 10
0.0
 20
0.0
 30
0.0
1001
ACAD
1000
DSTYLE
1002
{
1070
     5
1000

1070
    40
1040
25.0
1070
    41
1040
2.0
1070
    42
1040
1.0
1070
    43
1040
6.0
1070
    44
1040
1.0
1070
    73
1070
     0
1070
    74
1070
     0
1070
    77
1070
     1
1070
    78
1070
     8
1070
   140
1040
3.0
1070
   144
1040
0.4
1070
   147
1040
1.1999999999999991
1070
   172
1070
     1
1070
   271
1070
     2
1070
   279
1070
     2
1070
   340
1005
BA4
1070
   342
1005
0
1002
}
  0
LINE
  5
943F
  8
CENTER
 10
-694.56811305220617
 20
-340.61543776365988
 30
0.0
 11
-694.56811305220617
 21
-103.44505122149759
 31
0.0
  0
LINE
  5
9440
  8
CENTER
 10
-944.56812143420018
 20
-336.9927724555568
 30
0.0
 11
-944.56812143420018
 21
-103.44505122149759
 31
0.0
  0
LINE
  5
9441
  8
SJC
 10
-922.94312143420757
 20
-267.4999999999755
 30
0.0
 11
-918.17312143419986
 21
-312.49999999999818
 31
0.0
  0
LINE
  5
9442
  8
SJC
 10
-942.16812143420236
 20
-312.49999999999818
 30
0.0
 11
-944.56812143420018
 21
-282.50000000001182
 31
0.0
  0
LINE
  5
9443
  8
SJC
 10
-966.19312143419666
 20
-267.4999999999755
 30
0.0
 11
-970.96312143420437
 21
-312.49999999999591
 31
0.0
  0
LINE
  5
9444
  8
SJC
 10
-946.96812143419811
 20
-312.49999999999818
 30
0.0
 11
-944.56812143420018
 21
-282.50000000001182
 31
0.0
  0
LINE
  5
9445
  8
SJC
 10
-716.19311305220253
 20
-267.4999999999755
 30
0.0
 11
-720.96311305221025
 21
-312.49999999999591
 31
0.0
  0
LINE
  5
9446
  8
SJC
 10
-696.96811305220388
 20
-312.49999999999818
 30
0.0
 11
-694.56811305220617
 21
-282.50000000001182
 31
0.0
  0
LINE
  5
9447
  8
SJC
 10
-692.16811305220835
 20
-312.49999999999818
 30
0.0
 11
-694.56811305220617
 21
-282.50000000001182
 31
0.0
  0
LINE
  5
9448
  8
SJC
 10
-924.79812143420349
 20
-312.49999999999818
 30
0.0
 11
-922.94312143420211
 21
-329.99999999999818
 31
0.0
  0
LINE
  5
9449
  8
SJC
 10
-964.33812143420073
 20
-312.49999999999818
 30
0.0
 11
-966.19312143420018
 21
-329.99999999999818
 31
0.0
  0
LINE
  5
944A
  8
SJC
 10
-946.96812143419811
 20
-312.49999999999818
 30
0.0
 11
-970.96312143420437
 21
-312.49999999999591
 31
0.0
  0
LINE
  5
944B
  8
SJC
 10
-918.17312143419986
 20
-312.49999999999818
 30
0.0
 11
-942.16812143420236
 21
-312.49999999999818
 31
0.0
  0
LINE
  5
944C
  8
SJC
 10
-922.94312143420211
 20
-329.99999999999818
 30
0.0
 11
-966.19312143420018
 21
-329.99999999999818
 31
0.0
  0
LINE
  5
944D
  8
SJC
 10
-696.96811305220388
 20
-312.49999999999818
 30
0.0
 11
-720.96311305221025
 21
-312.49999999999591
 31
0.0
  0
LINE
  5
944E
  8
SJC
 10
-714.3381130522065
 20
-312.49999999999818
 30
0.0
 11
-716.19311305220606
 21
-329.99999999999818
 31
0.0
  0
LINE
  5
944F
  8
SJC
 10
-914.56812143420029
 20
-165.0000000000004
 30
0.0
 11
-914.56812143420029
 21
-158.7500000000004
 31
0.0
  0
LINE
  5
9450
  8
SJC
 10
-974.56812143420029
 20
-165.0000000000004
 30
0.0
 11
-974.56812143420029
 21
-158.7500000000004
 31
0.0
  0
LINE
  5
9451
  8
SJC
 10
-1007.068117243208
 20
-165.0000000000004
 30
0.0
 11
-1007.068117243208
 21
-187.5000000000004
 31
0.0
  0
LINE
  5
9452
  8
SJC
 10
-922.94312143420757
 20
-267.4999999999755
 30
0.0
 11
-922.94312143420211
 21
-187.49999999999821
 31
0.0
  0
LINE
  5
9453
  8
SJC
 10
-966.19312143419666
 20
-267.4999999999755
 30
0.0
 11
-966.19312143419666
 21
-187.49999999999821
 31
0.0
  0
LINE
  5
9454
  8
SJC2
 10
-969.3731214342024
 20
-297.49999999999591
 30
0.0
 11
-945.76812143420091
 21
-297.49999999999818
 31
0.0
  0
LINE
  5
9455
  8
SJC2
 10
-968.57812143420415
 20
-290.00000000000051
 30
0.0
 11
-945.1681214341952
 21
-289.99999999999818
 31
0.0
  0
LINE
  5
9456
  8
SJC2
 10
-920.55812143419826
 20
-290.00000000000051
 30
0.0
 11
-943.96812143420527
 21
-289.99999999999818
 31
0.0
  0
LINE
  5
9457
  8
SJC2
 10
-919.76312143419989
 20
-297.49999999999591
 30
0.0
 11
-943.3681214342032
 21
-297.49999999999818
 31
0.0
  0
LINE
  5
9458
  8
SJC2
 10
-970.16812143420611
 20
-304.99999999999818
 30
0.0
 11
-946.36812143419945
 21
-304.99999999999818
 31
0.0
  0
LINE
  5
9459
  8
SJC2
 10
-918.968121434198
 20
-304.99999999999818
 30
0.0
 11
-942.76812143420284
 21
-304.99999999999818
 31
0.0
  0
INSERT
  5
945A
  8
SJC
  2
B0030004
 10
-944.56812143420018
 20
-151.2500000000004
 30
0.0
 41
2.5
 42
2.5
 43
2.5
 50
270.0
  0
LINE
  5
945B
  8
SJC
 10
-944.56812143420018
 20
-158.7500000000004
 30
0.0
 11
-974.56812143420029
 21
-158.7500000000004
 31
0.0
  0
LINE
  5
945C
  8
SJC
 10
-944.56812143420018
 20
-158.7500000000004
 30
0.0
 11
-914.56812143420029
 21
-158.7500000000004
 31
0.0
  0
INSERT
  5
945D
  8
SJC
  2
B0030003
 10
-944.56812143420018
 20
-151.2500000000004
 30
0.0
 41
2.5
 42
2.5
 43
2.5
 50
90.0
  0
LINE
  5
945E
  8
SJC
 10
-724.56811305220606
 20
-165.0000000000004
 30
0.0
 11
-724.56811305220606
 21
-158.7500000000004
 31
0.0
  0
LINE
  5
945F
  8
SJC
 10
-716.19311305220253
 20
-267.4999999999755
 30
0.0
 11
-716.19311305220253
 21
-187.49999999999821
 31
0.0
  0
LINE
  5
9460
  8
SJC2
 10
-718.57811305221003
 20
-290.00000000000051
 30
0.0
 11
-695.16811305220097
 21
-289.99999999999818
 31
0.0
  0
LINE
  5
9461
  8
SJC2
 10
-719.37311305220817
 20
-297.49999999999591
 30
0.0
 11
-695.76811305220679
 21
-297.49999999999818
 31
0.0
  0
LINE
  5
9462
  8
SJC2
 10
-720.16811305221199
 20
-304.99999999999818
 30
0.0
 11
-696.36811305220544
 21
-304.99999999999818
 31
0.0
  0
LINE
  5
9463
  8
SJC
 10
-694.56811305220617
 20
-158.7500000000004
 30
0.0
 11
-724.56811305220606
 21
-158.7500000000004
 31
0.0
  0
LINE
  5
9464
  8
SJC
 10
-672.94311305221345
 20
-267.4999999999755
 30
0.0
 11
-668.17311305220574
 21
-312.49999999999818
 31
0.0
  0
LINE
  5
9465
  8
SJC
 10
-674.79811305220926
 20
-312.49999999999818
 30
0.0
 11
-672.94311305220799
 21
-329.99999999999818
 31
0.0
  0
DIMENSION
  5
9466
  8
SUNPOU
  2
*D54
 10
-491.59782489894849
 20
-187.50000000000051
 30
0.0
 11
-560.06349575314562
 21
-89.080132071347634
 31
0.0
 70
   128
  1
t9
  3
SJC
 13
-632.06811724320858
 23
-165.0000000000004
 33
0.0
 14
-632.06811724320858
 24
-187.5000000000004
 34
0.0
 50
90.0
1001
ACAD
1000
DSTYLE
1002
{
1070
   287
1070
     5
1070
   287
1070
     5
1070
   287
1070
     5
1070
   287
1070
     5
1070
    40
1040
25.0
1070
    41
1040
2.0
1070
    42
1040
1.0
1070
    43
1040
6.0
1070
    44
1040
1.0
1070
    73
1070
     0
1070
    74
1070
     0
1070
    77
1070
     1
1070
    78
1070
     8
1070
   140
1040
3.0
1070
   144
1040
0.4
1070
   147
1040
1.1999999999999991
1070
   172
1070
     1
1070
   271
1070
     2
1070
   279
1070
     2
1070
   340
1005
BA4
1002
}
  0
LINE
  5
9475
  8
SJC
 10
-664.56811305220617
 20
-165.0000000000004
 30
0.0
 11
-664.56811305220617
 21
-158.7500000000004
 31
0.0
  0
LINE
  5
9476
  8
SJC
 10
-632.06811724320858
 20
-187.5000000000004
 30
0.0
 11
-632.06811724320858
 21
-165.0000000000004
 31
0.0
  0
LINE
  5
9477
  8
SJC
 10
-672.94311305221345
 20
-267.4999999999755
 30
0.0
 11
-672.94311305220799
 21
-187.49999999999821
 31
0.0
  0
ARC
  5
9478
  8
SJC
 10
-857.38061724321949
 20
82.288648457155887
 30
0.0
 40
58.366737070650743
 50
49.620806816221418
 51
130.37919318377851
  0
ARC
  5
9479
  8
SJC
 10
-857.38061724321949
 20
171.21312967632039
 30
0.0
 40
58.366737070650743
 50
229.62080681622149
 51
310.37919318377863
  0
ARC
  5
947A
  8
SJC
 10
-781.75561724321051
 20
82.288648457155887
 30
0.0
 40
58.366737070650743
 50
49.620806816221418
 51
130.37919318377851
  0
TEXT
  5
947B
  8
INFORMATION
 10
1.0
 20
2.0
 30
0.0
 40
0.8
  1
PLOTTER=CALCOMP_TECHJET720
  0
TEXT
  5
947C
  8
INFORMATION
 10
1.0
 20
3.0
 30
0.0
 40
0.8
  1
PAPER=A3
  0
TEXT
  5
947D
  8
INFORMATION
 10
1.0
 20
1.0
 30
0.0
 40
0.8
  1
VERSION=3.0
  0
ENDBLK
  5
78EF
  8
0
  0
BLOCK
  8
0
  2
樹脂キャップ-T40取付詳細図
 70
     0
 10
0.0
 20
0.0
 30
0.0
  3
樹脂キャップ-T40取付詳細図
  1
C:\Documents and Settings\SJC\デスクトップ\G_T-40\ブロックT-40\T-40柵金具詳細図\樹脂キャップ-T40取付詳細図.dwg
  0
TEXT
  5
956B
  8
INFORMATION
 10
1.0
 20
2.0
 30
0.0
 40
0.8
  1
PLOTTER=CALCOMP_TECHJET720
  0
TEXT
  5
956C
  8
INFORMATION
 10
1.0
 20
3.0
 30
0.0
 40
0.8
  1
PAPER=A3
  0
TEXT
  5
956D
  8
INFORMATION
 10
1.0
 20
1.0
 30
0.0
 40
0.8
  1
VERSION=3.0
  0
LINE
  5
956E
  8
CENTER
 10
-295.00681381741288
 20
-271.12125773085398
 30
0.0
 11
-295.00681381741288
 21
246.62624847515829
 31
0.0
  0
POLYLINE
  5
956F
  8
SJC2
 66
     1
 10
0.0
 20
0.0
 30
0.0
  0
VERTEX
  5
A072
  8
SJC2
 10
-251.00626066407631
 20
-175.005013456016
 30
0.0
  0
VERTEX
  5
A073
  8
SJC2
 10
-251.00626066407631
 20
-184.2044622319392
 30
0.0
  0
VERTEX
  5
A074
  8
SJC2
 10
-339.0073669706735
 20
-184.2044622319392
 30
0.0
  0
VERTEX
  5
A075
  8
SJC2
 10
-339.0073669706735
 20
-175.005013456016
 30
0.0
  0
SEQEND
  5
A076
  8
SJC2
  0
ARC
  5
9570
  8
SJC2
 10
-259.00649744230623
 20
-218.20472566781521
 30
0.0
 40
6.0000310361934037
 50
269.99732050691802
 51
0.0041387933915167
  0
LINE
  5
9571
  8
SJC2
 10
-259.00677803959343
 20
-224.2047566974382
 30
0.0
 11
-331.00929483456179
 21
-224.2070491093636
 31
0.0
  0
ARC
  5
9572
  8
SJC2
 10
-331.0107980424209
 20
-218.20701826138449
 30
0.0
 40
6.0000310361934037
 50
179.9973188582031
 51
270.01435450381211
  0
LINE
  5
9573
  8
SJC2
 10
-337.01082907204272
 20
-218.2067374914277
 30
0.0
 11
-337.00624424835132
 21
-184.2044622319392
 31
0.0
  0
LINE
  5
9574
  8
SJC2
 10
-323.00755483942339
 20
-184.2044622319392
 30
0.0
 11
-323.00755483942339
 21
-224.2070491093636
 31
0.0
  0
LINE
  5
9575
  8
SJC2
 10
-267.00729541511009
 20
-184.2044622319392
 30
0.0
 11
-267.00729541511009
 21
-224.2047566974382
 31
0.0
  0
LINE
  5
9576
  8
SJC2
 10
-253.00768904136069
 20
-184.2044622319392
 30
0.0
 11
-253.0064664217343
 21
-218.20429225209861
 31
0.0
  0
POLYLINE
  5
9577
  8
SJC2
 66
     1
 10
0.0
 20
0.0
 30
0.0
  0
VERTEX
  5
A077
  8
SJC2
 10
-271.00770693027289
 20
-224.20582648965839
 30
0.0
  0
VERTEX
  5
A078
  8
SJC2
 10
-271.00770693027289
 20
-234.20654962275671
 30
0.0
  0
VERTEX
  5
A079
  8
SJC2
 10
-319.00714332418011
 20
-234.20654962275671
 30
0.0
  0
VERTEX
  5
A07A
  8
SJC2
 10
-319.00714332418011
 20
-224.20582648965839
 30
0.0
  0
SEQEND
  5
A07B
  8
SJC2
  0
LINE
  5
9578
  8
HASEN
 10
-347.58923999269467
 20
174.9958438086378
 30
0.0
 11
-347.58923999269467
 21
-175.005013456016
 31
0.0
  0
POLYLINE
  5
9579
  8
HASEN
 66
     1
 10
0.0
 20
0.0
 30
0.0
  0
VERTEX
  5
A07C
  8
HASEN
 10
-340.07746482483122
 20
174.9958438086378
 30
0.0
  0
VERTEX
  5
A07D
  8
HASEN
 10
-340.07746482483122
 20
144.9487431370267
 30
0.0
  0
VERTEX
  5
A07E
  8
HASEN
 10
-249.93616280999549
 20
144.9487431370267
 30
0.0
  0
VERTEX
  5
A07F
  8
HASEN
 10
-249.93616280999549
 20
174.9958438086378
 30
0.0
  0
SEQEND
  5
A080
  8
HASEN
  0
LINE
  5
957A
  8
HASEN
 10
-325.05391448902679
 20
144.9487431370267
 30
0.0
 11
-325.05391448902679
 21
-175.005013456016
 31
0.0
  0
LINE
  5
957B
  8
HASEN
 10
-264.95971314579953
 20
144.9487431370267
 30
0.0
 11
-264.95971314579953
 21
-175.005013456016
 31
0.0
  0
LINE
  5
957C
  8
HASEN
 10
-242.42438764213151
 20
174.9958438086378
 30
0.0
 11
-242.42438764213151
 21
-175.005013456016
 31
0.0
  0
LINE
  5
957D
  8
HASEN
 10
243.04395015290541
 20
0.0
 30
0.0
 11
243.04395015290541
 21
-174.99935884010691
 31
0.0
  0
LINE
  5
957E
  8
HASEN
 10
348.833255492982
 20
-174.99935884010691
 30
0.0
 11
348.833255492982
 21
0.2753950775559133
 31
0.0
  0
LINE
  5
957F
  8
CENTER
 10
-525.00694051289474
 20
743.25216925845075
 30
0.0
 11
-525.00694051289418
 21
-479.95076400934607
 31
0.0
  0
TEXT
  5
9580
  8
MOJI
 10
-819.26776409887395
 20
407.53800821928411
 30
0.0
 40
75.0
  1
A
 41
0.8
  7
EXT08
  0
TEXT
  5
9581
  8
MOJI
 10
326.84522656039729
 20
407.53800821928593
 30
0.0
 40
75.0
  1
A
 41
0.8
  7
EXT08
  0
LINE
  5
9582
  8
MOJI
 10
414.10570305357493
 20
498.45744902285378
 30
0.0
 11
307.48715593169158
 21
498.45744902285378
 31
0.0
  0
LINE
  5
9583
  8
MOJI
 10
414.10570305357493
 20
498.45744902285378
 30
0.0
 11
414.10570305357493
 21
386.50770709679409
 31
0.0
  0
POLYLINE
  5
9584
  8
MOJI
 66
     1
 10
0.0
 20
0.0
 30
0.0
  0
VERTEX
  5
A081
  8
MOJI
 10
414.10570305357493
 20
386.50770709679409
 30
0.0
  0
VERTEX
  5
A082
  8
MOJI
 10
437.71410654681949
 20
456.57164580618149
 30
0.0
  0
VERTEX
  5
A083
  8
MOJI
 10
410.29800696168599
 20
467.99492511619292
 30
0.0
  0
SEQEND
  5
A084
  8
MOJI
  0
LINE
  5
9585
  8
MOJI
 10
-857.19271756285161
 20
498.45744902285378
 30
0.0
 11
-857.19271756285161
 21
386.50770709679409
 31
0.0
  0
POLYLINE
  5
9586
  8
MOJI
 66
     1
 10
0.0
 20
0.0
 30
0.0
  0
VERTEX
  5
A085
  8
MOJI
 10
-857.19271756285161
 20
386.50770709679409
 30
0.0
  0
VERTEX
  5
A086
  8
MOJI
 10
-880.80112105610169
 20
456.57164580618149
 30
0.0
  0
VERTEX
  5
A087
  8
MOJI
 10
-853.38502147096278
 20
467.99492511619292
 30
0.0
  0
SEQEND
  5
A088
  8
MOJI
  0
LINE
  5
9587
  8
MOJI
 10
-857.19271756285161
 20
498.45744902285378
 30
0.0
 11
-750.57417044097474
 21
498.45744902285378
 31
0.0
  0
ARC
  5
9588
  8
SJC
 10
-691.4684099545434
 20
796.62716925845075
 30
0.0
 40
83.578182064509946
 50
140.31073834430029
 51
219.68926165569971
  0
ARC
  5
9589
  8
SJC
 10
-811.5009013118555
 20
796.62716925845075
 30
0.0
 40
77.157806847342755
 50
316.23008543384827
 51
43.769914566151648
  0
ARC
  5
958A
  8
SJC
 10
-686.3428906508052
 20
689.87716925845052
 30
0.0
 40
87.583555682237858
 50
142.45256368905461
 51
217.5474363109453
  0
ARC
  5
958B
  8
SJC
 10
-482.50669450522298
 20
-462.63512823949583
 30
0.0
 40
54.351614128172791
 50
38.560533803103411
 51
141.4394661968966
  0
ARC
  5
958C
  8
SJC
 10
-482.50669450522298
 20
-389.38183918595701
 30
0.0
 40
57.935814391740102
 50
222.8130854726281
 51
317.18691452737181
  0
ARC
  5
958D
  8
SJC
 10
-567.50642238322598
 20
-386.21784588205099
 30
0.0
 40
60.130364140218887
 50
225.0257409407146
 51
314.97425905928537
  0
ARC
  5
958E
  8
SJC
 10
-75.626055801067196
 20
-333.03582707076731
 30
0.0
 40
122.17100463128941
 50
231.75553805928701
 51
308.24446194071299
  0
ARC
  5
958F
  8
SJC
 10
75.624986008929227
 20
-524.95819804497933
 30
0.0
 40
122.18749089326739
 50
51.762269648185281
 51
128.23773035181469
  0
ARC
  5
9590
  8
SJC
 10
75.624986008929227
 20
-316.95022553327891
 30
0.0
 40
135.17090929830101
 50
235.98037821348149
 51
304.01962178651848
  0
CIRCLE
  5
9591
  8
SJC2
 10
0.0
 20
1370.6226645186871
 30
0.0
 40
151.48546002560329
  0
CIRCLE
  5
9592
  8
SJC2
 10
0.0
 20
1370.6226645186871
 30
0.0
 40
135.46033584673279
  0
CIRCLE
  5
9593
  8
SJC2
 10
-295.00681381741288
 20
1370.6226645186871
 30
0.0
 40
56.087920298467857
  0
LINE
  5
9594
  8
SJC2
 10
-221.37851853459779
 20
1370.6226645186871
 30
0.0
 11
-151.4853263015857
 21
1370.6226645186871
 31
0.0
  0
ARC
  5
9595
  8
SJC2
 10
247.53884922970889
 20
1398.1631513294869
 30
0.0
 40
21.032969514919621
 50
89.998998230080318
 51
180.00100176989361
  0
LINE
  5
9596
  8
SJC2
 10
247.53921697400079
 20
1419.1961208411999
 30
0.0
 11
343.71720354148692
 21
1419.1997887002331
 31
0.0
  0
ARC
  5
9597
  8
SJC2
 10
343.7175712839371
 20
1398.1668191884389
 30
0.0
 40
21.032969514919621
 50
0.0006634953977169
 51
90.001001765021314
  0
LINE
  5
9598
  8
SJC2
 10
364.75054079749498
 20
1398.167062753997
 30
0.0
 11
364.74289942462752
 21
1343.0859076562481
 31
0.0
  0
ARC
  5
9599
  8
SJC2
 10
343.70992991106959
 20
1343.086151221805
 30
0.0
 40
21.032969514919621
 50
269.99899823497873
 51
359.9993365046023
  0
LINE
  5
959A
  8
SJC2
 10
343.70956216861941
 20
1322.0531817100921
 30
0.0
 11
247.54043959362659
 21
1322.0495138511419
 31
0.0
  0
ARC
  5
959B
  8
SJC2
 10
247.5388492101583
 20
1343.0824833059669
 30
0.0
 40
21.032969514919621
 50
179.9973328097993
 51
270.00433235368479
  0
ARC
  5
959C
  8
SJC2
 10
248.07319610886219
 20
1398.1444442903539
 30
0.0
 40
5.007850111935463
 50
90.0
 51
180.0
  0
LINE
  5
959D
  8
SJC2
 10
248.07319610886219
 20
1403.152294402289
 30
0.0
 11
343.82571103593358
 21
1403.1739959011941
 31
0.0
  0
ARC
  5
959E
  8
SJC2
 10
343.82693365563591
 20
1398.166145938533
 30
0.0
 40
5.007850111935463
 50
359.9999982924918
 51
90.01398822761125
  0
LINE
  5
959F
  8
SJC2
 10
348.83478376757472
 20
1398.166145789261
 30
0.0
 11
348.83906293637671
 21
1343.0739871146541
 31
0.0
  0
ARC
  5
95A0
  8
SJC2
 10
343.8312128244433
 20
1343.0739871146541
 30
0.0
 40
5.007850111935463
 50
270.0
 51
0.0
  0
LINE
  5
95A1
  8
SJC2
 10
343.8312128244433
 20
1338.066137002721
 30
0.0
 11
248.02887614631351
 21
1338.046575088177
 31
0.0
  0
ARC
  5
95A2
  8
SJC2
 10
248.02887581050979
 20
1343.054425200113
 30
0.0
 40
5.007850111935463
 50
179.97901765840069
 51
270.00000384198142
  0
LINE
  5
95A3
  8
SJC2
 10
243.02102603437561
 20
1343.0562591295879
 30
0.0
 11
243.06534599692441
 21
1398.1444442903539
 31
0.0
  0
LINE
  5
95A4
  8
SJC2
 10
151.4853263016675
 20
1370.6226645186871
 30
0.0
 11
243.04395015290541
 21
1370.6226645186871
 31
0.0
  0
LINE
  5
95A5
  8
SJC2
 10
-441.39534442708322
 20
1386.6478460078749
 30
0.0
 11
-369.77122841576647
 21
1386.6478460078749
 31
0.0
  0
LINE
  5
95A6
  8
SJC2
 10
-441.39534442708322
 20
1354.597483029502
 30
0.0
 11
-369.769394486289
 21
1354.597483029502
 31
0.0
  0
LINE
  5
95A7
  8
SJC2
 10
-221.497418296126
 20
1386.6478460078749
 30
0.0
 11
-150.63529998557479
 21
1386.6478460078749
 31
0.0
  0
LINE
  5
95A8
  8
SJC2
 10
-221.49405609214321
 20
1354.597483029502
 30
0.0
 11
-150.63529998557479
 21
1354.597483029502
 31
0.0
  0
ARC
  5
95A9
  8
SJC2
 10
221.49802960605939
 20
1349.5896329175671
 30
0.0
 40
5.007850111935463
 50
0.0
 51
90.0
  0
LINE
  5
95AA
  8
SJC2
 10
150.6352999856563
 20
1354.597483029502
 30
0.0
 11
221.49802960605939
 21
1354.597483029502
 31
0.0
  0
LINE
  5
95AB
  8
SJC2
 10
226.50587971799271
 20
1343.083462416919
 30
0.0
 11
226.50587971799271
 21
1349.5896329175671
 31
0.0
  0
ARC
  5
95AC
  8
SJC2
 10
221.49802960605939
 20
1391.655696119808
 30
0.0
 40
5.007850111935463
 50
270.0
 51
0.0
  0
LINE
  5
95AD
  8
SJC2
 10
150.6352999856563
 20
1386.6478460078749
 30
0.0
 11
221.49802960605939
 21
1386.6478460078749
 31
0.0
  0
LINE
  5
95AE
  8
SJC2
 10
226.50587971799271
 20
1391.655696119808
 30
0.0
 11
226.50587971799271
 21
1398.1627835851921
 31
0.0
  0
LINE
  5
95AF
  8
CENTER
 10
-295.00681381741288
 20
1482.5146758728681
 30
0.0
 11
-295.00681381741288
 21
1258.73065316459
 31
0.0
  0
LINE
  5
95B0
  8
CENTER
 10
0.0
 20
1595.778466481275
 30
0.0
 11
0.0
 21
1145.4668625561801
 31
0.0
  0
LINE
  5
95B1
  8
CENTER
 10
296.25082931770072
 20
1441.370162236514
 30
0.0
 11
296.25082931770072
 21
1299.875166800942
 31
0.0
  0
LINE
  5
95B2
  8
CENTER
 10
-656.43838976814595
 20
1370.6226645186871
 30
0.0
 11
409.20927066692911
 21
1370.6226645186871
 31
0.0
  0
LINE
  5
95B3
  8
CENTER
 10
296.25082931770072
 20
-190.8793542451692
 30
0.0
 11
296.25082931770072
 21
38.945714524009873
 31
0.0
  0
LINE
  5
95B4
  8
HASEN
 10
926.19266391628378
 20
174.99935884010711
 30
0.0
 11
926.19266391628378
 21
0.0
 31
0.0
  0
LINE
  5
95B5
  8
HASEN
 10
1031.3575162669281
 20
0.0
 30
0.0
 11
1031.3575162669281
 21
175.27475391766299
 31
0.0
  0
LINE
  5
95B6
  8
MOJI
 10
1492.7879817168789
 20
573.0919913503385
 30
0.0
 11
1365.606500251703
 21
573.0919913503385
 31
0.0
  0
POLYLINE
  5
95B7
  8
MOJI
 66
     1
 10
0.0
 20
0.0
 30
0.0
  0
VERTEX
  5
A089
  8
MOJI
 10
1492.7879817168789
 20
451.24189572369733
 30
0.0
  0
VERTEX
  5
A08A
  8
MOJI
 10
1515.6341582681989
 20
527.3981099731709
 30
0.0
  0
VERTEX
  5
A08B
  8
MOJI
 10
1491.264291970333
 20
540.34469696112228
 30
0.0
  0
SEQEND
  5
A08C
  8
MOJI
  0
LINE
  5
95B8
  8
MOJI
 10
1492.7879817168789
 20
573.0919913503385
 30
0.0
 11
1492.7879817168789
 21
451.24189572369733
 31
0.0
  0
ARC
  5
95B9
  8
SJC
 10
1689.2443060803739
 20
689.87716925859513
 30
0.0
 40
124.2101635163819
 50
154.55051019803369
 51
205.4494898020946
  0
ARC
  5
95BA
  8
SJC
 10
1482.5854719652541
 20
689.87716925835218
 30
0.0
 40
108.5330302281662
 50
330.54197712359252
 51
29.458022876523859
  0
ARC
  5
95BB
  8
SJC
 10
1497.1978945665401
 20
796.62716925845075
 30
0.0
 40
96.078877401504627
 50
326.25255632967958
 51
33.747443670320401
  0
ARC
  5
95BC
  8
SJC
 10
1165.6509762723931
 20
-377.22916549596988
 30
0.0
 40
66.970424427634342
 50
230.60894381273349
 51
309.39105618726649
  0
ARC
  5
95BD
  8
SJC
 10
1250.6505513229131
 20
-471.1393490723853
 30
0.0
 40
59.859023766170118
 50
44.765662350029167
 51
135.2343376499708
  0
ARC
  5
95BE
  8
SJC
 10
1250.6505513229131
 20
-347.03466119053792
 30
0.0
 40
92.315998521466994
 50
242.5890385263248
 51
297.41096147367517
  0
TEXT
  5
95BF
  8
MOJI
 10
1406.7552930568411
 20
468.42887154116067
 30
0.0
 40
75.0
  1
B
 41
0.8
  7
EXT08
  0
LINE
  5
95C0
  8
CENTER
 10
978.15057743732075
 20
192.9021784663928
 30
0.0
 11
978.15057743732075
 21
-34.523875370384758
 31
0.0
  0
LINE
  5
95C1
  8
SJC
 10
1123.150883092206
 20
414.12083948089952
 30
0.0
 11
1123.150883092206
 21
434.15223992864179
 31
0.0
  0
POLYLINE
  5
95C2
  8
MOJI
 66
     1
 10
0.0
 20
0.0
 30
0.0
  0
VERTEX
  5
A08D
  8
MOJI
 10
776.20255921012631
 20
451.24189572359819
 30
0.0
  0
VERTEX
  5
A08E
  8
MOJI
 10
753.35561852149203
 20
527.39810997317181
 30
0.0
  0
VERTEX
  5
A08F
  8
MOJI
 10
777.72548481935792
 20
540.34469696102315
 30
0.0
  0
SEQEND
  5
A090
  8
MOJI
  0
TEXT
  5
95C3
  8
MOJI
 10
804.19558244546351
 20
465.13564177752778
 30
0.0
 40
75.0
  1
B
 41
0.8
  7
EXT08
  0
LINE
  5
95C4
  8
MOJI
 10
776.20255921012631
 20
573.0919913503385
 30
0.0
 11
903.38327653798751
 21
573.0919913503385
 31
0.0
  0
LINE
  5
95C5
  8
MOJI
 10
776.20255921012631
 20
573.0919913503385
 30
0.0
 11
776.20255921012631
 21
451.24189572359819
 31
0.0
  0
LINE
  5
95C6
  8
SJC
 10
151.24997201777569
 20
-367.85706451646769
 30
0.0
 11
151.24997201777569
 21
-347.82566406880733
 31
0.0
  0
LINE
  5
95C7
  8
SJC
 10
151.24997201777569
 20
-367.86155315160119
 30
0.0
 11
151.24997201777569
 21
-347.83015270394083
 31
0.0
  0
CIRCLE
  5
95C8
  8
SJC2
 10
1208.1510694525809
 20
1370.6226645186871
 30
0.0
 40
73.615395690282057
  0
CIRCLE
  5
95C9
  8
SJC2
 10
1208.1510694525809
 20
1370.6226645186871
 30
0.0
 40
85.133451902902891
  0
ARC
  5
95CA
  8
SJC2
 10
930.67594810813887
 20
1398.174460559545
 30
0.0
 40
21.032969514919621
 50
90.000663500309088
 51
179.99933649969091
  0
LINE
  5
95CB
  8
SJC2
 10
930.67570454081931
 20
1419.207430073023
 30
0.0
 11
1026.862249445832
 21
1419.1964264961671
 31
0.0
  0
ARC
  5
95CC
  8
SJC2
 10
1026.860783258888
 20
1398.1634570322881
 30
0.0
 40
21.032969514919621
 50
0.0006633649007288
 51
89.996005969183287
  0
ARC
  5
95CD
  8
SJC2
 10
1026.866590723595
 20
1343.076675919461
 30
0.0
 40
21.032969514919621
 50
269.9989981768237
 51
0.0026670351076567
  0
LINE
  5
95CE
  8
SJC2
 10
1026.8662229597501
 20
1322.0437064077471
 30
0.0
 11
930.69771169460819
 21
1322.0528760551281
 31
0.0
  0
ARC
  5
95CF
  8
SJC2
 10
930.69795426492692
 20
1343.085845568683
 30
0.0
 40
21.032969514919621
 50
179.98234558229461
 51
269.99933921577917
  0
LINE
  5
95D0
  8
SJC2
 10
909.66498574845184
 20
1343.092326409494
 30
0.0
 11
909.64297859458122
 21
1398.1747041268659
 31
0.0
  0
ARC
  5
95D1
  8
SJC2
 10
931.22160421727324
 20
1398.1444442903539
 30
0.0
 40
5.007850111935463
 50
90.0
 51
180.0
  0
LINE
  5
95D2
  8
SJC2
 10
931.22160421727324
 20
1403.152294402289
 30
0.0
 11
1026.3099310161331
 21
1403.1339551074509
 31
0.0
  0
ARC
  5
95D3
  8
SJC2
 10
1026.310542363324
 20
1398.1261050328519
 30
0.0
 40
5.007850111935463
 50
0.0069936868015542
 51
90.006994540614286
  0
ARC
  5
95D4
  8
SJC2
 10
1026.343553989456
 20
1343.082545452183
 30
0.0
 40
5.007850111935463
 50
269.99998932777731
 51
0.0349705706956686
  0
LINE
  5
95D5
  8
SJC2
 10
1026.343553056711
 20
1338.074695340247
 30
0.0
 11
931.16750329749004
 21
1338.0367941309451
 31
0.0
  0
ARC
  5
95D6
  8
SJC2
 10
931.16750296168709
 20
1343.0446442428799
 30
0.0
 40
5.007850111935463
 50
179.97901765840069
 51
270.00000384198142
  0
LINE
  5
95D7
  8
SJC2
 10
926.15965318555754
 20
1343.0464781723549
 30
0.0
 11
926.21375410533608
 21
1398.1444442903539
 31
0.0
  0
ARC
  5
95D8
  8
SJC2
 10
1052.355331586916
 20
1391.655633973272
 30
0.0
 40
21.032969514919621
 50
180.0348012792027
 51
270.00434286071822
  0
LINE
  5
95D9
  8
SJC2
 10
1031.318392437923
 20
1398.1267163053669
 30
0.0
 11
1031.3223659518401
 21
1391.6428586133979
 31
0.0
  0
ARC
  5
95DA
  8
SJC2
 10
1052.3859004720341
 20
1349.589695822893
 30
0.0
 40
21.032969514919621
 50
89.984009527315308
 51
179.98768187039869
  0
LINE
  5
95DB
  8
SJC2
 10
1031.3529314432369
 20
1349.594217741336
 30
0.0
 11
1031.3514031686491
 21
1343.085602001363
 31
0.0
  0
LINE
  5
95DC
  8
SJC2
 10
1052.3917704876731
 20
1370.6226645186871
 30
0.0
 11
1123.0176175496781
 21
1370.6226645186871
 31
0.0
  0
ARC
  5
95DD
  8
SJC2
 10
1052.9025198117799
 20
1391.6556961105159
 30
0.0
 40
5.007850111935463
 50
180.0069940070058
 51
269.99650336997752
  0
LINE
  5
95DE
  8
SJC2
 10
1047.8937527723631
 20
1398.163700549931
 30
0.0
 11
1047.894669737105
 21
1391.65508480996
 31
0.0
  0
LINE
  5
95DF
  8
SJC2
 10
1052.902214194153
 20
1386.6478460078749
 30
0.0
 11
1124.5394733667699
 21
1386.6478460078749
 31
0.0
  0
ARC
  5
95E0
  8
SJC2
 10
1052.9067989805039
 20
1349.5896332533721
 30
0.0
 40
5.007850111935463
 50
90.02098191419131
 51
180.0069979555916
  0
LINE
  5
95E1
  8
SJC2
 10
1052.9049650883669
 20
1354.597483029502
 30
0.0
 11
1124.5394733667699
 21
1354.597483029502
 31
0.0
  0
LINE
  5
95E2
  8
SJC2
 10
1047.8989489059061
 20
1349.5890216077951
 30
0.0
 11
1047.8995602157579
 21
1343.077654973607
 31
0.0
  0
LINE
  5
95E3
  8
CENTER
 10
870.1829291896247
 20
1370.6226645186871
 30
0.0
 11
1343.663786910249
 21
1370.6226645186871
 31
0.0
  0
LINE
  5
95E4
  8
CENTER
 10
978.77478443668031
 20
1436.119622122784
 30
0.0
 11
978.77478443668031
 21
1305.125706914592
 31
0.0
  0
LINE
  5
95E5
  8
CENTER
 10
1208.1510694525809
 20
1506.1356876312429
 30
0.0
 11
1208.1510694525809
 21
1235.1096414061319
 31
0.0
  0
LINE
  5
95E6
  8
SJC
 10
-440.00889373688091
 20
174.9958438086378
 30
0.0
 11
-226.50863061212931
 21
174.9958438086378
 31
0.0
  0
LINE
  5
95E7
  8
SJC
 10
-364.75573693096072
 20
-175.005013456016
 30
0.0
 11
-151.25547380620489
 21
-175.005013456016
 31
0.0
  0
LINE
  5
95E8
  8
SJC
 10
-440.00644849763421
 20
-0.0045848236893562
 30
0.0
 11
-151.25211160213939
 21
-0.0045848236891288
 31
0.0
  0
LINE
  5
95E9
  8
SJC
 10
-226.50863061212931
 20
-175.005013456016
 30
0.0
 11
-226.50863061212931
 21
174.9958438086378
 31
0.0
  0
LINE
  5
95EA
  8
SJC
 10
-364.75573693096072
 20
-175.005013456016
 30
0.0
 11
-364.75573693096072
 21
174.9958438086378
 31
0.0
  0
ARC
  5
95EB
  8
SJC2
 10
-295.00681381741288
 20
152.0303700002614
 30
0.0
 40
49.633271754257009
 50
27.561678271972081
 51
152.43832172802789
  0
LINE
  5
95EC
  8
SJC
 10
151.24997201777569
 20
-174.99935884010691
 30
0.0
 11
364.74931817779179
 21
-174.99935884010691
 31
0.0
  0
ARC
  5
95ED
  8
SJC
 10
-525.00617637555968
 20
588.46989221674585
 30
0.0
 40
97.632235338298301
 50
29.47024496376892
 51
150.52975503623111
  0
LINE
  5
95EE
  8
SJC
 10
226.5031288237787
 20
0.0
 30
0.0
 11
226.5031288237787
 21
-174.99935884010691
 31
0.0
  0
LINE
  5
95EF
  8
SJC
 10
364.74931817779179
 20
0.0
 30
0.0
 11
364.74931817779179
 21
-174.99935884010691
 31
0.0
  0
LINE
  5
95F0
  8
SJC
 10
151.24997201777569
 20
0.0
 30
0.0
 11
364.74931817779179
 21
0.0
 31
0.0
  0
LINE
  5
95F1
  8
SJC
 10
-610.00590425356256
 20
636.50216925845052
 30
0.0
 11
-610.00590425356256
 21
-428.75553190736741
 31
0.0
  0
LINE
  5
95F2
  8
SJC
 10
-440.00644849763421
 20
636.50216925845052
 30
0.0
 11
-440.00644849763421
 21
-428.75553190736741
 31
0.0
  0
LINE
  5
95F3
  8
SJC
 10
-755.78343069006223
 20
636.50216925845052
 30
0.0
 11
-610.00590425356256
 21
636.50216925845052
 31
0.0
  0
LINE
  5
95F4
  8
SJC
 10
-300.40957007828689
 20
850.00216925845075
 30
0.0
 11
-300.40957007828689
 21
636.50216925845052
 31
0.0
  0
LINE
  5
95F5
  8
SJC
 10
-320.4107106895122
 20
850.00216925845075
 30
0.0
 11
-320.4107106895122
 21
636.50216925845052
 31
0.0
  0
LINE
  5
95F6
  8
SJC
 10
-440.00644849763421
 20
636.50216925845052
 30
0.0
 11
-300.40957007828689
 21
636.50216925845052
 31
0.0
  0
LINE
  5
95F7
  8
SJC
 10
-300.40957007828689
 20
850.00216925845075
 30
0.0
 11
-755.78343069006223
 21
850.00216925845075
 31
0.0
  0
LINE
  5
95F8
  8
SJC
 10
-151.25211160213939
 20
790.00216925845075
 30
0.0
 11
-151.25211160213939
 21
-428.98609573420669
 31
0.0
  0
LINE
  5
95F9
  8
SJC
 10
151.24997201777731
 20
790.00216925845075
 30
0.0
 11
151.24997201777569
 21
-428.98609573420669
 31
0.0
  0
TEXT
  5
95FA
  8
MOJI
 10
-589.27757957595622
 20
1020.060026632548
 30
0.0
 40
75.0
  1
頭部キャップ
 41
0.8
  7
EXT08
  0
LINE
  5
95FB
  8
SJC
 10
909.65153693218952
 20
174.99935884010711
 30
0.0
 11
1123.1505774373211
 21
174.99935884010711
 31
0.0
  0
LINE
  5
95FC
  8
SJC
 10
1123.1505774373211
 20
636.50216925845052
 30
0.0
 11
1123.1505774373211
 21
-428.98609573420657
 31
0.0
  0
LINE
  5
95FD
  8
SJC
 10
1293.150033193248
 20
636.50216925845052
 30
0.0
 11
1293.150033193248
 21
-428.98609573420657
 31
0.0
  0
LINE
  5
95FE
  8
SJC
 10
909.65153693218952
 20
174.99935884010711
 30
0.0
 11
909.65153693218952
 21
0.0
 31
0.0
  0
LINE
  5
95FF
  8
SJC
 10
1047.897726286285
 20
174.99935884010711
 30
0.0
 11
1047.897726286285
 21
0.0
 31
0.0
  0
ARC
  5
9600
  8
SJC
 10
1208.150305315324
 20
588.46989221674585
 30
0.0
 40
97.632235338298301
 50
29.47024496376892
 51
150.52975503623111
  0
LINE
  5
9601
  8
SJC
 10
1293.150033193248
 20
636.50216925845052
 30
0.0
 11
1577.0869429883439
 21
636.50216925847644
 31
0.0
  0
LINE
  5
9602
  8
SJC
 10
909.65153693218952
 20
0.0
 30
0.0
 11
1123.1505774373211
 21
0.0
 31
0.0
  0
LINE
  5
9603
  8
SJC
 10
983.55583860241302
 20
850.00216925845075
 30
0.0
 11
983.55583860241302
 21
636.50216925845052
 31
0.0
  0
LINE
  5
9604
  8
SJC
 10
1003.556062248902
 20
850.00216925845075
 30
0.0
 11
1003.556062248902
 21
636.50216925845052
 31
0.0
  0
LINE
  5
9605
  8
SJC
 10
983.55583860241302
 20
636.50216925845052
 30
0.0
 11
1123.1505774373211
 21
636.50216925845052
 31
0.0
  0
LINE
  5
9606
  8
SJC
 10
983.55583860241302
 20
850.00216925845075
 30
0.0
 11
1577.086942988218
 21
850.00216925845075
 31
0.0
  0
LINE
  5
9607
  8
CENTER
 10
-808.21944816151733
 20
743.25216925845075
 30
0.0
 11
-258.36117290347329
 21
743.25216925845075
 31
0.0
  0
LINE
  5
9608
  8
CENTER
 10
923.77645303710585
 20
743.25216925845075
 30
0.0
 11
1641.8368799824041
 21
743.25216925845075
 31
0.0
  0
LINE
  5
9609
  8
CENTER
 10
0.0
 20
944.87782666711075
 30
0.0
 11
0.0
 21
-479.95076400934607
 31
0.0
  0
DIMENSION
  5
960A
  8
SUNPOU
  2
*D55
 10
557.53657039649534
 20
-174.99935884010691
 30
0.0
 11
490.03657039649528
 21
-87.499679420053397
 31
0.0
  3
SJC
 13
364.74931817779179
 23
0.0
 33
0.0
 14
364.74931817779179
 24
-174.99935884010691
 34
0.0
 50
90.0
1001
ACAD
1000
DSTYLE
1002
{
1070
   287
1070
     5
1070
    40
1040
25.0
1070
    41
1040
2.0
1070
    42
1040
1.0
1070
    43
1040
6.0
1070
    44
1040
1.0
1070
    73
1070
     0
1070
    74
1070
     0
1070
    77
1070
     1
1070
    78
1070
     8
1070
   140
1040
3.0
1070
   144
1040
0.2
1070
   147
1040
1.1999999999999991
1070
   172
1070
     1
1070
   179
1070
     2
1070
   271
1070
     2
1070
   279
1070
     2
1070
   340
1005
BA4
1002
}
  0
DIMENSION
  5
9617
  8
SUNPOU
  2
*D56
 10
1788.7016209482019
 20
-0.0000000000001885
 30
0.0
 11
1721.2016209482031
 21
425.0010846292314
 31
0.0
  3
SJC
 13
1577.0869429882871
 23
850.00216925846257
 33
0.0
 14
1123.1505774373211
 24
0.0
 34
0.0
 50
90.0
1001
ACAD
1000
DSTYLE
1002
{
1070
   287
1070
     5
1070
    40
1040
25.0
1070
    41
1040
2.0
1070
    42
1040
1.0
1070
    43
1040
6.0
1070
    44
1040
1.0
1070
    73
1070
     0
1070
    74
1070
     0
1070
    77
1070
     1
1070
    78
1070
     8
1070
   140
1040
3.0
1070
   144
1040
0.2
1070
   147
1040
1.1999999999999991
1070
   172
1070
     1
1070
   179
1070
     2
1070
   271
1070
     2
1070
   279
1070
     2
1070
   340
1005
BA4
1002
}
  0
DIMENSION
  5
9624
  8
SUNPOU
  2
*D57
 10
978.15057743732075
 20
288.98434221828438
 30
0.0
 11
1050.6507302647631
 21
343.98434221828438
 31
0.0
  3
SJC
 13
1123.150883092206
 23
288.98434221828438
 33
0.0
 14
978.15057743732075
 24
195.03075928784941
 34
0.0
1001
ACAD
1000
DSTYLE
1002
{
1070
   287
1070
     5
1070
    40
1040
25.0
1070
    41
1040
2.0
1070
    42
1040
1.0
1070
    43
1040
6.0
1070
    44
1040
1.0
1070
    73
1070
     0
1070
    77
1070
     1
1070
    78
1070
     8
1070
   140
1040
3.0
1070
   144
1040
0.2
1070
   147
1040
0.7
1070
   172
1070
     1
1070
   179
1070
     2
1070
   271
1070
     2
1070
   279
1070
     2
1070
   340
1005
BA4
1002
}
  0
DIMENSION
  5
9630
  8
SUNPOU
  2
*D58
 10
909.65153693218952
 20
414.12083948089969
 30
0.0
 11
1016.401210012197
 21
466.6208394808998
 31
0.0
  3
SJC
 13
1123.150883092206
 23
414.12083948089969
 33
0.0
 14
909.65153693218952
 24
174.99935884010711
 34
0.0
1001
ACAD
1000
DSTYLE
1002
{
1070
   287
1070
     5
1070
    40
1040
25.0
1070
    41
1040
2.0
1070
    42
1040
1.0
1070
    43
1040
6.0
1070
    44
1040
1.0
1070
    73
1070
     0
1070
    77
1070
     1
1070
    78
1070
     8
1070
   140
1040
3.0
1070
   144
1040
0.2
1070
   147
1040
0.6
1070
   172
1070
     1
1070
   179
1070
     2
1070
   271
1070
     2
1070
   279
1070
     2
1070
   340
1005
BA4
1002
}
  0
DIMENSION
  5
963C
  8
SUNPOU
  2
*D59
 10
296.2508293176997
 20
-367.85706451646757
 30
0.0
 11
223.75040066773769
 21
-312.85706451646757
 31
0.0
  3
SJC
 13
151.24997201777569
 23
-367.85706451646757
 33
0.0
 14
296.2508293176997
 24
-195.0307592878471
 34
0.0
1001
ACAD
1000
DSTYLE
1002
{
1070
   287
1070
     5
1070
    40
1040
25.0
1070
    41
1040
2.0
1070
    42
1040
1.0
1070
    43
1040
6.0
1070
    44
1040
1.0
1070
    73
1070
     0
1070
    74
1070
     1
1070
    77
1070
     1
1070
    78
1070
     8
1070
   140
1040
3.0
1070
   144
1040
0.2
1070
   147
1040
0.7
1070
   172
1070
     1
1070
   179
1070
     2
1070
   271
1070
     2
1070
   279
1070
     2
1070
   340
1005
BA4
1002
}
  0
DIMENSION
  5
9648
  8
SUNPOU
  2
*D60
 10
364.74931817779179
 20
-513.68821840826138
 30
0.0
 11
257.99964509778368
 21
-461.18821840826149
 31
0.0
  3
SJC
 13
151.24997201777569
 23
-428.98609573426052
 33
0.0
 14
364.74931817779179
 24
-174.99935884010691
 34
0.0
1001
ACAD
1000
DSTYLE
1002
{
1070
   287
1070
     5
1070
    40
1040
25.0
1070
    41
1040
2.0
1070
    42
1040
1.0
1070
    43
1040
6.0
1070
    44
1040
1.0
1070
    73
1070
     0
1070
    74
1070
     1
1070
    77
1070
     1
1070
    78
1070
     8
1070
   140
1040
3.0
1070
   144
1040
0.2
1070
   147
1040
0.6
1070
   172
1070
     1
1070
   179
1070
     2
1070
   271
1070
     2
1070
   279
1070
     2
1070
   340
1005
BA4
1002
}
  0
DIMENSION
  5
9655
  8
SUNPOU
  2
*D61
 10
750.31179630402858
 20
0.0000000000000451
 30
0.0
 11
682.81179630402846
 21
87.49967942005371
 31
0.0
  3
SJC
 13
909.65184258707438
 23
174.99935884010711
 33
0.0
 14
909.65153693218952
 24
0.0
 34
0.0
 50
90.0
1001
ACAD
1000
DSTYLE
1002
{
1070
   287
1070
     5
1070
    40
1040
25.0
1070
    41
1040
2.0
1070
    42
1040
1.0
1070
    43
1040
6.0
1070
    44
1040
1.0
1070
    73
1070
     0
1070
    74
1070
     0
1070
    77
1070
     1
1070
    78
1070
     8
1070
   140
1040
3.0
1070
   144
1040
0.2
1070
   147
1040
1.1999999999999991
1070
   172
1070
     1
1070
   179
1070
     2
1070
   271
1070
     2
1070
   279
1070
     2
1070
   340
1005
BA4
1002
}
  0
CIRCLE
  5
9662
  8
SJC2
 10
-525.00694051289474
 20
1370.6226645186871
 30
0.0
 40
73.615457776404583
  0
CIRCLE
  5
9663
  8
SJC2
 10
-525.00694051289474
 20
1370.6226645186871
 30
0.0
 40
85.133451902902749
  0
LINE
  5
9664
  8
MOJI
 10
-189.5676493778119
 20
991.92102786745374
 30
0.0
 11
-594.26970956692094
 21
991.92102786745374
 31
0.0
  0
LINE
  5
9665
  8
CENTER
 10
-525.00694051289474
 20
1482.5146758728681
 30
0.0
 11
-525.00694051289474
 21
1258.73065316459
 31
0.0
  0
LINE
  5
9666
  8
SJC2
 10
-247.4264303106697
 20
1338.066137002721
 30
0.0
 11
-249.3351383258273
 21
1338.0657472629259
 31
0.0
  0
LINE
  5
9667
  8
SJC2
 10
-343.18444702625129
 20
1403.152294402289
 30
0.0
 11
-340.69752745561982
 21
1403.1528580416091
 31
0.0
  0
LINE
  5
9668
  8
SJC2
 10
-246.2962563395258
 20
1322.053229454275
 30
0.0
 11
-266.95706809291511
 21
1322.0524414576571
 31
0.0
  0
LINE
  5
9669
  8
SJC2
 10
-343.7184261611124
 20
1419.1961208411999
 30
0.0
 11
-323.04959487733822
 21
1419.1969090710461
 31
0.0
  0
ARC
  5
966A
  8
SJC2
 10
-343.71879390540471
 20
1398.1631513294869
 30
0.0
 40
21.032969514919621
 50
89.998998230080318
 51
180.00100176989361
  0
LINE
  5
966B
  8
SJC2
 10
-364.75176341712091
 20
1391.655696119808
 30
0.0
 11
-364.75176341712091
 21
1398.1627835851921
 31
0.0
  0
ARC
  5
966C
  8
SJC2
 10
-369.75961352905421
 20
1391.655696119808
 30
0.0
 40
5.007850111935463
 50
270.0
 51
0.0
  0
LINE
  5
966D
  8
SJC2
 10
-364.75176341712091
 20
1343.083462416919
 30
0.0
 11
-364.75176341712091
 21
1349.5896329175671
 31
0.0
  0
ARC
  5
966E
  8
SJC2
 10
-369.75961352905421
 20
1349.5896329175671
 30
0.0
 40
5.007850111935463
 50
0.0
 51
90.0
  0
LINE
  5
966F
  8
SJC2
 10
-348.23661710073787
 20
1343.0562591295879
 30
0.0
 11
-348.22867925676752
 21
1352.922725463354
 31
0.0
  0
ARC
  5
9670
  8
SJC2
 10
-343.22876732460372
 20
1343.054425200113
 30
0.0
 40
5.007850111935463
 50
179.97901765840069
 51
270.00000384198142
  0
ARC
  5
9671
  8
SJC2
 10
-343.18444702625129
 20
1398.1444442903539
 30
0.0
 40
5.007850111935463
 50
90.0
 51
180.0
  0
ARC
  5
9672
  8
SJC2
 10
-343.71879392495481
 20
1343.0824833059669
 30
0.0
 40
21.032969514919621
 50
179.9973328097993
 51
270.00433235368479
  0
ARC
  5
9673
  8
SJC2
 10
-247.4264303106697
 20
1343.0739871146541
 30
0.0
 40
5.007850111935463
 50
270.0
 51
0.0
  0
LINE
  5
9674
  8
SJC2
 10
-242.4228593675389
 20
1398.166145789261
 30
0.0
 11
-242.4222355365259
 21
1390.134633420583
 31
0.0
  0
ARC
  5
9675
  8
SJC2
 10
-247.4307094794772
 20
1398.166145938533
 30
0.0
 40
5.007850111935463
 50
359.9999982924918
 51
90.01398822761125
  0
ARC
  5
9676
  8
SJC2
 10
-246.2948337294211
 20
1398.1631513294869
 30
0.0
 40
21.032969514919621
 50
359.99899823009332
 51
90.001001769919668
  0
ARC
  5
9677
  8
SJC2
 10
-220.2540141057716
 20
1391.655696119808
 30
0.0
 40
5.007850111935463
 50
180.0
 51
270.0
  0
LINE
  5
9678
  8
SJC2
 10
-225.26186421770541
 20
1391.655696119808
 30
0.0
 11
-225.26186421770541
 21
1398.1627835851921
 31
0.0
  0
ARC
  5
9679
  8
SJC2
 10
-246.29483370987151
 20
1343.0824833059669
 30
0.0
 40
21.032969514919621
 50
269.99566764631521
 51
0.0026671902006628
  0
ARC
  5
967A
  8
SJC2
 10
-220.2540141057716
 20
1349.5896329175671
 30
0.0
 40
5.007850111935463
 50
90.0
 51
180.0
  0
LINE
  5
967B
  8
SJC2
 10
-225.26186421770541
 20
1343.083462416919
 30
0.0
 11
-225.26186421770541
 21
1349.5896329175671
 31
0.0
  0
LINE
  5
967C
  8
SJC2
 10
-266.96773770932299
 20
1419.199047817694
 30
0.0
 11
-246.29448882568201
 21
1419.19983621601
 31
0.0
  0
LINE
  5
967D
  8
SJC2
 10
-249.3308502596897
 20
1403.1735655274281
 30
0.0
 11
-247.43193209917939
 21
1403.1739959011941
 31
0.0
  0
LINE
  5
967E
  8
SJC2
 10
-340.66518988316921
 20
1338.0470985459331
 30
0.0
 11
-343.22876698880009
 21
1338.046575088177
 31
0.0
  0
LINE
  5
967F
  8
SJC2
 10
-323.05285455539843
 20
1322.050301982667
 30
0.0
 11
-343.71720354148692
 21
1322.0495138511419
 31
0.0
  0
LINE
  5
9680
  8
SJC2
 10
-348.20013020084298
 20
1388.408217519356
 30
0.0
 11
-348.19229713818908
 21
1398.1444442903539
 31
0.0
  0
LINE
  5
9681
  8
SJC2
 10
-242.41920506786121
 20
1351.1188646476021
 30
0.0
 11
-242.41858019873689
 21
1343.0739871146541
 31
0.0
  0
TEXT
  5
9682
  8
MOJI
 10
1275.0035155658311
 20
1033.7473514993201
 30
0.0
 40
75.0
  1
格子パネル
 41
0.8
  7
EXT08
  0
LINE
  5
9683
  8
MOJI
 10
1254.933832052554
 20
1010.875986212174
 30
0.0
 11
1649.6944658435229
 21
1010.875986212174
 31
0.0
  0
INSERT
  5
9684
  8
0
  2
*U106
 10
0.0
 20
0.0
 30
0.0
1001
ACAD
1000
DSTYLE
1002
{
1070
     5
1000

1070
    40
1040
25.0
1070
    41
1040
2.0
1070
    42
1040
1.0
1070
    43
1040
6.0
1070
    44
1040
1.0
1070
    73
1070
     0
1070
    74
1070
     0
1070
    77
1070
     1
1070
    78
1070
     8
1070
   140
1040
3.0
1070
   144
1040
0.6
1070
   147
1040
1.1999999999999991
1070
   172
1070
     1
1070
   179
1070
     2
1070
   271
1070
     2
1070
   279
1070
     2
1070
   340
1005
BA4
1070
   342
1005
0
1002
}
  0
TEXT
  5
9685
  8
MOJI
 10
478.10932056708771
 20
904.9272810272771
 30
0.0
 40
75.0
  1
支  柱
 41
0.8
  7
EXT08
  0
LINE
  5
9686
  8
MOJI
 10
314.24326853462662
 20
878.5642031647842
 30
0.0
 11
863.22179680077261
 21
878.5642031647842
 31
0.0
  0
TEXT
  5
9687
  8
MOJI
 10
337.94386941063749
 20
777.20112530229119
 30
0.0
 40
75.0
  1
%%c60.5×t3.2
 41
0.8
  7
EXT08
  0
INSERT
  5
9688
  8
0
  2
*U107
 10
0.0
 20
0.0
 30
0.0
1001
ACAD
1000
DSTYLE
1002
{
1070
     5
1000

1070
    40
1040
25.0
1070
    41
1040
2.0
1070
    42
1040
1.0
1070
    43
1040
6.0
1070
    44
1040
1.0
1070
    73
1070
     0
1070
    74
1070
     0
1070
    77
1070
     1
1070
    78
1070
     8
1070
   140
1040
3.0
1070
   144
1040
0.6
1070
   147
1040
1.1999999999999991
1070
   172
1070
     1
1070
   179
1070
     2
1070
   271
1070
     2
1070
   279
1070
     2
1070
   340
1005
BA4
1070
   342
1005
0
1002
}
  0
LINE
  5
9689
  8
MOJI
 10
-815.07612004640032
 20
-612.425848107452
 30
0.0
 11
-414.05209185886901
 21
-612.425848107452
 31
0.0
  0
TEXT
  5
968A
  8
MOJI
 10
-811.68681178071699
 20
-705.42266426864535
 30
0.0
 40
75.0
  1
M12×90
 41
0.8
  7
EXT08
  0
TEXT
  5
968B
  8
MOJI
 10
-795.84990336620638
 20
-594.87063056087118
 30
0.0
 40
75.0
  1
角根ボルト
 41
0.8
  7
EXT08
  0
INSERT
  5
968C
  8
0
  2
*U108
 10
0.0
 20
0.0
 30
0.0
1001
ACAD
1000
DSTYLE
1002
{
1070
     5
1000

1070
    40
1040
25.0
1070
    41
1040
2.0
1070
    42
1040
1.0
1070
    43
1040
6.0
1070
    44
1040
1.0
1070
    73
1070
     0
1070
    74
1070
     0
1070
    77
1070
     1
1070
    78
1070
     8
1070
   140
1040
3.0
1070
   144
1040
0.6
1070
   147
1040
1.1999999999999991
1070
   172
1070
     1
1070
   179
1070
     2
1070
   271
1070
     2
1070
   279
1070
     2
1070
   340
1005
BA4
1070
   342
1005
0
1002
}
  0
LINE
  5
968D
  8
CENTER
 10
1208.1510694525821
 20
-479.95076400934607
 30
0.0
 11
1208.1510694525809
 21
743.25216925845075
 31
0.0
  0
INSERT
  5
968E
  8
0
  2
*U109
 10
0.0
 20
0.0
 30
0.0
1001
ACAD
1000
DSTYLE
1002
{
1070
    40
1040
25.0
1070
    41
1040
2.0
1070
    42
1040
1.0
1070
    43
1040
6.0
1070
    44
1040
1.0
1070
    73
1070
     0
1070
    74
1070
     0
1070
    77
1070
     0
1070
    78
1070
     8
1070
   140
1040
3.0
1070
   147
1040
1.1999999999999991
1070
   172
1070
     1
1070
   271
1070
     2
1070
   279
1070
     2
1070
   340
1005
BA4
1002
}
  0
TEXT
  5
968F
  8
MOJI
 10
749.4643963966937
 20
-351.63438276681927
 30
0.0
 40
75.0
  1
取付金具
 41
0.8
  7
EXT08
  0
LINE
  5
9690
  8
MOJI
 10
653.63622665392256
 20
-374.50574805396491
 30
0.0
 11
1048.3968604448919
 21
-374.50574805396491
 31
0.0
  0
INSERT
  5
9691
  8
0
  2
*U110
 10
0.0
 20
0.0
 30
0.0
1001
ACAD
1000
DSTYLE
1002
{
1070
     5
1000

1070
    40
1040
25.0
1070
    41
1040
2.0
1070
    42
1040
1.0
1070
    43
1040
6.0
1070
    44
1040
1.0
1070
    73
1070
     0
1070
    74
1070
     0
1070
    77
1070
     1
1070
    78
1070
     8
1070
   140
1040
3.0
1070
   144
1040
0.6
1070
   147
1040
1.1999999999999991
1070
   172
1070
     1
1070
   179
1070
     2
1070
   271
1070
     2
1070
   279
1070
     2
1070
   340
1005
BA4
1070
   342
1005
0
1002
}
  0
INSERT
  5
9692
  8
0
  2
*U111
 10
0.0
 20
0.0
 30
0.0
1001
ACAD
1000
DSTYLE
1002
{
1070
     5
1000

1070
    40
1040
25.0
1070
    41
1040
2.0
1070
    42
1040
1.0
1070
    43
1040
6.0
1070
    44
1040
1.0
1070
    73
1070
     0
1070
    74
1070
     0
1070
    77
1070
     1
1070
    78
1070
     8
1070
   140
1040
3.0
1070
   144
1040
0.6
1070
   147
1040
1.1999999999999991
1070
   172
1070
     1
1070
   179
1070
     2
1070
   271
1070
     2
1070
   279
1070
     2
1070
   340
1005
BA4
1070
   342
1005
0
1002
}
  0
INSERT
  5
9693
  8
SJC
  2
T-40樹脂キャップ
 10
0.0
 20
850.00216925845075
 30
0.0
 41
5.0
 42
5.0
 43
5.0
  0
ENDBLK
  5
7B51
  8
0
  0
BLOCK
  8
0
  2
*D35
 70
     1
 10
0.0
 20
0.0
 30
0.0
  3
*D35
  1

  0
LINE
  5
9FD9
  8
SUNPOU
 62
     0
 10
5508.1921202881604
 20
1489.9595701011749
 30
0.0
 11
6173.7431637990412
 21
1489.9595701011749
 31
0.0
  0
LINE
  5
9FDA
  8
SUNPOU
 62
     0
 10
6148.7431637990412
 20
1439.9595701011749
 30
0.0
 11
6148.7431637990412
 21
1060.9734743669189
 31
0.0
  0
SOLID
  5
9FDB
  8
SUNPOU
 62
     0
 10
6140.4098304657082
 20
1439.9595701011749
 30
0.0
 11
6157.0764971323752
 21
1439.9595701011749
 31
0.0
 12
6148.7431637990412
 22
1489.9595701011749
 32
0.0
 13
6148.7431637990412
 23
1489.9595701011749
 33
0.0
  0
TEXT
  8
SUNPOU
  40
75
  5
A16C
  62
0
  72
0
  71
0
 10
5931.24
 20
1117.72
 30
0.000000
  1
300
  7
EXT08
  0
POINT
  5
9FDD
  8
DEFPOINTS
 62
     0
 10
5483.1921202881585
 20
1489.9595701011749
 30
0.0
  0
POINT
  5
9FDE
  8
DEFPOINTS
 62
     0
 10
5653.191576044127
 20
1060.9734743669189
 30
0.0
  0
POINT
  5
9FDF
  8
DEFPOINTS
 62
     0
 10
6148.7431637990412
 20
1060.9734743669189
 30
0.0
  0
ENDBLK
  5
7B83
  8
0
  0
BLOCK
  8
0
  2
_DOTSMALL
 70
     0
 10
0.0
 20
0.0
 30
0.0
  3
_DOTSMALL
  1

  0
POLYLINE
  5
823E
  8
0
  6
BYBLOCK
 62
     0
 66
     1
 10
0.0
 20
0.0
 30
0.0
 70
     1
 40
0.5
 41
0.5
  0
VERTEX
  5
9FE0
  8
0
  6
BYBLOCK
 62
     0
 10
-0.0625
 20
0.0
 30
0.0
 42
1.0
  0
VERTEX
  5
9FE1
  8
0
  6
BYBLOCK
 62
     0
 10
0.0625
 20
0.0
 30
0.0
 42
1.0
  0
SEQEND
  5
9FE2
  8
0
  6
BYBLOCK
 62
     0
  0
ENDBLK
  5
823F
  8
0
  0
BLOCK
  8
0
  2
*D37
 70
     1
 10
0.0
 20
0.0
 30
0.0
  3
*D37
  1

  0
LINE
  5
9FE3
  8
SUNPOU
 10
1094.4570441814451
 20
5616.7822808603823
 30
0.0
 11
1094.4570441814451
 21
5926.5250246000824
 31
0.0
  0
LINE
  5
9FE4
  8
SUNPOU
 10
2574.4563222202451
 20
5616.7822808603823
 30
0.0
 11
2574.4563222202451
 21
5926.5250246000824
 31
0.0
  0
LINE
  5
9FE5
  8
SUNPOU
 10
1144.4570441814451
 20
5901.5250246000833
 30
0.0
 11
2524.4563222202451
 21
5901.5250246000833
 31
0.0
  0
SOLID
  5
9FE6
  8
SUNPOU
 10
1144.4570441814451
 20
5909.8583579334163
 30
0.0
 11
1144.4570441814451
 21
5893.1916912667502
 31
0.0
 12
1094.4570441814451
 22
5901.5250246000833
 32
0.0
 13
1094.4570441814451
 23
5901.5250246000833
 33
0.0
  0
SOLID
  5
9FE7
  8
SUNPOU
 10
2524.4563222202451
 20
5909.8583579334163
 30
0.0
 11
2524.4563222202451
 21
5893.1916912667502
 31
0.0
 12
2574.4563222202451
 22
5901.5250246000833
 32
0.0
 13
2574.4563222202451
 23
5901.5250246000833
 33
0.0
  0
TEXT
  8
SUNPOU
  40
75
  5
A16D
  72
0
  71
0
 10
1684.46
 20
5836.28
 30
0.000000
  1
10@148=1480
  7
EXT08
  0
POINT
  5
9FE9
  8
DEFPOINTS
 62
     0
 10
1094.4570441814451
 20
5591.7822808603823
 30
0.0
  0
POINT
  5
9FEA
  8
DEFPOINTS
 62
     0
 10
2574.4563222202451
 20
5591.7822808603823
 30
0.0
  0
POINT
  5
9FEB
  8
DEFPOINTS
 62
     0
 10
2574.4563222202451
 20
5901.5250246000833
 30
0.0
  0
ENDBLK
  5
82EF
  8
0
  0
BLOCK
  8
0
  2
*D38
 70
     1
 10
0.0
 20
0.0
 30
0.0
  3
*D38
  1

  0
LINE
  5
9FEC
  8
SUNPOU
 62
     0
 10
939.45714793084505
 20
5616.7822808603823
 30
0.0
 11
939.45714793084505
 21
5926.5250246000824
 31
0.0
  0
LINE
  5
9FED
  8
SUNPOU
 62
     0
 10
1094.4570441814451
 20
5616.7822808603823
 30
0.0
 11
1094.4570441814451
 21
5926.5250246000824
 31
0.0
  0
LINE
  5
9FEE
  8
SUNPOU
 62
     0
 10
939.45714793084505
 20
5901.5250246000833
 30
0.0
 11
1044.4570441814451
 21
5901.5250246000833
 31
0.0
  0
TEXT
  8
SUNPOU
  40
75
  5
A16E
  62
0
  72
0
  71
0
 10
940.672
 20
5836.28
 30
0.000000
  1
155
  7
EXT08
  0
INSERT
  5
9FF0
  8
SUNPOU
 62
     0
  2
_DOTSMALL
 10
939.45714793084505
 20
5901.5250246000833
 30
0.0
 41
50.0
 42
50.0
 43
50.0
 50
180.0
  0
SOLID
  5
9FF1
  8
SUNPOU
 62
     0
 10
1044.4570441814451
 20
5909.8583579334163
 30
0.0
 11
1044.4570441814451
 21
5893.1916912667502
 31
0.0
 12
1094.4570441814451
 22
5901.5250246000833
 32
0.0
 13
1094.4570441814451
 23
5901.5250246000833
 33
0.0
  0
POINT
  5
9FF2
  8
DEFPOINTS
 62
     0
 10
939.45714793084505
 20
5591.7822808603823
 30
0.0
  0
POINT
  5
9FF3
  8
DEFPOINTS
 62
     0
 10
1094.4570441814451
 20
5591.7822808603823
 30
0.0
  0
POINT
  5
9FF4
  8
DEFPOINTS
 62
     0
 10
1094.4570441814451
 20
5901.5250246000833
 30
0.0
  0
ENDBLK
  5
82FB
  8
0
  0
BLOCK
  8
0
  2
*D39
 70
     1
 10
0.0
 20
0.0
 30
0.0
  3
*D39
  1

  0
LINE
  5
9FF5
  8
SUNPOU
 62
     0
 10
939.45714793084505
 20
5616.7822808603823
 30
0.0
 11
939.45714793084505
 21
5926.5250246000824
 31
0.0
  0
LINE
  5
9FF6
  8
SUNPOU
 62
     0
 10
894.45707063104408
 20
5616.7822808603823
 30
0.0
 11
894.45707063104408
 21
5926.5250246000824
 31
0.0
  0
LINE
  5
9FF7
  8
SUNPOU
 62
     0
 10
939.45714793084505
 20
5901.5250246000833
 30
0.0
 11
989.45714793084505
 21
5901.5250246000833
 31
0.0
  0
LINE
  5
9FF8
  8
SUNPOU
 62
     0
 10
844.45707063104408
 20
5901.5250246000833
 30
0.0
 11
794.45707063104408
 21
5901.5250246000833
 31
0.0
  0
TEXT
  8
SUNPOU
  40
75
  5
A16F
  62
0
  72
0
  71
0
 10
774.014
 20
5836.28
 30
0.000000
  1
(45)
  7
EXT08
  0
LINE
  5
9FFA
  8
SUNPOU
 62
     0
 10
939.45714793084505
 20
5901.5250246000833
 30
0.0
 11
894.45707063104408
 21
5901.5250246000833
 31
0.0
  0
INSERT
  5
9FFB
  8
SUNPOU
 62
     0
  2
_DOTSMALL
 10
939.45714793084505
 20
5901.5250246000833
 30
0.0
 41
50.0
 42
50.0
 43
50.0
 50
180.0
  0
SOLID
  5
9FFC
  8
SUNPOU
 62
     0
 10
844.45707063104408
 20
5909.8583579334163
 30
0.0
 11
844.45707063104408
 21
5893.1916912667502
 31
0.0
 12
894.45707063104408
 22
5901.5250246000833
 32
0.0
 13
894.45707063104408
 23
5901.5250246000833
 33
0.0
  0
POINT
  5
9FFD
  8
DEFPOINTS
 62
     0
 10
939.45714793084505
 20
5591.7822808603823
 30
0.0
  0
POINT
  5
9FFE
  8
DEFPOINTS
 62
     0
 10
894.45707063104408
 20
5591.7822808603823
 30
0.0
  0
POINT
  5
9FFF
  8
DEFPOINTS
 62
     0
 10
894.45707063104408
 20
5901.5250246000833
 30
0.0
  0
ENDBLK
  5
8309
  8
0
  0
BLOCK
  8
0
  2
*D40
 70
     1
 10
0.0
 20
0.0
 30
0.0
  3
*D40
  1

  0
LINE
  5
A000
  8
SUNPOU
 62
     0
 10
2729.4567906754451
 20
5616.7822808603823
 30
0.0
 11
2729.4567906754451
 21
5926.5250246000824
 31
0.0
  0
LINE
  5
A001
  8
SUNPOU
 62
     0
 10
2574.4568944248449
 20
5616.7822808603823
 30
0.0
 11
2574.4568944248449
 21
5926.5250246000824
 31
0.0
  0
LINE
  5
A002
  8
SUNPOU
 62
     0
 10
2729.4567906754451
 20
5901.5250246000833
 30
0.0
 11
2624.4568944248449
 21
5901.5250246000833
 31
0.0
  0
TEXT
  8
SUNPOU
  40
75
  5
A170
  62
0
  72
0
  71
0
 10
2428.24
 20
5836.28
 30
0.000000
  1
155
  7
EXT08
  0
INSERT
  5
A004
  8
SUNPOU
 62
     0
  2
_DOTSMALL
 10
2729.4567906754451
 20
5901.5250246000833
 30
0.0
 41
50.0
 42
50.0
 43
50.0
  0
SOLID
  5
A005
  8
SUNPOU
 62
     0
 10
2624.4568944248449
 20
5909.8583579334163
 30
0.0
 11
2624.4568944248449
 21
5893.1916912667502
 31
0.0
 12
2574.4568944248449
 22
5901.5250246000833
 32
0.0
 13
2574.4568944248449
 23
5901.5250246000833
 33
0.0
  0
POINT
  5
A006
  8
DEFPOINTS
 62
     0
 10
2729.4567906754451
 20
5591.7822808603823
 30
0.0
  0
POINT
  5
A007
  8
DEFPOINTS
 62
     0
 10
2574.4568944248449
 20
5591.7822808603823
 30
0.0
  0
POINT
  5
A008
  8
DEFPOINTS
 62
     0
 10
2574.4568944248449
 20
5901.5250246000833
 30
0.0
  0
ENDBLK
  5
8315
  8
0
  0
BLOCK
  8
0
  2
*D41
 70
     1
 10
0.0
 20
0.0
 30
0.0
  3
*D41
  1

  0
LINE
  5
A009
  8
SUNPOU
 62
     0
 10
2729.4567906754451
 20
5616.7822808603823
 30
0.0
 11
2729.4567906754451
 21
5926.5250246000824
 31
0.0
  0
LINE
  5
A00A
  8
SUNPOU
 62
     0
 10
2774.456867975246
 20
5616.7822808603823
 30
0.0
 11
2774.456867975246
 21
5926.5250246000824
 31
0.0
  0
LINE
  5
A00B
  8
SUNPOU
 62
     0
 10
2729.4567906754451
 20
5901.5250246000833
 30
0.0
 11
2679.4567906754451
 21
5901.5250246000833
 31
0.0
  0
LINE
  5
A00C
  8
SUNPOU
 62
     0
 10
2824.456867975246
 20
5901.5250246000833
 30
0.0
 11
2874.456867975246
 21
5901.5250246000833
 31
0.0
  0
TEXT
  8
SUNPOU
  40
75
  5
A171
  62
0
  72
0
  71
0
 10
2594.90
 20
5836.28
 30
0.000000
  1
(45)
  7
EXT08
  0
LINE
  5
A00E
  8
SUNPOU
 62
     0
 10
2729.4567906754451
 20
5901.5250246000833
 30
0.0
 11
2774.456867975246
 21
5901.5250246000833
 31
0.0
  0
INSERT
  5
A00F
  8
SUNPOU
 62
     0
  2
_DOTSMALL
 10
2729.4567906754451
 20
5901.5250246000833
 30
0.0
 41
50.0
 42
50.0
 43
50.0
  0
SOLID
  5
A010
  8
SUNPOU
 62
     0
 10
2824.456867975246
 20
5909.8583579334163
 30
0.0
 11
2824.456867975246
 21
5893.1916912667502
 31
0.0
 12
2774.456867975246
 22
5901.5250246000833
 32
0.0
 13
2774.456867975246
 23
5901.5250246000833
 33
0.0
  0
POINT
  5
A011
  8
DEFPOINTS
 62
     0
 10
2729.4567906754451
 20
5591.7822808603823
 30
0.0
  0
POINT
  5
A012
  8
DEFPOINTS
 62
     0
 10
2774.456867975246
 20
5591.7822808603823
 30
0.0
  0
POINT
  5
A013
  8
DEFPOINTS
 62
     0
 10
2774.456867975246
 20
5901.5250246000833
 30
0.0
  0
ENDBLK
  5
8323
  8
0
  0
BLOCK
  8
0
  2
樹脂キャップ-T-4081支柱図2000
 70
     0
 10
0.0
 20
0.0
 30
0.0
  3
樹脂キャップ-T-4081支柱図2000
  1
C:\Documents and Settings\SJC\デスクトップ\G_T-40\ブロックT-40\T-40柵金具詳細図\樹脂キャップ-T-4081支柱図2000.dwg
  0
TEXT
  5
96A1
  8
INFORMATION
 10
1.0
 20
1.0
 30
0.0
 40
0.8
  1
VERSION=3.0
 41
0.8
  7
EXT08
  0
TEXT
  5
96A2
  8
MOJI
 10
-739.22924024849806
 20
24.821664204081571
 30
0.0
 40
75.0
  1
GL
 41
0.8
  7
EXT08
  0
LINE
  5
96A3
  8
SJC
 10
-757.18884464425355
 20
0.0
 30
0.0
 11
757.18808029321235
 21
0.0
 31
0.0
  0
LINE
  5
96A4
  8
SJC
 10
-99.996322071079703
 20
1333.270735815436
 30
0.0
 11
-99.996322071079703
 21
1262.0615121549929
 31
0.0
  0
LINE
  5
96A5
  8
SJC
 10
-106.665283745102
 20
1333.270735815436
 30
0.0
 11
-106.665283745102
 21
1262.0615121549929
 31
0.0
  0
LINE
  5
96A6
  8
SJC
 10
-99.996322071079703
 20
1333.270735815436
 30
0.0
 11
-757.18884464425355
 21
1333.270735815436
 31
0.0
  0
LINE
  5
96A7
  8
CENTER
 10
-91.284632594848503
 20
1297.6657418097959
 30
0.0
 11
-783.51356764190496
 21
1297.6657418097959
 31
0.0
  0
LINE
  5
96A8
  8
CENTER
 10
91.284632594748459
 20
1297.6657418097959
 30
0.0
 11
783.5135676418048
 21
1297.6657418097959
 31
0.0
  0
LINE
  5
96A9
  8
SJC
 10
-757.18884464425355
 20
1262.0615121549929
 30
0.0
 11
-99.996322071079703
 21
1262.0615121549929
 31
0.0
  0
LINE
  5
96AA
  8
SJC
 10
-106.6976541526837
 20
321.17230252229109
 30
0.0
 11
-106.6976541526837
 21
249.9625055986719
 31
0.0
  0
LINE
  5
96AB
  8
SJC
 10
-100.02907465407949
 20
321.17230252229109
 30
0.0
 11
-100.02907465407949
 21
249.9625055986719
 31
0.0
  0
LINE
  5
96AC
  8
SJC
 10
-100.02907465407949
 20
249.9625055986719
 30
0.0
 11
-757.18884464425355
 21
249.9625055986719
 31
0.0
  0
LINE
  5
96AD
  8
SJC
 10
-146.7098954949451
 20
1262.0615121549929
 30
0.0
 11
-146.7098954949451
 21
321.17230252229109
 31
0.0
  0
LINE
  5
96AE
  8
SJC
 10
-203.3922479697012
 20
1262.0615121549929
 30
0.0
 11
-203.3922479697012
 21
321.17230252229109
 31
0.0
  0
LINE
  5
96AF
  8
CENTER
 10
-90.784632594848517
 20
285.56749960431102
 30
0.0
 11
-783.51356764190496
 21
285.56749960431102
 31
0.0
  0
LINE
  5
96B0
  8
CENTER
 10
-175.0504984691452
 20
1297.6657418097959
 30
0.0
 11
-175.0504984691452
 21
285.56749960431102
 31
0.0
  0
LINE
  5
96B1
  8
CENTER
 10
90.784632594748473
 20
285.56749960431102
 30
0.0
 11
783.5135676418048
 21
285.56749960431102
 31
0.0
  0
LINE
  5
96B2
  8
CENTER
 10
175.0504984690451
 20
1297.6657418097959
 30
0.0
 11
175.0504984690451
 21
285.56749960431102
 31
0.0
  0
LINE
  5
96B3
  8
SJC
 10
-100.0290746540793
 20
321.17230252229109
 30
0.0
 11
-757.18884464425355
 21
321.17230252229109
 31
0.0
  0
DIMENSION
  5
96B4
  8
SUNPOU
  2
*D67
 10
1175.7204563139551
 20
-0.0000000000001186
 30
0.0
 11
1108.2204563139551
 21
666.63536790771843
 31
0.0
  3
SJC
 13
757.18884464425355
 23
1333.270735815436
 33
0.0
 14
757.18808029321235
 24
0.0
 34
0.0
 50
90.0
1001
ACAD
1000
DSTYLE
1002
{
1070
   287
1070
     5
1070
   287
1070
     5
1070
   287
1070
     5
1070
    40
1040
25.0
1070
    41
1040
2.0
1070
    42
1040
1.0
1070
    43
1040
6.0
1070
    44
1040
1.0
1070
    73
1070
     0
1070
    74
1070
     0
1070
    77
1070
     1
1070
    78
1070
     8
1070
   140
1040
3.0
1070
   144
1040
0.6
1070
   147
1040
1.1999999999999991
1070
   172
1070
     1
1070
   176
1070
   256
1070
   177
1070
   256
1070
   178
1070
   256
1070
   271
1070
     0
1070
   279
1070
     2
1070
   287
1070
     5
1070
   340
1005
BA4
1002
}
  0
LINE
  5
96C1
  8
SJC
 10
203.39148361866501
 20
1262.0615121549929
 30
0.0
 11
203.39148361866501
 21
321.17230252229109
 31
0.0
  0
LINE
  5
96C2
  8
SJC
 10
146.70913114390891
 20
1262.0615121549929
 30
0.0
 11
146.70913114390891
 21
321.17230252229109
 31
0.0
  0
LINE
  5
96C3
  8
SJC
 10
106.66451939406581
 20
1333.270735815436
 30
0.0
 11
106.66451939406581
 21
1262.0615121549929
 31
0.0
  0
LINE
  5
96C4
  8
SJC
 10
99.995557720043507
 20
1333.270735815436
 30
0.0
 11
99.995557720043507
 21
1262.0615121549929
 31
0.0
  0
LINE
  5
96C5
  8
SJC
 10
757.18808029321735
 20
1262.0615121549929
 30
0.0
 11
99.995557720043507
 21
1262.0615121549929
 31
0.0
  0
LINE
  5
96C6
  8
SJC
 10
99.995557720043507
 20
1333.270735815436
 30
0.0
 11
757.18808029321735
 21
1333.270735815436
 31
0.0
  0
LINE
  5
96C7
  8
SJC
 10
100.0283103030431
 20
321.17230252229109
 30
0.0
 11
757.18808029321735
 21
321.17230252229109
 31
0.0
  0
LINE
  5
96C8
  8
SJC
 10
100.0283103030433
 20
249.9625055986719
 30
0.0
 11
757.18808029321735
 21
249.9625055986719
 31
0.0
  0
LINE
  5
96C9
  8
SJC
 10
100.0283103030433
 20
321.17230252229109
 30
0.0
 11
100.0283103030433
 21
249.9625055986719
 31
0.0
  0
LINE
  5
96CA
  8
SJC
 10
106.6968898016475
 20
321.17230252229109
 30
0.0
 11
106.6968898016475
 21
249.9625055986719
 31
0.0
  0
ARC
  5
96CB
  8
SJC
 10
-707.42728619173295
 20
1315.46823881262
 30
0.0
 40
52.850180691828648
 50
160.31502461925609
 51
199.68497538074999
  0
ARC
  5
96CC
  8
SJC
 10
-707.42728619173022
 20
1279.8632448069791
 30
0.0
 40
52.850180691828648
 50
160.31502461925609
 51
199.68497538074999
  0
ARC
  5
96CD
  8
SJC
 10
-806.95040309677188
 20
1279.8632448069791
 30
0.0
 40
52.850180691828648
 50
340.31502461924998
 51
19.684975380743879
  0
ARC
  5
96CE
  8
SJC
 10
-806.95040309677188
 20
267.76481151383382
 30
0.0
 40
52.850180691828648
 50
340.31502461924998
 51
19.684975380743879
  0
ARC
  5
96CF
  8
SJC
 10
-707.42728619173022
 20
267.76481151383382
 30
0.0
 40
52.850180691828648
 50
160.31502461925609
 51
199.68497538074999
  0
ARC
  5
96D0
  8
SJC
 10
-707.42728619173295
 20
303.36980551947482
 30
0.0
 40
52.850180691828648
 50
160.31502461925609
 51
199.68497538074999
  0
ARC
  5
96D1
  8
SJC
 10
806.94963874573659
 20
1315.4682388126171
 30
0.0
 40
52.850180691828648
 50
160.31502461925609
 51
199.68497538074999
  0
ARC
  5
96D2
  8
SJC
 10
707.42728619173022
 20
1279.8632448069791
 30
0.0
 40
52.850180691828648
 50
340.31502461924998
 51
19.684975380743879
  0
ARC
  5
96D3
  8
SJC
 10
707.42728619173295
 20
1315.46823881262
 30
0.0
 40
52.850180691828648
 50
340.31502461924998
 51
19.684975380743879
  0
ARC
  5
96D4
  8
SJC
 10
707.42652184069402
 20
267.76481151383382
 30
0.0
 40
52.850180691828648
 50
340.31502461924998
 51
19.684975380743879
  0
ARC
  5
96D5
  8
SJC
 10
806.94887439470028
 20
303.36980551947107
 30
0.0
 40
52.850180691828648
 50
160.31502461925609
 51
199.68497538074999
  0
ARC
  5
96D6
  8
SJC
 10
707.42652184069675
 20
303.36980551947482
 30
0.0
 40
52.850180691828648
 50
340.31502461924998
 51
19.684975380743879
  0
DIMENSION
  5
96D7
  8
SUNPOU
  2
*D68
 10
982.08860841127705
 20
1333.270735815436
 30
0.0
 11
914.58860841127694
 21
1191.56409027781
 31
0.0
  3
SJC
 13
146.70913114390891
 23
1049.8574447401829
 33
0.0
 14
782.18884464425355
 24
1333.270735815436
 34
0.0
 50
90.0
1001
ACAD
1000
DSTYLE
1002
{
1070
   287
1070
     5
1070
   287
1070
     5
1070
   287
1070
     5
1070
    40
1040
25.0
1070
    41
1040
2.0
1070
    42
1040
1.0
1070
    43
1040
6.0
1070
    44
1040
1.0
1070
    73
1070
     0
1070
    74
1070
     0
1070
    77
1070
     1
1070
    78
1070
     8
1070
   140
1040
3.0
1070
   144
1040
0.6
1070
   147
1040
1.1999999999999991
1070
   172
1070
     1
1070
   176
1070
   256
1070
   177
1070
   256
1070
   178
1070
   256
1070
   271
1070
     0
1070
   279
1070
     2
1070
   287
1070
     5
1070
   340
1005
BA4
1002
}
  0
LINE
  5
96E4
  8
MOJI
 10
218.7124090396164
 20
-202.95080025014749
 30
0.0
 11
767.69093730576242
 21
-202.95080025014749
 31
0.0
  0
TEXT
  5
96E5
  8
MOJI
 10
242.4130099156273
 20
-304.3138781126404
 30
0.0
 40
75.0
  1
%%c60.5×t3.2
 41
0.8
  7
EXT08
  0
TEXT
  5
96E6
  8
MOJI
 10
390.12843101409908
 20
-176.58772238765459
 30
0.0
 40
75.0
  1
支  柱
 41
0.8
  7
EXT08
  0
INSERT
  5
96E7
  8
0
  2
*U114
 10
0.0
 20
0.0
 30
0.0
1001
ACAD
1000
DSTYLE
1002
{
1070
     5
1000

1070
    40
1040
25.0
1070
    41
1040
2.0
1070
    42
1040
1.0
1070
    43
1040
6.0
1070
    44
1040
1.0
1070
    73
1070
     0
1070
    74
1070
     0
1070
    77
1070
     1
1070
    78
1070
     8
1070
   140
1040
3.0
1070
   144
1040
0.6
1070
   147
1040
1.1999999999999991
1070
   172
1070
     1
1070
   179
1070
     2
1070
   271
1070
     2
1070
   279
1070
     2
1070
   340
1005
BA4
1070
   342
1005
0
1002
}
  0
LINE
  5
96E8
  8
MOJI
 10
-768.31594828199741
 20
-178.3701265223076
 30
0.0
 11
-367.74629909270379
 21
-178.3701265223076
 31
0.0
  0
TEXT
  5
96E9
  8
MOJI
 10
-739.88825399895904
 20
-160.81490897572669
 30
0.0
 40
75.0
  1
角根ボルト
 41
0.8
  7
EXT08
  0
TEXT
  5
96EA
  8
MOJI
 10
-746.60626498219062
 20
-271.36694268350089
 30
0.0
 40
75.0
  1
M12×90
 41
0.8
  7
EXT08
  0
INSERT
  5
96EB
  8
0
  2
*U115
 10
0.0
 20
0.0
 30
0.0
1001
ACAD
1000
DSTYLE
1002
{
1070
     5
1000

1070
    40
1040
25.0
1070
    41
1040
2.0
1070
    42
1040
1.0
1070
    43
1040
6.0
1070
    44
1040
1.0
1070
    73
1070
     0
1070
    74
1070
     0
1070
    77
1070
     1
1070
    78
1070
     8
1070
   140
1040
3.0
1070
   144
1040
0.6
1070
   147
1040
1.1999999999999991
1070
   172
1070
     1
1070
   179
1070
     2
1070
   271
1070
     2
1070
   279
1070
     2
1070
   340
1005
BA4
1070
   342
1005
0
1002
}
  0
LINE
  5
96EC
  8
MOJI
 10
-1035.103847643411
 20
835.54417308774555
 30
0.0
 11
-717.06256230805036
 21
835.54417308774555
 31
0.0
  0
TEXT
  5
96ED
  8
MOJI
 10
-1025.292101966523
 20
855.46638159079146
 30
0.0
 40
75.0
  1
取付金具
 41
0.8
  7
EXT08
  0
DIMENSION
  5
96EE
  8
SUNPOU
  2
*D69
 10
982.08860841127682
 20
-0.0000000000000637
 30
0.0
 11
914.58860841127671
 21
274.94912292940529
 31
0.0
  3
SJC
 13
146.70913114390891
 23
549.89824585881058
 33
0.0
 14
757.18808029321235
 24
0.0
 34
0.0
 50
90.0
1001
ACAD
1000
DSTYLE
1002
{
1070
   287
1070
     5
1070
   287
1070
     5
1070
   287
1070
     5
1070
    40
1040
25.0
1070
    41
1040
2.0
1070
    42
1040
1.0
1070
    43
1040
6.0
1070
    44
1040
1.0
1070
    73
1070
     0
1070
    74
1070
     0
1070
    77
1070
     1
1070
    78
1070
     8
1070
   140
1040
3.0
1070
   144
1040
0.6
1070
   147
1040
1.1999999999999991
1070
   172
1070
     1
1070
   179
1070
     2
1070
   271
1070
     0
1070
   279
1070
     2
1070
   287
1070
     5
1070
   340
1005
BA4
1002
}
  0
INSERT
  5
96FB
  8
0
  2
*U117
 10
0.0
 20
0.0
 30
0.0
1001
ACAD
1000
DSTYLE
1002
{
1070
     5
1000

1070
    40
1040
25.0
1070
    41
1040
2.0
1070
    42
1040
1.0
1070
    43
1040
6.0
1070
    44
1040
1.0
1070
    73
1070
     0
1070
    74
1070
     0
1070
    77
1070
     0
1070
    78
1070
     8
1070
   140
1040
3.0
1070
   144
1040
0.6
1070
   147
1040
1.1999999999999991
1070
   172
1070
     1
1070
   271
1070
     2
1070
   279
1070
     2
1070
   340
1005
BA4
1070
   342
1005
0
1002
}
  0
INSERT
  5
96FC
  8
SJC
  2
T-40金具詳細
 10
0.0
 20
549.89824585881058
 30
0.0
 41
1.6666666666666661
 42
1.6666666666666661
 43
1.6666666666666661
  0
INSERT
  5
9723
  8
SJC
  2
T-40金具詳細
 10
0.0
 20
1049.8574447401829
 30
0.0
 41
1.6666666666666661
 42
1.6666666666666661
 43
1.6666666666666661
  0
LINE
  5
9724
  8
SJC
 10
-787.18884464425355
 20
0.0
 30
0.0
 11
757.18808029321235
 21
0.0
 31
0.0
  0
LINE
  5
9725
  8
SJC
 10
451.53646846748421
 20
1262.0615121549929
 30
0.0
 11
451.53646846748421
 21
321.17230252229109
 31
0.0
  0
LINE
  5
9726
  8
SJC
 10
662.0979457804915
 20
1262.0615121549929
 30
0.0
 11
662.0979457804915
 21
321.17230252229109
 31
0.0
  0
LINE
  5
9727
  8
SJC
 10
-698.27467426557087
 20
1262.0615121549929
 30
0.0
 11
-698.27467426557087
 21
321.17230252229109
 31
0.0
  0
LINE
  5
9728
  8
SJC
 10
-662.09775469283147
 20
1262.0615121549929
 30
0.0
 11
-662.09775469283147
 21
321.17230252229109
 31
0.0
  0
LINE
  5
9729
  8
SJC
 10
-451.53761499384012
 20
1262.0615121549929
 30
0.0
 11
-451.53761499384012
 21
321.17230252229109
 31
0.0
  0
LINE
  5
972A
  8
SJC
 10
-415.36088650886262
 20
1262.0615121549929
 30
0.0
 11
-415.36088650886262
 21
321.17230252229109
 31
0.0
  0
LINE
  5
972B
  8
SJC
 10
698.27467426557087
 20
1262.0615121549929
 30
0.0
 11
698.27467426557087
 21
321.17230252229109
 31
0.0
  0
LINE
  5
972C
  8
SJC
 10
415.35897563156863
 20
1262.0615121549929
 30
0.0
 11
415.35897563156863
 21
321.17230252229109
 31
0.0
  0
LINE
  5
972D
  8
CENTER
 10
-433.44925075140208
 20
1297.6657418097959
 30
0.0
 11
-433.4492507514023
 21
285.5674996043104
 31
0.0
  0
LINE
  5
972E
  8
CENTER
 10
-680.18631002313111
 20
1297.6657418097959
 30
0.0
 11
-680.18631002313123
 21
285.5674996043104
 31
0.0
  0
LINE
  5
972F
  8
CENTER
 10
433.44925075130038
 20
1297.6657418097959
 30
0.0
 11
433.44925075130038
 21
285.5674996043104
 31
0.0
  0
LINE
  5
9730
  8
CENTER
 10
680.18631002303164
 20
1297.6657418097959
 30
0.0
 11
680.18631002303118
 21
285.5674996043104
 31
0.0
  0
DIMENSION
  5
9731
  8
SUNPOU
  2
*D70
 10
-175.0508806445614
 20
1656.971020216786
 30
0.0
 11
-407.4662638520258
 21
1727.8433395800321
 31
0.0
 70
   128
  3
SJC
 13
-433.44925075140048
 23
1333.270735815436
 33
0.0
 14
-175.0508806445614
 24
1333.270735815436
 34
0.0
1001
ACAD
1000
DSTYLE
1002
{
1070
   287
1070
     5
1070
   287
1070
     5
1070
   287
1070
     5
1070
    40
1040
25.0
1070
    41
1040
2.0
1070
    42
1040
1.0
1070
    43
1040
6.0
1070
    44
1040
1.0
1070
    73
1070
     0
1070
    74
1070
     0
1070
    77
1070
     1
1070
    78
1070
     8
1070
   140
1040
3.0
1070
   144
1040
0.6
1070
   147
1040
1.1999999999999991
1070
   172
1070
     1
1070
   271
1070
     0
1070
   279
1070
     2
1070
   287
1070
     5
1070
   340
1005
BA4
1002
}
  0
DIMENSION
  5
973E
  8
SUNPOU
  2
*D71
 10
-787.18884464425173
 20
1865.588002816309
 30
0.0
 11
-468.59258335766572
 21
1952.730859959167
 31
0.0
  1
(1880)
  3
SJC
 13
-99.996322071079703
 23
1333.270735815436
 33
0.0
 14
-787.18884464425173
 24
1865.588002816309
 34
0.0
1001
ACAD
1000
DSTYLE
1002
{
1070
   287
1070
     5
1070
   287
1070
     5
1070
   287
1070
     5
1070
    40
1040
25.0
1070
    41
1040
2.0
1070
    42
1040
1.0
1070
    43
1040
6.0
1070
    44
1040
1.0
1070
    73
1070
     0
1070
    74
1070
     0
1070
    77
1070
     1
1070
    78
1070
     8
1070
   140
1040
3.0
1070
   147
1040
1.1999999999999991
1070
   172
1070
     1
1070
   173
1070
     1
1070
   271
1070
     2
1070
   279
1070
     2
1070
   287
1070
     5
1070
   340
1005
BA4
1070
     6
1000

1070
     7
1000
NONE
1002
}
  0
DIMENSION
  5
9749
  8
SUNPOU
  2
*D72
 10
-787.18884464425173
 20
2078.3630340941058
 30
0.0
 11
-418.59442232212581
 21
2145.8630340941058
 31
0.0
  1
2000
  3
SJC
 13
0.0
 23
1385.6103984245119
 33
0.0
 14
-787.18884464425173
 24
2078.3630340941058
 34
0.0
1001
ACAD
1000
DSTYLE
1002
{
1070
   287
1070
     5
1070
   287
1070
     5
1070
   287
1070
     5
1070
    40
1040
25.0
1070
    41
1040
2.0
1070
    42
1040
1.0
1070
    43
1040
6.0
1070
    44
1040
1.0
1070
    73
1070
     0
1070
    74
1070
     0
1070
    77
1070
     1
1070
    78
1070
     8
1070
   140
1040
3.0
1070
   147
1040
1.1999999999999991
1070
   172
1070
     1
1070
   173
1070
     1
1070
   271
1070
     2
1070
   279
1070
     2
1070
   287
1070
     5
1070
   340
1005
BA4
1070
     6
1000

1070
     7
1000
NONE
1002
}
  0
DIMENSION
  5
9754
  8
SUNPOU
  2
*D73
 10
-787.18884464425173
 20
1656.971020216786
 30
0.0
 11
-649.43134271309998
 21
1724.471020216786
 31
0.0
 70
   128
  1
@148
  3
SJC
 13
-433.44925075140048
 23
1333.270735815436
 33
0.0
 14
-787.18884464425173
 24
1656.971020216786
 34
0.0
1001
ACAD
1000
DSTYLE
1002
{
1070
   287
1070
     5
1070
   287
1070
     5
1070
   287
1070
     5
1070
    40
1040
25.0
1070
    41
1040
2.0
1070
    42
1040
1.0
1070
    43
1040
6.0
1070
    44
1040
1.0
1070
    73
1070
     0
1070
    74
1070
     0
1070
    77
1070
     1
1070
    78
1070
     8
1070
   140
1040
3.0
1070
   144
1040
0.6
1070
   147
1040
1.1999999999999991
1070
   172
1070
     1
1070
   173
1070
     1
1070
   271
1070
     2
1070
   279
1070
     2
1070
   287
1070
     5
1070
   340
1005
BA4
1070
     6
1000

1070
     7
1000
NONE
1002
}
  0
DIMENSION
  5
975F
  8
SUNPOU
  2
*D74
 10
831.64626423694972
 20
1656.971020216786
 30
0.0
 11
649.43134271310373
 21
1724.471020216786
 31
0.0
 70
   128
  1
@148
  3
SJC
 13
433.44925075140412
 23
1333.270735815436
 33
0.0
 14
831.64626423694972
 24
1656.971020216786
 34
0.0
 50
180.0
1001
ACAD
1000
DSTYLE
1002
{
1070
   287
1070
     5
1070
   287
1070
     5
1070
   287
1070
     5
1070
    40
1040
25.0
1070
    41
1040
2.0
1070
    42
1040
1.0
1070
    43
1040
6.0
1070
    44
1040
1.0
1070
    73
1070
     0
1070
    74
1070
     0
1070
    77
1070
     1
1070
    78
1070
     8
1070
   140
1040
3.0
1070
   144
1040
0.6
1070
   147
1040
1.1999999999999991
1070
   172
1070
     1
1070
   173
1070
     1
1070
   271
1070
     2
1070
   279
1070
     2
1070
   287
1070
     5
1070
   340
1005
BA4
1070
     6
1000

1070
     7
1000
NONE
1002
}
  0
DIMENSION
  5
976A
  8
SUNPOU
  2
*D75
 10
831.64626423694972
 20
1865.588002816309
 30
0.0
 11
490.82129315401647
 21
1952.730859959167
 31
0.0
  1
(1880)
  3
SJC
 13
99.996322071083341
 23
1333.270735815436
 33
0.0
 14
831.64626423694972
 24
1865.588002816309
 34
0.0
 50
180.0
1001
ACAD
1000
DSTYLE
1002
{
1070
   287
1070
     5
1070
   287
1070
     5
1070
   287
1070
     5
1070
    40
1040
25.0
1070
    41
1040
2.0
1070
    42
1040
1.0
1070
    43
1040
6.0
1070
    44
1040
1.0
1070
    73
1070
     0
1070
    74
1070
     0
1070
    77
1070
     1
1070
    78
1070
     8
1070
   140
1040
3.0
1070
   147
1040
1.1999999999999991
1070
   172
1070
     1
1070
   173
1070
     1
1070
   271
1070
     2
1070
   279
1070
     2
1070
   287
1070
     5
1070
   340
1005
BA4
1070
     6
1000

1070
     7
1000
NONE
1002
}
  0
DIMENSION
  5
9775
  8
SUNPOU
  2
*D76
 10
831.64626423694972
 20
2078.3630340941058
 30
0.0
 11
440.8231321184748
 21
2145.8630340941058
 31
0.0
  1
2000
  3
SJC
 13
0.0
 23
1385.6103984245119
 33
0.0
 14
831.64626423694972
 24
2078.3630340941058
 34
0.0
 50
180.0
1001
ACAD
1000
DSTYLE
1002
{
1070
   287
1070
     5
1070
   287
1070
     5
1070
   287
1070
     5
1070
    40
1040
25.0
1070
    41
1040
2.0
1070
    42
1040
1.0
1070
    43
1040
6.0
1070
    44
1040
1.0
1070
    73
1070
     0
1070
    74
1070
     0
1070
    77
1070
     1
1070
    78
1070
     8
1070
   140
1040
3.0
1070
   147
1040
1.1999999999999991
1070
   172
1070
     1
1070
   173
1070
     1
1070
   271
1070
     2
1070
   279
1070
     2
1070
   287
1070
     5
1070
   340
1005
BA4
1070
     6
1000

1070
     7
1000
NONE
1002
}
  0
DIMENSION
  5
9780
  8
SUNPOU
  2
*D77
 10
175.05088064456501
 20
1656.971020216786
 30
0.0
 11
403.9253791090577
 21
1724.471020216786
 31
0.0
 70
   128
  3
SJC
 13
433.44925075140412
 23
1333.270735815436
 33
0.0
 14
175.05088064456501
 24
1333.270735815436
 34
0.0
 50
180.0
1001
ACAD
1000
DSTYLE
1002
{
1070
   287
1070
     5
1070
   287
1070
     5
1070
   287
1070
     5
1070
    40
1040
25.0
1070
    41
1040
2.0
1070
    42
1040
1.0
1070
    43
1040
6.0
1070
    44
1040
1.0
1070
    73
1070
     0
1070
    74
1070
     0
1070
    77
1070
     1
1070
    78
1070
     8
1070
   140
1040
3.0
1070
   144
1040
0.6
1070
   147
1040
1.1999999999999991
1070
   172
1070
     1
1070
   271
1070
     0
1070
   279
1070
     2
1070
   287
1070
     5
1070
   340
1005
BA4
1002
}
  0
LINE
  5
978D
  8
SUNPOU
 10
-99.996322071077884
 20
1358.3169863752701
 30
0.0
 11
-99.996322071077884
 21
1885.9342533761439
 31
0.0
  0
LINE
  5
978E
  8
SUNPOU
 10
99.996322071081522
 20
1358.3169863752701
 30
0.0
 11
99.996322071081522
 21
1885.9342533761439
 31
0.0
  0
DIMENSION
  5
978F
  8
SUNPOU
  2
*D78
 10
99.996322071083355
 20
1656.9710202167851
 30
0.0
 11
195.03982823860679
 21
1728.8335896240069
 31
0.0
 70
   128
  1
(<>)
  3
SJC
 13
175.05088064456501
 23
1333.270735815436
 33
0.0
 14
99.996322071083341
 24
1333.270735815436
 34
0.0
 50
180.0
1001
ACAD
1000
DSTYLE
1002
{
1070
   287
1070
     5
1070
   287
1070
     5
1070
   287
1070
     5
1070
    40
1040
25.0
1070
    41
1040
2.0
1070
    42
1040
1.0
1070
    43
1040
6.0
1070
    44
1040
1.0
1070
    73
1070
     0
1070
    74
1070
     0
1070
    77
1070
     1
1070
    78
1070
     8
1070
   140
1040
3.0
1070
   144
1040
0.6
1070
   147
1040
1.1999999999999991
1070
   172
1070
     1
1070
   271
1070
     0
1070
   279
1070
     2
1070
   287
1070
     5
1070
   340
1005
BA4
1002
}
  0
DIMENSION
  5
979E
  8
SUNPOU
  2
*D63
 10
-99.996322071079689
 20
1656.9710202167851
 30
0.0
 11
-196.98565194053111
 21
1726.061733101011
 31
0.0
 70
   128
  1
(<>)
  3
SJC
 13
-175.0508806445614
 23
1333.270735815436
 33
0.0
 14
-99.996322071079703
 24
1333.270735815436
 34
0.0
1001
ACAD
1000
DSTYLE
1002
{
1070
   287
1070
     5
1070
   287
1070
     5
1070
   287
1070
     5
1070
    40
1040
25.0
1070
    41
1040
2.0
1070
    42
1040
1.0
1070
    43
1040
6.0
1070
    44
1040
1.0
1070
    73
1070
     0
1070
    74
1070
     0
1070
    77
1070
     1
1070
    78
1070
     8
1070
   140
1040
3.0
1070
   144
1040
0.6
1070
   147
1040
1.1999999999999991
1070
   172
1070
     1
1070
   271
1070
     0
1070
   279
1070
     2
1070
   287
1070
     5
1070
   340
1005
BA4
1002
}
  0
SOLID
  5
97AD
  8
SUNPOU
  6
BYBLOCK
 10
-49.996322071077877
 20
1665.304353550119
 30
0.0
 11
-49.996322071077877
 21
1648.637686883452
 31
0.0
 12
-99.996322071077884
 22
1656.971020216786
 32
0.0
 13
-99.996322071077884
 23
1656.971020216786
 33
0.0
  0
SOLID
  5
97AE
  8
SUNPOU
  6
BYBLOCK
 10
49.996322071081522
 20
1665.304353550119
 30
0.0
 11
49.996322071081522
 21
1648.637686883452
 31
0.0
 12
99.996322071081522
 22
1656.971020216786
 32
0.0
 13
99.996322071081522
 23
1656.971020216786
 33
0.0
  0
LINE
  5
97AF
  8
MOJI
 10
870.44300920040314
 20
1581.8197191021679
 30
0.0
 11
1265.7272551941271
 21
1581.8197191021679
 31
0.0
  0
TEXT
  5
97B0
  8
MOJI
 10
891.03630491643435
 20
1604.691084389314
 30
0.0
 40
75.0
  1
格子パネル
 41
0.8
  7
EXT08
  0
INSERT
  5
97B1
  8
0
  2
*U128
 10
0.0
 20
0.0
 30
0.0
1001
ACAD
1000
DSTYLE
1002
{
1070
     5
1000

1070
    40
1040
25.0
1070
    41
1040
2.0
1070
    42
1040
1.0
1070
    43
1040
6.0
1070
    44
1040
1.0
1070
    73
1070
     0
1070
    74
1070
     0
1070
    77
1070
     1
1070
    78
1070
     8
1070
   140
1040
3.0
1070
   144
1040
0.6
1070
   147
1040
1.1999999999999991
1070
   172
1070
     1
1070
   179
1070
     2
1070
   271
1070
     2
1070
   279
1070
     2
1070
   340
1005
BA4
1070
   342
1005
0
1002
}
  0
DIMENSION
  5
97B2
  8
SUNPOU
  2
*D64
 10
1175.7204563139551
 20
1351.6666666660001
 30
0.0
 11
1089.1183277031389
 21
1430.800772231898
 31
0.0
 70
   128
  3
SJC
 13
757.18808029321735
 23
1333.2707358150369
 33
0.0
 14
0.0
 24
1351.6666666660001
 34
0.0
 50
90.0
1001
ACAD
1000
DSTYLE
1002
{
1070
   287
1070
     5
1070
    40
1040
25.0
1070
    41
1040
2.0
1070
    42
1040
1.0
1070
    43
1040
6.0
1070
    44
1040
1.0
1070
    73
1070
     0
1070
    74
1070
     0
1070
    77
1070
     1
1070
    78
1070
     8
1070
   140
1040
3.0
1070
   144
1040
0.6
1070
   147
1040
1.1999999999999991
1070
   172
1070
     1
1070
   176
1070
   256
1070
   177
1070
   256
1070
   178
1070
   256
1070
   271
1070
     0
1070
   279
1070
     2
1070
   340
1005
BA4
1002
}
  0
DIMENSION
  5
97C1
  8
SUNPOU
  2
*D65
 10
1370.9716335364769
 20
-0.0000000000001739
 30
0.0
 11
1303.4716335364769
 21
675.83333333300016
 31
0.0
  3
SJC
 13
0.0
 23
1351.6666666660001
 33
0.0
 14
757.18808029321235
 24
0.0
 34
0.0
 50
90.0
1001
ACAD
1000
DSTYLE
1002
{
1070
   287
1070
     5
1070
    40
1040
25.0
1070
    41
1040
2.0
1070
    42
1040
1.0
1070
    43
1040
6.0
1070
    44
1040
1.0
1070
    73
1070
     0
1070
    74
1070
     0
1070
    77
1070
     1
1070
    78
1070
     8
1070
   140
1040
3.0
1070
   144
1040
0.6
1070
   147
1040
1.1999999999999991
1070
   172
1070
     1
1070
   176
1070
   256
1070
   177
1070
   256
1070
   178
1070
   256
1070
   271
1070
     0
1070
   279
1070
     2
1070
   340
1005
BA4
1002
}
  0
DIMENSION
  5
97CE
  8
SUNPOU
  2
*D66
 10
982.08860841127705
 20
549.89824585881047
 30
0.0
 11
914.58860841127705
 21
799.87784529949704
 31
0.0
  3
SJC
 13
146.70913114390871
 23
1049.8574447401829
 33
0.0
 14
146.70913114390871
 24
549.89824585881058
 34
0.0
 50
90.0
1001
ACAD
1000
DSTYLE
1002
{
1070
   287
1070
     5
1070
    40
1040
25.0
1070
    41
1040
2.0
1070
    42
1040
1.0
1070
    43
1040
6.0
1070
    44
1040
1.0
1070
    73
1070
     0
1070
    74
1070
     0
1070
    77
1070
     1
1070
    78
1070
     8
1070
   140
1040
3.0
1070
   144
1040
0.6
1070
   147
1040
1.1999999999999991
1070
   172
1070
     1
1070
   176
1070
   256
1070
   177
1070
   256
1070
   178
1070
   256
1070
   271
1070
     0
1070
   279
1070
     2
1070
   340
1005
BA4
1002
}
  0
TEXT
  5
97DB
  8
INFORMATION
 10
1.666666666666742
 20
1.6666666666666281
 30
0.0
 40
1.333333333333333
  1
VERSION=3.0
 41
0.8
  7
EXT08
  0
LINE
  5
97DC
  8
SJC
 10
-50.416311755166127
 20
1313.3333333326671
 30
0.0
 11
-50.416311755166127
 21
0.0
 31
0.0
  0
LINE
  5
97DD
  8
SJC
 10
50.416311755166127
 20
1313.3333333326671
 30
0.0
 11
50.416311755166127
 21
0.0
 31
0.0
  0
LINE
  5
97DE
  8
CENTER
 10
0.0
 20
1385.6103984245119
 30
0.0
 11
0.0
 21
-30.23783433483311
 31
0.0
  0
INSERT
  5
97DF
  8
SJC
  2
T-40樹脂キャップ
 10
0.0
 20
1333.3333333326671
 30
0.0
 41
1.6666666666666661
 42
1.6666666666666661
 43
1.6666666666666661
  0
ENDBLK
  5
8654
  8
0
  0
BLOCK
  8
0
  2
元部材表-樹脂キャップT-40
 70
     0
 10
0.0
 20
0.0
 30
0.0
  3
元部材表-樹脂キャップT-40
  1
C:\Documents and Settings\SJC\デスクトップ\G_T-40\ブロックT-40\T-40柵部材表\元図\元部材表-樹脂キャップT-40.dwg
  0
TEXT
  5
9CEA
  8
INFORMATION
 10
1.0
 20
1.0
 30
0.0
 40
0.8
  1
VERSION=3.0
 41
0.8
  7
EXT08
  0
LINE
  5
9CEB
  8
MOJI
 10
0.0
 20
749.99999999999989
 30
0.0
 11
1952.958519234596
 21
749.99999999999989
 31
0.0
  0
LINE
  5
9CEC
  8
MOJI
 10
0.0
 20
624.99999999999989
 30
0.0
 11
1952.958519234596
 21
624.99999999999989
 31
0.0
  0
LINE
  5
9CED
  8
MOJI
 10
0.0
 20
499.99999999999989
 30
0.0
 11
1952.958519234596
 21
499.99999999999989
 31
0.0
  0
LINE
  5
9CEE
  8
MOJI
 10
0.0
 20
374.99999999999989
 30
0.0
 11
1952.958519234596
 21
374.99999999999989
 31
0.0
  0
LINE
  5
9CEF
  8
MOJI
 10
0.0
 20
249.99999999999989
 30
0.0
 11
1952.958519234596
 21
249.99999999999989
 31
0.0
  0
LINE
  5
9CF0
  8
MOJI
 10
0.0
 20
124.9999999999999
 30
0.0
 11
1952.958519234596
 21
124.9999999999999
 31
0.0
  0
TEXT
  5
9CF1
  8
MOJI
 10
1003.467831363433
 20
150.0
 30
0.0
 40
75.0
  1
溶融亜鉛めっき M12×90
 41
0.8
  7
EXT08
 72
     4
 11
1453.753545649148
 21
187.5
 31
0.0
  0
TEXT
  5
9CF2
  8
MOJI
 10
1029.753545649146
 20
524.99999999999989
 30
0.0
 40
75.0
  1
亜鉛めっき＋静電粉体塗装
 41
0.8
  7
EXT08
 72
     4
 11
1453.753545649146
 21
562.49999999999989
 31
0.0
  0
TEXT
  5
9CF3
  8
MOJI
 10
1029.753545649146
 20
399.99999999999989
 30
0.0
 40
75.0
  1
亜鉛めっき＋静電粉体塗装
 41
0.8
  7
EXT08
 72
     4
 11
1453.753545649146
 21
437.49999999999989
 31
0.0
  0
TEXT
  5
9CF4
  8
MOJI
 10
1029.753545649148
 20
275.0
 30
0.0
 40
75.0
  1
亜鉛めっき＋静電粉体塗装
 41
0.8
  7
EXT08
 72
     4
 11
1453.753545649148
 21
312.5
 31
0.0
  0
TEXT
  5
9CF5
  8
MOJI
 10
567.14853708678743
 20
524.99999999999898
 30
0.0
 40
75.0
  1
STK400
 41
0.8
  7
EXT08
 72
     4
 11
734.29139422964454
 21
562.49999999999898
 31
0.0
  0
TEXT
  5
9CF6
  8
MOJI
 10
157.29945612775549
 20
524.99999999999943
 30
0.0
 40
75.0
  1
支  柱
 41
0.8
  7
EXT08
 72
     4
 11
257.29945612775549
 21
562.49999999999943
 31
0.0
  0
TEXT
  5
9CF7
  8
MOJI
 10
89.299456127755604
 20
399.99999999999937
 30
0.0
 40
75.0
  1
格子パネル
 41
0.8
  7
EXT08
 72
     4
 11
257.29945612775549
 21
437.49999999999937
 31
0.0
  0
TEXT
  5
9CF8
  8
MOJI
 10
89.299456127757367
 20
149.99999999999949
 30
0.0
 40
75.0
  1
角根ボルト
 41
0.8
  7
EXT08
 72
     4
 11
257.29945612775742
 21
187.49999999999949
 31
0.0
  0
TEXT
  5
9CF9
  8
MOJI
 10
121.2994561277573
 20
274.9999999999996
 30
0.0
 40
75.0
  1
取付金具
 41
0.8
  7
EXT08
 72
     4
 11
257.29945612775742
 21
312.4999999999996
 31
0.0
  0
TEXT
  5
9CFA
  8
MOJI
 10
558.57710851536069
 20
274.99999999999892
 30
0.0
 40
75.0
  1
SGH400
 41
0.8
  7
EXT08
 72
     4
 11
734.29139422964624
 21
312.49999999999892
 31
0.0
  0
TEXT
  5
9CFB
  8
MOJI
 10
567.14853708678743
 20
399.99999999999898
 30
0.0
 40
75.0
  1
STK400
 41
0.8
  7
EXT08
 72
     4
 11
734.29139422964454
 21
437.49999999999898
 31
0.0
  0
TEXT
  5
9CFC
  8
MOJI
 10
159.29945612775549
 20
649.99999999999943
 30
0.0
 40
75.0
  1
品  名
 41
0.8
  7
EXT08
 72
     4
 11
257.29945612775549
 21
687.49999999999943
 31
0.0
  0
TEXT
  5
9CFD
  8
MOJI
 10
634.29139422964454
 20
649.99999999999898
 30
0.0
 40
75.0
  1
材  質
 41
0.8
  7
EXT08
 72
     4
 11
734.29139422964454
 21
687.49999999999898
 31
0.0
  0
TEXT
  5
9CFE
  8
MOJI
 10
1353.1821170777171
 20
649.99999999999989
 30
0.0
 40
75.0
  1
摘  要
 41
0.8
  7
EXT08
 72
     4
 11
1453.753545649146
 21
687.49999999999989
 31
0.0
  0
LINE
  5
9CFF
  8
MOJI
 10
0.0
 20
124.9999999999999
 30
0.0
 11
1952.9585192346019
 21
125.0
 31
0.0
  0
TEXT
  5
9D00
  8
MOJI
 10
603.53370742372817
 20
149.99999999999881
 30
0.0
 40
75.0
  1
4.6相当
 41
0.8
  7
EXT08
 72
     4
 11
741.24799313801395
 21
187.49999999999881
 31
0.0
  0
LINE
  5
9D01
  8
MOJI
 10
0.0
 20
0.0
 30
0.0
 11
1952.958519234596
 21
0.0
 31
0.0
  0
TEXT
  5
9D02
  8
MOJI
 10
1317.753545649148
 20
25.00000000000011
 30
0.0
 40
75.0
  1
着色樹脂
 41
0.8
  7
EXT08
 72
     4
 11
1453.753545649148
 21
62.500000000000107
 31
0.0
  0
TEXT
  5
9D03
  8
MOJI
 10
49.728027556328783
 20
24.999999999999659
 30
0.0
 40
75.0
  1
頭部キャップ
 41
0.8
  7
EXT08
 72
     4
 11
257.29945612775742
 21
62.499999999999659
 31
0.0
  0
TEXT
  5
9D04
  8
MOJI
 10
674.29139422964624
 20
24.99999999999898
 30
0.0
 40
75.0
  1
PE
 41
0.8
  7
EXT08
 72
     4
 11
734.29139422964624
 21
62.49999999999897
 31
0.0
  0
ENDBLK
  5
91DE
  8
0
  0
BLOCK
  8
0
  2
B0030003
 70
     0
 10
0.0
 20
0.0
 30
0.0
  3
B0030003
  1

  0
LINE
  5
9436
  8
SJC
 10
-3.0
 20
-0.4019237886468546
 30
0.0
 11
0.0
 21
0.4019237886463998
 31
0.0
  0
POLYLINE
  5
9437
  8
SJC
 66
     1
 10
0.0
 20
0.0
 30
0.0
 70
     1
  0
VERTEX
  5
A061
  8
SJC
 10
-3.0
 20
10.75
 30
0.0
  0
VERTEX
  5
A062
  8
SJC
 10
-3.0
 20
-10.75
 30
0.0
  0
VERTEX
  5
A063
  8
SJC
 10
0.0
 20
-10.75
 30
0.0
  0
VERTEX
  5
A064
  8
SJC
 10
0.0
 20
10.75
 30
0.0
  0
SEQEND
  5
A065
  8
SJC
  0
ENDBLK
  5
9438
  8
0
  0
BLOCK
  8
0
  2
B0030004
 70
     0
 10
0.0
 20
0.0
 30
0.0
  3
B0030004
  1

  0
LINE
  5
9429
  8
SJC
 10
-9.1514942239682568
 20
-6.0000000000009086
 30
0.0
 11
0.0
 21
-5.9999999999995453
 31
0.0
  0
LINE
  5
942A
  8
SJC
 10
-9.1514942239682568
 20
5.9999999999995453
 30
0.0
 11
0.0
 21
6.0000000000004539
 31
0.0
  0
POLYLINE
  5
942B
  8
SJC
 66
     1
 10
0.0
 20
0.0
 30
0.0
  0
VERTEX
  5
A059
  8
SJC
 10
0.0
 20
10.96965511460257
 30
0.0
  0
VERTEX
  5
A05A
  8
SJC
 10
-9.1514942239682568
 20
10.969655114602119
 30
0.0
  0
VERTEX
  5
A05B
  8
SJC
 10
-10.0
 20
9.4999999999995453
 30
0.0
  0
VERTEX
  5
A05C
  8
SJC
 10
-10.0
 20
-9.4999999999986358
 30
0.0
  0
VERTEX
  5
A05D
  8
SJC
 10
-9.1514942239673474
 20
-10.96965511460257
 30
0.0
  0
VERTEX
  5
A05E
  8
SJC
 10
0.0
 20
-10.96965511460257
 30
0.0
  0
VERTEX
  5
A05F
  8
SJC
 10
0.0
 20
10.96965511460257
 30
0.0
  0
SEQEND
  5
A060
  8
SJC
  0
ARC
  5
942C
  8
SJC
 10
-5.9373700001642638
 20
-8.4848275573003775
 30
0.0
 40
4.0626299998360036
 50
142.29252301195871
 51
180.0
  0
ARC
  5
942D
  8
SJC
 10
-5.9373700001642638
 20
8.4848275573008323
 30
0.0
 40
4.0626299998360036
 50
180.0
 51
217.70747698804121
  0
ARC
  5
942E
  8
SJC
 10
11.63801537314248
 20
-0.0000000000004547
 30
0.0
 40
21.638015373142689
 50
163.90148474634259
 51
196.09851525365511
  0
ENDBLK
  5
942F
  8
0
  0
BLOCK
  8
0
  2
*D46
 70
     1
 10
0.0
 20
0.0
 30
0.0
  3
*D46
  1

  0
LINE
  5
939C
  8
SUNPOU
 62
     0
 10
-125.0
 20
-212.5000000000004
 30
0.0
 11
-125.0
 21
-404.94527274117081
 31
0.0
  0
LINE
  5
939D
  8
SUNPOU
 62
     0
 10
-187.5
 20
-212.5000000000004
 30
0.0
 11
-187.5
 21
-404.94527274117081
 31
0.0
  0
LINE
  5
939E
  8
SUNPOU
 62
     0
 10
-75.000000000000014
 20
-379.94527274117081
 30
0.0
 11
-25.000000000000021
 21
-379.94527274117081
 31
0.0
  0
LINE
  5
939F
  8
SUNPOU
 62
     0
 10
-237.5
 20
-379.94527274117081
 30
0.0
 11
-287.5
 21
-379.94527274117081
 31
0.0
  0
INSERT
  5
93A0
  8
0
  2
*U87
 10
0.0
 20
0.0
 30
0.0
  0
LINE
  5
93A1
  8
SUNPOU
 62
     0
 10
-125.0
 20
-379.94527274117081
 30
0.0
 11
-187.5
 21
-379.94527274117081
 31
0.0
  0
SOLID
  5
93A2
  8
SUNPOU
 62
     0
 10
-75.000000000000014
 20
-371.6119394078375
 30
0.0
 11
-75.000000000000014
 21
-388.27860607450413
 31
0.0
 12
-125.0
 22
-379.94527274117081
 32
0.0
 13
-125.0
 23
-379.94527274117081
 33
0.0
  0
SOLID
  5
93A3
  8
SUNPOU
 62
     0
 10
-237.5
 20
-371.6119394078375
 30
0.0
 11
-237.5
 21
-388.27860607450413
 31
0.0
 12
-187.5
 22
-379.94527274117081
 32
0.0
 13
-187.5
 23
-379.94527274117081
 33
0.0
  0
POINT
  5
93A4
  8
DEFPOINTS
 62
     0
 10
-125.0
 20
-187.5000000000004
 30
0.0
  0
POINT
  5
93A5
  8
DEFPOINTS
 62
     0
 10
-187.5
 20
-187.5000000000004
 30
0.0
  0
POINT
  5
93A6
  8
DEFPOINTS
 62
     0
 10
-187.5
 20
-379.94527274117081
 30
0.0
  0
ENDBLK
  5
93A7
  8
0
  0
BLOCK
  8
0
  2
*D47
 70
     1
 10
0.0
 20
0.0
 30
0.0
  3
*D47
  1

  0
LINE
  5
93B0
  8
SUNPOU
 62
     0
 10
212.5
 20
125.0
 30
0.0
 11
489.56547122827033
 21
124.9999999999999
 31
0.0
  0
LINE
  5
93B1
  8
SUNPOU
 62
     0
 10
212.5
 20
187.5
 30
0.0
 11
489.56547122827038
 21
187.49999999999989
 31
0.0
  0
LINE
  5
93B2
  8
SUNPOU
 62
     0
 10
464.56547122827021
 20
74.999999999999915
 30
0.0
 11
464.56547122827021
 21
24.999999999999929
 31
0.0
  0
LINE
  5
93B3
  8
SUNPOU
 62
     0
 10
464.56547122827033
 20
237.49999999999989
 30
0.0
 11
464.56547122827033
 21
287.49999999999989
 31
0.0
  0
INSERT
  5
93B4
  8
0
  2
*U88
 10
0.0
 20
0.0
 30
0.0
  0
LINE
  5
93B5
  8
SUNPOU
 62
     0
 10
464.56547122827021
 20
124.9999999999999
 30
0.0
 11
464.56547122827033
 21
187.49999999999989
 31
0.0
  0
SOLID
  5
93B6
  8
SUNPOU
 62
     0
 10
456.2321378949369
 20
74.999999999999915
 30
0.0
 11
472.89880456160353
 21
74.999999999999915
 31
0.0
 12
464.56547122827021
 22
124.9999999999999
 32
0.0
 13
464.56547122827021
 23
124.9999999999999
 33
0.0
  0
SOLID
  5
93B7
  8
SUNPOU
 62
     0
 10
456.23213789493701
 20
237.49999999999989
 30
0.0
 11
472.89880456160358
 21
237.49999999999989
 31
0.0
 12
464.56547122827033
 22
187.49999999999989
 32
0.0
 13
464.56547122827033
 23
187.49999999999989
 33
0.0
  0
POINT
  5
93B8
  8
DEFPOINTS
 62
     0
 10
187.5
 20
125.0
 30
0.0
  0
POINT
  5
93B9
  8
DEFPOINTS
 62
     0
 10
187.5
 20
187.5
 30
0.0
  0
POINT
  5
93BA
  8
DEFPOINTS
 62
     0
 10
464.56547122827033
 20
187.49999999999989
 30
0.0
  0
ENDBLK
  5
93BB
  8
0
  0
BLOCK
  8
0
  2
*D48
 70
     1
 10
0.0
 20
0.0
 30
0.0
  3
*D48
  1

  0
LINE
  5
93C0
  8
SUNPOU
 62
     0
 10
212.5
 20
187.5
 30
0.0
 11
644.78950501734835
 21
187.4999999999998
 31
0.0
  0
LINE
  5
93C1
  8
SUNPOU
 62
     0
 10
212.5
 20
-187.50000000000051
 30
0.0
 11
644.78950501734835
 21
-187.5000000000006
 31
0.0
  0
LINE
  5
93C2
  8
SUNPOU
 62
     0
 10
619.78950501734835
 20
137.4999999999998
 30
0.0
 11
619.78950501734835
 21
-137.5000000000006
 31
0.0
  0
SOLID
  5
93C3
  8
SUNPOU
 62
     0
 10
611.45617168401498
 20
137.4999999999998
 30
0.0
 11
628.12283835068172
 21
137.4999999999998
 31
0.0
 12
619.78950501734835
 22
187.4999999999998
 32
0.0
 13
619.78950501734835
 23
187.4999999999998
 33
0.0
  0
SOLID
  5
93C4
  8
SUNPOU
 62
     0
 10
611.45617168401498
 20
-137.5000000000006
 30
0.0
 11
628.12283835068172
 21
-137.5000000000006
 31
0.0
 12
619.78950501734835
 22
-187.5000000000006
 32
0.0
 13
619.78950501734835
 23
-187.5000000000006
 33
0.0
  0
INSERT
  5
93C5
  8
0
  2
*U90
 10
0.0
 20
0.0
 30
0.0
  0
POINT
  5
93C6
  8
DEFPOINTS
 62
     0
 10
187.5
 20
187.5
 30
0.0
  0
POINT
  5
93C7
  8
DEFPOINTS
 62
     0
 10
187.5
 20
-187.5000000000004
 30
0.0
  0
POINT
  5
93C8
  8
DEFPOINTS
 62
     0
 10
619.78950501734835
 20
-187.5000000000006
 30
0.0
  0
ENDBLK
  5
93C9
  8
0
  0
BLOCK
  8
0
  2
*D49
 70
     1
 10
0.0
 20
0.0
 30
0.0
  3
*D49
  1

  0
LINE
  5
93CD
  8
SUNPOU
 62
     0
 10
187.5
 20
-212.5000000000004
 30
0.0
 11
187.5
 21
-544.43421282292434
 31
0.0
  0
LINE
  5
93CE
  8
SUNPOU
 62
     0
 10
-187.5
 20
-212.5000000000004
 30
0.0
 11
-187.5
 21
-544.43421282292434
 31
0.0
  0
LINE
  5
93CF
  8
SUNPOU
 62
     0
 10
137.5
 20
-519.43421282292434
 30
0.0
 11
-137.5
 21
-519.43421282292434
 31
0.0
  0
SOLID
  5
93D0
  8
SUNPOU
 62
     0
 10
137.5
 20
-511.10087948959091
 30
0.0
 11
137.5
 21
-527.76754615625759
 31
0.0
 12
187.5
 22
-519.43421282292434
 32
0.0
 13
187.5
 23
-519.43421282292434
 33
0.0
  0
SOLID
  5
93D1
  8
SUNPOU
 62
     0
 10
-137.5
 20
-511.10087948959091
 30
0.0
 11
-137.5
 21
-527.76754615625759
 31
0.0
 12
-187.5
 22
-519.43421282292434
 32
0.0
 13
-187.5
 23
-519.43421282292434
 33
0.0
  0
INSERT
  5
93D2
  8
0
  2
*U91
 10
0.0
 20
0.0
 30
0.0
  0
POINT
  5
93D3
  8
DEFPOINTS
 62
     0
 10
187.5
 20
-187.5000000000004
 30
0.0
  0
POINT
  5
93D4
  8
DEFPOINTS
 62
     0
 10
-187.5
 20
-187.5000000000004
 30
0.0
  0
POINT
  5
93D5
  8
DEFPOINTS
 62
     0
 10
-187.5
 20
-519.43421282292434
 30
0.0
  0
ENDBLK
  5
93D6
  8
0
  0
BLOCK
  8
0
  2
*D50
 70
     1
 10
0.0
 20
0.0
 30
0.0
  3
*D50
  1

  0
LINE
  5
93DA
  8
SUNPOU
 62
     0
 10
125.0
 20
-212.5000000000004
 30
0.0
 11
125.0
 21
-404.94527274117081
 31
0.0
  0
LINE
  5
93DB
  8
SUNPOU
 62
     0
 10
187.5
 20
-212.5000000000004
 30
0.0
 11
187.5
 21
-404.94527274117081
 31
0.0
  0
LINE
  5
93DC
  8
SUNPOU
 62
     0
 10
74.999999999999986
 20
-379.94527274117081
 30
0.0
 11
24.999999999999989
 21
-379.94527274117081
 31
0.0
  0
LINE
  5
93DD
  8
SUNPOU
 62
     0
 10
237.5
 20
-379.94527274117081
 30
0.0
 11
287.5
 21
-379.94527274117081
 31
0.0
  0
INSERT
  5
93DE
  8
0
  2
*U92
 10
0.0
 20
0.0
 30
0.0
  0
LINE
  5
93DF
  8
SUNPOU
 62
     0
 10
125.0
 20
-379.94527274117081
 30
0.0
 11
187.5
 21
-379.94527274117081
 31
0.0
  0
SOLID
  5
93E0
  8
SUNPOU
 62
     0
 10
74.999999999999986
 20
-371.6119394078375
 30
0.0
 11
74.999999999999986
 21
-388.27860607450413
 31
0.0
 12
125.0
 22
-379.94527274117081
 32
0.0
 13
125.0
 23
-379.94527274117081
 33
0.0
  0
SOLID
  5
93E1
  8
SUNPOU
 62
     0
 10
237.5
 20
-371.6119394078375
 30
0.0
 11
237.5
 21
-388.27860607450413
 31
0.0
 12
187.5
 22
-379.94527274117081
 32
0.0
 13
187.5
 23
-379.94527274117081
 33
0.0
  0
POINT
  5
93E2
  8
DEFPOINTS
 62
     0
 10
125.0
 20
-187.5000000000004
 30
0.0
  0
POINT
  5
93E3
  8
DEFPOINTS
 62
     0
 10
187.5
 20
-187.5000000000004
 30
0.0
  0
POINT
  5
93E4
  8
DEFPOINTS
 62
     0
 10
187.5
 20
-379.94527274117081
 30
0.0
  0
ENDBLK
  5
93E5
  8
0
  0
BLOCK
  8
0
  2
*D51
 70
     1
 10
0.0
 20
0.0
 30
0.0
  3
*D51
  1

  0
LINE
  5
93E9
  8
SUNPOU
 62
     0
 10
125.0
 20
-212.5000000000004
 30
0.0
 11
125.0
 21
-404.94527274117081
 31
0.0
  0
LINE
  5
93EA
  8
SUNPOU
 62
     0
 10
-125.0
 20
-212.5000000000004
 30
0.0
 11
-125.0
 21
-404.94527274117081
 31
0.0
  0
LINE
  5
93EB
  8
SUNPOU
 62
     0
 10
74.999999999999986
 20
-379.94527274117081
 30
0.0
 11
-75.000000000000014
 21
-379.94527274117081
 31
0.0
  0
SOLID
  5
93EC
  8
SUNPOU
 62
     0
 10
74.999999999999986
 20
-371.6119394078375
 30
0.0
 11
74.999999999999986
 21
-388.27860607450413
 31
0.0
 12
125.0
 22
-379.94527274117081
 32
0.0
 13
125.0
 23
-379.94527274117081
 33
0.0
  0
SOLID
  5
93ED
  8
SUNPOU
 62
     0
 10
-75.000000000000014
 20
-371.6119394078375
 30
0.0
 11
-75.000000000000014
 21
-388.27860607450413
 31
0.0
 12
-125.0
 22
-379.94527274117081
 32
0.0
 13
-125.0
 23
-379.94527274117081
 33
0.0
  0
INSERT
  5
93EE
  8
0
  2
*U93
 10
0.0
 20
0.0
 30
0.0
  0
POINT
  5
93EF
  8
DEFPOINTS
 62
     0
 10
125.0
 20
-187.5000000000004
 30
0.0
  0
POINT
  5
93F0
  8
DEFPOINTS
 62
     0
 10
-125.0
 20
-187.5000000000004
 30
0.0
  0
POINT
  5
93F1
  8
DEFPOINTS
 62
     0
 10
-125.0
 20
-379.94527274117081
 30
0.0
  0
ENDBLK
  5
93F2
  8
0
  0
BLOCK
  8
0
  2
*D52
 70
     1
 10
0.0
 20
0.0
 30
0.0
  3
*D52
  1

  0
LINE
  5
940A
  8
SUNPOU
 62
     0
 10
212.5
 20
125.0
 30
0.0
 11
489.56547122827033
 21
124.9999999999999
 31
0.0
  0
LINE
  5
940B
  8
SUNPOU
 62
     0
 10
212.5
 20
-125.0000000000004
 30
0.0
 11
489.56547122827033
 21
-125.0000000000005
 31
0.0
  0
LINE
  5
940C
  8
SUNPOU
 62
     0
 10
464.56547122827033
 20
74.999999999999915
 30
0.0
 11
464.56547122827033
 21
-75.000000000000526
 31
0.0
  0
SOLID
  5
940D
  8
SUNPOU
 62
     0
 10
456.23213789493701
 20
74.999999999999915
 30
0.0
 11
472.89880456160358
 21
74.999999999999915
 31
0.0
 12
464.56547122827033
 22
124.9999999999999
 32
0.0
 13
464.56547122827033
 23
124.9999999999999
 33
0.0
  0
SOLID
  5
940E
  8
SUNPOU
 62
     0
 10
456.23213789493701
 20
-75.000000000000526
 30
0.0
 11
472.89880456160358
 21
-75.000000000000526
 31
0.0
 12
464.56547122827033
 22
-125.0000000000005
 32
0.0
 13
464.56547122827033
 23
-125.0000000000005
 33
0.0
  0
INSERT
  5
940F
  8
0
  2
*U95
 10
0.0
 20
0.0
 30
0.0
  0
POINT
  5
9410
  8
DEFPOINTS
 62
     0
 10
187.5
 20
125.0
 30
0.0
  0
POINT
  5
9411
  8
DEFPOINTS
 62
     0
 10
187.5
 20
-125.0000000000004
 30
0.0
  0
POINT
  5
9412
  8
DEFPOINTS
 62
     0
 10
464.56547122827033
 20
-125.0000000000005
 30
0.0
  0
ENDBLK
  5
9413
  8
0
  0
BLOCK
  8
0
  2
*D53
 70
     1
 10
0.0
 20
0.0
 30
0.0
  3
*D53
  1

  0
LINE
  5
9417
  8
SUNPOU
 62
     0
 10
212.5
 20
-125.0000000000004
 30
0.0
 11
489.56547122827033
 21
-125.0000000000005
 31
0.0
  0
LINE
  5
9418
  8
SUNPOU
 62
     0
 10
212.5
 20
-187.50000000000051
 30
0.0
 11
489.56547122827021
 21
-187.5000000000006
 31
0.0
  0
LINE
  5
9419
  8
SUNPOU
 62
     0
 10
464.56547122827038
 20
-75.000000000000526
 30
0.0
 11
464.56547122827038
 21
-25.000000000000529
 31
0.0
  0
LINE
  5
941A
  8
SUNPOU
 62
     0
 10
464.56547122827033
 20
-237.5000000000006
 30
0.0
 11
464.56547122827033
 21
-287.50000000000063
 31
0.0
  0
INSERT
  5
941B
  8
0
  2
*U96
 10
0.0
 20
0.0
 30
0.0
  0
LINE
  5
941C
  8
SUNPOU
 62
     0
 10
464.56547122827038
 20
-125.0000000000005
 30
0.0
 11
464.56547122827033
 21
-187.5000000000006
 31
0.0
  0
SOLID
  5
941D
  8
SUNPOU
 62
     0
 10
456.23213789493701
 20
-75.000000000000526
 30
0.0
 11
472.8988045616037
 21
-75.000000000000526
 31
0.0
 12
464.56547122827038
 22
-125.0000000000005
 32
0.0
 13
464.56547122827038
 23
-125.0000000000005
 33
0.0
  0
SOLID
  5
941E
  8
SUNPOU
 62
     0
 10
456.23213789493701
 20
-237.5000000000006
 30
0.0
 11
472.89880456160358
 21
-237.5000000000006
 31
0.0
 12
464.56547122827033
 22
-187.5000000000006
 32
0.0
 13
464.56547122827033
 23
-187.5000000000006
 33
0.0
  0
POINT
  5
941F
  8
DEFPOINTS
 62
     0
 10
187.5
 20
-125.0000000000004
 30
0.0
  0
POINT
  5
9420
  8
DEFPOINTS
 62
     0
 10
187.5
 20
-187.5000000000004
 30
0.0
  0
POINT
  5
9421
  8
DEFPOINTS
 62
     0
 10
464.56547122827033
 20
-187.5000000000006
 30
0.0
  0
ENDBLK
  5
9422
  8
0
  0
BLOCK
  8
0
  2
*D54
 70
     1
 10
0.0
 20
0.0
 30
0.0
  3
*D54
  1

  0
LINE
  5
9469
  8
SUNPOU
 62
     0
 10
-607.06811724320858
 20
-165.0000000000004
 30
0.0
 11
-466.59782489894849
 21
-165.0000000000004
 31
0.0
  0
LINE
  5
946A
  8
SUNPOU
 62
     0
 10
-607.06811724320858
 20
-187.5000000000004
 30
0.0
 11
-466.59782489894849
 21
-187.50000000000051
 31
0.0
  0
LINE
  5
946B
  8
SUNPOU
 62
     0
 10
-491.59782489894849
 20
-115.0000000000005
 30
0.0
 11
-491.59782489894849
 21
-65.000000000000483
 31
0.0
  0
LINE
  5
946C
  8
SUNPOU
 62
     0
 10
-491.59782489894849
 20
-237.50000000000051
 30
0.0
 11
-491.59782489894849
 21
-287.5000000000004
 31
0.0
  0
INSERT
  5
946D
  8
0
  2
*U98
 10
0.0
 20
0.0
 30
0.0
  0
LINE
  5
946E
  8
SUNPOU
 62
     0
 10
-491.59782489894849
 20
-165.0000000000004
 30
0.0
 11
-491.59782489894849
 21
-187.50000000000051
 31
0.0
  0
SOLID
  5
946F
  8
SUNPOU
 62
     0
 10
-499.9311582322818
 20
-115.0000000000005
 30
0.0
 11
-483.26449156561517
 21
-115.0000000000005
 31
0.0
 12
-491.59782489894849
 22
-165.0000000000004
 32
0.0
 13
-491.59782489894849
 23
-165.0000000000004
 33
0.0
  0
SOLID
  5
9470
  8
SUNPOU
 62
     0
 10
-499.9311582322818
 20
-237.50000000000051
 30
0.0
 11
-483.26449156561517
 21
-237.50000000000051
 31
0.0
 12
-491.59782489894849
 22
-187.50000000000051
 32
0.0
 13
-491.59782489894849
 23
-187.50000000000051
 33
0.0
  0
POINT
  5
9471
  8
DEFPOINTS
 62
     0
 10
-632.06811724320858
 20
-165.0000000000004
 30
0.0
  0
POINT
  5
9472
  8
DEFPOINTS
 62
     0
 10
-632.06811724320858
 20
-187.5000000000004
 30
0.0
  0
POINT
  5
9473
  8
DEFPOINTS
 62
     0
 10
-491.59782489894849
 20
-187.50000000000051
 30
0.0
  0
ENDBLK
  5
9474
  8
0
  0
BLOCK
  8
0
  2
*D55
 70
     1
 10
0.0
 20
0.0
 30
0.0
  3
*D55
  1

  0
LINE
  5
960D
  8
SUNPOU
 62
     0
 10
389.74931817779179
 20
-0.0000000000000071
 30
0.0
 11
582.53657039649534
 21
-0.0000000000000617
 31
0.0
  0
LINE
  5
960E
  8
SUNPOU
 62
     0
 10
389.74931817779179
 20
-174.99935884010691
 30
0.0
 11
582.53657039649534
 21
-174.99935884010691
 31
0.0
  0
LINE
  5
960F
  8
SUNPOU
 62
     0
 10
557.53657039649534
 20
-50.00000000000005
 30
0.0
 11
557.53657039649534
 21
-124.99935884010689
 31
0.0
  0
SOLID
  5
9610
  8
SUNPOU
 62
     0
 10
549.20323706316185
 20
-50.00000000000005
 30
0.0
 11
565.86990372982871
 21
-50.000000000000057
 31
0.0
 12
557.53657039649534
 22
-0.0000000000000546
 32
0.0
 13
557.53657039649534
 23
-0.0000000000000546
 33
0.0
  0
SOLID
  5
9611
  8
SUNPOU
 62
     0
 10
549.20323706316185
 20
-124.99935884010689
 30
0.0
 11
565.86990372982871
 21
-124.99935884010689
 31
0.0
 12
557.53657039649534
 22
-174.99935884010691
 32
0.0
 13
557.53657039649534
 23
-174.99935884010691
 33
0.0
  0
INSERT
  5
9612
  8
0
  2
*U99
 10
0.0
 20
0.0
 30
0.0
  0
POINT
  5
9613
  8
DEFPOINTS
 62
     0
 10
364.74931817779179
 20
0.0
 30
0.0
  0
POINT
  5
9614
  8
DEFPOINTS
 62
     0
 10
364.74931817779179
 20
-174.99935884010691
 30
0.0
  0
POINT
  5
9615
  8
DEFPOINTS
 62
     0
 10
557.53657039649534
 20
-174.99935884010691
 30
0.0
  0
ENDBLK
  5
9616
  8
0
  0
BLOCK
  8
0
  2
*D56
 70
     1
 10
0.0
 20
0.0
 30
0.0
  3
*D56
  1

  0
LINE
  5
961A
  8
SUNPOU
 62
     0
 10
1602.0869429882871
 20
850.00216925846257
 30
0.0
 11
1813.7016209482031
 21
850.00216925846235
 31
0.0
  0
LINE
  5
961B
  8
SUNPOU
 62
     0
 10
1148.1505774373211
 20
-0.0000000000000071
 30
0.0
 11
1813.7016209482031
 21
-0.0000000000001956
 31
0.0
  0
LINE
  5
961C
  8
SUNPOU
 62
     0
 10
1788.7016209482019
 20
800.00216925846257
 30
0.0
 11
1788.7016209482019
 21
49.999999999999808
 31
0.0
  0
SOLID
  5
961D
  8
SUNPOU
 62
     0
 10
1780.3682876148689
 20
800.00216925846257
 30
0.0
 11
1797.0349542815361
 21
800.00216925846235
 31
0.0
 12
1788.7016209482019
 22
850.00216925846257
 32
0.0
 13
1788.7016209482019
 23
850.00216925846257
 33
0.0
  0
SOLID
  5
961E
  8
SUNPOU
 62
     0
 10
1780.3682876148689
 20
49.999999999999808
 30
0.0
 11
1797.0349542815361
 21
49.999999999999808
 31
0.0
 12
1788.7016209482019
 22
-0.0000000000001885
 32
0.0
 13
1788.7016209482019
 23
-0.0000000000001885
 33
0.0
  0
INSERT
  5
961F
  8
0
  2
*U100
 10
0.0
 20
0.0
 30
0.0
  0
POINT
  5
9620
  8
DEFPOINTS
 62
     0
 10
1577.0869429882871
 20
850.00216925846257
 30
0.0
  0
POINT
  5
9621
  8
DEFPOINTS
 62
     0
 10
1123.1505774373211
 20
0.0
 30
0.0
  0
POINT
  5
9622
  8
DEFPOINTS
 62
     0
 10
1788.7016209482019
 20
-0.0000000000001885
 30
0.0
  0
ENDBLK
  5
9623
  8
0
  0
BLOCK
  8
0
  2
*D57
 70
     1
 10
0.0
 20
0.0
 30
0.0
  3
*D57
  1

  0
LINE
  5
9627
  8
SUNPOU
 62
     0
 10
978.15057743732075
 20
220.03075928784941
 30
0.0
 11
978.15057743732075
 21
313.98434221828438
 31
0.0
  0
LINE
  5
9628
  8
SUNPOU
 62
     0
 10
1073.150883092206
 20
288.98434221828438
 30
0.0
 11
1028.1505774373211
 21
288.98434221828438
 31
0.0
  0
SOLID
  5
9629
  8
SUNPOU
 62
     0
 10
1073.150883092206
 20
297.3176755516177
 30
0.0
 11
1073.150883092206
 21
280.65100888495112
 31
0.0
 12
1123.150883092206
 22
288.98434221828438
 32
0.0
 13
1123.150883092206
 23
288.98434221828438
 33
0.0
  0
SOLID
  5
962A
  8
SUNPOU
 62
     0
 10
1028.1505774373211
 20
297.3176755516177
 30
0.0
 11
1028.1505774373211
 21
280.65100888495112
 31
0.0
 12
978.15057743732075
 22
288.98434221828438
 32
0.0
 13
978.15057743732075
 23
288.98434221828438
 33
0.0
  0
INSERT
  5
962B
  8
0
  2
*U101
 10
0.0
 20
0.0
 30
0.0
  0
POINT
  5
962C
  8
DEFPOINTS
 62
     0
 10
1123.150883092206
 20
288.98434221828438
 30
0.0
  0
POINT
  5
962D
  8
DEFPOINTS
 62
     0
 10
978.15057743732075
 20
195.03075928784941
 30
0.0
  0
POINT
  5
962E
  8
DEFPOINTS
 62
     0
 10
978.15057743732075
 20
288.98434221828438
 30
0.0
  0
ENDBLK
  5
962F
  8
0
  0
BLOCK
  8
0
  2
*D58
 70
     1
 10
0.0
 20
0.0
 30
0.0
  3
*D58
  1

  0
LINE
  5
9633
  8
SUNPOU
 62
     0
 10
909.65153693218952
 20
199.99935884010711
 30
0.0
 11
909.65153693218952
 21
439.12083948089969
 31
0.0
  0
LINE
  5
9634
  8
SUNPOU
 62
     0
 10
1073.150883092206
 20
414.12083948089969
 30
0.0
 11
959.65153693218952
 21
414.12083948089969
 31
0.0
  0
SOLID
  5
9635
  8
SUNPOU
 62
     0
 10
1073.150883092206
 20
422.45417281423312
 30
0.0
 11
1073.150883092206
 21
405.78750614756638
 31
0.0
 12
1123.150883092206
 22
414.12083948089969
 32
0.0
 13
1123.150883092206
 23
414.12083948089969
 33
0.0
  0
SOLID
  5
9636
  8
SUNPOU
 62
     0
 10
959.65153693218952
 20
422.45417281423312
 30
0.0
 11
959.65153693218952
 21
405.78750614756638
 31
0.0
 12
909.65153693218952
 22
414.12083948089969
 32
0.0
 13
909.65153693218952
 23
414.12083948089969
 33
0.0
  0
INSERT
  5
9637
  8
0
  2
*U102
 10
0.0
 20
0.0
 30
0.0
  0
POINT
  5
9638
  8
DEFPOINTS
 62
     0
 10
1123.150883092206
 20
414.12083948089969
 30
0.0
  0
POINT
  5
9639
  8
DEFPOINTS
 62
     0
 10
909.65153693218952
 20
174.99935884010711
 30
0.0
  0
POINT
  5
963A
  8
DEFPOINTS
 62
     0
 10
909.65153693218952
 20
414.12083948089969
 30
0.0
  0
ENDBLK
  5
963B
  8
0
  0
BLOCK
  8
0
  2
*D59
 70
     1
 10
0.0
 20
0.0
 30
0.0
  3
*D59
  1

  0
LINE
  5
963F
  8
SUNPOU
 62
     0
 10
296.2508293176997
 20
-220.0307592878471
 30
0.0
 11
296.2508293176997
 21
-392.85706451646757
 31
0.0
  0
LINE
  5
9640
  8
SUNPOU
 62
     0
 10
201.24997201777569
 20
-367.85706451646757
 30
0.0
 11
246.2508293176997
 21
-367.85706451646757
 31
0.0
  0
SOLID
  5
9641
  8
SUNPOU
 62
     0
 10
201.24997201777569
 20
-359.52373118313432
 30
0.0
 11
201.24997201777569
 21
-376.19039784980089
 31
0.0
 12
151.24997201777569
 22
-367.85706451646757
 32
0.0
 13
151.24997201777569
 23
-367.85706451646757
 33
0.0
  0
SOLID
  5
9642
  8
SUNPOU
 62
     0
 10
246.2508293176997
 20
-359.52373118313432
 30
0.0
 11
246.2508293176997
 21
-376.19039784980089
 31
0.0
 12
296.2508293176997
 22
-367.85706451646757
 32
0.0
 13
296.2508293176997
 23
-367.85706451646757
 33
0.0
  0
INSERT
  5
9643
  8
0
  2
*U103
 10
0.0
 20
0.0
 30
0.0
  0
POINT
  5
9644
  8
DEFPOINTS
 62
     0
 10
151.24997201777569
 20
-367.85706451646757
 30
0.0
  0
POINT
  5
9645
  8
DEFPOINTS
 62
     0
 10
296.2508293176997
 20
-195.0307592878471
 30
0.0
  0
POINT
  5
9646
  8
DEFPOINTS
 62
     0
 10
296.2508293176997
 20
-367.85706451646757
 30
0.0
  0
ENDBLK
  5
9647
  8
0
  0
BLOCK
  8
0
  2
*D60
 70
     1
 10
0.0
 20
0.0
 30
0.0
  3
*D60
  1

  0
LINE
  5
964B
  8
SUNPOU
 62
     0
 10
151.24997201777569
 20
-453.98609573426052
 30
0.0
 11
151.24997201777569
 21
-538.68821840826138
 31
0.0
  0
LINE
  5
964C
  8
SUNPOU
 62
     0
 10
364.74931817779179
 20
-199.99935884010691
 30
0.0
 11
364.74931817779179
 21
-538.68821840826138
 31
0.0
  0
LINE
  5
964D
  8
SUNPOU
 62
     0
 10
201.24997201777569
 20
-513.68821840826138
 30
0.0
 11
314.74931817779179
 21
-513.68821840826138
 31
0.0
  0
SOLID
  5
964E
  8
SUNPOU
 62
     0
 10
201.24997201777569
 20
-505.35488507492812
 30
0.0
 11
201.24997201777569
 21
-522.02155174159475
 31
0.0
 12
151.24997201777569
 22
-513.68821840826138
 32
0.0
 13
151.24997201777569
 23
-513.68821840826138
 33
0.0
  0
SOLID
  5
964F
  8
SUNPOU
 62
     0
 10
314.74931817779179
 20
-505.35488507492812
 30
0.0
 11
314.74931817779179
 21
-522.02155174159475
 31
0.0
 12
364.74931817779179
 22
-513.68821840826138
 32
0.0
 13
364.74931817779179
 23
-513.68821840826138
 33
0.0
  0
INSERT
  5
9650
  8
0
  2
*U104
 10
0.0
 20
0.0
 30
0.0
  0
POINT
  5
9651
  8
DEFPOINTS
 62
     0
 10
151.24997201777569
 20
-428.98609573426052
 30
0.0
  0
POINT
  5
9652
  8
DEFPOINTS
 62
     0
 10
364.74931817779179
 20
-174.99935884010691
 30
0.0
  0
POINT
  5
9653
  8
DEFPOINTS
 62
     0
 10
364.74931817779179
 20
-513.68821840826138
 30
0.0
  0
ENDBLK
  5
9654
  8
0
  0
BLOCK
  8
0
  2
*D61
 70
     1
 10
0.0
 20
0.0
 30
0.0
  3
*D61
  1

  0
LINE
  5
9658
  8
SUNPOU
 62
     0
 10
884.65184258707438
 20
174.99935884010711
 30
0.0
 11
725.31179630402858
 21
174.99935884010711
 31
0.0
  0
LINE
  5
9659
  8
SUNPOU
 62
     0
 10
884.65153693218952
 20
0.0000000000000071
 30
0.0
 11
725.31179630402858
 21
0.0000000000000522
 31
0.0
  0
LINE
  5
965A
  8
SUNPOU
 62
     0
 10
750.31179630402858
 20
124.99935884010711
 30
0.0
 11
750.31179630402858
 21
50.00000000000005
 31
0.0
  0
SOLID
  5
965B
  8
SUNPOU
 62
     0
 10
741.9784629706952
 20
124.99935884010711
 30
0.0
 11
758.64512963736195
 21
124.99935884010711
 31
0.0
 12
750.31179630402858
 22
174.99935884010711
 32
0.0
 13
750.31179630402858
 23
174.99935884010711
 33
0.0
  0
SOLID
  5
965C
  8
SUNPOU
 62
     0
 10
741.9784629706952
 20
50.00000000000005
 30
0.0
 11
758.64512963736195
 21
50.000000000000043
 31
0.0
 12
750.31179630402858
 22
0.0000000000000451
 32
0.0
 13
750.31179630402858
 23
0.0000000000000451
 33
0.0
  0
INSERT
  5
965D
  8
0
  2
*U105
 10
0.0
 20
0.0
 30
0.0
  0
POINT
  5
965E
  8
DEFPOINTS
 62
     0
 10
909.65184258707438
 20
174.99935884010711
 30
0.0
  0
POINT
  5
965F
  8
DEFPOINTS
 62
     0
 10
909.65153693218952
 20
0.0
 30
0.0
  0
POINT
  5
9660
  8
DEFPOINTS
 62
     0
 10
750.31179630402858
 20
0.0000000000000451
 30
0.0
  0
ENDBLK
  5
9661
  8
0
  0
BLOCK
  8
0
  2
T-40金具詳細
 70
     0
 10
0.0
 20
0.0
 30
0.0
  3
T-40金具詳細
  1
C:\Documents and Settings\SJC\デスクトップ\G_T-40\ブロックT-40\T-40柵部品図\T-40金具詳細.dwg
  0
TEXT
  5
9701
  8
INFORMATION
 10
1.0
 20
1.0
 30
0.0
 40
0.8
  1
VERSION=3.0
 41
0.8
  7
EXT08
  0
LINE
  5
9702
  8
SJC
 10
-88.026395907529874
 20
35.009182472723751
 30
0.0
 11
-45.314390722358077
 21
35.009182472723751
 31
0.0
  0
LINE
  5
9703
  8
SJC
 10
-72.971587549503965
 20
-35.010558304351527
 30
0.0
 11
-30.259582364332161
 21
-35.010558304351527
 31
0.0
  0
LINE
  5
9704
  8
SJC
 10
-88.025937296967086
 20
-0.0006879158141601
 30
0.0
 11
-30.258894448517321
 21
-0.0006879158140237
 31
0.0
  0
LINE
  5
9705
  8
CENTER
 10
-59.017903109768667
 20
-54.239295884344401
 30
0.0
 11
-59.017903109768667
 21
54.555622507729311
 31
0.0
  0
POLYLINE
  5
9706
  8
SJC2
 66
     1
 10
0.0
 20
0.0
 30
0.0
  0
VERTEX
  5
A101
  8
SJC2
 10
-50.215332310658049
 20
-35.010558304351527
 30
0.0
  0
VERTEX
  5
A102
  8
SJC2
 10
-50.215332310658049
 20
-36.85107707375105
 30
0.0
  0
VERTEX
  5
A103
  8
SJC2
 10
-67.820244603688479
 20
-36.85107707375105
 30
0.0
  0
VERTEX
  5
A104
  8
SJC2
 10
-67.820244603688479
 20
-35.010558304351527
 30
0.0
  0
SEQEND
  5
A105
  8
SJC2
  0
ARC
  5
9707
  8
SJC2
 10
-51.815582259080109
 20
-43.653030918765033
 30
0.0
 40
1.200341555414622
 50
269.99658480360262
 51
0.0034151963973474
  0
LINE
  5
9708
  8
SJC2
 10
-51.815653807099437
 20
-44.853372472075982
 30
0.0
 11
-66.220381717749845
 21
-44.853831082578743
 31
0.0
  0
ARC
  5
9709
  8
SJC2
 10
-66.220453264446405
 20
-43.653489529328361
 30
0.0
 40
1.200341555414622
 50
180.0020575061024
 51
270.00341513149408
  0
LINE
  5
970A
  8
SJC2
 10
-67.420794819080399
 20
-43.653532633904433
 30
0.0
 11
-67.42010690326569
 21
-36.851077073751192
 31
0.0
  0
LINE
  5
970B
  8
SJC2
 10
-64.619372305433714
 20
-36.851077073751192
 30
0.0
 11
-64.619372305433714
 21
-44.853831082578743
 31
0.0
  0
LINE
  5
970C
  8
SJC2
 10
-53.416204608912807
 20
-36.851077073751192
 30
0.0
 11
-53.416204608912807
 21
-44.853372472075982
 31
0.0
  0
LINE
  5
970D
  8
SJC2
 10
-50.615470011080831
 20
-36.851077073751192
 30
0.0
 11
-50.615240705768883
 21
-43.652959370745982
 31
0.0
  0
POLYLINE
  5
970E
  8
SJC2
 66
     1
 10
0.0
 20
0.0
 30
0.0
  0
VERTEX
  5
A106
  8
SJC2
 10
-54.216480009759472
 20
-44.853716429983344
 30
0.0
  0
VERTEX
  5
A107
  8
SJC2
 10
-54.216480009759472
 20
-46.854290279504177
 30
0.0
  0
VERTEX
  5
A108
  8
SJC2
 10
-63.819096904527029
 20
-46.854290279504177
 30
0.0
  0
VERTEX
  5
A109
  8
SJC2
 10
-63.819096904527029
 20
-44.853716429983344
 30
0.0
  0
SEQEND
  5
A10A
  8
SJC2
  0
ARC
  5
970F
  8
SJC2
 10
-59.017903109768667
 20
30.414803015234881
 30
0.0
 40
9.9294297557481261
 50
27.561681572902842
 51
152.4383184270971
  0
LINE
  5
9710
  8
SJC
 10
-72.971587549503965
 20
-35.010558304351527
 30
0.0
 11
-72.971587549503965
 21
35.009182472723751
 31
0.0
  0
LINE
  5
9711
  8
SJC
 10
-45.314390722358077
 20
-35.010558304351527
 30
0.0
 11
-45.314390722358077
 21
35.009182472723751
 31
0.0
  0
LINE
  5
9712
  8
SJC
 10
30.258435837894648
 20
-35.009641083285722
 30
0.0
 11
72.970441023066442
 21
-35.009641083285722
 31
0.0
  0
LINE
  5
9713
  8
SJC
 10
45.313244195920547
 20
35.009641083286532
 30
0.0
 11
88.025249381153472
 21
35.009641083286532
 31
0.0
  0
LINE
  5
9714
  8
SJC
 10
30.258435837894648
 20
0.0
 30
0.0
 11
88.025478686345238
 21
0.0
 31
0.0
  0
LINE
  5
9715
  8
CENTER
 10
59.266928635655859
 20
54.239181231689102
 30
0.0
 11
59.266928635655859
 21
-54.55596646563572
 31
0.0
  0
POLYLINE
  5
9716
  8
SJC2
 66
     1
 10
0.0
 20
0.0
 30
0.0
  0
VERTEX
  5
A10B
  8
SJC2
 10
68.069270129515644
 20
-35.009641083285722
 30
0.0
  0
VERTEX
  5
A10C
  8
SJC2
 10
68.069270129515644
 20
-36.850159852685792
 30
0.0
  0
VERTEX
  5
A10D
  8
SJC2
 10
50.464357836484119
 20
-36.850159852685792
 30
0.0
  0
VERTEX
  5
A10E
  8
SJC2
 10
50.464357836484119
 20
-35.009641083285722
 30
0.0
  0
SEQEND
  5
A10F
  8
SJC2
  0
ARC
  5
9717
  8
SJC2
 10
66.468790874458861
 20
-43.651999045043787
 30
0.0
 40
1.200341555414622
 50
269.99658486850592
 51
359.99794249389748
  0
LINE
  5
9718
  8
SJC2
 10
66.468719327762301
 20
-44.852340598294717
 30
0.0
 11
52.064220722423848
 21
-44.852913861513201
 31
0.0
  0
ARC
  5
9719
  8
SJC2
 10
52.064149174344493
 20
-43.652572308262542
 30
0.0
 40
1.200341555414622
 50
179.99658480360259
 51
270.00341519639738
  0
LINE
  5
971A
  8
SJC2
 10
50.863807621093287
 20
-43.652500760183187
 30
0.0
 11
50.864495536907988
 21
-36.850159852685643
 31
0.0
  0
LINE
  5
971B
  8
SJC2
 10
53.665230134739971
 20
-36.850159852685643
 30
0.0
 11
53.665230134739971
 21
-44.852913861513201
 31
0.0
  0
LINE
  5
971C
  8
SJC2
 10
64.868397831259784
 20
-36.850159852685643
 30
0.0
 11
64.868397831259784
 21
-44.852340598294717
 31
0.0
  0
LINE
  5
971D
  8
SJC2
 10
67.669132429092855
 20
-36.850159852685643
 30
0.0
 11
67.669132429092855
 21
-43.652042149620129
 31
0.0
  0
POLYLINE
  5
971E
  8
SJC2
 66
     1
 10
0.0
 20
0.0
 30
0.0
  0
VERTEX
  5
A110
  8
SJC2
 10
64.068122430413126
 20
-44.852684556201801
 30
0.0
  0
VERTEX
  5
A111
  8
SJC2
 10
64.068122430413126
 20
-46.853258405783073
 30
0.0
  0
VERTEX
  5
A112
  8
SJC2
 10
54.465505535586637
 20
-46.853258405783073
 30
0.0
  0
VERTEX
  5
A113
  8
SJC2
 10
54.465505535586637
 20
-44.852684556201801
 30
0.0
  0
SEQEND
  5
A114
  8
SJC2
  0
ARC
  5
971F
  8
SJC2
 10
59.266813982999871
 20
30.413576780288899
 30
0.0
 40
9.9301078185879952
 50
27.570605815502049
 51
152.42939418449791
  0
LINE
  5
9720
  8
SJC
 10
45.313244195920547
 20
35.009641083286532
 30
0.0
 11
45.313244195920547
 21
-35.009641083285722
 31
0.0
  0
LINE
  5
9721
  8
SJC
 10
72.970441023066442
 20
35.009641083286532
 30
0.0
 11
72.970441023066442
 21
-35.009641083285722
 31
0.0
  0
ENDBLK
  5
9722
  8
0
  0
BLOCK
  8
0
  2
*D63
 70
     1
 10
0.0
 20
0.0
 30
0.0
  3
*D63
  1

  0
LINE
  5
97A1
  8
SUNPOU
 62
     0
 10
-175.0508806445614
 20
1358.270735815436
 30
0.0
 11
-175.0508806445614
 21
1681.9710202167851
 31
0.0
  0
LINE
  5
97A2
  8
SUNPOU
 62
     0
 10
-99.996322071079703
 20
1358.270735815436
 30
0.0
 11
-99.996322071079675
 21
1681.9710202167851
 31
0.0
  0
LINE
  5
97A3
  8
SUNPOU
 62
     0
 10
-225.0508806445614
 20
1656.9710202167851
 30
0.0
 11
-275.0508806445614
 21
1656.9710202167851
 31
0.0
  0
LINE
  5
97A4
  8
SUNPOU
 62
     0
 10
-49.996322071079689
 20
1656.9710202167851
 30
0.0
 11
0.003677928920311
 21
1656.9710202167851
 31
0.0
  0
INSERT
  5
97A5
  8
0
  2
*U127
 10
0.0
 20
0.0
 30
0.0
  0
LINE
  5
97A6
  8
SUNPOU
 62
     0
 10
-175.0508806445614
 20
1656.9710202167851
 30
0.0
 11
-99.996322071079689
 21
1656.9710202167851
 31
0.0
  0
SOLID
  5
97A7
  8
SUNPOU
 62
     0
 10
-225.0508806445614
 20
1665.304353550119
 30
0.0
 11
-225.0508806445614
 21
1648.637686883452
 31
0.0
 12
-175.0508806445614
 22
1656.9710202167851
 32
0.0
 13
-175.0508806445614
 23
1656.9710202167851
 33
0.0
  0
SOLID
  5
97A8
  8
SUNPOU
 62
     0
 10
-49.996322071079689
 20
1665.304353550119
 30
0.0
 11
-49.996322071079689
 21
1648.637686883452
 31
0.0
 12
-99.996322071079689
 22
1656.9710202167851
 32
0.0
 13
-99.996322071079689
 23
1656.9710202167851
 33
0.0
  0
POINT
  5
97A9
  8
DEFPOINTS
 62
     0
 10
-175.0508806445614
 20
1333.270735815436
 30
0.0
  0
POINT
  5
97AA
  8
DEFPOINTS
 62
     0
 10
-99.996322071079703
 20
1333.270735815436
 30
0.0
  0
POINT
  5
97AB
  8
DEFPOINTS
 62
     0
 10
-99.996322071079689
 20
1656.9710202167851
 30
0.0
  0
ENDBLK
  5
97AC
  8
0
  0
BLOCK
  8
0
  2
*D64
 70
     1
 10
0.0
 20
0.0
 30
0.0
  3
*D64
  1

  0
LINE
  5
97B5
  8
SUNPOU
 10
782.18808029321735
 20
1333.2707358150369
 30
0.0
 11
1200.7204563139551
 21
1333.2707358150369
 31
0.0
  0
LINE
  5
97B6
  8
SUNPOU
 10
25.0
 20
1351.6666666660001
 30
0.0
 11
1200.7204563139551
 21
1351.6666666660001
 31
0.0
  0
LINE
  5
97B7
  8
SUNPOU
 10
1175.7204563139551
 20
1283.2707358150369
 30
0.0
 11
1175.7204563139551
 21
1233.2707358150369
 31
0.0
  0
LINE
  5
97B8
  8
SUNPOU
 10
1175.7204563139551
 20
1401.6666666660001
 30
0.0
 11
1175.7204563139551
 21
1451.6666666660001
 31
0.0
  0
INSERT
  5
97B9
  8
0
  2
*U129
 10
0.0
 20
0.0
 30
0.0
  0
LINE
  5
97BA
  8
SUNPOU
 10
1175.7204563139551
 20
1333.2707358150369
 30
0.0
 11
1175.7204563139551
 21
1351.6666666660001
 31
0.0
  0
SOLID
  5
97BB
  8
SUNPOU
 10
1167.3871229806221
 20
1283.2707358150369
 30
0.0
 11
1184.0537896472881
 21
1283.2707358150369
 31
0.0
 12
1175.7204563139551
 22
1333.2707358150369
 32
0.0
 13
1175.7204563139551
 23
1333.2707358150369
 33
0.0
  0
SOLID
  5
97BC
  8
SUNPOU
 10
1167.3871229806221
 20
1401.6666666660001
 30
0.0
 11
1184.0537896472881
 21
1401.6666666660001
 31
0.0
 12
1175.7204563139551
 22
1351.6666666660001
 32
0.0
 13
1175.7204563139551
 23
1351.6666666660001
 33
0.0
  0
POINT
  5
97BD
  8
DEFPOINTS
 62
     0
 10
757.18808029321735
 20
1333.2707358150369
 30
0.0
  0
POINT
  5
97BE
  8
DEFPOINTS
 62
     0
 10
0.0
 20
1351.6666666660001
 30
0.0
  0
POINT
  5
97BF
  8
DEFPOINTS
 62
     0
 10
1175.7204563139551
 20
1351.6666666660001
 30
0.0
  0
ENDBLK
  5
97C0
  8
0
  0
BLOCK
  8
0
  2
*D65
 70
     1
 10
0.0
 20
0.0
 30
0.0
  3
*D65
  1

  0
LINE
  5
97C4
  8
SUNPOU
 10
25.0
 20
1351.6666666660001
 30
0.0
 11
1395.9716335364781
 21
1351.6666666660001
 31
0.0
  0
LINE
  5
97C5
  8
SUNPOU
 10
782.18808029321235
 20
-0.0000000000000071
 30
0.0
 11
1395.9716335364769
 21
-0.000000000000181
 31
0.0
  0
LINE
  5
97C6
  8
SUNPOU
 10
1370.9716335364769
 20
1301.6666666660001
 30
0.0
 11
1370.9716335364769
 21
49.999999999999822
 31
0.0
  0
SOLID
  5
97C7
  8
SUNPOU
 10
1362.6383002031439
 20
1301.6666666660001
 30
0.0
 11
1379.3049668698111
 21
1301.6666666660001
 31
0.0
 12
1370.9716335364769
 22
1351.6666666660001
 32
0.0
 13
1370.9716335364769
 23
1351.6666666660001
 33
0.0
  0
SOLID
  5
97C8
  8
SUNPOU
 10
1362.6383002031439
 20
49.999999999999822
 30
0.0
 11
1379.30496686981
 21
49.999999999999822
 31
0.0
 12
1370.9716335364769
 22
-0.0000000000001739
 32
0.0
 13
1370.9716335364769
 23
-0.0000000000001739
 33
0.0
  0
INSERT
  5
97C9
  8
0
  2
*U130
 10
0.0
 20
0.0
 30
0.0
  0
POINT
  5
97CA
  8
DEFPOINTS
 62
     0
 10
0.0
 20
1351.6666666660001
 30
0.0
  0
POINT
  5
97CB
  8
DEFPOINTS
 62
     0
 10
757.18808029321235
 20
0.0
 30
0.0
  0
POINT
  5
97CC
  8
DEFPOINTS
 62
     0
 10
1370.9716335364769
 20
-0.0000000000001739
 30
0.0
  0
ENDBLK
  5
97CD
  8
0
  0
BLOCK
  8
0
  2
*D66
 70
     1
 10
0.0
 20
0.0
 30
0.0
  3
*D66
  1

  0
LINE
  5
97D1
  8
SUNPOU
 10
171.70913114390871
 20
1049.8574447401829
 30
0.0
 11
1007.0886084112771
 21
1049.8574447401829
 31
0.0
  0
LINE
  5
97D2
  8
SUNPOU
 10
171.70913114390871
 20
549.89824585881058
 30
0.0
 11
1007.0886084112771
 21
549.89824585881047
 31
0.0
  0
LINE
  5
97D3
  8
SUNPOU
 10
982.08860841127728
 20
999.85744474018315
 30
0.0
 11
982.08860841127705
 21
599.89824585881047
 31
0.0
  0
SOLID
  5
97D4
  8
SUNPOU
 10
973.75527507794391
 20
999.85744474018315
 30
0.0
 11
990.42194174461065
 21
999.85744474018315
 31
0.0
 12
982.08860841127728
 22
1049.8574447401829
 32
0.0
 13
982.08860841127728
 23
1049.8574447401829
 33
0.0
  0
SOLID
  5
97D5
  8
SUNPOU
 10
973.75527507794368
 20
599.89824585881047
 30
0.0
 11
990.42194174461054
 21
599.89824585881047
 31
0.0
 12
982.08860841127705
 22
549.89824585881047
 32
0.0
 13
982.08860841127705
 23
549.89824585881047
 33
0.0
  0
INSERT
  5
97D6
  8
0
  2
*U131
 10
0.0
 20
0.0
 30
0.0
  0
POINT
  5
97D7
  8
DEFPOINTS
 62
     0
 10
146.70913114390871
 20
1049.8574447401829
 30
0.0
  0
POINT
  5
97D8
  8
DEFPOINTS
 62
     0
 10
146.70913114390871
 20
549.89824585881058
 30
0.0
  0
POINT
  5
97D9
  8
DEFPOINTS
 62
     0
 10
982.08860841127705
 20
549.89824585881047
 30
0.0
  0
ENDBLK
  5
97DA
  8
0
  0
BLOCK
  8
0
  2
*D67
 70
     1
 10
0.0
 20
0.0
 30
0.0
  3
*D67
  1

  0
LINE
  5
96B7
  8
SUNPOU
 10
782.18884464425355
 20
1333.270735815436
 30
0.0
 11
1200.7204563139551
 21
1333.270735815436
 31
0.0
  0
LINE
  5
96B8
  8
SUNPOU
 10
782.18808029321235
 20
-0.0000000000000071
 30
0.0
 11
1200.7204563139551
 21
-0.0000000000001256
 31
0.0
  0
LINE
  5
96B9
  8
SUNPOU
 10
1175.7204563139551
 20
1283.270735815436
 30
0.0
 11
1175.7204563139551
 21
49.999999999999879
 31
0.0
  0
SOLID
  5
96BA
  8
SUNPOU
 10
1167.3871229806221
 20
1283.270735815436
 30
0.0
 11
1184.0537896472881
 21
1283.270735815436
 31
0.0
 12
1175.7204563139551
 22
1333.270735815436
 32
0.0
 13
1175.7204563139551
 23
1333.270735815436
 33
0.0
  0
SOLID
  5
96BB
  8
SUNPOU
 10
1167.3871229806209
 20
49.999999999999893
 30
0.0
 11
1184.0537896472881
 21
49.999999999999879
 31
0.0
 12
1175.7204563139551
 22
-0.0000000000001186
 32
0.0
 13
1175.7204563139551
 23
-0.0000000000001186
 33
0.0
  0
INSERT
  5
96BC
  8
0
  2
*U112
 10
0.0
 20
0.0
 30
0.0
  0
POINT
  5
96BD
  8
DEFPOINTS
 62
     0
 10
757.18884464425355
 20
1333.270735815436
 30
0.0
  0
POINT
  5
96BE
  8
DEFPOINTS
 62
     0
 10
757.18808029321235
 20
0.0
 30
0.0
  0
POINT
  5
96BF
  8
DEFPOINTS
 62
     0
 10
1175.7204563139551
 20
-0.0000000000001186
 30
0.0
  0
ENDBLK
  5
96C0
  8
0
  0
BLOCK
  8
0
  2
*D68
 70
     1
 10
0.0
 20
0.0
 30
0.0
  3
*D68
  1

  0
LINE
  5
96DA
  8
SUNPOU
 10
171.70913114390891
 20
1049.8574447401829
 30
0.0
 11
1007.0886084112771
 21
1049.8574447401829
 31
0.0
  0
LINE
  5
96DB
  8
SUNPOU
 10
807.18884464425355
 20
1333.270735815436
 30
0.0
 11
1007.0886084112771
 21
1333.270735815436
 31
0.0
  0
LINE
  5
96DC
  8
SUNPOU
 10
982.08860841127694
 20
1099.8574447401829
 30
0.0
 11
982.08860841127705
 21
1283.270735815436
 31
0.0
  0
SOLID
  5
96DD
  8
SUNPOU
 10
973.75527507794368
 20
1099.8574447401829
 30
0.0
 11
990.42194174461031
 21
1099.8574447401829
 31
0.0
 12
982.08860841127694
 22
1049.8574447401829
 32
0.0
 13
982.08860841127694
 23
1049.8574447401829
 33
0.0
  0
SOLID
  5
96DE
  8
SUNPOU
 10
973.75527507794368
 20
1283.270735815436
 30
0.0
 11
990.42194174461054
 21
1283.270735815436
 31
0.0
 12
982.08860841127705
 22
1333.270735815436
 32
0.0
 13
982.08860841127705
 23
1333.270735815436
 33
0.0
  0
INSERT
  5
96DF
  8
0
  2
*U113
 10
0.0
 20
0.0
 30
0.0
  0
POINT
  5
96E0
  8
DEFPOINTS
 62
     0
 10
146.70913114390891
 20
1049.8574447401829
 30
0.0
  0
POINT
  5
96E1
  8
DEFPOINTS
 62
     0
 10
782.18884464425355
 20
1333.270735815436
 30
0.0
  0
POINT
  5
96E2
  8
DEFPOINTS
 62
     0
 10
982.08860841127705
 20
1333.270735815436
 30
0.0
  0
ENDBLK
  5
96E3
  8
0
  0
BLOCK
  8
0
  2
*D69
 70
     1
 10
0.0
 20
0.0
 30
0.0
  3
*D69
  1

  0
LINE
  5
96F1
  8
SUNPOU
 62
     0
 10
171.70913114390891
 20
549.89824585881058
 30
0.0
 11
1007.0886084112771
 21
549.89824585881047
 31
0.0
  0
LINE
  5
96F2
  8
SUNPOU
 62
     0
 10
782.18808029321235
 20
-0.0000000000000071
 30
0.0
 11
1007.0886084112771
 21
-0.0000000000000708
 31
0.0
  0
LINE
  5
96F3
  8
SUNPOU
 62
     0
 10
982.08860841127682
 20
499.89824585881053
 30
0.0
 11
982.08860841127682
 21
49.999999999999929
 31
0.0
  0
SOLID
  5
96F4
  8
SUNPOU
 62
     0
 10
973.75527507794345
 20
499.89824585881053
 30
0.0
 11
990.42194174461019
 21
499.89824585881053
 31
0.0
 12
982.08860841127682
 22
549.89824585881047
 32
0.0
 13
982.08860841127682
 23
549.89824585881047
 33
0.0
  0
SOLID
  5
96F5
  8
SUNPOU
 62
     0
 10
973.75527507794345
 20
49.999999999999943
 30
0.0
 11
990.42194174460997
 21
49.999999999999929
 31
0.0
 12
982.08860841127682
 22
-0.0000000000000637
 32
0.0
 13
982.08860841127682
 23
-0.0000000000000637
 33
0.0
  0
INSERT
  5
96F6
  8
0
  2
*U116
 10
0.0
 20
0.0
 30
0.0
  0
POINT
  5
96F7
  8
DEFPOINTS
 62
     0
 10
146.70913114390891
 20
549.89824585881058
 30
0.0
  0
POINT
  5
96F8
  8
DEFPOINTS
 62
     0
 10
757.18808029321235
 20
0.0
 30
0.0
  0
POINT
  5
96F9
  8
DEFPOINTS
 62
     0
 10
982.08860841127682
 20
-0.0000000000000637
 30
0.0
  0
ENDBLK
  5
96FA
  8
0
  0
BLOCK
  8
0
  2
*D70
 70
     1
 10
0.0
 20
0.0
 30
0.0
  3
*D70
  1

  0
LINE
  5
9734
  8
SUNPOU
 62
     0
 10
-433.44925075140048
 20
1358.270735815436
 30
0.0
 11
-433.44925075140048
 21
1681.971020216786
 31
0.0
  0
LINE
  5
9735
  8
SUNPOU
 62
     0
 10
-175.0508806445614
 20
1358.270735815436
 30
0.0
 11
-175.0508806445614
 21
1681.971020216786
 31
0.0
  0
LINE
  5
9736
  8
SUNPOU
 62
     0
 10
-383.44925075140048
 20
1656.971020216786
 30
0.0
 11
-225.0508806445614
 21
1656.971020216786
 31
0.0
  0
INSERT
  5
9737
  8
0
  2
*U118
 10
0.0
 20
0.0
 30
0.0
  0
SOLID
  5
9738
  8
SUNPOU
 62
     0
 10
-383.44925075140048
 20
1665.304353550119
 30
0.0
 11
-383.44925075140048
 21
1648.637686883452
 31
0.0
 12
-433.44925075140048
 22
1656.971020216786
 32
0.0
 13
-433.44925075140048
 23
1656.971020216786
 33
0.0
  0
SOLID
  5
9739
  8
SUNPOU
 62
     0
 10
-225.0508806445614
 20
1665.304353550119
 30
0.0
 11
-225.0508806445614
 21
1648.637686883452
 31
0.0
 12
-175.0508806445614
 22
1656.971020216786
 32
0.0
 13
-175.0508806445614
 23
1656.971020216786
 33
0.0
  0
POINT
  5
973A
  8
DEFPOINTS
 62
     0
 10
-433.44925075140048
 20
1333.270735815436
 30
0.0
  0
POINT
  5
973B
  8
DEFPOINTS
 62
     0
 10
-175.0508806445614
 20
1333.270735815436
 30
0.0
  0
POINT
  5
973C
  8
DEFPOINTS
 62
     0
 10
-175.0508806445614
 20
1656.971020216786
 30
0.0
  0
ENDBLK
  5
973D
  8
0
  0
BLOCK
  8
0
  2
*D71
 70
     1
 10
0.0
 20
0.0
 30
0.0
  3
*D71
  1

  0
LINE
  5
9741
  8
SUNPOU
 62
     0
 10
-99.996322071079703
 20
1358.270735815436
 30
0.0
 11
-99.996322071079675
 21
1890.5880028163101
 31
0.0
  0
LINE
  5
9742
  8
SUNPOU
 62
     0
 10
-149.99632207107959
 20
1865.588002816309
 30
0.0
 11
-787.18884464425173
 21
1865.588002816309
 31
0.0
  0
SOLID
  5
9743
  8
SUNPOU
 62
     0
 10
-149.99632207107959
 20
1873.9213361496429
 30
0.0
 11
-149.99632207107959
 21
1857.2546694829759
 31
0.0
 12
-99.996322071079675
 22
1865.588002816309
 32
0.0
 13
-99.996322071079675
 23
1865.588002816309
 33
0.0
  0
INSERT
  5
9744
  8
0
  2
*U119
 10
0.0
 20
0.0
 30
0.0
  0
POINT
  5
9745
  8
DEFPOINTS
 62
     0
 10
-99.996322071079703
 20
1333.270735815436
 30
0.0
  0
POINT
  5
9746
  8
DEFPOINTS
 62
     0
 10
-787.18884464425173
 20
1865.588002816309
 30
0.0
  0
POINT
  5
9747
  8
DEFPOINTS
 62
     0
 10
-787.18884464425173
 20
1865.588002816309
 30
0.0
  0
ENDBLK
  5
9748
  8
0
  0
BLOCK
  8
0
  2
*D72
 70
     1
 10
0.0
 20
0.0
 30
0.0
  3
*D72
  1

  0
LINE
  5
974C
  8
SUNPOU
 62
     0
 10
0.0000000000000015
 20
1410.6103984245119
 30
0.0
 11
0.0000000000000439
 21
2103.3630340941058
 31
0.0
  0
LINE
  5
974D
  8
SUNPOU
 62
     0
 10
-49.999999999999957
 20
2078.3630340941058
 30
0.0
 11
-787.18884464425173
 21
2078.3630340941058
 31
0.0
  0
SOLID
  5
974E
  8
SUNPOU
 62
     0
 10
-49.999999999999957
 20
2086.6963674274398
 30
0.0
 11
-49.999999999999957
 21
2070.0297007607728
 31
0.0
 12
0.0000000000000424
 22
2078.3630340941058
 32
0.0
 13
0.0000000000000424
 23
2078.3630340941058
 33
0.0
  0
INSERT
  5
974F
  8
0
  2
*U120
 10
0.0
 20
0.0
 30
0.0
  0
POINT
  5
9750
  8
DEFPOINTS
 62
     0
 10
0.0
 20
1385.6103984245119
 30
0.0
  0
POINT
  5
9751
  8
DEFPOINTS
 62
     0
 10
-787.18884464425173
 20
2078.3630340941058
 30
0.0
  0
POINT
  5
9752
  8
DEFPOINTS
 62
     0
 10
-787.18884464425173
 20
2078.3630340941058
 30
0.0
  0
ENDBLK
  5
9753
  8
0
  0
BLOCK
  8
0
  2
*D73
 70
     1
 10
0.0
 20
0.0
 30
0.0
  3
*D73
  1

  0
LINE
  5
9757
  8
SUNPOU
 62
     0
 10
-433.44925075140048
 20
1358.270735815436
 30
0.0
 11
-433.44925075140048
 21
1681.971020216786
 31
0.0
  0
LINE
  5
9758
  8
SUNPOU
 62
     0
 10
-483.44925075140048
 20
1656.971020216786
 30
0.0
 11
-787.18884464425173
 21
1656.971020216786
 31
0.0
  0
INSERT
  5
9759
  8
0
  2
*U121
 10
0.0
 20
0.0
 30
0.0
  0
SOLID
  5
975A
  8
SUNPOU
 62
     0
 10
-483.44925075140048
 20
1665.304353550119
 30
0.0
 11
-483.44925075140048
 21
1648.637686883452
 31
0.0
 12
-433.44925075140048
 22
1656.971020216786
 32
0.0
 13
-433.44925075140048
 23
1656.971020216786
 33
0.0
  0
POINT
  5
975B
  8
DEFPOINTS
 62
     0
 10
-433.44925075140048
 20
1333.270735815436
 30
0.0
  0
POINT
  5
975C
  8
DEFPOINTS
 62
     0
 10
-787.18884464425173
 20
1656.971020216786
 30
0.0
  0
POINT
  5
975D
  8
DEFPOINTS
 62
     0
 10
-787.18884464425173
 20
1656.971020216786
 30
0.0
  0
ENDBLK
  5
975E
  8
0
  0
BLOCK
  8
0
  2
*D74
 70
     1
 10
0.0
 20
0.0
 30
0.0
  3
*D74
  1

  0
LINE
  5
9762
  8
SUNPOU
 62
     0
 10
433.44925075140412
 20
1358.270735815436
 30
0.0
 11
433.44925075140412
 21
1681.971020216786
 31
0.0
  0
LINE
  5
9763
  8
SUNPOU
 62
     0
 10
483.44925075140412
 20
1656.971020216786
 30
0.0
 11
831.64626423694972
 21
1656.971020216786
 31
0.0
  0
INSERT
  5
9764
  8
0
  2
*U122
 10
0.0
 20
0.0
 30
0.0
  0
SOLID
  5
9765
  8
SUNPOU
 62
     0
 10
483.44925075140412
 20
1665.304353550119
 30
0.0
 11
483.44925075140412
 21
1648.637686883452
 31
0.0
 12
433.44925075140412
 22
1656.971020216786
 32
0.0
 13
433.44925075140412
 23
1656.971020216786
 33
0.0
  0
POINT
  5
9766
  8
DEFPOINTS
 62
     0
 10
433.44925075140412
 20
1333.270735815436
 30
0.0
  0
POINT
  5
9767
  8
DEFPOINTS
 62
     0
 10
831.64626423694972
 20
1656.971020216786
 30
0.0
  0
POINT
  5
9768
  8
DEFPOINTS
 62
     0
 10
831.64626423694972
 20
1656.971020216786
 30
0.0
  0
ENDBLK
  5
9769
  8
0
  0
BLOCK
  8
0
  2
*D75
 70
     1
 10
0.0
 20
0.0
 30
0.0
  3
*D75
  1

  0
LINE
  5
976D
  8
SUNPOU
 62
     0
 10
99.996322071083341
 20
1358.270735815436
 30
0.0
 11
99.99632207108337
 21
1890.5880028163101
 31
0.0
  0
LINE
  5
976E
  8
SUNPOU
 62
     0
 10
149.99632207108331
 20
1865.588002816309
 30
0.0
 11
831.64626423694972
 21
1865.588002816309
 31
0.0
  0
SOLID
  5
976F
  8
SUNPOU
 62
     0
 10
149.99632207108331
 20
1873.9213361496429
 30
0.0
 11
149.99632207108331
 21
1857.2546694829759
 31
0.0
 12
99.99632207108337
 22
1865.588002816309
 32
0.0
 13
99.99632207108337
 23
1865.588002816309
 33
0.0
  0
INSERT
  5
9770
  8
0
  2
*U123
 10
0.0
 20
0.0
 30
0.0
  0
POINT
  5
9771
  8
DEFPOINTS
 62
     0
 10
99.996322071083341
 20
1333.270735815436
 30
0.0
  0
POINT
  5
9772
  8
DEFPOINTS
 62
     0
 10
831.64626423694972
 20
1865.588002816309
 30
0.0
  0
POINT
  5
9773
  8
DEFPOINTS
 62
     0
 10
831.64626423694972
 20
1865.588002816309
 30
0.0
  0
ENDBLK
  5
9774
  8
0
  0
BLOCK
  8
0
  2
*D76
 70
     1
 10
0.0
 20
0.0
 30
0.0
  3
*D76
  1

  0
LINE
  5
9778
  8
SUNPOU
 62
     0
 10
0.0000000000000015
 20
1410.6103984245119
 30
0.0
 11
0.0000000000000439
 21
2103.3630340941058
 31
0.0
  0
LINE
  5
9779
  8
SUNPOU
 62
     0
 10
50.000000000000043
 20
2078.3630340941058
 30
0.0
 11
831.64626423694972
 21
2078.3630340941058
 31
0.0
  0
SOLID
  5
977A
  8
SUNPOU
 62
     0
 10
50.000000000000043
 20
2086.6963674274398
 30
0.0
 11
50.000000000000043
 21
2070.0297007607728
 31
0.0
 12
0.0000000000000424
 22
2078.3630340941058
 32
0.0
 13
0.0000000000000424
 23
2078.3630340941058
 33
0.0
  0
INSERT
  5
977B
  8
0
  2
*U124
 10
0.0
 20
0.0
 30
0.0
  0
POINT
  5
977C
  8
DEFPOINTS
 62
     0
 10
0.0
 20
1385.6103984245119
 30
0.0
  0
POINT
  5
977D
  8
DEFPOINTS
 62
     0
 10
831.64626423694972
 20
2078.3630340941058
 30
0.0
  0
POINT
  5
977E
  8
DEFPOINTS
 62
     0
 10
831.64626423694972
 20
2078.3630340941058
 30
0.0
  0
ENDBLK
  5
977F
  8
0
  0
BLOCK
  8
0
  2
*D77
 70
     1
 10
0.0
 20
0.0
 30
0.0
  3
*D77
  1

  0
LINE
  5
9783
  8
SUNPOU
 62
     0
 10
433.44925075140412
 20
1358.270735815436
 30
0.0
 11
433.44925075140412
 21
1681.971020216786
 31
0.0
  0
LINE
  5
9784
  8
SUNPOU
 62
     0
 10
175.05088064456501
 20
1358.270735815436
 30
0.0
 11
175.05088064456501
 21
1681.971020216786
 31
0.0
  0
LINE
  5
9785
  8
SUNPOU
 62
     0
 10
383.44925075140418
 20
1656.971020216786
 30
0.0
 11
225.0508806445651
 21
1656.971020216786
 31
0.0
  0
INSERT
  5
9786
  8
0
  2
*U125
 10
0.0
 20
0.0
 30
0.0
  0
SOLID
  5
9787
  8
SUNPOU
 62
     0
 10
383.44925075140418
 20
1665.304353550119
 30
0.0
 11
383.44925075140418
 21
1648.637686883452
 31
0.0
 12
433.44925075140412
 22
1656.971020216786
 32
0.0
 13
433.44925075140412
 23
1656.971020216786
 33
0.0
  0
SOLID
  5
9788
  8
SUNPOU
 62
     0
 10
225.0508806445651
 20
1665.304353550119
 30
0.0
 11
225.0508806445651
 21
1648.637686883452
 31
0.0
 12
175.05088064456501
 22
1656.971020216786
 32
0.0
 13
175.05088064456501
 23
1656.971020216786
 33
0.0
  0
POINT
  5
9789
  8
DEFPOINTS
 62
     0
 10
433.44925075140412
 20
1333.270735815436
 30
0.0
  0
POINT
  5
978A
  8
DEFPOINTS
 62
     0
 10
175.05088064456501
 20
1333.270735815436
 30
0.0
  0
POINT
  5
978B
  8
DEFPOINTS
 62
     0
 10
175.05088064456501
 20
1656.971020216786
 30
0.0
  0
ENDBLK
  5
978C
  8
0
  0
BLOCK
  8
0
  2
*D78
 70
     1
 10
0.0
 20
0.0
 30
0.0
  3
*D78
  1

  0
LINE
  5
9792
  8
SUNPOU
 62
     0
 10
175.05088064456501
 20
1358.270735815436
 30
0.0
 11
175.05088064456501
 21
1681.9710202167851
 31
0.0
  0
LINE
  5
9793
  8
SUNPOU
 62
     0
 10
99.996322071083341
 20
1358.270735815436
 30
0.0
 11
99.99632207108337
 21
1681.9710202167851
 31
0.0
  0
LINE
  5
9794
  8
SUNPOU
 62
     0
 10
225.0508806445651
 20
1656.9710202167851
 30
0.0
 11
275.0508806445651
 21
1656.9710202167851
 31
0.0
  0
LINE
  5
9795
  8
SUNPOU
 62
     0
 10
49.996322071083348
 20
1656.9710202167851
 30
0.0
 11
-0.0036779289166446
 21
1656.9710202167851
 31
0.0
  0
INSERT
  5
9796
  8
0
  2
*U126
 10
0.0
 20
0.0
 30
0.0
  0
LINE
  5
9797
  8
SUNPOU
 62
     0
 10
175.05088064456501
 20
1656.9710202167851
 30
0.0
 11
99.996322071083355
 21
1656.9710202167851
 31
0.0
  0
SOLID
  5
9798
  8
SUNPOU
 62
     0
 10
225.0508806445651
 20
1665.304353550119
 30
0.0
 11
225.0508806445651
 21
1648.637686883452
 31
0.0
 12
175.05088064456501
 22
1656.9710202167851
 32
0.0
 13
175.05088064456501
 23
1656.9710202167851
 33
0.0
  0
SOLID
  5
9799
  8
SUNPOU
 62
     0
 10
49.996322071083348
 20
1665.304353550119
 30
0.0
 11
49.996322071083348
 21
1648.637686883452
 31
0.0
 12
99.996322071083355
 22
1656.9710202167851
 32
0.0
 13
99.996322071083355
 23
1656.9710202167851
 33
0.0
  0
POINT
  5
979A
  8
DEFPOINTS
 62
     0
 10
175.05088064456501
 20
1333.270735815436
 30
0.0
  0
POINT
  5
979B
  8
DEFPOINTS
 62
     0
 10
99.996322071083341
 20
1333.270735815436
 30
0.0
  0
POINT
  5
979C
  8
DEFPOINTS
 62
     0
 10
99.996322071083355
 20
1656.9710202167851
 30
0.0
  0
ENDBLK
  5
979D
  8
0
  0
BLOCK
  8
0
  2
*U79
 70
     1
 10
0.0
 20
0.0
 30
0.0
  3
*U79
  1

  0
SOLID
  5
9E94
  8
MOJI
 10
8445.4760594490599
 20
4761.7586059943942
 30
0.0
 11
8486.317519613498
 21
4791.7822562734818
 31
0.0
 12
8457.4211060349498
 22
4750.1356270372298
 32
0.0
 13
8457.4211060349498
 23
4750.1356270372298
 33
0.0
  0
POLYLINE
  5
9E95
  8
MOJI
 66
     1
 10
0.0
 20
0.0
 30
0.0
  0
VERTEX
  5
9E96
  8
MOJI
 10
8451.4485827420049
 20
4755.947116515812
 30
0.0
  0
VERTEX
  5
9E97
  8
MOJI
 10
8141.1245616399501
 20
4437.0241534401584
 30
0.0
  0
SEQEND
  5
9E98
  8
MOJI
  0
ENDBLK
  5
9E9A
  8
0
  0
BLOCK
  8
0
  2
*U80
 70
     1
 10
0.0
 20
0.0
 30
0.0
  3
*U80
  1

  0
SOLID
  5
9E9C
  8
MOJI
 10
1291.050201541635
 20
5032.9888138155848
 30
0.0
 11
1276.3336229464469
 21
4984.4824558931832
 31
0.0
 12
1274.522919048143
 22
5035.1397929317318
 32
0.0
 13
1274.522919048143
 23
5035.1397929317318
 33
0.0
  0
POLYLINE
  5
9E9D
  8
MOJI
 66
     1
 10
0.0
 20
0.0
 30
0.0
  0
VERTEX
  5
9E9E
  8
MOJI
 10
1282.7865602948889
 20
5034.0643033736569
 30
0.0
  0
VERTEX
  5
9E9F
  8
MOJI
 10
1370.523644996294
 20
5708.2017569315021
 30
0.0
  0
SEQEND
  5
9EA0
  8
MOJI
  0
ENDBLK
  5
9EA2
  8
0
  0
BLOCK
  8
0
  2
*U81
 70
     1
 10
0.0
 20
0.0
 30
0.0
  3
*U81
  1

  0
SOLID
  5
9EA4
  8
MOJI
 10
1370.0885577419749
 20
5640.2886387827839
 30
0.0
 11
1355.3719791467879
 21
5591.7822808603833
 31
0.0
 12
1353.561275248484
 22
5642.4396178989318
 32
0.0
 13
1353.561275248484
 23
5642.4396178989318
 33
0.0
  0
POLYLINE
  5
9EA5
  8
MOJI
 66
     1
 10
0.0
 20
0.0
 30
0.0
  0
VERTEX
  5
9EA6
  8
MOJI
 10
1361.8249164952299
 20
5641.3641283408579
 30
0.0
  0
VERTEX
  5
9EA7
  8
MOJI
 10
1370.523644996294
 20
5708.2017569315021
 30
0.0
  0
SEQEND
  5
9EA8
  8
MOJI
  0
ENDBLK
  5
9EAA
  8
0
  0
BLOCK
  8
0
  2
*U82
 70
     1
 10
0.0
 20
0.0
 30
0.0
  3
*U82
  1

  0
SOLID
  5
9F46
  8
MOJI
 10
894.01666664345555
 20
4843.4267794032694
 30
0.0
 11
864.70700893094545
 21
4884.7836217539598
 31
0.0
 12
905.84539077273325
 22
4855.168119328986
 32
0.0
 13
905.84539077273325
 23
4855.168119328986
 33
0.0
  0
POLYLINE
  5
9F47
  8
MOJI
 66
     1
 10
0.0
 20
0.0
 30
0.0
  0
VERTEX
  5
9F48
  8
MOJI
 10
899.93102870809446
 20
4849.2974493661277
 30
0.0
  0
VERTEX
  5
9F49
  8
MOJI
 10
1110.657819141361
 20
4637.002337696309
 30
0.0
  0
SEQEND
  5
9F4A
  8
MOJI
  0
ENDBLK
  5
9F4C
  8
0
  0
BLOCK
  8
0
  2
*X83
 70
     1
 10
0.0
 20
0.0
 30
0.0
  3
*X83
  1

  0
LINE
  5
9F55
  8
0
 62
     0
 10
5408.2482441708462
 20
4391.7822462151826
 30
0.0
 11
5421.4601606149636
 21
4404.9941626593018
 31
0.0
  0
LINE
  5
9F56
  8
0
 62
     0
 10
5301.7099443152638
 20
4462.0206416562387
 30
0.0
 11
5421.4601606149627
 21
4581.7708579559376
 31
0.0
  0
LINE
  5
9F57
  8
0
 62
     0
 10
5231.4715488742104
 20
4391.7822462151853
 30
0.0
 11
5241.2103702091654
 21
4401.5210675501376
 31
0.0
  0
LINE
  5
9F58
  8
0
 62
     0
 10
5301.7099443152638
 20
4638.7973369528754
 30
0.0
 11
5421.4601606149636
 21
4758.5475532525752
 31
0.0
  0
LINE
  5
9F59
  8
0
 62
     0
 10
5121.4601539094638
 20
4458.5475465470763
 30
0.0
 11
5241.2103702091663
 21
4578.2977628467761
 31
0.0
  0
LINE
  5
9F5A
  8
0
 62
     0
 10
5121.4601539094629
 20
4635.324241843713
 30
0.0
 11
5241.2103702091663
 21
4755.0744581434137
 31
0.0
  0
LINE
  5
9F5B
  8
0
 62
     0
 10
5301.7099443152638
 20
4439.9235547441604
 30
0.0
 11
5421.4601606149636
 21
4559.6737710438583
 31
0.0
  0
LINE
  5
9F5C
  8
0
 62
     0
 10
5301.7099443152638
 20
4616.7002500407953
 30
0.0
 11
5421.4601606149636
 21
4736.450466340495
 31
0.0
  0
LINE
  5
9F5D
  8
0
 62
     0
 10
5121.4601539094638
 20
4436.4504596349962
 30
0.0
 11
5241.2103702091663
 21
4556.2006759346968
 31
0.0
  0
LINE
  5
9F5E
  8
0
 62
     0
 10
5121.4601539094638
 20
4613.227154931632
 30
0.0
 11
5241.2103702091672
 21
4732.9773712313327
 31
0.0
  0
LINE
  5
9F5F
  8
0
 62
     0
 10
5121.4601539094638
 20
4790.0038502282687
 30
0.0
 11
5123.2385599546778
 21
4791.7822562734818
 31
0.0
  0
LINE
  5
9F60
  8
0
 62
     0
 10
5301.7099443152638
 20
4417.8264678320793
 30
0.0
 11
5421.4601606149636
 21
4537.5766841317791
 31
0.0
  0
LINE
  5
9F61
  8
0
 62
     0
 10
5301.7099443152638
 20
4594.603163128716
 30
0.0
 11
5421.4601606149636
 21
4714.3533794284158
 31
0.0
  0
LINE
  5
9F62
  8
0
 62
     0
 10
5121.4601539094638
 20
4414.353372722916
 30
0.0
 11
5241.2103702091663
 21
4534.1035890226167
 31
0.0
  0
LINE
  5
9F63
  8
0
 62
     0
 10
5301.7099443152638
 20
4771.3798584253536
 30
0.0
 11
5322.1123421633947
 21
4791.7822562734818
 31
0.0
  0
LINE
  5
9F64
  8
0
 62
     0
 10
5121.4601539094638
 20
4591.1300680195527
 30
0.0
 11
5241.2103702091672
 21
4710.8802843192543
 31
0.0
  0
LINE
  5
9F65
  8
0
 62
     0
 10
5121.4601539094638
 20
4767.9067633161903
 30
0.0
 11
5145.3356468667571
 21
4791.7822562734818
 31
0.0
  0
ENDBLK
  5
9F67
  8
0
  0
BLOCK
  8
0
  2
*X84
 70
     1
 10
0.0
 20
0.0
 30
0.0
  3
*X84
  1

  0
LINE
  5
9F69
  8
0
 62
     0
 10
6220.177107997737
 20
4676.405363838795
 30
0.0
 11
6220.177107997737
 21
4676.405363838795
 31
0.0
  0
LINE
  5
9F6A
  8
0
 62
     0
 10
6332.6856091875206
 20
4636.7599818122753
 30
0.0
 11
6332.6856091875206
 21
4636.7599818122753
 31
0.0
  0
LINE
  5
9F6B
  8
0
 62
     0
 10
6240.3047588852123
 20
4721.4114348265184
 30
0.0
 11
6240.3047588852123
 21
4721.4114348265184
 31
0.0
  0
LINE
  5
9F6C
  8
0
 62
     0
 10
6216.3432454388821
 20
4743.3681165740281
 30
0.0
 11
6216.3432454388821
 21
4743.3681165740281
 31
0.0
  0
LINE
  5
9F6D
  8
0
 62
     0
 10
6336.8143418662148
 20
4696.4263603052586
 30
0.0
 11
6336.8143418662148
 21
4696.4263603052586
 31
0.0
  0
LINE
  5
9F6E
  8
0
 62
     0
 10
6395.1329588004537
 20
4706.43685853849
 30
0.0
 11
6395.1329588004537
 21
4706.43685853849
 31
0.0
  0
LINE
  5
9F6F
  8
0
 62
     0
 10
6356.9419927536892
 20
4741.4324312929812
 30
0.0
 11
6356.9419927536892
 21
4741.4324312929812
 31
0.0
  0
LINE
  5
9F70
  8
0
 62
     0
 10
6332.9804793073599
 20
4763.3891130404891
 30
0.0
 11
6332.9804793073599
 21
4763.3891130404891
 31
0.0
  0
LINE
  5
9F71
  8
0
 62
     0
 10
6415.2606096879281
 20
4751.4429295262116
 30
0.0
 11
6415.2606096879281
 21
4751.4429295262116
 31
0.0
  0
LINE
  5
9F72
  8
0
 62
     0
 10
6391.2990962415988
 20
4773.3996112737213
 30
0.0
 11
6391.2990962415988
 21
4773.3996112737213
 31
0.0
  0
LINE
  5
9F73
  8
0
 62
     0
 10
6449.6177131758386
 20
4783.4101095069527
 30
0.0
 11
6449.6177131758386
 21
4783.4101095069527
 31
0.0
  0
LINE
  5
9F74
  8
0
 62
     0
 10
6258.7523429353269
 20
4603.5243248084098
 30
0.0
 11
6258.7523429353269
 21
4603.5243248084098
 31
0.0
  0
LINE
  5
9F75
  8
0
 62
     0
 10
6224.8435719109348
 20
4656.8793470988676
 30
0.0
 11
6224.8435719109348
 21
4656.8793470988676
 31
0.0
  0
LINE
  5
9F76
  8
0
 62
     0
 10
6212.4412827547694
 20
4696.5332293764823
 30
0.0
 11
6212.4412827547694
 21
4696.5332293764823
 31
0.0
  0
LINE
  5
9F77
  8
0
 62
     0
 10
6191.3564966094473
 20
4709.9657195851532
 30
0.0
 11
6191.3564966094473
 21
4709.9657195851532
 31
0.0
  0
LINE
  5
9F78
  8
0
 62
     0
 10
6331.6080591454138
 20
4652.368372751992
 30
0.0
 11
6331.6080591454138
 21
4652.368372751992
 31
0.0
  0
LINE
  5
9F79
  8
0
 62
     0
 10
6244.7387402266868
 20
4707.7102324117159
 30
0.0
 11
6244.7387402266868
 21
4707.7102324117159
 31
0.0
  0
LINE
  5
9F7A
  8
0
 62
     0
 10
6157.4477255850543
 20
4763.3207418756119
 30
0.0
 11
6157.4477255850543
 21
4763.3207418756119
 31
0.0
  0
LINE
  5
9F7B
  8
0
 62
     0
 10
6210.8299692022938
 20
4761.0652547021737
 30
0.0
 11
6210.8299692022938
 21
4761.0652547021737
 31
0.0
  0
LINE
  5
9F7C
  8
0
 62
     0
 10
6372.5880136064943
 20
4689.7667678561684
 30
0.0
 11
6372.5880136064943
 21
4689.7667678561684
 31
0.0
  0
LINE
  5
9F7D
  8
0
 62
     0
 10
6351.5032274611713
 20
4703.1992580648393
 30
0.0
 11
6351.5032274611713
 21
4703.1992580648393
 31
0.0
  0
LINE
  5
9F7E
  8
0
 62
     0
 10
6264.212212819536
 20
4758.8097675287354
 30
0.0
 11
6264.212212819536
 21
4758.8097675287354
 31
0.0
  0
LINE
  5
9F7F
  8
0
 62
     0
 10
6370.9767000540178
 20
4754.2987931818598
 30
0.0
 11
6370.9767000540178
 21
4754.2987931818598
 31
0.0
  0
LINE
  5
9F80
  8
0
 62
     0
 10
6424.35894367126
 20
4752.0433060084206
 30
0.0
 11
6424.35894367126
 21
4752.0433060084206
 31
0.0
  0
LINE
  5
9F81
  8
0
 62
     0
 10
6411.9566545150956
 20
4791.6971882860362
 30
0.0
 11
6411.9566545150956
 21
4791.6971882860362
 31
0.0
  0
LINE
  5
9F82
  8
0
 62
     0
 10
6329.8453323100803
 20
4611.0084248494159
 30
0.0
 11
6329.8453323100803
 21
4611.0084248494159
 31
0.0
  0
LINE
  5
9F83
  8
0
 62
     0
 10
6356.1522860542937
 20
4650.4495960376516
 30
0.0
 11
6356.1522860542937
 21
4650.4495960376516
 31
0.0
  0
LINE
  5
9F84
  8
0
 62
     0
 10
6382.4592397985098
 20
4689.8907672258874
 30
0.0
 11
6382.4592397985098
 21
4689.8907672258874
 31
0.0
  0
LINE
  5
9F85
  8
0
 62
     0
 10
6344.5860460940303
 20
4684.9046666830809
 30
0.0
 11
6344.5860460940303
 21
4684.9046666830809
 31
0.0
  0
LINE
  5
9F86
  8
0
 62
     0
 10
6256.3970256748298
 20
4673.2943618851068
 30
0.0
 11
6256.3970256748298
 21
4673.2943618851068
 31
0.0
  0
LINE
  5
9F87
  8
0
 62
     0
 10
6218.5238319703512
 20
4668.308261342303
 30
0.0
 11
6218.5238319703512
 21
4668.308261342303
 31
0.0
  0
LINE
  5
9F88
  8
0
 62
     0
 10
6408.7661935427241
 20
4729.3319384141232
 30
0.0
 11
6408.7661935427241
 21
4729.3319384141232
 31
0.0
  0
LINE
  5
9F89
  8
0
 62
     0
 10
6370.8929998382464
 20
4724.3458378713167
 30
0.0
 11
6370.8929998382464
 21
4724.3458378713167
 31
0.0
  0
LINE
  5
9F8A
  8
0
 62
     0
 10
6345.8590170885573
 20
4721.05005151776
 30
0.0
 11
6345.8590170885573
 21
4721.05005151776
 31
0.0
  0
LINE
  5
9F8B
  8
0
 62
     0
 10
6244.8307857145646
 20
4707.7494325305379
 30
0.0
 11
6244.8307857145646
 21
4707.7494325305379
 31
0.0
  0
LINE
  5
9F8C
  8
0
 62
     0
 10
6219.7968029648764
 20
4704.4536461769821
 30
0.0
 11
6219.7968029648764
 21
4704.4536461769821
 31
0.0
  0
LINE
  5
9F8D
  8
0
 62
     0
 10
6435.0731472869402
 20
4768.773109602359
 30
0.0
 11
6435.0731472869402
 21
4768.773109602359
 31
0.0
  0
LINE
  5
9F8E
  8
0
 62
     0
 10
6397.1999535824607
 20
4763.7870090595543
 30
0.0
 11
6397.1999535824607
 21
4763.7870090595543
 31
0.0
  0
LINE
  5
9F8F
  8
0
 62
     0
 10
6372.1659708327707
 20
4760.4912227059967
 30
0.0
 11
6372.1659708327707
 21
4760.4912227059967
 31
0.0
  0
LINE
  5
9F90
  8
0
 62
     0
 10
6246.1037567090916
 20
4743.8948173652179
 30
0.0
 11
6246.1037567090916
 21
4743.8948173652179
 31
0.0
  0
LINE
  5
9F91
  8
0
 62
     0
 10
6182.9487190395803
 20
4735.5802989207996
 30
0.0
 11
6182.9487190395803
 21
4735.5802989207996
 31
0.0
  0
LINE
  5
9F92
  8
0
 62
     0
 10
6335.3178869074754
 20
4791.617875449816
 30
0.0
 11
6335.3178869074754
 21
4791.617875449816
 31
0.0
  0
LINE
  5
9F93
  8
0
 62
     0
 10
6209.2556727837937
 20
4775.0214701090363
 30
0.0
 11
6209.2556727837937
 21
4775.0214701090363
 31
0.0
  0
LINE
  5
9F94
  8
0
 62
     0
 10
6171.382479079316
 20
4770.0353695662297
 30
0.0
 11
6171.382479079316
 21
4770.0353695662297
 31
0.0
  0
LINE
  5
9F95
  8
0
 62
     0
 10
6340.8535542967093
 20
4639.0137709606743
 30
0.0
 11
6340.8535542967093
 21
4639.0137709606743
 31
0.0
  0
LINE
  5
9F96
  8
0
 62
     0
 10
6395.2242136279519
 20
4713.090172087389
 30
0.0
 11
6395.2242136279519
 21
4713.090172087389
 31
0.0
  0
LINE
  5
9F97
  8
0
 62
     0
 10
6342.0695398284388
 20
4672.3031563438053
 30
0.0
 11
6342.0695398284388
 21
4672.3031563438053
 31
0.0
  0
LINE
  5
9F98
  8
0
 62
     0
 10
6448.9998579539761
 20
4786.7100021423494
 30
0.0
 11
6448.9998579539761
 21
4786.7100021423494
 31
0.0
  0
LINE
  5
9F99
  8
0
 62
     0
 10
6396.4401991596797
 20
4746.3795574705209
 30
0.0
 11
6396.4401991596797
 21
4746.3795574705209
 31
0.0
  0
LINE
  5
9F9A
  8
0
 62
     0
 10
6343.2855253601674
 20
4705.5925417269373
 30
0.0
 11
6343.2855253601674
 21
4705.5925417269373
 31
0.0
  0
LINE
  5
9F9B
  8
0
 62
     0
 10
6397.6561846914101
 20
4779.668942853652
 30
0.0
 11
6397.6561846914101
 21
4779.668942853652
 31
0.0
  0
LINE
  5
9F9C
  8
0
 62
     0
 10
6344.501510891896
 20
4738.8819271100683
 30
0.0
 11
6344.501510891896
 21
4738.8819271100683
 31
0.0
  0
LINE
  5
9F9D
  8
0
 62
     0
 10
6240.2152143106132
 20
4658.8602372668729
 30
0.0
 11
6240.2152143106132
 21
4658.8602372668729
 31
0.0
  0
LINE
  5
9F9E
  8
0
 62
     0
 10
6345.7174964236256
 20
4772.1713124931994
 30
0.0
 11
6345.7174964236256
 21
4772.1713124931994
 31
0.0
  0
LINE
  5
9F9F
  8
0
 62
     0
 10
6241.4311998423427
 20
4692.149622650003
 30
0.0
 11
6241.4311998423427
 21
4692.149622650003
 31
0.0
  0
LINE
  5
9FA0
  8
0
 62
     0
 10
6242.6471853740723
 20
4725.4390080331341
 30
0.0
 11
6242.6471853740723
 21
4725.4390080331341
 31
0.0
  0
LINE
  5
9FA1
  8
0
 62
     0
 10
6243.8631709058
 20
4758.7283934162651
 30
0.0
 11
6243.8631709058
 21
4758.7283934162651
 31
0.0
  0
LINE
  5
9FA2
  8
0
 62
     0
 10
6190.7084971062877
 20
4717.9413776726797
 30
0.0
 11
6190.7084971062877
 21
4717.9413776726797
 31
0.0
  0
LINE
  5
9FA3
  8
0
 62
     0
 10
6191.9244826380173
 20
4751.2307630558116
 30
0.0
 11
6191.9244826380173
 21
4751.2307630558116
 31
0.0
  0
LINE
  5
9FA4
  8
0
 62
     0
 10
6193.1404681697459
 20
4784.5201484389427
 30
0.0
 11
6193.1404681697459
 21
4784.5201484389427
 31
0.0
  0
LINE
  5
9FA5
  8
0
 62
     0
 10
6142.6298159144872
 20
4778.1182886507058
 30
0.0
 11
6142.6298159144872
 21
4778.1182886507058
 31
0.0
  0
LINE
  5
9FA6
  8
0
 62
     0
 10
6376.6901293006867
 20
4791.1475259011459
 30
0.0
 11
6376.9031059556273
 21
4791.7822562734809
 31
0.0
  0
LINE
  5
9FA7
  8
0
 62
     0
 10
6352.3585395649852
 20
4718.6325405528632
 30
0.0
 11
6354.38617198464
 21
4724.675455824743
 31
0.0
  0
LINE
  5
9FA8
  8
0
 62
     0
 10
6328.026949829281
 20
4646.1175552045806
 30
0.0
 11
6330.0545822489366
 21
4652.1604704764613
 31
0.0
  0
LINE
  5
9FA9
  8
0
 62
     0
 10
6245.8934927165292
 20
4619.4936782444947
 30
0.0
 11
6246.0323193907861
 21
4619.9074208054653
 31
0.0
  0
LINE
  5
9FAA
  8
0
 62
     0
 10
6208.6456035843867
 20
4726.6414265591548
 30
0.0
 11
6210.6732360040432
 21
4732.6843418310373
 31
0.0
  0
LINE
  5
9FAB
  8
0
 62
     0
 10
6148.9549304619413
 20
4766.9033622364432
 30
0.0
 11
6150.9825628815979
 21
4772.9462775083239
 31
0.0
  0
LINE
  5
9FAC
  8
0
 62
     0
 10
6324.9360869816646
 20
4648.2049130782989
 30
0.0
 11
6328.0233842087437
 21
4646.1225048046108
 31
0.0
  0
LINE
  5
9FAD
  8
0
 62
     0
 10
6263.3584535494501
 20
4689.7395512753292
 30
0.0
 11
6264.4365128754644
 21
4689.0123910782713
 31
0.0
  0
LINE
  5
9FAE
  8
0
 62
     0
 10
6203.6677483254871
 20
4730.0014403252226
 30
0.0
 11
6208.6419737608167
 21
4726.6462829043994
 31
0.0
  0
LINE
  5
9FAF
  8
0
 62
     0
 10
6145.8532279047558
 20
4768.9978267461674
 30
0.0
 11
6148.9512685368554
 21
4766.9081719542919
 31
0.0
  0
LINE
  5
9FB0
  8
0
 62
     0
 10
6347.3806919655708
 20
4721.9926667301206
 30
0.0
 11
6352.3549174009013
 21
4718.6375093092965
 31
0.0
  0
LINE
  5
9FB1
  8
0
 62
     0
 10
6431.4029303816924
 20
4754.2457821849111
 30
0.0
 11
6432.9498770836472
 21
4753.20235345934
 31
0.0
  0
LINE
  5
9FB2
  8
0
 62
     0
 10
6375.7528190023868
 20
4791.7822562734809
 30
0.0
 11
6376.6864505930598
 21
4791.1525138139796
 31
0.0
  0
LINE
  5
9FB3
  8
0
 62
     0
 10
6324.9360869816637
 20
4650.2019881537344
 30
0.0
 11
6330.0510092589284
 21
4652.1654228579782
 31
0.0
  0
LINE
  5
9FB4
  8
0
 62
     0
 10
6245.6982629898184
 20
4619.7854373087976
 30
0.0
 11
6246.0287708741798
 21
4619.9123073989012
 31
0.0
  0
LINE
  5
9FB5
  8
0
 62
     0
 10
6431.4029276178489
 20
4754.2457832210757
 30
0.0
 11
6434.4241106736281
 21
4755.4055067394493
 31
0.0
  0
LINE
  5
9FB6
  8
0
 62
     0
 10
6347.3806892331013
 20
4721.9926677619987
 30
0.0
 11
6354.3825424318311
 21
4724.6804273835896
 31
0.0
  0
LINE
  5
9FB7
  8
0
 62
     0
 10
6263.3584508483536
 20
4689.7395523029218
 30
0.0
 11
6264.4365128754644
 21
4690.1533815426674
 31
0.0
  0
LINE
  5
9FB8
  8
0
 62
     0
 10
6203.6677456365078
 20
4730.0014413694553
 30
0.0
 11
6210.6695988352367
 21
4732.6892009910453
 31
0.0
  0
LINE
  5
9FB9
  8
0
 62
     0
 10
6144.796048229945
 20
4770.5777180768528
 30
0.0
 11
6150.9788936233899
 21
4772.9510900575797
 31
0.0
  0
LINE
  5
9FBA
  8
0
 62
     0
 10
6367.6374932073604
 20
4739.7263436804542
 30
0.0
 11
6376.531168613059
 21
4738.3470185635724
 31
0.0
  0
LINE
  5
9FBB
  8
0
 62
     0
 10
6260.9133883389704
 20
4756.2782450830337
 30
0.0
 11
6264.4365128754644
 21
4755.7318417186871
 31
0.0
  0
LINE
  5
9FBC
  8
0
 62
     0
 10
6154.1892834705786
 20
4772.8301464856149
 30
0.0
 11
6163.0829588762781
 21
4771.4508213687332
 31
0.0
  0
LINE
  5
9FBD
  8
0
 62
     0
 10
6376.5348223973551
 20
4738.3422894498872
 30
0.0
 11
6375.4300039507107
 21
4747.8392704393591
 31
0.0
  0
LINE
  5
9FBE
  8
0
 62
     0
 10
6163.0866424508258
 20
4771.446225642203
 30
0.0
 11
6161.9818240041832
 21
4780.9432066316749
 31
0.0
  0
LINE
  5
9FBF
  8
0
 62
     0
 10
6367.6374933284324
 20
4739.7263421102107
 30
0.0
 11
6375.4263428715531
 21
4747.8439971160979
 31
0.0
  0
LINE
  5
9FC0
  8
0
 62
     0
 10
6260.9133884658668
 20
4756.2782435431118
 30
0.0
 11
6264.4365128754662
 21
4759.9500962784359
 31
0.0
  0
LINE
  5
9FC1
  8
0
 62
     0
 10
6154.1892836033021
 20
4772.8301449760147
 30
0.0
 11
6161.9781331464228
 21
4780.9477999819028
 31
0.0
  0
LINE
  5
9FC2
  8
0
 62
     0
 10
6394.7511128742162
 20
4768.9084043508874
 30
0.0
 11
6393.5948566891411
 21
4775.1766728396187
 31
0.0
  0
LINE
  5
9FC3
  8
0
 62
     0
 10
6336.9001747028133
 20
4699.964450144792
 30
0.0
 11
6335.7439185177382
 21
4706.2327186335251
 31
0.0
  0
LINE
  5
9FC4
  8
0
 62
     0
 10
6349.9579545084962
 20
4629.175925296041
 30
0.0
 11
6349.6189931377303
 21
4631.0134946052358
 31
0.0
  0
LINE
  5
9FC5
  8
0
 62
     0
 10
6251.2990872914252
 20
4781.4589439952733
 30
0.0
 11
6250.1428311063491
 21
4787.7272124840047
 31
0.0
  0
LINE
  5
9FC6
  8
0
 62
     0
 10
6264.4365128754662
 20
4710.2386453500349
 30
0.0
 11
6264.0179057263422
 21
4712.5079884557172
 31
0.0
  0
LINE
  5
9FC7
  8
0
 62
     0
 10
6179.5730745000301
 20
4787.7342138174654
 30
0.0
 11
6178.826365239629
 21
4791.7822562734809
 31
0.0
  0
LINE
  5
9FC8
  8
0
 62
     0
 10
6193.4481491200231
 20
4712.514989789177
 30
0.0
 11
6192.2918929349471
 21
4718.7832582779092
 31
0.0
  0
LINE
  5
9FC9
  8
0
 62
     0
 10
6344.7945274947788
 20
4625.2731611612799
 30
0.0
 11
6347.2052980535036
 21
4625.0622460670293
 31
0.0
  0
LINE
  5
9FCA
  8
0
 62
     0
 10
6330.9193941334788
 20
4700.4923745312817
 30
0.0
 11
6336.8965623220292
 21
4699.9694400747967
 31
0.0
  0
LINE
  5
9FCB
  8
0
 62
     0
 10
6259.1933758708738
 20
4706.7675880091128
 30
0.0
 11
6264.4365128754644
 21
4706.3088729598976
 31
0.0
  0
LINE
  5
9FCC
  8
0
 62
     0
 10
6187.4673576082678
 20
4713.042801486944
 30
0.0
 11
6193.4445257968182
 21
4712.519867030459
 31
0.0
  0
LINE
  5
9FCD
  8
0
 62
     0
 10
6388.7702790347848
 20
4769.4363744234524
 30
0.0
 11
6394.7474472233353
 21
4768.9134399669674
 31
0.0
  0
LINE
  5
9FCE
  8
0
 62
     0
 10
6245.3182425095738
 20
4781.9868013791138
 30
0.0
 11
6251.2954106981242
 21
4781.4638669226288
 31
0.0
  0
LINE
  5
9FCF
  8
0
 62
     0
 10
6173.5922242469669
 20
4788.2620148569458
 30
0.0
 11
6179.5693924355182
 21
4787.739080400459
 31
0.0
  0
LINE
  5
9FD0
  8
0
 62
     0
 10
6344.7945253476091
 20
4625.2731597052571
 30
0.0
 11
6349.6154324202571
 21
4631.0184930286487
 31
0.0
  0
LINE
  5
9FD1
  8
0
 62
     0
 10
6388.7702768311101
 20
4769.4363729649331
 30
0.0
 11
6393.5911839037599
 21
4775.1817062883247
 31
0.0
  0
LINE
  5
9FD2
  8
0
 62
     0
 10
6330.9193919593226
 20
4700.4923730842247
 30
0.0
 11
6335.7402990319724
 21
4706.2377064076172
 31
0.0
  0
LINE
  5
9FD3
  8
0
 62
     0
 10
6259.1933736992469
 20
4706.7675865824849
 30
0.0
 11
6264.0142807718948
 21
4712.5129199058774
 31
0.0
  0
LINE
  5
9FD4
  8
0
 62
     0
 10
6245.3182403109613
 20
4781.9867999614507
 30
0.0
 11
6250.1391473836102
 21
4787.7321332848442
 31
0.0
  0
LINE
  5
9FD5
  8
0
 62
     0
 10
6187.467355439172
 20
4713.0428000807433
 30
0.0
 11
6192.2882625118209
 21
4718.7881334041349
 31
0.0
  0
LINE
  5
9FD6
  8
0
 62
     0
 10
6173.5922220508846
 20
4788.2620134597109
 30
0.0
 11
6176.5460564975747
 21
4791.7822562734818
 31
0.0
  0
ENDBLK
  5
9FD8
  8
0
  0
BLOCK
  8
0
  2
*U85
 70
     1
 10
0.0
 20
0.0
 30
0.0
  3
*U85
  1

  0
SOLID
  5
A015
  8
MOJI
 10
1875.2078176627631
 20
5467.7268317899516
 30
0.0
 11
1845.306997121744
 21
5426.7953600912897
 31
0.0
 12
1860.31648519071
 22
5475.2118832249489
 32
0.0
 13
1860.31648519071
 23
5475.2118832249489
 33
0.0
  0
POLYLINE
  5
A016
  8
MOJI
 66
     1
 10
0.0
 20
0.0
 30
0.0
  0
VERTEX
  5
A017
  8
MOJI
 10
1867.762151426736
 20
5471.4693575074498
 30
0.0
  0
VERTEX
  5
A018
  8
MOJI
 10
1984.056702798837
 20
5702.8346118693744
 30
0.0
  0
SEQEND
  5
A019
  8
MOJI
  0
ENDBLK
  5
A01B
  8
0
  0
BLOCK
  8
0
  2
*U86
 70
     1
 10
0.0
 20
0.0
 30
0.0
  3
*U86
  1

  0
SOLID
  5
A01D
  8
MOJI
 10
-973.03189910475942
 20
-77.866236176898752
 30
0.0
 11
-957.91714330935065
 21
-126.2499999999995
 31
0.0
 12
-987.90691678817552
 22
-85.383657722604383
 32
0.0
 13
-987.90691678817552
 23
-85.383657722604383
 33
0.0
  0
POLYLINE
  5
A01E
  8
MOJI
 66
     1
 10
0.0
 20
0.0
 30
0.0
  0
VERTEX
  5
A01F
  8
MOJI
 10
-980.46940794646764
 20
-81.624946949751575
 30
0.0
  0
VERTEX
  5
A020
  8
MOJI
 10
-1023.574538483029
 20
3.6688702293049569
 30
0.0
  0
SEQEND
  5
A021
  8
MOJI
  0
ENDBLK
  5
A023
  8
0
  0
BLOCK
  8
0
  2
*U87
 70
     1
 10
0.0
 20
0.0
 30
0.0
  3
*U87
  1

  0
TEXT
  5
A025
  8
SUNPOU
 62
     0
 10
-323.52610776728778
 20
-349.94527274117081
 30
0.0
 40
75.0
  1
25
 41
0.8
  7
EXT08
  0
ENDBLK
  5
A027
  8
0
  0
BLOCK
  8
0
  2
*U88
 70
     1
 10
0.0
 20
0.0
 30
0.0
  3
*U88
  1

  0
TEXT
  5
A029
  8
SUNPOU
 62
     0
 10
434.56547122827033
 20
200.15367476222869
 30
0.0
 40
75.0
  1
25
 50
90.0
 41
0.8
  7
EXT08
  0
ENDBLK
  5
A02B
  8
0
  0
BLOCK
  8
0
  2
*U89
 70
     1
 10
0.0
 20
0.0
 30
0.0
  3
*U89
  1

  0
SOLID
  5
A02D
  8
MOJI
 10
-157.68502861623909
 20
194.79803262547239
 30
0.0
 11
-145.79902730871979
 21
145.52159386045921
 31
0.0
 12
-173.02408976664771
 22
188.2795219978978
 32
0.0
 13
-173.02408976664771
 23
188.2795219978978
 33
0.0
  0
POLYLINE
  5
A02E
  8
MOJI
 66
     1
 10
0.0
 20
0.0
 30
0.0
  0
VERTEX
  5
A02F
  8
MOJI
 10
-165.3545591914434
 20
191.5387773116851
 30
0.0
  0
VERTEX
  5
A030
  8
MOJI
 10
-191.16096779213871
 20
252.26523803478219
 30
0.0
  0
SEQEND
  5
A031
  8
MOJI
  0
ENDBLK
  5
A033
  8
0
  0
BLOCK
  8
0
  2
*U90
 70
     1
 10
0.0
 20
0.0
 30
0.0
  3
*U90
  1

  0
TEXT
  5
A035
  8
SUNPOU
 62
     0
 10
599.78950501734835
 20
-90.000000000000242
 30
0.0
 40
75.0
  1
150
 50
90.0
 41
0.8
  7
EXT08
  0
ENDBLK
  5
A037
  8
0
  0
BLOCK
  8
0
  2
*U91
 70
     1
 10
0.0
 20
0.0
 30
0.0
  3
*U91
  1

  0
TEXT
  5
A039
  8
SUNPOU
 62
     0
 10
-90.000000000000014
 20
-499.43421282292428
 30
0.0
 40
75.0
  1
150
 41
0.8
  7
EXT08
  0
ENDBLK
  5
A03B
  8
0
  0
BLOCK
  8
0
  2
*U92
 70
     1
 10
0.0
 20
0.0
 30
0.0
  3
*U92
  1

  0
TEXT
  5
A03D
  8
SUNPOU
 62
     0
 10
206.65513257815809
 20
-347.28470103330028
 30
0.0
 40
75.0
  1
25
 41
0.8
  7
EXT08
  0
ENDBLK
  5
A03F
  8
0
  0
BLOCK
  8
0
  2
*U93
 70
     1
 10
0.0
 20
0.0
 30
0.0
  3
*U93
  1

  0
TEXT
  5
A041
  8
SUNPOU
 62
     0
 10
-90.0
 20
-359.94527274117081
 30
0.0
 40
75.0
  1
100
 41
0.8
  7
EXT08
  0
ENDBLK
  5
A043
  8
0
  0
BLOCK
  8
0
  2
*U94
 70
     1
 10
0.0
 20
0.0
 30
0.0
  3
*U94
  1

  0
SOLID
  5
A04A
  8
MOJI
 10
-103.4131272457046
 20
-45.994927438122787
 30
0.0
 11
-57.395205641971181
 21
-24.739449656687611
 31
0.0
 12
-94.032003554226577
 22
-59.770714024120927
 32
0.0
 13
-94.032003554226577
 23
-59.770714024120927
 33
0.0
  0
POLYLINE
  5
A04B
  8
MOJI
 66
     1
 10
0.0
 20
0.0
 30
0.0
  0
VERTEX
  5
A04C
  8
MOJI
 10
-98.722565399965632
 20
-52.882820731121868
 30
0.0
  0
VERTEX
  5
A04D
  8
MOJI
 10
-214.7836709330804
 20
-131.91885834530009
 30
0.0
  0
SEQEND
  5
A04E
  8
MOJI
  0
ENDBLK
  5
A050
  8
0
  0
BLOCK
  8
0
  2
*U95
 70
     1
 10
0.0
 20
0.0
 30
0.0
  3
*U95
  1

  0
TEXT
  5
A052
  8
SUNPOU
 62
     0
 10
444.56547122827033
 20
-90.000000000000213
 30
0.0
 40
75.0
  1
100
 50
90.0
 41
0.8
  7
EXT08
  0
ENDBLK
  5
A054
  8
0
  0
BLOCK
  8
0
  2
*U96
 70
     1
 10
0.0
 20
0.0
 30
0.0
  3
*U96
  1

  0
TEXT
  5
A056
  8
SUNPOU
 62
     0
 10
434.56547122827033
 20
-322.21601556783412
 30
0.0
 40
75.0
  1
25
 50
90.0
 41
0.8
  7
EXT08
  0
ENDBLK
  5
A058
  8
0
  0
BLOCK
  8
0
  2
*U97
 70
     1
 10
0.0
 20
0.0
 30
0.0
  3
*U97
  1

  0
SOLID
  5
A067
  8
MOJI
 10
-646.81903337589404
 20
-270.25467763562222
 30
0.0
 11
-672.94311305221072
 21
-226.81533020141339
 31
0.0
 12
-634.14270878514071
 22
-259.4339303117244
 32
0.0
 13
-634.14270878514071
 23
-259.4339303117244
 33
0.0
  0
POLYLINE
  5
A068
  8
MOJI
 66
     1
 10
0.0
 20
0.0
 30
0.0
  0
VERTEX
  5
A069
  8
MOJI
 10
-640.48087108051743
 20
-264.84430397367328
 30
0.0
  0
VERTEX
  5
A06A
  8
MOJI
 10
-457.3207890822232
 20
-479.4132779993073
 30
0.0
  0
SEQEND
  5
A06B
  8
MOJI
  0
ENDBLK
  5
A06D
  8
0
  0
BLOCK
  8
0
  2
*U98
 70
     1
 10
0.0
 20
0.0
 30
0.0
  3
*U98
  1

  0
TEXT
  5
A06F
  8
SUNPOU
 62
     0
 10
-522.56349575314562
 20
-131.9372749284905
 30
0.0
 40
75.0
  1
t9
 50
90.0
 41
0.8
  7
EXT08
  0
ENDBLK
  5
A071
  8
0
  0
BLOCK
  8
0
  2
*U99
 70
     1
 10
0.0
 20
0.0
 30
0.0
  3
*U99
  1

  0
TEXT
  5
A092
  8
SUNPOU
 62
     0
 10
527.53657039649534
 20
-144.64253656291049
 30
0.0
 40
75.0
  1
35
 50
90.0
 41
0.8
  7
EXT08
  0
ENDBLK
  5
A094
  8
0
  0
BLOCK
  8
0
  2
*U100
 70
     1
 10
0.0
 20
0.0
 30
0.0
  3
*U100
  1

  0
TEXT
  5
A096
  8
SUNPOU
 62
     0
 10
1758.7016209482019
 20
335.00108462923151
 30
0.0
 40
75.0
  1
170
 50
90.0
 41
0.8
  7
EXT08
  0
ENDBLK
  5
A098
  8
0
  0
BLOCK
  8
0
  2
*U101
 70
     1
 10
0.0
 20
0.0
 30
0.0
  3
*U101
  1

  0
TEXT
  5
A09A
  8
SUNPOU
 62
     0
 10
994.93644455047774
 20
306.48434221828438
 30
0.0
 40
75.0
  1
29
 41
0.8
  7
EXT08
  0
ENDBLK
  5
A09C
  8
0
  0
BLOCK
  8
0
  2
*U102
 70
     1
 10
0.0
 20
0.0
 30
0.0
  3
*U102
  1

  0
TEXT
  5
A09E
  8
SUNPOU
 62
     0
 10
916.40121001219768
 20
429.1208394808998
 30
0.0
 40
75.0
  1
42.7
 41
0.8
  7
EXT08
  0
ENDBLK
  5
A0A0
  8
0
  0
BLOCK
  8
0
  2
*U103
 70
     1
 10
0.0
 20
0.0
 30
0.0
  3
*U103
  1

  0
TEXT
  5
A0A2
  8
SUNPOU
 62
     0
 10
168.036114953452
 20
-350.35706451646757
 30
0.0
 40
75.0
  1
29
 41
0.8
  7
EXT08
  0
ENDBLK
  5
A0A4
  8
0
  0
BLOCK
  8
0
  2
*U104
 70
     1
 10
0.0
 20
0.0
 30
0.0
  3
*U104
  1

  0
TEXT
  5
A0A6
  8
SUNPOU
 62
     0
 10
157.99964509778371
 20
-498.68821840826149
 30
0.0
 40
75.0
  1
42.7
 41
0.8
  7
EXT08
  0
ENDBLK
  5
A0A8
  8
0
  0
BLOCK
  8
0
  2
*U105
 70
     1
 10
0.0
 20
0.0
 30
0.0
  3
*U105
  1

  0
TEXT
  5
A0AA
  8
SUNPOU
 62
     0
 10
720.31179630402846
 20
30.356822277196571
 30
0.0
 40
75.0
  1
35
 50
90.0
 41
0.8
  7
EXT08
  0
ENDBLK
  5
A0AC
  8
0
  0
BLOCK
  8
0
  2
*U106
 70
     1
 10
0.0
 20
0.0
 30
0.0
  3
*U106
  1

  0
SOLID
  5
A0AE
  8
MOJI
 10
1181.8316988422901
 20
886.88970595398405
 30
0.0
 11
1147.0645580196669
 21
850.00216925845075
 31
0.0
 12
1167.988868518192
 22
896.17161450750871
 32
0.0
 13
1167.988868518192
 23
896.17161450750871
 33
0.0
  0
POLYLINE
  5
A0AF
  8
MOJI
 66
     1
 10
0.0
 20
0.0
 30
0.0
  0
VERTEX
  5
A0B0
  8
MOJI
 10
1174.910283680241
 20
891.53066023074632
 30
0.0
  0
VERTEX
  5
A0B1
  8
MOJI
 10
1254.933832052554
 20
1010.875986212174
 30
0.0
  0
SEQEND
  5
A0B2
  8
MOJI
  0
ENDBLK
  5
A0B4
  8
0
  0
BLOCK
  8
0
  2
*U107
 70
     1
 10
0.0
 20
0.0
 30
0.0
  3
*U107
  1

  0
SOLID
  5
A0B6
  8
MOJI
 10
181.61243547204219
 20
603.83423286565824
 30
0.0
 11
151.24997201777569
 21
563.24402151571849
 31
0.0
 12
166.80682836102019
 22
611.48745283190999
 32
0.0
 13
166.80682836102019
 23
611.48745283190999
 33
0.0
  0
POLYLINE
  5
A0B7
  8
MOJI
 66
     1
 10
0.0
 20
0.0
 30
0.0
  0
VERTEX
  5
A0B8
  8
MOJI
 10
174.20963191653121
 20
607.660842848784
 30
0.0
  0
VERTEX
  5
A0B9
  8
MOJI
 10
314.24326853462662
 20
878.5642031647842
 30
0.0
  0
SEQEND
  5
A0BA
  8
MOJI
  0
ENDBLK
  5
A0BC
  8
0
  0
BLOCK
  8
0
  2
*U108
 70
     1
 10
0.0
 20
0.0
 30
0.0
  3
*U108
  1

  0
SOLID
  5
A0BE
  8
MOJI
 10
-332.02045822067231
 20
-280.24759558678028
 30
0.0
 11
-310.81511618185777
 21
-234.20654962275671
 31
0.0
 12
-315.94199239240442
 22
-284.63629862834051
 32
0.0
 13
-315.94199239240442
 23
-284.63629862834051
 33
0.0
  0
POLYLINE
  5
A0BF
  8
MOJI
 66
     1
 10
0.0
 20
0.0
 30
0.0
  0
VERTEX
  5
A0C0
  8
MOJI
 10
-323.98122530653842
 20
-282.4419471075604
 30
0.0
  0
VERTEX
  5
A0C1
  8
MOJI
 10
-414.05209185886901
 20
-612.425848107452
 30
0.0
  0
SEQEND
  5
A0C2
  8
MOJI
  0
ENDBLK
  5
A0C4
  8
0
  0
BLOCK
  8
0
  2
*U109
 70
     1
 10
0.0
 20
0.0
 30
0.0
  3
*U109
  1

  0
SOLID
  5
A0C6
  8
MOJI
 10
-125.0359017025489
 20
926.18585086246344
 30
0.0
 11
-99.830614075152909
 21
882.20701595219452
 31
0.0
 12
-137.93685963953351
 22
915.63392866383401
 32
0.0
 13
-137.93685963953351
 23
915.63392866383401
 33
0.0
  0
POLYLINE
  5
A0C7
  8
MOJI
 66
     1
 10
0.0
 20
0.0
 30
0.0
  0
VERTEX
  5
A0C8
  8
MOJI
 10
-131.48638067104119
 20
920.90988976314884
 30
0.0
  0
VERTEX
  5
A0C9
  8
MOJI
 10
-189.5676493778119
 20
991.92102786745374
 30
0.0
  0
SEQEND
  5
A0CA
  8
MOJI
  0
ENDBLK
  5
A0CC
  8
0
  0
BLOCK
  8
0
  2
*U110
 70
     1
 10
0.0
 20
0.0
 30
0.0
  3
*U110
  1

  0
SOLID
  5
A0CE
  8
MOJI
 10
397.68515341220251
 20
-170.50678459283469
 30
0.0
 11
364.74931817779179
 21
-131.9753013374993
 31
0.0
 12
408.40153526612693
 22
-157.74210920571039
 32
0.0
 13
408.40153526612693
 23
-157.74210920571039
 33
0.0
  0
POLYLINE
  5
A0CF
  8
MOJI
 66
     1
 10
0.0
 20
0.0
 30
0.0
  0
VERTEX
  5
A0D0
  8
MOJI
 10
403.04334433916472
 20
-164.12444689927261
 30
0.0
  0
VERTEX
  5
A0D1
  8
MOJI
 10
653.63622665392256
 20
-374.50574805396491
 30
0.0
  0
SEQEND
  5
A0D2
  8
MOJI
  0
ENDBLK
  5
A0D4
  8
0
  0
BLOCK
  8
0
  2
*U111
 70
     1
 10
0.0
 20
0.0
 30
0.0
  3
*U111
  1

  0
SOLID
  5
A0D6
  8
MOJI
 10
906.95010582606324
 20
-34.397069584180471
 30
0.0
 11
944.18296830620955
 21
0.0
 31
0.0
 12
920.11849933877841
 22
-44.613291492110079
 32
0.0
 13
920.11849933877841
 23
-44.613291492110079
 33
0.0
  0
POLYLINE
  5
A0D7
  8
MOJI
 66
     1
 10
0.0
 20
0.0
 30
0.0
  0
VERTEX
  5
A0D8
  8
MOJI
 10
913.53430258242088
 20
-39.505180538145282
 30
0.0
  0
VERTEX
  5
A0D9
  8
MOJI
 10
653.63622665392256
 20
-374.50574805396491
 30
0.0
  0
SEQEND
  5
A0DA
  8
MOJI
  0
ENDBLK
  5
A0DC
  8
0
  0
BLOCK
  8
0
  2
*U112
 70
     1
 10
0.0
 20
0.0
 30
0.0
  3
*U112
  1

  0
TEXT
  5
A0DE
  8
SUNPOU
 10
1145.7204563139551
 20
580.92108219343265
 30
0.0
 40
75.0
  1
800
 50
90.0
 41
0.8
  7
EXT08
  0
ENDBLK
  5
A0E0
  8
0
  0
BLOCK
  8
0
  2
*U113
 70
     1
 10
0.0
 20
0.0
 30
0.0
  3
*U113
  1

  0
TEXT
  5
A0E2
  8
SUNPOU
 10
952.08860841127694
 20
1101.56409027781
 30
0.0
 40
75.0
  1
170
 50
90.0
 41
0.8
  7
EXT08
  0
ENDBLK
  5
A0E4
  8
0
  0
BLOCK
  8
0
  2
*U114
 70
     1
 10
0.0
 20
0.0
 30
0.0
  3
*U114
  1

  0
SOLID
  5
A0E6
  8
MOJI
 10
63.834200438575408
 20
112.4431336733608
 30
0.0
 11
50.430726396491082
 21
161.32862567300839
 31
0.0
 12
78.964442490240373
 22
119.4326653626664
 32
0.0
 13
78.964442490240373
 23
119.4326653626664
 33
0.0
  0
POLYLINE
  5
A0E7
  8
MOJI
 66
     1
 10
0.0
 20
0.0
 30
0.0
  0
VERTEX
  5
A0E8
  8
MOJI
 10
71.39932146440789
 20
115.93789951801359
 30
0.0
  0
VERTEX
  5
A0E9
  8
MOJI
 10
218.7124090396164
 20
-202.95080025014749
 30
0.0
  0
SEQEND
  5
A0EA
  8
MOJI
  0
ENDBLK
  5
A0EC
  8
0
  0
BLOCK
  8
0
  2
*U115
 70
     1
 10
0.0
 20
0.0
 30
0.0
  3
*U115
  1

  0
SOLID
  5
A0EE
  8
MOJI
 10
-125.2001464304864
 20
428.80530883518043
 30
0.0
 11
-98.362980761905419
 21
471.80776205963701
 31
0.0
 12
-109.8027472404691
 22
422.4258201439896
 32
0.0
 13
-109.8027472404691
 23
422.4258201439896
 33
0.0
  0
POLYLINE
  5
A0EF
  8
MOJI
 66
     1
 10
0.0
 20
0.0
 30
0.0
  0
VERTEX
  5
A0F0
  8
MOJI
 10
-117.50144683547779
 20
425.61556448958498
 30
0.0
  0
VERTEX
  5
A0F1
  8
MOJI
 10
-367.74629909270379
 20
-178.3701265223076
 30
0.0
  0
SEQEND
  5
A0F2
  8
MOJI
  0
ENDBLK
  5
A0F4
  8
0
  0
BLOCK
  8
0
  2
*U116
 70
     1
 10
0.0
 20
0.0
 30
0.0
  3
*U116
  1

  0
TEXT
  5
A0F6
  8
SUNPOU
 62
     0
 10
952.08860841127671
 20
189.2348372151196
 30
0.0
 40
75.0
  1
330
 50
90.0
 41
0.8
  7
EXT08
  0
ENDBLK
  5
A0F8
  8
0
  0
BLOCK
  8
0
  2
*U117
 70
     1
 10
0.0
 20
0.0
 30
0.0
  3
*U117
  1

  0
SOLID
  5
A0FA
  8
MOJI
 10
-189.0117751740068
 20
609.8795058381362
 30
0.0
 11
-146.7098954949451
 21
581.95110774475052
 31
0.0
 12
-195.7830459243448
 22
594.65033415339281
 32
0.0
 13
-195.7830459243448
 23
594.65033415339281
 33
0.0
  0
POLYLINE
  5
A0FB
  8
MOJI
 66
     1
 10
0.0
 20
0.0
 30
0.0
  0
VERTEX
  5
A0FC
  8
MOJI
 10
-192.39741054917579
 20
602.26491999576444
 30
0.0
  0
VERTEX
  5
A0FD
  8
MOJI
 10
-717.06256230805036
 20
835.54417308774555
 30
0.0
  0
SEQEND
  5
A0FE
  8
MOJI
  0
ENDBLK
  5
A100
  8
0
  0
BLOCK
  8
0
  2
*U118
 70
     1
 10
0.0
 20
0.0
 30
0.0
  3
*U118
  1

  0
TEXT
  5
A116
  8
SUNPOU
 62
     0
 10
-497.4662638520258
 20
1690.3433395800321
 30
0.0
 40
75.0
  1
155
 41
0.8
  7
EXT08
  0
ENDBLK
  5
A118
  8
0
  0
BLOCK
  8
0
  2
*U119
 70
     1
 10
0.0
 20
0.0
 30
0.0
  3
*U119
  1

  0
TEXT
  5
A11A
  8
SUNPOU
 62
     0
 10
-622.87829764338005
 20
1927.730859959167
 30
0.0
 40
75.0
  1
(1880)
 41
0.8
  7
EXT08
  0
ENDBLK
  5
A11C
  8
0
  0
BLOCK
  8
0
  2
*U120
 70
     1
 10
0.0
 20
0.0
 30
0.0
  3
*U120
  1

  0
TEXT
  5
A11E
  8
SUNPOU
 62
     0
 10
-532.88013660783997
 20
2108.3630340941058
 30
0.0
 40
75.0
  1
2000
 41
0.8
  7
EXT08
  0
ENDBLK
  5
A120
  8
0
  0
BLOCK
  8
0
  2
*U121
 70
     1
 10
0.0
 20
0.0
 30
0.0
  3
*U121
  1

  0
TEXT
  5
A122
  8
SUNPOU
 62
     0
 10
-773.71705699881443
 20
1686.971020216786
 30
0.0
 40
75.0
  1
@148
 41
0.8
  7
EXT08
  0
ENDBLK
  5
A124
  8
0
  0
BLOCK
  8
0
  2
*U122
 70
     1
 10
0.0
 20
0.0
 30
0.0
  3
*U122
  1

  0
TEXT
  5
A126
  8
SUNPOU
 62
     0
 10
525.1456284273894
 20
1686.971020216786
 30
0.0
 40
75.0
  1
@148
 41
0.8
  7
EXT08
  0
ENDBLK
  5
A128
  8
0
  0
BLOCK
  8
0
  2
*U123
 70
     1
 10
0.0
 20
0.0
 30
0.0
  3
*U123
  1

  0
TEXT
  5
A12A
  8
SUNPOU
 62
     0
 10
336.5355788683022
 20
1927.730859959167
 30
0.0
 40
75.0
  1
(1880)
 41
0.8
  7
EXT08
  0
ENDBLK
  5
A12C
  8
0
  0
BLOCK
  8
0
  2
*U124
 70
     1
 10
0.0
 20
0.0
 30
0.0
  3
*U124
  1

  0
TEXT
  5
A12E
  8
SUNPOU
 62
     0
 10
326.53741783276058
 20
2108.3630340941058
 30
0.0
 40
75.0
  1
2000
 41
0.8
  7
EXT08
  0
ENDBLK
  5
A130
  8
0
  0
BLOCK
  8
0
  2
*U125
 70
     1
 10
0.0
 20
0.0
 30
0.0
  3
*U125
  1

  0
TEXT
  5
A132
  8
SUNPOU
 62
     0
 10
313.92537910905781
 20
1686.971020216786
 30
0.0
 40
75.0
  1
155
 41
0.8
  7
EXT08
  0
ENDBLK
  5
A134
  8
0
  0
BLOCK
  8
0
  2
*U126
 70
     1
 10
0.0
 20
0.0
 30
0.0
  3
*U126
  1

  0
TEXT
  5
A136
  8
SUNPOU
 62
     0
 10
97.896971095749663
 20
1703.8335896240069
 30
0.0
 40
75.0
  1
(45)
 41
0.8
  7
EXT08
  0
ENDBLK
  5
A138
  8
0
  0
BLOCK
  8
0
  2
*U127
 70
     1
 10
0.0
 20
0.0
 30
0.0
  3
*U127
  1

  0
TEXT
  5
A13A
  8
SUNPOU
 62
     0
 10
-294.12850908338828
 20
1701.0617331010119
 30
0.0
 40
75.0
  1
(45)
 41
0.8
  7
EXT08
  0
ENDBLK
  5
A13C
  8
0
  0
BLOCK
  8
0
  2
*U128
 70
     1
 10
0.0
 20
0.0
 30
0.0
  3
*U128
  1

  0
SOLID
  5
A13E
  8
MOJI
 10
663.28162548464093
 20
1362.7458437570051
 30
0.0
 11
622.04253654885349
 21
1333.2707358150369
 31
0.0
 12
651.49299107450065
 22
1374.5274343339099
 32
0.0
 13
651.49299107450065
 23
1374.5274343339099
 33
0.0
  0
POLYLINE
  5
A13F
  8
MOJI
 66
     1
 10
0.0
 20
0.0
 30
0.0
  0
VERTEX
  5
A140
  8
MOJI
 10
657.38730827957068
 20
1368.636639045458
 30
0.0
  0
VERTEX
  5
A141
  8
MOJI
 10
870.44300920040314
 20
1581.8197191021679
 30
0.0
  0
SEQEND
  5
A142
  8
MOJI
  0
ENDBLK
  5
A144
  8
0
  0
BLOCK
  8
0
  2
*U129
 70
     1
 10
0.0
 20
0.0
 30
0.0
  3
*U129
  1

  0
TEXT
  5
A146
  8
SUNPOU
 10
1126.6183277031389
 20
1377.943629374756
 30
0.0
 40
75.0
  1
11
 50
90.0
 41
0.8
  7
EXT08
  0
ENDBLK
  5
A148
  8
0
  0
BLOCK
  8
0
  2
*U130
 70
     1
 10
0.0
 20
0.0
 30
0.0
  3
*U130
  1

  0
TEXT
  5
A14A
  8
SUNPOU
 10
1340.9716335364769
 20
598.69047619014304
 30
0.0
 40
75.0
  1
811
 50
90.0
 41
0.8
  7
EXT08
  0
ENDBLK
  5
A14C
  8
0
  0
BLOCK
  8
0
  2
*U131
 70
     1
 10
0.0
 20
0.0
 30
0.0
  3
*U131
  1

  0
TEXT
  5
A14E
  8
SUNPOU
 10
952.08860841127705
 20
714.16355958521137
 30
0.0
 40
75.0
  1
300
 50
90.0
 41
0.8
  7
EXT08
  0
ENDBLK
  5
A150
  8
0
  0
ENDSEC
  0
SECTION
  2
ENTITIES
  0
LINE
  5
30E
  8
MOJI2
 10
1223.0326112212949
 20
3378.3422292226519
 30
0.0
 11
1518.994294101745
 21
3378.3422292226519
 31
0.0
  0
LINE
  5
33D
  8
SJC2
 10
864.70700893094545
 20
5386.7827340419817
 30
0.0
 11
907.40682372814445
 21
5386.7827340419817
 31
0.0
  0
LINE
  5
33E
  8
SJC2
 10
907.40682372814445
 20
5421.782582236382
 30
0.0
 11
907.40682372814445
 21
5386.7827340419817
 31
0.0
  0
LINE
  5
343
  8
SJC2
 10
879.75751585914441
 20
5456.7824304307833
 30
0.0
 11
879.75751585914441
 21
5421.782582236382
 31
0.0
  0
LINE
  5
344
  8
SJC2
 10
879.75751585914441
 20
5456.7824304307833
 30
0.0
 11
922.45713992144385
 21
5456.7824304307833
 31
0.0
  0
LINE
  5
348
  8
SJC2
 10
864.70700893094545
 20
5421.782582236382
 30
0.0
 11
922.45713992144385
 21
5421.782582236382
 31
0.0
  0
LINE
  5
34A
  8
CENTER
 10
893.70710113184396
 20
5476.0062162608829
 30
0.0
 11
893.70710113184396
 21
5367.2423283317821
 31
0.0
  0
LINE
  5
34B
  8
MOJI2
 10
386.2739892347945
 20
6371.6355267081981
 30
0.0
 11
703.57796382831646
 21
6371.6355267081981
 31
0.0
  0
LINE
  5
34C
  8
SJC
 10
804.20705335504499
 20
5579.7822808603842
 30
0.0
 11
804.20705335504499
 21
4791.7822562734818
 31
0.0
  0
LINE
  5
34D
  8
SJC
 10
864.70700893094545
 20
5579.7822808603842
 30
0.0
 11
864.70700893094545
 21
4791.7822562734818
 31
0.0
  0
LINE
  5
352
  8
CENTER
 10
834.4570311429452
 20
5607.7826474289832
 30
0.0
 11
834.4570311429452
 21
4773.6395556725829
 31
0.0
  0
LINE
  5
353
  8
SJC
 10
894.45707063104408
 20
5591.7822808603833
 30
0.0
 11
2774.4562957706439
 21
5591.7822808603833
 31
0.0
  0
LINE
  5
358
  8
SJC
 10
2804.2071204102449
 20
5579.7822808603833
 30
0.0
 11
2804.2071204102449
 21
4791.7822562734818
 31
0.0
  0
LINE
  5
359
  8
SJC
 10
2864.7066945164452
 20
5579.7822808603833
 30
0.0
 11
2864.7066945164438
 21
4791.7822562734818
 31
0.0
  0
LINE
  5
35A
  8
CENTER
 10
2834.456907463345
 20
5607.7826474289832
 30
0.0
 11
2834.456907463345
 21
4773.6395556725829
 31
0.0
  0
LINE
  5
35B
  8
SJC
 10
894.45707063104408
 20
5591.7822808603833
 30
0.0
 11
894.45707063104408
 21
5549.0828475328844
 31
0.0
  0
LINE
  5
35C
  8
SJC
 10
898.45697153834408
 20
5591.7822808603833
 30
0.0
 11
898.45697153834408
 21
5549.0828475328844
 31
0.0
  0
LINE
  5
35D
  8
SJC
 10
2774.4562957706439
 20
5549.0828475328844
 30
0.0
 11
894.45707063104408
 21
5549.0828475328844
 31
0.0
  0
LINE
  5
35E
  8
SJC
 10
2770.456204128544
 20
5591.7822808603833
 30
0.0
 11
2770.456204128544
 21
5549.0828475328844
 31
0.0
  0
LINE
  5
35F
  8
SJC
 10
2774.4562957706439
 20
5591.7822808603833
 30
0.0
 11
2774.4562957706439
 21
5549.0828475328844
 31
0.0
  0
LINE
  5
360
  8
SJC
 10
2894.4567562165448
 20
5591.7822808603833
 30
0.0
 11
2894.4567562165448
 21
5549.0828475328844
 31
0.0
  0
LINE
  5
361
  8
SJC
 10
2898.4568478586439
 20
5591.7822808603833
 30
0.0
 11
2898.4568478586439
 21
5549.0828475328844
 31
0.0
  0
LINE
  5
362
  8
SJC
 10
623.75176148501657
 20
4791.7822562734818
 30
0.0
 11
4491.3139012210404
 21
4791.7822562734818
 31
0.0
  0
LINE
  5
36A
  8
SJC
 10
2894.4567562165448
 20
5591.7822808603833
 30
0.0
 11
4491.3139012210386
 21
5591.7822808603833
 31
0.0
  0
LINE
  5
36B
  8
SJC
 10
2894.4567562165448
 20
5549.0828475328844
 30
0.0
 11
4491.3139012210386
 21
5549.0828475328844
 31
0.0
  0
TEXT
  5
588
  8
MOJI
 10
1379.549443880202
 20
5729.8340256240108
 30
0.0
 40
75.0
  1
%%c42.7×t2.3
 41
0.8
  7
EXT08
  0
LINE
  5
69F
  8
SJC
 10
5301.7099443152638
 20
4791.7822562734837
 30
0.0
 11
5481.450749562795
 21
4791.7822562734818
 31
0.0
1001
ACAD
1000
ASC_BOUNDS
1002
{
1070
    19
1005
7B21
1002
}
  0
LINE
  5
6A0
  8
SJC
 10
5241.2103702091654
 20
4791.7822562734818
 30
0.0
 11
4955.0939826416843
 21
4791.7822562734818
 31
0.0
1001
ACAD
1000
ASC_BOUNDS
1002
{
1070
    19
1005
7B21
1002
}
  0
LINE
  5
6A8
  8
SJC
 10
5121.4601539094638
 20
4791.7822562734818
 30
0.0
 11
5121.4601539094638
 21
4391.7822462151826
 31
0.0
1001
ACAD
1000
ASC_BOUNDS
1002
{
1070
    19
1005
7B21
1002
}
  0
LINE
  5
6A9
  8
SJC
 10
5421.4601606149636
 20
4791.7822562734818
 30
0.0
 11
5421.4601606149636
 21
4391.7822462151826
 31
0.0
1001
ACAD
1000
ASC_BOUNDS
1002
{
1070
    19
1005
7B21
1002
}
  0
LINE
  5
6AA
  8
SJC
 10
5121.4601539094638
 20
4391.7822462151826
 30
0.0
 11
5421.4601606149636
 21
4391.7822462151826
 31
0.0
1001
ACAD
1000
ASC_BOUNDS
1002
{
1070
    19
1005
7B21
1005
7B21
1002
}
  0
LINE
  5
6AB
  8
SJC
 10
5241.2103702091654
 20
5579.7822808603833
 30
0.0
 11
5241.2103702091654
 21
4391.7822462151826
 31
0.0
1001
ACAD
1000
ASC_BOUNDS
1002
{
1070
    19
1005
7B21
1002
}
  0
LINE
  5
6AC
  8
SJC
 10
5301.7099443152638
 20
5579.7822808603833
 30
0.0
 11
5301.7099443152638
 21
4391.7822462151826
 31
0.0
1001
ACAD
1000
ASC_BOUNDS
1002
{
1070
    19
1005
7B21
1002
}
  0
LINE
  5
6AD
  8
CENTER
 10
5271.460157262165
 20
5607.7826474289832
 30
0.0
 11
5271.460157262165
 21
4360.1484869631831
 31
0.0
  0
LINE
  5
6AE
  8
SJC
 10
6264.4365128754634
 20
4791.7822562734818
 30
0.0
 11
6077.6141232349009
 21
4791.7822562734818
 31
0.0
1001
ACAD
1000
ASC_BOUNDS
1002
{
1070
    19
1002
}
  0
LINE
  5
6AF
  8
SJC
 10
6324.9360869816637
 20
4791.7822562734818
 30
0.0
 11
6514.4663475636662
 21
4791.7822562734818
 31
0.0
1001
ACAD
1000
ASC_BOUNDS
1002
{
1070
    19
1002
}
  0
LINE
  5
6B0
  8
SJC
 10
6264.4365128754634
 20
4591.7822518030844
 30
0.0
 11
6324.9360869816637
 21
4591.7822518030844
 31
0.0
1001
ACAD
1000
ASC_BOUNDS
1002
{
1070
    19
1002
}
  0
LINE
  5
6D2
  8
SJC
 10
6264.4365128754644
 20
5579.7820720671089
 30
0.0
 11
6264.4365128754634
 21
4591.7822518030844
 31
0.0
1001
ACAD
1000
ASC_BOUNDS
1002
{
1070
    19
1002
}
  0
LINE
  5
6D3
  8
SJC
 10
6324.9360869816646
 20
5579.7820720671089
 30
0.0
 11
6324.9360869816637
 21
4591.7822518030844
 31
0.0
1001
ACAD
1000
ASC_BOUNDS
1002
{
1070
    19
1002
}
  0
LINE
  5
6D4
  8
CENTER
 10
6294.686299928564
 20
5607.7826474289841
 30
0.0
 11
6294.686299928564
 21
4561.695352326883
 31
0.0
1001
ACAD
1000
ASC_BOUNDS
1002
{
1070
    19
1002
}
  0
LINE
  5
6D9
  8
SJC
 10
7320.8595330592943
 20
4791.7822562734818
 30
0.0
 11
7122.7968209464634
 21
4791.7822562734818
 31
0.0
  0
LINE
  5
6DA
  8
SJC
 10
7381.3598701048941
 20
4791.7822562734818
 30
0.0
 11
7568.1730222117367
 21
4791.7822562734818
 31
0.0
  0
LINE
  5
6DB
  8
SJC
 10
7320.8595330592943
 20
4191.7822562734827
 30
0.0
 11
7381.3598701048941
 21
4191.7822562734827
 31
0.0
  0
LINE
  5
6DC
  8
SJC
 10
7320.8595330592943
 20
4483.1236495208832
 30
0.0
 11
7320.8595330592943
 21
4191.7822562734827
 31
0.0
  0
LINE
  5
6DD
  8
SJC
 10
7381.3598701048941
 20
4483.1236495208832
 30
0.0
 11
7381.3598701048941
 21
4191.7822562734827
 31
0.0
  0
POLYLINE
  5
6DE
  8
SJC
 66
     1
 10
0.0
 20
0.0
 30
0.0
 70
     2
  0
VERTEX
  5
6DF
  8
SJC
 10
7320.8595330592943
 20
4552.4836211639822
 30
0.0
  0
VERTEX
  5
6E0
  8
SJC
 10
7320.8595330592943
 20
4552.4836211639822
 30
0.0
  0
VERTEX
  5
6E1
  8
SJC
 10
7321.6947161839944
 20
4551.957273934283
 30
0.0
  0
VERTEX
  5
6E2
  8
SJC
 10
7322.5313230818938
 20
4551.4348150869837
 30
0.0
  0
VERTEX
  5
6E3
  8
SJC
 10
7323.3707897149943
 20
4550.9201427135831
 30
0.0
  0
VERTEX
  5
6E4
  8
SJC
 10
7324.214552045195
 20
4550.4171549054818
 30
0.0
  0
VERTEX
  5
6E5
  8
SJC
 10
7325.0640460343948
 20
4549.929749754283
 30
0.0
  0
VERTEX
  5
6E6
  8
SJC
 10
7325.9207076445928
 20
4549.4618253513827
 30
0.0
  0
VERTEX
  5
6E7
  8
SJC
 10
7326.7859728376943
 20
4549.0172797882833
 30
0.0
  0
VERTEX
  5
6E8
  8
SJC
 10
7327.6612775754938
 20
4548.6000111563826
 30
0.0
  0
VERTEX
  5
6E9
  8
SJC
 10
7328.5480578200941
 20
4548.213917547283
 30
0.0
  0
VERTEX
  5
6EA
  8
SJC
 10
7329.447749533294
 20
4547.8628970522832
 30
0.0
  0
VERTEX
  5
6EB
  8
SJC
 10
7330.3617886770953
 20
4547.5508477628828
 30
0.0
  0
VERTEX
  5
6EC
  8
SJC
 10
7331.2916112133944
 20
4547.2816677706833
 30
0.0
  0
VERTEX
  5
6ED
  8
SJC
 10
7332.2386531041939
 20
4547.0592551670816
 30
0.0
  0
VERTEX
  5
6EE
  8
SJC
 10
7333.2043503112936
 20
4546.8875080434818
 30
0.0
  0
VERTEX
  5
6EF
  8
SJC
 10
7335.1974545222938
 20
4546.7116026023832
 30
0.0
  0
VERTEX
  5
6F0
  8
SJC
 10
7335.1974545222938
 20
4546.7116026023832
 30
0.0
  0
VERTEX
  5
6F1
  8
SJC
 10
7335.1974545222938
 20
4546.7116026023832
 30
0.0
  0
VERTEX
  5
6F2
  8
SJC
 10
7336.2269498850937
 20
4546.7140798161818
 30
0.0
  0
VERTEX
  5
6F3
  8
SJC
 10
7337.2761307517949
 20
4546.7758412229832
 30
0.0
  0
VERTEX
  5
6F4
  8
SJC
 10
7338.3417132891927
 20
4546.8938063891819
 30
0.0
  0
VERTEX
  5
6F5
  8
SJC
 10
7339.4204136638937
 20
4547.0648948812832
 30
0.0
  0
VERTEX
  5
6F6
  8
SJC
 10
7340.508948042695
 20
4547.2860262656832
 30
0.0
  0
VERTEX
  5
6F7
  8
SJC
 10
7341.6040325923941
 20
4547.5541201088827
 30
0.0
  0
VERTEX
  5
6F8
  8
SJC
 10
7342.7023834794936
 20
4547.8660959774834
 30
0.0
  0
VERTEX
  5
6F9
  8
SJC
 10
7343.8007168708937
 20
4548.2188734378833
 30
0.0
  0
VERTEX
  5
6FA
  8
SJC
 10
7344.8957489331942
 20
4548.6093720564832
 30
0.0
  0
VERTEX
  5
6FB
  8
SJC
 10
7345.9841958331926
 20
4549.0345113997819
 30
0.0
  0
VERTEX
  5
6FC
  8
SJC
 10
7347.0627737374944
 20
4549.491211034383
 30
0.0
  0
VERTEX
  5
6FD
  8
SJC
 10
7348.1281988129931
 20
4549.9763905266827
 30
0.0
  0
VERTEX
  5
6FE
  8
SJC
 10
7349.1771872262943
 20
4550.4869694431827
 30
0.0
  0
VERTEX
  5
6FF
  8
SJC
 10
7350.2064551439944
 20
4551.0198673502828
 30
0.0
  0
VERTEX
  5
700
  8
SJC
 10
7352.1926941599941
 20
4552.1402984023844
 30
0.0
  0
VERTEX
  5
701
  8
SJC
 10
7352.1926941599941
 20
4552.1402984023844
 30
0.0
  0
VERTEX
  5
702
  8
SJC
 10
7352.1926941599941
 20
4552.1402984023844
 30
0.0
  0
VERTEX
  5
703
  8
SJC
 10
7353.1441375136947
 20
4552.7211979808817
 30
0.0
  0
VERTEX
  5
704
  8
SJC
 10
7354.0689706714948
 20
4553.309263499882
 30
0.0
  0
VERTEX
  5
705
  8
SJC
 10
7354.9701584827944
 20
4553.8985856500831
 30
0.0
  0
VERTEX
  5
706
  8
SJC
 10
7355.8506657970938
 20
4554.4832551221816
 30
0.0
  0
VERTEX
  5
707
  8
SJC
 10
7356.7134574639949
 20
4555.0573626069827
 30
0.0
  0
VERTEX
  5
708
  8
SJC
 10
7357.5614983326959
 20
4555.6149987952831
 30
0.0
  0
VERTEX
  5
709
  8
SJC
 10
7358.3977532528934
 20
4556.1502543776833
 30
0.0
  0
VERTEX
  5
70A
  8
SJC
 10
7359.2251870739938
 20
4556.6572200449818
 30
0.0
  0
VERTEX
  5
70B
  8
SJC
 10
7360.0467646455936
 20
4557.1299864879829
 30
0.0
  0
VERTEX
  5
70C
  8
SJC
 10
7360.8654508168938
 20
4557.5626443972833
 30
0.0
  0
VERTEX
  5
70D
  8
SJC
 10
7361.6842104375937
 20
4557.9492844637834
 30
0.0
  0
VERTEX
  5
70E
  8
SJC
 10
7362.5060083571934
 20
4558.2839973781829
 30
0.0
  0
VERTEX
  5
70F
  8
SJC
 10
7363.3338094249948
 20
4558.5608738310821
 30
0.0
  0
VERTEX
  5
710
  8
SJC
 10
7364.1705784904943
 20
4558.7740045132832
 30
0.0
  0
VERTEX
  5
711
  8
SJC
 10
7365.882880012894
 20
4558.9853913287834
 30
0.0
  0
VERTEX
  5
712
  8
SJC
 10
7365.882880012894
 20
4558.9853913287834
 30
0.0
  0
VERTEX
  5
713
  8
SJC
 10
7365.882880012894
 20
4558.9853913287834
 30
0.0
  0
VERTEX
  5
714
  8
SJC
 10
7366.763662716794
 20
4558.973663011182
 30
0.0
  0
VERTEX
  5
715
  8
SJC
 10
7367.6611930084937
 20
4558.8855542468827
 30
0.0
  0
VERTEX
  5
716
  8
SJC
 10
7368.5743543814951
 20
4558.7261570654828
 30
0.0
  0
VERTEX
  5
717
  8
SJC
 10
7369.5020303290939
 20
4558.5005634964818
 30
0.0
  0
VERTEX
  5
718
  8
SJC
 10
7370.4431043446939
 20
4558.2138655692843
 30
0.0
  0
VERTEX
  5
719
  8
SJC
 10
7371.3964599215942
 20
4557.8711553134826
 30
0.0
  0
VERTEX
  5
71A
  8
SJC
 10
7372.3609805531951
 20
4557.4775247583821
 30
0.0
  0
VERTEX
  5
71B
  8
SJC
 10
7373.3355497328939
 20
4557.0380659336834
 30
0.0
  0
VERTEX
  5
71C
  8
SJC
 10
7374.3190509540937
 20
4556.5578708686826
 30
0.0
  0
VERTEX
  5
71D
  8
SJC
 10
7375.3103677099944
 20
4556.0420315929832
 30
0.0
  0
VERTEX
  5
71E
  8
SJC
 10
7376.3083834940953
 20
4555.4956401359823
 30
0.0
  0
VERTEX
  5
71F
  8
SJC
 10
7377.311981799694
 20
4554.9237885271832
 30
0.0
  0
VERTEX
  5
720
  8
SJC
 10
7378.3200461202932
 20
4554.331568796083
 30
0.0
  0
VERTEX
  5
721
  8
SJC
 10
7379.3314599490923
 20
4553.7240729722816
 30
0.0
  0
VERTEX
  5
722
  8
SJC
 10
7381.3598701048941
 20
4552.4836211639822
 30
0.0
  0
SEQEND
  5
723
  8
1
  0
POLYLINE
  5
724
  8
SJC
 66
     1
 10
0.0
 20
0.0
 30
0.0
 70
     2
  0
VERTEX
  5
725
  8
SJC
 10
7352.1926941599941
 20
4552.1402984023844
 30
0.0
  0
VERTEX
  5
726
  8
SJC
 10
7352.1926941599941
 20
4552.1402984023844
 30
0.0
  0
VERTEX
  5
727
  8
SJC
 10
7352.5806957675941
 20
4551.9376819716817
 30
0.0
  0
VERTEX
  5
728
  8
SJC
 10
7352.9692763711946
 20
4551.7353124472829
 30
0.0
  0
VERTEX
  5
729
  8
SJC
 10
7353.3590271786952
 20
4551.5334464212829
 30
0.0
  0
VERTEX
  5
72A
  8
SJC
 10
7353.7505393979936
 20
4551.332340485983
 30
0.0
  0
VERTEX
  5
72B
  8
SJC
 10
7354.1444042371932
 20
4551.1322512332827
 30
0.0
  0
VERTEX
  5
72C
  8
SJC
 10
7354.5412129041943
 20
4550.9334352553833
 30
0.0
  0
VERTEX
  5
72D
  8
SJC
 10
7354.9415566068938
 20
4550.7361491443826
 30
0.0
  0
VERTEX
  5
72E
  8
SJC
 10
7355.3460265532949
 20
4550.5406494923818
 30
0.0
  0
VERTEX
  5
72F
  8
SJC
 10
7355.7552139512954
 20
4550.3471928914832
 30
0.0
  0
VERTEX
  5
730
  8
SJC
 10
7356.169710008895
 20
4550.1560359337836
 30
0.0
  0
VERTEX
  5
731
  8
SJC
 10
7356.5901059339949
 20
4549.9674352114816
 30
0.0
  0
VERTEX
  5
732
  8
SJC
 10
7357.016992934593
 20
4549.781647316483
 30
0.0
  0
VERTEX
  5
733
  8
SJC
 10
7357.4509622185942
 20
4549.5989288411829
 30
0.0
  0
VERTEX
  5
734
  8
SJC
 10
7357.8926049939946
 20
4549.4195363773833
 30
0.0
  0
VERTEX
  5
735
  8
SJC
 10
7358.8012758506929
 20
4549.0717558533815
 30
0.0
  0
VERTEX
  5
736
  8
SJC
 10
7358.8012758506929
 20
4549.0717558533815
 30
0.0
  0
VERTEX
  5
737
  8
SJC
 10
7358.8012758506929
 20
4549.0717558533815
 30
0.0
  0
VERTEX
  5
738
  8
SJC
 10
7359.2691871082952
 20
4548.9039154190832
 30
0.0
  0
VERTEX
  5
739
  8
SJC
 10
7359.7453290162948
 20
4548.7406242992829
 30
0.0
  0
VERTEX
  5
73A
  8
SJC
 10
7360.2284789921941
 20
4548.5823311616832
 30
0.0
  0
VERTEX
  5
73B
  8
SJC
 10
7360.7174144535948
 20
4548.4294846744833
 30
0.0
  0
VERTEX
  5
73C
  8
SJC
 10
7361.2109128179936
 20
4548.2825335052821
 30
0.0
  0
VERTEX
  5
73D
  8
SJC
 10
7361.7077515028941
 20
4548.1419263221833
 30
0.0
  0
VERTEX
  5
73E
  8
SJC
 10
7362.2067079258941
 20
4548.0081117930831
 30
0.0
  0
VERTEX
  5
73F
  8
SJC
 10
7362.7065595044942
 20
4547.8815385857833
 30
0.0
  0
VERTEX
  5
740
  8
SJC
 10
7363.2060836563933
 20
4547.762655368283
 30
0.0
  0
VERTEX
  5
741
  8
SJC
 10
7363.7040577988937
 20
4547.6519108085831
 30
0.0
  0
VERTEX
  5
742
  8
SJC
 10
7364.1992593496952
 20
4547.5497535743834
 30
0.0
  0
VERTEX
  5
743
  8
SJC
 10
7364.6904657261948
 20
4547.4566323337831
 30
0.0
  0
VERTEX
  5
744
  8
SJC
 10
7365.176454346094
 20
4547.372995754482
 30
0.0
  0
VERTEX
  5
745
  8
SJC
 10
7365.6560026268926
 20
4547.2992925046829
 30
0.0
  0
VERTEX
  5
746
  8
SJC
 10
7366.5908878411947
 20
4547.183480664683
 30
0.0
  0
VERTEX
  5
747
  8
SJC
 10
7366.5908878411947
 20
4547.183480664683
 30
0.0
  0
VERTEX
  5
748
  8
SJC
 10
7366.5908878411947
 20
4547.183480664683
 30
0.0
  0
VERTEX
  5
749
  8
SJC
 10
7367.0441793290929
 20
4547.1422548177816
 30
0.0
  0
VERTEX
  5
74A
  8
SJC
 10
7367.4885446105927
 20
4547.1126742861834
 30
0.0
  0
VERTEX
  5
74B
  8
SJC
 10
7367.9251686388952
 20
4547.0951074863833
 30
0.0
  0
VERTEX
  5
74C
  8
SJC
 10
7368.3552363675954
 20
4547.0899228350827
 30
0.0
  0
VERTEX
  5
74D
  8
SJC
 10
7368.7799327498951
 20
4547.0974887488828
 30
0.0
  0
VERTEX
  5
74E
  8
SJC
 10
7369.2004427392949
 20
4547.1181736443832
 30
0.0
  0
VERTEX
  5
74F
  8
SJC
 10
7369.6179512890931
 20
4547.1523459383816
 30
0.0
  0
VERTEX
  5
750
  8
SJC
 10
7370.0336433527937
 20
4547.2003740474829
 30
0.0
  0
VERTEX
  5
751
  8
SJC
 10
7370.4487038837942
 20
4547.262626388183
 30
0.0
  0
VERTEX
  5
752
  8
SJC
 10
7370.8643178352931
 20
4547.3394713772832
 30
0.0
  0
VERTEX
  5
753
  8
SJC
 10
7371.2816701608936
 20
4547.4312774312821
 30
0.0
  0
VERTEX
  5
754
  8
SJC
 10
7371.7019458138948
 20
4547.5384129669837
 30
0.0
  0
VERTEX
  5
755
  8
SJC
 10
7372.1263297476953
 20
4547.6612464009831
 30
0.0
  0
VERTEX
  5
756
  8
SJC
 10
7372.5560069155927
 20
4547.8001461498834
 30
0.0
  0
VERTEX
  5
757
  8
SJC
 10
7373.4359807676947
 20
4548.1276182589827
 30
0.0
  0
VERTEX
  5
758
  8
SJC
 10
7373.4359807676947
 20
4548.1276182589827
 30
0.0
  0
VERTEX
  5
759
  8
SJC
 10
7373.4359807676947
 20
4548.1276182589827
 30
0.0
  0
VERTEX
  5
75A
  8
SJC
 10
7373.888358450894
 20
4548.3166877753829
 30
0.0
  0
VERTEX
  5
75B
  8
SJC
 10
7374.3490326632927
 20
4548.5218567753827
 30
0.0
  0
VERTEX
  5
75C
  8
SJC
 10
7374.8174503027922
 20
4548.7420519600837
 30
0.0
  0
VERTEX
  5
75D
  8
SJC
 10
7375.2930582675936
 20
4548.9762000304827
 30
0.0
  0
VERTEX
  5
75E
  8
SJC
 10
7375.7753034555926
 20
4549.2232276877821
 30
0.0
  0
VERTEX
  5
75F
  8
SJC
 10
7376.2636327648952
 20
4549.4820616329825
 30
0.0
  0
VERTEX
  5
760
  8
SJC
 10
7376.7574930935953
 20
4549.7516285672828
 30
0.0
  0
VERTEX
  5
761
  8
SJC
 10
7377.2563313397932
 20
4550.0308551917833
 30
0.0
  0
VERTEX
  5
762
  8
SJC
 10
7377.7595944014947
 20
4550.3186682073829
 30
0.0
  0
VERTEX
  5
763
  8
SJC
 10
7378.266729176793
 20
4550.6139943154822
 30
0.0
  0
VERTEX
  5
764
  8
SJC
 10
7378.7771825636946
 20
4550.9157602168834
 30
0.0
  0
VERTEX
  5
765
  8
SJC
 10
7379.2904014602937
 20
4551.2228926128828
 30
0.0
  0
VERTEX
  5
766
  8
SJC
 10
7379.8058327646941
 20
4551.5343182044844
 30
0.0
  0
VERTEX
  5
767
  8
SJC
 10
7380.3229233748953
 20
4551.8489636927834
 30
0.0
  0
VERTEX
  5
768
  8
SJC
 10
7381.3598701048941
 20
4552.4836211639822
 30
0.0
  0
SEQEND
  5
769
  8
1
  0
POLYLINE
  5
76A
  8
SJC
 66
     1
 10
0.0
 20
0.0
 30
0.0
 70
     2
  0
VERTEX
  5
76B
  8
SJC
 10
7320.8595330592943
 20
4483.1236495208832
 30
0.0
  0
VERTEX
  5
76C
  8
SJC
 10
7320.8595330592943
 20
4483.1236495208832
 30
0.0
  0
VERTEX
  5
76D
  8
SJC
 10
7321.2853021481942
 20
4483.629171484582
 30
0.0
  0
VERTEX
  5
76E
  8
SJC
 10
7321.7113674981947
 20
4484.1329935561826
 30
0.0
  0
VERTEX
  5
76F
  8
SJC
 10
7322.1380375238941
 20
4484.6334254242829
 30
0.0
  0
VERTEX
  5
770
  8
SJC
 10
7322.5656206400936
 20
4485.128776777683
 30
0.0
  0
VERTEX
  5
771
  8
SJC
 10
7322.9944252615942
 20
4485.6173573053829
 30
0.0
  0
VERTEX
  5
772
  8
SJC
 10
7323.4247598029942
 20
4486.0974766958816
 30
0.0
  0
VERTEX
  5
773
  8
SJC
 10
7323.856932679294
 20
4486.5674446380826
 30
0.0
  0
VERTEX
  5
774
  8
SJC
 10
7324.2912523049954
 20
4487.0255708207833
 30
0.0
  0
VERTEX
  5
775
  8
SJC
 10
7324.728027094995
 20
4487.4701649326826
 30
0.0
  0
VERTEX
  5
776
  8
SJC
 10
7325.1675654639957
 20
4487.8995366626832
 30
0.0
  0
VERTEX
  5
777
  8
SJC
 10
7325.6101758267951
 20
4488.3119956994833
 30
0.0
  0
VERTEX
  5
778
  8
SJC
 10
7326.0561665981941
 20
4488.7058517318819
 30
0.0
  0
VERTEX
  5
779
  8
SJC
 10
7326.5058461927938
 20
4489.0794144486836
 30
0.0
  0
VERTEX
  5
77A
  8
SJC
 10
7326.9595230253944
 20
4489.4309935385818
 30
0.0
  0
VERTEX
  5
77B
  8
SJC
 10
7327.8801020637939
 20
4490.0614395929842
 30
0.0
  0
VERTEX
  5
77C
  8
SJC
 10
7327.8801020637939
 20
4490.0614395929842
 30
0.0
  0
VERTEX
  5
77D
  8
SJC
 10
7327.8801020637939
 20
4490.0614395929842
 30
0.0
  0
VERTEX
  5
77E
  8
SJC
 10
7328.3474463132943
 20
4490.337328752983
 30
0.0
  0
VERTEX
  5
77F
  8
SJC
 10
7328.8189605564949
 20
4490.5868803261828
 30
0.0
  0
VERTEX
  5
780
  8
SJC
 10
7329.2938862102937
 20
4490.8108064745829
 30
0.0
  0
VERTEX
  5
781
  8
SJC
 10
7329.7714646916938
 20
4491.0098193602817
 30
0.0
  0
VERTEX
  5
782
  8
SJC
 10
7330.2509374177926
 20
4491.1846311452828
 30
0.0
  0
VERTEX
  5
783
  8
SJC
 10
7330.7315458056937
 20
4491.3359539915818
 30
0.0
  0
VERTEX
  5
784
  8
SJC
 10
7331.2125312721928
 20
4491.4645000614819
 30
0.0
  0
VERTEX
  5
785
  8
SJC
 10
7331.6931352343936
 20
4491.570981516782
 30
0.0
  0
VERTEX
  5
786
  8
SJC
 10
7332.1725991092926
 20
4491.6561105196834
 30
0.0
  0
VERTEX
  5
787
  8
SJC
 10
7332.6501643139954
 20
4491.7205992322833
 30
0.0
  0
VERTEX
  5
788
  8
SJC
 10
7333.1250722653949
 20
4491.765159816483
 30
0.0
  0
VERTEX
  5
789
  8
SJC
 10
7333.5965643804939
 20
4491.7905044344834
 30
0.0
  0
VERTEX
  5
78A
  8
SJC
 10
7334.0638820763943
 20
4491.797345248382
 30
0.0
  0
VERTEX
  5
78B
  8
SJC
 10
7334.5262667699944
 20
4491.7863944200844
 30
0.0
  0
VERTEX
  5
78C
  8
SJC
 10
7335.4332028185954
 20
4491.713966485383
 30
0.0
  0
VERTEX
  5
78D
  8
SJC
 10
7335.4332028185954
 20
4491.713966485383
 30
0.0
  0
VERTEX
  5
78E
  8
SJC
 10
7335.4332028185954
 20
4491.713966485383
 30
0.0
  0
VERTEX
  5
78F
  8
SJC
 10
7335.8765710132939
 20
4491.6538536218823
 30
0.0
  0
VERTEX
  5
790
  8
SJC
 10
7336.3139820085944
 20
4491.5784420908822
 30
0.0
  0
VERTEX
  5
791
  8
SJC
 10
7336.7466904059938
 20
4491.4880907879833
 30
0.0
  0
VERTEX
  5
792
  8
SJC
 10
7337.1759508074947
 20
4491.3831586083816
 30
0.0
  0
VERTEX
  5
793
  8
SJC
 10
7337.603017814693
 20
4491.264004447482
 30
0.0
  0
VERTEX
  5
794
  8
SJC
 10
7338.0291460294939
 20
4491.1309872007832
 30
0.0
  0
VERTEX
  5
795
  8
SJC
 10
7338.4555900535952
 20
4490.9844657635831
 30
0.0
  0
VERTEX
  5
796
  8
SJC
 10
7338.8836044886939
 20
4490.824799031383
 30
0.0
  0
VERTEX
  5
797
  8
SJC
 10
7339.3144439366934
 20
4490.6523458994834
 30
0.0
  0
VERTEX
  5
798
  8
SJC
 10
7339.7493629993951
 20
4490.467465263383
 30
0.0
  0
VERTEX
  5
799
  8
SJC
 10
7340.1896162783942
 20
4490.2705160182832
 30
0.0
  0
VERTEX
  5
79A
  8
SJC
 10
7340.636458375493
 20
4490.0618570597826
 30
0.0
  0
VERTEX
  5
79B
  8
SJC
 10
7341.0911438924941
 20
4489.8418472830826
 30
0.0
  0
VERTEX
  5
79C
  8
SJC
 10
7341.5549274312953
 20
4489.610845583783
 30
0.0
  0
VERTEX
  5
79D
  8
SJC
 10
7342.5148069807938
 20
4489.1173019985818
 30
0.0
  0
VERTEX
  5
79E
  8
SJC
 10
7342.5148069807938
 20
4489.1173019985818
 30
0.0
  0
VERTEX
  5
79F
  8
SJC
 10
7342.5148069807938
 20
4489.1173019985818
 30
0.0
  0
VERTEX
  5
7A0
  8
SJC
 10
7343.0130698669936
 20
4488.8555219629834
 30
0.0
  0
VERTEX
  5
7A1
  8
SJC
 10
7343.5233921510944
 20
4488.584447526182
 30
0.0
  0
VERTEX
  5
7A2
  8
SJC
 10
7344.0449698733937
 20
4488.3046983148834
 30
0.0
  0
VERTEX
  5
7A3
  8
SJC
 10
7344.5769990738954
 20
4488.0168939558816
 30
0.0
  0
VERTEX
  5
7A4
  8
SJC
 10
7345.1186757927944
 20
4487.7216540758818
 30
0.0
  0
VERTEX
  5
7A5
  8
SJC
 10
7345.6691960701937
 20
4487.4195983016834
 30
0.0
  0
VERTEX
  5
7A6
  8
SJC
 10
7346.2277559462937
 20
4487.1113462598832
 30
0.0
  0
VERTEX
  5
7A7
  8
SJC
 10
7346.7935514610936
 20
4486.7975175773818
 30
0.0
  0
VERTEX
  5
7A8
  8
SJC
 10
7347.3657786547938
 20
4486.4787318809831
 30
0.0
  0
VERTEX
  5
7A9
  8
SJC
 10
7347.9436335676946
 20
4486.1556087972822
 30
0.0
  0
VERTEX
  5
7AA
  8
SJC
 10
7348.5263122396946
 20
4485.8287679530831
 30
0.0
  0
VERTEX
  5
7AB
  8
SJC
 10
7349.113010710993
 20
4485.4988289750827
 30
0.0
  0
VERTEX
  5
7AC
  8
SJC
 10
7349.7029250217938
 20
4485.1664114901823
 30
0.0
  0
VERTEX
  5
7AD
  8
SJC
 10
7350.2952512120937
 20
4484.8321351249842
 30
0.0
  0
VERTEX
  5
7AE
  8
SJC
 10
7351.4839233921939
 20
4484.1604842608831
 30
0.0
  0
SEQEND
  5
7AF
  8
1
  0
POLYLINE
  5
7B0
  8
SJC
 66
     1
 10
0.0
 20
0.0
 30
0.0
 70
     2
  0
VERTEX
  5
7B1
  8
SJC
 10
7320.8595330592943
 20
4483.1236495208832
 30
0.0
  0
VERTEX
  5
7B2
  8
SJC
 10
7320.8595330592943
 20
4483.1236495208832
 30
0.0
  0
VERTEX
  5
7B3
  8
SJC
 10
7321.6441875835944
 20
4482.5881597433818
 30
0.0
  0
VERTEX
  5
7B4
  8
SJC
 10
7322.4304135917928
 20
4482.0570675237832
 30
0.0
  0
VERTEX
  5
7B5
  8
SJC
 10
7323.2197947681943
 20
4481.5347800068821
 30
0.0
  0
VERTEX
  5
7B6
  8
SJC
 10
7324.013914796994
 20
4481.0257043374831
 30
0.0
  0
VERTEX
  5
7B7
  8
SJC
 10
7324.8143573624948
 20
4480.5342476603819
 30
0.0
  0
VERTEX
  5
7B8
  8
SJC
 10
7325.6227061487953
 20
4480.0648171201829
 30
0.0
  0
VERTEX
  5
7B9
  8
SJC
 10
7326.440544840294
 20
4479.6218198617826
 30
0.0
  0
VERTEX
  5
7BA
  8
SJC
 10
7327.269457121095
 20
4479.2096630298829
 30
0.0
  0
VERTEX
  5
7BB
  8
SJC
 10
7328.1110266754931
 20
4478.832753769283
 30
0.0
  0
VERTEX
  5
7BC
  8
SJC
 10
7328.9668371877942
 20
4478.495499224683
 30
0.0
  0
VERTEX
  5
7BD
  8
SJC
 10
7329.838472342195
 20
4478.2023065408821
 30
0.0
  0
VERTEX
  5
7BE
  8
SJC
 10
7330.7275158228949
 20
4477.957582862683
 30
0.0
  0
VERTEX
  5
7BF
  8
SJC
 10
7331.6355513141943
 20
4477.7657353347831
 30
0.0
  0
VERTEX
  5
7C0
  8
SJC
 10
7332.5641625002936
 20
4477.6311711018834
 30
0.0
  0
VERTEX
  5
7C1
  8
SJC
 10
7334.489446693995
 20
4477.5515211004822
 30
0.0
  0
VERTEX
  5
7C2
  8
SJC
 10
7334.489446693995
 20
4477.5515211004822
 30
0.0
  0
VERTEX
  5
7C3
  8
SJC
 10
7334.489446693995
 20
4477.5515211004822
 30
0.0
  0
VERTEX
  5
7C4
  8
SJC
 10
7335.4885284451948
 20
4477.6138192287845
 30
0.0
  0
VERTEX
  5
7C5
  8
SJC
 10
7336.5099566323952
 20
4477.7424372600826
 30
0.0
  0
VERTEX
  5
7C6
  8
SJC
 10
7337.5507448203944
 20
4477.9331855599821
 30
0.0
  0
VERTEX
  5
7C7
  8
SJC
 10
7338.6079065741942
 20
4478.181874494082
 30
0.0
  0
VERTEX
  5
7C8
  8
SJC
 10
7339.6784554587948
 20
4478.484314427983
 30
0.0
  0
VERTEX
  5
7C9
  8
SJC
 10
7340.7594050390944
 20
4478.8363157272834
 30
0.0
  0
VERTEX
  5
7CA
  8
SJC
 10
7341.8477688799949
 20
4479.2336887577831
 30
0.0
  0
VERTEX
  5
7CB
  8
SJC
 10
7342.9405605464954
 20
4479.6722438849829
 30
0.0
  0
VERTEX
  5
7CC
  8
SJC
 10
7344.0347936034941
 20
4480.1477914745828
 30
0.0
  0
VERTEX
  5
7CD
  8
SJC
 10
7345.127481615993
 20
4480.6561418920819
 30
0.0
  0
VERTEX
  5
7CE
  8
SJC
 10
7346.2156381488949
 20
4481.1931055032828
 30
0.0
  0
VERTEX
  5
7CF
  8
SJC
 10
7347.2962767670952
 20
4481.7544926737828
 30
0.0
  0
VERTEX
  5
7D0
  8
SJC
 10
7348.3664110355949
 20
4482.3361137690817
 30
0.0
  0
VERTEX
  5
7D1
  8
SJC
 10
7349.423054519295
 20
4482.9337791549833
 30
0.0
  0
VERTEX
  5
7D2
  8
SJC
 10
7351.4839233921939
 20
4484.1604842608831
 30
0.0
  0
VERTEX
  5
7D3
  8
SJC
 10
7351.4839233921939
 20
4484.1604842608831
 30
0.0
  0
VERTEX
  5
7D4
  8
SJC
 10
7351.4839233921939
 20
4484.1604842608831
 30
0.0
  0
VERTEX
  5
7D5
  8
SJC
 10
7352.4830014959944
 20
4484.780926458483
 30
0.0
  0
VERTEX
  5
7D6
  8
SJC
 10
7353.4616026832928
 20
4485.3993497302827
 30
0.0
  0
VERTEX
  5
7D7
  8
SJC
 10
7354.4217031778944
 20
4486.0102621842834
 30
0.0
  0
VERTEX
  5
7D8
  8
SJC
 10
7355.3652792032944
 20
4486.6081719288832
 30
0.0
  0
VERTEX
  5
7D9
  8
SJC
 10
7356.2943069830944
 20
4487.1875870720824
 30
0.0
  0
VERTEX
  5
7DA
  8
SJC
 10
7357.2107627409951
 20
4487.7430157220824
 30
0.0
  0
VERTEX
  5
7DB
  8
SJC
 10
7358.1166227004924
 20
4488.2689659869829
 30
0.0
  0
VERTEX
  5
7DC
  8
SJC
 10
7359.0138630853944
 20
4488.7599459749827
 30
0.0
  0
VERTEX
  5
7DD
  8
SJC
 10
7359.9044601190944
 20
4489.210463794383
 30
0.0
  0
VERTEX
  5
7DE
  8
SJC
 10
7360.7903900253932
 20
4489.6150275530827
 30
0.0
  0
VERTEX
  5
7DF
  8
SJC
 10
7361.6736290278941
 20
4489.9681453594822
 30
0.0
  0
VERTEX
  5
7E0
  8
SJC
 10
7362.556153350095
 20
4490.264325321582
 30
0.0
  0
VERTEX
  5
7E1
  8
SJC
 10
7363.4399392156938
 20
4490.4980755476827
 30
0.0
  0
VERTEX
  5
7E2
  8
SJC
 10
7364.326962848394
 20
4490.663904145782
 30
0.0
  0
VERTEX
  5
7E3
  8
SJC
 10
7366.1186283091938
 20
4490.7698288909833
 30
0.0
  0
VERTEX
  5
7E4
  8
SJC
 10
7366.1186283091938
 20
4490.7698288909833
 30
0.0
  0
VERTEX
  5
7E5
  8
SJC
 10
7366.1186283091938
 20
4490.7698288909833
 30
0.0
  0
VERTEX
  5
7E6
  8
SJC
 10
7367.0267984882939
 20
4490.7007362953827
 30
0.0
  0
VERTEX
  5
7E7
  8
SJC
 10
7367.943563654394
 20
4490.5525223522827
 30
0.0
  0
VERTEX
  5
7E8
  8
SJC
 10
7368.8683508084951
 20
4490.3304618185821
 30
0.0
  0
VERTEX
  5
7E9
  8
SJC
 10
7369.8005869513954
 20
4490.0398294511833
 30
0.0
  0
VERTEX
  5
7EA
  8
SJC
 10
7370.7396990838952
 20
4489.6859000069844
 30
0.0
  0
VERTEX
  5
7EB
  8
SJC
 10
7371.6851142068926
 20
4489.2739482428842
 30
0.0
  0
VERTEX
  5
7EC
  8
SJC
 10
7372.6362593212943
 20
4488.8092489157834
 30
0.0
  0
VERTEX
  5
7ED
  8
SJC
 10
7373.592561427894
 20
4488.2970767824827
 30
0.0
  0
VERTEX
  5
7EE
  8
SJC
 10
7374.5534475275954
 20
4487.7427065998827
 30
0.0
  0
VERTEX
  5
7EF
  8
SJC
 10
7375.5183446212941
 20
4487.1514131248832
 30
0.0
  0
VERTEX
  5
7F0
  8
SJC
 10
7376.4866797097939
 20
4486.5284711144832
 30
0.0
  0
VERTEX
  5
7F1
  8
SJC
 10
7377.4578797939948
 20
4485.8791553254832
 30
0.0
  0
VERTEX
  5
7F2
  8
SJC
 10
7378.4313718747953
 20
4485.2087405146831
 30
0.0
  0
VERTEX
  5
7F3
  8
SJC
 10
7379.4065829528927
 20
4484.5225014390826
 30
0.0
  0
VERTEX
  5
7F4
  8
SJC
 10
7381.3598701048941
 20
4483.1236495208832
 30
0.0
  0
SEQEND
  5
7F5
  8
1
  0
LINE
  5
806
  8
SJC
 10
7320.8595330592943
 20
5579.7820720671089
 30
0.0
 11
7320.8595330592943
 21
4552.4836211639822
 31
0.0
  0
LINE
  5
807
  8
SJC
 10
7381.3598701048941
 20
5579.7820720671089
 30
0.0
 11
7381.3598701048941
 21
4552.4836211639822
 31
0.0
  0
LINE
  5
808
  8
CENTER
 10
7351.1093201123958
 20
5607.7826474289823
 30
0.0
 11
7351.109320112394
 21
4166.939802715282
 31
0.0
  0
TEXT
  5
829
  8
MOJI2
 10
1234.0481941946471
 20
3403.3422292226519
 30
0.0
 40
100.0
  1
支柱図 (1/15)
 41
0.8
  7
EXT08
  0
TEXT
  5
82A
  8
MOJI2
 10
409.9507713480325
 20
6396.6355267081972
 30
0.0
 40
100.0
  1
設置図 (1/25)
 41
0.8
  7
EXT08
  0
LINE
  5
82E
  8
SJC
 10
8506.0683881280329
 20
5579.7820720671089
 30
0.0
 11
8506.0683881280347
 21
4800.7821039090832
 31
0.0
  0
LINE
  5
82F
  8
SJC
 10
8566.5687251737327
 20
5579.7820720671089
 30
0.0
 11
8566.5687251737363
 21
4800.7821039090832
 31
0.0
  0
LINE
  5
833
  8
CENTER
 10
8536.3181751811353
 20
5607.7826474289832
 30
0.0
 11
8536.3181751811353
 21
4758.4498122910818
 31
0.0
  0
LINE
  5
834
  8
SJC
 10
894.45707063104408
 20
4941.7822596261831
 30
0.0
 11
2774.4570587101439
 21
4941.7822596261831
 31
0.0
  0
LINE
  5
835
  8
SJC
 10
2894.4567562165448
 20
4984.4824558931832
 30
0.0
 11
2894.4567562165448
 21
4941.7822596261831
 31
0.0
  0
LINE
  5
836
  8
SJC
 10
2898.4568478586439
 20
4984.4824558931832
 30
0.0
 11
2898.4568478586439
 21
4941.7822596261831
 31
0.0
  0
LINE
  5
837
  8
SJC
 10
2774.4570587101439
 20
4984.4824558931832
 30
0.0
 11
2774.4570587101439
 21
4941.7822596261831
 31
0.0
  0
LINE
  5
838
  8
SJC
 10
894.45707063104408
 20
4984.4824558931832
 30
0.0
 11
894.45707063104408
 21
4941.7822596261831
 31
0.0
  0
LINE
  5
839
  8
SJC
 10
894.45707063104408
 20
4984.4824558931832
 30
0.0
 11
2774.4570587101439
 21
4984.4824558931832
 31
0.0
  0
LINE
  5
83A
  8
SJC
 10
2770.4569670679448
 20
4984.4824558931832
 30
0.0
 11
2770.4569670679448
 21
4941.7822596261831
 31
0.0
  0
LINE
  5
83B
  8
SJC
 10
898.4571622731454
 20
4984.4824558931832
 30
0.0
 11
898.4571622731454
 21
4941.7822596261831
 31
0.0
  0
LINE
  5
83C
  8
SJC
 10
2922.4573977115451
 20
5549.0828475328844
 30
0.0
 11
2922.4573977115451
 21
4984.4824558931832
 31
0.0
  0
LINE
  5
83D
  8
SJC
 10
2956.4570322605441
 20
5549.0828475328844
 30
0.0
 11
2956.4570322605441
 21
4984.4824558931832
 31
0.0
  0
LINE
  5
842
  8
SJC
 10
922.45713992144385
 20
5549.0828475328844
 30
0.0
 11
922.45713992144385
 21
4984.4824558931832
 31
0.0
  0
LINE
  5
843
  8
SJC
 10
956.45715594024477
 20
5549.0828475328844
 30
0.0
 11
956.45715594024477
 21
4984.4824558931832
 31
0.0
  0
LINE
  5
844
  8
SJC
 10
2746.456417215144
 20
5549.0828475328844
 30
0.0
 11
2746.456417215144
 21
4984.4824558931832
 31
0.0
  0
LINE
  5
845
  8
SJC
 10
2712.4567826661441
 20
5549.0828475328844
 30
0.0
 11
2712.4567826661441
 21
4984.4824558931832
 31
0.0
  0
LINE
  5
86A
  8
SJC
 10
2894.4567562165448
 20
4941.7822596261831
 30
0.0
 11
4491.3139012210386
 21
4941.7822596261831
 31
0.0
  0
LINE
  5
86C
  8
SJC
 10
2894.4567562165448
 20
4984.4824558931832
 30
0.0
 11
4491.3139012210386
 21
4984.4824558931832
 31
0.0
  0
TEXT
  5
875
  8
MOJI
 10
4955.2735716253328
 20
5856.1529732792224
 30
0.0
 40
87.5
  1
T-40AP81C20
 41
0.8
  7
EXT08
  0
TEXT
  5
876
  8
MOJI
 10
5983.0615524569466
 20
5860.2530099919222
 30
0.0
 40
87.5
  1
T-40AP81W20
 41
0.8
  7
EXT08
  0
TEXT
  5
877
  8
MOJI
 10
7056.3865998172123
 20
5857.793293140121
 30
0.0
 40
87.5
  1
T-40AP81E20
 41
0.8
  7
EXT08
  0
TEXT
  5
878
  8
MOJI
 10
8241.2587644968735
 20
5857.793293140121
 30
0.0
 40
87.5
  1
T-40AP81PL20
 41
0.8
  7
EXT08
  0
LINE
  5
87A
  8
SJC
 10
5260.6103950567649
 20
5552.0108273904498
 30
0.0
 11
5260.6103950567649
 21
4981.5197124076267
 31
0.0
  0
LINE
  5
87B
  8
SJC
 10
5282.3099194676643
 20
5552.0789550397994
 30
0.0
 11
5282.3099194676643
 21
4981.5197124075676
 31
0.0
  0
LINE
  5
87D
  8
SJC
 10
6283.8365377231639
 20
5552.2769546989502
 30
0.0
 11
6283.8365377231621
 21
4981.5197124076267
 31
0.0
  0
LINE
  5
87E
  8
SJC
 10
6305.5360621339642
 20
5551.7420310784428
 30
0.0
 11
6305.5360621339632
 21
4981.5197124076267
 31
0.0
  0
LINE
  5
880
  8
SJC
 10
7340.2595579069939
 20
5552.0819252527835
 30
0.0
 11
7340.2595579069939
 21
4981.5197124076267
 31
0.0
  0
LINE
  5
881
  8
SJC
 10
7361.9598452571954
 20
5552.0083267701448
 30
0.0
 11
7361.9598452571954
 21
4981.5192622081877
 31
0.0
  0
LINE
  5
883
  8
SJC
 10
8525.4684129757352
 20
5552.0078926005144
 30
0.0
 11
8525.4684129757352
 21
4980.8349698977727
 31
0.0
  0
LINE
  5
884
  8
SJC
 10
8547.168700326034
 20
5552.0823663397987
 30
0.0
 11
8547.168700326034
 21
4980.5721601043961
 31
0.0
  0
TEXT
  5
886
  8
MOJI
 10
1981.2649930074481
 20
5732.9834957671528
 30
0.0
 40
75.0
  1
%%c21.7×t1.9
 41
0.8
  7
EXT08
  0
DIMENSION
  5
9DE
  8
SUNPOU
  2
*D2
 10
4858.4149962670654
 20
4791.7822562734818
 30
0.0
 11
4790.9149962670645
 21
5191.7822685669344
 31
0.0
 70
     0
 13
4491.3139012210386
 23
5591.7822808603833
 33
0.0
 14
4491.3139012210404
 24
4791.7822562734818
 34
0.0
 50
90.0
1001
ACAD
1000
DSTYLE
1002
{
1070
   287
1070
     5
1070
    40
1040
25.0
1070
    41
1040
2.0
1070
    42
1040
1.0
1070
    43
1040
6.0
1070
    44
1040
1.0
1070
    73
1070
     0
1070
    74
1070
     0
1070
    77
1070
     1
1070
    78
1070
     8
1070
   140
1040
3.0
1070
   147
1040
1.1999999999999991
1070
   172
1070
     1
1070
   179
1070
     2
1070
   271
1070
     2
1070
   279
1070
     2
1070
   340
1005
BA4
1002
}
  0
DIMENSION
  5
9DF
  8
SUNPOU
  2
*D3
 10
4681.186795294183
 20
4941.7822596261831
 30
0.0
 11
4613.686795294182
 21
5266.7822702432841
 31
0.0
 70
     0
 13
4491.3139012210386
 23
5591.7822808603833
 33
0.0
 14
4491.3139012210386
 24
4941.7822596261831
 34
0.0
 50
90.0
1001
ACAD
1000
DSTYLE
1002
{
1070
   287
1070
     5
1070
    40
1040
25.0
1070
    41
1040
2.0
1070
    42
1040
1.0
1070
    43
1040
6.0
1070
    44
1040
1.0
1070
    73
1070
     0
1070
    74
1070
     0
1070
    77
1070
     1
1070
    78
1070
     8
1070
   140
1040
3.0
1070
   147
1040
1.1999999999999991
1070
   172
1070
     1
1070
   179
1070
     2
1070
   271
1070
     2
1070
   279
1070
     2
1070
   340
1005
BA4
1002
}
  0
DIMENSION
  5
9E0
  8
SUNPOU
  2
*D4
 10
4681.186795294183
 20
4791.7822562734818
 30
0.0
 11
4608.3077584639277
 21
4870.925097305596
 31
0.0
 70
   128
 13
4491.3139012210386
 23
4941.7822596261831
 33
0.0
 14
4491.3139012210404
 24
4791.7822562734818
 34
0.0
 50
90.0
1001
ACAD
1000
DSTYLE
1002
{
1070
   287
1070
     5
1070
    40
1040
25.0
1070
    41
1040
2.0
1070
    42
1040
1.0
1070
    43
1040
6.0
1070
    44
1040
1.0
1070
    73
1070
     0
1070
    74
1070
     0
1070
    77
1070
     1
1070
    78
1070
     8
1070
   140
1040
3.0
1070
   147
1040
1.1999999999999991
1070
   172
1070
     1
1070
   179
1070
     2
1070
   271
1070
     2
1070
   279
1070
     2
1070
   340
1005
BA4
1002
}
  0
DIMENSION
  5
9E6
  8
SUNPOU
  2
*D1
 10
2834.456907463345
 20
6071.9962198166841
 30
0.0
 11
1834.4569693031449
 21
6139.496219816685
 31
0.0
 70
     0
 13
834.4570311429452
 23
5607.7826474289832
 33
0.0
 14
2834.456907463345
 24
5607.7826474289832
 34
0.0
1001
ACAD
1000
DSTYLE
1002
{
1070
   287
1070
     5
1070
    40
1040
25.0
1070
    41
1040
2.0
1070
    42
1040
1.0
1070
    43
1040
6.0
1070
    44
1040
1.0
1070
    73
1070
     0
1070
    74
1070
     0
1070
    77
1070
     1
1070
    78
1070
     8
1070
   140
1040
3.0
1070
   147
1040
1.1999999999999991
1070
   172
1070
     1
1070
   179
1070
     2
1070
   271
1070
     2
1070
   279
1070
     2
1070
   340
1005
BA4
1002
}
  0
DIMENSION
  5
9EA
  8
SUNPOU
  2
*D5
 10
5575.3152483060221
 20
4791.7822562734818
 30
0.0
 11
5507.8152483060212
 21
5191.7822685669344
 31
0.0
 70
     0
 13
5296.460157262165
 23
5591.7822808603833
 33
0.0
 14
5481.450749562795
 24
4791.7822562734818
 34
0.0
 50
90.0
1001
ACAD
1000
DSTYLE
1002
{
1070
   287
1070
     5
1070
    40
1040
25.0
1070
    41
1040
2.0
1070
    42
1040
1.0
1070
    43
1040
6.0
1070
    44
1040
1.0
1070
    73
1070
     0
1070
    74
1070
     0
1070
    77
1070
     1
1070
    78
1070
     8
1070
   140
1040
3.0
1070
   147
1040
1.1999999999999991
1070
   172
1070
     1
1070
   179
1070
     2
1070
   271
1070
     2
1070
   279
1070
     2
1070
   340
1005
BA4
1002
}
  0
DIMENSION
  5
9EB
  8
SUNPOU
  2
*D7
 10
5743.1008173045548
 20
4391.7822462151826
 30
0.0
 11
5675.6008173045548
 21
4591.7822512443336
 31
0.0
 70
     0
 13
5481.450749562795
 23
4791.7822562734818
 33
0.0
 14
5421.4601606149636
 24
4391.7822462151826
 34
0.0
 50
90.0
1001
ACAD
1000
DSTYLE
1002
{
1070
   287
1070
     5
1070
    40
1040
25.0
1070
    41
1040
2.0
1070
    42
1040
1.0
1070
    43
1040
6.0
1070
    44
1040
1.0
1070
    73
1070
     0
1070
    74
1070
     0
1070
    77
1070
     1
1070
    78
1070
     8
1070
   140
1040
3.0
1070
   147
1040
1.1999999999999991
1070
   172
1070
     1
1070
   179
1070
     2
1070
   271
1070
     2
1070
   279
1070
     2
1070
   340
1005
BA4
1002
}
  0
LINE
  5
A1C
  8
MOJI
 10
1370.523644996294
 20
5708.2017569315021
 30
0.0
 11
1917.636906363887
 21
5708.2017569315021
 31
0.0
  0
LINE
  5
A22
  8
MOJI
 10
1984.056702798837
 20
5702.8346118693744
 30
0.0
 11
2501.3710879969308
 21
5702.8346118693744
 31
0.0
  0
DIMENSION
  5
A3A
  8
SUNPOU
  2
*D6
 10
5901.0361282632357
 20
4391.7822462151826
 30
0.0
 11
5833.5361282632357
 21
4997.2822635377024
 31
0.0
 70
     0
 13
5271.460157262165
 23
5602.7822808602168
 33
0.0
 14
5471.4601606149636
 24
4391.7822462151826
 34
0.0
 50
90.0
1001
ACAD
1000
DSTYLE
1002
{
1070
   287
1070
     5
1070
    40
1040
25.0
1070
    41
1040
2.0
1070
    42
1040
1.0
1070
    43
1040
6.0
1070
    44
1040
1.0
1070
    73
1070
     0
1070
    74
1070
     0
1070
    77
1070
     1
1070
    78
1070
     8
1070
   140
1040
3.0
1070
   147
1040
1.1999999999999991
1070
   172
1070
     1
1070
   179
1070
     2
1070
   271
1070
     2
1070
   279
1070
     2
1070
   340
1005
BA4
1002
}
  0
DIMENSION
  5
A3E
  8
SUNPOU
  2
*D8
 10
8781.9639447503105
 20
4791.7822562734818
 30
0.0
 11
8713.8414135945386
 21
4875.656238244932
 31
0.0
 70
   128
  1
t9
 13
8611.3181774163331
 23
4800.7821039090832
 33
0.0
 14
8706.1755424215371
 24
4791.7822562734818
 34
0.0
 50
90.0
1001
ACAD
1000
DSTYLE
1002
{
1070
   287
1070
     5
1070
    40
1040
25.0
1070
    41
1040
2.0
1070
    42
1040
1.0
1070
    43
1040
6.0
1070
    44
1040
1.0
1070
    73
1070
     0
1070
    74
1070
     0
1070
    77
1070
     1
1070
    78
1070
     8
1070
   140
1040
3.0
1070
   147
1040
1.1999999999999991
1070
   172
1070
     1
1070
   179
1070
     2
1070
   271
1070
     2
1070
   279
1070
     2
1070
   340
1005
BA4
1002
}
  0
CIRCLE
  5
AF1
  8
SJC
 10
5271.4024284041279
 20
5570.4322681058948
 30
0.0
 40
21.349882009118559
  0
CIRCLE
  5
AF3
  8
SJC
 10
5271.460157262165
 20
4963.1320763418817
 30
0.0
 40
21.349999999999909
  0
CIRCLE
  5
AF5
  8
SJC
 10
6294.686299928564
 20
5570.6668734642617
 30
0.0
 40
21.58930896900733
  0
CIRCLE
  5
AF8
  8
SJC
 10
6294.686299928564
 20
4963.1320763418817
 30
0.0
 40
21.349999999999909
  0
CIRCLE
  5
AFA
  8
SJC
 10
7351.1720631131248
 20
5570.4322325718813
 30
0.0
 40
21.349860622006801
  0
CIRCLE
  5
AFC
  8
SJC
 10
7351.109320112394
 20
4963.1320763418817
 30
0.0
 40
21.349999999999909
  0
CIRCLE
  5
AFE
  8
SJC
 10
8536.1011883009487
 20
4962.7553919369693
 30
0.0
 40
20.974438022441522
  0
CIRCLE
  5
B00
  8
SJC
 10
8536.2554535079526
 20
5570.4322327292884
 30
0.0
 40
21.349860716746502
  0
DIMENSION
  5
FF1
  8
SUNPOU
  2
*D9
 10
5121.4601539094638
 20
4178.9502948733898
 30
0.0
 11
5271.460157262215
 21
4246.4502948733889
 31
0.0
 70
     0
  1
□<>
 13
5421.4601606149636
 23
4391.7822462151826
 33
0.0
 14
5121.4601539094638
 24
4391.7822462151826
 34
0.0
1001
ACAD
1000
DSTYLE
1002
{
1070
   287
1070
     5
1070
    40
1040
25.0
1070
    41
1040
2.0
1070
    42
1040
1.0
1070
    43
1040
6.0
1070
    44
1040
1.0
1070
    73
1070
     0
1070
    74
1070
     0
1070
    77
1070
     1
1070
    78
1070
     8
1070
   140
1040
3.0
1070
   147
1040
1.1999999999999991
1070
   172
1070
     1
1070
   179
1070
     2
1070
   271
1070
     2
1070
   279
1070
     2
1070
   340
1005
BA4
1002
}
  0
LINE
  5
1020
  8
MOJI2
 10
386.2739892347945
 20
6346.6355267081972
 30
0.0
 11
703.57796382831646
 21
6346.6355267081972
 31
0.0
  0
LINE
  5
1021
  8
MOJI2
 10
1223.0326112212949
 20
3353.3422292226519
 30
0.0
 11
1518.994294101745
 21
3353.3422292226519
 31
0.0
  0
TEXT
  5
109D
  8
MOJI
 10
4973.5229694156251
 20
4816.7291355002417
 30
0.0
 40
75.0
  1
GL
 41
0.8
  7
EXT08
  0
TEXT
  5
109E
  8
MOJI
 10
6092.3389703535513
 20
4816.7291355002417
 30
0.0
 40
75.0
  1
GL
 41
0.8
  7
EXT08
  0
LINE
  5
10B6
  8
HATCH
 10
5079.1194593651016
 20
4791.2526695062224
 30
0.0
 11
5045.1021609606632
 21
4757.2353711017822
 31
0.0
  0
LINE
  5
10B7
  8
HATCH
 10
5064.1194593651016
 20
4776.2526695062206
 30
0.0
 11
5083.1367577695401
 21
4757.2353711017822
 31
0.0
  0
LINE
  5
10B8
  8
HATCH
 10
4996.0848625562248
 20
4791.2526695062224
 30
0.0
 11
4962.0675641517864
 21
4757.2353711017822
 31
0.0
  0
LINE
  5
10B9
  8
HATCH
 10
5011.0848625562239
 20
4791.2526695062224
 30
0.0
 11
4977.0675641517873
 21
4757.2353711017822
 31
0.0
  0
LINE
  5
10BA
  8
HATCH
 10
4981.0848625562248
 20
4791.2526695062224
 30
0.0
 11
4947.0675641517873
 21
4757.2353711017822
 31
0.0
  0
LINE
  5
10BB
  8
HATCH
 10
5011.0848625562239
 20
4791.2526695062224
 30
0.0
 11
5045.1021609606632
 21
4757.2353711017822
 31
0.0
  0
LINE
  5
10BC
  8
HATCH
 10
5049.1194593651007
 20
4791.2526695062224
 30
0.0
 11
5030.1021609606632
 21
4772.2353711017831
 31
0.0
  0
LINE
  5
10BD
  8
HATCH
 10
5064.1194593651016
 20
4791.2526695062224
 30
0.0
 11
5037.6021609606632
 21
4764.7353711017831
 31
0.0
  0
LINE
  5
10BE
  8
HATCH
 10
4996.0848625562248
 20
4776.2526695062206
 30
0.0
 11
5015.1021609606632
 21
4757.2353711017822
 31
0.0
  0
LINE
  5
10BF
  8
HATCH
 10
5003.5848625562248
 20
4783.7526695062206
 30
0.0
 11
5030.1021609606632
 21
4757.2353711017822
 31
0.0
  0
LINE
  5
10C5
  8
HATCH
 10
5079.1194593651016
 20
4791.2526695062224
 30
0.0
 11
5113.1367577695419
 21
4757.2353711017822
 31
0.0
  0
LINE
  5
10C7
  8
HATCH
 10
5071.6194593651016
 20
4783.7526695062206
 30
0.0
 11
5098.136757769541
 21
4757.2353711017822
 31
0.0
  0
TEXT
  5
11C5
  8
MOJI
 10
7133.2124580193067
 20
4816.7291355002417
 30
0.0
 40
75.0
  1
GL
 41
0.8
  7
EXT08
  0
TEXT
  5
11C6
  8
MOJI
 10
8296.7799971849727
 20
4816.7291355002417
 30
0.0
 40
75.0
  1
GL
 41
0.8
  7
EXT08
  0
LINE
  5
11C8
  8
HATCH
 10
7269.4591025939808
 20
4791.5700193618422
 30
0.0
 11
7235.4418041895433
 21
4757.552720957402
 31
0.0
  0
LINE
  5
11C9
  8
HATCH
 10
7254.4591025939808
 20
4776.5700193618422
 30
0.0
 11
7273.4764009984201
 21
4757.552720957402
 31
0.0
  0
LINE
  5
11CA
  8
HATCH
 10
7186.424505785104
 20
4791.5700193618422
 30
0.0
 11
7152.4072073806656
 21
4757.552720957402
 31
0.0
  0
LINE
  5
11CB
  8
HATCH
 10
7201.424505785104
 20
4791.5700193618422
 30
0.0
 11
7167.4072073806656
 21
4757.552720957402
 31
0.0
  0
LINE
  5
11CC
  8
HATCH
 10
7171.424505785104
 20
4791.5700193618422
 30
0.0
 11
7137.4072073806656
 21
4757.552720957402
 31
0.0
  0
LINE
  5
11CD
  8
HATCH
 10
7201.424505785104
 20
4791.5700193618422
 30
0.0
 11
7235.4418041895433
 21
4757.552720957402
 31
0.0
  0
LINE
  5
11CE
  8
HATCH
 10
7239.4591025939799
 20
4791.5700193618422
 30
0.0
 11
7220.4418041895424
 21
4772.5527209574038
 31
0.0
  0
LINE
  5
11CF
  8
HATCH
 10
7254.4591025939808
 20
4791.5700193618422
 30
0.0
 11
7227.9418041895424
 21
4765.0527209574029
 31
0.0
  0
LINE
  5
11D0
  8
HATCH
 10
7186.424505785104
 20
4776.5700193618422
 30
0.0
 11
7205.4418041895433
 21
4757.552720957402
 31
0.0
  0
LINE
  5
11D1
  8
HATCH
 10
7193.924505785104
 20
4784.0700193618422
 30
0.0
 11
7220.4418041895424
 21
4757.552720957402
 31
0.0
  0
LINE
  5
11D7
  8
HATCH
 10
7269.4591025939808
 20
4791.5700193618422
 30
0.0
 11
7303.4764009984201
 21
4757.552720957402
 31
0.0
  0
LINE
  5
11D9
  8
HATCH
 10
7261.9591025939808
 20
4784.0700193618422
 30
0.0
 11
7288.476400998421
 21
4757.552720957402
 31
0.0
  0
LINE
  5
11DA
  8
HATCH
 10
7494.3541497983024
 20
4791.5700193618422
 30
0.0
 11
7475.336851393864
 21
4772.5527209574038
 31
0.0
  0
LINE
  5
11DB
  8
HATCH
 10
7456.3195529894256
 20
4791.5700193618422
 30
0.0
 11
7490.336851393864
 21
4757.552720957402
 31
0.0
  0
LINE
  5
11DC
  8
HATCH
 10
7448.8195529894256
 20
4784.0700193618422
 30
0.0
 11
7475.336851393864
 21
4757.552720957402
 31
0.0
  0
LINE
  5
11DD
  8
HATCH
 10
7441.3195529894247
 20
4776.5700193618422
 30
0.0
 11
7460.3368513938649
 21
4757.552720957402
 31
0.0
  0
LINE
  5
11DE
  8
HATCH
 10
7426.3195529894256
 20
4791.5700193618422
 30
0.0
 11
7392.3022545849872
 21
4757.552720957402
 31
0.0
  0
LINE
  5
11DF
  8
HATCH
 10
7456.3195529894256
 20
4791.5700193618422
 30
0.0
 11
7422.3022545849872
 21
4757.552720957402
 31
0.0
  0
LINE
  5
11E0
  8
HATCH
 10
7441.3195529894247
 20
4791.5700193618422
 30
0.0
 11
7407.3022545849872
 21
4757.552720957402
 31
0.0
  0
LINE
  5
11E1
  8
HATCH
 10
7509.3541497983024
 20
4791.5700193618422
 30
0.0
 11
7482.836851393864
 21
4765.0527209574029
 31
0.0
  0
LINE
  5
11E2
  8
HATCH
 10
7509.3541497983024
 20
4776.5700193618422
 30
0.0
 11
7528.3714482027417
 21
4757.552720957402
 31
0.0
  0
LINE
  5
11E3
  8
HATCH
 10
7524.3541497983033
 20
4791.5700193618422
 30
0.0
 11
7490.336851393864
 21
4757.552720957402
 31
0.0
  0
LINE
  5
11E4
  8
HATCH
 10
7516.8541497983033
 20
4784.0700193618422
 30
0.0
 11
7543.3714482027408
 21
4757.552720957402
 31
0.0
  0
LINE
  5
11E5
  8
HATCH
 10
7524.3541497983033
 20
4791.5700193618422
 30
0.0
 11
7558.3714482027408
 21
4757.552720957402
 31
0.0
  0
LINE
  5
1240
  8
SJC
 10
8287.5315781300451
 20
4791.7822562734818
 30
0.0
 11
8706.1755424215371
 21
4791.7822562734818
 31
0.0
  0
LINE
  5
1A6B
  8
MOJI
 10
2537.9453567403812
 20
4637.402946527196
 30
0.0
 11
2002.5220327835671
 21
4637.4029465271951
 31
0.0
  0
TEXT
  5
1A6C
  8
MOJI
 10
2006.600913074187
 20
4661.4311696459336
 30
0.0
 40
75.0
  1
%%c34.0×t2.3
 41
0.8
  7
EXT08
  0
TEXT
  5
1AD3
  8
MOJI
 10
616.97386870366245
 20
4816.9199583121444
 30
0.0
 40
75.0
  1
GL
 41
0.8
  7
EXT08
  0
SOLID
  5
1ADD
  8
MOJI
  6
CONTINUOUS
 10
2685.73202210319
 20
5018.6583034032446
 30
0.0
 11
2701.1460306901681
 21
5012.3190513134241
 31
0.0
 12
2712.4567826661441
 22
5061.7307031192722
 32
0.0
 13
2712.4567826661441
 23
5061.7307031192722
 33
0.0
  0
LINE
  5
1ADE
  8
MOJI
  6
CONTINUOUS
 10
2693.4390263966789
 20
5015.4886773583348
 30
0.0
 11
2537.9453567403812
 21
4637.4029465271979
 31
0.0
  0
LINE
  5
1AE8
  8
SJC2
 10
4491.3139012210377
 20
5181.9283273449564
 30
0.0
 11
4491.3139012210386
 21
4728.815201681964
 31
0.0
  0
LINE
  5
1AE9
  8
SJC2
 10
4491.3139012210386
 20
5647.0217332053244
 30
0.0
 11
4491.3139012210386
 21
5275.1152221553448
 31
0.0
  0
LINE
  5
1AEA
  8
SJC2
 10
4465.8648210516558
 20
5275.1152221553448
 30
0.0
 11
4516.7629813904196
 21
5181.9283273449564
 31
0.0
  0
LINE
  5
1AEB
  8
SJC2
 10
4491.3139012210386
 20
5181.9283273449564
 30
0.0
 11
4516.7629813904196
 21
5181.9283273449564
 31
0.0
  0
LINE
  5
1AEC
  8
SJC2
 10
4465.8648210516558
 20
5275.1152221553448
 30
0.0
 11
4491.3139012210386
 21
5275.1152221553448
 31
0.0
  0
LINE
  5
1C75
  8
MOJI2
 10
7397.7750091875942
 20
3554.7554663397759
 30
0.0
 11
8356.3184675407338
 21
3554.7554663397759
 31
0.0
  0
LINE
  5
1C7A
  8
MOJI2
 10
7397.7750091875942
 20
3579.7554663397759
 30
0.0
 11
8356.3184675407338
 21
3579.7554663397759
 31
0.0
  0
TEXT
  5
1C7B
  8
MOJI2
 10
7405.5594035542563
 20
3604.7554663397759
 30
0.0
 40
100.0
  1
ベースプレート詳細図 (1/10)
 41
0.8
  7
EXT08
  0
LINE
  5
4920
  8
MOJI
 10
9060.9633463323225
 20
4437.0199380579243
 30
0.0
 11
8141.1245616399501
 21
4437.0241534401584
 31
0.0
  0
TEXT
  5
4921
  8
MOJI
 10
8154.8029484445306
 20
4228.4005185667902
 30
0.0
 40
75.0
  1
(ドリル径%%c18,深さ55mm)
 50
359.99972432623952
 41
0.8
  7
EXT08
  0
TEXT
  5
4922
  8
MOJI
 10
8273.4552616823312
 20
4338.9674905391139
 30
0.0
 40
75.0
  1
ナットアンカー M12
 50
359.99972432623952
 41
0.8
  7
EXT08
  0
DIMENSION
  5
4924
  8
SUNPOU
  2
*D12
 10
8611.3181751811353
 20
4590.118104739
 30
0.0
 11
8488.7543306662647
 21
4641.3776245147938
 31
0.0
 70
   128
  1
□<>
 13
8461.3181751811353
 23
4791.7822562734818
 33
0.0
 14
8611.3181751811353
 24
4791.7822562734818
 34
0.0
1001
ACAD
1000
DSTYLE
1002
{
1070
   287
1070
     5
1070
    40
1040
25.0
1070
    41
1040
2.0
1070
    42
1040
1.0
1070
    43
1040
6.0
1070
    44
1040
1.0
1070
    73
1070
     0
1070
    74
1070
     0
1070
    77
1070
     1
1070
    78
1070
     8
1070
   140
1040
3.0
1070
   147
1040
1.1999999999999991
1070
   172
1070
     1
1070
   179
1070
     2
1070
   271
1070
     2
1070
   279
1070
     2
1070
   340
1005
BA4
1002
}
  0
INSERT
  5
4925
  8
0
  2
*U79
 10
0.0
 20
0.0
 30
0.0
1001
ACAD
1000
DSTYLE
1002
{
1070
    40
1040
25.0
1070
    41
1040
2.0
1070
    42
1040
1.0
1070
    43
1040
6.0
1070
    44
1040
1.0
1070
    73
1070
     0
1070
    74
1070
     0
1070
    77
1070
     1
1070
    78
1070
     8
1070
   140
1040
3.0
1070
   147
1040
1.1999999999999991
1070
   172
1070
     1
1070
   179
1070
     2
1070
   271
1070
     2
1070
   279
1070
     2
1070
   340
1005
BA4
1002
}
  0
TEXT
  5
4929
  8
MOJI
 10
8255.5979734675166
 20
4469.1116356538196
 30
0.0
 40
75.0
  1
取付ボルトM12×30
 50
359.99972432623952
 41
0.8
  7
EXT08
  0
LINE
  5
492A
  8
SJC
 10
8461.3181751811353
 20
4800.7822562734827
 30
0.0
 11
8611.3181751811353
 21
4800.7822562734827
 31
0.0
  0
LINE
  5
492B
  8
SJC
 10
8461.3181751811353
 20
4791.7822562734818
 30
0.0
 11
8611.3181751811353
 21
4791.7822562734818
 31
0.0
  0
LINE
  5
492C
  8
CENTER
 10
8486.317519613498
 20
4761.7822562734818
 30
0.0
 11
8486.317519613498
 21
4830.7822562734818
 31
0.0
  0
LINE
  5
492D
  8
SJC
 10
8461.3181751811353
 20
4800.7822562734827
 30
0.0
 11
8461.3181751811353
 21
4791.7822562734818
 31
0.0
  0
LINE
  5
492E
  8
CENTER
 10
8586.317519613498
 20
4830.639095746239
 30
0.0
 11
8586.317519613498
 21
4761.639095746239
 31
0.0
  0
LINE
  5
492F
  8
SJC
 10
8611.3181751811353
 20
4791.7822562734818
 30
0.0
 11
8611.3181751811353
 21
4800.7822562734827
 31
0.0
  0
LINE
  5
6486
  8
SJC2
 10
864.70700893094488
 20
5086.7827228661836
 30
0.0
 11
907.40682372814388
 21
5086.7827228661836
 31
0.0
  0
LINE
  5
6487
  8
SJC2
 10
907.40682372814388
 20
5121.7825710605839
 30
0.0
 11
907.40682372814388
 21
5086.7827228661836
 31
0.0
  0
LINE
  5
6488
  8
SJC2
 10
879.75751585914395
 20
5156.7824192549842
 30
0.0
 11
879.75751585914395
 21
5121.7825710605839
 31
0.0
  0
LINE
  5
6489
  8
SJC2
 10
879.75751585914395
 20
5156.7824192549842
 30
0.0
 11
922.45713992144329
 21
5156.7824192549842
 31
0.0
  0
LINE
  5
648A
  8
SJC2
 10
864.70700893094488
 20
5121.7825710605839
 30
0.0
 11
922.45713992144329
 21
5121.7825710605839
 31
0.0
  0
LINE
  5
648B
  8
CENTER
 10
893.7071011318435
 20
5176.0062050850838
 30
0.0
 11
893.7071011318435
 21
5067.2423171559831
 31
0.0
  0
LINE
  5
648C
  8
SJC2
 10
2864.7068852513448
 20
5386.7827340419817
 30
0.0
 11
2907.4067000485429
 21
5386.7827340419817
 31
0.0
  0
LINE
  5
648D
  8
SJC2
 10
2907.4067000485429
 20
5421.782582236382
 30
0.0
 11
2907.4067000485429
 21
5386.7827340419817
 31
0.0
  0
LINE
  5
648E
  8
SJC2
 10
2879.7573921795429
 20
5456.7824304307806
 30
0.0
 11
2879.7573921795429
 21
5421.782582236382
 31
0.0
  0
LINE
  5
648F
  8
SJC2
 10
2879.7573921795429
 20
5456.7824304307806
 30
0.0
 11
2922.4570162418431
 21
5456.7824304307806
 31
0.0
  0
LINE
  5
6490
  8
SJC2
 10
2864.7068852513448
 20
5421.782582236382
 30
0.0
 11
2922.4570162418431
 21
5421.782582236382
 31
0.0
  0
LINE
  5
6491
  8
CENTER
 10
2893.7069774522429
 20
5476.006216260882
 30
0.0
 11
2893.7069774522429
 21
5367.2423283317812
 31
0.0
  0
LINE
  5
6492
  8
SJC2
 10
2864.7068852513439
 20
5086.7827228661827
 30
0.0
 11
2907.4067000485429
 21
5086.7827228661827
 31
0.0
  0
LINE
  5
6493
  8
SJC2
 10
2907.4067000485429
 20
5121.782571060583
 30
0.0
 11
2907.4067000485429
 21
5086.7827228661827
 31
0.0
  0
LINE
  5
6494
  8
SJC2
 10
2879.7573921795429
 20
5156.7824192549833
 30
0.0
 11
2879.7573921795429
 21
5121.782571060583
 31
0.0
  0
LINE
  5
6495
  8
SJC2
 10
2879.7573921795429
 20
5156.7824192549833
 30
0.0
 11
2922.4570162418431
 21
5156.7824192549833
 31
0.0
  0
LINE
  5
6496
  8
SJC2
 10
2864.7068852513439
 20
5121.782571060583
 30
0.0
 11
2922.4570162418431
 21
5121.782571060583
 31
0.0
  0
LINE
  5
6497
  8
CENTER
 10
2893.7069774522429
 20
5176.0062050850829
 30
0.0
 11
2893.7069774522429
 21
5067.2423171559822
 31
0.0
  0
LINE
  5
6498
  8
SJC2
 10
2804.2069296753448
 20
5386.7827340419817
 30
0.0
 11
2761.5071148781458
 21
5386.7827340419817
 31
0.0
  0
LINE
  5
6499
  8
SJC2
 10
2761.5071148781458
 20
5421.782582236382
 30
0.0
 11
2761.5071148781458
 21
5386.7827340419817
 31
0.0
  0
LINE
  5
649A
  8
SJC2
 10
2789.1564227471458
 20
5456.7824304307806
 30
0.0
 11
2789.1564227471458
 21
5421.782582236382
 31
0.0
  0
LINE
  5
649B
  8
SJC2
 10
2789.1564227471458
 20
5456.7824304307806
 30
0.0
 11
2746.456798684846
 21
5456.7824304307806
 31
0.0
  0
LINE
  5
649C
  8
SJC2
 10
2804.2069296753448
 20
5421.782582236382
 30
0.0
 11
2746.456798684846
 21
5421.782582236382
 31
0.0
  0
LINE
  5
649D
  8
CENTER
 10
2775.2068374744458
 20
5476.006216260882
 30
0.0
 11
2775.2068374744458
 21
5367.2423283317812
 31
0.0
  0
LINE
  5
649E
  8
SJC2
 10
2804.2069296753448
 20
5086.7827228661827
 30
0.0
 11
2761.5071148781458
 21
5086.7827228661827
 31
0.0
  0
LINE
  5
649F
  8
SJC2
 10
2761.5071148781458
 20
5121.782571060583
 30
0.0
 11
2761.5071148781458
 21
5086.7827228661827
 31
0.0
  0
LINE
  5
64A0
  8
SJC2
 10
2789.1564227471458
 20
5156.7824192549833
 30
0.0
 11
2789.1564227471458
 21
5121.782571060583
 31
0.0
  0
LINE
  5
64A1
  8
SJC2
 10
2789.1564227471458
 20
5156.7824192549833
 30
0.0
 11
2746.4567986848469
 21
5156.7824192549833
 31
0.0
  0
LINE
  5
64A2
  8
SJC2
 10
2804.2069296753448
 20
5121.782571060583
 30
0.0
 11
2746.4567986848469
 21
5121.782571060583
 31
0.0
  0
LINE
  5
64A3
  8
CENTER
 10
2775.2068374744472
 20
5176.0062050850829
 30
0.0
 11
2775.2068374744472
 21
5067.2423171559822
 31
0.0
  0
INSERT
  5
64A4
  8
0
  2
*U80
 10
0.0
 20
0.0
 30
0.0
1001
ACAD
1000
DSTYLE
1002
{
1070
    40
1040
25.0
1070
    41
1040
2.0
1070
    42
1040
1.0
1070
    43
1040
6.0
1070
    44
1040
1.0
1070
    73
1070
     0
1070
    74
1070
     0
1070
    77
1070
     1
1070
    78
1070
     8
1070
   140
1040
3.0
1070
   147
1040
1.1999999999999991
1070
   172
1070
     1
1070
   179
1070
     2
1070
   271
1070
     2
1070
   279
1070
     2
1070
   340
1005
BA4
1002
}
  0
INSERT
  5
64A5
  8
0
  2
*U81
 10
0.0
 20
0.0
 30
0.0
1001
ACAD
1000
DSTYLE
1002
{
1070
    40
1040
25.0
1070
    41
1040
2.0
1070
    42
1040
1.0
1070
    43
1040
6.0
1070
    44
1040
1.0
1070
    73
1070
     0
1070
    74
1070
     0
1070
    77
1070
     1
1070
    78
1070
     8
1070
   140
1040
3.0
1070
   147
1040
1.1999999999999991
1070
   172
1070
     1
1070
   179
1070
     2
1070
   271
1070
     2
1070
   279
1070
     2
1070
   340
1005
BA4
1002
}
  0
DIMENSION
  5
7224
  8
SUNPOU
  2
*D14
 10
519.22026852812269
 20
5602.7822562734818
 30
0.0
 11
451.72026852812172
 21
5197.2822562734818
 31
0.0
 70
     0
 13
623.75176148501657
 23
4791.7822562734818
 33
0.0
 14
834.50459157010846
 24
5602.7822562734818
 34
0.0
 50
90.0
1001
ACAD
1000
DSTYLE
1002
{
1070
   287
1070
     5
1070
    40
1040
25.0
1070
    41
1040
2.0
1070
    42
1040
1.0
1070
    43
1040
6.0
1070
    44
1040
1.0
1070
    73
1070
     0
1070
    74
1070
     0
1070
    77
1070
     1
1070
    78
1070
     8
1070
   140
1040
3.0
1070
   147
1040
1.1999999999999991
1070
   172
1070
     1
1070
   179
1070
     2
1070
   271
1070
     2
1070
   279
1070
     2
1070
   340
1005
BA4
1002
}
  0
INSERT
  5
7231
  8
SJC
  2
T-40樹脂キャップ
 10
2834.4570311429461
 20
5591.7822808603833
 30
0.0
  0
INSERT
  5
72EE
  8
SUNPOU
  2
T-40樹脂キャップ-側
 10
5271.4601572621659
 20
5591.7820720671079
 30
0.0
  0
INSERT
  5
72EF
  8
SUNPOU
  2
T-40樹脂キャップ-側
 10
6294.686299928564
 20
5591.7820720671079
 30
0.0
  0
INSERT
  5
72F0
  8
SUNPOU
  2
T-40樹脂キャップ-側
 10
7351.109320112394
 20
5591.7820720671079
 30
0.0
  0
INSERT
  5
72F1
  8
SUNPOU
  2
T-40樹脂キャップ-側
 10
8536.3181751811353
 20
5591.7820720671079
 30
0.0
  0
DIMENSION
  5
72F2
  8
SUNPOU
  2
*D16
 10
5575.3152483060221
 20
5602.7822808602168
 30
0.0
 11
5499.9283173967369
 21
5672.7433141235679
 31
0.0
 70
   128
 13
5296.460157262165
 23
5591.7822808603833
 33
0.0
 14
5271.460157262165
 24
5602.7822808602168
 34
0.0
 50
90.0
1001
ACAD
1000
DSTYLE
1002
{
1070
   287
1070
     5
1070
    40
1040
25.0
1070
    41
1040
2.0
1070
    42
1040
1.0
1070
    43
1040
6.0
1070
    44
1040
1.0
1070
    73
1070
     0
1070
    74
1070
     0
1070
    77
1070
     1
1070
    78
1070
     8
1070
   140
1040
3.0
1070
   147
1040
1.1999999999999991
1070
   172
1070
     1
1070
   179
1070
     2
1070
   271
1070
     2
1070
   279
1070
     2
1070
   340
1005
BA4
1002
}
  0
DIMENSION
  5
730C
  8
SUNPOU
  2
*D17
 10
5743.1008173045548
 20
5602.7822808602168
 30
0.0
 11
5675.6008173045548
 21
5197.2822685668507
 31
0.0
 70
     0
 13
5481.450749562795
 23
4791.7822562734818
 33
0.0
 14
5271.460157262165
 24
5602.7822808602168
 34
0.0
 50
90.0
1001
ACAD
1000
DSTYLE
1002
{
1070
   287
1070
     5
1070
    40
1040
25.0
1070
    41
1040
2.0
1070
    42
1040
1.0
1070
    43
1040
6.0
1070
    44
1040
1.0
1070
    73
1070
     0
1070
    74
1070
     0
1070
    77
1070
     1
1070
    78
1070
     8
1070
   140
1040
3.0
1070
   147
1040
1.1999999999999991
1070
   172
1070
     1
1070
   179
1070
     2
1070
   271
1070
     2
1070
   279
1070
     2
1070
   340
1005
BA4
1002
}
  0
DIMENSION
  5
73D3
  8
SUNPOU
  2
*D20
 10
6608.3308463068934
 20
4791.7822562734818
 30
0.0
 11
6540.8308463068925
 21
5191.7822685669344
 31
0.0
 70
     0
 13
6329.4757552630363
 23
5591.7822808603833
 33
0.0
 14
6514.4663475636662
 24
4791.7822562734818
 34
0.0
 50
90.0
1001
ACAD
1000
DSTYLE
1002
{
1070
   287
1070
     5
1070
    40
1040
25.0
1070
    41
1040
2.0
1070
    42
1040
1.0
1070
    43
1040
6.0
1070
    44
1040
1.0
1070
    73
1070
     0
1070
    74
1070
     0
1070
    77
1070
     1
1070
    78
1070
     8
1070
   140
1040
3.0
1070
   147
1040
1.1999999999999991
1070
   172
1070
     1
1070
   179
1070
     2
1070
   271
1070
     2
1070
   279
1070
     2
1070
   340
1005
BA4
1002
}
  0
DIMENSION
  5
73D4
  8
SUNPOU
  2
*D21
 10
6776.1164153054269
 20
4591.7822518030844
 30
0.0
 11
6703.428430230535
 21
4691.7822540382849
 31
0.0
 70
   128
 13
6514.4663475636662
 23
4791.7822562734818
 33
0.0
 14
6324.9360869816637
 24
4591.7822518030844
 34
0.0
 50
90.0
1001
ACAD
1000
DSTYLE
1002
{
1070
   287
1070
     5
1070
    40
1040
25.0
1070
    41
1040
2.0
1070
    42
1040
1.0
1070
    43
1040
6.0
1070
    44
1040
1.0
1070
    73
1070
     0
1070
    74
1070
     0
1070
    77
1070
     1
1070
    78
1070
     8
1070
   140
1040
3.0
1070
   147
1040
1.1999999999999991
1070
   172
1070
     1
1070
   179
1070
     2
1070
   271
1070
     2
1070
   279
1070
     2
1070
   340
1005
BA4
1002
}
  0
DIMENSION
  5
73D5
  8
SUNPOU
  2
*D22
 10
6934.0517262641079
 20
4591.7822518030844
 30
0.0
 11
6866.5517262641069
 21
5097.282161935098
 31
0.0
 70
     0
 13
6294.686299928564
 23
5602.7820720671089
 33
0.0
 14
6324.9360869816637
 24
4591.7822518030844
 34
0.0
 50
90.0
1001
ACAD
1000
DSTYLE
1002
{
1070
   287
1070
     5
1070
    40
1040
25.0
1070
    41
1040
2.0
1070
    42
1040
1.0
1070
    43
1040
6.0
1070
    44
1040
1.0
1070
    73
1070
     0
1070
    74
1070
     0
1070
    77
1070
     1
1070
    78
1070
     8
1070
   140
1040
3.0
1070
   147
1040
1.1999999999999991
1070
   172
1070
     1
1070
   179
1070
     2
1070
   271
1070
     2
1070
   279
1070
     2
1070
   340
1005
BA4
1002
}
  0
DIMENSION
  5
73D6
  8
SUNPOU
  2
*D18
 10
6608.3308463068934
 20
5602.7820720671089
 30
0.0
 11
6532.9439153976091
 21
5672.7433141235679
 31
0.0
 70
   128
 13
6329.4757552630363
 23
5591.7822808603833
 33
0.0
 14
6294.686299928564
 24
5602.7820720671089
 34
0.0
 50
90.0
1001
ACAD
1000
DSTYLE
1002
{
1070
   287
1070
     5
1070
    40
1040
25.0
1070
    41
1040
2.0
1070
    42
1040
1.0
1070
    43
1040
6.0
1070
    44
1040
1.0
1070
    73
1070
     0
1070
    74
1070
     0
1070
    77
1070
     1
1070
    78
1070
     8
1070
   140
1040
3.0
1070
   147
1040
1.1999999999999991
1070
   172
1070
     1
1070
   179
1070
     2
1070
   271
1070
     2
1070
   279
1070
     2
1070
   340
1005
BA4
1002
}
  0
DIMENSION
  5
73D7
  8
SUNPOU
  2
*D19
 10
6776.1164153054269
 20
5602.7820720671089
 30
0.0
 11
6708.6164153054251
 21
5197.2821641702976
 31
0.0
 70
     0
 13
6514.4663475636662
 23
4791.7822562734818
 33
0.0
 14
6294.686299928564
 24
5602.7820720671089
 34
0.0
 50
90.0
1001
ACAD
1000
DSTYLE
1002
{
1070
   287
1070
     5
1070
    40
1040
25.0
1070
    41
1040
2.0
1070
    42
1040
1.0
1070
    43
1040
6.0
1070
    44
1040
1.0
1070
    73
1070
     0
1070
    74
1070
     0
1070
    77
1070
     1
1070
    78
1070
     8
1070
   140
1040
3.0
1070
   147
1040
1.1999999999999991
1070
   172
1070
     1
1070
   179
1070
     2
1070
   271
1070
     2
1070
   279
1070
     2
1070
   340
1005
BA4
1002
}
  0
DIMENSION
  5
7469
  8
SUNPOU
  2
*D23
 10
7693.7087110688408
 20
4791.7822562734818
 30
0.0
 11
7626.2087110688399
 21
5191.7822685669335
 31
0.0
 70
     0
 13
7351.1093201123958
 23
5591.7822808603833
 33
0.0
 14
7568.1730222117367
 24
4791.7822562734818
 34
0.0
 50
90.0
1001
ACAD
1000
DSTYLE
1002
{
1070
   287
1070
     5
1070
    40
1040
25.0
1070
    41
1040
2.0
1070
    42
1040
1.0
1070
    43
1040
6.0
1070
    44
1040
1.0
1070
    73
1070
     0
1070
    74
1070
     0
1070
    77
1070
     1
1070
    78
1070
     8
1070
   140
1040
3.0
1070
   147
1040
1.1999999999999991
1070
   172
1070
     1
1070
   179
1070
     2
1070
   271
1070
     2
1070
   279
1070
     2
1070
   340
1005
BA4
1002
}
  0
DIMENSION
  5
746A
  8
SUNPOU
  2
*D24
 10
7861.4942800673753
 20
4191.7822562734827
 30
0.0
 11
7793.9942800673734
 21
4491.7822562734827
 31
0.0
 70
     0
  1
1000
 13
7568.1730222117367
 23
4791.7822562734818
 33
0.0
 14
7381.3598701048941
 24
4191.7822562734827
 34
0.0
 50
90.0
1001
ACAD
1000
DSTYLE
1002
{
1070
   287
1070
     5
1070
    40
1040
25.0
1070
    41
1040
2.0
1070
    42
1040
1.0
1070
    43
1040
6.0
1070
    44
1040
1.0
1070
    73
1070
     0
1070
    74
1070
     0
1070
    77
1070
     1
1070
    78
1070
     8
1070
   140
1040
3.0
1070
   147
1040
1.1999999999999991
1070
   172
1070
     1
1070
   179
1070
     2
1070
   271
1070
     2
1070
   279
1070
     2
1070
   340
1005
BA4
1002
}
  0
DIMENSION
  5
746B
  8
SUNPOU
  2
*D25
 10
8019.4295910260553
 20
4191.7822562734827
 30
0.0
 11
7951.9295910260544
 21
4897.2821641702967
 31
0.0
 70
     0
  1
1811
 13
7351.1093201123958
 23
5602.7820720671089
 33
0.0
 14
7381.3598701048941
 24
4191.7822562734827
 34
0.0
 50
90.0
1001
ACAD
1000
DSTYLE
1002
{
1070
   287
1070
     5
1070
    40
1040
25.0
1070
    41
1040
2.0
1070
    42
1040
1.0
1070
    43
1040
6.0
1070
    44
1040
1.0
1070
    73
1070
     0
1070
    74
1070
     0
1070
    77
1070
     1
1070
    78
1070
     8
1070
   140
1040
3.0
1070
   147
1040
1.1999999999999991
1070
   172
1070
     1
1070
   179
1070
     2
1070
   271
1070
     2
1070
   279
1070
     2
1070
   340
1005
BA4
1002
}
  0
DIMENSION
  5
746C
  8
SUNPOU
  2
*D26
 10
7693.7087110688408
 20
5602.7820720671089
 30
0.0
 11
7618.3217801595556
 21
5672.7433141235679
 31
0.0
 70
   128
 13
7351.1093201123958
 23
5591.7822808603833
 33
0.0
 14
7351.1093201123958
 24
5602.7820720671089
 34
0.0
 50
90.0
1001
ACAD
1000
DSTYLE
1002
{
1070
   287
1070
     5
1070
    40
1040
25.0
1070
    41
1040
2.0
1070
    42
1040
1.0
1070
    43
1040
6.0
1070
    44
1040
1.0
1070
    73
1070
     0
1070
    74
1070
     0
1070
    77
1070
     1
1070
    78
1070
     8
1070
   140
1040
3.0
1070
   147
1040
1.1999999999999991
1070
   172
1070
     1
1070
   179
1070
     2
1070
   271
1070
     2
1070
   279
1070
     2
1070
   340
1005
BA4
1002
}
  0
DIMENSION
  5
746D
  8
SUNPOU
  2
*D27
 10
7861.4942800673753
 20
5602.7820720671089
 30
0.0
 11
7793.9942800673734
 21
5197.2821641702967
 31
0.0
 70
     0
 13
7568.1730222117367
 23
4791.7822562734818
 33
0.0
 14
7351.1093201123958
 24
5602.7820720671089
 34
0.0
 50
90.0
1001
ACAD
1000
DSTYLE
1002
{
1070
   287
1070
     5
1070
    40
1040
25.0
1070
    41
1040
2.0
1070
    42
1040
1.0
1070
    43
1040
6.0
1070
    44
1040
1.0
1070
    73
1070
     0
1070
    74
1070
     0
1070
    77
1070
     1
1070
    78
1070
     8
1070
   140
1040
3.0
1070
   147
1040
1.1999999999999991
1070
   172
1070
     1
1070
   179
1070
     2
1070
   271
1070
     2
1070
   279
1070
     2
1070
   340
1005
BA4
1002
}
  0
DIMENSION
  5
7524
  8
SUNPOU
  2
*D28
 10
8933.9821282250778
 20
4791.7822562734818
 30
0.0
 11
8866.4821282250759
 21
5191.7821287936886
 31
0.0
 70
     0
 13
8536.3181751811353
 23
5591.7820013138926
 33
0.0
 14
8706.1755424215371
 24
4791.7822562734818
 34
0.0
 50
90.0
1001
ACAD
1000
DSTYLE
1002
{
1070
   287
1070
     5
1070
    40
1040
25.0
1070
    41
1040
2.0
1070
    42
1040
1.0
1070
    43
1040
6.0
1070
    44
1040
1.0
1070
    73
1070
     0
1070
    74
1070
     0
1070
    77
1070
     1
1070
    78
1070
     8
1070
   140
1040
3.0
1070
   147
1040
1.1999999999999991
1070
   172
1070
     1
1070
   179
1070
     2
1070
   271
1070
     2
1070
   279
1070
     2
1070
   340
1005
BA4
1002
}
  0
DIMENSION
  5
7525
  8
SUNPOU
  2
*D29
 10
8933.9821282250778
 20
5602.7822808602168
 30
0.0
 11
8861.8561883234706
 21
5672.7433141235679
 31
0.0
 70
   128
 13
8536.3181751811353
 23
5591.7820013138926
 33
0.0
 14
8536.3181751811353
 24
5602.7822808602168
 34
0.0
 50
90.0
1001
ACAD
1000
DSTYLE
1002
{
1070
   287
1070
     5
1070
    40
1040
25.0
1070
    41
1040
2.0
1070
    42
1040
1.0
1070
    43
1040
6.0
1070
    44
1040
1.0
1070
    73
1070
     0
1070
    74
1070
     0
1070
    77
1070
     1
1070
    78
1070
     8
1070
   140
1040
3.0
1070
   147
1040
1.1999999999999991
1070
   172
1070
     1
1070
   179
1070
     2
1070
   271
1070
     2
1070
   279
1070
     2
1070
   340
1005
BA4
1002
}
  0
DIMENSION
  5
7526
  8
SUNPOU
  2
*D30
 10
9101.7676972236113
 20
5602.7822808602168
 30
0.0
 11
9034.2676972236095
 21
5197.2822685668507
 31
0.0
 70
     0
 13
8706.1755424215371
 23
4791.7822562734818
 33
0.0
 14
8536.3181751811353
 24
5602.7822808602168
 34
0.0
 50
90.0
1001
ACAD
1000
DSTYLE
1002
{
1070
   287
1070
     5
1070
    40
1040
25.0
1070
    41
1040
2.0
1070
    42
1040
1.0
1070
    43
1040
6.0
1070
    44
1040
1.0
1070
    73
1070
     0
1070
    74
1070
     0
1070
    77
1070
     1
1070
    78
1070
     8
1070
   140
1040
3.0
1070
   147
1040
1.1999999999999991
1070
   172
1070
     1
1070
   179
1070
     2
1070
   271
1070
     2
1070
   279
1070
     2
1070
   340
1005
BA4
1002
}
  0
INSERT
  5
775E
  8
SJC
  2
T-40樹脂キャップ
 10
834.45703114294497
 20
5591.7822808603833
 30
0.0
  0
LINE
  5
77F9
  8
MOJI
 10
1110.657819141361
 20
4637.002337696309
 30
0.0
 11
1636.3248490794319
 21
4637.002337696309
 31
0.0
  0
TEXT
  5
77FA
  8
MOJI
 10
1115.8930900326379
 20
4535.6392598338171
 30
0.0
 40
75.0
  1
%%c60.5×t3.2
 41
0.8
  7
EXT08
  0
TEXT
  5
77FB
  8
MOJI
 10
1263.5397667573809
 20
4665.3050842698731
 30
0.0
 40
75.0
  1
支  柱
 41
0.8
  7
EXT08
  0
INSERT
  5
77FC
  8
0
  2
*U82
 10
0.0
 20
0.0
 30
0.0
1001
ACAD
1000
DSTYLE
1002
{
1070
     5
1000

1070
    40
1040
25.0
1070
    41
1040
2.0
1070
    42
1040
1.0
1070
    43
1040
6.0
1070
    44
1040
1.0
1070
    73
1070
     0
1070
    74
1070
     0
1070
    77
1070
     1
1070
    78
1070
     8
1070
   140
1040
3.0
1070
   144
1040
0.16
1070
   147
1040
1.1999999999999991
1070
   172
1070
     1
1070
   179
1070
     2
1070
   271
1070
     2
1070
   279
1070
     2
1070
   340
1005
BA4
1070
   342
1005
0
1002
}
  0
DIMENSION
  5
7805
  8
SUNPOU
  2
*D31
 10
4491.3139012210386
 20
6071.9962198166841
 30
0.0
 11
3687.885404342192
 21
6139.496219816685
 31
0.0
 70
     0
  1
2000
 13
2834.456907463345
 23
5607.7826474289832
 33
0.0
 14
4491.3139012210386
 24
5647.0217332053244
 34
0.0
1001
ACAD
1000
DSTYLE
1002
{
1070
   287
1070
     5
1070
    76
1070
     1
1070
     7
1000
NONE
1070
   173
1070
     1
1070
     6
1000

1070
    40
1040
25.0
1070
    41
1040
2.0
1070
    42
1040
1.0
1070
    43
1040
6.0
1070
    44
1040
1.0
1070
    73
1070
     0
1070
    74
1070
     0
1070
    77
1070
     1
1070
    78
1070
     8
1070
   140
1040
3.0
1070
   147
1040
1.1999999999999991
1070
   172
1070
     1
1070
   179
1070
     2
1070
   271
1070
     2
1070
   279
1070
     2
1070
   340
1005
BA4
1002
}
  0
INSERT
  5
7874
  8
ZWAKU
  2
CALCOMP_TECHJET720A3
 10
0.0
 20
0.0
 30
0.0
 41
25.0
 42
25.0
 43
25.0
  0
TEXT
  5
7875
  8
INFORMATION
 10
1.0
 20
2.0
 30
0.0
 40
0.8
  1
PLOTTER=CALCOMP_TECHJET720
  0
TEXT
  5
7876
  8
INFORMATION
 10
1.0
 20
3.0
 30
0.0
 40
0.8
  1
PAPER=A3
  0
TEXT
  5
7877
  8
INFORMATION
 10
1.0
 20
1.0
 30
0.0
 40
0.8
  1
VERSION=3.0
  0
INSERT
  5
78B3
  8
SJC
  2
部材表-樹脂キャップT-40PL
 10
6879.3377774816436
 20
1146.5703319577251
 30
0.0
  0
INSERT
  5
7900
  8
SJC
  2
BPL-横25
 10
8233.19877616554
 20
3002.0287516188928
 30
0.0
  0
INSERT
  5
7B21
  8
HATCH
  6
CONTINUOUS
  2
*X83
 10
0.0
 20
0.0
 30
0.0
1001
ACAD
1000
HATCH
1002
{
1070
    19
1000
PLAST
1040
500.0
1040
0.7853981633974483
1000
ASC_BOUNDS
1070
     2
1070
     1
1070
     4
1005
6AB
1005
6AA
1005
6A8
1005
6A0
1070
     1
1070
     4
1005
6A9
1005
6AA
1005
6AC
1005
69F
1000
ASC_SEEDPOINT
1011
5359.8751200345469
1021
0.0
1031
0.0
1021
4586.2855857794184
1031
0.0
1000
R14_HATCH_DATA
1000
7B21
1011
1.0
1021
0.0
1031
0.0
1021
0.0
1031
0.0
1011
0.0
1021
0.0
1031
0.0
1021
1.0
1031
0.0
1011
0.0
1021
0.0
1031
0.0
1021
0.0
1031
1.0
1040
0.0
1010
0.0
1020
0.0
1030
1.0
1000
PLAST
1070
     0
1070
     1
1071
        2
1071
        7
1070
     0
1070
     1
1071
        4
1040
5421.4601606149636
1040
4791.7822562734818
1040
5301.7099443152638
1040
4791.7822562734818
1040
5301.7099443152638
1040
4391.7822462151826
1040
5421.4601606149636
1040
4391.7822462151826
1071
        4
1005
69F
1005
6AC
1005
6AA
1005
6A9
1071
        7
1070
     0
1070
     1
1071
        4
1040
5241.2103702091672
1040
4791.7822562734818
1040
5121.4601539094638
1040
4791.7822562734818
1040
5121.4601539094638
1040
4391.7822462151826
1040
5241.2103702091654
1040
4391.7822462151853
1071
        4
1005
6A0
1005
6A8
1005
6AA
1005
6AB
1070
     0
1070
     1
1040
0.7853981633974483
1040
500.0
1070
     0
1070
     3
1040
0.7853981633974483
1040
0.0
1040
0.0
1040
-88.388347648318415
1040
88.388347648318444
1070
     0
1040
0.7853981633974483
1040
-11.0485434560398
1040
11.0485434560398
1040
-88.388347648318415
1040
88.388347648318444
1070
     0
1040
0.7853981633974483
1040
-22.097086912079611
1040
22.097086912079611
1040
-88.388347648318415
1040
88.388347648318444
1070
     0
1040
4.6598207086913961
1071
        2
1040
5359.8751200345469
1040
4586.2855857794184
1040
0.0
1040
5173.3832541715092
1040
4646.8632485822773
1040
0.0
1002
}
  0
INSERT
  5
7B42
  8
HATCH
  6
CONTINUOUS
  2
*X84
 10
0.0
 20
0.0
 30
0.0
1001
ACAD
1000
HATCH
1002
{
1070
    19
1000
AR-CONC
1040
10.0
1040
0.0
1000
R14_HATCH_DATA
1000
7B42
1011
1.0
1021
0.0
1031
0.0
1021
0.0
1031
0.0
1011
0.0
1021
0.0
1031
0.0
1021
1.0
1031
0.0
1011
0.0
1021
0.0
1031
0.0
1021
0.0
1031
1.0
1040
0.0
1010
0.0
1020
0.0
1030
1.0
1000
AR-CONC
1070
     0
1070
     0
1071
        2
1071
        7
1070
     0
1070
     1
1071
        3
1040
6458.7655065000854
1040
4791.7822562734809
1040
6324.9360869816646
1040
4791.7822562734818
1040
6324.9360869816637
1040
4591.7822518030844
1071
        0
1071
        7
1070
     0
1070
     1
1071
        3
1040
6264.4365128754634
1040
4791.7822562734818
1040
6130.6070933570409
1040
4791.7822562734818
1040
6264.4365128754644
1040
4591.7822518030807
1071
        0
1070
     0
1070
     1
1040
0.0
1040
10.0
1070
     0
1070
    13
1040
0.8726646259971648
1040
0.0
1040
0.0
1040
71.72601826007535
1040
-6.27521349825951
1070
     2
1040
7.5
1040
-82.5
1040
6.195918844579869
1040
0.0
1040
0.0
1040
-13.8751333613
1040
75.219213370001185
1070
     2
1040
6.0
1040
-66.0
1040
1.753207668237831
1040
5.9771679999999998
1040
-0.5229340000000001
1040
57.850938171402149
1040
68.943954206095356
1070
     2
1040
6.3740189999999997
1040
-70.1142112
1040
0.8060663523995651
1040
0.0
1040
20.0
1040
106.7241048625644
1040
-16.551901432901801
1070
     2
1040
11.25
1040
-123.75
1040
1.6866093946402321
1040
8.8936744999999995
1040
18.620669299999999
1040
93.466270554870334
1040
97.411787090044172
1070
     2
1040
9.5610287999999972
1040
-105.1713
1040
6.1293205709822702
1040
0.0
1040
20.0
1040
93.466194513362709
1040
97.411860092532464
1070
     2
1040
9.0
1040
-99.0
1040
0.3665191429188092
1040
10.0
1040
15.0
1040
59.690705211846158
1040
-40.261889066533882
1070
     2
1040
7.5
1040
-82.5
1040
5.6897733615015138
1040
10.0
1040
15.0
1040
24.331533192158169
1040
72.515004504685294
1070
     2
1040
6.0
1040
-66.0
1040
1.2470621851594761
1040
14.9742233
1040
11.6448394
1040
84.022262858148991
1040
32.253049670995239
1070
     2
1040
6.3740189999999997
1040
-70.1142112
1040
0.6544984694978737
1040
0.0
1040
0.0
1040
1.215985531729066
1040
33.289385383131147
1070
     6
1040
0.0
1040
-65.199999999999989
1040
0.0
1040
-67.0
1040
0.0
1040
-66.25
1040
0.1308996938995747
1040
0.0
1040
0.0
1040
26.306953744214859
1040
39.441171188236027
1070
     6
1040
0.0
1040
-38.200000000000003
1040
0.0
1040
-63.700000000000003
1040
0.0
1040
-25.25
1040
5.715953300281428
1040
-22.300000000000001
1040
0.0
1040
53.382243617240903
1040
-2.2554871734379791
1070
     6
1040
0.0
1040
-25.0
1040
0.0
1040
-78.0
1040
0.0
1040
-103.5
1040
5.5414203750819961
1040
-32.299999999999997
1040
0.0
1040
58.318616934238619
1040
10.010498233231759
1070
     6
1040
0.0
1040
-32.5
1040
0.0
1040
-51.79999999999999
1040
0.0
1040
-73.5
1040
1.60826651672257
1071
        2
1040
6354.6861895377506
1040
4705.6697093443672
1040
0.0
1040
6216.3017573256147
1040
4724.9689198605647
1040
0.0
1002
}
  0
LINE
  5
7B71
  8
MOJI2
 10
4204.8570393741302
 20
3147.2630635409578
 30
0.0
 11
4539.4059770053209
 21
3147.2630635409578
 31
0.0
  0
LINE
  5
7B72
  8
MOJI2
 10
5397.023244686241
 20
3145.313965330286
 30
0.0
 11
5745.1836622450492
 21
3145.313965330286
 31
0.0
  0
LINE
  5
7B73
  8
MOJI2
 10
4643.1660162797962
 20
3392.7178572352591
 30
0.0
 11
5229.8020926288873
 21
3392.7178572352591
 31
0.0
  0
TEXT
  5
7B74
  8
MOJI2
 10
4223.7825158713322
 20
3177.73334010086
 30
0.0
 40
75.0
  1
A-A断面
 41
0.8
  7
EXT08
  0
TEXT
  5
7B75
  8
MOJI2
 10
5399.8793085928392
 20
3170.0083057681941
 30
0.0
 40
75.0
  1
B-B断面
 41
0.8
  7
EXT08
  0
TEXT
  5
7B76
  8
MOJI2
 10
4660.9363233722725
 20
3418.7020497106591
 30
0.0
 40
100.0
  1
取付部詳細図 (1/5)
 41
0.8
  7
EXT08
  0
LINE
  5
7B77
  8
MOJI2
 10
4643.1660162797962
 20
3367.7178572352591
 30
0.0
 11
5229.8020926288873
 21
3367.7178572352591
 31
0.0
  0
DIMENSION
  5
7B78
  8
SUNPOU
  2
*D35
 10
6148.7431637990412
 20
1060.9734743669189
 30
0.0
 11
6081.2431637990412
 21
1250.4665222340479
 31
0.0
 70
     0
  1
300
 13
5483.1921202881585
 23
1489.9595701011749
 33
0.0
 14
5653.191576044127
 24
1060.9734743669189
 34
0.0
 50
90.0
1001
ACAD
1000
DSTYLE
1002
{
1070
   287
1070
     5
1070
   287
1070
     5
1070
   287
1070
     5
1070
    40
1040
25.0
1070
    41
1040
2.0
1070
    42
1040
1.0
1070
    43
1040
6.0
1070
    44
1040
1.0
1070
    73
1070
     0
1070
    74
1070
     0
1070
    76
1070
     1
1070
    77
1070
     1
1070
    78
1070
     8
1070
   140
1040
3.0
1070
   147
1040
1.1999999999999991
1070
   172
1070
     1
1070
   173
1070
     1
1070
   271
1070
     2
1070
   279
1070
     2
1070
   287
1070
     5
1070
   340
1005
BA4
1070
     6
1000

1070
     7
1000
NONE
1002
}
  0
INSERT
  5
7B79
  8
SUNPOU
  2
樹脂キャップ-T40取付詳細図
 10
4360.0415428508377
 20
1489.9595701011749
 30
0.0
  0
LINE
  5
82B5
  8
SJC
 10
1083.6070912412449
 20
5549.0828475328826
 30
0.0
 11
1083.6070912412449
 21
4984.4824558931823
 31
0.0
  0
LINE
  5
82B6
  8
SJC
 10
1105.306997121744
 20
5549.0828475328826
 30
0.0
 11
1105.306997121744
 21
4984.4824558931823
 31
0.0
  0
LINE
  5
82B7
  8
SJC
 10
2563.6065600148449
 20
5549.0828475328826
 30
0.0
 11
2563.6065600148449
 21
4984.4824558931823
 31
0.0
  0
LINE
  5
82B8
  8
SJC
 10
2585.3060844256452
 20
5549.0828475328826
 30
0.0
 11
2585.3060844256452
 21
4984.4824558931823
 31
0.0
  0
DIMENSION
  5
82B9
  8
SUNPOU
  2
*D37
 10
2574.4563222202451
 20
5901.5250246000833
 30
0.0
 11
1834.456683200845
 21
5969.0250246000824
 31
0.0
 70
     0
  1
10@148=<>
 13
1094.4570441814451
 23
5591.7822808603823
 33
0.0
 14
2574.4563222202451
 24
5591.7822808603823
 34
0.0
1001
ACAD
1000
DSTYLE
1002
{
1070
   287
1070
     5
1070
    40
1040
25.0
1070
    41
1040
2.0
1070
    42
1040
1.0
1070
    43
1040
6.0
1070
    44
1040
1.0
1070
    73
1070
     0
1070
    74
1070
     0
1070
    77
1070
     1
1070
    78
1070
     8
1070
   140
1040
3.0
1070
   147
1040
1.1999999999999991
1070
   172
1070
     1
1070
   176
1070
   256
1070
   177
1070
   256
1070
   178
1070
   256
1070
   271
1070
     2
1070
   279
1070
     2
1070
   287
1070
     5
1070
   340
1005
BA4
1002
}
  0
LINE
  5
82BA
  8
SJC
 10
1253.306997121744
 20
5549.0828475328826
 30
0.0
 11
1253.306997121744
 21
4984.4824558931823
 31
0.0
  0
LINE
  5
82BB
  8
SJC
 10
1231.6070912412449
 20
5549.0828475328826
 30
0.0
 11
1231.6070912412449
 21
4984.4824558931823
 31
0.0
  0
LINE
  5
82BC
  8
SJC
 10
1401.3069971217451
 20
5549.0828475328826
 30
0.0
 11
1401.3069971217451
 21
4984.4824558931823
 31
0.0
  0
LINE
  5
82BD
  8
SJC
 10
1379.6070912412449
 20
5549.0828475328826
 30
0.0
 11
1379.6070912412449
 21
4984.4824558931823
 31
0.0
  0
LINE
  5
82BE
  8
SJC
 10
1549.306997121744
 20
5549.0828475328826
 30
0.0
 11
1549.306997121744
 21
4984.4824558931823
 31
0.0
  0
LINE
  5
82BF
  8
SJC
 10
1527.6070912412449
 20
5549.0828475328826
 30
0.0
 11
1527.6070912412449
 21
4984.4824558931823
 31
0.0
  0
LINE
  5
82C0
  8
SJC
 10
1697.3069971217451
 20
5549.0828475328826
 30
0.0
 11
1697.3069971217451
 21
4984.4824558931823
 31
0.0
  0
LINE
  5
82C1
  8
SJC
 10
1675.6070912412449
 20
5549.0828475328826
 30
0.0
 11
1675.6070912412449
 21
4984.4824558931823
 31
0.0
  0
LINE
  5
82C2
  8
SJC
 10
1845.306997121744
 20
5549.0828475328826
 30
0.0
 11
1845.306997121744
 21
4984.4824558931823
 31
0.0
  0
LINE
  5
82C3
  8
SJC
 10
1823.6070912412449
 20
5549.0828475328826
 30
0.0
 11
1823.6070912412449
 21
4984.4824558931823
 31
0.0
  0
LINE
  5
82C4
  8
SJC
 10
1993.306997121744
 20
5549.0828475328826
 30
0.0
 11
1993.306997121744
 21
4984.4824558931823
 31
0.0
  0
LINE
  5
82C5
  8
SJC
 10
1971.6070912412449
 20
5549.0828475328826
 30
0.0
 11
1971.6070912412449
 21
4984.4824558931823
 31
0.0
  0
LINE
  5
82C6
  8
SJC
 10
2141.3069971217451
 20
5549.0828475328826
 30
0.0
 11
2141.3069971217451
 21
4984.4824558931823
 31
0.0
  0
LINE
  5
82C7
  8
SJC
 10
2119.6070912412451
 20
5549.0828475328826
 30
0.0
 11
2119.6070912412451
 21
4984.4824558931823
 31
0.0
  0
LINE
  5
82C8
  8
SJC
 10
2289.3069971217451
 20
5549.0828475328826
 30
0.0
 11
2289.3069971217451
 21
4984.4824558931823
 31
0.0
  0
LINE
  5
82C9
  8
SJC
 10
2267.6070912412451
 20
5549.0828475328826
 30
0.0
 11
2267.6070912412451
 21
4984.4824558931823
 31
0.0
  0
LINE
  5
82CA
  8
SJC
 10
2437.3069971217451
 20
5549.0828475328826
 30
0.0
 11
2437.3069971217451
 21
4984.4824558931823
 31
0.0
  0
LINE
  5
82CB
  8
SJC
 10
2415.6070912412451
 20
5549.0828475328826
 30
0.0
 11
2415.6070912412451
 21
4984.4824558931823
 31
0.0
  0
LINE
  5
82CC
  8
SJC
 10
4141.306723685444
 20
5549.0828475328826
 30
0.0
 11
4141.306723685444
 21
4984.4824558931823
 31
0.0
  0
LINE
  5
82CD
  8
SJC
 10
4289.306723685444
 20
5549.0828475328826
 30
0.0
 11
4289.306723685444
 21
4984.4824558931823
 31
0.0
  0
LINE
  5
82CE
  8
SJC
 10
4267.6068178049454
 20
5549.0828475328826
 30
0.0
 11
4267.6068178049454
 21
4984.4824558931823
 31
0.0
  0
LINE
  5
82CF
  8
SJC
 10
4437.306723685444
 20
5549.0828475328826
 30
0.0
 11
4437.306723685444
 21
4984.4824558931823
 31
0.0
  0
LINE
  5
82D0
  8
SJC
 10
4415.6068178049454
 20
5549.0828475328826
 30
0.0
 11
4415.6068178049454
 21
4984.4824558931823
 31
0.0
  0
LINE
  5
82D1
  8
SJC
 10
3401.306723685444
 20
5549.0828475328826
 30
0.0
 11
3401.306723685444
 21
4984.4824558931823
 31
0.0
  0
LINE
  5
82D2
  8
SJC
 10
3379.6068178049441
 20
5549.0828475328826
 30
0.0
 11
3379.6068178049441
 21
4984.4824558931823
 31
0.0
  0
LINE
  5
82D3
  8
SJC
 10
3549.306723685444
 20
5549.0828475328826
 30
0.0
 11
3549.306723685444
 21
4984.4824558931823
 31
0.0
  0
LINE
  5
82D4
  8
SJC
 10
3527.606817804945
 20
5549.0828475328826
 30
0.0
 11
3527.606817804945
 21
4984.4824558931823
 31
0.0
  0
LINE
  5
82D5
  8
SJC
 10
3697.306723685444
 20
5549.0828475328826
 30
0.0
 11
3697.306723685444
 21
4984.4824558931823
 31
0.0
  0
LINE
  5
82D6
  8
SJC
 10
3675.606817804945
 20
5549.0828475328826
 30
0.0
 11
3675.606817804945
 21
4984.4824558931823
 31
0.0
  0
LINE
  5
82D7
  8
SJC
 10
3845.3067236854449
 20
5549.0828475328826
 30
0.0
 11
3845.3067236854449
 21
4984.4824558931823
 31
0.0
  0
LINE
  5
82D8
  8
SJC
 10
3823.606817804945
 20
5549.0828475328826
 30
0.0
 11
3823.606817804945
 21
4984.4824558931823
 31
0.0
  0
LINE
  5
82D9
  8
SJC
 10
3993.306723685444
 20
5549.0828475328826
 30
0.0
 11
3993.306723685444
 21
4984.4824558931823
 31
0.0
  0
LINE
  5
82DA
  8
SJC
 10
3971.606817804945
 20
5549.0828475328826
 30
0.0
 11
3971.606817804945
 21
4984.4824558931823
 31
0.0
  0
LINE
  5
82DB
  8
SJC
 10
4119.6068178049436
 20
5549.0828475328826
 30
0.0
 11
4119.6068178049436
 21
4984.4824558931823
 31
0.0
  0
LINE
  5
82DC
  8
SJC
 10
3083.607730501044
 20
5549.0828475328826
 30
0.0
 11
3083.607730501044
 21
4984.4824558931823
 31
0.0
  0
LINE
  5
82DD
  8
SJC
 10
3253.306723685444
 20
5549.0828475328826
 30
0.0
 11
3253.306723685444
 21
4984.4824558931823
 31
0.0
  0
LINE
  5
82DE
  8
SJC
 10
3231.606817804945
 20
5549.0828475328826
 30
0.0
 11
3231.606817804945
 21
4984.4824558931823
 31
0.0
  0
LINE
  5
82DF
  8
SJC
 10
3105.3072549118442
 20
5549.0828475328826
 30
0.0
 11
3105.3072549118442
 21
4984.4824558931823
 31
0.0
  0
DIMENSION
  5
82E0
  8
SUNPOU
  2
*D38
 10
1094.4570441814451
 20
5901.5250246000833
 30
0.0
 11
1090.671952350169
 21
5969.0250246000824
 31
0.0
 70
   128
 13
939.45714793084505
 23
5591.7822808603823
 33
0.0
 14
1094.4570441814451
 24
5591.7822808603823
 34
0.0
1001
ACAD
1000
DSTYLE
1002
{
1070
   287
1070
     5
1070
    40
1040
25.0
1070
    41
1040
2.0
1070
    42
1040
1.0
1070
    43
1040
6.0
1070
    44
1040
1.0
1070
    73
1070
     0
1070
    74
1070
     0
1070
    77
1070
     1
1070
    78
1070
     8
1070
   140
1040
3.0
1070
   147
1040
1.1999999999999991
1070
   172
1070
     1
1070
   173
1070
     1
1070
   271
1070
     2
1070
   279
1070
     2
1070
   340
1005
BA4
1070
     6
1000
DOTSMALL
1070
     7
1000

1002
}
  0
DIMENSION
  5
82E1
  8
SUNPOU
  2
*D39
 10
894.45707063104408
 20
5901.5250246000833
 30
0.0
 11
924.01400148855009
 21
5969.0250246000824
 31
0.0
 70
   128
  1
(<>)
 13
939.45714793084505
 23
5591.7822808603823
 33
0.0
 14
894.45707063104408
 24
5591.7822808603823
 34
0.0
1001
ACAD
1000
DSTYLE
1002
{
1070
   287
1070
     5
1070
    40
1040
25.0
1070
    41
1040
2.0
1070
    42
1040
1.0
1070
    43
1040
6.0
1070
    44
1040
1.0
1070
    73
1070
     0
1070
    74
1070
     0
1070
    77
1070
     1
1070
    78
1070
     8
1070
   140
1040
3.0
1070
   147
1040
1.1999999999999991
1070
   172
1070
     1
1070
   173
1070
     1
1070
   271
1070
     2
1070
   279
1070
     2
1070
   340
1005
BA4
1070
     6
1000
DOTSMALL
1070
     7
1000

1002
}
  0
DIMENSION
  5
82E2
  8
SUNPOU
  2
*D40
 10
2574.4568944248449
 20
5901.5250246000833
 30
0.0
 11
2578.241986256121
 21
5969.0250246000824
 31
0.0
 70
   128
 13
2729.4567906754451
 23
5591.7822808603823
 33
0.0
 14
2574.4568944248449
 24
5591.7822808603823
 34
0.0
 50
180.0
1001
ACAD
1000
DSTYLE
1002
{
1070
   287
1070
     5
1070
    40
1040
25.0
1070
    41
1040
2.0
1070
    42
1040
1.0
1070
    43
1040
6.0
1070
    44
1040
1.0
1070
    73
1070
     0
1070
    74
1070
     0
1070
    77
1070
     1
1070
    78
1070
     8
1070
   140
1040
3.0
1070
   147
1040
1.1999999999999991
1070
   172
1070
     1
1070
   173
1070
     1
1070
   271
1070
     2
1070
   279
1070
     2
1070
   340
1005
BA4
1070
     6
1000
DOTSMALL
1070
     7
1000

1002
}
  0
DIMENSION
  5
82E3
  8
SUNPOU
  2
*D41
 10
2774.456867975246
 20
5901.5250246000833
 30
0.0
 11
2744.8999371177401
 21
5969.0250246000824
 31
0.0
 70
   128
  1
(<>)
 13
2729.4567906754451
 23
5591.7822808603823
 33
0.0
 14
2774.456867975246
 24
5591.7822808603823
 34
0.0
 50
180.0
1001
ACAD
1000
DSTYLE
1002
{
1070
   287
1070
     5
1070
    40
1040
25.0
1070
    41
1040
2.0
1070
    42
1040
1.0
1070
    43
1040
6.0
1070
    44
1040
1.0
1070
    73
1070
     0
1070
    74
1070
     0
1070
    77
1070
     1
1070
    78
1070
     8
1070
   140
1040
3.0
1070
   147
1040
1.1999999999999991
1070
   172
1070
     1
1070
   173
1070
     1
1070
   271
1070
     2
1070
   279
1070
     2
1070
   340
1005
BA4
1070
     6
1000
DOTSMALL
1070
     7
1000

1002
}
  0
INSERT
  5
8355
  8
0
  2
*U85
 10
0.0
 20
0.0
 30
0.0
1001
ACAD
1000
DSTYLE
1002
{
1070
     5
1000

1070
    40
1040
25.0
1070
    41
1040
2.0
1070
    42
1040
1.0
1070
    43
1040
6.0
1070
    44
1040
1.0
1070
    73
1070
     0
1070
    74
1070
     0
1070
    77
1070
     1
1070
    78
1070
     8
1070
   140
1040
3.0
1070
   144
1040
0.16
1070
   147
1040
1.1999999999999991
1070
   172
1070
     1
1070
   179
1070
     2
1070
   271
1070
     2
1070
   279
1070
     2
1070
   340
1005
BA4
1070
   342
1005
0
1002
}
  0
INSERT
  5
8665
  8
SJC
  2
樹脂キャップ-T-4081支柱図2000
 10
1348.5102140068791
 20
1006.4966427387239
 30
0.0
  0
ENDSEC
  0
EOF
