  0
SECTION
  2
HEADER
  9
$ACADVER
  1
AC1009
  9
$INSBASE
 10
0.0
 20
0.0
 30
0.0
  9
$EXTMIN
 10
0.0
 20
0.0
 30
0.0
  9
$EXTMAX
 10
9250.0
 20
6675.0
 30
0.0
  9
$LIMMIN
 10
0.0
 20
0.0
  9
$LIMMAX
 10
10500.0
 20
7425.0
  9
$ORTHOMODE
 70
     0
  9
$REGENMODE
 70
     1
  9
$FILLMODE
 70
     1
  9
$QTEXTMODE
 70
     0
  9
$MIRRTEXT
 70
     0
  9
$DRAGMODE
 70
     2
  9
$LTSCALE
 40
250.0
  9
$OSMODE
 70
    37
  9
$ATTMODE
 70
     1
  9
$TEXTSIZE
 40
75.0
  9
$TRACEWID
 40
0.05
  9
$TEXTSTYLE
  7
EXT08
  9
$CLAYER
  8
0
  9
$CELTYPE
  6
BYLAYER
  9
$CECOLOR
 62
   256
  9
$DIMSCALE
 40
25.0
  9
$DIMASZ
 40
2.0
  9
$DIMEXO
 40
1.0
  9
$DIMDLI
 40
6.0
  9
$DIMRND
 40
0.0
  9
$DIMDLE
 40
0.0
  9
$DIMEXE
 40
1.0
  9
$DIMTP
 40
0.0
  9
$DIMTM
 40
0.0
  9
$DIMTXT
 40
3.0
  9
$DIMCEN
 40
0.09
  9
$DIMTSZ
 40
0.0
  9
$DIMTOL
 70
     0
  9
$DIMLIM
 70
     0
  9
$DIMTIH
 70
     0
  9
$DIMTOH
 70
     0
  9
$DIMSE1
 70
     0
  9
$DIMSE2
 70
     0
  9
$DIMTAD
 70
     1
  9
$DIMZIN
 70
     8
  9
$DIMBLK
  1

  9
$DIMASO
 70
     1
  9
$DIMSHO
 70
     1
  9
$DIMPOST
  1

  9
$DIMAPOST
  1

  9
$DIMALT
 70
     0
  9
$DIMALTD
 70
     2
  9
$DIMALTF
 40
25.399999999999999
  9
$DIMLFAC
 40
1.0
  9
$DIMTOFL
 70
     1
  9
$DIMTVP
 40
0.0
  9
$DIMTIX
 70
     0
  9
$DIMSOXD
 70
     0
  9
$DIMSAH
 70
     0
  9
$DIMBLK1
  1

  9
$DIMBLK2
  1

  9
$DIMSTYLE
  2
SJC
  9
$DIMCLRD
 70
     0
  9
$DIMCLRE
 70
     0
  9
$DIMCLRT
 70
     0
  9
$DIMTFAC
 40
1.0
  9
$DIMGAP
 40
1.1999999999999991
  9
$LUNITS
 70
     2
  9
$LUPREC
 70
     2
  9
$SKETCHINC
 40
0.1
  9
$FILLETRAD
 40
0.0
  9
$AUNITS
 70
     1
  9
$AUPREC
 70
     2
  9
$MENU
  1
C:\r13\win\SUPPORT\sjc
  9
$ELEVATION
 40
0.0
  9
$PELEVATION
 40
0.0
  9
$THICKNESS
 40
0.0
  9
$LIMCHECK
 70
     0
  9
$BLIPMODE
 70
     0
  9
$CHAMFERA
 40
0.0
  9
$CHAMFERB
 40
0.0
  9
$SKPOLY
 70
     0
  9
$TDCREATE
 40
2450402.6878725002
  9
$TDUPDATE
 40
2456429.4823601972
  9
$TDINDWG
 40
0.2055124537
  9
$TDUSRTIMER
 40
0.2055124537
  9
$USRTIMER
 70
     1
  9
$ANGBASE
 50
0.0
  9
$ANGDIR
 70
     0
  9
$PDMODE
 70
    33
  9
$PDSIZE
 40
5.0
  9
$PLINEWID
 40
0.0
  9
$COORDS
 70
     1
  9
$SPLFRAME
 70
     0
  9
$SPLINETYPE
 70
     6
  9
$SPLINESEGS
 70
     8
  9
$ATTDIA
 70
     0
  9
$ATTREQ
 70
     1
  9
$HANDLING
 70
     1
  9
$HANDSEED
  5
C70E
  9
$SURFTAB1
 70
     6
  9
$SURFTAB2
 70
     6
  9
$SURFTYPE
 70
     6
  9
$SURFU
 70
     6
  9
$SURFV
 70
     6
  9
$UCSNAME
  2

  9
$UCSORG
 10
0.0
 20
0.0
 30
0.0
  9
$UCSXDIR
 10
1.0
 20
0.0
 30
0.0
  9
$UCSYDIR
 10
0.0
 20
1.0
 30
0.0
  9
$PUCSNAME
  2

  9
$PUCSORG
 10
0.0
 20
0.0
 30
0.0
  9
$PUCSXDIR
 10
1.0
 20
0.0
 30
0.0
  9
$PUCSYDIR
 10
0.0
 20
1.0
 30
0.0
  9
$USERI1
 70
     3
  9
$USERI2
 70
    25
  9
$USERI3
 70
     0
  9
$USERI4
 70
     0
  9
$USERI5
 70
     0
  9
$USERR1
 40
0.0
  9
$USERR2
 40
0.0
  9
$USERR3
 40
0.0
  9
$USERR4
 40
0.0
  9
$USERR5
 40
0.0
  9
$WORLDVIEW
 70
     1
  9
$SHADEDGE
 70
     3
  9
$SHADEDIF
 70
    70
  9
$TILEMODE
 70
     1
  9
$MAXACTVP
 70
    16
  9
$PLIMCHECK
 70
     0
  9
$PEXTMIN
 10
1.0000000000000000E+020
 20
1.0000000000000000E+020
 30
1.0000000000000000E+020
  9
$PEXTMAX
 10
-1.0000000000000000E+020
 20
-1.0000000000000000E+020
 30
-1.0000000000000000E+020
  9
$PLIMMIN
 10
0.0
 20
0.0
  9
$PLIMMAX
 10
12.0
 20
9.0
  9
$UNITMODE
 70
     0
  9
$VISRETAIN
 70
     0
  9
$PLINEGEN
 70
     0
  9
$PSLTSCALE
 70
     1
  0
ENDSEC
  0
SECTION
  2
TABLES
  0
TABLE
  2
VPORT
 70
     2
  0
VPORT
  2
*ACTIVE
 70
     0
 10
0.0
 20
0.0
 11
1.0
 21
1.0
 12
6453.0340544149376
 22
3712.21680195005
 13
0.0
 23
0.0
 14
10.0
 24
10.0
 15
0.0
 25
0.0
 16
0.0
 26
0.0
 36
1.0
 17
0.0
 27
0.0
 37
0.0
 40
7490.0430941847053
 41
1.9010526315789471
 42
50.0
 43
0.0
 44
0.0
 50
0.0
 51
0.0
 71
     0
 72
   100
 73
     1
 74
     1
 75
     0
 76
     0
 77
     0
 78
     0
  0
ENDTAB
  0
TABLE
  2
LTYPE
 70
     4
  0
LTYPE
  2
CONTINUOUS
 70
     0
  3
Solid line
 72
    65
 73
     0
 40
0.0
  0
LTYPE
  2
CENTER
 70
     0
  3
____ _ ____ _ ____ _ ____ _ ____ _ ____ _ ____ 
 72
    65
 73
     4
 40
2.0
 49
1.25
 49
-0.25
 49
0.25
 49
-0.25
  0
LTYPE
  2
HIDDEN
 70
     0
  3
__ __ __ __ __ __ __ __ __ __ __ __ __ __ __ __
 72
    65
 73
     2
 40
0.375
 49
0.25
 49
-0.125
  0
LTYPE
  2
PHANTOM
 70
     0
  3
Phantom ______  __  __  ______  __  __  ______
 72
    65
 73
     6
 40
2.5
 49
1.25
 49
-0.25
 49
0.25
 49
-0.25
 49
0.25
 49
-0.25
  0
ENDTAB
  0
TABLE
  2
LAYER
 70
    16
  0
LAYER
  2
0
 70
     0
 62
     7
  6
CONTINUOUS
  0
LAYER
  2
CENTER
 70
     0
 62
     3
  6
CENTER
  0
LAYER
  2
HASEN
 70
     0
 62
     7
  6
HIDDEN
  0
LAYER
  2
MOJI
 70
     0
 62
     6
  6
CONTINUOUS
  0
LAYER
  2
SJC
 70
     0
 62
     1
  6
CONTINUOUS
  0
LAYER
  2
SUNPOU
 70
     0
 62
     4
  6
CONTINUOUS
  0
LAYER
  2
ZWAKU
 70
     1
 62
     7
  6
CONTINUOUS
  0
LAYER
  2
DEFPOINTS
 70
     0
 62
     7
  6
CONTINUOUS
  0
LAYER
  2
INFORMATION
 70
     1
 62
     7
  6
CONTINUOUS
  0
LAYER
  2
SJC2
 70
     0
 62
     7
  6
CONTINUOUS
  0
LAYER
  2
MOJI2
 70
     0
 62
     1
  6
CONTINUOUS
  0
LAYER
  2
HATCH
 70
     0
 62
     2
  6
CONTINUOUS
  0
LAYER
  2
KASOU
 70
     0
 62
     2
  6
PHANTOM
  0
LAYER
  2
WAKU
 70
     0
 62
    -5
  6
CONTINUOUS
  0
LAYER
  2
HOJO
 70
     0
 62
     8
  6
CONTINUOUS
  0
LAYER
  2
太線
 70
     0
 62
     7
  6
CONTINUOUS
  0
ENDTAB
  0
TABLE
  2
STYLE
 70
     8
  0
STYLE
  2
STANDARD
 70
     0
 40
0.0
 41
1.0
 50
0.0
 71
     0
 42
3.0
  3
ROMANS.SHX
  4
BIGFONT.SHX
  0
STYLE
  2
EXT08
 70
     0
 40
0.0
 41
0.8
 50
0.0
 71
     0
 42
75.0
  3
ROMANS
  4
EXTFONT
  0
STYLE
  2
SIMPLEX
 70
     0
 40
0.0
 41
1.0
 50
0.0
 71
     0
 42
0.0
  3
SCRIPTS.shx
  4

  0
STYLE
  2
TATEEXT
 70
     4
 40
0.0
 41
1.0
 50
0.0
 71
     0
 42
0.0
  3
ROMANS.shx
  4
EXTFONT.shx
  0
STYLE
  2
TATEBIG
 70
     4
 40
0.0
 41
1.0
 50
0.0
 71
     0
 42
0.0
  3
ROMANS.shx
  4
BIGFONT.shx
  0
STYLE
  2
EXT
 70
     0
 40
0.0
 41
1.0
 50
0.0
 71
     0
 42
0.0
  3
ROMANS.shx
  4
EXTFONT.shx
  0
STYLE
  2
KANJI08
 70
     0
 40
0.0
 41
0.8
 50
0.0
 71
     0
 42
0.0
  3
ROMANS.shx
  4
BIGFONT.shx
  0
STYLE
  2
KANJI
 70
     0
 40
0.0
 41
1.0
 50
0.0
 71
     0
 42
0.0
  3
ROMANS.shx
  4
BIGFONT.shx
  0
ENDTAB
  0
TABLE
  2
VIEW
 70
     0
  0
ENDTAB
  0
TABLE
  2
UCS
 70
     0
  0
ENDTAB
  0
TABLE
  2
APPID
 70
     6
  0
APPID
  2
ACAD
 70
     0
  0
APPID
  2
CONTENTBLOCKICON
 70
     0
  0
APPID
  2
AME_SOL
 70
     0
  0
APPID
  2
AVE_RENDER
 70
     0
  0
APPID
  2
ACAD_PSEXT
 70
     0
  0
APPID
  2
ACAD_DSTYLE_DIMTEXT_FILL
 70
     0
  0
ENDTAB
  0
TABLE
  2
DIMSTYLE
 70
     5
  0
DIMSTYLE
  2
SJC
 70
     0
  3

  4

  5

  6

  7

 40
1.0
 41
0.18
 42
0.0625
 43
0.38
 44
0.18
 45
0.0
 46
0.0
 47
0.0
 48
0.0
140
0.18
141
0.09
142
0.0
143
25.399999999999999
144
1.0
145
0.0
146
1.0
147
0.09
 71
     0
 72
     0
 73
     1
 74
     1
 75
     0
 76
     0
 77
     0
 78
     0
170
     0
171
     2
172
     0
173
     0
174
     0
175
     0
176
     0
177
     0
178
     0
  0
DIMSTYLE
  2
STANDARD
 70
     0
  3

  4

  5

  6

  7

 40
25.0
 41
2.0
 42
1.0
 43
6.0
 44
1.0
 45
0.0
 46
0.0
 47
0.0
 48
0.0
140
3.0
141
0.09
142
0.0
143
25.399999999999999
144
0.6
145
0.0
146
1.0
147
1.1999999999999991
 71
     0
 72
     0
 73
     0
 74
     0
 75
     0
 76
     0
 77
     1
 78
     8
170
     0
171
     2
172
     1
173
     0
174
     0
175
     0
176
   256
177
   256
178
   256
  0
DIMSTYLE
  2
RUISEKI1
 70
     0
  3

  4

  5

  6
DOT
  7

 40
25.0
 41
2.0
 42
1.0
 43
6.0
 44
30.0
 45
0.0
 46
0.0
 47
0.0
 48
0.0
140
3.0
141
0.09
142
0.0
143
25.399999999999999
144
0.6
145
0.0
146
1.0
147
1.5
 71
     0
 72
     0
 73
     0
 74
     0
 75
     0
 76
     0
 77
     1
 78
     8
170
     0
171
     2
172
     1
173
     1
174
     0
175
     0
176
   256
177
   256
178
   256
  0
DIMSTYLE
  2
RUISEKI2
 70
     0
  3

  4

  5

  6
NONE
  7

 40
25.0
 41
2.0
 42
1.0
 43
6.0
 44
30.0
 45
0.0
 46
0.0
 47
0.0
 48
0.0
140
3.0
141
0.09
142
0.0
143
25.399999999999999
144
0.6
145
0.0
146
1.0
147
1.5
 71
     0
 72
     0
 73
     0
 74
     0
 75
     0
 76
     0
 77
     1
 78
     8
170
     0
171
     2
172
     1
173
     1
174
     0
175
     0
176
   256
177
   256
178
   256
  0
DIMSTYLE
  2
ISO-25
 70
     0
  3

  4

  5

  6

  7

 40
1.0
 41
2.5
 42
0.625
 43
3.75
 44
1.25
 45
0.0
 46
0.0
 47
0.0
 48
0.0
140
2.5
141
2.5
142
0.0
143
0.03937007874016
144
1.0
145
0.0
146
1.0
147
0.625
 71
     0
 72
     0
 73
     0
 74
     0
 75
     0
 76
     0
 77
     1
 78
     8
170
     0
171
     3
172
     1
173
     0
174
     0
175
     0
176
     0
177
     0
178
     0
  0
ENDTAB
  0
ENDSEC
  0
SECTION
  2
BLOCKS
  0
BLOCK
  8
0
  2
$MODEL_SPACE
 70
     0
 10
0.0
 20
0.0
 30
0.0
  3
$MODEL_SPACE
  1

  0
ENDBLK
  5
B7C
  8
0
  0
BLOCK
 67
     1
  8
0
  2
$PAPER_SPACE
 70
     0
 10
0.0
 20
0.0
 30
0.0
  3
$PAPER_SPACE
  1

  0
ENDBLK
  5
B7A
 67
     1
  8
0
  0
BLOCK
  8
0
  2
CALCOMP_TECHJET720A3
 70
     0
 10
0.0
 20
0.0
 30
0.0
  3
CALCOMP_TECHJET720A3
  1

  0
POLYLINE
  5
B82
  8
ZWAKU
 66
     1
 10
0.0
 20
0.0
 30
0.0
 70
     1
  0
VERTEX
  5
C3EF
  8
ZWAKU
 10
0.0
 20
0.0
 30
0.0
  0
VERTEX
  5
C3F0
  8
ZWAKU
 10
0.0
 20
267.0
 30
0.0
  0
VERTEX
  5
C3F1
  8
ZWAKU
 10
370.0
 20
267.0
 30
0.0
  0
VERTEX
  5
C3F2
  8
ZWAKU
 10
370.0
 20
0.0
 30
0.0
  0
SEQEND
  5
C3F3
  8
ZWAKU
  0
ENDBLK
  5
B89
  8
0
  0
BLOCK
  8
0
  2
*D1
 70
     1
 10
0.0
 20
0.0
 30
0.0
  3
*D1
  1

  0
LINE
  5
C3C9
  8
SUNPOU
 10
643.22739634067693
 20
5842.5291614830858
 30
0.0
 11
643.22739634067693
 21
6334.8216143706459
 31
0.0
  0
LINE
  5
C3CA
  8
SUNPOU
 10
2643.2272726610759
 20
5842.5291614830858
 30
0.0
 11
2643.2272726610759
 21
6334.8216143706459
 31
0.0
  0
LINE
  5
C3CB
  8
SUNPOU
 10
693.22739634067693
 20
6309.8216143706459
 30
0.0
 11
2593.2272726610759
 21
6309.8216143706459
 31
0.0
  0
SOLID
  5
C3CC
  8
SUNPOU
 10
693.22739634067693
 20
6318.1549477039789
 30
0.0
 11
693.22739634067693
 21
6301.4882810373128
 31
0.0
 12
643.22739634067693
 22
6309.8216143706459
 32
0.0
 13
643.22739634067693
 23
6309.8216143706459
 33
0.0
  0
SOLID
  5
C3CD
  8
SUNPOU
 10
2593.2272726610759
 20
6318.1549477039789
 30
0.0
 11
2593.2272726610759
 21
6301.4882810373128
 31
0.0
 12
2643.2272726610759
 22
6309.8216143706459
 32
0.0
 13
2643.2272726610759
 23
6309.8216143706459
 33
0.0
  0
TEXT
  8
SUNPOU
  40
75
  5
C6EE
  72
0
  71
0
 10
1493.23
 20
6244.57
 30
0.000000
  1
2000
  7
EXT08
  0
POINT
  5
C3CF
  8
DEFPOINTS
 62
     0
 10
643.22739634067693
 20
5817.5291614830858
 30
0.0
  0
POINT
  5
C3D0
  8
DEFPOINTS
 62
     0
 10
2643.2272726610759
 20
5817.5291614830858
 30
0.0
  0
POINT
  5
C3D1
  8
DEFPOINTS
 62
     0
 10
2643.2272726610759
 20
6309.8216143706459
 30
0.0
  0
ENDBLK
  5
21F9
  8
0
  0
BLOCK
  8
0
  2
*D2
 70
     1
 10
0.0
 20
0.0
 30
0.0
  3
*D2
  1

  0
LINE
  5
C3AC
  8
SUNPOU
 10
4355.0175327351908
 20
5801.5287949144858
 30
0.0
 11
4717.9758544302613
 21
5801.5287949144858
 31
0.0
  0
LINE
  5
C3AD
  8
SUNPOU
 10
4356.281717290788
 20
4701.5287703275853
 30
0.0
 11
4717.9758544302613
 21
4701.5287703275853
 31
0.0
  0
LINE
  5
C3AE
  8
SUNPOU
 10
4692.9758544302613
 20
5751.5287949144858
 30
0.0
 11
4692.9758544302613
 21
4751.5287703275853
 31
0.0
  0
SOLID
  5
C3AF
  8
SUNPOU
 10
4684.6425210969282
 20
5751.5287949144858
 30
0.0
 11
4701.3091877635943
 21
5751.5287949144858
 31
0.0
 12
4692.9758544302613
 22
5801.5287949144858
 32
0.0
 13
4692.9758544302613
 23
5801.5287949144858
 33
0.0
  0
SOLID
  5
C3B0
  8
SUNPOU
 10
4684.6425210969282
 20
4751.5287703275853
 30
0.0
 11
4701.3091877635943
 21
4751.5287703275853
 31
0.0
 12
4692.9758544302613
 22
4701.5287703275853
 32
0.0
 13
4692.9758544302613
 23
4701.5287703275853
 33
0.0
  0
TEXT
  8
SUNPOU
  40
75
  5
C6EF
  72
0
  71
0
 10
4475.48
 20
5118.78
 30
0.000000
  1
1100
  7
EXT08
  0
POINT
  5
C3B2
  8
DEFPOINTS
 62
     0
 10
4330.0175327351899
 20
5801.5287949144858
 30
0.0
  0
POINT
  5
C3B3
  8
DEFPOINTS
 62
     0
 10
4331.281717290788
 20
4701.5287703275853
 30
0.0
  0
POINT
  5
C3B4
  8
DEFPOINTS
 62
     0
 10
4692.9758544302613
 20
4701.5287703275853
 30
0.0
  0
ENDBLK
  5
2227
  8
0
  0
BLOCK
  8
0
  2
*D3
 70
     1
 10
0.0
 20
0.0
 30
0.0
  3
*D3
  1

  0
LINE
  5
C3B5
  8
SUNPOU
 10
4355.0175327351908
 20
5801.5287949144858
 30
0.0
 11
4540.7476534573807
 21
5801.5287949144858
 31
0.0
  0
LINE
  5
C3B6
  8
SUNPOU
 10
4355.0175327351908
 20
4851.5287736802857
 30
0.0
 11
4540.7476534573807
 21
4851.5287736802857
 31
0.0
  0
LINE
  5
C3B7
  8
SUNPOU
 10
4515.7476534573798
 20
5751.5287949144858
 30
0.0
 11
4515.7476534573798
 21
4901.5287736802857
 31
0.0
  0
SOLID
  5
C3B8
  8
SUNPOU
 10
4507.4143201240468
 20
5751.5287949144858
 30
0.0
 11
4524.0809867907128
 21
5751.5287949144858
 31
0.0
 12
4515.7476534573798
 22
5801.5287949144858
 32
0.0
 13
4515.7476534573798
 23
5801.5287949144858
 33
0.0
  0
SOLID
  5
C3B9
  8
SUNPOU
 10
4507.4143201240468
 20
4901.5287736802857
 30
0.0
 11
4524.0809867907128
 21
4901.5287736802857
 31
0.0
 12
4515.7476534573798
 22
4851.5287736802857
 32
0.0
 13
4515.7476534573798
 23
4851.5287736802857
 33
0.0
  0
TEXT
  8
SUNPOU
  40
75
  5
C6F0
  72
0
  71
0
 10
4298.25
 20
5193.78
 30
0.000000
  1
950
  7
EXT08
  0
POINT
  5
C3BB
  8
DEFPOINTS
 62
     0
 10
4330.0175327351899
 20
5801.5287949144858
 30
0.0
  0
POINT
  5
C3BC
  8
DEFPOINTS
 62
     0
 10
4330.0175327351899
 20
4851.5287736802857
 30
0.0
  0
POINT
  5
C3BD
  8
DEFPOINTS
 62
     0
 10
4515.7476534573798
 20
4851.5287736802857
 30
0.0
  0
ENDBLK
  5
221C
  8
0
  0
BLOCK
  8
0
  2
*D4
 70
     1
 10
0.0
 20
0.0
 30
0.0
  3
*D4
  1

  0
LINE
  5
C3BE
  8
SUNPOU
 10
4355.0175327351908
 20
4851.5287736802857
 30
0.0
 11
4540.7476534573807
 21
4851.5287736802857
 31
0.0
  0
LINE
  5
C3BF
  8
SUNPOU
 10
4356.281717290788
 20
4701.5287703275853
 30
0.0
 11
4540.7476534573807
 21
4701.5287703275853
 31
0.0
  0
LINE
  5
C3C0
  8
SUNPOU
 10
4515.7476534573798
 20
4901.5287736802857
 30
0.0
 11
4515.7476534573798
 21
4951.5287736802857
 31
0.0
  0
LINE
  5
C3C1
  8
SUNPOU
 10
4515.7476534573798
 20
4651.5287703275853
 30
0.0
 11
4515.7476534573798
 21
4601.5287703275853
 31
0.0
  0
TEXT
  8
SUNPOU
  40
75
  5
C6F1
  72
0
  71
0
 10
4291.17
 20
4621.89
 30
0.000000
  1
150
  7
EXT08
  0
LINE
  5
C3C3
  8
SUNPOU
 10
4515.7476534573798
 20
4851.5287736802857
 30
0.0
 11
4515.7476534573798
 21
4701.5287703275853
 31
0.0
  0
SOLID
  5
C3C4
  8
SUNPOU
 10
4507.4143201240468
 20
4901.5287736802857
 30
0.0
 11
4524.0809867907128
 21
4901.5287736802857
 31
0.0
 12
4515.7476534573798
 22
4851.5287736802857
 32
0.0
 13
4515.7476534573798
 23
4851.5287736802857
 33
0.0
  0
SOLID
  5
C3C5
  8
SUNPOU
 10
4507.4143201240468
 20
4651.5287703275853
 30
0.0
 11
4524.0809867907128
 21
4651.5287703275853
 31
0.0
 12
4515.7476534573798
 22
4701.5287703275853
 32
0.0
 13
4515.7476534573798
 23
4701.5287703275853
 33
0.0
  0
POINT
  5
C3C6
  8
DEFPOINTS
 62
     0
 10
4330.0175327351899
 20
4851.5287736802857
 30
0.0
  0
POINT
  5
C3C7
  8
DEFPOINTS
 62
     0
 10
4331.281717290788
 20
4701.5287703275853
 30
0.0
  0
POINT
  5
C3C8
  8
DEFPOINTS
 62
     0
 10
4515.7476534573798
 20
4701.5287703275853
 30
0.0
  0
ENDBLK
  5
2211
  8
0
  0
BLOCK
  8
0
  2
*D5
 70
     1
 10
0.0
 20
0.0
 30
0.0
  3
*D5
  1

  0
LINE
  5
C3D2
  8
SUNPOU
 10
5298.2845277431697
 20
5801.5287949144858
 30
0.0
 11
5594.8794075949691
 21
5801.5287949144858
 31
0.0
  0
LINE
  5
C3D3
  8
SUNPOU
 10
5501.0149088517428
 20
4701.5287703275853
 30
0.0
 11
5594.8794075949691
 21
4701.5287703275853
 31
0.0
  0
LINE
  5
C3D4
  8
SUNPOU
 10
5569.87940759497
 20
5751.5287949144858
 30
0.0
 11
5569.87940759497
 21
4751.5287703275853
 31
0.0
  0
SOLID
  5
C3D5
  8
SUNPOU
 10
5561.5460742616369
 20
5751.5287949144858
 30
0.0
 11
5578.212740928303
 21
5751.5287949144858
 31
0.0
 12
5569.87940759497
 22
5801.5287949144858
 32
0.0
 13
5569.87940759497
 23
5801.5287949144858
 33
0.0
  0
SOLID
  5
C3D6
  8
SUNPOU
 10
5561.5460742616369
 20
4751.5287703275853
 30
0.0
 11
5578.212740928303
 21
4751.5287703275853
 31
0.0
 12
5569.87940759497
 22
4701.5287703275853
 32
0.0
 13
5569.87940759497
 23
4701.5287703275853
 33
0.0
  0
TEXT
  8
SUNPOU
  40
75
  5
C6F2
  72
0
  71
0
 10
5352.38
 20
5118.78
 30
0.000000
  1
1100
  7
EXT08
  0
POINT
  5
C3D8
  8
DEFPOINTS
 62
     0
 10
5273.2845277431697
 20
5801.5287949144858
 30
0.0
  0
POINT
  5
C3D9
  8
DEFPOINTS
 62
     0
 10
5476.0149088517428
 20
4701.5287703275853
 30
0.0
  0
POINT
  5
C3DA
  8
DEFPOINTS
 62
     0
 10
5569.87940759497
 20
4701.5287703275853
 30
0.0
  0
ENDBLK
  5
21EE
  8
0
  0
BLOCK
  8
0
  2
*D6
 70
     1
 10
0.0
 20
0.0
 30
0.0
  3
*D6
  1

  0
LINE
  5
C3E4
  8
SUNPOU
 10
5273.2845277431688
 20
5812.5285861212114
 30
0.0
 11
5925.8764046452197
 21
5812.5285861212114
 31
0.0
  0
LINE
  5
C3E5
  8
SUNPOU
 10
5473.2845310959701
 20
4251.5287602692861
 30
0.0
 11
5925.8764046452197
 21
4251.5287602692861
 31
0.0
  0
LINE
  5
C3E6
  8
SUNPOU
 10
5900.8764046452197
 20
5762.5285861212114
 30
0.0
 11
5900.8764046452197
 21
4301.5287602692852
 31
0.0
  0
SOLID
  5
C3E7
  8
SUNPOU
 10
5892.5430713118867
 20
5762.5285861212114
 30
0.0
 11
5909.2097379785528
 21
5762.5285861212114
 31
0.0
 12
5900.8764046452197
 22
5812.5285861212114
 32
0.0
 13
5900.8764046452197
 23
5812.5285861212114
 33
0.0
  0
SOLID
  5
C3E8
  8
SUNPOU
 10
5892.5430713118867
 20
4301.5287602692852
 30
0.0
 11
5909.2097379785528
 21
4301.5287602692852
 31
0.0
 12
5900.8764046452197
 22
4251.5287602692861
 32
0.0
 13
5900.8764046452197
 23
4251.5287602692861
 33
0.0
  0
TEXT
  8
SUNPOU
  40
75
  5
C6F3
  72
0
  71
0
 10
5683.38
 20
4899.28
 30
0.000000
  1
1561
  7
EXT08
  0
POINT
  5
C3EA
  8
DEFPOINTS
 62
     0
 10
5248.2845277431697
 20
5812.5285861212114
 30
0.0
  0
POINT
  5
C3EB
  8
DEFPOINTS
 62
     0
 10
5448.2845310959692
 20
4251.5287602692861
 30
0.0
  0
POINT
  5
C3EC
  8
DEFPOINTS
 62
     0
 10
5900.8764046452197
 20
4251.5287602692861
 30
0.0
  0
ENDBLK
  5
2133
  8
0
  0
BLOCK
  8
0
  2
*D7
 70
     1
 10
0.0
 20
0.0
 30
0.0
  3
*D7
  1

  0
LINE
  5
C3DB
  8
SUNPOU
 10
5501.0149088517428
 20
4701.5287703275853
 30
0.0
 11
5766.7811236793723
 21
4701.5287703275853
 31
0.0
  0
LINE
  5
C3DC
  8
SUNPOU
 10
5423.2845310959692
 20
4251.5287602692861
 30
0.0
 11
5766.7811236793723
 21
4251.5287602692861
 31
0.0
  0
LINE
  5
C3DD
  8
SUNPOU
 10
5741.7811236793723
 20
4651.5287703275853
 30
0.0
 11
5741.7811236793723
 21
4301.5287602692852
 31
0.0
  0
SOLID
  5
C3DE
  8
SUNPOU
 10
5733.4477903460383
 20
4651.5287703275853
 30
0.0
 11
5750.1144570127044
 21
4651.5287703275853
 31
0.0
 12
5741.7811236793723
 22
4701.5287703275853
 32
0.0
 13
5741.7811236793723
 23
4701.5287703275853
 33
0.0
  0
SOLID
  5
C3DF
  8
SUNPOU
 10
5733.4477903460383
 20
4301.5287602692852
 30
0.0
 11
5750.1144570127044
 21
4301.5287602692852
 31
0.0
 12
5741.7811236793723
 22
4251.5287602692861
 32
0.0
 13
5741.7811236793723
 23
4251.5287602692861
 33
0.0
  0
TEXT
  8
SUNPOU
  40
75
  5
C6F4
  72
0
  71
0
 10
5524.28
 20
4343.78
 30
0.000000
  1
450
  7
EXT08
  0
POINT
  5
C3E1
  8
DEFPOINTS
 62
     0
 10
5476.0149088517428
 20
4701.5287703275853
 30
0.0
  0
POINT
  5
C3E2
  8
DEFPOINTS
 62
     0
 10
5398.2845310959701
 20
4251.5287602692861
 30
0.0
  0
POINT
  5
C3E3
  8
DEFPOINTS
 62
     0
 10
5741.7811236793723
 20
4251.5287602692861
 30
0.0
  0
ENDBLK
  5
21E3
  8
0
  0
BLOCK
  8
0
  2
*D8
 70
     1
 10
0.0
 20
0.0
 30
0.0
  3
*D8
  1

  0
LINE
  5
A4DE
  8
SUNPOU
 10
8553.2437150255846
 20
4710.5287703275853
 30
0.0
 11
8707.4223882156093
 21
4710.5287703275853
 31
0.0
  0
LINE
  5
A4DF
  8
SUNPOU
 10
8660.1380166465406
 20
4701.5287703275853
 30
0.0
 11
8707.4223882156093
 21
4701.5287703275853
 31
0.0
  0
LINE
  5
A4E0
  8
SUNPOU
 10
8682.4223882156093
 20
4651.5287703275853
 30
0.0
 11
8682.4223882156093
 21
4601.5287703275853
 31
0.0
  0
LINE
  5
A4E1
  8
SUNPOU
 10
8682.4223882156093
 20
4760.5287703275853
 30
0.0
 11
8682.4223882156093
 21
4944.8144846133
 31
0.0
  0
LINE
  5
A4E2
  8
SUNPOU
 10
8682.4223882156093
 20
4701.5287703275853
 30
0.0
 11
8682.4223882156093
 21
4710.5287703275853
 31
0.0
  0
SOLID
  5
A4E3
  8
SUNPOU
 10
8674.0890548822754
 20
4651.5287703275853
 30
0.0
 11
8690.7557215489433
 21
4651.5287703275853
 31
0.0
 12
8682.4223882156093
 22
4701.5287703275853
 32
0.0
 13
8682.4223882156093
 23
4701.5287703275853
 33
0.0
  0
SOLID
  5
A4E4
  8
SUNPOU
 10
8674.0890548822754
 20
4760.5287703275853
 30
0.0
 11
8690.7557215489433
 21
4760.5287703275853
 31
0.0
 12
8682.4223882156093
 22
4710.5287703275853
 32
0.0
 13
8682.4223882156093
 23
4710.5287703275853
 33
0.0
  0
INSERT
  5
A4E5
  8
0
  2
*U84
 10
0.0
 20
0.0
 30
0.0
  0
POINT
  5
A4E6
  8
DEFPOINTS
 62
     0
 10
8528.2437150255864
 20
4710.5287703275853
 30
0.0
  0
POINT
  5
A4E7
  8
DEFPOINTS
 62
     0
 10
8635.1380166465406
 20
4701.5287703275853
 30
0.0
  0
POINT
  5
A4E8
  8
DEFPOINTS
 62
     0
 10
8682.4223882156093
 20
4701.5287703275853
 30
0.0
  0
ENDBLK
  5
2107
  8
0
  0
BLOCK
  8
0
  2
*D9
 70
     1
 10
0.0
 20
0.0
 30
0.0
  3
*D9
  1

  0
LINE
  5
C3F4
  8
SUNPOU
 10
5398.2845310959701
 20
4226.5287602692852
 30
0.0
 11
5398.2845310959701
 21
4037.0434745618081
 31
0.0
  0
LINE
  5
C3F5
  8
SUNPOU
 10
5098.2845243904703
 20
4226.5287602692852
 30
0.0
 11
5098.2845243904703
 21
4037.0434745618081
 31
0.0
  0
LINE
  5
C3F6
  8
SUNPOU
 10
5348.2845310959701
 20
4062.0434745618072
 30
0.0
 11
5148.2845243904703
 21
4062.0434745618072
 31
0.0
  0
TEXT
  8
SUNPOU
  40
75
  5
C6F5
  72
0
  71
0
 10
5098.28
 20
3997.27
 30
0.000000
  1
□300
  7
EXT08
  0
SOLID
  5
C3F8
  8
SUNPOU
 10
5348.2845310959701
 20
4070.3768078951412
 30
0.0
 11
5348.2845310959701
 21
4053.7101412284728
 31
0.0
 12
5398.2845310959701
 22
4062.0434745618072
 32
0.0
 13
5398.2845310959701
 23
4062.0434745618072
 33
0.0
  0
SOLID
  5
C3F9
  8
SUNPOU
 10
5148.2845243904703
 20
4070.3768078951412
 30
0.0
 11
5148.2845243904703
 21
4053.7101412284728
 31
0.0
 12
5098.2845243904703
 22
4062.0434745618072
 32
0.0
 13
5098.2845243904703
 23
4062.0434745618072
 33
0.0
  0
POINT
  5
C3FA
  8
DEFPOINTS
 62
     0
 10
5398.2845310959701
 20
4251.5287602692861
 30
0.0
  0
POINT
  5
C3FB
  8
DEFPOINTS
 62
     0
 10
5098.2845243904703
 20
4251.5287602692861
 30
0.0
  0
POINT
  5
C3FC
  8
DEFPOINTS
 62
     0
 10
5098.2845243904703
 20
4062.0434745618072
 30
0.0
  0
ENDBLK
  5
20EF
  8
0
  0
BLOCK
  8
0
  2
_DOT
 70
     0
 10
0.0
 20
0.0
 30
0.0
  3
_DOT
  1

  0
POLYLINE
  5
25C3
  8
0
  6
BYBLOCK
 62
     0
 66
     1
 10
0.0
 20
0.0
 30
0.0
 70
     1
 40
0.5
 41
0.5
  0
VERTEX
  5
C401
  8
0
  6
BYBLOCK
 62
     0
 10
-0.25
 20
0.0
 30
0.0
 42
1.0
  0
VERTEX
  5
C402
  8
0
  6
BYBLOCK
 62
     0
 10
0.25
 20
0.0
 30
0.0
 42
1.0
  0
SEQEND
  5
C403
  8
0
  6
BYBLOCK
 62
     0
  0
LINE
  5
25C4
  8
0
  6
BYBLOCK
 62
     0
 10
-0.5
 20
0.0
 30
0.0
 11
-1.0
 21
0.0
 31
0.0
  0
ENDBLK
  5
25C6
  8
0
  0
BLOCK
  8
0
  2
_NONE
 70
     0
 10
0.0
 20
0.0
 30
0.0
  3
_NONE
  1

  0
ENDBLK
  5
25CA
  8
0
  0
BLOCK
  8
0
  2
B0010012
 70
     0
 10
0.0
 20
0.0
 30
0.0
  3
B0010012
  1

  0
LINE
  5
2DC9
  8
HATCH
 10
30.0
 20
0.0
 30
0.0
 11
64.017298404438407
 21
-34.017298404439323
 31
0.0
  0
LINE
  5
2DCA
  8
HATCH
 10
22.5
 20
-7.5
 30
0.0
 11
49.017298404438407
 21
-34.017298404439323
 31
0.0
  0
LINE
  5
2DCB
  8
HATCH
 10
15.0
 20
0.0
 30
0.0
 11
-19.01729840443841
 21
-34.017298404439323
 31
0.0
  0
LINE
  5
2DCC
  8
HATCH
 10
0.0
 20
0.0
 30
0.0
 11
-34.017298404438407
 21
-34.017298404439323
 31
0.0
  0
LINE
  5
2DCD
  8
HATCH
 10
30.0
 20
0.0
 30
0.0
 11
-4.0172984044384057
 21
-34.017298404439323
 31
0.0
  0
LINE
  5
2DCE
  8
HATCH
 10
15.0
 20
-15.0
 30
0.0
 11
34.017298404438407
 21
-34.017298404439323
 31
0.0
  0
LINE
  5
2DCF
  8
HATCH
 10
49.933906474481773
 20
0.0
 30
0.0
 11
39.966953237240887
 21
-9.9669532372404301
 31
0.0
  0
LINE
  5
2DD0
  8
HATCH
 10
98.034596808876813
 20
0.0
 30
0.0
 11
64.017298404438407
 21
-34.017298404439323
 31
0.0
  0
LINE
  5
2DD1
  8
HATCH
 10
83.034596808876813
 20
0.0
 30
0.0
 11
56.517298404438407
 21
-26.51729840443841
 31
0.0
  0
LINE
  5
2DD2
  8
HATCH
 10
98.034596808876813
 20
0.0
 30
0.0
 11
132.05189521331701
 21
-34.017298404439323
 31
0.0
  0
LINE
  5
2DD3
  8
HATCH
 10
90.534596808876813
 20
-7.5
 30
0.0
 11
117.051895213317
 21
-34.017298404439323
 31
0.0
  0
LINE
  5
2DD4
  8
HATCH
 10
83.034596808876813
 20
-15.0
 30
0.0
 11
102.051895213317
 21
-34.017298404439323
 31
0.0
  0
LINE
  5
2DD5
  8
HATCH
 10
66.960030984501827
 20
0.0
 30
0.0
 11
48.694724530500018
 21
-18.265306454000889
 31
0.0
  0
ENDBLK
  5
2DD7
  8
0
  0
BLOCK
  8
0
  2
*D13
 70
     1
 10
0.0
 20
0.0
 30
0.0
  3
*D13
  1

  0
LINE
  5
C420
  8
SUNPOU
 62
     0
 10
8378.2437150255864
 20
4676.5287703275853
 30
0.0
 11
8378.2437150255864
 21
4461.0552515108393
 31
0.0
  0
LINE
  5
C421
  8
SUNPOU
 62
     0
 10
8528.2437150255864
 20
4676.5287703275853
 30
0.0
 11
8528.2437150255864
 21
4461.0552515108393
 31
0.0
  0
LINE
  5
C422
  8
SUNPOU
 62
     0
 10
8328.2437150255846
 20
4486.0552515108402
 30
0.0
 11
8278.2437150255864
 21
4486.0552515108402
 31
0.0
  0
LINE
  5
C423
  8
SUNPOU
 62
     0
 10
8578.2437150255846
 20
4486.0552515108402
 30
0.0
 11
8628.2437150255864
 21
4486.0552515108402
 31
0.0
  0
TEXT
  8
SUNPOU
  40
75
  5
C6F6
  62
0
  72
0
  71
0
 10
8256.52
 20
4417.26
 30
0.000000
  1
□150
  7
EXT08
  0
LINE
  5
C425
  8
SUNPOU
 62
     0
 10
8378.2437150255864
 20
4486.0552515108402
 30
0.0
 11
8528.2437150255864
 21
4486.0552515108402
 31
0.0
  0
SOLID
  5
C426
  8
SUNPOU
 62
     0
 10
8328.2437150255846
 20
4494.3885848441723
 30
0.0
 11
8328.2437150255846
 21
4477.7219181775072
 31
0.0
 12
8378.2437150255864
 22
4486.0552515108402
 32
0.0
 13
8378.2437150255864
 23
4486.0552515108402
 33
0.0
  0
SOLID
  5
C427
  8
SUNPOU
 62
     0
 10
8578.2437150255846
 20
4494.3885848441723
 30
0.0
 11
8578.2437150255846
 21
4477.7219181775072
 31
0.0
 12
8528.2437150255864
 22
4486.0552515108402
 32
0.0
 13
8528.2437150255864
 23
4486.0552515108402
 33
0.0
  0
POINT
  5
C428
  8
DEFPOINTS
 62
     0
 10
8378.2437150255864
 20
4701.5287703275853
 30
0.0
  0
POINT
  5
C429
  8
DEFPOINTS
 62
     0
 10
8528.2437150255864
 20
4701.5287703275853
 30
0.0
  0
POINT
  5
C42A
  8
DEFPOINTS
 62
     0
 10
8528.2437150255864
 20
4486.0552515108402
 30
0.0
  0
ENDBLK
  5
3C9D
  8
0
  0
BLOCK
  8
0
  2
_DOTSMALL
 70
     0
 10
0.0
 20
0.0
 30
0.0
  3
_DOTSMALL
  1

  0
POLYLINE
  5
632A
  8
0
  6
BYBLOCK
 62
     0
 66
     1
 10
0.0
 20
0.0
 30
0.0
 70
     1
 40
0.5
 41
0.5
  0
VERTEX
  5
C42B
  8
0
  6
BYBLOCK
 62
     0
 10
-0.0625
 20
0.0
 30
0.0
 42
1.0
  0
VERTEX
  5
C42C
  8
0
  6
BYBLOCK
 62
     0
 10
0.0625
 20
0.0
 30
0.0
 42
1.0
  0
SEQEND
  5
C42D
  8
0
  6
BYBLOCK
 62
     0
  0
ENDBLK
  5
632C
  8
0
  0
BLOCK
  8
0
  2
*D15
 70
     1
 10
0.0
 20
0.0
 30
0.0
  3
*D15
  1

  0
LINE
  5
C42E
  8
SUNPOU
 62
     0
 10
2643.2272726610759
 20
5842.5291614830858
 30
0.0
 11
2643.2272726610759
 21
6334.8216143706459
 31
0.0
  0
LINE
  5
C42F
  8
SUNPOU
 62
     0
 10
2693.2272726610759
 20
6309.8216143706459
 30
0.0
 11
4330.017532735189
 21
6309.8216143706459
 31
0.0
  0
SOLID
  5
C430
  8
SUNPOU
 62
     0
 10
2693.2272726610759
 20
6318.1549477039789
 30
0.0
 11
2693.2272726610759
 21
6301.4882810373128
 31
0.0
 12
2643.2272726610759
 22
6309.8216143706459
 32
0.0
 13
2643.2272726610759
 23
6309.8216143706459
 33
0.0
  0
TEXT
  8
SUNPOU
  40
75
  5
C6F7
  62
0
  72
0
  71
0
 10
3361.62
 20
6244.57
 30
0.000000
  1
2000
  7
EXT08
  0
POINT
  5
C432
  8
DEFPOINTS
 62
     0
 10
2643.2272726610759
 20
5817.5291614830858
 30
0.0
  0
POINT
  5
C433
  8
DEFPOINTS
 62
     0
 10
4330.017532735189
 20
5802.0347698438363
 30
0.0
  0
POINT
  5
C434
  8
DEFPOINTS
 62
     0
 10
4330.017532735189
 20
6309.8216143706459
 30
0.0
  0
ENDBLK
  5
6A7B
  8
0
  0
BLOCK
  8
0
  2
*D16
 70
     1
 10
0.0
 20
0.0
 30
0.0
  3
*D16
  1

  0
LINE
  5
C435
  8
SUNPOU
 62
     0
 10
5394.4437249435214
 20
1540.3378693178711
 30
0.0
 11
6059.9947684544013
 21
1540.3378693178711
 31
0.0
  0
LINE
  5
C436
  8
SUNPOU
 62
     0
 10
6034.9947684544022
 20
1490.3378693178711
 30
0.0
 11
6034.9947684544022
 21
1111.3517735836151
 31
0.0
  0
SOLID
  5
C437
  8
SUNPOU
 62
     0
 10
6026.6614351210692
 20
1490.3378693178711
 30
0.0
 11
6043.3281017877362
 21
1490.3378693178711
 31
0.0
 12
6034.9947684544022
 22
1540.3378693178711
 32
0.0
 13
6034.9947684544022
 23
1540.3378693178711
 33
0.0
  0
TEXT
  8
SUNPOU
  40
75
  5
C6F8
  62
0
  72
0
  71
0
 10
5817.49
 20
1168.09
 30
0.000000
  1
500
  7
EXT08
  0
POINT
  5
C439
  8
DEFPOINTS
 62
     0
 10
5369.4437249435196
 20
1540.3378693178711
 30
0.0
  0
POINT
  5
C43A
  8
DEFPOINTS
 62
     0
 10
5539.443180699488
 20
1111.3517735836151
 30
0.0
  0
POINT
  5
C43B
  8
DEFPOINTS
 62
     0
 10
6034.9947684544022
 20
1111.3517735836151
 30
0.0
  0
ENDBLK
  5
6B90
  8
0
  0
BLOCK
  8
0
  2
T-40樹脂キャップ
 70
     0
 10
0.0
 20
0.0
 30
0.0
  3
T-40樹脂キャップ
  1
C:\Documents and Settings\SJC\デスクトップ\G_T-40\ブロックT-40\T-40柵部品図\T-40樹脂キャップ.dwg
  0
TEXT
  5
BC0D
  8
INFORMATION
 10
1.0
 20
2.0
 30
0.0
 40
0.8
  1
PLOTTER=CALCOMP_TECHJET720
  0
TEXT
  5
BC0E
  8
INFORMATION
 10
1.0
 20
3.0
 30
0.0
 40
0.8
  1
PAPER=A3
  0
TEXT
  5
BC0F
  8
INFORMATION
 10
1.0
 20
1.0
 30
0.0
 40
0.8
  1
VERSION=3.0
  0
LINE
  5
BC10
  8
太線
 10
-33.75
 20
-2.0
 30
0.0
 11
33.749997699327203
 21
-2.0
 31
0.0
  0
LINE
  5
BC11
  8
太線
 10
-32.25
 20
-12.0
 30
0.0
 11
32.249999999998408
 21
-12.0
 31
0.0
  0
LINE
  5
BC12
  8
太線
 10
33.75
 20
-2.0
 30
0.0
 11
33.75
 21
-2.0125078222808952
 31
0.0
  0
ARC
  5
BC13
  8
太線
 10
0.2499999999981789
 20
-2.0125078222808952
 30
0.0
 40
34.0
 50
180.0
 51
197.08258324336069
  0
LINE
  5
BC14
  8
太線
 10
33.75
 20
-2.0
 30
0.0
 11
33.75
 21
-2.0125078222808952
 31
0.0
  0
LINE
  5
BC15
  8
太線
 10
33.75
 20
-2.0
 30
0.0
 11
33.75
 21
-2.0125078222808952
 31
0.0
  0
ARC
  5
BC16
  8
太線
 10
-0.2500000000018212
 20
-2.0125078222808952
 30
0.0
 40
34.0
 50
342.91741675663928
 51
0.0
  0
LINE
  5
BC17
  8
太線
 10
-31.25
 20
1.0
 30
0.0
 11
31.25
 21
1.0
 31
0.0
  0
ARC
  5
BC18
  8
太線
 10
-0.0000000000000021
 20
-35.0
 30
0.0
 40
46.0
 50
51.586749207714533
 51
128.41325079229571
  0
ARC
  5
BC19
  8
太線
 10
31.25
 20
-1.5
 30
0.0
 40
2.5
 50
0.0
 51
90.0
  0
ARC
  5
BC1A
  8
太線
 10
28.705400188813648
 20
1.2000000000007269
 30
0.0
 40
0.2
 50
231.5867492077042
 51
270.0
  0
LINE
  5
BC1B
  8
太線
 10
33.75
 20
-2.0
 30
0.0
 11
33.75
 21
-1.5
 31
0.0
  0
ARC
  5
BC1C
  8
太線
 10
-31.25
 20
-1.5
 30
0.0
 40
2.5
 50
90.0
 51
180.0
  0
ARC
  5
BC1D
  8
太線
 10
-28.705400188815481
 20
1.2000000000007269
 30
0.0
 40
0.2
 50
270.0
 51
308.4132507922958
  0
LINE
  5
BC1E
  8
太線
 10
-33.75
 20
-2.0
 30
0.0
 11
-33.75
 21
-1.5
 31
0.0
  0
ENDBLK
  5
A0B1
  8
0
  0
BLOCK
  8
0
  2
T-40樹脂キャップ-側
 70
     0
 10
0.0
 20
0.0
 30
0.0
  3
T-40樹脂キャップ-側
  1
C:\Documents and Settings\SJC\デスクトップ\G_T-40\ブロックT-40\T-40柵部品図\T-40樹脂キャップ-側.dwg
  0
TEXT
  5
BCAF
  8
INFORMATION
 10
1.0
 20
2.0
 30
0.0
 40
0.8
  1
PLOTTER=CALCOMP_TECHJET720
  0
TEXT
  5
BCB0
  8
INFORMATION
 10
1.0
 20
3.0
 30
0.0
 40
0.8
  1
PAPER=A3
  0
TEXT
  5
BCB1
  8
INFORMATION
 10
1.0
 20
1.0
 30
0.0
 40
0.8
  1
VERSION=3.0
  0
LINE
  5
BCB2
  8
太線
 10
-33.75
 20
-2.0
 30
0.0
 11
-9.0221948549119695
 21
-2.0
 31
0.0
  0
LINE
  5
BCB3
  8
太線
 10
-32.25
 20
-12.0
 30
0.0
 11
-19.193748982416121
 21
-12.0
 31
0.0
  0
LINE
  5
BCB4
  8
太線
 10
33.75
 20
-2.0
 30
0.0
 11
33.75
 21
-2.0125078222808952
 31
0.0
  0
ARC
  5
BCB5
  8
太線
 10
0.2499999999981789
 20
-2.0125078222808952
 30
0.0
 40
34.0
 50
180.0
 51
197.08258324336069
  0
LINE
  5
BCB6
  8
太線
 10
33.75
 20
-2.0
 30
0.0
 11
33.75
 21
-2.0125078222808952
 31
0.0
  0
LINE
  5
BCB7
  8
太線
 10
33.75
 20
-2.0
 30
0.0
 11
33.75
 21
-2.0125078222808952
 31
0.0
  0
ARC
  5
BCB8
  8
太線
 10
-0.2500000000018212
 20
-2.0125078222808952
 30
0.0
 40
34.0
 50
342.91741675663928
 51
0.0
  0
LINE
  5
BCB9
  8
太線
 10
-31.25
 20
1.0
 30
0.0
 11
31.25
 21
1.0
 31
0.0
  0
ARC
  5
BCBA
  8
太線
 10
-0.0000000000000021
 20
-35.0
 30
0.0
 40
46.0
 50
51.586749207714533
 51
128.41325079229571
  0
ARC
  5
BCBB
  8
太線
 10
31.25
 20
-1.5
 30
0.0
 40
2.5
 50
0.0
 51
90.0
  0
ARC
  5
BCBC
  8
太線
 10
28.705400188813648
 20
1.2000000000007269
 30
0.0
 40
0.2
 50
231.5867492077042
 51
270.0
  0
LINE
  5
BCBD
  8
太線
 10
33.75
 20
-2.0
 30
0.0
 11
33.75
 21
-1.5
 31
0.0
  0
ARC
  5
BCBE
  8
太線
 10
-31.25
 20
-1.5
 30
0.0
 40
2.5
 50
90.0
 51
180.0
  0
ARC
  5
BCBF
  8
太線
 10
-28.705400188815481
 20
1.2000000000007269
 30
0.0
 40
0.2
 50
270.0
 51
308.4132507922958
  0
LINE
  5
BCC0
  8
太線
 10
-33.75
 20
-2.0
 30
0.0
 11
-33.75
 21
-1.5
 31
0.0
  0
LINE
  5
BCC1
  8
太線
 10
19.193748982416121
 20
-12.0
 30
0.0
 11
32.249999999998408
 21
-12.0
 31
0.0
  0
LINE
  5
BCC2
  8
太線
 10
9.0221948549119642
 20
-2.0
 30
0.0
 11
33.749997699327203
 21
-2.0
 31
0.0
  0
ENDBLK
  5
A0C8
  8
0
  0
BLOCK
  8
0
  2
*D19
 70
     1
 10
0.0
 20
0.0
 30
0.0
  3
*D19
  1

  0
LINE
  5
C456
  8
SUNPOU
 62
     0
 10
408.86598184128701
 20
4701.5287703275853
 30
0.0
 11
332.59379138456251
 21
4701.5287703275853
 31
0.0
  0
LINE
  5
C457
  8
SUNPOU
 62
     0
 10
618.22739634067693
 20
5812.5288036234861
 30
0.0
 11
332.59379138456291
 21
5812.5288036234861
 31
0.0
  0
LINE
  5
C458
  8
SUNPOU
 62
     0
 10
357.59379138456262
 20
4751.5287703275853
 30
0.0
 11
357.59379138456291
 21
5762.5288036234861
 31
0.0
  0
SOLID
  5
C459
  8
SUNPOU
 62
     0
 10
349.26045805122931
 20
4751.5287703275853
 30
0.0
 11
365.92712471789588
 21
4751.5287703275853
 31
0.0
 12
357.59379138456251
 22
4701.5287703275853
 32
0.0
 13
357.59379138456251
 23
4701.5287703275853
 33
0.0
  0
SOLID
  5
C45A
  8
SUNPOU
 62
     0
 10
349.26045805122959
 20
5762.5288036234861
 30
0.0
 11
365.92712471789622
 21
5762.5288036234861
 31
0.0
 12
357.59379138456291
 22
5812.5288036234861
 32
0.0
 13
357.59379138456291
 23
5812.5288036234861
 33
0.0
  0
TEXT
  8
SUNPOU
  40
75
  5
C6F9
  62
0
  72
0
  71
0
 10
140.094
 20
5124.28
 30
0.000000
  1
1111
  7
EXT08
  0
POINT
  5
C45C
  8
DEFPOINTS
 62
     0
 10
433.86598184128701
 20
4701.5287703275853
 30
0.0
  0
POINT
  5
C45D
  8
DEFPOINTS
 62
     0
 10
643.22739634067693
 20
5812.5288036234861
 30
0.0
  0
POINT
  5
C45E
  8
DEFPOINTS
 62
     0
 10
357.59379138456291
 20
5812.5288036234861
 30
0.0
  0
ENDBLK
  5
A167
  8
0
  0
BLOCK
  8
0
  2
*D20
 70
     1
 10
0.0
 20
0.0
 30
0.0
  3
*D20
  1

  0
LINE
  5
C45F
  8
SUNPOU
 62
     0
 10
5501.0149088517428
 20
4701.5287703275853
 30
0.0
 11
5766.7811236793723
 21
4701.5287703275853
 31
0.0
  0
LINE
  5
C460
  8
SUNPOU
 62
     0
 10
5273.2845277431688
 20
5812.5285861212114
 30
0.0
 11
5766.7811236793723
 21
5812.5285861212114
 31
0.0
  0
LINE
  5
C461
  8
SUNPOU
 62
     0
 10
5741.7811236793723
 20
4751.5287703275853
 30
0.0
 11
5741.7811236793723
 21
5762.5285861212114
 31
0.0
  0
SOLID
  5
C462
  8
SUNPOU
 62
     0
 10
5733.4477903460383
 20
4751.5287703275853
 30
0.0
 11
5750.1144570127044
 21
4751.5287703275853
 31
0.0
 12
5741.7811236793723
 22
4701.5287703275853
 32
0.0
 13
5741.7811236793723
 23
4701.5287703275853
 33
0.0
  0
SOLID
  5
C463
  8
SUNPOU
 62
     0
 10
5733.4477903460383
 20
5762.5285861212114
 30
0.0
 11
5750.1144570127044
 21
5762.5285861212114
 31
0.0
 12
5741.7811236793723
 22
5812.5285861212114
 32
0.0
 13
5741.7811236793723
 23
5812.5285861212114
 33
0.0
  0
TEXT
  8
SUNPOU
  40
75
  5
C6FA
  62
0
  72
0
  71
0
 10
5524.28
 20
5124.28
 30
0.000000
  1
1111
  7
EXT08
  0
POINT
  5
C465
  8
DEFPOINTS
 62
     0
 10
5476.0149088517428
 20
4701.5287703275853
 30
0.0
  0
POINT
  5
C466
  8
DEFPOINTS
 62
     0
 10
5248.2845277431697
 20
5812.5285861212114
 30
0.0
  0
POINT
  5
C467
  8
DEFPOINTS
 62
     0
 10
5741.7811236793723
 20
5812.5285861212114
 30
0.0
  0
ENDBLK
  5
A258
  8
0
  0
BLOCK
  8
0
  2
*D21
 70
     1
 10
0.0
 20
0.0
 30
0.0
  3
*D21
  1

  0
LINE
  5
C468
  8
SUNPOU
 62
     0
 10
5298.2845277431697
 20
5801.5287949144858
 30
0.0
 11
5594.8794075949691
 21
5801.5287949144858
 31
0.0
  0
LINE
  5
C469
  8
SUNPOU
 62
     0
 10
5273.2845277431688
 20
5812.5285861212114
 30
0.0
 11
5594.8794075949691
 21
5812.5285861212114
 31
0.0
  0
LINE
  5
C46A
  8
SUNPOU
 62
     0
 10
5569.87940759497
 20
5751.5287949144858
 30
0.0
 11
5569.87940759497
 21
5701.5287949144858
 31
0.0
  0
LINE
  5
C46B
  8
SUNPOU
 62
     0
 10
5569.87940759497
 20
5862.5285861212114
 30
0.0
 11
5569.87940759497
 21
5912.5285861212124
 31
0.0
  0
TEXT
  8
SUNPOU
  40
75
  5
C6FB
  62
0
  72
0
  71
0
 10
5340.60
 20
5758.13
 30
0.000000
  1
11
  7
EXT08
  0
LINE
  5
C46D
  8
SUNPOU
 62
     0
 10
5569.87940759497
 20
5801.5287949144858
 30
0.0
 11
5569.87940759497
 21
5812.5285861212114
 31
0.0
  0
SOLID
  5
C46E
  8
SUNPOU
 62
     0
 10
5561.5460742616369
 20
5751.5287949144858
 30
0.0
 11
5578.212740928303
 21
5751.5287949144858
 31
0.0
 12
5569.87940759497
 22
5801.5287949144858
 32
0.0
 13
5569.87940759497
 23
5801.5287949144858
 33
0.0
  0
SOLID
  5
C46F
  8
SUNPOU
 62
     0
 10
5561.5460742616369
 20
5862.5285861212114
 30
0.0
 11
5578.212740928303
 21
5862.5285861212114
 31
0.0
 12
5569.87940759497
 22
5812.5285861212114
 32
0.0
 13
5569.87940759497
 23
5812.5285861212114
 33
0.0
  0
POINT
  5
C470
  8
DEFPOINTS
 62
     0
 10
5273.2845277431697
 20
5801.5287949144858
 30
0.0
  0
POINT
  5
C471
  8
DEFPOINTS
 62
     0
 10
5248.2845277431697
 20
5812.5285861212114
 30
0.0
  0
POINT
  5
C472
  8
DEFPOINTS
 62
     0
 10
5569.87940759497
 20
5812.5285861212114
 30
0.0
  0
ENDBLK
  5
A270
  8
0
  0
BLOCK
  8
0
  2
*D22
 70
     1
 10
0.0
 20
0.0
 30
0.0
  3
*D22
  1

  0
LINE
  5
C48E
  8
SUNPOU
 62
     0
 10
6489.886314646682
 20
4701.5287703275853
 30
0.0
 11
6755.6525294743115
 21
4701.5287703275853
 31
0.0
  0
LINE
  5
C48F
  8
SUNPOU
 62
     0
 10
6299.827265759468
 20
5812.5285861212114
 30
0.0
 11
6755.6525294743115
 21
5812.5285861212114
 31
0.0
  0
LINE
  5
C490
  8
SUNPOU
 62
     0
 10
6730.6525294743115
 20
4751.5287703275853
 30
0.0
 11
6730.6525294743115
 21
5762.5285861212114
 31
0.0
  0
SOLID
  5
C491
  8
SUNPOU
 62
     0
 10
6722.3191961409784
 20
4751.5287703275853
 30
0.0
 11
6738.9858628076436
 21
4751.5287703275853
 31
0.0
 12
6730.6525294743115
 22
4701.5287703275853
 32
0.0
 13
6730.6525294743115
 23
4701.5287703275853
 33
0.0
  0
SOLID
  5
C492
  8
SUNPOU
 62
     0
 10
6722.3191961409784
 20
5762.5285861212114
 30
0.0
 11
6738.9858628076436
 21
5762.5285861212114
 31
0.0
 12
6730.6525294743115
 22
5812.5285861212114
 32
0.0
 13
6730.6525294743115
 23
5812.5285861212114
 33
0.0
  0
TEXT
  8
SUNPOU
  40
75
  5
C6FC
  62
0
  72
0
  71
0
 10
6513.15
 20
5124.28
 30
0.000000
  1
1111
  7
EXT08
  0
POINT
  5
C494
  8
DEFPOINTS
 62
     0
 10
6464.886314646682
 20
4701.5287703275853
 30
0.0
  0
POINT
  5
C495
  8
DEFPOINTS
 62
     0
 10
6274.8272657594671
 20
5812.5285861212114
 30
0.0
  0
POINT
  5
C496
  8
DEFPOINTS
 62
     0
 10
6730.6525294743115
 20
5812.5285861212114
 30
0.0
  0
ENDBLK
  5
A2BB
  8
0
  0
BLOCK
  8
0
  2
*D23
 70
     1
 10
0.0
 20
0.0
 30
0.0
  3
*D23
  1

  0
LINE
  5
C497
  8
SUNPOU
 62
     0
 10
6299.827265759468
 20
5801.5285861212114
 30
0.0
 11
6583.7508133899109
 21
5801.5285861212114
 31
0.0
  0
LINE
  5
C498
  8
SUNPOU
 62
     0
 10
6299.827265759468
 20
5812.5285861212114
 30
0.0
 11
6583.7508133899109
 21
5812.5285861212114
 31
0.0
  0
LINE
  5
C499
  8
SUNPOU
 62
     0
 10
6558.75081338991
 20
5751.5285861212114
 30
0.0
 11
6558.75081338991
 21
5701.5285861212114
 31
0.0
  0
LINE
  5
C49A
  8
SUNPOU
 62
     0
 10
6558.75081338991
 20
5862.5285861212114
 30
0.0
 11
6558.75081338991
 21
5912.5285861212124
 31
0.0
  0
TEXT
  8
SUNPOU
  40
75
  5
C6FD
  62
0
  72
0
  71
0
 10
6329.47
 20
5758.13
 30
0.000000
  1
11
  7
EXT08
  0
LINE
  5
C49C
  8
SUNPOU
 62
     0
 10
6558.75081338991
 20
5801.5285861212114
 30
0.0
 11
6558.75081338991
 21
5812.5285861212114
 31
0.0
  0
SOLID
  5
C49D
  8
SUNPOU
 62
     0
 10
6550.417480056577
 20
5751.5285861212114
 30
0.0
 11
6567.0841467232431
 21
5751.5285861212114
 31
0.0
 12
6558.75081338991
 22
5801.5285861212114
 32
0.0
 13
6558.75081338991
 23
5801.5285861212114
 33
0.0
  0
SOLID
  5
C49E
  8
SUNPOU
 62
     0
 10
6550.417480056577
 20
5862.5285861212114
 30
0.0
 11
6567.0841467232431
 21
5862.5285861212114
 31
0.0
 12
6558.75081338991
 22
5812.5285861212114
 32
0.0
 13
6558.75081338991
 23
5812.5285861212114
 33
0.0
  0
POINT
  5
C49F
  8
DEFPOINTS
 62
     0
 10
6274.8272657594671
 20
5801.5285861212114
 30
0.0
  0
POINT
  5
C4A0
  8
DEFPOINTS
 62
     0
 10
6274.8272657594671
 20
5812.5285861212114
 30
0.0
  0
POINT
  5
C4A1
  8
DEFPOINTS
 62
     0
 10
6558.75081338991
 20
5812.5285861212114
 30
0.0
  0
ENDBLK
  5
A2C9
  8
0
  0
BLOCK
  8
0
  2
*D24
 70
     1
 10
0.0
 20
0.0
 30
0.0
  3
*D24
  1

  0
LINE
  5
C473
  8
SUNPOU
 10
6299.827265759468
 20
5801.5285861212114
 30
0.0
 11
6583.7508133899109
 21
5801.5285861212114
 31
0.0
  0
LINE
  5
C474
  8
SUNPOU
 10
6489.886314646682
 20
4701.5287703275853
 30
0.0
 11
6583.7508133899109
 21
4701.5287703275853
 31
0.0
  0
LINE
  5
C475
  8
SUNPOU
 10
6558.75081338991
 20
5751.5285861212114
 30
0.0
 11
6558.75081338991
 21
4751.5287703275853
 31
0.0
  0
SOLID
  5
C476
  8
SUNPOU
 10
6550.417480056577
 20
5751.5285861212114
 30
0.0
 11
6567.0841467232431
 21
5751.5285861212114
 31
0.0
 12
6558.75081338991
 22
5801.5285861212114
 32
0.0
 13
6558.75081338991
 23
5801.5285861212114
 33
0.0
  0
SOLID
  5
C477
  8
SUNPOU
 10
6550.417480056577
 20
4751.5287703275853
 30
0.0
 11
6567.0841467232431
 21
4751.5287703275853
 31
0.0
 12
6558.75081338991
 22
4701.5287703275853
 32
0.0
 13
6558.75081338991
 23
4701.5287703275853
 33
0.0
  0
TEXT
  8
SUNPOU
  40
75
  5
C6FE
  72
0
  71
0
 10
6341.25
 20
5118.78
 30
0.000000
  1
1100
  7
EXT08
  0
POINT
  5
C479
  8
DEFPOINTS
 62
     0
 10
6274.8272657594671
 20
5801.5285861212114
 30
0.0
  0
POINT
  5
C47A
  8
DEFPOINTS
 62
     0
 10
6464.886314646682
 20
4701.5287703275853
 30
0.0
  0
POINT
  5
C47B
  8
DEFPOINTS
 62
     0
 10
6558.75081338991
 20
4701.5287703275853
 30
0.0
  0
ENDBLK
  5
A2D5
  8
0
  0
BLOCK
  8
0
  2
*D25
 70
     1
 10
0.0
 20
0.0
 30
0.0
  3
*D25
  1

  0
LINE
  5
C47C
  8
SUNPOU
 10
6489.886314646682
 20
4701.5287703275853
 30
0.0
 11
6755.6525294743115
 21
4701.5287703275853
 31
0.0
  0
LINE
  5
C47D
  8
SUNPOU
 10
6330.0770528125659
 20
4501.528765857186
 30
0.0
 11
6755.6525294743115
 21
4501.528765857186
 31
0.0
  0
LINE
  5
C47E
  8
SUNPOU
 10
6730.6525294743115
 20
4651.5287703275853
 30
0.0
 11
6730.6525294743115
 21
4551.528765857186
 31
0.0
  0
SOLID
  5
C47F
  8
SUNPOU
 10
6722.3191961409784
 20
4651.5287703275853
 30
0.0
 11
6738.9858628076436
 21
4651.5287703275853
 31
0.0
 12
6730.6525294743115
 22
4701.5287703275853
 32
0.0
 13
6730.6525294743115
 23
4701.5287703275853
 33
0.0
  0
SOLID
  5
C480
  8
SUNPOU
 10
6722.3191961409784
 20
4551.528765857186
 30
0.0
 11
6738.9858628076436
 21
4551.528765857186
 31
0.0
 12
6730.6525294743115
 22
4501.528765857186
 32
0.0
 13
6730.6525294743115
 23
4501.528765857186
 33
0.0
  0
TEXT
  8
SUNPOU
  40
75
  5
C6FF
  72
0
  71
0
 10
6505.65
 20
4468.78
 30
0.000000
  1
200
  7
EXT08
  0
POINT
  5
C482
  8
DEFPOINTS
 62
     0
 10
6464.886314646682
 20
4701.5287703275853
 30
0.0
  0
POINT
  5
C483
  8
DEFPOINTS
 62
     0
 10
6305.0770528125659
 20
4501.528765857186
 30
0.0
  0
POINT
  5
C484
  8
DEFPOINTS
 62
     0
 10
6730.6525294743115
 20
4501.528765857186
 30
0.0
  0
ENDBLK
  5
A2E1
  8
0
  0
BLOCK
  8
0
  2
*D26
 70
     1
 10
0.0
 20
0.0
 30
0.0
  3
*D26
  1

  0
LINE
  5
C485
  8
SUNPOU
 10
6299.827265759468
 20
5812.5285861212114
 30
0.0
 11
6914.7478104401598
 21
5812.5285861212114
 31
0.0
  0
LINE
  5
C486
  8
SUNPOU
 10
6330.0770528125659
 20
4501.528765857186
 30
0.0
 11
6914.7478104401598
 21
4501.528765857186
 31
0.0
  0
LINE
  5
C487
  8
SUNPOU
 10
6889.7478104401598
 20
5762.5285861212114
 30
0.0
 11
6889.7478104401598
 21
4551.528765857186
 31
0.0
  0
SOLID
  5
C488
  8
SUNPOU
 10
6881.4144771068268
 20
5762.5285861212114
 30
0.0
 11
6898.0811437734928
 21
5762.5285861212114
 31
0.0
 12
6889.7478104401598
 22
5812.5285861212114
 32
0.0
 13
6889.7478104401598
 23
5812.5285861212114
 33
0.0
  0
SOLID
  5
C489
  8
SUNPOU
 10
6881.4144771068268
 20
4551.528765857186
 30
0.0
 11
6898.0811437734928
 21
4551.528765857186
 31
0.0
 12
6889.7478104401598
 22
4501.528765857186
 32
0.0
 13
6889.7478104401598
 23
4501.528765857186
 33
0.0
  0
TEXT
  8
SUNPOU
  40
75
  5
C700
  72
0
  71
0
 10
6672.25
 20
5024.28
 30
0.000000
  1
1311
  7
EXT08
  0
POINT
  5
C48B
  8
DEFPOINTS
 62
     0
 10
6274.8272657594671
 20
5812.5285861212114
 30
0.0
  0
POINT
  5
C48C
  8
DEFPOINTS
 62
     0
 10
6305.0770528125659
 20
4501.528765857186
 30
0.0
  0
POINT
  5
C48D
  8
DEFPOINTS
 62
     0
 10
6889.7478104401598
 20
4501.528765857186
 30
0.0
  0
ENDBLK
  5
A2ED
  8
0
  0
BLOCK
  8
0
  2
*D27
 70
     1
 10
0.0
 20
0.0
 30
0.0
  3
*D27
  1

  0
LINE
  5
C4BD
  8
SUNPOU
 62
     0
 10
7535.9092930907718
 20
4701.5287703275853
 30
0.0
 11
7801.6755079184013
 21
4701.5287703275853
 31
0.0
  0
LINE
  5
C4BE
  8
SUNPOU
 62
     0
 10
7318.8455909914283
 20
5812.5285861212114
 30
0.0
 11
7801.6755079184013
 21
5812.5285861212114
 31
0.0
  0
LINE
  5
C4BF
  8
SUNPOU
 62
     0
 10
7776.6755079184013
 20
4751.5287703275853
 30
0.0
 11
7776.6755079184013
 21
5762.5285861212114
 31
0.0
  0
SOLID
  5
C4C0
  8
SUNPOU
 62
     0
 10
7768.3421745850683
 20
4751.5287703275853
 30
0.0
 11
7785.0088412517343
 21
4751.5287703275853
 31
0.0
 12
7776.6755079184013
 22
4701.5287703275853
 32
0.0
 13
7776.6755079184013
 23
4701.5287703275853
 33
0.0
  0
SOLID
  5
C4C1
  8
SUNPOU
 62
     0
 10
7768.3421745850683
 20
5762.5285861212114
 30
0.0
 11
7785.0088412517343
 21
5762.5285861212114
 31
0.0
 12
7776.6755079184013
 22
5812.5285861212114
 32
0.0
 13
7776.6755079184013
 23
5812.5285861212114
 33
0.0
  0
TEXT
  8
SUNPOU
  40
75
  5
C701
  62
0
  72
0
  71
0
 10
7559.18
 20
5124.28
 30
0.000000
  1
1111
  7
EXT08
  0
POINT
  5
C4C3
  8
DEFPOINTS
 62
     0
 10
7510.9092930907718
 20
4701.5287703275853
 30
0.0
  0
POINT
  5
C4C4
  8
DEFPOINTS
 62
     0
 10
7293.8455909914283
 20
5812.5285861212114
 30
0.0
  0
POINT
  5
C4C5
  8
DEFPOINTS
 62
     0
 10
7776.6755079184013
 20
5812.5285861212114
 30
0.0
  0
ENDBLK
  5
A32D
  8
0
  0
BLOCK
  8
0
  2
*D28
 70
     1
 10
0.0
 20
0.0
 30
0.0
  3
*D28
  1

  0
LINE
  5
C4C6
  8
SUNPOU
 62
     0
 10
7318.8455909914283
 20
5801.5285150531809
 30
0.0
 11
7629.773791833999
 21
5801.5285150531809
 31
0.0
  0
LINE
  5
C4C7
  8
SUNPOU
 62
     0
 10
7318.8455909914283
 20
5812.5285861212114
 30
0.0
 11
7629.773791833999
 21
5812.5285861212114
 31
0.0
  0
LINE
  5
C4C8
  8
SUNPOU
 62
     0
 10
7604.773791833999
 20
5751.5285150531799
 30
0.0
 11
7604.773791833999
 21
5701.5285150531809
 31
0.0
  0
LINE
  5
C4C9
  8
SUNPOU
 62
     0
 10
7604.773791833999
 20
5862.5285861212114
 30
0.0
 11
7604.773791833999
 21
5912.5285861212124
 31
0.0
  0
TEXT
  8
SUNPOU
  40
75
  5
C702
  62
0
  72
0
  71
0
 10
7375.50
 20
5758.13
 30
0.000000
  1
11
  7
EXT08
  0
LINE
  5
C4CB
  8
SUNPOU
 62
     0
 10
7604.773791833999
 20
5801.5285150531809
 30
0.0
 11
7604.773791833999
 21
5812.5285861212114
 31
0.0
  0
SOLID
  5
C4CC
  8
SUNPOU
 62
     0
 10
7596.440458500666
 20
5751.5285150531799
 30
0.0
 11
7613.1071251673311
 21
5751.5285150531799
 31
0.0
 12
7604.773791833999
 22
5801.5285150531809
 32
0.0
 13
7604.773791833999
 23
5801.5285150531809
 33
0.0
  0
SOLID
  5
C4CD
  8
SUNPOU
 62
     0
 10
7596.440458500666
 20
5862.5285861212114
 30
0.0
 11
7613.1071251673311
 21
5862.5285861212114
 31
0.0
 12
7604.773791833999
 22
5812.5285861212114
 32
0.0
 13
7604.773791833999
 23
5812.5285861212114
 33
0.0
  0
POINT
  5
C4CE
  8
DEFPOINTS
 62
     0
 10
7293.8455909914283
 20
5801.5285150531809
 30
0.0
  0
POINT
  5
C4CF
  8
DEFPOINTS
 62
     0
 10
7293.8455909914283
 20
5812.5285861212114
 30
0.0
  0
POINT
  5
C4D0
  8
DEFPOINTS
 62
     0
 10
7604.773791833999
 20
5812.5285861212114
 30
0.0
  0
ENDBLK
  5
A33B
  8
0
  0
BLOCK
  8
0
  2
*D29
 70
     1
 10
0.0
 20
0.0
 30
0.0
  3
*D29
  1

  0
LINE
  5
C4A2
  8
SUNPOU
 10
7318.8455909914283
 20
5801.5285150531809
 30
0.0
 11
7629.773791833999
 21
5801.5285150531809
 31
0.0
  0
LINE
  5
C4A3
  8
SUNPOU
 10
7535.9092930907718
 20
4701.5287703275853
 30
0.0
 11
7629.773791833999
 21
4701.5287703275853
 31
0.0
  0
LINE
  5
C4A4
  8
SUNPOU
 10
7604.773791833999
 20
5751.5285150531799
 30
0.0
 11
7604.773791833999
 21
4751.5287703275853
 31
0.0
  0
SOLID
  5
C4A5
  8
SUNPOU
 10
7596.440458500666
 20
5751.5285150531799
 30
0.0
 11
7613.1071251673311
 21
5751.5285150531799
 31
0.0
 12
7604.773791833999
 22
5801.5285150531809
 32
0.0
 13
7604.773791833999
 23
5801.5285150531809
 33
0.0
  0
SOLID
  5
C4A6
  8
SUNPOU
 10
7596.440458500666
 20
4751.5287703275853
 30
0.0
 11
7613.1071251673311
 21
4751.5287703275853
 31
0.0
 12
7604.773791833999
 22
4701.5287703275853
 32
0.0
 13
7604.773791833999
 23
4701.5287703275853
 33
0.0
  0
TEXT
  8
SUNPOU
  40
75
  5
C703
  72
0
  71
0
 10
7387.27
 20
5118.78
 30
0.000000
  1
1100
  7
EXT08
  0
POINT
  5
C4A8
  8
DEFPOINTS
 62
     0
 10
7293.8455909914283
 20
5801.5285150531809
 30
0.0
  0
POINT
  5
C4A9
  8
DEFPOINTS
 62
     0
 10
7510.9092930907718
 20
4701.5287703275853
 30
0.0
  0
POINT
  5
C4AA
  8
DEFPOINTS
 62
     0
 10
7604.773791833999
 20
4701.5287703275853
 30
0.0
  0
ENDBLK
  5
A347
  8
0
  0
BLOCK
  8
0
  2
*D30
 70
     1
 10
0.0
 20
0.0
 30
0.0
  3
*D30
  1

  0
LINE
  5
C4AB
  8
SUNPOU
 10
7535.9092930907718
 20
4701.5287703275853
 30
0.0
 11
7801.6755079184013
 21
4701.5287703275853
 31
0.0
  0
LINE
  5
C4AC
  8
SUNPOU
 10
7349.0961409839301
 20
4101.5287703275853
 30
0.0
 11
7801.6755079184013
 21
4101.5287703275853
 31
0.0
  0
LINE
  5
C4AD
  8
SUNPOU
 10
7776.6755079184013
 20
4651.5287703275853
 30
0.0
 11
7776.6755079184013
 21
4151.5287703275853
 31
0.0
  0
SOLID
  5
C4AE
  8
SUNPOU
 10
7768.3421745850683
 20
4651.5287703275853
 30
0.0
 11
7785.0088412517343
 21
4651.5287703275853
 31
0.0
 12
7776.6755079184013
 22
4701.5287703275853
 32
0.0
 13
7776.6755079184013
 23
4701.5287703275853
 33
0.0
  0
SOLID
  5
C4AF
  8
SUNPOU
 10
7768.3421745850683
 20
4151.5287703275853
 30
0.0
 11
7785.0088412517343
 21
4151.5287703275853
 31
0.0
 12
7776.6755079184013
 22
4101.5287703275853
 32
0.0
 13
7776.6755079184013
 23
4101.5287703275853
 33
0.0
  0
TEXT
  8
SUNPOU
  40
75
  5
C704
  72
0
  71
0
 10
7559.18
 20
4268.78
 30
0.000000
  1
1200
  7
EXT08
  0
POINT
  5
C4B1
  8
DEFPOINTS
 62
     0
 10
7510.9092930907718
 20
4701.5287703275853
 30
0.0
  0
POINT
  5
C4B2
  8
DEFPOINTS
 62
     0
 10
7324.0961409839301
 20
4101.5287703275853
 30
0.0
  0
POINT
  5
C4B3
  8
DEFPOINTS
 62
     0
 10
7776.6755079184013
 20
4101.5287703275853
 30
0.0
  0
ENDBLK
  5
A353
  8
0
  0
BLOCK
  8
0
  2
*D31
 70
     1
 10
0.0
 20
0.0
 30
0.0
  3
*D31
  1

  0
LINE
  5
C4B4
  8
SUNPOU
 10
7318.8455909914283
 20
5812.5285861212114
 30
0.0
 11
7960.7707888842478
 21
5812.5285861212114
 31
0.0
  0
LINE
  5
C4B5
  8
SUNPOU
 10
7349.0961409839301
 20
4101.5287703275853
 30
0.0
 11
7960.7707888842478
 21
4101.5287703275853
 31
0.0
  0
LINE
  5
C4B6
  8
SUNPOU
 10
7935.7707888842478
 20
5762.5285861212114
 30
0.0
 11
7935.7707888842478
 21
4151.5287703275853
 31
0.0
  0
SOLID
  5
C4B7
  8
SUNPOU
 10
7927.4374555509148
 20
5762.5285861212114
 30
0.0
 11
7944.1041222175818
 21
5762.5285861212114
 31
0.0
 12
7935.7707888842478
 22
5812.5285861212114
 32
0.0
 13
7935.7707888842478
 23
5812.5285861212114
 33
0.0
  0
SOLID
  5
C4B8
  8
SUNPOU
 10
7927.4374555509148
 20
4151.5287703275853
 30
0.0
 11
7944.1041222175818
 21
4151.5287703275853
 31
0.0
 12
7935.7707888842478
 22
4101.5287703275853
 32
0.0
 13
7935.7707888842478
 23
4101.5287703275853
 33
0.0
  0
TEXT
  8
SUNPOU
  40
75
  5
C705
  72
0
  71
0
 10
7718.27
 20
4824.28
 30
0.000000
  1
2311
  7
EXT08
  0
POINT
  5
C4BA
  8
DEFPOINTS
 62
     0
 10
7293.8455909914283
 20
5812.5285861212114
 30
0.0
  0
POINT
  5
C4BB
  8
DEFPOINTS
 62
     0
 10
7324.0961409839301
 20
4101.5287703275853
 30
0.0
  0
POINT
  5
C4BC
  8
DEFPOINTS
 62
     0
 10
7935.7707888842478
 20
4101.5287703275853
 30
0.0
  0
ENDBLK
  5
A35F
  8
0
  0
BLOCK
  8
0
  2
*D32
 70
     1
 10
0.0
 20
0.0
 30
0.0
  3
*D32
  1

  0
LINE
  5
C4DA
  8
SUNPOU
 62
     0
 10
8660.1380166465406
 20
4701.5287703275853
 30
0.0
 11
9051.3584321078688
 21
4701.5287703275853
 31
0.0
  0
LINE
  5
C4DB
  8
SUNPOU
 62
     0
 10
8478.3014438836235
 20
5812.5285861212114
 30
0.0
 11
9051.3584321078688
 21
5812.5285861212114
 31
0.0
  0
LINE
  5
C4DC
  8
SUNPOU
 62
     0
 10
9026.3584321078688
 20
4751.5287703275853
 30
0.0
 11
9026.3584321078688
 21
5762.5285861212114
 31
0.0
  0
SOLID
  5
C4DD
  8
SUNPOU
 62
     0
 10
9018.0250987745349
 20
4751.5287703275853
 30
0.0
 11
9034.6917654412027
 21
4751.5287703275853
 31
0.0
 12
9026.3584321078688
 22
4701.5287703275853
 32
0.0
 13
9026.3584321078688
 23
4701.5287703275853
 33
0.0
  0
SOLID
  5
C4DE
  8
SUNPOU
 62
     0
 10
9018.0250987745349
 20
5762.5285861212114
 30
0.0
 11
9034.6917654412027
 21
5762.5285861212114
 31
0.0
 12
9026.3584321078688
 22
5812.5285861212114
 32
0.0
 13
9026.3584321078688
 23
5812.5285861212114
 33
0.0
  0
TEXT
  8
SUNPOU
  40
75
  5
C706
  62
0
  72
0
  71
0
 10
8808.86
 20
5124.28
 30
0.000000
  1
1111
  7
EXT08
  0
POINT
  5
C4E0
  8
DEFPOINTS
 62
     0
 10
8635.1380166465406
 20
4701.5287703275853
 30
0.0
  0
POINT
  5
C4E1
  8
DEFPOINTS
 62
     0
 10
8453.3014438836217
 20
5812.5285861212114
 30
0.0
  0
POINT
  5
C4E2
  8
DEFPOINTS
 62
     0
 10
9026.3584321078688
 20
5812.5285861212114
 30
0.0
  0
ENDBLK
  5
A39F
  8
0
  0
BLOCK
  8
0
  2
*D33
 70
     1
 10
0.0
 20
0.0
 30
0.0
  3
*D33
  1

  0
LINE
  5
C4E3
  8
SUNPOU
 62
     0
 10
8478.2437150255882
 20
5801.5286075001368
 30
0.0
 11
8879.4567160234674
 21
5801.5286075001368
 31
0.0
  0
LINE
  5
C4E4
  8
SUNPOU
 62
     0
 10
8478.3014438836235
 20
5812.5285861212114
 30
0.0
 11
8879.4567160234674
 21
5812.5285861212114
 31
0.0
  0
LINE
  5
C4E5
  8
SUNPOU
 62
     0
 10
8854.4567160234674
 20
5751.5286075001368
 30
0.0
 11
8854.4567160234674
 21
5701.5286075001368
 31
0.0
  0
LINE
  5
C4E6
  8
SUNPOU
 62
     0
 10
8854.4567160234674
 20
5862.5285861212114
 30
0.0
 11
8854.4567160234674
 21
5912.5285861212124
 31
0.0
  0
TEXT
  8
SUNPOU
  40
75
  5
C707
  62
0
  72
0
  71
0
 10
8625.18
 20
5758.13
 30
0.000000
  1
11
  7
EXT08
  0
LINE
  5
C4E8
  8
SUNPOU
 62
     0
 10
8854.4567160234674
 20
5801.5286075001368
 30
0.0
 11
8854.4567160234674
 21
5812.5285861212114
 31
0.0
  0
SOLID
  5
C4E9
  8
SUNPOU
 62
     0
 10
8846.1233826901334
 20
5751.5286075001368
 30
0.0
 11
8862.7900493568013
 21
5751.5286075001368
 31
0.0
 12
8854.4567160234674
 22
5801.5286075001368
 32
0.0
 13
8854.4567160234674
 23
5801.5286075001368
 33
0.0
  0
SOLID
  5
C4EA
  8
SUNPOU
 62
     0
 10
8846.1233826901334
 20
5862.5285861212114
 30
0.0
 11
8862.7900493568013
 21
5862.5285861212114
 31
0.0
 12
8854.4567160234674
 22
5812.5285861212114
 32
0.0
 13
8854.4567160234674
 23
5812.5285861212114
 33
0.0
  0
POINT
  5
C4EB
  8
DEFPOINTS
 62
     0
 10
8453.2437150255882
 20
5801.5286075001368
 30
0.0
  0
POINT
  5
C4EC
  8
DEFPOINTS
 62
     0
 10
8453.3014438836217
 20
5812.5285861212114
 30
0.0
  0
POINT
  5
C4ED
  8
DEFPOINTS
 62
     0
 10
8854.4567160234674
 20
5812.5285861212114
 30
0.0
  0
ENDBLK
  5
A3AD
  8
0
  0
BLOCK
  8
0
  2
*D34
 70
     1
 10
0.0
 20
0.0
 30
0.0
  3
*D34
  1

  0
LINE
  5
C4D1
  8
SUNPOU
 10
8478.2437150255882
 20
5801.5286075001368
 30
0.0
 11
8879.4567160234674
 21
5801.5286075001368
 31
0.0
  0
LINE
  5
C4D2
  8
SUNPOU
 10
8660.1380166465406
 20
4701.5287703275853
 30
0.0
 11
8879.4567160234674
 21
4701.5287703275853
 31
0.0
  0
LINE
  5
C4D3
  8
SUNPOU
 10
8854.4567160234674
 20
5751.5286075001368
 30
0.0
 11
8854.4567160234674
 21
4751.5287703275853
 31
0.0
  0
SOLID
  5
C4D4
  8
SUNPOU
 10
8846.1233826901334
 20
5751.5286075001368
 30
0.0
 11
8862.7900493568013
 21
5751.5286075001368
 31
0.0
 12
8854.4567160234674
 22
5801.5286075001368
 32
0.0
 13
8854.4567160234674
 23
5801.5286075001368
 33
0.0
  0
SOLID
  5
C4D5
  8
SUNPOU
 10
8846.1233826901334
 20
4751.5287703275853
 30
0.0
 11
8862.7900493568013
 21
4751.5287703275853
 31
0.0
 12
8854.4567160234674
 22
4701.5287703275853
 32
0.0
 13
8854.4567160234674
 23
4701.5287703275853
 33
0.0
  0
TEXT
  8
SUNPOU
  40
75
  5
C708
  72
0
  71
0
 10
8636.96
 20
5118.78
 30
0.000000
  1
1100
  7
EXT08
  0
POINT
  5
C4D7
  8
DEFPOINTS
 62
     0
 10
8453.2437150255882
 20
5801.5286075001368
 30
0.0
  0
POINT
  5
C4D8
  8
DEFPOINTS
 62
     0
 10
8635.1380166465406
 20
4701.5287703275853
 30
0.0
  0
POINT
  5
C4D9
  8
DEFPOINTS
 62
     0
 10
8854.4567160234674
 20
4701.5287703275853
 30
0.0
  0
ENDBLK
  5
A3B9
  8
0
  0
BLOCK
  8
0
  2
部材表-樹脂キャップT-40PL
 70
     0
 10
0.0
 20
0.0
 30
0.0
  3
部材表-樹脂キャップT-40PL
  1
C:\Documents and Settings\SJC\デスクトップ\G_T-40\ブロックT-40\T-40柵部材表\部材表-樹脂キャップT-40PL.dwg
  0
TEXT
  5
BD53
  8
INFORMATION
 10
1.0
 20
1.0
 30
0.0
 40
0.8
  1
VERSION=3.0
 41
0.8
  7
EXT08
  0
LINE
  5
BD54
  8
MOJI
 10
-0.0000000000011693
 20
999.99999999999955
 30
0.0
 11
0.0000000000019488
 21
0.0
 31
0.0
  0
LINE
  5
BD55
  8
MOJI
 10
954.54857206369843
 20
999.99999999999955
 30
0.0
 11
954.54857206369729
 21
0.0000000000002274
 31
0.0
  0
LINE
  5
BD56
  8
MOJI
 10
514.03421639559701
 20
999.99999999999955
 30
0.0
 11
514.03421639559576
 21
0.0000000000002274
 31
0.0
  0
LINE
  5
BD57
  8
MOJI
 10
1952.958519234598
 20
999.99999999999955
 30
0.0
 11
1952.9585192346019
 21
0.0000000000002274
 31
0.0
  0
TEXT
  5
BD58
  8
MOJI
 10
-0.0000000000000117
 20
-109.37099251547249
 30
0.0
 40
75.0
  1
《注記》部品は場合により多少変更することがあります。
 41
0.8
  7
EXT08
 11
-0.0000000000000071
 21
-34.370992515472501
 31
0.0
 73
     3
  0
INSERT
  5
BD59
  8
SJC
  2
元部材表-樹脂キャップT-40
 10
0.0
 20
249.99999999999989
 30
0.0
  0
TEXT
  5
BD5A
  8
MOJI
 10
595.55917995562004
 20
24.999999999999009
 30
0.0
 40
75.0
  1
4.6相当
 41
0.8
  7
EXT08
 72
     4
 11
733.2734656699057
 21
62.499999999998998
 31
0.0
  0
LINE
  5
BD5B
  8
MOJI
 10
-0.0000000000019488
 20
125.0
 30
0.0
 11
1952.9585192346019
 21
125.0
 31
0.0
  0
LINE
  5
BD5C
  8
MOJI
 10
-0.0000000000019488
 20
0.0
 30
0.0
 11
1952.9585192346019
 21
0.0
 31
0.0
  0
TEXT
  5
BD5D
  8
MOJI
 10
1105.353338242717
 20
147.5944388799239
 30
0.0
 40
74.999999987500004
  1
溶融亜鉛めっき M12
 41
0.8
  7
EXT08
 72
     1
 11
1462.4961953260499
 21
147.5944388799239
 31
0.0
  0
TEXT
  5
BD5E
  8
MOJI
 10
1009.6222930368471
 20
22.59443887992396
 30
0.0
 40
74.999999987500004
  1
溶融亜鉛めっき M12×30
 41
0.8
  7
EXT08
 72
     1
 11
1459.908007247514
 21
22.59443887992396
 31
0.0
  0
TEXT
  5
BD5F
  8
MOJI
 10
88.468488757376534
 20
17.880618549507322
 30
0.0
 40
74.999999987500004
  1
取付ボルト
 41
0.8
  7
EXT08
 72
     1
 11
254.46848872970989
 21
17.880618549507322
 31
0.0
  0
TEXT
  5
BD60
  8
MOJI
 10
21.42242127500435
 20
143.54228365518901
 30
0.0
 40
74.999999987500004
  1
ナットアンカー
 41
0.8
  7
EXT08
 72
     1
 11
265.42242123433778
 21
143.54228365518901
 31
0.0
  0
ENDBLK
  5
AA65
  8
0
  0
BLOCK
  8
0
  2
BPL-横25
 70
     0
 10
0.0
 20
0.0
 30
0.0
  3
BPL-横25
  1
C:\Documents and Settings\SJC\デスクトップ\G_T-40\ブロックT-40\T-40柵BPL図\BPL-横25.dwg
  0
TEXT
  5
BD6E
  8
INFORMATION
 10
1.0
 20
2.0
 30
0.0
 40
0.8
  1
PLOTTER=CALCOMP_TECHJET720
  0
TEXT
  5
BD6F
  8
INFORMATION
 10
1.0
 20
3.0
 30
0.0
 40
0.8
  1
PAPER=A3
  0
TEXT
  5
BD70
  8
INFORMATION
 10
1.0
 20
1.0
 30
0.0
 40
0.8
  1
VERSION=3.0
  0
TEXT
  5
BD71
  8
MOJI
 10
-1444.644724690912
 20
-576.71847601125035
 30
0.0
 40
75.0
  1
(ドリル径%%c18,深さ55mm)
 50
359.99972432623952
 41
0.8
  7
EXT08
  0
INSERT
  5
BD72
  8
0
  2
*U89
 10
0.0
 20
0.0
 30
0.0
1001
ACAD
1000
DSTYLE
1002
{
1070
     5
1000

1070
    40
1040
25.0
1070
    41
1040
2.0
1070
    42
1040
1.0
1070
    43
1040
6.0
1070
    44
1040
1.0
1070
    73
1070
     0
1070
    74
1070
     0
1070
    77
1070
     1
1070
    78
1070
     8
1070
   140
1040
3.0
1070
   144
1040
0.4
1070
   147
1040
1.1999999999999991
1070
   172
1070
     1
1070
   271
1070
     2
1070
   279
1070
     2
1070
   340
1005
BA4
1070
   342
1005
0
1002
}
  0
LINE
  5
BD73
  8
MOJI
 10
-457.3207890822232
 20
-479.4132779993073
 30
0.0
 11
-1434.8974231437969
 21
-479.40852140978768
 31
0.0
  0
LINE
  5
BD74
  8
MOJI
 10
-191.16096779213871
 20
252.26523803478219
 30
0.0
 11
-501.97320949365161
 21
252.26523803478219
 31
0.0
  0
LINE
  5
BD75
  8
MOJI
 10
-214.7836709330804
 20
-131.91885834530009
 30
0.0
 11
-399.7484060345796
 21
-131.91885834530009
 31
0.0
  0
TEXT
  5
BD76
  8
MOJI
 10
-388.15425481685639
 20
-114.116248636506
 30
0.0
 40
75.0
  1
%%c50
 41
0.8
  7
EXT08
 72
     2
 11
-228.15425481685631
 21
-76.616248636506043
 31
0.0
 73
     2
  0
DIMENSION
  5
BD77
  8
SUNPOU
  2
*D47
 10
-187.5
 20
-379.94527274117081
 30
0.0
 11
-266.38325062443079
 21
-312.44527274117081
 31
0.0
 70
   128
  3
SJC
 13
-125.0
 23
-187.5000000000004
 33
0.0
 14
-187.5
 24
-187.5000000000004
 34
0.0
1001
ACAD
1000
DSTYLE
1002
{
1070
   287
1070
     5
1070
    40
1040
25.0
1070
    41
1040
2.0
1070
    42
1040
1.0
1070
    43
1040
6.0
1070
    44
1040
1.0
1070
    73
1070
     0
1070
    74
1070
     0
1070
    77
1070
     1
1070
    78
1070
     8
1070
   140
1040
3.0
1070
   144
1040
0.4
1070
   147
1040
0.8
1070
   172
1070
     1
1070
   271
1070
     2
1070
   279
1070
     2
1070
   340
1005
BA4
1002
}
  0
TEXT
  5
BD86
  8
MOJI
 10
-495.960123104486
 20
274.52064776049929
 30
0.0
 40
75.0
  1
4-%%c22
 41
0.8
  7
EXT08
 72
     2
 11
-204.5315516759147
 21
312.02064776049929
 31
0.0
 73
     2
  0
TEXT
  5
BD87
  8
MOJI
 10
-1342.0561993788051
 20
-453.02242072167508
 30
0.0
 40
75.0
  1
ナットアンカー M12
 50
359.99972432623952
 41
0.8
  7
EXT08
  0
TEXT
  5
BD88
  8
MOJI
 10
-1417.4925617846
 20
-89.864055942733103
 30
0.0
 40
75.0
  1
M12×30
 50
359.99972432623952
 41
0.8
  7
EXT08
  0
LINE
  5
BD89
  8
MOJI
 10
-1023.574538483029
 20
3.6688702293049569
 30
0.0
 11
-1415.798696298117
 21
3.6715325272489281
 31
0.0
  0
TEXT
  5
BD8A
  8
MOJI
 10
-1405.583366069879
 20
28.628555467927079
 30
0.0
 40
75.0
  1
取付ボルト
 50
359.99972432623952
 41
0.8
  7
EXT08
  0
DIMENSION
  5
BD8B
  8
SUNPOU
  2
*D48
 10
464.56547122827033
 20
187.49999999999989
 30
0.0
 11
397.06547122827033
 21
257.29653190508589
 31
0.0
 70
   128
  3
SJC
 13
187.5
 23
125.0
 33
0.0
 14
187.5
 24
187.5
 34
0.0
 50
90.0
1001
ACAD
1000
DSTYLE
1002
{
1070
   287
1070
     5
1070
    40
1040
25.0
1070
    41
1040
2.0
1070
    42
1040
1.0
1070
    43
1040
6.0
1070
    44
1040
1.0
1070
    73
1070
     0
1070
    74
1070
     0
1070
    77
1070
     1
1070
    78
1070
     8
1070
   140
1040
3.0
1070
   144
1040
0.4
1070
   147
1040
0.8
1070
   172
1070
     1
1070
   271
1070
     2
1070
   279
1070
     2
1070
   340
1005
BA4
1002
}
  0
INSERT
  5
BD9A
  8
0
  2
*U92
 10
0.0
 20
0.0
 30
0.0
1001
ACAD
1000
DSTYLE
1002
{
1070
     5
1000

1070
    40
1040
25.0
1070
    41
1040
2.0
1070
    42
1040
1.0
1070
    43
1040
6.0
1070
    44
1040
1.0
1070
    73
1070
     0
1070
    74
1070
     0
1070
    77
1070
     1
1070
    78
1070
     8
1070
   140
1040
3.0
1070
   144
1040
0.4
1070
   147
1040
1.1999999999999991
1070
   172
1070
     1
1070
   271
1070
     2
1070
   279
1070
     2
1070
   340
1005
BA4
1070
   342
1005
0
1002
}
  0
DIMENSION
  5
BD9B
  8
SUNPOU
  2
*D49
 10
619.78950501734835
 20
-187.5000000000006
 30
0.0
 11
562.28950501734835
 21
-0.0000000000002583
 31
0.0
  3
SJC
 13
187.5
 23
187.5
 33
0.0
 14
187.5
 24
-187.5000000000004
 34
0.0
 50
90.0
1001
ACAD
1000
DSTYLE
1002
{
1070
   287
1070
     5
1070
    40
1040
25.0
1070
    41
1040
2.0
1070
    42
1040
1.0
1070
    43
1040
6.0
1070
    44
1040
1.0
1070
    73
1070
     0
1070
    74
1070
     0
1070
    77
1070
     1
1070
    78
1070
     8
1070
   140
1040
3.0
1070
   144
1040
0.4
1070
   147
1040
0.8
1070
   172
1070
     1
1070
   271
1070
     2
1070
   279
1070
     2
1070
   340
1005
BA4
1002
}
  0
DIMENSION
  5
BDA8
  8
SUNPOU
  2
*D50
 10
-187.5
 20
-519.43421282292434
 30
0.0
 11
-0.0000000000000249
 21
-461.93421282292428
 31
0.0
  3
SJC
 13
187.5
 23
-187.5000000000004
 33
0.0
 14
-187.5
 24
-187.5000000000004
 34
0.0
1001
ACAD
1000
DSTYLE
1002
{
1070
   287
1070
     5
1070
   287
1070
     5
1070
   287
1070
     5
1070
   287
1070
     5
1070
    40
1040
25.0
1070
    41
1040
2.0
1070
    42
1040
1.0
1070
    43
1040
6.0
1070
    44
1040
1.0
1070
    73
1070
     0
1070
    74
1070
     0
1070
    77
1070
     1
1070
    78
1070
     8
1070
   140
1040
3.0
1070
   144
1040
0.4
1070
   147
1040
0.8
1070
   172
1070
     1
1070
   271
1070
     2
1070
   279
1070
     2
1070
   340
1005
BA4
1002
}
  0
DIMENSION
  5
BDB5
  8
SUNPOU
  2
*D51
 10
187.5
 20
-379.94527274117081
 30
0.0
 11
263.7979897210152
 21
-309.78470103330028
 31
0.0
 70
   128
  3
SJC
 13
125.0
 23
-187.5000000000004
 33
0.0
 14
187.5
 24
-187.5000000000004
 34
0.0
1001
ACAD
1000
DSTYLE
1002
{
1070
   287
1070
     5
1070
   287
1070
     5
1070
   287
1070
     5
1070
   287
1070
     5
1070
    40
1040
25.0
1070
    41
1040
2.0
1070
    42
1040
1.0
1070
    43
1040
6.0
1070
    44
1040
1.0
1070
    73
1070
     0
1070
    74
1070
     0
1070
    77
1070
     1
1070
    78
1070
     8
1070
   140
1040
3.0
1070
   144
1040
0.4
1070
   147
1040
1.1999999999999991
1070
   172
1070
     1
1070
   271
1070
     2
1070
   279
1070
     2
1070
   340
1005
BA4
1002
}
  0
DIMENSION
  5
BDC4
  8
SUNPOU
  2
*D52
 10
-125.0
 20
-379.94527274117081
 30
0.0
 11
-0.0000000000000107
 21
-322.44527274117081
 31
0.0
  3
SJC
 13
125.0
 23
-187.5000000000004
 33
0.0
 14
-125.0
 24
-187.5000000000004
 34
0.0
1001
ACAD
1000
DSTYLE
1002
{
1070
   287
1070
     5
1070
    40
1040
25.0
1070
    41
1040
2.0
1070
    42
1040
1.0
1070
    43
1040
6.0
1070
    44
1040
1.0
1070
    73
1070
     0
1070
    74
1070
     0
1070
    77
1070
     1
1070
    78
1070
     8
1070
   140
1040
3.0
1070
   144
1040
0.4
1070
   147
1040
0.8
1070
   172
1070
     1
1070
   271
1070
     2
1070
   279
1070
     2
1070
   340
1005
BA4
1002
}
  0
CIRCLE
  5
BDD1
  8
SJC
 10
125.0
 20
125.0
 30
0.0
 40
29.21875
  0
LINE
  5
BDD2
  8
CENTER
 10
85.15625
 20
125.0
 30
0.0
 11
164.84375
 21
125.0
 31
0.0
  0
CIRCLE
  5
BDD3
  8
SJC
 10
125.0
 20
-124.9999999999995
 30
0.0
 40
29.21875
  0
LINE
  5
BDD4
  8
CENTER
 10
85.15625
 20
-124.9999999999995
 30
0.0
 11
164.84375
 21
-124.9999999999995
 31
0.0
  0
POLYLINE
  5
BDD5
  8
SJC
 66
     1
 10
0.0
 20
0.0
 30
0.0
 70
     1
  0
VERTEX
  5
C5E1
  8
SJC
 10
-187.5
 20
187.5
 30
0.0
  0
VERTEX
  5
C5E2
  8
SJC
 10
-187.5
 20
-187.5000000000004
 30
0.0
  0
VERTEX
  5
C5E3
  8
SJC
 10
187.5
 20
-187.5000000000004
 30
0.0
  0
VERTEX
  5
C5E4
  8
SJC
 10
187.5
 20
187.5
 30
0.0
  0
SEQEND
  5
C5E5
  8
SJC
  0
LINE
  5
BDD6
  8
CENTER
 10
-228.37312240032591
 20
0.0
 30
0.0
 11
228.37312240032591
 21
0.0
 31
0.0
  0
CIRCLE
  5
BDD7
  8
HASEN
 10
0.0
 20
0.0
 30
0.0
 40
67.625
  0
CIRCLE
  5
BDD8
  8
SJC
 10
0.0
 20
0.0
 30
0.0
 40
62.5
  0
CIRCLE
  5
BDD9
  8
HASEN
 10
0.0
 20
0.0
 30
0.0
 40
75.625
  0
LINE
  5
BDDA
  8
CENTER
 10
0.0
 20
228.37312240032821
 30
0.0
 11
0.0
 21
-228.37312240032901
 31
0.0
  0
INSERT
  5
BDDB
  8
0
  2
*U97
 10
0.0
 20
0.0
 30
0.0
1001
ACAD
1000
DSTYLE
1002
{
1070
     5
1000

1070
    40
1040
25.0
1070
    41
1040
2.0
1070
    42
1040
1.0
1070
    43
1040
6.0
1070
    44
1040
1.0
1070
    73
1070
     0
1070
    74
1070
     0
1070
    77
1070
     1
1070
    78
1070
     8
1070
   140
1040
3.0
1070
   144
1040
0.4
1070
   147
1040
1.1999999999999991
1070
   172
1070
     1
1070
   271
1070
     2
1070
   279
1070
     2
1070
   340
1005
BA4
1070
   342
1005
0
1002
}
  0
LINE
  5
BDDC
  8
CENTER
 10
-85.15625
 20
-124.9999999999995
 30
0.0
 11
-164.84375
 21
-124.9999999999995
 31
0.0
  0
LINE
  5
BDDD
  8
CENTER
 10
-125.0
 20
-85.15625
 30
0.0
 11
-125.0
 21
-164.84374999999949
 31
0.0
  0
CIRCLE
  5
BDDE
  8
SJC
 10
-125.0
 20
-124.9999999999995
 30
0.0
 40
29.21875
  0
LINE
  5
BDDF
  8
CENTER
 10
125.0
 20
-85.15625
 30
0.0
 11
125.0
 21
-164.84374999999949
 31
0.0
  0
LINE
  5
BDE0
  8
CENTER
 10
-125.0
 20
85.15625
 30
0.0
 11
-125.0
 21
164.84375
 31
0.0
  0
LINE
  5
BDE1
  8
CENTER
 10
-125.0
 20
85.15625
 30
0.0
 11
-125.0
 21
164.84375
 31
0.0
  0
CIRCLE
  5
BDE2
  8
SJC
 10
-125.0
 20
125.0
 30
0.0
 40
29.21875
  0
LINE
  5
BDE3
  8
CENTER
 10
-85.15625
 20
125.0
 30
0.0
 11
-164.84375
 21
125.0
 31
0.0
  0
LINE
  5
BDE4
  8
CENTER
 10
125.0
 20
85.15625
 30
0.0
 11
125.0
 21
164.84375
 31
0.0
  0
DIMENSION
  5
BDE5
  8
SUNPOU
  2
*D53
 10
464.56547122827033
 20
-125.0000000000005
 30
0.0
 11
407.06547122827033
 21
-0.0000000000002204
 31
0.0
  3
SJC
 13
187.5
 23
125.0
 33
0.0
 14
187.5
 24
-125.0000000000004
 34
0.0
 50
90.0
1001
ACAD
1000
DSTYLE
1002
{
1070
   287
1070
     5
1070
    40
1040
25.0
1070
    41
1040
2.0
1070
    42
1040
1.0
1070
    43
1040
6.0
1070
    44
1040
1.0
1070
    73
1070
     0
1070
    74
1070
     0
1070
    77
1070
     1
1070
    78
1070
     8
1070
   140
1040
3.0
1070
   144
1040
0.4
1070
   147
1040
0.8
1070
   172
1070
     1
1070
   271
1070
     2
1070
   279
1070
     2
1070
   340
1005
BA4
1002
}
  0
DIMENSION
  5
BDF2
  8
SUNPOU
  2
*D54
 10
464.56547122827033
 20
-187.5000000000006
 30
0.0
 11
397.06547122827033
 21
-265.07315842497701
 31
0.0
 70
   128
  3
SJC
 13
187.5
 23
-125.0000000000004
 33
0.0
 14
187.5
 24
-187.5000000000004
 34
0.0
 50
90.0
1001
ACAD
1000
DSTYLE
1002
{
1070
   287
1070
     5
1070
    40
1040
25.0
1070
    41
1040
2.0
1070
    42
1040
1.0
1070
    43
1040
6.0
1070
    44
1040
1.0
1070
    73
1070
     0
1070
    74
1070
     0
1070
    77
1070
     1
1070
    78
1070
     8
1070
   140
1040
3.0
1070
   144
1040
0.4
1070
   147
1040
0.8
1070
   172
1070
     1
1070
   271
1070
     2
1070
   279
1070
     2
1070
   340
1005
BA4
1002
}
  0
LINE
  5
BE01
  8
SJC
 10
-743.94311724320869
 20
126.7508890667373
 30
0.0
 11
-743.94311724320869
 21
-165.0000000000004
 31
0.0
  0
LINE
  5
BE02
  8
SJC
 10
-895.19311724320858
 20
126.7508890667313
 30
0.0
 11
-895.19311724320858
 21
-165.0000000000004
 31
0.0
  0
LINE
  5
BE03
  8
CENTER
 10
-819.56811724320505
 20
-248.04901198418199
 30
0.0
 11
-819.56811724320505
 21
157.1433011654849
 31
0.0
  0
INSERT
  5
BE04
  8
SJC
  2
B0030004
 10
-694.56811305220617
 20
-151.2500000000004
 30
0.0
 41
2.5
 42
2.5
 43
2.5
 50
270.0
  0
LINE
  5
BE0E
  8
SJC2
 10
-670.55811305220413
 20
-290.00000000000051
 30
0.0
 11
-693.96811305221115
 21
-289.99999999999818
 31
0.0
  0
LINE
  5
BE0F
  8
SJC2
 10
-669.76311305220588
 20
-297.49999999999591
 30
0.0
 11
-693.36811305220897
 21
-297.49999999999818
 31
0.0
  0
LINE
  5
BE10
  8
SJC
 10
-694.56811305220617
 20
-158.7500000000004
 30
0.0
 11
-664.56811305220617
 21
-158.7500000000004
 31
0.0
  0
INSERT
  5
BE11
  8
SJC
  2
B0030003
 10
-694.56811305220617
 20
-151.2500000000004
 30
0.0
 41
2.5
 42
2.5
 43
2.5
 50
90.0
  0
LINE
  5
BE17
  8
SJC
 10
-1007.068117243208
 20
-187.5000000000004
 30
0.0
 11
-632.06811724320858
 21
-187.5000000000004
 31
0.0
  0
LINE
  5
BE18
  8
SJC
 10
-632.06811724320858
 20
-165.0000000000004
 30
0.0
 11
-1007.068117243208
 21
-165.0000000000004
 31
0.0
  0
LINE
  5
BE19
  8
SJC2
 10
-668.96811305220388
 20
-304.99999999999818
 30
0.0
 11
-692.76811305220872
 21
-304.99999999999818
 31
0.0
  0
LINE
  5
BE1A
  8
SJC
 10
-668.17311305220574
 20
-312.49999999999818
 30
0.0
 11
-692.16811305220835
 21
-312.49999999999818
 31
0.0
  0
LINE
  5
BE1B
  8
SJC
 10
-672.94311305220799
 20
-329.99999999999818
 30
0.0
 11
-716.19311305220606
 21
-329.99999999999818
 31
0.0
  0
INSERT
  5
BE1C
  8
0
  2
*U100
 10
0.0
 20
0.0
 30
0.0
1001
ACAD
1000
DSTYLE
1002
{
1070
     5
1000

1070
    40
1040
25.0
1070
    41
1040
2.0
1070
    42
1040
1.0
1070
    43
1040
6.0
1070
    44
1040
1.0
1070
    73
1070
     0
1070
    74
1070
     0
1070
    77
1070
     1
1070
    78
1070
     8
1070
   140
1040
3.0
1070
   144
1040
0.4
1070
   147
1040
1.1999999999999991
1070
   172
1070
     1
1070
   271
1070
     2
1070
   279
1070
     2
1070
   340
1005
BA4
1070
   342
1005
0
1002
}
  0
LINE
  5
BE1D
  8
CENTER
 10
-694.56811305220617
 20
-340.61543776365988
 30
0.0
 11
-694.56811305220617
 21
-103.44505122149759
 31
0.0
  0
LINE
  5
BE1E
  8
CENTER
 10
-944.56812143420018
 20
-336.9927724555568
 30
0.0
 11
-944.56812143420018
 21
-103.44505122149759
 31
0.0
  0
LINE
  5
BE1F
  8
SJC
 10
-922.94312143420757
 20
-267.4999999999755
 30
0.0
 11
-918.17312143419986
 21
-312.49999999999818
 31
0.0
  0
LINE
  5
BE20
  8
SJC
 10
-942.16812143420236
 20
-312.49999999999818
 30
0.0
 11
-944.56812143420018
 21
-282.50000000001182
 31
0.0
  0
LINE
  5
BE21
  8
SJC
 10
-966.19312143419666
 20
-267.4999999999755
 30
0.0
 11
-970.96312143420437
 21
-312.49999999999591
 31
0.0
  0
LINE
  5
BE22
  8
SJC
 10
-946.96812143419811
 20
-312.49999999999818
 30
0.0
 11
-944.56812143420018
 21
-282.50000000001182
 31
0.0
  0
LINE
  5
BE23
  8
SJC
 10
-716.19311305220253
 20
-267.4999999999755
 30
0.0
 11
-720.96311305221025
 21
-312.49999999999591
 31
0.0
  0
LINE
  5
BE24
  8
SJC
 10
-696.96811305220388
 20
-312.49999999999818
 30
0.0
 11
-694.56811305220617
 21
-282.50000000001182
 31
0.0
  0
LINE
  5
BE25
  8
SJC
 10
-692.16811305220835
 20
-312.49999999999818
 30
0.0
 11
-694.56811305220617
 21
-282.50000000001182
 31
0.0
  0
LINE
  5
BE26
  8
SJC
 10
-924.79812143420349
 20
-312.49999999999818
 30
0.0
 11
-922.94312143420211
 21
-329.99999999999818
 31
0.0
  0
LINE
  5
BE27
  8
SJC
 10
-964.33812143420073
 20
-312.49999999999818
 30
0.0
 11
-966.19312143420018
 21
-329.99999999999818
 31
0.0
  0
LINE
  5
BE28
  8
SJC
 10
-946.96812143419811
 20
-312.49999999999818
 30
0.0
 11
-970.96312143420437
 21
-312.49999999999591
 31
0.0
  0
LINE
  5
BE29
  8
SJC
 10
-918.17312143419986
 20
-312.49999999999818
 30
0.0
 11
-942.16812143420236
 21
-312.49999999999818
 31
0.0
  0
LINE
  5
BE2A
  8
SJC
 10
-922.94312143420211
 20
-329.99999999999818
 30
0.0
 11
-966.19312143420018
 21
-329.99999999999818
 31
0.0
  0
LINE
  5
BE2B
  8
SJC
 10
-696.96811305220388
 20
-312.49999999999818
 30
0.0
 11
-720.96311305221025
 21
-312.49999999999591
 31
0.0
  0
LINE
  5
BE2C
  8
SJC
 10
-714.3381130522065
 20
-312.49999999999818
 30
0.0
 11
-716.19311305220606
 21
-329.99999999999818
 31
0.0
  0
LINE
  5
BE2D
  8
SJC
 10
-914.56812143420029
 20
-165.0000000000004
 30
0.0
 11
-914.56812143420029
 21
-158.7500000000004
 31
0.0
  0
LINE
  5
BE2E
  8
SJC
 10
-974.56812143420029
 20
-165.0000000000004
 30
0.0
 11
-974.56812143420029
 21
-158.7500000000004
 31
0.0
  0
LINE
  5
BE2F
  8
SJC
 10
-1007.068117243208
 20
-165.0000000000004
 30
0.0
 11
-1007.068117243208
 21
-187.5000000000004
 31
0.0
  0
LINE
  5
BE30
  8
SJC
 10
-922.94312143420757
 20
-267.4999999999755
 30
0.0
 11
-922.94312143420211
 21
-187.49999999999821
 31
0.0
  0
LINE
  5
BE31
  8
SJC
 10
-966.19312143419666
 20
-267.4999999999755
 30
0.0
 11
-966.19312143419666
 21
-187.49999999999821
 31
0.0
  0
LINE
  5
BE32
  8
SJC2
 10
-969.3731214342024
 20
-297.49999999999591
 30
0.0
 11
-945.76812143420091
 21
-297.49999999999818
 31
0.0
  0
LINE
  5
BE33
  8
SJC2
 10
-968.57812143420415
 20
-290.00000000000051
 30
0.0
 11
-945.1681214341952
 21
-289.99999999999818
 31
0.0
  0
LINE
  5
BE34
  8
SJC2
 10
-920.55812143419826
 20
-290.00000000000051
 30
0.0
 11
-943.96812143420527
 21
-289.99999999999818
 31
0.0
  0
LINE
  5
BE35
  8
SJC2
 10
-919.76312143419989
 20
-297.49999999999591
 30
0.0
 11
-943.3681214342032
 21
-297.49999999999818
 31
0.0
  0
LINE
  5
BE36
  8
SJC2
 10
-970.16812143420611
 20
-304.99999999999818
 30
0.0
 11
-946.36812143419945
 21
-304.99999999999818
 31
0.0
  0
LINE
  5
BE37
  8
SJC2
 10
-918.968121434198
 20
-304.99999999999818
 30
0.0
 11
-942.76812143420284
 21
-304.99999999999818
 31
0.0
  0
INSERT
  5
BE38
  8
SJC
  2
B0030004
 10
-944.56812143420018
 20
-151.2500000000004
 30
0.0
 41
2.5
 42
2.5
 43
2.5
 50
270.0
  0
LINE
  5
BE39
  8
SJC
 10
-944.56812143420018
 20
-158.7500000000004
 30
0.0
 11
-974.56812143420029
 21
-158.7500000000004
 31
0.0
  0
LINE
  5
BE3A
  8
SJC
 10
-944.56812143420018
 20
-158.7500000000004
 30
0.0
 11
-914.56812143420029
 21
-158.7500000000004
 31
0.0
  0
INSERT
  5
BE3B
  8
SJC
  2
B0030003
 10
-944.56812143420018
 20
-151.2500000000004
 30
0.0
 41
2.5
 42
2.5
 43
2.5
 50
90.0
  0
LINE
  5
BE3C
  8
SJC
 10
-724.56811305220606
 20
-165.0000000000004
 30
0.0
 11
-724.56811305220606
 21
-158.7500000000004
 31
0.0
  0
LINE
  5
BE3D
  8
SJC
 10
-716.19311305220253
 20
-267.4999999999755
 30
0.0
 11
-716.19311305220253
 21
-187.49999999999821
 31
0.0
  0
LINE
  5
BE3E
  8
SJC2
 10
-718.57811305221003
 20
-290.00000000000051
 30
0.0
 11
-695.16811305220097
 21
-289.99999999999818
 31
0.0
  0
LINE
  5
BE3F
  8
SJC2
 10
-719.37311305220817
 20
-297.49999999999591
 30
0.0
 11
-695.76811305220679
 21
-297.49999999999818
 31
0.0
  0
LINE
  5
BE40
  8
SJC2
 10
-720.16811305221199
 20
-304.99999999999818
 30
0.0
 11
-696.36811305220544
 21
-304.99999999999818
 31
0.0
  0
LINE
  5
BE41
  8
SJC
 10
-694.56811305220617
 20
-158.7500000000004
 30
0.0
 11
-724.56811305220606
 21
-158.7500000000004
 31
0.0
  0
LINE
  5
BE42
  8
SJC
 10
-672.94311305221345
 20
-267.4999999999755
 30
0.0
 11
-668.17311305220574
 21
-312.49999999999818
 31
0.0
  0
LINE
  5
BE43
  8
SJC
 10
-674.79811305220926
 20
-312.49999999999818
 30
0.0
 11
-672.94311305220799
 21
-329.99999999999818
 31
0.0
  0
DIMENSION
  5
BE44
  8
SUNPOU
  2
*D55
 10
-491.59782489894849
 20
-187.50000000000051
 30
0.0
 11
-560.06349575314562
 21
-89.080132071347634
 31
0.0
 70
   128
  1
t9
  3
SJC
 13
-632.06811724320858
 23
-165.0000000000004
 33
0.0
 14
-632.06811724320858
 24
-187.5000000000004
 34
0.0
 50
90.0
1001
ACAD
1000
DSTYLE
1002
{
1070
   287
1070
     5
1070
   287
1070
     5
1070
   287
1070
     5
1070
   287
1070
     5
1070
    40
1040
25.0
1070
    41
1040
2.0
1070
    42
1040
1.0
1070
    43
1040
6.0
1070
    44
1040
1.0
1070
    73
1070
     0
1070
    74
1070
     0
1070
    77
1070
     1
1070
    78
1070
     8
1070
   140
1040
3.0
1070
   144
1040
0.4
1070
   147
1040
1.1999999999999991
1070
   172
1070
     1
1070
   271
1070
     2
1070
   279
1070
     2
1070
   340
1005
BA4
1002
}
  0
LINE
  5
BE53
  8
SJC
 10
-664.56811305220617
 20
-165.0000000000004
 30
0.0
 11
-664.56811305220617
 21
-158.7500000000004
 31
0.0
  0
LINE
  5
BE54
  8
SJC
 10
-632.06811724320858
 20
-187.5000000000004
 30
0.0
 11
-632.06811724320858
 21
-165.0000000000004
 31
0.0
  0
LINE
  5
BE55
  8
SJC
 10
-672.94311305221345
 20
-267.4999999999755
 30
0.0
 11
-672.94311305220799
 21
-187.49999999999821
 31
0.0
  0
ARC
  5
BE56
  8
SJC
 10
-857.38061724321949
 20
82.288648457155887
 30
0.0
 40
58.366737070650743
 50
49.620806816221418
 51
130.37919318377851
  0
ARC
  5
BE57
  8
SJC
 10
-857.38061724321949
 20
171.21312967632039
 30
0.0
 40
58.366737070650743
 50
229.62080681622149
 51
310.37919318377863
  0
ARC
  5
BE58
  8
SJC
 10
-781.75561724321051
 20
82.288648457155887
 30
0.0
 40
58.366737070650743
 50
49.620806816221418
 51
130.37919318377851
  0
TEXT
  5
BE59
  8
INFORMATION
 10
1.0
 20
2.0
 30
0.0
 40
0.8
  1
PLOTTER=CALCOMP_TECHJET720
  0
TEXT
  5
BE5A
  8
INFORMATION
 10
1.0
 20
3.0
 30
0.0
 40
0.8
  1
PAPER=A3
  0
TEXT
  5
BE5B
  8
INFORMATION
 10
1.0
 20
1.0
 30
0.0
 40
0.8
  1
VERSION=3.0
  0
ENDBLK
  5
AA93
  8
0
  0
BLOCK
  8
0
  2
樹脂キャップ-T40取付詳細図
 70
     0
 10
0.0
 20
0.0
 30
0.0
  3
樹脂キャップ-T40取付詳細図
  1
C:\Documents and Settings\SJC\デスクトップ\G_T-40\ブロックT-40\T-40柵金具詳細図\樹脂キャップ-T40取付詳細図.dwg
  0
TEXT
  5
BF49
  8
INFORMATION
 10
1.0
 20
2.0
 30
0.0
 40
0.8
  1
PLOTTER=CALCOMP_TECHJET720
  0
TEXT
  5
BF4A
  8
INFORMATION
 10
1.0
 20
3.0
 30
0.0
 40
0.8
  1
PAPER=A3
  0
TEXT
  5
BF4B
  8
INFORMATION
 10
1.0
 20
1.0
 30
0.0
 40
0.8
  1
VERSION=3.0
  0
LINE
  5
BF4C
  8
CENTER
 10
-295.00681381741288
 20
-271.12125773085398
 30
0.0
 11
-295.00681381741288
 21
246.62624847515829
 31
0.0
  0
POLYLINE
  5
BF4D
  8
SJC2
 66
     1
 10
0.0
 20
0.0
 30
0.0
  0
VERTEX
  5
C60F
  8
SJC2
 10
-251.00626066407631
 20
-175.005013456016
 30
0.0
  0
VERTEX
  5
C610
  8
SJC2
 10
-251.00626066407631
 20
-184.2044622319392
 30
0.0
  0
VERTEX
  5
C611
  8
SJC2
 10
-339.0073669706735
 20
-184.2044622319392
 30
0.0
  0
VERTEX
  5
C612
  8
SJC2
 10
-339.0073669706735
 20
-175.005013456016
 30
0.0
  0
SEQEND
  5
C613
  8
SJC2
  0
ARC
  5
BF4E
  8
SJC2
 10
-259.00649744230623
 20
-218.20472566781521
 30
0.0
 40
6.0000310361934037
 50
269.99732050691802
 51
0.0041387933915167
  0
LINE
  5
BF4F
  8
SJC2
 10
-259.00677803959343
 20
-224.2047566974382
 30
0.0
 11
-331.00929483456179
 21
-224.2070491093636
 31
0.0
  0
ARC
  5
BF50
  8
SJC2
 10
-331.0107980424209
 20
-218.20701826138449
 30
0.0
 40
6.0000310361934037
 50
179.9973188582031
 51
270.01435450381211
  0
LINE
  5
BF51
  8
SJC2
 10
-337.01082907204272
 20
-218.2067374914277
 30
0.0
 11
-337.00624424835132
 21
-184.2044622319392
 31
0.0
  0
LINE
  5
BF52
  8
SJC2
 10
-323.00755483942339
 20
-184.2044622319392
 30
0.0
 11
-323.00755483942339
 21
-224.2070491093636
 31
0.0
  0
LINE
  5
BF53
  8
SJC2
 10
-267.00729541511009
 20
-184.2044622319392
 30
0.0
 11
-267.00729541511009
 21
-224.2047566974382
 31
0.0
  0
LINE
  5
BF54
  8
SJC2
 10
-253.00768904136069
 20
-184.2044622319392
 30
0.0
 11
-253.0064664217343
 21
-218.20429225209861
 31
0.0
  0
POLYLINE
  5
BF55
  8
SJC2
 66
     1
 10
0.0
 20
0.0
 30
0.0
  0
VERTEX
  5
C614
  8
SJC2
 10
-271.00770693027289
 20
-224.20582648965839
 30
0.0
  0
VERTEX
  5
C615
  8
SJC2
 10
-271.00770693027289
 20
-234.20654962275671
 30
0.0
  0
VERTEX
  5
C616
  8
SJC2
 10
-319.00714332418011
 20
-234.20654962275671
 30
0.0
  0
VERTEX
  5
C617
  8
SJC2
 10
-319.00714332418011
 20
-224.20582648965839
 30
0.0
  0
SEQEND
  5
C618
  8
SJC2
  0
LINE
  5
BF56
  8
HASEN
 10
-347.58923999269467
 20
174.9958438086378
 30
0.0
 11
-347.58923999269467
 21
-175.005013456016
 31
0.0
  0
POLYLINE
  5
BF57
  8
HASEN
 66
     1
 10
0.0
 20
0.0
 30
0.0
  0
VERTEX
  5
C619
  8
HASEN
 10
-340.07746482483122
 20
174.9958438086378
 30
0.0
  0
VERTEX
  5
C61A
  8
HASEN
 10
-340.07746482483122
 20
144.9487431370267
 30
0.0
  0
VERTEX
  5
C61B
  8
HASEN
 10
-249.93616280999549
 20
144.9487431370267
 30
0.0
  0
VERTEX
  5
C61C
  8
HASEN
 10
-249.93616280999549
 20
174.9958438086378
 30
0.0
  0
SEQEND
  5
C61D
  8
HASEN
  0
LINE
  5
BF58
  8
HASEN
 10
-325.05391448902679
 20
144.9487431370267
 30
0.0
 11
-325.05391448902679
 21
-175.005013456016
 31
0.0
  0
LINE
  5
BF59
  8
HASEN
 10
-264.95971314579953
 20
144.9487431370267
 30
0.0
 11
-264.95971314579953
 21
-175.005013456016
 31
0.0
  0
LINE
  5
BF5A
  8
HASEN
 10
-242.42438764213151
 20
174.9958438086378
 30
0.0
 11
-242.42438764213151
 21
-175.005013456016
 31
0.0
  0
LINE
  5
BF5B
  8
HASEN
 10
243.04395015290541
 20
0.0
 30
0.0
 11
243.04395015290541
 21
-174.99935884010691
 31
0.0
  0
LINE
  5
BF5C
  8
HASEN
 10
348.833255492982
 20
-174.99935884010691
 30
0.0
 11
348.833255492982
 21
0.2753950775559133
 31
0.0
  0
LINE
  5
BF5D
  8
CENTER
 10
-525.00694051289474
 20
743.25216925845075
 30
0.0
 11
-525.00694051289418
 21
-479.95076400934607
 31
0.0
  0
TEXT
  5
BF5E
  8
MOJI
 10
-819.26776409887395
 20
407.53800821928411
 30
0.0
 40
75.0
  1
A
 41
0.8
  7
EXT08
  0
TEXT
  5
BF5F
  8
MOJI
 10
326.84522656039729
 20
407.53800821928593
 30
0.0
 40
75.0
  1
A
 41
0.8
  7
EXT08
  0
LINE
  5
BF60
  8
MOJI
 10
414.10570305357493
 20
498.45744902285378
 30
0.0
 11
307.48715593169158
 21
498.45744902285378
 31
0.0
  0
LINE
  5
BF61
  8
MOJI
 10
414.10570305357493
 20
498.45744902285378
 30
0.0
 11
414.10570305357493
 21
386.50770709679409
 31
0.0
  0
POLYLINE
  5
BF62
  8
MOJI
 66
     1
 10
0.0
 20
0.0
 30
0.0
  0
VERTEX
  5
C61E
  8
MOJI
 10
414.10570305357493
 20
386.50770709679409
 30
0.0
  0
VERTEX
  5
C61F
  8
MOJI
 10
437.71410654681949
 20
456.57164580618149
 30
0.0
  0
VERTEX
  5
C620
  8
MOJI
 10
410.29800696168599
 20
467.99492511619292
 30
0.0
  0
SEQEND
  5
C621
  8
MOJI
  0
LINE
  5
BF63
  8
MOJI
 10
-857.19271756285161
 20
498.45744902285378
 30
0.0
 11
-857.19271756285161
 21
386.50770709679409
 31
0.0
  0
POLYLINE
  5
BF64
  8
MOJI
 66
     1
 10
0.0
 20
0.0
 30
0.0
  0
VERTEX
  5
C622
  8
MOJI
 10
-857.19271756285161
 20
386.50770709679409
 30
0.0
  0
VERTEX
  5
C623
  8
MOJI
 10
-880.80112105610169
 20
456.57164580618149
 30
0.0
  0
VERTEX
  5
C624
  8
MOJI
 10
-853.38502147096278
 20
467.99492511619292
 30
0.0
  0
SEQEND
  5
C625
  8
MOJI
  0
LINE
  5
BF65
  8
MOJI
 10
-857.19271756285161
 20
498.45744902285378
 30
0.0
 11
-750.57417044097474
 21
498.45744902285378
 31
0.0
  0
ARC
  5
BF66
  8
SJC
 10
-691.4684099545434
 20
796.62716925845075
 30
0.0
 40
83.578182064509946
 50
140.31073834430029
 51
219.68926165569971
  0
ARC
  5
BF67
  8
SJC
 10
-811.5009013118555
 20
796.62716925845075
 30
0.0
 40
77.157806847342755
 50
316.23008543384827
 51
43.769914566151648
  0
ARC
  5
BF68
  8
SJC
 10
-686.3428906508052
 20
689.87716925845052
 30
0.0
 40
87.583555682237858
 50
142.45256368905461
 51
217.5474363109453
  0
ARC
  5
BF69
  8
SJC
 10
-482.50669450522298
 20
-462.63512823949583
 30
0.0
 40
54.351614128172791
 50
38.560533803103411
 51
141.4394661968966
  0
ARC
  5
BF6A
  8
SJC
 10
-482.50669450522298
 20
-389.38183918595701
 30
0.0
 40
57.935814391740102
 50
222.8130854726281
 51
317.18691452737181
  0
ARC
  5
BF6B
  8
SJC
 10
-567.50642238322598
 20
-386.21784588205099
 30
0.0
 40
60.130364140218887
 50
225.0257409407146
 51
314.97425905928537
  0
ARC
  5
BF6C
  8
SJC
 10
-75.626055801067196
 20
-333.03582707076731
 30
0.0
 40
122.17100463128941
 50
231.75553805928701
 51
308.24446194071299
  0
ARC
  5
BF6D
  8
SJC
 10
75.624986008929227
 20
-524.95819804497933
 30
0.0
 40
122.18749089326739
 50
51.762269648185281
 51
128.23773035181469
  0
ARC
  5
BF6E
  8
SJC
 10
75.624986008929227
 20
-316.95022553327891
 30
0.0
 40
135.17090929830101
 50
235.98037821348149
 51
304.01962178651848
  0
CIRCLE
  5
BF6F
  8
SJC2
 10
0.0
 20
1370.6226645186871
 30
0.0
 40
151.48546002560329
  0
CIRCLE
  5
BF70
  8
SJC2
 10
0.0
 20
1370.6226645186871
 30
0.0
 40
135.46033584673279
  0
CIRCLE
  5
BF71
  8
SJC2
 10
-295.00681381741288
 20
1370.6226645186871
 30
0.0
 40
56.087920298467857
  0
LINE
  5
BF72
  8
SJC2
 10
-221.37851853459779
 20
1370.6226645186871
 30
0.0
 11
-151.4853263015857
 21
1370.6226645186871
 31
0.0
  0
ARC
  5
BF73
  8
SJC2
 10
247.53884922970889
 20
1398.1631513294869
 30
0.0
 40
21.032969514919621
 50
89.998998230080318
 51
180.00100176989361
  0
LINE
  5
BF74
  8
SJC2
 10
247.53921697400079
 20
1419.1961208411999
 30
0.0
 11
343.71720354148692
 21
1419.1997887002331
 31
0.0
  0
ARC
  5
BF75
  8
SJC2
 10
343.7175712839371
 20
1398.1668191884389
 30
0.0
 40
21.032969514919621
 50
0.0006634953977169
 51
90.001001765021314
  0
LINE
  5
BF76
  8
SJC2
 10
364.75054079749498
 20
1398.167062753997
 30
0.0
 11
364.74289942462752
 21
1343.0859076562481
 31
0.0
  0
ARC
  5
BF77
  8
SJC2
 10
343.70992991106959
 20
1343.086151221805
 30
0.0
 40
21.032969514919621
 50
269.99899823497873
 51
359.9993365046023
  0
LINE
  5
BF78
  8
SJC2
 10
343.70956216861941
 20
1322.0531817100921
 30
0.0
 11
247.54043959362659
 21
1322.0495138511419
 31
0.0
  0
ARC
  5
BF79
  8
SJC2
 10
247.5388492101583
 20
1343.0824833059669
 30
0.0
 40
21.032969514919621
 50
179.9973328097993
 51
270.00433235368479
  0
ARC
  5
BF7A
  8
SJC2
 10
248.07319610886219
 20
1398.1444442903539
 30
0.0
 40
5.007850111935463
 50
90.0
 51
180.0
  0
LINE
  5
BF7B
  8
SJC2
 10
248.07319610886219
 20
1403.152294402289
 30
0.0
 11
343.82571103593358
 21
1403.1739959011941
 31
0.0
  0
ARC
  5
BF7C
  8
SJC2
 10
343.82693365563591
 20
1398.166145938533
 30
0.0
 40
5.007850111935463
 50
359.9999982924918
 51
90.01398822761125
  0
LINE
  5
BF7D
  8
SJC2
 10
348.83478376757472
 20
1398.166145789261
 30
0.0
 11
348.83906293637671
 21
1343.0739871146541
 31
0.0
  0
ARC
  5
BF7E
  8
SJC2
 10
343.8312128244433
 20
1343.0739871146541
 30
0.0
 40
5.007850111935463
 50
270.0
 51
0.0
  0
LINE
  5
BF7F
  8
SJC2
 10
343.8312128244433
 20
1338.066137002721
 30
0.0
 11
248.02887614631351
 21
1338.046575088177
 31
0.0
  0
ARC
  5
BF80
  8
SJC2
 10
248.02887581050979
 20
1343.054425200113
 30
0.0
 40
5.007850111935463
 50
179.97901765840069
 51
270.00000384198142
  0
LINE
  5
BF81
  8
SJC2
 10
243.02102603437561
 20
1343.0562591295879
 30
0.0
 11
243.06534599692441
 21
1398.1444442903539
 31
0.0
  0
LINE
  5
BF82
  8
SJC2
 10
151.4853263016675
 20
1370.6226645186871
 30
0.0
 11
243.04395015290541
 21
1370.6226645186871
 31
0.0
  0
LINE
  5
BF83
  8
SJC2
 10
-441.39534442708322
 20
1386.6478460078749
 30
0.0
 11
-369.77122841576647
 21
1386.6478460078749
 31
0.0
  0
LINE
  5
BF84
  8
SJC2
 10
-441.39534442708322
 20
1354.597483029502
 30
0.0
 11
-369.769394486289
 21
1354.597483029502
 31
0.0
  0
LINE
  5
BF85
  8
SJC2
 10
-221.497418296126
 20
1386.6478460078749
 30
0.0
 11
-150.63529998557479
 21
1386.6478460078749
 31
0.0
  0
LINE
  5
BF86
  8
SJC2
 10
-221.49405609214321
 20
1354.597483029502
 30
0.0
 11
-150.63529998557479
 21
1354.597483029502
 31
0.0
  0
ARC
  5
BF87
  8
SJC2
 10
221.49802960605939
 20
1349.5896329175671
 30
0.0
 40
5.007850111935463
 50
0.0
 51
90.0
  0
LINE
  5
BF88
  8
SJC2
 10
150.6352999856563
 20
1354.597483029502
 30
0.0
 11
221.49802960605939
 21
1354.597483029502
 31
0.0
  0
LINE
  5
BF89
  8
SJC2
 10
226.50587971799271
 20
1343.083462416919
 30
0.0
 11
226.50587971799271
 21
1349.5896329175671
 31
0.0
  0
ARC
  5
BF8A
  8
SJC2
 10
221.49802960605939
 20
1391.655696119808
 30
0.0
 40
5.007850111935463
 50
270.0
 51
0.0
  0
LINE
  5
BF8B
  8
SJC2
 10
150.6352999856563
 20
1386.6478460078749
 30
0.0
 11
221.49802960605939
 21
1386.6478460078749
 31
0.0
  0
LINE
  5
BF8C
  8
SJC2
 10
226.50587971799271
 20
1391.655696119808
 30
0.0
 11
226.50587971799271
 21
1398.1627835851921
 31
0.0
  0
LINE
  5
BF8D
  8
CENTER
 10
-295.00681381741288
 20
1482.5146758728681
 30
0.0
 11
-295.00681381741288
 21
1258.73065316459
 31
0.0
  0
LINE
  5
BF8E
  8
CENTER
 10
0.0
 20
1595.778466481275
 30
0.0
 11
0.0
 21
1145.4668625561801
 31
0.0
  0
LINE
  5
BF8F
  8
CENTER
 10
296.25082931770072
 20
1441.370162236514
 30
0.0
 11
296.25082931770072
 21
1299.875166800942
 31
0.0
  0
LINE
  5
BF90
  8
CENTER
 10
-656.43838976814595
 20
1370.6226645186871
 30
0.0
 11
409.20927066692911
 21
1370.6226645186871
 31
0.0
  0
LINE
  5
BF91
  8
CENTER
 10
296.25082931770072
 20
-190.8793542451692
 30
0.0
 11
296.25082931770072
 21
38.945714524009873
 31
0.0
  0
LINE
  5
BF92
  8
HASEN
 10
926.19266391628378
 20
174.99935884010711
 30
0.0
 11
926.19266391628378
 21
0.0
 31
0.0
  0
LINE
  5
BF93
  8
HASEN
 10
1031.3575162669281
 20
0.0
 30
0.0
 11
1031.3575162669281
 21
175.27475391766299
 31
0.0
  0
LINE
  5
BF94
  8
MOJI
 10
1492.7879817168789
 20
573.0919913503385
 30
0.0
 11
1365.606500251703
 21
573.0919913503385
 31
0.0
  0
POLYLINE
  5
BF95
  8
MOJI
 66
     1
 10
0.0
 20
0.0
 30
0.0
  0
VERTEX
  5
C626
  8
MOJI
 10
1492.7879817168789
 20
451.24189572369733
 30
0.0
  0
VERTEX
  5
C627
  8
MOJI
 10
1515.6341582681989
 20
527.3981099731709
 30
0.0
  0
VERTEX
  5
C628
  8
MOJI
 10
1491.264291970333
 20
540.34469696112228
 30
0.0
  0
SEQEND
  5
C629
  8
MOJI
  0
LINE
  5
BF96
  8
MOJI
 10
1492.7879817168789
 20
573.0919913503385
 30
0.0
 11
1492.7879817168789
 21
451.24189572369733
 31
0.0
  0
ARC
  5
BF97
  8
SJC
 10
1689.2443060803739
 20
689.87716925859513
 30
0.0
 40
124.2101635163819
 50
154.55051019803369
 51
205.4494898020946
  0
ARC
  5
BF98
  8
SJC
 10
1482.5854719652541
 20
689.87716925835218
 30
0.0
 40
108.5330302281662
 50
330.54197712359252
 51
29.458022876523859
  0
ARC
  5
BF99
  8
SJC
 10
1497.1978945665401
 20
796.62716925845075
 30
0.0
 40
96.078877401504627
 50
326.25255632967958
 51
33.747443670320401
  0
ARC
  5
BF9A
  8
SJC
 10
1165.6509762723931
 20
-377.22916549596988
 30
0.0
 40
66.970424427634342
 50
230.60894381273349
 51
309.39105618726649
  0
ARC
  5
BF9B
  8
SJC
 10
1250.6505513229131
 20
-471.1393490723853
 30
0.0
 40
59.859023766170118
 50
44.765662350029167
 51
135.2343376499708
  0
ARC
  5
BF9C
  8
SJC
 10
1250.6505513229131
 20
-347.03466119053792
 30
0.0
 40
92.315998521466994
 50
242.5890385263248
 51
297.41096147367517
  0
TEXT
  5
BF9D
  8
MOJI
 10
1406.7552930568411
 20
468.42887154116067
 30
0.0
 40
75.0
  1
B
 41
0.8
  7
EXT08
  0
LINE
  5
BF9E
  8
CENTER
 10
978.15057743732075
 20
192.9021784663928
 30
0.0
 11
978.15057743732075
 21
-34.523875370384758
 31
0.0
  0
LINE
  5
BF9F
  8
SJC
 10
1123.150883092206
 20
414.12083948089952
 30
0.0
 11
1123.150883092206
 21
434.15223992864179
 31
0.0
  0
POLYLINE
  5
BFA0
  8
MOJI
 66
     1
 10
0.0
 20
0.0
 30
0.0
  0
VERTEX
  5
C62A
  8
MOJI
 10
776.20255921012631
 20
451.24189572359819
 30
0.0
  0
VERTEX
  5
C62B
  8
MOJI
 10
753.35561852149203
 20
527.39810997317181
 30
0.0
  0
VERTEX
  5
C62C
  8
MOJI
 10
777.72548481935792
 20
540.34469696102315
 30
0.0
  0
SEQEND
  5
C62D
  8
MOJI
  0
TEXT
  5
BFA1
  8
MOJI
 10
804.19558244546351
 20
465.13564177752778
 30
0.0
 40
75.0
  1
B
 41
0.8
  7
EXT08
  0
LINE
  5
BFA2
  8
MOJI
 10
776.20255921012631
 20
573.0919913503385
 30
0.0
 11
903.38327653798751
 21
573.0919913503385
 31
0.0
  0
LINE
  5
BFA3
  8
MOJI
 10
776.20255921012631
 20
573.0919913503385
 30
0.0
 11
776.20255921012631
 21
451.24189572359819
 31
0.0
  0
LINE
  5
BFA4
  8
SJC
 10
151.24997201777569
 20
-367.85706451646769
 30
0.0
 11
151.24997201777569
 21
-347.82566406880733
 31
0.0
  0
LINE
  5
BFA5
  8
SJC
 10
151.24997201777569
 20
-367.86155315160119
 30
0.0
 11
151.24997201777569
 21
-347.83015270394083
 31
0.0
  0
CIRCLE
  5
BFA6
  8
SJC2
 10
1208.1510694525809
 20
1370.6226645186871
 30
0.0
 40
73.615395690282057
  0
CIRCLE
  5
BFA7
  8
SJC2
 10
1208.1510694525809
 20
1370.6226645186871
 30
0.0
 40
85.133451902902891
  0
ARC
  5
BFA8
  8
SJC2
 10
930.67594810813887
 20
1398.174460559545
 30
0.0
 40
21.032969514919621
 50
90.000663500309088
 51
179.99933649969091
  0
LINE
  5
BFA9
  8
SJC2
 10
930.67570454081931
 20
1419.207430073023
 30
0.0
 11
1026.862249445832
 21
1419.1964264961671
 31
0.0
  0
ARC
  5
BFAA
  8
SJC2
 10
1026.860783258888
 20
1398.1634570322881
 30
0.0
 40
21.032969514919621
 50
0.0006633649007288
 51
89.996005969183287
  0
ARC
  5
BFAB
  8
SJC2
 10
1026.866590723595
 20
1343.076675919461
 30
0.0
 40
21.032969514919621
 50
269.9989981768237
 51
0.0026670351076567
  0
LINE
  5
BFAC
  8
SJC2
 10
1026.8662229597501
 20
1322.0437064077471
 30
0.0
 11
930.69771169460819
 21
1322.0528760551281
 31
0.0
  0
ARC
  5
BFAD
  8
SJC2
 10
930.69795426492692
 20
1343.085845568683
 30
0.0
 40
21.032969514919621
 50
179.98234558229461
 51
269.99933921577917
  0
LINE
  5
BFAE
  8
SJC2
 10
909.66498574845184
 20
1343.092326409494
 30
0.0
 11
909.64297859458122
 21
1398.1747041268659
 31
0.0
  0
ARC
  5
BFAF
  8
SJC2
 10
931.22160421727324
 20
1398.1444442903539
 30
0.0
 40
5.007850111935463
 50
90.0
 51
180.0
  0
LINE
  5
BFB0
  8
SJC2
 10
931.22160421727324
 20
1403.152294402289
 30
0.0
 11
1026.3099310161331
 21
1403.1339551074509
 31
0.0
  0
ARC
  5
BFB1
  8
SJC2
 10
1026.310542363324
 20
1398.1261050328519
 30
0.0
 40
5.007850111935463
 50
0.0069936868015542
 51
90.006994540614286
  0
ARC
  5
BFB2
  8
SJC2
 10
1026.343553989456
 20
1343.082545452183
 30
0.0
 40
5.007850111935463
 50
269.99998932777731
 51
0.0349705706956686
  0
LINE
  5
BFB3
  8
SJC2
 10
1026.343553056711
 20
1338.074695340247
 30
0.0
 11
931.16750329749004
 21
1338.0367941309451
 31
0.0
  0
ARC
  5
BFB4
  8
SJC2
 10
931.16750296168709
 20
1343.0446442428799
 30
0.0
 40
5.007850111935463
 50
179.97901765840069
 51
270.00000384198142
  0
LINE
  5
BFB5
  8
SJC2
 10
926.15965318555754
 20
1343.0464781723549
 30
0.0
 11
926.21375410533608
 21
1398.1444442903539
 31
0.0
  0
ARC
  5
BFB6
  8
SJC2
 10
1052.355331586916
 20
1391.655633973272
 30
0.0
 40
21.032969514919621
 50
180.0348012792027
 51
270.00434286071822
  0
LINE
  5
BFB7
  8
SJC2
 10
1031.318392437923
 20
1398.1267163053669
 30
0.0
 11
1031.3223659518401
 21
1391.6428586133979
 31
0.0
  0
ARC
  5
BFB8
  8
SJC2
 10
1052.3859004720341
 20
1349.589695822893
 30
0.0
 40
21.032969514919621
 50
89.984009527315308
 51
179.98768187039869
  0
LINE
  5
BFB9
  8
SJC2
 10
1031.3529314432369
 20
1349.594217741336
 30
0.0
 11
1031.3514031686491
 21
1343.085602001363
 31
0.0
  0
LINE
  5
BFBA
  8
SJC2
 10
1052.3917704876731
 20
1370.6226645186871
 30
0.0
 11
1123.0176175496781
 21
1370.6226645186871
 31
0.0
  0
ARC
  5
BFBB
  8
SJC2
 10
1052.9025198117799
 20
1391.6556961105159
 30
0.0
 40
5.007850111935463
 50
180.0069940070058
 51
269.99650336997752
  0
LINE
  5
BFBC
  8
SJC2
 10
1047.8937527723631
 20
1398.163700549931
 30
0.0
 11
1047.894669737105
 21
1391.65508480996
 31
0.0
  0
LINE
  5
BFBD
  8
SJC2
 10
1052.902214194153
 20
1386.6478460078749
 30
0.0
 11
1124.5394733667699
 21
1386.6478460078749
 31
0.0
  0
ARC
  5
BFBE
  8
SJC2
 10
1052.9067989805039
 20
1349.5896332533721
 30
0.0
 40
5.007850111935463
 50
90.02098191419131
 51
180.0069979555916
  0
LINE
  5
BFBF
  8
SJC2
 10
1052.9049650883669
 20
1354.597483029502
 30
0.0
 11
1124.5394733667699
 21
1354.597483029502
 31
0.0
  0
LINE
  5
BFC0
  8
SJC2
 10
1047.8989489059061
 20
1349.5890216077951
 30
0.0
 11
1047.8995602157579
 21
1343.077654973607
 31
0.0
  0
LINE
  5
BFC1
  8
CENTER
 10
870.1829291896247
 20
1370.6226645186871
 30
0.0
 11
1343.663786910249
 21
1370.6226645186871
 31
0.0
  0
LINE
  5
BFC2
  8
CENTER
 10
978.77478443668031
 20
1436.119622122784
 30
0.0
 11
978.77478443668031
 21
1305.125706914592
 31
0.0
  0
LINE
  5
BFC3
  8
CENTER
 10
1208.1510694525809
 20
1506.1356876312429
 30
0.0
 11
1208.1510694525809
 21
1235.1096414061319
 31
0.0
  0
LINE
  5
BFC4
  8
SJC
 10
-440.00889373688091
 20
174.9958438086378
 30
0.0
 11
-226.50863061212931
 21
174.9958438086378
 31
0.0
  0
LINE
  5
BFC5
  8
SJC
 10
-364.75573693096072
 20
-175.005013456016
 30
0.0
 11
-151.25547380620489
 21
-175.005013456016
 31
0.0
  0
LINE
  5
BFC6
  8
SJC
 10
-440.00644849763421
 20
-0.0045848236893562
 30
0.0
 11
-151.25211160213939
 21
-0.0045848236891288
 31
0.0
  0
LINE
  5
BFC7
  8
SJC
 10
-226.50863061212931
 20
-175.005013456016
 30
0.0
 11
-226.50863061212931
 21
174.9958438086378
 31
0.0
  0
LINE
  5
BFC8
  8
SJC
 10
-364.75573693096072
 20
-175.005013456016
 30
0.0
 11
-364.75573693096072
 21
174.9958438086378
 31
0.0
  0
ARC
  5
BFC9
  8
SJC2
 10
-295.00681381741288
 20
152.0303700002614
 30
0.0
 40
49.633271754257009
 50
27.561678271972081
 51
152.43832172802789
  0
LINE
  5
BFCA
  8
SJC
 10
151.24997201777569
 20
-174.99935884010691
 30
0.0
 11
364.74931817779179
 21
-174.99935884010691
 31
0.0
  0
ARC
  5
BFCB
  8
SJC
 10
-525.00617637555968
 20
588.46989221674585
 30
0.0
 40
97.632235338298301
 50
29.47024496376892
 51
150.52975503623111
  0
LINE
  5
BFCC
  8
SJC
 10
226.5031288237787
 20
0.0
 30
0.0
 11
226.5031288237787
 21
-174.99935884010691
 31
0.0
  0
LINE
  5
BFCD
  8
SJC
 10
364.74931817779179
 20
0.0
 30
0.0
 11
364.74931817779179
 21
-174.99935884010691
 31
0.0
  0
LINE
  5
BFCE
  8
SJC
 10
151.24997201777569
 20
0.0
 30
0.0
 11
364.74931817779179
 21
0.0
 31
0.0
  0
LINE
  5
BFCF
  8
SJC
 10
-610.00590425356256
 20
636.50216925845052
 30
0.0
 11
-610.00590425356256
 21
-428.75553190736741
 31
0.0
  0
LINE
  5
BFD0
  8
SJC
 10
-440.00644849763421
 20
636.50216925845052
 30
0.0
 11
-440.00644849763421
 21
-428.75553190736741
 31
0.0
  0
LINE
  5
BFD1
  8
SJC
 10
-755.78343069006223
 20
636.50216925845052
 30
0.0
 11
-610.00590425356256
 21
636.50216925845052
 31
0.0
  0
LINE
  5
BFD2
  8
SJC
 10
-300.40957007828689
 20
850.00216925845075
 30
0.0
 11
-300.40957007828689
 21
636.50216925845052
 31
0.0
  0
LINE
  5
BFD3
  8
SJC
 10
-320.4107106895122
 20
850.00216925845075
 30
0.0
 11
-320.4107106895122
 21
636.50216925845052
 31
0.0
  0
LINE
  5
BFD4
  8
SJC
 10
-440.00644849763421
 20
636.50216925845052
 30
0.0
 11
-300.40957007828689
 21
636.50216925845052
 31
0.0
  0
LINE
  5
BFD5
  8
SJC
 10
-300.40957007828689
 20
850.00216925845075
 30
0.0
 11
-755.78343069006223
 21
850.00216925845075
 31
0.0
  0
LINE
  5
BFD6
  8
SJC
 10
-151.25211160213939
 20
790.00216925845075
 30
0.0
 11
-151.25211160213939
 21
-428.98609573420669
 31
0.0
  0
LINE
  5
BFD7
  8
SJC
 10
151.24997201777731
 20
790.00216925845075
 30
0.0
 11
151.24997201777569
 21
-428.98609573420669
 31
0.0
  0
TEXT
  5
BFD8
  8
MOJI
 10
-589.27757957595622
 20
1020.060026632548
 30
0.0
 40
75.0
  1
頭部キャップ
 41
0.8
  7
EXT08
  0
LINE
  5
BFD9
  8
SJC
 10
909.65153693218952
 20
174.99935884010711
 30
0.0
 11
1123.1505774373211
 21
174.99935884010711
 31
0.0
  0
LINE
  5
BFDA
  8
SJC
 10
1123.1505774373211
 20
636.50216925845052
 30
0.0
 11
1123.1505774373211
 21
-428.98609573420657
 31
0.0
  0
LINE
  5
BFDB
  8
SJC
 10
1293.150033193248
 20
636.50216925845052
 30
0.0
 11
1293.150033193248
 21
-428.98609573420657
 31
0.0
  0
LINE
  5
BFDC
  8
SJC
 10
909.65153693218952
 20
174.99935884010711
 30
0.0
 11
909.65153693218952
 21
0.0
 31
0.0
  0
LINE
  5
BFDD
  8
SJC
 10
1047.897726286285
 20
174.99935884010711
 30
0.0
 11
1047.897726286285
 21
0.0
 31
0.0
  0
ARC
  5
BFDE
  8
SJC
 10
1208.150305315324
 20
588.46989221674585
 30
0.0
 40
97.632235338298301
 50
29.47024496376892
 51
150.52975503623111
  0
LINE
  5
BFDF
  8
SJC
 10
1293.150033193248
 20
636.50216925845052
 30
0.0
 11
1577.0869429883439
 21
636.50216925847644
 31
0.0
  0
LINE
  5
BFE0
  8
SJC
 10
909.65153693218952
 20
0.0
 30
0.0
 11
1123.1505774373211
 21
0.0
 31
0.0
  0
LINE
  5
BFE1
  8
SJC
 10
983.55583860241302
 20
850.00216925845075
 30
0.0
 11
983.55583860241302
 21
636.50216925845052
 31
0.0
  0
LINE
  5
BFE2
  8
SJC
 10
1003.556062248902
 20
850.00216925845075
 30
0.0
 11
1003.556062248902
 21
636.50216925845052
 31
0.0
  0
LINE
  5
BFE3
  8
SJC
 10
983.55583860241302
 20
636.50216925845052
 30
0.0
 11
1123.1505774373211
 21
636.50216925845052
 31
0.0
  0
LINE
  5
BFE4
  8
SJC
 10
983.55583860241302
 20
850.00216925845075
 30
0.0
 11
1577.086942988218
 21
850.00216925845075
 31
0.0
  0
LINE
  5
BFE5
  8
CENTER
 10
-808.21944816151733
 20
743.25216925845075
 30
0.0
 11
-258.36117290347329
 21
743.25216925845075
 31
0.0
  0
LINE
  5
BFE6
  8
CENTER
 10
923.77645303710585
 20
743.25216925845075
 30
0.0
 11
1641.8368799824041
 21
743.25216925845075
 31
0.0
  0
LINE
  5
BFE7
  8
CENTER
 10
0.0
 20
944.87782666711075
 30
0.0
 11
0.0
 21
-479.95076400934607
 31
0.0
  0
DIMENSION
  5
BFE8
  8
SUNPOU
  2
*D56
 10
557.53657039649534
 20
-174.99935884010691
 30
0.0
 11
490.03657039649528
 21
-87.499679420053397
 31
0.0
  3
SJC
 13
364.74931817779179
 23
0.0
 33
0.0
 14
364.74931817779179
 24
-174.99935884010691
 34
0.0
 50
90.0
1001
ACAD
1000
DSTYLE
1002
{
1070
   287
1070
     5
1070
    40
1040
25.0
1070
    41
1040
2.0
1070
    42
1040
1.0
1070
    43
1040
6.0
1070
    44
1040
1.0
1070
    73
1070
     0
1070
    74
1070
     0
1070
    77
1070
     1
1070
    78
1070
     8
1070
   140
1040
3.0
1070
   144
1040
0.2
1070
   147
1040
1.1999999999999991
1070
   172
1070
     1
1070
   179
1070
     2
1070
   271
1070
     2
1070
   279
1070
     2
1070
   340
1005
BA4
1002
}
  0
DIMENSION
  5
BFF5
  8
SUNPOU
  2
*D57
 10
1788.7016209482019
 20
-0.0000000000001885
 30
0.0
 11
1721.2016209482031
 21
425.0010846292314
 31
0.0
  3
SJC
 13
1577.0869429882871
 23
850.00216925846257
 33
0.0
 14
1123.1505774373211
 24
0.0
 34
0.0
 50
90.0
1001
ACAD
1000
DSTYLE
1002
{
1070
   287
1070
     5
1070
    40
1040
25.0
1070
    41
1040
2.0
1070
    42
1040
1.0
1070
    43
1040
6.0
1070
    44
1040
1.0
1070
    73
1070
     0
1070
    74
1070
     0
1070
    77
1070
     1
1070
    78
1070
     8
1070
   140
1040
3.0
1070
   144
1040
0.2
1070
   147
1040
1.1999999999999991
1070
   172
1070
     1
1070
   179
1070
     2
1070
   271
1070
     2
1070
   279
1070
     2
1070
   340
1005
BA4
1002
}
  0
DIMENSION
  5
C002
  8
SUNPOU
  2
*D58
 10
978.15057743732075
 20
288.98434221828438
 30
0.0
 11
1050.6507302647631
 21
343.98434221828438
 31
0.0
  3
SJC
 13
1123.150883092206
 23
288.98434221828438
 33
0.0
 14
978.15057743732075
 24
195.03075928784941
 34
0.0
1001
ACAD
1000
DSTYLE
1002
{
1070
   287
1070
     5
1070
    40
1040
25.0
1070
    41
1040
2.0
1070
    42
1040
1.0
1070
    43
1040
6.0
1070
    44
1040
1.0
1070
    73
1070
     0
1070
    77
1070
     1
1070
    78
1070
     8
1070
   140
1040
3.0
1070
   144
1040
0.2
1070
   147
1040
0.7
1070
   172
1070
     1
1070
   179
1070
     2
1070
   271
1070
     2
1070
   279
1070
     2
1070
   340
1005
BA4
1002
}
  0
DIMENSION
  5
C00E
  8
SUNPOU
  2
*D59
 10
909.65153693218952
 20
414.12083948089969
 30
0.0
 11
1016.401210012197
 21
466.6208394808998
 31
0.0
  3
SJC
 13
1123.150883092206
 23
414.12083948089969
 33
0.0
 14
909.65153693218952
 24
174.99935884010711
 34
0.0
1001
ACAD
1000
DSTYLE
1002
{
1070
   287
1070
     5
1070
    40
1040
25.0
1070
    41
1040
2.0
1070
    42
1040
1.0
1070
    43
1040
6.0
1070
    44
1040
1.0
1070
    73
1070
     0
1070
    77
1070
     1
1070
    78
1070
     8
1070
   140
1040
3.0
1070
   144
1040
0.2
1070
   147
1040
0.6
1070
   172
1070
     1
1070
   179
1070
     2
1070
   271
1070
     2
1070
   279
1070
     2
1070
   340
1005
BA4
1002
}
  0
DIMENSION
  5
C01A
  8
SUNPOU
  2
*D60
 10
296.2508293176997
 20
-367.85706451646757
 30
0.0
 11
223.75040066773769
 21
-312.85706451646757
 31
0.0
  3
SJC
 13
151.24997201777569
 23
-367.85706451646757
 33
0.0
 14
296.2508293176997
 24
-195.0307592878471
 34
0.0
1001
ACAD
1000
DSTYLE
1002
{
1070
   287
1070
     5
1070
    40
1040
25.0
1070
    41
1040
2.0
1070
    42
1040
1.0
1070
    43
1040
6.0
1070
    44
1040
1.0
1070
    73
1070
     0
1070
    74
1070
     1
1070
    77
1070
     1
1070
    78
1070
     8
1070
   140
1040
3.0
1070
   144
1040
0.2
1070
   147
1040
0.7
1070
   172
1070
     1
1070
   179
1070
     2
1070
   271
1070
     2
1070
   279
1070
     2
1070
   340
1005
BA4
1002
}
  0
DIMENSION
  5
C026
  8
SUNPOU
  2
*D61
 10
364.74931817779179
 20
-513.68821840826138
 30
0.0
 11
257.99964509778368
 21
-461.18821840826149
 31
0.0
  3
SJC
 13
151.24997201777569
 23
-428.98609573426052
 33
0.0
 14
364.74931817779179
 24
-174.99935884010691
 34
0.0
1001
ACAD
1000
DSTYLE
1002
{
1070
   287
1070
     5
1070
    40
1040
25.0
1070
    41
1040
2.0
1070
    42
1040
1.0
1070
    43
1040
6.0
1070
    44
1040
1.0
1070
    73
1070
     0
1070
    74
1070
     1
1070
    77
1070
     1
1070
    78
1070
     8
1070
   140
1040
3.0
1070
   144
1040
0.2
1070
   147
1040
0.6
1070
   172
1070
     1
1070
   179
1070
     2
1070
   271
1070
     2
1070
   279
1070
     2
1070
   340
1005
BA4
1002
}
  0
DIMENSION
  5
C033
  8
SUNPOU
  2
*D62
 10
750.31179630402858
 20
0.0000000000000451
 30
0.0
 11
682.81179630402846
 21
87.49967942005371
 31
0.0
  3
SJC
 13
909.65184258707438
 23
174.99935884010711
 33
0.0
 14
909.65153693218952
 24
0.0
 34
0.0
 50
90.0
1001
ACAD
1000
DSTYLE
1002
{
1070
   287
1070
     5
1070
    40
1040
25.0
1070
    41
1040
2.0
1070
    42
1040
1.0
1070
    43
1040
6.0
1070
    44
1040
1.0
1070
    73
1070
     0
1070
    74
1070
     0
1070
    77
1070
     1
1070
    78
1070
     8
1070
   140
1040
3.0
1070
   144
1040
0.2
1070
   147
1040
1.1999999999999991
1070
   172
1070
     1
1070
   179
1070
     2
1070
   271
1070
     2
1070
   279
1070
     2
1070
   340
1005
BA4
1002
}
  0
CIRCLE
  5
C040
  8
SJC2
 10
-525.00694051289474
 20
1370.6226645186871
 30
0.0
 40
73.615457776404583
  0
CIRCLE
  5
C041
  8
SJC2
 10
-525.00694051289474
 20
1370.6226645186871
 30
0.0
 40
85.133451902902749
  0
LINE
  5
C042
  8
MOJI
 10
-189.5676493778119
 20
991.92102786745374
 30
0.0
 11
-594.26970956692094
 21
991.92102786745374
 31
0.0
  0
LINE
  5
C043
  8
CENTER
 10
-525.00694051289474
 20
1482.5146758728681
 30
0.0
 11
-525.00694051289474
 21
1258.73065316459
 31
0.0
  0
LINE
  5
C044
  8
SJC2
 10
-247.4264303106697
 20
1338.066137002721
 30
0.0
 11
-249.3351383258273
 21
1338.0657472629259
 31
0.0
  0
LINE
  5
C045
  8
SJC2
 10
-343.18444702625129
 20
1403.152294402289
 30
0.0
 11
-340.69752745561982
 21
1403.1528580416091
 31
0.0
  0
LINE
  5
C046
  8
SJC2
 10
-246.2962563395258
 20
1322.053229454275
 30
0.0
 11
-266.95706809291511
 21
1322.0524414576571
 31
0.0
  0
LINE
  5
C047
  8
SJC2
 10
-343.7184261611124
 20
1419.1961208411999
 30
0.0
 11
-323.04959487733822
 21
1419.1969090710461
 31
0.0
  0
ARC
  5
C048
  8
SJC2
 10
-343.71879390540471
 20
1398.1631513294869
 30
0.0
 40
21.032969514919621
 50
89.998998230080318
 51
180.00100176989361
  0
LINE
  5
C049
  8
SJC2
 10
-364.75176341712091
 20
1391.655696119808
 30
0.0
 11
-364.75176341712091
 21
1398.1627835851921
 31
0.0
  0
ARC
  5
C04A
  8
SJC2
 10
-369.75961352905421
 20
1391.655696119808
 30
0.0
 40
5.007850111935463
 50
270.0
 51
0.0
  0
LINE
  5
C04B
  8
SJC2
 10
-364.75176341712091
 20
1343.083462416919
 30
0.0
 11
-364.75176341712091
 21
1349.5896329175671
 31
0.0
  0
ARC
  5
C04C
  8
SJC2
 10
-369.75961352905421
 20
1349.5896329175671
 30
0.0
 40
5.007850111935463
 50
0.0
 51
90.0
  0
LINE
  5
C04D
  8
SJC2
 10
-348.23661710073787
 20
1343.0562591295879
 30
0.0
 11
-348.22867925676752
 21
1352.922725463354
 31
0.0
  0
ARC
  5
C04E
  8
SJC2
 10
-343.22876732460372
 20
1343.054425200113
 30
0.0
 40
5.007850111935463
 50
179.97901765840069
 51
270.00000384198142
  0
ARC
  5
C04F
  8
SJC2
 10
-343.18444702625129
 20
1398.1444442903539
 30
0.0
 40
5.007850111935463
 50
90.0
 51
180.0
  0
ARC
  5
C050
  8
SJC2
 10
-343.71879392495481
 20
1343.0824833059669
 30
0.0
 40
21.032969514919621
 50
179.9973328097993
 51
270.00433235368479
  0
ARC
  5
C051
  8
SJC2
 10
-247.4264303106697
 20
1343.0739871146541
 30
0.0
 40
5.007850111935463
 50
270.0
 51
0.0
  0
LINE
  5
C052
  8
SJC2
 10
-242.4228593675389
 20
1398.166145789261
 30
0.0
 11
-242.4222355365259
 21
1390.134633420583
 31
0.0
  0
ARC
  5
C053
  8
SJC2
 10
-247.4307094794772
 20
1398.166145938533
 30
0.0
 40
5.007850111935463
 50
359.9999982924918
 51
90.01398822761125
  0
ARC
  5
C054
  8
SJC2
 10
-246.2948337294211
 20
1398.1631513294869
 30
0.0
 40
21.032969514919621
 50
359.99899823009332
 51
90.001001769919668
  0
ARC
  5
C055
  8
SJC2
 10
-220.2540141057716
 20
1391.655696119808
 30
0.0
 40
5.007850111935463
 50
180.0
 51
270.0
  0
LINE
  5
C056
  8
SJC2
 10
-225.26186421770541
 20
1391.655696119808
 30
0.0
 11
-225.26186421770541
 21
1398.1627835851921
 31
0.0
  0
ARC
  5
C057
  8
SJC2
 10
-246.29483370987151
 20
1343.0824833059669
 30
0.0
 40
21.032969514919621
 50
269.99566764631521
 51
0.0026671902006628
  0
ARC
  5
C058
  8
SJC2
 10
-220.2540141057716
 20
1349.5896329175671
 30
0.0
 40
5.007850111935463
 50
90.0
 51
180.0
  0
LINE
  5
C059
  8
SJC2
 10
-225.26186421770541
 20
1343.083462416919
 30
0.0
 11
-225.26186421770541
 21
1349.5896329175671
 31
0.0
  0
LINE
  5
C05A
  8
SJC2
 10
-266.96773770932299
 20
1419.199047817694
 30
0.0
 11
-246.29448882568201
 21
1419.19983621601
 31
0.0
  0
LINE
  5
C05B
  8
SJC2
 10
-249.3308502596897
 20
1403.1735655274281
 30
0.0
 11
-247.43193209917939
 21
1403.1739959011941
 31
0.0
  0
LINE
  5
C05C
  8
SJC2
 10
-340.66518988316921
 20
1338.0470985459331
 30
0.0
 11
-343.22876698880009
 21
1338.046575088177
 31
0.0
  0
LINE
  5
C05D
  8
SJC2
 10
-323.05285455539843
 20
1322.050301982667
 30
0.0
 11
-343.71720354148692
 21
1322.0495138511419
 31
0.0
  0
LINE
  5
C05E
  8
SJC2
 10
-348.20013020084298
 20
1388.408217519356
 30
0.0
 11
-348.19229713818908
 21
1398.1444442903539
 31
0.0
  0
LINE
  5
C05F
  8
SJC2
 10
-242.41920506786121
 20
1351.1188646476021
 30
0.0
 11
-242.41858019873689
 21
1343.0739871146541
 31
0.0
  0
TEXT
  5
C060
  8
MOJI
 10
1275.0035155658311
 20
1033.7473514993201
 30
0.0
 40
75.0
  1
格子パネル
 41
0.8
  7
EXT08
  0
LINE
  5
C061
  8
MOJI
 10
1254.933832052554
 20
1010.875986212174
 30
0.0
 11
1649.6944658435229
 21
1010.875986212174
 31
0.0
  0
INSERT
  5
C062
  8
0
  2
*U109
 10
0.0
 20
0.0
 30
0.0
1001
ACAD
1000
DSTYLE
1002
{
1070
     5
1000

1070
    40
1040
25.0
1070
    41
1040
2.0
1070
    42
1040
1.0
1070
    43
1040
6.0
1070
    44
1040
1.0
1070
    73
1070
     0
1070
    74
1070
     0
1070
    77
1070
     1
1070
    78
1070
     8
1070
   140
1040
3.0
1070
   144
1040
0.6
1070
   147
1040
1.1999999999999991
1070
   172
1070
     1
1070
   179
1070
     2
1070
   271
1070
     2
1070
   279
1070
     2
1070
   340
1005
BA4
1070
   342
1005
0
1002
}
  0
TEXT
  5
C063
  8
MOJI
 10
478.10932056708771
 20
904.9272810272771
 30
0.0
 40
75.0
  1
支  柱
 41
0.8
  7
EXT08
  0
LINE
  5
C064
  8
MOJI
 10
314.24326853462662
 20
878.5642031647842
 30
0.0
 11
863.22179680077261
 21
878.5642031647842
 31
0.0
  0
TEXT
  5
C065
  8
MOJI
 10
337.94386941063749
 20
777.20112530229119
 30
0.0
 40
75.0
  1
%%c60.5×t3.2
 41
0.8
  7
EXT08
  0
INSERT
  5
C066
  8
0
  2
*U110
 10
0.0
 20
0.0
 30
0.0
1001
ACAD
1000
DSTYLE
1002
{
1070
     5
1000

1070
    40
1040
25.0
1070
    41
1040
2.0
1070
    42
1040
1.0
1070
    43
1040
6.0
1070
    44
1040
1.0
1070
    73
1070
     0
1070
    74
1070
     0
1070
    77
1070
     1
1070
    78
1070
     8
1070
   140
1040
3.0
1070
   144
1040
0.6
1070
   147
1040
1.1999999999999991
1070
   172
1070
     1
1070
   179
1070
     2
1070
   271
1070
     2
1070
   279
1070
     2
1070
   340
1005
BA4
1070
   342
1005
0
1002
}
  0
LINE
  5
C067
  8
MOJI
 10
-815.07612004640032
 20
-612.425848107452
 30
0.0
 11
-414.05209185886901
 21
-612.425848107452
 31
0.0
  0
TEXT
  5
C068
  8
MOJI
 10
-811.68681178071699
 20
-705.42266426864535
 30
0.0
 40
75.0
  1
M12×90
 41
0.8
  7
EXT08
  0
TEXT
  5
C069
  8
MOJI
 10
-795.84990336620638
 20
-594.87063056087118
 30
0.0
 40
75.0
  1
角根ボルト
 41
0.8
  7
EXT08
  0
INSERT
  5
C06A
  8
0
  2
*U111
 10
0.0
 20
0.0
 30
0.0
1001
ACAD
1000
DSTYLE
1002
{
1070
     5
1000

1070
    40
1040
25.0
1070
    41
1040
2.0
1070
    42
1040
1.0
1070
    43
1040
6.0
1070
    44
1040
1.0
1070
    73
1070
     0
1070
    74
1070
     0
1070
    77
1070
     1
1070
    78
1070
     8
1070
   140
1040
3.0
1070
   144
1040
0.6
1070
   147
1040
1.1999999999999991
1070
   172
1070
     1
1070
   179
1070
     2
1070
   271
1070
     2
1070
   279
1070
     2
1070
   340
1005
BA4
1070
   342
1005
0
1002
}
  0
LINE
  5
C06B
  8
CENTER
 10
1208.1510694525821
 20
-479.95076400934607
 30
0.0
 11
1208.1510694525809
 21
743.25216925845075
 31
0.0
  0
INSERT
  5
C06C
  8
0
  2
*U112
 10
0.0
 20
0.0
 30
0.0
1001
ACAD
1000
DSTYLE
1002
{
1070
    40
1040
25.0
1070
    41
1040
2.0
1070
    42
1040
1.0
1070
    43
1040
6.0
1070
    44
1040
1.0
1070
    73
1070
     0
1070
    74
1070
     0
1070
    77
1070
     0
1070
    78
1070
     8
1070
   140
1040
3.0
1070
   147
1040
1.1999999999999991
1070
   172
1070
     1
1070
   271
1070
     2
1070
   279
1070
     2
1070
   340
1005
BA4
1002
}
  0
TEXT
  5
C06D
  8
MOJI
 10
749.4643963966937
 20
-351.63438276681927
 30
0.0
 40
75.0
  1
取付金具
 41
0.8
  7
EXT08
  0
LINE
  5
C06E
  8
MOJI
 10
653.63622665392256
 20
-374.50574805396491
 30
0.0
 11
1048.3968604448919
 21
-374.50574805396491
 31
0.0
  0
INSERT
  5
C06F
  8
0
  2
*U113
 10
0.0
 20
0.0
 30
0.0
1001
ACAD
1000
DSTYLE
1002
{
1070
     5
1000

1070
    40
1040
25.0
1070
    41
1040
2.0
1070
    42
1040
1.0
1070
    43
1040
6.0
1070
    44
1040
1.0
1070
    73
1070
     0
1070
    74
1070
     0
1070
    77
1070
     1
1070
    78
1070
     8
1070
   140
1040
3.0
1070
   144
1040
0.6
1070
   147
1040
1.1999999999999991
1070
   172
1070
     1
1070
   179
1070
     2
1070
   271
1070
     2
1070
   279
1070
     2
1070
   340
1005
BA4
1070
   342
1005
0
1002
}
  0
INSERT
  5
C070
  8
0
  2
*U114
 10
0.0
 20
0.0
 30
0.0
1001
ACAD
1000
DSTYLE
1002
{
1070
     5
1000

1070
    40
1040
25.0
1070
    41
1040
2.0
1070
    42
1040
1.0
1070
    43
1040
6.0
1070
    44
1040
1.0
1070
    73
1070
     0
1070
    74
1070
     0
1070
    77
1070
     1
1070
    78
1070
     8
1070
   140
1040
3.0
1070
   144
1040
0.6
1070
   147
1040
1.1999999999999991
1070
   172
1070
     1
1070
   179
1070
     2
1070
   271
1070
     2
1070
   279
1070
     2
1070
   340
1005
BA4
1070
   342
1005
0
1002
}
  0
INSERT
  5
C071
  8
SJC
  2
T-40樹脂キャップ
 10
0.0
 20
850.00216925845075
 30
0.0
 41
5.0
 42
5.0
 43
5.0
  0
ENDBLK
  5
AC24
  8
0
  0
BLOCK
  8
0
  2
*D38
 70
     1
 10
0.0
 20
0.0
 30
0.0
  3
*D38
  1

  0
LINE
  5
C588
  8
SUNPOU
 10
903.22740937917661
 20
5808.829361586987
 30
0.0
 11
903.22740937917661
 21
6136.271538654185
 31
0.0
  0
LINE
  5
C589
  8
SUNPOU
 10
2383.2266874179768
 20
5826.5287949144858
 30
0.0
 11
2383.2266874179768
 21
6136.271538654185
 31
0.0
  0
LINE
  5
C58A
  8
SUNPOU
 10
953.22740937917661
 20
6111.2715386541859
 30
0.0
 11
2333.2266874179768
 21
6111.2715386541859
 31
0.0
  0
SOLID
  5
C58B
  8
SUNPOU
 10
953.22740937917661
 20
6119.6048719875189
 30
0.0
 11
953.22740937917661
 21
6102.9382053208528
 31
0.0
 12
903.22740937917661
 22
6111.2715386541859
 32
0.0
 13
903.22740937917661
 23
6111.2715386541859
 33
0.0
  0
SOLID
  5
C58C
  8
SUNPOU
 10
2333.2266874179768
 20
6119.6048719875189
 30
0.0
 11
2333.2266874179768
 21
6102.9382053208528
 31
0.0
 12
2383.2266874179768
 22
6111.2715386541859
 32
0.0
 13
2383.2266874179768
 23
6111.2715386541859
 33
0.0
  0
TEXT
  8
SUNPOU
  40
75
  5
C709
  72
0
  71
0
 10
1493.23
 20
6046.02
 30
0.000000
  1
10@148=1480
  7
EXT08
  0
POINT
  5
C58E
  8
DEFPOINTS
 62
     0
 10
903.22740937917661
 20
5783.8293615869861
 30
0.0
  0
POINT
  5
C58F
  8
DEFPOINTS
 62
     0
 10
2383.2266874179768
 20
5801.5287949144858
 30
0.0
  0
POINT
  5
C590
  8
DEFPOINTS
 62
     0
 10
2383.2266874179768
 20
6111.2715386541859
 30
0.0
  0
ENDBLK
  5
B30E
  8
0
  0
BLOCK
  8
0
  2
*D39
 70
     1
 10
0.0
 20
0.0
 30
0.0
  3
*D39
  1

  0
LINE
  5
C591
  8
SUNPOU
 62
     0
 10
703.22743582877592
 20
5826.5287949144858
 30
0.0
 11
703.22743582877592
 21
6136.271538654185
 31
0.0
  0
LINE
  5
C592
  8
SUNPOU
 62
     0
 10
748.2275131285769
 20
5826.5287949144858
 30
0.0
 11
748.2275131285769
 21
6136.271538654185
 31
0.0
  0
LINE
  5
C593
  8
SUNPOU
 62
     0
 10
653.22743582877592
 20
6111.2715386541859
 30
0.0
 11
603.22743582877592
 21
6111.2715386541859
 31
0.0
  0
LINE
  5
C594
  8
SUNPOU
 62
     0
 10
748.2275131285769
 20
6111.2715386541859
 30
0.0
 11
798.2275131285769
 21
6111.2715386541859
 31
0.0
  0
TEXT
  8
SUNPOU
  40
75
  5
C70A
  62
0
  72
0
  71
0
 10
587.672
 20
6052.12
 30
0.000000
  1
(45)
  7
EXT08
  0
LINE
  5
C596
  8
SUNPOU
 62
     0
 10
703.22743582877592
 20
6111.2715386541859
 30
0.0
 11
748.2275131285769
 21
6111.2715386541859
 31
0.0
  0
SOLID
  5
C597
  8
SUNPOU
 62
     0
 10
653.22743582877592
 20
6119.6048719875189
 30
0.0
 11
653.22743582877592
 21
6102.9382053208528
 31
0.0
 12
703.22743582877592
 22
6111.2715386541859
 32
0.0
 13
703.22743582877592
 23
6111.2715386541859
 33
0.0
  0
INSERT
  5
C598
  8
SUNPOU
 62
     0
  2
_DOTSMALL
 10
748.2275131285769
 20
6111.2715386541859
 30
0.0
 41
50.0
 42
50.0
 43
50.0
 50
180.0
  0
POINT
  5
C599
  8
DEFPOINTS
 62
     0
 10
703.22743582877592
 20
5801.5287949144858
 30
0.0
  0
POINT
  5
C59A
  8
DEFPOINTS
 62
     0
 10
748.2275131285769
 20
5801.5287949144858
 30
0.0
  0
POINT
  5
C59B
  8
DEFPOINTS
 62
     0
 10
748.2275131285769
 20
6111.2715386541859
 30
0.0
  0
ENDBLK
  5
B31C
  8
0
  0
BLOCK
  8
0
  2
*D40
 70
     1
 10
0.0
 20
0.0
 30
0.0
  3
*D40
  1

  0
LINE
  5
C59C
  8
SUNPOU
 62
     0
 10
748.2275131285769
 20
5826.5287949144858
 30
0.0
 11
748.2275131285769
 21
6136.271538654185
 31
0.0
  0
LINE
  5
C59D
  8
SUNPOU
 62
     0
 10
903.22740937917661
 20
5833.8293615869861
 30
0.0
 11
903.22740937917661
 21
6136.271538654185
 31
0.0
  0
LINE
  5
C59E
  8
SUNPOU
 62
     0
 10
748.2275131285769
 20
6111.2715386541859
 30
0.0
 11
853.22740937917661
 21
6111.2715386541859
 31
0.0
  0
TEXT
  8
SUNPOU
  40
75
  5
C70B
  62
0
  72
0
  71
0
 10
769.288
 20
6047.93
 30
0.000000
  1
155
  7
EXT08
  0
INSERT
  5
C5A0
  8
SUNPOU
 62
     0
  2
_DOTSMALL
 10
748.2275131285769
 20
6111.2715386541859
 30
0.0
 41
50.0
 42
50.0
 43
50.0
 50
180.0
  0
SOLID
  5
C5A1
  8
SUNPOU
 62
     0
 10
853.22740937917661
 20
6119.6048719875189
 30
0.0
 11
853.22740937917661
 21
6102.9382053208528
 31
0.0
 12
903.22740937917661
 22
6111.2715386541859
 32
0.0
 13
903.22740937917661
 23
6111.2715386541859
 33
0.0
  0
POINT
  5
C5A2
  8
DEFPOINTS
 62
     0
 10
748.2275131285769
 20
5801.5287949144858
 30
0.0
  0
POINT
  5
C5A3
  8
DEFPOINTS
 62
     0
 10
903.22740937917661
 20
5808.829361586987
 30
0.0
  0
POINT
  5
C5A4
  8
DEFPOINTS
 62
     0
 10
903.22740937917661
 20
6111.2715386541859
 30
0.0
  0
ENDBLK
  5
B328
  8
0
  0
BLOCK
  8
0
  2
*D41
 70
     1
 10
0.0
 20
0.0
 30
0.0
  3
*D41
  1

  0
LINE
  5
C5A5
  8
SUNPOU
 62
     0
 10
2538.226583668576
 20
5826.5287949144858
 30
0.0
 11
2538.226583668576
 21
6136.271538654185
 31
0.0
  0
LINE
  5
C5A6
  8
SUNPOU
 62
     0
 10
2383.2266874179768
 20
5826.5287949144858
 30
0.0
 11
2383.2266874179768
 21
6136.271538654185
 31
0.0
  0
LINE
  5
C5A7
  8
SUNPOU
 62
     0
 10
2538.226583668576
 20
6111.2715386541859
 30
0.0
 11
2433.2266874179768
 21
6111.2715386541859
 31
0.0
  0
TEXT
  8
SUNPOU
  40
75
  5
C70C
  62
0
  72
0
  71
0
 10
2217.17
 20
6047.93
 30
0.000000
  1
155
  7
EXT08
  0
INSERT
  5
C5A9
  8
SUNPOU
 62
     0
  2
_DOTSMALL
 10
2538.226583668576
 20
6111.2715386541859
 30
0.0
 41
50.0
 42
50.0
 43
50.0
  0
SOLID
  5
C5AA
  8
SUNPOU
 62
     0
 10
2433.2266874179768
 20
6119.6048719875189
 30
0.0
 11
2433.2266874179768
 21
6102.9382053208528
 31
0.0
 12
2383.2266874179768
 22
6111.2715386541859
 32
0.0
 13
2383.2266874179768
 23
6111.2715386541859
 33
0.0
  0
POINT
  5
C5AB
  8
DEFPOINTS
 62
     0
 10
2538.226583668576
 20
5801.5287949144858
 30
0.0
  0
POINT
  5
C5AC
  8
DEFPOINTS
 62
     0
 10
2383.2266874179768
 20
5801.5287949144858
 30
0.0
  0
POINT
  5
C5AD
  8
DEFPOINTS
 62
     0
 10
2383.2266874179768
 20
6111.2715386541859
 30
0.0
  0
ENDBLK
  5
B334
  8
0
  0
BLOCK
  8
0
  2
*D42
 70
     1
 10
0.0
 20
0.0
 30
0.0
  3
*D42
  1

  0
LINE
  5
C5AE
  8
SUNPOU
 62
     0
 10
2583.2266609683779
 20
5826.5287949144858
 30
0.0
 11
2583.2266609683779
 21
6136.271538654185
 31
0.0
  0
LINE
  5
C5AF
  8
SUNPOU
 62
     0
 10
2538.226583668576
 20
5826.5287949144858
 30
0.0
 11
2538.226583668576
 21
6136.271538654185
 31
0.0
  0
LINE
  5
C5B0
  8
SUNPOU
 62
     0
 10
2633.226660968377
 20
6111.2715386541859
 30
0.0
 11
2683.2266609683779
 21
6111.2715386541859
 31
0.0
  0
LINE
  5
C5B1
  8
SUNPOU
 62
     0
 10
2538.226583668576
 20
6111.2715386541859
 30
0.0
 11
2488.226583668577
 21
6111.2715386541859
 31
0.0
  0
TEXT
  8
SUNPOU
  40
75
  5
C70D
  62
0
  72
0
  71
0
 10
2398.78
 20
6052.12
 30
0.000000
  1
(45)
  7
EXT08
  0
LINE
  5
C5B3
  8
SUNPOU
 62
     0
 10
2583.2266609683779
 20
6111.2715386541859
 30
0.0
 11
2538.226583668576
 21
6111.2715386541859
 31
0.0
  0
SOLID
  5
C5B4
  8
SUNPOU
 62
     0
 10
2633.226660968377
 20
6119.6048719875189
 30
0.0
 11
2633.226660968377
 21
6102.9382053208528
 31
0.0
 12
2583.2266609683779
 22
6111.2715386541859
 32
0.0
 13
2583.2266609683779
 23
6111.2715386541859
 33
0.0
  0
INSERT
  5
C5B5
  8
SUNPOU
 62
     0
  2
_DOTSMALL
 10
2538.226583668576
 20
6111.2715386541859
 30
0.0
 41
50.0
 42
50.0
 43
50.0
  0
POINT
  5
C5B6
  8
DEFPOINTS
 62
     0
 10
2583.2266609683779
 20
5801.5287949144858
 30
0.0
  0
POINT
  5
C5B7
  8
DEFPOINTS
 62
     0
 10
2538.226583668576
 20
5801.5287949144858
 30
0.0
  0
POINT
  5
C5B8
  8
DEFPOINTS
 62
     0
 10
2538.226583668576
 20
6111.2715386541859
 30
0.0
  0
ENDBLK
  5
B342
  8
0
  0
BLOCK
  8
0
  2
樹脂キャップ-T-40111支柱図2000
 70
     0
 10
0.0
 20
0.0
 30
0.0
  3
樹脂キャップ-T-40111支柱図2000
  1
C:\Documents and Settings\SJC\デスクトップ\G_T-40\ブロックT-40\T-40柵金具詳細図\樹脂キャップ-T-40111支柱図2000.dwg
  0
TEXT
  5
C07F
  8
INFORMATION
 10
1.0
 20
1.0
 30
0.0
 40
0.8
  1
VERSION=3.0
 41
0.8
  7
EXT08
  0
TEXT
  5
C080
  8
MOJI
 10
-739.22924024849806
 20
24.821664204081571
 30
0.0
 40
75.0
  1
GL
 41
0.8
  7
EXT08
  0
LINE
  5
C081
  8
SJC
 10
-757.18884464425355
 20
0.0
 30
0.0
 11
757.18808029321235
 21
0.0
 31
0.0
  0
LINE
  5
C082
  8
SJC
 10
-99.996322071079703
 20
1833.2707358150369
 30
0.0
 11
-99.996322071079703
 21
1762.0615121545941
 31
0.0
  0
LINE
  5
C083
  8
SJC
 10
-106.665283745102
 20
1833.2707358150369
 30
0.0
 11
-106.665283745102
 21
1762.0615121545941
 31
0.0
  0
LINE
  5
C084
  8
SJC
 10
-99.996322071079703
 20
1833.2707358150369
 30
0.0
 11
-757.18884464425355
 21
1833.2707358150369
 31
0.0
  0
LINE
  5
C085
  8
SJC
 10
344.63168401453731
 20
1833.2707358150369
 30
0.0
 11
344.63168401453731
 21
1833.2707358150369
 31
0.0
  0
LINE
  5
C086
  8
CENTER
 10
-91.284632594848503
 20
1797.665741809396
 30
0.0
 11
-783.51356764190496
 21
1797.665741809396
 31
0.0
  0
LINE
  5
C087
  8
CENTER
 10
91.284632594748459
 20
1797.665741809396
 30
0.0
 11
783.5135676418048
 21
1797.665741809396
 31
0.0
  0
LINE
  5
C088
  8
SJC
 10
-757.18884464425355
 20
1762.0615121545941
 30
0.0
 11
-99.996322071079703
 21
1762.0615121545941
 31
0.0
  0
LINE
  5
C089
  8
SJC
 10
-106.6976541526837
 20
321.17230252229109
 30
0.0
 11
-106.6976541526837
 21
249.9625055986719
 31
0.0
  0
LINE
  5
C08A
  8
SJC
 10
-100.02907465407949
 20
321.17230252229109
 30
0.0
 11
-100.02907465407949
 21
249.9625055986719
 31
0.0
  0
LINE
  5
C08B
  8
SJC
 10
-100.02907465407949
 20
249.9625055986719
 30
0.0
 11
-757.18884464425355
 21
249.9625055986719
 31
0.0
  0
LINE
  5
C08C
  8
SJC
 10
-146.7098954949451
 20
1762.0615121545941
 30
0.0
 11
-146.7098954949451
 21
321.17230252229109
 31
0.0
  0
LINE
  5
C08D
  8
SJC
 10
-203.3922479697012
 20
1762.0615121545941
 30
0.0
 11
-203.3922479697012
 21
321.17230252229109
 31
0.0
  0
LINE
  5
C08E
  8
CENTER
 10
-90.784632594848517
 20
285.56749960431102
 30
0.0
 11
-783.51356764190496
 21
285.56749960431102
 31
0.0
  0
LINE
  5
C08F
  8
CENTER
 10
-175.0504984691452
 20
1797.665741809396
 30
0.0
 11
-175.0504984691452
 21
285.56749960431102
 31
0.0
  0
LINE
  5
C090
  8
CENTER
 10
90.784632594748473
 20
285.56749960431102
 30
0.0
 11
783.5135676418048
 21
285.56749960431102
 31
0.0
  0
LINE
  5
C091
  8
CENTER
 10
175.0504984690451
 20
1797.665741809396
 30
0.0
 11
175.0504984690451
 21
285.56749960431102
 31
0.0
  0
LINE
  5
C092
  8
SJC
 10
-100.0290746540793
 20
321.17230252229109
 30
0.0
 11
-757.18884464425355
 21
321.17230252229109
 31
0.0
  0
LINE
  5
C093
  8
SJC
 10
344.63168401453731
 20
249.9625055986719
 30
0.0
 11
344.63168401453731
 21
249.9625055986719
 31
0.0
  0
POINT
  5
C094
  8
DEFPOINTS
  6
BYBLOCK
 62
     0
 10
-403.4492507514023
 20
1787.4077627144279
 30
0.0
  0
POINT
  5
C095
  8
DEFPOINTS
  6
BYBLOCK
 62
     0
 10
-175.05088064456319
 20
1787.4077627144279
 30
0.0
  0
POINT
  5
C096
  8
DEFPOINTS
  6
BYBLOCK
 62
     0
 10
-175.05088064456319
 20
1787.4077627144279
 30
0.0
  0
LINE
  5
C097
  8
SJC
 10
203.39148361866501
 20
1762.0615121545941
 30
0.0
 11
203.39148361866501
 21
321.17230252229109
 31
0.0
  0
LINE
  5
C098
  8
SJC
 10
146.70913114390891
 20
1762.0615121545941
 30
0.0
 11
146.70913114390891
 21
321.17230252229109
 31
0.0
  0
LINE
  5
C099
  8
SJC
 10
106.66451939406581
 20
1833.2707358150369
 30
0.0
 11
106.66451939406581
 21
1762.0615121545941
 31
0.0
  0
LINE
  5
C09A
  8
SJC
 10
99.995557720043507
 20
1833.2707358150369
 30
0.0
 11
99.995557720043507
 21
1762.0615121545941
 31
0.0
  0
LINE
  5
C09B
  8
SJC
 10
757.18808029321735
 20
1762.0615121545941
 30
0.0
 11
99.995557720043507
 21
1762.0615121545941
 31
0.0
  0
LINE
  5
C09C
  8
SJC
 10
99.995557720043507
 20
1833.2707358150369
 30
0.0
 11
757.18808029321735
 21
1833.2707358150369
 31
0.0
  0
LINE
  5
C09D
  8
SJC
 10
100.0283103030431
 20
321.17230252229109
 30
0.0
 11
757.18808029321735
 21
321.17230252229109
 31
0.0
  0
LINE
  5
C09E
  8
SJC
 10
100.0283103030433
 20
249.9625055986719
 30
0.0
 11
757.18808029321735
 21
249.9625055986719
 31
0.0
  0
LINE
  5
C09F
  8
SJC
 10
100.0283103030433
 20
321.17230252229109
 30
0.0
 11
100.0283103030433
 21
249.9625055986719
 31
0.0
  0
LINE
  5
C0A0
  8
SJC
 10
106.6968898016475
 20
321.17230252229109
 30
0.0
 11
106.6968898016475
 21
249.9625055986719
 31
0.0
  0
ARC
  5
C0A1
  8
SJC
 10
-707.42728619173295
 20
1815.4682388122201
 30
0.0
 40
52.850180691828648
 50
160.31502461925609
 51
199.68497538074999
  0
ARC
  5
C0A2
  8
SJC
 10
-707.42728619173022
 20
1779.8632448065789
 30
0.0
 40
52.850180691828648
 50
160.31502461925609
 51
199.68497538074999
  0
ARC
  5
C0A3
  8
SJC
 10
-806.95040309677188
 20
1779.8632448065789
 30
0.0
 40
52.850180691828648
 50
340.31502461924998
 51
19.684975380743879
  0
ARC
  5
C0A4
  8
SJC
 10
-806.95040309677188
 20
267.76481151383382
 30
0.0
 40
52.850180691828648
 50
340.31502461924998
 51
19.684975380743879
  0
ARC
  5
C0A5
  8
SJC
 10
-707.42728619173022
 20
267.76481151383382
 30
0.0
 40
52.850180691828648
 50
160.31502461925609
 51
199.68497538074999
  0
ARC
  5
C0A6
  8
SJC
 10
-707.42728619173295
 20
303.36980551947482
 30
0.0
 40
52.850180691828648
 50
160.31502461925609
 51
199.68497538074999
  0
ARC
  5
C0A7
  8
SJC
 10
806.94963874573659
 20
1815.4682388122169
 30
0.0
 40
52.850180691828648
 50
160.31502461925609
 51
199.68497538074999
  0
ARC
  5
C0A8
  8
SJC
 10
707.42728619173022
 20
1779.8632448065789
 30
0.0
 40
52.850180691828648
 50
340.31502461924998
 51
19.684975380743879
  0
ARC
  5
C0A9
  8
SJC
 10
707.42728619173295
 20
1815.4682388122201
 30
0.0
 40
52.850180691828648
 50
340.31502461924998
 51
19.684975380743879
  0
ARC
  5
C0AA
  8
SJC
 10
707.42652184069402
 20
267.76481151383382
 30
0.0
 40
52.850180691828648
 50
340.31502461924998
 51
19.684975380743879
  0
ARC
  5
C0AB
  8
SJC
 10
806.94887439470028
 20
303.36980551947107
 30
0.0
 40
52.850180691828648
 50
160.31502461925609
 51
199.68497538074999
  0
ARC
  5
C0AC
  8
SJC
 10
707.42652184069675
 20
303.36980551947482
 30
0.0
 40
52.850180691828648
 50
340.31502461924998
 51
19.684975380743879
  0
LINE
  5
C0AD
  8
MOJI
 10
883.23970406352873
 20
2136.404116752683
 30
0.0
 11
1238.7962747617159
 21
2136.404116752683
 31
0.0
  0
TEXT
  5
C0AE
  8
MOJI
 10
903.98115536446767
 20
2159.2754820398291
 30
0.0
 40
75.0
  1
格子パネル
 41
0.8
  7
EXT08
  0
INSERT
  5
C0AF
  8
0
  2
*U115
 10
0.0
 20
0.0
 30
0.0
1001
ACAD
1000
DSTYLE
1002
{
1070
     5
1000

1070
    40
1040
25.0
1070
    41
1040
2.0
1070
    42
1040
1.0
1070
    43
1040
6.0
1070
    44
1040
1.0
1070
    73
1070
     0
1070
    74
1070
     0
1070
    77
1070
     1
1070
    78
1070
     8
1070
   140
1040
3.0
1070
   144
1040
0.6
1070
   147
1040
1.1999999999999991
1070
   172
1070
     1
1070
   179
1070
     2
1070
   271
1070
     2
1070
   279
1070
     2
1070
   340
1005
BA4
1070
   342
1005
0
1002
}
  0
LINE
  5
C0B0
  8
MOJI
 10
218.7124090396164
 20
-202.95080025014749
 30
0.0
 11
767.69093730576242
 21
-202.95080025014749
 31
0.0
  0
TEXT
  5
C0B1
  8
MOJI
 10
242.4130099156273
 20
-304.3138781126404
 30
0.0
 40
75.0
  1
%%c60.5×t3.2
 41
0.8
  7
EXT08
  0
TEXT
  5
C0B2
  8
MOJI
 10
405.08225915426641
 20
-176.58772238765459
 30
0.0
 40
75.0
  1
支  柱
 41
0.8
  7
EXT08
  0
INSERT
  5
C0B3
  8
0
  2
*U116
 10
0.0
 20
0.0
 30
0.0
1001
ACAD
1000
DSTYLE
1002
{
1070
     5
1000

1070
    40
1040
25.0
1070
    41
1040
2.0
1070
    42
1040
1.0
1070
    43
1040
6.0
1070
    44
1040
1.0
1070
    73
1070
     0
1070
    74
1070
     0
1070
    77
1070
     1
1070
    78
1070
     8
1070
   140
1040
3.0
1070
   144
1040
0.6
1070
   147
1040
1.1999999999999991
1070
   172
1070
     1
1070
   179
1070
     2
1070
   271
1070
     2
1070
   279
1070
     2
1070
   340
1005
BA4
1070
   342
1005
0
1002
}
  0
LINE
  5
C0B4
  8
MOJI
 10
-771.67630580181503
 20
-178.3701265223076
 30
0.0
 11
-367.74629909270379
 21
-178.3701265223076
 31
0.0
  0
TEXT
  5
C0B5
  8
MOJI
 10
-764.04620259413923
 20
-160.81490897572669
 30
0.0
 40
75.0
  1
角根ボルト
 41
0.8
  7
EXT08
  0
TEXT
  5
C0B6
  8
MOJI
 10
-771.67630580181503
 20
-271.36694268350089
 30
0.0
 40
75.0
  1
M12×90
 41
0.8
  7
EXT08
  0
INSERT
  5
C0B7
  8
0
  2
*U117
 10
0.0
 20
0.0
 30
0.0
1001
ACAD
1000
DSTYLE
1002
{
1070
     5
1000

1070
    40
1040
25.0
1070
    41
1040
2.0
1070
    42
1040
1.0
1070
    43
1040
6.0
1070
    44
1040
1.0
1070
    73
1070
     0
1070
    74
1070
     0
1070
    77
1070
     1
1070
    78
1070
     8
1070
   140
1040
3.0
1070
   144
1040
0.6
1070
   147
1040
1.1999999999999991
1070
   172
1070
     1
1070
   179
1070
     2
1070
   271
1070
     2
1070
   279
1070
     2
1070
   340
1005
BA4
1070
   342
1005
0
1002
}
  0
LINE
  5
C0B8
  8
MOJI
 10
-1035.2577010558709
 20
1002.210839754345
 30
0.0
 11
-737.81058628555002
 21
1002.210839754345
 31
0.0
  0
TEXT
  5
C0B9
  8
MOJI
 10
-1025.292101966523
 20
1022.133048257392
 30
0.0
 40
75.0
  1
取付金具
 41
0.8
  7
EXT08
  0
INSERT
  5
C0BA
  8
0
  2
*U118
 10
0.0
 20
0.0
 30
0.0
1001
ACAD
1000
DSTYLE
1002
{
1070
     5
1000

1070
    40
1040
25.0
1070
    41
1040
2.0
1070
    42
1040
1.0
1070
    43
1040
6.0
1070
    44
1040
1.0
1070
    73
1070
     0
1070
    74
1070
     0
1070
    77
1070
     0
1070
    78
1070
     8
1070
   140
1040
3.0
1070
   144
1040
0.6
1070
   147
1040
1.1999999999999991
1070
   172
1070
     1
1070
   271
1070
     2
1070
   279
1070
     2
1070
   340
1005
BA4
1070
   342
1005
0
1002
}
  0
INSERT
  5
C0BB
  8
SJC
  2
T-40金具詳細
 10
0.0
 20
716.56491252541082
 30
0.0
 41
1.6666666666666661
 42
1.6666666666666661
 43
1.6666666666666661
  0
INSERT
  5
C0E2
  8
SJC
  2
T-40金具詳細
 10
0.0
 20
1549.8574447397839
 30
0.0
 41
1.6666666666666661
 42
1.6666666666666661
 43
1.6666666666666661
  0
LINE
  5
C0E3
  8
SJC
 10
-787.18884464425355
 20
0.0
 30
0.0
 11
757.18808029321235
 21
0.0
 31
0.0
  0
LINE
  5
C0E4
  8
SJC
 10
451.53646846748421
 20
1762.0615121545941
 30
0.0
 11
451.53646846748421
 21
321.17230252229109
 31
0.0
  0
LINE
  5
C0E5
  8
SJC
 10
662.0979457804915
 20
1762.0615121545941
 30
0.0
 11
662.0979457804915
 21
321.17230252229109
 31
0.0
  0
LINE
  5
C0E6
  8
SJC
 10
-698.27467426557087
 20
1762.0615121545941
 30
0.0
 11
-698.27467426557087
 21
321.17230252229109
 31
0.0
  0
LINE
  5
C0E7
  8
SJC
 10
-662.09775469283147
 20
1762.0615121545941
 30
0.0
 11
-662.09775469283147
 21
321.17230252229109
 31
0.0
  0
LINE
  5
C0E8
  8
SJC
 10
-451.53761499384012
 20
1762.0615121545941
 30
0.0
 11
-451.53761499384012
 21
321.17230252229109
 31
0.0
  0
LINE
  5
C0E9
  8
SJC
 10
-415.36088650886262
 20
1762.0615121545941
 30
0.0
 11
-415.36088650886262
 21
321.17230252229109
 31
0.0
  0
LINE
  5
C0EA
  8
SJC
 10
698.27467426557087
 20
1762.0615121545941
 30
0.0
 11
698.27467426557087
 21
321.17230252229109
 31
0.0
  0
LINE
  5
C0EB
  8
SJC
 10
415.35897563156863
 20
1762.0615121545941
 30
0.0
 11
415.35897563156863
 21
321.17230252229109
 31
0.0
  0
LINE
  5
C0EC
  8
CENTER
 10
-433.44925075140208
 20
1797.665741809396
 30
0.0
 11
-433.4492507514023
 21
285.5674996043104
 31
0.0
  0
LINE
  5
C0ED
  8
CENTER
 10
-680.18631002313111
 20
1797.665741809396
 30
0.0
 11
-680.18631002313123
 21
285.5674996043104
 31
0.0
  0
LINE
  5
C0EE
  8
CENTER
 10
433.44925075130038
 20
1797.665741809396
 30
0.0
 11
433.44925075130038
 21
285.5674996043104
 31
0.0
  0
LINE
  5
C0EF
  8
CENTER
 10
680.18631002303164
 20
1797.665741809396
 30
0.0
 11
680.18631002303118
 21
285.5674996043104
 31
0.0
  0
DIMENSION
  5
C0F0
  8
SUNPOU
  2
*D64
 10
-175.0508806445614
 20
2156.971020216386
 30
0.0
 11
-407.4662638520258
 21
2227.8433395796319
 31
0.0
 70
   128
  3
SJC
 13
-433.44925075140048
 23
1833.2707358150369
 33
0.0
 14
-175.0508806445614
 24
1833.2707358150369
 34
0.0
1001
ACAD
1000
DSTYLE
1002
{
1070
   287
1070
     5
1070
   287
1070
     5
1070
   287
1070
     5
1070
    40
1040
25.0
1070
    41
1040
2.0
1070
    42
1040
1.0
1070
    43
1040
6.0
1070
    44
1040
1.0
1070
    73
1070
     0
1070
    74
1070
     0
1070
    77
1070
     1
1070
    78
1070
     8
1070
   140
1040
3.0
1070
   144
1040
0.6
1070
   147
1040
1.1999999999999991
1070
   172
1070
     1
1070
   271
1070
     0
1070
   279
1070
     2
1070
   287
1070
     5
1070
   340
1005
BA4
1002
}
  0
DIMENSION
  5
C0FD
  8
SUNPOU
  2
*D65
 10
-787.18884464425173
 20
2365.5880028159099
 30
0.0
 11
-468.59258335766572
 21
2452.7308599587682
 31
0.0
  1
(1880)
  3
SJC
 13
-99.996322071079703
 23
1833.2707358150369
 33
0.0
 14
-787.18884464425173
 24
2365.5880028159099
 34
0.0
1001
ACAD
1000
DSTYLE
1002
{
1070
   287
1070
     5
1070
   287
1070
     5
1070
   287
1070
     5
1070
    40
1040
25.0
1070
    41
1040
2.0
1070
    42
1040
1.0
1070
    43
1040
6.0
1070
    44
1040
1.0
1070
    73
1070
     0
1070
    74
1070
     0
1070
    77
1070
     1
1070
    78
1070
     8
1070
   140
1040
3.0
1070
   147
1040
1.1999999999999991
1070
   172
1070
     1
1070
   173
1070
     1
1070
   271
1070
     2
1070
   279
1070
     2
1070
   287
1070
     5
1070
   340
1005
BA4
1070
     6
1000

1070
     7
1000
NONE
1002
}
  0
DIMENSION
  5
C108
  8
SUNPOU
  2
*D66
 10
-787.18884464425173
 20
2578.363034093707
 30
0.0
 11
-418.59442232212581
 21
2645.863034093707
 31
0.0
  1
2000
  3
SJC
 13
0.0
 23
1884.937558964373
 33
0.0
 14
-787.18884464425173
 24
2578.363034093707
 34
0.0
1001
ACAD
1000
DSTYLE
1002
{
1070
   287
1070
     5
1070
   287
1070
     5
1070
   287
1070
     5
1070
    40
1040
25.0
1070
    41
1040
2.0
1070
    42
1040
1.0
1070
    43
1040
6.0
1070
    44
1040
1.0
1070
    73
1070
     0
1070
    74
1070
     0
1070
    77
1070
     1
1070
    78
1070
     8
1070
   140
1040
3.0
1070
   147
1040
1.1999999999999991
1070
   172
1070
     1
1070
   173
1070
     1
1070
   271
1070
     2
1070
   279
1070
     2
1070
   287
1070
     5
1070
   340
1005
BA4
1070
     6
1000

1070
     7
1000
NONE
1002
}
  0
DIMENSION
  5
C113
  8
SUNPOU
  2
*D67
 10
-787.18884464425173
 20
2156.971020216386
 30
0.0
 11
-649.43134271309998
 21
2224.471020216386
 31
0.0
 70
   128
  1
@148
  3
SJC
 13
-433.44925075140048
 23
1833.2707358150369
 33
0.0
 14
-787.18884464425173
 24
2156.971020216386
 34
0.0
1001
ACAD
1000
DSTYLE
1002
{
1070
   287
1070
     5
1070
   287
1070
     5
1070
   287
1070
     5
1070
    40
1040
25.0
1070
    41
1040
2.0
1070
    42
1040
1.0
1070
    43
1040
6.0
1070
    44
1040
1.0
1070
    73
1070
     0
1070
    74
1070
     0
1070
    77
1070
     1
1070
    78
1070
     8
1070
   140
1040
3.0
1070
   144
1040
0.6
1070
   147
1040
1.1999999999999991
1070
   172
1070
     1
1070
   173
1070
     1
1070
   271
1070
     2
1070
   279
1070
     2
1070
   287
1070
     5
1070
   340
1005
BA4
1070
     6
1000

1070
     7
1000
NONE
1002
}
  0
DIMENSION
  5
C11E
  8
SUNPOU
  2
*D68
 10
831.64626423694972
 20
2156.971020216386
 30
0.0
 11
649.43134271310373
 21
2224.471020216386
 31
0.0
 70
   128
  1
@148
  3
SJC
 13
433.44925075140412
 23
1833.2707358150369
 33
0.0
 14
831.64626423694972
 24
2156.971020216386
 34
0.0
 50
180.0
1001
ACAD
1000
DSTYLE
1002
{
1070
   287
1070
     5
1070
   287
1070
     5
1070
   287
1070
     5
1070
    40
1040
25.0
1070
    41
1040
2.0
1070
    42
1040
1.0
1070
    43
1040
6.0
1070
    44
1040
1.0
1070
    73
1070
     0
1070
    74
1070
     0
1070
    77
1070
     1
1070
    78
1070
     8
1070
   140
1040
3.0
1070
   144
1040
0.6
1070
   147
1040
1.1999999999999991
1070
   172
1070
     1
1070
   173
1070
     1
1070
   271
1070
     2
1070
   279
1070
     2
1070
   287
1070
     5
1070
   340
1005
BA4
1070
     6
1000

1070
     7
1000
NONE
1002
}
  0
DIMENSION
  5
C129
  8
SUNPOU
  2
*D69
 10
831.64626423694972
 20
2365.5880028159099
 30
0.0
 11
490.82129315401647
 21
2452.7308599587682
 31
0.0
  1
(1880)
  3
SJC
 13
99.996322071083341
 23
1833.2707358150369
 33
0.0
 14
831.64626423694972
 24
2365.5880028159099
 34
0.0
 50
180.0
1001
ACAD
1000
DSTYLE
1002
{
1070
   287
1070
     5
1070
   287
1070
     5
1070
   287
1070
     5
1070
    40
1040
25.0
1070
    41
1040
2.0
1070
    42
1040
1.0
1070
    43
1040
6.0
1070
    44
1040
1.0
1070
    73
1070
     0
1070
    74
1070
     0
1070
    77
1070
     1
1070
    78
1070
     8
1070
   140
1040
3.0
1070
   147
1040
1.1999999999999991
1070
   172
1070
     1
1070
   173
1070
     1
1070
   271
1070
     2
1070
   279
1070
     2
1070
   287
1070
     5
1070
   340
1005
BA4
1070
     6
1000

1070
     7
1000
NONE
1002
}
  0
DIMENSION
  5
C134
  8
SUNPOU
  2
*D70
 10
831.64626423694972
 20
2578.363034093707
 30
0.0
 11
440.8231321184748
 21
2645.863034093707
 31
0.0
  1
2000
  3
SJC
 13
0.0
 23
1884.937558964373
 33
0.0
 14
831.64626423694972
 24
2578.363034093707
 34
0.0
 50
180.0
1001
ACAD
1000
DSTYLE
1002
{
1070
   287
1070
     5
1070
   287
1070
     5
1070
   287
1070
     5
1070
    40
1040
25.0
1070
    41
1040
2.0
1070
    42
1040
1.0
1070
    43
1040
6.0
1070
    44
1040
1.0
1070
    73
1070
     0
1070
    74
1070
     0
1070
    77
1070
     1
1070
    78
1070
     8
1070
   140
1040
3.0
1070
   147
1040
1.1999999999999991
1070
   172
1070
     1
1070
   173
1070
     1
1070
   271
1070
     2
1070
   279
1070
     2
1070
   287
1070
     5
1070
   340
1005
BA4
1070
     6
1000

1070
     7
1000
NONE
1002
}
  0
DIMENSION
  5
C13F
  8
SUNPOU
  2
*D71
 10
175.05088064456501
 20
2156.971020216386
 30
0.0
 11
403.9253791090577
 21
2224.471020216386
 31
0.0
 70
   128
  3
SJC
 13
433.44925075140412
 23
1833.2707358150369
 33
0.0
 14
175.05088064456501
 24
1833.2707358150369
 34
0.0
 50
180.0
1001
ACAD
1000
DSTYLE
1002
{
1070
   287
1070
     5
1070
   287
1070
     5
1070
   287
1070
     5
1070
    40
1040
25.0
1070
    41
1040
2.0
1070
    42
1040
1.0
1070
    43
1040
6.0
1070
    44
1040
1.0
1070
    73
1070
     0
1070
    74
1070
     0
1070
    77
1070
     1
1070
    78
1070
     8
1070
   140
1040
3.0
1070
   144
1040
0.6
1070
   147
1040
1.1999999999999991
1070
   172
1070
     1
1070
   271
1070
     0
1070
   279
1070
     2
1070
   287
1070
     5
1070
   340
1005
BA4
1002
}
  0
LINE
  5
C14C
  8
SUNPOU
 10
-99.996322071077884
 20
1858.3169863748701
 30
0.0
 11
-99.996322071077884
 21
2385.9342533757449
 31
0.0
  0
LINE
  5
C14D
  8
SUNPOU
 10
99.996322071081522
 20
1858.3169863748701
 30
0.0
 11
99.996322071081522
 21
2385.9342533757449
 31
0.0
  0
DIMENSION
  5
C14E
  8
SUNPOU
  2
*D72
 10
99.996322071083355
 20
2156.971020216386
 30
0.0
 11
195.03982823860679
 21
2228.8335896236081
 31
0.0
 70
   128
  1
(<>)
  3
SJC
 13
175.05088064456501
 23
1833.2707358150369
 33
0.0
 14
99.996322071083341
 24
1833.2707358150369
 34
0.0
 50
180.0
1001
ACAD
1000
DSTYLE
1002
{
1070
   287
1070
     5
1070
   287
1070
     5
1070
   287
1070
     5
1070
    40
1040
25.0
1070
    41
1040
2.0
1070
    42
1040
1.0
1070
    43
1040
6.0
1070
    44
1040
1.0
1070
    73
1070
     0
1070
    74
1070
     0
1070
    77
1070
     1
1070
    78
1070
     8
1070
   140
1040
3.0
1070
   144
1040
0.6
1070
   147
1040
1.1999999999999991
1070
   172
1070
     1
1070
   271
1070
     0
1070
   279
1070
     2
1070
   287
1070
     5
1070
   340
1005
BA4
1002
}
  0
DIMENSION
  5
C15D
  8
SUNPOU
  2
*D73
 10
-99.996322071079689
 20
2156.971020216386
 30
0.0
 11
-196.98565194053111
 21
2226.0617331006119
 31
0.0
 70
   128
  1
(<>)
  3
SJC
 13
-175.0508806445614
 23
1833.2707358150369
 33
0.0
 14
-99.996322071079703
 24
1833.2707358150369
 34
0.0
1001
ACAD
1000
DSTYLE
1002
{
1070
   287
1070
     5
1070
   287
1070
     5
1070
   287
1070
     5
1070
    40
1040
25.0
1070
    41
1040
2.0
1070
    42
1040
1.0
1070
    43
1040
6.0
1070
    44
1040
1.0
1070
    73
1070
     0
1070
    74
1070
     0
1070
    77
1070
     1
1070
    78
1070
     8
1070
   140
1040
3.0
1070
   144
1040
0.6
1070
   147
1040
1.1999999999999991
1070
   172
1070
     1
1070
   271
1070
     0
1070
   279
1070
     2
1070
   287
1070
     5
1070
   340
1005
BA4
1002
}
  0
SOLID
  5
C16C
  8
SUNPOU
  6
BYBLOCK
 10
-49.996322071077877
 20
2165.30435354972
 30
0.0
 11
-49.996322071077877
 21
2148.637686883053
 31
0.0
 12
-99.996322071077884
 22
2156.971020216386
 32
0.0
 13
-99.996322071077884
 23
2156.971020216386
 33
0.0
  0
SOLID
  5
C16D
  8
SUNPOU
  6
BYBLOCK
 10
49.996322071081522
 20
2165.30435354972
 30
0.0
 11
49.996322071081522
 21
2148.637686883053
 31
0.0
 12
99.996322071081522
 22
2156.971020216386
 32
0.0
 13
99.996322071081522
 23
2156.971020216386
 33
0.0
  0
DIMENSION
  5
C16E
  8
SUNPOU
  2
*D74
 10
1175.7204563139551
 20
-0.0000000000001186
 30
0.0
 11
1108.2204563139551
 21
916.63536790751857
 31
0.0
  3
SJC
 13
757.18884464425355
 23
1833.2707358150369
 33
0.0
 14
757.18808029321235
 24
0.0
 34
0.0
 50
90.0
1001
ACAD
1000
DSTYLE
1002
{
1070
   287
1070
     5
1070
   287
1070
     5
1070
   287
1070
     5
1070
    40
1040
25.0
1070
    41
1040
2.0
1070
    42
1040
1.0
1070
    43
1040
6.0
1070
    44
1040
1.0
1070
    73
1070
     0
1070
    74
1070
     0
1070
    77
1070
     1
1070
    78
1070
     8
1070
   140
1040
3.0
1070
   144
1040
0.6
1070
   147
1040
1.1999999999999991
1070
   172
1070
     1
1070
   176
1070
   256
1070
   177
1070
   256
1070
   178
1070
   256
1070
   271
1070
     0
1070
   279
1070
     2
1070
   287
1070
     5
1070
   340
1005
BA4
1002
}
  0
DIMENSION
  5
C17B
  8
SUNPOU
  2
*D75
 10
982.08860841127682
 20
1549.857444739783
 30
0.0
 11
905.79733848374599
 21
1695.870933406776
 31
0.0
 70
   128
  3
SJC
 13
757.18884464425355
 23
1833.2707358150369
 33
0.0
 14
146.70913114390891
 24
1549.8574447397839
 34
0.0
 50
90.0
1001
ACAD
1000
DSTYLE
1002
{
1070
   287
1070
     5
1070
    40
1040
25.0
1070
    41
1040
2.0
1070
    42
1040
1.0
1070
    43
1040
6.0
1070
    44
1040
1.0
1070
    73
1070
     0
1070
    74
1070
     0
1070
    77
1070
     0
1070
    78
1070
     8
1070
   140
1040
3.0
1070
   144
1040
0.6
1070
   145
1040
1.0
1070
   147
1040
0.5
1070
   172
1070
     1
1070
   176
1070
   256
1070
   177
1070
   256
1070
   178
1070
   256
1070
   271
1070
     0
1070
   279
1070
     2
1070
   287
1070
     5
1070
   340
1005
BA4
1002
}
  0
DIMENSION
  5
C188
  8
SUNPOU
  2
*D76
 10
982.08860841127682
 20
-0.0000000000000637
 30
0.0
 11
901.44946585538128
 21
363.86241202399202
 31
0.0
 70
   128
  3
SJC
 13
146.70913114390891
 23
716.56491252546198
 33
0.0
 14
757.18808029321235
 24
0.0
 34
0.0
 50
90.0
1001
ACAD
1000
DSTYLE
1002
{
1070
   287
1070
     5
1070
   287
1070
     5
1070
   287
1070
     5
1070
    40
1040
25.0
1070
    41
1040
2.0
1070
    42
1040
1.0
1070
    43
1040
6.0
1070
    44
1040
1.0
1070
    73
1070
     0
1070
    74
1070
     0
1070
    77
1070
     1
1070
    78
1070
     8
1070
   140
1040
3.0
1070
   144
1040
0.6
1070
   147
1040
0.2
1070
   172
1070
     1
1070
   179
1070
     2
1070
   271
1070
     0
1070
   279
1070
     2
1070
   287
1070
     5
1070
   340
1005
BA4
1002
}
  0
DIMENSION
  5
C195
  8
SUNPOU
  2
*D77
 10
1175.7204563139551
 20
1851.6040691483699
 30
0.0
 11
1100.3569004068181
 21
1918.4275095567159
 31
0.0
 70
   128
  3
SJC
 13
757.18808029321735
 23
1833.2707358150369
 33
0.0
 14
0.0
 24
1851.6040691483699
 34
0.0
 50
90.0
1001
ACAD
1000
DSTYLE
1002
{
1070
   287
1070
     5
1070
    40
1040
25.0
1070
    41
1040
2.0
1070
    42
1040
1.0
1070
    43
1040
6.0
1070
    44
1040
1.0
1070
    73
1070
     0
1070
    74
1070
     0
1070
    77
1070
     1
1070
    78
1070
     8
1070
   140
1040
3.0
1070
   144
1040
0.6
1070
   147
1040
1.1999999999999991
1070
   172
1070
     1
1070
   176
1070
   256
1070
   177
1070
   256
1070
   178
1070
   256
1070
   271
1070
     0
1070
   279
1070
     2
1070
   340
1005
BA4
1002
}
  0
DIMENSION
  5
C1A4
  8
SUNPOU
  2
*D78
 10
1382.6103446243869
 20
1851.6040691483699
 30
0.0
 11
1315.110344624386
 21
925.80203457418531
 31
0.0
  3
SJC
 13
757.18808029321235
 23
0.0
 33
0.0
 14
0.0
 24
1851.6040691483699
 34
0.0
 50
90.0
1001
ACAD
1000
DSTYLE
1002
{
1070
   287
1070
     5
1070
    40
1040
25.0
1070
    41
1040
2.0
1070
    42
1040
1.0
1070
    43
1040
6.0
1070
    44
1040
1.0
1070
    73
1070
     0
1070
    74
1070
     0
1070
    77
1070
     1
1070
    78
1070
     8
1070
   140
1040
3.0
1070
   144
1040
0.6
1070
   147
1040
1.1999999999999991
1070
   172
1070
     1
1070
   176
1070
   256
1070
   177
1070
   256
1070
   178
1070
   256
1070
   271
1070
     0
1070
   279
1070
     2
1070
   340
1005
BA4
1002
}
  0
DIMENSION
  5
C1B1
  8
SUNPOU
  2
*D79
 10
982.08860841128535
 20
716.56491252541048
 30
0.0
 11
907.08860841128535
 21
1133.211178632597
 31
0.0
  3
SJC
 13
146.70913114390891
 23
1549.8574447397839
 33
0.0
 14
146.70913114390871
 24
716.56491252541082
 34
0.0
 50
90.0
1001
ACAD
1000
DSTYLE
1002
{
1070
   287
1070
     5
1070
    40
1040
25.0
1070
    41
1040
2.0
1070
    42
1040
1.0
1070
    43
1040
6.0
1070
    44
1040
1.0
1070
    73
1070
     0
1070
    74
1070
     0
1070
    78
1070
     8
1070
   140
1040
3.0
1070
   144
1040
0.6
1070
   145
1040
1.0
1070
   147
1040
0.5
1070
   172
1070
     1
1070
   176
1070
   256
1070
   177
1070
   256
1070
   178
1070
   256
1070
   271
1070
     0
1070
   279
1070
     2
1070
   340
1005
BA4
1002
}
  0
TEXT
  5
C1BE
  8
INFORMATION
 10
1.666666666666742
 20
1.6666666666665151
 30
0.0
 40
1.333333333333333
  1
VERSION=3.0
 41
0.8
  7
EXT08
  0
LINE
  5
C1BF
  8
SJC
 10
-50.416311755166362
 20
1813.2707358150369
 30
0.0
 11
-50.416311755166127
 21
-0.0000000000001137
 31
0.0
  0
LINE
  5
C1C0
  8
SJC
 10
50.416311755165907
 20
1813.2707358150369
 30
0.0
 11
50.416311755166127
 21
-0.0000000000001137
 31
0.0
  0
LINE
  5
C1C1
  8
CENTER
 10
0.0
 20
1884.9375589643721
 30
0.0
 11
0.0
 21
-30.23783433483322
 31
0.0
  0
INSERT
  5
C1C2
  8
SUNPOU
  2
T-40樹脂キャップ
 10
0.0
 20
1833.2707358150369
 30
0.0
 41
1.6666666666666661
 42
1.6666666666666661
 43
1.6666666666666661
  0
ENDBLK
  5
B60D
  8
0
  0
BLOCK
  8
0
  2
元部材表-樹脂キャップT-40
 70
     0
 10
0.0
 20
0.0
 30
0.0
  3
元部材表-樹脂キャップT-40
  1
C:\Documents and Settings\SJC\デスクトップ\G_T-40\ブロックT-40\T-40柵部材表\元図\元部材表-樹脂キャップT-40.dwg
  0
TEXT
  5
C345
  8
INFORMATION
 10
1.0
 20
1.0
 30
0.0
 40
0.8
  1
VERSION=3.0
 41
0.8
  7
EXT08
  0
LINE
  5
C346
  8
MOJI
 10
0.0
 20
749.99999999999989
 30
0.0
 11
1952.958519234596
 21
749.99999999999989
 31
0.0
  0
LINE
  5
C347
  8
MOJI
 10
0.0
 20
624.99999999999989
 30
0.0
 11
1952.958519234596
 21
624.99999999999989
 31
0.0
  0
LINE
  5
C348
  8
MOJI
 10
0.0
 20
499.99999999999989
 30
0.0
 11
1952.958519234596
 21
499.99999999999989
 31
0.0
  0
LINE
  5
C349
  8
MOJI
 10
0.0
 20
374.99999999999989
 30
0.0
 11
1952.958519234596
 21
374.99999999999989
 31
0.0
  0
LINE
  5
C34A
  8
MOJI
 10
0.0
 20
249.99999999999989
 30
0.0
 11
1952.958519234596
 21
249.99999999999989
 31
0.0
  0
LINE
  5
C34B
  8
MOJI
 10
0.0
 20
124.9999999999999
 30
0.0
 11
1952.958519234596
 21
124.9999999999999
 31
0.0
  0
TEXT
  5
C34C
  8
MOJI
 10
1003.467831363433
 20
150.0
 30
0.0
 40
75.0
  1
溶融亜鉛めっき M12×90
 41
0.8
  7
EXT08
 72
     4
 11
1453.753545649148
 21
187.5
 31
0.0
  0
TEXT
  5
C34D
  8
MOJI
 10
1029.753545649146
 20
524.99999999999989
 30
0.0
 40
75.0
  1
亜鉛めっき＋静電粉体塗装
 41
0.8
  7
EXT08
 72
     4
 11
1453.753545649146
 21
562.49999999999989
 31
0.0
  0
TEXT
  5
C34E
  8
MOJI
 10
1029.753545649146
 20
399.99999999999989
 30
0.0
 40
75.0
  1
亜鉛めっき＋静電粉体塗装
 41
0.8
  7
EXT08
 72
     4
 11
1453.753545649146
 21
437.49999999999989
 31
0.0
  0
TEXT
  5
C34F
  8
MOJI
 10
1029.753545649148
 20
275.0
 30
0.0
 40
75.0
  1
亜鉛めっき＋静電粉体塗装
 41
0.8
  7
EXT08
 72
     4
 11
1453.753545649148
 21
312.5
 31
0.0
  0
TEXT
  5
C350
  8
MOJI
 10
567.14853708678743
 20
524.99999999999898
 30
0.0
 40
75.0
  1
STK400
 41
0.8
  7
EXT08
 72
     4
 11
734.29139422964454
 21
562.49999999999898
 31
0.0
  0
TEXT
  5
C351
  8
MOJI
 10
157.29945612775549
 20
524.99999999999943
 30
0.0
 40
75.0
  1
支  柱
 41
0.8
  7
EXT08
 72
     4
 11
257.29945612775549
 21
562.49999999999943
 31
0.0
  0
TEXT
  5
C352
  8
MOJI
 10
89.299456127755604
 20
399.99999999999937
 30
0.0
 40
75.0
  1
格子パネル
 41
0.8
  7
EXT08
 72
     4
 11
257.29945612775549
 21
437.49999999999937
 31
0.0
  0
TEXT
  5
C353
  8
MOJI
 10
89.299456127757367
 20
149.99999999999949
 30
0.0
 40
75.0
  1
角根ボルト
 41
0.8
  7
EXT08
 72
     4
 11
257.29945612775742
 21
187.49999999999949
 31
0.0
  0
TEXT
  5
C354
  8
MOJI
 10
121.2994561277573
 20
274.9999999999996
 30
0.0
 40
75.0
  1
取付金具
 41
0.8
  7
EXT08
 72
     4
 11
257.29945612775742
 21
312.4999999999996
 31
0.0
  0
TEXT
  5
C355
  8
MOJI
 10
558.57710851536069
 20
274.99999999999892
 30
0.0
 40
75.0
  1
SGH400
 41
0.8
  7
EXT08
 72
     4
 11
734.29139422964624
 21
312.49999999999892
 31
0.0
  0
TEXT
  5
C356
  8
MOJI
 10
567.14853708678743
 20
399.99999999999898
 30
0.0
 40
75.0
  1
STK400
 41
0.8
  7
EXT08
 72
     4
 11
734.29139422964454
 21
437.49999999999898
 31
0.0
  0
TEXT
  5
C357
  8
MOJI
 10
159.29945612775549
 20
649.99999999999943
 30
0.0
 40
75.0
  1
品  名
 41
0.8
  7
EXT08
 72
     4
 11
257.29945612775549
 21
687.49999999999943
 31
0.0
  0
TEXT
  5
C358
  8
MOJI
 10
634.29139422964454
 20
649.99999999999898
 30
0.0
 40
75.0
  1
材  質
 41
0.8
  7
EXT08
 72
     4
 11
734.29139422964454
 21
687.49999999999898
 31
0.0
  0
TEXT
  5
C359
  8
MOJI
 10
1353.1821170777171
 20
649.99999999999989
 30
0.0
 40
75.0
  1
摘  要
 41
0.8
  7
EXT08
 72
     4
 11
1453.753545649146
 21
687.49999999999989
 31
0.0
  0
LINE
  5
C35A
  8
MOJI
 10
0.0
 20
124.9999999999999
 30
0.0
 11
1952.9585192346019
 21
125.0
 31
0.0
  0
TEXT
  5
C35B
  8
MOJI
 10
603.53370742372817
 20
149.99999999999881
 30
0.0
 40
75.0
  1
4.6相当
 41
0.8
  7
EXT08
 72
     4
 11
741.24799313801395
 21
187.49999999999881
 31
0.0
  0
LINE
  5
C35C
  8
MOJI
 10
0.0
 20
0.0
 30
0.0
 11
1952.958519234596
 21
0.0
 31
0.0
  0
TEXT
  5
C35D
  8
MOJI
 10
1317.753545649148
 20
25.00000000000011
 30
0.0
 40
75.0
  1
着色樹脂
 41
0.8
  7
EXT08
 72
     4
 11
1453.753545649148
 21
62.500000000000107
 31
0.0
  0
TEXT
  5
C35E
  8
MOJI
 10
49.728027556328783
 20
24.999999999999659
 30
0.0
 40
75.0
  1
頭部キャップ
 41
0.8
  7
EXT08
 72
     4
 11
257.29945612775742
 21
62.499999999999659
 31
0.0
  0
TEXT
  5
C35F
  8
MOJI
 10
674.29139422964624
 20
24.99999999999898
 30
0.0
 40
75.0
  1
PE
 41
0.8
  7
EXT08
 72
     4
 11
734.29139422964624
 21
62.49999999999897
 31
0.0
  0
ENDBLK
  5
BBBC
  8
0
  0
BLOCK
  8
0
  2
B0030003
 70
     0
 10
0.0
 20
0.0
 30
0.0
  3
B0030003
  1

  0
LINE
  5
BE14
  8
SJC
 10
-3.0
 20
-0.4019237886468546
 30
0.0
 11
0.0
 21
0.4019237886463998
 31
0.0
  0
POLYLINE
  5
BE15
  8
SJC
 66
     1
 10
0.0
 20
0.0
 30
0.0
 70
     1
  0
VERTEX
  5
C5FE
  8
SJC
 10
-3.0
 20
10.75
 30
0.0
  0
VERTEX
  5
C5FF
  8
SJC
 10
-3.0
 20
-10.75
 30
0.0
  0
VERTEX
  5
C600
  8
SJC
 10
0.0
 20
-10.75
 30
0.0
  0
VERTEX
  5
C601
  8
SJC
 10
0.0
 20
10.75
 30
0.0
  0
SEQEND
  5
C602
  8
SJC
  0
ENDBLK
  5
BE16
  8
0
  0
BLOCK
  8
0
  2
B0030004
 70
     0
 10
0.0
 20
0.0
 30
0.0
  3
B0030004
  1

  0
LINE
  5
BE07
  8
SJC
 10
-9.1514942239682568
 20
-6.0000000000009086
 30
0.0
 11
0.0
 21
-5.9999999999995453
 31
0.0
  0
LINE
  5
BE08
  8
SJC
 10
-9.1514942239682568
 20
5.9999999999995453
 30
0.0
 11
0.0
 21
6.0000000000004539
 31
0.0
  0
POLYLINE
  5
BE09
  8
SJC
 66
     1
 10
0.0
 20
0.0
 30
0.0
  0
VERTEX
  5
C5F6
  8
SJC
 10
0.0
 20
10.96965511460257
 30
0.0
  0
VERTEX
  5
C5F7
  8
SJC
 10
-9.1514942239682568
 20
10.969655114602119
 30
0.0
  0
VERTEX
  5
C5F8
  8
SJC
 10
-10.0
 20
9.4999999999995453
 30
0.0
  0
VERTEX
  5
C5F9
  8
SJC
 10
-10.0
 20
-9.4999999999986358
 30
0.0
  0
VERTEX
  5
C5FA
  8
SJC
 10
-9.1514942239673474
 20
-10.96965511460257
 30
0.0
  0
VERTEX
  5
C5FB
  8
SJC
 10
0.0
 20
-10.96965511460257
 30
0.0
  0
VERTEX
  5
C5FC
  8
SJC
 10
0.0
 20
10.96965511460257
 30
0.0
  0
SEQEND
  5
C5FD
  8
SJC
  0
ARC
  5
BE0A
  8
SJC
 10
-5.9373700001642638
 20
-8.4848275573003775
 30
0.0
 40
4.0626299998360036
 50
142.29252301195871
 51
180.0
  0
ARC
  5
BE0B
  8
SJC
 10
-5.9373700001642638
 20
8.4848275573008323
 30
0.0
 40
4.0626299998360036
 50
180.0
 51
217.70747698804121
  0
ARC
  5
BE0C
  8
SJC
 10
11.63801537314248
 20
-0.0000000000004547
 30
0.0
 40
21.638015373142689
 50
163.90148474634259
 51
196.09851525365511
  0
ENDBLK
  5
BE0D
  8
0
  0
BLOCK
  8
0
  2
*D47
 70
     1
 10
0.0
 20
0.0
 30
0.0
  3
*D47
  1

  0
LINE
  5
BD7A
  8
SUNPOU
 62
     0
 10
-125.0
 20
-212.5000000000004
 30
0.0
 11
-125.0
 21
-404.94527274117081
 31
0.0
  0
LINE
  5
BD7B
  8
SUNPOU
 62
     0
 10
-187.5
 20
-212.5000000000004
 30
0.0
 11
-187.5
 21
-404.94527274117081
 31
0.0
  0
LINE
  5
BD7C
  8
SUNPOU
 62
     0
 10
-75.000000000000014
 20
-379.94527274117081
 30
0.0
 11
-25.000000000000021
 21
-379.94527274117081
 31
0.0
  0
LINE
  5
BD7D
  8
SUNPOU
 62
     0
 10
-237.5
 20
-379.94527274117081
 30
0.0
 11
-287.5
 21
-379.94527274117081
 31
0.0
  0
INSERT
  5
BD7E
  8
0
  2
*U90
 10
0.0
 20
0.0
 30
0.0
  0
LINE
  5
BD7F
  8
SUNPOU
 62
     0
 10
-125.0
 20
-379.94527274117081
 30
0.0
 11
-187.5
 21
-379.94527274117081
 31
0.0
  0
SOLID
  5
BD80
  8
SUNPOU
 62
     0
 10
-75.000000000000014
 20
-371.6119394078375
 30
0.0
 11
-75.000000000000014
 21
-388.27860607450413
 31
0.0
 12
-125.0
 22
-379.94527274117081
 32
0.0
 13
-125.0
 23
-379.94527274117081
 33
0.0
  0
SOLID
  5
BD81
  8
SUNPOU
 62
     0
 10
-237.5
 20
-371.6119394078375
 30
0.0
 11
-237.5
 21
-388.27860607450413
 31
0.0
 12
-187.5
 22
-379.94527274117081
 32
0.0
 13
-187.5
 23
-379.94527274117081
 33
0.0
  0
POINT
  5
BD82
  8
DEFPOINTS
 62
     0
 10
-125.0
 20
-187.5000000000004
 30
0.0
  0
POINT
  5
BD83
  8
DEFPOINTS
 62
     0
 10
-187.5
 20
-187.5000000000004
 30
0.0
  0
POINT
  5
BD84
  8
DEFPOINTS
 62
     0
 10
-187.5
 20
-379.94527274117081
 30
0.0
  0
ENDBLK
  5
BD85
  8
0
  0
BLOCK
  8
0
  2
*D48
 70
     1
 10
0.0
 20
0.0
 30
0.0
  3
*D48
  1

  0
LINE
  5
BD8E
  8
SUNPOU
 62
     0
 10
212.5
 20
125.0
 30
0.0
 11
489.56547122827033
 21
124.9999999999999
 31
0.0
  0
LINE
  5
BD8F
  8
SUNPOU
 62
     0
 10
212.5
 20
187.5
 30
0.0
 11
489.56547122827038
 21
187.49999999999989
 31
0.0
  0
LINE
  5
BD90
  8
SUNPOU
 62
     0
 10
464.56547122827021
 20
74.999999999999915
 30
0.0
 11
464.56547122827021
 21
24.999999999999929
 31
0.0
  0
LINE
  5
BD91
  8
SUNPOU
 62
     0
 10
464.56547122827033
 20
237.49999999999989
 30
0.0
 11
464.56547122827033
 21
287.49999999999989
 31
0.0
  0
INSERT
  5
BD92
  8
0
  2
*U91
 10
0.0
 20
0.0
 30
0.0
  0
LINE
  5
BD93
  8
SUNPOU
 62
     0
 10
464.56547122827021
 20
124.9999999999999
 30
0.0
 11
464.56547122827033
 21
187.49999999999989
 31
0.0
  0
SOLID
  5
BD94
  8
SUNPOU
 62
     0
 10
456.2321378949369
 20
74.999999999999915
 30
0.0
 11
472.89880456160353
 21
74.999999999999915
 31
0.0
 12
464.56547122827021
 22
124.9999999999999
 32
0.0
 13
464.56547122827021
 23
124.9999999999999
 33
0.0
  0
SOLID
  5
BD95
  8
SUNPOU
 62
     0
 10
456.23213789493701
 20
237.49999999999989
 30
0.0
 11
472.89880456160358
 21
237.49999999999989
 31
0.0
 12
464.56547122827033
 22
187.49999999999989
 32
0.0
 13
464.56547122827033
 23
187.49999999999989
 33
0.0
  0
POINT
  5
BD96
  8
DEFPOINTS
 62
     0
 10
187.5
 20
125.0
 30
0.0
  0
POINT
  5
BD97
  8
DEFPOINTS
 62
     0
 10
187.5
 20
187.5
 30
0.0
  0
POINT
  5
BD98
  8
DEFPOINTS
 62
     0
 10
464.56547122827033
 20
187.49999999999989
 30
0.0
  0
ENDBLK
  5
BD99
  8
0
  0
BLOCK
  8
0
  2
*D49
 70
     1
 10
0.0
 20
0.0
 30
0.0
  3
*D49
  1

  0
LINE
  5
BD9E
  8
SUNPOU
 62
     0
 10
212.5
 20
187.5
 30
0.0
 11
644.78950501734835
 21
187.4999999999998
 31
0.0
  0
LINE
  5
BD9F
  8
SUNPOU
 62
     0
 10
212.5
 20
-187.50000000000051
 30
0.0
 11
644.78950501734835
 21
-187.5000000000006
 31
0.0
  0
LINE
  5
BDA0
  8
SUNPOU
 62
     0
 10
619.78950501734835
 20
137.4999999999998
 30
0.0
 11
619.78950501734835
 21
-137.5000000000006
 31
0.0
  0
SOLID
  5
BDA1
  8
SUNPOU
 62
     0
 10
611.45617168401498
 20
137.4999999999998
 30
0.0
 11
628.12283835068172
 21
137.4999999999998
 31
0.0
 12
619.78950501734835
 22
187.4999999999998
 32
0.0
 13
619.78950501734835
 23
187.4999999999998
 33
0.0
  0
SOLID
  5
BDA2
  8
SUNPOU
 62
     0
 10
611.45617168401498
 20
-137.5000000000006
 30
0.0
 11
628.12283835068172
 21
-137.5000000000006
 31
0.0
 12
619.78950501734835
 22
-187.5000000000006
 32
0.0
 13
619.78950501734835
 23
-187.5000000000006
 33
0.0
  0
INSERT
  5
BDA3
  8
0
  2
*U93
 10
0.0
 20
0.0
 30
0.0
  0
POINT
  5
BDA4
  8
DEFPOINTS
 62
     0
 10
187.5
 20
187.5
 30
0.0
  0
POINT
  5
BDA5
  8
DEFPOINTS
 62
     0
 10
187.5
 20
-187.5000000000004
 30
0.0
  0
POINT
  5
BDA6
  8
DEFPOINTS
 62
     0
 10
619.78950501734835
 20
-187.5000000000006
 30
0.0
  0
ENDBLK
  5
BDA7
  8
0
  0
BLOCK
  8
0
  2
*D50
 70
     1
 10
0.0
 20
0.0
 30
0.0
  3
*D50
  1

  0
LINE
  5
BDAB
  8
SUNPOU
 62
     0
 10
187.5
 20
-212.5000000000004
 30
0.0
 11
187.5
 21
-544.43421282292434
 31
0.0
  0
LINE
  5
BDAC
  8
SUNPOU
 62
     0
 10
-187.5
 20
-212.5000000000004
 30
0.0
 11
-187.5
 21
-544.43421282292434
 31
0.0
  0
LINE
  5
BDAD
  8
SUNPOU
 62
     0
 10
137.5
 20
-519.43421282292434
 30
0.0
 11
-137.5
 21
-519.43421282292434
 31
0.0
  0
SOLID
  5
BDAE
  8
SUNPOU
 62
     0
 10
137.5
 20
-511.10087948959091
 30
0.0
 11
137.5
 21
-527.76754615625759
 31
0.0
 12
187.5
 22
-519.43421282292434
 32
0.0
 13
187.5
 23
-519.43421282292434
 33
0.0
  0
SOLID
  5
BDAF
  8
SUNPOU
 62
     0
 10
-137.5
 20
-511.10087948959091
 30
0.0
 11
-137.5
 21
-527.76754615625759
 31
0.0
 12
-187.5
 22
-519.43421282292434
 32
0.0
 13
-187.5
 23
-519.43421282292434
 33
0.0
  0
INSERT
  5
BDB0
  8
0
  2
*U94
 10
0.0
 20
0.0
 30
0.0
  0
POINT
  5
BDB1
  8
DEFPOINTS
 62
     0
 10
187.5
 20
-187.5000000000004
 30
0.0
  0
POINT
  5
BDB2
  8
DEFPOINTS
 62
     0
 10
-187.5
 20
-187.5000000000004
 30
0.0
  0
POINT
  5
BDB3
  8
DEFPOINTS
 62
     0
 10
-187.5
 20
-519.43421282292434
 30
0.0
  0
ENDBLK
  5
BDB4
  8
0
  0
BLOCK
  8
0
  2
*D51
 70
     1
 10
0.0
 20
0.0
 30
0.0
  3
*D51
  1

  0
LINE
  5
BDB8
  8
SUNPOU
 62
     0
 10
125.0
 20
-212.5000000000004
 30
0.0
 11
125.0
 21
-404.94527274117081
 31
0.0
  0
LINE
  5
BDB9
  8
SUNPOU
 62
     0
 10
187.5
 20
-212.5000000000004
 30
0.0
 11
187.5
 21
-404.94527274117081
 31
0.0
  0
LINE
  5
BDBA
  8
SUNPOU
 62
     0
 10
74.999999999999986
 20
-379.94527274117081
 30
0.0
 11
24.999999999999989
 21
-379.94527274117081
 31
0.0
  0
LINE
  5
BDBB
  8
SUNPOU
 62
     0
 10
237.5
 20
-379.94527274117081
 30
0.0
 11
287.5
 21
-379.94527274117081
 31
0.0
  0
INSERT
  5
BDBC
  8
0
  2
*U95
 10
0.0
 20
0.0
 30
0.0
  0
LINE
  5
BDBD
  8
SUNPOU
 62
     0
 10
125.0
 20
-379.94527274117081
 30
0.0
 11
187.5
 21
-379.94527274117081
 31
0.0
  0
SOLID
  5
BDBE
  8
SUNPOU
 62
     0
 10
74.999999999999986
 20
-371.6119394078375
 30
0.0
 11
74.999999999999986
 21
-388.27860607450413
 31
0.0
 12
125.0
 22
-379.94527274117081
 32
0.0
 13
125.0
 23
-379.94527274117081
 33
0.0
  0
SOLID
  5
BDBF
  8
SUNPOU
 62
     0
 10
237.5
 20
-371.6119394078375
 30
0.0
 11
237.5
 21
-388.27860607450413
 31
0.0
 12
187.5
 22
-379.94527274117081
 32
0.0
 13
187.5
 23
-379.94527274117081
 33
0.0
  0
POINT
  5
BDC0
  8
DEFPOINTS
 62
     0
 10
125.0
 20
-187.5000000000004
 30
0.0
  0
POINT
  5
BDC1
  8
DEFPOINTS
 62
     0
 10
187.5
 20
-187.5000000000004
 30
0.0
  0
POINT
  5
BDC2
  8
DEFPOINTS
 62
     0
 10
187.5
 20
-379.94527274117081
 30
0.0
  0
ENDBLK
  5
BDC3
  8
0
  0
BLOCK
  8
0
  2
*D52
 70
     1
 10
0.0
 20
0.0
 30
0.0
  3
*D52
  1

  0
LINE
  5
BDC7
  8
SUNPOU
 62
     0
 10
125.0
 20
-212.5000000000004
 30
0.0
 11
125.0
 21
-404.94527274117081
 31
0.0
  0
LINE
  5
BDC8
  8
SUNPOU
 62
     0
 10
-125.0
 20
-212.5000000000004
 30
0.0
 11
-125.0
 21
-404.94527274117081
 31
0.0
  0
LINE
  5
BDC9
  8
SUNPOU
 62
     0
 10
74.999999999999986
 20
-379.94527274117081
 30
0.0
 11
-75.000000000000014
 21
-379.94527274117081
 31
0.0
  0
SOLID
  5
BDCA
  8
SUNPOU
 62
     0
 10
74.999999999999986
 20
-371.6119394078375
 30
0.0
 11
74.999999999999986
 21
-388.27860607450413
 31
0.0
 12
125.0
 22
-379.94527274117081
 32
0.0
 13
125.0
 23
-379.94527274117081
 33
0.0
  0
SOLID
  5
BDCB
  8
SUNPOU
 62
     0
 10
-75.000000000000014
 20
-371.6119394078375
 30
0.0
 11
-75.000000000000014
 21
-388.27860607450413
 31
0.0
 12
-125.0
 22
-379.94527274117081
 32
0.0
 13
-125.0
 23
-379.94527274117081
 33
0.0
  0
INSERT
  5
BDCC
  8
0
  2
*U96
 10
0.0
 20
0.0
 30
0.0
  0
POINT
  5
BDCD
  8
DEFPOINTS
 62
     0
 10
125.0
 20
-187.5000000000004
 30
0.0
  0
POINT
  5
BDCE
  8
DEFPOINTS
 62
     0
 10
-125.0
 20
-187.5000000000004
 30
0.0
  0
POINT
  5
BDCF
  8
DEFPOINTS
 62
     0
 10
-125.0
 20
-379.94527274117081
 30
0.0
  0
ENDBLK
  5
BDD0
  8
0
  0
BLOCK
  8
0
  2
*D53
 70
     1
 10
0.0
 20
0.0
 30
0.0
  3
*D53
  1

  0
LINE
  5
BDE8
  8
SUNPOU
 62
     0
 10
212.5
 20
125.0
 30
0.0
 11
489.56547122827033
 21
124.9999999999999
 31
0.0
  0
LINE
  5
BDE9
  8
SUNPOU
 62
     0
 10
212.5
 20
-125.0000000000004
 30
0.0
 11
489.56547122827033
 21
-125.0000000000005
 31
0.0
  0
LINE
  5
BDEA
  8
SUNPOU
 62
     0
 10
464.56547122827033
 20
74.999999999999915
 30
0.0
 11
464.56547122827033
 21
-75.000000000000526
 31
0.0
  0
SOLID
  5
BDEB
  8
SUNPOU
 62
     0
 10
456.23213789493701
 20
74.999999999999915
 30
0.0
 11
472.89880456160358
 21
74.999999999999915
 31
0.0
 12
464.56547122827033
 22
124.9999999999999
 32
0.0
 13
464.56547122827033
 23
124.9999999999999
 33
0.0
  0
SOLID
  5
BDEC
  8
SUNPOU
 62
     0
 10
456.23213789493701
 20
-75.000000000000526
 30
0.0
 11
472.89880456160358
 21
-75.000000000000526
 31
0.0
 12
464.56547122827033
 22
-125.0000000000005
 32
0.0
 13
464.56547122827033
 23
-125.0000000000005
 33
0.0
  0
INSERT
  5
BDED
  8
0
  2
*U98
 10
0.0
 20
0.0
 30
0.0
  0
POINT
  5
BDEE
  8
DEFPOINTS
 62
     0
 10
187.5
 20
125.0
 30
0.0
  0
POINT
  5
BDEF
  8
DEFPOINTS
 62
     0
 10
187.5
 20
-125.0000000000004
 30
0.0
  0
POINT
  5
BDF0
  8
DEFPOINTS
 62
     0
 10
464.56547122827033
 20
-125.0000000000005
 30
0.0
  0
ENDBLK
  5
BDF1
  8
0
  0
BLOCK
  8
0
  2
*D54
 70
     1
 10
0.0
 20
0.0
 30
0.0
  3
*D54
  1

  0
LINE
  5
BDF5
  8
SUNPOU
 62
     0
 10
212.5
 20
-125.0000000000004
 30
0.0
 11
489.56547122827033
 21
-125.0000000000005
 31
0.0
  0
LINE
  5
BDF6
  8
SUNPOU
 62
     0
 10
212.5
 20
-187.50000000000051
 30
0.0
 11
489.56547122827021
 21
-187.5000000000006
 31
0.0
  0
LINE
  5
BDF7
  8
SUNPOU
 62
     0
 10
464.56547122827038
 20
-75.000000000000526
 30
0.0
 11
464.56547122827038
 21
-25.000000000000529
 31
0.0
  0
LINE
  5
BDF8
  8
SUNPOU
 62
     0
 10
464.56547122827033
 20
-237.5000000000006
 30
0.0
 11
464.56547122827033
 21
-287.50000000000063
 31
0.0
  0
INSERT
  5
BDF9
  8
0
  2
*U99
 10
0.0
 20
0.0
 30
0.0
  0
LINE
  5
BDFA
  8
SUNPOU
 62
     0
 10
464.56547122827038
 20
-125.0000000000005
 30
0.0
 11
464.56547122827033
 21
-187.5000000000006
 31
0.0
  0
SOLID
  5
BDFB
  8
SUNPOU
 62
     0
 10
456.23213789493701
 20
-75.000000000000526
 30
0.0
 11
472.8988045616037
 21
-75.000000000000526
 31
0.0
 12
464.56547122827038
 22
-125.0000000000005
 32
0.0
 13
464.56547122827038
 23
-125.0000000000005
 33
0.0
  0
SOLID
  5
BDFC
  8
SUNPOU
 62
     0
 10
456.23213789493701
 20
-237.5000000000006
 30
0.0
 11
472.89880456160358
 21
-237.5000000000006
 31
0.0
 12
464.56547122827033
 22
-187.5000000000006
 32
0.0
 13
464.56547122827033
 23
-187.5000000000006
 33
0.0
  0
POINT
  5
BDFD
  8
DEFPOINTS
 62
     0
 10
187.5
 20
-125.0000000000004
 30
0.0
  0
POINT
  5
BDFE
  8
DEFPOINTS
 62
     0
 10
187.5
 20
-187.5000000000004
 30
0.0
  0
POINT
  5
BDFF
  8
DEFPOINTS
 62
     0
 10
464.56547122827033
 20
-187.5000000000006
 30
0.0
  0
ENDBLK
  5
BE00
  8
0
  0
BLOCK
  8
0
  2
*D55
 70
     1
 10
0.0
 20
0.0
 30
0.0
  3
*D55
  1

  0
LINE
  5
BE47
  8
SUNPOU
 62
     0
 10
-607.06811724320858
 20
-165.0000000000004
 30
0.0
 11
-466.59782489894849
 21
-165.0000000000004
 31
0.0
  0
LINE
  5
BE48
  8
SUNPOU
 62
     0
 10
-607.06811724320858
 20
-187.5000000000004
 30
0.0
 11
-466.59782489894849
 21
-187.50000000000051
 31
0.0
  0
LINE
  5
BE49
  8
SUNPOU
 62
     0
 10
-491.59782489894849
 20
-115.0000000000005
 30
0.0
 11
-491.59782489894849
 21
-65.000000000000483
 31
0.0
  0
LINE
  5
BE4A
  8
SUNPOU
 62
     0
 10
-491.59782489894849
 20
-237.50000000000051
 30
0.0
 11
-491.59782489894849
 21
-287.5000000000004
 31
0.0
  0
INSERT
  5
BE4B
  8
0
  2
*U101
 10
0.0
 20
0.0
 30
0.0
  0
LINE
  5
BE4C
  8
SUNPOU
 62
     0
 10
-491.59782489894849
 20
-165.0000000000004
 30
0.0
 11
-491.59782489894849
 21
-187.50000000000051
 31
0.0
  0
SOLID
  5
BE4D
  8
SUNPOU
 62
     0
 10
-499.9311582322818
 20
-115.0000000000005
 30
0.0
 11
-483.26449156561517
 21
-115.0000000000005
 31
0.0
 12
-491.59782489894849
 22
-165.0000000000004
 32
0.0
 13
-491.59782489894849
 23
-165.0000000000004
 33
0.0
  0
SOLID
  5
BE4E
  8
SUNPOU
 62
     0
 10
-499.9311582322818
 20
-237.50000000000051
 30
0.0
 11
-483.26449156561517
 21
-237.50000000000051
 31
0.0
 12
-491.59782489894849
 22
-187.50000000000051
 32
0.0
 13
-491.59782489894849
 23
-187.50000000000051
 33
0.0
  0
POINT
  5
BE4F
  8
DEFPOINTS
 62
     0
 10
-632.06811724320858
 20
-165.0000000000004
 30
0.0
  0
POINT
  5
BE50
  8
DEFPOINTS
 62
     0
 10
-632.06811724320858
 20
-187.5000000000004
 30
0.0
  0
POINT
  5
BE51
  8
DEFPOINTS
 62
     0
 10
-491.59782489894849
 20
-187.50000000000051
 30
0.0
  0
ENDBLK
  5
BE52
  8
0
  0
BLOCK
  8
0
  2
*D56
 70
     1
 10
0.0
 20
0.0
 30
0.0
  3
*D56
  1

  0
LINE
  5
BFEB
  8
SUNPOU
 62
     0
 10
389.74931817779179
 20
-0.0000000000000071
 30
0.0
 11
582.53657039649534
 21
-0.0000000000000617
 31
0.0
  0
LINE
  5
BFEC
  8
SUNPOU
 62
     0
 10
389.74931817779179
 20
-174.99935884010691
 30
0.0
 11
582.53657039649534
 21
-174.99935884010691
 31
0.0
  0
LINE
  5
BFED
  8
SUNPOU
 62
     0
 10
557.53657039649534
 20
-50.00000000000005
 30
0.0
 11
557.53657039649534
 21
-124.99935884010689
 31
0.0
  0
SOLID
  5
BFEE
  8
SUNPOU
 62
     0
 10
549.20323706316185
 20
-50.00000000000005
 30
0.0
 11
565.86990372982871
 21
-50.000000000000057
 31
0.0
 12
557.53657039649534
 22
-0.0000000000000546
 32
0.0
 13
557.53657039649534
 23
-0.0000000000000546
 33
0.0
  0
SOLID
  5
BFEF
  8
SUNPOU
 62
     0
 10
549.20323706316185
 20
-124.99935884010689
 30
0.0
 11
565.86990372982871
 21
-124.99935884010689
 31
0.0
 12
557.53657039649534
 22
-174.99935884010691
 32
0.0
 13
557.53657039649534
 23
-174.99935884010691
 33
0.0
  0
INSERT
  5
BFF0
  8
0
  2
*U102
 10
0.0
 20
0.0
 30
0.0
  0
POINT
  5
BFF1
  8
DEFPOINTS
 62
     0
 10
364.74931817779179
 20
0.0
 30
0.0
  0
POINT
  5
BFF2
  8
DEFPOINTS
 62
     0
 10
364.74931817779179
 20
-174.99935884010691
 30
0.0
  0
POINT
  5
BFF3
  8
DEFPOINTS
 62
     0
 10
557.53657039649534
 20
-174.99935884010691
 30
0.0
  0
ENDBLK
  5
BFF4
  8
0
  0
BLOCK
  8
0
  2
*D57
 70
     1
 10
0.0
 20
0.0
 30
0.0
  3
*D57
  1

  0
LINE
  5
BFF8
  8
SUNPOU
 62
     0
 10
1602.0869429882871
 20
850.00216925846257
 30
0.0
 11
1813.7016209482031
 21
850.00216925846235
 31
0.0
  0
LINE
  5
BFF9
  8
SUNPOU
 62
     0
 10
1148.1505774373211
 20
-0.0000000000000071
 30
0.0
 11
1813.7016209482031
 21
-0.0000000000001956
 31
0.0
  0
LINE
  5
BFFA
  8
SUNPOU
 62
     0
 10
1788.7016209482019
 20
800.00216925846257
 30
0.0
 11
1788.7016209482019
 21
49.999999999999808
 31
0.0
  0
SOLID
  5
BFFB
  8
SUNPOU
 62
     0
 10
1780.3682876148689
 20
800.00216925846257
 30
0.0
 11
1797.0349542815361
 21
800.00216925846235
 31
0.0
 12
1788.7016209482019
 22
850.00216925846257
 32
0.0
 13
1788.7016209482019
 23
850.00216925846257
 33
0.0
  0
SOLID
  5
BFFC
  8
SUNPOU
 62
     0
 10
1780.3682876148689
 20
49.999999999999808
 30
0.0
 11
1797.0349542815361
 21
49.999999999999808
 31
0.0
 12
1788.7016209482019
 22
-0.0000000000001885
 32
0.0
 13
1788.7016209482019
 23
-0.0000000000001885
 33
0.0
  0
INSERT
  5
BFFD
  8
0
  2
*U103
 10
0.0
 20
0.0
 30
0.0
  0
POINT
  5
BFFE
  8
DEFPOINTS
 62
     0
 10
1577.0869429882871
 20
850.00216925846257
 30
0.0
  0
POINT
  5
BFFF
  8
DEFPOINTS
 62
     0
 10
1123.1505774373211
 20
0.0
 30
0.0
  0
POINT
  5
C000
  8
DEFPOINTS
 62
     0
 10
1788.7016209482019
 20
-0.0000000000001885
 30
0.0
  0
ENDBLK
  5
C001
  8
0
  0
BLOCK
  8
0
  2
*D58
 70
     1
 10
0.0
 20
0.0
 30
0.0
  3
*D58
  1

  0
LINE
  5
C005
  8
SUNPOU
 62
     0
 10
978.15057743732075
 20
220.03075928784941
 30
0.0
 11
978.15057743732075
 21
313.98434221828438
 31
0.0
  0
LINE
  5
C006
  8
SUNPOU
 62
     0
 10
1073.150883092206
 20
288.98434221828438
 30
0.0
 11
1028.1505774373211
 21
288.98434221828438
 31
0.0
  0
SOLID
  5
C007
  8
SUNPOU
 62
     0
 10
1073.150883092206
 20
297.3176755516177
 30
0.0
 11
1073.150883092206
 21
280.65100888495112
 31
0.0
 12
1123.150883092206
 22
288.98434221828438
 32
0.0
 13
1123.150883092206
 23
288.98434221828438
 33
0.0
  0
SOLID
  5
C008
  8
SUNPOU
 62
     0
 10
1028.1505774373211
 20
297.3176755516177
 30
0.0
 11
1028.1505774373211
 21
280.65100888495112
 31
0.0
 12
978.15057743732075
 22
288.98434221828438
 32
0.0
 13
978.15057743732075
 23
288.98434221828438
 33
0.0
  0
INSERT
  5
C009
  8
0
  2
*U104
 10
0.0
 20
0.0
 30
0.0
  0
POINT
  5
C00A
  8
DEFPOINTS
 62
     0
 10
1123.150883092206
 20
288.98434221828438
 30
0.0
  0
POINT
  5
C00B
  8
DEFPOINTS
 62
     0
 10
978.15057743732075
 20
195.03075928784941
 30
0.0
  0
POINT
  5
C00C
  8
DEFPOINTS
 62
     0
 10
978.15057743732075
 20
288.98434221828438
 30
0.0
  0
ENDBLK
  5
C00D
  8
0
  0
BLOCK
  8
0
  2
*D59
 70
     1
 10
0.0
 20
0.0
 30
0.0
  3
*D59
  1

  0
LINE
  5
C011
  8
SUNPOU
 62
     0
 10
909.65153693218952
 20
199.99935884010711
 30
0.0
 11
909.65153693218952
 21
439.12083948089969
 31
0.0
  0
LINE
  5
C012
  8
SUNPOU
 62
     0
 10
1073.150883092206
 20
414.12083948089969
 30
0.0
 11
959.65153693218952
 21
414.12083948089969
 31
0.0
  0
SOLID
  5
C013
  8
SUNPOU
 62
     0
 10
1073.150883092206
 20
422.45417281423312
 30
0.0
 11
1073.150883092206
 21
405.78750614756638
 31
0.0
 12
1123.150883092206
 22
414.12083948089969
 32
0.0
 13
1123.150883092206
 23
414.12083948089969
 33
0.0
  0
SOLID
  5
C014
  8
SUNPOU
 62
     0
 10
959.65153693218952
 20
422.45417281423312
 30
0.0
 11
959.65153693218952
 21
405.78750614756638
 31
0.0
 12
909.65153693218952
 22
414.12083948089969
 32
0.0
 13
909.65153693218952
 23
414.12083948089969
 33
0.0
  0
INSERT
  5
C015
  8
0
  2
*U105
 10
0.0
 20
0.0
 30
0.0
  0
POINT
  5
C016
  8
DEFPOINTS
 62
     0
 10
1123.150883092206
 20
414.12083948089969
 30
0.0
  0
POINT
  5
C017
  8
DEFPOINTS
 62
     0
 10
909.65153693218952
 20
174.99935884010711
 30
0.0
  0
POINT
  5
C018
  8
DEFPOINTS
 62
     0
 10
909.65153693218952
 20
414.12083948089969
 30
0.0
  0
ENDBLK
  5
C019
  8
0
  0
BLOCK
  8
0
  2
*D60
 70
     1
 10
0.0
 20
0.0
 30
0.0
  3
*D60
  1

  0
LINE
  5
C01D
  8
SUNPOU
 62
     0
 10
296.2508293176997
 20
-220.0307592878471
 30
0.0
 11
296.2508293176997
 21
-392.85706451646757
 31
0.0
  0
LINE
  5
C01E
  8
SUNPOU
 62
     0
 10
201.24997201777569
 20
-367.85706451646757
 30
0.0
 11
246.2508293176997
 21
-367.85706451646757
 31
0.0
  0
SOLID
  5
C01F
  8
SUNPOU
 62
     0
 10
201.24997201777569
 20
-359.52373118313432
 30
0.0
 11
201.24997201777569
 21
-376.19039784980089
 31
0.0
 12
151.24997201777569
 22
-367.85706451646757
 32
0.0
 13
151.24997201777569
 23
-367.85706451646757
 33
0.0
  0
SOLID
  5
C020
  8
SUNPOU
 62
     0
 10
246.2508293176997
 20
-359.52373118313432
 30
0.0
 11
246.2508293176997
 21
-376.19039784980089
 31
0.0
 12
296.2508293176997
 22
-367.85706451646757
 32
0.0
 13
296.2508293176997
 23
-367.85706451646757
 33
0.0
  0
INSERT
  5
C021
  8
0
  2
*U106
 10
0.0
 20
0.0
 30
0.0
  0
POINT
  5
C022
  8
DEFPOINTS
 62
     0
 10
151.24997201777569
 20
-367.85706451646757
 30
0.0
  0
POINT
  5
C023
  8
DEFPOINTS
 62
     0
 10
296.2508293176997
 20
-195.0307592878471
 30
0.0
  0
POINT
  5
C024
  8
DEFPOINTS
 62
     0
 10
296.2508293176997
 20
-367.85706451646757
 30
0.0
  0
ENDBLK
  5
C025
  8
0
  0
BLOCK
  8
0
  2
*D61
 70
     1
 10
0.0
 20
0.0
 30
0.0
  3
*D61
  1

  0
LINE
  5
C029
  8
SUNPOU
 62
     0
 10
151.24997201777569
 20
-453.98609573426052
 30
0.0
 11
151.24997201777569
 21
-538.68821840826138
 31
0.0
  0
LINE
  5
C02A
  8
SUNPOU
 62
     0
 10
364.74931817779179
 20
-199.99935884010691
 30
0.0
 11
364.74931817779179
 21
-538.68821840826138
 31
0.0
  0
LINE
  5
C02B
  8
SUNPOU
 62
     0
 10
201.24997201777569
 20
-513.68821840826138
 30
0.0
 11
314.74931817779179
 21
-513.68821840826138
 31
0.0
  0
SOLID
  5
C02C
  8
SUNPOU
 62
     0
 10
201.24997201777569
 20
-505.35488507492812
 30
0.0
 11
201.24997201777569
 21
-522.02155174159475
 31
0.0
 12
151.24997201777569
 22
-513.68821840826138
 32
0.0
 13
151.24997201777569
 23
-513.68821840826138
 33
0.0
  0
SOLID
  5
C02D
  8
SUNPOU
 62
     0
 10
314.74931817779179
 20
-505.35488507492812
 30
0.0
 11
314.74931817779179
 21
-522.02155174159475
 31
0.0
 12
364.74931817779179
 22
-513.68821840826138
 32
0.0
 13
364.74931817779179
 23
-513.68821840826138
 33
0.0
  0
INSERT
  5
C02E
  8
0
  2
*U107
 10
0.0
 20
0.0
 30
0.0
  0
POINT
  5
C02F
  8
DEFPOINTS
 62
     0
 10
151.24997201777569
 20
-428.98609573426052
 30
0.0
  0
POINT
  5
C030
  8
DEFPOINTS
 62
     0
 10
364.74931817779179
 20
-174.99935884010691
 30
0.0
  0
POINT
  5
C031
  8
DEFPOINTS
 62
     0
 10
364.74931817779179
 20
-513.68821840826138
 30
0.0
  0
ENDBLK
  5
C032
  8
0
  0
BLOCK
  8
0
  2
*D62
 70
     1
 10
0.0
 20
0.0
 30
0.0
  3
*D62
  1

  0
LINE
  5
C036
  8
SUNPOU
 62
     0
 10
884.65184258707438
 20
174.99935884010711
 30
0.0
 11
725.31179630402858
 21
174.99935884010711
 31
0.0
  0
LINE
  5
C037
  8
SUNPOU
 62
     0
 10
884.65153693218952
 20
0.0000000000000071
 30
0.0
 11
725.31179630402858
 21
0.0000000000000522
 31
0.0
  0
LINE
  5
C038
  8
SUNPOU
 62
     0
 10
750.31179630402858
 20
124.99935884010711
 30
0.0
 11
750.31179630402858
 21
50.00000000000005
 31
0.0
  0
SOLID
  5
C039
  8
SUNPOU
 62
     0
 10
741.9784629706952
 20
124.99935884010711
 30
0.0
 11
758.64512963736195
 21
124.99935884010711
 31
0.0
 12
750.31179630402858
 22
174.99935884010711
 32
0.0
 13
750.31179630402858
 23
174.99935884010711
 33
0.0
  0
SOLID
  5
C03A
  8
SUNPOU
 62
     0
 10
741.9784629706952
 20
50.00000000000005
 30
0.0
 11
758.64512963736195
 21
50.000000000000043
 31
0.0
 12
750.31179630402858
 22
0.0000000000000451
 32
0.0
 13
750.31179630402858
 23
0.0000000000000451
 33
0.0
  0
INSERT
  5
C03B
  8
0
  2
*U108
 10
0.0
 20
0.0
 30
0.0
  0
POINT
  5
C03C
  8
DEFPOINTS
 62
     0
 10
909.65184258707438
 20
174.99935884010711
 30
0.0
  0
POINT
  5
C03D
  8
DEFPOINTS
 62
     0
 10
909.65153693218952
 20
0.0
 30
0.0
  0
POINT
  5
C03E
  8
DEFPOINTS
 62
     0
 10
750.31179630402858
 20
0.0000000000000451
 30
0.0
  0
ENDBLK
  5
C03F
  8
0
  0
BLOCK
  8
0
  2
T-40金具詳細
 70
     0
 10
0.0
 20
0.0
 30
0.0
  3
T-40金具詳細
  1
C:\Documents and Settings\SJC\デスクトップ\G_T-40\ブロックT-40\T-40柵部品図\T-40金具詳細.dwg
  0
TEXT
  5
C0C0
  8
INFORMATION
 10
1.0
 20
1.0
 30
0.0
 40
0.8
  1
VERSION=3.0
 41
0.8
  7
EXT08
  0
LINE
  5
C0C1
  8
SJC
 10
-88.026395907529874
 20
35.009182472723751
 30
0.0
 11
-45.314390722358077
 21
35.009182472723751
 31
0.0
  0
LINE
  5
C0C2
  8
SJC
 10
-72.971587549503965
 20
-35.010558304351527
 30
0.0
 11
-30.259582364332161
 21
-35.010558304351527
 31
0.0
  0
LINE
  5
C0C3
  8
SJC
 10
-88.025937296967086
 20
-0.0006879158141601
 30
0.0
 11
-30.258894448517321
 21
-0.0006879158140237
 31
0.0
  0
LINE
  5
C0C4
  8
CENTER
 10
-59.017903109768667
 20
-54.239295884344401
 30
0.0
 11
-59.017903109768667
 21
54.555622507729311
 31
0.0
  0
POLYLINE
  5
C0C5
  8
SJC2
 66
     1
 10
0.0
 20
0.0
 30
0.0
  0
VERTEX
  5
C69A
  8
SJC2
 10
-50.215332310658049
 20
-35.010558304351527
 30
0.0
  0
VERTEX
  5
C69B
  8
SJC2
 10
-50.215332310658049
 20
-36.85107707375105
 30
0.0
  0
VERTEX
  5
C69C
  8
SJC2
 10
-67.820244603688479
 20
-36.85107707375105
 30
0.0
  0
VERTEX
  5
C69D
  8
SJC2
 10
-67.820244603688479
 20
-35.010558304351527
 30
0.0
  0
SEQEND
  5
C69E
  8
SJC2
  0
ARC
  5
C0C6
  8
SJC2
 10
-51.815582259080109
 20
-43.653030918765033
 30
0.0
 40
1.200341555414622
 50
269.99658480360262
 51
0.0034151963973474
  0
LINE
  5
C0C7
  8
SJC2
 10
-51.815653807099437
 20
-44.853372472075982
 30
0.0
 11
-66.220381717749845
 21
-44.853831082578743
 31
0.0
  0
ARC
  5
C0C8
  8
SJC2
 10
-66.220453264446405
 20
-43.653489529328361
 30
0.0
 40
1.200341555414622
 50
180.0020575061024
 51
270.00341513149408
  0
LINE
  5
C0C9
  8
SJC2
 10
-67.420794819080399
 20
-43.653532633904433
 30
0.0
 11
-67.42010690326569
 21
-36.851077073751192
 31
0.0
  0
LINE
  5
C0CA
  8
SJC2
 10
-64.619372305433714
 20
-36.851077073751192
 30
0.0
 11
-64.619372305433714
 21
-44.853831082578743
 31
0.0
  0
LINE
  5
C0CB
  8
SJC2
 10
-53.416204608912807
 20
-36.851077073751192
 30
0.0
 11
-53.416204608912807
 21
-44.853372472075982
 31
0.0
  0
LINE
  5
C0CC
  8
SJC2
 10
-50.615470011080831
 20
-36.851077073751192
 30
0.0
 11
-50.615240705768883
 21
-43.652959370745982
 31
0.0
  0
POLYLINE
  5
C0CD
  8
SJC2
 66
     1
 10
0.0
 20
0.0
 30
0.0
  0
VERTEX
  5
C69F
  8
SJC2
 10
-54.216480009759472
 20
-44.853716429983344
 30
0.0
  0
VERTEX
  5
C6A0
  8
SJC2
 10
-54.216480009759472
 20
-46.854290279504177
 30
0.0
  0
VERTEX
  5
C6A1
  8
SJC2
 10
-63.819096904527029
 20
-46.854290279504177
 30
0.0
  0
VERTEX
  5
C6A2
  8
SJC2
 10
-63.819096904527029
 20
-44.853716429983344
 30
0.0
  0
SEQEND
  5
C6A3
  8
SJC2
  0
ARC
  5
C0CE
  8
SJC2
 10
-59.017903109768667
 20
30.414803015234881
 30
0.0
 40
9.9294297557481261
 50
27.561681572902842
 51
152.4383184270971
  0
LINE
  5
C0CF
  8
SJC
 10
-72.971587549503965
 20
-35.010558304351527
 30
0.0
 11
-72.971587549503965
 21
35.009182472723751
 31
0.0
  0
LINE
  5
C0D0
  8
SJC
 10
-45.314390722358077
 20
-35.010558304351527
 30
0.0
 11
-45.314390722358077
 21
35.009182472723751
 31
0.0
  0
LINE
  5
C0D1
  8
SJC
 10
30.258435837894648
 20
-35.009641083285722
 30
0.0
 11
72.970441023066442
 21
-35.009641083285722
 31
0.0
  0
LINE
  5
C0D2
  8
SJC
 10
45.313244195920547
 20
35.009641083286532
 30
0.0
 11
88.025249381153472
 21
35.009641083286532
 31
0.0
  0
LINE
  5
C0D3
  8
SJC
 10
30.258435837894648
 20
0.0
 30
0.0
 11
88.025478686345238
 21
0.0
 31
0.0
  0
LINE
  5
C0D4
  8
CENTER
 10
59.266928635655859
 20
54.239181231689102
 30
0.0
 11
59.266928635655859
 21
-54.55596646563572
 31
0.0
  0
POLYLINE
  5
C0D5
  8
SJC2
 66
     1
 10
0.0
 20
0.0
 30
0.0
  0
VERTEX
  5
C6A4
  8
SJC2
 10
68.069270129515644
 20
-35.009641083285722
 30
0.0
  0
VERTEX
  5
C6A5
  8
SJC2
 10
68.069270129515644
 20
-36.850159852685792
 30
0.0
  0
VERTEX
  5
C6A6
  8
SJC2
 10
50.464357836484119
 20
-36.850159852685792
 30
0.0
  0
VERTEX
  5
C6A7
  8
SJC2
 10
50.464357836484119
 20
-35.009641083285722
 30
0.0
  0
SEQEND
  5
C6A8
  8
SJC2
  0
ARC
  5
C0D6
  8
SJC2
 10
66.468790874458861
 20
-43.651999045043787
 30
0.0
 40
1.200341555414622
 50
269.99658486850592
 51
359.99794249389748
  0
LINE
  5
C0D7
  8
SJC2
 10
66.468719327762301
 20
-44.852340598294717
 30
0.0
 11
52.064220722423848
 21
-44.852913861513201
 31
0.0
  0
ARC
  5
C0D8
  8
SJC2
 10
52.064149174344493
 20
-43.652572308262542
 30
0.0
 40
1.200341555414622
 50
179.99658480360259
 51
270.00341519639738
  0
LINE
  5
C0D9
  8
SJC2
 10
50.863807621093287
 20
-43.652500760183187
 30
0.0
 11
50.864495536907988
 21
-36.850159852685643
 31
0.0
  0
LINE
  5
C0DA
  8
SJC2
 10
53.665230134739971
 20
-36.850159852685643
 30
0.0
 11
53.665230134739971
 21
-44.852913861513201
 31
0.0
  0
LINE
  5
C0DB
  8
SJC2
 10
64.868397831259784
 20
-36.850159852685643
 30
0.0
 11
64.868397831259784
 21
-44.852340598294717
 31
0.0
  0
LINE
  5
C0DC
  8
SJC2
 10
67.669132429092855
 20
-36.850159852685643
 30
0.0
 11
67.669132429092855
 21
-43.652042149620129
 31
0.0
  0
POLYLINE
  5
C0DD
  8
SJC2
 66
     1
 10
0.0
 20
0.0
 30
0.0
  0
VERTEX
  5
C6A9
  8
SJC2
 10
64.068122430413126
 20
-44.852684556201801
 30
0.0
  0
VERTEX
  5
C6AA
  8
SJC2
 10
64.068122430413126
 20
-46.853258405783073
 30
0.0
  0
VERTEX
  5
C6AB
  8
SJC2
 10
54.465505535586637
 20
-46.853258405783073
 30
0.0
  0
VERTEX
  5
C6AC
  8
SJC2
 10
54.465505535586637
 20
-44.852684556201801
 30
0.0
  0
SEQEND
  5
C6AD
  8
SJC2
  0
ARC
  5
C0DE
  8
SJC2
 10
59.266813982999871
 20
30.413576780288899
 30
0.0
 40
9.9301078185879952
 50
27.570605815502049
 51
152.42939418449791
  0
LINE
  5
C0DF
  8
SJC
 10
45.313244195920547
 20
35.009641083286532
 30
0.0
 11
45.313244195920547
 21
-35.009641083285722
 31
0.0
  0
LINE
  5
C0E0
  8
SJC
 10
72.970441023066442
 20
35.009641083286532
 30
0.0
 11
72.970441023066442
 21
-35.009641083285722
 31
0.0
  0
ENDBLK
  5
C0E1
  8
0
  0
BLOCK
  8
0
  2
*D64
 70
     1
 10
0.0
 20
0.0
 30
0.0
  3
*D64
  1

  0
LINE
  5
C0F3
  8
SUNPOU
 62
     0
 10
-433.44925075140048
 20
1858.2707358150369
 30
0.0
 11
-433.44925075140048
 21
2181.971020216386
 31
0.0
  0
LINE
  5
C0F4
  8
SUNPOU
 62
     0
 10
-175.0508806445614
 20
1858.2707358150369
 30
0.0
 11
-175.0508806445614
 21
2181.971020216386
 31
0.0
  0
LINE
  5
C0F5
  8
SUNPOU
 62
     0
 10
-383.44925075140048
 20
2156.971020216386
 30
0.0
 11
-225.0508806445614
 21
2156.971020216386
 31
0.0
  0
INSERT
  5
C0F6
  8
0
  2
*U119
 10
0.0
 20
0.0
 30
0.0
  0
SOLID
  5
C0F7
  8
SUNPOU
 62
     0
 10
-383.44925075140048
 20
2165.30435354972
 30
0.0
 11
-383.44925075140048
 21
2148.637686883053
 31
0.0
 12
-433.44925075140048
 22
2156.971020216386
 32
0.0
 13
-433.44925075140048
 23
2156.971020216386
 33
0.0
  0
SOLID
  5
C0F8
  8
SUNPOU
 62
     0
 10
-225.0508806445614
 20
2165.30435354972
 30
0.0
 11
-225.0508806445614
 21
2148.637686883053
 31
0.0
 12
-175.0508806445614
 22
2156.971020216386
 32
0.0
 13
-175.0508806445614
 23
2156.971020216386
 33
0.0
  0
POINT
  5
C0F9
  8
DEFPOINTS
 62
     0
 10
-433.44925075140048
 20
1833.2707358150369
 30
0.0
  0
POINT
  5
C0FA
  8
DEFPOINTS
 62
     0
 10
-175.0508806445614
 20
1833.2707358150369
 30
0.0
  0
POINT
  5
C0FB
  8
DEFPOINTS
 62
     0
 10
-175.0508806445614
 20
2156.971020216386
 30
0.0
  0
ENDBLK
  5
C0FC
  8
0
  0
BLOCK
  8
0
  2
*D65
 70
     1
 10
0.0
 20
0.0
 30
0.0
  3
*D65
  1

  0
LINE
  5
C100
  8
SUNPOU
 62
     0
 10
-99.996322071079703
 20
1858.2707358150369
 30
0.0
 11
-99.996322071079675
 21
2390.5880028159099
 31
0.0
  0
LINE
  5
C101
  8
SUNPOU
 62
     0
 10
-149.99632207107959
 20
2365.5880028159099
 30
0.0
 11
-787.18884464425173
 21
2365.5880028159099
 31
0.0
  0
SOLID
  5
C102
  8
SUNPOU
 62
     0
 10
-149.99632207107959
 20
2373.9213361492439
 30
0.0
 11
-149.99632207107959
 21
2357.2546694825769
 31
0.0
 12
-99.996322071079675
 22
2365.5880028159099
 32
0.0
 13
-99.996322071079675
 23
2365.5880028159099
 33
0.0
  0
INSERT
  5
C103
  8
0
  2
*U120
 10
0.0
 20
0.0
 30
0.0
  0
POINT
  5
C104
  8
DEFPOINTS
 62
     0
 10
-99.996322071079703
 20
1833.2707358150369
 30
0.0
  0
POINT
  5
C105
  8
DEFPOINTS
 62
     0
 10
-787.18884464425173
 20
2365.5880028159099
 30
0.0
  0
POINT
  5
C106
  8
DEFPOINTS
 62
     0
 10
-787.18884464425173
 20
2365.5880028159099
 30
0.0
  0
ENDBLK
  5
C107
  8
0
  0
BLOCK
  8
0
  2
*D66
 70
     1
 10
0.0
 20
0.0
 30
0.0
  3
*D66
  1

  0
LINE
  5
C10B
  8
SUNPOU
 62
     0
 10
0.0000000000000015
 20
1909.937558964373
 30
0.0
 11
0.000000000000044
 21
2603.363034093707
 31
0.0
  0
LINE
  5
C10C
  8
SUNPOU
 62
     0
 10
-49.999999999999957
 20
2578.363034093707
 30
0.0
 11
-787.18884464425173
 21
2578.363034093707
 31
0.0
  0
SOLID
  5
C10D
  8
SUNPOU
 62
     0
 10
-49.999999999999957
 20
2586.6963674270401
 30
0.0
 11
-49.999999999999957
 21
2570.0297007603731
 31
0.0
 12
0.0000000000000425
 22
2578.363034093707
 32
0.0
 13
0.0000000000000425
 23
2578.363034093707
 33
0.0
  0
INSERT
  5
C10E
  8
0
  2
*U121
 10
0.0
 20
0.0
 30
0.0
  0
POINT
  5
C10F
  8
DEFPOINTS
 62
     0
 10
0.0
 20
1884.937558964373
 30
0.0
  0
POINT
  5
C110
  8
DEFPOINTS
 62
     0
 10
-787.18884464425173
 20
2578.363034093707
 30
0.0
  0
POINT
  5
C111
  8
DEFPOINTS
 62
     0
 10
-787.18884464425173
 20
2578.363034093707
 30
0.0
  0
ENDBLK
  5
C112
  8
0
  0
BLOCK
  8
0
  2
*D67
 70
     1
 10
0.0
 20
0.0
 30
0.0
  3
*D67
  1

  0
LINE
  5
C116
  8
SUNPOU
 62
     0
 10
-433.44925075140048
 20
1858.2707358150369
 30
0.0
 11
-433.44925075140048
 21
2181.971020216386
 31
0.0
  0
LINE
  5
C117
  8
SUNPOU
 62
     0
 10
-483.44925075140048
 20
2156.971020216386
 30
0.0
 11
-787.18884464425173
 21
2156.971020216386
 31
0.0
  0
INSERT
  5
C118
  8
0
  2
*U122
 10
0.0
 20
0.0
 30
0.0
  0
SOLID
  5
C119
  8
SUNPOU
 62
     0
 10
-483.44925075140048
 20
2165.30435354972
 30
0.0
 11
-483.44925075140048
 21
2148.637686883053
 31
0.0
 12
-433.44925075140048
 22
2156.971020216386
 32
0.0
 13
-433.44925075140048
 23
2156.971020216386
 33
0.0
  0
POINT
  5
C11A
  8
DEFPOINTS
 62
     0
 10
-433.44925075140048
 20
1833.2707358150369
 30
0.0
  0
POINT
  5
C11B
  8
DEFPOINTS
 62
     0
 10
-787.18884464425173
 20
2156.971020216386
 30
0.0
  0
POINT
  5
C11C
  8
DEFPOINTS
 62
     0
 10
-787.18884464425173
 20
2156.971020216386
 30
0.0
  0
ENDBLK
  5
C11D
  8
0
  0
BLOCK
  8
0
  2
*D68
 70
     1
 10
0.0
 20
0.0
 30
0.0
  3
*D68
  1

  0
LINE
  5
C121
  8
SUNPOU
 62
     0
 10
433.44925075140412
 20
1858.2707358150369
 30
0.0
 11
433.44925075140412
 21
2181.971020216386
 31
0.0
  0
LINE
  5
C122
  8
SUNPOU
 62
     0
 10
483.44925075140412
 20
2156.971020216386
 30
0.0
 11
831.64626423694972
 21
2156.971020216386
 31
0.0
  0
INSERT
  5
C123
  8
0
  2
*U123
 10
0.0
 20
0.0
 30
0.0
  0
SOLID
  5
C124
  8
SUNPOU
 62
     0
 10
483.44925075140412
 20
2165.30435354972
 30
0.0
 11
483.44925075140412
 21
2148.637686883053
 31
0.0
 12
433.44925075140412
 22
2156.971020216386
 32
0.0
 13
433.44925075140412
 23
2156.971020216386
 33
0.0
  0
POINT
  5
C125
  8
DEFPOINTS
 62
     0
 10
433.44925075140412
 20
1833.2707358150369
 30
0.0
  0
POINT
  5
C126
  8
DEFPOINTS
 62
     0
 10
831.64626423694972
 20
2156.971020216386
 30
0.0
  0
POINT
  5
C127
  8
DEFPOINTS
 62
     0
 10
831.64626423694972
 20
2156.971020216386
 30
0.0
  0
ENDBLK
  5
C128
  8
0
  0
BLOCK
  8
0
  2
*D69
 70
     1
 10
0.0
 20
0.0
 30
0.0
  3
*D69
  1

  0
LINE
  5
C12C
  8
SUNPOU
 62
     0
 10
99.996322071083341
 20
1858.2707358150369
 30
0.0
 11
99.99632207108337
 21
2390.5880028159099
 31
0.0
  0
LINE
  5
C12D
  8
SUNPOU
 62
     0
 10
149.99632207108331
 20
2365.5880028159099
 30
0.0
 11
831.64626423694972
 21
2365.5880028159099
 31
0.0
  0
SOLID
  5
C12E
  8
SUNPOU
 62
     0
 10
149.99632207108331
 20
2373.9213361492439
 30
0.0
 11
149.99632207108331
 21
2357.2546694825769
 31
0.0
 12
99.99632207108337
 22
2365.5880028159099
 32
0.0
 13
99.99632207108337
 23
2365.5880028159099
 33
0.0
  0
INSERT
  5
C12F
  8
0
  2
*U124
 10
0.0
 20
0.0
 30
0.0
  0
POINT
  5
C130
  8
DEFPOINTS
 62
     0
 10
99.996322071083341
 20
1833.2707358150369
 30
0.0
  0
POINT
  5
C131
  8
DEFPOINTS
 62
     0
 10
831.64626423694972
 20
2365.5880028159099
 30
0.0
  0
POINT
  5
C132
  8
DEFPOINTS
 62
     0
 10
831.64626423694972
 20
2365.5880028159099
 30
0.0
  0
ENDBLK
  5
C133
  8
0
  0
BLOCK
  8
0
  2
*D70
 70
     1
 10
0.0
 20
0.0
 30
0.0
  3
*D70
  1

  0
LINE
  5
C137
  8
SUNPOU
 62
     0
 10
0.0000000000000015
 20
1909.937558964373
 30
0.0
 11
0.000000000000044
 21
2603.363034093707
 31
0.0
  0
LINE
  5
C138
  8
SUNPOU
 62
     0
 10
50.000000000000043
 20
2578.363034093707
 30
0.0
 11
831.64626423694972
 21
2578.363034093707
 31
0.0
  0
SOLID
  5
C139
  8
SUNPOU
 62
     0
 10
50.000000000000043
 20
2586.6963674270401
 30
0.0
 11
50.000000000000043
 21
2570.0297007603731
 31
0.0
 12
0.0000000000000425
 22
2578.363034093707
 32
0.0
 13
0.0000000000000425
 23
2578.363034093707
 33
0.0
  0
INSERT
  5
C13A
  8
0
  2
*U125
 10
0.0
 20
0.0
 30
0.0
  0
POINT
  5
C13B
  8
DEFPOINTS
 62
     0
 10
0.0
 20
1884.937558964373
 30
0.0
  0
POINT
  5
C13C
  8
DEFPOINTS
 62
     0
 10
831.64626423694972
 20
2578.363034093707
 30
0.0
  0
POINT
  5
C13D
  8
DEFPOINTS
 62
     0
 10
831.64626423694972
 20
2578.363034093707
 30
0.0
  0
ENDBLK
  5
C13E
  8
0
  0
BLOCK
  8
0
  2
*D71
 70
     1
 10
0.0
 20
0.0
 30
0.0
  3
*D71
  1

  0
LINE
  5
C142
  8
SUNPOU
 62
     0
 10
433.44925075140412
 20
1858.2707358150369
 30
0.0
 11
433.44925075140412
 21
2181.971020216386
 31
0.0
  0
LINE
  5
C143
  8
SUNPOU
 62
     0
 10
175.05088064456501
 20
1858.2707358150369
 30
0.0
 11
175.05088064456501
 21
2181.971020216386
 31
0.0
  0
LINE
  5
C144
  8
SUNPOU
 62
     0
 10
383.44925075140418
 20
2156.971020216386
 30
0.0
 11
225.0508806445651
 21
2156.971020216386
 31
0.0
  0
INSERT
  5
C145
  8
0
  2
*U126
 10
0.0
 20
0.0
 30
0.0
  0
SOLID
  5
C146
  8
SUNPOU
 62
     0
 10
383.44925075140418
 20
2165.30435354972
 30
0.0
 11
383.44925075140418
 21
2148.637686883053
 31
0.0
 12
433.44925075140412
 22
2156.971020216386
 32
0.0
 13
433.44925075140412
 23
2156.971020216386
 33
0.0
  0
SOLID
  5
C147
  8
SUNPOU
 62
     0
 10
225.0508806445651
 20
2165.30435354972
 30
0.0
 11
225.0508806445651
 21
2148.637686883053
 31
0.0
 12
175.05088064456501
 22
2156.971020216386
 32
0.0
 13
175.05088064456501
 23
2156.971020216386
 33
0.0
  0
POINT
  5
C148
  8
DEFPOINTS
 62
     0
 10
433.44925075140412
 20
1833.2707358150369
 30
0.0
  0
POINT
  5
C149
  8
DEFPOINTS
 62
     0
 10
175.05088064456501
 20
1833.2707358150369
 30
0.0
  0
POINT
  5
C14A
  8
DEFPOINTS
 62
     0
 10
175.05088064456501
 20
2156.971020216386
 30
0.0
  0
ENDBLK
  5
C14B
  8
0
  0
BLOCK
  8
0
  2
*D72
 70
     1
 10
0.0
 20
0.0
 30
0.0
  3
*D72
  1

  0
LINE
  5
C151
  8
SUNPOU
 62
     0
 10
175.05088064456501
 20
1858.2707358150369
 30
0.0
 11
175.05088064456501
 21
2181.971020216386
 31
0.0
  0
LINE
  5
C152
  8
SUNPOU
 62
     0
 10
99.996322071083341
 20
1858.2707358150369
 30
0.0
 11
99.99632207108337
 21
2181.971020216386
 31
0.0
  0
LINE
  5
C153
  8
SUNPOU
 62
     0
 10
225.0508806445651
 20
2156.971020216386
 30
0.0
 11
275.0508806445651
 21
2156.971020216386
 31
0.0
  0
LINE
  5
C154
  8
SUNPOU
 62
     0
 10
49.996322071083348
 20
2156.971020216386
 30
0.0
 11
-0.0036779289166446
 21
2156.971020216386
 31
0.0
  0
INSERT
  5
C155
  8
0
  2
*U127
 10
0.0
 20
0.0
 30
0.0
  0
LINE
  5
C156
  8
SUNPOU
 62
     0
 10
175.05088064456501
 20
2156.971020216386
 30
0.0
 11
99.996322071083355
 21
2156.971020216386
 31
0.0
  0
SOLID
  5
C157
  8
SUNPOU
 62
     0
 10
225.0508806445651
 20
2165.3043535497191
 30
0.0
 11
225.0508806445651
 21
2148.6376868830521
 31
0.0
 12
175.05088064456501
 22
2156.971020216386
 32
0.0
 13
175.05088064456501
 23
2156.971020216386
 33
0.0
  0
SOLID
  5
C158
  8
SUNPOU
 62
     0
 10
49.996322071083348
 20
2165.3043535497191
 30
0.0
 11
49.996322071083348
 21
2148.6376868830521
 31
0.0
 12
99.996322071083355
 22
2156.971020216386
 32
0.0
 13
99.996322071083355
 23
2156.971020216386
 33
0.0
  0
POINT
  5
C159
  8
DEFPOINTS
 62
     0
 10
175.05088064456501
 20
1833.2707358150369
 30
0.0
  0
POINT
  5
C15A
  8
DEFPOINTS
 62
     0
 10
99.996322071083341
 20
1833.2707358150369
 30
0.0
  0
POINT
  5
C15B
  8
DEFPOINTS
 62
     0
 10
99.996322071083355
 20
2156.971020216386
 30
0.0
  0
ENDBLK
  5
C15C
  8
0
  0
BLOCK
  8
0
  2
*D73
 70
     1
 10
0.0
 20
0.0
 30
0.0
  3
*D73
  1

  0
LINE
  5
C160
  8
SUNPOU
 62
     0
 10
-175.0508806445614
 20
1858.2707358150369
 30
0.0
 11
-175.0508806445614
 21
2181.971020216386
 31
0.0
  0
LINE
  5
C161
  8
SUNPOU
 62
     0
 10
-99.996322071079703
 20
1858.2707358150369
 30
0.0
 11
-99.996322071079675
 21
2181.971020216386
 31
0.0
  0
LINE
  5
C162
  8
SUNPOU
 62
     0
 10
-225.0508806445614
 20
2156.971020216386
 30
0.0
 11
-275.0508806445614
 21
2156.971020216386
 31
0.0
  0
LINE
  5
C163
  8
SUNPOU
 62
     0
 10
-49.996322071079689
 20
2156.971020216386
 30
0.0
 11
0.003677928920311
 21
2156.971020216386
 31
0.0
  0
INSERT
  5
C164
  8
0
  2
*U128
 10
0.0
 20
0.0
 30
0.0
  0
LINE
  5
C165
  8
SUNPOU
 62
     0
 10
-175.0508806445614
 20
2156.971020216386
 30
0.0
 11
-99.996322071079689
 21
2156.971020216386
 31
0.0
  0
SOLID
  5
C166
  8
SUNPOU
 62
     0
 10
-225.0508806445614
 20
2165.3043535497191
 30
0.0
 11
-225.0508806445614
 21
2148.6376868830521
 31
0.0
 12
-175.0508806445614
 22
2156.971020216386
 32
0.0
 13
-175.0508806445614
 23
2156.971020216386
 33
0.0
  0
SOLID
  5
C167
  8
SUNPOU
 62
     0
 10
-49.996322071079689
 20
2165.3043535497191
 30
0.0
 11
-49.996322071079689
 21
2148.6376868830521
 31
0.0
 12
-99.996322071079689
 22
2156.971020216386
 32
0.0
 13
-99.996322071079689
 23
2156.971020216386
 33
0.0
  0
POINT
  5
C168
  8
DEFPOINTS
 62
     0
 10
-175.0508806445614
 20
1833.2707358150369
 30
0.0
  0
POINT
  5
C169
  8
DEFPOINTS
 62
     0
 10
-99.996322071079703
 20
1833.2707358150369
 30
0.0
  0
POINT
  5
C16A
  8
DEFPOINTS
 62
     0
 10
-99.996322071079689
 20
2156.971020216386
 30
0.0
  0
ENDBLK
  5
C16B
  8
0
  0
BLOCK
  8
0
  2
*D74
 70
     1
 10
0.0
 20
0.0
 30
0.0
  3
*D74
  1

  0
LINE
  5
C171
  8
SUNPOU
 10
782.18884464425355
 20
1833.2707358150369
 30
0.0
 11
1200.7204563139551
 21
1833.2707358150369
 31
0.0
  0
LINE
  5
C172
  8
SUNPOU
 10
782.18808029321235
 20
-0.0000000000000071
 30
0.0
 11
1200.7204563139551
 21
-0.0000000000001256
 31
0.0
  0
LINE
  5
C173
  8
SUNPOU
 10
1175.7204563139551
 20
1783.2707358150369
 30
0.0
 11
1175.7204563139551
 21
49.999999999999879
 31
0.0
  0
SOLID
  5
C174
  8
SUNPOU
 10
1167.3871229806221
 20
1783.2707358150369
 30
0.0
 11
1184.0537896472881
 21
1783.2707358150369
 31
0.0
 12
1175.7204563139551
 22
1833.2707358150369
 32
0.0
 13
1175.7204563139551
 23
1833.2707358150369
 33
0.0
  0
SOLID
  5
C175
  8
SUNPOU
 10
1167.3871229806209
 20
49.999999999999893
 30
0.0
 11
1184.0537896472881
 21
49.999999999999879
 31
0.0
 12
1175.7204563139551
 22
-0.0000000000001186
 32
0.0
 13
1175.7204563139551
 23
-0.0000000000001186
 33
0.0
  0
INSERT
  5
C176
  8
0
  2
*U129
 10
0.0
 20
0.0
 30
0.0
  0
POINT
  5
C177
  8
DEFPOINTS
 62
     0
 10
757.18884464425355
 20
1833.2707358150369
 30
0.0
  0
POINT
  5
C178
  8
DEFPOINTS
 62
     0
 10
757.18808029321235
 20
0.0
 30
0.0
  0
POINT
  5
C179
  8
DEFPOINTS
 62
     0
 10
1175.7204563139551
 20
-0.0000000000001186
 30
0.0
  0
ENDBLK
  5
C17A
  8
0
  0
BLOCK
  8
0
  2
*D75
 70
     1
 10
0.0
 20
0.0
 30
0.0
  3
*D75
  1

  0
LINE
  5
C17E
  8
SUNPOU
 10
782.18884464425355
 20
1833.2707358150369
 30
0.0
 11
1007.0886084112771
 21
1833.2707358150369
 31
0.0
  0
LINE
  5
C17F
  8
SUNPOU
 10
171.70913114390891
 20
1549.8574447397839
 30
0.0
 11
1007.0886084112771
 21
1549.857444739783
 31
0.0
  0
LINE
  5
C180
  8
SUNPOU
 10
982.08860841127682
 20
1783.2707358150369
 30
0.0
 11
982.08860841127682
 21
1599.857444739783
 31
0.0
  0
INSERT
  5
C181
  8
0
  2
*U130
 10
0.0
 20
0.0
 30
0.0
  0
SOLID
  5
C182
  8
SUNPOU
 10
973.75527507794345
 20
1783.2707358150369
 30
0.0
 11
990.42194174460997
 21
1783.2707358150369
 31
0.0
 12
982.08860841127682
 22
1833.2707358150369
 32
0.0
 13
982.08860841127682
 23
1833.2707358150369
 33
0.0
  0
SOLID
  5
C183
  8
SUNPOU
 10
973.75527507794345
 20
1599.857444739783
 30
0.0
 11
990.42194174460997
 21
1599.857444739783
 31
0.0
 12
982.08860841127682
 22
1549.857444739783
 32
0.0
 13
982.08860841127682
 23
1549.857444739783
 33
0.0
  0
POINT
  5
C184
  8
DEFPOINTS
 62
     0
 10
757.18884464425355
 20
1833.2707358150369
 30
0.0
  0
POINT
  5
C185
  8
DEFPOINTS
 62
     0
 10
146.70913114390891
 20
1549.8574447397839
 30
0.0
  0
POINT
  5
C186
  8
DEFPOINTS
 62
     0
 10
982.08860841127682
 20
1549.857444739783
 30
0.0
  0
ENDBLK
  5
C187
  8
0
  0
BLOCK
  8
0
  2
*D76
 70
     1
 10
0.0
 20
0.0
 30
0.0
  3
*D76
  1

  0
LINE
  5
C18B
  8
SUNPOU
 62
     0
 10
171.70913114390891
 20
716.56491252546198
 30
0.0
 11
1007.0886084112771
 21
716.56491252546175
 31
0.0
  0
LINE
  5
C18C
  8
SUNPOU
 62
     0
 10
782.18808029321235
 20
-0.0000000000000071
 30
0.0
 11
1007.0886084112771
 21
-0.0000000000000708
 31
0.0
  0
LINE
  5
C18D
  8
SUNPOU
 62
     0
 10
982.08860841127682
 20
666.56491252546175
 30
0.0
 11
982.08860841127682
 21
49.999999999999929
 31
0.0
  0
INSERT
  5
C18E
  8
0
  2
*U131
 10
0.0
 20
0.0
 30
0.0
  0
SOLID
  5
C18F
  8
SUNPOU
 62
     0
 10
973.75527507794345
 20
666.56491252546175
 30
0.0
 11
990.42194174461019
 21
666.56491252546175
 31
0.0
 12
982.08860841127682
 22
716.56491252546175
 32
0.0
 13
982.08860841127682
 23
716.56491252546175
 33
0.0
  0
SOLID
  5
C190
  8
SUNPOU
 62
     0
 10
973.75527507794345
 20
49.999999999999943
 30
0.0
 11
990.42194174460997
 21
49.999999999999929
 31
0.0
 12
982.08860841127682
 22
-0.0000000000000637
 32
0.0
 13
982.08860841127682
 23
-0.0000000000000637
 33
0.0
  0
POINT
  5
C191
  8
DEFPOINTS
 62
     0
 10
146.70913114390891
 20
716.56491252546198
 30
0.0
  0
POINT
  5
C192
  8
DEFPOINTS
 62
     0
 10
757.18808029321235
 20
0.0
 30
0.0
  0
POINT
  5
C193
  8
DEFPOINTS
 62
     0
 10
982.08860841127682
 20
-0.0000000000000637
 30
0.0
  0
ENDBLK
  5
C194
  8
0
  0
BLOCK
  8
0
  2
*D77
 70
     1
 10
0.0
 20
0.0
 30
0.0
  3
*D77
  1

  0
LINE
  5
C198
  8
SUNPOU
 10
782.18808029321735
 20
1833.2707358150369
 30
0.0
 11
1200.7204563139551
 21
1833.2707358150369
 31
0.0
  0
LINE
  5
C199
  8
SUNPOU
 10
25.0
 20
1851.6040691483699
 30
0.0
 11
1200.7204563139551
 21
1851.6040691483699
 31
0.0
  0
LINE
  5
C19A
  8
SUNPOU
 10
1175.7204563139551
 20
1783.2707358150369
 30
0.0
 11
1175.7204563139551
 21
1733.2707358150369
 31
0.0
  0
LINE
  5
C19B
  8
SUNPOU
 10
1175.7204563139551
 20
1901.6040691483699
 30
0.0
 11
1175.7204563139551
 21
1951.6040691483699
 31
0.0
  0
INSERT
  5
C19C
  8
0
  2
*U132
 10
0.0
 20
0.0
 30
0.0
  0
LINE
  5
C19D
  8
SUNPOU
 10
1175.7204563139551
 20
1833.2707358150369
 30
0.0
 11
1175.7204563139551
 21
1851.6040691483699
 31
0.0
  0
SOLID
  5
C19E
  8
SUNPOU
 10
1167.3871229806221
 20
1783.2707358150369
 30
0.0
 11
1184.0537896472881
 21
1783.2707358150369
 31
0.0
 12
1175.7204563139551
 22
1833.2707358150369
 32
0.0
 13
1175.7204563139551
 23
1833.2707358150369
 33
0.0
  0
SOLID
  5
C19F
  8
SUNPOU
 10
1167.3871229806221
 20
1901.6040691483699
 30
0.0
 11
1184.0537896472881
 21
1901.6040691483699
 31
0.0
 12
1175.7204563139551
 22
1851.6040691483699
 32
0.0
 13
1175.7204563139551
 23
1851.6040691483699
 33
0.0
  0
POINT
  5
C1A0
  8
DEFPOINTS
 62
     0
 10
757.18808029321735
 20
1833.2707358150369
 30
0.0
  0
POINT
  5
C1A1
  8
DEFPOINTS
 62
     0
 10
0.0
 20
1851.6040691483699
 30
0.0
  0
POINT
  5
C1A2
  8
DEFPOINTS
 62
     0
 10
1175.7204563139551
 20
1851.6040691483699
 30
0.0
  0
ENDBLK
  5
C1A3
  8
0
  0
BLOCK
  8
0
  2
*D78
 70
     1
 10
0.0
 20
0.0
 30
0.0
  3
*D78
  1

  0
LINE
  5
C1A7
  8
SUNPOU
 10
782.18808029321235
 20
-0.0000000000000071
 30
0.0
 11
1407.610344624386
 21
-0.0000000000001842
 31
0.0
  0
LINE
  5
C1A8
  8
SUNPOU
 10
25.0
 20
1851.6040691483699
 30
0.0
 11
1407.6103446243869
 21
1851.6040691483699
 31
0.0
  0
LINE
  5
C1A9
  8
SUNPOU
 10
1382.610344624386
 20
49.999999999999822
 30
0.0
 11
1382.6103446243869
 21
1801.6040691483699
 31
0.0
  0
SOLID
  5
C1AA
  8
SUNPOU
 10
1374.277011291053
 20
49.999999999999822
 30
0.0
 11
1390.94367795772
 21
49.999999999999822
 31
0.0
 12
1382.610344624386
 22
-0.0000000000001772
 32
0.0
 13
1382.610344624386
 23
-0.0000000000001772
 33
0.0
  0
SOLID
  5
C1AB
  8
SUNPOU
 10
1374.277011291053
 20
1801.6040691483699
 30
0.0
 11
1390.94367795772
 21
1801.6040691483699
 31
0.0
 12
1382.6103446243869
 22
1851.6040691483699
 32
0.0
 13
1382.6103446243869
 23
1851.6040691483699
 33
0.0
  0
INSERT
  5
C1AC
  8
0
  2
*U133
 10
0.0
 20
0.0
 30
0.0
  0
POINT
  5
C1AD
  8
DEFPOINTS
 62
     0
 10
757.18808029321235
 20
0.0
 30
0.0
  0
POINT
  5
C1AE
  8
DEFPOINTS
 62
     0
 10
0.0
 20
1851.6040691483699
 30
0.0
  0
POINT
  5
C1AF
  8
DEFPOINTS
 62
     0
 10
1382.6103446243869
 20
1851.6040691483699
 30
0.0
  0
ENDBLK
  5
C1B0
  8
0
  0
BLOCK
  8
0
  2
*D79
 70
     1
 10
0.0
 20
0.0
 30
0.0
  3
*D79
  1

  0
LINE
  5
C1B4
  8
SUNPOU
 10
171.70913114390891
 20
1549.8574447397839
 30
0.0
 11
1007.088608411285
 21
1549.857444739783
 31
0.0
  0
LINE
  5
C1B5
  8
SUNPOU
 10
171.70913114390871
 20
716.56491252541082
 30
0.0
 11
1007.088608411285
 21
716.56491252541048
 31
0.0
  0
LINE
  5
C1B6
  8
SUNPOU
 10
982.08860841128546
 20
1499.857444739783
 30
0.0
 11
982.08860841128535
 21
766.56491252541048
 31
0.0
  0
SOLID
  5
C1B7
  8
SUNPOU
 10
973.75527507795221
 20
1499.857444739783
 30
0.0
 11
990.42194174461895
 21
1499.857444739783
 31
0.0
 12
982.08860841128546
 22
1549.857444739783
 32
0.0
 13
982.08860841128546
 23
1549.857444739783
 33
0.0
  0
SOLID
  5
C1B8
  8
SUNPOU
 10
973.75527507795186
 20
766.56491252541048
 30
0.0
 11
990.42194174461872
 21
766.56491252541048
 31
0.0
 12
982.08860841128535
 22
716.56491252541048
 32
0.0
 13
982.08860841128535
 23
716.56491252541048
 33
0.0
  0
INSERT
  5
C1B9
  8
0
  2
*U134
 10
0.0
 20
0.0
 30
0.0
  0
POINT
  5
C1BA
  8
DEFPOINTS
 62
     0
 10
146.70913114390891
 20
1549.8574447397839
 30
0.0
  0
POINT
  5
C1BB
  8
DEFPOINTS
 62
     0
 10
146.70913114390871
 20
716.56491252541082
 30
0.0
  0
POINT
  5
C1BC
  8
DEFPOINTS
 62
     0
 10
982.08860841128535
 20
716.56491252541048
 30
0.0
  0
ENDBLK
  5
C1BD
  8
0
  0
BLOCK
  8
0
  2
*U80
 70
     1
 10
0.0
 20
0.0
 30
0.0
  3
*U80
  1

  0
SOLID
  5
C419
  8
MOJI
 10
8370.6868952752957
 20
4677.3514954985931
 30
0.0
 11
8403.2430594579491
 21
4701.5287703275853
 31
0.0
 12
8380.2879662567339
 22
4668.0996192679477
 32
0.0
 13
8380.2879662567339
 23
4668.0996192679477
 33
0.0
  0
POLYLINE
  5
C41A
  8
MOJI
 66
     1
 10
0.0
 20
0.0
 30
0.0
  0
VERTEX
  5
C41B
  8
MOJI
 10
8375.4874307660157
 20
4672.7255573832699
 30
0.0
  0
VERTEX
  5
C41C
  8
MOJI
 10
8019.0991532774069
 20
4302.886071443434
 30
0.0
  0
SEQEND
  5
C41D
  8
MOJI
  0
ENDBLK
  5
C41F
  8
0
  0
BLOCK
  8
0
  2
*U81
 70
     1
 10
0.0
 20
0.0
 30
0.0
  3
*U81
  1

  0
SOLID
  5
C43D
  8
MOJI
 10
699.66754174386904
 20
4742.8106170915207
 30
0.0
 11
673.47737412867718
 21
4786.2101512449271
 31
0.0
 12
712.32738159820644
 22
4753.6506462723082
 32
0.0
 13
712.32738159820644
 23
4753.6506462723082
 33
0.0
  0
POLYLINE
  5
C43E
  8
MOJI
 66
     1
 10
0.0
 20
0.0
 30
0.0
  0
VERTEX
  5
C43F
  8
MOJI
 10
705.99746167103774
 20
4748.2306316819149
 30
0.0
  0
VERTEX
  5
C440
  8
MOJI
 10
887.13930503879965
 20
4536.6789199928089
 30
0.0
  0
SEQEND
  5
C441
  8
MOJI
  0
ENDBLK
  5
C443
  8
0
  0
BLOCK
  8
0
  2
*U82
 70
     1
 10
0.0
 20
0.0
 30
0.0
  3
*U82
  1

  0
SOLID
  5
C445
  8
MOJI
 10
2493.743836431102
 20
5016.450630432485
 30
0.0
 11
2521.2271478638759
 21
5059.0430245555399
 31
0.0
 12
2509.0431702781889
 22
5009.8394155960759
 32
0.0
 13
2509.0431702781889
 23
5009.8394155960759
 33
0.0
  0
POLYLINE
  5
C446
  8
MOJI
 66
     1
 10
0.0
 20
0.0
 30
0.0
  0
VERTEX
  5
C447
  8
MOJI
 10
2501.3935033546459
 20
5013.14502301428
 30
0.0
  0
VERTEX
  5
C448
  8
MOJI
 10
2273.7436128102472
 20
4486.329337565654
 30
0.0
  0
SEQEND
  5
C449
  8
MOJI
  0
ENDBLK
  5
C44B
  8
0
  0
BLOCK
  8
0
  2
*U83
 70
     1
 10
0.0
 20
0.0
 30
0.0
  3
*U83
  1

  0
SOLID
  5
C44D
  8
MOJI
 10
3239.5721625828692
 20
5676.0507392031304
 30
0.0
 11
3210.0773623194759
 21
5634.8257322065629
 31
0.0
 12
3224.6075765156902
 22
5683.3882416130646
 32
0.0
 13
3224.6075765156902
 23
5683.3882416130646
 33
0.0
  0
POLYLINE
  5
C44E
  8
MOJI
 66
     1
 10
0.0
 20
0.0
 30
0.0
  0
VERTEX
  5
C44F
  8
MOJI
 10
3232.0898695492788
 20
5679.719490408098
 30
0.0
  0
VERTEX
  5
C450
  8
MOJI
 10
3348.7180939880941
 20
5917.5787788921352
 30
0.0
  0
SEQEND
  5
C451
  8
MOJI
  0
ENDBLK
  5
C453
  8
0
  0
BLOCK
  8
0
  2
*U84
 70
     1
 10
0.0
 20
0.0
 30
0.0
  3
*U84
  1

  0
TEXT
  5
C4EF
  8
SUNPOU
 10
8652.4223882156075
 20
4834.8144846133009
 30
0.0
 40
75.0
  1
t9
 50
90.0
 41
0.8
  7
EXT08
  0
ENDBLK
  5
C4F1
  8
0
  0
BLOCK
  8
0
  2
*U85
 70
     1
 10
0.0
 20
0.0
 30
0.0
  3
*U85
  1

  0
SOLID
  5
C4F3
  8
MOJI
 10
1472.9483877106729
 20
5850.5781971568813
 30
0.0
 11
1460.157743312981
 21
5801.5287949144858
 31
0.0
 12
1456.3490872862369
 22
5852.0751952187056
 32
0.0
 13
1456.3490872862369
 23
5852.0751952187056
 33
0.0
  0
POLYLINE
  5
C4F4
  8
MOJI
 66
     1
 10
0.0
 20
0.0
 30
0.0
  0
VERTEX
  5
C4F5
  8
MOJI
 10
1464.6487374984549
 20
5851.3266961877916
 30
0.0
  0
VERTEX
  5
C4F6
  8
MOJI
 10
1470.656964700682
 20
5917.9482709856038
 30
0.0
  0
SEQEND
  5
C4F7
  8
MOJI
  0
ENDBLK
  5
C4F9
  8
0
  0
BLOCK
  8
0
  2
*U86
 70
     1
 10
0.0
 20
0.0
 30
0.0
  3
*U86
  1

  0
SOLID
  5
C4FB
  8
MOJI
 10
1391.124091219828
 20
4943.2783721896812
 30
0.0
 11
1378.333446822136
 21
4894.2289699472858
 31
0.0
 12
1374.5247907953919
 22
4944.7753702515047
 32
0.0
 13
1374.5247907953919
 23
4944.7753702515047
 33
0.0
  0
POLYLINE
  5
C4FC
  8
MOJI
 66
     1
 10
0.0
 20
0.0
 30
0.0
  0
VERTEX
  5
C4FD
  8
MOJI
 10
1382.8244410076099
 20
4944.0268712205934
 30
0.0
  0
VERTEX
  5
C4FE
  8
MOJI
 10
1470.656964700682
 20
5917.9482709856038
 30
0.0
  0
SEQEND
  5
C4FF
  8
MOJI
  0
ENDBLK
  5
C501
  8
0
  0
BLOCK
  8
0
  2
*X87
 70
     1
 10
0.0
 20
0.0
 30
0.0
  3
*X87
  1

  0
LINE
  5
C503
  8
0
 62
     0
 10
6200.3180738286401
 20
4586.1518778928976
 30
0.0
 11
6200.3180738286401
 21
4586.1518778928976
 31
0.0
  0
LINE
  5
C504
  8
0
 62
     0
 10
6312.8265750184228
 20
4546.5064958663779
 30
0.0
 11
6312.8265750184228
 21
4546.5064958663779
 31
0.0
  0
LINE
  5
C505
  8
0
 62
     0
 10
6220.4457247161135
 20
4631.1579488806201
 30
0.0
 11
6220.4457247161135
 21
4631.1579488806201
 31
0.0
  0
LINE
  5
C506
  8
0
 62
     0
 10
6196.4842112697852
 20
4653.1146306281289
 30
0.0
 11
6196.4842112697852
 21
4653.1146306281289
 31
0.0
  0
LINE
  5
C507
  8
0
 62
     0
 10
6316.955307697117
 20
4606.1728743593612
 30
0.0
 11
6316.955307697117
 21
4606.1728743593612
 31
0.0
  0
LINE
  5
C508
  8
0
 62
     0
 10
6375.2739246313558
 20
4616.1833725925917
 30
0.0
 11
6375.2739246313558
 21
4616.1833725925917
 31
0.0
  0
LINE
  5
C509
  8
0
 62
     0
 10
6337.0829585845913
 20
4651.1789453470828
 30
0.0
 11
6337.0829585845913
 21
4651.1789453470828
 31
0.0
  0
LINE
  5
C50A
  8
0
 62
     0
 10
6313.1214451382621
 20
4673.1356270945917
 30
0.0
 11
6313.1214451382621
 21
4673.1356270945917
 31
0.0
  0
LINE
  5
C50B
  8
0
 62
     0
 10
6395.4015755188302
 20
4661.1894435803142
 30
0.0
 11
6395.4015755188302
 21
4661.1894435803142
 31
0.0
  0
LINE
  5
C50C
  8
0
 62
     0
 10
6371.440062072501
 20
4683.1461253278239
 30
0.0
 11
6371.440062072501
 21
4683.1461253278239
 31
0.0
  0
LINE
  5
C50D
  8
0
 62
     0
 10
6429.758679006738
 20
4693.156623561058
 30
0.0
 11
6429.758679006738
 21
4693.156623561058
 31
0.0
  0
LINE
  5
C50E
  8
0
 62
     0
 10
6238.8933087662299
 20
4513.2708388625133
 30
0.0
 11
6238.8933087662299
 21
4513.2708388625133
 31
0.0
  0
LINE
  5
C50F
  8
0
 62
     0
 10
6204.9845377418369
 20
4566.6258611529711
 30
0.0
 11
6204.9845377418369
 21
4566.6258611529711
 31
0.0
  0
LINE
  5
C510
  8
0
 62
     0
 10
6192.5822485856716
 20
4606.2797434305849
 30
0.0
 11
6192.5822485856716
 21
4606.2797434305849
 31
0.0
  0
LINE
  5
C511
  8
0
 62
     0
 10
6171.4974624403494
 20
4619.7122336392558
 30
0.0
 11
6171.4974624403494
 21
4619.7122336392558
 31
0.0
  0
LINE
  5
C512
  8
0
 62
     0
 10
6311.7490249763168
 20
4562.1148868060945
 30
0.0
 11
6311.7490249763168
 21
4562.1148868060945
 31
0.0
  0
LINE
  5
C513
  8
0
 62
     0
 10
6224.8797060575898
 20
4617.4567464658176
 30
0.0
 11
6224.8797060575898
 21
4617.4567464658176
 31
0.0
  0
LINE
  5
C514
  8
0
 62
     0
 10
6137.5886914159564
 20
4673.0672559297154
 30
0.0
 11
6137.5886914159564
 21
4673.0672559297154
 31
0.0
  0
LINE
  5
C515
  8
0
 62
     0
 10
6190.9709350331968
 20
4670.8117687562763
 30
0.0
 11
6190.9709350331968
 21
4670.8117687562763
 31
0.0
  0
LINE
  5
C516
  8
0
 62
     0
 10
6352.7289794373937
 20
4599.513281910271
 30
0.0
 11
6352.7289794373937
 21
4599.513281910271
 31
0.0
  0
LINE
  5
C517
  8
0
 62
     0
 10
6331.6441932920707
 20
4612.945772118941
 30
0.0
 11
6331.6441932920707
 21
4612.945772118941
 31
0.0
  0
LINE
  5
C518
  8
0
 62
     0
 10
6244.3531786504391
 20
4668.556281582838
 30
0.0
 11
6244.3531786504391
 21
4668.556281582838
 31
0.0
  0
LINE
  5
C519
  8
0
 62
     0
 10
6351.1176658849199
 20
4664.0453072359633
 30
0.0
 11
6351.1176658849199
 21
4664.0453072359633
 31
0.0
  0
LINE
  5
C51A
  8
0
 62
     0
 10
6404.4999095021612
 20
4661.789820062525
 30
0.0
 11
6404.4999095021612
 21
4661.789820062525
 31
0.0
  0
LINE
  5
C51B
  8
0
 62
     0
 10
6392.0976203459968
 20
4701.4437023401388
 30
0.0
 11
6392.0976203459968
 21
4701.4437023401388
 31
0.0
  0
LINE
  5
C51C
  8
0
 62
     0
 10
6309.9862981409833
 20
4520.7549389035185
 30
0.0
 11
6309.9862981409833
 21
4520.7549389035185
 31
0.0
  0
LINE
  5
C51D
  8
0
 62
     0
 10
6336.2932518851967
 20
4560.1961100917542
 30
0.0
 11
6336.2932518851967
 21
4560.1961100917542
 31
0.0
  0
LINE
  5
C51E
  8
0
 62
     0
 10
6362.6002056294119
 20
4599.6372812799891
 30
0.0
 11
6362.6002056294119
 21
4599.6372812799891
 31
0.0
  0
LINE
  5
C51F
  8
0
 62
     0
 10
6324.7270119249333
 20
4594.6511807371844
 30
0.0
 11
6324.7270119249333
 21
4594.6511807371844
 31
0.0
  0
LINE
  5
C520
  8
0
 62
     0
 10
6236.537991505731
 20
4583.0408759392103
 30
0.0
 11
6236.537991505731
 21
4583.0408759392103
 31
0.0
  0
LINE
  5
C521
  8
0
 62
     0
 10
6198.6647978012534
 20
4578.0547753964047
 30
0.0
 11
6198.6647978012534
 21
4578.0547753964047
 31
0.0
  0
LINE
  5
C522
  8
0
 62
     0
 10
6388.9071593736271
 20
4639.0784524682258
 30
0.0
 11
6388.9071593736271
 21
4639.0784524682258
 31
0.0
  0
LINE
  5
C523
  8
0
 62
     0
 10
6351.0339656691476
 20
4634.0923519254202
 30
0.0
 11
6351.0339656691476
 21
4634.0923519254202
 31
0.0
  0
LINE
  5
C524
  8
0
 62
     0
 10
6325.9999829194594
 20
4630.7965655718644
 30
0.0
 11
6325.9999829194594
 21
4630.7965655718644
 31
0.0
  0
LINE
  5
C525
  8
0
 62
     0
 10
6224.9717515454668
 20
4617.4959465846396
 30
0.0
 11
6224.9717515454668
 21
4617.4959465846396
 31
0.0
  0
LINE
  5
C526
  8
0
 62
     0
 10
6199.9377687957794
 20
4614.2001602310838
 30
0.0
 11
6199.9377687957794
 21
4614.2001602310838
 31
0.0
  0
LINE
  5
C527
  8
0
 62
     0
 10
6415.2141131178423
 20
4678.5196236564616
 30
0.0
 11
6415.2141131178423
 21
4678.5196236564616
 31
0.0
  0
LINE
  5
C528
  8
0
 62
     0
 10
6377.3409194133628
 20
4673.5335231136569
 30
0.0
 11
6377.3409194133628
 21
4673.5335231136569
 31
0.0
  0
LINE
  5
C529
  8
0
 62
     0
 10
6352.3069366636737
 20
4670.2377367601002
 30
0.0
 11
6352.3069366636737
 21
4670.2377367601002
 31
0.0
  0
LINE
  5
C52A
  8
0
 62
     0
 10
6226.2447225399928
 20
4653.6413314193196
 30
0.0
 11
6226.2447225399928
 21
4653.6413314193196
 31
0.0
  0
LINE
  5
C52B
  8
0
 62
     0
 10
6163.0896848704806
 20
4645.3268129749031
 30
0.0
 11
6163.0896848704806
 21
4645.3268129749031
 31
0.0
  0
LINE
  5
C52C
  8
0
 62
     0
 10
6315.4588527383767
 20
4701.3643895039177
 30
0.0
 11
6315.4588527383767
 21
4701.3643895039177
 31
0.0
  0
LINE
  5
C52D
  8
0
 62
     0
 10
6189.3966386146967
 20
4684.7679841631389
 30
0.0
 11
6189.3966386146967
 21
4684.7679841631389
 31
0.0
  0
LINE
  5
C52E
  8
0
 62
     0
 10
6151.5234449102181
 20
4679.7818836203332
 30
0.0
 11
6151.5234449102181
 21
4679.7818836203332
 31
0.0
  0
LINE
  5
C52F
  8
0
 62
     0
 10
6320.9945201276114
 20
4548.7602850147759
 30
0.0
 11
6320.9945201276114
 21
4548.7602850147759
 31
0.0
  0
LINE
  5
C530
  8
0
 62
     0
 10
6375.3651794588541
 20
4622.8366861414916
 30
0.0
 11
6375.3651794588541
 21
4622.8366861414916
 31
0.0
  0
LINE
  5
C531
  8
0
 62
     0
 10
6322.2105056593418
 20
4582.0496703979079
 30
0.0
 11
6322.2105056593418
 21
4582.0496703979079
 31
0.0
  0
LINE
  5
C532
  8
0
 62
     0
 10
6429.1408237848773
 20
4696.456516196452
 30
0.0
 11
6429.1408237848773
 21
4696.456516196452
 31
0.0
  0
LINE
  5
C533
  8
0
 62
     0
 10
6376.5811649905818
 20
4656.1260715246226
 30
0.0
 11
6376.5811649905818
 21
4656.1260715246226
 31
0.0
  0
LINE
  5
C534
  8
0
 62
     0
 10
6323.4264911910705
 20
4615.339055781039
 30
0.0
 11
6323.4264911910705
 21
4615.339055781039
 31
0.0
  0
LINE
  5
C535
  8
0
 62
     0
 10
6377.7971505223122
 20
4689.4154569077546
 30
0.0
 11
6377.7971505223122
 21
4689.4154569077546
 31
0.0
  0
LINE
  5
C536
  8
0
 62
     0
 10
6324.6424767227982
 20
4648.6284411641709
 30
0.0
 11
6324.6424767227982
 21
4648.6284411641709
 31
0.0
  0
LINE
  5
C537
  8
0
 62
     0
 10
6220.3561801415153
 20
4568.6067513209764
 30
0.0
 11
6220.3561801415153
 21
4568.6067513209764
 31
0.0
  0
LINE
  5
C538
  8
0
 62
     0
 10
6325.8584622545277
 20
4681.917826547302
 30
0.0
 11
6325.8584622545277
 21
4681.917826547302
 31
0.0
  0
LINE
  5
C539
  8
0
 62
     0
 10
6221.5721656732458
 20
4601.8961367041047
 30
0.0
 11
6221.5721656732458
 21
4601.8961367041047
 31
0.0
  0
LINE
  5
C53A
  8
0
 62
     0
 10
6222.7881512049753
 20
4635.1855220872367
 30
0.0
 11
6222.7881512049753
 21
4635.1855220872367
 31
0.0
  0
LINE
  5
C53B
  8
0
 62
     0
 10
6224.004136736703
 20
4668.4749074703668
 30
0.0
 11
6224.004136736703
 21
4668.4749074703668
 31
0.0
  0
LINE
  5
C53C
  8
0
 62
     0
 10
6170.8494629371899
 20
4627.6878917267823
 30
0.0
 11
6170.8494629371899
 21
4627.6878917267823
 31
0.0
  0
LINE
  5
C53D
  8
0
 62
     0
 10
6172.0654484689203
 20
4660.9772771099151
 30
0.0
 11
6172.0654484689203
 21
4660.9772771099151
 31
0.0
  0
LINE
  5
C53E
  8
0
 62
     0
 10
6173.281434000648
 20
4694.2666624930462
 30
0.0
 11
6173.281434000648
 21
4694.2666624930462
 31
0.0
  0
LINE
  5
C53F
  8
0
 62
     0
 10
6122.7707817453902
 20
4687.8648027048084
 30
0.0
 11
6122.7707817453902
 21
4687.8648027048084
 31
0.0
  0
LINE
  5
C540
  8
0
 62
     0
 10
6356.8310951315889
 20
4700.8940399552484
 30
0.0
 11
6357.0440717865276
 21
4701.5287703275853
 31
0.0
  0
LINE
  5
C541
  8
0
 62
     0
 10
6332.4995053958864
 20
4628.3790546069649
 30
0.0
 11
6334.5271378155412
 21
4634.4219698788456
 31
0.0
  0
LINE
  5
C542
  8
0
 62
     0
 10
6308.1679156601822
 20
4555.8640692586832
 30
0.0
 11
6310.1955480798379
 21
4561.9069845305639
 31
0.0
  0
LINE
  5
C543
  8
0
 62
     0
 10
6226.0344585474313
 20
4529.2401922985991
 30
0.0
 11
6226.1732852216892
 21
4529.6539348595688
 31
0.0
  0
LINE
  5
C544
  8
0
 62
     0
 10
6188.7865694152879
 20
4636.3879406132573
 30
0.0
 11
6190.8142018349436
 21
4642.4308558851371
 31
0.0
  0
LINE
  5
C545
  8
0
 62
     0
 10
6129.0958962928426
 20
4676.6498762905458
 30
0.0
 11
6131.1235287125
 21
4682.6927915624256
 31
0.0
  0
LINE
  5
C546
  8
0
 62
     0
 10
6305.0770528125668
 20
4557.9514271324024
 30
0.0
 11
6308.1643500396458
 21
4555.8690188587143
 31
0.0
  0
LINE
  5
C547
  8
0
 62
     0
 10
6243.4994193803523
 20
4599.4860653294318
 30
0.0
 11
6244.5774787063674
 21
4598.758905132373
 31
0.0
  0
LINE
  5
C548
  8
0
 62
     0
 10
6183.8087141563892
 20
4639.7479543793252
 30
0.0
 11
6188.7829395917197
 21
4636.3927969585011
 31
0.0
  0
LINE
  5
C549
  8
0
 62
     0
 10
6125.994193735658
 20
4678.7443408002691
 30
0.0
 11
6129.0922343677566
 21
4676.6546860083954
 31
0.0
  0
LINE
  5
C54A
  8
0
 62
     0
 10
6327.5216577964738
 20
4631.7391807842214
 30
0.0
 11
6332.4958832318043
 21
4628.3840233633973
 31
0.0
  0
LINE
  5
C54B
  8
0
 62
     0
 10
6411.5438962125954
 20
4663.9922962390137
 30
0.0
 11
6413.0908429145493
 21
4662.9488675134426
 31
0.0
  0
LINE
  5
C54C
  8
0
 62
     0
 10
6355.8937848332898
 20
4701.5287703275844
 30
0.0
 11
6356.827416423961
 21
4700.8990278680831
 31
0.0
  0
LINE
  5
C54D
  8
0
 62
     0
 10
6305.0770528125659
 20
4559.948502207837
 30
0.0
 11
6310.1919750898296
 21
4561.9119369120799
 31
0.0
  0
LINE
  5
C54E
  8
0
 62
     0
 10
6225.8392288207197
 20
4529.5319513629001
 30
0.0
 11
6226.169736705082
 21
4529.6588214530029
 31
0.0
  0
LINE
  5
C54F
  8
0
 62
     0
 10
6411.5438934487511
 20
4663.9922972751792
 30
0.0
 11
6414.565076504532
 21
4665.1520207935509
 31
0.0
  0
LINE
  5
C550
  8
0
 62
     0
 10
6327.5216550640034
 20
4631.7391818161022
 30
0.0
 11
6334.5235082627332
 21
4634.4269414376922
 31
0.0
  0
LINE
  5
C551
  8
0
 62
     0
 10
6243.4994166792567
 20
4599.4860663570253
 30
0.0
 11
6244.5774787063674
 21
4599.8998955967691
 31
0.0
  0
LINE
  5
C552
  8
0
 62
     0
 10
6183.8087114674099
 20
4639.747955423557
 30
0.0
 11
6190.8105646661388
 21
4642.4357150451478
 31
0.0
  0
LINE
  5
C553
  8
0
 62
     0
 10
6124.937014060848
 20
4680.3242321309554
 30
0.0
 11
6131.1198594542921
 21
4682.6976041116832
 31
0.0
  0
LINE
  5
C554
  8
0
 62
     0
 10
6347.7784590382616
 20
4649.4728577345568
 30
0.0
 11
6356.6721344439611
 21
4648.0935326176741
 31
0.0
  0
LINE
  5
C555
  8
0
 62
     0
 10
6241.0543541698717
 20
4666.0247591371372
 30
0.0
 11
6244.5774787063674
 21
4665.4783557727897
 31
0.0
  0
LINE
  5
C556
  8
0
 62
     0
 10
6134.3302493014808
 20
4682.5766605397184
 30
0.0
 11
6143.2239247071802
 21
4681.1973354228357
 31
0.0
  0
LINE
  5
C557
  8
0
 62
     0
 10
6356.6757882282564
 20
4648.0888035039898
 30
0.0
 11
6355.5709697816128
 21
4657.5857844934617
 31
0.0
  0
LINE
  5
C558
  8
0
 62
     0
 10
6143.227608281727
 20
4681.1927396963056
 30
0.0
 11
6142.1227898350844
 21
4690.6897206857766
 31
0.0
  0
LINE
  5
C559
  8
0
 62
     0
 10
6347.7784591593354
 20
4649.4728561643133
 30
0.0
 11
6355.5673087024552
 21
4657.5905111702014
 31
0.0
  0
LINE
  5
C55A
  8
0
 62
     0
 10
6241.0543542967698
 20
4666.0247575972162
 30
0.0
 11
6244.5774787063683
 21
4669.6966103325394
 31
0.0
  0
LINE
  5
C55B
  8
0
 62
     0
 10
6134.3302494342042
 20
4682.5766590301173
 30
0.0
 11
6142.1190989773249
 21
4690.6943140360054
 31
0.0
  0
LINE
  5
C55C
  8
0
 62
     0
 10
6374.8920787051165
 20
4678.65491840499
 30
0.0
 11
6373.7358225200414
 21
4684.9231868937222
 31
0.0
  0
LINE
  5
C55D
  8
0
 62
     0
 10
6317.0411405337154
 20
4609.7109641988936
 30
0.0
 11
6315.8848843486394
 21
4615.9792326876268
 31
0.0
  0
LINE
  5
C55E
  8
0
 62
     0
 10
6330.0989203393974
 20
4538.9224393501436
 30
0.0
 11
6329.7599589686306
 21
4540.7600086593384
 31
0.0
  0
LINE
  5
C55F
  8
0
 62
     0
 10
6231.4400531223273
 20
4691.2054580493768
 30
0.0
 11
6230.2837969372504
 21
4697.4737265381091
 31
0.0
  0
LINE
  5
C560
  8
0
 62
     0
 10
6244.5774787063674
 20
4619.9851594041347
 30
0.0
 11
6244.1588715572434
 21
4622.2545025098207
 31
0.0
  0
LINE
  5
C561
  8
0
 62
     0
 10
6159.7140403309304
 20
4697.480727871568
 30
0.0
 11
6158.9673310705293
 21
4701.5287703275853
 31
0.0
  0
LINE
  5
C562
  8
0
 62
     0
 10
6173.5891149509243
 20
4622.2615038432796
 30
0.0
 11
6172.4328587658483
 21
4628.5297723320118
 31
0.0
  0
LINE
  5
C563
  8
0
 62
     0
 10
6324.9354933256809
 20
4535.0196752153834
 30
0.0
 11
6327.3462638844057
 21
4534.8087601211319
 31
0.0
  0
LINE
  5
C564
  8
0
 62
     0
 10
6311.060359964381
 20
4610.2388885853852
 30
0.0
 11
6317.0375281529323
 21
4609.7159541288993
 31
0.0
  0
LINE
  5
C565
  8
0
 62
     0
 10
6239.3343417017759
 20
4616.5141020632163
 30
0.0
 11
6244.5774787063674
 21
4616.0553870140011
 31
0.0
  0
LINE
  5
C566
  8
0
 62
     0
 10
6167.6083234391699
 20
4622.7893155410466
 30
0.0
 11
6173.5854916277203
 21
4622.2663810845606
 31
0.0
  0
LINE
  5
C567
  8
0
 62
     0
 10
6368.9112448656861
 20
4679.1828884775541
 30
0.0
 11
6374.8884130542356
 21
4678.6599540210691
 31
0.0
  0
LINE
  5
C568
  8
0
 62
     0
 10
6225.4592083404759
 20
4691.7333154332173
 30
0.0
 11
6231.4363765290273
 21
4691.2103809767314
 31
0.0
  0
LINE
  5
C569
  8
0
 62
     0
 10
6153.7331900778699
 20
4698.0085289110484
 30
0.0
 11
6159.7103582664204
 21
4697.4855944545616
 31
0.0
  0
LINE
  5
C56A
  8
0
 62
     0
 10
6324.9354911785122
 20
4535.0196737593596
 30
0.0
 11
6329.756398251161
 21
4540.7650070827522
 31
0.0
  0
LINE
  5
C56B
  8
0
 62
     0
 10
6368.9112426620131
 20
4679.1828870190348
 30
0.0
 11
6373.732149734662
 21
4684.9282203424273
 31
0.0
  0
LINE
  5
C56C
  8
0
 62
     0
 10
6311.0603577902248
 20
4610.2388871383264
 30
0.0
 11
6315.8812648628727
 21
4615.9842204617189
 31
0.0
  0
LINE
  5
C56D
  8
0
 62
     0
 10
6239.3343395301499
 20
4616.5141006365857
 30
0.0
 11
6244.1552466027988
 21
4622.2594339599791
 31
0.0
  0
LINE
  5
C56E
  8
0
 62
     0
 10
6225.4592061418634
 20
4691.7333140155542
 30
0.0
 11
6230.2801132145123
 21
4697.4786473389468
 31
0.0
  0
LINE
  5
C56F
  8
0
 62
     0
 10
6167.6083212700751
 20
4622.7893141348459
 30
0.0
 11
6172.4292283427239
 21
4628.5346474582384
 31
0.0
  0
LINE
  5
C570
  8
0
 62
     0
 10
6153.7331878817877
 20
4698.0085275138126
 30
0.0
 11
6156.6870223284777
 21
4701.5287703275853
 31
0.0
  0
ENDBLK
  5
C572
  8
0
  0
BLOCK
  8
0
  2
*X88
 70
     1
 10
0.0
 20
0.0
 30
0.0
  3
*X88
  1

  0
LINE
  5
C574
  8
0
 62
     0
 10
5278.5343147962694
 20
4262.0683168406067
 30
0.0
 11
5398.2845310959701
 21
4381.8185331403074
 31
0.0
  0
LINE
  5
C575
  8
0
 62
     0
 10
5278.5343147962676
 20
4438.8450121372434
 30
0.0
 11
5398.2845310959683
 21
4558.5952284369423
 31
0.0
  0
LINE
  5
C576
  8
0
 62
     0
 10
5098.2845243904703
 20
4258.5952217314434
 30
0.0
 11
5218.0347406901692
 21
4378.3454380311432
 31
0.0
  0
LINE
  5
C577
  8
0
 62
     0
 10
5278.5343147962694
 20
4615.6217074338801
 30
0.0
 11
5364.4413776899737
 21
4701.5287703275853
 31
0.0
  0
LINE
  5
C578
  8
0
 62
     0
 10
5098.2845243904703
 20
4435.3719170280801
 30
0.0
 11
5218.0347406901701
 21
4555.1221333277799
 31
0.0
  0
LINE
  5
C579
  8
0
 62
     0
 10
5098.2845243904676
 20
4612.1486123247159
 30
0.0
 11
5187.6646823933388
 21
4701.5287703275872
 31
0.0
  0
LINE
  5
C57A
  8
0
 62
     0
 10
5290.091845137028
 20
4251.5287602692861
 30
0.0
 11
5398.2845310959701
 21
4359.7214462282273
 31
0.0
  0
LINE
  5
C57B
  8
0
 62
     0
 10
5278.5343147962694
 20
4416.7479252251633
 30
0.0
 11
5398.2845310959701
 21
4536.4981415248621
 31
0.0
  0
LINE
  5
C57C
  8
0
 62
     0
 10
5113.3151498403913
 20
4251.5287602692852
 30
0.0
 11
5218.034740690171
 21
4356.2483511190649
 31
0.0
  0
LINE
  5
C57D
  8
0
 62
     0
 10
5278.5343147962694
 20
4593.5246205218
 30
0.0
 11
5386.5384646020539
 21
4701.5287703275853
 31
0.0
  0
LINE
  5
C57E
  8
0
 62
     0
 10
5098.2845243904703
 20
4413.2748301160009
 30
0.0
 11
5218.0347406901692
 21
4533.0250464156998
 31
0.0
  0
LINE
  5
C57F
  8
0
 62
     0
 10
5098.2845243904712
 20
4590.0515254126367
 30
0.0
 11
5209.7617693054181
 21
4701.5287703275853
 31
0.0
  0
LINE
  5
C580
  8
0
 62
     0
 10
5312.1889320491082
 20
4251.5287602692861
 30
0.0
 11
5398.284531095971
 21
4337.6243593161489
 31
0.0
  0
LINE
  5
C581
  8
0
 62
     0
 10
5278.5343147962694
 20
4394.650838313084
 30
0.0
 11
5398.2845310959701
 21
4514.4010546127829
 31
0.0
  0
LINE
  5
C582
  8
0
 62
     0
 10
5135.4122367524706
 20
4251.5287602692852
 30
0.0
 11
5218.0347406901701
 21
4334.1512642069847
 31
0.0
  0
LINE
  5
C583
  8
0
 62
     0
 10
5278.5343147962694
 20
4571.4275336097207
 30
0.0
 11
5398.2845310959683
 21
4691.1777499094196
 31
0.0
  0
LINE
  5
C584
  8
0
 62
     0
 10
5098.2845243904703
 20
4391.1777432039207
 30
0.0
 11
5218.0347406901692
 21
4510.9279595036214
 31
0.0
  0
LINE
  5
C585
  8
0
 62
     0
 10
5098.2845243904703
 20
4567.9544385005584
 30
0.0
 11
5218.0347406901692
 21
4687.7046548002572
 31
0.0
  0
ENDBLK
  5
C587
  8
0
  0
BLOCK
  8
0
  2
*U89
 70
     1
 10
0.0
 20
0.0
 30
0.0
  3
*U89
  1

  0
SOLID
  5
C5BA
  8
MOJI
 10
-973.03189910475942
 20
-77.866236176898752
 30
0.0
 11
-957.91714330935065
 21
-126.2499999999995
 31
0.0
 12
-987.90691678817552
 22
-85.383657722604383
 32
0.0
 13
-987.90691678817552
 23
-85.383657722604383
 33
0.0
  0
POLYLINE
  5
C5BB
  8
MOJI
 66
     1
 10
0.0
 20
0.0
 30
0.0
  0
VERTEX
  5
C5BC
  8
MOJI
 10
-980.46940794646764
 20
-81.624946949751575
 30
0.0
  0
VERTEX
  5
C5BD
  8
MOJI
 10
-1023.574538483029
 20
3.6688702293049569
 30
0.0
  0
SEQEND
  5
C5BE
  8
MOJI
  0
ENDBLK
  5
C5C0
  8
0
  0
BLOCK
  8
0
  2
*U90
 70
     1
 10
0.0
 20
0.0
 30
0.0
  3
*U90
  1

  0
TEXT
  5
C5C2
  8
SUNPOU
 62
     0
 10
-323.52610776728778
 20
-349.94527274117081
 30
0.0
 40
75.0
  1
25
 41
0.8
  7
EXT08
  0
ENDBLK
  5
C5C4
  8
0
  0
BLOCK
  8
0
  2
*U91
 70
     1
 10
0.0
 20
0.0
 30
0.0
  3
*U91
  1

  0
TEXT
  5
C5C6
  8
SUNPOU
 62
     0
 10
434.56547122827033
 20
200.15367476222869
 30
0.0
 40
75.0
  1
25
 50
90.0
 41
0.8
  7
EXT08
  0
ENDBLK
  5
C5C8
  8
0
  0
BLOCK
  8
0
  2
*U92
 70
     1
 10
0.0
 20
0.0
 30
0.0
  3
*U92
  1

  0
SOLID
  5
C5CA
  8
MOJI
 10
-157.68502861623909
 20
194.79803262547239
 30
0.0
 11
-145.79902730871979
 21
145.52159386045921
 31
0.0
 12
-173.02408976664771
 22
188.2795219978978
 32
0.0
 13
-173.02408976664771
 23
188.2795219978978
 33
0.0
  0
POLYLINE
  5
C5CB
  8
MOJI
 66
     1
 10
0.0
 20
0.0
 30
0.0
  0
VERTEX
  5
C5CC
  8
MOJI
 10
-165.3545591914434
 20
191.5387773116851
 30
0.0
  0
VERTEX
  5
C5CD
  8
MOJI
 10
-191.16096779213871
 20
252.26523803478219
 30
0.0
  0
SEQEND
  5
C5CE
  8
MOJI
  0
ENDBLK
  5
C5D0
  8
0
  0
BLOCK
  8
0
  2
*U93
 70
     1
 10
0.0
 20
0.0
 30
0.0
  3
*U93
  1

  0
TEXT
  5
C5D2
  8
SUNPOU
 62
     0
 10
599.78950501734835
 20
-90.000000000000242
 30
0.0
 40
75.0
  1
150
 50
90.0
 41
0.8
  7
EXT08
  0
ENDBLK
  5
C5D4
  8
0
  0
BLOCK
  8
0
  2
*U94
 70
     1
 10
0.0
 20
0.0
 30
0.0
  3
*U94
  1

  0
TEXT
  5
C5D6
  8
SUNPOU
 62
     0
 10
-90.000000000000014
 20
-499.43421282292428
 30
0.0
 40
75.0
  1
150
 41
0.8
  7
EXT08
  0
ENDBLK
  5
C5D8
  8
0
  0
BLOCK
  8
0
  2
*U95
 70
     1
 10
0.0
 20
0.0
 30
0.0
  3
*U95
  1

  0
TEXT
  5
C5DA
  8
SUNPOU
 62
     0
 10
206.65513257815809
 20
-347.28470103330028
 30
0.0
 40
75.0
  1
25
 41
0.8
  7
EXT08
  0
ENDBLK
  5
C5DC
  8
0
  0
BLOCK
  8
0
  2
*U96
 70
     1
 10
0.0
 20
0.0
 30
0.0
  3
*U96
  1

  0
TEXT
  5
C5DE
  8
SUNPOU
 62
     0
 10
-90.0
 20
-359.94527274117081
 30
0.0
 40
75.0
  1
100
 41
0.8
  7
EXT08
  0
ENDBLK
  5
C5E0
  8
0
  0
BLOCK
  8
0
  2
*U97
 70
     1
 10
0.0
 20
0.0
 30
0.0
  3
*U97
  1

  0
SOLID
  5
C5E7
  8
MOJI
 10
-103.4131272457046
 20
-45.994927438122787
 30
0.0
 11
-57.395205641971181
 21
-24.739449656687611
 31
0.0
 12
-94.032003554226577
 22
-59.770714024120927
 32
0.0
 13
-94.032003554226577
 23
-59.770714024120927
 33
0.0
  0
POLYLINE
  5
C5E8
  8
MOJI
 66
     1
 10
0.0
 20
0.0
 30
0.0
  0
VERTEX
  5
C5E9
  8
MOJI
 10
-98.722565399965632
 20
-52.882820731121868
 30
0.0
  0
VERTEX
  5
C5EA
  8
MOJI
 10
-214.7836709330804
 20
-131.91885834530009
 30
0.0
  0
SEQEND
  5
C5EB
  8
MOJI
  0
ENDBLK
  5
C5ED
  8
0
  0
BLOCK
  8
0
  2
*U98
 70
     1
 10
0.0
 20
0.0
 30
0.0
  3
*U98
  1

  0
TEXT
  5
C5EF
  8
SUNPOU
 62
     0
 10
444.56547122827033
 20
-90.000000000000213
 30
0.0
 40
75.0
  1
100
 50
90.0
 41
0.8
  7
EXT08
  0
ENDBLK
  5
C5F1
  8
0
  0
BLOCK
  8
0
  2
*U99
 70
     1
 10
0.0
 20
0.0
 30
0.0
  3
*U99
  1

  0
TEXT
  5
C5F3
  8
SUNPOU
 62
     0
 10
434.56547122827033
 20
-322.21601556783412
 30
0.0
 40
75.0
  1
25
 50
90.0
 41
0.8
  7
EXT08
  0
ENDBLK
  5
C5F5
  8
0
  0
BLOCK
  8
0
  2
*U100
 70
     1
 10
0.0
 20
0.0
 30
0.0
  3
*U100
  1

  0
SOLID
  5
C604
  8
MOJI
 10
-646.81903337589404
 20
-270.25467763562222
 30
0.0
 11
-672.94311305221072
 21
-226.81533020141339
 31
0.0
 12
-634.14270878514071
 22
-259.4339303117244
 32
0.0
 13
-634.14270878514071
 23
-259.4339303117244
 33
0.0
  0
POLYLINE
  5
C605
  8
MOJI
 66
     1
 10
0.0
 20
0.0
 30
0.0
  0
VERTEX
  5
C606
  8
MOJI
 10
-640.48087108051743
 20
-264.84430397367328
 30
0.0
  0
VERTEX
  5
C607
  8
MOJI
 10
-457.3207890822232
 20
-479.4132779993073
 30
0.0
  0
SEQEND
  5
C608
  8
MOJI
  0
ENDBLK
  5
C60A
  8
0
  0
BLOCK
  8
0
  2
*U101
 70
     1
 10
0.0
 20
0.0
 30
0.0
  3
*U101
  1

  0
TEXT
  5
C60C
  8
SUNPOU
 62
     0
 10
-522.56349575314562
 20
-131.9372749284905
 30
0.0
 40
75.0
  1
t9
 50
90.0
 41
0.8
  7
EXT08
  0
ENDBLK
  5
C60E
  8
0
  0
BLOCK
  8
0
  2
*U102
 70
     1
 10
0.0
 20
0.0
 30
0.0
  3
*U102
  1

  0
TEXT
  5
C62F
  8
SUNPOU
 62
     0
 10
527.53657039649534
 20
-144.64253656291049
 30
0.0
 40
75.0
  1
35
 50
90.0
 41
0.8
  7
EXT08
  0
ENDBLK
  5
C631
  8
0
  0
BLOCK
  8
0
  2
*U103
 70
     1
 10
0.0
 20
0.0
 30
0.0
  3
*U103
  1

  0
TEXT
  5
C633
  8
SUNPOU
 62
     0
 10
1758.7016209482019
 20
335.00108462923151
 30
0.0
 40
75.0
  1
170
 50
90.0
 41
0.8
  7
EXT08
  0
ENDBLK
  5
C635
  8
0
  0
BLOCK
  8
0
  2
*U104
 70
     1
 10
0.0
 20
0.0
 30
0.0
  3
*U104
  1

  0
TEXT
  5
C637
  8
SUNPOU
 62
     0
 10
994.93644455047774
 20
306.48434221828438
 30
0.0
 40
75.0
  1
29
 41
0.8
  7
EXT08
  0
ENDBLK
  5
C639
  8
0
  0
BLOCK
  8
0
  2
*U105
 70
     1
 10
0.0
 20
0.0
 30
0.0
  3
*U105
  1

  0
TEXT
  5
C63B
  8
SUNPOU
 62
     0
 10
916.40121001219768
 20
429.1208394808998
 30
0.0
 40
75.0
  1
42.7
 41
0.8
  7
EXT08
  0
ENDBLK
  5
C63D
  8
0
  0
BLOCK
  8
0
  2
*U106
 70
     1
 10
0.0
 20
0.0
 30
0.0
  3
*U106
  1

  0
TEXT
  5
C63F
  8
SUNPOU
 62
     0
 10
168.036114953452
 20
-350.35706451646757
 30
0.0
 40
75.0
  1
29
 41
0.8
  7
EXT08
  0
ENDBLK
  5
C641
  8
0
  0
BLOCK
  8
0
  2
*U107
 70
     1
 10
0.0
 20
0.0
 30
0.0
  3
*U107
  1

  0
TEXT
  5
C643
  8
SUNPOU
 62
     0
 10
157.99964509778371
 20
-498.68821840826149
 30
0.0
 40
75.0
  1
42.7
 41
0.8
  7
EXT08
  0
ENDBLK
  5
C645
  8
0
  0
BLOCK
  8
0
  2
*U108
 70
     1
 10
0.0
 20
0.0
 30
0.0
  3
*U108
  1

  0
TEXT
  5
C647
  8
SUNPOU
 62
     0
 10
720.31179630402846
 20
30.356822277196571
 30
0.0
 40
75.0
  1
35
 50
90.0
 41
0.8
  7
EXT08
  0
ENDBLK
  5
C649
  8
0
  0
BLOCK
  8
0
  2
*U109
 70
     1
 10
0.0
 20
0.0
 30
0.0
  3
*U109
  1

  0
SOLID
  5
C64B
  8
MOJI
 10
1181.8316988422901
 20
886.88970595398405
 30
0.0
 11
1147.0645580196669
 21
850.00216925845075
 31
0.0
 12
1167.988868518192
 22
896.17161450750871
 32
0.0
 13
1167.988868518192
 23
896.17161450750871
 33
0.0
  0
POLYLINE
  5
C64C
  8
MOJI
 66
     1
 10
0.0
 20
0.0
 30
0.0
  0
VERTEX
  5
C64D
  8
MOJI
 10
1174.910283680241
 20
891.53066023074632
 30
0.0
  0
VERTEX
  5
C64E
  8
MOJI
 10
1254.933832052554
 20
1010.875986212174
 30
0.0
  0
SEQEND
  5
C64F
  8
MOJI
  0
ENDBLK
  5
C651
  8
0
  0
BLOCK
  8
0
  2
*U110
 70
     1
 10
0.0
 20
0.0
 30
0.0
  3
*U110
  1

  0
SOLID
  5
C653
  8
MOJI
 10
181.61243547204219
 20
603.83423286565824
 30
0.0
 11
151.24997201777569
 21
563.24402151571849
 31
0.0
 12
166.80682836102019
 22
611.48745283190999
 32
0.0
 13
166.80682836102019
 23
611.48745283190999
 33
0.0
  0
POLYLINE
  5
C654
  8
MOJI
 66
     1
 10
0.0
 20
0.0
 30
0.0
  0
VERTEX
  5
C655
  8
MOJI
 10
174.20963191653121
 20
607.660842848784
 30
0.0
  0
VERTEX
  5
C656
  8
MOJI
 10
314.24326853462662
 20
878.5642031647842
 30
0.0
  0
SEQEND
  5
C657
  8
MOJI
  0
ENDBLK
  5
C659
  8
0
  0
BLOCK
  8
0
  2
*U111
 70
     1
 10
0.0
 20
0.0
 30
0.0
  3
*U111
  1

  0
SOLID
  5
C65B
  8
MOJI
 10
-332.02045822067231
 20
-280.24759558678028
 30
0.0
 11
-310.81511618185777
 21
-234.20654962275671
 31
0.0
 12
-315.94199239240442
 22
-284.63629862834051
 32
0.0
 13
-315.94199239240442
 23
-284.63629862834051
 33
0.0
  0
POLYLINE
  5
C65C
  8
MOJI
 66
     1
 10
0.0
 20
0.0
 30
0.0
  0
VERTEX
  5
C65D
  8
MOJI
 10
-323.98122530653842
 20
-282.4419471075604
 30
0.0
  0
VERTEX
  5
C65E
  8
MOJI
 10
-414.05209185886901
 20
-612.425848107452
 30
0.0
  0
SEQEND
  5
C65F
  8
MOJI
  0
ENDBLK
  5
C661
  8
0
  0
BLOCK
  8
0
  2
*U112
 70
     1
 10
0.0
 20
0.0
 30
0.0
  3
*U112
  1

  0
SOLID
  5
C663
  8
MOJI
 10
-125.0359017025489
 20
926.18585086246344
 30
0.0
 11
-99.830614075152909
 21
882.20701595219452
 31
0.0
 12
-137.93685963953351
 22
915.63392866383401
 32
0.0
 13
-137.93685963953351
 23
915.63392866383401
 33
0.0
  0
POLYLINE
  5
C664
  8
MOJI
 66
     1
 10
0.0
 20
0.0
 30
0.0
  0
VERTEX
  5
C665
  8
MOJI
 10
-131.48638067104119
 20
920.90988976314884
 30
0.0
  0
VERTEX
  5
C666
  8
MOJI
 10
-189.5676493778119
 20
991.92102786745374
 30
0.0
  0
SEQEND
  5
C667
  8
MOJI
  0
ENDBLK
  5
C669
  8
0
  0
BLOCK
  8
0
  2
*U113
 70
     1
 10
0.0
 20
0.0
 30
0.0
  3
*U113
  1

  0
SOLID
  5
C66B
  8
MOJI
 10
397.68515341220251
 20
-170.50678459283469
 30
0.0
 11
364.74931817779179
 21
-131.9753013374993
 31
0.0
 12
408.40153526612693
 22
-157.74210920571039
 32
0.0
 13
408.40153526612693
 23
-157.74210920571039
 33
0.0
  0
POLYLINE
  5
C66C
  8
MOJI
 66
     1
 10
0.0
 20
0.0
 30
0.0
  0
VERTEX
  5
C66D
  8
MOJI
 10
403.04334433916472
 20
-164.12444689927261
 30
0.0
  0
VERTEX
  5
C66E
  8
MOJI
 10
653.63622665392256
 20
-374.50574805396491
 30
0.0
  0
SEQEND
  5
C66F
  8
MOJI
  0
ENDBLK
  5
C671
  8
0
  0
BLOCK
  8
0
  2
*U114
 70
     1
 10
0.0
 20
0.0
 30
0.0
  3
*U114
  1

  0
SOLID
  5
C673
  8
MOJI
 10
906.95010582606324
 20
-34.397069584180471
 30
0.0
 11
944.18296830620955
 21
0.0
 31
0.0
 12
920.11849933877841
 22
-44.613291492110079
 32
0.0
 13
920.11849933877841
 23
-44.613291492110079
 33
0.0
  0
POLYLINE
  5
C674
  8
MOJI
 66
     1
 10
0.0
 20
0.0
 30
0.0
  0
VERTEX
  5
C675
  8
MOJI
 10
913.53430258242088
 20
-39.505180538145282
 30
0.0
  0
VERTEX
  5
C676
  8
MOJI
 10
653.63622665392256
 20
-374.50574805396491
 30
0.0
  0
SEQEND
  5
C677
  8
MOJI
  0
ENDBLK
  5
C679
  8
0
  0
BLOCK
  8
0
  2
*U115
 70
     1
 10
0.0
 20
0.0
 30
0.0
  3
*U115
  1

  0
SOLID
  5
C67B
  8
MOJI
 10
660.99361089764193
 20
1865.7092661689171
 30
0.0
 11
622.04253654885349
 21
1833.2707358150369
 31
0.0
 12
648.36754298023277
 22
1876.5886129656119
 32
0.0
 13
648.36754298023277
 23
1876.5886129656119
 33
0.0
  0
POLYLINE
  5
C67C
  8
MOJI
 66
     1
 10
0.0
 20
0.0
 30
0.0
  0
VERTEX
  5
C67D
  8
MOJI
 10
654.68057693893741
 20
1871.1489395672641
 30
0.0
  0
VERTEX
  5
C67E
  8
MOJI
 10
883.23970406352873
 20
2136.404116752683
 30
0.0
  0
SEQEND
  5
C67F
  8
MOJI
  0
ENDBLK
  5
C681
  8
0
  0
BLOCK
  8
0
  2
*U116
 70
     1
 10
0.0
 20
0.0
 30
0.0
  3
*U116
  1

  0
SOLID
  5
C683
  8
MOJI
 10
63.834200438575408
 20
112.4431336733608
 30
0.0
 11
50.430726396491082
 21
161.32862567300839
 31
0.0
 12
78.964442490240373
 22
119.4326653626664
 32
0.0
 13
78.964442490240373
 23
119.4326653626664
 33
0.0
  0
POLYLINE
  5
C684
  8
MOJI
 66
     1
 10
0.0
 20
0.0
 30
0.0
  0
VERTEX
  5
C685
  8
MOJI
 10
71.39932146440789
 20
115.93789951801359
 30
0.0
  0
VERTEX
  5
C686
  8
MOJI
 10
218.7124090396164
 20
-202.95080025014749
 30
0.0
  0
SEQEND
  5
C687
  8
MOJI
  0
ENDBLK
  5
C689
  8
0
  0
BLOCK
  8
0
  2
*U117
 70
     1
 10
0.0
 20
0.0
 30
0.0
  3
*U117
  1

  0
SOLID
  5
C68B
  8
MOJI
 10
-121.93673662667641
 20
593.59990946560754
 30
0.0
 11
-98.362980761905419
 21
638.47442872623708
 31
0.0
 12
-106.1085814143224
 22
588.38001671274287
 32
0.0
 13
-106.1085814143224
 23
588.38001671274287
 33
0.0
  0
POLYLINE
  5
C68C
  8
MOJI
 66
     1
 10
0.0
 20
0.0
 30
0.0
  0
VERTEX
  5
C68D
  8
MOJI
 10
-114.0226590204994
 20
590.98996308917515
 30
0.0
  0
VERTEX
  5
C68E
  8
MOJI
 10
-367.74629909270379
 20
-178.3701265223076
 30
0.0
  0
SEQEND
  5
C68F
  8
MOJI
  0
ENDBLK
  5
C691
  8
0
  0
BLOCK
  8
0
  2
*U118
 70
     1
 10
0.0
 20
0.0
 30
0.0
  3
*U118
  1

  0
SOLID
  5
C693
  8
MOJI
 10
-189.37415527217331
 20
775.98939077037528
 30
0.0
 11
-146.7098954949451
 21
748.61777441135064
 31
0.0
 12
-195.94526004930421
 22
760.67278671511076
 32
0.0
 13
-195.94526004930421
 23
760.67278671511076
 33
0.0
  0
POLYLINE
  5
C694
  8
MOJI
 66
     1
 10
0.0
 20
0.0
 30
0.0
  0
VERTEX
  5
C695
  8
MOJI
 10
-192.6597076607388
 20
768.33108874274319
 30
0.0
  0
VERTEX
  5
C696
  8
MOJI
 10
-737.81058628555002
 20
1002.210839754345
 30
0.0
  0
SEQEND
  5
C697
  8
MOJI
  0
ENDBLK
  5
C699
  8
0
  0
BLOCK
  8
0
  2
*U119
 70
     1
 10
0.0
 20
0.0
 30
0.0
  3
*U119
  1

  0
TEXT
  5
C6AF
  8
SUNPOU
 62
     0
 10
-497.4662638520258
 20
2190.3433395796319
 30
0.0
 40
75.0
  1
155
 41
0.8
  7
EXT08
  0
ENDBLK
  5
C6B1
  8
0
  0
BLOCK
  8
0
  2
*U120
 70
     1
 10
0.0
 20
0.0
 30
0.0
  3
*U120
  1

  0
TEXT
  5
C6B3
  8
SUNPOU
 62
     0
 10
-622.87829764338005
 20
2427.7308599587682
 30
0.0
 40
75.0
  1
(1880)
 41
0.8
  7
EXT08
  0
ENDBLK
  5
C6B5
  8
0
  0
BLOCK
  8
0
  2
*U121
 70
     1
 10
0.0
 20
0.0
 30
0.0
  3
*U121
  1

  0
TEXT
  5
C6B7
  8
SUNPOU
 62
     0
 10
-532.88013660783997
 20
2608.363034093707
 30
0.0
 40
75.0
  1
2000
 41
0.8
  7
EXT08
  0
ENDBLK
  5
C6B9
  8
0
  0
BLOCK
  8
0
  2
*U122
 70
     1
 10
0.0
 20
0.0
 30
0.0
  3
*U122
  1

  0
TEXT
  5
C6BB
  8
SUNPOU
 62
     0
 10
-773.71705699881443
 20
2186.971020216386
 30
0.0
 40
75.0
  1
@148
 41
0.8
  7
EXT08
  0
ENDBLK
  5
C6BD
  8
0
  0
BLOCK
  8
0
  2
*U123
 70
     1
 10
0.0
 20
0.0
 30
0.0
  3
*U123
  1

  0
TEXT
  5
C6BF
  8
SUNPOU
 62
     0
 10
525.1456284273894
 20
2186.971020216386
 30
0.0
 40
75.0
  1
@148
 41
0.8
  7
EXT08
  0
ENDBLK
  5
C6C1
  8
0
  0
BLOCK
  8
0
  2
*U124
 70
     1
 10
0.0
 20
0.0
 30
0.0
  3
*U124
  1

  0
TEXT
  5
C6C3
  8
SUNPOU
 62
     0
 10
336.5355788683022
 20
2427.7308599587682
 30
0.0
 40
75.0
  1
(1880)
 41
0.8
  7
EXT08
  0
ENDBLK
  5
C6C5
  8
0
  0
BLOCK
  8
0
  2
*U125
 70
     1
 10
0.0
 20
0.0
 30
0.0
  3
*U125
  1

  0
TEXT
  5
C6C7
  8
SUNPOU
 62
     0
 10
326.53741783276058
 20
2608.363034093707
 30
0.0
 40
75.0
  1
2000
 41
0.8
  7
EXT08
  0
ENDBLK
  5
C6C9
  8
0
  0
BLOCK
  8
0
  2
*U126
 70
     1
 10
0.0
 20
0.0
 30
0.0
  3
*U126
  1

  0
TEXT
  5
C6CB
  8
SUNPOU
 62
     0
 10
313.92537910905781
 20
2186.971020216386
 30
0.0
 40
75.0
  1
155
 41
0.8
  7
EXT08
  0
ENDBLK
  5
C6CD
  8
0
  0
BLOCK
  8
0
  2
*U127
 70
     1
 10
0.0
 20
0.0
 30
0.0
  3
*U127
  1

  0
TEXT
  5
C6CF
  8
SUNPOU
 62
     0
 10
97.896971095749663
 20
2203.8335896236081
 30
0.0
 40
75.0
  1
(45)
 41
0.8
  7
EXT08
  0
ENDBLK
  5
C6D1
  8
0
  0
BLOCK
  8
0
  2
*U128
 70
     1
 10
0.0
 20
0.0
 30
0.0
  3
*U128
  1

  0
TEXT
  5
C6D3
  8
SUNPOU
 62
     0
 10
-294.12850908338828
 20
2201.0617331006119
 30
0.0
 40
75.0
  1
(45)
 41
0.8
  7
EXT08
  0
ENDBLK
  5
C6D5
  8
0
  0
BLOCK
  8
0
  2
*U129
 70
     1
 10
0.0
 20
0.0
 30
0.0
  3
*U129
  1

  0
TEXT
  5
C6D7
  8
SUNPOU
 10
1145.7204563139551
 20
798.06393933609002
 30
0.0
 40
75.0
  1
1100
 50
90.0
 41
0.8
  7
EXT08
  0
ENDBLK
  5
C6D9
  8
0
  0
BLOCK
  8
0
  2
*U130
 70
     1
 10
0.0
 20
0.0
 30
0.0
  3
*U130
  1

  0
TEXT
  5
C6DB
  8
SUNPOU
 10
943.29733848374599
 20
1605.870933406776
 30
0.0
 40
75.0
  1
170
 50
90.0
 41
0.8
  7
EXT08
  0
ENDBLK
  5
C6DD
  8
0
  0
BLOCK
  8
0
  2
*U131
 70
     1
 10
0.0
 20
0.0
 30
0.0
  3
*U131
  1

  0
TEXT
  5
C6DF
  8
SUNPOU
 62
     0
 10
938.94946585538128
 20
278.1481263097063
 30
0.0
 40
75.0
  1
430
 50
90.0
 41
0.8
  7
EXT08
  0
ENDBLK
  5
C6E1
  8
0
  0
BLOCK
  8
0
  2
*U132
 70
     1
 10
0.0
 20
0.0
 30
0.0
  3
*U132
  1

  0
TEXT
  5
C6E3
  8
SUNPOU
 10
1137.856900406817
 20
1865.570366699573
 30
0.0
 40
75.0
  1
11
 50
90.0
 41
0.8
  7
EXT08
  0
ENDBLK
  5
C6E5
  8
0
  0
BLOCK
  8
0
  2
*U133
 70
     1
 10
0.0
 20
0.0
 30
0.0
  3
*U133
  1

  0
TEXT
  5
C6E7
  8
SUNPOU
 10
1352.610344624386
 20
815.80203457418509
 30
0.0
 40
75.0
  1
1111
 50
90.0
 41
0.8
  7
EXT08
  0
ENDBLK
  5
C6E9
  8
0
  0
BLOCK
  8
0
  2
*U134
 70
     1
 10
0.0
 20
0.0
 30
0.0
  3
*U134
  1

  0
TEXT
  5
C6EB
  8
SUNPOU
 10
944.58860841128535
 20
1047.496892918311
 30
0.0
 40
75.0
  1
500
 50
90.0
 41
0.8
  7
EXT08
  0
ENDBLK
  5
C6ED
  8
0
  0
ENDSEC
  0
SECTION
  2
ENTITIES
  0
LINE
  5
30E
  8
MOJI2
 10
1191.9498761621089
 20
3641.6721920287041
 30
0.0
 11
1470.5423219128661
 21
3641.6721920287041
 31
0.0
  0
LINE
  5
321
  8
SJC2
 10
2673.477059714176
 20
5596.5292480960861
 30
0.0
 11
2716.1772559810761
 21
5596.5292480960861
 31
0.0
  0
LINE
  5
322
  8
SJC2
 10
2716.1772559810761
 20
5631.5290962904846
 30
0.0
 11
2716.1772559810761
 21
5596.5292480960861
 31
0.0
  0
LINE
  5
327
  8
SJC2
 10
2688.5275666423772
 20
5666.528944484885
 30
0.0
 11
2688.5275666423772
 21
5631.5290962904846
 31
0.0
  0
LINE
  5
328
  8
SJC2
 10
2688.5275666423772
 20
5666.528944484885
 30
0.0
 11
2731.2277629092769
 21
5666.528944484885
 31
0.0
  0
LINE
  5
32C
  8
SJC2
 10
2673.477059714176
 20
5631.5290962904846
 30
0.0
 11
2731.2277629092782
 21
5631.5290962904846
 31
0.0
  0
LINE
  5
32E
  8
CENTER
 10
2702.4771519150759
 20
5685.7527303149864
 30
0.0
 11
2702.4771519150759
 21
5576.9888423858838
 31
0.0
  0
LINE
  5
32F
  8
SJC2
 10
2555.2260194733758
 20
5666.5281815453855
 30
0.0
 11
2597.9262157402759
 21
5666.5281815453855
 31
0.0
  0
LINE
  5
330
  8
SJC2
 10
2597.9262157402759
 20
5631.5283333509851
 30
0.0
 11
2597.9262157402759
 21
5666.5281815453855
 31
0.0
  0
LINE
  5
335
  8
SJC2
 10
2570.2765264015761
 20
5596.5284851565857
 30
0.0
 11
2570.2765264015761
 21
5631.5283333509851
 31
0.0
  0
LINE
  5
336
  8
SJC2
 10
2570.2765264015761
 20
5596.5284851565857
 30
0.0
 11
2612.9767226684762
 21
5596.5284851565857
 31
0.0
  0
LINE
  5
33A
  8
SJC2
 10
2555.2267824128762
 20
5631.5283333509851
 30
0.0
 11
2612.9774856079762
 21
5631.5283333509851
 31
0.0
  0
LINE
  5
33C
  8
CENTER
 10
2584.226111674277
 20
5577.3046993264861
 30
0.0
 11
2584.226111674277
 21
5686.0693501950864
 31
0.0
  0
LINE
  5
33D
  8
SJC2
 10
673.47737412867718
 20
5596.5292480960861
 30
0.0
 11
716.17718892587607
 21
5596.5292480960861
 31
0.0
  0
LINE
  5
33E
  8
SJC2
 10
716.17718892587607
 20
5631.5290962904846
 30
0.0
 11
716.17718892587607
 21
5596.5292480960861
 31
0.0
  0
LINE
  5
343
  8
SJC2
 10
688.52788105687614
 20
5666.528944484885
 30
0.0
 11
688.52788105687614
 21
5631.5290962904846
 31
0.0
  0
LINE
  5
344
  8
SJC2
 10
688.52788105687614
 20
5666.528944484885
 30
0.0
 11
731.22750511917536
 21
5666.528944484885
 31
0.0
  0
LINE
  5
348
  8
SJC2
 10
673.47737412867718
 20
5631.5290962904846
 30
0.0
 11
731.22750511917536
 21
5631.5290962904846
 31
0.0
  0
LINE
  5
34A
  8
CENTER
 10
702.47746632957558
 20
5685.7527303149864
 30
0.0
 11
702.47746632957558
 21
5576.9888423858838
 31
0.0
  0
LINE
  5
34B
  8
MOJI2
 10
449.84650906143179
 20
6447.1223145979584
 30
0.0
 11
727.34604455639783
 21
6447.1223145979584
 31
0.0
  0
LINE
  5
34C
  8
SJC
 10
612.97741855277673
 20
5789.5288036234851
 30
0.0
 11
612.97741855277673
 21
4701.5287703275853
 31
0.0
  0
LINE
  5
34D
  8
SJC
 10
673.47737412867718
 20
5789.5288036234851
 30
0.0
 11
673.47737412867718
 21
4701.5287703275853
 31
0.0
  0
LINE
  5
352
  8
CENTER
 10
643.22739634067693
 20
5817.5291614830858
 30
0.0
 11
643.22739634067693
 21
4683.3860697266864
 31
0.0
  0
LINE
  5
353
  8
SJC
 10
703.22743582877592
 20
5801.5287949144858
 30
0.0
 11
2583.2266609683761
 21
5801.5287949144858
 31
0.0
  0
LINE
  5
358
  8
SJC
 10
2612.9774856079771
 20
5789.5288036234861
 30
0.0
 11
2612.9774856079771
 21
4701.5287703275853
 31
0.0
  0
LINE
  5
359
  8
SJC
 10
2673.477059714176
 20
5789.5288036234861
 30
0.0
 11
2673.477059714176
 21
4701.5287703275853
 31
0.0
  0
LINE
  5
35A
  8
CENTER
 10
2643.2272726610759
 20
5817.5291614830858
 30
0.0
 11
2643.2272726610759
 21
4683.3860697266864
 31
0.0
  0
LINE
  5
35B
  8
SJC
 10
703.22743582877592
 20
5801.5287949144858
 30
0.0
 11
703.22743582877592
 21
5758.8293615869861
 31
0.0
  0
LINE
  5
35C
  8
SJC
 10
707.2273367360757
 20
5801.5287949144858
 30
0.0
 11
707.2273367360757
 21
5758.8293615869861
 31
0.0
  0
LINE
  5
35D
  8
SJC
 10
2583.2266609683761
 20
5758.8293615869861
 30
0.0
 11
703.22743582877592
 21
5758.8293615869861
 31
0.0
  0
LINE
  5
35E
  8
SJC
 10
2579.2265693262771
 20
5801.5287949144858
 30
0.0
 11
2579.2265693262771
 21
5758.8293615869861
 31
0.0
  0
LINE
  5
35F
  8
SJC
 10
2583.2266609683761
 20
5801.5287949144858
 30
0.0
 11
2583.2266609683761
 21
5758.8293615869861
 31
0.0
  0
LINE
  5
360
  8
SJC
 10
2703.227121414277
 20
5801.5287949144858
 30
0.0
 11
2703.227121414277
 21
5758.8293615869861
 31
0.0
  0
LINE
  5
361
  8
SJC
 10
2707.2272130563761
 20
5801.5287949144858
 30
0.0
 11
2707.2272130563761
 21
5758.8293615869861
 31
0.0
  0
LINE
  5
362
  8
SJC
 10
433.86598184128701
 20
4701.5287703275853
 30
0.0
 11
4330.0175327351926
 21
4701.5287703275853
 31
0.0
  0
LINE
  5
36A
  8
SJC
 10
2703.227121414277
 20
5801.5287949144858
 30
0.0
 11
4330.0175327351899
 21
5801.5287949144858
 31
0.0
  0
LINE
  5
36B
  8
SJC
 10
2703.227121414277
 20
5758.8293615869861
 30
0.0
 11
4330.0175327351899
 21
5758.8293615869861
 31
0.0
  0
LINE
  5
36C
  8
SJC2
 10
2555.2260194733758
 20
5166.5281703695873
 30
0.0
 11
2597.9262157402759
 21
5166.5281703695873
 31
0.0
  0
LINE
  5
36D
  8
SJC2
 10
2597.9262157402759
 20
5131.528322175086
 30
0.0
 11
2597.9262157402759
 21
5166.5281703695873
 31
0.0
  0
LINE
  5
372
  8
SJC2
 10
2570.2765264015761
 20
5096.5284739806857
 30
0.0
 11
2570.2765264015761
 21
5131.528322175086
 31
0.0
  0
LINE
  5
373
  8
SJC2
 10
2570.2765264015761
 20
5096.5284739806857
 30
0.0
 11
2612.9767226684762
 21
5096.5284739806857
 31
0.0
  0
LINE
  5
377
  8
SJC2
 10
2555.2267824128762
 20
5131.528322175086
 30
0.0
 11
2612.9774856079762
 21
5131.528322175086
 31
0.0
  0
LINE
  5
379
  8
CENTER
 10
2584.226111674277
 20
5077.3050696203854
 30
0.0
 11
2584.226111674277
 21
5186.0693390191846
 31
0.0
  0
LINE
  5
37A
  8
SJC2
 10
2673.477059714176
 20
5096.5292369201861
 30
0.0
 11
2716.1772559810761
 21
5096.5292369201861
 31
0.0
  0
LINE
  5
37B
  8
SJC2
 10
2716.1772559810761
 20
5131.5290851145865
 30
0.0
 11
2716.1772559810761
 21
5096.5292369201861
 31
0.0
  0
LINE
  5
380
  8
SJC2
 10
2688.5275666423772
 20
5166.5289333089859
 30
0.0
 11
2688.5275666423772
 21
5131.5290851145865
 31
0.0
  0
LINE
  5
381
  8
SJC2
 10
2688.5275666423772
 20
5166.5289333089859
 30
0.0
 11
2731.2277629092769
 21
5166.5289333089859
 31
0.0
  0
LINE
  5
385
  8
SJC2
 10
2673.477059714176
 20
5131.5290851145865
 30
0.0
 11
2731.2277629092782
 21
5131.5290851145865
 31
0.0
  0
LINE
  5
387
  8
CENTER
 10
2702.4771519150759
 20
5185.7527191390845
 30
0.0
 11
2702.4771519150759
 21
5076.9884497402854
 31
0.0
  0
LINE
  5
388
  8
SJC2
 10
673.47737412867718
 20
5096.5292369201861
 30
0.0
 11
716.17718892587607
 21
5096.5292369201861
 31
0.0
  0
LINE
  5
389
  8
SJC2
 10
716.17718892587607
 20
5131.5290851145865
 30
0.0
 11
716.17718892587607
 21
5096.5292369201861
 31
0.0
  0
LINE
  5
38E
  8
SJC2
 10
688.52788105687614
 20
5166.5289333089859
 30
0.0
 11
688.52788105687614
 21
5131.5290851145865
 31
0.0
  0
LINE
  5
38F
  8
SJC2
 10
688.52788105687614
 20
5166.5289333089859
 30
0.0
 11
731.22750511917536
 21
5166.5289333089859
 31
0.0
  0
LINE
  5
393
  8
SJC2
 10
673.47737412867718
 20
5131.5290851145865
 30
0.0
 11
731.22750511917536
 21
5131.5290851145846
 31
0.0
  0
LINE
  5
395
  8
CENTER
 10
702.47746632957558
 20
5185.7527191390845
 30
0.0
 11
702.47746632957558
 21
5076.9884497402854
 31
0.0
  0
TEXT
  5
588
  8
MOJI
 10
1481.4001908776829
 20
5939.5805396781143
 30
0.0
 40
75.0
  1
%%c42.7×t2.3
 41
0.8
  7
EXT08
  0
TEXT
  5
590
  8
MOJI
 10
432.67409171404319
 20
4726.5245890075385
 30
0.0
 40
75.0
  1
GL
 41
0.8
  7
EXT08
  0
LINE
  5
594
  8
MOJI2
 10
4091.1086440294921
 20
3197.641362757654
 30
0.0
 11
4425.6575816606819
 21
3197.641362757654
 31
0.0
  0
LINE
  5
63F
  8
MOJI2
 10
5283.2748493416029
 20
3195.6922645469822
 30
0.0
 11
5631.4352669004102
 21
3195.6922645469822
 31
0.0
  0
LINE
  5
65E
  8
MOJI2
 10
4529.4176209351572
 20
3443.0961564519548
 30
0.0
 11
5116.0536972842483
 21
3443.0961564519548
 31
0.0
  0
LINE
  5
69F
  8
SJC
 10
5278.5343147962694
 20
4701.5287703275872
 30
0.0
 11
5476.0149088517428
 21
4701.5287703275853
 31
0.0
1001
ACAD
1000
ASC_BOUNDS
1002
{
1070
    19
1005
AC0C
1002
}
  0
LINE
  5
6A0
  8
SJC
 10
5218.0347406901692
 20
4701.5287703275853
 30
0.0
 11
4917.6774125391157
 21
4701.5287703275853
 31
0.0
1001
ACAD
1000
ASC_BOUNDS
1002
{
1070
    19
1005
AC0C
1002
}
  0
LINE
  5
6A8
  8
SJC
 10
5098.2845243904703
 20
4701.5287703275853
 30
0.0
 11
5098.2845243904703
 21
4251.5287602692861
 31
0.0
1001
ACAD
1000
ASC_BOUNDS
1002
{
1070
    19
1005
AC0C
1002
}
  0
LINE
  5
6A9
  8
SJC
 10
5398.2845310959701
 20
4701.5287703275853
 30
0.0
 11
5398.2845310959701
 21
4251.5287602692861
 31
0.0
1001
ACAD
1000
ASC_BOUNDS
1002
{
1070
    19
1005
AC0C
1002
}
  0
LINE
  5
6AA
  8
SJC
 10
5098.2845243904703
 20
4251.5287602692861
 30
0.0
 11
5398.2845310959701
 21
4251.5287602692861
 31
0.0
1001
ACAD
1000
ASC_BOUNDS
1002
{
1070
    19
1005
AC0C
1005
AC0C
1002
}
  0
LINE
  5
6AB
  8
SJC
 10
5218.0347406901692
 20
5789.5285861212114
 30
0.0
 11
5218.0347406901692
 21
4251.5287602692861
 31
0.0
1001
ACAD
1000
ASC_BOUNDS
1002
{
1070
    19
1005
AC0C
1002
}
  0
LINE
  5
6AC
  8
SJC
 10
5278.5343147962694
 20
5789.5285861212114
 30
0.0
 11
5278.5343147962694
 21
4251.5287602692861
 31
0.0
1001
ACAD
1000
ASC_BOUNDS
1002
{
1070
    19
1005
AC0C
1002
}
  0
LINE
  5
6AD
  8
CENTER
 10
5248.2845277431697
 20
5831.8839154764837
 30
0.0
 11
5248.2845277431697
 21
4219.8950010172848
 31
0.0
  0
LINE
  5
6AE
  8
SJC
 10
6244.5774787063647
 20
4701.5287703275853
 30
0.0
 11
6087.7182361437881
 21
4701.5287703275853
 31
0.0
1001
ACAD
1000
ASC_BOUNDS
1002
{
1070
    19
1002
}
  0
LINE
  5
6AF
  8
SJC
 10
6305.0770528125659
 20
4701.5287703275853
 30
0.0
 11
6464.886314646682
 21
4701.5287703275853
 31
0.0
1001
ACAD
1000
ASC_BOUNDS
1002
{
1070
    19
1002
}
  0
LINE
  5
6B0
  8
SJC
 10
6244.5774787063647
 20
4501.528765857186
 30
0.0
 11
6305.0770528125659
 21
4501.528765857186
 31
0.0
1001
ACAD
1000
ASC_BOUNDS
1002
{
1070
    19
1002
}
  0
LINE
  5
6D2
  8
SJC
 10
6244.5774787063638
 20
5789.5285861212114
 30
0.0
 11
6244.5774787063647
 21
4501.528765857186
 31
0.0
1001
ACAD
1000
ASC_BOUNDS
1002
{
1070
    19
1002
}
  0
LINE
  5
6D3
  8
SJC
 10
6305.0770528125659
 20
5789.5285861212114
 30
0.0
 11
6305.0770528125659
 21
4501.528765857186
 31
0.0
1001
ACAD
1000
ASC_BOUNDS
1002
{
1070
    19
1002
}
  0
LINE
  5
6D4
  8
CENTER
 10
6274.8272657594671
 20
5831.8839154764846
 30
0.0
 11
6274.8272657594662
 21
4471.4418663809856
 31
0.0
1001
ACAD
1000
ASC_BOUNDS
1002
{
1070
    19
1002
}
  0
LINE
  5
6D9
  8
SJC
 10
7263.5958039383277
 20
4701.5287703275853
 30
0.0
 11
7065.5330918254986
 21
4701.5287703275853
 31
0.0
  0
LINE
  5
6DA
  8
SJC
 10
7324.0961409839301
 20
4701.5287703275853
 30
0.0
 11
7510.9092930907718
 21
4701.5287703275853
 31
0.0
  0
LINE
  5
6DB
  8
SJC
 10
7263.5958039383277
 20
4101.5287703275853
 30
0.0
 11
7324.0961409839301
 21
4101.5287703275853
 31
0.0
  0
LINE
  5
6DC
  8
SJC
 10
7263.5958039383277
 20
4392.8701635749849
 30
0.0
 11
7263.5958039383277
 21
4101.5287703275853
 31
0.0
  0
LINE
  5
6DD
  8
SJC
 10
7324.0961409839301
 20
4392.8701635749849
 30
0.0
 11
7324.0961409839301
 21
4101.5287703275853
 31
0.0
  0
POLYLINE
  5
6DE
  8
SJC
 66
     1
 10
0.0
 20
0.0
 30
0.0
 70
     2
  0
VERTEX
  5
6DF
  8
SJC
 10
7263.5958039383277
 20
4462.2301352180848
 30
0.0
  0
VERTEX
  5
6E0
  8
SJC
 10
7263.5958039383277
 20
4462.2301352180848
 30
0.0
  0
VERTEX
  5
6E1
  8
SJC
 10
7264.4309870630286
 20
4461.7037879883856
 30
0.0
  0
VERTEX
  5
6E2
  8
SJC
 10
7265.2675939609289
 20
4461.1813291410863
 30
0.0
  0
VERTEX
  5
6E3
  8
SJC
 10
7266.1070605940304
 20
4460.6666567676857
 30
0.0
  0
VERTEX
  5
6E4
  8
SJC
 10
7266.9508229242292
 20
4460.1636689595862
 30
0.0
  0
VERTEX
  5
6E5
  8
SJC
 10
7267.800316913429
 20
4459.6762638083846
 30
0.0
  0
VERTEX
  5
6E6
  8
SJC
 10
7268.6569785236288
 20
4459.2083394054862
 30
0.0
  0
VERTEX
  5
6E7
  8
SJC
 10
7269.5222437167304
 20
4458.763793842385
 30
0.0
  0
VERTEX
  5
6E8
  8
SJC
 10
7270.397548454529
 20
4458.3465252104861
 30
0.0
  0
VERTEX
  5
6E9
  8
SJC
 10
7271.2843286991283
 20
4457.9604316013847
 30
0.0
  0
VERTEX
  5
6EA
  8
SJC
 10
7272.1840204123291
 20
4457.6094111063849
 30
0.0
  0
VERTEX
  5
6EB
  8
SJC
 10
7273.0980595561286
 20
4457.2973618169854
 30
0.0
  0
VERTEX
  5
6EC
  8
SJC
 10
7274.0278820924304
 20
4457.028181824785
 30
0.0
  0
VERTEX
  5
6ED
  8
SJC
 10
7274.974923983229
 20
4456.8057692211851
 30
0.0
  0
VERTEX
  5
6EE
  8
SJC
 10
7275.9406211903288
 20
4456.6340220975853
 30
0.0
  0
VERTEX
  5
6EF
  8
SJC
 10
7277.933725401329
 20
4456.4581166564849
 30
0.0
  0
VERTEX
  5
6F0
  8
SJC
 10
7277.933725401329
 20
4456.4581166564849
 30
0.0
  0
VERTEX
  5
6F1
  8
SJC
 10
7277.933725401329
 20
4456.4581166564849
 30
0.0
  0
VERTEX
  5
6F2
  8
SJC
 10
7278.9632207641298
 20
4456.4605938702853
 30
0.0
  0
VERTEX
  5
6F3
  8
SJC
 10
7280.0124016308291
 20
4456.5223552770858
 30
0.0
  0
VERTEX
  5
6F4
  8
SJC
 10
7281.0779841682288
 20
4456.6403204432854
 30
0.0
  0
VERTEX
  5
6F5
  8
SJC
 10
7282.1566845429297
 20
4456.8114089353858
 30
0.0
  0
VERTEX
  5
6F6
  8
SJC
 10
7283.2452189217311
 20
4457.0325403197858
 30
0.0
  0
VERTEX
  5
6F7
  8
SJC
 10
7284.3403034714302
 20
4457.3006341629862
 30
0.0
  0
VERTEX
  5
6F8
  8
SJC
 10
7285.4386543585288
 20
4457.612610031586
 30
0.0
  0
VERTEX
  5
6F9
  8
SJC
 10
7286.5369877499288
 20
4457.9653874919859
 30
0.0
  0
VERTEX
  5
6FA
  8
SJC
 10
7287.6320198122303
 20
4458.3558861105848
 30
0.0
  0
VERTEX
  5
6FB
  8
SJC
 10
7288.7204667122287
 20
4458.7810254538854
 30
0.0
  0
VERTEX
  5
6FC
  8
SJC
 10
7289.7990446165286
 20
4459.2377250884856
 30
0.0
  0
VERTEX
  5
6FD
  8
SJC
 10
7290.8644696920292
 20
4459.7229045807853
 30
0.0
  0
VERTEX
  5
6FE
  8
SJC
 10
7291.9134581053304
 20
4460.2334834972862
 30
0.0
  0
VERTEX
  5
6FF
  8
SJC
 10
7292.9427260230304
 20
4460.7663814043854
 30
0.0
  0
VERTEX
  5
700
  8
SJC
 10
7294.9289650390301
 20
4461.886812456486
 30
0.0
  0
VERTEX
  5
701
  8
SJC
 10
7294.9289650390301
 20
4461.886812456486
 30
0.0
  0
VERTEX
  5
702
  8
SJC
 10
7294.9289650390301
 20
4461.886812456486
 30
0.0
  0
VERTEX
  5
703
  8
SJC
 10
7295.8804083927298
 20
4462.4677120349843
 30
0.0
  0
VERTEX
  5
704
  8
SJC
 10
7296.805241550529
 20
4463.0557775539846
 30
0.0
  0
VERTEX
  5
705
  8
SJC
 10
7297.7064293618278
 20
4463.6450997041848
 30
0.0
  0
VERTEX
  5
706
  8
SJC
 10
7298.586936676129
 20
4464.2297691762842
 30
0.0
  0
VERTEX
  5
707
  8
SJC
 10
7299.449728343031
 20
4464.8038766610853
 30
0.0
  0
VERTEX
  5
708
  8
SJC
 10
7300.2977692117302
 20
4465.3615128493857
 30
0.0
  0
VERTEX
  5
709
  8
SJC
 10
7301.1340241319294
 20
4465.8967684317849
 30
0.0
  0
VERTEX
  5
70A
  8
SJC
 10
7301.9614579530298
 20
4466.4037340990853
 30
0.0
  0
VERTEX
  5
70B
  8
SJC
 10
7302.7830355246297
 20
4466.8765005420864
 30
0.0
  0
VERTEX
  5
70C
  8
SJC
 10
7303.6017216959299
 20
4467.3091584513859
 30
0.0
  0
VERTEX
  5
70D
  8
SJC
 10
7304.4204813166298
 20
4467.695798517886
 30
0.0
  0
VERTEX
  5
70E
  8
SJC
 10
7305.2422792362286
 20
4468.0305114322846
 30
0.0
  0
VERTEX
  5
70F
  8
SJC
 10
7306.0700803040309
 20
4468.3073878851847
 30
0.0
  0
VERTEX
  5
710
  8
SJC
 10
7306.9068493695286
 20
4468.5205185673858
 30
0.0
  0
VERTEX
  5
711
  8
SJC
 10
7308.6191508919301
 20
4468.731905382886
 30
0.0
  0
VERTEX
  5
712
  8
SJC
 10
7308.6191508919301
 20
4468.731905382886
 30
0.0
  0
VERTEX
  5
713
  8
SJC
 10
7308.6191508919301
 20
4468.731905382886
 30
0.0
  0
VERTEX
  5
714
  8
SJC
 10
7309.4999335958291
 20
4468.7201770652846
 30
0.0
  0
VERTEX
  5
715
  8
SJC
 10
7310.3974638875297
 20
4468.6320683009853
 30
0.0
  0
VERTEX
  5
716
  8
SJC
 10
7311.3106252605294
 20
4468.4726711195854
 30
0.0
  0
VERTEX
  5
717
  8
SJC
 10
7312.2383012081291
 20
4468.2470775505853
 30
0.0
  0
VERTEX
  5
718
  8
SJC
 10
7313.179375223729
 20
4467.960379623386
 30
0.0
  0
VERTEX
  5
719
  8
SJC
 10
7314.1327308006285
 20
4467.6176693675852
 30
0.0
  0
VERTEX
  5
71A
  8
SJC
 10
7315.0972514322293
 20
4467.2240388124847
 30
0.0
  0
VERTEX
  5
71B
  8
SJC
 10
7316.07182061193
 20
4466.7845799877859
 30
0.0
  0
VERTEX
  5
71C
  8
SJC
 10
7317.0553218331288
 20
4466.3043849227861
 30
0.0
  0
VERTEX
  5
71D
  8
SJC
 10
7318.0466385890304
 20
4465.7885456470849
 30
0.0
  0
VERTEX
  5
71E
  8
SJC
 10
7319.0446543731277
 20
4465.2421541900849
 30
0.0
  0
VERTEX
  5
71F
  8
SJC
 10
7320.04825267873
 20
4464.6703025812858
 30
0.0
  0
VERTEX
  5
720
  8
SJC
 10
7321.0563169993284
 20
4464.0780828501856
 30
0.0
  0
VERTEX
  5
721
  8
SJC
 10
7322.0677308281283
 20
4463.4705870263842
 30
0.0
  0
VERTEX
  5
722
  8
SJC
 10
7324.0961409839301
 20
4462.2301352180848
 30
0.0
  0
SEQEND
  5
723
  8
SJC
  0
POLYLINE
  5
724
  8
SJC
 66
     1
 10
0.0
 20
0.0
 30
0.0
 70
     2
  0
VERTEX
  5
725
  8
SJC
 10
7294.9289650390301
 20
4461.886812456486
 30
0.0
  0
VERTEX
  5
726
  8
SJC
 10
7294.9289650390301
 20
4461.886812456486
 30
0.0
  0
VERTEX
  5
727
  8
SJC
 10
7295.3169666466292
 20
4461.6841960257843
 30
0.0
  0
VERTEX
  5
728
  8
SJC
 10
7295.7055472502298
 20
4461.4818265013864
 30
0.0
  0
VERTEX
  5
729
  8
SJC
 10
7296.0952980577276
 20
4461.2799604753855
 30
0.0
  0
VERTEX
  5
72A
  8
SJC
 10
7296.4868102770297
 20
4461.0788545400856
 30
0.0
  0
VERTEX
  5
72B
  8
SJC
 10
7296.8806751162292
 20
4460.8787652873862
 30
0.0
  0
VERTEX
  5
72C
  8
SJC
 10
7297.2774837832294
 20
4460.679949309485
 30
0.0
  0
VERTEX
  5
72D
  8
SJC
 10
7297.677827485928
 20
4460.4826631984861
 30
0.0
  0
VERTEX
  5
72E
  8
SJC
 10
7298.0822974323291
 20
4460.2871635464844
 30
0.0
  0
VERTEX
  5
72F
  8
SJC
 10
7298.4914848303297
 20
4460.0937069455858
 30
0.0
  0
VERTEX
  5
730
  8
SJC
 10
7298.9059808879301
 20
4459.9025499878862
 30
0.0
  0
VERTEX
  5
731
  8
SJC
 10
7299.3263768130309
 20
4459.7139492655851
 30
0.0
  0
VERTEX
  5
732
  8
SJC
 10
7299.753263813629
 20
4459.5281613705847
 30
0.0
  0
VERTEX
  5
733
  8
SJC
 10
7300.1872330976303
 20
4459.3454428952846
 30
0.0
  0
VERTEX
  5
734
  8
SJC
 10
7300.6288758730288
 20
4459.1660504314859
 30
0.0
  0
VERTEX
  5
735
  8
SJC
 10
7301.537546729729
 20
4458.8182699074841
 30
0.0
  0
VERTEX
  5
736
  8
SJC
 10
7301.537546729729
 20
4458.8182699074841
 30
0.0
  0
VERTEX
  5
737
  8
SJC
 10
7301.537546729729
 20
4458.8182699074841
 30
0.0
  0
VERTEX
  5
738
  8
SJC
 10
7302.0054579873313
 20
4458.6504294731858
 30
0.0
  0
VERTEX
  5
739
  8
SJC
 10
7302.48159989533
 20
4458.4871383533864
 30
0.0
  0
VERTEX
  5
73A
  8
SJC
 10
7302.9647498712293
 20
4458.3288452157858
 30
0.0
  0
VERTEX
  5
73B
  8
SJC
 10
7303.453685332629
 20
4458.175998728585
 30
0.0
  0
VERTEX
  5
73C
  8
SJC
 10
7303.9471836970288
 20
4458.0290475593847
 30
0.0
  0
VERTEX
  5
73D
  8
SJC
 10
7304.4440223819283
 20
4457.8884403762859
 30
0.0
  0
VERTEX
  5
73E
  8
SJC
 10
7304.9429788049301
 20
4457.7546258471857
 30
0.0
  0
VERTEX
  5
73F
  8
SJC
 10
7305.4428303835302
 20
4457.628052639885
 30
0.0
  0
VERTEX
  5
740
  8
SJC
 10
7305.9423545354293
 20
4457.5091694223856
 30
0.0
  0
VERTEX
  5
741
  8
SJC
 10
7306.4403286779288
 20
4457.3984248626848
 30
0.0
  0
VERTEX
  5
742
  8
SJC
 10
7306.9355302287286
 20
4457.2962676284851
 30
0.0
  0
VERTEX
  5
743
  8
SJC
 10
7307.4267366052291
 20
4457.2031463878848
 30
0.0
  0
VERTEX
  5
744
  8
SJC
 10
7307.9127252251292
 20
4457.1195098085864
 30
0.0
  0
VERTEX
  5
745
  8
SJC
 10
7308.3922735059286
 20
4457.0458065587854
 30
0.0
  0
VERTEX
  5
746
  8
SJC
 10
7309.3271587202289
 20
4456.9299947187856
 30
0.0
  0
VERTEX
  5
747
  8
SJC
 10
7309.3271587202289
 20
4456.9299947187856
 30
0.0
  0
VERTEX
  5
748
  8
SJC
 10
7309.3271587202289
 20
4456.9299947187856
 30
0.0
  0
VERTEX
  5
749
  8
SJC
 10
7309.780450208129
 20
4456.8887688718851
 30
0.0
  0
VERTEX
  5
74A
  8
SJC
 10
7310.2248154896288
 20
4456.859188340286
 30
0.0
  0
VERTEX
  5
74B
  8
SJC
 10
7310.6614395179286
 20
4456.8416215404859
 30
0.0
  0
VERTEX
  5
74C
  8
SJC
 10
7311.0915072466287
 20
4456.8364368891862
 30
0.0
  0
VERTEX
  5
74D
  8
SJC
 10
7311.5162036289294
 20
4456.8440028029863
 30
0.0
  0
VERTEX
  5
74E
  8
SJC
 10
7311.9367136183291
 20
4456.8646876984858
 30
0.0
  0
VERTEX
  5
74F
  8
SJC
 10
7312.3542221681291
 20
4456.8988599924851
 30
0.0
  0
VERTEX
  5
750
  8
SJC
 10
7312.7699142318288
 20
4456.9468881015864
 30
0.0
  0
VERTEX
  5
751
  8
SJC
 10
7313.1849747628303
 20
4457.0091404422847
 30
0.0
  0
VERTEX
  5
752
  8
SJC
 10
7313.6005887143283
 20
4457.0859854313858
 30
0.0
  0
VERTEX
  5
753
  8
SJC
 10
7314.0179410399296
 20
4457.1777914853847
 30
0.0
  0
VERTEX
  5
754
  8
SJC
 10
7314.4382166929308
 20
4457.2849270210872
 30
0.0
  0
VERTEX
  5
755
  8
SJC
 10
7314.8626006267286
 20
4457.4077604550857
 30
0.0
  0
VERTEX
  5
756
  8
SJC
 10
7315.2922777946287
 20
4457.546660203986
 30
0.0
  0
VERTEX
  5
757
  8
SJC
 10
7316.1722516467298
 20
4457.8741323130862
 30
0.0
  0
VERTEX
  5
758
  8
SJC
 10
7316.1722516467298
 20
4457.8741323130862
 30
0.0
  0
VERTEX
  5
759
  8
SJC
 10
7316.1722516467298
 20
4457.8741323130862
 30
0.0
  0
VERTEX
  5
75A
  8
SJC
 10
7316.6246293299291
 20
4458.0632018294846
 30
0.0
  0
VERTEX
  5
75B
  8
SJC
 10
7317.0853035423288
 20
4458.2683708294853
 30
0.0
  0
VERTEX
  5
75C
  8
SJC
 10
7317.5537211818282
 20
4458.4885660141863
 30
0.0
  0
VERTEX
  5
75D
  8
SJC
 10
7318.0293291466296
 20
4458.7227140845853
 30
0.0
  0
VERTEX
  5
75E
  8
SJC
 10
7318.5115743346278
 20
4458.9697417418847
 30
0.0
  0
VERTEX
  5
75F
  8
SJC
 10
7318.9999036439294
 20
4459.2285756870851
 30
0.0
  0
VERTEX
  5
760
  8
SJC
 10
7319.4937639726286
 20
4459.4981426213853
 30
0.0
  0
VERTEX
  5
761
  8
SJC
 10
7319.9926022188292
 20
4459.7773692458859
 30
0.0
  0
VERTEX
  5
762
  8
SJC
 10
7320.4958652805299
 20
4460.0651822614864
 30
0.0
  0
VERTEX
  5
763
  8
SJC
 10
7321.003000055829
 20
4460.3605083695857
 30
0.0
  0
VERTEX
  5
764
  8
SJC
 10
7321.5134534427289
 20
4460.662274270986
 30
0.0
  0
VERTEX
  5
765
  8
SJC
 10
7322.0266723393297
 20
4460.9694066669854
 30
0.0
  0
VERTEX
  5
766
  8
SJC
 10
7322.5421036437301
 20
4461.2808322585861
 30
0.0
  0
VERTEX
  5
767
  8
SJC
 10
7323.0591942539286
 20
4461.5954777468851
 30
0.0
  0
VERTEX
  5
768
  8
SJC
 10
7324.0961409839301
 20
4462.2301352180848
 30
0.0
  0
SEQEND
  5
769
  8
SJC
  0
POLYLINE
  5
76A
  8
SJC
 66
     1
 10
0.0
 20
0.0
 30
0.0
 70
     2
  0
VERTEX
  5
76B
  8
SJC
 10
7263.5958039383277
 20
4392.8701635749849
 30
0.0
  0
VERTEX
  5
76C
  8
SJC
 10
7263.5958039383277
 20
4392.8701635749849
 30
0.0
  0
VERTEX
  5
76D
  8
SJC
 10
7264.0215730272284
 20
4393.3756855386846
 30
0.0
  0
VERTEX
  5
76E
  8
SJC
 10
7264.447638377228
 20
4393.8795076102861
 30
0.0
  0
VERTEX
  5
76F
  8
SJC
 10
7264.8743084029293
 20
4394.3799394783864
 30
0.0
  0
VERTEX
  5
770
  8
SJC
 10
7265.3018915191287
 20
4394.8752908317856
 30
0.0
  0
VERTEX
  5
771
  8
SJC
 10
7265.7306961406293
 20
4395.3638713594846
 30
0.0
  0
VERTEX
  5
772
  8
SJC
 10
7266.1610306820294
 20
4395.8439907499851
 30
0.0
  0
VERTEX
  5
773
  8
SJC
 10
7266.5932035583292
 20
4396.3139586921861
 30
0.0
  0
VERTEX
  5
774
  8
SJC
 10
7267.0275231840296
 20
4396.7720848748859
 30
0.0
  0
VERTEX
  5
775
  8
SJC
 10
7267.4642979740293
 20
4397.2166789867861
 30
0.0
  0
VERTEX
  5
776
  8
SJC
 10
7267.90383634303
 20
4397.6460507167858
 30
0.0
  0
VERTEX
  5
777
  8
SJC
 10
7268.3464467058302
 20
4398.058509753585
 30
0.0
  0
VERTEX
  5
778
  8
SJC
 10
7268.7924374772292
 20
4398.4523657859854
 30
0.0
  0
VERTEX
  5
779
  8
SJC
 10
7269.2421170718289
 20
4398.8259285027871
 30
0.0
  0
VERTEX
  5
77A
  8
SJC
 10
7269.6957939044278
 20
4399.1775075926853
 30
0.0
  0
VERTEX
  5
77B
  8
SJC
 10
7270.616372942829
 20
4399.8079536470859
 30
0.0
  0
VERTEX
  5
77C
  8
SJC
 10
7270.616372942829
 20
4399.8079536470859
 30
0.0
  0
VERTEX
  5
77D
  8
SJC
 10
7270.616372942829
 20
4399.8079536470859
 30
0.0
  0
VERTEX
  5
77E
  8
SJC
 10
7271.0837171923304
 20
4400.0838428070847
 30
0.0
  0
VERTEX
  5
77F
  8
SJC
 10
7271.5552314355309
 20
4400.3333943802854
 30
0.0
  0
VERTEX
  5
780
  8
SJC
 10
7272.0301570893289
 20
4400.5573205286864
 30
0.0
  0
VERTEX
  5
781
  8
SJC
 10
7272.5077355707281
 20
4400.7563334143852
 30
0.0
  0
VERTEX
  5
782
  8
SJC
 10
7272.9872082968286
 20
4400.9311451993854
 30
0.0
  0
VERTEX
  5
783
  8
SJC
 10
7273.4678166847279
 20
4401.0824680456853
 30
0.0
  0
VERTEX
  5
784
  8
SJC
 10
7273.9488021512279
 20
4401.2110141155854
 30
0.0
  0
VERTEX
  5
785
  8
SJC
 10
7274.4294061134278
 20
4401.3174955708846
 30
0.0
  0
VERTEX
  5
786
  8
SJC
 10
7274.9088699883287
 20
4401.402624573785
 30
0.0
  0
VERTEX
  5
787
  8
SJC
 10
7275.3864351930306
 20
4401.467113286385
 30
0.0
  0
VERTEX
  5
788
  8
SJC
 10
7275.8613431444292
 20
4401.5116738705856
 30
0.0
  0
VERTEX
  5
789
  8
SJC
 10
7276.3328352595299
 20
4401.537018488586
 30
0.0
  0
VERTEX
  5
78A
  8
SJC
 10
7276.8001529554303
 20
4401.5438593024846
 30
0.0
  0
VERTEX
  5
78B
  8
SJC
 10
7277.2625376490287
 20
4401.5329084741861
 30
0.0
  0
VERTEX
  5
78C
  8
SJC
 10
7278.1694736976287
 20
4401.4604805394856
 30
0.0
  0
VERTEX
  5
78D
  8
SJC
 10
7278.1694736976287
 20
4401.4604805394856
 30
0.0
  0
VERTEX
  5
78E
  8
SJC
 10
7278.1694736976287
 20
4401.4604805394856
 30
0.0
  0
VERTEX
  5
78F
  8
SJC
 10
7278.612841892329
 20
4401.4003676759849
 30
0.0
  0
VERTEX
  5
790
  8
SJC
 10
7279.0502528876304
 20
4401.3249561449857
 30
0.0
  0
VERTEX
  5
791
  8
SJC
 10
7279.4829612850299
 20
4401.2346048420859
 30
0.0
  0
VERTEX
  5
792
  8
SJC
 10
7279.9122216865289
 20
4401.1296726624842
 30
0.0
  0
VERTEX
  5
793
  8
SJC
 10
7280.339288693729
 20
4401.0105185015846
 30
0.0
  0
VERTEX
  5
794
  8
SJC
 10
7280.765416908529
 20
4400.8775012548849
 30
0.0
  0
VERTEX
  5
795
  8
SJC
 10
7281.1918609326294
 20
4400.7309798176848
 30
0.0
  0
VERTEX
  5
796
  8
SJC
 10
7281.6198753677299
 20
4400.5713130854847
 30
0.0
  0
VERTEX
  5
797
  8
SJC
 10
7282.0507148157294
 20
4400.3988599535851
 30
0.0
  0
VERTEX
  5
798
  8
SJC
 10
7282.4856338784302
 20
4400.2139793174847
 30
0.0
  0
VERTEX
  5
799
  8
SJC
 10
7282.9258871574293
 20
4400.0170300723858
 30
0.0
  0
VERTEX
  5
79A
  8
SJC
 10
7283.3727292545291
 20
4399.8083711138852
 30
0.0
  0
VERTEX
  5
79B
  8
SJC
 10
7283.8274147715292
 20
4399.5883613371861
 30
0.0
  0
VERTEX
  5
79C
  8
SJC
 10
7284.2911983103286
 20
4399.3573596378847
 30
0.0
  0
VERTEX
  5
79D
  8
SJC
 10
7285.2510778598289
 20
4398.8638160526853
 30
0.0
  0
VERTEX
  5
79E
  8
SJC
 10
7285.2510778598289
 20
4398.8638160526853
 30
0.0
  0
VERTEX
  5
79F
  8
SJC
 10
7285.2510778598289
 20
4398.8638160526853
 30
0.0
  0
VERTEX
  5
7A0
  8
SJC
 10
7285.7493407460288
 20
4398.602036017086
 30
0.0
  0
VERTEX
  5
7A1
  8
SJC
 10
7286.2596630301286
 20
4398.3309615802846
 30
0.0
  0
VERTEX
  5
7A2
  8
SJC
 10
7286.7812407524289
 20
4398.0512123689859
 30
0.0
  0
VERTEX
  5
7A3
  8
SJC
 10
7287.3132699529287
 20
4397.7634080099851
 30
0.0
  0
VERTEX
  5
7A4
  8
SJC
 10
7287.8549466718277
 20
4397.4681681299853
 30
0.0
  0
VERTEX
  5
7A5
  8
SJC
 10
7288.4054669492298
 20
4397.166112355786
 30
0.0
  0
VERTEX
  5
7A6
  8
SJC
 10
7288.9640268253297
 20
4396.8578603139858
 30
0.0
  0
VERTEX
  5
7A7
  8
SJC
 10
7289.5298223401296
 20
4396.5440316314853
 30
0.0
  0
VERTEX
  5
7A8
  8
SJC
 10
7290.1020495338298
 20
4396.2252459350848
 30
0.0
  0
VERTEX
  5
7A9
  8
SJC
 10
7290.6799044467298
 20
4395.9021228513848
 30
0.0
  0
VERTEX
  5
7AA
  8
SJC
 10
7291.2625831187288
 20
4395.5752820071848
 30
0.0
  0
VERTEX
  5
7AB
  8
SJC
 10
7291.849281590029
 20
4395.2453430291862
 30
0.0
  0
VERTEX
  5
7AC
  8
SJC
 10
7292.439195900829
 20
4394.9129255442858
 30
0.0
  0
VERTEX
  5
7AD
  8
SJC
 10
7293.0315220911298
 20
4394.5786491790859
 30
0.0
  0
VERTEX
  5
7AE
  8
SJC
 10
7294.220194271229
 20
4393.9069983149848
 30
0.0
  0
SEQEND
  5
7AF
  8
SJC
  0
POLYLINE
  5
7B0
  8
SJC
 66
     1
 10
0.0
 20
0.0
 30
0.0
 70
     2
  0
VERTEX
  5
7B1
  8
SJC
 10
7263.5958039383277
 20
4392.8701635749849
 30
0.0
  0
VERTEX
  5
7B2
  8
SJC
 10
7263.5958039383277
 20
4392.8701635749849
 30
0.0
  0
VERTEX
  5
7B3
  8
SJC
 10
7264.3804584626287
 20
4392.3346737974853
 30
0.0
  0
VERTEX
  5
7B4
  8
SJC
 10
7265.1666844708288
 20
4391.8035815778849
 30
0.0
  0
VERTEX
  5
7B5
  8
SJC
 10
7265.9560656472286
 20
4391.2812940609847
 30
0.0
  0
VERTEX
  5
7B6
  8
SJC
 10
7266.75018567603
 20
4390.7722183915848
 30
0.0
  0
VERTEX
  5
7B7
  8
SJC
 10
7267.550628241529
 20
4390.2807617144854
 30
0.0
  0
VERTEX
  5
7B8
  8
SJC
 10
7268.3589770278304
 20
4389.8113311742864
 30
0.0
  0
VERTEX
  5
7B9
  8
SJC
 10
7269.1768157193283
 20
4389.3683339158861
 30
0.0
  0
VERTEX
  5
7BA
  8
SJC
 10
7270.0057280001283
 20
4388.9561770839846
 30
0.0
  0
VERTEX
  5
7BB
  8
SJC
 10
7270.8472975545292
 20
4388.5792678233847
 30
0.0
  0
VERTEX
  5
7BC
  8
SJC
 10
7271.7031080668294
 20
4388.2420132787856
 30
0.0
  0
VERTEX
  5
7BD
  8
SJC
 10
7272.5747432212293
 20
4387.9488205949847
 30
0.0
  0
VERTEX
  5
7BE
  8
SJC
 10
7273.4637867019283
 20
4387.7040969167847
 30
0.0
  0
VERTEX
  5
7BF
  8
SJC
 10
7274.3718221932277
 20
4387.5122493888857
 30
0.0
  0
VERTEX
  5
7C0
  8
SJC
 10
7275.3004333793278
 20
4387.377685155986
 30
0.0
  0
VERTEX
  5
7C1
  8
SJC
 10
7277.2257175730301
 20
4387.2980351545848
 30
0.0
  0
VERTEX
  5
7C2
  8
SJC
 10
7277.2257175730301
 20
4387.2980351545848
 30
0.0
  0
VERTEX
  5
7C3
  8
SJC
 10
7277.2257175730301
 20
4387.2980351545848
 30
0.0
  0
VERTEX
  5
7C4
  8
SJC
 10
7278.2247993242308
 20
4387.3603332828861
 30
0.0
  0
VERTEX
  5
7C5
  8
SJC
 10
7279.2462275114276
 20
4387.4889513141852
 30
0.0
  0
VERTEX
  5
7C6
  8
SJC
 10
7280.2870156994277
 20
4387.6796996140847
 30
0.0
  0
VERTEX
  5
7C7
  8
SJC
 10
7281.3441774532266
 20
4387.9283885481846
 30
0.0
  0
VERTEX
  5
7C8
  8
SJC
 10
7282.41472633783
 20
4388.2308284820847
 30
0.0
  0
VERTEX
  5
7C9
  8
SJC
 10
7283.4956759181277
 20
4388.582829781386
 30
0.0
  0
VERTEX
  5
7CA
  8
SJC
 10
7284.5840397590309
 20
4388.9802028118847
 30
0.0
  0
VERTEX
  5
7CB
  8
SJC
 10
7285.6768314255287
 20
4389.4187579390846
 30
0.0
  0
VERTEX
  5
7CC
  8
SJC
 10
7286.7710644825293
 20
4389.8943055286854
 30
0.0
  0
VERTEX
  5
7CD
  8
SJC
 10
7287.8637524950291
 20
4390.4026559461854
 30
0.0
  0
VERTEX
  5
7CE
  8
SJC
 10
7288.9519090279309
 20
4390.9396195573863
 30
0.0
  0
VERTEX
  5
7CF
  8
SJC
 10
7290.0325476461294
 20
4391.5010067278854
 30
0.0
  0
VERTEX
  5
7D0
  8
SJC
 10
7291.1026819146291
 20
4392.0826278231843
 30
0.0
  0
VERTEX
  5
7D1
  8
SJC
 10
7292.1593253983292
 20
4392.680293209085
 30
0.0
  0
VERTEX
  5
7D2
  8
SJC
 10
7294.220194271229
 20
4393.9069983149848
 30
0.0
  0
VERTEX
  5
7D3
  8
SJC
 10
7294.220194271229
 20
4393.9069983149848
 30
0.0
  0
VERTEX
  5
7D4
  8
SJC
 10
7294.220194271229
 20
4393.9069983149848
 30
0.0
  0
VERTEX
  5
7D5
  8
SJC
 10
7295.2192723750304
 20
4394.5274405125847
 30
0.0
  0
VERTEX
  5
7D6
  8
SJC
 10
7296.1978735623288
 20
4395.1458637843853
 30
0.0
  0
VERTEX
  5
7D7
  8
SJC
 10
7297.1579740569277
 20
4395.756776238386
 30
0.0
  0
VERTEX
  5
7D8
  8
SJC
 10
7298.1015500823278
 20
4396.3546859829858
 30
0.0
  0
VERTEX
  5
7D9
  8
SJC
 10
7299.0305778621287
 20
4396.9341011261849
 30
0.0
  0
VERTEX
  5
7DA
  8
SJC
 10
7299.9470336200284
 20
4397.489529776185
 30
0.0
  0
VERTEX
  5
7DB
  8
SJC
 10
7300.8528935795284
 20
4398.0154800410864
 30
0.0
  0
VERTEX
  5
7DC
  8
SJC
 10
7301.7501339644286
 20
4398.5064600290862
 30
0.0
  0
VERTEX
  5
7DD
  8
SJC
 10
7302.6407309981287
 20
4398.9569778484847
 30
0.0
  0
VERTEX
  5
7DE
  8
SJC
 10
7303.5266609044284
 20
4399.3615416071862
 30
0.0
  0
VERTEX
  5
7DF
  8
SJC
 10
7304.4098999069292
 20
4399.7146594135847
 30
0.0
  0
VERTEX
  5
7E0
  8
SJC
 10
7305.2924242291292
 20
4400.0108393756846
 30
0.0
  0
VERTEX
  5
7E1
  8
SJC
 10
7306.176210094729
 20
4400.2445896017853
 30
0.0
  0
VERTEX
  5
7E2
  8
SJC
 10
7307.0632337274292
 20
4400.4104181998846
 30
0.0
  0
VERTEX
  5
7E3
  8
SJC
 10
7308.854899188229
 20
4400.5163429450859
 30
0.0
  0
VERTEX
  5
7E4
  8
SJC
 10
7308.854899188229
 20
4400.5163429450859
 30
0.0
  0
VERTEX
  5
7E5
  8
SJC
 10
7308.854899188229
 20
4400.5163429450859
 30
0.0
  0
VERTEX
  5
7E6
  8
SJC
 10
7309.7630693673291
 20
4400.4472503494853
 30
0.0
  0
VERTEX
  5
7E7
  8
SJC
 10
7310.67983453343
 20
4400.2990364063853
 30
0.0
  0
VERTEX
  5
7E8
  8
SJC
 10
7311.6046216875293
 20
4400.0769758726847
 30
0.0
  0
VERTEX
  5
7E9
  8
SJC
 10
7312.5368578304297
 20
4399.7863435052859
 30
0.0
  0
VERTEX
  5
7EA
  8
SJC
 10
7313.4759699629294
 20
4399.4324140610861
 30
0.0
  0
VERTEX
  5
7EB
  8
SJC
 10
7314.4213850859278
 20
4399.0204622969859
 30
0.0
  0
VERTEX
  5
7EC
  8
SJC
 10
7315.3725302003286
 20
4398.555762969886
 30
0.0
  0
VERTEX
  5
7ED
  8
SJC
 10
7316.3288323069291
 20
4398.0435908365862
 30
0.0
  0
VERTEX
  5
7EE
  8
SJC
 10
7317.2897184066296
 20
4397.4892206539853
 30
0.0
  0
VERTEX
  5
7EF
  8
SJC
 10
7318.2546155003292
 20
4396.8979271789858
 30
0.0
  0
VERTEX
  5
7F0
  8
SJC
 10
7319.222950588829
 20
4396.2749851685849
 30
0.0
  0
VERTEX
  5
7F1
  8
SJC
 10
7320.1941506730309
 20
4395.6256693795858
 30
0.0
  0
VERTEX
  5
7F2
  8
SJC
 10
7321.1676427538287
 20
4394.9552545687848
 30
0.0
  0
VERTEX
  5
7F3
  8
SJC
 10
7322.1428538319287
 20
4394.2690154931852
 30
0.0
  0
VERTEX
  5
7F4
  8
SJC
 10
7324.0961409839301
 20
4392.8701635749849
 30
0.0
  0
SEQEND
  5
7F5
  8
SJC
  0
LINE
  5
806
  8
SJC
 10
7263.5958039383277
 20
5789.5285861212124
 30
0.0
 11
7263.5958039383277
 21
4462.2301352180848
 31
0.0
  0
LINE
  5
807
  8
SJC
 10
7324.0961409839301
 20
5789.5285861212124
 30
0.0
 11
7324.0961409839301
 21
4462.2301352180848
 31
0.0
  0
LINE
  5
808
  8
CENTER
 10
7293.8455909914283
 20
5831.8839154764837
 30
0.0
 11
7293.8455909914301
 21
4076.686316769385
 31
0.0
  0
TEXT
  5
826
  8
MOJI2
 10
4110.0341205266941
 20
3228.1116393175562
 30
0.0
 40
75.0
  1
A-A断面
 41
0.8
  7
EXT08
  0
TEXT
  5
827
  8
MOJI2
 10
5286.1309132482002
 20
3220.3866049848912
 30
0.0
 40
75.0
  1
B-B断面
 41
0.8
  7
EXT08
  0
TEXT
  5
828
  8
MOJI2
 10
4547.1879280276326
 20
3469.0803489273549
 30
0.0
 40
100.0
  1
取付部詳細図 (1/5)
 41
0.8
  7
EXT08
  0
TEXT
  5
829
  8
MOJI2
 10
1202.9654591354611
 20
3663.1657227826049
 30
0.0
 40
100.0
  1
支柱図 (1/15)
 41
0.8
  7
EXT08
  0
TEXT
  5
82A
  8
MOJI2
 10
459.06181336413459
 20
6464.7062637132249
 30
0.0
 40
100.0
  1
設置図 (1/25)
 41
0.8
  7
EXT08
  0
LINE
  5
82E
  8
SJC
 10
8422.9939279724858
 20
5789.5285861212114
 30
0.0
 11
8422.9939279724858
 21
4710.5286179631858
 31
0.0
  0
LINE
  5
82F
  8
SJC
 10
8483.4942650181856
 20
5789.5285861212114
 30
0.0
 11
8483.4942650181856
 21
4710.5286179631858
 31
0.0
  0
LINE
  5
833
  8
CENTER
 10
8453.2437150255882
 20
5831.8839154764846
 30
0.0
 11
8453.2437150255846
 21
4668.1963263451853
 31
0.0
  0
LINE
  5
834
  8
SJC
 10
703.22743582877592
 20
4851.5287736802857
 30
0.0
 11
2583.2274239078761
 21
4851.5287736802857
 31
0.0
  0
LINE
  5
835
  8
SJC
 10
2703.227121414277
 20
4894.2289699472858
 30
0.0
 11
2703.227121414277
 21
4851.5287736802857
 31
0.0
  0
LINE
  5
836
  8
SJC
 10
2707.2272130563761
 20
4894.2289699472858
 30
0.0
 11
2707.2272130563761
 21
4851.5287736802857
 31
0.0
  0
LINE
  5
837
  8
SJC
 10
2583.2274239078761
 20
4894.2289699472858
 30
0.0
 11
2583.2274239078761
 21
4851.5287736802857
 31
0.0
  0
LINE
  5
838
  8
SJC
 10
703.22743582877592
 20
4894.2289699472858
 30
0.0
 11
703.22743582877592
 21
4851.5287736802857
 31
0.0
  0
LINE
  5
839
  8
SJC
 10
703.22743582877592
 20
4894.2289699472858
 30
0.0
 11
2583.2274239078761
 21
4894.2289699472858
 31
0.0
  0
LINE
  5
83A
  8
SJC
 10
2579.227332265677
 20
4894.2289699472858
 30
0.0
 11
2579.227332265677
 21
4851.5287736802857
 31
0.0
  0
LINE
  5
83B
  8
SJC
 10
707.22752747087725
 20
4894.2289699472858
 30
0.0
 11
707.22752747087725
 21
4851.5287736802857
 31
0.0
  0
LINE
  5
83C
  8
SJC
 10
2731.2277629092769
 20
5758.8293615869861
 30
0.0
 11
2731.2277629092769
 21
4894.2289699472858
 31
0.0
  0
LINE
  5
83D
  8
SJC
 10
2765.2273974582758
 20
5758.8293615869861
 30
0.0
 11
2765.2273974582758
 21
4894.2289699472858
 31
0.0
  0
LINE
  5
842
  8
SJC
 10
731.22750511917536
 20
5758.8293615869861
 30
0.0
 11
731.22750511917536
 21
4894.2289699472858
 31
0.0
  0
LINE
  5
843
  8
SJC
 10
765.22752113797651
 20
5758.8293615869861
 30
0.0
 11
765.22752113797651
 21
4894.2289699472858
 31
0.0
  0
LINE
  5
844
  8
SJC
 10
2555.2267824128762
 20
5758.8293615869861
 30
0.0
 11
2555.2267824128762
 21
4894.2289699472858
 31
0.0
  0
LINE
  5
845
  8
SJC
 10
2521.2271478638759
 20
5758.8293615869861
 30
0.0
 11
2521.2271478638759
 21
4894.2289699472858
 31
0.0
  0
LINE
  5
86A
  8
SJC
 10
2703.227121414277
 20
4851.5287736802857
 30
0.0
 11
4330.0175327351899
 21
4851.5287736802857
 31
0.0
  0
LINE
  5
86C
  8
SJC
 10
2703.227121414277
 20
4894.2289699472858
 30
0.0
 11
4330.0175327351899
 21
4894.2289699472858
 31
0.0
  0
TEXT
  5
875
  8
MOJI
 10
4901.8855677794354
 20
6113.3852188356104
 30
0.0
 40
87.5
  1
T-40AP111C20
 41
0.8
  7
EXT08
  0
TEXT
  5
876
  8
MOJI
 10
5956.5667272977862
 20
6117.4852555483103
 30
0.0
 40
87.5
  1
T-40AP111W20
 41
0.8
  7
EXT08
  0
TEXT
  5
877
  8
MOJI
 10
6923.0541106194623
 20
6115.0255386965091
 30
0.0
 40
87.5
  1
T-40AP111E20
 41
0.8
  7
EXT08
  0
TEXT
  5
878
  8
MOJI
 10
8013.6905634363384
 20
6115.0255386965091
 30
0.0
 40
87.5
  1
T-40AP111PL20
 41
0.8
  7
EXT08
  0
LINE
  5
87A
  8
SJC2
 10
5237.4347655377696
 20
5761.7573414445524
 30
0.0
 11
5237.4347655377696
 21
4891.2662264617302
 31
0.0
  0
LINE
  5
87B
  8
SJC2
 10
5259.134289948669
 20
5761.8254690939011
 30
0.0
 11
5259.134289948669
 21
4891.2662264616711
 31
0.0
  0
LINE
  5
87D
  8
SJC2
 10
6263.9775035540661
 20
5762.0234687530528
 30
0.0
 11
6263.9775035540642
 21
4891.2662264617302
 31
0.0
  0
LINE
  5
87E
  8
SJC2
 10
6285.6770279648663
 20
5761.4885451325472
 30
0.0
 11
6285.6770279648654
 21
4891.2662264617302
 31
0.0
  0
LINE
  5
880
  8
SJC2
 10
7282.9958287860291
 20
5761.828439306887
 30
0.0
 11
7282.9958287860272
 21
4891.2662264617302
 31
0.0
  0
LINE
  5
881
  8
SJC2
 10
7304.6961161362306
 20
5761.7548408242492
 30
0.0
 11
7304.6961161362306
 21
4891.2657762622903
 31
0.0
  0
LINE
  5
883
  8
SJC2
 10
8442.3939528201881
 20
5761.7544066546161
 30
0.0
 11
8442.3939528201881
 21
4890.5814839518753
 31
0.0
  0
LINE
  5
884
  8
SJC2
 10
8464.0942401704851
 20
5761.8288803939022
 30
0.0
 11
8464.0942401704851
 21
4890.3186741584987
 31
0.0
  0
TEXT
  5
886
  8
MOJI
 10
3368.8394767410632
 20
5947.7276627899137
 30
0.0
 40
75.0
  1
%%c21.7×t1.9
 41
0.8
  7
EXT08
  0
DIMENSION
  5
9DE
  8
SUNPOU
  2
*D2
 10
4692.9758544302613
 20
4701.5287703275853
 30
0.0
 11
4625.4758544302604
 21
5251.528782621036
 31
0.0
 70
     0
 13
4330.0175327351899
 23
5801.5287949144858
 33
0.0
 14
4331.281717290788
 24
4701.5287703275853
 34
0.0
 50
90.0
1001
ACAD
1000
DSTYLE
1002
{
1070
   287
1070
     5
1070
   287
1070
     5
1070
   287
1070
     5
1070
    40
1040
25.0
1070
    41
1040
2.0
1070
    42
1040
1.0
1070
    43
1040
6.0
1070
    44
1040
1.0
1070
    73
1070
     0
1070
    74
1070
     0
1070
    77
1070
     1
1070
    78
1070
     8
1070
   140
1040
3.0
1070
   147
1040
1.1999999999999991
1070
   172
1070
     1
1070
   176
1070
   256
1070
   177
1070
   256
1070
   178
1070
   256
1070
   271
1070
     2
1070
   279
1070
     2
1070
   287
1070
     5
1070
   340
1005
BA4
1002
}
  0
DIMENSION
  5
9DF
  8
SUNPOU
  2
*D3
 10
4515.7476534573798
 20
4851.5287736802857
 30
0.0
 11
4448.2476534573798
 21
5326.5287842973867
 31
0.0
 70
     0
 13
4330.0175327351899
 23
5801.5287949144858
 33
0.0
 14
4330.0175327351899
 24
4851.5287736802857
 34
0.0
 50
90.0
1001
ACAD
1000
DSTYLE
1002
{
1070
   287
1070
     5
1070
   287
1070
     5
1070
   287
1070
     5
1070
    40
1040
25.0
1070
    41
1040
2.0
1070
    42
1040
1.0
1070
    43
1040
6.0
1070
    44
1040
1.0
1070
    73
1070
     0
1070
    74
1070
     0
1070
    77
1070
     1
1070
    78
1070
     8
1070
   140
1040
3.0
1070
   147
1040
1.1999999999999991
1070
   172
1070
     1
1070
   176
1070
   256
1070
   177
1070
   256
1070
   178
1070
   256
1070
   271
1070
     2
1070
   279
1070
     2
1070
   287
1070
     5
1070
   340
1005
BA4
1002
}
  0
DIMENSION
  5
9E0
  8
SUNPOU
  2
*D4
 10
4515.7476534573798
 20
4701.5287703275853
 30
0.0
 11
4441.1694520894052
 21
4754.6404428398164
 31
0.0
 70
   128
 13
4330.0175327351899
 23
4851.5287736802857
 33
0.0
 14
4331.281717290788
 24
4701.5287703275853
 34
0.0
 50
90.0
1001
ACAD_DSTYLE_DIMTEXT_FILL
1070
   376
1070
     1
1001
ACAD
1000
DSTYLE
1002
{
1070
   287
1070
     5
1070
   287
1070
     5
1070
   287
1070
     5
1070
    40
1040
25.0
1070
    41
1040
2.0
1070
    42
1040
1.0
1070
    43
1040
6.0
1070
    44
1040
1.0
1070
    73
1070
     0
1070
    74
1070
     0
1070
    77
1070
     1
1070
    78
1070
     8
1070
   140
1040
3.0
1070
   147
1040
1.1999999999999991
1070
   172
1070
     1
1070
   176
1070
   256
1070
   177
1070
   256
1070
   178
1070
   256
1070
   271
1070
     2
1070
   279
1070
     2
1070
   287
1070
     5
1070
   340
1005
BA4
1002
}
  0
DIMENSION
  5
9E6
  8
SUNPOU
  2
*D1
 10
2643.2272726610759
 20
6309.8216143706459
 30
0.0
 11
1643.2273345008771
 21
6377.3216143706468
 31
0.0
 70
     0
 13
643.22739634067693
 23
5817.5291614830858
 33
0.0
 14
2643.2272726610759
 24
5817.5291614830858
 34
0.0
1001
ACAD
1000
DSTYLE
1002
{
1070
   287
1070
     5
1070
   287
1070
     5
1070
   287
1070
     5
1070
    40
1040
25.0
1070
    41
1040
2.0
1070
    42
1040
1.0
1070
    43
1040
6.0
1070
    44
1040
1.0
1070
    73
1070
     0
1070
    74
1070
     0
1070
    77
1070
     1
1070
    78
1070
     8
1070
   140
1040
3.0
1070
   147
1040
1.1999999999999991
1070
   172
1070
     1
1070
   176
1070
   256
1070
   177
1070
   256
1070
   178
1070
   256
1070
   271
1070
     2
1070
   279
1070
     2
1070
   287
1070
     5
1070
   340
1005
BA4
1002
}
  0
DIMENSION
  5
9EA
  8
SUNPOU
  2
*D5
 10
5569.87940759497
 20
4701.5287703275853
 30
0.0
 11
5502.3794075949691
 21
5251.528782621036
 31
0.0
 70
     0
 13
5273.2845277431697
 23
5801.5287949144858
 33
0.0
 14
5476.0149088517428
 24
4701.5287703275853
 34
0.0
 50
90.0
1001
ACAD
1000
DSTYLE
1002
{
1070
   287
1070
     5
1070
   287
1070
     5
1070
   287
1070
     5
1070
    40
1040
25.0
1070
    41
1040
2.0
1070
    42
1040
1.0
1070
    43
1040
6.0
1070
    44
1040
1.0
1070
    73
1070
     0
1070
    74
1070
     0
1070
    77
1070
     1
1070
    78
1070
     8
1070
   140
1040
3.0
1070
   147
1040
1.1999999999999991
1070
   172
1070
     1
1070
   176
1070
   256
1070
   177
1070
   256
1070
   178
1070
   256
1070
   271
1070
     2
1070
   279
1070
     2
1070
   287
1070
     5
1070
   340
1005
BA4
1002
}
  0
DIMENSION
  5
9EB
  8
SUNPOU
  2
*D7
 10
5741.7811236793723
 20
4251.5287602692861
 30
0.0
 11
5674.2811236793714
 21
4476.5287652984371
 31
0.0
 70
     0
 13
5476.0149088517428
 23
4701.5287703275853
 33
0.0
 14
5398.2845310959701
 24
4251.5287602692861
 34
0.0
 50
90.0
1001
ACAD
1000
DSTYLE
1002
{
1070
   287
1070
     5
1070
   287
1070
     5
1070
   287
1070
     5
1070
    40
1040
25.0
1070
    41
1040
2.0
1070
    42
1040
1.0
1070
    43
1040
6.0
1070
    44
1040
1.0
1070
    73
1070
     0
1070
    74
1070
     0
1070
    77
1070
     1
1070
    78
1070
     8
1070
   140
1040
3.0
1070
   147
1040
1.1999999999999991
1070
   172
1070
     1
1070
   176
1070
   256
1070
   177
1070
   256
1070
   178
1070
   256
1070
   271
1070
     2
1070
   279
1070
     2
1070
   287
1070
     5
1070
   340
1005
BA4
1002
}
  0
LINE
  5
A1C
  8
MOJI
 10
1470.656964700682
 20
5917.9482709856038
 30
0.0
 11
2033.336667238902
 21
5917.9482709856038
 31
0.0
  0
LINE
  5
A22
  8
MOJI
 10
3348.7180939880941
 20
5917.5787788921352
 30
0.0
 11
3885.8697695029841
 21
5917.5787788921352
 31
0.0
  0
DIMENSION
  5
A3A
  8
SUNPOU
  2
*D6
 10
5900.8764046452197
 20
4251.5287602692861
 30
0.0
 11
5833.3764046452188
 21
5032.0286731952492
 31
0.0
 70
     0
 13
5248.2845277431697
 23
5812.5285861212114
 33
0.0
 14
5448.2845310959692
 24
4251.5287602692861
 34
0.0
 50
90.0
1001
ACAD
1000
DSTYLE
1002
{
1070
   287
1070
     5
1070
   287
1070
     5
1070
   287
1070
     5
1070
    40
1040
25.0
1070
    41
1040
2.0
1070
    42
1040
1.0
1070
    43
1040
6.0
1070
    44
1040
1.0
1070
    73
1070
     0
1070
    74
1070
     0
1070
    77
1070
     1
1070
    78
1070
     8
1070
   140
1040
3.0
1070
   147
1040
1.1999999999999991
1070
   172
1070
     1
1070
   176
1070
   256
1070
   177
1070
   256
1070
   178
1070
   256
1070
   271
1070
     2
1070
   279
1070
     2
1070
   287
1070
     5
1070
   340
1005
BA4
1002
}
  0
DIMENSION
  5
A3E
  8
SUNPOU
  2
*D8
 10
8682.4223882156093
 20
4701.5287703275853
 30
0.0
 11
8682.4223882156075
 21
4877.6716274704431
 31
0.0
 70
   128
  1
t9
 13
8528.2437150255864
 23
4710.5287703275853
 33
0.0
 14
8635.1380166465406
 24
4701.5287703275853
 34
0.0
 50
90.0
1001
ACAD
1000
DSTYLE
1002
{
1070
    40
1040
25.0
1070
    41
1040
2.0
1070
    42
1040
1.0
1070
    43
1040
6.0
1070
    44
1040
1.0
1070
    73
1070
     0
1070
    74
1070
     0
1070
    77
1070
     1
1070
    78
1070
     8
1070
   140
1040
3.0
1070
   147
1040
1.1999999999999991
1070
   172
1070
     1
1070
   176
1070
   256
1070
   177
1070
   256
1070
   178
1070
   256
1070
   271
1070
     2
1070
   340
1005
BA4
1002
}
  0
LINE
  5
AE1
  8
MOJI
 10
1470.656964700682
 20
5917.9482709856038
 30
0.0
 11
1494.6763642387209
 21
5917.9482709856038
 31
0.0
  0
CIRCLE
  5
AF1
  8
SJC2
 10
5248.2267988851318
 20
5780.1787821599992
 30
0.0
 40
21.349882009118559
  0
CIRCLE
  5
AF3
  8
SJC2
 10
5248.2845277431697
 20
4872.8785903959852
 30
0.0
 40
21.349999999999909
  0
CIRCLE
  5
AF5
  8
SJC2
 10
6274.8272657594671
 20
5779.9392771522043
 30
0.0
 40
21.58930896900733
  0
CIRCLE
  5
AF8
  8
SJC2
 10
6274.8272657594662
 20
4872.8785903959852
 30
0.0
 40
21.349999999999909
  0
CIRCLE
  5
AFA
  8
SJC2
 10
7293.8455909914283
 20
5780.178746625983
 30
0.0
 40
21.349860622006801
  0
CIRCLE
  5
AFC
  8
SJC2
 10
7293.8455909914301
 20
4872.8785903959852
 30
0.0
 40
21.349999999999909
  0
CIRCLE
  5
AFE
  8
SJC2
 10
8453.0267281454016
 20
4872.5019059910719
 30
0.0
 40
20.974438022441522
  0
CIRCLE
  5
B00
  8
SJC2
 10
8453.2437150255882
 20
5780.1787467833901
 30
0.0
 40
21.349860716746502
  0
DIMENSION
  5
FF1
  8
SUNPOU
  2
*D9
 10
5098.2845243904703
 20
4062.0434745618072
 30
0.0
 11
5248.2845277432189
 21
4130.0210046512248
 31
0.0
 70
   128
  1
□<>
 13
5398.2845310959701
 23
4251.5287602692861
 33
0.0
 14
5098.2845243904703
 24
4251.5287602692861
 34
0.0
1001
ACAD
1000
DSTYLE
1002
{
1070
   287
1070
     5
1070
   287
1070
     5
1070
   287
1070
     5
1070
    40
1040
25.0
1070
    41
1040
2.0
1070
    42
1040
1.0
1070
    43
1040
6.0
1070
    44
1040
1.0
1070
    45
1040
0.1
1070
    73
1070
     0
1070
    74
1070
     0
1070
    77
1070
     1
1070
    78
1070
     8
1070
   140
1040
3.0
1070
   147
1040
1.1999999999999991
1070
   172
1070
     1
1070
   176
1070
   256
1070
   177
1070
   256
1070
   178
1070
   256
1070
   271
1070
     2
1070
   279
1070
     2
1070
   287
1070
     5
1070
   340
1005
BA4
1002
}
  0
LINE
  5
1020
  8
MOJI2
 10
449.84650906143179
 20
6422.1223145979584
 30
0.0
 11
727.34604455639783
 21
6422.1223145979584
 31
0.0
  0
LINE
  5
1022
  8
MOJI2
 10
4529.4176209351572
 20
3418.0961564519548
 30
0.0
 11
5116.0536972842483
 21
3418.0961564519548
 31
0.0
  0
TEXT
  5
109D
  8
MOJI
 10
4918.4431944857106
 20
4719.4036791743847
 30
0.0
 40
75.0
  1
GL
 41
0.8
  7
EXT08
  0
TEXT
  5
109E
  8
MOJI
 10
6072.4799361844543
 20
4719.4036791743847
 30
0.0
 40
75.0
  1
GL
 41
0.8
  7
EXT08
  0
TEXT
  5
11C5
  8
MOJI
 10
7065.9585661934534
 20
4719.4036791743847
 30
0.0
 40
75.0
  1
GL
 41
0.8
  7
EXT08
  0
TEXT
  5
11C6
  8
MOJI
 10
8213.7055370294238
 20
4719.4036791743847
 30
0.0
 40
75.0
  1
GL
 41
0.8
  7
EXT08
  0
LINE
  5
1240
  8
SJC
 10
8204.4571179744962
 20
4701.5287703275853
 30
0.0
 11
8635.1380166465406
 21
4701.5287703275853
 31
0.0
  0
TEXT
  5
1616
  8
MOJI
 10
1733.1665041516901
 20
4510.3575606843924
 30
0.0
 40
75.0
  1
%%c34.0×t2.3
 41
0.8
  7
EXT08
  0
LINE
  5
1617
  8
MOJI
 10
2273.7436128102472
 20
4486.329337565654
 30
0.0
 11
1731.217446586634
 21
4486.329337565654
 31
0.0
  0
LINE
  5
1946
  8
MOJI2
 10
1191.9498761621089
 20
3616.6721920287041
 30
0.0
 11
1470.5423219128661
 21
3616.6721920287041
 31
0.0
  0
LINE
  5
1DEA
  8
SJC2
 10
4330.0175327351899
 20
5880.5035792633525
 30
0.0
 11
4330.0175327351899
 21
5315.3569381543057
 31
0.0
  0
LINE
  5
1DEB
  8
SJC2
 10
4304.5684525658089
 20
5315.3569381543057
 30
0.0
 11
4330.0175327351899
 21
5315.3569381543057
 31
0.0
  0
LINE
  5
1DEC
  8
SJC2
 10
4304.5684525658089
 20
5315.3569381543057
 30
0.0
 11
4355.4666129045727
 21
5222.1700433439182
 31
0.0
  0
LINE
  5
1DED
  8
SJC2
 10
4330.017532735189
 20
5222.1700433439182
 30
0.0
 11
4330.0175327351899
 21
4656.8515292723723
 31
0.0
  0
LINE
  5
1DEE
  8
SJC2
 10
4330.0175327351899
 20
5222.1700433439182
 30
0.0
 11
4355.4666129045727
 21
5222.1700433439182
 31
0.0
  0
TEXT
  5
3A2B
  8
MOJI2
 10
7270.9506312134981
 20
3532.3992364296282
 30
0.0
 40
100.0
  1
ベースプレート詳細図 (1/10)
 41
0.8
  7
EXT08
  0
LINE
  5
3A2C
  8
MOJI2
 10
7261.1933848650551
 20
3482.3992364296282
 30
0.0
 11
8206.7923324944386
 21
3482.3992364296282
 31
0.0
  0
LINE
  5
3A2D
  8
MOJI2
 10
7261.1933848650551
 20
3507.3992364296282
 30
0.0
 11
8206.7923324944386
 21
3507.3992364296282
 31
0.0
  0
TEXT
  5
3C80
  8
MOJI
 10
8269.4359332916647
 20
4334.9735536570961
 30
0.0
 40
75.0
  1
取付ボルトM12×30
 50
359.99972432623952
 41
0.8
  7
EXT08
  0
TEXT
  5
3C81
  8
MOJI
 10
8094.5336165304834
 20
4094.2624365700658
 30
0.0
 40
75.0
  1
(ドリル径%%c18,深さ55mm)
 50
359.99972432623952
 41
0.8
  7
EXT08
  0
LINE
  5
3C82
  8
MOJI
 10
8997.2633223974844
 20
4302.8818560611999
 30
0.0
 11
8019.0991532774069
 21
4302.886071443434
 31
0.0
  0
INSERT
  5
3C84
  8
0
  2
*U80
 10
0.0
 20
0.0
 30
0.0
1001
ACAD
1000
DSTYLE
1002
{
1070
     5
1000

1070
    40
1040
20.0
1070
    41
1040
2.0
1070
    42
1040
1.0
1070
    43
1040
6.0
1070
    44
1040
1.0
1070
    73
1070
     0
1070
    74
1070
     0
1070
    77
1070
     0
1070
    78
1070
     8
1070
   140
1040
3.0
1070
   147
1040
1.1999999999999991
1070
   172
1070
     1
1070
   271
1070
     2
1070
   279
1070
     2
1070
   340
1005
BA4
1070
   342
1005
0
1002
}
  0
DIMENSION
  5
3C85
  8
SUNPOU
  2
*D13
 10
8528.2437150255864
 20
4486.0552515108402
 30
0.0
 11
8406.5178881441243
 21
4550.0081846952662
 31
0.0
 70
   128
  1
□<>
 13
8378.2437150255864
 23
4701.5287703275853
 33
0.0
 14
8528.2437150255864
 24
4701.5287703275853
 34
0.0
1001
ACAD
1000
DSTYLE
1002
{
1070
   287
1070
     5
1070
   287
1070
     5
1070
   287
1070
     5
1070
    40
1040
25.0
1070
    41
1040
2.0
1070
    42
1040
1.0
1070
    43
1040
6.0
1070
    44
1040
1.0
1070
    73
1070
     0
1070
    74
1070
     0
1070
    77
1070
     1
1070
    78
1070
     8
1070
   140
1040
3.0
1070
   147
1040
1.1999999999999991
1070
   172
1070
     1
1070
   271
1070
     2
1070
   279
1070
     2
1070
   287
1070
     5
1070
   340
1005
BA4
1002
}
  0
TEXT
  5
3C89
  8
MOJI
 10
8151.429853319788
 20
4204.8294085423913
 30
0.0
 40
75.0
  1
ナットアンカー M12
 50
359.99972432623952
 41
0.8
  7
EXT08
  0
LINE
  5
3C8A
  8
CENTER
 10
8503.2430594579491
 20
4740.3856098003407
 30
0.0
 11
8503.2430594579491
 21
4671.3856098003407
 31
0.0
  0
LINE
  5
3C8B
  8
CENTER
 10
8403.2430594579491
 20
4671.5287703275853
 30
0.0
 11
8403.2430594579491
 21
4740.5287703275853
 31
0.0
  0
LINE
  5
3C8C
  8
SJC
 10
8378.2437150255864
 20
4710.5287703275853
 30
0.0
 11
8528.2437150255864
 21
4710.5287703275853
 31
0.0
  0
LINE
  5
3C8D
  8
SJC
 10
8378.2437150255864
 20
4701.5287703275853
 30
0.0
 11
8528.2437150255864
 21
4701.5287703275853
 31
0.0
  0
LINE
  5
3C8E
  8
SJC
 10
8378.2437150255864
 20
4710.5287703275853
 30
0.0
 11
8378.2437150255864
 21
4701.5287703275853
 31
0.0
  0
LINE
  5
3C8F
  8
SJC
 10
8528.2437150255864
 20
4701.5287703275853
 30
0.0
 11
8528.2437150255864
 21
4710.5287703275853
 31
0.0
  0
INSERT
  5
59C9
  8
ZWAKU
  2
CALCOMP_TECHJET720A3
 10
0.0
 20
0.0
 30
0.0
 41
25.0
 42
25.0
 43
25.0
  0
DIMENSION
  5
6A71
  8
SUNPOU
  2
*D15
 10
4330.017532735189
 20
6309.8216143706459
 30
0.0
 11
3511.6224026981331
 21
6377.3216143706468
 31
0.0
 70
     0
  1
2000
 13
2643.2272726610759
 23
5817.5291614830858
 33
0.0
 14
4330.017532735189
 24
5802.0347698438363
 34
0.0
1001
ACAD
1000
DSTYLE
1002
{
1070
   287
1070
     5
1070
   287
1070
     5
1070
   287
1070
     5
1070
    40
1040
25.0
1070
    41
1040
2.0
1070
    42
1040
1.0
1070
    43
1040
6.0
1070
    44
1040
1.0
1070
    73
1070
     0
1070
    74
1070
     0
1070
    76
1070
     1
1070
    77
1070
     1
1070
    78
1070
     8
1070
   140
1040
3.0
1070
   147
1040
1.1999999999999991
1070
   172
1070
     1
1070
   173
1070
     1
1070
   271
1070
     2
1070
   279
1070
     2
1070
   287
1070
     5
1070
   340
1005
BA4
1070
     6
1000

1070
     7
1000
NONE
1002
}
  0
DIMENSION
  5
6B84
  8
SUNPOU
  2
*D16
 10
6034.9947684544022
 20
1111.3517735836151
 30
0.0
 11
5967.4947684544022
 21
1300.8448214507439
 31
0.0
 70
     0
  1
500
 13
5369.4437249435196
 23
1540.3378693178711
 33
0.0
 14
5539.443180699488
 24
1111.3517735836151
 34
0.0
 50
90.0
1001
ACAD
1000
DSTYLE
1002
{
1070
   287
1070
     5
1070
   287
1070
     5
1070
   287
1070
     5
1070
    40
1040
25.0
1070
    41
1040
2.0
1070
    42
1040
1.0
1070
    43
1040
6.0
1070
    44
1040
1.0
1070
    73
1070
     0
1070
    74
1070
     0
1070
    76
1070
     1
1070
    77
1070
     1
1070
    78
1070
     8
1070
   140
1040
3.0
1070
   147
1040
1.1999999999999991
1070
   172
1070
     1
1070
   173
1070
     1
1070
   271
1070
     2
1070
   279
1070
     2
1070
   287
1070
     5
1070
   340
1005
BA4
1070
     6
1000

1070
     7
1000
NONE
1002
}
  0
INSERT
  5
6BDC
  8
SJC
  2
B0010012
 10
4959.543168257449
 20
4701.5287703275853
 30
0.0
  0
INSERT
  5
6BDD
  8
SJC
  2
B0010012
 10
7107.3988475438309
 20
4701.5287703275853
 30
0.0
  0
INSERT
  5
6BDE
  8
SJC
  2
B0010012
 10
7377.573702776659
 20
4701.5287703275853
 30
0.0
  0
INSERT
  5
9FA5
  8
0
  2
*U81
 10
0.0
 20
0.0
 30
0.0
1001
ACAD
1000
DSTYLE
1002
{
1070
    40
1040
25.0
1070
    41
1040
2.0
1070
    42
1040
1.0
1070
    43
1040
6.0
1070
    44
1040
1.0
1070
    73
1070
     0
1070
    74
1070
     0
1070
    77
1070
     0
1070
    78
1070
     8
1070
   140
1040
3.0
1070
   147
1040
1.1999999999999991
1070
   172
1070
     1
1070
   271
1070
     2
1070
   279
1070
     2
1070
   340
1005
BA4
1002
}
  0
INSERT
  5
9FA6
  8
0
  2
*U82
 10
0.0
 20
0.0
 30
0.0
1001
ACAD
1000
DSTYLE
1002
{
1070
    40
1040
25.0
1070
    41
1040
2.0
1070
    42
1040
1.0
1070
    43
1040
6.0
1070
    44
1040
1.0
1070
    73
1070
     0
1070
    74
1070
     0
1070
    77
1070
     0
1070
    78
1070
     8
1070
   140
1040
3.0
1070
   147
1040
1.1999999999999991
1070
   172
1070
     1
1070
   271
1070
     2
1070
   279
1070
     2
1070
   340
1005
BA4
1002
}
  0
INSERT
  5
9FA7
  8
0
  2
*U83
 10
0.0
 20
0.0
 30
0.0
1001
ACAD
1000
DSTYLE
1002
{
1070
    40
1040
25.0
1070
    41
1040
2.0
1070
    42
1040
1.0
1070
    43
1040
6.0
1070
    44
1040
1.0
1070
    73
1070
     0
1070
    74
1070
     0
1070
    77
1070
     0
1070
    78
1070
     8
1070
   140
1040
3.0
1070
   147
1040
1.1999999999999991
1070
   172
1070
     1
1070
   271
1070
     2
1070
   279
1070
     2
1070
   340
1005
BA4
1002
}
  0
INSERT
  5
9FEF
  8
ZWAKU
  2
CALCOMP_TECHJET720A3
 10
0.0
 20
0.0
 30
0.0
 41
25.0
 42
25.0
 43
25.0
  0
TEXT
  5
9FF0
  8
INFORMATION
 10
1.0
 20
2.0
 30
0.0
 40
0.8
  1
PLOTTER=CALCOMP_TECHJET720
  0
TEXT
  5
9FF1
  8
INFORMATION
 10
1.0
 20
3.0
 30
0.0
 40
0.8
  1
PAPER=A3
  0
TEXT
  5
9FF2
  8
INFORMATION
 10
1.0
 20
1.0
 30
0.0
 40
0.8
  1
VERSION=3.0
  0
INSERT
  5
A0C5
  8
SJC
  2
T-40樹脂キャップ
 10
643.22739634067693
 20
5801.528803623487
 30
0.0
  0
INSERT
  5
A0DC
  8
SJC
  2
T-40樹脂キャップ-側
 10
5248.2845277431679
 20
5801.5285861212114
 30
0.0
  0
INSERT
  5
A0DD
  8
SJC
  2
T-40樹脂キャップ-側
 10
6274.8272657594671
 20
5801.5285861212114
 30
0.0
  0
INSERT
  5
A0DE
  8
SJC
  2
T-40樹脂キャップ-側
 10
7293.9033198494644
 20
5801.5285861212114
 30
0.0
  0
INSERT
  5
A0DF
  8
SJC
  2
T-40樹脂キャップ-側
 10
8453.3014438836217
 20
5801.5285861212114
 30
0.0
  0
DIMENSION
  5
A15B
  8
SUNPOU
  2
*D19
 10
357.59379138456291
 20
5812.5288036234861
 30
0.0
 11
290.09379138456188
 21
5257.0287869755357
 31
0.0
 70
     0
 13
433.86598184128701
 23
4701.5287703275853
 33
0.0
 14
643.22739634067693
 24
5812.5288036234861
 34
0.0
 50
90.0
1001
ACAD
1000
DSTYLE
1002
{
1070
   287
1070
     5
1070
    40
1040
25.0
1070
    41
1040
2.0
1070
    42
1040
1.0
1070
    43
1040
6.0
1070
    44
1040
1.0
1070
    73
1070
     0
1070
    74
1070
     0
1070
    77
1070
     1
1070
    78
1070
     8
1070
   140
1040
3.0
1070
   147
1040
1.1999999999999991
1070
   172
1070
     1
1070
   179
1070
     2
1070
   271
1070
     2
1070
   279
1070
     2
1070
   340
1005
BA4
1002
}
  0
INSERT
  5
A168
  8
SJC
  2
T-40樹脂キャップ
 10
2643.2273963406769
 20
5801.528803623487
 30
0.0
  0
DIMENSION
  5
A24C
  8
SUNPOU
  2
*D20
 10
5741.7811236793723
 20
5812.5285861212114
 30
0.0
 11
5674.2811236793714
 21
5257.0286782244002
 31
0.0
 70
     0
 13
5476.0149088517428
 23
4701.5287703275853
 33
0.0
 14
5248.2845277431697
 24
5812.5285861212114
 34
0.0
 50
90.0
1001
ACAD
1000
DSTYLE
1002
{
1070
   287
1070
     5
1070
    40
1040
25.0
1070
    41
1040
2.0
1070
    42
1040
1.0
1070
    43
1040
6.0
1070
    44
1040
1.0
1070
    73
1070
     0
1070
    74
1070
     0
1070
    77
1070
     1
1070
    78
1070
     8
1070
   140
1040
3.0
1070
   147
1040
1.1999999999999991
1070
   172
1070
     1
1070
   179
1070
     2
1070
   271
1070
     2
1070
   279
1070
     2
1070
   340
1005
BA4
1002
}
  0
DIMENSION
  5
A262
  8
SUNPOU
  2
*D21
 10
5569.87940759497
 20
5812.5285861212114
 30
0.0
 11
5490.6022787345792
 21
5890.8837991810287
 31
0.0
 70
   128
 13
5273.2845277431697
 23
5801.5287949144858
 33
0.0
 14
5248.2845277431697
 24
5812.5285861212114
 34
0.0
 50
90.0
1001
ACAD
1000
DSTYLE
1002
{
1070
   287
1070
     5
1070
    40
1040
25.0
1070
    41
1040
2.0
1070
    42
1040
1.0
1070
    43
1040
6.0
1070
    44
1040
1.0
1070
    73
1070
     0
1070
    74
1070
     0
1070
    77
1070
     1
1070
    78
1070
     8
1070
   140
1040
3.0
1070
   147
1040
1.1999999999999991
1070
   172
1070
     1
1070
   179
1070
     2
1070
   271
1070
     2
1070
   279
1070
     2
1070
   340
1005
BA4
1002
}
  0
DIMENSION
  5
A2AB
  8
SUNPOU
  2
*D24
 10
6558.75081338991
 20
4701.5287703275853
 30
0.0
 11
6491.25081338991
 21
5251.5286782244002
 31
0.0
 70
     0
 13
6274.8272657594671
 23
5801.5285861212114
 33
0.0
 14
6464.886314646682
 24
4701.5287703275853
 34
0.0
 50
90.0
1001
ACAD
1000
DSTYLE
1002
{
1070
   287
1070
     5
1070
   287
1070
     5
1070
   287
1070
     5
1070
    40
1040
25.0
1070
    41
1040
2.0
1070
    42
1040
1.0
1070
    43
1040
6.0
1070
    44
1040
1.0
1070
    73
1070
     0
1070
    74
1070
     0
1070
    77
1070
     1
1070
    78
1070
     8
1070
   140
1040
3.0
1070
   147
1040
1.1999999999999991
1070
   172
1070
     1
1070
   176
1070
   256
1070
   177
1070
   256
1070
   178
1070
   256
1070
   271
1070
     2
1070
   279
1070
     2
1070
   287
1070
     5
1070
   340
1005
BA4
1002
}
  0
DIMENSION
  5
A2AC
  8
SUNPOU
  2
*D25
 10
6730.6525294743115
 20
4501.528765857186
 30
0.0
 11
6655.6525294743115
 21
4601.5287680923866
 31
0.0
 70
     0
 13
6464.886314646682
 23
4701.5287703275853
 33
0.0
 14
6305.0770528125659
 24
4501.528765857186
 34
0.0
 50
90.0
1001
ACAD
1000
DSTYLE
1002
{
1070
   287
1070
     5
1070
    40
1040
25.0
1070
    41
1040
2.0
1070
    42
1040
1.0
1070
    43
1040
6.0
1070
    44
1040
1.0
1070
    73
1070
     0
1070
    74
1070
     0
1070
    77
1070
     0
1070
    78
1070
     8
1070
   140
1040
3.0
1070
   145
1040
1.0
1070
   147
1040
0.0
1070
   172
1070
     1
1070
   176
1070
   256
1070
   177
1070
   256
1070
   178
1070
   256
1070
   271
1070
     2
1070
   279
1070
     2
1070
   287
1070
     5
1070
   340
1005
BA4
1002
}
  0
DIMENSION
  5
A2AD
  8
SUNPOU
  2
*D26
 10
6889.7478104401598
 20
4501.528765857186
 30
0.0
 11
6822.2478104401589
 21
5157.0286759892006
 31
0.0
 70
     0
 13
6274.8272657594671
 23
5812.5285861212114
 33
0.0
 14
6305.0770528125659
 24
4501.528765857186
 34
0.0
 50
90.0
1001
ACAD
1000
DSTYLE
1002
{
1070
   287
1070
     5
1070
   287
1070
     5
1070
   287
1070
     5
1070
    40
1040
25.0
1070
    41
1040
2.0
1070
    42
1040
1.0
1070
    43
1040
6.0
1070
    44
1040
1.0
1070
    73
1070
     0
1070
    74
1070
     0
1070
    77
1070
     1
1070
    78
1070
     8
1070
   140
1040
3.0
1070
   147
1040
1.1999999999999991
1070
   172
1070
     1
1070
   176
1070
   256
1070
   177
1070
   256
1070
   178
1070
   256
1070
   271
1070
     2
1070
   279
1070
     2
1070
   287
1070
     5
1070
   340
1005
BA4
1002
}
  0
DIMENSION
  5
A2AE
  8
SUNPOU
  2
*D22
 10
6730.6525294743115
 20
5812.5285861212114
 30
0.0
 11
6663.1525294743115
 21
5257.0286782244011
 31
0.0
 70
     0
 13
6464.886314646682
 23
4701.5287703275853
 33
0.0
 14
6274.8272657594671
 24
5812.5285861212114
 34
0.0
 50
90.0
1001
ACAD
1000
DSTYLE
1002
{
1070
   287
1070
     5
1070
    40
1040
25.0
1070
    41
1040
2.0
1070
    42
1040
1.0
1070
    43
1040
6.0
1070
    44
1040
1.0
1070
    73
1070
     0
1070
    74
1070
     0
1070
    77
1070
     1
1070
    78
1070
     8
1070
   140
1040
3.0
1070
   147
1040
1.1999999999999991
1070
   172
1070
     1
1070
   179
1070
     2
1070
   271
1070
     2
1070
   279
1070
     2
1070
   340
1005
BA4
1002
}
  0
DIMENSION
  5
A2AF
  8
SUNPOU
  2
*D23
 10
6558.75081338991
 20
5812.5285861212114
 30
0.0
 11
6479.4736845295192
 21
5890.8837991810287
 31
0.0
 70
   128
 13
6274.8272657594671
 23
5801.5285861212114
 33
0.0
 14
6274.8272657594671
 24
5812.5285861212114
 34
0.0
 50
90.0
1001
ACAD
1000
DSTYLE
1002
{
1070
   287
1070
     5
1070
    40
1040
25.0
1070
    41
1040
2.0
1070
    42
1040
1.0
1070
    43
1040
6.0
1070
    44
1040
1.0
1070
    73
1070
     0
1070
    74
1070
     0
1070
    77
1070
     1
1070
    78
1070
     8
1070
   140
1040
3.0
1070
   147
1040
1.1999999999999991
1070
   172
1070
     1
1070
   179
1070
     2
1070
   271
1070
     2
1070
   279
1070
     2
1070
   340
1005
BA4
1002
}
  0
DIMENSION
  5
A31D
  8
SUNPOU
  2
*D29
 10
7604.773791833999
 20
4701.5287703275853
 30
0.0
 11
7537.2737918339981
 21
5251.528642690384
 31
0.0
 70
     0
 13
7293.8455909914283
 23
5801.5285150531809
 33
0.0
 14
7510.9092930907718
 24
4701.5287703275853
 34
0.0
 50
90.0
1001
ACAD
1000
DSTYLE
1002
{
1070
   287
1070
     5
1070
   287
1070
     5
1070
   287
1070
     5
1070
    40
1040
25.0
1070
    41
1040
2.0
1070
    42
1040
1.0
1070
    43
1040
6.0
1070
    44
1040
1.0
1070
    73
1070
     0
1070
    74
1070
     0
1070
    77
1070
     1
1070
    78
1070
     8
1070
   140
1040
3.0
1070
   147
1040
1.1999999999999991
1070
   172
1070
     1
1070
   176
1070
   256
1070
   177
1070
   256
1070
   178
1070
   256
1070
   271
1070
     2
1070
   279
1070
     2
1070
   287
1070
     5
1070
   340
1005
BA4
1002
}
  0
DIMENSION
  5
A31E
  8
SUNPOU
  2
*D30
 10
7776.6755079184013
 20
4101.5287703275853
 30
0.0
 11
7709.1755079183986
 21
4401.5287703275862
 31
0.0
 70
     0
  1
1200
 13
7510.9092930907718
 23
4701.5287703275853
 33
0.0
 14
7324.0961409839301
 24
4101.5287703275853
 34
0.0
 50
90.0
1001
ACAD
1000
DSTYLE
1002
{
1070
   287
1070
     5
1070
   287
1070
     5
1070
   287
1070
     5
1070
    40
1040
25.0
1070
    41
1040
2.0
1070
    42
1040
1.0
1070
    43
1040
6.0
1070
    44
1040
1.0
1070
    73
1070
     0
1070
    74
1070
     0
1070
    77
1070
     1
1070
    78
1070
     8
1070
   140
1040
3.0
1070
   147
1040
1.1999999999999991
1070
   172
1070
     1
1070
   176
1070
   256
1070
   177
1070
   256
1070
   178
1070
   256
1070
   271
1070
     2
1070
   279
1070
     2
1070
   287
1070
     5
1070
   340
1005
BA4
1002
}
  0
DIMENSION
  5
A31F
  8
SUNPOU
  2
*D31
 10
7935.7707888842478
 20
4101.5287703275853
 30
0.0
 11
7868.2707888842488
 21
4957.0286782244002
 31
0.0
 70
     0
  1
2311
 13
7293.8455909914283
 23
5812.5285861212114
 33
0.0
 14
7324.0961409839301
 24
4101.5287703275853
 34
0.0
 50
90.0
1001
ACAD
1000
DSTYLE
1002
{
1070
   287
1070
     5
1070
   287
1070
     5
1070
   287
1070
     5
1070
    40
1040
25.0
1070
    41
1040
2.0
1070
    42
1040
1.0
1070
    43
1040
6.0
1070
    44
1040
1.0
1070
    73
1070
     0
1070
    74
1070
     0
1070
    77
1070
     1
1070
    78
1070
     8
1070
   140
1040
3.0
1070
   147
1040
1.1999999999999991
1070
   172
1070
     1
1070
   176
1070
   256
1070
   177
1070
   256
1070
   178
1070
   256
1070
   271
1070
     2
1070
   279
1070
     2
1070
   287
1070
     5
1070
   340
1005
BA4
1002
}
  0
DIMENSION
  5
A320
  8
SUNPOU
  2
*D27
 10
7776.6755079184013
 20
5812.5285861212114
 30
0.0
 11
7709.1755079183986
 21
5257.0286782244002
 31
0.0
 70
     0
 13
7510.9092930907718
 23
4701.5287703275853
 33
0.0
 14
7293.8455909914283
 24
5812.5285861212114
 34
0.0
 50
90.0
1001
ACAD
1000
DSTYLE
1002
{
1070
   287
1070
     5
1070
    40
1040
25.0
1070
    41
1040
2.0
1070
    42
1040
1.0
1070
    43
1040
6.0
1070
    44
1040
1.0
1070
    73
1070
     0
1070
    74
1070
     0
1070
    77
1070
     1
1070
    78
1070
     8
1070
   140
1040
3.0
1070
   147
1040
1.1999999999999991
1070
   172
1070
     1
1070
   179
1070
     2
1070
   271
1070
     2
1070
   279
1070
     2
1070
   340
1005
BA4
1002
}
  0
DIMENSION
  5
A321
  8
SUNPOU
  2
*D28
 10
7604.773791833999
 20
5812.5285861212114
 30
0.0
 11
7525.4966629736082
 21
5890.8837991810287
 31
0.0
 70
   128
 13
7293.8455909914283
 23
5801.5285150531809
 33
0.0
 14
7293.8455909914283
 24
5812.5285861212114
 34
0.0
 50
90.0
1001
ACAD
1000
DSTYLE
1002
{
1070
   287
1070
     5
1070
    40
1040
25.0
1070
    41
1040
2.0
1070
    42
1040
1.0
1070
    43
1040
6.0
1070
    44
1040
1.0
1070
    73
1070
     0
1070
    74
1070
     0
1070
    77
1070
     1
1070
    78
1070
     8
1070
   140
1040
3.0
1070
   147
1040
1.1999999999999991
1070
   172
1070
     1
1070
   179
1070
     2
1070
   271
1070
     2
1070
   279
1070
     2
1070
   340
1005
BA4
1002
}
  0
DIMENSION
  5
A38F
  8
SUNPOU
  2
*D34
 10
8854.4567160234674
 20
4701.5287703275853
 30
0.0
 11
8786.9567160234656
 21
5251.5286889138606
 31
0.0
 70
     0
 13
8453.2437150255882
 23
5801.5286075001368
 33
0.0
 14
8635.1380166465406
 24
4701.5287703275853
 34
0.0
 50
90.0
1001
ACAD
1000
DSTYLE
1002
{
1070
   287
1070
     5
1070
   287
1070
     5
1070
   287
1070
     5
1070
    40
1040
25.0
1070
    41
1040
2.0
1070
    42
1040
1.0
1070
    43
1040
6.0
1070
    44
1040
1.0
1070
    73
1070
     0
1070
    74
1070
     0
1070
    77
1070
     1
1070
    78
1070
     8
1070
   140
1040
3.0
1070
   147
1040
1.1999999999999991
1070
   172
1070
     1
1070
   176
1070
   256
1070
   177
1070
   256
1070
   178
1070
   256
1070
   271
1070
     2
1070
   279
1070
     2
1070
   287
1070
     5
1070
   340
1005
BA4
1002
}
  0
DIMENSION
  5
A392
  8
SUNPOU
  2
*D32
 10
9026.3584321078688
 20
5812.5285861212114
 30
0.0
 11
8958.858432107867
 21
5257.0286782244002
 31
0.0
 70
     0
 13
8635.1380166465406
 23
4701.5287703275853
 33
0.0
 14
8453.3014438836217
 24
5812.5285861212114
 34
0.0
 50
90.0
1001
ACAD
1000
DSTYLE
1002
{
1070
   287
1070
     5
1070
    40
1040
25.0
1070
    41
1040
2.0
1070
    42
1040
1.0
1070
    43
1040
6.0
1070
    44
1040
1.0
1070
    73
1070
     0
1070
    74
1070
     0
1070
    77
1070
     1
1070
    78
1070
     8
1070
   140
1040
3.0
1070
   147
1040
1.1999999999999991
1070
   172
1070
     1
1070
   179
1070
     2
1070
   271
1070
     2
1070
   279
1070
     2
1070
   340
1005
BA4
1002
}
  0
DIMENSION
  5
A393
  8
SUNPOU
  2
*D33
 10
8854.4567160234674
 20
5812.5285861212114
 30
0.0
 11
8775.1795871630766
 21
5890.8837991810287
 31
0.0
 70
   128
 13
8453.2437150255882
 23
5801.5286075001368
 33
0.0
 14
8453.3014438836217
 24
5812.5285861212114
 34
0.0
 50
90.0
1001
ACAD
1000
DSTYLE
1002
{
1070
   287
1070
     5
1070
    40
1040
25.0
1070
    41
1040
2.0
1070
    42
1040
1.0
1070
    43
1040
6.0
1070
    44
1040
1.0
1070
    73
1070
     0
1070
    74
1070
     0
1070
    77
1070
     1
1070
    78
1070
     8
1070
   140
1040
3.0
1070
   147
1040
1.1999999999999991
1070
   172
1070
     1
1070
   179
1070
     2
1070
   271
1070
     2
1070
   279
1070
     2
1070
   340
1005
BA4
1002
}
  0
LINE
  5
A91F
  8
MOJI
 10
887.13930503879965
 20
4536.6789199928089
 30
0.0
 11
1436.1178333049461
 21
4536.6789199928089
 31
0.0
  0
TEXT
  5
A920
  8
MOJI
 10
910.83990591481052
 20
4435.315842130316
 30
0.0
 40
75.0
  1
%%c60.5×t3.2
 41
0.8
  7
EXT08
  0
TEXT
  5
A921
  8
MOJI
 10
1047.5838031033741
 20
4563.0419978553018
 30
0.0
 40
75.0
  1
支  柱
 41
0.8
  7
EXT08
  0
INSERT
  5
A92A
  8
0
  2
*U85
 10
0.0
 20
0.0
 30
0.0
1001
ACAD
1000
DSTYLE
1002
{
1070
    40
1040
25.0
1070
    41
1040
2.0
1070
    42
1040
1.0
1070
    43
1040
6.0
1070
    44
1040
1.0
1070
    73
1070
     0
1070
    74
1070
     0
1070
    77
1070
     0
1070
    78
1070
     8
1070
   140
1040
3.0
1070
   147
1040
1.1999999999999991
1070
   172
1070
     1
1070
   271
1070
     2
1070
   279
1070
     2
1070
   340
1005
BA4
1002
}
  0
INSERT
  5
A92B
  8
0
  2
*U86
 10
0.0
 20
0.0
 30
0.0
1001
ACAD
1000
DSTYLE
1002
{
1070
    40
1040
25.0
1070
    41
1040
2.0
1070
    42
1040
1.0
1070
    43
1040
6.0
1070
    44
1040
1.0
1070
    73
1070
     0
1070
    74
1070
     0
1070
    77
1070
     0
1070
    78
1070
     8
1070
   140
1040
3.0
1070
   147
1040
1.1999999999999991
1070
   172
1070
     1
1070
   271
1070
     2
1070
   279
1070
     2
1070
   340
1005
BA4
1002
}
  0
INSERT
  5
AA90
  8
SJC
  2
部材表-樹脂キャップT-40PL
 10
6879.7120445295459
 20
1179.2151196059081
 30
0.0
  0
INSERT
  5
AAA4
  8
SUNPOU
  2
BPL-横25
 10
8166.2512713602946
 20
3002.6127236066118
 30
0.0
  0
INSERT
  5
AAE4
  8
HATCH
  6
CONTINUOUS
  2
*X87
 10
0.0
 20
0.0
 30
0.0
1001
ACAD
1000
HATCH
1002
{
1070
    19
1000
AR-CONC
1040
10.0
1040
0.0
1000
R14_HATCH_DATA
1000
AAE4
1011
1.0
1021
0.0
1031
0.0
1021
0.0
1031
0.0
1011
0.0
1021
0.0
1031
0.0
1021
1.0
1031
0.0
1011
0.0
1021
0.0
1031
0.0
1021
0.0
1031
1.0
1040
0.0
1010
0.0
1020
0.0
1030
1.0
1000
AR-CONC
1070
     0
1070
     0
1071
        2
1071
        7
1070
     0
1070
     1
1071
        3
1040
6438.9064723309866
1040
4701.5287703275844
1040
6305.0770528125668
1040
4701.5287703275853
1040
6305.0770528125659
1040
4501.528765857186
1071
        0
1071
        7
1070
     0
1070
     1
1071
        3
1040
6244.5774787063647
1040
4701.5287703275853
1040
6110.748059187943
1040
4701.5287703275853
1040
6244.5774787063674
1040
4501.5287658571842
1071
        0
1070
     0
1070
     1
1040
0.0
1040
10.0
1070
     0
1070
    13
1040
0.8726646259971645
1040
-19.859034169097871
1040
-90.253485945897424
1040
71.72601826007535
1040
-6.27521349825951
1070
     2
1040
7.5
1040
-82.5
1040
6.195918844579869
1040
-19.859034169097871
1040
-90.253485945897424
1040
-13.8751333613
1040
75.219213370001185
1070
     2
1040
6.0
1040
-66.0
1040
1.753207668237831
1040
-13.88186616909752
1040
-90.776419945897018
1040
57.850938171402149
1040
68.943954206095356
1070
     2
1040
6.3740189999999988
1040
-70.114211199999986
1040
0.8060663523995651
1040
-19.859034169097871
1040
-70.25348594589741
1040
106.7241048625644
1040
-16.551901432901801
1070
     2
1040
11.25
1040
-123.75
1040
1.6866093946402321
1040
-10.965359669097779
1040
-71.632816645897023
1040
93.466270554870334
1040
97.411787090044172
1070
     2
1040
9.5610287999999954
1040
-105.1712999999999
1040
6.1293205709822702
1040
-19.859034169097871
1040
-70.25348594589741
1040
93.466194513362709
1040
97.411860092532464
1070
     2
1040
9.0
1040
-99.0
1040
0.3665191429188092
1040
-9.8590341690978676
1040
-75.25348594589741
1040
59.690705211846158
1040
-40.261889066533882
1070
     2
1040
7.5
1040
-82.5
1040
5.6897733615015138
1040
-9.8590341690978676
1040
-75.25348594589741
1040
24.331533192158169
1040
72.515004504685294
1070
     2
1040
6.0
1040
-66.0
1040
1.2470621851594761
1040
-4.8848108690981462
1040
-78.6086465458975
1040
84.022262858148991
1040
32.253049670995239
1070
     2
1040
6.3740189999999997
1040
-70.1142112
1040
0.6544984694978737
1040
-19.859034169097871
1040
-90.253485945897424
1040
1.215985531729066
1040
33.289385383131147
1070
     6
1040
0.0
1040
-65.199999999999989
1040
0.0
1040
-67.0
1040
0.0
1040
-66.25
1040
0.1308996938995747
1040
-19.859034169097871
1040
-90.253485945897424
1040
26.306953744214859
1040
39.441171188236027
1070
     6
1040
0.0
1040
-38.200000000000003
1040
0.0
1040
-63.700000000000003
1040
0.0
1040
-25.25
1040
5.715953300281428
1040
-42.159034169098049
1040
-90.253485945897424
1040
53.382243617240903
1040
-2.2554871734379791
1070
     6
1040
0.0
1040
-25.0
1040
0.0
1040
-78.0
1040
0.0
1040
-103.5
1040
5.5414203750819961
1040
-52.159034169098049
1040
-90.253485945897424
1040
58.318616934238619
1040
10.010498233231759
1070
     6
1040
0.0
1040
-32.5
1040
0.0
1040
-51.79999999999999
1040
0.0
1040
-73.5
1040
1.60826651672257
1071
        2
1040
6334.8271553686527
1040
4615.4162233984698
1040
0.0
1040
6196.4427231565169
1040
4634.7154339146673
1040
0.0
1002
}
  0
INSERT
  5
AC0C
  8
HATCH
  6
CONTINUOUS
  2
*X88
 10
0.0
 20
0.0
 30
0.0
1001
ACAD
1000
HATCH
1002
{
1070
    19
1000
PLAST
1040
500.0
1040
0.7853981633974483
1000
ASC_BOUNDS
1070
     2
1070
     1
1070
     4
1005
6AB
1005
6AA
1005
6A8
1005
6A0
1070
     1
1070
     4
1005
6A9
1005
6AA
1005
6AC
1005
69F
1000
ASC_SEEDPOINT
1011
5351.5163713006114
1021
0.0
1031
0.0
1021
4381.853599242133
1031
0.0
1000
R14_HATCH_DATA
1000
AC0C
1011
1.0
1021
0.0
1031
0.0
1021
0.0
1031
0.0
1011
0.0
1021
0.0
1031
0.0
1021
1.0
1031
0.0
1011
0.0
1021
0.0
1031
0.0
1021
0.0
1031
1.0
1040
0.0
1010
0.0
1020
0.0
1030
1.0
1000
PLAST
1070
     0
1070
     1
1071
        2
1071
        7
1070
     0
1070
     1
1071
        4
1040
5398.2845310959683
1040
4701.5287703275853
1040
5278.5343147962694
1040
4701.5287703275853
1040
5278.5343147962694
1040
4251.5287602692861
1040
5398.284531095971
1040
4251.5287602692861
1071
        4
1005
69F
1005
6AC
1005
6AA
1005
6A9
1071
        7
1070
     0
1070
     1
1071
        4
1040
5218.0347406901692
1040
4701.5287703275872
1040
5098.2845243904703
1040
4701.5287703275872
1040
5098.2845243904703
1040
4251.5287602692852
1040
5218.0347406901701
1040
4251.5287602692852
1071
        4
1005
6A0
1005
6A8
1005
6AA
1005
6AB
1070
     0
1070
     1
1040
0.7853981633974483
1040
500.0
1070
     0
1070
     3
1040
0.7853981633974483
1040
0.0
1040
0.0
1040
-88.388347648318415
1040
88.388347648318444
1070
     0
1040
0.7853981633974483
1040
-11.0485434560398
1040
11.0485434560398
1040
-88.388347648318415
1040
88.388347648318444
1070
     0
1040
0.7853981633974483
1040
-22.097086912079611
1040
22.097086912079611
1040
-88.388347648318415
1040
88.388347648318444
1070
     0
1040
2.9203356230696929
1071
        2
1040
5351.5163713006114
1040
4381.853599242133
1040
0.0
1040
5190.8125685867053
1040
4399.3756206523994
1040
0.0
1002
}
  0
INSERT
  5
AC35
  8
SUNPOU
  2
樹脂キャップ-T40取付詳細図
 10
4246.2931475061987
 20
1540.3378693178711
 30
0.0
  0
LINE
  5
B2D2
  8
SJC
 10
892.37745643897676
 20
5758.8293615869861
 30
0.0
 11
892.37745643897676
 21
4894.2289699472858
 31
0.0
  0
LINE
  5
B2D3
  8
SJC
 10
914.07736231947638
 20
5758.8293615869861
 30
0.0
 11
914.07736231947638
 21
4894.2289699472858
 31
0.0
  0
LINE
  5
B2D4
  8
SJC
 10
2372.3769252125771
 20
5758.8293615869861
 30
0.0
 11
2372.3769252125771
 21
4894.2289699472858
 31
0.0
  0
LINE
  5
B2D5
  8
SJC
 10
2394.0764496233769
 20
5758.8293615869861
 30
0.0
 11
2394.0764496233769
 21
4894.2289699472858
 31
0.0
  0
DIMENSION
  5
B2D6
  8
SUNPOU
  2
*D38
 10
2383.2266874179768
 20
6111.2715386541859
 30
0.0
 11
1643.2270483985769
 21
6178.7715386541859
 31
0.0
 70
     0
  1
10@148=<>
 13
903.22740937917661
 23
5783.8293615869861
 33
0.0
 14
2383.2266874179768
 24
5801.5287949144858
 34
0.0
1001
ACAD
1000
DSTYLE
1002
{
1070
   287
1070
     5
1070
    40
1040
25.0
1070
    41
1040
2.0
1070
    42
1040
1.0
1070
    43
1040
6.0
1070
    44
1040
1.0
1070
    73
1070
     0
1070
    74
1070
     0
1070
    77
1070
     1
1070
    78
1070
     8
1070
   140
1040
3.0
1070
   147
1040
1.1999999999999991
1070
   172
1070
     1
1070
   176
1070
   256
1070
   177
1070
   256
1070
   178
1070
   256
1070
   271
1070
     2
1070
   279
1070
     2
1070
   287
1070
     5
1070
   340
1005
BA4
1002
}
  0
LINE
  5
B2D7
  8
SJC
 10
1040.3774564389771
 20
5758.8293615869861
 30
0.0
 11
1040.3774564389771
 21
4894.2289699472858
 31
0.0
  0
LINE
  5
B2D8
  8
SJC
 10
1062.0773623194759
 20
5758.8293615869861
 30
0.0
 11
1062.0773623194759
 21
4894.2289699472858
 31
0.0
  0
LINE
  5
B2D9
  8
SJC
 10
1188.3774564389771
 20
5758.8293615869861
 30
0.0
 11
1188.3774564389771
 21
4894.2289699472858
 31
0.0
  0
LINE
  5
B2DA
  8
SJC
 10
1210.0773623194759
 20
5758.8293615869861
 30
0.0
 11
1210.0773623194759
 21
4894.2289699472858
 31
0.0
  0
LINE
  5
B2DB
  8
SJC
 10
1336.3774564389771
 20
5758.8293615869861
 30
0.0
 11
1336.3774564389771
 21
4894.2289699472858
 31
0.0
  0
LINE
  5
B2DC
  8
SJC
 10
1358.0773623194759
 20
5758.8293615869861
 30
0.0
 11
1358.0773623194759
 21
4894.2289699472858
 31
0.0
  0
LINE
  5
B2DD
  8
SJC
 10
1484.3774564389771
 20
5758.8293615869861
 30
0.0
 11
1484.3774564389771
 21
4894.2289699472858
 31
0.0
  0
LINE
  5
B2DE
  8
SJC
 10
1506.0773623194759
 20
5758.8293615869861
 30
0.0
 11
1506.0773623194759
 21
4894.2289699472858
 31
0.0
  0
LINE
  5
B2DF
  8
SJC
 10
1632.3774564389771
 20
5758.8293615869861
 30
0.0
 11
1632.3774564389771
 21
4894.2289699472858
 31
0.0
  0
LINE
  5
B2E0
  8
SJC
 10
1654.0773623194759
 20
5758.8293615869861
 30
0.0
 11
1654.0773623194759
 21
4894.2289699472858
 31
0.0
  0
LINE
  5
B2E1
  8
SJC
 10
1780.3774564389771
 20
5758.8293615869861
 30
0.0
 11
1780.3774564389771
 21
4894.2289699472858
 31
0.0
  0
LINE
  5
B2E2
  8
SJC
 10
1802.0773623194759
 20
5758.8293615869861
 30
0.0
 11
1802.0773623194759
 21
4894.2289699472858
 31
0.0
  0
LINE
  5
B2E3
  8
SJC
 10
1928.3774564389771
 20
5758.8293615869861
 30
0.0
 11
1928.3774564389771
 21
4894.2289699472858
 31
0.0
  0
LINE
  5
B2E4
  8
SJC
 10
1950.0773623194759
 20
5758.8293615869861
 30
0.0
 11
1950.0773623194759
 21
4894.2289699472858
 31
0.0
  0
LINE
  5
B2E5
  8
SJC
 10
2076.3774564389769
 20
5758.8293615869861
 30
0.0
 11
2076.3774564389769
 21
4894.2289699472858
 31
0.0
  0
LINE
  5
B2E6
  8
SJC
 10
2098.0773623194768
 20
5758.8293615869861
 30
0.0
 11
2098.0773623194768
 21
4894.2289699472858
 31
0.0
  0
LINE
  5
B2E7
  8
SJC
 10
2224.3774564389769
 20
5758.8293615869861
 30
0.0
 11
2224.3774564389769
 21
4894.2289699472858
 31
0.0
  0
LINE
  5
B2E8
  8
SJC
 10
2246.0773623194768
 20
5758.8293615869861
 30
0.0
 11
2246.0773623194768
 21
4894.2289699472858
 31
0.0
  0
DIMENSION
  5
B2E9
  8
SUNPOU
  2
*D39
 10
748.2275131285769
 20
6111.2715386541859
 30
0.0
 11
737.67249734919085
 21
6184.8745659286087
 31
0.0
 70
   128
  1
(<>)
 13
703.22743582877592
 23
5801.5287949144858
 33
0.0
 14
748.2275131285769
 24
5801.5287949144858
 34
0.0
1001
ACAD
1000
DSTYLE
1002
{
1070
   287
1070
     5
1070
    40
1040
25.0
1070
    41
1040
2.0
1070
    42
1040
1.0
1070
    43
1040
6.0
1070
    44
1040
1.0
1070
    73
1070
     0
1070
    74
1070
     0
1070
    77
1070
     1
1070
    78
1070
     8
1070
   140
1040
3.0
1070
   147
1040
1.1999999999999991
1070
   172
1070
     1
1070
   173
1070
     1
1070
   271
1070
     2
1070
   279
1070
     2
1070
   287
1070
     5
1070
   340
1005
BA4
1070
     6
1000

1070
     7
1000
DOTSMALL
1002
}
  0
DIMENSION
  5
B2EA
  8
SUNPOU
  2
*D40
 10
903.22740937917661
 20
6111.2715386541859
 30
0.0
 11
919.28783896426103
 21
6180.6837459727958
 31
0.0
 70
   128
 13
748.2275131285769
 23
5801.5287949144858
 33
0.0
 14
903.22740937917661
 24
5808.829361586987
 34
0.0
1001
ACAD
1000
DSTYLE
1002
{
1070
   287
1070
     5
1070
    40
1040
25.0
1070
    41
1040
2.0
1070
    42
1040
1.0
1070
    43
1040
6.0
1070
    44
1040
1.0
1070
    73
1070
     0
1070
    74
1070
     0
1070
    77
1070
     1
1070
    78
1070
     8
1070
   140
1040
3.0
1070
   147
1040
1.1999999999999991
1070
   172
1070
     1
1070
   173
1070
     1
1070
   271
1070
     2
1070
   279
1070
     2
1070
   287
1070
     5
1070
   340
1005
BA4
1070
     6
1000
DOTSMALL
1070
     7
1000

1002
}
  0
DIMENSION
  5
B2EB
  8
SUNPOU
  2
*D41
 10
2383.2266874179768
 20
6111.2715386541859
 30
0.0
 11
2367.1662578328919
 21
6180.6837459727958
 31
0.0
 70
   128
 13
2538.226583668576
 23
5801.5287949144858
 33
0.0
 14
2383.2266874179768
 24
5801.5287949144858
 34
0.0
 50
180.0
1001
ACAD
1000
DSTYLE
1002
{
1070
   287
1070
     5
1070
    40
1040
25.0
1070
    41
1040
2.0
1070
    42
1040
1.0
1070
    43
1040
6.0
1070
    44
1040
1.0
1070
    73
1070
     0
1070
    74
1070
     0
1070
    77
1070
     1
1070
    78
1070
     8
1070
   140
1040
3.0
1070
   147
1040
1.1999999999999991
1070
   172
1070
     1
1070
   173
1070
     1
1070
   271
1070
     2
1070
   279
1070
     2
1070
   287
1070
     5
1070
   340
1005
BA4
1070
     6
1000
DOTSMALL
1070
     7
1000

1002
}
  0
DIMENSION
  5
B2EC
  8
SUNPOU
  2
*D42
 10
2538.226583668576
 20
6111.2715386541859
 30
0.0
 11
2548.7815994479629
 21
6184.8745659286087
 31
0.0
 70
   128
  1
(<>)
 13
2583.2266609683779
 23
5801.5287949144858
 33
0.0
 14
2538.226583668576
 24
5801.5287949144858
 34
0.0
 50
180.0
1001
ACAD
1000
DSTYLE
1002
{
1070
   287
1070
     5
1070
    40
1040
25.0
1070
    41
1040
2.0
1070
    42
1040
1.0
1070
    43
1040
6.0
1070
    44
1040
1.0
1070
    73
1070
     0
1070
    74
1070
     0
1070
    77
1070
     1
1070
    78
1070
     8
1070
   140
1040
3.0
1070
   147
1040
1.1999999999999991
1070
   172
1070
     1
1070
   173
1070
     1
1070
   271
1070
     2
1070
   279
1070
     2
1070
   287
1070
     5
1070
   340
1005
BA4
1070
     6
1000

1070
     7
1000
DOTSMALL
1002
}
  0
LINE
  5
B2ED
  8
SJC
 10
2892.3774564389769
 20
5758.8293615869861
 30
0.0
 11
2892.3774564389769
 21
4894.2289699472858
 31
0.0
  0
LINE
  5
B2EE
  8
SJC
 10
2914.0773623194759
 20
5758.8293615869861
 30
0.0
 11
2914.0773623194759
 21
4894.2289699472858
 31
0.0
  0
LINE
  5
B2F1
  8
SJC
 10
3040.3774564389769
 20
5758.8293615869861
 30
0.0
 11
3040.3774564389769
 21
4894.2289699472858
 31
0.0
  0
LINE
  5
B2F2
  8
SJC
 10
3062.0773623194768
 20
5758.8293615869861
 30
0.0
 11
3062.0773623194768
 21
4894.2289699472858
 31
0.0
  0
LINE
  5
B2F3
  8
SJC
 10
3188.3774564389769
 20
5758.8293615869861
 30
0.0
 11
3188.3774564389769
 21
4894.2289699472858
 31
0.0
  0
LINE
  5
B2F4
  8
SJC
 10
3210.0773623194759
 20
5758.8293615869861
 30
0.0
 11
3210.0773623194759
 21
4894.2289699472858
 31
0.0
  0
LINE
  5
B2F5
  8
SJC
 10
3336.3774564389769
 20
5758.8293615869861
 30
0.0
 11
3336.3774564389769
 21
4894.2289699472858
 31
0.0
  0
LINE
  5
B2F6
  8
SJC
 10
3358.0773623194768
 20
5758.8293615869861
 30
0.0
 11
3358.0773623194768
 21
4894.2289699472858
 31
0.0
  0
LINE
  5
B2F7
  8
SJC
 10
3484.3774564389769
 20
5758.8293615869861
 30
0.0
 11
3484.3774564389769
 21
4894.2289699472858
 31
0.0
  0
LINE
  5
B2F8
  8
SJC
 10
3506.0773623194759
 20
5758.8293615869861
 30
0.0
 11
3506.0773623194759
 21
4894.2289699472858
 31
0.0
  0
LINE
  5
B2F9
  8
SJC
 10
3632.3774564389769
 20
5758.8293615869861
 30
0.0
 11
3632.3774564389769
 21
4894.2289699472858
 31
0.0
  0
LINE
  5
B2FA
  8
SJC
 10
3654.0773623194768
 20
5758.8293615869861
 30
0.0
 11
3654.0773623194768
 21
4894.2289699472858
 31
0.0
  0
LINE
  5
B2FB
  8
SJC
 10
3780.3774564389769
 20
5758.8293615869861
 30
0.0
 11
3780.3774564389769
 21
4894.2289699472858
 31
0.0
  0
LINE
  5
B2FC
  8
SJC
 10
3802.0773623194759
 20
5758.8293615869861
 30
0.0
 11
3802.0773623194759
 21
4894.2289699472858
 31
0.0
  0
LINE
  5
B2FD
  8
SJC
 10
3928.377456438976
 20
5758.8293615869861
 30
0.0
 11
3928.377456438976
 21
4894.2289699472858
 31
0.0
  0
LINE
  5
B2FE
  8
SJC
 10
3950.0773623194768
 20
5758.8293615869861
 30
0.0
 11
3950.0773623194768
 21
4894.2289699472858
 31
0.0
  0
LINE
  5
B2FF
  8
SJC
 10
4076.3774564389769
 20
5758.8293615869861
 30
0.0
 11
4076.3774564389769
 21
4894.2289699472858
 31
0.0
  0
LINE
  5
B300
  8
SJC
 10
4098.0773623194764
 20
5758.8293615869861
 30
0.0
 11
4098.0773623194764
 21
4894.2289699472858
 31
0.0
  0
LINE
  5
B301
  8
SJC
 10
4224.377456438976
 20
5758.8293615869861
 30
0.0
 11
4224.377456438976
 21
4894.2289699472858
 31
0.0
  0
LINE
  5
B302
  8
SJC
 10
4246.0773623194764
 20
5758.8293615869861
 30
0.0
 11
4246.0773623194764
 21
4894.2289699472858
 31
0.0
  0
INSERT
  5
B61E
  8
SUNPOU
  2
樹脂キャップ-T-40111支柱図2000
 10
1323.8378953824811
 20
769.82660554477604
 30
0.0
  0
ENDSEC
  0
EOF
