  0
SECTION
  2
HEADER
  9
$ACADVER
  1
AC1018
  9
$ACADMAINTVER
 70
    39
  9
$DWGCODEPAGE
  3
ANSI_932
  9
$INSBASE
 10
0.0
 20
0.0
 30
0.0
  9
$EXTMIN
 10
0.0
 20
0.0
 30
-0.0000000349181948
  9
$EXTMAX
 10
7400.0
 20
5340.0
 30
0.0000000814935746
  9
$LIMMIN
 10
0.0
 20
0.0
  9
$LIMMAX
 10
8400.0
 20
5940.0
  9
$ORTHOMODE
 70
     1
  9
$REGENMODE
 70
     1
  9
$FILLMODE
 70
     1
  9
$QTEXTMODE
 70
     0
  9
$MIRRTEXT
 70
     0
  9
$LTSCALE
 40
200.0
  9
$ATTMODE
 70
     1
  9
$TEXTSIZE
 40
60.0
  9
$TRACEWID
 40
0.05
  9
$TEXTSTYLE
  7
EXT08
  9
$CLAYER
  8
SJC
  9
$CELTYPE
  6
BYLAYER
  9
$CECOLOR
 62
   256
  9
$CELTSCALE
 40
1.0
  9
$DISPSILH
 70
     0
  9
$DIMSCALE
 40
20.0
  9
$DIMASZ
 40
2.0
  9
$DIMEXO
 40
1.0
  9
$DIMDLI
 40
6.0
  9
$DIMRND
 40
0.0
  9
$DIMDLE
 40
0.0
  9
$DIMEXE
 40
1.0
  9
$DIMTP
 40
0.0
  9
$DIMTM
 40
0.0
  9
$DIMTXT
 40
3.0
  9
$DIMCEN
 40
0.09
  9
$DIMTSZ
 40
0.0
  9
$DIMTOL
 70
     0
  9
$DIMLIM
 70
     0
  9
$DIMTIH
 70
     0
  9
$DIMTOH
 70
     0
  9
$DIMSE1
 70
     0
  9
$DIMSE2
 70
     0
  9
$DIMTAD
 70
     1
  9
$DIMZIN
 70
     8
  9
$DIMBLK
  1

  9
$DIMASO
 70
     1
  9
$DIMSHO
 70
     1
  9
$DIMPOST
  1

  9
$DIMAPOST
  1

  9
$DIMALT
 70
     0
  9
$DIMALTD
 70
     2
  9
$DIMALTF
 40
25.4
  9
$DIMLFAC
 40
1.0
  9
$DIMTOFL
 70
     1
  9
$DIMTVP
 40
0.0
  9
$DIMTIX
 70
     0
  9
$DIMSOXD
 70
     0
  9
$DIMSAH
 70
     0
  9
$DIMBLK1
  1

  9
$DIMBLK2
  1

  9
$DIMSTYLE
  2
SJC
  9
$DIMCLRD
 70
     0
  9
$DIMCLRE
 70
     0
  9
$DIMCLRT
 70
     0
  9
$DIMTFAC
 40
1.0
  9
$DIMGAP
 40
1.199999999999999
  9
$DIMJUST
 70
     0
  9
$DIMSD1
 70
     0
  9
$DIMSD2
 70
     0
  9
$DIMTOLJ
 70
     1
  9
$DIMTZIN
 70
     0
  9
$DIMALTZ
 70
     0
  9
$DIMALTTZ
 70
     0
  9
$DIMUPT
 70
     0
  9
$DIMDEC
 70
     2
  9
$DIMTDEC
 70
     4
  9
$DIMALTU
 70
     2
  9
$DIMALTTD
 70
     2
  9
$DIMTXSTY
  7
EXT08
  9
$DIMAUNIT
 70
     0
  9
$DIMADEC
 70
     2
  9
$DIMALTRND
 40
0.0
  9
$DIMAZIN
 70
     0
  9
$DIMDSEP
 70
    46
  9
$DIMATFIT
 70
     3
  9
$DIMFRAC
 70
     0
  9
$DIMLDRBLK
  1

  9
$DIMLUNIT
 70
     2
  9
$DIMLWD
 70
    -2
  9
$DIMLWE
 70
    -2
  9
$DIMTMOVE
 70
     2
  9
$LUNITS
 70
     2
  9
$LUPREC
 70
     2
  9
$SKETCHINC
 40
0.1
  9
$FILLETRAD
 40
100.0
  9
$AUNITS
 70
     1
  9
$AUPREC
 70
     2
  9
$MENU
  1
sjc
  9
$ELEVATION
 40
0.0
  9
$PELEVATION
 40
0.0
  9
$THICKNESS
 40
0.0
  9
$LIMCHECK
 70
     0
  9
$CHAMFERA
 40
0.0
  9
$CHAMFERB
 40
0.0
  9
$CHAMFERC
 40
0.0
  9
$CHAMFERD
 40
0.0
  9
$SKPOLY
 70
     0
  9
$TDCREATE
 40
2450403.591505556
  9
$TDUCREATE
 40
2450403.216505556
  9
$TDUPDATE
 40
2453509.425460787
  9
$TDUUPDATE
 40
2453509.050460787
  9
$TDINDWG
 40
0.0185506481
  9
$TDUSRTIMER
 40
0.0185506481
  9
$USRTIMER
 70
     1
  9
$ANGBASE
 50
0.0
  9
$ANGDIR
 70
     0
  9
$PDMODE
 70
    33
  9
$PDSIZE
 40
5.0
  9
$PLINEWID
 40
0.0
  9
$SPLFRAME
 70
     0
  9
$SPLINETYPE
 70
     6
  9
$SPLINESEGS
 70
     8
  9
$HANDSEED
  5
2792
  9
$SURFTAB1
 70
     6
  9
$SURFTAB2
 70
     6
  9
$SURFTYPE
 70
     6
  9
$SURFU
 70
     6
  9
$SURFV
 70
     6
  9
$UCSBASE
  2

  9
$UCSNAME
  2

  9
$UCSORG
 10
0.0
 20
0.0
 30
0.0
  9
$UCSXDIR
 10
1.0
 20
0.0
 30
0.0
  9
$UCSYDIR
 10
0.0
 20
1.0
 30
0.0
  9
$UCSORTHOREF
  2

  9
$UCSORTHOVIEW
 70
     0
  9
$UCSORGTOP
 10
0.0
 20
0.0
 30
0.0
  9
$UCSORGBOTTOM
 10
0.0
 20
0.0
 30
0.0
  9
$UCSORGLEFT
 10
0.0
 20
0.0
 30
0.0
  9
$UCSORGRIGHT
 10
0.0
 20
0.0
 30
0.0
  9
$UCSORGFRONT
 10
0.0
 20
0.0
 30
0.0
  9
$UCSORGBACK
 10
0.0
 20
0.0
 30
0.0
  9
$PUCSBASE
  2

  9
$PUCSNAME
  2

  9
$PUCSORG
 10
0.0
 20
0.0
 30
0.0
  9
$PUCSXDIR
 10
1.0
 20
0.0
 30
0.0
  9
$PUCSYDIR
 10
0.0
 20
1.0
 30
0.0
  9
$PUCSORTHOREF
  2

  9
$PUCSORTHOVIEW
 70
     0
  9
$PUCSORGTOP
 10
0.0
 20
0.0
 30
0.0
  9
$PUCSORGBOTTOM
 10
0.0
 20
0.0
 30
0.0
  9
$PUCSORGLEFT
 10
0.0
 20
0.0
 30
0.0
  9
$PUCSORGRIGHT
 10
0.0
 20
0.0
 30
0.0
  9
$PUCSORGFRONT
 10
0.0
 20
0.0
 30
0.0
  9
$PUCSORGBACK
 10
0.0
 20
0.0
 30
0.0
  9
$USERI1
 70
     3
  9
$USERI2
 70
    20
  9
$USERI3
 70
     0
  9
$USERI4
 70
     0
  9
$USERI5
 70
     0
  9
$USERR1
 40
0.05
  9
$USERR2
 40
0.0
  9
$USERR3
 40
0.0
  9
$USERR4
 40
0.0
  9
$USERR5
 40
0.0
  9
$WORLDVIEW
 70
     1
  9
$SHADEDGE
 70
     3
  9
$SHADEDIF
 70
    70
  9
$TILEMODE
 70
     1
  9
$MAXACTVP
 70
    16
  9
$PINSBASE
 10
0.0
 20
0.0
 30
0.0
  9
$PLIMCHECK
 70
     0
  9
$PEXTMIN
 10
1.000000000000000E+20
 20
1.000000000000000E+20
 30
1.000000000000000E+20
  9
$PEXTMAX
 10
-1.000000000000000E+20
 20
-1.000000000000000E+20
 30
-1.000000000000000E+20
  9
$PLIMMIN
 10
0.0
 20
0.0
  9
$PLIMMAX
 10
12.0
 20
9.0
  9
$UNITMODE
 70
     0
  9
$VISRETAIN
 70
     0
  9
$PLINEGEN
 70
     0
  9
$PSLTSCALE
 70
     1
  9
$TREEDEPTH
 70
  3020
  9
$CMLSTYLE
  2
STANDARD
  9
$CMLJUST
 70
     0
  9
$CMLSCALE
 40
1.0
  9
$PROXYGRAPHICS
 70
     1
  9
$MEASUREMENT
 70
     0
  9
$CELWEIGHT
370
    -1
  9
$ENDCAPS
280
     0
  9
$JOINSTYLE
280
     0
  9
$LWDISPLAY
290
     0
  9
$INSUNITS
 70
     0
  9
$HYPERLINKBASE
  1

  9
$STYLESHEET
  1
CALCOMP_TECHJET720.CTB
  9
$XEDIT
290
     1
  9
$CEPSNTYPE
380
     0
  9
$PSTYLEMODE
290
     1
  9
$FINGERPRINTGUID
  2
{C30171E1-840D-46B8-9CA2-7B8EF2D44540}
  9
$VERSIONGUID
  2
{FF8A8578-0E60-48D9-87F6-A92272A9DFE1}
  9
$EXTNAMES
290
     1
  9
$PSVPSCALE
 40
0.0
  9
$OLESTARTUP
290
     0
  9
$SORTENTS
280
   127
  9
$INDEXCTL
280
     0
  9
$HIDETEXT
280
     0
  9
$XCLIPFRAME
290
     0
  9
$HALOGAP
280
     0
  9
$OBSCOLOR
 70
   257
  9
$OBSLTYPE
280
     0
  9
$INTERSECTIONDISPLAY
280
     0
  9
$INTERSECTIONCOLOR
 70
   257
  9
$DIMASSOC
280
     1
  9
$PROJECTNAME
  1

  0
ENDSEC
  0
SECTION
  2
CLASSES
  0
CLASS
  1
ACDBDICTIONARYWDFLT
  2
AcDbDictionaryWithDefault
  3
ObjectDBX Classes
 90
        0
 91
        1
280
     0
281
     0
  0
CLASS
  1
TABLESTYLE
  2
AcDbTableStyle
  3
ObjectDBX Classes
 90
     2047
 91
        1
280
     0
281
     0
  0
CLASS
  1
SORTENTSTABLE
  2
AcDbSortentsTable
  3
ObjectDBX Classes
 90
        0
 91
        1
280
     0
281
     0
  0
CLASS
  1
DICTIONARYVAR
  2
AcDbDictionaryVar
  3
ObjectDBX Classes
 90
        0
 91
        3
280
     0
281
     0
  0
ENDSEC
  0
SECTION
  2
TABLES
  0
TABLE
  2
VPORT
  5
1581
330
0
100
AcDbSymbolTable
 70
     2
  0
VPORT
  5
2791
330
1581
100
AcDbSymbolTableRecord
100
AcDbViewportTableRecord
  2
*Active
 70
     0
 10
0.0
 20
0.0
 11
1.0
 21
1.0
 12
4199.871835950612
 22
2969.909369707932
 13
0.0
 23
0.0
 14
10.0
 24
10.0
 15
0.0
 25
0.0
 16
0.0
 26
0.0
 36
1.0
 17
0.0
 27
0.0
 37
0.0
 40
6004.283936058063
 41
1.807207207207207
 42
50.0
 43
0.0
 44
0.0
 50
0.0
 51
0.0
 71
     0
 72
 10000
 73
     1
 74
     1
 75
     0
 76
     0
 77
     0
 78
     0
281
     0
 65
     1
110
0.0
120
0.0
130
0.0
111
1.0
121
0.0
131
0.0
112
0.0
122
1.0
132
0.0
 79
     0
146
0.0
  0
ENDTAB
  0
TABLE
  2
LTYPE
  5
157E
330
0
100
AcDbSymbolTable
 70
     6
  0
LTYPE
  5
158B
330
157E
100
AcDbSymbolTableRecord
100
AcDbLinetypeTableRecord
  2
BYBLOCK
 70
     0
  3

 72
    65
 73
     0
 40
0.0
  0
LTYPE
  5
158C
330
157E
100
AcDbSymbolTableRecord
100
AcDbLinetypeTableRecord
  2
BYLAYER
 70
     0
  3

 72
    65
 73
     0
 40
0.0
  0
LTYPE
  5
158D
330
157E
100
AcDbSymbolTableRecord
100
AcDbLinetypeTableRecord
  2
CONTINUOUS
 70
     0
  3
Solid line
 72
    65
 73
     0
 40
0.0
  0
LTYPE
  5
15BE
330
157E
100
AcDbSymbolTableRecord
100
AcDbLinetypeTableRecord
  2
CENTER
 70
     0
  3
____ _ ____ _ ____ _ ____ _ ____ _ ____ _ ____ 
 72
    65
 73
     4
 40
2.0
 49
1.25
 74
     0
 49
-0.25
 74
     0
 49
0.25
 74
     0
 49
-0.25
 74
     0
  0
LTYPE
  5
15BF
330
157E
100
AcDbSymbolTableRecord
100
AcDbLinetypeTableRecord
  2
HIDDEN
 70
     0
  3
__ __ __ __ __ __ __ __ __ __ __ __ __ __ __ __
 72
    65
 73
     2
 40
0.375
 49
0.25
 74
     0
 49
-0.125
 74
     0
  0
LTYPE
  5
15C0
330
157E
100
AcDbSymbolTableRecord
100
AcDbLinetypeTableRecord
  2
HIDDEN2
 70
     0
  3
_ _ _ _ _ _ _ _ _ _ _ _ _ _ _ _ _ _ _ _ _ _ _ _
 72
    65
 73
     2
 40
0.1875
 49
0.125
 74
     0
 49
-0.0625
 74
     0
  0
LTYPE
  5
15C1
330
157E
100
AcDbSymbolTableRecord
100
AcDbLinetypeTableRecord
  2
PHANTOM
 70
     0
  3
______  __  __  ______  __  __  ______  __  __ 
 72
    65
 73
     6
 40
2.5
 49
1.25
 74
     0
 49
-0.25
 74
     0
 49
0.25
 74
     0
 49
-0.25
 74
     0
 49
0.25
 74
     0
 49
-0.25
 74
     0
  0
LTYPE
  5
1EC8
330
157E
100
AcDbSymbolTableRecord
100
AcDbLinetypeTableRecord
  2
HASEN2
 70
     0
  3

 72
    65
 73
     2
 40
2.0
 49
1.0
 74
     0
 49
-1.0
 74
     0
  0
ENDTAB
  0
TABLE
  2
LAYER
  5
157B
102
{ACAD_XDICTIONARY
360
1D51
102
}
330
0
100
AcDbSymbolTable
 70
    18
  0
LAYER
  5
1588
330
157B
100
AcDbSymbolTableRecord
100
AcDbLayerTableRecord
  2
0
 70
     0
 62
     7
  6
CONTINUOUS
370
    -3
390
180A
  0
LAYER
  5
15C4
330
157B
100
AcDbSymbolTableRecord
100
AcDbLayerTableRecord
  2
CENTER
 70
     0
 62
     3
  6
CENTER
370
    -3
390
180A
  0
LAYER
  5
15C5
330
157B
100
AcDbSymbolTableRecord
100
AcDbLayerTableRecord
  2
HASEN
 70
     0
 62
     7
  6
HIDDEN
370
    -3
390
180A
  0
LAYER
  5
15C6
330
157B
100
AcDbSymbolTableRecord
100
AcDbLayerTableRecord
  2
HOJO
 70
     0
 62
     8
  6
CONTINUOUS
370
    -3
390
180A
  0
LAYER
  5
15C7
330
157B
100
AcDbSymbolTableRecord
100
AcDbLayerTableRecord
  2
KASOU
 70
     0
 62
     2
  6
PHANTOM
370
    -3
390
180A
  0
LAYER
  5
15C8
330
157B
100
AcDbSymbolTableRecord
100
AcDbLayerTableRecord
  2
MOJI
 70
     0
 62
     6
  6
CONTINUOUS
370
    -3
390
180A
  0
LAYER
  5
15C9
330
157B
100
AcDbSymbolTableRecord
100
AcDbLayerTableRecord
  2
SJC
 70
     0
 62
     1
  6
CONTINUOUS
370
    -3
390
180A
  0
LAYER
  5
15CA
330
157B
100
AcDbSymbolTableRecord
100
AcDbLayerTableRecord
  2
SUNPOU
 70
     0
 62
     4
  6
CONTINUOUS
370
    -3
390
180A
  0
LAYER
  5
15CB
330
157B
100
AcDbSymbolTableRecord
100
AcDbLayerTableRecord
  2
WAKU
 70
     0
 62
    -5
  6
CONTINUOUS
370
    -3
390
180A
  0
LAYER
  5
15CC
330
157B
100
AcDbSymbolTableRecord
100
AcDbLayerTableRecord
  2
DEFPOINTS
 70
     0
 62
     7
  6
CONTINUOUS
290
     0
370
    -3
390
180A
  0
LAYER
  5
15CD
330
157B
100
AcDbSymbolTableRecord
100
AcDbLayerTableRecord
  2
ZWAKU
 70
     0
 62
    -7
  6
CONTINUOUS
370
    -3
390
180A
  0
LAYER
  5
15CE
330
157B
100
AcDbSymbolTableRecord
100
AcDbLayerTableRecord
  2
1
 70
     0
 62
     7
  6
CONTINUOUS
370
    -3
390
180A
  0
LAYER
  5
15D9
330
157B
100
AcDbSymbolTableRecord
100
AcDbLayerTableRecord
  2
SJC2
 70
     0
 62
     7
  6
CONTINUOUS
370
    -3
390
180A
  0
LAYER
  5
15DA
330
157B
100
AcDbSymbolTableRecord
100
AcDbLayerTableRecord
  2
MOJI2
 70
     0
 62
     1
  6
CONTINUOUS
370
    -3
390
180A
  0
LAYER
  5
15DB
330
157B
100
AcDbSymbolTableRecord
100
AcDbLayerTableRecord
  2
HATCH
 70
     0
 62
     2
  6
CONTINUOUS
370
    -3
390
180A
  0
LAYER
  5
15F2
330
157B
100
AcDbSymbolTableRecord
100
AcDbLayerTableRecord
  2
INFORMATION
 70
     1
 62
     7
  6
CONTINUOUS
370
    -3
390
180A
  0
LAYER
  5
1EC9
330
157B
100
AcDbSymbolTableRecord
100
AcDbLayerTableRecord
  2
LIST
 70
     0
 62
     6
  6
CONTINUOUS
370
    -3
390
180A
  0
LAYER
  5
1ECA
330
157B
100
AcDbSymbolTableRecord
100
AcDbLayerTableRecord
  2
PLAZA
 70
     0
 62
     1
  6
CONTINUOUS
370
    -3
390
180A
  0
ENDTAB
  0
TABLE
  2
STYLE
  5
157C
330
0
100
AcDbSymbolTable
 70
    12
  0
STYLE
  5
1589
330
157C
100
AcDbSymbolTableRecord
100
AcDbTextStyleTableRecord
  2
STANDARD
 70
     0
 40
0.0
 41
1.0
 50
0.0
 71
     0
 42
3.0
  3
ROMANS.SHX
  4
BIGFONT.SHX
  0
STYLE
  5
15BA
330
157C
100
AcDbSymbolTableRecord
100
AcDbTextStyleTableRecord
  2
USER
 70
     0
 40
0.0
 41
1.0
 50
0.0
 71
     0
 42
60.0
  3
TXT
  4
BIGFONT
  0
STYLE
  5
15BB
330
157C
100
AcDbSymbolTableRecord
100
AcDbTextStyleTableRecord
  2
TEXT6060
 70
     0
 40
60.0
 41
1.0
 50
0.0
 71
     0
 42
60.0
  3
TXT
  4
BIGFONT
  0
STYLE
  5
15BC
330
157C
100
AcDbSymbolTableRecord
100
AcDbTextStyleTableRecord
  2
SIMPLEX
 70
     0
 40
0.0
 41
1.0
 50
0.0
 71
     0
 42
0.0
  3
SCRIPTS.SHX
  4

  0
STYLE
  5
15BD
330
157C
100
AcDbSymbolTableRecord
100
AcDbTextStyleTableRecord
  2
KANJI
 70
     0
 40
0.0
 41
1.0
 50
0.0
 71
     0
 42
0.0
  3
ROMANS.SHX
  4
BIGFONT.SHX
  0
STYLE
  5
15EC
330
157C
100
AcDbSymbolTableRecord
100
AcDbTextStyleTableRecord
  2
TATEEXT
 70
     4
 40
0.0
 41
1.0
 50
0.0
 71
     0
 42
0.0
  3
ROMANS
  4
EXTFONT
  0
STYLE
  5
15ED
330
157C
100
AcDbSymbolTableRecord
100
AcDbTextStyleTableRecord
  2
TATEBIG
 70
     4
 40
0.0
 41
1.0
 50
0.0
 71
     0
 42
0.0
  3
ROMANS
  4
BIGFONT
  0
STYLE
  5
15EE
330
157C
100
AcDbSymbolTableRecord
100
AcDbTextStyleTableRecord
  2
EXT08
 70
     0
 40
0.0
 41
0.8
 50
0.0
 71
     0
 42
60.0
  3
ROMANS
  4
EXTFONT
  0
STYLE
  5
15EF
330
157C
100
AcDbSymbolTableRecord
100
AcDbTextStyleTableRecord
  2
EXT
 70
     0
 40
0.0
 41
1.0
 50
0.0
 71
     0
 42
0.0
  3
ROMANS
  4
EXTFONT
  0
STYLE
  5
15F0
330
157C
100
AcDbSymbolTableRecord
100
AcDbTextStyleTableRecord
  2
KANJI08
 70
     0
 40
0.0
 41
0.8
 50
0.0
 71
     0
 42
0.0
  3
ROMANS
  4
BIGFONT
  0
STYLE
  5
1ECB
330
157C
100
AcDbSymbolTableRecord
100
AcDbTextStyleTableRecord
  2
TEXT3030
 70
     0
 40
30.0
 41
1.0
 50
0.0
 71
     0
 42
30.0
  3
TXT
  4
BIGFONT
  0
STYLE
  5
1ECC
330
157C
100
AcDbSymbolTableRecord
100
AcDbTextStyleTableRecord
  2
Y-MOJI
 70
     0
 40
26.0
 41
0.6
 50
0.0
 71
     0
 42
26.0
  3
TXT
  4
BIGFONT
  0
ENDTAB
  0
TABLE
  2
VIEW
  5
157F
330
0
100
AcDbSymbolTable
 70
     0
  0
ENDTAB
  0
TABLE
  2
UCS
  5
1580
330
0
100
AcDbSymbolTable
 70
     0
  0
ENDTAB
  0
TABLE
  2
APPID
  5
1582
330
0
100
AcDbSymbolTable
 70
     1
  0
APPID
  5
158A
330
1582
100
AcDbSymbolTableRecord
100
AcDbRegAppTableRecord
  2
ACAD
 70
     0
  0
ENDTAB
  0
TABLE
  2
DIMSTYLE
  5
1583
330
0
100
AcDbSymbolTable
 70
    28
100
AcDbDimStyleTable
 71
     1
340
15F1
  0
DIMSTYLE
105
15D3
330
1583
100
AcDbSymbolTableRecord
100
AcDbDimStyleTableRecord
  2
STANDARD
 70
     0
340
1589
  0
DIMSTYLE
105
15F1
102
{ACAD_REACTORS
330
2C
330
2D
330
2E
330
2F
330
30
330
109
330
10B
330
10C
330
10E
330
117
330
150
330
1AE
330
144A
330
22F2
330
253D
102
}
330
1583
100
AcDbSymbolTableRecord
100
AcDbDimStyleTableRecord
  2
SJC
 70
     0
340
1589
  0
DIMSTYLE
105
1A00
330
1583
100
AcDbSymbolTableRecord
100
AcDbDimStyleTableRecord
  2
RUISEKI1
 70
     0
 40
20.0
 41
2.0
 42
1.0
 43
6.0
 44
30.0
 77
     1
147
1.5
173
     1
340
1589
341
19FB
343
19FB
  0
DIMSTYLE
105
1A04
330
1583
100
AcDbSymbolTableRecord
100
AcDbDimStyleTableRecord
  2
RUISEKI2
 70
     0
 40
20.0
 41
2.0
 42
1.0
 43
6.0
 44
30.0
 77
     1
147
1.5
173
     1
340
1589
341
1A01
343
1A01
  0
DIMSTYLE
105
1ECD
330
1583
100
AcDbSymbolTableRecord
100
AcDbDimStyleTableRecord
  2
S01-20AX
 70
     0
 41
40.0
 44
20.0
 73
     0
 74
     0
 77
     1
 78
     8
140
60.0
146
0.003
172
     1
174
     1
271
     1
272
     1
275
     1
279
     2
284
     8
285
     8
286
     8
340
15BD
  0
DIMSTYLE
105
1ECE
330
1583
100
AcDbSymbolTableRecord
100
AcDbDimStyleTableRecord
  2
S01-10AX
 70
     0
 41
40.0
 44
20.0
 73
     0
 74
     0
 77
     1
 78
     8
140
60.0
144
0.5
146
0.003
172
     1
174
     1
271
     1
272
     1
275
     1
279
     2
284
     8
285
     8
286
     8
340
15BD
  0
DIMSTYLE
105
1ECF
330
1583
100
AcDbSymbolTableRecord
100
AcDbDimStyleTableRecord
  2
S01-25AX
 70
     0
 41
50.0
 42
25.0
 43
0.4
 44
25.0
 73
     0
 74
     0
 77
     1
 78
     8
140
62.5
141
0.1
146
0.0032
147
0.1
172
     1
176
   256
177
   256
178
   256
271
     1
272
     1
275
     1
279
     2
284
     8
285
     8
286
     8
340
15BD
  0
DIMSTYLE
105
1ED0
330
1583
100
AcDbSymbolTableRecord
100
AcDbDimStyleTableRecord
  2
S01-15AX
 70
     0
 41
50.0
 42
25.0
 43
0.4
 44
25.0
 73
     0
 74
     0
 77
     1
 78
     8
140
62.5
141
0.1
144
0.6
146
0.0032
147
0.1
172
     1
176
   256
177
   256
178
   256
271
     1
272
     1
275
     1
279
     2
284
     8
285
     8
286
     8
340
15BD
  0
DIMSTYLE
105
1ED1
330
1583
100
AcDbSymbolTableRecord
100
AcDbDimStyleTableRecord
  2
S01-04AX
 70
     0
 41
50.0
 42
25.0
 43
0.4
 44
25.0
 73
     0
 74
     0
 77
     1
 78
     8
140
62.5
141
0.1
144
0.16
146
0.0032
147
0.1
172
     1
176
   256
177
   256
178
   256
271
     1
272
     1
275
     1
279
     2
284
     8
285
     8
286
     8
340
15BD
  0
DIMSTYLE
105
1ED2
330
1583
100
AcDbSymbolTableRecord
100
AcDbDimStyleTableRecord
  2
S01-25BX
 70
     0
 41
50.0
 42
25.0
 43
0.4
 44
25.0
 73
     0
 74
     0
 75
     1
 77
     1
 78
     8
140
62.5
141
0.1
146
0.0032
147
0.1
172
     1
176
   256
177
   256
178
   256
271
     1
272
     1
275
     1
279
     2
284
     8
285
     8
286
     8
340
15BD
  0
DIMSTYLE
105
1ED3
330
1583
100
AcDbSymbolTableRecord
100
AcDbDimStyleTableRecord
  2
S01-15BX
 70
     0
 41
50.0
 42
25.0
 43
0.4
 44
25.0
 73
     0
 74
     0
 75
     1
 77
     1
 78
     8
140
62.5
141
0.1
144
0.6
146
0.0032
147
0.1
172
     1
176
   256
177
   256
178
   256
271
     1
272
     1
275
     1
279
     2
284
     8
285
     8
286
     8
340
15BD
  0
DIMSTYLE
105
1ED4
330
1583
100
AcDbSymbolTableRecord
100
AcDbDimStyleTableRecord
  2
S01-04BX
 70
     0
 41
50.0
 42
25.0
 43
0.4
 44
25.0
 73
     0
 74
     0
 75
     1
 77
     1
 78
     8
140
62.5
141
0.1
144
0.16
146
0.0032
147
0.1
172
     1
176
   256
177
   256
178
   256
271
     1
272
     1
275
     1
279
     2
284
     8
285
     8
286
     8
340
15BD
  0
DIMSTYLE
105
1ED5
330
1583
100
AcDbSymbolTableRecord
100
AcDbDimStyleTableRecord
  2
S01-03AX
 70
     0
 41
40.0
 42
20.0
 43
0.4
 44
20.0
 73
     0
 74
     0
 77
     1
 78
     8
140
50.0
141
0.1
144
0.15
146
0.004
147
0.1
172
     1
176
   256
177
   256
178
   256
271
     1
272
     1
275
     1
279
     2
284
     8
285
     8
286
     8
340
15BD
  0
DIMSTYLE
105
1ED6
330
1583
100
AcDbSymbolTableRecord
100
AcDbDimStyleTableRecord
  2
S01-20BX
 70
     0
 41
40.0
 42
20.0
 43
0.4
 44
20.0
 73
     0
 74
     0
 75
     1
 77
     1
 78
     8
140
50.0
141
0.1
146
0.004
147
0.1
172
     1
176
   256
177
   256
178
   256
271
     1
272
     1
275
     1
279
     2
284
     8
285
     8
286
     8
340
15BD
  0
DIMSTYLE
105
1ED7
330
1583
100
AcDbSymbolTableRecord
100
AcDbDimStyleTableRecord
  2
S01-03DX
 70
     0
 41
40.0
 42
20.0
 43
0.4
 44
20.0
 73
     0
 74
     0
 75
     1
 76
     1
 77
     1
 78
     8
140
50.0
141
0.1
144
0.15
146
0.004
147
0.1
172
     1
176
   256
177
   256
178
   256
271
     1
272
     1
275
     1
279
     2
284
     8
285
     8
286
     8
340
15BD
  0
DIMSTYLE
105
1ED8
330
1583
100
AcDbSymbolTableRecord
100
AcDbDimStyleTableRecord
  2
S01-20DX
 70
     0
 41
40.0
 44
20.0
 73
     0
 74
     0
 75
     1
 76
     1
 77
     1
 78
     8
140
60.0
146
0.003
172
     1
174
     1
271
     1
272
     1
275
     1
279
     2
284
     8
285
     8
286
     8
340
15BD
  0
DIMSTYLE
105
1ED9
330
1583
100
AcDbSymbolTableRecord
100
AcDbDimStyleTableRecord
  2
S01-20CX
 70
     0
 41
40.0
 44
20.0
 73
     0
 74
     0
 76
     1
 77
     1
 78
     8
140
60.0
146
0.003
172
     1
174
     1
271
     1
272
     1
275
     1
279
     2
284
     8
285
     8
286
     8
340
15BD
  0
DIMSTYLE
105
1EDA
330
1583
100
AcDbSymbolTableRecord
100
AcDbDimStyleTableRecord
  2
S01-10DX
 70
     0
 41
40.0
 44
20.0
 73
     0
 74
     0
 75
     1
 76
     1
 77
     1
 78
     8
140
60.0
144
0.5
146
0.003
172
     1
174
     1
271
     1
272
     1
275
     1
279
     2
284
     8
285
     8
286
     8
340
15BD
  0
DIMSTYLE
105
1EDB
330
1583
100
AcDbSymbolTableRecord
100
AcDbDimStyleTableRecord
  2
S01-10CX
 70
     0
 41
40.0
 44
20.0
 73
     0
 74
     0
 76
     1
 77
     1
 78
     8
140
60.0
144
0.5
146
0.003
172
     1
174
     1
271
     1
272
     1
275
     1
279
     2
284
     8
285
     8
286
     8
340
15BD
  0
DIMSTYLE
105
1EDC
330
1583
100
AcDbSymbolTableRecord
100
AcDbDimStyleTableRecord
  2
S01-08AX
 70
     0
 41
40.0
 42
20.0
 43
0.4
 44
20.0
 73
     0
 74
     0
 77
     1
 78
     8
140
50.0
141
0.1
144
0.4
146
0.004
147
0.1
172
     1
176
   256
177
   256
178
   256
271
     1
272
     1
275
     1
279
     2
284
     8
285
     8
286
     8
340
15BD
  0
DIMSTYLE
105
1EDD
330
1583
100
AcDbSymbolTableRecord
100
AcDbDimStyleTableRecord
  2
S01-06AX
 70
     0
 41
40.0
 42
20.0
 43
0.4
 44
20.0
 73
     0
 74
     0
 77
     1
 78
     8
140
50.0
141
0.1
144
0.3
146
0.004
147
0.1
172
     1
176
   256
177
   256
178
   256
271
     1
272
     1
275
     1
279
     2
284
     8
285
     8
286
     8
340
15BD
  0
DIMSTYLE
105
1EDE
330
1583
100
AcDbSymbolTableRecord
100
AcDbDimStyleTableRecord
  2
S01-05AX
 70
     0
 41
40.0
 42
20.0
 43
0.4
 44
20.0
 73
     0
 74
     0
 77
     1
 78
     8
140
50.0
141
0.1
144
0.25
146
0.004
147
0.1
172
     1
176
   256
177
   256
178
   256
271
     1
272
     1
275
     1
279
     2
284
     8
285
     8
286
     8
340
15BD
  0
DIMSTYLE
105
1EDF
330
1583
100
AcDbSymbolTableRecord
100
AcDbDimStyleTableRecord
  2
S10-25AX
 70
     0
 41
40.0
 42
20.0
 43
0.4
 44
20.0
 73
     0
 74
     0
 77
     1
 78
     8
140
50.0
141
0.1
144
0.125
146
0.004
147
0.1
172
     1
176
   256
177
   256
178
   256
271
     1
272
     1
275
     1
279
     2
284
     8
285
     8
286
     8
340
15BD
  0
DIMSTYLE
105
1EE0
330
1583
100
AcDbSymbolTableRecord
100
AcDbDimStyleTableRecord
  2
S01-02AX
 70
     0
 41
40.0
 42
20.0
 43
0.4
 44
20.0
 73
     0
 74
     0
 77
     1
 78
     8
140
50.0
141
0.1
144
0.1
146
0.004
147
0.1
172
     1
176
   256
177
   256
178
   256
271
     1
272
     1
275
     1
279
     2
284
     8
285
     8
286
     8
340
15BD
  0
DIMSTYLE
105
1EE1
330
1583
100
AcDbSymbolTableRecord
100
AcDbDimStyleTableRecord
  2
S01-01AX
 70
     0
 41
40.0
 42
20.0
 43
0.4
 44
20.0
 73
     0
 74
     0
 77
     1
 78
     8
140
50.0
141
0.1
144
0.05
146
0.004
147
0.1
172
     1
176
   256
177
   256
178
   256
271
     1
272
     1
275
     1
279
     2
284
     8
285
     8
286
     8
340
15BD
  0
DIMSTYLE
105
1EE2
330
1583
100
AcDbSymbolTableRecord
100
AcDbDimStyleTableRecord
  2
S01-20AA
 70
     0
  3
□<>
 41
40.0
 44
20.0
 73
     0
 74
     0
 77
     1
 78
     8
140
60.0
146
0.003
172
     1
174
     1
271
     1
272
     1
275
     1
279
     2
284
     8
285
     8
286
     8
340
15BD
  0
DIMSTYLE
105
1EE3
330
1583
100
AcDbSymbolTableRecord
100
AcDbDimStyleTableRecord
  2
S01-03BX
 70
     0
 41
40.0
 44
20.0
 73
     0
 74
     0
 75
     1
 77
     1
 78
     8
140
60.0
144
0.15
146
0.003
172
     1
174
     1
271
     1
272
     1
275
     1
279
     2
284
     8
285
     8
286
     8
340
15BD
  0
DIMSTYLE
105
1EE4
330
1583
100
AcDbSymbolTableRecord
100
AcDbDimStyleTableRecord
  2
S01-03AB
 70
     0
  3
φ<>
 41
40.0
 44
20.0
 73
     0
 74
     0
 77
     1
 78
     8
140
60.0
144
0.15
146
0.003
172
     1
174
     1
271
     1
272
     1
275
     1
279
     2
284
     8
285
     8
286
     8
340
15BD
  0
ENDTAB
  0
TABLE
  2
BLOCK_RECORD
  5
157A
330
0
100
AcDbSymbolTable
 70
    30
  0
BLOCK_RECORD
  5
1591
102
{ACAD_XDICTIONARY
360
1D38
102
}
330
157A
100
AcDbSymbolTableRecord
100
AcDbBlockTableRecord
  2
*MODEL_SPACE
340
180D
  0
BLOCK_RECORD
  5
158E
102
{ACAD_XDICTIONARY
360
1D36
102
}
330
157A
100
AcDbSymbolTableRecord
100
AcDbBlockTableRecord
  2
*PAPER_SPACE
340
180E
  0
BLOCK_RECORD
  5
15B4
330
157A
100
AcDbSymbolTableRecord
100
AcDbBlockTableRecord
  2
*X0
340
0
102
{BLKREFS
331
10BE
331
1512
102
}
  0
BLOCK_RECORD
  5
15B9
330
157A
100
AcDbSymbolTableRecord
100
AcDbBlockTableRecord
  2
*X1
340
0
102
{BLKREFS
331
154E
102
}
  0
BLOCK_RECORD
  5
15F5
330
157A
100
AcDbSymbolTableRecord
100
AcDbBlockTableRecord
  2
CALCOMP_TECHJET720A3
340
0
102
{BLKREFS
331
15FE
102
}
  0
BLOCK_RECORD
  5
1619
330
157A
100
AcDbSymbolTableRecord
100
AcDbBlockTableRecord
  2
*D3
340
0
  0
BLOCK_RECORD
  5
1625
330
157A
100
AcDbSymbolTableRecord
100
AcDbBlockTableRecord
  2
*D4
340
0
  0
BLOCK_RECORD
  5
1631
330
157A
100
AcDbSymbolTableRecord
100
AcDbBlockTableRecord
  2
*D5
340
0
  0
BLOCK_RECORD
  5
1649
330
157A
100
AcDbSymbolTableRecord
100
AcDbBlockTableRecord
  2
*D6
340
0
  0
BLOCK_RECORD
  5
1655
330
157A
100
AcDbSymbolTableRecord
100
AcDbBlockTableRecord
  2
*D7
340
0
  0
BLOCK_RECORD
  5
1661
330
157A
100
AcDbSymbolTableRecord
100
AcDbBlockTableRecord
  2
*D8
340
0
  0
BLOCK_RECORD
  5
166D
330
157A
100
AcDbSymbolTableRecord
100
AcDbBlockTableRecord
  2
*D9
340
0
  0
BLOCK_RECORD
  5
1679
330
157A
100
AcDbSymbolTableRecord
100
AcDbBlockTableRecord
  2
*D10
340
0
  0
BLOCK_RECORD
  5
1685
330
157A
100
AcDbSymbolTableRecord
100
AcDbBlockTableRecord
  2
*D11
340
0
  0
BLOCK_RECORD
  5
1691
330
157A
100
AcDbSymbolTableRecord
100
AcDbBlockTableRecord
  2
*D12
340
0
  0
BLOCK_RECORD
  5
169D
330
157A
100
AcDbSymbolTableRecord
100
AcDbBlockTableRecord
  2
*D13
340
0
  0
BLOCK_RECORD
  5
16A9
330
157A
100
AcDbSymbolTableRecord
100
AcDbBlockTableRecord
  2
*D14
340
0
  0
BLOCK_RECORD
  5
16B5
330
157A
100
AcDbSymbolTableRecord
100
AcDbBlockTableRecord
  2
*D15
340
0
  0
BLOCK_RECORD
  5
19FB
330
157A
100
AcDbSymbolTableRecord
100
AcDbBlockTableRecord
  2
_Dot
340
0
  0
BLOCK_RECORD
  5
1A01
330
157A
100
AcDbSymbolTableRecord
100
AcDbBlockTableRecord
  2
_None
340
0
  0
BLOCK_RECORD
  5
1E5E
330
157A
100
AcDbSymbolTableRecord
100
AcDbBlockTableRecord
  2
*D18
340
0
  0
BLOCK_RECORD
  5
1E6A
330
157A
100
AcDbSymbolTableRecord
100
AcDbBlockTableRecord
  2
*D19
340
0
  0
BLOCK_RECORD
  5
1E74
330
157A
100
AcDbSymbolTableRecord
100
AcDbBlockTableRecord
  2
*D20
340
0
  0
BLOCK_RECORD
  5
1E80
330
157A
100
AcDbSymbolTableRecord
100
AcDbBlockTableRecord
  2
*D21
340
0
  0
BLOCK_RECORD
  5
1E8C
330
157A
100
AcDbSymbolTableRecord
100
AcDbBlockTableRecord
  2
*D22
340
0
  0
BLOCK_RECORD
  5
1E98
330
157A
100
AcDbSymbolTableRecord
100
AcDbBlockTableRecord
  2
*D23
340
0
  0
BLOCK_RECORD
  5
1EA4
330
157A
100
AcDbSymbolTableRecord
100
AcDbBlockTableRecord
  2
*D24
340
0
  0
BLOCK_RECORD
  5
1EB0
330
157A
100
AcDbSymbolTableRecord
100
AcDbBlockTableRecord
  2
*D25
340
0
  0
BLOCK_RECORD
  5
1EBC
330
157A
100
AcDbSymbolTableRecord
100
AcDbBlockTableRecord
  2
*D26
340
0
  0
BLOCK_RECORD
  5
22F3
330
157A
100
AcDbSymbolTableRecord
100
AcDbBlockTableRecord
  2
*D27
340
0
  0
BLOCK_RECORD
  5
252D
330
157A
100
AcDbSymbolTableRecord
100
AcDbBlockTableRecord
  2
B0070019
340
0
102
{BLKREFS
331
253C
331
254D
102
}
  0
BLOCK_RECORD
  5
253E
330
157A
100
AcDbSymbolTableRecord
100
AcDbBlockTableRecord
  2
*D29
340
0
  0
ENDTAB
  0
ENDSEC
  0
SECTION
  2
BLOCKS
  0
BLOCK
  5
15D1
330
1591
100
AcDbEntity
  8
0
100
AcDbBlockBegin
  2
*MODEL_SPACE
 70
     0
 10
0.0
 20
0.0
 30
0.0
  3
*MODEL_SPACE
  1

  0
ENDBLK
  5
15D2
330
1591
100
AcDbEntity
  8
0
100
AcDbBlockEnd
  0
BLOCK
  5
15CF
330
158E
100
AcDbEntity
 67
     1
  8
0
100
AcDbBlockBegin
  2
*PAPER_SPACE
 70
     0
 10
0.0
 20
0.0
 30
0.0
  3
*PAPER_SPACE
  1

  0
ENDBLK
  5
15D0
330
158E
100
AcDbEntity
 67
     1
  8
0
100
AcDbBlockEnd
  0
BLOCK
  5
10BD
330
15B4
100
AcDbEntity
  8
0
100
AcDbBlockBegin
  2
*X0
 70
     1
 10
0.0
 20
0.0
 30
0.0
  3
*X0
  1

  0
LINE
  5
10BF
330
15B4
100
AcDbEntity
  8
0
 62
     0
100
AcDbLine
 10
5847.904055427268
 20
3196.253625977716
 30
0.0
 11
5976.554055427267
 21
3324.903625977714
 31
0.0
  0
LINE
  5
10C0
330
15B4
100
AcDbEntity
  8
0
 62
     0
100
AcDbLine
 10
6019.254055427271
 20
3367.603625977718
 30
0.0
 11
6147.904055427268
 21
3496.253625977716
 31
0.0
  0
LINE
  5
10C1
330
15B4
100
AcDbEntity
  8
0
 62
     0
100
AcDbLine
 10
5847.904055427268
 20
3373.030321274353
 30
0.0
 11
5976.554055427267
 21
3501.680321274351
 31
0.0
  0
LINE
  5
10C2
330
15B4
100
AcDbEntity
  8
0
 62
     0
100
AcDbLine
 10
6019.254055427271
 20
3544.380321274355
 30
0.0
 11
6044.87373415291
 21
3569.999999999994
 31
0.0
  0
LINE
  5
10C3
330
15B4
100
AcDbEntity
  8
0
 62
     0
100
AcDbLine
 10
5847.90405542727
 20
3549.807016570991
 30
0.0
 11
5868.097038856274
 21
3569.999999999995
 31
0.0
  0
LINE
  5
10C4
330
15B4
100
AcDbEntity
  8
0
 62
     0
100
AcDbLine
 10
5948.427124746184
 20
3119.999999999995
 30
0.0
 11
5976.554055427267
 21
3148.126930681077
 31
0.0
  0
LINE
  5
10C5
330
15B4
100
AcDbEntity
  8
0
 62
     0
100
AcDbLine
 10
6019.254055427271
 20
3190.826930681082
 30
0.0
 11
6147.904055427268
 21
3319.476930681079
 31
0.0
  0
LINE
  5
10C6
330
15B4
100
AcDbEntity
  8
0
 62
     0
100
AcDbLine
 10
6125.203820042821
 20
3119.999999999994
 30
0.0
 11
6147.904055427268
 21
3142.700235384442
 31
0.0
  0
LINE
  5
10C7
330
15B4
100
AcDbEntity
  8
0
 62
     0
100
AcDbLine
 10
5847.904055427268
 20
3218.350712889796
 30
0.0
 11
5976.554055427267
 21
3347.000712889793
 31
0.0
  0
LINE
  5
10C8
330
15B4
100
AcDbEntity
  8
0
 62
     0
100
AcDbLine
 10
6019.254055427271
 20
3389.700712889798
 30
0.0
 11
6147.904055427268
 21
3518.350712889795
 31
0.0
  0
LINE
  5
10C9
330
15B4
100
AcDbEntity
  8
0
 62
     0
100
AcDbLine
 10
5847.904055427268
 20
3395.127408186433
 30
0.0
 11
5976.554055427267
 21
3523.77740818643
 31
0.0
  0
LINE
  5
10CA
330
15B4
100
AcDbEntity
  8
0
 62
     0
100
AcDbLine
 10
6019.254055427271
 20
3566.477408186435
 30
0.0
 11
6022.776647240831
 21
3569.999999999994
 31
0.0
  0
LINE
  5
10CB
330
15B4
100
AcDbEntity
  8
0
 62
     0
100
AcDbLine
 10
5926.330037834105
 20
3119.999999999995
 30
0.0
 11
5976.554055427267
 21
3170.224017593157
 31
0.0
  0
LINE
  5
10CC
330
15B4
100
AcDbEntity
  8
0
 62
     0
100
AcDbLine
 10
6019.254055427271
 20
3212.924017593161
 30
0.0
 11
6147.904055427268
 21
3341.574017593158
 31
0.0
  0
LINE
  5
10CD
330
15B4
100
AcDbEntity
  8
0
 62
     0
100
AcDbLine
 10
6103.106733130741
 20
3119.999999999994
 30
0.0
 11
6147.904055427268
 21
3164.797322296522
 31
0.0
  0
LINE
  5
10CE
330
15B4
100
AcDbEntity
  8
0
 62
     0
100
AcDbLine
 10
5847.904055427268
 20
3240.447799801875
 30
0.0
 11
5976.554055427267
 21
3369.097799801873
 31
0.0
  0
LINE
  5
10CF
330
15B4
100
AcDbEntity
  8
0
 62
     0
100
AcDbLine
 10
6019.254055427271
 20
3411.797799801878
 30
0.0
 11
6147.904055427268
 21
3540.447799801875
 31
0.0
  0
LINE
  5
10D0
330
15B4
100
AcDbEntity
  8
0
 62
     0
100
AcDbLine
 10
5847.904055427268
 20
3417.224495098512
 30
0.0
 11
5976.554055427267
 21
3545.87449509851
 31
0.0
  0
LINE
  5
10D1
330
15B4
100
AcDbEntity
  8
0
 62
     0
100
AcDbLine
 10
5904.232950922025
 20
3119.999999999995
 30
0.0
 11
5976.554055427267
 21
3192.321104505236
 31
0.0
  0
LINE
  5
10D2
330
15B4
100
AcDbEntity
  8
0
 62
     0
100
AcDbLine
 10
6019.254055427271
 20
3235.021104505241
 30
0.0
 11
6147.904055427268
 21
3363.671104505238
 31
0.0
  0
LINE
  5
10D3
330
15B4
100
AcDbEntity
  8
0
 62
     0
100
AcDbLine
 10
6081.009646218661
 20
3119.999999999994
 30
0.0
 11
6147.904055427268
 21
3186.894409208601
 31
0.0
  0
ENDBLK
  5
10D4
330
15B4
100
AcDbEntity
  8
0
100
AcDbBlockEnd
  0
BLOCK
  5
154D
330
15B9
100
AcDbEntity
  8
0
100
AcDbBlockBegin
  2
*X1
 70
     1
 10
0.0
 20
0.0
 30
0.0
  3
*X1
  1

  0
LINE
  5
154F
330
15B9
100
AcDbEntity
  8
0
 62
     0
100
AcDbLine
 10
3852.061606481257
 20
3144.954825294709
 30
0.0
 11
3980.711606481255
 21
3273.604825294707
 31
0.0
  0
LINE
  5
1550
330
15B9
100
AcDbEntity
  8
0
 62
     0
100
AcDbLine
 10
4173.411606481253
 20
3466.304825294706
 30
0.0
 11
4277.106781186547
 21
3570.0
 31
0.0
  0
LINE
  5
1551
330
15B9
100
AcDbEntity
  8
0
 62
     0
100
AcDbLine
 10
4023.411606481254
 20
3316.304825294707
 30
0.0
 11
4130.711606481255
 21
3423.604825294708
 31
0.0
  0
LINE
  5
1552
330
15B9
100
AcDbEntity
  8
0
 62
     0
100
AcDbLine
 10
3852.061606481256
 20
3321.731520591345
 30
0.0
 11
3980.711606481255
 21
3450.381520591344
 31
0.0
  0
LINE
  5
1553
330
15B9
100
AcDbEntity
  8
0
 62
     0
100
AcDbLine
 10
4023.411606481254
 20
3493.081520591344
 30
0.0
 11
4100.33008588991
 21
3570.0
 31
0.0
  0
LINE
  5
1554
330
15B9
100
AcDbEntity
  8
0
 62
     0
100
AcDbLine
 10
3852.061606481255
 20
3498.508215887981
 30
0.0
 11
3923.553390593273
 21
3570.0
 31
0.0
  0
LINE
  5
1555
330
15B9
100
AcDbEntity
  8
0
 62
     0
100
AcDbLine
 10
4023.411606481255
 20
3139.528129998071
 30
0.0
 11
4130.711606481255
 21
3246.828129998071
 31
0.0
  0
LINE
  5
1556
330
15B9
100
AcDbEntity
  8
0
 62
     0
100
AcDbLine
 10
4173.411606481253
 20
3289.52812999807
 30
0.0
 11
4302.061606481255
 21
3418.178129998071
 31
0.0
  0
LINE
  5
1557
330
15B9
100
AcDbEntity
  8
0
 62
     0
100
AcDbLine
 10
4180.66017177982
 20
3120.0
 30
0.0
 11
4302.061606481255
 21
3241.401434701434
 31
0.0
  0
LINE
  5
1558
330
15B9
100
AcDbEntity
  8
0
 62
     0
100
AcDbLine
 10
3852.061606481256
 20
3167.051912206788
 30
0.0
 11
3980.711606481255
 21
3295.701912206786
 31
0.0
  0
LINE
  5
1559
330
15B9
100
AcDbEntity
  8
0
 62
     0
100
AcDbLine
 10
4173.411606481253
 20
3488.401912206786
 30
0.0
 11
4255.009694274468
 21
3570.0
 31
0.0
  0
LINE
  5
155A
330
15B9
100
AcDbEntity
  8
0
 62
     0
100
AcDbLine
 10
4023.411606481254
 20
3338.401912206787
 30
0.0
 11
4130.711606481255
 21
3445.701912206788
 31
0.0
  0
LINE
  5
155B
330
15B9
100
AcDbEntity
  8
0
 62
     0
100
AcDbLine
 10
3852.061606481256
 20
3343.828607503424
 30
0.0
 11
3980.711606481255
 21
3472.478607503424
 31
0.0
  0
LINE
  5
155C
330
15B9
100
AcDbEntity
  8
0
 62
     0
100
AcDbLine
 10
4023.411606481254
 20
3515.178607503424
 30
0.0
 11
4078.23299897783
 21
3570.0
 31
0.0
  0
LINE
  5
155D
330
15B9
100
AcDbEntity
  8
0
 62
     0
100
AcDbLine
 10
3852.061606481255
 20
3520.605302800061
 30
0.0
 11
3901.456303681193
 21
3570.0
 31
0.0
  0
LINE
  5
155E
330
15B9
100
AcDbEntity
  8
0
 62
     0
100
AcDbLine
 10
4023.411606481255
 20
3161.625216910151
 30
0.0
 11
4130.711606481255
 21
3268.925216910151
 31
0.0
  0
LINE
  5
155F
330
15B9
100
AcDbEntity
  8
0
 62
     0
100
AcDbLine
 10
4173.411606481253
 20
3311.62521691015
 30
0.0
 11
4302.061606481255
 21
3440.27521691015
 31
0.0
  0
LINE
  5
1560
330
15B9
100
AcDbEntity
  8
0
 62
     0
100
AcDbLine
 10
4173.411606481255
 20
3134.848521613513
 30
0.0
 11
4302.061606481255
 21
3263.498521613513
 31
0.0
  0
LINE
  5
1561
330
15B9
100
AcDbEntity
  8
0
 62
     0
100
AcDbLine
 10
3852.061606481256
 20
3189.148999118868
 30
0.0
 11
3980.711606481255
 21
3317.798999118866
 31
0.0
  0
LINE
  5
1562
330
15B9
100
AcDbEntity
  8
0
 62
     0
100
AcDbLine
 10
4173.411606481253
 20
3510.498999118865
 30
0.0
 11
4232.912607362388
 21
3570.0
 31
0.0
  0
LINE
  5
1563
330
15B9
100
AcDbEntity
  8
0
 62
     0
100
AcDbLine
 10
4023.411606481254
 20
3360.498999118867
 30
0.0
 11
4130.711606481255
 21
3467.798999118867
 31
0.0
  0
LINE
  5
1564
330
15B9
100
AcDbEntity
  8
0
 62
     0
100
AcDbLine
 10
3852.061606481256
 20
3365.925694415504
 30
0.0
 11
3980.711606481255
 21
3494.575694415504
 31
0.0
  0
LINE
  5
1565
330
15B9
100
AcDbEntity
  8
0
 62
     0
100
AcDbLine
 10
4023.411606481254
 20
3537.275694415504
 30
0.0
 11
4056.135912065752
 21
3570.0
 31
0.0
  0
LINE
  5
1566
330
15B9
100
AcDbEntity
  8
0
 62
     0
100
AcDbLine
 10
3852.061606481255
 20
3542.702389712141
 30
0.0
 11
3879.359216769114
 21
3570.0
 31
0.0
  0
LINE
  5
1567
330
15B9
100
AcDbEntity
  8
0
 62
     0
100
AcDbLine
 10
3959.689302659026
 20
3120.000000000001
 30
0.0
 11
3980.711606481254
 21
3141.022303822229
 31
0.0
  0
LINE
  5
1568
330
15B9
100
AcDbEntity
  8
0
 62
     0
100
AcDbLine
 10
4173.411606481253
 20
3333.722303822229
 30
0.0
 11
4302.061606481255
 21
3462.37230382223
 31
0.0
  0
LINE
  5
1569
330
15B9
100
AcDbEntity
  8
0
 62
     0
100
AcDbLine
 10
4023.411606481255
 20
3183.72230382223
 30
0.0
 11
4130.711606481255
 21
3291.022303822231
 31
0.0
  0
LINE
  5
156A
330
15B9
100
AcDbEntity
  8
0
 62
     0
100
AcDbLine
 10
4173.411606481255
 20
3156.945608525592
 30
0.0
 11
4302.061606481255
 21
3285.595608525593
 31
0.0
  0
ENDBLK
  5
156B
330
15B9
100
AcDbEntity
  8
0
100
AcDbBlockEnd
  0
BLOCK
  5
15FC
330
15F5
100
AcDbEntity
  8
0
100
AcDbBlockBegin
  2
CALCOMP_TECHJET720A3
 70
     0
 10
0.0
 20
0.0
 30
0.0
  3
CALCOMP_TECHJET720A3
  1

  0
LWPOLYLINE
  5
15F6
330
15F5
100
AcDbEntity
  8
ZWAKU
100
AcDbPolyline
 90
        4
 70
     1
 43
0.0
 10
0.0
 20
0.0
 10
0.0
 20
267.0
 10
370.0
 20
267.0
 10
370.0
 20
0.0
  0
ENDBLK
  5
15FD
330
15F5
100
AcDbEntity
  8
0
100
AcDbBlockEnd
  0
BLOCK
  5
161A
330
1619
100
AcDbEntity
  8
0
100
AcDbBlockBegin
  2
*D3
 70
     1
 10
0.0
 20
0.0
 30
0.0
  3
*D3
  1

  0
LINE
  5
2703
330
1619
100
AcDbEntity
  8
SUNPOU
370
    -2
100
AcDbLine
 10
6017.904055427269
 20
4573.288337860033
 30
0.0
 11
6636.753444806794
 21
4573.288337860033
 31
0.0
  0
LINE
  5
2704
330
1619
100
AcDbEntity
  8
SUNPOU
370
    -2
100
AcDbLine
 10
6167.904055427269
 20
3023.288337860027
 30
0.0
 11
6636.753444806794
 21
3023.288337860027
 31
0.0
  0
LINE
  5
2705
330
1619
100
AcDbEntity
  8
SUNPOU
370
    -2
100
AcDbLine
 10
6616.753444806794
 20
4533.288337860033
 30
0.0
 11
6616.753444806794
 21
3063.288337860027
 31
0.0
  0
SOLID
  5
2706
330
1619
100
AcDbEntity
  8
SUNPOU
100
AcDbTrace
 10
6610.086778140128
 20
4533.288337860033
 30
0.0
 11
6623.420111473461
 21
4533.288337860033
 31
0.0
 12
6616.753444806794
 22
4573.288337860033
 32
0.0
 13
6616.753444806794
 23
4573.288337860033
 33
0.0
  0
SOLID
  5
2707
330
1619
100
AcDbEntity
  8
SUNPOU
100
AcDbTrace
 10
6610.086778140128
 20
3063.288337860027
 30
0.0
 11
6623.420111473461
 21
3063.288337860027
 31
0.0
 12
6616.753444806794
 22
3023.288337860027
 32
0.0
 13
6616.753444806794
 23
3023.288337860027
 33
0.0
  0
MTEXT
  5
2708
330
1619
100
AcDbEntity
  8
SUNPOU
100
AcDbMText
 10
6562.753444806793
 20
3798.288337860031
 30
0.0
 40
60.0
 41
0.0
 71
     5
 72
     1
  1
\A1;1550
  7
EXT08
 11
0.0000000000000001
 21
1.0
 31
0.0
 73
     1
 44
1.0
  0
POINT
  5
2709
330
1619
100
AcDbEntity
  8
DEFPOINTS
 62
     0
100
AcDbPoint
 10
5997.904055427269
 20
4573.288337860033
 30
0.0
  0
POINT
  5
270A
330
1619
100
AcDbEntity
  8
DEFPOINTS
 62
     0
100
AcDbPoint
 10
6147.904055427268
 20
3023.288337860027
 30
0.0
  0
POINT
  5
270B
330
1619
100
AcDbEntity
  8
DEFPOINTS
 62
     0
100
AcDbPoint
 10
6616.753444806794
 20
3023.288337860027
 30
0.0
  0
ENDBLK
  5
1624
330
1619
100
AcDbEntity
  8
0
100
AcDbBlockEnd
  0
BLOCK
  5
1626
330
1625
100
AcDbEntity
  8
0
100
AcDbBlockBegin
  2
*D4
 70
     1
 10
0.0
 20
0.0
 30
0.0
  3
*D4
  1

  0
LINE
  5
26D6
330
1625
100
AcDbEntity
  8
SUNPOU
370
    -2
100
AcDbLine
 10
6017.904055427269
 20
4573.288337860033
 30
0.0
 11
6485.196262101023
 21
4573.288337860033
 31
0.0
  0
LINE
  5
26D7
330
1625
100
AcDbEntity
  8
SUNPOU
370
    -2
100
AcDbLine
 10
6382.169989356039
 20
3473.288337860027
 30
0.0
 11
6485.196262101023
 21
3473.288337860027
 31
0.0
  0
LINE
  5
26D8
330
1625
100
AcDbEntity
  8
SUNPOU
370
    -2
100
AcDbLine
 10
6465.196262101023
 20
4533.288337860033
 30
0.0
 11
6465.196262101023
 21
3513.288337860028
 31
0.0
  0
SOLID
  5
26D9
330
1625
100
AcDbEntity
  8
SUNPOU
100
AcDbTrace
 10
6458.529595434355
 20
4533.288337860033
 30
0.0
 11
6471.862928767689
 21
4533.288337860033
 31
0.0
 12
6465.196262101023
 22
4573.288337860033
 32
0.0
 13
6465.196262101023
 23
4573.288337860033
 33
0.0
  0
SOLID
  5
26DA
330
1625
100
AcDbEntity
  8
SUNPOU
100
AcDbTrace
 10
6458.529595434355
 20
3513.288337860028
 30
0.0
 11
6471.862928767689
 21
3513.288337860028
 31
0.0
 12
6465.196262101023
 22
3473.288337860027
 32
0.0
 13
6465.196262101023
 23
3473.288337860027
 33
0.0
  0
MTEXT
  5
26DB
330
1625
100
AcDbEntity
  8
SUNPOU
100
AcDbMText
 10
6411.196262101022
 20
4023.288337860031
 30
0.0
 40
60.0
 41
0.0
 71
     5
 72
     1
  1
\A1;1100
  7
EXT08
 11
0.0000000000000001
 21
1.0
 31
0.0
 73
     1
 44
1.0
  0
POINT
  5
26DC
330
1625
100
AcDbEntity
  8
DEFPOINTS
 62
     0
100
AcDbPoint
 10
5997.904055427269
 20
4573.288337860033
 30
0.0
  0
POINT
  5
26DD
330
1625
100
AcDbEntity
  8
DEFPOINTS
 62
     0
100
AcDbPoint
 10
6362.16998935604
 20
3473.288337860027
 30
0.0
  0
POINT
  5
26DE
330
1625
100
AcDbEntity
  8
DEFPOINTS
 62
     0
100
AcDbPoint
 10
6465.196262101023
 20
3473.288337860027
 30
0.0
  0
ENDBLK
  5
1630
330
1625
100
AcDbEntity
  8
0
100
AcDbBlockEnd
  0
BLOCK
  5
1632
330
1631
100
AcDbEntity
  8
0
100
AcDbBlockBegin
  2
*D5
 70
     1
 10
0.0
 20
0.0
 30
0.0
  3
*D5
  1

  0
LINE
  5
26DF
330
1631
100
AcDbEntity
  8
SUNPOU
370
    -2
100
AcDbLine
 10
6382.169989356039
 20
3473.288337860027
 30
0.0
 11
6485.196262101023
 21
3473.288337860027
 31
0.0
  0
LINE
  5
26E0
330
1631
100
AcDbEntity
  8
SUNPOU
370
    -2
100
AcDbLine
 10
6167.904055427269
 20
3023.288337860027
 30
0.0
 11
6485.196262101023
 21
3023.288337860027
 31
0.0
  0
LINE
  5
26E1
330
1631
100
AcDbEntity
  8
SUNPOU
370
    -2
100
AcDbLine
 10
6465.196262101023
 20
3433.288337860027
 30
0.0
 11
6465.196262101023
 21
3063.288337860027
 31
0.0
  0
SOLID
  5
26E2
330
1631
100
AcDbEntity
  8
SUNPOU
100
AcDbTrace
 10
6458.529595434355
 20
3433.288337860027
 30
0.0
 11
6471.862928767689
 21
3433.288337860027
 31
0.0
 12
6465.196262101023
 22
3473.288337860027
 32
0.0
 13
6465.196262101023
 23
3473.288337860027
 33
0.0
  0
SOLID
  5
26E3
330
1631
100
AcDbEntity
  8
SUNPOU
100
AcDbTrace
 10
6458.529595434355
 20
3063.288337860027
 30
0.0
 11
6471.862928767689
 21
3063.288337860027
 31
0.0
 12
6465.196262101023
 22
3023.288337860027
 32
0.0
 13
6465.196262101023
 23
3023.288337860027
 33
0.0
  0
MTEXT
  5
26E4
330
1631
100
AcDbEntity
  8
SUNPOU
100
AcDbMText
 10
6411.196262101022
 20
3248.288337860028
 30
0.0
 40
60.0
 41
0.0
 71
     5
 72
     1
  1
\A1;450
  7
EXT08
 11
0.0000000000000001
 21
1.0
 31
0.0
 73
     1
 44
1.0
  0
POINT
  5
26E5
330
1631
100
AcDbEntity
  8
DEFPOINTS
 62
     0
100
AcDbPoint
 10
6362.16998935604
 20
3473.288337860027
 30
0.0
  0
POINT
  5
26E6
330
1631
100
AcDbEntity
  8
DEFPOINTS
 62
     0
100
AcDbPoint
 10
6147.904055427268
 20
3023.288337860027
 30
0.0
  0
POINT
  5
26E7
330
1631
100
AcDbEntity
  8
DEFPOINTS
 62
     0
100
AcDbPoint
 10
6465.196262101023
 20
3023.288337860027
 30
0.0
  0
ENDBLK
  5
163C
330
1631
100
AcDbEntity
  8
0
100
AcDbBlockEnd
  0
BLOCK
  5
1710
330
1649
100
AcDbEntity
  8
0
100
AcDbBlockBegin
  2
*D6
 70
     1
 10
0.0
 20
0.0
 30
0.0
  3
*D6
  1

  0
LINE
  5
26FA
330
1649
100
AcDbEntity
  8
SUNPOU
370
    -2
100
AcDbLine
 10
4002.061606481254
 20
4471.938337860033
 30
0.0
 11
4002.061606481254
 21
5043.852736476332
 31
0.0
  0
LINE
  5
26FB
330
1649
100
AcDbEntity
  8
SUNPOU
370
    -2
100
AcDbLine
 10
4152.061606481255
 20
4471.938337860031
 30
0.0
 11
4152.061606481255
 21
5043.852736476332
 31
0.0
  0
LINE
  5
26FC
330
1649
100
AcDbEntity
  8
SUNPOU
370
    -2
100
AcDbLine
 10
4042.061606481254
 20
5023.852736476332
 30
0.0
 11
4112.061606481255
 21
5023.852736476332
 31
0.0
  0
MTEXT
  5
26FD
330
1649
100
AcDbEntity
  8
SUNPOU
100
AcDbMText
 10
4077.061606481255
 20
5085.514146153022
 30
0.0
 40
60.0
 41
0.0
 71
     5
 72
     1
  1
\A1;150
  7
EXT08
 73
     1
 44
1.0
  0
SOLID
  5
26FE
330
1649
100
AcDbEntity
  8
SUNPOU
100
AcDbTrace
 10
4042.061606481254
 20
5030.519403142999
 30
0.0
 11
4042.061606481254
 21
5017.186069809665
 31
0.0
 12
4002.061606481254
 22
5023.852736476332
 32
0.0
 13
4002.061606481254
 23
5023.852736476332
 33
0.0
  0
SOLID
  5
26FF
330
1649
100
AcDbEntity
  8
SUNPOU
100
AcDbTrace
 10
4112.061606481255
 20
5030.519403142999
 30
0.0
 11
4112.061606481255
 21
5017.186069809665
 31
0.0
 12
4152.061606481255
 22
5023.852736476332
 32
0.0
 13
4152.061606481255
 23
5023.852736476332
 33
0.0
  0
POINT
  5
2700
330
1649
100
AcDbEntity
  8
DEFPOINTS
 62
     0
100
AcDbPoint
 10
4002.061606481254
 20
4451.938337860032
 30
0.0
  0
POINT
  5
2701
330
1649
100
AcDbEntity
  8
DEFPOINTS
 62
     0
100
AcDbPoint
 10
4152.061606481255
 20
4451.938337860031
 30
0.0
  0
POINT
  5
2702
330
1649
100
AcDbEntity
  8
DEFPOINTS
 62
     0
100
AcDbPoint
 10
4152.061606481255
 20
5023.852736476332
 30
0.0
  0
ENDBLK
  5
171A
330
1649
100
AcDbEntity
  8
0
100
AcDbBlockEnd
  0
BLOCK
  5
1656
330
1655
100
AcDbEntity
  8
0
100
AcDbBlockBegin
  2
*D7
 70
     1
 10
0.0
 20
0.0
 30
0.0
  3
*D7
  1

  0
LINE
  5
2730
330
1655
100
AcDbEntity
  8
SUNPOU
370
    -2
100
AcDbLine
 10
1342.061606481255
 20
4817.550831482742
 30
0.0
 11
3812.061606481255
 21
4817.550831482742
 31
0.0
  0
SOLID
  5
2731
330
1655
100
AcDbEntity
  8
SUNPOU
100
AcDbTrace
 10
1342.061606481255
 20
4824.217498149408
 30
0.0
 11
1342.061606481255
 21
4810.884164816076
 31
0.0
 12
1302.061606481255
 22
4817.550831482742
 32
0.0
 13
1302.061606481255
 23
4817.550831482742
 33
0.0
  0
SOLID
  5
2732
330
1655
100
AcDbEntity
  8
SUNPOU
100
AcDbTrace
 10
3812.061606481255
 20
4824.217498149408
 30
0.0
 11
3812.061606481255
 21
4810.884164816076
 31
0.0
 12
3852.061606481255
 22
4817.550831482742
 32
0.0
 13
3852.061606481255
 23
4817.550831482742
 33
0.0
  0
MTEXT
  5
2733
330
1655
100
AcDbEntity
  8
SUNPOU
100
AcDbMText
 10
2577.061606481255
 20
4871.550831482743
 30
0.0
 40
60.0
 41
0.0
 71
     5
 72
     1
  1
\A1;17@150=2550
  7
EXT08
 73
     1
 44
1.0
  0
POINT
  5
2734
330
1655
100
AcDbEntity
  8
DEFPOINTS
 62
     0
100
AcDbPoint
 10
1302.061606481255
 20
4817.550831482742
 30
0.0
  0
POINT
  5
2735
330
1655
100
AcDbEntity
  8
DEFPOINTS
 62
     0
100
AcDbPoint
 10
3852.061606481255
 20
4817.550831482742
 30
0.0
  0
POINT
  5
2736
330
1655
100
AcDbEntity
  8
DEFPOINTS
 62
     0
100
AcDbPoint
 10
3852.061606481255
 20
4817.550831482742
 30
0.0
  0
ENDBLK
  5
1660
330
1655
100
AcDbEntity
  8
0
100
AcDbBlockEnd
  0
BLOCK
  5
1662
330
1661
100
AcDbEntity
  8
0
100
AcDbBlockBegin
  2
*D8
 70
     1
 10
0.0
 20
0.0
 30
0.0
  3
*D8
  1

  0
LINE
  5
26E8
330
1661
100
AcDbEntity
  8
SUNPOU
370
    -2
100
AcDbLine
 10
1152.061606481255
 20
4471.938337860031
 30
0.0
 11
1152.061606481255
 21
5043.852736476332
 31
0.0
  0
LINE
  5
26E9
330
1661
100
AcDbEntity
  8
SUNPOU
370
    -2
100
AcDbLine
 10
4002.061606481254
 20
4471.938337860033
 30
0.0
 11
4002.061606481254
 21
5043.852736476332
 31
0.0
  0
LINE
  5
26EA
330
1661
100
AcDbEntity
  8
SUNPOU
370
    -2
100
AcDbLine
 10
1192.061606481255
 20
5023.852736476332
 30
0.0
 11
3962.061606481255
 21
5023.852736476332
 31
0.0
  0
SOLID
  5
26EB
330
1661
100
AcDbEntity
  8
SUNPOU
100
AcDbTrace
 10
1192.061606481255
 20
5030.519403142999
 30
0.0
 11
1192.061606481255
 21
5017.186069809665
 31
0.0
 12
1152.061606481255
 22
5023.852736476332
 32
0.0
 13
1152.061606481255
 23
5023.852736476332
 33
0.0
  0
SOLID
  5
26EC
330
1661
100
AcDbEntity
  8
SUNPOU
100
AcDbTrace
 10
3962.061606481255
 20
5030.519403142999
 30
0.0
 11
3962.061606481255
 21
5017.186069809665
 31
0.0
 12
4002.061606481254
 22
5023.852736476332
 32
0.0
 13
4002.061606481254
 23
5023.852736476332
 33
0.0
  0
MTEXT
  5
26ED
330
1661
100
AcDbEntity
  8
SUNPOU
100
AcDbMText
 10
2577.061606481255
 20
5077.852736476332
 30
0.0
 40
60.0
 41
0.0
 71
     5
 72
     1
  1
\A1;2850
  7
EXT08
 73
     1
 44
1.0
  0
POINT
  5
26EE
330
1661
100
AcDbEntity
  8
DEFPOINTS
 62
     0
100
AcDbPoint
 10
1152.061606481255
 20
4451.938337860031
 30
0.0
  0
POINT
  5
26EF
330
1661
100
AcDbEntity
  8
DEFPOINTS
 62
     0
100
AcDbPoint
 10
4002.061606481254
 20
4451.938337860032
 30
0.0
  0
POINT
  5
26F0
330
1661
100
AcDbEntity
  8
DEFPOINTS
 62
     0
100
AcDbPoint
 10
4002.061606481254
 20
5023.852736476332
 30
0.0
  0
ENDBLK
  5
166C
330
1661
100
AcDbEntity
  8
0
100
AcDbBlockEnd
  0
BLOCK
  5
16C1
330
166D
100
AcDbEntity
  8
0
100
AcDbBlockBegin
  2
*D9
 70
     1
 10
0.0
 20
0.0
 30
0.0
  3
*D9
  1

  0
LINE
  5
26F1
330
166D
100
AcDbEntity
  8
SUNPOU
370
    -2
100
AcDbLine
 10
1152.061606481255
 20
4471.938337860031
 30
0.0
 11
1152.061606481255
 21
4837.550831482742
 31
0.0
  0
LINE
  5
26F2
330
166D
100
AcDbEntity
  8
SUNPOU
370
    -2
100
AcDbLine
 10
1302.061606481255
 20
4593.288337860033
 30
0.0
 11
1302.061606481255
 21
4837.550831482742
 31
0.0
  0
LINE
  5
26F3
330
166D
100
AcDbEntity
  8
SUNPOU
370
    -2
100
AcDbLine
 10
1192.061606481255
 20
4817.550831482742
 30
0.0
 11
1262.061606481255
 21
4817.550831482742
 31
0.0
  0
MTEXT
  5
26F4
330
166D
100
AcDbEntity
  8
SUNPOU
100
AcDbMText
 10
1227.061606481255
 20
4877.786379977347
 30
0.0
 40
60.0
 41
0.0
 71
     5
 72
     1
  1
\A1;150
  7
EXT08
 73
     1
 44
1.0
  0
SOLID
  5
26F5
330
166D
100
AcDbEntity
  8
SUNPOU
100
AcDbTrace
 10
1192.061606481255
 20
4824.217498149408
 30
0.0
 11
1192.061606481255
 21
4810.884164816076
 31
0.0
 12
1152.061606481255
 22
4817.550831482742
 32
0.0
 13
1152.061606481255
 23
4817.550831482742
 33
0.0
  0
SOLID
  5
26F6
330
166D
100
AcDbEntity
  8
SUNPOU
100
AcDbTrace
 10
1262.061606481255
 20
4824.217498149408
 30
0.0
 11
1262.061606481255
 21
4810.884164816076
 31
0.0
 12
1302.061606481255
 22
4817.550831482742
 32
0.0
 13
1302.061606481255
 23
4817.550831482742
 33
0.0
  0
POINT
  5
26F7
330
166D
100
AcDbEntity
  8
DEFPOINTS
 62
     0
100
AcDbPoint
 10
1152.061606481255
 20
4451.938337860031
 30
0.0
  0
POINT
  5
26F8
330
166D
100
AcDbEntity
  8
DEFPOINTS
 62
     0
100
AcDbPoint
 10
1302.061606481255
 20
4573.288337860033
 30
0.0
  0
POINT
  5
26F9
330
166D
100
AcDbEntity
  8
DEFPOINTS
 62
     0
100
AcDbPoint
 10
1302.061606481255
 20
4817.550831482742
 30
0.0
  0
ENDBLK
  5
16CB
330
166D
100
AcDbEntity
  8
0
100
AcDbBlockEnd
  0
BLOCK
  5
167A
330
1679
100
AcDbEntity
  8
0
100
AcDbBlockBegin
  2
*D10
 70
     1
 10
0.0
 20
0.0
 30
0.0
  3
*D10
  1

  0
LINE
  5
2737
330
1679
100
AcDbEntity
  8
SUNPOU
370
    -2
100
AcDbLine
 10
1110.711606481255
 20
3023.288337860032
 30
0.0
 11
528.0179860062795
 21
3023.288337860033
 31
0.0
  0
LINE
  5
2738
330
1679
100
AcDbEntity
  8
SUNPOU
370
    -2
100
AcDbLine
 10
1232.061606481255
 20
4573.288337860032
 30
0.0
 11
528.0179860062799
 21
4573.288337860032
 31
0.0
  0
LINE
  5
2739
330
1679
100
AcDbEntity
  8
SUNPOU
370
    -2
100
AcDbLine
 10
548.0179860062795
 20
3063.288337860033
 30
0.0
 11
548.0179860062799
 21
4533.288337860032
 31
0.0
  0
SOLID
  5
273A
330
1679
100
AcDbEntity
  8
SUNPOU
100
AcDbTrace
 10
541.3513193396129
 20
3063.288337860033
 30
0.0
 11
554.6846526729462
 21
3063.288337860033
 31
0.0
 12
548.0179860062795
 22
3023.288337860033
 32
0.0
 13
548.0179860062795
 23
3023.288337860033
 33
0.0
  0
SOLID
  5
273B
330
1679
100
AcDbEntity
  8
SUNPOU
100
AcDbTrace
 10
541.3513193396132
 20
4533.288337860032
 30
0.0
 11
554.6846526729465
 21
4533.288337860032
 31
0.0
 12
548.0179860062799
 22
4573.288337860032
 32
0.0
 13
548.0179860062799
 23
4573.288337860032
 33
0.0
  0
MTEXT
  5
273C
330
1679
100
AcDbEntity
  8
SUNPOU
100
AcDbMText
 10
494.0179860062791
 20
3798.288337860032
 30
0.0
 40
60.0
 41
0.0
 71
     5
 72
     1
  1
\A1;1550
  7
EXT08
 11
0.0000000000000001
 21
1.0
 31
0.0
 73
     1
 44
1.0
  0
POINT
  5
273D
330
1679
100
AcDbEntity
  8
DEFPOINTS
 62
     0
100
AcDbPoint
 10
1130.711606481255
 20
3023.288337860032
 30
0.0
  0
POINT
  5
273E
330
1679
100
AcDbEntity
  8
DEFPOINTS
 62
     0
100
AcDbPoint
 10
1252.061606481255
 20
4573.288337860032
 30
0.0
  0
POINT
  5
273F
330
1679
100
AcDbEntity
  8
DEFPOINTS
 62
     0
100
AcDbPoint
 10
548.0179860062799
 20
4573.288337860032
 30
0.0
  0
ENDBLK
  5
1684
330
1679
100
AcDbEntity
  8
0
100
AcDbBlockEnd
  0
BLOCK
  5
1686
330
1685
100
AcDbEntity
  8
0
100
AcDbBlockBegin
  2
*D11
 70
     1
 10
0.0
 20
0.0
 30
0.0
  3
*D11
  1

  0
LINE
  5
2715
330
1685
100
AcDbEntity
  8
SUNPOU
370
    -2
100
AcDbLine
 10
1232.061606481255
 20
4573.288337860032
 30
0.0
 11
820.9286169411955
 21
4573.288337860032
 31
0.0
  0
LINE
  5
2716
330
1685
100
AcDbEntity
  8
SUNPOU
370
    -2
100
AcDbLine
 10
1153.411606481255
 20
3623.288337860032
 30
0.0
 11
820.9286169411953
 21
3623.288337860033
 31
0.0
  0
LINE
  5
2717
330
1685
100
AcDbEntity
  8
SUNPOU
370
    -2
100
AcDbLine
 10
840.9286169411954
 20
4533.288337860032
 30
0.0
 11
840.9286169411952
 21
3663.288337860033
 31
0.0
  0
SOLID
  5
2718
330
1685
100
AcDbEntity
  8
SUNPOU
100
AcDbTrace
 10
834.2619502745289
 20
4533.288337860032
 30
0.0
 11
847.595283607862
 21
4533.288337860032
 31
0.0
 12
840.9286169411954
 22
4573.288337860032
 32
0.0
 13
840.9286169411954
 23
4573.288337860032
 33
0.0
  0
SOLID
  5
2719
330
1685
100
AcDbEntity
  8
SUNPOU
100
AcDbTrace
 10
834.2619502745286
 20
3663.288337860033
 30
0.0
 11
847.5952836078619
 21
3663.288337860033
 31
0.0
 12
840.9286169411952
 22
3623.288337860033
 32
0.0
 13
840.9286169411952
 23
3623.288337860033
 33
0.0
  0
MTEXT
  5
271A
330
1685
100
AcDbEntity
  8
SUNPOU
100
AcDbMText
 10
786.9286169411947
 20
4098.288337860032
 30
0.0
 40
60.0
 41
0.0
 71
     5
 72
     1
  1
\A1;950
  7
EXT08
 11
0.0000000000000001
 21
1.0
 31
0.0
 73
     1
 44
1.0
  0
POINT
  5
271B
330
1685
100
AcDbEntity
  8
DEFPOINTS
 62
     0
100
AcDbPoint
 10
1252.061606481255
 20
4573.288337860032
 30
0.0
  0
POINT
  5
271C
330
1685
100
AcDbEntity
  8
DEFPOINTS
 62
     0
100
AcDbPoint
 10
1173.411606481255
 20
3623.288337860032
 30
0.0
  0
POINT
  5
271D
330
1685
100
AcDbEntity
  8
DEFPOINTS
 62
     0
100
AcDbPoint
 10
840.9286169411952
 20
3623.288337860033
 30
0.0
  0
ENDBLK
  5
1690
330
1685
100
AcDbEntity
  8
0
100
AcDbBlockEnd
  0
BLOCK
  5
1692
330
1691
100
AcDbEntity
  8
0
100
AcDbBlockBegin
  2
*D12
 70
     1
 10
0.0
 20
0.0
 30
0.0
  3
*D12
  1

  0
LINE
  5
270C
330
1691
100
AcDbEntity
  8
SUNPOU
370
    -2
100
AcDbLine
 10
1232.061606481255
 20
4573.288337860032
 30
0.0
 11
665.7734613265459
 21
4573.288337860032
 31
0.0
  0
LINE
  5
270D
330
1691
100
AcDbEntity
  8
SUNPOU
370
    -2
100
AcDbLine
 10
911.8576850261106
 20
3473.288337860032
 30
0.0
 11
665.7734613265456
 21
3473.288337860032
 31
0.0
  0
LINE
  5
270E
330
1691
100
AcDbEntity
  8
SUNPOU
370
    -2
100
AcDbLine
 10
685.7734613265458
 20
4533.288337860032
 30
0.0
 11
685.7734613265456
 21
3513.288337860033
 31
0.0
  0
SOLID
  5
270F
330
1691
100
AcDbEntity
  8
SUNPOU
100
AcDbTrace
 10
679.1067946598793
 20
4533.288337860032
 30
0.0
 11
692.4401279932125
 21
4533.288337860032
 31
0.0
 12
685.7734613265458
 22
4573.288337860032
 32
0.0
 13
685.7734613265458
 23
4573.288337860032
 33
0.0
  0
SOLID
  5
2710
330
1691
100
AcDbEntity
  8
SUNPOU
100
AcDbTrace
 10
679.106794659879
 20
3513.288337860033
 30
0.0
 11
692.4401279932123
 21
3513.288337860033
 31
0.0
 12
685.7734613265456
 22
3473.288337860032
 32
0.0
 13
685.7734613265456
 23
3473.288337860032
 33
0.0
  0
MTEXT
  5
2711
330
1691
100
AcDbEntity
  8
SUNPOU
100
AcDbMText
 10
631.773461326545
 20
4023.288337860032
 30
0.0
 40
60.0
 41
0.0
 71
     5
 72
     1
  1
\A1;1100
  7
EXT08
 11
0.0000000000000001
 21
1.0
 31
0.0
 73
     1
 44
1.0
  0
POINT
  5
2712
330
1691
100
AcDbEntity
  8
DEFPOINTS
 62
     0
100
AcDbPoint
 10
1252.061606481255
 20
4573.288337860032
 30
0.0
  0
POINT
  5
2713
330
1691
100
AcDbEntity
  8
DEFPOINTS
 62
     0
100
AcDbPoint
 10
931.8576850261106
 20
3473.288337860032
 30
0.0
  0
POINT
  5
2714
330
1691
100
AcDbEntity
  8
DEFPOINTS
 62
     0
100
AcDbPoint
 10
685.7734613265456
 20
3473.288337860032
 30
0.0
  0
ENDBLK
  5
169C
330
1691
100
AcDbEntity
  8
0
100
AcDbBlockEnd
  0
BLOCK
  5
17F3
330
169D
100
AcDbEntity
  8
0
100
AcDbBlockBegin
  2
*D13
 70
     1
 10
0.0
 20
0.0
 30
0.0
  3
*D13
  1

  0
LINE
  5
2740
330
169D
100
AcDbEntity
  8
SUNPOU
370
    -2
100
AcDbLine
 10
1148.626091159502
 20
3623.288337860033
 30
0.0
 11
820.9286169411953
 21
3623.288337860034
 31
0.0
  0
LINE
  5
2741
330
169D
100
AcDbEntity
  8
SUNPOU
370
    -2
100
AcDbLine
 10
911.8576850261106
 20
3473.288337860032
 30
0.0
 11
820.9286169411953
 21
3473.288337860032
 31
0.0
  0
LINE
  5
2742
330
169D
100
AcDbEntity
  8
SUNPOU
370
    -2
100
AcDbLine
 10
840.9286169411952
 20
3583.288337860034
 30
0.0
 11
840.9286169411952
 21
3513.288337860033
 31
0.0
  0
MTEXT
  5
2743
330
169D
100
AcDbEntity
  8
SUNPOU
100
AcDbMText
 10
781.1973563824412
 20
3549.299800362603
 30
0.0
 40
60.0
 41
0.0
 71
     5
 72
     1
  1
\A1;150
  7
EXT08
 11
0.0000000000000001
 21
1.0
 31
0.0
 73
     1
 44
1.0
  0
SOLID
  5
2744
330
169D
100
AcDbEntity
  8
SUNPOU
100
AcDbTrace
 10
834.2619502745286
 20
3583.288337860034
 30
0.0
 11
847.5952836078619
 21
3583.288337860034
 31
0.0
 12
840.9286169411952
 22
3623.288337860034
 32
0.0
 13
840.9286169411952
 23
3623.288337860034
 33
0.0
  0
SOLID
  5
2745
330
169D
100
AcDbEntity
  8
SUNPOU
100
AcDbTrace
 10
834.2619502745286
 20
3513.288337860033
 30
0.0
 11
847.5952836078619
 21
3513.288337860033
 31
0.0
 12
840.9286169411952
 22
3473.288337860032
 32
0.0
 13
840.9286169411952
 23
3473.288337860032
 33
0.0
  0
POINT
  5
2746
330
169D
100
AcDbEntity
  8
DEFPOINTS
 62
     0
100
AcDbPoint
 10
1168.626091159502
 20
3623.288337860033
 30
0.0
  0
POINT
  5
2747
330
169D
100
AcDbEntity
  8
DEFPOINTS
 62
     0
100
AcDbPoint
 10
931.8576850261106
 20
3473.288337860032
 30
0.0
  0
POINT
  5
2748
330
169D
100
AcDbEntity
  8
DEFPOINTS
 62
     0
100
AcDbPoint
 10
840.9286169411952
 20
3473.288337860032
 30
0.0
  0
ENDBLK
  5
17FD
330
169D
100
AcDbEntity
  8
0
100
AcDbBlockEnd
  0
BLOCK
  5
16AA
330
16A9
100
AcDbEntity
  8
0
100
AcDbBlockBegin
  2
*D14
 70
     1
 10
0.0
 20
0.0
 30
0.0
  3
*D14
  1

  0
LINE
  5
271E
330
16A9
100
AcDbEntity
  8
SUNPOU
370
    -2
100
AcDbLine
 10
911.8576850261106
 20
3473.288337860032
 30
0.0
 11
665.7734613265457
 21
3473.288337860032
 31
0.0
  0
LINE
  5
271F
330
16A9
100
AcDbEntity
  8
SUNPOU
370
    -2
100
AcDbLine
 10
1110.711606481255
 20
3023.288337860032
 30
0.0
 11
665.7734613265456
 21
3023.288337860033
 31
0.0
  0
LINE
  5
2720
330
16A9
100
AcDbEntity
  8
SUNPOU
370
    -2
100
AcDbLine
 10
685.7734613265457
 20
3433.288337860032
 30
0.0
 11
685.7734613265456
 21
3063.288337860033
 31
0.0
  0
SOLID
  5
2721
330
16A9
100
AcDbEntity
  8
SUNPOU
100
AcDbTrace
 10
679.1067946598791
 20
3433.288337860032
 30
0.0
 11
692.4401279932124
 21
3433.288337860032
 31
0.0
 12
685.7734613265457
 22
3473.288337860032
 32
0.0
 13
685.7734613265457
 23
3473.288337860032
 33
0.0
  0
SOLID
  5
2722
330
16A9
100
AcDbEntity
  8
SUNPOU
100
AcDbTrace
 10
679.106794659879
 20
3063.288337860033
 30
0.0
 11
692.4401279932123
 21
3063.288337860033
 31
0.0
 12
685.7734613265456
 22
3023.288337860033
 32
0.0
 13
685.7734613265456
 23
3023.288337860033
 33
0.0
  0
MTEXT
  5
2723
330
16A9
100
AcDbEntity
  8
SUNPOU
100
AcDbMText
 10
631.7734613265452
 20
3248.288337860033
 30
0.0
 40
60.0
 41
0.0
 71
     5
 72
     1
  1
\A1;450
  7
EXT08
 11
0.0000000000000001
 21
1.0
 31
0.0
 73
     1
 44
1.0
  0
POINT
  5
2724
330
16A9
100
AcDbEntity
  8
DEFPOINTS
 62
     0
100
AcDbPoint
 10
931.8576850261106
 20
3473.288337860032
 30
0.0
  0
POINT
  5
2725
330
16A9
100
AcDbEntity
  8
DEFPOINTS
 62
     0
100
AcDbPoint
 10
1130.711606481255
 20
3023.288337860032
 30
0.0
  0
POINT
  5
2726
330
16A9
100
AcDbEntity
  8
DEFPOINTS
 62
     0
100
AcDbPoint
 10
685.7734613265456
 20
3023.288337860033
 30
0.0
  0
ENDBLK
  5
16B4
330
16A9
100
AcDbEntity
  8
0
100
AcDbBlockEnd
  0
BLOCK
  5
1705
330
16B5
100
AcDbEntity
  8
0
100
AcDbBlockBegin
  2
*D15
 70
     1
 10
0.0
 20
0.0
 30
0.0
  3
*D15
  1

  0
LINE
  5
2727
330
16B5
100
AcDbEntity
  8
SUNPOU
370
    -2
100
AcDbLine
 10
3852.061606481255
 20
4571.938337860031
 30
0.0
 11
3852.061606481255
 21
4837.550831482742
 31
0.0
  0
LINE
  5
2728
330
16B5
100
AcDbEntity
  8
SUNPOU
370
    -2
100
AcDbLine
 10
4002.061606481254
 20
4471.938337860033
 30
0.0
 11
4002.061606481254
 21
4837.550831482742
 31
0.0
  0
LINE
  5
2729
330
16B5
100
AcDbEntity
  8
SUNPOU
370
    -2
100
AcDbLine
 10
3892.061606481255
 20
4817.550831482742
 30
0.0
 11
3962.061606481255
 21
4817.550831482742
 31
0.0
  0
MTEXT
  5
272A
330
16B5
100
AcDbEntity
  8
SUNPOU
100
AcDbMText
 10
3927.061606481255
 20
4877.076133125014
 30
0.0
 40
60.0
 41
0.0
 71
     5
 72
     1
  1
\A1;150
  7
EXT08
 73
     1
 44
1.0
  0
SOLID
  5
272B
330
16B5
100
AcDbEntity
  8
SUNPOU
100
AcDbTrace
 10
3892.061606481255
 20
4824.217498149408
 30
0.0
 11
3892.061606481255
 21
4810.884164816076
 31
0.0
 12
3852.061606481255
 22
4817.550831482742
 32
0.0
 13
3852.061606481255
 23
4817.550831482742
 33
0.0
  0
SOLID
  5
272C
330
16B5
100
AcDbEntity
  8
SUNPOU
100
AcDbTrace
 10
3962.061606481255
 20
4824.217498149408
 30
0.0
 11
3962.061606481255
 21
4810.884164816076
 31
0.0
 12
4002.061606481254
 22
4817.550831482742
 32
0.0
 13
4002.061606481254
 23
4817.550831482742
 33
0.0
  0
POINT
  5
272D
330
16B5
100
AcDbEntity
  8
DEFPOINTS
 62
     0
100
AcDbPoint
 10
3852.061606481255
 20
4551.938337860032
 30
0.0
  0
POINT
  5
272E
330
16B5
100
AcDbEntity
  8
DEFPOINTS
 62
     0
100
AcDbPoint
 10
4002.061606481254
 20
4451.938337860032
 30
0.0
  0
POINT
  5
272F
330
16B5
100
AcDbEntity
  8
DEFPOINTS
 62
     0
100
AcDbPoint
 10
4002.061606481254
 20
4817.550831482742
 30
0.0
  0
ENDBLK
  5
170F
330
16B5
100
AcDbEntity
  8
0
100
AcDbBlockEnd
  0
BLOCK
  5
19FE
330
19FB
100
AcDbEntity
  8
0
100
AcDbBlockBegin
  2
_Dot
 70
     0
 10
0.0
 20
0.0
 30
0.0
  3
_Dot
  1

  0
LWPOLYLINE
  5
19FC
330
19FB
100
AcDbEntity
  8
0
  6
ByBlock
 62
     0
100
AcDbPolyline
 90
        2
 70
     1
 43
0.5
 10
-0.25
 20
0.0
 42
1.0
 10
0.25
 20
0.0
 42
1.0
  0
LINE
  5
19FD
330
19FB
100
AcDbEntity
  8
0
  6
ByBlock
 62
     0
370
    -2
100
AcDbLine
 10
-0.5
 20
0.0
 30
0.0
 11
-1.0
 21
0.0
 31
0.0
  0
ENDBLK
  5
19FF
330
19FB
100
AcDbEntity
  8
0
100
AcDbBlockEnd
  0
BLOCK
  5
1A02
330
1A01
100
AcDbEntity
  8
0
100
AcDbBlockBegin
  2
_None
 70
     0
 10
0.0
 20
0.0
 30
0.0
  3
_None
  1

  0
ENDBLK
  5
1A03
330
1A01
100
AcDbEntity
  8
0
100
AcDbBlockEnd
  0
BLOCK
  5
1E68
330
1E5E
100
AcDbEntity
  8
0
100
AcDbBlockBegin
  2
*D18
 70
     1
 10
0.0
 20
0.0
 30
0.0
  3
*D18
  1

  0
LINE
  5
2675
330
1E5E
100
AcDbEntity
  8
SUNPOU
370
    -2
100
AcDbLine
 10
901.0373558924365
 20
342.9670485211667
 30
0.0
 11
901.0373558924365
 21
185.9478027541594
 31
0.0
  0
LINE
  5
2676
330
1E5E
100
AcDbEntity
  8
SUNPOU
370
    -2
100
AcDbLine
 10
2401.037355892437
 20
334.056000922063
 30
0.0
 11
2401.037355892437
 21
185.9478027541594
 31
0.0
  0
LINE
  5
2677
330
1E5E
100
AcDbEntity
  8
SUNPOU
370
    -2
100
AcDbLine
 10
941.0373558924366
 20
205.9478027541594
 30
0.0
 11
2361.037355892436
 21
205.9478027541594
 31
0.0
  0
SOLID
  5
2678
330
1E5E
100
AcDbEntity
  8
SUNPOU
100
AcDbTrace
 10
941.0373558924366
 20
212.6144694208261
 30
0.0
 11
941.0373558924366
 21
199.2811360874927
 31
0.0
 12
901.0373558924365
 22
205.9478027541594
 32
0.0
 13
901.0373558924365
 23
205.9478027541594
 33
0.0
  0
SOLID
  5
2679
330
1E5E
100
AcDbEntity
  8
SUNPOU
100
AcDbTrace
 10
2361.037355892436
 20
212.6144694208261
 30
0.0
 11
2361.037355892436
 21
199.2811360874927
 31
0.0
 12
2401.037355892437
 22
205.9478027541594
 32
0.0
 13
2401.037355892437
 23
205.9478027541594
 33
0.0
  0
MTEXT
  5
267A
330
1E5E
100
AcDbEntity
  8
SUNPOU
100
AcDbMText
 10
1651.037355892437
 20
259.9478027541594
 30
0.0
 40
60.0
 41
0.0
 71
     5
 72
     1
  1
\A1;　　　　　150 （可能範囲140～190）
  7
EXT08
 73
     1
 44
1.0
  0
POINT
  5
267B
330
1E5E
100
AcDbEntity
  8
DEFPOINTS
 62
     0
100
AcDbPoint
 10
901.0373558924365
 20
362.9670485211667
 30
0.0
  0
POINT
  5
267C
330
1E5E
100
AcDbEntity
  8
DEFPOINTS
 62
     0
100
AcDbPoint
 10
2401.037355892437
 20
354.0560009220629
 30
0.0
  0
POINT
  5
267D
330
1E5E
100
AcDbEntity
  8
DEFPOINTS
 62
     0
100
AcDbPoint
 10
2401.037355892437
 20
205.9478027541594
 30
0.0
  0
ENDBLK
  5
1E69
330
1E5E
100
AcDbEntity
  8
0
100
AcDbBlockEnd
  0
BLOCK
  5
1E72
330
1E6A
100
AcDbEntity
  8
0
100
AcDbBlockBegin
  2
*D19
 70
     1
 10
0.0
 20
0.0
 30
0.0
  3
*D19
  1

  0
LINE
  5
267E
330
1E6A
100
AcDbEntity
  8
SUNPOU
370
    -2
100
AcDbLine
 10
776.6278773197318
 20
1811.733448636888
 30
0.0
 11
1025.021948232936
 21
2054.884372934512
 31
0.0
  0
SOLID
  5
267F
330
1E6A
100
AcDbEntity
  8
SUNPOU
100
AcDbTrace
 10
771.9643805543094
 20
1816.497505979462
 30
0.0
 11
781.2913740851544
 21
1806.969391294314
 31
0.0
 12
748.0435332642848
 22
1783.752468044353
 32
0.0
 13
748.0435332642848
 23
1783.752468044353
 33
0.0
  0
SOLID
  5
2680
330
1E6A
100
AcDbEntity
  8
SUNPOU
100
AcDbTrace
 10
1020.358451467513
 20
2059.648430277087
 30
0.0
 11
1029.685444998359
 21
2050.120315591938
 31
0.0
 12
1053.606292288383
 22
2082.865353527048
 32
0.0
 13
1053.606292288383
 23
2082.865353527048
 33
0.0
  0
MTEXT
  5
2681
330
1E6A
100
AcDbEntity
  8
SUNPOU
100
AcDbMText
 10
863.0505889764116
 20
1971.897775260554
 30
0.0
 40
60.0
 41
0.0
 71
     5
 72
     1
  1
\A1;%%C42.7
  7
EXT08
 11
0.7146086013861731
 21
0.6995245148133821
 31
0.0
 73
     1
 44
1.0
  0
POINT
  5
2682
330
1E6A
100
AcDbEntity
  8
DEFPOINTS
 62
     0
100
AcDbPoint
 10
748.0435332642843
 20
1783.752468044353
 30
0.0
  0
POINT
  5
2683
330
1E6A
100
AcDbEntity
  8
DEFPOINTS
 62
     0
100
AcDbPoint
 10
1053.606292288383
 20
2082.865353527048
 30
0.0
  0
POINT
  5
2684
330
1E6A
100
AcDbEntity
  8
DEFPOINTS
 62
     0
100
AcDbPoint
 10
1053.606292288383
 20
2082.865353527048
 30
0.0
  0
ENDBLK
  5
1E73
330
1E6A
100
AcDbEntity
  8
0
100
AcDbBlockEnd
  0
BLOCK
  5
1E7E
330
1E74
100
AcDbEntity
  8
0
100
AcDbBlockBegin
  2
*D20
 70
     1
 10
0.0
 20
0.0
 30
0.0
  3
*D20
  1

  0
LINE
  5
2685
330
1E74
100
AcDbEntity
  8
SUNPOU
370
    -2
100
AcDbLine
 10
770.9106321524246
 20
2066.54879825027
 30
0.0
 11
799.0668356735887
 21
2038.137036543632
 31
0.0
  0
LINE
  5
2686
330
1E74
100
AcDbEntity
  8
SUNPOU
370
    -2
100
AcDbLine
 10
703.3046606675561
 20
2134.768391503675
 30
0.0
 11
549.6522357377754
 21
2289.815433959899
 31
0.0
  0
LINE
  5
2687
330
1E74
100
AcDbEntity
  8
SUNPOU
370
    -2
100
AcDbLine
 10
742.7544286312606
 20
2094.960559956908
 30
0.0
 11
731.4608641887199
 21
2106.356629797036
 31
0.0
  0
SOLID
  5
2688
330
1E74
100
AcDbEntity
  8
SUNPOU
100
AcDbTrace
 10
775.6459257701977
 20
2071.241498837131
 30
0.0
 11
766.1753385346515
 21
2061.856097663409
 31
0.0
 12
742.7544286312606
 22
2094.960559956908
 32
0.0
 13
742.7544286312606
 23
2094.960559956908
 33
0.0
  0
SOLID
  5
2689
330
1E74
100
AcDbEntity
  8
SUNPOU
100
AcDbTrace
 10
708.0399542853291
 20
2139.461092090535
 30
0.0
 11
698.569367049783
 21
2130.075690916813
 31
0.0
 12
731.4608641887199
 22
2106.356629797036
 32
0.0
 13
731.4608641887199
 23
2106.356629797036
 33
0.0
  0
MTEXT
  5
268A
330
1E74
100
AcDbEntity
  8
SUNPOU
100
AcDbMText
 10
650.7562247460453
 20
2264.508668338677
 30
0.0
 40
60.0
 41
0.0
 71
     5
 72
     1
  1
\A1;t1.6
  7
EXT08
 11
0.7039050880290995
 21
-0.7102940426659553
 31
0.0
 73
     1
 44
1.0
  0
POINT
  5
268B
330
1E74
100
AcDbEntity
  8
DEFPOINTS
 62
     0
100
AcDbPoint
 10
742.7544286312543
 20
2094.960559956902
 30
0.0
  0
POINT
  5
268C
330
1E74
100
AcDbEntity
  8
DEFPOINTS
 62
     0
100
AcDbPoint
 10
731.4608641887133
 20
2106.356629797029
 30
0.0
  0
POINT
  5
268D
330
1E74
100
AcDbEntity
  8
DEFPOINTS
 62
     0
100
AcDbPoint
 10
731.4608641887199
 20
2106.356629797036
 30
0.0
  0
ENDBLK
  5
1E7F
330
1E74
100
AcDbEntity
  8
0
100
AcDbBlockEnd
  0
BLOCK
  5
1E8A
330
1E80
100
AcDbEntity
  8
0
100
AcDbBlockBegin
  2
*D21
 70
     1
 10
0.0
 20
0.0
 30
0.0
  3
*D21
  1

  0
LINE
  5
268E
330
1E80
100
AcDbEntity
  8
SUNPOU
370
    -2
100
AcDbLine
 10
687.5373558924374
 20
1246.01065197184
 30
0.0
 11
687.5373558924374
 21
1373.904782102087
 31
0.0
  0
LINE
  5
268F
330
1E80
100
AcDbEntity
  8
SUNPOU
370
    -2
100
AcDbLine
 10
1114.537355892436
 20
1246.01065197184
 30
0.0
 11
1114.537355892436
 21
1373.904782102087
 31
0.0
  0
LINE
  5
2690
330
1E80
100
AcDbEntity
  8
SUNPOU
370
    -2
100
AcDbLine
 10
727.5373558924375
 20
1353.904782102087
 30
0.0
 11
1074.537355892436
 21
1353.904782102087
 31
0.0
  0
SOLID
  5
2691
330
1E80
100
AcDbEntity
  8
SUNPOU
100
AcDbTrace
 10
727.5373558924375
 20
1360.571448768753
 30
0.0
 11
727.5373558924375
 21
1347.23811543542
 31
0.0
 12
687.5373558924374
 22
1353.904782102087
 32
0.0
 13
687.5373558924374
 23
1353.904782102087
 33
0.0
  0
SOLID
  5
2692
330
1E80
100
AcDbEntity
  8
SUNPOU
100
AcDbTrace
 10
1074.537355892436
 20
1360.571448768753
 30
0.0
 11
1074.537355892436
 21
1347.23811543542
 31
0.0
 12
1114.537355892436
 22
1353.904782102087
 32
0.0
 13
1114.537355892436
 23
1353.904782102087
 33
0.0
  0
MTEXT
  5
2693
330
1E80
100
AcDbEntity
  8
SUNPOU
100
AcDbMText
 10
901.0373558924371
 20
1407.904782102087
 30
0.0
 40
60.0
 41
0.0
 71
     5
 72
     1
  1
\A1;%%c42.7
  7
EXT08
 73
     1
 44
1.0
  0
POINT
  5
2694
330
1E80
100
AcDbEntity
  8
DEFPOINTS
 62
     0
100
AcDbPoint
 10
687.5373558924374
 20
1226.010651971839
 30
0.0
  0
POINT
  5
2695
330
1E80
100
AcDbEntity
  8
DEFPOINTS
 62
     0
100
AcDbPoint
 10
1114.537355892436
 20
1226.010651971839
 30
0.0
  0
POINT
  5
2696
330
1E80
100
AcDbEntity
  8
DEFPOINTS
 62
     0
100
AcDbPoint
 10
1114.537355892436
 20
1353.904782102087
 30
0.0
  0
ENDBLK
  5
1E8B
330
1E80
100
AcDbEntity
  8
0
100
AcDbBlockEnd
  0
BLOCK
  5
1E96
330
1E8C
100
AcDbEntity
  8
0
100
AcDbBlockBegin
  2
*D22
 70
     1
 10
0.0
 20
0.0
 30
0.0
  3
*D22
  1

  0
LINE
  5
2697
330
1E8C
100
AcDbEntity
  8
SUNPOU
370
    -2
100
AcDbLine
 10
3372.849044597944
 20
1025.214745550726
 30
0.0
 11
3005.289596544638
 21
1025.214745550726
 31
0.0
  0
LINE
  5
2698
330
1E8C
100
AcDbEntity
  8
SUNPOU
370
    -2
100
AcDbLine
 10
3372.849044597944
 20
625.214745550726
 30
0.0
 11
3005.289596544637
 21
625.2147455507261
 31
0.0
  0
LINE
  5
2699
330
1E8C
100
AcDbEntity
  8
SUNPOU
370
    -2
100
AcDbLine
 10
3025.289596544637
 20
985.214745550726
 30
0.0
 11
3025.289596544637
 21
665.2147455507261
 31
0.0
  0
SOLID
  5
269A
330
1E8C
100
AcDbEntity
  8
SUNPOU
100
AcDbTrace
 10
3018.622929877971
 20
985.214745550726
 30
0.0
 11
3031.956263211303
 21
985.214745550726
 31
0.0
 12
3025.289596544638
 22
1025.214745550726
 32
0.0
 13
3025.289596544638
 23
1025.214745550726
 33
0.0
  0
SOLID
  5
269B
330
1E8C
100
AcDbEntity
  8
SUNPOU
100
AcDbTrace
 10
3018.622929877971
 20
665.2147455507261
 30
0.0
 11
3031.956263211303
 21
665.2147455507261
 31
0.0
 12
3025.289596544637
 22
625.2147455507261
 32
0.0
 13
3025.289596544637
 23
625.2147455507261
 33
0.0
  0
MTEXT
  5
269C
330
1E8C
100
AcDbEntity
  8
SUNPOU
100
AcDbMText
 10
2971.289596544637
 20
825.2147455507266
 30
0.0
 40
60.0
 41
0.0
 71
     5
 72
     1
  1
\A1;40
  7
EXT08
 11
0.0000000000000001
 21
1.0
 31
0.0
 73
     1
 44
1.0
  0
POINT
  5
269D
330
1E8C
100
AcDbEntity
  8
DEFPOINTS
 62
     0
100
AcDbPoint
 10
3392.849044597944
 20
1025.214745550726
 30
0.0
  0
POINT
  5
269E
330
1E8C
100
AcDbEntity
  8
DEFPOINTS
 62
     0
100
AcDbPoint
 10
3392.849044597944
 20
625.214745550726
 30
0.0
  0
POINT
  5
269F
330
1E8C
100
AcDbEntity
  8
DEFPOINTS
 62
     0
100
AcDbPoint
 10
3025.289596544637
 20
625.2147455507261
 30
0.0
  0
ENDBLK
  5
1E97
330
1E8C
100
AcDbEntity
  8
0
100
AcDbBlockEnd
  0
BLOCK
  5
1EA2
330
1E98
100
AcDbEntity
  8
0
100
AcDbBlockBegin
  2
*D23
 70
     1
 10
0.0
 20
0.0
 30
0.0
  3
*D23
  1

  0
LINE
  5
26A0
330
1E98
100
AcDbEntity
  8
SUNPOU
370
    -2
100
AcDbLine
 10
3232.996230855548
 20
680.2147455507277
 30
0.0
 11
3232.996230855548
 21
398.4040154919934
 31
0.0
  0
LINE
  5
26A1
330
1E98
100
AcDbEntity
  8
SUNPOU
370
    -2
100
AcDbLine
 10
4632.996230855544
 20
805.2147455507261
 30
0.0
 11
4632.996230855544
 21
398.4040154919934
 31
0.0
  0
LINE
  5
26A2
330
1E98
100
AcDbEntity
  8
SUNPOU
370
    -2
100
AcDbLine
 10
3272.996230855548
 20
418.4040154919934
 30
0.0
 11
4592.996230855543
 21
418.4040154919934
 31
0.0
  0
SOLID
  5
26A3
330
1E98
100
AcDbEntity
  8
SUNPOU
100
AcDbTrace
 10
3272.996230855548
 20
425.07068215866
 30
0.0
 11
3272.996230855548
 21
411.7373488253266
 31
0.0
 12
3232.996230855548
 22
418.4040154919934
 32
0.0
 13
3232.996230855548
 23
418.4040154919934
 33
0.0
  0
SOLID
  5
26A4
330
1E98
100
AcDbEntity
  8
SUNPOU
100
AcDbTrace
 10
4592.996230855543
 20
425.07068215866
 30
0.0
 11
4592.996230855543
 21
411.7373488253266
 31
0.0
 12
4632.996230855544
 22
418.4040154919934
 32
0.0
 13
4632.996230855544
 23
418.4040154919934
 33
0.0
  0
MTEXT
  5
26A5
330
1E98
100
AcDbEntity
  8
SUNPOU
100
AcDbMText
 10
3932.996230855546
 20
472.4040154919934
 30
0.0
 40
60.0
 41
0.0
 71
     5
 72
     1
  1
\A1;140
  7
EXT08
 73
     1
 44
1.0
  0
POINT
  5
26A6
330
1E98
100
AcDbEntity
  8
DEFPOINTS
 62
     0
100
AcDbPoint
 10
3232.996230855548
 20
700.2147455507278
 30
0.0
  0
POINT
  5
26A7
330
1E98
100
AcDbEntity
  8
DEFPOINTS
 62
     0
100
AcDbPoint
 10
4632.996230855544
 20
825.2147455507261
 30
0.0
  0
POINT
  5
26A8
330
1E98
100
AcDbEntity
  8
DEFPOINTS
 62
     0
100
AcDbPoint
 10
4632.996230855544
 20
418.4040154919934
 30
0.0
  0
ENDBLK
  5
1EA3
330
1E98
100
AcDbEntity
  8
0
100
AcDbBlockEnd
  0
BLOCK
  5
1EAE
330
1EA4
100
AcDbEntity
  8
0
100
AcDbBlockBegin
  2
*D24
 70
     1
 10
0.0
 20
0.0
 30
0.0
  3
*D24
  1

  0
LINE
  5
26A9
330
1EA4
100
AcDbEntity
  8
SUNPOU
370
    -2
100
AcDbLine
 10
903.9117413988842
 20
2222.99051084294
 30
0.0
 11
903.9117413988842
 21
2540.576806710122
 31
0.0
  0
LINE
  5
26AA
330
1EA4
100
AcDbEntity
  8
SUNPOU
370
    -2
100
AcDbLine
 10
2403.997072305096
 20
2222.990510842883
 30
0.0
 11
2403.997072305096
 21
2540.576806710122
 31
0.0
  0
LINE
  5
26AB
330
1EA4
100
AcDbEntity
  8
SUNPOU
370
    -2
100
AcDbLine
 10
943.9117413988842
 20
2520.576806710122
 30
0.0
 11
2363.997072305096
 21
2520.576806710122
 31
0.0
  0
SOLID
  5
26AC
330
1EA4
100
AcDbEntity
  8
SUNPOU
100
AcDbTrace
 10
943.9117413988842
 20
2527.243473376788
 30
0.0
 11
943.9117413988842
 21
2513.910140043455
 31
0.0
 12
903.9117413988842
 22
2520.576806710122
 32
0.0
 13
903.9117413988842
 23
2520.576806710122
 33
0.0
  0
SOLID
  5
26AD
330
1EA4
100
AcDbEntity
  8
SUNPOU
100
AcDbTrace
 10
2363.997072305096
 20
2527.243473376788
 30
0.0
 11
2363.997072305096
 21
2513.910140043455
 31
0.0
 12
2403.997072305096
 22
2520.576806710122
 32
0.0
 13
2403.997072305096
 23
2520.576806710122
 33
0.0
  0
MTEXT
  5
26AE
330
1EA4
100
AcDbEntity
  8
SUNPOU
100
AcDbMText
 10
1653.95440685199
 20
2574.576806710122
 30
0.0
 40
60.0
 41
0.0
 71
     5
 72
     1
  1
\A1;　　　　　150 （可能範囲140～190）
  7
EXT08
 73
     1
 44
1.0
  0
POINT
  5
26AF
330
1EA4
100
AcDbEntity
  8
DEFPOINTS
 62
     0
100
AcDbPoint
 10
903.9117413988842
 20
2202.990510842941
 30
0.0
  0
POINT
  5
26B0
330
1EA4
100
AcDbEntity
  8
DEFPOINTS
 62
     0
100
AcDbPoint
 10
2403.997072305096
 20
2202.990510842884
 30
0.0
  0
POINT
  5
26B1
330
1EA4
100
AcDbEntity
  8
DEFPOINTS
 62
     0
100
AcDbPoint
 10
2403.997072305096
 20
2520.576806710122
 30
0.0
  0
ENDBLK
  5
1EAF
330
1EA4
100
AcDbEntity
  8
0
100
AcDbBlockEnd
  0
BLOCK
  5
1EBA
330
1EB0
100
AcDbEntity
  8
0
100
AcDbBlockBegin
  2
*D25
 70
     1
 10
0.0
 20
0.0
 30
0.0
  3
*D25
  1

  0
LINE
  5
26B2
330
1EB0
100
AcDbEntity
  8
SUNPOU
370
    -2
100
AcDbLine
 10
3232.996230855543
 20
1599.069876142118
 30
0.0
 11
3232.996230855543
 21
2062.527071026214
 31
0.0
  0
LINE
  5
26B3
330
1EB0
100
AcDbEntity
  8
SUNPOU
370
    -2
100
AcDbLine
 10
4654.217860012869
 20
1829.417431233257
 30
0.0
 11
4654.217860012869
 21
2062.527071026214
 31
0.0
  0
LINE
  5
26B4
330
1EB0
100
AcDbEntity
  8
SUNPOU
370
    -2
100
AcDbLine
 10
3272.996230855542
 20
2042.527071026214
 30
0.0
 11
4614.21786001287
 21
2042.527071026214
 31
0.0
  0
SOLID
  5
26B5
330
1EB0
100
AcDbEntity
  8
SUNPOU
100
AcDbTrace
 10
3272.996230855542
 20
2049.193737692881
 30
0.0
 11
3272.996230855542
 21
2035.860404359548
 31
0.0
 12
3232.996230855543
 22
2042.527071026214
 32
0.0
 13
3232.996230855543
 23
2042.527071026214
 33
0.0
  0
SOLID
  5
26B6
330
1EB0
100
AcDbEntity
  8
SUNPOU
100
AcDbTrace
 10
4614.21786001287
 20
2049.193737692881
 30
0.0
 11
4614.21786001287
 21
2035.860404359548
 31
0.0
 12
4654.217860012869
 22
2042.527071026214
 32
0.0
 13
4654.217860012869
 23
2042.527071026214
 33
0.0
  0
MTEXT
  5
26B7
330
1EB0
100
AcDbEntity
  8
SUNPOU
100
AcDbMText
 10
3943.607045434207
 20
2096.527071026214
 30
0.0
 40
60.0
 41
0.0
 71
     5
 72
     1
  1
\A1;140
  7
EXT08
 73
     1
 44
1.0
  0
POINT
  5
26B8
330
1EB0
100
AcDbEntity
  8
DEFPOINTS
 62
     0
100
AcDbPoint
 10
3232.996230855543
 20
1579.069876142118
 30
0.0
  0
POINT
  5
26B9
330
1EB0
100
AcDbEntity
  8
DEFPOINTS
 62
     0
100
AcDbPoint
 10
4654.217860012869
 20
1809.417431233257
 30
0.0
  0
POINT
  5
26BA
330
1EB0
100
AcDbEntity
  8
DEFPOINTS
 62
     0
100
AcDbPoint
 10
4654.217860012869
 20
2042.527071026214
 30
0.0
  0
ENDBLK
  5
1EBB
330
1EB0
100
AcDbEntity
  8
0
100
AcDbBlockEnd
  0
BLOCK
  5
1EC6
330
1EBC
100
AcDbEntity
  8
0
100
AcDbBlockBegin
  2
*D26
 70
     1
 10
0.0
 20
0.0
 30
0.0
  3
*D26
  1

  0
LINE
  5
26BB
330
1EBC
100
AcDbEntity
  8
SUNPOU
370
    -2
100
AcDbLine
 10
3609.179257391418
 20
1701.752902677987
 30
0.0
 11
3580.894986143956
 21
1673.468631430525
 31
0.0
  0
LINE
  5
26BC
330
1EBC
100
AcDbEntity
  8
SUNPOU
370
    -2
100
AcDbLine
 10
3677.061508385329
 20
1769.635153671898
 30
0.0
 11
3831.412817192907
 21
1923.986462479475
 31
0.0
  0
LINE
  5
26BD
330
1EBC
100
AcDbEntity
  8
SUNPOU
370
    -2
100
AcDbLine
 10
3637.463528638881
 20
1730.037173925449
 30
0.0
 11
3648.777237137867
 21
1741.350882424435
 31
0.0
  0
SOLID
  5
26BE
330
1EBC
100
AcDbEntity
  8
SUNPOU
100
AcDbTrace
 10
3604.465212183508
 20
1706.466947885897
 30
0.0
 11
3613.893302599328
 21
1697.038857470076
 31
0.0
 12
3637.463528638881
 22
1730.037173925449
 32
0.0
 13
3637.463528638881
 23
1730.037173925449
 33
0.0
  0
SOLID
  5
26BF
330
1EBC
100
AcDbEntity
  8
SUNPOU
100
AcDbTrace
 10
3672.347463177418
 20
1774.349198879808
 30
0.0
 11
3681.775553593239
 21
1764.921108463987
 31
0.0
 12
3648.777237137867
 22
1741.350882424435
 32
0.0
 13
3648.777237137867
 23
1741.350882424435
 33
0.0
  0
MTEXT
  5
26C0
330
1EBC
100
AcDbEntity
  8
SUNPOU
100
AcDbMText
 10
3730.195532228775
 20
1899.136709883491
 30
0.0
 40
60.0
 41
0.0
 71
     5
 72
     1
  1
\A1;t1.6
  7
EXT08
 11
0.7071067811865476
 21
0.7071067811865475
 31
0.0
 73
     1
 44
1.0
  0
POINT
  5
26C1
330
1EBC
100
AcDbEntity
  8
DEFPOINTS
 62
     0
100
AcDbPoint
 10
3637.463528638882
 20
1730.037173925447
 30
0.0
  0
POINT
  5
26C2
330
1EBC
100
AcDbEntity
  8
DEFPOINTS
 62
     0
100
AcDbPoint
 10
3648.777237137869
 20
1741.350882424433
 30
0.0
  0
POINT
  5
26C3
330
1EBC
100
AcDbEntity
  8
DEFPOINTS
 62
     0
100
AcDbPoint
 10
3648.777237137867
 20
1741.350882424435
 30
0.0
  0
ENDBLK
  5
1EC7
330
1EBC
100
AcDbEntity
  8
0
100
AcDbBlockEnd
  0
BLOCK
  5
22FD
330
22F3
100
AcDbEntity
  8
0
100
AcDbBlockBegin
  2
*D27
 70
     1
 10
0.0
 20
0.0
 30
0.0
  3
*D27
  1

  0
LINE
  5
2749
330
22F3
100
AcDbEntity
  8
SUNPOU
370
    -2
100
AcDbLine
 10
4200.784870220792
 20
4373.288337860032
 30
0.0
 11
4422.086533918572
 21
4373.288337860032
 31
0.0
  0
LINE
  5
274A
330
22F3
100
AcDbEntity
  8
SUNPOU
370
    -2
100
AcDbLine
 10
4398.248232051937
 20
4573.288337860033
 30
0.0
 11
4422.086533918572
 21
4573.288337860033
 31
0.0
  0
LINE
  5
274B
330
22F3
100
AcDbEntity
  8
SUNPOU
370
    -2
100
AcDbLine
 10
4402.086533918573
 20
4413.288337860032
 30
0.0
 11
4402.086533918573
 21
4533.288337860033
 31
0.0
  0
MTEXT
  5
274C
330
22F3
100
AcDbEntity
  8
SUNPOU
100
AcDbMText
 10
4344.961615525735
 20
4458.33098586351
 30
0.0
 40
60.0
 41
0.0
 71
     5
 72
     1
  1
\A1;200
  7
EXT08
 11
0.0000000000000001
 21
1.0
 31
0.0
 73
     1
 44
1.0
  0
SOLID
  5
274D
330
22F3
100
AcDbEntity
  8
SUNPOU
100
AcDbTrace
 10
4395.419867251906
 20
4413.288337860032
 30
0.0
 11
4408.75320058524
 21
4413.288337860032
 31
0.0
 12
4402.086533918573
 22
4373.288337860032
 32
0.0
 13
4402.086533918573
 23
4373.288337860032
 33
0.0
  0
SOLID
  5
274E
330
22F3
100
AcDbEntity
  8
SUNPOU
100
AcDbTrace
 10
4395.419867251906
 20
4533.288337860033
 30
0.0
 11
4408.75320058524
 21
4533.288337860033
 31
0.0
 12
4402.086533918573
 22
4573.288337860033
 32
0.0
 13
4402.086533918573
 23
4573.288337860033
 33
0.0
  0
POINT
  5
274F
330
22F3
100
AcDbEntity
  8
DEFPOINTS
 62
     0
100
AcDbPoint
 10
4180.784870220792
 20
4373.288337860032
 30
0.0
  0
POINT
  5
2750
330
22F3
100
AcDbEntity
  8
DEFPOINTS
 62
     0
100
AcDbPoint
 10
4378.248232051937
 20
4573.288337860033
 30
0.0
  0
POINT
  5
2751
330
22F3
100
AcDbEntity
  8
DEFPOINTS
 62
     0
100
AcDbPoint
 10
4402.086533918573
 20
4573.288337860033
 30
0.0
  0
ENDBLK
  5
22FE
330
22F3
100
AcDbEntity
  8
0
100
AcDbBlockEnd
  0
BLOCK
  5
253A
330
252D
100
AcDbEntity
  8
0
100
AcDbBlockBegin
  2
B0070019
 70
     0
 10
0.0
 20
0.0
 30
0.0
  3
B0070019
  1

  0
LINE
  5
252E
330
252D
100
AcDbEntity
  8
HATCH
100
AcDbLine
 10
-70.0
 20
-35.0
 30
0.0
 11
-96.25
 21
-8.75
 31
0.0
  0
LINE
  5
252F
330
252D
100
AcDbEntity
  8
HATCH
100
AcDbLine
 10
-61.25
 20
-26.25
 30
0.0
 11
-87.5
 21
0.0
 31
0.0
  0
LINE
  5
2530
330
252D
100
AcDbEntity
  8
HATCH
100
AcDbLine
 10
-157.5
 20
-35.0
 30
0.0
 11
-122.5
 21
0.0
 31
0.0
  0
LINE
  5
2531
330
252D
100
AcDbEntity
  8
HATCH
100
AcDbLine
 10
-140.0
 20
-35.0
 30
0.0
 11
-105.0
 21
0.0
 31
0.0
  0
LINE
  5
2532
330
252D
100
AcDbEntity
  8
HATCH
100
AcDbLine
 10
-87.5
 20
-35.0
 30
0.0
 11
-105.0
 21
-17.5
 31
0.0
  0
LINE
  5
2533
330
252D
100
AcDbEntity
  8
HATCH
100
AcDbLine
 10
-122.5
 20
-35.0
 30
0.0
 11
-87.5
 21
0.0
 31
0.0
  0
LINE
  5
2534
330
252D
100
AcDbEntity
  8
HATCH
100
AcDbLine
 10
26.25
 20
-26.25
 30
0.0
 11
0.0
 21
0.0
 31
0.0
  0
LINE
  5
2535
330
252D
100
AcDbEntity
  8
HATCH
100
AcDbLine
 10
17.5
 20
-35.0
 30
0.0
 11
-8.75
 21
-8.75
 31
0.0
  0
LINE
  5
2536
330
252D
100
AcDbEntity
  8
HATCH
100
AcDbLine
 10
-52.5
 20
-35.0
 30
0.0
 11
-17.5
 21
0.0
 31
0.0
  0
LINE
  5
2537
330
252D
100
AcDbEntity
  8
HATCH
100
AcDbLine
 10
-70.0
 20
-35.0
 30
0.0
 11
-35.0
 21
0.0
 31
0.0
  0
LINE
  5
2538
330
252D
100
AcDbEntity
  8
HATCH
100
AcDbLine
 10
-35.0
 20
-35.0
 30
0.0
 11
0.0
 21
0.0
 31
0.0
  0
LINE
  5
2539
330
252D
100
AcDbEntity
  8
HATCH
100
AcDbLine
 10
0.0
 20
-35.0
 30
0.0
 11
-17.5
 21
-17.5
 31
0.0
  0
ENDBLK
  5
253B
330
252D
100
AcDbEntity
  8
0
100
AcDbBlockEnd
  0
BLOCK
  5
2548
330
253E
100
AcDbEntity
  8
0
100
AcDbBlockBegin
  2
*D29
 70
     1
 10
0.0
 20
0.0
 30
0.0
  3
*D29
  1

  0
LINE
  5
2752
330
253E
100
AcDbEntity
  8
SUNPOU
 62
     0
370
    -2
100
AcDbLine
 10
5847.904055427268
 20
3003.288337860027
 30
0.0
 11
5847.904055427268
 21
2854.081118861297
 31
0.0
  0
LINE
  5
2753
330
253E
100
AcDbEntity
  8
SUNPOU
 62
     0
370
    -2
100
AcDbLine
 10
6147.904055427268
 20
3003.288337860027
 30
0.0
 11
6147.904055427268
 21
2854.081118861297
 31
0.0
  0
LINE
  5
2754
330
253E
100
AcDbEntity
  8
SUNPOU
 62
     0
370
    -2
100
AcDbLine
 10
5887.904055427269
 20
2874.081118861297
 30
0.0
 11
6107.904055427268
 21
2874.081118861297
 31
0.0
  0
SOLID
  5
2755
330
253E
100
AcDbEntity
  8
SUNPOU
 62
     0
100
AcDbTrace
 10
5887.904055427269
 20
2880.747785527964
 30
0.0
 11
5887.904055427269
 21
2867.414452194631
 31
0.0
 12
5847.904055427268
 22
2874.081118861297
 32
0.0
 13
5847.904055427268
 23
2874.081118861297
 33
0.0
  0
SOLID
  5
2756
330
253E
100
AcDbEntity
  8
SUNPOU
 62
     0
100
AcDbTrace
 10
6107.904055427268
 20
2880.747785527964
 30
0.0
 11
6107.904055427268
 21
2867.414452194631
 31
0.0
 12
6147.904055427268
 22
2874.081118861297
 32
0.0
 13
6147.904055427268
 23
2874.081118861297
 33
0.0
  0
MTEXT
  5
2757
330
253E
100
AcDbEntity
  8
SUNPOU
 62
     0
100
AcDbMText
 10
5997.904055427269
 20
2928.081118861297
 30
0.0
 40
60.0
 41
0.0
 71
     5
 72
     1
  1
\A1;300
  7
EXT08
 73
     1
 44
1.0
  0
POINT
  5
2758
330
253E
100
AcDbEntity
  8
DEFPOINTS
 62
     0
100
AcDbPoint
 10
5847.904055427268
 20
3023.288337860027
 30
0.0
  0
POINT
  5
2759
330
253E
100
AcDbEntity
  8
DEFPOINTS
 62
     0
100
AcDbPoint
 10
6147.904055427268
 20
3023.288337860027
 30
0.0
  0
POINT
  5
275A
330
253E
100
AcDbEntity
  8
DEFPOINTS
 62
     0
100
AcDbPoint
 10
6147.904055427268
 20
2874.081118861297
 30
0.0
  0
ENDBLK
  5
2549
330
253E
100
AcDbEntity
  8
0
100
AcDbBlockEnd
  0
ENDSEC
  0
SECTION
  2
ENTITIES
  0
LINE
  5
1
330
1591
100
AcDbEntity
  8
SJC
100
AcDbLine
 10
1173.411606481254
 20
3473.288337860033
 30
0.0
 11
3980.711606481256
 21
3473.288337860033
 31
0.0
  0
LINE
  5
2
330
1591
100
AcDbEntity
  8
CENTER
100
AcDbLine
 10
1152.061606481255
 20
2990.39113327035
 30
0.0
 11
1152.061606481255
 21
4451.938337860031
 31
0.0
  0
TEXT
  5
3
330
1591
100
AcDbEntity
  8
MOJI
100
AcDbText
 10
2962.129249959425
 20
4698.79085447913
 30
0.0
 40
60.0
  1
 %%c42.7×t2.3
 41
0.8
  7
EXT08
100
AcDbText
  0
TEXT
  5
4
330
1591
100
AcDbEntity
  8
MOJI
100
AcDbText
 10
945.7108366511219
 20
3503.288337860033
 30
0.0
 40
60.0
  1
GL
 41
0.8
  7
EXT08
100
AcDbText
  0
LINE
  5
B
330
1591
100
AcDbEntity
  8
SJC
100
AcDbLine
 10
1130.711606481255
 20
3023.288337860032
 30
0.0
 11
1130.711606481255
 21
4451.938337860031
 31
0.0
  0
LINE
  5
C
330
1591
100
AcDbEntity
  8
SJC
100
AcDbLine
 10
1252.061606481255
 20
4573.288337860033
 30
0.0
 11
3902.061606481255
 21
4573.288337860033
 31
0.0
  0
LINE
  5
E
330
1591
100
AcDbEntity
  8
SJC
100
AcDbLine
 10
3980.711606481255
 20
3023.288337860032
 30
0.0
 11
3980.711606481256
 21
3606.288337860032
 31
0.0
  0
LINE
  5
F
330
1591
100
AcDbEntity
  8
SJC
100
AcDbLine
 10
3902.061606481255
 20
4530.588337860034
 30
0.0
 11
1252.061606481255
 21
4530.588337860034
 31
0.0
  0
LINE
  5
10
330
1591
100
AcDbEntity
  8
SJC
100
AcDbLine
 10
1173.411606481254
 20
4451.938337860031
 30
0.0
 11
1173.411606481254
 21
3640.288337860033
 31
0.0
  0
LINE
  5
12
330
1591
100
AcDbEntity
  8
CENTER
100
AcDbLine
 10
1252.061606481255
 20
4551.938337860032
 30
0.0
 11
3902.061606481255
 21
4551.938337860032
 31
0.0
  0
LINE
  5
13
330
1591
100
AcDbEntity
  8
CENTER
100
AcDbLine
 10
4002.061606481254
 20
4451.938337860032
 30
0.0
 11
4002.061606481254
 21
2990.39113327035
 31
0.0
  0
LINE
  5
1A
330
1591
100
AcDbEntity
  8
CENTER
100
AcDbLine
 10
1152.061606481255
 20
3623.288337860033
 30
0.0
 11
4002.061606481254
 21
3623.288337860033
 31
0.0
  0
LINE
  5
1B
330
1591
100
AcDbEntity
  8
SJC
100
AcDbLine
 10
1173.411606481254
 20
3640.288337860033
 30
0.0
 11
3980.711606481256
 21
3640.288337860033
 31
0.0
  0
LINE
  5
1C
330
1591
100
AcDbEntity
  8
SJC
100
AcDbLine
 10
1173.411606481254
 20
3606.288337860032
 30
0.0
 11
3980.711606481256
 21
3606.288337860032
 31
0.0
  0
ARC
  5
1D
330
1591
100
AcDbEntity
  8
SJC
100
AcDbCircle
 10
1201.214134026796
 20
3623.288337860033
 30
0.0
 40
32.58804286729355
100
AcDbArc
 50
148.5560824675999
 51
211.4439175324
  0
LINE
  5
1E
330
1591
100
AcDbEntity
  8
SJC
100
AcDbLine
 10
1173.411606481254
 20
3606.288337860032
 30
0.0
 11
1173.411606481254
 21
3023.288337860032
 31
0.0
  0
ARC
  5
1F
330
1591
100
AcDbEntity
  8
SJC
100
AcDbCircle
 10
3952.909078935714
 20
3623.288337860033
 30
0.0
 40
32.58804286729355
100
AcDbArc
 50
328.5560824676001
 51
31.44391753240007
  0
LINE
  5
20
330
1591
100
AcDbEntity
  8
SJC
100
AcDbLine
 10
3980.711606481256
 20
3640.288337860033
 30
0.0
 11
3980.711606481255
 21
4360.788337860032
 31
0.0
  0
LINE
  5
21
330
1591
100
AcDbEntity
  8
SJC
100
AcDbLine
 10
4173.411606481255
 20
3473.288337860033
 30
0.0
 11
5293.599172882515
 21
3473.288337860022
 31
0.0
  0
TEXT
  5
22
330
1591
100
AcDbEntity
  8
MOJI
100
AcDbText
 10
2248.30814359473
 20
3369.649847812238
 30
0.0
 40
60.0
  1
 %%c21.7×t1.6
 41
0.8
  7
EXT08
100
AcDbText
  0
LINE
  5
23
330
1591
100
AcDbEntity
  8
MOJI
100
AcDbLine
 10
2178.222705482858
 20
3343.359017713773
 30
0.0
 11
2696.775997769948
 21
3343.359017713773
 31
0.0
  0
CIRCLE
  5
24
330
1591
100
AcDbEntity
  8
SJC
100
AcDbCircle
 10
5997.904055427269
 20
4551.938337860032
 30
0.0
 40
21.35000000000218
  0
CIRCLE
  5
25
330
1591
100
AcDbEntity
  8
SJC
100
AcDbCircle
 10
5997.904055427269
 20
3623.288337860034
 30
0.0
 40
16.99999999999954
  0
LINE
  5
26
330
1591
100
AcDbEntity
  8
SJC
100
AcDbLine
 10
6019.254055427271
 20
4551.938337860032
 30
0.0
 11
6019.254055427271
 21
3023.288337860027
 31
0.0
  0
LINE
  5
27
330
1591
100
AcDbEntity
  8
SJC
100
AcDbLine
 10
5976.554055427267
 20
4551.938337860032
 30
0.0
 11
5976.554055427267
 21
3023.288337860027
 31
0.0
  0
LINE
  5
28
330
1591
100
AcDbEntity
  8
CENTER
100
AcDbLine
 10
5997.904055427269
 20
4605.759948106537
 30
0.0
 11
5997.904055427269
 21
2980.932280696685
 31
0.0
  0
LINE
  5
29
330
1591
100
AcDbEntity
  8
CENTER
100
AcDbLine
 10
5935.302762602463
 20
4551.938337860032
 30
0.0
 11
6060.505348252075
 21
4551.938337860032
 31
0.0
  0
LINE
  5
2A
330
1591
100
AcDbEntity
  8
CENTER
100
AcDbLine
 10
5949.178558817682
 20
3623.288337860034
 30
0.0
 11
6046.629552036854
 21
3623.288337860034
 31
0.0
  0
LINE
  5
2B
330
1591
100
AcDbEntity
  8
SJC
100
AcDbLine
 10
6019.254055427271
 20
3473.288337860027
 30
0.0
 11
6362.16998935604
 21
3473.288337860027
 31
0.0
  0
DIMENSION
  5
2C
330
1591
100
AcDbEntity
  8
SUNPOU
100
AcDbDimension
  2
*D4
 10
6465.196262101023
 20
3473.288337860027
 30
0.0
 11
6411.196262101022
 21
4023.288337860031
 31
0.0
 70
    32
 71
     5
 42
1100.000000000006
  3
SJC
100
AcDbAlignedDimension
 13
5997.904055427269
 23
4573.288337860033
 33
0.0
 14
6362.16998935604
 24
3473.288337860027
 34
0.0
 50
90.0
100
AcDbRotatedDimension
1001
ACAD
1000
DSTYLE
1002
{
1070
   287
1070
     5
1070
   287
1070
     5
1070
    40
1040
20.0
1070
    41
1040
2.0
1070
    42
1040
1.0
1070
    43
1040
6.0
1070
    44
1040
1.0
1070
    73
1070
     0
1070
    74
1070
     0
1070
    77
1070
     1
1070
    78
1070
     8
1070
   140
1040
3.0
1070
   147
1040
1.199999999999999
1070
   172
1070
     1
1070
   176
1070
   256
1070
   177
1070
   256
1070
   178
1070
   256
1070
   271
1070
     1
1070
   275
1070
     1
1070
   279
1070
     2
1070
   340
1005
15EE
1002
}
  0
DIMENSION
  5
2D
330
1591
100
AcDbEntity
  8
SUNPOU
100
AcDbDimension
  2
*D5
 10
6465.196262101023
 20
3023.288337860027
 30
0.0
 11
6411.196262101022
 21
3248.288337860028
 31
0.0
 70
    32
 71
     5
 42
450.0
  3
SJC
100
AcDbAlignedDimension
 13
6362.16998935604
 23
3473.288337860027
 33
0.0
 14
6147.904055427268
 24
3023.288337860027
 34
0.0
 50
90.0
100
AcDbRotatedDimension
1001
ACAD
1000
DSTYLE
1002
{
1070
   287
1070
     5
1070
   287
1070
     5
1070
    40
1040
20.0
1070
    41
1040
2.0
1070
    42
1040
1.0
1070
    43
1040
6.0
1070
    44
1040
1.0
1070
    73
1070
     0
1070
    74
1070
     0
1070
    77
1070
     1
1070
    78
1070
     8
1070
   140
1040
3.0
1070
   147
1040
1.199999999999999
1070
   172
1070
     1
1070
   176
1070
   256
1070
   177
1070
   256
1070
   178
1070
   256
1070
   271
1070
     1
1070
   275
1070
     1
1070
   279
1070
     2
1070
   340
1005
15EE
1002
}
  0
DIMENSION
  5
2E
330
1591
100
AcDbEntity
  8
SUNPOU
100
AcDbDimension
  2
*D8
 10
4002.061606481254
 20
5023.852736476332
 30
0.0
 11
2577.061606481255
 21
5077.852736476332
 31
0.0
 70
    32
 71
     5
 42
2850.0
  3
SJC
100
AcDbAlignedDimension
 13
1152.061606481255
 23
4451.938337860031
 33
0.0
 14
4002.061606481254
 24
4451.938337860032
 34
0.0
100
AcDbRotatedDimension
1001
ACAD
1000
DSTYLE
1002
{
1070
   287
1070
     5
1070
   287
1070
     5
1070
    40
1040
20.0
1070
    41
1040
2.0
1070
    42
1040
1.0
1070
    43
1040
6.0
1070
    44
1040
1.0
1070
    73
1070
     0
1070
    74
1070
     0
1070
    77
1070
     1
1070
    78
1070
     8
1070
   140
1040
3.0
1070
   147
1040
1.199999999999999
1070
   172
1070
     1
1070
   176
1070
   256
1070
   177
1070
   256
1070
   178
1070
   256
1070
   271
1070
     1
1070
   275
1070
     1
1070
   279
1070
     2
1070
   340
1005
15EE
1002
}
  0
DIMENSION
  5
2F
330
1591
100
AcDbEntity
  8
SUNPOU
100
AcDbDimension
  2
*D9
 10
1302.061606481255
 20
4817.550831482742
 30
0.0
 11
1227.061606481255
 21
4877.786379977347
 31
0.0
 70
   160
 71
     5
 42
149.9999999999998
  3
SJC
100
AcDbAlignedDimension
 13
1152.061606481255
 23
4451.938337860031
 33
0.0
 14
1302.061606481255
 24
4573.288337860033
 34
0.0
100
AcDbRotatedDimension
1001
ACAD
1000
DSTYLE
1002
{
1070
   287
1070
     5
1070
   287
1070
     5
1070
    40
1040
20.0
1070
    41
1040
2.0
1070
    42
1040
1.0
1070
    43
1040
6.0
1070
    44
1040
1.0
1070
    73
1070
     0
1070
    74
1070
     0
1070
    77
1070
     1
1070
    78
1070
     8
1070
   140
1040
3.0
1070
   147
1040
1.199999999999999
1070
   172
1070
     1
1070
   176
1070
   256
1070
   177
1070
   256
1070
   178
1070
   256
1070
   271
1070
     1
1070
   275
1070
     1
1070
   279
1070
     2
1070
   340
1005
15EE
1002
}
  0
DIMENSION
  5
30
330
1591
100
AcDbEntity
  8
SUNPOU
100
AcDbDimension
  2
*D6
 10
4152.061606481255
 20
5023.852736476332
 30
0.0
 11
4077.061606481255
 21
5085.514146153022
 31
0.0
 70
   160
 71
     5
 42
150.0
  3
SJC
100
AcDbAlignedDimension
 13
4002.061606481254
 23
4451.938337860032
 33
0.0
 14
4152.061606481255
 24
4451.938337860031
 34
0.0
100
AcDbRotatedDimension
1001
ACAD
1000
DSTYLE
1002
{
1070
   287
1070
     5
1070
   287
1070
     5
1070
    40
1040
20.0
1070
    41
1040
2.0
1070
    42
1040
1.0
1070
    43
1040
6.0
1070
    44
1040
1.0
1070
    73
1070
     0
1070
    74
1070
     0
1070
    77
1070
     1
1070
    78
1070
     8
1070
   140
1040
3.0
1070
   147
1040
1.199999999999999
1070
   172
1070
     1
1070
   176
1070
   256
1070
   177
1070
   256
1070
   178
1070
   256
1070
   271
1070
     1
1070
   275
1070
     1
1070
   279
1070
     2
1070
   340
1005
15EE
1002
}
  0
LINE
  5
F6
330
1591
100
AcDbEntity
  8
SJC
100
AcDbLine
 10
4023.411606481255
 20
4353.288337860032
 30
0.0
 11
4023.411606481255
 21
3023.288337860032
 31
0.0
  0
TEXT
  5
FA
330
1591
100
AcDbEntity
  8
MOJI
100
AcDbText
 10
5715.868583801343
 20
4779.708189839372
 30
0.0
 40
70.0
  1
STP-11AP-30C
 41
0.8
  7
EXT08
100
AcDbText
  0
LINE
  5
FB
330
1591
100
AcDbEntity
  8
MOJI2
100
AcDbLine
 10
436.2251338802653
 20
5102.045865189872
 30
0.0
 11
675.9819688047301
 21
5102.045865189872
 31
0.0
  0
TEXT
  5
FC
330
1591
100
AcDbEntity
  8
MOJI2
100
AcDbText
 10
450.3899356479869
 20
5116.491225801705
 30
0.0
 40
80.0
  1
設置図 (1/20)
 41
0.8
  7
EXT08
100
AcDbText
  0
LINE
  5
FD
330
1591
100
AcDbEntity
  8
MOJI2
100
AcDbLine
 10
436.2251338802653
 20
5082.045865189872
 30
0.0
 11
675.9819688047301
 21
5082.045865189872
 31
0.0
  0
LINE
  5
106
330
1591
100
AcDbEntity
  8
SJC
100
AcDbLine
 10
4023.411606481255
 20
3473.288337860033
 30
0.0
 11
4130.711606481255
 21
3473.288337860033
 31
0.0
  0
LINE
  5
107
330
1591
100
AcDbEntity
  8
SJC
100
AcDbLine
 10
6147.904055427268
 20
3023.288337860027
 30
0.0
 11
5847.904055427268
 21
3023.288337860027
 31
0.0
  0
LINE
  5
108
330
1591
100
AcDbEntity
  8
SJC
100
AcDbLine
 10
5976.554055427267
 20
3473.288337860027
 30
0.0
 11
5634.606410372973
 21
3473.288337860027
 31
0.0
  0
DIMENSION
  5
109
330
1591
100
AcDbEntity
  8
SUNPOU
100
AcDbDimension
  2
*D3
 10
6616.753444806794
 20
3023.288337860027
 30
0.0
 11
6562.753444806793
 21
3798.288337860031
 31
0.0
 70
    32
 71
     5
 42
1550.000000000006
  3
SJC
100
AcDbAlignedDimension
 13
5997.904055427269
 23
4573.288337860033
 33
0.0
 14
6147.904055427268
 24
3023.288337860027
 34
0.0
 50
90.0
100
AcDbRotatedDimension
1001
ACAD
1000
DSTYLE
1002
{
1070
   287
1070
     5
1070
   287
1070
     5
1070
    40
1040
20.0
1070
    41
1040
2.0
1070
    42
1040
1.0
1070
    43
1040
6.0
1070
    44
1040
1.0
1070
    73
1070
     0
1070
    74
1070
     0
1070
    77
1070
     1
1070
    78
1070
     8
1070
   140
1040
3.0
1070
   147
1040
1.199999999999999
1070
   172
1070
     1
1070
   176
1070
   256
1070
   177
1070
   256
1070
   178
1070
   256
1070
   271
1070
     1
1070
   275
1070
     1
1070
   279
1070
     2
1070
   340
1005
15EE
1002
}
  0
LINE
  5
10A
330
1591
100
AcDbEntity
  8
SJC
100
AcDbLine
 10
931.8576850261106
 20
3473.288337860032
 30
0.0
 11
1130.711606481255
 21
3473.288337860032
 31
0.0
  0
DIMENSION
  5
10B
330
1591
100
AcDbEntity
  8
SUNPOU
100
AcDbDimension
  2
*D12
 10
685.7734613265456
 20
3473.288337860032
 30
0.0
 11
631.773461326545
 21
4023.288337860032
 31
0.0
 70
    32
 71
     5
 42
1099.999999999999
  3
SJC
100
AcDbAlignedDimension
 13
1252.061606481255
 23
4573.288337860032
 33
0.0
 14
931.8576850261106
 24
3473.288337860032
 34
0.0
 50
90.0
100
AcDbRotatedDimension
1001
ACAD
1000
DSTYLE
1002
{
1070
   287
1070
     5
1070
   287
1070
     5
1070
    40
1040
20.0
1070
    41
1040
2.0
1070
    42
1040
1.0
1070
    43
1040
6.0
1070
    44
1040
1.0
1070
    73
1070
     0
1070
    74
1070
     0
1070
    77
1070
     1
1070
    78
1070
     8
1070
   140
1040
3.0
1070
   147
1040
1.199999999999999
1070
   172
1070
     1
1070
   176
1070
   256
1070
   177
1070
   256
1070
   178
1070
   256
1070
   271
1070
     1
1070
   275
1070
     1
1070
   279
1070
     2
1070
   340
1005
15EE
1002
}
  0
DIMENSION
  5
10C
330
1591
100
AcDbEntity
  8
SUNPOU
100
AcDbDimension
  2
*D11
 10
840.9286169411952
 20
3623.288337860033
 30
0.0
 11
786.9286169411947
 21
4098.288337860032
 31
0.0
 70
    32
 71
     5
 42
949.9999999999991
  3
SJC
100
AcDbAlignedDimension
 13
1252.061606481255
 23
4573.288337860032
 33
0.0
 14
1173.411606481255
 24
3623.288337860032
 34
0.0
 50
90.0
100
AcDbRotatedDimension
1001
ACAD
1000
DSTYLE
1002
{
1070
   287
1070
     5
1070
   287
1070
     5
1070
    40
1040
20.0
1070
    41
1040
2.0
1070
    42
1040
1.0
1070
    43
1040
6.0
1070
    44
1040
1.0
1070
    73
1070
     0
1070
    74
1070
     0
1070
    77
1070
     1
1070
    78
1070
     8
1070
   140
1040
3.0
1070
   147
1040
1.199999999999999
1070
   172
1070
     1
1070
   176
1070
   256
1070
   177
1070
   256
1070
   178
1070
   256
1070
   271
1070
     1
1070
   275
1070
     1
1070
   279
1070
     2
1070
   340
1005
15EE
1002
}
  0
DIMENSION
  5
10E
330
1591
100
AcDbEntity
  8
SUNPOU
100
AcDbDimension
  2
*D14
 10
685.7734613265456
 20
3023.288337860033
 30
0.0
 11
631.7734613265452
 21
3248.288337860033
 31
0.0
 70
    32
 71
     5
 42
449.9999999999995
  3
SJC
100
AcDbAlignedDimension
 13
931.8576850261106
 23
3473.288337860032
 33
0.0
 14
1130.711606481255
 24
3023.288337860032
 34
0.0
 50
90.0
100
AcDbRotatedDimension
1001
ACAD
1000
DSTYLE
1002
{
1070
   287
1070
     5
1070
   287
1070
     5
1070
    40
1040
20.0
1070
    41
1040
2.0
1070
    42
1040
1.0
1070
    43
1040
6.0
1070
    44
1040
1.0
1070
    73
1070
     0
1070
    74
1070
     0
1070
    77
1070
     1
1070
    78
1070
     8
1070
   140
1040
3.0
1070
   147
1040
1.199999999999999
1070
   172
1070
     1
1070
   176
1070
   256
1070
   177
1070
   256
1070
   178
1070
   256
1070
   271
1070
     1
1070
   275
1070
     1
1070
   279
1070
     2
1070
   340
1005
15EE
1002
}
  0
LINE
  5
10F
330
1591
100
AcDbEntity
  8
SJC
100
AcDbLine
 10
1462.911606481254
 20
4530.588337860033
 30
0.0
 11
1462.911606481254
 21
3640.288337860033
 31
0.0
  0
LINE
  5
110
330
1591
100
AcDbEntity
  8
SJC
100
AcDbLine
 10
1441.211606481255
 20
4530.129991254475
 30
0.0
 11
1441.211606481255
 21
3640.288337860033
 31
0.0
  0
LINE
  5
112
330
1591
100
AcDbEntity
  8
SJC
100
AcDbLine
 10
3862.911606481254
 20
4530.588337860033
 30
0.0
 11
3862.911606481254
 21
3640.288337860033
 31
0.0
  0
LINE
  5
113
330
1591
100
AcDbEntity
  8
SJC
100
AcDbLine
 10
3841.211606481255
 20
4530.129991254475
 30
0.0
 11
3841.211606481255
 21
3640.288337860033
 31
0.0
  0
DIMENSION
  5
117
330
1591
100
AcDbEntity
  8
SUNPOU
100
AcDbDimension
  2
*D15
 10
4002.061606481254
 20
4817.550831482742
 30
0.0
 11
3927.061606481255
 21
4877.076133125014
 31
0.0
 70
   160
 71
     5
 42
150.0
  3
SJC
100
AcDbAlignedDimension
 13
3852.061606481255
 23
4551.938337860032
 33
0.0
 14
4002.061606481254
 24
4451.938337860032
 34
0.0
100
AcDbRotatedDimension
1001
ACAD
1000
DSTYLE
1002
{
1070
   287
1070
     5
1070
   287
1070
     5
1070
    40
1040
20.0
1070
    41
1040
2.0
1070
    42
1040
1.0
1070
    43
1040
6.0
1070
    44
1040
1.0
1070
    73
1070
     0
1070
    74
1070
     0
1070
    77
1070
     1
1070
    78
1070
     8
1070
   140
1040
3.0
1070
   147
1040
1.199999999999999
1070
   172
1070
     1
1070
   176
1070
   256
1070
   177
1070
   256
1070
   178
1070
   256
1070
   271
1070
     1
1070
   275
1070
     1
1070
   279
1070
     2
1070
   340
1005
15EE
1002
}
  0
LINE
  5
118
330
1591
100
AcDbEntity
  8
SJC
100
AcDbLine
 10
4173.411606481255
 20
3606.288337860032
 30
0.0
 11
5293.599172882515
 21
3606.288337860032
 31
0.0
  0
LINE
  5
119
330
1591
100
AcDbEntity
  8
SJC
100
AcDbLine
 10
4173.411606481255
 20
3640.288337860033
 30
0.0
 11
5293.599172882515
 21
3640.288337860033
 31
0.0
  0
LINE
  5
11A
330
1591
100
AcDbEntity
  8
CENTER
100
AcDbLine
 10
4152.061606481255
 20
3623.288337860033
 30
0.0
 11
5293.599172882515
 21
3623.288337860032
 31
0.0
  0
LINE
  5
11F
330
1591
100
AcDbEntity
  8
CENTER
100
AcDbLine
 10
4152.061606481255
 20
2990.39113327035
 30
0.0
 11
4152.061606481255
 21
4451.938337860031
 31
0.0
  0
LINE
  5
120
330
1591
100
AcDbEntity
  8
SJC
100
AcDbLine
 10
4130.711606481255
 20
3023.288337860032
 30
0.0
 11
4130.711606481255
 21
4355.16023357027
 31
0.0
  0
LINE
  5
122
330
1591
100
AcDbEntity
  8
SJC
100
AcDbLine
 10
4173.411606481255
 20
3606.288337860032
 30
0.0
 11
4173.411606481255
 21
3023.288337860032
 31
0.0
  0
LINE
  5
123
330
1591
100
AcDbEntity
  8
SJC
100
AcDbLine
 10
3852.061606481255
 20
3023.288337860033
 30
0.0
 11
4302.061606481255
 21
3023.288337860032
 31
0.0
  0
ARC
  5
124
330
1591
100
AcDbEntity
  8
SJC
100
AcDbCircle
 10
4201.214134026796
 20
3623.288337860033
 30
0.0
 40
32.58804286729355
100
AcDbArc
 50
148.5560824675999
 51
211.4439175324
  0
LINE
  5
125
330
1591
100
AcDbEntity
  8
SJC
100
AcDbLine
 10
4312.911606481254
 20
4530.588337860033
 30
0.0
 11
4312.911606481254
 21
3640.288337860033
 31
0.0
  0
LINE
  5
126
330
1591
100
AcDbEntity
  8
SJC
100
AcDbLine
 10
4291.211606481255
 20
4530.129991254467
 30
0.0
 11
4291.211606481255
 21
3640.288337860033
 31
0.0
  0
LINE
  5
127
330
1591
100
AcDbEntity
  8
SJC
100
AcDbLine
 10
5293.599172882515
 20
4530.588337860034
 30
0.0
 11
4252.061606481254
 21
4530.588337860033
 31
0.0
  0
LINE
  5
128
330
1591
100
AcDbEntity
  8
CENTER
100
AcDbLine
 10
4252.061606481254
 20
4551.938337860032
 30
0.0
 11
5293.599172882515
 21
4551.938337860032
 31
0.0
  0
LINE
  5
12A
330
1591
100
AcDbEntity
  8
SJC
100
AcDbLine
 10
4252.061606481254
 20
4573.288337860033
 30
0.0
 11
5293.599172882515
 21
4573.288337860033
 31
0.0
  0
LINE
  5
12C
330
1591
100
AcDbEntity
  8
SJC
100
AcDbLine
 10
4173.411606481255
 20
4360.788337860032
 30
0.0
 11
4173.411606481255
 21
3640.288337860033
 31
0.0
  0
TEXT
  5
12D
330
1591
100
AcDbEntity
  8
MOJI
100
AcDbText
 10
1578.792400729358
 20
3366.329716799516
 30
0.0
 40
60.0
  1
%%c34.0×t2.3
 41
0.8
  7
EXT08
100
AcDbText
  0
LINE
  5
130
330
1591
100
AcDbEntity
  8
MOJI
100
AcDbLine
 10
1466.428293683639
 20
3340.570128442762
 30
0.0
 11
2001.040359295589
 21
3340.570128442762
 31
0.0
  0
LINE
  5
131
330
1591
100
AcDbEntity
  8
MOJI
100
AcDbLine
 10
2886.643972128601
 20
4668.740271342778
 30
0.0
 11
3415.710047553672
 21
4668.740271342779
 31
0.0
  0
LINE
  5
132
330
1591
100
AcDbEntity
  8
SJC
100
AcDbLine
 10
1591.211606481255
 20
4530.129991254475
 30
0.0
 11
1591.211606481255
 21
3640.288337860033
 31
0.0
  0
LINE
  5
133
330
1591
100
AcDbEntity
  8
SJC
100
AcDbLine
 10
1612.911606481254
 20
4530.588337860033
 30
0.0
 11
1612.911606481254
 21
3640.288337860033
 31
0.0
  0
LINE
  5
134
330
1591
100
AcDbEntity
  8
SJC
100
AcDbLine
 10
1741.211606481255
 20
4530.129991254475
 30
0.0
 11
1741.211606481255
 21
3640.288337860033
 31
0.0
  0
LINE
  5
135
330
1591
100
AcDbEntity
  8
SJC
100
AcDbLine
 10
1762.911606481254
 20
4530.588337860033
 30
0.0
 11
1762.911606481254
 21
3640.288337860033
 31
0.0
  0
LINE
  5
136
330
1591
100
AcDbEntity
  8
SJC
100
AcDbLine
 10
1891.211606481255
 20
4530.129991254475
 30
0.0
 11
1891.211606481255
 21
3640.288337860033
 31
0.0
  0
LINE
  5
137
330
1591
100
AcDbEntity
  8
SJC
100
AcDbLine
 10
1912.911606481254
 20
4530.588337860033
 30
0.0
 11
1912.911606481254
 21
3640.288337860033
 31
0.0
  0
LINE
  5
138
330
1591
100
AcDbEntity
  8
SJC
100
AcDbLine
 10
2041.211606481255
 20
4530.129991254475
 30
0.0
 11
2041.211606481255
 21
3640.288337860033
 31
0.0
  0
LINE
  5
139
330
1591
100
AcDbEntity
  8
SJC
100
AcDbLine
 10
2062.911606481254
 20
4530.588337860033
 30
0.0
 11
2062.911606481254
 21
3640.288337860033
 31
0.0
  0
LINE
  5
13A
330
1591
100
AcDbEntity
  8
SJC
100
AcDbLine
 10
2191.211606481255
 20
4530.129991254475
 30
0.0
 11
2191.211606481255
 21
3640.288337860033
 31
0.0
  0
LINE
  5
13B
330
1591
100
AcDbEntity
  8
SJC
100
AcDbLine
 10
2212.911606481254
 20
4530.588337860033
 30
0.0
 11
2212.911606481254
 21
3640.288337860033
 31
0.0
  0
LINE
  5
13C
330
1591
100
AcDbEntity
  8
SJC
100
AcDbLine
 10
2341.211606481255
 20
4530.129991254475
 30
0.0
 11
2341.211606481255
 21
3640.288337860033
 31
0.0
  0
LINE
  5
13D
330
1591
100
AcDbEntity
  8
SJC
100
AcDbLine
 10
2362.911606481254
 20
4530.588337860033
 30
0.0
 11
2362.911606481254
 21
3640.288337860033
 31
0.0
  0
LINE
  5
13E
330
1591
100
AcDbEntity
  8
SJC
100
AcDbLine
 10
2491.211606481256
 20
4530.129991254475
 30
0.0
 11
2491.211606481256
 21
3640.288337860033
 31
0.0
  0
LINE
  5
13F
330
1591
100
AcDbEntity
  8
SJC
100
AcDbLine
 10
2512.911606481254
 20
4530.588337860033
 30
0.0
 11
2512.911606481254
 21
3640.288337860033
 31
0.0
  0
LINE
  5
140
330
1591
100
AcDbEntity
  8
SJC
100
AcDbLine
 10
2641.211606481256
 20
4530.129991254475
 30
0.0
 11
2641.211606481256
 21
3640.288337860033
 31
0.0
  0
LINE
  5
141
330
1591
100
AcDbEntity
  8
SJC
100
AcDbLine
 10
2662.911606481254
 20
4530.588337860033
 30
0.0
 11
2662.911606481254
 21
3640.288337860033
 31
0.0
  0
LINE
  5
142
330
1591
100
AcDbEntity
  8
SJC
100
AcDbLine
 10
2791.211606481255
 20
4530.129991254475
 30
0.0
 11
2791.211606481255
 21
3640.288337860033
 31
0.0
  0
LINE
  5
143
330
1591
100
AcDbEntity
  8
SJC
100
AcDbLine
 10
2812.911606481254
 20
4530.588337860033
 30
0.0
 11
2812.911606481254
 21
3640.288337860033
 31
0.0
  0
LINE
  5
144
330
1591
100
AcDbEntity
  8
SJC
100
AcDbLine
 10
2941.211606481255
 20
4530.129991254475
 30
0.0
 11
2941.211606481255
 21
3640.288337860033
 31
0.0
  0
LINE
  5
145
330
1591
100
AcDbEntity
  8
SJC
100
AcDbLine
 10
2962.911606481254
 20
4530.588337860033
 30
0.0
 11
2962.911606481254
 21
3640.288337860033
 31
0.0
  0
LINE
  5
146
330
1591
100
AcDbEntity
  8
SJC
100
AcDbLine
 10
3091.211606481256
 20
4530.129991254475
 30
0.0
 11
3091.211606481256
 21
3640.288337860033
 31
0.0
  0
LINE
  5
147
330
1591
100
AcDbEntity
  8
SJC
100
AcDbLine
 10
3112.911606481254
 20
4530.588337860033
 30
0.0
 11
3112.911606481254
 21
3640.288337860033
 31
0.0
  0
LINE
  5
148
330
1591
100
AcDbEntity
  8
SJC
100
AcDbLine
 10
3241.211606481255
 20
4530.129991254475
 30
0.0
 11
3241.211606481255
 21
3640.288337860033
 31
0.0
  0
LINE
  5
149
330
1591
100
AcDbEntity
  8
SJC
100
AcDbLine
 10
3262.911606481254
 20
4530.588337860033
 30
0.0
 11
3262.911606481254
 21
3640.288337860033
 31
0.0
  0
LINE
  5
14A
330
1591
100
AcDbEntity
  8
SJC
100
AcDbLine
 10
3391.211606481255
 20
4530.129991254475
 30
0.0
 11
3391.211606481255
 21
3640.288337860033
 31
0.0
  0
LINE
  5
14B
330
1591
100
AcDbEntity
  8
SJC
100
AcDbLine
 10
3412.911606481254
 20
4530.588337860033
 30
0.0
 11
3412.911606481254
 21
3640.288337860033
 31
0.0
  0
LINE
  5
14C
330
1591
100
AcDbEntity
  8
SJC
100
AcDbLine
 10
3541.211606481255
 20
4530.129991254475
 30
0.0
 11
3541.211606481255
 21
3640.288337860033
 31
0.0
  0
LINE
  5
14D
330
1591
100
AcDbEntity
  8
SJC
100
AcDbLine
 10
3562.911606481254
 20
4530.588337860033
 30
0.0
 11
3562.911606481254
 21
3640.288337860033
 31
0.0
  0
LINE
  5
14E
330
1591
100
AcDbEntity
  8
SJC
100
AcDbLine
 10
3712.911606481255
 20
4530.588337860033
 30
0.0
 11
3712.911606481255
 21
3640.288337860033
 31
0.0
  0
LINE
  5
14F
330
1591
100
AcDbEntity
  8
SJC
100
AcDbLine
 10
3691.211606481255
 20
4530.129991254475
 30
0.0
 11
3691.211606481255
 21
3640.288337860033
 31
0.0
  0
DIMENSION
  5
150
330
1591
100
AcDbEntity
  8
SUNPOU
100
AcDbDimension
  2
*D7
 10
3852.061606481255
 20
4817.550831482742
 30
0.0
 11
2577.061606481255
 21
4871.550831482743
 31
0.0
 70
    32
  1
17@150=2550
 71
     5
 42
2550.0
  3
SJC
100
AcDbAlignedDimension
 13
1302.061606481255
 23
4817.550831482742
 33
0.0
 14
3852.061606481255
 24
4817.550831482742
 34
0.0
100
AcDbRotatedDimension
1001
ACAD
1000
DSTYLE
1002
{
1070
   287
1070
     5
1070
   287
1070
     5
1070
    40
1040
20.0
1070
    41
1040
2.0
1070
    42
1040
1.0
1070
    43
1040
6.0
1070
    44
1040
1.0
1070
    73
1070
     0
1070
    74
1070
     0
1070
    77
1070
     1
1070
    78
1070
     8
1070
   140
1040
3.0
1070
   147
1040
1.199999999999999
1070
   172
1070
     1
1070
   176
1070
   256
1070
   177
1070
   256
1070
   178
1070
   256
1070
   271
1070
     1
1070
   275
1070
     1
1070
   279
1070
     2
1070
   340
1005
15EE
1002
}
  0
LINE
  5
153
330
1591
100
AcDbEntity
  8
SJC
100
AcDbLine
 10
4591.211606481254
 20
4530.129991254475
 30
0.0
 11
4591.211606481254
 21
3640.288337860033
 31
0.0
  0
LINE
  5
154
330
1591
100
AcDbEntity
  8
SJC
100
AcDbLine
 10
4612.911606481254
 20
4530.588337860034
 30
0.0
 11
4612.911606481254
 21
3640.288337860033
 31
0.0
  0
LINE
  5
155
330
1591
100
AcDbEntity
  8
SJC
100
AcDbLine
 10
4441.211606481255
 20
4530.129991254475
 30
0.0
 11
4441.211606481255
 21
3640.288337860033
 31
0.0
  0
LINE
  5
156
330
1591
100
AcDbEntity
  8
SJC
100
AcDbLine
 10
4462.911606481254
 20
4530.588337860034
 30
0.0
 11
4462.911606481254
 21
3640.288337860033
 31
0.0
  0
LINE
  5
15C
330
1591
100
AcDbEntity
  8
SJC
100
AcDbLine
 10
4762.911606481254
 20
4530.588337860034
 30
0.0
 11
4762.911606481254
 21
3640.288337860033
 31
0.0
  0
LINE
  5
15D
330
1591
100
AcDbEntity
  8
SJC
100
AcDbLine
 10
4741.211606481255
 20
4530.129991254475
 30
0.0
 11
4741.211606481255
 21
3640.288337860033
 31
0.0
  0
LINE
  5
15E
330
1591
100
AcDbEntity
  8
SJC
100
AcDbLine
 10
4912.911606481254
 20
4530.588337860034
 30
0.0
 11
4912.911606481254
 21
3640.288337860033
 31
0.0
  0
LINE
  5
15F
330
1591
100
AcDbEntity
  8
SJC
100
AcDbLine
 10
4891.211606481255
 20
4530.129991254475
 30
0.0
 11
4891.211606481255
 21
3640.288337860033
 31
0.0
  0
LINE
  5
160
330
1591
100
AcDbEntity
  8
SJC
100
AcDbLine
 10
5191.211606481255
 20
4530.129991254475
 30
0.0
 11
5191.211606481255
 21
3640.288337860033
 31
0.0
  0
LINE
  5
161
330
1591
100
AcDbEntity
  8
SJC
100
AcDbLine
 10
5212.911606481254
 20
4530.588337860034
 30
0.0
 11
5212.911606481254
 21
3640.288337860033
 31
0.0
  0
LINE
  5
162
330
1591
100
AcDbEntity
  8
SJC
100
AcDbLine
 10
5041.211606481255
 20
4530.129991254475
 30
0.0
 11
5041.211606481255
 21
3640.288337860033
 31
0.0
  0
LINE
  5
163
330
1591
100
AcDbEntity
  8
SJC
100
AcDbLine
 10
5062.911606481254
 20
4530.588337860034
 30
0.0
 11
5062.911606481254
 21
3640.288337860033
 31
0.0
  0
LINE
  5
165
330
1591
100
AcDbEntity
  8
SUNPOU
  6
ByBlock
100
AcDbLine
 10
4192.061606481255
 20
5023.852736476332
 30
0.0
 11
5295.005648833512
 21
5023.852736476332
 31
0.0
  0
SOLID
  5
166
330
1591
100
AcDbEntity
  8
SUNPOU
  6
ByBlock
100
AcDbTrace
 10
4192.061606481255
 20
5030.519403142999
 30
0.0
 11
4192.061606481255
 21
5017.186069809665
 31
0.0
 12
4152.061606481255
 22
5023.852736476332
 32
0.0
 13
4152.061606481255
 23
5023.852736476332
 33
0.0
  0
TEXT
  5
167
330
1591
100
AcDbEntity
  8
SUNPOU
  6
ByBlock
100
AcDbText
 10
4714.065890710784
 20
5055.394458736322
 30
0.0
 40
60.0
  1
2850
 41
0.8
  7
EXT08
 72
     4
 11
4805.494462139356
 21
5085.394458736322
 31
0.0
100
AcDbText
  0
LINE
  5
16A
330
1591
100
AcDbEntity
  8
SJC
100
AcDbLine
 10
1312.911606481254
 20
4530.588337860033
 30
0.0
 11
1312.911606481254
 21
4518.868187792716
 31
0.0
  0
LINE
  5
16B
330
1591
100
AcDbEntity
  8
SJC
100
AcDbLine
 10
1291.211606481255
 20
4399.407000222273
 30
0.0
 11
1291.211606481255
 21
3640.288337860033
 31
0.0
  0
CIRCLE
  5
16C
330
1591
100
AcDbEntity
  8
MOJI
100
AcDbCircle
 10
1529.506706116605
 20
3395.375396984536
 30
0.0
 40
40.0
  0
TEXT
  5
16D
330
1591
100
AcDbEntity
  8
MOJI
100
AcDbText
 10
1506.649563259462
 20
3365.375396984536
 30
0.0
 40
60.0
  1
2
 41
0.8
  7
EXT08
 72
     4
 11
1529.506706116605
 21
3395.375396984536
 31
0.0
100
AcDbText
  0
CIRCLE
  5
171
330
1591
100
AcDbEntity
  8
MOJI
100
AcDbCircle
 10
2230.004199536203
 20
3401.906248790759
 30
0.0
 40
40.0
  0
TEXT
  5
172
330
1591
100
AcDbEntity
  8
MOJI
100
AcDbText
 10
2207.14705667906
 20
3371.90624879076
 30
0.0
 40
60.0
  1
3
 41
0.8
  7
EXT08
 72
     4
 11
2230.004199536203
 21
3401.906248790759
 31
0.0
100
AcDbText
  0
CIRCLE
  5
173
330
1591
100
AcDbEntity
  8
MOJI
100
AcDbCircle
 10
2933.42946597592
 20
4724.039697787275
 30
0.0
 40
40.0
  0
TEXT
  5
174
330
1591
100
AcDbEntity
  8
MOJI
100
AcDbText
 10
2914.000894547348
 20
4694.039697787275
 30
0.0
 40
60.0
  1
1
 41
0.8
  7
EXT08
 72
     4
 11
2933.42946597592
 21
4724.039697787275
 31
0.0
100
AcDbText
  0
LINE
  5
177
330
1591
100
AcDbEntity
  8
MOJI
100
AcDbLine
 10
2886.643972128601
 20
4668.740271342778
 30
0.0
 11
2899.325035823837
 21
4668.740271342778
 31
0.0
  0
LINE
  5
178
330
1591
100
AcDbEntity
  8
MOJI
100
AcDbLine
 10
2899.325035823837
 20
4668.740271342778
 30
0.0
 11
2899.415035823837
 21
4668.740271342778
 31
0.0
  0
DIMENSION
  5
1AE
330
1591
100
AcDbEntity
  8
SUNPOU
100
AcDbDimension
  2
*D10
 10
548.0179860062799
 20
4573.288337860032
 30
0.0
 11
494.0179860062791
 21
3798.288337860032
 31
0.0
 70
    32
 71
     5
 42
1549.999999999999
  3
SJC
100
AcDbAlignedDimension
 13
1130.711606481255
 23
3023.288337860032
 33
0.0
 14
1252.061606481255
 24
4573.288337860032
 34
0.0
 50
90.0
100
AcDbRotatedDimension
1001
ACAD
1000
DSTYLE
1002
{
1070
   287
1070
     5
1070
   287
1070
     5
1070
    40
1040
20.0
1070
    41
1040
2.0
1070
    42
1040
1.0
1070
    43
1040
6.0
1070
    44
1040
1.0
1070
    73
1070
     0
1070
    74
1070
     0
1070
    77
1070
     1
1070
    78
1070
     8
1070
   140
1040
3.0
1070
   147
1040
1.199999999999999
1070
   172
1070
     1
1070
   176
1070
   256
1070
   177
1070
   256
1070
   178
1070
   256
1070
   271
1070
     1
1070
   275
1070
     1
1070
   279
1070
     2
1070
   340
1005
15EE
1002
}
  0
LINE
  5
F42
330
1591
100
AcDbEntity
  8
SJC
100
AcDbLine
 10
3852.061606481256
 20
3023.288337860033
 30
0.0
 11
3852.061606481255
 21
3473.288337860033
 31
0.0
  0
LINE
  5
F43
330
1591
100
AcDbEntity
  8
SJC
100
AcDbLine
 10
4302.061606481255
 20
3023.288337860032
 30
0.0
 11
4302.061606481255
 21
3473.288337860032
 31
0.0
  0
LINE
  5
F9F
330
1591
100
AcDbEntity
  8
SJC
100
AcDbLine
 10
5847.90405542727
 20
3473.288337860027
 30
0.0
 11
5847.904055427268
 21
3023.288337860027
 31
0.0
  0
LINE
  5
FA0
330
1591
100
AcDbEntity
  8
SJC
100
AcDbLine
 10
6147.904055427268
 20
3473.288337860027
 30
0.0
 11
6147.904055427268
 21
3023.288337860027
 31
0.0
  0
INSERT
  5
10BE
330
1591
100
AcDbEntity
  8
HATCH
100
AcDbBlockReference
  2
*X0
 10
0.0
 20
-96.7116621399673
 30
0.0
1001
ACAD
1000
HATCH
1002
{
1070
    16
1000
PLAST
1040
500.0
1040
0.7853981633974483
1002
}
  0
DIMENSION
  5
144A
330
1591
100
AcDbEntity
  8
SUNPOU
100
AcDbDimension
  2
*D13
 10
840.9286169411952
 20
3473.288337860032
 30
0.0
 11
781.1973563824412
 21
3549.299800362603
 31
0.0
 70
   160
 71
     5
 42
150.0000000000009
  3
SJC
100
AcDbAlignedDimension
 13
1168.626091159502
 23
3623.288337860033
 33
0.0
 14
931.8576850261106
 24
3473.288337860032
 34
0.0
 50
90.0
100
AcDbRotatedDimension
1001
ACAD
1000
DSTYLE
1002
{
1070
   287
1070
     5
1070
   287
1070
     5
1070
    40
1040
20.0
1070
    41
1040
2.0
1070
    42
1040
1.0
1070
    43
1040
6.0
1070
    44
1040
1.0
1070
    73
1070
     0
1070
    74
1070
     0
1070
    77
1070
     1
1070
    78
1070
     8
1070
   140
1040
3.0
1070
   147
1040
1.199999999999999
1070
   172
1070
     1
1070
   176
1070
   256
1070
   177
1070
   256
1070
   178
1070
   256
1070
   271
1070
     1
1070
   275
1070
     1
1070
   279
1070
     2
1070
   340
1005
15EE
1002
}
  0
LINE
  5
1511
330
1591
100
AcDbEntity
  8
SJC
100
AcDbLine
 10
1302.061606481252
 20
3473.288337860032
 30
0.0
 11
1302.061606481251
 21
3023.288337860032
 31
0.0
  0
INSERT
  5
1512
330
1591
100
AcDbEntity
  8
HATCH
100
AcDbBlockReference
  2
*X0
 10
-4845.842448946015
 20
-96.71166213996185
 30
0.0
1001
ACAD
1000
HATCH
1002
{
1070
    16
1000
PLAST
1040
500.0
1040
0.7853981633974483
1002
}
  0
LINE
  5
1513
330
1591
100
AcDbEntity
  8
SJC
100
AcDbLine
 10
1002.061606481253
 20
3473.288337860032
 30
0.0
 11
1002.061606481252
 21
3023.288337860032
 31
0.0
  0
LINE
  5
1514
330
1591
100
AcDbEntity
  8
SJC
100
AcDbLine
 10
1302.061606481252
 20
3023.288337860032
 30
0.0
 11
1002.061606481252
 21
3023.288337860032
 31
0.0
  0
INSERT
  5
154E
330
1591
100
AcDbEntity
  8
HATCH
100
AcDbBlockReference
  2
*X1
 10
0.0
 20
-96.7116621399673
 30
0.0
1001
ACAD
1000
HATCH
1002
{
1070
    16
1000
PLAST
1040
500.0
1040
0.7853981633974483
1002
}
  0
INSERT
  5
15FE
330
1591
100
AcDbEntity
  8
ZWAKU
100
AcDbBlockReference
  2
CALCOMP_TECHJET720A3
 10
0.0
 20
0.0
 30
0.0
 41
20.0
 42
20.0
 43
20.0
  0
TEXT
  5
15FF
330
1591
100
AcDbEntity
  8
INFORMATION
100
AcDbText
 10
1.0
 20
2.0
 30
0.0
 40
0.8
  1
PLOTTER=CALCOMP_TECHJET720
 41
0.8
  7
EXT08
100
AcDbText
  0
TEXT
  5
1600
330
1591
100
AcDbEntity
  8
INFORMATION
100
AcDbText
 10
1.0
 20
3.0
 30
0.0
 40
0.8
  1
PAPER=A3
 41
0.8
  7
EXT08
100
AcDbText
  0
LINE
  5
1614
330
1591
100
AcDbEntity
  8
SJC2
100
AcDbLine
 10
5293.599172882515
 20
4623.229709590516
 30
0.0
 11
5293.599172882515
 21
4095.037486473597
 31
0.0
  0
LINE
  5
1615
330
1591
100
AcDbEntity
  8
SJC2
100
AcDbLine
 10
5268.150092713133
 20
4095.037486473597
 30
0.0
 11
5293.599172882515
 21
4095.037486473597
 31
0.0
  0
LINE
  5
1616
330
1591
100
AcDbEntity
  8
SJC2
100
AcDbLine
 10
5268.150092713133
 20
4095.037486473597
 30
0.0
 11
5319.048253051897
 21
4001.850591663209
 31
0.0
  0
LINE
  5
1617
330
1591
100
AcDbEntity
  8
SJC2
100
AcDbLine
 10
5293.599172882514
 20
4001.850591663209
 30
0.0
 11
5293.599172882515
 21
3427.117168391675
 31
0.0
  0
LINE
  5
1618
330
1591
100
AcDbEntity
  8
SJC2
100
AcDbLine
 10
5293.599172882515
 20
4001.850591663209
 30
0.0
 11
5319.048253051897
 21
4001.850591663209
 31
0.0
  0
SOLID
  5
16CC
330
1591
100
AcDbEntity
  8
MOJI
  6
Continuous
100
AcDbTrace
 10
2855.089606332878
 20
4604.004332259555
 30
0.0
 11
2843.696533645795
 21
4610.930779583011
 31
0.0
 12
2828.613728018969
 22
4573.288337860033
 32
0.0
 13
2828.613728018969
 23
4573.288337860033
 33
0.0
  0
LINE
  5
16CD
330
1591
100
AcDbEntity
  8
MOJI
  6
Continuous
100
AcDbLine
 10
2849.393069989336
 20
4607.467555921283
 30
0.0
 11
2886.643972128601
 21
4668.740271342779
 31
0.0
  0
SOLID
  5
17E4
330
1591
100
AcDbEntity
  8
MOJI
  6
Continuous
100
AcDbTrace
 10
1400.356897528937
 20
3565.906872694139
 30
0.0
 11
1413.252920107199
 21
3569.293667556357
 31
0.0
 12
1396.644524231415
 22
3606.288337860032
 32
0.0
 13
1396.644524231415
 23
3606.288337860032
 33
0.0
  0
LINE
  5
17E5
330
1591
100
AcDbEntity
  8
MOJI
  6
Continuous
100
AcDbLine
 10
1406.804908818068
 20
3567.600270125248
 30
0.0
 11
1466.428293683639
 21
3340.570128442762
 31
0.0
  0
SOLID
  5
17E6
330
1591
100
AcDbEntity
  8
MOJI
  6
Continuous
100
AcDbTrace
 10
2066.845038731261
 20
3732.486479022845
 30
0.0
 11
2079.722323089707
 21
3735.943837165922
 31
0.0
 12
2062.911606481254
 22
3772.847011169722
 32
0.0
 13
2062.911606481254
 23
3772.847011169722
 33
0.0
  0
LINE
  5
17E7
330
1591
100
AcDbEntity
  8
MOJI
  6
Continuous
100
AcDbLine
 10
2073.283680910484
 20
3734.215158094383
 30
0.0
 11
2178.222705482858
 21
3343.359017713773
 31
0.0
  0
TEXT
  5
1A05
330
1591
100
AcDbEntity
  8
INFORMATION
100
AcDbText
 10
1.0
 20
1.0
 30
0.0
 40
0.8
  1
VERSION=3.0
100
AcDbText
  0
LINE
  5
1F2F
330
1591
100
AcDbEntity
  8
MOJI
100
AcDbLine
 10
6910.992449039432
 20
592.013442766618
 30
0.0
 11
6910.992449039432
 21
1168.013442766618
 31
0.0
  0
LINE
  5
1F30
330
1591
100
AcDbEntity
  8
MOJI
100
AcDbLine
 10
6910.992449039432
 20
1168.013442766618
 30
0.0
 11
5050.08785759631
 21
1168.013442766618
 31
0.0
  0
LINE
  5
1F31
330
1591
100
AcDbEntity
  8
MOJI
100
AcDbLine
 10
5050.08785759631
 20
1168.013442766618
 30
0.0
 11
5050.08785759631
 21
592.013442766618
 31
0.0
  0
LINE
  5
1F32
330
1591
100
AcDbEntity
  8
MOJI
100
AcDbLine
 10
5050.08785759631
 20
592.013442766618
 30
0.0
 11
6910.992449039432
 21
592.013442766618
 31
0.0
  0
LINE
  5
1F33
330
1591
100
AcDbEntity
  8
MOJI
100
AcDbLine
 10
5050.08785759631
 20
688.013442766618
 30
0.0
 11
6910.992449039432
 21
688.013442766618
 31
0.0
  0
LINE
  5
1F34
330
1591
100
AcDbEntity
  8
MOJI
100
AcDbLine
 10
5050.08785759631
 20
784.013442766618
 30
0.0
 11
6910.992449039432
 21
784.013442766618
 31
0.0
  0
LINE
  5
1F35
330
1591
100
AcDbEntity
  8
MOJI
100
AcDbLine
 10
5050.08785759631
 20
880.0134427666179
 30
0.0
 11
6910.992449039432
 21
880.0134427666179
 31
0.0
  0
LINE
  5
1F36
330
1591
100
AcDbEntity
  8
MOJI
100
AcDbLine
 10
5050.08785759631
 20
976.013442766618
 30
0.0
 11
6910.992449039432
 21
976.013442766618
 31
0.0
  0
LINE
  5
1F37
330
1591
100
AcDbEntity
  8
MOJI
100
AcDbLine
 10
5050.08785759631
 20
1072.013442766618
 30
0.0
 11
6910.992449039432
 21
1072.013442766618
 31
0.0
  0
LINE
  5
1F38
330
1591
100
AcDbEntity
  8
MOJI
100
AcDbLine
 10
5194.08785759631
 20
1168.013442766618
 30
0.0
 11
5194.08785759631
 21
592.013442766618
 31
0.0
  0
LINE
  5
1F39
330
1591
100
AcDbEntity
  8
MOJI
100
AcDbLine
 10
5801.402018740454
 20
1168.013442766618
 30
0.0
 11
5801.402018740454
 21
592.013442766618
 31
0.0
  0
LINE
  5
1F3A
330
1591
100
AcDbEntity
  8
MOJI
100
AcDbLine
 10
6124.910536916065
 20
1168.013442766618
 30
0.0
 11
6124.910536916065
 21
592.013442766618
 31
0.0
  0
TEXT
  5
1F3B
330
1591
100
AcDbEntity
  8
MOJI
100
AcDbText
 10
5102.527535728242
 20
806.0330636687526
 30
0.0
 40
60.0
  1
3
 41
0.8
  7
EXT08
100
AcDbText
  0
TEXT
  5
1F3C
330
1591
100
AcDbEntity
  8
MOJI
100
AcDbText
 10
5337.629544329132
 20
808.2032790317398
 30
0.0
 40
60.0
  1
格子パイプ
 41
0.8
  7
EXT08
100
AcDbText
  0
TEXT
  5
1F3D
330
1591
100
AcDbEntity
  8
MOJI
100
AcDbText
 10
5105.830484833404
 20
620.1644193423167
 30
0.0
 40
60.0
  1
5
 41
0.8
  7
EXT08
100
AcDbText
  0
TEXT
  5
1F3E
330
1591
100
AcDbEntity
  8
MOJI
100
AcDbText
 10
5102.527535728242
 20
710.0330636687527
 30
0.0
 40
60.0
  1
4
 41
0.8
  7
EXT08
100
AcDbText
  0
TEXT
  5
1F3F
330
1591
100
AcDbEntity
  8
MOJI
100
AcDbText
 10
5215.034814741212
 20
904.3054527769946
 30
0.0
 40
60.0
  1
アンダービームパイプ
 41
0.8
  7
EXT08
100
AcDbText
  0
TEXT
  5
1F40
330
1591
100
AcDbEntity
  8
MOJI
100
AcDbText
 10
5315.147302652154
 20
994.9215991791861
 30
0.0
 40
60.0
  1
ビームパイプ
 41
0.8
  7
EXT08
100
AcDbText
  0
TEXT
  5
1F41
330
1591
100
AcDbEntity
  8
MOJI
100
AcDbText
 10
5320.14473038108
 20
1092.626639372856
 30
0.0
 40
60.0
  1
品        名
 41
0.8
  7
EXT08
100
AcDbText
  0
TEXT
  5
1F42
330
1591
100
AcDbEntity
  8
MOJI
100
AcDbText
 10
5102.25228996948
 20
994.8797950366339
 30
0.0
 40
60.0
  1
1
 41
0.8
  7
EXT08
100
AcDbText
  0
TEXT
  5
1F43
330
1591
100
AcDbEntity
  8
MOJI
100
AcDbText
 10
5102.527535728242
 20
902.0330636687527
 30
0.0
 40
60.0
  1
2
 41
0.8
  7
EXT08
100
AcDbText
  0
TEXT
  5
1F44
330
1591
100
AcDbEntity
  8
MOJI
100
AcDbText
 10
5073.555239074642
 20
1095.429544823628
 30
0.0
 40
60.0
  1
部番
 41
0.8
  7
EXT08
100
AcDbText
  0
TEXT
  5
1F45
330
1591
100
AcDbEntity
  8
MOJI
100
AcDbText
 10
5824.846036522487
 20
993.6667819081245
 30
0.0
 40
60.0
  1
STK400
 41
0.8
  7
EXT08
100
AcDbText
  0
TEXT
  5
1F46
330
1591
100
AcDbEntity
  8
MOJI
100
AcDbText
 10
5832.352087202032
 20
1087.020828471311
 30
0.0
 40
60.0
  1
材     質
 41
0.8
  7
EXT08
100
AcDbText
  0
TEXT
  5
1F47
330
1591
100
AcDbEntity
  8
MOJI
100
AcDbText
 10
5824.846036522487
 20
897.6667819081244
 30
0.0
 40
60.0
  1
STK400
 41
0.8
  7
EXT08
100
AcDbText
  0
TEXT
  5
1F48
330
1591
100
AcDbEntity
  8
MOJI
100
AcDbText
 10
5844.045056979685
 20
612.6787157602448
 30
0.0
 40
60.0
  1
4.6相当
 41
0.8
  7
EXT08
100
AcDbText
  0
TEXT
  5
1F49
330
1591
100
AcDbEntity
  8
MOJI
100
AcDbText
 10
5304.260909234641
 20
715.3173866291145
 30
0.0
 40
60.0
  1
ジョイント金具
 41
0.8
  7
EXT08
100
AcDbText
  0
TEXT
  5
1F4A
330
1591
100
AcDbEntity
  8
MOJI
100
AcDbText
 10
5343.042656563384
 20
619.3173866291145
 30
0.0
 40
60.0
  1
角根ボルト
 41
0.8
  7
EXT08
100
AcDbText
  0
TEXT
  5
1F4B
330
1591
100
AcDbEntity
  8
MOJI
100
AcDbText
 10
5824.846036522487
 20
801.6667819081245
 30
0.0
 40
60.0
  1
STK400
 41
0.8
  7
EXT08
100
AcDbText
  0
TEXT
  5
1F4C
330
1591
100
AcDbEntity
  8
MOJI
100
AcDbText
 10
5820.820551522518
 20
705.6667819081244
 30
0.0
 40
60.0
  1
SGH400
 41
0.8
  7
EXT08
100
AcDbText
  0
TEXT
  5
1F4D
330
1591
100
AcDbEntity
  8
MOJI
100
AcDbText
 10
6192.660592336051
 20
996.4879169356121
 30
0.0
 40
60.0
  1
亜鉛めっき+静電粉体塗装
 41
0.8
  7
EXT08
100
AcDbText
  0
TEXT
  5
1F4E
330
1591
100
AcDbEntity
  8
MOJI
100
AcDbText
 10
6190.054774122062
 20
612.4879169356122
 30
0.0
 40
60.0
  1
溶融亜鉛めっき M8×25
 41
0.8
  7
EXT08
100
AcDbText
  0
TEXT
  5
1F4F
330
1591
100
AcDbEntity
  8
MOJI
100
AcDbText
 10
6386.402066230999
 20
1089.434656317156
 30
0.0
 40
60.0
  1
摘      要
 41
0.8
  7
EXT08
100
AcDbText
  0
TEXT
  5
1FAC
330
1591
100
AcDbEntity
  8
INFORMATION
100
AcDbText
 10
7401.0
 20
2.0
 30
0.0
 40
0.8
  1
PLOTTER=CALCOMP_TECHJET720
  7
EXT08
100
AcDbText
  0
TEXT
  5
1FAD
330
1591
100
AcDbEntity
  8
INFORMATION
100
AcDbText
 10
7401.0
 20
3.0
 30
0.0
 40
0.8
  1
PAPER=A3
  7
EXT08
100
AcDbText
  0
TEXT
  5
1FAE
330
1591
100
AcDbEntity
  8
INFORMATION
100
AcDbText
 10
7401.0
 20
1.0
 30
0.0
 40
0.8
  1
VERSION=3.0
  7
EXT08
100
AcDbText
  0
TEXT
  5
1FAF
330
1591
100
AcDbEntity
  8
MOJI
100
AcDbText
 10
6192.660592336051
 20
900.4879169356122
 30
0.0
 40
60.0
  1
亜鉛めっき+静電粉体塗装
 41
0.8
  7
EXT08
100
AcDbText
  0
TEXT
  5
1FB0
330
1591
100
AcDbEntity
  8
MOJI
100
AcDbText
 10
6192.660592336051
 20
804.4879169356121
 30
0.0
 40
60.0
  1
亜鉛めっき+静電粉体塗装
 41
0.8
  7
EXT08
100
AcDbText
  0
TEXT
  5
1FB1
330
1591
100
AcDbEntity
  8
MOJI
100
AcDbText
 10
6192.660592336051
 20
708.4879169356122
 30
0.0
 40
60.0
  1
亜鉛めっき+静電粉体塗装
 41
0.8
  7
EXT08
100
AcDbText
  0
LINE
  5
1FB2
330
1591
100
AcDbEntity
  8
CENTER
100
AcDbLine
 10
599.7155964626881
 20
825.2147455507278
 30
0.0
 11
2703.823708599579
 21
825.2147455507278
 31
0.0
  0
LINE
  5
1FB3
330
1591
100
AcDbEntity
  8
CENTER
100
AcDbLine
 10
2401.037355892437
 20
1282.970696570459
 30
0.0
 11
2401.037355892437
 21
354.0560009220629
 31
0.0
  0
ARC
  5
1FB4
330
1591
100
AcDbEntity
  8
SJC2
100
AcDbCircle
 10
1651.713142312679
 20
1982.718729221517
 30
0.0
 40
121.2500000000979
100
AcDbArc
 50
221.4192488415704
 51
317.2692047397716
  0
LINE
  5
1FB5
330
1591
100
AcDbEntity
  8
SJC2
100
AcDbLine
 10
1613.538671930837
 20
2139.884628106944
 30
0.0
 11
1693.53343209928
 21
2138.969015965717
 31
0.0
  0
LINE
  5
1FB6
330
1591
100
AcDbEntity
  8
SJC2
100
AcDbLine
 10
1736.473634113876
 20
1964.616845978949
 30
0.0
 11
1736.656756542121
 21
1980.615798012632
 31
0.0
  0
LINE
  5
1FB7
330
1591
100
AcDbEntity
  8
SJC2
100
AcDbLine
 10
1736.656756542121
 20
1980.615798012632
 30
0.0
 11
1566.667891184177
 21
1982.561473812738
 31
0.0
  0
LINE
  5
1FB8
330
1591
100
AcDbEntity
  8
SJC2
100
AcDbLine
 10
1566.667891184177
 20
1982.561473812738
 30
0.0
 11
1566.484768755934
 21
1966.56252177905
 31
0.0
  0
LINE
  5
1FB9
330
1591
100
AcDbEntity
  8
SJC2
100
AcDbLine
 10
1589.910352346296
 20
2047.29970053488
 30
0.0
 11
1614.880949220325
 21
2047.013889543967
 31
0.0
  0
ARC
  5
1FBA
330
1591
100
AcDbEntity
  8
SJC2
100
AcDbCircle
 10
1595.826404541538
 20
2019.300810566735
 30
0.0
 40
27.9293459836923
100
AcDbArc
 50
47.21231441430389
 51
89.34422679062386
  0
ARC
  5
1FBB
330
1591
100
AcDbEntity
  8
SJC2
100
AcDbCircle
 10
1651.248231008318
 20
1945.410370990182
 30
0.0
 40
101.1806346775377
100
AcDbArc
 50
67.57317268183822
 51
111.1152808995128
  0
ARC
  5
1FBC
330
1591
100
AcDbEntity
  8
SJC2
100
AcDbCircle
 10
1689.848969967064
 20
2038.938461879995
 30
0.0
 40
0.0000000006489557
100
AcDbArc
 50
111.1456362769805
 51
67.60352805937926
  0
ARC
  5
1FBD
330
1591
100
AcDbEntity
  8
SJC2
100
AcDbCircle
 10
1708.346801707257
 20
2018.012913189911
 30
0.0
 40
27.9293459836923
100
AcDbArc
 50
89.34422679062386
 51
131.4761391669858
  0
LINE
  5
1FBE
330
1591
100
AcDbEntity
  8
SJC2
100
AcDbLine
 10
1589.910352346296
 20
2047.29970053488
 30
0.0
 11
1714.902165109499
 21
2045.869056564212
 31
0.0
  0
LINE
  5
1FBF
330
1591
100
AcDbEntity
  8
SJC2
100
AcDbLine
 10
1589.910352346296
 20
2047.29970053488
 30
0.0
 11
1577.328572801824
 21
2040.226359257415
 31
0.0
  0
LINE
  5
1FC0
330
1591
100
AcDbEntity
  8
SJC2
100
AcDbLine
 10
1714.902165109499
 20
2045.869056564212
 30
0.0
 11
1727.318748117655
 21
2038.509586492615
 31
0.0
  0
LINE
  5
1FC1
330
1591
100
AcDbEntity
  8
SJC2
100
AcDbLine
 10
1577.328572801824
 20
2040.226359257415
 30
0.0
 11
1576.667236205232
 21
1982.447022295086
 31
0.0
  0
LINE
  5
1FC2
330
1591
100
AcDbEntity
  8
SJC2
100
AcDbLine
 10
1727.318748117655
 20
2038.509586492615
 30
0.0
 11
1726.657411521066
 21
1980.730249530285
 31
0.0
  0
LINE
  5
1FC3
330
1591
100
AcDbEntity
  8
SJC2
100
AcDbLine
 10
1689.848969967304
 20
2038.938461879991
 30
0.0
 11
1689.187633370722
 21
1981.159124918264
 31
0.0
  0
LINE
  5
1FC4
330
1591
100
AcDbEntity
  8
SJC2
100
AcDbLine
 10
1614.798350952689
 20
2039.79748386943
 30
0.0
 11
1614.137014355578
 21
1982.018146907106
 31
0.0
  0
LINE
  5
1FC5
330
1591
100
AcDbEntity
  8
SJC2
100
AcDbLine
 10
1613.538671930837
 20
2139.884628106944
 30
0.0
 11
1612.400415743719
 21
2047.042281485678
 31
0.0
  0
LINE
  5
1FC6
330
1591
100
AcDbEntity
  8
SJC2
100
AcDbLine
 10
1693.53343209928
 20
2138.969015965717
 30
0.0
 11
1692.395175912163
 21
2046.126669344451
 31
0.0
  0
LINE
  5
1FC7
330
1591
100
AcDbEntity
  8
SJC2
100
AcDbLine
 10
1625.675227777288
 20
2151.746500311027
 30
0.0
 11
1681.671559895198
 21
2151.105571812169
 31
0.0
  0
LINE
  5
1FC8
330
1591
100
AcDbEntity
  8
SJC2
100
AcDbLine
 10
1625.675227777288
 20
2151.746500311027
 30
0.0
 11
1613.538671930837
 21
2139.884628106944
 31
0.0
  0
LINE
  5
1FC9
330
1591
100
AcDbEntity
  8
SJC2
100
AcDbLine
 10
1681.671559895198
 20
2151.105571812169
 30
0.0
 11
1693.53343209928
 21
2138.969015965717
 31
0.0
  0
LINE
  5
1FCA
330
1591
100
AcDbEntity
  8
SJC2
100
AcDbLine
 10
1625.675227777288
 20
2151.746500311027
 30
0.0
 11
1624.400655206147
 21
2046.904927927442
 31
0.0
  0
LINE
  5
1FCB
330
1591
100
AcDbEntity
  8
SJC2
100
AcDbLine
 10
1681.671559895198
 20
2151.105571812169
 30
0.0
 11
1680.396987324057
 21
2046.263999428582
 31
0.0
  0
LINE
  5
1FCC
330
1591
100
AcDbEntity
  8
CENTER
100
AcDbLine
 10
1645.721335752176
 20
1047.990538891079
 30
0.0
 11
1645.721335752176
 21
606.8943768506309
 31
0.0
  0
DIMENSION
  5
1FCD
330
1591
100
AcDbEntity
  8
SUNPOU
100
AcDbDimension
  2
*D18
 10
2401.037355892437
 20
205.9478027541594
 30
0.0
 11
1651.037355892437
 21
259.9478027541594
 31
0.0
 70
    32
  1
　　　　　<> （可能範囲140～190）
 71
     5
 42
150.0
  3
SJC
100
AcDbAlignedDimension
 13
901.0373558924365
 23
362.9670485211667
 33
0.0
 14
2401.037355892437
 24
354.0560009220629
 34
0.0
100
AcDbRotatedDimension
1001
ACAD
1000
DSTYLE
1002
{
1070
   287
1070
     5
1070
   287
1070
     5
1070
   287
1070
     5
1070
   287
1070
     5
1070
   287
1070
     5
1070
   287
1070
     5
1070
   287
1070
     5
1070
   287
1070
     5
1070
    40
1040
20.0
1070
    41
1040
2.0
1070
    42
1040
1.0
1070
    43
1040
6.0
1070
    44
1040
1.0
1070
    73
1070
     0
1070
    74
1070
     0
1070
    77
1070
     1
1070
    78
1070
     8
1070
   140
1040
3.0
1070
   144
1040
0.1
1070
   147
1040
1.199999999999999
1070
   172
1070
     1
1070
   176
1070
   256
1070
   177
1070
   256
1070
   178
1070
   256
1070
   271
1070
     1
1070
   275
1070
     1
1070
   279
1070
     2
1070
   340
1005
15EE
1002
}
  0
LINE
  5
1FCE
330
1591
100
AcDbEntity
  8
MOJI
100
AcDbLine
 10
1552.693005433552
 20
1684.961510915444
 30
0.0
 11
1164.708922270527
 21
1684.961510915444
 31
0.0
  0
TEXT
  5
1FCF
330
1591
100
AcDbEntity
  8
MOJI
100
AcDbText
 10
1276.902457181277
 20
1700.790947988413
 30
0.0
 40
60.0
  1
角根ボルト  
 41
0.8
  7
EXT08
 72
     2
 11
1622.502457181277
 21
1730.790947988413
 31
0.0
100
AcDbText
 73
     2
  0
TEXT
  5
1FD0
330
1591
100
AcDbEntity
  8
MOJI2
100
AcDbText
 10
1354.043986902488
 20
2765.439659710617
 30
0.0
 40
80.0
  1
ジョイント金具詳細図 (1/2)
 41
0.8
  7
EXT08
100
AcDbText
  0
LINE
  5
1FD1
330
1591
100
AcDbEntity
  8
MOJI2
100
AcDbLine
 10
1339.879185134767
 20
2730.994299098784
 30
0.0
 11
2122.722991628576
 21
2730.994299098784
 31
0.0
  0
LINE
  5
1FD2
330
1591
100
AcDbEntity
  8
MOJI2
100
AcDbLine
 10
1339.879185134767
 20
2750.994299098784
 30
0.0
 11
2122.722991628576
 21
2750.994299098784
 31
0.0
  0
TEXT
  5
1FD3
330
1591
100
AcDbEntity
  8
MOJI
100
AcDbText
 10
1268.688675929547
 20
1611.957306032421
 30
0.0
 40
60.0
  1
M8×25
 41
0.8
  7
EXT08
 72
     2
 11
1511.431533072404
 21
1641.95730603242
 31
0.0
100
AcDbText
 73
     2
  0
TEXT
  5
1FD4
330
1591
100
AcDbEntity
  8
MOJI
100
AcDbText
 10
1194.116795947579
 20
1707.068044383301
 30
0.0
 40
60.0
  1
5
 41
0.8
  7
EXT08
 72
     4
 11
1216.973938804722
 21
1737.068044383301
 31
0.0
100
AcDbText
  0
CIRCLE
  5
1FD5
330
1591
100
AcDbEntity
  8
MOJI
100
AcDbCircle
 10
1216.973938804722
 20
1737.068044383301
 30
0.0
 40
40.0
  0
TEXT
  5
1FD6
330
1591
100
AcDbEntity
  8
MOJI
100
AcDbText
 10
2696.379344629748
 20
2359.722156152444
 30
0.0
 40
60.0
  1
ジョイント金具
 41
0.8
  7
EXT08
 11
2696.379344629748
 21
2389.722156152444
 31
0.0
100
AcDbText
 73
     2
  0
LINE
  5
1FD7
330
1591
100
AcDbEntity
  8
MOJI
100
AcDbLine
 10
2603.480027889917
 20
2339.722156152443
 30
0.0
 11
3098.042236620431
 21
2339.722156152444
 31
0.0
  0
TEXT
  5
1FD8
330
1591
100
AcDbEntity
  8
INFORMATION
100
AcDbText
 10
14801.0
 20
2.0
 30
0.0
 40
0.8
  1
PLOTTER=CALCOMP_TECHJET720
  7
EXT08
100
AcDbText
  0
TEXT
  5
1FD9
330
1591
100
AcDbEntity
  8
INFORMATION
100
AcDbText
 10
14801.0
 20
3.0
 30
0.0
 40
0.8
  1
PAPER=A3
  7
EXT08
100
AcDbText
  0
CIRCLE
  5
1FDA
330
1591
100
AcDbEntity
  8
SJC
100
AcDbCircle
 10
901.0373558924403
 20
1933.516869614389
 30
0.0
 40
213.5
  0
CIRCLE
  5
1FDB
330
1591
100
AcDbEntity
  8
SJC
100
AcDbCircle
 10
2401.12268679865
 20
1933.51686961439
 30
0.0
 40
213.5
  0
LINE
  5
1FDC
330
1591
100
AcDbEntity
  8
CENTER
100
AcDbLine
 10
1653.924442642606
 20
2204.181252013678
 30
0.0
 11
1648.582513247402
 21
1703.375371215755
 31
0.0
  0
LINE
  5
1FDD
330
1591
100
AcDbEntity
  8
SJC2
100
AcDbLine
 10
1566.484768755934
 20
1966.56252177905
 30
0.0
 11
1736.473634113876
 21
1964.616845978949
 31
0.0
  0
DIMENSION
  5
1FDE
330
1591
100
AcDbEntity
  8
SUNPOU
100
AcDbDimension
  2
*D19
 10
1053.606292288383
 20
2082.865353527048
 30
0.0
 11
863.0505889764116
 21
1971.897775260554
 31
0.0
 70
    33
  1
%%C42.7
 71
     5
 42
42.75945719536235
  3
SJC
100
AcDbAlignedDimension
 13
748.0435332642846
 23
1783.752468044354
 33
0.0
 14
1053.606292288383
 24
2082.865353527048
 34
0.0
1001
ACAD
1000
DSTYLE
1002
{
1070
   340
1005
15EE
1070
   140
1040
3.0
1070
    78
1070
     8
1070
    74
1070
     0
1070
   172
1070
     1
1070
    73
1070
     0
1070
    77
1070
     1
1070
    40
1040
20.0
1070
   144
1040
0.1
1070
   147
1040
1.199999999999999
1070
    42
1040
1.0
1070
    44
1040
1.0
1070
    43
1040
6.0
1070
   271
1070
     1
1070
   178
1070
   256
1070
   177
1070
   256
1070
   176
1070
   256
1070
   275
1070
     1
1070
    41
1040
2.0
1002
}
  0
DIMENSION
  5
1FDF
330
1591
100
AcDbEntity
  8
SUNPOU
100
AcDbDimension
  2
*D20
 10
731.4608641887199
 20
2106.356629797036
 30
0.0
 11
650.7562247460453
 21
2264.508668338677
 31
0.0
 70
    33
  1
t<>
 71
     5
 42
1.604415799033665
  3
SJC
100
AcDbAlignedDimension
 13
742.754428631254
 23
2094.960559956902
 33
0.0
 14
731.4608641887134
 24
2106.356629797029
 34
0.0
1001
ACAD
1000
DSTYLE
1002
{
1070
   340
1005
15EE
1070
   140
1040
3.0
1070
    78
1070
     8
1070
    74
1070
     0
1070
   172
1070
     1
1070
    73
1070
     0
1070
    77
1070
     1
1070
    40
1040
20.0
1070
   144
1040
0.1
1070
   147
1040
1.199999999999999
1070
    42
1040
1.0
1070
    44
1040
1.0
1070
    43
1040
6.0
1070
   271
1070
     1
1070
   178
1070
   256
1070
   177
1070
   256
1070
   176
1070
   256
1070
   275
1070
     1
1070
    41
1040
2.0
1002
}
  0
CIRCLE
  5
1FE0
330
1591
100
AcDbEntity
  8
MOJI
100
AcDbCircle
 10
2641.964545836547
 20
2394.857990561338
 30
0.0
 40
40.0
  0
TEXT
  5
1FE1
330
1591
100
AcDbEntity
  8
MOJI
100
AcDbText
 10
2617.964545836547
 20
2364.857990561338
 30
0.0
 40
60.0
  1
4
 41
0.8
  7
EXT08
 72
     4
 11
2641.964545836547
 21
2394.857990561338
 31
0.0
100
AcDbText
  0
LINE
  5
1FE2
330
1591
100
AcDbEntity
  8
SJC
100
AcDbLine
 10
1114.537355892436
 20
1226.010651971839
 30
0.0
 11
1114.537355892436
 21
1025.214745550728
 31
0.0
  0
LINE
  5
1FE3
330
1591
100
AcDbEntity
  8
SJC
100
AcDbLine
 10
687.5373558924374
 20
1226.010651971839
 30
0.0
 11
687.5373558924374
 21
950.2147455507277
 31
0.0
  0
LINE
  5
1FE4
330
1591
100
AcDbEntity
  8
SJC
100
AcDbLine
 10
687.5373558924374
 20
700.2147455507278
 30
0.0
 11
687.5373558924374
 21
424.4188391296156
 31
0.0
  0
LINE
  5
1FE5
330
1591
100
AcDbEntity
  8
SJC
100
AcDbLine
 10
1114.537355892436
 20
625.2147455507278
 30
0.0
 11
1114.537355892436
 21
424.4188391296157
 31
0.0
  0
LINE
  5
1FE6
330
1591
100
AcDbEntity
  8
SJC
100
AcDbLine
 10
2614.537355892437
 20
1226.010651971839
 30
0.0
 11
2614.537355892437
 21
950.2147455507277
 31
0.0
  0
LINE
  5
1FE7
330
1591
100
AcDbEntity
  8
SJC
100
AcDbLine
 10
2187.537355892437
 20
1226.010651971839
 30
0.0
 11
2187.537355892437
 21
1010.985128753115
 31
0.0
  0
LINE
  5
1FE8
330
1591
100
AcDbEntity
  8
SJC
100
AcDbLine
 10
2187.537355892438
 20
639.444362348332
 30
0.0
 11
2187.537355892437
 21
424.4188391296148
 31
0.0
  0
LINE
  5
1FE9
330
1591
100
AcDbEntity
  8
SJC
100
AcDbLine
 10
2614.537355892437
 20
700.2147455507278
 30
0.0
 11
2614.537355892437
 21
424.4188391296147
 31
0.0
  0
LINE
  5
1FEA
330
1591
100
AcDbEntity
  8
CENTER
100
AcDbLine
 10
901.0373558924365
 20
1282.970696570459
 30
0.0
 11
901.0373558924365
 21
354.0560009220629
 31
0.0
  0
ARC
  5
1FEB
330
1591
100
AcDbEntity
  8
SJC
100
AcDbCircle
 10
794.2873558924365
 20
1025.92850931144
 30
0.0
 40
226.7783638524105
100
AcDbArc
 50
61.91870210259729
 51
118.0812978974027
  0
ARC
  5
1FEC
330
1591
100
AcDbEntity
  8
SJC
100
AcDbCircle
 10
1007.787355892436
 20
1025.92850931144
 30
0.0
 40
226.7783638524105
100
AcDbArc
 50
61.91870210259729
 51
118.0812978974027
  0
ARC
  5
1FED
330
1591
100
AcDbEntity
  8
SJC
100
AcDbCircle
 10
1007.787355892436
 20
1426.092794632238
 30
0.0
 40
226.7783638524105
100
AcDbArc
 50
241.9187021025973
 51
298.0812978974027
  0
ARC
  5
1FEE
330
1591
100
AcDbEntity
  8
SJC
100
AcDbCircle
 10
2507.787355892437
 20
1426.092794632238
 30
0.0
 40
226.7783638524105
100
AcDbArc
 50
241.9187021025973
 51
298.0812978974027
  0
ARC
  5
1FEF
330
1591
100
AcDbEntity
  8
SJC
100
AcDbCircle
 10
2507.787355892437
 20
1025.92850931144
 30
0.0
 40
226.7783638524105
100
AcDbArc
 50
61.91870210259729
 51
118.0812978974027
  0
ARC
  5
1FF0
330
1591
100
AcDbEntity
  8
SJC
100
AcDbCircle
 10
2294.287355892437
 20
1025.92850931144
 30
0.0
 40
226.7783638524105
100
AcDbArc
 50
61.91870210259729
 51
118.0812978974027
  0
ARC
  5
1FF1
330
1591
100
AcDbEntity
  8
SJC
100
AcDbCircle
 10
2507.787355892437
 20
624.5009817900149
 30
0.0
 40
226.7783638524105
100
AcDbArc
 50
241.9187021025973
 51
298.0812978974027
  0
ARC
  5
1FF2
330
1591
100
AcDbEntity
  8
SJC
100
AcDbCircle
 10
2507.787355892437
 20
224.3366964692168
 30
0.0
 40
226.7783638524105
100
AcDbArc
 50
61.91870210259729
 51
118.0812978974027
  0
ARC
  5
1FF3
330
1591
100
AcDbEntity
  8
SJC
100
AcDbCircle
 10
2294.287355892437
 20
624.5009817900149
 30
0.0
 40
226.7783638524105
100
AcDbArc
 50
241.9187021025973
 51
298.0812978974027
  0
ARC
  5
1FF4
330
1591
100
AcDbEntity
  8
SJC
100
AcDbCircle
 10
1007.787355892436
 20
224.3366964692168
 30
0.0
 40
226.7783638524105
100
AcDbArc
 50
61.91870210259729
 51
118.0812978974027
  0
ARC
  5
1FF5
330
1591
100
AcDbEntity
  8
SJC
100
AcDbCircle
 10
1007.787355892436
 20
624.5009817900149
 30
0.0
 40
226.7783638524105
100
AcDbArc
 50
241.9187021025973
 51
298.0812978974027
  0
ARC
  5
1FF6
330
1591
100
AcDbEntity
  8
SJC
100
AcDbCircle
 10
794.2873558924365
 20
624.5009817900149
 30
0.0
 40
226.7783638524105
100
AcDbArc
 50
241.9187021025973
 51
298.0812978974027
  0
DIMENSION
  5
1FF7
330
1591
100
AcDbEntity
  8
SUNPOU
100
AcDbDimension
  2
*D21
 10
1114.537355892436
 20
1353.904782102087
 30
0.0
 11
901.0373558924371
 21
1407.904782102087
 31
0.0
 70
    32
  1
%%c<>
 71
     5
 42
42.69999999999991
  3
SJC
100
AcDbAlignedDimension
 13
687.5373558924374
 23
1226.010651971839
 33
0.0
 14
1114.537355892436
 24
1226.010651971839
 34
0.0
100
AcDbRotatedDimension
1001
ACAD
1000
DSTYLE
1002
{
1070
   340
1005
15EE
1070
   140
1040
3.0
1070
    78
1070
     8
1070
    74
1070
     0
1070
   172
1070
     1
1070
    73
1070
     0
1070
    77
1070
     1
1070
    40
1040
20.0
1070
   144
1040
0.1
1070
   147
1040
1.199999999999999
1070
    42
1040
1.0
1070
    44
1040
1.0
1070
    43
1040
6.0
1070
   271
1070
     1
1070
   178
1070
   256
1070
   177
1070
   256
1070
   176
1070
   256
1070
   275
1070
     1
1070
    41
1040
2.0
1002
}
  0
CIRCLE
  5
1FF8
330
1591
100
AcDbEntity
  8
SJC
100
AcDbCircle
 10
901.0373558924476
 20
1933.516869614397
 30
0.0
 40
190.5
  0
CIRCLE
  5
1FF9
330
1591
100
AcDbEntity
  8
SJC
100
AcDbCircle
 10
2401.122686798657
 20
1933.516869614397
 30
0.0
 40
190.5
  0
TEXT
  5
1FFA
330
1591
100
AcDbEntity
  8
MOJI
100
AcDbText
 10
1321.550473033165
 20
1368.707580817881
 30
0.0
 40
60.0
  1
 %%C42.7×t2.3
 41
0.8
  7
EXT08
100
AcDbText
  0
LINE
  5
1FFB
330
1591
100
AcDbEntity
  8
MOJI
100
AcDbLine
 10
1255.302487033707
 20
1346.165408481318
 30
0.0
 11
1774.602482963681
 21
1346.16540848132
 31
0.0
  0
TEXT
  5
1FFC
330
1591
100
AcDbEntity
  8
MOJI
100
AcDbText
 10
1281.647291795552
 20
1371.464834925815
 30
0.0
 40
60.0
  1
1
 41
0.8
  7
EXT08
 72
     4
 11
1301.075863224123
 21
1401.464834925815
 31
0.0
100
AcDbText
  0
CIRCLE
  5
1FFD
330
1591
100
AcDbEntity
  8
MOJI
100
AcDbCircle
 10
1303.105374381539
 20
1401.464834925815
 30
0.0
 40
40.0
  0
TEXT
  5
1FFE
330
1591
100
AcDbEntity
  8
INFORMATION
100
AcDbText
 10
14801.0
 20
1.0
 30
0.0
 40
0.8
  1
VERSION=3.0
  7
EXT08
100
AcDbText
  0
LINE
  5
1FFF
330
1591
100
AcDbEntity
  8
SJC
100
AcDbLine
 10
3392.849044597941
 20
625.2147455507278
 30
0.0
 11
4432.996230855548
 21
625.2147455507278
 31
0.0
  0
LINE
  5
2000
330
1591
100
AcDbEntity
  8
SJC
100
AcDbLine
 10
3392.849044597941
 20
1025.214745550728
 30
0.0
 11
4432.996230855548
 21
1025.214745550728
 31
0.0
  0
LINE
  5
2001
330
1591
100
AcDbEntity
  8
CENTER
100
AcDbLine
 10
3172.238071497682
 20
825.2147455507278
 30
0.0
 11
4706.381044901096
 21
825.2147455507278
 31
0.0
  0
DIMENSION
  5
2002
330
1591
100
AcDbEntity
  8
SUNPOU
100
AcDbDimension
  2
*D22
 10
3025.289596544637
 20
625.2147455507261
 30
0.0
 11
2971.289596544637
 21
825.2147455507266
 31
0.0
 70
    32
 71
     5
 42
40.0
  3
SJC
100
AcDbAlignedDimension
 13
3392.849044597944
 23
1025.214745550726
 33
0.0
 14
3392.849044597944
 24
625.214745550726
 34
0.0
 50
90.0
100
AcDbRotatedDimension
1001
ACAD
1000
DSTYLE
1002
{
1070
    40
1040
20.0
1070
    41
1040
2.0
1070
    42
1040
1.0
1070
    43
1040
6.0
1070
    44
1040
1.0
1070
    73
1070
     0
1070
    74
1070
     0
1070
    77
1070
     1
1070
    78
1070
     8
1070
   140
1040
3.0
1070
   144
1040
0.1
1070
   147
1040
1.199999999999999
1070
   172
1070
     1
1070
   176
1070
   256
1070
   177
1070
   256
1070
   178
1070
   256
1070
   271
1070
     2
1070
   272
1070
     2
1070
   275
1070
     1
1070
   340
1005
15EE
1002
}
  0
ARC
  5
2003
330
1591
100
AcDbEntity
  8
SJC
100
AcDbCircle
 10
3309.958165497862
 20
631.387510611997
 30
0.0
 40
68.85519193823974
100
AcDbArc
 50
3.186360762977083
 51
91.63278596521406
  0
LINE
  5
2004
330
1591
100
AcDbEntity
  8
SJC
100
AcDbLine
 10
3232.996230855548
 20
700.2147455507278
 30
0.0
 11
3232.996230855548
 21
825.2147455507278
 31
0.0
  0
LINE
  5
2005
330
1591
100
AcDbEntity
  8
SJC
100
AcDbLine
 10
3232.996230855548
 20
700.2147455507278
 30
0.0
 11
3307.996230855548
 21
700.2147455507278
 31
0.0
  0
ARC
  5
2006
330
1591
100
AcDbEntity
  8
SJC
100
AcDbCircle
 10
3392.849044597941
 20
640.2147455507278
 30
0.0
 40
15.0
100
AcDbArc
 50
199.471220634489
 51
270.0
  0
LINE
  5
2007
330
1591
100
AcDbEntity
  8
SJC
100
AcDbLine
 10
3232.996230855548
 20
950.2147455507278
 30
0.0
 11
3232.996230855548
 21
825.2147455507278
 31
0.0
  0
ARC
  5
2008
330
1591
100
AcDbEntity
  8
SJC
100
AcDbCircle
 10
3309.958165497862
 20
1019.041980489459
 30
0.0
 40
68.85519193823974
100
AcDbArc
 50
268.367214034786
 51
356.8136392370229
  0
LINE
  5
2009
330
1591
100
AcDbEntity
  8
SJC
100
AcDbLine
 10
3232.996230855548
 20
950.2147455507278
 30
0.0
 11
3307.996230855548
 21
950.2147455507278
 31
0.0
  0
ARC
  5
200A
330
1591
100
AcDbEntity
  8
SJC
100
AcDbCircle
 10
3392.849044597941
 20
1010.214745550728
 30
0.0
 40
15.0
100
AcDbArc
 50
90.0
 51
160.5287793655109
  0
DIMENSION
  5
200B
330
1591
100
AcDbEntity
  8
SUNPOU
100
AcDbDimension
  2
*D23
 10
4632.996230855544
 20
418.4040154919934
 30
0.0
 11
3932.996230855546
 21
472.4040154919934
 31
0.0
 70
    32
 71
     5
 42
139.9999999999996
  3
SJC
100
AcDbAlignedDimension
 13
3232.996230855548
 23
700.2147455507278
 33
0.0
 14
4632.996230855544
 24
825.2147455507261
 34
0.0
100
AcDbRotatedDimension
1001
ACAD
1000
DSTYLE
1002
{
1070
    40
1040
20.0
1070
    41
1040
2.0
1070
    42
1040
1.0
1070
    43
1040
6.0
1070
    44
1040
1.0
1070
    73
1070
     0
1070
    74
1070
     0
1070
    77
1070
     1
1070
    78
1070
     8
1070
   140
1040
3.0
1070
   144
1040
0.1
1070
   147
1040
1.199999999999999
1070
   172
1070
     1
1070
   176
1070
   256
1070
   177
1070
   256
1070
   178
1070
   256
1070
   271
1070
     2
1070
   272
1070
     2
1070
   275
1070
     1
1070
   340
1005
15EE
1002
}
  0
TEXT
  5
200C
330
1591
100
AcDbEntity
  8
MOJI
100
AcDbText
 10
4319.613271660361
 20
1156.77015604332
 30
0.0
 40
60.0
  1
10×65 長穴
 41
0.8
  7
EXT08
100
AcDbText
  0
ARC
  5
200D
330
1591
100
AcDbEntity
  8
SJC
100
AcDbCircle
 10
4432.996230855548
 20
825.2147455507278
 30
0.0
 40
200.0
100
AcDbArc
 50
270.0
 51
90.0
  0
LINE
  5
200E
330
1591
100
AcDbEntity
  8
MOJI
100
AcDbLine
 10
4694.045847267094
 20
1135.022366686061
 30
0.0
 11
4307.996230855548
 21
1135.022366686061
 31
0.0
  0
LEADER
  5
200F
330
1591
100
AcDbEntity
  8
MOJI
100
AcDbLeader
  3
SJC
 76
     2
 10
4157.996230855544
 20
875.2147455507261
 30
0.0
 10
4307.996230855544
 20
1135.022366686059
 30
0.0
1001
ACAD
1000
DSTYLE
1002
{
1070
     5
1000

1070
    40
1040
20.0
1070
    41
1040
2.0
1070
    42
1040
1.0
1070
    43
1040
6.0
1070
    44
1040
1.0
1070
    73
1070
     0
1070
    74
1070
     0
1070
    77
1070
     1
1070
    78
1070
     8
1070
   140
1040
3.0
1070
   144
1040
0.1
1070
   147
1040
1.199999999999999
1070
   172
1070
     1
1070
   176
1070
   256
1070
   177
1070
   256
1070
   178
1070
   256
1070
   271
1070
     2
1070
   272
1070
     2
1070
   275
1070
     1
1070
   340
1005
15EE
1070
   342
1005
0
1002
}
  0
LINE
  5
2010
330
1591
100
AcDbEntity
  8
HASEN
100
AcDbLine
 10
3682.996230855548
 20
641.2147455507269
 30
0.0
 11
4511.379902624609
 21
641.2147455507314
 31
0.0
  0
LINE
  5
2011
330
1591
100
AcDbEntity
  8
HASEN
100
AcDbLine
 10
3682.996230855548
 20
1009.214745550728
 30
0.0
 11
4511.379902624609
 21
1009.214745550728
 31
0.0
  0
LINE
  5
2012
330
1591
100
AcDbEntity
  8
SJC
100
AcDbLine
 10
4432.996230855548
 20
775.2147455507278
 30
0.0
 11
3882.996230855548
 21
775.2147455507278
 31
0.0
  0
LINE
  5
2013
330
1591
100
AcDbEntity
  8
SJC
100
AcDbLine
 10
4432.996230855548
 20
875.2147455507278
 30
0.0
 11
3882.996230855548
 21
875.2147455507278
 31
0.0
  0
LINE
  5
2014
330
1591
100
AcDbEntity
  8
SJC
100
AcDbLine
 10
3682.996230855548
 20
625.2147455507278
 30
0.0
 11
3682.996230855548
 21
825.2147455507278
 31
0.0
  0
LINE
  5
2015
330
1591
100
AcDbEntity
  8
SJC
100
AcDbLine
 10
3682.996230855548
 20
690.2147455507278
 30
0.0
 11
3732.996230855548
 21
715.2147455507278
 31
0.0
  0
LINE
  5
2016
330
1591
100
AcDbEntity
  8
SJC
100
AcDbLine
 10
3682.996230855548
 20
690.2147455507278
 30
0.0
 11
3662.996230855548
 21
715.2147455507278
 31
0.0
  0
LINE
  5
2017
330
1591
100
AcDbEntity
  8
SJC
100
AcDbLine
 10
3682.996230855548
 20
1025.214745550728
 30
0.0
 11
3682.996230855548
 21
825.2147455507278
 31
0.0
  0
LINE
  5
2018
330
1591
100
AcDbEntity
  8
SJC
100
AcDbLine
 10
3732.996230855548
 20
715.2147455507278
 30
0.0
 11
3682.996230855548
 21
740.2147455507278
 31
0.0
  0
LINE
  5
2019
330
1591
100
AcDbEntity
  8
SJC
100
AcDbLine
 10
3662.996230855548
 20
715.2147455507278
 30
0.0
 11
3682.996230855548
 21
740.2147455507278
 31
0.0
  0
LINE
  5
201A
330
1591
100
AcDbEntity
  8
SJC
100
AcDbLine
 10
3732.996230855548
 20
935.2147455507278
 30
0.0
 11
3682.996230855548
 21
910.2147455507278
 31
0.0
  0
LINE
  5
201B
330
1591
100
AcDbEntity
  8
SJC
100
AcDbLine
 10
3682.996230855548
 20
960.2147455507278
 30
0.0
 11
3732.996230855548
 21
935.2147455507278
 31
0.0
  0
LINE
  5
201C
330
1591
100
AcDbEntity
  8
SJC
100
AcDbLine
 10
3662.996230855548
 20
935.2147455507278
 30
0.0
 11
3682.996230855548
 21
910.2147455507278
 31
0.0
  0
LINE
  5
201D
330
1591
100
AcDbEntity
  8
SJC
100
AcDbLine
 10
3682.996230855548
 20
960.2147455507278
 30
0.0
 11
3662.996230855548
 21
935.2147455507278
 31
0.0
  0
ARC
  5
201E
330
1591
100
AcDbEntity
  8
SJC
100
AcDbCircle
 10
3882.996230855548
 20
825.2147455507278
 30
0.0
 40
50.0
100
AcDbArc
 50
90.0
 51
270.0
  0
LINE
  5
201F
330
1591
100
AcDbEntity
  8
CENTER
100
AcDbLine
 10
4157.996230855547
 20
712.7147455507278
 30
0.0
 11
4157.996230855547
 21
937.7147455507278
 31
0.0
  0
ARC
  5
2020
330
1591
100
AcDbEntity
  8
SJC
100
AcDbCircle
 10
4432.996230855548
 20
825.2147455507278
 30
0.0
 40
50.0
100
AcDbArc
 50
270.0
 51
90.0
  0
ARC
  5
2021
330
1591
100
AcDbEntity
  8
SJC
100
AcDbCircle
 10
890.6483845228121
 20
1945.04770038347
 30
0.0
 40
227.275692805761
100
AcDbArc
 50
182.2688816327166
 51
350.4065715615452
  0
ARC
  5
2022
330
1591
100
AcDbEntity
  8
SJC
100
AcDbCircle
 10
890.6550178224678
 20
1945.053195701422
 30
0.0
 40
243.263640703046
100
AcDbArc
 50
182.080767497077
 51
349.643948221391
  0
ARC
  5
2023
330
1591
100
AcDbEntity
  8
SJC
100
AcDbCircle
 10
890.4112998210111
 20
1922.204633064972
 30
0.0
 40
243.263640703046
100
AcDbArc
 50
9.126835816467744
 51
176.6969688940492
  0
ARC
  5
2024
330
1591
100
AcDbEntity
  8
SJC
100
AcDbCircle
 10
890.4222390903724
 20
1922.09173937088
 30
0.0
 40
227.300362248046
100
AcDbArc
 50
8.368957520487274
 51
176.4793003523108
  0
LINE
  5
2025
330
1591
100
AcDbEntity
  8
CENTER
100
AcDbLine
 10
610.7957075898229
 20
1936.612780529676
 30
0.0
 11
2144.851412750892
 21
1920.249519674575
 31
0.0
  0
LINE
  5
2026
330
1591
100
AcDbEntity
  8
CENTER
100
AcDbLine
 10
903.9117413988842
 20
2202.990510842941
 30
0.0
 11
898.1629703859907
 21
1664.043228385946
 31
0.0
  0
ARC
  5
2027
330
1591
100
AcDbEntity
  8
SJC
100
AcDbCircle
 10
647.5517759952745
 20
1936.220715800016
 30
0.0
 40
40.0
100
AcDbArc
 50
297.6312550012278
 51
359.3888681955614
  0
ARC
  5
2028
330
1591
100
AcDbEntity
  8
SJC
100
AcDbCircle
 10
647.5517759952745
 20
1936.220715800016
 30
0.0
 40
40.0
100
AcDbArc
 50
359.3888681955614
 51
61.14648138989257
  0
LINE
  5
2029
330
1591
100
AcDbEntity
  8
SJC
100
AcDbLine
 10
1215.905495564544
 20
1954.25572266769
 30
0.0
 11
1141.753364596237
 21
1955.046678731354
 31
0.0
  0
LINE
  5
202A
330
1591
100
AcDbEntity
  8
SJC
100
AcDbLine
 10
1141.753364596237
 20
1955.046678731354
 30
0.0
 11
1215.905495564544
 21
1954.255722667689
 31
0.0
  0
LINE
  5
202B
330
1591
100
AcDbEntity
  8
SJC
100
AcDbLine
 10
1141.753364596237
 20
1955.046678731354
 30
0.0
 11
1215.905495564544
 21
1954.255722667689
 31
0.0
  0
LINE
  5
202C
330
1591
100
AcDbEntity
  8
SJC
100
AcDbLine
 10
1145.681347845187
 20
1939.003870047034
 30
0.0
 11
2091.00472605908
 21
1928.920420679386
 31
0.0
  0
LINE
  5
202D
330
1591
100
AcDbEntity
  8
SJC
100
AcDbLine
 10
1141.271604629724
 20
1906.877676165961
 30
0.0
 11
2090.693623051015
 21
1896.75050796944
 31
0.0
  0
LINE
  5
202E
330
1591
100
AcDbEntity
  8
SJC
100
AcDbLine
 10
1141.271604629724
 20
1906.877676165961
 30
0.0
 11
2090.693623051015
 21
1896.75050796944
 31
0.0
  0
LINE
  5
202F
330
1591
100
AcDbEntity
  8
SJC
100
AcDbLine
 10
2090.693623051015
 20
1896.75050796944
 30
0.0
 11
1141.271604629724
 21
1906.877676165961
 31
0.0
  0
LINE
  5
2030
330
1591
100
AcDbEntity
  8
SJC
100
AcDbLine
 10
1242.995873432614
 20
1935.794323916851
 30
0.0
 11
1954.463475402084
 21
1928.205336162483
 31
0.0
  0
LINE
  5
2031
330
1591
100
AcDbEntity
  8
SJC
100
AcDbLine
 10
1145.540901795591
 20
1922.833047192522
 30
0.0
 11
1213.372196860595
 21
1922.109513378499
 31
0.0
  0
ARC
  5
2032
330
1591
100
AcDbEntity
  8
SJC
100
AcDbCircle
 10
1252.096559311649
 20
1882.348220764239
 30
0.0
 40
54.21538919595021
100
AcDbArc
 50
99.66351535730371
 51
153.8822317130327
  0
ARC
  5
2033
330
1591
100
AcDbEntity
  8
SJC
100
AcDbCircle
 10
1570.389622971041
 20
1016.094611798477
 30
0.0
 40
967.6142134336553
100
AcDbArc
 50
113.067165843005
 51
117.5627105838684
  0
ARC
  5
2034
330
1591
100
AcDbEntity
  8
SJC
100
AcDbCircle
 10
1141.122279791088
 20
1892.878472542456
 30
0.0
 40
29.99999999999682
100
AcDbArc
 50
89.38886819554237
 51
151.5484836164189
  0
LINE
  5
2035
330
1591
100
AcDbEntity
  8
SJC
100
AcDbLine
 10
1140.747662884101
 20
1906.88326487791
 30
0.0
 11
1140.747662884101
 21
1906.88326487791
 31
0.0
  0
ARC
  5
2036
330
1591
100
AcDbEntity
  8
SJC
100
AcDbCircle
 10
1141.122279791088
 20
1892.87847254246
 30
0.0
 40
13.99999999999363
100
AcDbArc
 50
89.38886819554237
 51
142.9020138917279
  0
LINE
  5
2037
330
1591
100
AcDbEntity
  8
SJC
100
AcDbLine
 10
1212.677598156506
 20
1906.116012234998
 30
0.0
 11
1212.677598156506
 21
1906.116012234998
 31
0.0
  0
LINE
  5
2038
330
1591
100
AcDbEntity
  8
SJC
100
AcDbLine
 10
1145.540901795591
 20
1922.833047192522
 30
0.0
 11
1141.44226158819
 21
1922.876766021402
 31
0.0
  0
LINE
  5
2039
330
1591
100
AcDbEntity
  8
SJC
100
AcDbLine
 10
1215.219538850739
 20
1922.089808397271
 30
0.0
 11
1213.372196860595
 21
1922.109513378499
 31
0.0
  0
ARC
  5
203A
330
1591
100
AcDbEntity
  8
SJC
100
AcDbCircle
 10
1589.774955981855
 20
2836.473587261722
 30
0.0
 40
967.6142134336553
100
AcDbArc
 50
241.2150258072768
 51
245.7105705481386
  0
ARC
  5
203B
330
1591
100
AcDbEntity
  8
SJC
100
AcDbCircle
 10
1143.717356220721
 20
1947.025274389188
 30
0.0
 40
8.258340676034231
100
AcDbArc
 50
255.0198754344607
 51
103.7578609566723
  0
ARC
  5
203C
330
1591
100
AcDbEntity
  8
SJC
100
AcDbCircle
 10
1141.902689434902
 20
1969.045882354865
 30
0.0
 40
30.00000000000388
100
AcDbArc
 50
207.5404711770126
 51
269.3888681955424
  0
LINE
  5
203D
330
1591
100
AcDbEntity
  8
SJC
100
AcDbLine
 10
1133.875779866303
 20
1996.418765457655
 30
0.0
 11
1133.875779866303
 21
1996.418765457655
 31
0.0
  0
ARC
  5
203E
330
1591
100
AcDbEntity
  8
SJC
100
AcDbCircle
 10
1141.902689434902
 20
1969.045882354865
 30
0.0
 40
14.00000000000308
100
AcDbArc
 50
216.1298548845637
 51
269.3888681955424
  0
LINE
  5
203F
330
1591
100
AcDbEntity
  8
SJC
100
AcDbLine
 10
1145.681347845187
 20
1939.003870047034
 30
0.0
 11
1141.582707637786
 21
1939.047588875905
 31
0.0
  0
ARC
  5
2040
330
1591
100
AcDbEntity
  8
SJC
100
AcDbCircle
 10
2060.695329572067
 20
1897.070489766544
 30
0.0
 40
30.0
100
AcDbArc
 50
359.3888681955574
 51
31.61982083108642
  0
LINE
  5
2041
330
1591
100
AcDbEntity
  8
SJC
100
AcDbLine
 10
2090.693623051015
 20
1896.75050796944
 30
0.0
 11
2090.693623051015
 21
1896.75050796944
 31
0.0
  0
LINE
  5
2042
330
1591
100
AcDbEntity
  8
SJC
100
AcDbLine
 10
1979.689862089373
 20
1913.935458282698
 30
0.0
 11
2086.241698056441
 21
1912.798905365715
 31
0.0
  0
ARC
  5
2043
330
1591
100
AcDbEntity
  8
SJC
100
AcDbCircle
 10
1954.143493604981
 20
1898.207042683535
 30
0.0
 40
30.0
100
AcDbArc
 50
31.61982083108642
 51
89.38886819554237
  0
LINE
  5
2044
330
1591
100
AcDbEntity
  8
SJC
100
AcDbLine
 10
2091.175383017529
 20
1944.919510534826
 30
0.0
 11
2091.00472605908
 21
1928.920420679386
 31
0.0
  0
LINE
  5
2045
330
1591
100
AcDbEntity
  8
SJC
100
AcDbLine
 10
2091.175383017529
 20
1944.919510534826
 30
0.0
 11
2091.175383017529
 21
1944.919510534826
 31
0.0
  0
ARC
  5
2046
330
1591
100
AcDbEntity
  8
SJC
100
AcDbCircle
 10
2411.748742870077
 20
1944.829106163857
 30
0.0
 40
243.263640703046
100
AcDbArc
 50
189.1268358164677
 51
356.6969688940492
  0
ARC
  5
2047
330
1591
100
AcDbEntity
  8
SJC
100
AcDbCircle
 10
2411.737803600714
 20
1944.941999857949
 30
0.0
 40
227.300362248046
100
AcDbArc
 50
188.3689575204872
 51
356.4793003523109
  0
LINE
  5
2048
330
1591
100
AcDbEntity
  8
CENTER
100
AcDbLine
 10
2398.248301292204
 20
1664.043228385888
 30
0.0
 11
2403.997072305096
 21
2202.990510842884
 31
0.0
  0
LINE
  5
2049
330
1591
100
AcDbEntity
  8
SJC
100
AcDbLine
 10
1211.466419640073
 20
1970.283231259389
 30
0.0
 11
2160.888438061363
 21
1960.156063062868
 31
0.0
  0
LINE
  5
204A
330
1591
100
AcDbEntity
  8
SJC
100
AcDbLine
 10
2160.888438061363
 20
1960.156063062868
 30
0.0
 11
1211.466419640073
 21
1970.283231259389
 31
0.0
  0
LINE
  5
204B
330
1591
100
AcDbEntity
  8
SJC
100
AcDbLine
 10
2160.888438061363
 20
1960.156063062868
 30
0.0
 11
1211.466419640073
 21
1970.283231259389
 31
0.0
  0
LINE
  5
204C
330
1591
100
AcDbEntity
  8
SJC
100
AcDbLine
 10
2059.164169258474
 20
1931.239415311979
 30
0.0
 11
1347.696567289003
 21
1938.828403066346
 31
0.0
  0
LINE
  5
204D
330
1591
100
AcDbEntity
  8
SJC
100
AcDbLine
 10
2156.478694845901
 20
1928.029869181794
 30
0.0
 11
1211.155316632008
 21
1938.113318549444
 31
0.0
  0
LINE
  5
204E
330
1591
100
AcDbEntity
  8
SJC
100
AcDbLine
 10
2160.406678094851
 20
1911.987060497475
 30
0.0
 11
2086.254547126544
 21
1912.778016561139
 31
0.0
  0
LINE
  5
204F
330
1591
100
AcDbEntity
  8
SJC
100
AcDbLine
 10
2160.406678094851
 20
1911.987060497475
 30
0.0
 11
2086.254547126544
 21
1912.778016561139
 31
0.0
  0
LINE
  5
2050
330
1591
100
AcDbEntity
  8
SJC
100
AcDbLine
 10
2086.254547126544
 20
1912.778016561139
 30
0.0
 11
2160.406678094851
 21
1911.987060497475
 31
0.0
  0
LINE
  5
2051
330
1591
100
AcDbEntity
  8
CENTER
100
AcDbLine
 10
2691.364335101265
 20
1930.420958699153
 30
0.0
 11
1157.308629940196
 21
1946.784219554254
 31
0.0
  0
ARC
  5
2052
330
1591
100
AcDbEntity
  8
SJC
100
AcDbCircle
 10
2411.50502486862
 20
1921.980543527407
 30
0.0
 40
243.263640703046
100
AcDbArc
 50
2.080767497077042
 51
169.643948221391
  0
ARC
  5
2053
330
1591
100
AcDbEntity
  8
SJC
100
AcDbCircle
 10
2411.511658168276
 20
1921.986038845359
 30
0.0
 40
227.275692805761
100
AcDbArc
 50
2.268881632716603
 51
170.4065715615452
  0
ARC
  5
2054
330
1591
100
AcDbEntity
  8
SJC
100
AcDbCircle
 10
2654.608266695814
 20
1930.813023428813
 30
0.0
 40
40.0
100
AcDbArc
 50
179.3888681955613
 51
241.1464813898926
  0
ARC
  5
2055
330
1591
100
AcDbEntity
  8
SJC
100
AcDbCircle
 10
2654.608266695814
 20
1930.813023428813
 30
0.0
 40
40.0
100
AcDbArc
 50
117.6312550012278
 51
179.3888681955613
  0
ARC
  5
2056
330
1591
100
AcDbEntity
  8
SJC
100
AcDbCircle
 10
2050.063483379438
 20
1984.685518464591
 30
0.0
 40
54.21538919595021
100
AcDbArc
 50
279.6635153573037
 51
333.8822317130327
  0
LINE
  5
2057
330
1591
100
AcDbEntity
  8
SJC
100
AcDbLine
 10
2156.619140895495
 20
1944.200692036307
 30
0.0
 11
2088.787845830493
 21
1944.92422585033
 31
0.0
  0
ARC
  5
2058
330
1591
100
AcDbEntity
  8
SJC
100
AcDbCircle
 10
1712.38508670923
 20
1030.560151967107
 30
0.0
 40
967.6142134336553
100
AcDbArc
 50
61.21502580727682
 51
65.71057054813866
  0
ARC
  5
2059
330
1591
100
AcDbEntity
  8
SJC
100
AcDbCircle
 10
2160.257353256184
 20
1897.987856873964
 30
0.0
 40
30.00000000000388
100
AcDbArc
 50
27.54047117701263
 51
89.38886819554237
  0
ARC
  5
205A
330
1591
100
AcDbEntity
  8
SJC
100
AcDbCircle
 10
2161.037762899999
 20
1974.155266686373
 30
0.0
 40
29.99999999999682
100
AcDbArc
 50
269.3888681955424
 51
331.5484836164189
  0
ARC
  5
205B
330
1591
100
AcDbEntity
  8
SJC
100
AcDbCircle
 10
2160.257353256184
 20
1897.987856873965
 30
0.0
 40
14.00000000000308
100
AcDbArc
 50
36.12985488456375
 51
89.38886819554237
  0
ARC
  5
205C
330
1591
100
AcDbEntity
  8
SJC
100
AcDbCircle
 10
2161.037762899999
 20
1974.155266686369
 30
0.0
 40
13.99999999999363
100
AcDbArc
 50
269.3888681955424
 51
322.902013891728
  0
LINE
  5
205D
330
1591
100
AcDbEntity
  8
SJC
100
AcDbLine
 10
2156.619140895495
 20
1944.200692036307
 30
0.0
 11
2160.717781102896
 21
1944.156973207428
 31
0.0
  0
LINE
  5
205E
330
1591
100
AcDbEntity
  8
SJC
100
AcDbLine
 10
2161.412379806987
 20
1960.150474350919
 30
0.0
 11
2161.412379806987
 21
1960.150474350919
 31
0.0
  0
ARC
  5
205F
330
1591
100
AcDbEntity
  8
SJC
100
AcDbCircle
 10
1731.770419720047
 20
2850.939127430351
 30
0.0
 40
967.6142134336553
100
AcDbArc
 50
293.0671658430051
 51
297.5627105838685
  0
LINE
  5
2060
330
1591
100
AcDbEntity
  8
SJC
100
AcDbLine
 10
2156.478694845901
 20
1928.029869181794
 30
0.0
 11
2160.577335053302
 21
1927.986150352925
 31
0.0
  0
ARC
  5
2061
330
1591
100
AcDbEntity
  8
SJC
100
AcDbCircle
 10
2158.442686470365
 20
1920.008464839641
 30
0.0
 40
8.258340676034231
100
AcDbArc
 50
75.01987543446064
 51
283.7578609566723
  0
LINE
  5
2062
330
1591
100
AcDbEntity
  8
SJC
100
AcDbLine
 10
2168.284262824785
 20
1870.614973771173
 30
0.0
 11
2168.284262824785
 21
1870.614973771173
 31
0.0
  0
LINE
  5
2063
330
1591
100
AcDbEntity
  8
SJC
100
AcDbLine
 10
2086.940503840349
 20
1944.943930831558
 30
0.0
 11
2088.787845830493
 21
1944.92422585033
 31
0.0
  0
LINE
  5
2064
330
1591
100
AcDbEntity
  8
SJC
100
AcDbLine
 10
2089.48244453458
 20
1960.91772699383
 30
0.0
 11
2089.48244453458
 21
1960.91772699383
 31
0.0
  0
LINE
  5
2065
330
1591
100
AcDbEntity
  8
SJC
100
AcDbLine
 10
1322.470180601715
 20
1953.098280946131
 30
0.0
 11
1215.918344634647
 21
1954.234833863115
 31
0.0
  0
ARC
  5
2066
330
1591
100
AcDbEntity
  8
SJC
100
AcDbCircle
 10
1348.016549086105
 20
1968.826696545295
 30
0.0
 40
30.0
100
AcDbArc
 50
211.6198208310864
 51
269.3888681955424
  0
LINE
  5
2067
330
1591
100
AcDbEntity
  8
SJC
100
AcDbLine
 10
1211.466419640073
 20
1970.283231259389
 30
0.0
 11
1211.466419640073
 21
1970.283231259389
 31
0.0
  0
ARC
  5
2068
330
1591
100
AcDbEntity
  8
SJC
100
AcDbCircle
 10
1241.464713119019
 20
1969.963249462285
 30
0.0
 40
30.0
100
AcDbArc
 50
179.3888681955574
 51
211.6198208310864
  0
LINE
  5
2069
330
1591
100
AcDbEntity
  8
SJC
100
AcDbLine
 10
1210.984659673559
 20
1922.114228694003
 30
0.0
 11
1210.984659673559
 21
1922.114228694003
 31
0.0
  0
LINE
  5
206A
330
1591
100
AcDbEntity
  8
SJC
100
AcDbLine
 10
1210.984659673559
 20
1922.114228694003
 30
0.0
 11
1211.155316632008
 21
1938.113318549444
 31
0.0
  0
LINE
  5
206B
330
1591
100
AcDbEntity
  8
SJC
100
AcDbLine
 10
2086.962601219355
 20
1944.964446874007
 30
0.0
 11
2091.175383017529
 21
1944.919510534826
 31
0.0
  0
LINE
  5
206C
330
1591
100
AcDbEntity
  8
SJC
100
AcDbLine
 10
2086.962601219355
 20
1944.964446874007
 30
0.0
 11
2091.175383017529
 21
1944.919510534826
 31
0.0
  0
LINE
  5
206D
330
1591
100
AcDbEntity
  8
SJC2
100
AcDbLine
 10
1560.789118542261
 20
1902.504114584158
 30
0.0
 11
1740.777328921241
 21
1900.443987266412
 31
0.0
  0
DIMENSION
  5
206E
330
1591
100
AcDbEntity
  8
SUNPOU
100
AcDbDimension
  2
*D24
 10
2403.997072305096
 20
2520.576806710122
 30
0.0
 11
1653.95440685199
 21
2574.576806710122
 31
0.0
 70
    32
  1
　　　　　<> （可能範囲140～190）
 71
     5
 42
150.0085330906211
  3
SJC
100
AcDbAlignedDimension
 13
903.9117413988842
 23
2202.990510842941
 33
0.0
 14
2403.997072305096
 24
2202.990510842884
 34
0.0
100
AcDbRotatedDimension
1001
ACAD
1000
DSTYLE
1002
{
1070
    40
1040
20.0
1070
    41
1040
2.0
1070
    42
1040
1.0
1070
    43
1040
6.0
1070
    44
1040
1.0
1070
    73
1070
     0
1070
    74
1070
     0
1070
    77
1070
     1
1070
    78
1070
     8
1070
   140
1040
3.0
1070
   144
1040
0.1
1070
   147
1040
1.199999999999999
1070
   172
1070
     1
1070
   176
1070
   256
1070
   177
1070
   256
1070
   178
1070
   256
1070
   271
1070
     0
1070
   272
1070
     0
1070
   275
1070
     1
1070
   340
1005
15EE
1002
}
  0
DIMENSION
  5
206F
330
1591
100
AcDbEntity
  8
SUNPOU
100
AcDbDimension
  2
*D25
 10
4654.217860012869
 20
2042.527071026214
 30
0.0
 11
3943.607045434207
 21
2096.527071026214
 31
0.0
 70
    32
  1
140
 71
     5
 42
142.1221629157328
  3
SJC
100
AcDbAlignedDimension
 13
3232.996230855543
 23
1579.069876142118
 33
0.0
 14
4654.217860012869
 24
1809.417431233257
 34
0.0
100
AcDbRotatedDimension
1001
ACAD
1000
DSTYLE
1002
{
1070
    40
1040
20.0
1070
    41
1040
2.0
1070
    42
1040
1.0
1070
    43
1040
6.0
1070
    44
1040
1.0
1070
    73
1070
     0
1070
    74
1070
     0
1070
    77
1070
     1
1070
    78
1070
     8
1070
   140
1040
3.0
1070
   144
1040
0.1
1070
   147
1040
1.199999999999999
1070
   172
1070
     1
1070
   176
1070
   256
1070
   177
1070
   256
1070
   178
1070
   256
1070
   271
1070
     0
1070
   272
1070
     0
1070
   275
1070
     1
1070
   340
1005
15EE
1002
}
  0
DIMENSION
  5
2070
330
1591
100
AcDbEntity
  8
SUNPOU
100
AcDbDimension
  2
*D26
 10
3648.777237137867
 20
1741.350882424435
 30
0.0
 11
3730.195532228775
 21
1899.136709883491
 31
0.0
 70
    33
  1
t<>
 71
     5
 42
1.600000000000273
  3
SJC
100
AcDbAlignedDimension
 13
3637.463528638882
 23
1730.037173925447
 33
0.0
 14
3648.777237137869
 24
1741.350882424433
 34
0.0
1001
ACAD
1000
DSTYLE
1002
{
1070
    40
1040
20.0
1070
    41
1040
2.0
1070
    42
1040
1.0
1070
    43
1040
6.0
1070
    44
1040
1.0
1070
    73
1070
     0
1070
    74
1070
     0
1070
    77
1070
     1
1070
    78
1070
     8
1070
   140
1040
3.0
1070
   144
1040
0.1
1070
   147
1040
1.199999999999999
1070
   172
1070
     1
1070
   176
1070
   256
1070
   177
1070
   256
1070
   178
1070
   256
1070
   271
1070
     1
1070
   272
1070
     1
1070
   275
1070
     1
1070
   340
1005
15EE
1002
}
  0
ARC
  5
2071
330
1591
100
AcDbEntity
  8
SJC
100
AcDbCircle
 10
3475.984861920789
 20
1590.489241599998
 30
0.0
 40
227.275692805761
100
AcDbArc
 50
182.8800134371559
 51
339.1441229966872
  0
ARC
  5
2072
330
1591
100
AcDbEntity
  8
SJC
100
AcDbCircle
 10
3475.991436229744
 20
1590.494807356526
 30
0.0
 40
243.263640703046
100
AcDbArc
 50
182.691899301513
 51
339.2646485754806
  0
ARC
  5
2073
330
1591
100
AcDbEntity
  8
SJC
100
AcDbCircle
 10
3475.991436229744
 20
1567.64494492771
 30
0.0
 40
243.263640703046
100
AcDbArc
 50
20.73535142451935
 51
177.3081006984869
  0
ARC
  5
2074
330
1591
100
AcDbEntity
  8
SJC
100
AcDbCircle
 10
3476.003579007722
 20
1567.532174334365
 30
0.0
 40
227.300362248046
100
AcDbArc
 50
20.8854314093942
 51
177.0904321567479
  0
LINE
  5
2075
330
1591
100
AcDbEntity
  8
CENTER
100
AcDbLine
 10
3196.238071497685
 20
1579.069876142116
 30
0.0
 11
4730.381044901079
 21
1579.069876142116
 31
0.0
  0
LINE
  5
2076
330
1591
100
AcDbEntity
  8
CENTER
100
AcDbLine
 10
3486.496230855538
 20
1848.558846990618
 30
0.0
 11
3486.496230855538
 21
1309.580905293619
 31
0.0
  0
ARC
  5
2077
330
1591
100
AcDbEntity
  8
SJC
100
AcDbCircle
 10
3232.996230855536
 20
1579.069876142116
 30
0.0
 40
40.0
100
AcDbArc
 50
298.2423868056926
 51
0.0
  0
ARC
  5
2078
330
1591
100
AcDbEntity
  8
SJC
100
AcDbCircle
 10
3232.996230855536
 20
1579.069876142116
 30
0.0
 40
40.0
100
AcDbArc
 50
0.0
 51
61.75761319430733
  0
LINE
  5
2079
330
1591
100
AcDbEntity
  8
SJC
100
AcDbLine
 10
4654.217860012869
 20
1809.417431233255
 30
0.0
 11
3719.166505897285
 21
1644.542649154691
 31
0.0
  0
LINE
  5
207A
330
1591
100
AcDbEntity
  8
SJC
100
AcDbLine
 10
3719.166505897285
 20
1644.542649154691
 30
0.0
 11
4654.217860012869
 21
1809.417431233255
 31
0.0
  0
LINE
  5
207B
330
1591
100
AcDbEntity
  8
SJC
100
AcDbLine
 10
3719.166505897285
 20
1644.542649154691
 30
0.0
 11
4654.217860012869
 21
1809.417431233255
 31
0.0
  0
LINE
  5
207C
330
1591
100
AcDbEntity
  8
SJC
100
AcDbLine
 10
3725.981479011245
 20
1629.497486997316
 30
0.0
 11
4656.99623085555
 21
1793.660507185059
 31
0.0
  0
LINE
  5
207D
330
1591
100
AcDbEntity
  8
SJC
100
AcDbLine
 10
3719.166505897285
 20
1513.597103129541
 30
0.0
 11
4654.217860012869
 21
1348.722321050982
 31
0.0
  0
LINE
  5
207E
330
1591
100
AcDbEntity
  8
SJC
100
AcDbLine
 10
3719.166505897285
 20
1513.597103129541
 30
0.0
 11
4654.217860012869
 21
1348.722321050982
 31
0.0
  0
LINE
  5
207F
330
1591
100
AcDbEntity
  8
SJC
100
AcDbLine
 10
4654.217860012869
 20
1348.722321050982
 30
0.0
 11
3719.166505897285
 21
1513.597103129541
 31
0.0
  0
LINE
  5
2080
330
1591
100
AcDbEntity
  8
HASEN
100
AcDbLine
 10
3794.605444610536
 20
1516.542008628557
 30
0.0
 11
4547.504573823974
 21
1383.785578396323
 31
0.0
  0
LINE
  5
2081
330
1591
100
AcDbEntity
  8
SJC
100
AcDbLine
 10
3824.245360234201
 20
1525.531664364584
 30
0.0
 11
4524.944029238233
 21
1401.97958367266
 31
0.0
  0
LINE
  5
2082
330
1591
100
AcDbEntity
  8
SJC
100
AcDbLine
 10
3725.981479011245
 20
1528.642265286921
 30
0.0
 11
3792.786064402483
 21
1516.862814447404
 31
0.0
  0
ARC
  5
2083
330
1591
100
AcDbEntity
  8
SJC
100
AcDbCircle
 10
3824.505240558103
 20
1471.316898037635
 30
0.0
 40
54.21538919595021
100
AcDbArc
 50
90.27464716173232
 51
144.4933635175374
  0
ARC
  5
2084
330
1591
100
AcDbEntity
  8
SJC
100
AcDbCircle
 10
3997.218750579015
 20
564.7432204602681
 30
0.0
 40
967.6142134336553
100
AcDbArc
 50
103.6782976473854
 51
108.173842388242
  0
ARC
  5
2085
330
1591
100
AcDbEntity
  8
SJC
100
AcDbCircle
 10
3716.735431409964
 20
1499.809794587372
 30
0.0
 40
30.0
100
AcDbArc
 50
80.00000000004778
 51
161.0039229831122
  0
LINE
  5
2086
330
1591
100
AcDbEntity
  8
SJC
100
AcDbLine
 10
3718.650494651267
 20
1513.688089834559
 30
0.0
 11
3718.650494651267
 21
1513.688089834559
 31
0.0
  0
ARC
  5
2087
330
1591
100
AcDbEntity
  8
SJC
100
AcDbCircle
 10
3716.735431409964
 20
1499.809794587372
 30
0.0
 40
14.0
100
AcDbArc
 50
80.00000000004778
 51
161.0039229831122
  0
LINE
  5
2088
330
1591
100
AcDbEntity
  8
SJC
100
AcDbLine
 10
3789.491682313785
 20
1501.196877104226
 30
0.0
 11
3789.491682313785
 21
1501.196877104226
 31
0.0
  0
LINE
  5
2089
330
1591
100
AcDbEntity
  8
SJC
100
AcDbLine
 10
3725.981479011245
 20
1528.642265286921
 30
0.0
 11
3721.944876739965
 21
1529.354027177737
 31
0.0
  0
LINE
  5
208A
330
1591
100
AcDbEntity
  8
SJC
100
AcDbLine
 10
3796.822666673763
 20
1516.151052556588
 30
0.0
 11
3792.786064402483
 21
1516.862814447404
 31
0.0
  0
ARC
  5
208B
330
1591
100
AcDbEntity
  8
SJC
100
AcDbCircle
 10
3997.218750579015
 20
2593.396531823969
 30
0.0
 40
967.6142134336553
100
AcDbArc
 50
251.826157611758
 51
256.3217023526146
  0
ARC
  5
208C
330
1591
100
AcDbEntity
  8
SJC
100
AcDbCircle
 10
3722.573992454274
 20
1637.020068076003
 30
0.0
 40
8.258340676034231
100
AcDbArc
 50
265.6310072388412
 51
114.3689927611393
  0
ARC
  5
208D
330
1591
100
AcDbEntity
  8
SJC
100
AcDbCircle
 10
3716.735431409964
 20
1658.329957696865
 30
0.0
 40
30.0
100
AcDbArc
 50
198.9960770168877
 51
279.9999999999522
  0
LINE
  5
208E
330
1591
100
AcDbEntity
  8
SJC
100
AcDbLine
 10
3718.650494651267
 20
1644.451662449678
 30
0.0
 11
3718.650494651267
 21
1644.451662449678
 31
0.0
  0
ARC
  5
208F
330
1591
100
AcDbEntity
  8
SJC
100
AcDbCircle
 10
3716.735431409964
 20
1658.329957696865
 30
0.0
 40
14.0
100
AcDbArc
 50
198.9960770168877
 51
279.9999999999522
  0
LINE
  5
2090
330
1591
100
AcDbEntity
  8
SJC
100
AcDbLine
 10
3725.981479011245
 20
1629.497486997316
 30
0.0
 11
3721.944876739965
 21
1628.785725106495
 31
0.0
  0
LINE
  5
2091
330
1591
100
AcDbEntity
  8
CENTER
100
AcDbLine
 10
4193.060928869019
 20
1468.787380957414
 30
0.0
 11
4184.914582311159
 21
1422.587153827503
 31
0.0
  0
LINE
  5
2092
330
1591
100
AcDbEntity
  8
CENTER
100
AcDbLine
 10
4193.060928869019
 20
1689.352371326817
 30
0.0
 11
4184.914582311159
 21
1735.552598456734
 31
0.0
  0
ARC
  5
2093
330
1591
100
AcDbEntity
  8
SJC
100
AcDbCircle
 10
4624.673627422509
 20
1353.931766380988
 30
0.0
 40
30.0
100
AcDbArc
 50
349.99999999999
 51
22.23095263552405
  0
LINE
  5
2094
330
1591
100
AcDbEntity
  8
SJC
100
AcDbLine
 10
4654.217860012869
 20
1348.722321050982
 30
0.0
 11
4654.217860012869
 21
1348.722321050982
 31
0.0
  0
LINE
  5
2095
330
1591
100
AcDbEntity
  8
SJC
100
AcDbLine
 10
4547.504573823974
 20
1383.785578396323
 30
0.0
 11
4652.443617338232
 21
1365.281993695016
 31
0.0
  0
ARC
  5
2096
330
1591
100
AcDbEntity
  8
SJC
100
AcDbCircle
 10
4519.734583908231
 20
1372.435351082295
 30
0.0
 40
30.0
100
AcDbArc
 50
22.23095263552405
 51
80.00000000004778
  0
LINE
  5
2097
330
1591
100
AcDbEntity
  8
SJC
100
AcDbLine
 10
4654.217860012869
 20
1809.417431233255
 30
0.0
 11
4656.99623085555
 21
1793.660507185059
 31
0.0
  0
LINE
  5
2098
330
1591
100
AcDbEntity
  8
SJC
100
AcDbLine
 10
4654.217860012869
 20
1809.417431233255
 30
0.0
 11
4654.217860012869
 21
1809.417431233255
 31
0.0
  0
LINE
  5
2099
330
1591
100
AcDbEntity
  8
SJC
100
AcDbLine
 10
1842.221335752172
 20
775.2147455507278
 30
0.0
 11
1720.554483487656
 21
775.2147455507278
 31
0.0
  0
LINE
  5
209A
330
1591
100
AcDbEntity
  8
SJC
100
AcDbLine
 10
1842.221335752172
 20
875.2147455507278
 30
0.0
 11
1720.554483487656
 21
875.2147455507278
 31
0.0
  0
LINE
  5
209B
330
1591
100
AcDbEntity
  8
SJC
100
AcDbLine
 10
802.0741494945614
 20
1025.214745550728
 30
0.0
 11
1842.221335752172
 21
1025.214745550728
 31
0.0
  0
LINE
  5
209C
330
1591
100
AcDbEntity
  8
SJC
100
AcDbLine
 10
802.0741494945614
 20
625.2147455507278
 30
0.0
 11
1842.221335752172
 21
625.2147455507278
 31
0.0
  0
ARC
  5
209D
330
1591
100
AcDbEntity
  8
SJC
100
AcDbCircle
 10
1449.221335752179
 20
825.2147455507278
 30
0.0
 40
50.0
100
AcDbArc
 50
90.0
 51
270.0
  0
LINE
  5
209E
330
1591
100
AcDbEntity
  8
SJC
100
AcDbLine
 10
1570.888188016695
 20
775.2147455507278
 30
0.0
 11
1292.221335752172
 21
775.2147455507278
 31
0.0
  0
LINE
  5
209F
330
1591
100
AcDbEntity
  8
SJC
100
AcDbLine
 10
1570.888188016695
 20
875.2147455507278
 30
0.0
 11
1292.221335752172
 21
875.2147455507278
 31
0.0
  0
CIRCLE
  5
20A0
330
1591
100
AcDbEntity
  8
SJC
100
AcDbCircle
 10
1645.721335752176
 20
825.2147455507278
 30
0.0
 40
90.0
  0
ARC
  5
20A1
330
1591
100
AcDbEntity
  8
SJC
100
AcDbCircle
 10
1292.221335752172
 20
825.2147455507278
 30
0.0
 40
50.0
100
AcDbArc
 50
90.0
 51
270.0
  0
LINE
  5
20A2
330
1591
100
AcDbEntity
  8
SJC
100
AcDbLine
 10
1092.221335752172
 20
960.2147455507278
 30
0.0
 11
1072.221335752172
 21
935.2147455507278
 31
0.0
  0
LINE
  5
20A3
330
1591
100
AcDbEntity
  8
SJC
100
AcDbLine
 10
1072.221335752172
 20
935.2147455507278
 30
0.0
 11
1092.221335752172
 21
910.2147455507278
 31
0.0
  0
LINE
  5
20A4
330
1591
100
AcDbEntity
  8
SJC
100
AcDbLine
 10
1092.221335752172
 20
960.2147455507278
 30
0.0
 11
1142.221335752172
 21
935.2147455507278
 31
0.0
  0
LINE
  5
20A5
330
1591
100
AcDbEntity
  8
SJC
100
AcDbLine
 10
1142.221335752172
 20
935.2147455507278
 30
0.0
 11
1092.221335752172
 21
910.2147455507278
 31
0.0
  0
LINE
  5
20A6
330
1591
100
AcDbEntity
  8
SJC
100
AcDbLine
 10
1072.221335752172
 20
715.2147455507278
 30
0.0
 11
1092.221335752172
 21
740.2147455507278
 31
0.0
  0
LINE
  5
20A7
330
1591
100
AcDbEntity
  8
SJC
100
AcDbLine
 10
1142.221335752172
 20
715.2147455507278
 30
0.0
 11
1092.221335752172
 21
740.2147455507278
 31
0.0
  0
LINE
  5
20A8
330
1591
100
AcDbEntity
  8
SJC
100
AcDbLine
 10
1092.221335752172
 20
1025.214745550728
 30
0.0
 11
1092.221335752172
 21
825.2147455507278
 31
0.0
  0
LINE
  5
20A9
330
1591
100
AcDbEntity
  8
SJC
100
AcDbLine
 10
1092.221335752172
 20
690.2147455507278
 30
0.0
 11
1072.221335752172
 21
715.2147455507278
 31
0.0
  0
LINE
  5
20AA
330
1591
100
AcDbEntity
  8
SJC
100
AcDbLine
 10
1092.221335752172
 20
690.2147455507278
 30
0.0
 11
1142.221335752172
 21
715.2147455507278
 31
0.0
  0
LINE
  5
20AB
330
1591
100
AcDbEntity
  8
SJC
100
AcDbLine
 10
1092.221335752172
 20
625.2147455507278
 30
0.0
 11
1092.221335752172
 21
825.2147455507278
 31
0.0
  0
ARC
  5
20AC
330
1591
100
AcDbEntity
  8
SJC
100
AcDbCircle
 10
802.0741494945614
 20
1010.214745550728
 30
0.0
 40
15.0
100
AcDbArc
 50
90.0
 51
160.5287793655109
  0
LINE
  5
20AD
330
1591
100
AcDbEntity
  8
SJC
100
AcDbLine
 10
642.2213357521713
 20
950.2147455507278
 30
0.0
 11
717.2213357521713
 21
950.2147455507278
 31
0.0
  0
ARC
  5
20AE
330
1591
100
AcDbEntity
  8
SJC
100
AcDbCircle
 10
719.1832703944847
 20
1019.041980489454
 30
0.0
 40
68.85519193823974
100
AcDbArc
 50
268.367214034786
 51
356.8136392370229
  0
LINE
  5
20AF
330
1591
100
AcDbEntity
  8
SJC
100
AcDbLine
 10
642.2213357521713
 20
950.2147455507278
 30
0.0
 11
642.2213357521713
 21
825.2147455507278
 31
0.0
  0
ARC
  5
20B0
330
1591
100
AcDbEntity
  8
SJC
100
AcDbCircle
 10
802.0741494945614
 20
640.2147455507278
 30
0.0
 40
15.0
100
AcDbArc
 50
199.471220634489
 51
270.0
  0
LINE
  5
20B1
330
1591
100
AcDbEntity
  8
SJC
100
AcDbLine
 10
642.2213357521713
 20
700.2147455507278
 30
0.0
 11
717.2213357521713
 21
700.2147455507278
 31
0.0
  0
LINE
  5
20B2
330
1591
100
AcDbEntity
  8
SJC
100
AcDbLine
 10
642.2213357521713
 20
700.2147455507278
 30
0.0
 11
642.2213357521713
 21
825.2147455507278
 31
0.0
  0
ARC
  5
20B3
330
1591
100
AcDbEntity
  8
SJC
100
AcDbCircle
 10
719.1832703944847
 20
631.3875106120016
 30
0.0
 40
68.85519193823974
100
AcDbArc
 50
3.186360762977083
 51
91.63278596521406
  0
LINE
  5
20B4
330
1591
100
AcDbEntity
  8
SJC
100
AcDbLine
 10
2649.22133575218
 20
950.2147455507278
 30
0.0
 11
2574.221335752179
 21
950.2147455507278
 31
0.0
  0
ARC
  5
20B5
330
1591
100
AcDbEntity
  8
SJC
100
AcDbCircle
 10
2489.36852200978
 20
1010.214745550728
 30
0.0
 40
15.0
100
AcDbArc
 50
19.47122063448901
 51
90.0
  0
ARC
  5
20B6
330
1591
100
AcDbEntity
  8
SJC
100
AcDbCircle
 10
2572.259401109848
 20
1019.041980489454
 30
0.0
 40
68.85519193823974
100
AcDbArc
 50
183.186360762977
 51
271.6327859652141
  0
LINE
  5
20B7
330
1591
100
AcDbEntity
  8
SJC
100
AcDbLine
 10
2649.22133575218
 20
950.2147455507278
 30
0.0
 11
2649.22133575218
 21
825.2147455507278
 31
0.0
  0
LINE
  5
20B8
330
1591
100
AcDbEntity
  8
SJC
100
AcDbLine
 10
2649.22133575218
 20
700.2147455507278
 30
0.0
 11
2574.221335752179
 21
700.2147455507278
 31
0.0
  0
ARC
  5
20B9
330
1591
100
AcDbEntity
  8
SJC
100
AcDbCircle
 10
2489.36852200978
 20
640.2147455507278
 30
0.0
 40
15.0
100
AcDbArc
 50
270.0
 51
340.528779365511
  0
ARC
  5
20BA
330
1591
100
AcDbEntity
  8
SJC
100
AcDbCircle
 10
2572.259401109848
 20
631.3875106120016
 30
0.0
 40
68.85519193823974
100
AcDbArc
 50
88.36721403478595
 51
176.8136392370229
  0
LINE
  5
20BB
330
1591
100
AcDbEntity
  8
SJC
100
AcDbLine
 10
2649.22133575218
 20
700.2147455507278
 30
0.0
 11
2649.22133575218
 21
825.2147455507278
 31
0.0
  0
LINE
  5
20BC
330
1591
100
AcDbEntity
  8
SJC
100
AcDbLine
 10
2219.22133575218
 20
935.2147455507278
 30
0.0
 11
2199.221335752179
 21
910.2147455507278
 31
0.0
  0
LINE
  5
20BD
330
1591
100
AcDbEntity
  8
SJC
100
AcDbLine
 10
2199.221335752179
 20
960.2147455507278
 30
0.0
 11
2219.22133575218
 21
935.2147455507278
 31
0.0
  0
LINE
  5
20BE
330
1591
100
AcDbEntity
  8
SJC
100
AcDbLine
 10
2149.22133575218
 20
935.2147455507278
 30
0.0
 11
2199.221335752179
 21
910.2147455507278
 31
0.0
  0
LINE
  5
20BF
330
1591
100
AcDbEntity
  8
SJC
100
AcDbLine
 10
2199.221335752179
 20
960.2147455507278
 30
0.0
 11
2149.22133575218
 21
935.2147455507278
 31
0.0
  0
ARC
  5
20C0
330
1591
100
AcDbEntity
  8
SJC
100
AcDbCircle
 10
2139.873679257569
 20
1062.0335960421
 30
0.0
 40
69.84104869564855
100
AcDbArc
 50
287.8295230230989
 51
328.1848391129628
  0
LINE
  5
20C1
330
1591
100
AcDbEntity
  8
SJC
100
AcDbLine
 10
2219.22133575218
 20
715.2147455507278
 30
0.0
 11
2199.221335752179
 21
740.2147455507278
 31
0.0
  0
LINE
  5
20C2
330
1591
100
AcDbEntity
  8
SJC
100
AcDbLine
 10
2149.22133575218
 20
715.2147455507278
 30
0.0
 11
2199.221335752179
 21
740.2147455507278
 31
0.0
  0
LINE
  5
20C3
330
1591
100
AcDbEntity
  8
SJC
100
AcDbLine
 10
2199.221335752179
 20
1025.214745550728
 30
0.0
 11
2199.221335752179
 21
825.2147455507278
 31
0.0
  0
ARC
  5
20C4
330
1591
100
AcDbEntity
  8
SJC
100
AcDbCircle
 10
2139.873679257551
 20
588.3958950593645
 30
0.0
 40
69.84104869564855
100
AcDbArc
 50
31.81516088703717
 51
72.17047697690111
  0
LINE
  5
20C5
330
1591
100
AcDbEntity
  8
SJC
100
AcDbLine
 10
2199.221335752179
 20
625.2147455507278
 30
0.0
 11
2199.221335752179
 21
825.2147455507278
 31
0.0
  0
LINE
  5
20C6
330
1591
100
AcDbEntity
  8
SJC
100
AcDbLine
 10
2199.221335752179
 20
690.2147455507278
 30
0.0
 11
2149.22133575218
 21
715.2147455507278
 31
0.0
  0
LINE
  5
20C7
330
1591
100
AcDbEntity
  8
SJC
100
AcDbLine
 10
2199.221335752179
 20
690.2147455507278
 30
0.0
 11
2219.22133575218
 21
715.2147455507278
 31
0.0
  0
LINE
  5
20C8
330
1591
100
AcDbEntity
  8
SJC
100
AcDbLine
 10
2489.36852200978
 20
625.2147455507278
 30
0.0
 11
2199.221335752179
 21
625.2147455507278
 31
0.0
  0
LINE
  5
20C9
330
1591
100
AcDbEntity
  8
SJC
100
AcDbLine
 10
2489.36852200978
 20
1025.214745550728
 30
0.0
 11
2199.221335752179
 21
1025.214745550728
 31
0.0
  0
ARC
  5
20CA
330
1591
100
AcDbEntity
  8
SJC
100
AcDbCircle
 10
1999.221335752179
 20
825.2147455507278
 30
0.0
 40
50.0
100
AcDbArc
 50
324.9384125650303
 51
35.06158743496966
  0
ARC
  5
20CB
330
1591
100
AcDbEntity
  8
SJC
100
AcDbCircle
 10
1842.221335752172
 20
825.2147455507278
 30
0.0
 40
50.0
100
AcDbArc
 50
270.0
 51
90.0
  0
ARC
  5
20CC
330
1591
100
AcDbEntity
  8
SJC
100
AcDbCircle
 10
1842.221335752172
 20
825.2147455507278
 30
0.0
 40
200.0
100
AcDbArc
 50
270.0
 51
90.0
  0
LINE
  5
20CD
330
1591
100
AcDbEntity
  8
SJC
100
AcDbLine
 10
2160.196407960164
 20
995.2147455507279
 30
0.0
 11
1947.577873280694
 21
995.2147455507279
 31
0.0
  0
LINE
  5
20CE
330
1591
100
AcDbEntity
  8
SJC
100
AcDbLine
 10
2160.196407960164
 20
655.2147455507277
 30
0.0
 11
1947.577873280712
 21
655.2147455507369
 31
0.0
  0
LINE
  5
20CF
330
1591
100
AcDbEntity
  8
HASEN
100
AcDbLine
 10
1092.221335752172
 20
1009.214745550728
 30
0.0
 11
1920.605007521233
 21
1009.214745550728
 31
0.0
  0
LINE
  5
20D0
330
1591
100
AcDbEntity
  8
HASEN
100
AcDbLine
 10
1092.221335752172
 20
641.2147455507269
 30
0.0
 11
1920.605007521233
 21
641.2147455507314
 31
0.0
  0
TEXT
  5
20D1
330
1591
100
AcDbEntity
  8
INFORMATION
100
AcDbText
 10
22201.0
 20
2.0
 30
0.0
 40
0.8
  1
PLOTTER=CALCOMP_TECHJET720
 41
0.8
  7
EXT08
100
AcDbText
  0
TEXT
  5
20D2
330
1591
100
AcDbEntity
  8
INFORMATION
100
AcDbText
 10
22201.0
 20
3.0
 30
0.0
 40
0.8
  1
PAPER=A3
 41
0.8
  7
EXT08
100
AcDbText
  0
TEXT
  5
20D3
330
1591
100
AcDbEntity
  8
INFORMATION
100
AcDbText
 10
22201.0
 20
1.0
 30
0.0
 40
0.8
  1
VERSION=3.0
 41
0.8
  7
EXT08
100
AcDbText
  0
TEXT
  5
20D4
330
1591
100
AcDbEntity
  8
INFORMATION
100
AcDbText
 10
29601.0
 20
2.0
 30
0.0
 40
0.8
  1
PLOTTER=CALCOMP_TECHJET720
  7
EXT08
100
AcDbText
  0
TEXT
  5
20D5
330
1591
100
AcDbEntity
  8
INFORMATION
100
AcDbText
 10
29601.0
 20
3.0
 30
0.0
 40
0.8
  1
PAPER=A3
  7
EXT08
100
AcDbText
  0
TEXT
  5
20D6
330
1591
100
AcDbEntity
  8
INFORMATION
100
AcDbText
 10
29601.0
 20
1.0
 30
0.0
 40
0.8
  1
VERSION=3.0
  7
EXT08
100
AcDbText
  0
TEXT
  5
20D7
330
1591
100
AcDbEntity
  8
INFORMATION
100
AcDbText
 10
37001.0
 20
5342.0
 30
0.0
 40
0.8
  1
PLOTTER=CALCOMP_TECHJET720
  7
EXT08
100
AcDbText
  0
TEXT
  5
20D8
330
1591
100
AcDbEntity
  8
INFORMATION
100
AcDbText
 10
37001.0
 20
5343.0
 30
0.0
 40
0.8
  1
PAPER=A3
  7
EXT08
100
AcDbText
  0
TEXT
  5
20D9
330
1591
100
AcDbEntity
  8
INFORMATION
100
AcDbText
 10
37001.0
 20
5341.0
 30
0.0
 40
0.8
  1
VERSION=3.0
  7
EXT08
100
AcDbText
  0
TEXT
  5
20DA
330
1591
100
AcDbEntity
  8
INFORMATION
100
AcDbText
 10
45458.19629035475
 20
5356.450340072242
 30
0.0
 40
0.8
  1
PLOTTER=CALCOMP_TECHJET720
  7
EXT08
100
AcDbText
  0
TEXT
  5
20DB
330
1591
100
AcDbEntity
  8
INFORMATION
100
AcDbText
 10
45458.19629035475
 20
5357.450340072243
 30
0.0
 40
0.8
  1
PAPER=A3
  7
EXT08
100
AcDbText
  0
TEXT
  5
20DC
330
1591
100
AcDbEntity
  8
INFORMATION
100
AcDbText
 10
45458.19629035475
 20
5355.450340072242
 30
0.0
 40
0.8
  1
VERSION=2.1
  7
EXT08
100
AcDbText
  0
TEXT
  5
20DD
330
1591
100
AcDbEntity
  8
INFORMATION
100
AcDbText
 10
49158.19629035475
 20
5356.450340072242
 30
0.0
 40
0.8
  1
PLOTTER=CALCOMP_TECHJET720
  7
EXT08
100
AcDbText
  0
TEXT
  5
20DE
330
1591
100
AcDbEntity
  8
INFORMATION
100
AcDbText
 10
49158.19629035475
 20
5357.450340072243
 30
0.0
 40
0.8
  1
PAPER=A3
  7
EXT08
100
AcDbText
  0
TEXT
  5
20DF
330
1591
100
AcDbEntity
  8
INFORMATION
100
AcDbText
 10
49158.19629035475
 20
5355.450340072242
 30
0.0
 40
0.8
  1
VERSION=2.1
  7
EXT08
100
AcDbText
  0
TEXT
  5
20E0
330
1591
100
AcDbEntity
  8
INFORMATION
100
AcDbText
 10
49158.19629035475
 20
5356.450340072242
 30
0.0
 40
0.8
  1
PLOTTER=CALCOMP_TECHJET720
  7
EXT08
100
AcDbText
  0
TEXT
  5
20E1
330
1591
100
AcDbEntity
  8
INFORMATION
100
AcDbText
 10
49158.19629035475
 20
5357.450340072243
 30
0.0
 40
0.8
  1
PAPER=A3
  7
EXT08
100
AcDbText
  0
TEXT
  5
20E2
330
1591
100
AcDbEntity
  8
INFORMATION
100
AcDbText
 10
49158.19629035475
 20
5355.450340072242
 30
0.0
 40
0.8
  1
VERSION=2.1
  7
EXT08
100
AcDbText
  0
TEXT
  5
20E3
330
1591
100
AcDbEntity
  8
INFORMATION
100
AcDbText
 10
52858.19629035475
 20
5356.450340072242
 30
0.0
 40
0.8
  1
PLOTTER=CALCOMP_TECHJET720
  7
EXT08
100
AcDbText
  0
TEXT
  5
20E4
330
1591
100
AcDbEntity
  8
INFORMATION
100
AcDbText
 10
52858.19629035475
 20
5357.450340072243
 30
0.0
 40
0.8
  1
PAPER=A3
  7
EXT08
100
AcDbText
  0
TEXT
  5
20E5
330
1591
100
AcDbEntity
  8
INFORMATION
100
AcDbText
 10
52858.19629035475
 20
5355.450340072242
 30
0.0
 40
0.8
  1
VERSION=2.1
  7
EXT08
100
AcDbText
  0
TEXT
  5
20E6
330
1591
100
AcDbEntity
  8
INFORMATION
100
AcDbText
 10
56558.19629035474
 20
5356.450340072242
 30
0.0
 40
0.8
  1
PLOTTER=CALCOMP_TECHJET720
  7
EXT08
100
AcDbText
  0
TEXT
  5
20E7
330
1591
100
AcDbEntity
  8
INFORMATION
100
AcDbText
 10
56558.19629035474
 20
5357.450340072243
 30
0.0
 40
0.8
  1
PAPER=A3
  7
EXT08
100
AcDbText
  0
TEXT
  5
20E8
330
1591
100
AcDbEntity
  8
INFORMATION
100
AcDbText
 10
56558.19629035474
 20
5355.450340072242
 30
0.0
 40
0.8
  1
VERSION=2.1
  7
EXT08
100
AcDbText
  0
TEXT
  5
20E9
330
1591
100
AcDbEntity
  8
INFORMATION
100
AcDbText
 10
49158.19629035475
 20
5356.450340072242
 30
0.0
 40
0.8
  1
PLOTTER=CALCOMP_TECHJET720
  7
EXT08
100
AcDbText
  0
TEXT
  5
20EA
330
1591
100
AcDbEntity
  8
INFORMATION
100
AcDbText
 10
49158.19629035475
 20
5357.450340072243
 30
0.0
 40
0.8
  1
PAPER=A3
  7
EXT08
100
AcDbText
  0
TEXT
  5
20EB
330
1591
100
AcDbEntity
  8
INFORMATION
100
AcDbText
 10
49158.19629035475
 20
5355.450340072242
 30
0.0
 40
0.8
  1
VERSION=2.1
  7
EXT08
100
AcDbText
  0
TEXT
  5
20EC
330
1591
100
AcDbEntity
  8
INFORMATION
100
AcDbText
 10
52858.19629035475
 20
5356.450340072242
 30
0.0
 40
0.8
  1
PLOTTER=CALCOMP_TECHJET720
  7
EXT08
100
AcDbText
  0
TEXT
  5
20ED
330
1591
100
AcDbEntity
  8
INFORMATION
100
AcDbText
 10
52858.19629035475
 20
5357.450340072243
 30
0.0
 40
0.8
  1
PAPER=A3
  7
EXT08
100
AcDbText
  0
TEXT
  5
20EE
330
1591
100
AcDbEntity
  8
INFORMATION
100
AcDbText
 10
52858.19629035475
 20
5355.450340072242
 30
0.0
 40
0.8
  1
VERSION=2.0
  7
EXT08
100
AcDbText
  0
TEXT
  5
20EF
330
1591
100
AcDbEntity
  8
LIST
100
AcDbText
 10
49216.46804835474
 20
5376.155036072242
 30
0.0
 40
3.5
  1
　
 41
0.8
  7
EXT08
100
AcDbText
  0
TEXT
  5
20F0
330
1591
100
AcDbEntity
  8
SUNPOU
100
AcDbText
 10
51353.14588935474
 20
6978.433049072243
 30
0.0
 40
35.0
  1
  
 41
0.6
  7
EXT08
100
AcDbText
  0
TEXT
  5
20F1
330
1591
100
AcDbEntity
  8
INFORMATION
100
AcDbText
 10
49158.19629035475
 20
5356.450340072242
 30
0.0
 40
0.8
  1
PLOTTER=CALCOMP_TECHJET720
  7
EXT08
100
AcDbText
  0
TEXT
  5
20F2
330
1591
100
AcDbEntity
  8
INFORMATION
100
AcDbText
 10
49158.19629035475
 20
5357.450340072243
 30
0.0
 40
0.8
  1
PAPER=A3
  7
EXT08
100
AcDbText
  0
TEXT
  5
20F3
330
1591
100
AcDbEntity
  8
INFORMATION
100
AcDbText
 10
49158.19629035475
 20
5355.450340072242
 30
0.0
 40
0.8
  1
VERSION=2.0
  7
EXT08
100
AcDbText
  0
TEXT
  5
20F4
330
1591
100
AcDbEntity
  8
INFORMATION
100
AcDbText
 10
49413.57979618834
 20
6758.232282431499
 30
0.0
 40
0.8
  1
PLOTTER=CALCOMP_TECHJET720
  7
EXT08
100
AcDbText
  0
TEXT
  5
20F5
330
1591
100
AcDbEntity
  8
INFORMATION
100
AcDbText
 10
49413.57979618834
 20
6759.232282431499
 30
0.0
 40
0.8
  1
PAPER=A3
  7
EXT08
100
AcDbText
  0
TEXT
  5
20F6
330
1591
100
AcDbEntity
  8
INFORMATION
100
AcDbText
 10
49413.57979618834
 20
6757.232282431499
 30
0.0
 40
0.8
  1
VERSION=2.1
  7
EXT08
100
AcDbText
  0
TEXT
  5
20F7
330
1591
100
AcDbEntity
  8
INFORMATION
100
AcDbText
 10
49347.8446682483
 20
5429.254307647304
 30
0.0
 40
0.8
  1
PLOTTER=CALCOMP_TECHJET720
  7
EXT08
100
AcDbText
  0
TEXT
  5
20F8
330
1591
100
AcDbEntity
  8
INFORMATION
100
AcDbText
 10
49347.8446682483
 20
5430.254307647304
 30
0.0
 40
0.8
  1
PAPER=A3
  7
EXT08
100
AcDbText
  0
LEADER
  5
2173
330
1591
100
AcDbEntity
  8
MOJI
100
AcDbLeader
  3
SJC
 76
     2
 10
2506.862513420772
 20
2145.775423417736
 30
0.0
 10
2603.480027889917
 20
2339.722156152443
 30
0.0
1001
ACAD
1000
DSTYLE
1002
{
1070
     5
1000

1070
    40
1040
20.0
1070
    41
1040
2.0
1070
    42
1040
1.0
1070
    43
1040
6.0
1070
    44
1040
1.0
1070
    73
1070
     0
1070
    74
1070
     0
1070
    77
1070
     1
1070
    78
1070
     8
1070
   140
1040
3.0
1070
   147
1040
1.199999999999999
1070
   172
1070
     1
1070
   179
1070
     2
1070
   271
1070
     2
1070
   279
1070
     2
1070
   340
1005
15EE
1070
   342
1005
0
1002
}
  0
LEADER
  5
2174
330
1591
100
AcDbEntity
  8
MOJI
100
AcDbLeader
  3
SJC
 76
     2
 10
1650.268934146494
 20
1861.477330504757
 30
0.0
 10
1552.693005433552
 20
1684.961510915444
 30
0.0
1001
ACAD
1000
DSTYLE
1002
{
1070
     5
1000

1070
    40
1040
20.0
1070
    41
1040
2.0
1070
    42
1040
1.0
1070
    43
1040
6.0
1070
    44
1040
1.0
1070
    73
1070
     0
1070
    74
1070
     0
1070
    77
1070
     1
1070
    78
1070
     8
1070
   140
1040
3.0
1070
   147
1040
1.199999999999999
1070
   172
1070
     1
1070
   179
1070
     2
1070
   271
1070
     2
1070
   279
1070
     2
1070
   340
1005
15EE
1070
   342
1005
0
1002
}
  0
LEADER
  5
2175
330
1591
100
AcDbEntity
  8
MOJI
100
AcDbLeader
  3
SJC
 76
     2
 10
1114.537355892436
 20
1125.612698761284
 30
0.0
 10
1255.302487033707
 20
1346.165408481318
 30
0.0
1001
ACAD
1000
DSTYLE
1002
{
1070
     5
1000

1070
    40
1040
20.0
1070
    41
1040
2.0
1070
    42
1040
1.0
1070
    43
1040
6.0
1070
    44
1040
1.0
1070
    73
1070
     0
1070
    74
1070
     0
1070
    77
1070
     1
1070
    78
1070
     8
1070
   140
1040
3.0
1070
   147
1040
1.199999999999999
1070
   172
1070
     1
1070
   179
1070
     2
1070
   271
1070
     2
1070
   279
1070
     2
1070
   340
1005
15EE
1070
   342
1005
0
1002
}
  0
LINE
  5
22B1
330
1591
100
AcDbEntity
  8
SJC
100
AcDbLine
 10
4128.509113702051
 20
4390.288337860033
 30
0.0
 11
4107.247260234104
 21
4390.288337860033
 31
0.0
  0
LINE
  5
22B2
330
1591
100
AcDbEntity
  8
SJC
100
AcDbLine
 10
4128.509113702051
 20
4356.288337860032
 30
0.0
 11
4107.247260234106
 21
4356.288337860034
 31
0.0
  0
LINE
  5
22B3
330
1591
100
AcDbEntity
  8
CENTER
100
AcDbLine
 10
4187.061606481253
 20
4373.288337860032
 30
0.0
 11
3964.887804417944
 21
4373.288337860032
 31
0.0
  0
LINE
  5
22B4
330
1591
100
AcDbEntity
  8
SJC
100
AcDbLine
 10
3992.696887855492
 20
4393.288337860033
 30
0.0
 11
4096.711606481252
 21
4393.288337860033
 31
0.0
  0
LINE
  5
22B5
330
1591
100
AcDbEntity
  8
SJC
100
AcDbLine
 10
3992.696887855492
 20
4353.288337860032
 30
0.0
 11
4096.711606481252
 21
4353.288337860032
 31
0.0
  0
LINE
  5
22B6
330
1591
100
AcDbEntity
  8
SJC
100
AcDbLine
 10
4069.578291707705
 20
4368.288337860033
 30
0.0
 11
4041.711606481253
 21
4368.288337860033
 31
0.0
  0
LINE
  5
22B7
330
1591
100
AcDbEntity
  8
SJC
100
AcDbLine
 10
4069.578291707705
 20
4378.288337860032
 30
0.0
 11
4041.711606481253
 21
4378.288337860032
 31
0.0
  0
ARC
  5
22B8
330
1591
100
AcDbEntity
  8
SJC
100
AcDbCircle
 10
3992.696887855492
 20
4391.788337860033
 30
0.0
 40
1.5
100
AcDbArc
 50
90.0
 51
160.5287793655109
  0
LINE
  5
22B9
330
1591
100
AcDbEntity
  8
SJC
100
AcDbLine
 10
3976.711606481254
 20
4385.788337860033
 30
0.0
 11
3984.211606481253
 21
4385.788337860033
 31
0.0
  0
ARC
  5
22BA
330
1591
100
AcDbEntity
  8
SJC
100
AcDbCircle
 10
3984.407799945485
 20
4392.671061353905
 30
0.0
 40
6.885519193823974
100
AcDbArc
 50
268.367214034786
 51
356.8136392370229
  0
LINE
  5
22BB
330
1591
100
AcDbEntity
  8
SJC
100
AcDbLine
 10
3976.711606481254
 20
4385.788337860033
 30
0.0
 11
3976.711606481254
 21
4373.288337860032
 31
0.0
  0
ARC
  5
22BC
330
1591
100
AcDbEntity
  8
SJC
100
AcDbCircle
 10
3992.696887855492
 20
4354.788337860032
 30
0.0
 40
1.5
100
AcDbArc
 50
199.471220634489
 51
270.0
  0
LINE
  5
22BD
330
1591
100
AcDbEntity
  8
SJC
100
AcDbLine
 10
3976.711606481254
 20
4360.788337860032
 30
0.0
 11
3984.211606481253
 21
4360.788337860032
 31
0.0
  0
LINE
  5
22BE
330
1591
100
AcDbEntity
  8
SJC
100
AcDbLine
 10
3976.711606481254
 20
4360.788337860032
 30
0.0
 11
3976.711606481254
 21
4373.288337860032
 31
0.0
  0
ARC
  5
22BF
330
1591
100
AcDbEntity
  8
SJC
100
AcDbCircle
 10
3984.407799945485
 20
4353.90561436616
 30
0.0
 40
6.885519193823974
100
AcDbArc
 50
3.186360762977083
 51
91.63278596521406
  0
ARC
  5
22C0
330
1591
100
AcDbEntity
  8
SJC
100
AcDbCircle
 10
4041.711606481253
 20
4373.288337860032
 30
0.0
 40
5.0
100
AcDbArc
 50
90.0
 51
270.0
  0
LINE
  5
22C1
330
1591
100
AcDbEntity
  8
SJC
100
AcDbLine
 10
4021.711606481253
 20
4386.788337860032
 30
0.0
 11
4019.711606481253
 21
4384.288337860033
 31
0.0
  0
LINE
  5
22C2
330
1591
100
AcDbEntity
  8
SJC
100
AcDbLine
 10
4019.711606481253
 20
4384.288337860033
 30
0.0
 11
4021.711606481253
 21
4381.788337860032
 31
0.0
  0
LINE
  5
22C3
330
1591
100
AcDbEntity
  8
SJC
100
AcDbLine
 10
4021.711606481253
 20
4386.788337860032
 30
0.0
 11
4026.711606481253
 21
4384.288337860033
 31
0.0
  0
LINE
  5
22C4
330
1591
100
AcDbEntity
  8
SJC
100
AcDbLine
 10
4026.711606481253
 20
4384.288337860033
 30
0.0
 11
4021.711606481253
 21
4381.788337860032
 31
0.0
  0
LINE
  5
22C5
330
1591
100
AcDbEntity
  8
SJC
100
AcDbLine
 10
4019.711606481253
 20
4362.288337860032
 30
0.0
 11
4021.711606481253
 21
4364.788337860033
 31
0.0
  0
LINE
  5
22C6
330
1591
100
AcDbEntity
  8
SJC
100
AcDbLine
 10
4026.711606481253
 20
4362.288337860032
 30
0.0
 11
4021.711606481253
 21
4364.788337860033
 31
0.0
  0
LINE
  5
22C7
330
1591
100
AcDbEntity
  8
SJC
100
AcDbLine
 10
4021.711606481253
 20
4393.288337860033
 30
0.0
 11
4021.711606481253
 21
4373.288337860032
 31
0.0
  0
LINE
  5
22C8
330
1591
100
AcDbEntity
  8
SJC
100
AcDbLine
 10
4021.711606481253
 20
4359.788337860033
 30
0.0
 11
4019.711606481253
 21
4362.288337860032
 31
0.0
  0
LINE
  5
22C9
330
1591
100
AcDbEntity
  8
SJC
100
AcDbLine
 10
4021.711606481253
 20
4359.788337860033
 30
0.0
 11
4026.711606481253
 21
4362.288337860032
 31
0.0
  0
LINE
  5
22CA
330
1591
100
AcDbEntity
  8
SJC
100
AcDbLine
 10
4021.711606481253
 20
4353.288337860032
 30
0.0
 11
4021.711606481253
 21
4373.288337860032
 31
0.0
  0
LINE
  5
22CB
330
1591
100
AcDbEntity
  8
SJC
100
AcDbLine
 10
3980.711606481255
 20
4385.788337860033
 30
0.0
 11
3980.711606481255
 21
4451.938337860032
 31
0.0
  0
LINE
  5
22CC
330
1591
100
AcDbEntity
  8
SJC
100
AcDbLine
 10
4023.411606481254
 20
4451.938337860032
 30
0.0
 11
4023.411606481253
 21
4393.288337860033
 31
0.0
  0
CIRCLE
  5
22CD
330
1591
100
AcDbEntity
  8
SJC
100
AcDbCircle
 10
4077.061606481254
 20
4373.288337860032
 30
0.0
 40
9.0
  0
ARC
  5
22CE
330
1591
100
AcDbEntity
  8
SJC
100
AcDbCircle
 10
4057.411606481253
 20
4373.288337860032
 30
0.0
 40
5.0
100
AcDbArc
 50
90.0
 51
270.0
  0
LINE
  5
22CF
330
1591
100
AcDbEntity
  8
CENTER
100
AcDbLine
 10
4077.061606481254
 20
4362.038337860033
 30
0.0
 11
4077.061606481254
 21
4384.538337860032
 31
0.0
  0
ARC
  5
22D0
330
1591
100
AcDbEntity
  8
SJC
100
AcDbCircle
 10
4112.411606481253
 20
4373.288337860032
 30
0.0
 40
5.0
100
AcDbArc
 50
324.9384125650303
 51
35.06158743496966
  0
ARC
  5
22D1
330
1591
100
AcDbEntity
  8
SJC
100
AcDbCircle
 10
4096.711606481252
 20
4373.288337860032
 30
0.0
 40
5.0
100
AcDbArc
 50
270.0
 51
90.0
  0
LINE
  5
22D2
330
1591
100
AcDbEntity
  8
SJC
100
AcDbLine
 10
4096.711606481252
 20
4368.288337860033
 30
0.0
 11
4084.544921254802
 21
4368.288337860033
 31
0.0
  0
LINE
  5
22D3
330
1591
100
AcDbEntity
  8
SJC
100
AcDbLine
 10
4096.711606481252
 20
4378.288337860032
 30
0.0
 11
4084.544921254802
 21
4378.288337860032
 31
0.0
  0
ARC
  5
22D4
330
1591
100
AcDbEntity
  8
SJC
100
AcDbCircle
 10
4096.711606481252
 20
4373.288337860032
 30
0.0
 40
20.0
100
AcDbArc
 50
270.0
 51
90.0
  0
ARC
  5
22D5
330
1591
100
AcDbEntity
  8
SJC
100
AcDbCircle
 10
4169.71541301702
 20
4392.671061353905
 30
0.0
 40
6.885519193823974
100
AcDbArc
 50
183.186360762977
 51
271.6327859652141
  0
ARC
  5
22D6
330
1591
100
AcDbEntity
  8
SJC
100
AcDbCircle
 10
4169.71541301702
 20
4353.90561436616
 30
0.0
 40
6.885519193823974
100
AcDbArc
 50
88.36721403478595
 51
176.8136392370229
  0
ARC
  5
22D7
330
1591
100
AcDbEntity
  8
SJC
100
AcDbCircle
 10
4161.426325107013
 20
4391.788337860033
 30
0.0
 40
1.5
100
AcDbArc
 50
19.47122063448901
 51
90.0
  0
ARC
  5
22D8
330
1591
100
AcDbEntity
  8
SJC
100
AcDbCircle
 10
4161.426325107013
 20
4354.788337860032
 30
0.0
 40
1.5
100
AcDbArc
 50
270.0
 51
340.528779365511
  0
LINE
  5
22D9
330
1591
100
AcDbEntity
  8
SJC
100
AcDbLine
 10
4134.411606481253
 20
4384.288337860033
 30
0.0
 11
4132.411606481253
 21
4381.788337860032
 31
0.0
  0
LINE
  5
22DA
330
1591
100
AcDbEntity
  8
SJC
100
AcDbLine
 10
4132.411606481253
 20
4386.788337860032
 30
0.0
 11
4134.411606481253
 21
4384.288337860033
 31
0.0
  0
LINE
  5
22DB
330
1591
100
AcDbEntity
  8
SJC
100
AcDbLine
 10
4134.411606481253
 20
4362.288337860032
 30
0.0
 11
4132.411606481253
 21
4364.788337860033
 31
0.0
  0
LINE
  5
22DC
330
1591
100
AcDbEntity
  8
SJC
100
AcDbLine
 10
4132.411606481253
 20
4393.288337860033
 30
0.0
 11
4132.411606481253
 21
4373.288337860032
 31
0.0
  0
LINE
  5
22DD
330
1591
100
AcDbEntity
  8
SJC
100
AcDbLine
 10
4132.411606481253
 20
4353.288337860032
 30
0.0
 11
4132.411606481253
 21
4373.288337860032
 31
0.0
  0
LINE
  5
22DE
330
1591
100
AcDbEntity
  8
SJC
100
AcDbLine
 10
4132.411606481253
 20
4359.788337860033
 30
0.0
 11
4134.411606481253
 21
4362.288337860032
 31
0.0
  0
LINE
  5
22DF
330
1591
100
AcDbEntity
  8
SJC
100
AcDbLine
 10
4161.426325107013
 20
4353.288337860032
 30
0.0
 11
4132.411606481253
 21
4353.288337860032
 31
0.0
  0
LINE
  5
22E0
330
1591
100
AcDbEntity
  8
SJC
100
AcDbLine
 10
4161.426325107013
 20
4393.288337860033
 30
0.0
 11
4132.411606481253
 21
4393.288337860033
 31
0.0
  0
LINE
  5
22E1
330
1591
100
AcDbEntity
  8
SJC
100
AcDbLine
 10
4177.411606481252
 20
4385.788337860033
 30
0.0
 11
4169.911606481253
 21
4385.788337860033
 31
0.0
  0
LINE
  5
22E2
330
1591
100
AcDbEntity
  8
SJC
100
AcDbLine
 10
4177.411606481252
 20
4385.788337860033
 30
0.0
 11
4177.411606481252
 21
4373.288337860032
 31
0.0
  0
LINE
  5
22E3
330
1591
100
AcDbEntity
  8
SJC
100
AcDbLine
 10
4177.411606481252
 20
4360.788337860032
 30
0.0
 11
4169.911606481253
 21
4360.788337860032
 31
0.0
  0
LINE
  5
22E4
330
1591
100
AcDbEntity
  8
SJC
100
AcDbLine
 10
4177.411606481252
 20
4360.788337860032
 30
0.0
 11
4177.411606481252
 21
4373.288337860032
 31
0.0
  0
LINE
  5
22E5
330
1591
100
AcDbEntity
  8
SJC
100
AcDbLine
 10
4130.711606481255
 20
4391.416442149793
 30
0.0
 11
4130.711606481255
 21
4451.938337860031
 31
0.0
  0
LINE
  5
22E6
330
1591
100
AcDbEntity
  8
SJC
100
AcDbLine
 10
4173.411606481251
 20
4451.938337860031
 30
0.0
 11
4173.411606481251
 21
4385.788337860033
 31
0.0
  0
LINE
  5
22E7
330
1591
100
AcDbEntity
  8
SJC
100
AcDbLine
 10
4127.411606481253
 20
4384.288337860033
 30
0.0
 11
4132.411606481253
 21
4381.788337860032
 31
0.0
  0
LINE
  5
22E8
330
1591
100
AcDbEntity
  8
SJC
100
AcDbLine
 10
4132.411606481253
 20
4386.788337860032
 30
0.0
 11
4127.411606481253
 21
4384.288337860033
 31
0.0
  0
ARC
  5
22E9
330
1591
100
AcDbEntity
  8
SJC
100
AcDbCircle
 10
4126.476840831792
 20
4396.97022290917
 30
0.0
 40
6.984104869564855
100
AcDbArc
 50
287.8295230230989
 51
328.1848391129628
  0
LINE
  5
22EA
330
1591
100
AcDbEntity
  8
SJC
100
AcDbLine
 10
4127.411606481253
 20
4362.288337860032
 30
0.0
 11
4132.411606481253
 21
4364.788337860033
 31
0.0
  0
ARC
  5
22EB
330
1591
100
AcDbEntity
  8
SJC
100
AcDbCircle
 10
4126.476840831791
 20
4349.606452810896
 30
0.0
 40
6.984104869564855
100
AcDbArc
 50
31.81516088703717
 51
72.17047697690111
  0
LINE
  5
22EC
330
1591
100
AcDbEntity
  8
SJC
100
AcDbLine
 10
4132.411606481253
 20
4359.788337860033
 30
0.0
 11
4127.411606481253
 21
4362.288337860032
 31
0.0
  0
LEADER
  5
22ED
330
1591
100
AcDbEntity
  8
MOJI
100
AcDbLeader
  3
SJC
 76
     2
 10
4077.061606481254
 20
4384.538337860032
 30
0.0
 10
4202.229611364071
 20
4818.332030750853
 30
0.0
1001
ACAD
1000
DSTYLE
1002
{
1070
     5
1000

1070
    40
1040
20.0
1070
    41
1040
2.0
1070
    42
1040
1.0
1070
    43
1040
6.0
1070
    44
1040
1.0
1070
    73
1070
     0
1070
    74
1070
     0
1070
    77
1070
     1
1070
    78
1070
     8
1070
   140
1040
3.0
1070
   144
1040
451.4908608578921
1070
   147
1040
1.199999999999999
1070
   172
1070
     1
1070
   271
1070
     2
1070
   279
1070
     2
1070
   340
1005
15EE
1070
   342
1005
0
1002
}
  0
LINE
  5
22EE
330
1591
100
AcDbEntity
  8
MOJI
100
AcDbLine
 10
4202.229611364071
 20
4818.332030750853
 30
0.0
 11
4725.603056978585
 21
4818.332030750853
 31
0.0
  0
TEXT
  5
22EF
330
1591
100
AcDbEntity
  8
MOJI
100
AcDbText
 10
4334.263873670503
 20
4838.332030750853
 30
0.0
 40
60.0
  1
ジョイント金具
 41
0.8
  7
EXT08
 11
4334.263873670503
 21
4868.332030750853
 31
0.0
100
AcDbText
 73
     2
  0
CIRCLE
  5
22F0
330
1591
100
AcDbEntity
  8
MOJI
100
AcDbCircle
 10
4250.02078479064
 20
4874.42908304294
 30
0.0
 40
48.0
  0
TEXT
  5
22F1
330
1591
100
AcDbEntity
  8
MOJI
100
AcDbText
 10
4224.723637551486
 20
4843.63145719535
 30
0.0
 40
60.0
  1
4
 41
0.8
  7
EXT08
 72
     4
 11
4248.723637551486
 21
4873.63145719535
 31
0.0
100
AcDbText
  0
DIMENSION
  5
22F2
330
1591
100
AcDbEntity
  8
SUNPOU
100
AcDbDimension
  2
*D27
 10
4402.086533918573
 20
4573.288337860033
 30
0.0
 11
4344.961615525735
 21
4458.33098586351
 31
0.0
 70
   160
 71
     5
 42
200.0
  3
SJC
100
AcDbAlignedDimension
 13
4180.784870220792
 23
4373.288337860032
 33
0.0
 14
4378.248232051937
 24
4573.288337860033
 34
0.0
 50
90.0
100
AcDbRotatedDimension
1001
ACAD
1000
DSTYLE
1002
{
1070
   287
1070
     5
1070
   287
1070
     5
1070
   287
1070
     5
1070
    40
1040
20.0
1070
    41
1040
2.0
1070
    42
1040
1.0
1070
    43
1040
6.0
1070
    44
1040
1.0
1070
    73
1070
     0
1070
    74
1070
     0
1070
    77
1070
     1
1070
    78
1070
     8
1070
   140
1040
3.0
1070
   147
1040
1.199999999999999
1070
   172
1070
     1
1070
   176
1070
   256
1070
   177
1070
   256
1070
   178
1070
   256
1070
   271
1070
     1
1070
   275
1070
     1
1070
   279
1070
     2
1070
   340
1005
15EE
1002
}
  0
TEXT
  5
252C
330
1591
100
AcDbEntity
  8
MOJI
100
AcDbText
 10
5648.459561997984
 20
3492.405489117942
 30
0.0
 40
60.0
  1
GL
 41
0.8
  7
EXT08
100
AcDbText
  0
INSERT
  5
253C
330
1591
100
AcDbEntity
  8
SJC
100
AcDbBlockReference
  2
B0070019
 10
5805.58023290012
 20
3473.288337860027
 30
0.0
  0
DIMENSION
  5
253D
330
1591
100
AcDbEntity
  8
SUNPOU
100
AcDbDimension
  2
*D29
 10
6147.904055427268
 20
2874.081118861297
 30
0.0
 11
5997.904055427269
 21
2928.081118861297
 31
0.0
 70
    32
 71
     5
 42
299.9999999999991
  3
SJC
100
AcDbAlignedDimension
 13
5847.904055427268
 23
3023.288337860027
 33
0.0
 14
6147.904055427268
 24
3023.288337860027
 34
0.0
100
AcDbRotatedDimension
1001
ACAD
1000
DSTYLE
1002
{
1070
    40
1040
20.0
1070
    41
1040
2.0
1070
    42
1040
1.0
1070
    43
1040
6.0
1070
    44
1040
1.0
1070
    73
1070
     0
1070
    74
1070
     0
1070
    77
1070
     1
1070
    78
1070
     8
1070
   140
1040
3.0
1070
   147
1040
1.199999999999999
1070
   172
1070
     1
1070
   179
1070
     2
1070
   271
1070
     2
1070
   279
1070
     2
1070
   340
1005
15EE
1002
}
  0
LINE
  5
254A
330
1591
100
AcDbEntity
  8
SJC
100
AcDbLine
 10
5987.054055427268
 20
4533.55084210884
 30
0.0
 11
5987.054055427268
 21
3636.375640867146
 31
0.0
  0
LINE
  5
254C
330
1591
100
AcDbEntity
  8
SJC
100
AcDbLine
 10
6008.754055427269
 20
4533.55084210884
 30
0.0
 11
6008.754055427268
 21
3636.375640867147
 31
0.0
  0
INSERT
  5
254D
330
1591
100
AcDbEntity
  8
SJC
100
AcDbBlockReference
  2
B0070019
 10
3204.231835680963
 20
3473.288337860027
 30
0.0
  0
ARC
  5
2587
330
1591
100
AcDbEntity
  8
CENTER
100
AcDbCircle
 10
1252.061606481255
 20
4451.938337860031
 30
0.0
 40
100.0
100
AcDbArc
 50
90.0
 51
180.0
  0
ARC
  5
2588
330
1591
100
AcDbEntity
  8
CENTER
100
AcDbCircle
 10
3902.061606481255
 20
4451.938337860032
 30
0.0
 40
100.0
100
AcDbArc
 50
0.0
 51
90.0
  0
ARC
  5
258A
330
1591
100
AcDbEntity
  8
SJC
100
AcDbCircle
 10
1252.061606481255
 20
4451.938337860031
 30
0.0
 40
121.35
100
AcDbArc
 50
90.0
 51
180.0
  0
ARC
  5
258B
330
1591
100
AcDbEntity
  8
SJC
100
AcDbCircle
 10
1252.061606481255
 20
4451.938337860031
 30
0.0
 40
78.65000000000001
100
AcDbArc
 50
90.0
 51
180.0
  0
ARC
  5
25CB
330
1591
100
AcDbEntity
  8
CENTER
100
AcDbCircle
 10
4252.061606481254
 20
4451.938337860031
 30
0.0
 40
100.0
100
AcDbArc
 50
90.0
 51
180.0
  0
ARC
  5
25F0
330
1591
100
AcDbEntity
  8
SJC
100
AcDbCircle
 10
3902.061606481255
 20
4451.938337860032
 30
0.0
 40
78.65000000000001
100
AcDbArc
 50
0.0
 51
90.0
  0
ARC
  5
25F1
330
1591
100
AcDbEntity
  8
SJC
100
AcDbCircle
 10
3902.061606481255
 20
4451.938337860032
 30
0.0
 40
121.35
100
AcDbArc
 50
0.0
 51
90.0
  0
ARC
  5
25F2
330
1591
100
AcDbEntity
  8
SJC
100
AcDbCircle
 10
4252.061606481254
 20
4451.938337860031
 30
0.0
 40
78.65000000000001
100
AcDbArc
 50
90.0
 51
180.0
  0
ARC
  5
25F3
330
1591
100
AcDbEntity
  8
SJC
100
AcDbCircle
 10
4252.061606481254
 20
4451.938337860031
 30
0.0
 40
121.35
100
AcDbArc
 50
90.0
 51
180.0
  0
LINE
  5
25FD
330
1591
100
AcDbEntity
  8
SUNPOU
100
AcDbLine
 10
1365.016198278592
 20
4339.584510666873
 30
0.0
 11
1209.522224639517
 21
4494.251468121485
 31
0.0
  0
MTEXT
  5
25FE
330
1591
100
AcDbEntity
  8
SUNPOU
100
AcDbMText
 10
1324.481634542266
 20
4436.836809963653
 30
0.0
 40
60.0
 41
0.0
 71
     5
 72
     1
  1
\A1;R100
  7
EXT08
 11
0.708989697362286
 21
-0.7052188376909215
 31
0.0
 73
     1
 44
1.0
  0
SOLID
  5
25FF
330
1591
100
AcDbEntity
  8
SUNPOU
100
AcDbTrace
 10
1214.223683557457
 20
4498.978066103901
 30
0.0
 11
1204.820765721578
 21
4489.524870139071
 31
0.0
 12
1181.162636745026
 22
4522.460221629123
 32
0.0
 13
1181.162636745026
 23
4522.460221629123
 33
0.0
  0
LINE
  5
2601
330
1591
100
AcDbEntity
  8
SJC
100
AcDbLine
 10
1312.911606481254
 20
4377.822414670712
 30
0.0
 11
1312.911606481254
 21
3640.288337860033
 31
0.0
  0
LINE
  5
275C
330
1591
100
AcDbEntity
  8
SJC2
100
AcDbLine
 10
1267.061606481255
 20
4530.588337860034
 30
0.0
 11
1267.061606481255
 21
4573.288337860033
 31
0.0
  0
LINE
  5
275D
330
1591
100
AcDbEntity
  8
SJC2
100
AcDbLine
 10
3887.061606481255
 20
4530.588337860034
 30
0.0
 11
3887.061606481255
 21
4573.288337860033
 31
0.0
  0
LINE
  5
275E
330
1591
100
AcDbEntity
  8
SJC2
100
AcDbLine
 10
4267.061606481255
 20
4530.588337860034
 30
0.0
 11
4267.061606481255
 21
4573.288337860033
 31
0.0
  0
TEXT
  5
277A
330
1591
100
AcDbEntity
  8
INFORMATION
100
AcDbText
 10
1.0
 20
1.0
 30
0.0
 40
0.8
  1
VERSION=3.0
100
AcDbText
  0
ENDSEC
  0
SECTION
  2
OBJECTS
  0
DICTIONARY
  5
1585
330
0
100
AcDbDictionary
281
     1
  3
ACAD_COLOR
350
24F6
  3
ACAD_GROUP
350
1586
  3
ACAD_LAYOUT
350
180B
  3
ACAD_MATERIAL
350
24F5
  3
ACAD_MLINESTYLE
350
1587
  3
ACAD_PLOTSETTINGS
350
180C
  3
ACAD_PLOTSTYLENAME
350
1809
  3
ACAD_TABLESTYLE
350
24F7
  3
AcDbVariableDictionary
350
2566
  0
DICTIONARY
  5
1D51
330
157B
100
AcDbDictionary
280
     1
281
     1
  3
ACAD_LAYERFILTERS
360
1D52
  0
DICTIONARY
  5
1D38
330
1591
100
AcDbDictionary
280
     1
281
     1
  3
ACAD_LAYOUTSELFREF
360
249F
  3
ACAD_SORTENTS
360
254B
  0
DICTIONARY
  5
1D36
330
158E
100
AcDbDictionary
280
     1
281
     1
  3
ACAD_LAYOUTSELFREF
360
249E
  0
DICTIONARY
  5
24F6
102
{ACAD_REACTORS
330
1585
102
}
330
1585
100
AcDbDictionary
281
     1
  0
DICTIONARY
  5
1586
102
{ACAD_REACTORS
330
1585
102
}
330
1585
100
AcDbDictionary
281
     1
  0
DICTIONARY
  5
180B
102
{ACAD_REACTORS
330
1585
102
}
330
1585
100
AcDbDictionary
281
     1
  3
Model
350
180D
  3
ﾚｲｱｳﾄ1
350
180E
  0
DICTIONARY
  5
24F5
102
{ACAD_REACTORS
330
1585
102
}
330
1585
100
AcDbDictionary
281
     1
  0
DICTIONARY
  5
1587
102
{ACAD_REACTORS
330
1585
102
}
330
1585
100
AcDbDictionary
281
     1
  3
STANDARD
350
1594
  0
DICTIONARY
  5
180C
102
{ACAD_REACTORS
330
1585
102
}
330
1585
100
AcDbDictionary
281
     1
  0
ACDBDICTIONARYWDFLT
  5
1809
102
{ACAD_REACTORS
330
1585
102
}
330
1585
100
AcDbDictionary
281
     1
  3
Normal
350
180A
100
AcDbDictionaryWithDefault
340
180A
1001
ACAD
1000
TREAT_AS_HARD
1070
     0
1000
TREAT_AS_HARD
1070
     0
  0
DICTIONARY
  5
24F7
102
{ACAD_REACTORS
330
1585
102
}
330
1585
100
AcDbDictionary
281
     1
  3
Standard
350
24F8
  0
DICTIONARY
  5
2566
102
{ACAD_REACTORS
330
1585
102
}
330
1585
100
AcDbDictionary
281
     1
  3
CTABLESTYLE
350
2567
  3
DIMASSOC
350
2568
  3
PROJECTNAME
350
2569
  0
DICTIONARY
  5
1D52
102
{ACAD_REACTORS
330
1D51
102
}
330
1D51
100
AcDbDictionary
280
     1
281
     1
  3
0
360
1D53
  3
1-交差点処理図（最新1案）
360
1D54
  3
2-線形図1
360
1D55
  3
3-線形図2
360
1D56
  3
50
360
1D57
  3
7-専用部北行
360
1D58
  3
8-ONﾗﾝﾌﾟ
360
1D59
  3
9-OFFﾗﾝﾌﾟ
360
1D5A
  3
B北
360
1D5B
  3
E南
360
1D5C
  3
OFF
360
1D5D
  3
ON
360
1D5E
  3
ランプ
360
1D5F
  3
一般
360
1D60
  3
外部参照の非表示画層
360
1D61
  3
専北
360
1D62
  3
専用
360
1D63
  3
線形
360
1D64
  3
全帯
360
1D65
  3
断面
360
1D66
  3
非表示
360
1D67
  3
副道
360
1D68
  3
平面図
360
1D69
  0
XRECORD
  5
249F
102
{ACAD_REACTORS
330
1D38
102
}
330
1D38
100
AcDbXrecord
280
     1
340
1591
  0
SORTENTSTABLE
  5
254B
102
{ACAD_REACTORS
330
1D38
102
}
330
1D38
100
AcDbSortentsTable
330
1591
331
F9F
  5
1616
331
154E
  5
17E7
331
160
  5
173
331
20DB
  5
20E9
331
209C
  5
20AA
331
22BA
  5
22C8
331
20E3
  5
20F1
331
20A4
  5
20B2
331
22C2
  5
22D0
331
119
  5
127
331
22
  5
29
331
20EB
  5
2173
331
20AC
  5
20BA
331
22CA
  5
22D8
331
2A
  5
FB
331
20B4
  5
20C2
331
22D2
  5
22E0
331
2061
  5
206F
331
2022
  5
2030
331
1FEB
  5
1FF9
331
1FAC
  5
1FBA
331
2069
  5
2077
331
202A
  5
2038
331
1FF3
  5
2001
331
1FB4
  5
1FC2
331
2071
  5
207F
331
2032
  5
2040
331
1FFB
  5
2009
331
1FBC
  5
1FCA
331
203A
  5
2048
331
1FC4
  5
1FD2
331
131
  5
13E
331
178
  5
15FF
331
139
  5
146
331
1614
  5
1F31
331
141
  5
14E
331
149
  5
15D
331
20F3
  5
22B6
331
20BC
  5
20CA
331
207D
  5
208B
331
22DA
  5
22E8
331
2588
  5
1E
331
20C4
  5
20D2
331
2085
  5
2093
331
22E2
  5
22F0
331
FA
  5
10B
331
3
  5
4
331
2173
  5
22BC
331
20CC
  5
20DA
331
208D
  5
209B
331
22EA
  5
254D
331
25F0
  5
20
331
B
  5
C
331
20D4
  5
20E2
331
2095
  5
20A3
331
22B3
  5
22C1
331
22F2
  5
25F0
331
2042
  5
2050
331
2003
  5
2011
331
1FCC
  5
1FDA
331
10A
  5
116
331
13
  5
1D
331
1F35
  5
1F43
331
204A
  5
2058
331
200B
  5
2019
331
1FD4
  5
1FE2
331
112
  5
122
331
1B
  5
22
331
1F3D
  5
1F4B
331
2052
  5
2060
331
2013
  5
2021
331
1FDC
  5
1FEA
331
1F45
  5
1FAF
331
205A
  5
2068
331
201B
  5
2029
331
1FE4
  5
1FF2
331
1F4D
  5
1FB7
331
FA0
  5
1617
331
161
  5
174
331
20DC
  5
20EA
331
209D
  5
20AB
331
22BB
  5
22C9
331
20E4
  5
20F2
331
20A5
  5
20B3
331
22C3
  5
22D1
331
11A
  5
12A
331
23
  5
2A
331
20EC
  5
2174
331
20AD
  5
20BB
331
22CB
  5
22D9
331
122
  5
130
331
2B
  5
FC
331
20B5
  5
20C3
331
22D3
  5
22E1
331
2062
  5
2070
331
2023
  5
2031
331
1FEC
  5
1FFA
331
12A
  5
13A
331
1FAD
  5
1FBB
331
206A
  5
2078
331
202B
  5
2039
331
1FF4
  5
2002
331
1FB5
  5
1FC3
331
2072
  5
2080
331
2033
  5
2041
331
1FFC
  5
200A
331
1FBD
  5
1FCB
331
203B
  5
2049
331
1FC5
  5
1FD3
331
171
  5
1512
331
132
  5
13F
331
13A
  5
147
331
1615
  5
1F32
331
142
  5
14F
331
14A
  5
15E
331
20F4
  5
22B7
331
20BD
  5
20CB
331
207E
  5
208C
331
22DB
  5
22E9
331
20C5
  5
20D3
331
2086
  5
2094
331
22E3
  5
22F1
331
FB
  5
10C
331
4
  5
B
331
2174
  5
22BD
331
20CD
  5
20DB
331
208E
  5
209C
331
22EB
  5
2571
331
25F1
  5
1F
331
C
  5
E
331
20D5
  5
20E3
331
2096
  5
20A4
331
22B4
  5
22C2
331
2043
  5
2051
331
2004
  5
2012
331
1FCD
  5
1FDB
331
10B
  5
119
331
1F36
  5
1F44
331
204B
  5
2059
331
200C
  5
201A
331
1FD5
  5
1FE3
331
113
  5
123
331
1C
  5
23
331
1F3E
  5
1F4C
331
2053
  5
2061
331
2014
  5
2022
331
1FDD
  5
1FEB
331
1F46
  5
1FB0
331
205B
  5
2069
331
201C
  5
202A
331
1FE5
  5
1FF3
331
1F4E
  5
1FB8
331
162
  5
177
331
16A
  5
F9F
331
15FE
  5
1A05
331
20DD
  5
20EB
331
209E
  5
20AC
331
22BC
  5
22CA
331
254A
  5
F6
331
2601
  5
FA0
331
20E5
  5
20F3
331
20A6
  5
20B4
331
22C4
  5
22D2
331
24
  5
2B
331
20ED
  5
2175
331
20AE
  5
20BC
331
22CC
  5
22DA
331
123
  5
131
331
2C
  5
FD
331
20B6
  5
20C4
331
22D4
  5
22E2
331
2063
  5
2071
331
2024
  5
2032
331
1FED
  5
1FFB
331
1FAE
  5
1FBC
331
206B
  5
2079
331
202C
  5
203A
331
1FF5
  5
2003
331
1FB6
  5
1FC4
331
2073
  5
2081
331
2034
  5
2042
331
1FFD
  5
200B
331
1FBE
  5
1FCC
331
1F2F
  5
1F3D
331
203C
  5
204A
331
1FC6
  5
1FD4
331
172
  5
1513
331
133
  5
140
331
13B
  5
148
331
1616
  5
1F33
331
143
  5
150
331
16CC
  5
1F36
331
F42
  5
1614
331
14B
  5
15F
331
20F5
  5
22B8
331
20BE
  5
20CC
331
207F
  5
208D
331
22DC
  5
22EA
331
258A
  5
1C
331
20C6
  5
20D4
331
2087
  5
2095
331
22E4
  5
22F2
331
FC
  5
10E
331
25F2
  5
139
331
2175
  5
22BE
331
20CE
  5
20DC
331
208F
  5
209D
331
22EC
  5
2587
331
20D6
  5
20E4
331
2097
  5
20A5
331
22B5
  5
22C3
331
2044
  5
2052
331
2005
  5
2013
331
1FCE
  5
1FDC
331
10C
  5
11A
331
1F37
  5
1F45
331
204C
  5
205A
331
200D
  5
201B
331
1FD6
  5
1FE4
331
1D
  5
24
331
1F3F
  5
1F4D
331
2054
  5
2062
331
2015
  5
2023
331
1FDE
  5
1FEC
331
1F47
  5
1FB1
331
205C
  5
206A
331
201D
  5
202B
331
1FE6
  5
1FF4
331
1F4F
  5
1FB9
331
1511
  5
16CD
331
153
  5
166
331
163
  5
178
331
16B
  5
10BE
331
15FF
  5
1F2F
331
20DE
  5
20EC
331
209F
  5
20AD
331
22BD
  5
22CB
331
20E6
  5
20F4
331
20A7
  5
20B5
331
22C5
  5
22D3
331
25
  5
2C
331
20EE
  5
22B1
331
20AF
  5
20BD
331
22CD
  5
22DB
331
124
  5
132
331
2D
  5
101
331
20B7
  5
20C5
331
22D5
  5
22E3
331
2064
  5
2072
331
2025
  5
2033
331
1FEE
  5
1FFC
331
12C
  5
13B
331
1FAF
  5
1FBD
331
206C
  5
207A
331
202D
  5
203B
331
1FF6
  5
2004
331
1FB7
  5
1FC5
331
2074
  5
2082
331
2035
  5
2043
331
1FFE
  5
200C
331
1FBF
  5
1FCD
331
203D
  5
204B
331
1FC7
  5
1FD5
331
173
  5
1514
331
134
  5
141
331
13C
  5
149
331
1617
  5
1F34
331
144
  5
153
331
16CD
  5
1F37
331
144A
  5
16CC
331
F43
  5
1615
331
14C
  5
160
331
2078
  5
2086
331
20F6
  5
22B9
331
20BF
  5
20CD
331
2080
  5
208E
331
22DD
  5
22EB
331
258B
  5
1B
331
25CB
  5
137
331
20C7
  5
20D5
331
2088
  5
2096
331
22E5
  5
2311
331
252C
  5
25F1
331
FD
  5
10F
331
25F3
  5
138
331
20CF
  5
20DD
331
2090
  5
209E
331
22ED
  5
2588
331
E
  5
F
331
20D7
  5
20E5
331
22B6
  5
22C4
331
253C
  5
25F2
331
17E4
  5
1F38
331
1F30
  5
1F3E
331
2045
  5
2053
331
2006
  5
2014
331
1FCF
  5
1FDD
331
1F38
  5
1F46
331
204D
  5
205B
331
200E
  5
201C
331
1FD7
  5
1FE5
331
1E
  5
25
331
1F40
  5
1F4E
331
2055
  5
2063
331
2016
  5
2024
331
1FDF
  5
1FED
331
1F48
  5
1FB2
331
205D
  5
206B
331
201E
  5
202C
331
1FE7
  5
1FF5
331
1512
  5
17E4
331
154
  5
167
331
15C
  5
16C
331
16C
  5
144A
331
2098
  5
20A6
331
20DF
  5
20ED
331
20A0
  5
20AE
331
22BE
  5
22CC
331
254C
  5
30
331
20E7
  5
20F5
331
20A8
  5
20B6
331
22C6
  5
22D4
331
26
  5
2D
331
20EF
  5
22B2
331
20B0
  5
20BE
331
22CE
  5
22DC
331
125
  5
133
331
2E
  5
102
331
22D6
  5
22E4
331
2065
  5
2073
331
2026
  5
2034
331
1FEF
  5
1FFD
331
12D
  5
13C
331
1FB0
  5
1FBE
331
206D
  5
207B
331
202E
  5
203C
331
1FF7
  5
2005
331
F6
  5
10A
331
1FB8
  5
1FC6
331
2075
  5
2083
331
2036
  5
2044
331
1FFF
  5
200D
331
1FC0
  5
1FCE
331
203E
  5
204C
331
1600
  5
1F30
331
174
  5
154E
331
135
  5
142
331
13D
  5
14A
331
1618
  5
1F35
331
145
  5
154
331
14D
  5
161
331
20B8
  5
20C6
331
2079
  5
2087
331
275C
  5
3
331
20F7
  5
22BA
331
20C0
  5
20CE
331
2081
  5
208F
331
22DE
  5
22EC
331
20C8
  5
20D6
331
2089
  5
2097
331
22E6
  5
252C
331
20D0
  5
20DE
331
2091
  5
209F
331
22EE
  5
2589
331
1FC8
  5
1FD6
331
1F31
  5
1F3F
331
106
  5
110
331
F
  5
10
331
253D
  5
25F3
331
22B7
  5
22C5
331
17E5
  5
1F39
331
2046
  5
2054
331
2007
  5
2015
331
1FD0
  5
1FDE
331
10E
  5
11B
331
1F39
  5
1F47
331
204E
  5
205C
331
200F
  5
201D
331
1FD8
  5
1FE6
331
1F
  5
26
331
1F41
  5
1F4F
331
2056
  5
2064
331
2017
  5
2025
331
1FE0
  5
1FEE
331
1F49
  5
1FB3
331
205E
  5
206C
331
201F
  5
202D
331
1513
  5
17E5
331
155
  5
16A
331
15D
  5
16D
331
165
  5
1AE
331
16D
  5
1511
331
20D8
  5
20E6
331
2099
  5
20A7
331
254D
  5
25FE
331
20E0
  5
20EE
331
20A1
  5
20AF
331
22BF
  5
22CD
331
20E8
  5
20F6
331
20A9
  5
20B7
331
22C7
  5
22D5
331
27
  5
2E
331
20B1
  5
20BF
331
22CF
  5
22DD
331
126
  5
134
331
2F
  5
108
331
22D7
  5
22E5
331
1FE8
  5
1FF6
331
2066
  5
2074
331
2027
  5
2035
331
1FF0
  5
1FFE
331
1FB1
  5
1FBF
331
1A05
  5
1F3C
331
206E
  5
207C
331
202F
  5
203D
331
1FF8
  5
2006
331
1FB9
  5
1FC7
331
2076
  5
2084
331
2037
  5
2045
331
1FC1
  5
1FCF
331
203F
  5
204D
331
136
  5
143
331
13E
  5
14B
331
146
  5
155
331
14E
  5
162
331
20F0
  5
22B3
331
20B9
  5
20C7
331
207A
  5
2088
331
20F8
  5
22BB
331
20C1
  5
20CF
331
2082
  5
2090
331
22DF
  5
22ED
331
20C9
  5
20D7
331
208A
  5
2098
331
22E7
  5
253D
331
20D1
  5
20DF
331
2092
  5
20A0
331
22EF
  5
258A
331
2000
  5
200E
331
1FC9
  5
1FD7
331
1F32
  5
1F40
331
107
  5
112
331
10
  5
12
331
25FD
  5
25FF
331
17E6
  5
1F3A
331
2047
  5
2055
331
2008
  5
2016
331
1FD1
  5
1FDF
331
10F
  5
11C
331
1F3A
  5
1F48
331
204F
  5
205D
331
2010
  5
201E
331
1FD9
  5
1FE7
331
117
  5
124
331
1F42
  5
1FAC
331
2057
  5
2065
331
2018
  5
2026
331
1FE1
  5
1FEF
331
1F4A
  5
1FB4
331
205F
  5
206D
331
1514
  5
17E6
331
156
  5
16B
331
15E
  5
171
331
166
  5
F42
331
20D9
  5
20E7
331
209A
  5
20A8
331
22B8
  5
22C6
331
20E1
  5
20EF
331
20A2
  5
20B0
331
22C0
  5
22CE
331
20
  5
27
331
20E9
  5
20F7
331
20AA
  5
20B8
331
22C8
  5
22D6
331
11F
  5
12C
331
28
  5
2F
331
20B2
  5
20C0
331
22D0
  5
22DE
331
2020
  5
202E
331
127
  5
135
331
30
  5
109
331
1FE9
  5
1FF7
331
2067
  5
2075
331
2028
  5
2036
331
1FF1
  5
1FFF
331
1FB2
  5
1FC0
331
206F
  5
207D
331
2030
  5
203E
331
1FF9
  5
2007
331
1FBA
  5
1FC8
331
2077
  5
2085
331
2038
  5
2046
331
1FC2
  5
1FD0
331
137
  5
144
331
13F
  5
14C
331
1AE
  5
1600
331
147
  5
156
331
14F
  5
163
331
20F1
  5
22B4
331
20BA
  5
20C8
331
207B
  5
2089
331
22D8
  5
22E6
331
20C2
  5
20D0
331
2083
  5
2091
331
22E0
  5
22EE
331
1
  5
1
331
22E8
  5
254A
331
20CA
  5
20D8
331
208B
  5
2099
331
22B1
  5
22BF
331
20D2
  5
20E0
331
2093
  5
20A1
331
22F0
  5
258B
331
2040
  5
204E
331
2001
  5
200F
331
1FCA
  5
1FD8
331
1F33
  5
1F41
331
108
  5
113
331
25FE
  5
2601
331
17E7
  5
1F3B
331
2048
  5
2056
331
2009
  5
2017
331
1FD2
  5
1FE0
331
110
  5
121
331
1F3B
  5
1F49
331
2050
  5
205E
331
2011
  5
201F
331
1FDA
  5
1FE8
331
1F43
  5
1FAD
331
2058
  5
2066
331
2019
  5
2027
331
1FE2
  5
1FF0
331
1F4B
  5
1FB5
331
15F
  5
172
331
10BE
  5
1618
331
167
  5
F43
331
22B9
  5
22C7
331
20DA
  5
20E8
331
209B
  5
20A9
331
22C1
  5
22CF
331
20E2
  5
20F0
331
20A3
  5
20B1
331
118
  5
126
331
21
  5
28
331
22C9
  5
22D7
331
20EA
  5
20F8
331
20AB
  5
20B9
331
120
  5
12D
331
29
  5
FA
331
22D1
  5
22DF
331
20B3
  5
20C1
331
2060
  5
206E
331
2021
  5
202F
331
128
  5
136
331
2587
  5
1A
331
1FEA
  5
1FF8
331
2068
  5
2076
331
2029
  5
2037
331
1FF2
  5
2000
331
1FB3
  5
1FC1
331
2070
  5
207E
331
2031
  5
203F
331
1FFA
  5
2008
331
1FBB
  5
1FC9
331
2039
  5
2047
331
1FC3
  5
1FD1
331
130
  5
13D
331
177
  5
15FE
331
138
  5
145
331
140
  5
14D
331
148
  5
15C
331
22D9
  5
22E7
331
20F2
  5
22B5
331
20BB
  5
20C9
331
207C
  5
208A
331
22E1
  5
22EF
331
20C3
  5
20D1
331
2084
  5
2092
331
2
  5
2
331
22E9
  5
254C
331
20CB
  5
20D9
331
208C
  5
209A
331
22B2
  5
22C0
331
20D3
  5
20E1
331
2094
  5
20A2
331
22F1
  5
25CB
331
2041
  5
204F
331
2002
  5
2010
331
1FCB
  5
1FD9
331
109
  5
115
331
12
  5
13
331
25FF
  5
275B
331
1F34
  5
1F42
331
2049
  5
2057
331
200A
  5
2018
331
1FD3
  5
1FE1
331
1A
  5
21
331
1F3C
  5
1F4A
331
2051
  5
205F
331
2012
  5
2020
331
1FDB
  5
1FE9
331
1F44
  5
1FAE
331
2059
  5
2067
331
201A
  5
2028
331
1FE3
  5
1FF1
331
1F4C
  5
1FB6
331
150
  5
165
  0
XRECORD
  5
249E
102
{ACAD_REACTORS
330
1D36
102
}
330
1D36
100
AcDbXrecord
280
     1
340
158E
  0
LAYOUT
  5
180D
102
{ACAD_REACTORS
330
180B
102
}
330
180B
100
AcDbPlotSettings
  1

  2
MF5550
  4
A4
  6

 40
5.873749732971191
 41
4.857756614685058
 42
7.588241577148437
 43
5.873748779296875
 44
209.9944915771484
 45
296.989501953125
 46
0.0
 47
6.95
 48
187.515144
 49
132.719127
140
10668.101003
141
10072.209492
142
1.0
143
27.17283009338014
 70
 11956
 72
     1
 73
     1
 74
     1
  7
SJCCAD.ctb
 75
     0
147
0.03680146663279
 76
     0
 77
     2
 78
   300
148
0.2563280987742473
149
0.1812605841350887
100
AcDbLayout
  1
Model
 70
     1
 71
     0
 10
0.0
 20
0.0
 11
12.0
 21
9.0
 12
0.0
 22
0.0
 32
0.0
 14
0.0
 24
0.0
 34
0.0
 15
0.0
 25
0.0
 35
0.0
146
0.0
 13
0.0
 23
0.0
 33
0.0
 16
1.0
 26
0.0
 36
0.0
 17
0.0
 27
1.0
 37
0.0
 76
     0
330
1591
  0
LAYOUT
  5
180E
102
{ACAD_REACTORS
330
180B
102
}
330
180B
100
AcDbPlotSettings
  1

  2
C:\Program Files\AutoCAD 2000i\plotters\DWF Classic.pc3
  4

  6

 40
0.0
 41
0.0
 42
0.0
 43
0.0
 44
0.0
 45
0.0
 46
0.0
 47
0.0
 48
0.0
 49
0.0
140
0.0
141
0.0
142
1.0
143
1.0
 70
   688
 72
     0
 73
     0
 74
     5
  7

 75
    16
147
1.0
 76
     0
 77
     2
 78
   300
148
0.0
149
0.0
100
AcDbLayout
  1
ﾚｲｱｳﾄ1
 70
     1
 71
     1
 10
0.0
 20
0.0
 11
12.0
 21
9.0
 12
0.0
 22
0.0
 32
0.0
 14
1.000000000000000E+20
 24
1.000000000000000E+20
 34
1.000000000000000E+20
 15
-1.000000000000000E+20
 25
-1.000000000000000E+20
 35
-1.000000000000000E+20
146
0.0
 13
0.0
 23
0.0
 33
0.0
 16
1.0
 26
0.0
 36
0.0
 17
0.0
 27
1.0
 37
0.0
 76
     0
330
158E
  0
MLINESTYLE
  5
1594
102
{ACAD_REACTORS
330
1587
102
}
330
1587
100
AcDbMlineStyle
  2
STANDARD
 70
     0
  3

 62
     0
 51
90.0
 52
90.0
 71
     2
 49
0.5
 62
   256
  6
BYLAYER
 49
-0.5
 62
   256
  6
BYLAYER
  0
ACDBPLACEHOLDER
  5
180A
102
{ACAD_REACTORS
330
1809
102
}
330
1809
  0
TABLESTYLE
  5
24F8
102
{ACAD_REACTORS
330
24F7
102
}
330
24F7
100
AcDbTableStyle
  3
Standard
 70
     0
 71
     0
 40
0.06
 41
0.06
280
     0
281
     0
  7
STANDARD
140
0.18
170
     2
 62
     0
 63
     7
283
     0
274
    -2
284
     1
 64
     0
275
    -2
285
     1
 65
     0
276
    -2
286
     1
 66
     0
277
    -2
287
     1
 67
     0
278
    -2
288
     1
 68
     0
279
    -2
289
     1
 69
     0
  7
STANDARD
140
0.25
170
     5
 62
     0
 63
     7
283
     0
274
    -2
284
     1
 64
     0
275
    -2
285
     1
 65
     0
276
    -2
286
     1
 66
     0
277
    -2
287
     1
 67
     0
278
    -2
288
     1
 68
     0
279
    -2
289
     1
 69
     0
  7
STANDARD
140
0.18
170
     5
 62
     0
 63
     7
283
     0
274
    -2
284
     1
 64
     0
275
    -2
285
     1
 65
     0
276
    -2
286
     1
 66
     0
277
    -2
287
     1
 67
     0
278
    -2
288
     1
 68
     0
279
    -2
289
     1
 69
     0
  0
DICTIONARYVAR
  5
2567
102
{ACAD_REACTORS
330
2566
102
}
330
2566
100
DictionaryVariables
280
     0
  1
STANDARD
  0
DICTIONARYVAR
  5
2568
102
{ACAD_REACTORS
330
2566
102
}
330
2566
100
DictionaryVariables
280
     0
  1
1
  0
DICTIONARYVAR
  5
2569
102
{ACAD_REACTORS
330
2566
102
}
330
2566
100
DictionaryVariables
280
     0
  1

  0
XRECORD
  5
1D53
102
{ACAD_REACTORS
330
1D52
102
}
330
1D52
100
AcDbXrecord
280
     1
  1
0
  1
*0*
  1
*
  1
*
 70
     0
  1
*
  1
*
  0
XRECORD
  5
1D54
102
{ACAD_REACTORS
330
1D52
102
}
330
1D52
100
AcDbXrecord
280
     1
  1
1-交差点処理図（最新1案）
  1
*交差点処理図（最新1案）*
  1
*
  1
*
 70
     0
  1
*
  1
*
  0
XRECORD
  5
1D55
102
{ACAD_REACTORS
330
1D52
102
}
330
1D52
100
AcDbXrecord
280
     1
  1
2-線形図1
  1
*線形図1*
  1
*
  1
*
 70
     0
  1
*
  1
*
  0
XRECORD
  5
1D56
102
{ACAD_REACTORS
330
1D52
102
}
330
1D52
100
AcDbXrecord
280
     1
  1
3-線形図2
  1
*線形図2*
  1
*
  1
*
 70
     0
  1
*
  1
*
  0
XRECORD
  5
1D57
102
{ACAD_REACTORS
330
1D52
102
}
330
1D52
100
AcDbXrecord
280
     1
  1
50
  1
*-50
  1
*
  1
*
 70
     0
  1
*
  1
*
  0
XRECORD
  5
1D58
102
{ACAD_REACTORS
330
1D52
102
}
330
1D52
100
AcDbXrecord
280
     1
  1
7-専用部北行
  1
80*,90*,A0*,B0*,
  1
*
  1
*
 70
     0
  1
*
  1
*
  0
XRECORD
  5
1D59
102
{ACAD_REACTORS
330
1D52
102
}
330
1D52
100
AcDbXrecord
280
     1
  1
8-ONﾗﾝﾌﾟ
  1
70*,90*,A0*,B0*,
  1
*
  1
*
 70
     0
  1
*
  1
*
  0
XRECORD
  5
1D5A
102
{ACAD_REACTORS
330
1D52
102
}
330
1D52
100
AcDbXrecord
280
     1
  1
9-OFFﾗﾝﾌﾟ
  1
70*,80*,A0*B0*,
  1
*
  1
*
 70
     0
  1
*
  1
*
  0
XRECORD
  5
1D5B
102
{ACAD_REACTORS
330
1D52
102
}
330
1D52
100
AcDbXrecord
280
     1
  1
B北
  1
*B北*
  1
*
  1
*
 70
     0
  1
*
  1
*
  0
XRECORD
  5
1D5C
102
{ACAD_REACTORS
330
1D52
102
}
330
1D52
100
AcDbXrecord
280
     1
  1
E南
  1
*E*南*
  1
*
  1
*
 70
     0
  1
*
  1
*
  0
XRECORD
  5
1D5D
102
{ACAD_REACTORS
330
1D52
102
}
330
1D52
100
AcDbXrecord
280
     1
  1
OFF
  1
*OFF*
  1
*
  1
*
 70
     0
  1
*
  1
*
  0
XRECORD
  5
1D5E
102
{ACAD_REACTORS
330
1D52
102
}
330
1D52
100
AcDbXrecord
280
     1
  1
ON
  1
*ON*
  1
*
  1
*
 70
     0
  1
*
  1
*
  0
XRECORD
  5
1D5F
102
{ACAD_REACTORS
330
1D52
102
}
330
1D52
100
AcDbXrecord
280
     1
  1
ランプ
  1
*ランプ*
  1
*
  1
*
 70
     0
  1
*
  1
*
  0
XRECORD
  5
1D60
102
{ACAD_REACTORS
330
1D52
102
}
330
1D52
100
AcDbXrecord
280
     1
  1
一般
  1
*般*
  1
*
  1
*
 70
     0
  1
*
  1
*
  0
XRECORD
  5
1D61
102
{ACAD_REACTORS
330
1D52
102
}
330
1D52
100
AcDbXrecord
280
     1
  1
外部参照の非表示画層
  1
*
  1
*
  1
*
 70
     0
  1
*
  1
*
  0
XRECORD
  5
1D62
102
{ACAD_REACTORS
330
1D52
102
}
330
1D52
100
AcDbXrecord
280
     1
  1
専北
  1
*専北*
  1
*
  1
*
 70
     0
  1
*
  1
*
  0
XRECORD
  5
1D63
102
{ACAD_REACTORS
330
1D52
102
}
330
1D52
100
AcDbXrecord
280
     1
  1
専用
  1
*専*
  1
*
  1
*
 70
     0
  1
*
  1
*
  0
XRECORD
  5
1D64
102
{ACAD_REACTORS
330
1D52
102
}
330
1D52
100
AcDbXrecord
280
     1
  1
線形
  1
*線形*
  1
*
  1
*
 70
     0
  1
*
  1
*
  0
XRECORD
  5
1D65
102
{ACAD_REACTORS
330
1D52
102
}
330
1D52
100
AcDbXrecord
280
     1
  1
全帯
  1
*帯*
  1
*
  1
*
 70
     0
  1
*
  1
*
  0
XRECORD
  5
1D66
102
{ACAD_REACTORS
330
1D52
102
}
330
1D52
100
AcDbXrecord
280
     1
  1
断面
  1
*断面*
  1
*
  1
*
 70
     0
  1
*
  1
*
  0
XRECORD
  5
1D67
102
{ACAD_REACTORS
330
1D52
102
}
330
1D52
100
AcDbXrecord
280
     1
  1
非表示
  1
z*
  1
*
  1
*
 70
     0
  1
*
  1
*
  0
XRECORD
  5
1D68
102
{ACAD_REACTORS
330
1D52
102
}
330
1D52
100
AcDbXrecord
280
     1
  1
副道
  1
*副*
  1
*
  1
*
 70
     0
  1
*
  1
*
  0
XRECORD
  5
1D69
102
{ACAD_REACTORS
330
1D52
102
}
330
1D52
100
AcDbXrecord
280
     1
  1
平面図
  1
*平*
  1
*
  1
*
 70
     0
  1
*
  1
*
  0
ENDSEC
  0
EOF
