  0
SECTION
  2
HEADER
  9
$ACADVER
  1
AC1009
  9
$INSBASE
 10
0.0
 20
0.0
 30
0.0
  9
$EXTMIN
 10
0.0
 20
0.0
 30
0.0
  9
$EXTMAX
 10
7400.0
 20
5340.0
 30
0.0
  9
$LIMMIN
 10
0.0
 20
0.0
  9
$LIMMAX
 10
8400.0
 20
5940.0
  9
$ORTHOMODE
 70
     0
  9
$REGENMODE
 70
     1
  9
$FILLMODE
 70
     1
  9
$QTEXTMODE
 70
     0
  9
$MIRRTEXT
 70
     0
  9
$DRAGMODE
 70
     2
  9
$LTSCALE
 40
200.0
  9
$OSMODE
 70
    37
  9
$ATTMODE
 70
     1
  9
$TEXTSIZE
 40
60.0
  9
$TRACEWID
 40
0.05
  9
$TEXTSTYLE
  7
EXT08
  9
$CLAYER
  8
0
  9
$CELTYPE
  6
BYLAYER
  9
$CECOLOR
 62
   256
  9
$DIMSCALE
 40
20.0
  9
$DIMASZ
 40
2.0
  9
$DIMEXO
 40
1.0
  9
$DIMDLI
 40
6.0
  9
$DIMRND
 40
0.0
  9
$DIMDLE
 40
0.0
  9
$DIMEXE
 40
1.0
  9
$DIMTP
 40
0.0
  9
$DIMTM
 40
0.0
  9
$DIMTXT
 40
3.0
  9
$DIMCEN
 40
0.09
  9
$DIMTSZ
 40
0.0
  9
$DIMTOL
 70
     0
  9
$DIMLIM
 70
     0
  9
$DIMTIH
 70
     0
  9
$DIMTOH
 70
     0
  9
$DIMSE1
 70
     0
  9
$DIMSE2
 70
     0
  9
$DIMTAD
 70
     1
  9
$DIMZIN
 70
     8
  9
$DIMBLK
  1

  9
$DIMASO
 70
     1
  9
$DIMSHO
 70
     1
  9
$DIMPOST
  1

  9
$DIMAPOST
  1

  9
$DIMALT
 70
     0
  9
$DIMALTD
 70
     2
  9
$DIMALTF
 40
25.399999999999999
  9
$DIMLFAC
 40
1.0
  9
$DIMTOFL
 70
     1
  9
$DIMTVP
 40
0.0
  9
$DIMTIX
 70
     0
  9
$DIMSOXD
 70
     0
  9
$DIMSAH
 70
     0
  9
$DIMBLK1
  1

  9
$DIMBLK2
  1

  9
$DIMSTYLE
  2
SJC
  9
$DIMCLRD
 70
     0
  9
$DIMCLRE
 70
     0
  9
$DIMCLRT
 70
     0
  9
$DIMTFAC
 40
1.0
  9
$DIMGAP
 40
1.1999999999999991
  9
$LUNITS
 70
     2
  9
$LUPREC
 70
     2
  9
$SKETCHINC
 40
0.1
  9
$FILLETRAD
 40
0.0
  9
$AUNITS
 70
     1
  9
$AUPREC
 70
     2
  9
$MENU
  1
C:\r13\win\SUPPORT\sjc
  9
$ELEVATION
 40
0.0
  9
$PELEVATION
 40
0.0
  9
$THICKNESS
 40
0.0
  9
$LIMCHECK
 70
     0
  9
$BLIPMODE
 70
     0
  9
$CHAMFERA
 40
0.0
  9
$CHAMFERB
 40
0.0
  9
$SKPOLY
 70
     0
  9
$TDCREATE
 40
2450301.7682016208
  9
$TDUPDATE
 40
2456414.6254794099
  9
$TDINDWG
 40
1.5047377546
  9
$TDUSRTIMER
 40
1.5047377546
  9
$USRTIMER
 70
     1
  9
$ANGBASE
 50
0.0
  9
$ANGDIR
 70
     0
  9
$PDMODE
 70
    33
  9
$PDSIZE
 40
5.0
  9
$PLINEWID
 40
0.0
  9
$COORDS
 70
     1
  9
$SPLFRAME
 70
     0
  9
$SPLINETYPE
 70
     6
  9
$SPLINESEGS
 70
     8
  9
$ATTDIA
 70
     0
  9
$ATTREQ
 70
     1
  9
$HANDLING
 70
     1
  9
$HANDSEED
  5
21095
  9
$SURFTAB1
 70
     6
  9
$SURFTAB2
 70
     6
  9
$SURFTYPE
 70
     6
  9
$SURFU
 70
     6
  9
$SURFV
 70
     6
  9
$UCSNAME
  2

  9
$UCSORG
 10
0.0
 20
0.0
 30
0.0
  9
$UCSXDIR
 10
1.0
 20
0.0
 30
0.0
  9
$UCSYDIR
 10
0.0
 20
1.0
 30
0.0
  9
$PUCSNAME
  2

  9
$PUCSORG
 10
0.0
 20
0.0
 30
0.0
  9
$PUCSXDIR
 10
1.0
 20
0.0
 30
0.0
  9
$PUCSYDIR
 10
0.0
 20
1.0
 30
0.0
  9
$USERI1
 70
     3
  9
$USERI2
 70
    20
  9
$USERI3
 70
     0
  9
$USERI4
 70
     0
  9
$USERI5
 70
     0
  9
$USERR1
 40
0.0
  9
$USERR2
 40
0.0
  9
$USERR3
 40
0.0
  9
$USERR4
 40
0.0
  9
$USERR5
 40
0.0
  9
$WORLDVIEW
 70
     1
  9
$SHADEDGE
 70
     3
  9
$SHADEDIF
 70
    70
  9
$TILEMODE
 70
     1
  9
$MAXACTVP
 70
    16
  9
$PLIMCHECK
 70
     0
  9
$PEXTMIN
 10
1.0000000000000000E+020
 20
1.0000000000000000E+020
 30
1.0000000000000000E+020
  9
$PEXTMAX
 10
-1.0000000000000000E+020
 20
-1.0000000000000000E+020
 30
-1.0000000000000000E+020
  9
$PLIMMIN
 10
0.0
 20
0.0
  9
$PLIMMAX
 10
12.0
 20
9.0
  9
$UNITMODE
 70
     0
  9
$VISRETAIN
 70
     0
  9
$PLINEGEN
 70
     0
  9
$PSLTSCALE
 70
     1
  0
ENDSEC
  0
SECTION
  2
TABLES
  0
TABLE
  2
VPORT
 70
     2
  0
VPORT
  2
*ACTIVE
 70
     0
 10
0.0
 20
0.0
 11
1.0
 21
1.0
 12
5161.8058696904536
 22
2969.7161931133601
 13
0.0
 23
0.0
 14
10.0
 24
10.0
 15
0.0
 25
0.0
 16
0.0
 26
0.0
 36
1.0
 17
0.0
 27
0.0
 37
0.0
 40
5992.1499664254361
 41
1.9010526315789471
 42
50.0
 43
0.0
 44
0.0
 50
0.0
 51
0.0
 71
     0
 72
   100
 73
     1
 74
     1
 75
     0
 76
     0
 77
     0
 78
     0
  0
ENDTAB
  0
TABLE
  2
LTYPE
 70
     4
  0
LTYPE
  2
CONTINUOUS
 70
     0
  3
Solid line
 72
    65
 73
     0
 40
0.0
  0
LTYPE
  2
CENTER
 70
     0
  3
____ _ ____ _ ____ _ ____ _ ____ _ ____ _ ____ 
 72
    65
 73
     4
 40
2.0
 49
1.25
 49
-0.25
 49
0.25
 49
-0.25
  0
LTYPE
  2
HIDDEN
 70
     0
  3
__ __ __ __ __ __ __ __ __ __ __ __ __ __ __ __
 72
    65
 73
     2
 40
0.375
 49
0.25
 49
-0.125
  0
LTYPE
  2
PHANTOM
 70
     0
  3
______  __  __  ______  __  __  ______  __  __ 
 72
    65
 73
     6
 40
2.5
 49
1.25
 49
-0.25
 49
0.25
 49
-0.25
 49
0.25
 49
-0.25
  0
ENDTAB
  0
TABLE
  2
LAYER
 70
    15
  0
LAYER
  2
0
 70
     0
 62
     7
  6
CONTINUOUS
  0
LAYER
  2
CENTER
 70
     0
 62
     3
  6
CENTER
  0
LAYER
  2
HASEN
 70
     0
 62
     7
  6
HIDDEN
  0
LAYER
  2
MOJI
 70
     0
 62
     6
  6
CONTINUOUS
  0
LAYER
  2
SJC
 70
     0
 62
     1
  6
CONTINUOUS
  0
LAYER
  2
SUNPOU
 70
     0
 62
     4
  6
CONTINUOUS
  0
LAYER
  2
ZWAKU
 70
     1
 62
     7
  6
CONTINUOUS
  0
LAYER
  2
DEFPOINTS
 70
     0
 62
     7
  6
CONTINUOUS
  0
LAYER
  2
INFORMATION
 70
     1
 62
     7
  6
CONTINUOUS
  0
LAYER
  2
SJC2
 70
     0
 62
     7
  6
CONTINUOUS
  0
LAYER
  2
MOJI2
 70
     0
 62
     1
  6
CONTINUOUS
  0
LAYER
  2
HATCH
 70
     0
 62
     2
  6
CONTINUOUS
  0
LAYER
  2
KASOU
 70
     0
 62
     2
  6
PHANTOM
  0
LAYER
  2
WAKU
 70
     0
 62
     5
  6
CONTINUOUS
  0
LAYER
  2
HOJO
 70
     0
 62
     8
  6
CONTINUOUS
  0
ENDTAB
  0
TABLE
  2
STYLE
 70
     8
  0
STYLE
  2
STANDARD
 70
     0
 40
0.0
 41
1.0
 50
0.0
 71
     0
 42
3.0
  3
romans
  4
bigfont
  0
STYLE
  2
KANJI
 70
     0
 40
0.0
 41
1.0
 50
0.0
 71
     0
 42
0.0
  3
romans
  4
bigfont
  0
STYLE
  2
SIMPLEX
 70
     0
 40
0.0
 41
1.0
 50
0.0
 71
     0
 42
0.0
  3
scripts
  4

  0
STYLE
  2
TATEEXT
 70
     4
 40
0.0
 41
1.0
 50
0.0
 71
     0
 42
0.0
  3
ROMANS
  4
EXTFONT
  0
STYLE
  2
TATEBIG
 70
     4
 40
0.0
 41
5.0
 50
0.0
 71
     0
 42
0.0
  3
ROMANS
  4
BIGFONT
  0
STYLE
  2
EXT08
 70
     0
 40
0.0
 41
0.8
 50
0.0
 71
     0
 42
60.0
  3
ROMANS
  4
EXTFONT
  0
STYLE
  2
EXT
 70
     0
 40
0.0
 41
1.0
 50
0.0
 71
     0
 42
0.0
  3
ROMANS
  4
EXTFONT
  0
STYLE
  2
KANJI08
 70
     0
 40
0.0
 41
0.8
 50
0.0
 71
     0
 42
0.0
  3
ROMANS
  4
BIGFONT
  0
ENDTAB
  0
TABLE
  2
VIEW
 70
     0
  0
ENDTAB
  0
TABLE
  2
UCS
 70
     0
  0
ENDTAB
  0
TABLE
  2
APPID
 70
     6
  0
APPID
  2
ACAD
 70
     0
  0
APPID
  2
AVE_RENDER
 70
     0
  0
APPID
  2
CONTENTBLOCKICON
 70
     0
  0
APPID
  2
AME_SOL
 70
     0
  0
APPID
  2
ACAD_PSEXT
 70
     0
  0
APPID
  2
ACAD_DSTYLE_DIMTEXT_FILL
 70
     0
  0
ENDTAB
  0
TABLE
  2
DIMSTYLE
 70
     5
  0
DIMSTYLE
  2
SJC
 70
     0
  3

  4

  5

  6

  7

 40
1.0
 41
0.18
 42
0.0625
 43
0.38
 44
0.18
 45
0.0
 46
0.0
 47
0.0
 48
0.0
140
0.18
141
0.09
142
0.0
143
25.399999999999999
144
1.0
145
0.0
146
1.0
147
0.09
 71
     0
 72
     0
 73
     1
 74
     1
 75
     0
 76
     0
 77
     0
 78
     0
170
     0
171
     2
172
     0
173
     0
174
     0
175
     0
176
     0
177
     0
178
     0
  0
DIMSTYLE
  2
STANDARD
 70
     0
  3

  4

  5

  6

  7

 40
1.0
 41
0.18
 42
0.0625
 43
0.38
 44
0.18
 45
0.0
 46
0.0
 47
0.0
 48
0.0
140
0.18
141
0.09
142
0.0
143
25.399999999999999
144
1.0
145
0.0
146
1.0
147
0.09
 71
     0
 72
     0
 73
     1
 74
     1
 75
     0
 76
     0
 77
     0
 78
     0
170
     0
171
     2
172
     0
173
     0
174
     0
175
     0
176
     0
177
     0
178
     0
  0
DIMSTYLE
  2
RUISEKI1
 70
     0
  3

  4

  5

  6
DOT
  7

 40
20.0
 41
2.0
 42
1.0
 43
6.0
 44
30.0
 45
0.0
 46
0.0
 47
0.0
 48
0.0
140
0.18
141
0.09
142
0.0
143
25.399999999999999
144
1.0
145
0.0
146
1.0
147
1.5
 71
     0
 72
     0
 73
     1
 74
     1
 75
     0
 76
     0
 77
     1
 78
     0
170
     0
171
     2
172
     0
173
     1
174
     0
175
     0
176
     0
177
     0
178
     0
  0
DIMSTYLE
  2
RUISEKI2
 70
     0
  3

  4

  5

  6
NONE
  7

 40
20.0
 41
2.0
 42
1.0
 43
6.0
 44
30.0
 45
0.0
 46
0.0
 47
0.0
 48
0.0
140
0.18
141
0.09
142
0.0
143
25.399999999999999
144
1.0
145
0.0
146
1.0
147
1.5
 71
     0
 72
     0
 73
     1
 74
     1
 75
     0
 76
     0
 77
     1
 78
     0
170
     0
171
     2
172
     0
173
     1
174
     0
175
     0
176
     0
177
     0
178
     0
  0
DIMSTYLE
  2
ISO-25
 70
     0
  3

  4

  5

  6

  7

 40
1.0
 41
2.5
 42
0.625
 43
3.75
 44
1.25
 45
0.0
 46
0.0
 47
0.0
 48
0.0
140
2.5
141
2.5
142
0.0
143
0.03937007874016
144
1.0
145
0.0
146
1.0
147
0.625
 71
     0
 72
     0
 73
     0
 74
     0
 75
     0
 76
     0
 77
     1
 78
     8
170
     0
171
     3
172
     1
173
     0
174
     0
175
     0
176
     0
177
     0
178
     0
  0
ENDTAB
  0
ENDSEC
  0
SECTION
  2
BLOCKS
  0
BLOCK
  8
0
  2
$MODEL_SPACE
 70
     0
 10
0.0
 20
0.0
 30
0.0
  3
$MODEL_SPACE
  1

  0
ENDBLK
  5
134C
  8
0
  0
BLOCK
 67
     1
  8
0
  2
$PAPER_SPACE
 70
     0
 10
0.0
 20
0.0
 30
0.0
  3
$PAPER_SPACE
  1

  0
ENDBLK
  5
134A
 67
     1
  8
0
  0
BLOCK
  8
0
  2
*X0
 70
     1
 10
0.0
 20
0.0
 30
0.0
  3
*X0
  1

  0
LINE
  5
3CE0
  8
0
 62
     0
 10
5347.4543491389159
 20
3528.4443751121871
 30
0.0
 11
5352.2752562115647
 21
3534.1897084355801
 31
0.0
  0
LINE
  5
3CE1
  8
0
 62
     0
 10
5361.3294825272033
 20
3453.2251617332199
 30
0.0
 11
5366.1503895998521
 21
3458.970495056612
 31
0.0
  0
LINE
  5
3CE2
  8
0
 62
     0
 10
5361.3294841725819
 20
3453.2251629943949
 30
0.0
 11
5363.4485684188994
 21
3453.0397671457858
 31
0.0
  0
LINE
  5
3CE3
  8
0
 62
     0
 10
5347.4543508112811
 20
3528.4443763643958
 30
0.0
 11
5353.4315189998324
 21
3527.9214419079099
 31
0.0
  0
LINE
  5
3CE4
  8
0
 62
     0
 10
5366.2246180116927
 20
3458.5782589880919
 30
0.0
 11
5366.1530442238982
 21
3458.966273101616
 31
0.0
  0
LINE
  5
3CE5
  8
0
 62
     0
 10
5353.4342257889803
 20
3527.9172286411708
 30
0.0
 11
5352.2779696039033
 21
3534.1854971299031
 31
0.0
  0
LINE
  5
3CE6
  8
0
 62
     0
 10
5352.7672639815928
 20
3554.2321198293712
 30
0.0
 11
5360.5561135247126
 21
3562.3497748352588
 31
0.0
  0
LINE
  5
3CE7
  8
0
 62
     0
 10
5361.6636657121753
 20
3552.8488762731999
 30
0.0
 11
5360.5588472655318
 21
3562.3458572626719
 31
0.0
  0
LINE
  5
3CE8
  8
0
 62
     0
 10
5352.7672639153961
 20
3554.2321211674839
 30
0.0
 11
5361.6609393210956
 21
3552.8527960506021
 31
0.0
  0
LINE
  5
3CE9
  8
0
 62
     0
 10
5334.5613177344894
 20
3448.757680730831
 30
0.0
 11
5341.5631709332174
 21
3451.445440352421
 31
0.0
  0
LINE
  5
3CEA
  8
0
 62
     0
 10
5358.8928509073912
 20
3521.272685256441
 30
0.0
 11
5365.8947041061201
 21
3523.960444878031
 31
0.0
  0
LINE
  5
3CEB
  8
0
 62
     0
 10
5334.561319946386
 20
3448.7576800261982
 30
0.0
 11
5339.5355453817174
 21
3445.4025226053732
 31
0.0
  0
LINE
  5
3CEC
  8
0
 62
     0
 10
5358.8928531385454
 20
3521.272684530883
 30
0.0
 11
5363.867078573875
 21
3517.917527110058
 31
0.0
  0
LINE
  5
3CED
  8
0
 62
     0
 10
5339.5381803999508
 20
3445.3983483089469
 30
0.0
 11
5341.5658128196073
 21
3451.4412635808271
 31
0.0
  0
LINE
  5
3CEE
  8
0
 62
     0
 10
5363.869770135655
 20
3517.9133336572299
 30
0.0
 11
5365.8974025553107
 21
3523.9562489291102
 31
0.0
  0
LINE
  5
3CEF
  8
0
 62
     0
 10
5328.6732823124676
 20
3441.7082822879179
 30
0.0
 11
5328.6732823124676
 21
3441.7082822879179
 31
0.0
  0
LINE
  5
3CF0
  8
0
 62
     0
 10
5329.889267844198
 20
3474.9976676710489
 30
0.0
 11
5329.889267844198
 21
3474.9976676710489
 31
0.0
  0
LINE
  5
3CF1
  8
0
 62
     0
 10
5381.6159056311872
 20
3514.6889128424182
 30
0.0
 11
5381.6159056311872
 21
3514.6889128424182
 31
0.0
  0
LINE
  5
3CF2
  8
0
 62
     0
 10
5331.1052533759266
 20
3508.28705305418
 30
0.0
 11
5331.1052533759266
 21
3508.28705305418
 31
0.0
  0
LINE
  5
3CF3
  8
0
 62
     0
 10
5382.8318911629149
 20
3547.9782982255492
 30
0.0
 11
5382.8318911629149
 21
3547.9782982255492
 31
0.0
  0
LINE
  5
3CF4
  8
0
 62
     0
 10
5332.3212389076562
 20
3541.576438437311
 30
0.0
 11
5332.3212389076562
 21
3541.576438437311
 31
0.0
  0
LINE
  5
3CF5
  8
0
 62
     0
 10
5327.4572967807399
 20
3408.4188969047868
 30
0.0
 11
5327.4572967807399
 21
3408.4188969047868
 31
0.0
  0
LINE
  5
3CF6
  8
0
 62
     0
 10
5341.1261992247046
 20
3473.4628208972499
 30
0.0
 11
5341.1261992247046
 21
3473.4628208972499
 31
0.0
  0
LINE
  5
3CF7
  8
0
 62
     0
 10
5329.5599592644403
 20
3507.9178915426778
 30
0.0
 11
5329.5599592644403
 21
3507.9178915426778
 31
0.0
  0
LINE
  5
3CF8
  8
0
 62
     0
 10
5367.4331529689189
 20
3512.9039920854839
 30
0.0
 11
5367.4331529689189
 21
3512.9039920854839
 31
0.0
  0
LINE
  5
3CF9
  8
0
 62
     0
 10
5330.8329302589646
 20
3544.0632763773592
 30
0.0
 11
5330.8329302589646
 21
3544.0632763773592
 31
0.0
  0
LINE
  5
3CFA
  8
0
 62
     0
 10
5355.8669130086546
 20
3547.359062730915
 30
0.0
 11
5355.8669130086546
 21
3547.359062730915
 31
0.0
  0
LINE
  5
3CFB
  8
0
 62
     0
 10
5393.7401067131341
 20
3552.345163273721
 30
0.0
 11
5393.7401067131341
 21
3552.345163273721
 31
0.0
  0
LINE
  5
3CFC
  8
0
 62
     0
 10
5345.2571003855228
 20
3502.5890846408101
 30
0.0
 11
5345.2571003855228
 21
3502.5890846408101
 31
0.0
  0
LINE
  5
3CFD
  8
0
 62
     0
 10
5366.3418865308449
 20
3489.1565944321401
 30
0.0
 11
5366.3418865308449
 21
3489.1565944321401
 31
0.0
  0
LINE
  5
3CFE
  8
0
 62
     0
 10
5364.7305729783711
 20
3553.6886197578292
 30
0.0
 11
5364.7305729783711
 21
3553.6886197578292
 31
0.0
  0
LINE
  5
3CFF
  8
0
 62
     0
 10
5325.3619320697699
 20
3451.7581993279632
 30
0.0
 11
5325.3619320697699
 21
3451.7581993279632
 31
0.0
  0
LINE
  5
3D00
  8
0
 62
     0
 10
5326.9732456222428
 20
3387.2261740022718
 30
0.0
 11
5326.9732456222428
 21
3387.2261740022718
 31
0.0
  0
LINE
  5
3D01
  8
0
 62
     0
 10
5338.910160346747
 20
3453.5484620216189
 30
0.0
 11
5338.910160346747
 21
3453.5484620216189
 31
0.0
  0
LINE
  5
3D02
  8
0
 62
     0
 10
5343.0388930254412
 20
3513.2148405146008
 30
0.0
 11
5343.0388930254412
 21
3513.2148405146008
 31
0.0
  0
LINE
  5
3D03
  8
0
 62
     0
 10
5363.1665439129147
 20
3558.2209115023229
 30
0.0
 11
5363.1665439129147
 21
3558.2209115023229
 31
0.0
  0
ENDBLK
  5
3D04
  8
0
  0
BLOCK
  8
0
  2
_DOT
 70
     0
 10
0.0
 20
0.0
 30
0.0
  3
_DOT
  1

  0
POLYLINE
  5
55B7
  8
0
  6
BYBLOCK
 62
     0
 66
     1
 10
0.0
 20
0.0
 30
0.0
 70
     1
 40
0.5
 41
0.5
  0
VERTEX
  5
20DAD
  8
0
  6
BYBLOCK
 62
     0
 10
-0.25
 20
0.0
 30
0.0
 42
1.0
  0
VERTEX
  5
20DAE
  8
0
  6
BYBLOCK
 62
     0
 10
0.25
 20
0.0
 30
0.0
 42
1.0
  0
SEQEND
  5
20DAF
  8
0
  6
BYBLOCK
 62
     0
  0
LINE
  5
55B8
  8
0
  6
BYBLOCK
 62
     0
 10
-0.5
 20
0.0
 30
0.0
 11
-1.0
 21
0.0
 31
0.0
  0
ENDBLK
  5
55BA
  8
0
  0
BLOCK
  8
0
  2
_NONE
 70
     0
 10
0.0
 20
0.0
 30
0.0
  3
_NONE
  1

  0
ENDBLK
  5
55BD
  8
0
  0
BLOCK
  8
0
  2
B0030003
 70
     0
 10
0.0
 20
0.0
 30
0.0
  3
B0030003
  1

  0
LINE
  5
55BF
  8
SJC
 10
-3.0
 20
-0.4019237886468546
 30
0.0
 11
0.0
 21
0.4019237886463998
 31
0.0
  0
POLYLINE
  5
55C0
  8
SJC
 66
     1
 10
0.0
 20
0.0
 30
0.0
 70
     1
  0
VERTEX
  5
20DB0
  8
SJC
 10
-3.0
 20
10.75
 30
0.0
  0
VERTEX
  5
20DB1
  8
SJC
 10
-3.0
 20
-10.75
 30
0.0
  0
VERTEX
  5
20DB2
  8
SJC
 10
0.0
 20
-10.75
 30
0.0
  0
VERTEX
  5
20DB3
  8
SJC
 10
0.0
 20
10.75
 30
0.0
  0
SEQEND
  5
20DB4
  8
SJC
  0
ENDBLK
  5
55C2
  8
0
  0
BLOCK
  8
0
  2
B0030004
 70
     0
 10
0.0
 20
0.0
 30
0.0
  3
B0030004
  1

  0
LINE
  5
55C4
  8
SJC
 10
-9.1514942239682568
 20
-6.0000000000009086
 30
0.0
 11
0.0
 21
-5.9999999999995453
 31
0.0
  0
LINE
  5
55C5
  8
SJC
 10
-9.1514942239682568
 20
5.9999999999995453
 30
0.0
 11
0.0
 21
6.0000000000004539
 31
0.0
  0
POLYLINE
  5
55C6
  8
SJC
 66
     1
 10
0.0
 20
0.0
 30
0.0
  0
VERTEX
  5
20DB5
  8
SJC
 10
0.0
 20
10.96965511460257
 30
0.0
  0
VERTEX
  5
20DB6
  8
SJC
 10
-9.1514942239682568
 20
10.969655114602119
 30
0.0
  0
VERTEX
  5
20DB7
  8
SJC
 10
-10.0
 20
9.4999999999995453
 30
0.0
  0
VERTEX
  5
20DB8
  8
SJC
 10
-10.0
 20
-9.4999999999986358
 30
0.0
  0
VERTEX
  5
20DB9
  8
SJC
 10
-9.1514942239673474
 20
-10.96965511460257
 30
0.0
  0
VERTEX
  5
20DBA
  8
SJC
 10
0.0
 20
-10.96965511460257
 30
0.0
  0
VERTEX
  5
20DBB
  8
SJC
 10
0.0
 20
10.96965511460257
 30
0.0
  0
SEQEND
  5
20DBC
  8
SJC
  0
ARC
  5
55C7
  8
SJC
 10
-5.9373700001642638
 20
-8.4848275573003775
 30
0.0
 40
4.0626299998360036
 50
142.29252301195871
 51
180.0
  0
ARC
  5
55C8
  8
SJC
 10
-5.9373700001642638
 20
8.4848275573008323
 30
0.0
 40
4.0626299998360036
 50
180.0
 51
217.70747698804121
  0
ARC
  5
55C9
  8
SJC
 10
11.63801537314248
 20
-0.0000000000004547
 30
0.0
 40
21.638015373142689
 50
163.90148474634259
 51
196.09851525365511
  0
ENDBLK
  5
55CB
  8
0
  0
BLOCK
  8
0
  2
CALCOMP_TECHJET720A3
 70
     0
 10
0.0
 20
0.0
 30
0.0
  3
CALCOMP_TECHJET720A3
  1

  0
POLYLINE
  5
83D3
  8
ZWAKU
 66
     1
 10
0.0
 20
0.0
 30
0.0
 70
     1
  0
VERTEX
  5
20DD1
  8
ZWAKU
 10
0.0
 20
0.0
 30
0.0
  0
VERTEX
  5
20DD2
  8
ZWAKU
 10
0.0
 20
267.0
 30
0.0
  0
VERTEX
  5
20DD3
  8
ZWAKU
 10
370.0
 20
267.0
 30
0.0
  0
VERTEX
  5
20DD4
  8
ZWAKU
 10
370.0
 20
0.0
 30
0.0
  0
SEQEND
  5
20DD5
  8
ZWAKU
  0
ENDBLK
  5
83D5
  8
0
  0
BLOCK
  8
0
  2
*D6
 70
     1
 10
0.0
 20
0.0
 30
0.0
  3
*D6
  1

  0
LINE
  5
20EF6
  8
SUNPOU
 62
     0
 10
3597.8019857941558
 20
4443.7543537309457
 30
0.0
 11
3597.8019857941558
 21
4671.8810759642029
 31
0.0
  0
LINE
  5
20EF7
  8
SUNPOU
 62
     0
 10
3637.8019857941549
 20
4651.8810759642038
 30
0.0
 11
3839.1407464629042
 21
4651.8810759642038
 31
0.0
  0
SOLID
  5
20EF8
  8
SUNPOU
 62
     0
 10
3637.8019857941549
 20
4658.5477426308707
 30
0.0
 11
3637.8019857941549
 21
4645.2144092975359
 31
0.0
 12
3597.8019857941558
 22
4651.8810759642038
 32
0.0
 13
3597.8019857941558
 23
4651.8810759642038
 33
0.0
  0
TEXT
  8
SUNPOU
  40
60
  5
21072
  62
0
  72
0
  71
0
 10
3618.47
 20
4599.68
 30
0.000000
  1
3000
  7
EXT08
  0
POINT
  5
20EFA
  8
DEFPOINTS
 62
     0
 10
3597.8019857941558
 20
4423.7543537309466
 30
0.0
  0
POINT
  5
20EFB
  8
DEFPOINTS
 62
     0
 10
3839.1407464629042
 20
4416.7509391817803
 30
0.0
  0
POINT
  5
20EFC
  8
DEFPOINTS
 62
     0
 10
3839.1407464629042
 20
4651.8810759642038
 30
0.0
  0
ENDBLK
  5
1B4A9
  8
0
  0
BLOCK
  8
0
  2
*D7
 70
     1
 10
0.0
 20
0.0
 30
0.0
  3
*D7
  1

  0
LINE
  5
20DD6
  8
SUNPOU
 10
462.80233567335739
 20
4367.7543376377471
 30
0.0
 11
462.80233567335739
 21
4671.8810759642029
 31
0.0
  0
LINE
  5
20DD7
  8
SUNPOU
 10
597.80233567335745
 20
4443.7543537309457
 30
0.0
 11
597.80233567335745
 21
4671.8810759642029
 31
0.0
  0
LINE
  5
20DD8
  8
SUNPOU
 10
502.80233567335739
 20
4651.8810759642038
 30
0.0
 11
557.80233567335745
 21
4651.8810759642038
 31
0.0
  0
TEXT
  8
SUNPOU
  40
60
  5
21073
  72
0
  71
0
 10
421.152
 20
4614.25
 30
0.000000
  1
135
  7
EXT08
  0
SOLID
  5
20DDA
  8
SUNPOU
 10
502.80233567335739
 20
4658.5477426308707
 30
0.0
 11
502.80233567335739
 21
4645.2144092975359
 31
0.0
 12
462.80233567335739
 22
4651.8810759642038
 32
0.0
 13
462.80233567335739
 23
4651.8810759642038
 33
0.0
  0
SOLID
  5
20DDB
  8
SUNPOU
 10
557.80233567335745
 20
4658.5477426308707
 30
0.0
 11
557.80233567335745
 21
4645.2144092975359
 31
0.0
 12
597.80233567335745
 22
4651.8810759642038
 32
0.0
 13
597.80233567335745
 23
4651.8810759642038
 33
0.0
  0
POINT
  5
20DDC
  8
DEFPOINTS
 62
     0
 10
462.80233567335739
 20
4347.7543376377471
 30
0.0
  0
POINT
  5
20DDD
  8
DEFPOINTS
 62
     0
 10
597.80233567335745
 20
4423.7543537309466
 30
0.0
  0
POINT
  5
20DDE
  8
DEFPOINTS
 62
     0
 10
597.80233567335745
 20
4651.8810759642038
 30
0.0
  0
ENDBLK
  5
1B643
  8
0
  0
BLOCK
  8
0
  2
*D8
 70
     1
 10
0.0
 20
0.0
 30
0.0
  3
*D8
  1

  0
LINE
  5
20DDF
  8
SUNPOU
 62
     0
 10
577.80233567335745
 20
4408.7543537309457
 30
0.0
 11
341.26852505095741
 21
4408.7543537309457
 31
0.0
  0
LINE
  5
20DE0
  8
SUNPOU
 62
     0
 10
428.53951549978223
 20
4347.7543376377471
 30
0.0
 11
341.26852505095741
 21
4347.7543376377471
 31
0.0
  0
LINE
  5
20DE1
  8
SUNPOU
 62
     0
 10
361.26852505095741
 20
4448.7543537309457
 30
0.0
 11
361.26852505095752
 21
4488.7543537309457
 31
0.0
  0
LINE
  5
20DE2
  8
SUNPOU
 62
     0
 10
361.26852505095741
 20
4307.7543376377471
 30
0.0
 11
361.26852505095741
 21
4267.7543376377471
 31
0.0
  0
TEXT
  8
SUNPOU
  40
60
  5
21074
  62
0
  72
0
  71
0
 10
175.605
 20
4374.55
 30
0.000000
  1
61
  7
EXT08
  0
LINE
  5
20DE4
  8
SUNPOU
 62
     0
 10
361.26852505095741
 20
4408.7543537309457
 30
0.0
 11
361.26852505095741
 21
4347.7543376377471
 31
0.0
  0
SOLID
  5
20DE5
  8
SUNPOU
 62
     0
 10
354.60185838429072
 20
4448.7543537309457
 30
0.0
 11
367.93519171762409
 21
4448.7543537309457
 31
0.0
 12
361.26852505095741
 22
4408.7543537309457
 32
0.0
 13
361.26852505095741
 23
4408.7543537309457
 33
0.0
  0
SOLID
  5
20DE6
  8
SUNPOU
 62
     0
 10
354.60185838429072
 20
4307.7543376377471
 30
0.0
 11
367.93519171762409
 21
4307.7543376377471
 31
0.0
 12
361.26852505095741
 22
4347.7543376377471
 32
0.0
 13
361.26852505095741
 23
4347.7543376377471
 33
0.0
  0
POINT
  5
20DE7
  8
DEFPOINTS
 62
     0
 10
597.80233567335745
 20
4408.7543537309457
 30
0.0
  0
POINT
  5
20DE8
  8
DEFPOINTS
 62
     0
 10
448.53951549978228
 20
4347.7543376377471
 30
0.0
  0
POINT
  5
20DE9
  8
DEFPOINTS
 62
     0
 10
361.26852505095741
 20
4347.7543376377471
 30
0.0
  0
ENDBLK
  5
1B651
  8
0
  0
BLOCK
  8
0
  2
*D9
 70
     1
 10
0.0
 20
0.0
 30
0.0
  3
*D9
  1

  0
LINE
  5
20DEA
  8
SUNPOU
 62
     0
 10
432.80233567335739
 20
4347.7543376377471
 30
0.0
 11
341.26852505095673
 21
4347.7543376377471
 31
0.0
  0
LINE
  5
20DEB
  8
SUNPOU
 62
     0
 10
432.80233567335648
 20
3997.7543537309471
 30
0.0
 11
341.26852505095673
 21
3997.7543537309471
 31
0.0
  0
LINE
  5
20DEC
  8
SUNPOU
 62
     0
 10
361.26852505095673
 20
4307.7543376377471
 30
0.0
 11
361.26852505095673
 21
4037.7543537309461
 31
0.0
  0
SOLID
  5
20DED
  8
SUNPOU
 62
     0
 10
354.60185838428998
 20
4307.7543376377471
 30
0.0
 11
367.93519171762341
 21
4307.7543376377471
 31
0.0
 12
361.26852505095673
 22
4347.7543376377471
 32
0.0
 13
361.26852505095673
 23
4347.7543376377471
 33
0.0
  0
SOLID
  5
20DEE
  8
SUNPOU
 62
     0
 10
354.60185838428998
 20
4037.7543537309461
 30
0.0
 11
367.93519171762341
 21
4037.7543537309461
 31
0.0
 12
361.26852505095673
 22
3997.7543537309471
 32
0.0
 13
361.26852505095673
 23
3997.7543537309471
 33
0.0
  0
TEXT
  8
SUNPOU
  40
60
  5
21075
  62
0
  72
0
  71
0
 10
187.269
 20
4066.55
 30
0.000000
  1
350
  7
EXT08
  0
POINT
  5
20DF0
  8
DEFPOINTS
 62
     0
 10
452.80233567335739
 20
4347.7543376377471
 30
0.0
  0
POINT
  5
20DF1
  8
DEFPOINTS
 62
     0
 10
452.80233567335648
 20
3997.7543537309471
 30
0.0
  0
POINT
  5
20DF2
  8
DEFPOINTS
 62
     0
 10
361.26852505095673
 20
3997.7543537309471
 30
0.0
  0
ENDBLK
  5
1B65D
  8
0
  0
BLOCK
  8
0
  2
*D10
 70
     1
 10
0.0
 20
0.0
 30
0.0
  3
*D10
  1

  0
LINE
  5
20DF3
  8
SUNPOU
 10
432.80233567335648
 20
3997.7543537309471
 30
0.0
 11
341.26852505095678
 21
3997.7543537309471
 31
0.0
  0
LINE
  5
20DF4
  8
SUNPOU
 10
441.49578926651878
 20
3567.7543537309471
 30
0.0
 11
341.26852505095673
 21
3567.7543537309471
 31
0.0
  0
LINE
  5
20DF5
  8
SUNPOU
 10
361.26852505095673
 20
3957.7543537309471
 30
0.0
 11
361.26852505095673
 21
3607.7543537309471
 31
0.0
  0
SOLID
  5
20DF6
  8
SUNPOU
 10
354.60185838428998
 20
3957.7543537309471
 30
0.0
 11
367.93519171762341
 21
3957.7543537309471
 31
0.0
 12
361.26852505095678
 22
3997.7543537309471
 32
0.0
 13
361.26852505095678
 23
3997.7543537309471
 33
0.0
  0
SOLID
  5
20DF7
  8
SUNPOU
 10
354.60185838428998
 20
3607.7543537309471
 30
0.0
 11
367.93519171762341
 21
3607.7543537309471
 31
0.0
 12
361.26852505095673
 22
3567.7543537309471
 32
0.0
 13
361.26852505095673
 23
3567.7543537309471
 33
0.0
  0
TEXT
  8
SUNPOU
  40
60
  5
21076
  72
0
  71
0
 10
187.269
 20
3676.55
 30
0.000000
  1
430
  7
EXT08
  0
POINT
  5
20DF9
  8
DEFPOINTS
 62
     0
 10
452.80233567335648
 20
3997.7543537309471
 30
0.0
  0
POINT
  5
20DFA
  8
DEFPOINTS
 62
     0
 10
461.49578926651878
 20
3567.7543537309471
 30
0.0
  0
POINT
  5
20DFB
  8
DEFPOINTS
 62
     0
 10
361.26852505095673
 20
3567.7543537309471
 30
0.0
  0
ENDBLK
  5
1B669
  8
0
  0
BLOCK
  8
0
  2
*D11
 70
     1
 10
0.0
 20
0.0
 30
0.0
  3
*D11
  1

  0
LINE
  5
20DFC
  8
SUNPOU
 62
     0
 10
577.80233567335745
 20
4408.7543537309457
 30
0.0
 11
204.59853530013999
 21
4408.7543537309457
 31
0.0
  0
LINE
  5
20DFD
  8
SUNPOU
 62
     0
 10
441.49578926651878
 20
3567.7543537309471
 30
0.0
 11
204.59853530013979
 21
3567.7543537309471
 31
0.0
  0
LINE
  5
20DFE
  8
SUNPOU
 62
     0
 10
224.59853530013999
 20
4368.7543537309457
 30
0.0
 11
224.59853530013979
 21
3607.7543537309471
 31
0.0
  0
SOLID
  5
20DFF
  8
SUNPOU
 62
     0
 10
217.9318686334733
 20
4368.7543537309457
 30
0.0
 11
231.26520196680659
 21
4368.7543537309457
 31
0.0
 12
224.59853530013999
 22
4408.7543537309457
 32
0.0
 13
224.59853530013999
 23
4408.7543537309457
 33
0.0
  0
SOLID
  5
20E00
  8
SUNPOU
 62
     0
 10
217.9318686334731
 20
3607.7543537309471
 30
0.0
 11
231.26520196680639
 21
3607.7543537309471
 31
0.0
 12
224.59853530013979
 22
3567.7543537309471
 32
0.0
 13
224.59853530013979
 23
3567.7543537309471
 33
0.0
  0
TEXT
  8
SUNPOU
  40
60
  5
21077
  62
0
  72
0
  71
0
 10
50.5985
 20
3882.05
 30
0.000000
  1
841
  7
EXT08
  0
POINT
  5
20E02
  8
DEFPOINTS
 62
     0
 10
597.80233567335745
 20
4408.7543537309457
 30
0.0
  0
POINT
  5
20E03
  8
DEFPOINTS
 62
     0
 10
461.49578926651878
 20
3567.7543537309471
 30
0.0
  0
POINT
  5
20E04
  8
DEFPOINTS
 62
     0
 10
224.59853530013979
 20
3567.7543537309471
 30
0.0
  0
ENDBLK
  5
1B675
  8
0
  0
BLOCK
  8
0
  2
*D12
 70
     1
 10
0.0
 20
0.0
 30
0.0
  3
*D12
  1

  0
LINE
  5
20E05
  8
SUNPOU
 10
3859.1407464629051
 20
4369.1044349757503
 30
0.0
 11
4011.8769462040618
 21
4369.1044349757503
 31
0.0
  0
LINE
  5
20E06
  8
SUNPOU
 10
3859.1407464629051
 20
3567.7543537309471
 30
0.0
 11
4011.8769462040618
 21
3567.7543537309471
 31
0.0
  0
LINE
  5
20E07
  8
SUNPOU
 10
3991.8769462040632
 20
4329.1044349757503
 30
0.0
 11
3991.8769462040632
 21
3607.7543537309471
 31
0.0
  0
SOLID
  5
20E08
  8
SUNPOU
 10
3985.2102795373971
 20
4329.1044349757503
 30
0.0
 11
3998.5436128707288
 21
4329.1044349757503
 31
0.0
 12
3991.8769462040632
 22
4369.1044349757503
 32
0.0
 13
3991.8769462040632
 23
4369.1044349757503
 33
0.0
  0
SOLID
  5
20E09
  8
SUNPOU
 10
3985.2102795373971
 20
3607.7543537309471
 30
0.0
 11
3998.5436128707288
 21
3607.7543537309471
 31
0.0
 12
3991.8769462040632
 22
3567.7543537309471
 32
0.0
 13
3991.8769462040632
 23
3567.7543537309471
 33
0.0
  0
TEXT
  8
SUNPOU
  40
60
  5
21078
  72
0
  71
0
 10
3817.88
 20
3862.23
 30
0.000000
  1
800
  7
EXT08
  0
POINT
  5
20E0B
  8
DEFPOINTS
 62
     0
 10
3839.1407464629051
 20
4369.1044349757503
 30
0.0
  0
POINT
  5
20E0C
  8
DEFPOINTS
 62
     0
 10
3839.1407464629051
 20
3567.7543537309471
 30
0.0
  0
POINT
  5
20E0D
  8
DEFPOINTS
 62
     0
 10
3991.8769462040632
 20
3567.7543537309471
 30
0.0
  0
ENDBLK
  5
1B68D
  8
0
  0
BLOCK
  8
0
  2
*D13
 70
     1
 10
0.0
 20
0.0
 30
0.0
  3
*D13
  1

  0
LINE
  5
20E0E
  8
SUNPOU
 10
597.80233567335745
 20
4443.7543537309457
 30
0.0
 11
597.80233567335745
 21
4671.8810759642029
 31
0.0
  0
LINE
  5
20E0F
  8
SUNPOU
 10
3597.8019857941558
 20
4443.7543537309457
 30
0.0
 11
3597.8019857941558
 21
4671.8810759642029
 31
0.0
  0
LINE
  5
20E10
  8
SUNPOU
 10
637.80233567335745
 20
4651.8810759642038
 30
0.0
 11
3557.8019857941558
 21
4651.8810759642038
 31
0.0
  0
SOLID
  5
20E11
  8
SUNPOU
 10
637.80233567335745
 20
4658.5477426308707
 30
0.0
 11
637.80233567335745
 21
4645.2144092975359
 31
0.0
 12
597.80233567335745
 22
4651.8810759642038
 32
0.0
 13
597.80233567335745
 23
4651.8810759642038
 33
0.0
  0
SOLID
  5
20E12
  8
SUNPOU
 10
3557.8019857941558
 20
4658.5477426308707
 30
0.0
 11
3557.8019857941558
 21
4645.2144092975359
 31
0.0
 12
3597.8019857941558
 22
4651.8810759642038
 32
0.0
 13
3597.8019857941558
 23
4651.8810759642038
 33
0.0
  0
TEXT
  8
SUNPOU
  40
60
  5
21079
  72
0
  71
0
 10
1977.80
 20
4599.68
 30
0.000000
  1
3000
  7
EXT08
  0
POINT
  5
20E14
  8
DEFPOINTS
 62
     0
 10
597.80233567335745
 20
4423.7543537309466
 30
0.0
  0
POINT
  5
20E15
  8
DEFPOINTS
 62
     0
 10
3597.8019857941558
 20
4423.7543537309466
 30
0.0
  0
POINT
  5
20E16
  8
DEFPOINTS
 62
     0
 10
3597.8019857941558
 20
4651.8810759642038
 30
0.0
  0
ENDBLK
  5
1B699
  8
0
  0
BLOCK
  8
0
  2
*D14
 70
     1
 10
0.0
 20
0.0
 30
0.0
  3
*D14
  1

  0
LINE
  5
20E17
  8
SUNPOU
 10
4699.849108281438
 20
3167.7543596913488
 30
0.0
 11
4864.5218357055583
 21
3167.7543596913488
 31
0.0
  0
LINE
  5
20E18
  8
SUNPOU
 10
4749.4789274567056
 20
3567.7543537309471
 30
0.0
 11
4864.5218357055583
 21
3567.7543537309471
 31
0.0
  0
LINE
  5
20E19
  8
SUNPOU
 10
4844.5218357055583
 20
3207.7543596913501
 30
0.0
 11
4844.5218357055583
 21
3527.7543537309471
 31
0.0
  0
SOLID
  5
20E1A
  8
SUNPOU
 10
4837.8551690388922
 20
3207.7543596913501
 30
0.0
 11
4851.1885023722252
 21
3207.7543596913501
 31
0.0
 12
4844.5218357055583
 22
3167.7543596913488
 32
0.0
 13
4844.5218357055583
 23
3167.7543596913488
 33
0.0
  0
SOLID
  5
20E1B
  8
SUNPOU
 10
4837.8551690388922
 20
3527.7543537309471
 30
0.0
 11
4851.1885023722252
 21
3527.7543537309471
 31
0.0
 12
4844.5218357055583
 22
3567.7543537309471
 32
0.0
 13
4844.5218357055583
 23
3567.7543537309471
 33
0.0
  0
TEXT
  8
SUNPOU
  40
60
  5
2107A
  72
0
  71
0
 10
4670.52
 20
3261.55
 30
0.000000
  1
400
  7
EXT08
  0
POINT
  5
20E1D
  8
DEFPOINTS
 62
     0
 10
4679.8491082814371
 20
3167.7543596913488
 30
0.0
  0
POINT
  5
20E1E
  8
DEFPOINTS
 62
     0
 10
4729.4789274567056
 20
3567.7543537309471
 30
0.0
  0
POINT
  5
20E1F
  8
DEFPOINTS
 62
     0
 10
4844.5218357055583
 20
3567.7543537309471
 30
0.0
  0
ENDBLK
  5
1B6A5
  8
0
  0
BLOCK
  8
0
  2
*D15
 70
     1
 10
0.0
 20
0.0
 30
0.0
  3
*D15
  1

  0
LINE
  5
20E20
  8
SUNPOU
 10
4749.4789274567056
 20
3567.7543537309471
 30
0.0
 11
4864.5218357055583
 21
3567.7543537309471
 31
0.0
  0
LINE
  5
20E21
  8
SUNPOU
 10
4549.849108281438
 20
4408.7543537309457
 30
0.0
 11
4864.5218357055583
 21
4408.7543537309457
 31
0.0
  0
LINE
  5
20E22
  8
SUNPOU
 10
4844.5218357055583
 20
3607.7543537309471
 30
0.0
 11
4844.5218357055583
 21
4368.7543537309457
 31
0.0
  0
SOLID
  5
20E23
  8
SUNPOU
 10
4837.8551690388922
 20
3607.7543537309471
 30
0.0
 11
4851.1885023722252
 21
3607.7543537309471
 31
0.0
 12
4844.5218357055583
 22
3567.7543537309471
 32
0.0
 13
4844.5218357055583
 23
3567.7543537309471
 33
0.0
  0
SOLID
  5
20E24
  8
SUNPOU
 10
4837.8551690388922
 20
4368.7543537309457
 30
0.0
 11
4851.1885023722252
 21
4368.7543537309457
 31
0.0
 12
4844.5218357055583
 22
4408.7543537309457
 32
0.0
 13
4844.5218357055583
 23
4408.7543537309457
 33
0.0
  0
TEXT
  8
SUNPOU
  40
60
  5
2107B
  72
0
  71
0
 10
4670.52
 20
3882.05
 30
0.000000
  1
841
  7
EXT08
  0
POINT
  5
20E26
  8
DEFPOINTS
 62
     0
 10
4729.4789274567056
 20
3567.7543537309471
 30
0.0
  0
POINT
  5
20E27
  8
DEFPOINTS
 62
     0
 10
4529.849108281438
 20
4408.7543537309457
 30
0.0
  0
POINT
  5
20E28
  8
DEFPOINTS
 62
     0
 10
4844.5218357055583
 20
4408.7543537309457
 30
0.0
  0
ENDBLK
  5
1B6B1
  8
0
  0
BLOCK
  8
0
  2
*D16
 70
     1
 10
0.0
 20
0.0
 30
0.0
  3
*D16
  1

  0
LINE
  5
20E29
  8
SUNPOU
 10
4549.849108281438
 20
4408.7543537309457
 30
0.0
 11
4996.3497530219056
 21
4408.7543537309457
 31
0.0
  0
LINE
  5
20E2A
  8
SUNPOU
 10
4699.849108281438
 20
3167.7543596913488
 30
0.0
 11
4996.3497530219056
 21
3167.7543596913488
 31
0.0
  0
LINE
  5
20E2B
  8
SUNPOU
 10
4976.3497530219056
 20
4368.7543537309457
 30
0.0
 11
4976.3497530219056
 21
3207.7543596913501
 31
0.0
  0
SOLID
  5
20E2C
  8
SUNPOU
 10
4969.6830863552404
 20
4368.7543537309457
 30
0.0
 11
4983.0164196885726
 21
4368.7543537309457
 31
0.0
 12
4976.3497530219056
 22
4408.7543537309457
 32
0.0
 13
4976.3497530219056
 23
4408.7543537309457
 33
0.0
  0
SOLID
  5
20E2D
  8
SUNPOU
 10
4969.6830863552404
 20
3207.7543596913501
 30
0.0
 11
4983.0164196885726
 21
3207.7543596913501
 31
0.0
 12
4976.3497530219056
 22
3167.7543596913488
 32
0.0
 13
4976.3497530219056
 23
3167.7543596913488
 33
0.0
  0
TEXT
  8
SUNPOU
  40
60
  5
2107C
  72
0
  71
0
 10
4802.35
 20
3682.05
 30
0.000000
  1
1241
  7
EXT08
  0
POINT
  5
20E2F
  8
DEFPOINTS
 62
     0
 10
4529.849108281438
 20
4408.7543537309457
 30
0.0
  0
POINT
  5
20E30
  8
DEFPOINTS
 62
     0
 10
4679.8491082814371
 20
3167.7543596913488
 30
0.0
  0
POINT
  5
20E31
  8
DEFPOINTS
 62
     0
 10
4976.3497530219056
 20
3167.7543596913488
 30
0.0
  0
ENDBLK
  5
1B6BD
  8
0
  0
BLOCK
  8
0
  2
*D17
 70
     1
 10
0.0
 20
0.0
 30
0.0
  3
*D17
  1

  0
LINE
  5
20E32
  8
SUNPOU
 10
5501.6386799075417
 20
3567.7543537309471
 30
0.0
 11
5621.6686766888051
 21
3567.7543537309471
 31
0.0
  0
LINE
  5
20E33
  8
SUNPOU
 10
5357.2091660508804
 20
4408.7543537309457
 30
0.0
 11
5621.6686766888051
 21
4408.7543537309457
 31
0.0
  0
LINE
  5
20E34
  8
SUNPOU
 10
5601.6686766888051
 20
3607.7543537309471
 30
0.0
 11
5601.6686766888051
 21
4368.7543537309457
 31
0.0
  0
SOLID
  5
20E35
  8
SUNPOU
 10
5595.0020100221382
 20
3607.7543537309471
 30
0.0
 11
5608.3353433554721
 21
3607.7543537309471
 31
0.0
 12
5601.6686766888051
 22
3567.7543537309471
 32
0.0
 13
5601.6686766888051
 23
3567.7543537309471
 33
0.0
  0
SOLID
  5
20E36
  8
SUNPOU
 10
5595.0020100221382
 20
4368.7543537309457
 30
0.0
 11
5608.3353433554721
 21
4368.7543537309457
 31
0.0
 12
5601.6686766888051
 22
4408.7543537309457
 32
0.0
 13
5601.6686766888051
 23
4408.7543537309457
 33
0.0
  0
TEXT
  8
SUNPOU
  40
60
  5
2107D
  72
0
  71
0
 10
5427.67
 20
3882.05
 30
0.000000
  1
841
  7
EXT08
  0
POINT
  5
20E38
  8
DEFPOINTS
 62
     0
 10
5481.6386799075417
 20
3567.7543537309471
 30
0.0
  0
POINT
  5
20E39
  8
DEFPOINTS
 62
     0
 10
5337.2091660508813
 20
4408.7543537309457
 30
0.0
  0
POINT
  5
20E3A
  8
DEFPOINTS
 62
     0
 10
5601.6686766888051
 20
4408.7543537309457
 30
0.0
  0
ENDBLK
  5
1B6C9
  8
0
  0
BLOCK
  8
0
  2
*D18
 70
     1
 10
0.0
 20
0.0
 30
0.0
  3
*D18
  1

  0
LINE
  5
20E3B
  8
SUNPOU
 10
5357.2091660508804
 20
4408.7543537309457
 30
0.0
 11
5753.9482399225271
 21
4408.7543537309457
 31
0.0
  0
LINE
  5
20E3C
  8
SUNPOU
 10
5387.4594097404788
 20
3367.7543567113462
 30
0.0
 11
5753.9482399225271
 21
3367.7543567113462
 31
0.0
  0
LINE
  5
20E3D
  8
SUNPOU
 10
5733.9482399225271
 20
4368.7543537309457
 30
0.0
 11
5733.9482399225271
 21
3407.7543567113471
 31
0.0
  0
SOLID
  5
20E3E
  8
SUNPOU
 10
5727.2815732558611
 20
4368.7543537309457
 30
0.0
 11
5740.6149065891941
 21
4368.7543537309457
 31
0.0
 12
5733.9482399225271
 22
4408.7543537309457
 32
0.0
 13
5733.9482399225271
 23
4408.7543537309457
 33
0.0
  0
SOLID
  5
20E3F
  8
SUNPOU
 10
5727.2815732558611
 20
3407.7543567113471
 30
0.0
 11
5740.6149065891941
 21
3407.7543567113471
 31
0.0
 12
5733.9482399225271
 22
3367.7543567113462
 32
0.0
 13
5733.9482399225271
 23
3367.7543567113462
 33
0.0
  0
TEXT
  8
SUNPOU
  40
60
  5
2107E
  72
0
  71
0
 10
5559.95
 20
3782.05
 30
0.000000
  1
1041
  7
EXT08
  0
POINT
  5
20E41
  8
DEFPOINTS
 62
     0
 10
5337.2091660508813
 20
4408.7543537309457
 30
0.0
  0
POINT
  5
20E42
  8
DEFPOINTS
 62
     0
 10
5367.4594097404788
 20
3367.7543567113462
 30
0.0
  0
POINT
  5
20E43
  8
DEFPOINTS
 62
     0
 10
5733.9482399225271
 20
3367.7543567113462
 30
0.0
  0
ENDBLK
  5
1B6D5
  8
0
  0
BLOCK
  8
0
  2
*D19
 70
     1
 10
0.0
 20
0.0
 30
0.0
  3
*D19
  1

  0
LINE
  5
20E44
  8
SUNPOU
 10
6134.7381302984813
 20
3070.1258821425472
 30
0.0
 11
6358.8977254976053
 21
3070.1258821425472
 31
0.0
  0
LINE
  5
20E45
  8
SUNPOU
 10
6278.8698571795321
 20
3567.7543537309471
 30
0.0
 11
6358.8977254976053
 21
3567.7543537309471
 31
0.0
  0
LINE
  5
20E46
  8
SUNPOU
 10
6338.8977254976062
 20
3110.1258821425472
 30
0.0
 11
6338.8977254976062
 21
3527.7543537309471
 31
0.0
  0
SOLID
  5
20E47
  8
SUNPOU
 10
6332.2310588309383
 20
3110.1258821425472
 30
0.0
 11
6345.5643921642732
 21
3110.1258821425472
 31
0.0
 12
6338.8977254976062
 22
3070.1258821425472
 32
0.0
 13
6338.8977254976062
 23
3070.1258821425472
 33
0.0
  0
SOLID
  5
20E48
  8
SUNPOU
 10
6332.2310588309383
 20
3527.7543537309471
 30
0.0
 11
6345.5643921642732
 21
3527.7543537309471
 31
0.0
 12
6338.8977254976062
 22
3567.7543537309471
 32
0.0
 13
6338.8977254976062
 23
3567.7543537309471
 33
0.0
  0
TEXT
  8
SUNPOU
  40
60
  5
2107F
  72
0
  71
0
 10
6164.90
 20
3212.74
 30
0.000000
  1
1000
  7
EXT08
  0
POINT
  5
20E4A
  8
DEFPOINTS
 62
     0
 10
6114.7381302984813
 20
3070.1258821425472
 30
0.0
  0
POINT
  5
20E4B
  8
DEFPOINTS
 62
     0
 10
6258.8698571795321
 20
3567.7543537309471
 30
0.0
  0
POINT
  5
20E4C
  8
DEFPOINTS
 62
     0
 10
6338.8977254976062
 20
3567.7543537309471
 30
0.0
  0
ENDBLK
  5
1B6E1
  8
0
  0
BLOCK
  8
0
  2
*D20
 70
     1
 10
0.0
 20
0.0
 30
0.0
  3
*D20
  1

  0
LINE
  5
20E4D
  8
SUNPOU
 10
6134.7381302984813
 20
4408.7543537309457
 30
0.0
 11
6358.8977254976053
 21
4408.7543537309448
 31
0.0
  0
LINE
  5
20E4E
  8
SUNPOU
 10
6278.8698571795321
 20
3567.7543537309471
 30
0.0
 11
6358.8977254976053
 21
3567.7543537309471
 31
0.0
  0
LINE
  5
20E4F
  8
SUNPOU
 10
6338.8977254976062
 20
4368.7543537309448
 30
0.0
 11
6338.8977254976062
 21
3607.7543537309471
 31
0.0
  0
SOLID
  5
20E50
  8
SUNPOU
 10
6332.2310588309383
 20
4368.7543537309448
 30
0.0
 11
6345.5643921642732
 21
4368.7543537309448
 31
0.0
 12
6338.8977254976062
 22
4408.7543537309448
 32
0.0
 13
6338.8977254976062
 23
4408.7543537309448
 33
0.0
  0
SOLID
  5
20E51
  8
SUNPOU
 10
6332.2310588309383
 20
3607.7543537309471
 30
0.0
 11
6345.5643921642732
 21
3607.7543537309471
 31
0.0
 12
6338.8977254976062
 22
3567.7543537309471
 32
0.0
 13
6338.8977254976062
 23
3567.7543537309471
 33
0.0
  0
TEXT
  8
SUNPOU
  40
60
  5
21080
  72
0
  71
0
 10
6164.90
 20
3882.05
 30
0.000000
  1
841
  7
EXT08
  0
POINT
  5
20E53
  8
DEFPOINTS
 62
     0
 10
6114.7381302984813
 20
4408.7543537309457
 30
0.0
  0
POINT
  5
20E54
  8
DEFPOINTS
 62
     0
 10
6258.8698571795321
 20
3567.7543537309471
 30
0.0
  0
POINT
  5
20E55
  8
DEFPOINTS
 62
     0
 10
6338.8977254976062
 20
3567.7543537309471
 30
0.0
  0
ENDBLK
  5
1B6ED
  8
0
  0
BLOCK
  8
0
  2
*D21
 70
     1
 10
0.0
 20
0.0
 30
0.0
  3
*D21
  1

  0
LINE
  5
20E56
  8
SUNPOU
 10
6134.7381302984813
 20
4408.7543537309457
 30
0.0
 11
6491.1772887313282
 21
4408.7543537309448
 31
0.0
  0
LINE
  5
20E57
  8
SUNPOU
 10
6154.7381302984822
 20
3070.1258821425472
 30
0.0
 11
6491.1772887313282
 21
3070.1258821425472
 31
0.0
  0
LINE
  5
20E58
  8
SUNPOU
 10
6471.1772887313291
 20
4368.7543537309448
 30
0.0
 11
6471.1772887313291
 21
3110.1258821425472
 31
0.0
  0
SOLID
  5
20E59
  8
SUNPOU
 10
6464.5106220646612
 20
4368.7543537309448
 30
0.0
 11
6477.8439553979952
 21
4368.7543537309448
 31
0.0
 12
6471.1772887313291
 22
4408.7543537309448
 32
0.0
 13
6471.1772887313291
 23
4408.7543537309448
 33
0.0
  0
SOLID
  5
20E5A
  8
SUNPOU
 10
6464.5106220646612
 20
3110.1258821425472
 30
0.0
 11
6477.8439553979952
 21
3110.1258821425472
 31
0.0
 12
6471.1772887313291
 22
3070.1258821425472
 32
0.0
 13
6471.1772887313291
 23
3070.1258821425472
 33
0.0
  0
TEXT
  8
SUNPOU
  40
60
  5
21081
  72
0
  71
0
 10
6297.18
 20
3633.24
 30
0.000000
  1
1841
  7
EXT08
  0
POINT
  5
20E5C
  8
DEFPOINTS
 62
     0
 10
6114.7381302984813
 20
4408.7543537309457
 30
0.0
  0
POINT
  5
20E5D
  8
DEFPOINTS
 62
     0
 10
6134.7381302984813
 20
3070.1258821425472
 30
0.0
  0
POINT
  5
20E5E
  8
DEFPOINTS
 62
     0
 10
6471.1772887313291
 20
3070.1258821425472
 30
0.0
  0
ENDBLK
  5
1B6F9
  8
0
  0
BLOCK
  8
0
  2
*D22
 70
     1
 10
0.0
 20
0.0
 30
0.0
  3
*D22
  1

  0
LINE
  5
20E5F
  8
SUNPOU
 10
7048.695710968027
 20
3567.7541097244471
 30
0.0
 11
7212.3862620467344
 21
3567.7541097244471
 31
0.0
  0
LINE
  5
20E60
  8
SUNPOU
 10
6921.6656594192182
 20
4408.7541097244466
 30
0.0
 11
7212.3862620467344
 21
4408.7541097244466
 31
0.0
  0
LINE
  5
20E61
  8
SUNPOU
 10
7192.3862620467326
 20
3607.7541097244462
 30
0.0
 11
7192.3862620467326
 21
4368.7541097244466
 31
0.0
  0
SOLID
  5
20E62
  8
SUNPOU
 10
7185.7195953800674
 20
3607.7541097244462
 30
0.0
 11
7199.0529287134013
 21
3607.7541097244462
 31
0.0
 12
7192.3862620467326
 22
3567.7541097244471
 32
0.0
 13
7192.3862620467326
 23
3567.7541097244471
 33
0.0
  0
SOLID
  5
20E63
  8
SUNPOU
 10
7185.7195953800674
 20
4368.7541097244466
 30
0.0
 11
7199.0529287134013
 21
4368.7541097244466
 31
0.0
 12
7192.3862620467326
 22
4408.7541097244466
 32
0.0
 13
7192.3862620467326
 23
4408.7541097244466
 33
0.0
  0
TEXT
  8
SUNPOU
  40
60
  5
21082
  72
0
  71
0
 10
7018.39
 20
3882.05
 30
0.000000
  1
841
  7
EXT08
  0
POINT
  5
20E65
  8
DEFPOINTS
 62
     0
 10
7028.695710968027
 20
3567.7541097244471
 30
0.0
  0
POINT
  5
20E66
  8
DEFPOINTS
 62
     0
 10
6901.66565941922
 20
4408.7541097244466
 30
0.0
  0
POINT
  5
20E67
  8
DEFPOINTS
 62
     0
 10
7192.3862620467326
 20
4408.7541097244466
 30
0.0
  0
ENDBLK
  5
1B705
  8
0
  0
BLOCK
  8
0
  2
*D23
 70
     1
 10
0.0
 20
0.0
 30
0.0
  3
*D23
  1

  0
LINE
  5
20E68
  8
SUNPOU
 10
5397.2091660508804
 20
3367.7543567113462
 30
0.0
 11
5621.6686766888051
 21
3367.7543567113462
 31
0.0
  0
LINE
  5
20E69
  8
SUNPOU
 10
5501.6386799075417
 20
3567.7543537309471
 30
0.0
 11
5621.6686766888051
 21
3567.7543537309471
 31
0.0
  0
LINE
  5
20E6A
  8
SUNPOU
 10
5601.6686766888051
 20
3407.7543567113471
 30
0.0
 11
5601.6686766888051
 21
3527.7543537309471
 31
0.0
  0
SOLID
  5
20E6B
  8
SUNPOU
 10
5595.0020100221382
 20
3407.7543567113471
 30
0.0
 11
5608.3353433554721
 21
3407.7543567113471
 31
0.0
 12
5601.6686766888051
 22
3367.7543567113462
 32
0.0
 13
5601.6686766888051
 23
3367.7543567113462
 33
0.0
  0
SOLID
  5
20E6C
  8
SUNPOU
 10
5595.0020100221382
 20
3527.7543537309471
 30
0.0
 11
5608.3353433554721
 21
3527.7543537309471
 31
0.0
 12
5601.6686766888051
 22
3567.7543537309471
 32
0.0
 13
5601.6686766888051
 23
3567.7543537309471
 33
0.0
  0
TEXT
  8
SUNPOU
  40
60
  5
21083
  72
0
  71
0
 10
5427.67
 20
3361.55
 30
0.000000
  1
200
  7
EXT08
  0
POINT
  5
20E6E
  8
DEFPOINTS
 62
     0
 10
5377.2091660508813
 20
3367.7543567113462
 30
0.0
  0
POINT
  5
20E6F
  8
DEFPOINTS
 62
     0
 10
5481.6386799075417
 20
3567.7543537309471
 30
0.0
  0
POINT
  5
20E70
  8
DEFPOINTS
 62
     0
 10
5601.6686766888051
 20
3567.7543537309471
 30
0.0
  0
ENDBLK
  5
1B711
  8
0
  0
BLOCK
  8
0
  2
*D24
 70
     1
 10
0.0
 20
0.0
 30
0.0
  3
*D24
  1

  0
LINE
  5
20E71
  8
SUNPOU
 10
4379.8491082814389
 20
3147.7543596913488
 30
0.0
 11
4379.8491082814389
 21
3018.0780045675492
 31
0.0
  0
LINE
  5
20E72
  8
SUNPOU
 10
4679.8491082814371
 20
3147.7543596913488
 30
0.0
 11
4679.8491082814371
 21
3018.0780045675492
 31
0.0
  0
LINE
  5
20E73
  8
SUNPOU
 10
4419.8491082814389
 20
3038.0780045675492
 30
0.0
 11
4639.8491082814371
 21
3038.0780045675492
 31
0.0
  0
TEXT
  8
SUNPOU
  40
60
  5
21084
  72
0
  71
0
 10
4408.07
 20
2986.56
 30
0.000000
  1
□300
  7
EXT08
  0
SOLID
  5
20E75
  8
SUNPOU
 10
4419.8491082814389
 20
3044.7446712342162
 30
0.0
 11
4419.8491082814389
 21
3031.4113379008832
 31
0.0
 12
4379.8491082814389
 22
3038.0780045675492
 32
0.0
 13
4379.8491082814389
 23
3038.0780045675492
 33
0.0
  0
SOLID
  5
20E76
  8
SUNPOU
 10
4639.8491082814371
 20
3044.7446712342162
 30
0.0
 11
4639.8491082814371
 21
3031.4113379008832
 31
0.0
 12
4679.8491082814371
 22
3038.0780045675492
 32
0.0
 13
4679.8491082814371
 23
3038.0780045675492
 33
0.0
  0
POINT
  5
20E77
  8
DEFPOINTS
 62
     0
 10
4379.8491082814389
 20
3167.7543596913488
 30
0.0
  0
POINT
  5
20E78
  8
DEFPOINTS
 62
     0
 10
4679.8491082814371
 20
3167.7543596913488
 30
0.0
  0
POINT
  5
20E79
  8
DEFPOINTS
 62
     0
 10
4679.8491082814371
 20
3038.0780045675492
 30
0.0
  0
ENDBLK
  5
1B71D
  8
0
  0
BLOCK
  8
0
  2
*D25
 70
     1
 10
0.0
 20
0.0
 30
0.0
  3
*D25
  1

  0
LINE
  5
20CBB
  8
SUNPOU
 10
6679.3206917312173
 20
3567.7543537309471
 30
0.0
 11
6641.4468430065544
 21
3567.7543537309471
 31
0.0
  0
LINE
  5
20CBC
  8
SUNPOU
 10
6811.664439759219
 20
4369.7543377869479
 30
0.0
 11
6641.4468430065544
 21
4369.7543377869479
 31
0.0
  0
LINE
  5
20CBD
  8
SUNPOU
 10
6661.4468430065544
 20
3607.7543537309471
 30
0.0
 11
6661.4468430065544
 21
4329.7543377869479
 31
0.0
  0
SOLID
  5
20CBE
  8
SUNPOU
 10
6654.7801763398866
 20
3607.7543537309471
 30
0.0
 11
6668.1135096732196
 21
3607.7543537309471
 31
0.0
 12
6661.4468430065544
 22
3567.7543537309471
 32
0.0
 13
6661.4468430065544
 23
3567.7543537309471
 33
0.0
  0
SOLID
  5
20CBF
  8
SUNPOU
 10
6654.7801763398866
 20
4329.7543377869479
 30
0.0
 11
6668.1135096732196
 21
4329.7543377869479
 31
0.0
 12
6661.4468430065544
 22
4369.7543377869479
 32
0.0
 13
6661.4468430065544
 23
4369.7543377869479
 33
0.0
  0
INSERT
  5
20CC0
  8
0
  2
*U60
 10
0.0
 20
0.0
 30
0.0
  0
POINT
  5
20CC1
  8
DEFPOINTS
 62
     0
 10
6699.3206917312182
 20
3567.7543537309471
 30
0.0
  0
POINT
  5
20CC2
  8
DEFPOINTS
 62
     0
 10
6831.664439759219
 20
4369.7543377869479
 30
0.0
  0
POINT
  5
20CC3
  8
DEFPOINTS
 62
     0
 10
6661.4468430065544
 20
4369.7543377869479
 30
0.0
  0
ENDBLK
  5
1B729
  8
0
  0
BLOCK
  8
0
  2
*D26
 70
     1
 10
0.0
 20
0.0
 30
0.0
  3
*D26
  1

  0
LINE
  5
20CC4
  8
SUNPOU
 10
5902.9501863553996
 20
3567.7543537309471
 30
0.0
 11
5865.076337630735
 21
3567.7543537309471
 31
0.0
  0
LINE
  5
20CC5
  8
SUNPOU
 10
6035.2939343834014
 20
4369.7543377869479
 30
0.0
 11
5865.076337630735
 21
4369.7543377869479
 31
0.0
  0
LINE
  5
20CC6
  8
SUNPOU
 10
5885.076337630735
 20
3607.7543537309471
 30
0.0
 11
5885.076337630735
 21
4329.7543377869479
 31
0.0
  0
SOLID
  5
20CC7
  8
SUNPOU
 10
5878.4096709640671
 20
3607.7543537309471
 30
0.0
 11
5891.743004297402
 21
3607.7543537309471
 31
0.0
 12
5885.076337630735
 22
3567.7543537309471
 32
0.0
 13
5885.076337630735
 23
3567.7543537309471
 33
0.0
  0
SOLID
  5
20CC8
  8
SUNPOU
 10
5878.4096709640671
 20
4329.7543377869479
 30
0.0
 11
5891.743004297402
 21
4329.7543377869479
 31
0.0
 12
5885.076337630735
 22
4369.7543377869479
 32
0.0
 13
5885.076337630735
 23
4369.7543377869479
 33
0.0
  0
INSERT
  5
20CC9
  8
0
  2
*U61
 10
0.0
 20
0.0
 30
0.0
  0
POINT
  5
20CCA
  8
DEFPOINTS
 62
     0
 10
5922.9501863553996
 20
3567.7543537309471
 30
0.0
  0
POINT
  5
20CCB
  8
DEFPOINTS
 62
     0
 10
6055.2939343833996
 20
4369.7543377869479
 30
0.0
  0
POINT
  5
20CCC
  8
DEFPOINTS
 62
     0
 10
5885.076337630735
 20
4369.7543377869479
 30
0.0
  0
ENDBLK
  5
1B735
  8
0
  0
BLOCK
  8
0
  2
*D27
 70
     1
 10
0.0
 20
0.0
 30
0.0
  3
*D27
  1

  0
LINE
  5
20CCD
  8
SUNPOU
 10
4175.249503892639
 20
3567.7543537309471
 30
0.0
 11
4137.3756551679744
 21
3567.7543537309471
 31
0.0
  0
LINE
  5
20CCE
  8
SUNPOU
 10
4439.8491093246394
 20
4369.7544593801504
 30
0.0
 11
4137.3756551679744
 21
4369.7544593801504
 31
0.0
  0
LINE
  5
20CCF
  8
SUNPOU
 10
4157.3756551679744
 20
3607.7543537309471
 30
0.0
 11
4157.3756551679744
 21
4329.7544593801504
 31
0.0
  0
SOLID
  5
20CD0
  8
SUNPOU
 10
4150.7089885013074
 20
3607.7543537309471
 30
0.0
 11
4164.0423218346414
 21
3607.7543537309471
 31
0.0
 12
4157.3756551679744
 22
3567.7543537309471
 32
0.0
 13
4157.3756551679744
 23
3567.7543537309471
 33
0.0
  0
SOLID
  5
20CD1
  8
SUNPOU
 10
4150.7089885013074
 20
4329.7544593801504
 30
0.0
 11
4164.0423218346414
 21
4329.7544593801504
 31
0.0
 12
4157.3756551679744
 22
4369.7544593801504
 32
0.0
 13
4157.3756551679744
 23
4369.7544593801504
 33
0.0
  0
INSERT
  5
20CD2
  8
0
  2
*U62
 10
0.0
 20
0.0
 30
0.0
  0
POINT
  5
20CD3
  8
DEFPOINTS
 62
     0
 10
4195.249503892639
 20
3567.7543537309471
 30
0.0
  0
POINT
  5
20CD4
  8
DEFPOINTS
 62
     0
 10
4459.8491093246394
 20
4369.7544593801504
 30
0.0
  0
POINT
  5
20CD5
  8
DEFPOINTS
 62
     0
 10
4157.3756551679744
 20
4369.7544593801504
 30
0.0
  0
ENDBLK
  5
1B741
  8
0
  0
BLOCK
  8
0
  2
*D28
 70
     1
 10
0.0
 20
0.0
 30
0.0
  3
*D28
  1

  0
LINE
  5
20CD6
  8
SUNPOU
 10
5172.7796521942191
 20
3567.7543537309512
 30
0.0
 11
5134.9058034695536
 21
3567.7543537309512
 31
0.0
  0
LINE
  5
20CD7
  8
SUNPOU
 10
5247.2079463908804
 20
4369.7544593801504
 30
0.0
 11
5134.9058034695536
 21
4369.7544593801504
 31
0.0
  0
LINE
  5
20CD8
  8
SUNPOU
 10
5154.9058034695554
 20
3607.7543537309498
 30
0.0
 11
5154.9058034695554
 21
4329.7544593801504
 31
0.0
  0
SOLID
  5
20CD9
  8
SUNPOU
 10
5148.2391368028884
 20
3607.7543537309498
 30
0.0
 11
5161.5724701362224
 21
3607.7543537309498
 31
0.0
 12
5154.9058034695554
 22
3567.7543537309512
 32
0.0
 13
5154.9058034695554
 23
3567.7543537309512
 33
0.0
  0
SOLID
  5
20CDA
  8
SUNPOU
 10
5148.2391368028884
 20
4329.7544593801504
 30
0.0
 11
5161.5724701362224
 21
4329.7544593801504
 31
0.0
 12
5154.9058034695554
 22
4369.7544593801504
 32
0.0
 13
5154.9058034695554
 23
4369.7544593801504
 33
0.0
  0
INSERT
  5
20CDB
  8
0
  2
*U63
 10
0.0
 20
0.0
 30
0.0
  0
POINT
  5
20CDC
  8
DEFPOINTS
 62
     0
 10
5192.7796521942191
 20
3567.7543537309512
 30
0.0
  0
POINT
  5
20CDD
  8
DEFPOINTS
 62
     0
 10
5267.2079463908804
 20
4369.7544593801504
 30
0.0
  0
POINT
  5
20CDE
  8
DEFPOINTS
 62
     0
 10
5154.9058034695554
 20
4369.7544593801504
 30
0.0
  0
ENDBLK
  5
1B74D
  8
0
  0
BLOCK
  8
0
  2
*D29
 70
     1
 10
0.0
 20
0.0
 30
0.0
  3
*D29
  1

  0
LINE
  5
20E87
  8
SUNPOU
 62
     0
 10
6826.6654157292114
 20
3547.7543537309471
 30
0.0
 11
6826.6654157292114
 21
3379.3361997347888
 31
0.0
  0
LINE
  5
20E88
  8
SUNPOU
 62
     0
 10
6976.6654157292114
 20
3547.7543537309471
 30
0.0
 11
6976.6654157292114
 21
3379.3361997347888
 31
0.0
  0
LINE
  5
20E89
  8
SUNPOU
 62
     0
 10
6866.6654157292123
 20
3399.3361997347888
 30
0.0
 11
6936.6654157292123
 21
3399.3361997347888
 31
0.0
  0
TEXT
  8
SUNPOU
  40
60
  5
21085
  62
0
  72
0
  71
0
 10
6745.11
 20
3335.93
 30
0.000000
  1
□150
  7
EXT08
  0
SOLID
  5
20E8B
  8
SUNPOU
 62
     0
 10
6866.6654157292123
 20
3406.0028664014558
 30
0.0
 11
6866.6654157292123
 21
3392.6695330681232
 31
0.0
 12
6826.6654157292114
 22
3399.3361997347888
 32
0.0
 13
6826.6654157292114
 23
3399.3361997347888
 33
0.0
  0
SOLID
  5
20E8C
  8
SUNPOU
 62
     0
 10
6936.6654157292123
 20
3406.0028664014558
 30
0.0
 11
6936.6654157292123
 21
3392.6695330681232
 31
0.0
 12
6976.6654157292114
 22
3399.3361997347888
 32
0.0
 13
6976.6654157292114
 23
3399.3361997347888
 33
0.0
  0
POINT
  5
20E8D
  8
DEFPOINTS
 62
     0
 10
6826.6654157292114
 20
3567.7543537309471
 30
0.0
  0
POINT
  5
20E8E
  8
DEFPOINTS
 62
     0
 10
6976.6654157292114
 20
3567.7543537309471
 30
0.0
  0
POINT
  5
20E8F
  8
DEFPOINTS
 62
     0
 10
6976.6654157292114
 20
3399.3361997347888
 30
0.0
  0
ENDBLK
  5
1B759
  8
0
  0
BLOCK
  8
0
  2
*D30
 70
     1
 10
0.0
 20
0.0
 30
0.0
  3
*D30
  1

  0
LINE
  5
20E90
  8
SUNPOU
 10
7048.695710968027
 20
3567.7541097244471
 30
0.0
 11
7120.7819637293551
 21
3567.7541097244471
 31
0.0
  0
LINE
  5
20E91
  8
SUNPOU
 10
6996.6654157292114
 20
3576.7543537309461
 30
0.0
 11
7120.7819637293551
 21
3576.7543537309461
 31
0.0
  0
LINE
  5
20E92
  8
SUNPOU
 10
7100.7819637293551
 20
3527.7541097244471
 30
0.0
 11
7100.7819637293551
 21
3487.7541097244471
 31
0.0
  0
LINE
  5
20E93
  8
SUNPOU
 10
7100.7819637293551
 20
3616.7543537309471
 30
0.0
 11
7100.7819637293551
 21
3656.7543537309471
 31
0.0
  0
TEXT
  8
SUNPOU
  40
60
  5
21086
  72
0
  71
0
 10
6933.36
 20
3516.75
 30
0.000000
  1
t9
  7
EXT08
  0
LINE
  5
20E95
  8
SUNPOU
 10
7100.7819637293551
 20
3567.7541097244471
 30
0.0
 11
7100.7819637293551
 21
3576.7543537309461
 31
0.0
  0
SOLID
  5
20E96
  8
SUNPOU
 10
7094.115297062689
 20
3527.7541097244471
 30
0.0
 11
7107.448630396023
 21
3527.7541097244471
 31
0.0
 12
7100.7819637293551
 22
3567.7541097244471
 32
0.0
 13
7100.7819637293551
 23
3567.7541097244471
 33
0.0
  0
SOLID
  5
20E97
  8
SUNPOU
 10
7094.115297062689
 20
3616.7543537309471
 30
0.0
 11
7107.448630396023
 21
3616.7543537309471
 31
0.0
 12
7100.7819637293551
 22
3576.7543537309461
 32
0.0
 13
7100.7819637293551
 23
3576.7543537309461
 33
0.0
  0
POINT
  5
20E98
  8
DEFPOINTS
 62
     0
 10
7028.695710968027
 20
3567.7541097244471
 30
0.0
  0
POINT
  5
20E99
  8
DEFPOINTS
 62
     0
 10
6976.6654157292114
 20
3576.7543537309461
 30
0.0
  0
POINT
  5
20E9A
  8
DEFPOINTS
 62
     0
 10
7100.7819637293551
 20
3576.7543537309461
 30
0.0
  0
ENDBLK
  5
1B767
  8
0
  0
BLOCK
  8
0
  2
*D31
 70
     1
 10
0.0
 20
0.0
 30
0.0
  3
*D31
  1

  0
LINE
  5
20F22
  8
SUNPOU
 10
4379.849108281438
 20
3147.7543596913488
 30
0.0
 11
4379.849108281438
 21
3018.0780045675492
 31
0.0
  0
LINE
  5
20F23
  8
SUNPOU
 10
4679.8491082814371
 20
3147.7543596913488
 30
0.0
 11
4679.8491082814371
 21
3018.0780045675492
 31
0.0
  0
LINE
  5
20F24
  8
SUNPOU
 10
4419.849108281438
 20
3038.0780045675492
 30
0.0
 11
4639.8491082814371
 21
3038.0780045675492
 31
0.0
  0
TEXT
  8
SUNPOU
  40
60
  5
21087
  72
0
  71
0
 10
4408.07
 20
2986.56
 30
0.000000
  1
□300
  7
EXT08
  0
SOLID
  5
20F26
  8
SUNPOU
 10
4419.849108281438
 20
3044.7446712342162
 30
0.0
 11
4419.849108281438
 21
3031.4113379008832
 31
0.0
 12
4379.849108281438
 22
3038.0780045675492
 32
0.0
 13
4379.849108281438
 23
3038.0780045675492
 33
0.0
  0
SOLID
  5
20F27
  8
SUNPOU
 10
4639.8491082814371
 20
3044.7446712342162
 30
0.0
 11
4639.8491082814371
 21
3031.4113379008832
 31
0.0
 12
4679.8491082814371
 22
3038.0780045675492
 32
0.0
 13
4679.8491082814371
 23
3038.0780045675492
 33
0.0
  0
POINT
  5
20F28
  8
DEFPOINTS
 62
     0
 10
4379.849108281438
 20
3167.7543596913488
 30
0.0
  0
POINT
  5
20F29
  8
DEFPOINTS
 62
     0
 10
4679.8491082814371
 20
3167.7543596913488
 30
0.0
  0
POINT
  5
20F2A
  8
DEFPOINTS
 62
     0
 10
4679.8491082814371
 20
3038.0780045675492
 30
0.0
  0
ENDBLK
  5
1BC60
  8
0
  0
BLOCK
  8
0
  2
*D32
 70
     1
 10
0.0
 20
0.0
 30
0.0
  3
*D32
  1

  0
LINE
  5
20F2B
  8
SUNPOU
 62
     0
 10
4089.799737835217
 20
1052.7990340487961
 30
0.0
 11
4089.799737835217
 21
757.96698968679993
 31
0.0
  0
LINE
  5
20F2C
  8
SUNPOU
 62
     0
 10
4389.7997378352165
 20
1052.7990340487961
 30
0.0
 11
4389.7997378352165
 21
757.96698968679993
 31
0.0
  0
LINE
  5
20F2D
  8
SUNPOU
 62
     0
 10
4129.7997378352184
 20
777.96698968679993
 30
0.0
 11
4349.7997378352165
 21
777.96698968679993
 31
0.0
  0
SOLID
  5
20F2E
  8
SUNPOU
 62
     0
 10
4129.7997378352184
 20
784.63365635346656
 30
0.0
 11
4129.7997378352184
 21
771.30032302013331
 31
0.0
 12
4089.799737835217
 22
777.96698968679993
 32
0.0
 13
4089.799737835217
 23
777.96698968679993
 33
0.0
  0
SOLID
  5
20F2F
  8
SUNPOU
 62
     0
 10
4349.7997378352165
 20
784.63365635346656
 30
0.0
 11
4349.7997378352165
 21
771.30032302013331
 31
0.0
 12
4389.7997378352165
 22
777.96698968679993
 32
0.0
 13
4389.7997378352165
 23
777.96698968679993
 33
0.0
  0
TEXT
  8
SUNPOU
  40
60
  5
21088
  62
0
  72
0
  71
0
 10
4119.80
 20
725.767
 30
0.000000
  1
150
  7
EXT08
  0
POINT
  5
20F31
  8
DEFPOINTS
 62
     0
 10
4089.799737835217
 20
1072.7990340487961
 30
0.0
  0
POINT
  5
20F32
  8
DEFPOINTS
 62
     0
 10
4389.7997378352165
 20
1072.7990340487961
 30
0.0
  0
POINT
  5
20F33
  8
DEFPOINTS
 62
     0
 10
4389.7997378352165
 20
777.96698968679993
 30
0.0
  0
ENDBLK
  5
1F6CD
  8
0
  0
BLOCK
  8
0
  2
*D33
 70
     1
 10
0.0
 20
0.0
 30
0.0
  3
*D33
  1

  0
LINE
  5
20F34
  8
SUNPOU
 62
     0
 10
4139.7997378352165
 20
1052.7990340487961
 30
0.0
 11
4139.7997378352165
 21
880.45703667109785
 31
0.0
  0
LINE
  5
20F35
  8
SUNPOU
 62
     0
 10
4339.7997378352165
 20
1052.7990340487961
 30
0.0
 11
4339.7997378352165
 21
880.45703667109785
 31
0.0
  0
LINE
  5
20F36
  8
SUNPOU
 62
     0
 10
4179.7997378352165
 20
900.45703667109774
 30
0.0
 11
4299.7997378352165
 21
900.45703667109774
 31
0.0
  0
TEXT
  8
SUNPOU
  40
60
  5
21089
  62
0
  72
0
  71
0
 10
4119.80
 20
848.465
 30
0.000000
  1
100
  7
EXT08
  0
SOLID
  5
20F38
  8
SUNPOU
 62
     0
 10
4179.7997378352165
 20
907.12370333776425
 30
0.0
 11
4179.7997378352165
 21
893.790370004431
 31
0.0
 12
4139.7997378352165
 22
900.45703667109774
 32
0.0
 13
4139.7997378352165
 23
900.45703667109774
 33
0.0
  0
SOLID
  5
20F39
  8
SUNPOU
 62
     0
 10
4299.7997378352165
 20
907.12370333776425
 30
0.0
 11
4299.7997378352165
 21
893.790370004431
 31
0.0
 12
4339.7997378352165
 22
900.45703667109774
 32
0.0
 13
4339.7997378352165
 23
900.45703667109774
 33
0.0
  0
POINT
  5
20F3A
  8
DEFPOINTS
 62
     0
 10
4139.7997378352165
 20
1072.7990340487961
 30
0.0
  0
POINT
  5
20F3B
  8
DEFPOINTS
 62
     0
 10
4339.7997378352165
 20
1072.7990340487961
 30
0.0
  0
POINT
  5
20F3C
  8
DEFPOINTS
 62
     0
 10
4339.7997378352165
 20
900.45703667109774
 30
0.0
  0
ENDBLK
  5
1F6D9
  8
0
  0
BLOCK
  8
0
  2
*D34
 70
     1
 10
0.0
 20
0.0
 30
0.0
  3
*D34
  1

  0
LINE
  5
20F3D
  8
SUNPOU
 62
     0
 10
4139.7997378352165
 20
1052.7990340487961
 30
0.0
 11
4139.7997378352165
 21
880.45703667109785
 31
0.0
  0
LINE
  5
20F3E
  8
SUNPOU
 62
     0
 10
4089.799737835217
 20
1052.7990340487961
 30
0.0
 11
4089.799737835217
 21
880.45703667109785
 31
0.0
  0
LINE
  5
20F3F
  8
SUNPOU
 62
     0
 10
4179.7997378352165
 20
900.45703667109774
 30
0.0
 11
4219.7997378352165
 21
900.45703667109774
 31
0.0
  0
LINE
  5
20F40
  8
SUNPOU
 62
     0
 10
4049.799737835217
 20
900.45703667109774
 30
0.0
 11
4009.799737835217
 21
900.45703667109774
 31
0.0
  0
TEXT
  8
SUNPOU
  40
60
  5
2108A
  62
0
  72
0
  71
0
 10
3916.07
 20
843.976
 30
0.000000
  1
25
  7
EXT08
  0
LINE
  5
20F42
  8
SUNPOU
 62
     0
 10
4139.7997378352165
 20
900.45703667109774
 30
0.0
 11
4089.799737835217
 21
900.45703667109774
 31
0.0
  0
SOLID
  5
20F43
  8
SUNPOU
 62
     0
 10
4179.7997378352165
 20
907.12370333776425
 30
0.0
 11
4179.7997378352165
 21
893.790370004431
 31
0.0
 12
4139.7997378352165
 22
900.45703667109774
 32
0.0
 13
4139.7997378352165
 23
900.45703667109774
 33
0.0
  0
SOLID
  5
20F44
  8
SUNPOU
 62
     0
 10
4049.799737835217
 20
907.12370333776425
 30
0.0
 11
4049.799737835217
 21
893.790370004431
 31
0.0
 12
4089.799737835217
 22
900.45703667109774
 32
0.0
 13
4089.799737835217
 23
900.45703667109774
 33
0.0
  0
POINT
  5
20F45
  8
DEFPOINTS
 62
     0
 10
4139.7997378352165
 20
1072.7990340487961
 30
0.0
  0
POINT
  5
20F46
  8
DEFPOINTS
 62
     0
 10
4089.799737835217
 20
1072.7990340487961
 30
0.0
  0
POINT
  5
20F47
  8
DEFPOINTS
 62
     0
 10
4089.799737835217
 20
900.45703667109774
 30
0.0
  0
ENDBLK
  5
1F6E7
  8
0
  0
BLOCK
  8
0
  2
*D35
 70
     1
 10
0.0
 20
0.0
 30
0.0
  3
*D35
  1

  0
LINE
  5
20F48
  8
SUNPOU
 62
     0
 10
4339.7997378352165
 20
1052.7990340487961
 30
0.0
 11
4339.7997378352165
 21
880.45703667109785
 31
0.0
  0
LINE
  5
20F49
  8
SUNPOU
 62
     0
 10
4389.7997378352165
 20
1052.7990340487961
 30
0.0
 11
4389.7997378352165
 21
880.45703667109785
 31
0.0
  0
LINE
  5
20F4A
  8
SUNPOU
 62
     0
 10
4299.7997378352165
 20
900.45703667109774
 30
0.0
 11
4259.7997378352165
 21
900.45703667109774
 31
0.0
  0
LINE
  5
20F4B
  8
SUNPOU
 62
     0
 10
4429.7997378352165
 20
900.45703667109774
 30
0.0
 11
4469.7997378352165
 21
900.45703667109774
 31
0.0
  0
TEXT
  8
SUNPOU
  40
60
  5
2108B
  62
0
  72
0
  71
0
 10
4329.17
 20
845.494
 30
0.000000
  1
25
  7
EXT08
  0
LINE
  5
20F4D
  8
SUNPOU
 62
     0
 10
4339.7997378352165
 20
900.45703667109774
 30
0.0
 11
4389.7997378352165
 21
900.45703667109774
 31
0.0
  0
SOLID
  5
20F4E
  8
SUNPOU
 62
     0
 10
4299.7997378352165
 20
907.12370333776425
 30
0.0
 11
4299.7997378352165
 21
893.790370004431
 31
0.0
 12
4339.7997378352165
 22
900.45703667109774
 32
0.0
 13
4339.7997378352165
 23
900.45703667109774
 33
0.0
  0
SOLID
  5
20F4F
  8
SUNPOU
 62
     0
 10
4429.7997378352165
 20
907.12370333776425
 30
0.0
 11
4429.7997378352165
 21
893.790370004431
 31
0.0
 12
4389.7997378352165
 22
900.45703667109774
 32
0.0
 13
4389.7997378352165
 23
900.45703667109774
 33
0.0
  0
POINT
  5
20F50
  8
DEFPOINTS
 62
     0
 10
4339.7997378352165
 20
1072.7990340487961
 30
0.0
  0
POINT
  5
20F51
  8
DEFPOINTS
 62
     0
 10
4389.7997378352165
 20
1072.7990340487961
 30
0.0
  0
POINT
  5
20F52
  8
DEFPOINTS
 62
     0
 10
4389.7997378352165
 20
900.45703667109774
 30
0.0
  0
ENDBLK
  5
1F6F5
  8
0
  0
BLOCK
  8
0
  2
*D36
 70
     1
 10
0.0
 20
0.0
 30
0.0
  3
*D36
  1

  0
LINE
  5
20F53
  8
SUNPOU
 62
     0
 10
4409.7997378352165
 20
1122.7990340487961
 30
0.0
 11
4649.0940131724819
 21
1122.799034048795
 31
0.0
  0
LINE
  5
20F54
  8
SUNPOU
 62
     0
 10
4409.7997378352165
 20
1072.7990340487961
 30
0.0
 11
4649.0940131724819
 21
1072.799034048795
 31
0.0
  0
LINE
  5
20F55
  8
SUNPOU
 62
     0
 10
4629.0940131724819
 20
1162.799034048795
 30
0.0
 11
4629.0940131724819
 21
1202.799034048795
 31
0.0
  0
LINE
  5
20F56
  8
SUNPOU
 62
     0
 10
4629.0940131724819
 20
1032.799034048795
 30
0.0
 11
4629.0940131724819
 21
992.79903404879565
 31
0.0
  0
TEXT
  8
SUNPOU
  40
60
  5
2108C
  62
0
  72
0
  71
0
 10
4452.74
 20
906.722
 30
0.000000
  1
25
  7
EXT08
  0
LINE
  5
20F58
  8
SUNPOU
 62
     0
 10
4629.0940131724819
 20
1122.799034048795
 30
0.0
 11
4629.0940131724819
 21
1072.799034048795
 31
0.0
  0
SOLID
  5
20F59
  8
SUNPOU
 62
     0
 10
4622.427346505815
 20
1162.799034048795
 30
0.0
 11
4635.760679839148
 21
1162.799034048795
 31
0.0
 12
4629.0940131724819
 22
1122.799034048795
 32
0.0
 13
4629.0940131724819
 23
1122.799034048795
 33
0.0
  0
SOLID
  5
20F5A
  8
SUNPOU
 62
     0
 10
4622.427346505815
 20
1032.799034048795
 30
0.0
 11
4635.760679839148
 21
1032.799034048795
 31
0.0
 12
4629.0940131724819
 22
1072.799034048795
 32
0.0
 13
4629.0940131724819
 23
1072.799034048795
 33
0.0
  0
POINT
  5
20F5B
  8
DEFPOINTS
 62
     0
 10
4389.7997378352165
 20
1122.7990340487961
 30
0.0
  0
POINT
  5
20F5C
  8
DEFPOINTS
 62
     0
 10
4389.7997378352165
 20
1072.7990340487961
 30
0.0
  0
POINT
  5
20F5D
  8
DEFPOINTS
 62
     0
 10
4629.0940131724819
 20
1072.799034048795
 30
0.0
  0
ENDBLK
  5
1F703
  8
0
  0
BLOCK
  8
0
  2
*D37
 70
     1
 10
0.0
 20
0.0
 30
0.0
  3
*D37
  1

  0
LINE
  5
20F66
  8
SUNPOU
 62
     0
 10
4409.7997378352165
 20
1818.5681724968811
 30
0.0
 11
4566.5949895121448
 21
1818.5681724968811
 31
0.0
  0
LINE
  5
20F67
  8
SUNPOU
 62
     0
 10
4409.7997378352165
 20
1800.568172496882
 30
0.0
 11
4566.5949895121448
 21
1800.568172496882
 31
0.0
  0
LINE
  5
20F68
  8
SUNPOU
 62
     0
 10
4546.5949895121439
 20
1858.568172496882
 30
0.0
 11
4546.5949895121439
 21
1898.5681724968811
 31
0.0
  0
LINE
  5
20F69
  8
SUNPOU
 62
     0
 10
4546.5949895121439
 20
1760.5681724968811
 30
0.0
 11
4546.5949895121439
 21
1720.568172496882
 31
0.0
  0
TEXT
  8
SUNPOU
  40
60
  5
2108D
  62
0
  72
0
  71
0
 10
4372.13
 20
1770.14
 30
0.000000
  1
t9
  7
EXT08
  0
LINE
  5
20F6B
  8
SUNPOU
 62
     0
 10
4546.5949895121439
 20
1818.5681724968811
 30
0.0
 11
4546.5949895121439
 21
1800.568172496882
 31
0.0
  0
SOLID
  5
20F6C
  8
SUNPOU
 62
     0
 10
4539.9283228454779
 20
1858.568172496882
 30
0.0
 11
4553.2616561788109
 21
1858.568172496882
 31
0.0
 12
4546.5949895121439
 22
1818.5681724968811
 32
0.0
 13
4546.5949895121439
 23
1818.5681724968811
 33
0.0
  0
SOLID
  5
20F6D
  8
SUNPOU
 62
     0
 10
4539.9283228454779
 20
1760.5681724968811
 30
0.0
 11
4553.2616561788109
 21
1760.5681724968811
 31
0.0
 12
4546.5949895121439
 22
1800.568172496882
 32
0.0
 13
4546.5949895121439
 23
1800.568172496882
 33
0.0
  0
POINT
  5
20F6E
  8
DEFPOINTS
 62
     0
 10
4389.7997378352165
 20
1818.5681724968811
 30
0.0
  0
POINT
  5
20F6F
  8
DEFPOINTS
 62
     0
 10
4389.7997378352165
 20
1800.568172496882
 30
0.0
  0
POINT
  5
20F70
  8
DEFPOINTS
 62
     0
 10
4546.5949895121439
 20
1800.568172496882
 30
0.0
  0
ENDBLK
  5
1F711
  8
0
  0
BLOCK
  8
0
  2
*D38
 70
     1
 10
0.0
 20
0.0
 30
0.0
  3
*D38
  1

  0
LINE
  5
20F79
  8
SUNPOU
 62
     0
 10
4409.7997378352165
 20
1322.7990340487961
 30
0.0
 11
4649.0940131724819
 21
1322.799034048795
 31
0.0
  0
LINE
  5
20F7A
  8
SUNPOU
 62
     0
 10
4409.7997378352165
 20
1372.7990340487961
 30
0.0
 11
4649.0940131724819
 21
1372.799034048795
 31
0.0
  0
LINE
  5
20F7B
  8
SUNPOU
 62
     0
 10
4629.0940131724819
 20
1282.7990340487961
 30
0.0
 11
4629.0940131724819
 21
1242.799034048795
 31
0.0
  0
LINE
  5
20F7C
  8
SUNPOU
 62
     0
 10
4629.0940131724819
 20
1412.799034048795
 30
0.0
 11
4629.0940131724819
 21
1452.799034048795
 31
0.0
  0
TEXT
  8
SUNPOU
  40
60
  5
2108E
  62
0
  72
0
  71
0
 10
4451.22
 20
1327.93
 30
0.000000
  1
25
  7
EXT08
  0
LINE
  5
20F7E
  8
SUNPOU
 62
     0
 10
4629.0940131724819
 20
1322.799034048795
 30
0.0
 11
4629.0940131724819
 21
1372.799034048795
 31
0.0
  0
SOLID
  5
20F7F
  8
SUNPOU
 62
     0
 10
4622.427346505815
 20
1282.7990340487961
 30
0.0
 11
4635.760679839148
 21
1282.7990340487961
 31
0.0
 12
4629.0940131724819
 22
1322.799034048795
 32
0.0
 13
4629.0940131724819
 23
1322.799034048795
 33
0.0
  0
SOLID
  5
20F80
  8
SUNPOU
 62
     0
 10
4622.427346505815
 20
1412.799034048795
 30
0.0
 11
4635.760679839148
 21
1412.799034048795
 31
0.0
 12
4629.0940131724819
 22
1372.799034048795
 32
0.0
 13
4629.0940131724819
 23
1372.799034048795
 33
0.0
  0
POINT
  5
20F81
  8
DEFPOINTS
 62
     0
 10
4389.7997378352165
 20
1322.7990340487961
 30
0.0
  0
POINT
  5
20F82
  8
DEFPOINTS
 62
     0
 10
4389.7997378352165
 20
1372.7990340487961
 30
0.0
  0
POINT
  5
20F83
  8
DEFPOINTS
 62
     0
 10
4629.0940131724819
 20
1372.799034048795
 30
0.0
  0
ENDBLK
  5
1F71F
  8
0
  0
BLOCK
  8
0
  2
*D39
 70
     1
 10
0.0
 20
0.0
 30
0.0
  3
*D39
  1

  0
LINE
  5
20F84
  8
SUNPOU
 62
     0
 10
4409.7997378352165
 20
1322.7990340487961
 30
0.0
 11
4649.0940131724819
 21
1322.799034048795
 31
0.0
  0
LINE
  5
20F85
  8
SUNPOU
 62
     0
 10
4409.7997378352165
 20
1122.7990340487961
 30
0.0
 11
4649.0940131724819
 21
1122.799034048795
 31
0.0
  0
LINE
  5
20F86
  8
SUNPOU
 62
     0
 10
4629.0940131724819
 20
1282.7990340487961
 30
0.0
 11
4629.0940131724819
 21
1162.799034048795
 31
0.0
  0
TEXT
  8
SUNPOU
  40
60
  5
2108F
  62
0
  72
0
  71
0
 10
4449.21
 20
1116.60
 30
0.000000
  1
100
  7
EXT08
  0
SOLID
  5
20F88
  8
SUNPOU
 62
     0
 10
4622.427346505815
 20
1282.7990340487961
 30
0.0
 11
4635.760679839148
 21
1282.7990340487961
 31
0.0
 12
4629.0940131724819
 22
1322.799034048795
 32
0.0
 13
4629.0940131724819
 23
1322.799034048795
 33
0.0
  0
SOLID
  5
20F89
  8
SUNPOU
 62
     0
 10
4622.427346505815
 20
1162.799034048795
 30
0.0
 11
4635.760679839148
 21
1162.799034048795
 31
0.0
 12
4629.0940131724819
 22
1122.799034048795
 32
0.0
 13
4629.0940131724819
 23
1122.799034048795
 33
0.0
  0
POINT
  5
20F8A
  8
DEFPOINTS
 62
     0
 10
4389.7997378352165
 20
1322.7990340487961
 30
0.0
  0
POINT
  5
20F8B
  8
DEFPOINTS
 62
     0
 10
4389.7997378352165
 20
1122.7990340487961
 30
0.0
  0
POINT
  5
20F8C
  8
DEFPOINTS
 62
     0
 10
4629.0940131724819
 20
1122.799034048795
 30
0.0
  0
ENDBLK
  5
1F72B
  8
0
  0
BLOCK
  8
0
  2
*D40
 70
     1
 10
0.0
 20
0.0
 30
0.0
  3
*D40
  1

  0
LINE
  5
20F8D
  8
SUNPOU
 62
     0
 10
4409.7997378352165
 20
1372.7990340487961
 30
0.0
 11
4771.648396260618
 21
1372.799034048795
 31
0.0
  0
LINE
  5
20F8E
  8
SUNPOU
 62
     0
 10
4409.7997378352165
 20
1072.7990340487961
 30
0.0
 11
4771.648396260618
 21
1072.799034048795
 31
0.0
  0
LINE
  5
20F8F
  8
SUNPOU
 62
     0
 10
4751.648396260618
 20
1332.7990340487961
 30
0.0
 11
4751.648396260618
 21
1112.799034048795
 31
0.0
  0
SOLID
  5
20F90
  8
SUNPOU
 62
     0
 10
4744.9817295939511
 20
1332.7990340487961
 30
0.0
 11
4758.315062927285
 21
1332.7990340487961
 31
0.0
 12
4751.648396260618
 22
1372.799034048795
 32
0.0
 13
4751.648396260618
 23
1372.799034048795
 33
0.0
  0
SOLID
  5
20F91
  8
SUNPOU
 62
     0
 10
4744.9817295939511
 20
1112.799034048795
 30
0.0
 11
4758.315062927285
 21
1112.799034048795
 31
0.0
 12
4751.648396260618
 22
1072.799034048795
 32
0.0
 13
4751.648396260618
 23
1072.799034048795
 33
0.0
  0
TEXT
  8
SUNPOU
  40
60
  5
21090
  62
0
  72
0
  71
0
 10
4577.65
 20
1116.60
 30
0.000000
  1
150
  7
EXT08
  0
POINT
  5
20F93
  8
DEFPOINTS
 62
     0
 10
4389.7997378352165
 20
1372.7990340487961
 30
0.0
  0
POINT
  5
20F94
  8
DEFPOINTS
 62
     0
 10
4389.7997378352165
 20
1072.7990340487961
 30
0.0
  0
POINT
  5
20F95
  8
DEFPOINTS
 62
     0
 10
4751.648396260618
 20
1072.799034048795
 30
0.0
  0
ENDBLK
  5
1F737
  8
0
  0
BLOCK
  8
0
  2
*D41
 70
     1
 10
0.0
 20
0.0
 30
0.0
  3
*D41
  1

  0
LINE
  5
2102E
  8
SUNPOU
 10
1002.758015092197
 20
2709.1901474027541
 30
0.0
 11
1523.685839059433
 21
2709.1901474027541
 31
0.0
  0
LINE
  5
2102F
  8
SUNPOU
 10
1353.758074324599
 20
2465.190147402755
 30
0.0
 11
1523.6858390594321
 21
2465.190147402755
 31
0.0
  0
LINE
  5
21030
  8
SUNPOU
 10
1503.6858390594321
 20
2669.1901474027541
 30
0.0
 11
1503.6858390594321
 21
2505.190147402755
 31
0.0
  0
SOLID
  5
21031
  8
SUNPOU
 10
1497.019172392766
 20
2669.1901474027541
 30
0.0
 11
1510.352505726099
 21
2669.1901474027541
 31
0.0
 12
1503.6858390594321
 22
2709.1901474027541
 32
0.0
 13
1503.6858390594321
 23
2709.1901474027541
 33
0.0
  0
SOLID
  5
21032
  8
SUNPOU
 10
1497.0191723927651
 20
2505.190147402755
 30
0.0
 11
1510.352505726099
 21
2505.190147402755
 31
0.0
 12
1503.6858390594321
 22
2465.190147402755
 32
0.0
 13
1503.6858390594321
 23
2465.190147402755
 33
0.0
  0
TEXT
  8
SUNPOU
  40
60
  5
21091
  72
0
  71
0
 10
1329.69
 20
2480.99
 30
0.000000
  1
61
  7
EXT08
  0
POINT
  5
21034
  8
DEFPOINTS
 62
     0
 10
982.75801509219741
 20
2709.1901474027541
 30
0.0
  0
POINT
  5
21035
  8
DEFPOINTS
 62
     0
 10
1333.758074324599
 20
2465.190147402755
 30
0.0
  0
POINT
  5
21036
  8
DEFPOINTS
 62
     0
 10
1503.6858390594321
 20
2465.190147402755
 30
0.0
  0
ENDBLK
  5
203B6
  8
0
  0
BLOCK
  8
0
  2
*D42
 70
     1
 10
0.0
 20
0.0
 30
0.0
  3
*D42
  1

  0
LINE
  5
21037
  8
SUNPOU
 10
1353.758074324599
 20
2465.190147402755
 30
0.0
 11
1523.685839059433
 21
2465.190147402755
 31
0.0
  0
LINE
  5
21038
  8
SUNPOU
 10
1353.7580743246001
 20
1065.190163495954
 30
0.0
 11
1523.6858390594321
 21
1065.190163495954
 31
0.0
  0
LINE
  5
21039
  8
SUNPOU
 10
1503.6858390594321
 20
2425.190147402755
 30
0.0
 11
1503.6858390594321
 21
1105.190163495954
 31
0.0
  0
SOLID
  5
2103A
  8
SUNPOU
 10
1497.019172392766
 20
2425.190147402755
 30
0.0
 11
1510.352505726099
 21
2425.190147402755
 31
0.0
 12
1503.6858390594321
 22
2465.190147402755
 32
0.0
 13
1503.6858390594321
 23
2465.190147402755
 33
0.0
  0
SOLID
  5
2103B
  8
SUNPOU
 10
1497.0191723927651
 20
1105.190163495954
 30
0.0
 11
1510.352505726099
 21
1105.190163495954
 31
0.0
 12
1503.6858390594321
 22
1065.190163495954
 32
0.0
 13
1503.6858390594321
 23
1065.190163495954
 33
0.0
  0
TEXT
  8
SUNPOU
  40
60
  5
21092
  72
0
  71
0
 10
1329.69
 20
1658.99
 30
0.000000
  1
350
  7
EXT08
  0
POINT
  5
2103D
  8
DEFPOINTS
 62
     0
 10
1333.758074324599
 20
2465.190147402755
 30
0.0
  0
POINT
  5
2103E
  8
DEFPOINTS
 62
     0
 10
1333.7580743246001
 20
1065.190163495954
 30
0.0
  0
POINT
  5
2103F
  8
DEFPOINTS
 62
     0
 10
1503.6858390594321
 20
1065.190163495954
 30
0.0
  0
ENDBLK
  5
203C2
  8
0
  0
BLOCK
  8
0
  2
*D43
 70
     1
 10
0.0
 20
0.0
 30
0.0
  3
*D43
  1

  0
LINE
  5
21040
  8
SUNPOU
 62
     0
 10
1805.3805601893059
 20
2485.190147402755
 30
0.0
 11
1805.3805601893059
 21
2889.4540573943532
 31
0.0
  0
LINE
  5
21041
  8
SUNPOU
 62
     0
 10
2345.3805601893068
 20
2779.190147402755
 30
0.0
 11
2345.3805601893068
 21
2889.4540573943532
 31
0.0
  0
LINE
  5
21042
  8
SUNPOU
 62
     0
 10
1845.3805601893059
 20
2869.4540573943532
 30
0.0
 11
2305.3805601893068
 21
2869.4540573943532
 31
0.0
  0
SOLID
  5
21043
  8
SUNPOU
 62
     0
 10
1845.3805601893059
 20
2876.1207240610188
 30
0.0
 11
1845.3805601893059
 21
2862.7873907276862
 31
0.0
 12
1805.3805601893059
 22
2869.4540573943532
 32
0.0
 13
1805.3805601893059
 23
2869.4540573943532
 33
0.0
  0
SOLID
  5
21044
  8
SUNPOU
 62
     0
 10
2305.3805601893068
 20
2876.1207240610188
 30
0.0
 11
2305.3805601893068
 21
2862.7873907276862
 31
0.0
 12
2345.3805601893068
 22
2869.4540573943532
 32
0.0
 13
2345.3805601893068
 23
2869.4540573943532
 33
0.0
  0
TEXT
  8
SUNPOU
  40
60
  5
21093
  62
0
  72
0
  71
0
 10
1955.38
 20
2817.25
 30
0.000000
  1
135
  7
EXT08
  0
POINT
  5
21046
  8
DEFPOINTS
 62
     0
 10
1805.3805601893059
 20
2465.190147402755
 30
0.0
  0
POINT
  5
21047
  8
DEFPOINTS
 62
     0
 10
2345.3805601893068
 20
2759.190147402755
 30
0.0
  0
POINT
  5
21048
  8
DEFPOINTS
 62
     0
 10
2345.3805601893068
 20
2869.4540573943532
 30
0.0
  0
ENDBLK
  5
203CE
  8
0
  0
BLOCK
  8
0
  2
*D44
 70
     1
 10
0.0
 20
0.0
 30
0.0
  3
*D44
  1

  0
LINE
  5
21049
  8
SUNPOU
 62
     0
 10
982.75801509219855
 20
2779.190147402755
 30
0.0
 11
982.75801509219855
 21
2889.4540573943532
 31
0.0
  0
LINE
  5
2104A
  8
SUNPOU
 62
     0
 10
1183.758074324599
 20
2635.190147402755
 30
0.0
 11
1183.758074324599
 21
2889.4540573943532
 31
0.0
  0
LINE
  5
2104B
  8
SUNPOU
 62
     0
 10
1022.758015092198
 20
2869.4540573943532
 30
0.0
 11
1143.758074324599
 21
2869.4540573943532
 31
0.0
  0
SOLID
  5
2104C
  8
SUNPOU
 62
     0
 10
1022.758015092198
 20
2876.1207240610188
 30
0.0
 11
1022.758015092198
 21
2862.7873907276862
 31
0.0
 12
982.75801509219855
 22
2869.4540573943532
 32
0.0
 13
982.75801509219855
 23
2869.4540573943532
 33
0.0
  0
SOLID
  5
2104D
  8
SUNPOU
 62
     0
 10
1143.758074324599
 20
2876.1207240610188
 30
0.0
 11
1143.758074324599
 21
2862.7873907276862
 31
0.0
 12
1183.758074324599
 22
2869.4540573943532
 32
0.0
 13
1183.758074324599
 23
2869.4540573943532
 33
0.0
  0
TEXT
  8
SUNPOU
  40
60
  5
21094
  62
0
  72
0
  71
0
 10
963.258
 20
2817.25
 30
0.000000
  1
55
  7
EXT08
  0
POINT
  5
2104F
  8
DEFPOINTS
 62
     0
 10
982.75801509219855
 20
2759.190147402755
 30
0.0
  0
POINT
  5
21050
  8
DEFPOINTS
 62
     0
 10
1183.758074324599
 20
2615.190147402755
 30
0.0
  0
POINT
  5
21051
  8
DEFPOINTS
 62
     0
 10
1183.758074324599
 20
2869.4540573943532
 30
0.0
  0
ENDBLK
  5
203DA
  8
0
  0
BLOCK
  8
0
  2
*U45
 70
     1
 10
0.0
 20
0.0
 30
0.0
  3
*U45
  1

  0
SOLID
  5
20E80
  8
MOJI
 10
6821.6453572671344
 20
3540.491193710408
 30
0.0
 11
6851.6647601615769
 21
3567.7543537309471
 31
0.0
 12
6832.1101336464681
 22
3532.2288554754832
 32
0.0
 13
6832.1101336464681
 23
3532.2288554754832
 33
0.0
  0
POLYLINE
  5
20E81
  8
MOJI
 66
     1
 10
0.0
 20
0.0
 30
0.0
  0
VERTEX
  5
20E82
  8
MOJI
 10
6826.8777454567989
 20
3536.360024592946
 30
0.0
  0
VERTEX
  5
20E83
  8
MOJI
 10
6585.4534504499816
 20
3230.5808144045991
 30
0.0
  0
SEQEND
  5
20E84
  8
MOJI
  0
ENDBLK
  5
20E86
  8
0
  0
BLOCK
  8
0
  2
*U46
 70
     1
 10
0.0
 20
0.0
 30
0.0
  3
*U46
  1

  0
SOLID
  5
20E9C
  8
MOJI
 10
641.16512079653069
 20
3651.7814217095361
 30
0.0
 11
628.0522741873574
 21
3690.1545594265481
 31
0.0
 12
652.90166023938991
 22
3658.1084604864041
 32
0.0
 13
652.90166023938991
 23
3658.1084604864041
 33
0.0
  0
POLYLINE
  5
20E9D
  8
MOJI
 66
     1
 10
0.0
 20
0.0
 30
0.0
  0
VERTEX
  5
20E9E
  8
MOJI
 10
647.03339051796024
 20
3654.944941097971
 30
0.0
  0
VERTEX
  5
20E9F
  8
MOJI
 10
755.80534148582944
 20
3453.1749918638088
 30
0.0
  0
SEQEND
  5
20EA0
  8
MOJI
  0
ENDBLK
  5
20EA2
  8
0
  0
BLOCK
  8
0
  2
*U47
 70
     1
 10
0.0
 20
0.0
 30
0.0
  3
*U47
  1

  0
SOLID
  5
20EFE
  8
MOJI
 10
1608.927194828028
 20
4289.3364243774422
 30
0.0
 11
1592.4826982655061
 21
4326.4042402997429
 31
0.0
 12
1620.0602974751239
 22
4296.6734403394657
 32
0.0
 13
1620.0602974751239
 23
4296.6734403394657
 33
0.0
  0
POLYLINE
  5
20EFF
  8
MOJI
 66
     1
 10
0.0
 20
0.0
 30
0.0
  0
VERTEX
  5
20F00
  8
MOJI
 10
1614.493746151576
 20
4293.0049323584526
 30
0.0
  0
VERTEX
  5
20F01
  8
MOJI
 10
2017.7633041845741
 20
3681.08839745255
 30
0.0
  0
SEQEND
  5
20F02
  8
MOJI
  0
ENDBLK
  5
20F04
  8
0
  0
BLOCK
  8
0
  2
*U48
 70
     1
 10
0.0
 20
0.0
 30
0.0
  3
*U48
  1

  0
SOLID
  5
20F06
  8
MOJI
 10
1839.5866569773129
 20
3939.3364404706458
 30
0.0
 11
1823.1421604147911
 21
3976.404256392947
 31
0.0
 12
1850.71975962441
 22
3946.6734564326689
 32
0.0
 13
1850.71975962441
 23
3946.6734564326689
 33
0.0
  0
POLYLINE
  5
20F07
  8
MOJI
 66
     1
 10
0.0
 20
0.0
 30
0.0
  0
VERTEX
  5
20F08
  8
MOJI
 10
1845.153208300861
 20
3943.0049484516571
 30
0.0
  0
VERTEX
  5
20F09
  8
MOJI
 10
2017.7633041845741
 20
3681.08839745255
 30
0.0
  0
SEQEND
  5
20F0A
  8
MOJI
  0
ENDBLK
  5
20F0C
  8
0
  0
BLOCK
  8
0
  2
*X49
 70
     1
 10
0.0
 20
0.0
 30
0.0
  3
*X49
  1

  0
LINE
  5
20F0E
  8
0
 62
     0
 10
4628.4140509131666
 20
3167.7543596913488
 30
0.0
 11
4679.8491082814398
 21
3219.1894170596211
 31
0.0
  0
LINE
  5
20F0F
  8
0
 62
     0
 10
4560.0987416198377
 20
3276.215745694657
 30
0.0
 11
4679.849108281438
 21
3395.9661123562578
 31
0.0
  0
LINE
  5
20F10
  8
0
 62
     0
 10
4451.6373556165281
 20
3167.754359691347
 30
0.0
 11
4499.5994749430383
 21
3215.7164790178572
 31
0.0
  0
LINE
  5
20F11
  8
0
 62
     0
 10
4560.0987416198377
 20
3452.9924409912942
 30
0.0
 11
4674.8606543594888
 21
3567.7543537309448
 31
0.0
  0
LINE
  5
20F12
  8
0
 62
     0
 10
4379.8491082814389
 20
3272.7428076528959
 30
0.0
 11
4499.5994749430383
 21
3392.4931743144948
 31
0.0
  0
LINE
  5
20F13
  8
0
 62
     0
 10
4379.8491082814389
 20
3449.519502949533
 30
0.0
 11
4498.0839590628502
 21
3567.7543537309439
 31
0.0
  0
LINE
  5
20F14
  8
0
 62
     0
 10
4650.5111378252468
 20
3167.7543596913488
 30
0.0
 11
4679.849108281438
 21
3197.0923301475409
 31
0.0
  0
LINE
  5
20F15
  8
0
 62
     0
 10
4560.0987416198377
 20
3254.1186587825769
 30
0.0
 11
4679.849108281438
 21
3373.8690254441781
 31
0.0
  0
LINE
  5
20F16
  8
0
 62
     0
 10
4473.7344425286074
 20
3167.754359691347
 30
0.0
 11
4499.5994749430383
 21
3193.6193921057779
 31
0.0
  0
LINE
  5
20F17
  8
0
 62
     0
 10
4560.0987416198377
 20
3430.8953540792149
 30
0.0
 11
4679.849108281438
 21
3550.6457207408162
 31
0.0
  0
LINE
  5
20F18
  8
0
 62
     0
 10
4379.8491082814389
 20
3250.6457207408171
 30
0.0
 11
4499.5994749430392
 21
3370.396087402416
 31
0.0
  0
LINE
  5
20F19
  8
0
 62
     0
 10
4379.8491082814389
 20
3427.4224160374538
 30
0.0
 11
4499.5994749430383
 21
3547.1727826990541
 31
0.0
  0
LINE
  5
20F1A
  8
0
 62
     0
 10
4672.6082247373251
 20
3167.754359691347
 30
0.0
 11
4679.849108281438
 21
3174.9952432354612
 31
0.0
  0
LINE
  5
20F1B
  8
0
 62
     0
 10
4560.0987416198377
 20
3232.0215718704981
 30
0.0
 11
4679.849108281438
 21
3351.7719385320988
 31
0.0
  0
LINE
  5
20F1C
  8
0
 62
     0
 10
4495.8315294406848
 20
3167.7543596913461
 30
0.0
 11
4499.5994749430383
 21
3171.5223051936991
 31
0.0
  0
LINE
  5
20F1D
  8
0
 62
     0
 10
4560.0987416198377
 20
3408.7982671671348
 30
0.0
 11
4679.8491082814371
 21
3528.548633828736
 31
0.0
  0
LINE
  5
20F1E
  8
0
 62
     0
 10
4379.8491082814389
 20
3228.5486338287378
 30
0.0
 11
4499.5994749430374
 21
3348.2990004903349
 31
0.0
  0
LINE
  5
20F1F
  8
0
 62
     0
 10
4379.8491082814389
 20
3405.3253291253741
 30
0.0
 11
4499.5994749430383
 21
3525.075695786973
 31
0.0
  0
ENDBLK
  5
20F21
  8
0
  0
BLOCK
  8
0
  2
*U50
 70
     1
 10
0.0
 20
0.0
 30
0.0
  3
*U50
  1

  0
SOLID
  5
20F5F
  8
MOJI
 10
4387.6586514920773
 20
1728.125652230802
 30
0.0
 11
4357.0997411880162
 21
1768.568172496889
 31
0.0
 12
4399.1233115619389
 22
1740.222732343799
 32
0.0
 13
4399.1233115619389
 23
1740.222732343799
 33
0.0
  0
POLYLINE
  5
20F60
  8
MOJI
 66
     1
 10
0.0
 20
0.0
 30
0.0
  0
VERTEX
  5
20F61
  8
MOJI
 10
4393.3909815270081
 20
1734.1741922873009
 30
0.0
  0
VERTEX
  5
20F62
  8
MOJI
 10
4514.3087973885713
 20
1619.5778068542861
 30
0.0
  0
SEQEND
  5
20F63
  8
MOJI
  0
ENDBLK
  5
20F65
  8
0
  0
BLOCK
  8
0
  2
*U51
 70
     1
 10
0.0
 20
0.0
 30
0.0
  3
*U51
  1

  0
SOLID
  5
20F72
  8
MOJI
 10
4326.2032376020361
 20
1384.3784791547459
 30
0.0
 11
4339.7997378352165
 21
1346.1740340487961
 31
0.0
 12
4314.5475527154131
 22
1377.903698262581
 32
0.0
 13
4314.5475527154131
 23
1377.903698262581
 33
0.0
  0
POLYLINE
  5
20F73
  8
MOJI
 66
     1
 10
0.0
 20
0.0
 30
0.0
  0
VERTEX
  5
20F74
  8
MOJI
 10
4320.375395158725
 20
1381.1410887086629
 30
0.0
  0
VERTEX
  5
20F75
  8
MOJI
 10
4266.7367204950569
 20
1477.6996441298029
 30
0.0
  0
SEQEND
  5
20F76
  8
MOJI
  0
ENDBLK
  5
20F78
  8
0
  0
BLOCK
  8
0
  2
*U52
 70
     1
 10
0.0
 20
0.0
 30
0.0
  3
*U52
  1

  0
SOLID
  5
20F9C
  8
MOJI
 10
4378.6123364525547
 20
1882.172265695059
 30
0.0
 11
4339.7997411880187
 21
1849.5681724968781
 31
0.0
 12
4365.9400578334416
 22
1892.9977510133849
 32
0.0
 13
4365.9400578334416
 23
1892.9977510133849
 33
0.0
  0
POLYLINE
  5
20F9D
  8
MOJI
 66
     1
 10
0.0
 20
0.0
 30
0.0
  0
VERTEX
  5
20F9E
  8
MOJI
 10
4372.2761971429982
 20
1887.5850083542221
 30
0.0
  0
VERTEX
  5
20F9F
  8
MOJI
 10
4529.3392439221998
 20
2071.442510445479
 30
0.0
  0
SEQEND
  5
20FA0
  8
MOJI
  0
ENDBLK
  5
20FA2
  8
0
  0
BLOCK
  8
0
  2
*U53
 70
     1
 10
0.0
 20
0.0
 30
0.0
  3
*U53
  1

  0
SOLID
  5
20FA4
  8
MOJI
 10
4155.3149100697037
 20
1191.06957893409
 30
0.0
 11
4194.418466905352
 21
1201.809983360635
 31
0.0
 12
4160.9119902532148
 22
1178.9679066861249
 32
0.0
 13
4160.9119902532148
 23
1178.9679066861249
 33
0.0
  0
POLYLINE
  5
20FA5
  8
MOJI
 66
     1
 10
0.0
 20
0.0
 30
0.0
  0
VERTEX
  5
20FA6
  8
MOJI
 10
4158.1134501614597
 20
1185.0187428101069
 30
0.0
  0
VERTEX
  5
20FA7
  8
MOJI
 10
4031.8403804622421
 20
1126.6168557284871
 30
0.0
  0
SEQEND
  5
20FA8
  8
MOJI
  0
ENDBLK
  5
20FAA
  8
0
  0
BLOCK
  8
0
  2
*U54
 70
     1
 10
0.0
 20
0.0
 30
0.0
  3
*U54
  1

  0
SOLID
  5
20FCA
  8
MOJI
 10
812.78259563797087
 20
2396.7831331688849
 30
0.0
 11
843.55739413119954
 21
2423.1906363099552
 31
0.0
 12
823.01069387254665
 22
2388.2295500435721
 32
0.0
 13
823.01069387254665
 23
2388.2295500435721
 33
0.0
  0
POLYLINE
  5
20FCB
  8
MOJI
 66
     1
 10
0.0
 20
0.0
 30
0.0
  0
VERTEX
  5
20FCC
  8
MOJI
 10
817.89664475525865
 20
2392.5063416062289
 30
0.0
  0
VERTEX
  5
20FCD
  8
MOJI
 10
705.38101139872742
 20
2257.9637839393331
 30
0.0
  0
SEQEND
  5
20FCE
  8
MOJI
  0
ENDBLK
  5
20FD0
  8
0
  0
BLOCK
  8
0
  2
*U55
 70
     1
 10
0.0
 20
0.0
 30
0.0
  3
*U55
  1

  0
SOLID
  5
20FD2
  8
MOJI
 10
2029.0378519737981
 20
1217.271755732628
 30
0.0
 11
2033.3805601893071
 21
1176.953207522165
 31
0.0
 12
2016.1963070523241
 22
1213.6839288405449
 32
0.0
 13
2016.1963070523241
 23
1213.6839288405449
 33
0.0
  0
POLYLINE
  5
20FD3
  8
MOJI
 66
     1
 10
0.0
 20
0.0
 30
0.0
  0
VERTEX
  5
20FD4
  8
MOJI
 10
2022.6170795130611
 20
1215.4778422865861
 30
0.0
  0
VERTEX
  5
20FD5
  8
MOJI
 10
1975.0088218292201
 20
1385.8772506385681
 30
0.0
  0
SEQEND
  5
20FD6
  8
MOJI
  0
ENDBLK
  5
20FD8
  8
0
  0
BLOCK
  8
0
  2
*U56
 70
     1
 10
0.0
 20
0.0
 30
0.0
  3
*U56
  1

  0
SOLID
  5
20FDA
  8
MOJI
 10
2772.35598959348
 20
932.30487521242651
 30
0.0
 11
2757.380560189315
 21
969.99016357015705
 31
0.0
 12
2783.7687626065731
 22
939.19881384933046
 32
0.0
 13
2783.7687626065731
 23
939.19881384933046
 33
0.0
  0
POLYLINE
  5
20FDB
  8
MOJI
 66
     1
 10
0.0
 20
0.0
 30
0.0
  0
VERTEX
  5
20FDC
  8
MOJI
 10
2778.0623761000261
 20
935.75184453087866
 30
0.0
  0
VERTEX
  5
20FDD
  8
MOJI
 10
2882.0482298618122
 20
763.60541154653765
 30
0.0
  0
SEQEND
  5
20FDE
  8
MOJI
  0
ENDBLK
  5
20FE0
  8
0
  0
BLOCK
  8
0
  2
*U57
 70
     1
 10
0.0
 20
0.0
 30
0.0
  3
*U57
  1

  0
SOLID
  5
20FE2
  8
MOJI
 10
2486.6169423533111
 20
740.5343909311099
 30
0.0
 11
2466.380619421308
 21
775.67604255188769
 31
0.0
 12
2496.9203794772388
 22
748.99707142909904
 32
0.0
 13
2496.9203794772388
 23
748.99707142909904
 33
0.0
  0
POLYLINE
  5
20FE3
  8
MOJI
 66
     1
 10
0.0
 20
0.0
 30
0.0
  0
VERTEX
  5
20FE4
  8
MOJI
 10
2491.7686609152752
 20
744.76573118010435
 30
0.0
  0
VERTEX
  5
20FE5
  8
MOJI
 10
2721.6912024772569
 20
464.8316782614711
 30
0.0
  0
SEQEND
  5
20FE6
  8
MOJI
  0
ENDBLK
  5
20FE8
  8
0
  0
BLOCK
  8
0
  2
*U58
 70
     1
 10
0.0
 20
0.0
 30
0.0
  3
*U58
  1

  0
SOLID
  5
21053
  8
MOJI
 10
2919.2421605204981
 20
1189.8496348032511
 30
0.0
 11
2909.0783183452759
 21
1150.5922691672131
 31
0.0
 12
2905.9606450615011
 22
1191.023996285159
 32
0.0
 13
2905.9606450615011
 23
1191.023996285159
 33
0.0
  0
POLYLINE
  5
21054
  8
MOJI
 66
     1
 10
0.0
 20
0.0
 30
0.0
  0
VERTEX
  5
21055
  8
MOJI
 10
2912.6014027909991
 20
1190.436815544205
 30
0.0
  0
VERTEX
  5
21056
  8
MOJI
 10
3048.3546126337128
 20
2725.7463287662208
 30
0.0
  0
SEQEND
  5
21057
  8
MOJI
  0
ENDBLK
  5
21059
  8
0
  0
BLOCK
  8
0
  2
*U59
 70
     1
 10
0.0
 20
0.0
 30
0.0
  3
*U59
  1

  0
SOLID
  5
2105B
  8
MOJI
 10
3043.0312638628479
 20
2589.8503288194938
 30
0.0
 11
3032.8674216876252
 21
2550.5929631834551
 31
0.0
 12
3029.7497484038499
 22
2591.0246903014008
 32
0.0
 13
3029.7497484038499
 23
2591.0246903014008
 33
0.0
  0
POLYLINE
  5
2105C
  8
MOJI
 66
     1
 10
0.0
 20
0.0
 30
0.0
  0
VERTEX
  5
2105D
  8
MOJI
 10
3036.3905061333489
 20
2590.4375095604478
 30
0.0
  0
VERTEX
  5
2105E
  8
MOJI
 10
3048.3546126337128
 20
2725.7463287662208
 30
0.0
  0
SEQEND
  5
2105F
  8
MOJI
  0
ENDBLK
  5
21061
  8
0
  0
BLOCK
  8
0
  2
*U60
 70
     1
 10
0.0
 20
0.0
 30
0.0
  3
*U60
  1

  0
TEXT
  5
21063
  8
SUNPOU
 10
6637.4468430065544
 20
3900.1829171875202
 30
0.0
 40
60.0
  1
800
 50
90.0
 41
0.8
  7
EXT08
  0
ENDBLK
  5
21065
  8
0
  0
BLOCK
  8
0
  2
*U61
 70
     1
 10
0.0
 20
0.0
 30
0.0
  3
*U61
  1

  0
TEXT
  5
21067
  8
SUNPOU
 10
5861.0763376307341
 20
3900.1829171875202
 30
0.0
 40
60.0
  1
800
 50
90.0
 41
0.8
  7
EXT08
  0
ENDBLK
  5
21069
  8
0
  0
BLOCK
  8
0
  2
*U62
 70
     1
 10
0.0
 20
0.0
 30
0.0
  3
*U62
  1

  0
TEXT
  5
2106B
  8
SUNPOU
 10
4133.3756551679726
 20
3900.182977984121
 30
0.0
 40
60.0
  1
800
 50
90.0
 41
0.8
  7
EXT08
  0
ENDBLK
  5
2106D
  8
0
  0
BLOCK
  8
0
  2
*U63
 70
     1
 10
0.0
 20
0.0
 30
0.0
  3
*U63
  1

  0
TEXT
  5
2106F
  8
SUNPOU
 10
5130.9058034695536
 20
3900.1829779841232
 30
0.0
 40
60.0
  1
800
 50
90.0
 41
0.8
  7
EXT08
  0
ENDBLK
  5
21071
  8
0
  0
ENDSEC
  0
SECTION
  2
ENTITIES
  0
TEXT
  5
83D7
  8
INFORMATION
 10
1.0
 20
2.0
 30
0.0
 40
0.8
  1
PLOTTER=CALCOMP_TECHJET720
  0
TEXT
  5
83D8
  8
INFORMATION
 10
1.0
 20
3.0
 30
0.0
 40
0.8
  1
PAPER=A3
  0
TEXT
  5
8EE8
  8
INFORMATION
 10
1.0
 20
1.0
 30
0.0
 40
0.8
  1
VERSION=3.0
  0
TEXT
  5
ED1F
  8
INFORMATION
 10
8110.9458824725543
 20
-5301.1021339775716
 30
0.0
 40
0.8
  1
VERSION=3.0
 41
0.8
  7
EXT08
  0
TEXT
  5
ED49
  8
INFORMATION
 10
8110.9458824725543
 20
-5101.1021339775734
 30
0.0
 40
0.8
  1
VERSION=3.0
 41
0.8
  7
EXT08
  0
TEXT
  5
EF4F
  8
INFORMATION
 10
-3136.6284003522742
 20
-6512.5800055322989
 30
0.0
 40
0.8
  1
PLOTTER=CALCOMP_TECHJET720
  0
TEXT
  5
EF50
  8
INFORMATION
 10
-3136.6284003522742
 20
-6511.5800055322989
 30
0.0
 40
0.8
  1
PAPER=A3
  0
TEXT
  5
EF51
  8
INFORMATION
 10
-3136.6284003522742
 20
-6513.5800055322998
 30
0.0
 40
0.8
  1
VERSION=3.0
  0
TEXT
  5
EF59
  8
INFORMATION
 10
-3136.6284003522728
 20
-7376.543316838759
 30
0.0
 40
0.8
  1
PLOTTER=CALCOMP_TECHJET720
  0
TEXT
  5
EF5A
  8
INFORMATION
 10
-3136.6284003522728
 20
-7375.5433168387581
 30
0.0
 40
0.8
  1
PAPER=A3
  0
TEXT
  5
EF5B
  8
INFORMATION
 10
-3136.6284003522728
 20
-7377.5433168387581
 30
0.0
 40
0.8
  1
VERSION=3.0
  0
TEXT
  5
EF73
  8
INFORMATION
 10
-3136.6284003522742
 20
-7376.5433168387572
 30
0.0
 40
0.8
  1
PLOTTER=CALCOMP_TECHJET720
  0
TEXT
  5
EF74
  8
INFORMATION
 10
-3136.6284003522742
 20
-7375.5433168387572
 30
0.0
 40
0.8
  1
PAPER=A3
  0
TEXT
  5
EF75
  8
INFORMATION
 10
-3136.6284003522742
 20
-7377.5433168387581
 30
0.0
 40
0.8
  1
VERSION=3.0
  0
TEXT
  5
EF76
  8
INFORMATION
 10
-1370.834209232052
 20
-6512.5800055322989
 30
0.0
 40
0.8
  1
PLOTTER=CALCOMP_TECHJET720
  0
TEXT
  5
EF77
  8
INFORMATION
 10
-1370.834209232052
 20
-6511.5800055322989
 30
0.0
 40
0.8
  1
PAPER=A3
  0
TEXT
  5
EF78
  8
INFORMATION
 10
-1370.834209232052
 20
-6513.5800055322998
 30
0.0
 40
0.8
  1
VERSION=3.0
  0
TEXT
  5
EF89
  8
INFORMATION
 10
-1370.834209232052
 20
-7376.5433168387517
 30
0.0
 40
0.8
  1
PLOTTER=CALCOMP_TECHJET720
  0
TEXT
  5
EF8A
  8
INFORMATION
 10
-1370.834209232052
 20
-7375.5433168387508
 30
0.0
 40
0.8
  1
PAPER=A3
  0
TEXT
  5
EF8B
  8
INFORMATION
 10
-1370.834209232052
 20
-7377.5433168387517
 30
0.0
 40
0.8
  1
VERSION=3.0
  0
LINE
  5
1A4DF
  8
SJC
 10
628.05227418735751
 20
3973.9543537494978
 30
0.0
 11
628.05227418735706
 21
3567.7543537309512
 31
0.0
  0
LINE
  5
1A4E0
  8
SJC
 10
567.55239715935556
 20
3567.7543537309512
 30
0.0
 11
567.55239715935556
 21
3973.9543537494978
 31
0.0
  0
LINE
  5
1A4E1
  8
SJC
 10
628.05227418735751
 20
4385.7543537309466
 30
0.0
 11
628.05227418735717
 21
4370.7043376377469
 31
0.0
  0
LINE
  5
1A4E2
  8
SJC
 10
567.55239715935545
 20
4370.7043376377469
 30
0.0
 11
567.55239715935556
 21
4385.7543537309466
 31
0.0
  0
LINE
  5
1A4E3
  8
SJC
 10
700.80233617675026
 20
4369.1044349757503
 30
0.0
 11
3494.801985794159
 21
4369.1044349757503
 31
0.0
  0
LINE
  5
1A4E4
  8
SJC
 10
700.80233617675481
 20
4326.4042402997466
 30
0.0
 11
3494.8019857941558
 21
4326.4042402997466
 31
0.0
  0
LINE
  5
1A4E5
  8
SJC
 10
3700.8019857941558
 20
4369.1044349757503
 30
0.0
 11
3839.1407464629051
 21
4369.1044349757503
 31
0.0
  0
LINE
  5
1A4E6
  8
SJC
 10
3700.8019857941581
 20
4326.4042402997466
 30
0.0
 11
3839.1407464629051
 21
4326.4042402997466
 31
0.0
  0
LINE
  5
1A4E7
  8
CENTER
 10
452.80233567335739
 20
4347.7543376377471
 30
0.0
 11
3839.1407464629051
 21
4347.7543376377471
 31
0.0
  0
LINE
  5
1A4E8
  8
SJC
 10
567.55239715935556
 20
4020.704353730951
 30
0.0
 11
567.55239715935556
 21
4323.9543376563006
 31
0.0
  0
LINE
  5
1A4E9
  8
SJC
 10
3628.052229484158
 20
4323.9543376563006
 30
0.0
 11
3628.0522294841562
 21
4020.7043537309469
 31
0.0
  0
LINE
  5
1A4EA
  8
SJC
 10
3567.5517421041568
 20
4020.7043537309469
 30
0.0
 11
3567.5517421041582
 21
4323.9543376563006
 31
0.0
  0
LINE
  5
1A4EB
  8
SJC
 10
628.0522741873574
 20
4323.9543376563006
 30
0.0
 11
628.0522741873574
 21
4020.704353730951
 31
0.0
  0
LINE
  5
1A4EC
  8
SJC
 10
461.49578926651878
 20
3567.7543537309471
 30
0.0
 11
3839.1407464629051
 21
3567.7543537309471
 31
0.0
  0
TEXT
  5
1A4ED
  8
MOJI
 10
2033.485197260974
 20
3699.5859962473628
 30
0.0
 40
60.0
  1
ビームパイプ　%%c42.7×t2.3
 41
0.8
  7
EXT08
  0
TEXT
  5
1A4EE
  8
MOJI
 10
783.19315211736102
 20
3475.5295499856511
 30
0.0
 40
60.0
  1
支柱 %%c60.5×t3.2
 41
0.8
  7
EXT08
  0
LINE
  5
1A4EF
  8
CENTER
 10
597.80233567335745
 20
3509.252157336949
 30
0.0
 11
597.80233567335745
 21
4423.7543537309466
 31
0.0
  0
LINE
  5
1A4F0
  8
CENTER
 10
3597.8019857941558
 20
3509.252157336949
 30
0.0
 11
3597.8019857941558
 21
4423.7543537309466
 31
0.0
  0
LINE
  5
1A4F5
  8
SJC
 10
406.26852505095661
 20
3567.7543537309471
 30
0.0
 11
406.26852505095661
 21
3567.7543537309471
 31
0.0
  0
LINE
  5
1A4F6
  8
SJC
 10
4560.0987416198377
 20
3567.7543537309471
 30
0.0
 11
4729.4789274567056
 21
3567.7543537309471
 31
0.0
  0
LINE
  5
1A4F7
  8
SJC
 10
4195.249503892639
 20
3567.7543537309471
 30
0.0
 11
4499.5994749430392
 21
3567.7543537309471
 31
0.0
  0
LINE
  5
1A4F9
  8
SJC
 10
4499.5994749430447
 20
3167.7543596913461
 30
0.0
 11
4499.5994749430383
 21
3984.853190992646
 31
0.0
  0
LINE
  5
1A4FA
  8
SJC
 10
4499.5994749430392
 20
4012.4502716732131
 30
0.0
 11
4499.5994749430392
 21
4334.8531748994501
 31
0.0
  0
LINE
  5
1A4FB
  8
SJC
 10
4499.5994749430392
 20
4362.4502555800127
 30
0.0
 11
4499.5994749430401
 21
4385.7543537309466
 31
0.0
  0
LINE
  5
1A4FC
  8
SJC
 10
4560.0987416198377
 20
4385.7543537309466
 30
0.0
 11
4560.0987416198377
 21
3167.7543596913488
 31
0.0
  0
LINE
  5
1A4FD
  8
CENTER
 10
4529.849108281438
 20
3137.384487097348
 30
0.0
 11
4529.849108281438
 21
4423.7543537309466
 31
0.0
  0
LINE
  5
1A4FE
  8
SJC
 10
5306.95892236088
 20
3367.7543567113462
 30
0.0
 11
5367.4594097404788
 21
3367.7543567113462
 31
0.0
  0
LINE
  5
1A4FF
  8
SJC
 10
5192.7796521942191
 20
3567.7543537309471
 30
0.0
 11
5306.95892236088
 21
3567.7543537309471
 31
0.0
1001
ACAD
1000
ASC_BOUNDS
1002
{
1070
    19
1002
}
  0
LINE
  5
1A500
  8
SJC
 10
5367.4594097404788
 20
3567.7543537309471
 30
0.0
 11
5481.6386799075417
 21
3567.7543537309471
 31
0.0
1001
ACAD
1000
ASC_BOUNDS
1002
{
1070
    19
1002
}
  0
LINE
  5
1A501
  8
SJC
 10
5367.4594097404788
 20
4385.7543537309466
 30
0.0
 11
5367.4594097404788
 21
3367.7543567113462
 31
0.0
1001
ACAD
1000
ASC_BOUNDS
1002
{
1070
    19
1002
}
  0
LINE
  5
1A502
  8
CENTER
 10
5337.2091660508813
 20
3338.7046745269472
 30
0.0
 11
5337.2091660508813
 21
4423.7543537309466
 31
0.0
  0
LINE
  5
1A503
  8
SJC
 10
5922.9501863553996
 20
3567.7543537309471
 30
0.0
 11
6084.4878866088802
 21
3567.7543537309471
 31
0.0
  0
LINE
  5
1A504
  8
SJC
 10
6144.9883739884808
 20
3567.7543537309471
 30
0.0
 11
6258.8698571795321
 21
3567.7543537309471
 31
0.0
  0
LINE
  5
1A505
  8
SJC
 10
6084.4878866088802
 20
3070.1258821425472
 30
0.0
 11
6084.4878866088802
 21
3299.1441282413471
 31
0.0
  0
LINE
  5
1A506
  8
SJC
 10
6144.9883739884808
 20
3299.1441282413471
 30
0.0
 11
6144.9883739884808
 21
3070.1258821425472
 31
0.0
  0
LINE
  5
1A507
  8
SJC
 10
6144.9883739884808
 20
4385.7543537309466
 30
0.0
 11
6144.9883739884808
 21
3369.3125842269478
 31
0.0
  0
LINE
  5
1A508
  8
CENTER
 10
6114.7381302984813
 20
3041.0761999581482
 30
0.0
 11
6114.7381302984804
 21
4423.7543537309466
 31
0.0
  0
LINE
  5
1A509
  8
SJC
 10
6084.4878866088802
 20
3070.1258821425472
 30
0.0
 11
6144.9883739884808
 21
3070.1258821425472
 31
0.0
  0
LINE
  5
1A50A
  8
SJC
 10
6931.9159031092177
 20
4385.7541097244457
 30
0.0
 11
6931.9159031092177
 21
3576.7543537309461
 31
0.0
  0
LINE
  5
1A50B
  8
CENTER
 10
6901.66565941922
 20
3512.9795742737479
 30
0.0
 11
6901.6656594192191
 21
4423.7543537309466
 31
0.0
  0
LINE
  5
1A50C
  8
MOJI2
 10
327.52849870311547
 20
4840.8071815230833
 30
0.0
 11
577.9920120221941
 21
4840.8071815230833
 31
0.0
  0
TEXT
  5
1A50D
  8
MOJI2
 10
344.30073057819391
 20
4853.1326601209403
 30
0.0
 40
80.0
  1
設置図 (1/20)
 41
0.8
  7
EXT08
  0
TEXT
  5
1A50E
  8
MOJI
 10
4385.3587067805347
 20
4605.1146120390686
 30
0.0
 40
70.0
  1
PF-208C30
 41
0.8
  7
EXT08
  0
TEXT
  5
1A50F
  8
MOJI
 10
5144.8767020523192
 20
4613.9662094414962
 30
0.0
 40
70.0
  1
PF-208W30
 41
0.8
  7
EXT08
  0
TEXT
  5
1A510
  8
MOJI
 10
5970.4133920572467
 20
4613.9662094414962
 30
0.0
 40
70.0
  1
PF-208E30
 41
0.8
  7
EXT08
  0
TEXT
  5
1A511
  8
MOJI
 10
6643.3576471900087
 20
4613.9662094414962
 30
0.0
 40
70.0
  1
PF-208PL30
 41
0.8
  7
EXT08
  0
DIMENSION
  5
1A51F
  8
SUNPOU
  2
*D7
 10
597.80233567335745
 20
4651.8810759642038
 30
0.0
 11
541.15155340648744
 21
4720.4490366311693
 31
0.0
 70
   128
 13
462.80233567335739
 23
4347.7543376377471
 33
0.0
 14
597.80233567335745
 24
4423.7543537309466
 34
0.0
1001
ACAD
1000
DSTYLE
1002
{
1070
   287
1070
     5
1070
   287
1070
     5
1070
   287
1070
     5
1070
   287
1070
     5
1070
    40
1040
20.0
1070
    41
1040
2.0
1070
    42
1040
1.0
1070
    43
1040
6.0
1070
    44
1040
1.0
1070
    73
1070
     0
1070
    74
1070
     0
1070
    77
1070
     1
1070
    78
1070
     8
1070
   140
1040
3.0
1070
   147
1040
1.1999999999999991
1070
   172
1070
     1
1070
   176
1070
   256
1070
   177
1070
   256
1070
   178
1070
   256
1070
   271
1070
     2
1070
   279
1070
     2
1070
   287
1070
     5
1070
   340
1005
1372
1002
}
  0
DIMENSION
  5
1A520
  8
SUNPOU
  2
*D8
 10
361.26852505095741
 20
4347.7543376377471
 30
0.0
 11
295.60454778759782
 21
4480.7547236838718
 31
0.0
 70
   128
 13
597.80233567335745
 23
4408.7543537309457
 33
0.0
 14
448.53951549978228
 24
4347.7543376377471
 34
0.0
 50
90.0
1001
ACAD
1000
DSTYLE
1002
{
1070
   287
1070
     5
1070
    40
1040
20.0
1070
    41
1040
2.0
1070
    42
1040
1.0
1070
    43
1040
6.0
1070
    44
1040
1.0
1070
    73
1070
     0
1070
    74
1070
     0
1070
    77
1070
     1
1070
    78
1070
     8
1070
   140
1040
3.0
1070
   147
1040
1.1999999999999991
1070
   172
1070
     1
1070
   179
1070
     2
1070
   271
1070
     2
1070
   279
1070
     2
1070
   340
1005
1372
1002
}
  0
DIMENSION
  5
1A521
  8
SUNPOU
  2
*D9
 10
361.26852505095673
 20
3997.7543537309471
 30
0.0
 11
307.26852505095599
 21
4172.7543456843468
 31
0.0
 70
     0
 13
452.80233567335739
 23
4347.7543376377471
 33
0.0
 14
452.80233567335648
 24
3997.7543537309471
 34
0.0
 50
90.0
1001
ACAD
1000
DSTYLE
1002
{
1070
   287
1070
     5
1070
    40
1040
20.0
1070
    41
1040
2.0
1070
    42
1040
1.0
1070
    43
1040
6.0
1070
    44
1040
1.0
1070
    73
1070
     0
1070
    74
1070
     0
1070
    77
1070
     1
1070
    78
1070
     8
1070
   140
1040
3.0
1070
   147
1040
1.1999999999999991
1070
   172
1070
     1
1070
   179
1070
     2
1070
   271
1070
     2
1070
   279
1070
     2
1070
   340
1005
1372
1002
}
  0
DIMENSION
  5
1A522
  8
SUNPOU
  2
*D10
 10
361.26852505095673
 20
3567.7543537309471
 30
0.0
 11
307.2685250509561
 21
3782.7543537309471
 31
0.0
 70
     0
 13
452.80233567335648
 23
3997.7543537309471
 33
0.0
 14
461.49578926651878
 24
3567.7543537309471
 34
0.0
 50
90.0
1001
ACAD
1000
DSTYLE
1002
{
1070
   287
1070
     5
1070
   287
1070
     5
1070
   287
1070
     5
1070
   287
1070
     5
1070
    40
1040
20.0
1070
    41
1040
2.0
1070
    42
1040
1.0
1070
    43
1040
6.0
1070
    44
1040
1.0
1070
    73
1070
     0
1070
    74
1070
     0
1070
    77
1070
     1
1070
    78
1070
     8
1070
   140
1040
3.0
1070
   147
1040
1.1999999999999991
1070
   172
1070
     1
1070
   176
1070
   256
1070
   177
1070
   256
1070
   178
1070
   256
1070
   271
1070
     2
1070
   279
1070
     2
1070
   287
1070
     5
1070
   340
1005
1372
1002
}
  0
DIMENSION
  5
1A523
  8
SUNPOU
  2
*D11
 10
224.59853530013979
 20
3567.7543537309471
 30
0.0
 11
170.59853530013919
 21
3988.2543537309471
 31
0.0
 70
     0
 13
597.80233567335745
 23
4408.7543537309457
 33
0.0
 14
461.49578926651878
 24
3567.7543537309471
 34
0.0
 50
90.0
1001
ACAD
1000
DSTYLE
1002
{
1070
   287
1070
     5
1070
    40
1040
20.0
1070
    41
1040
2.0
1070
    42
1040
1.0
1070
    43
1040
6.0
1070
    44
1040
1.0
1070
    73
1070
     0
1070
    74
1070
     0
1070
    77
1070
     1
1070
    78
1070
     8
1070
   140
1040
3.0
1070
   147
1040
1.1999999999999991
1070
   172
1070
     1
1070
   179
1070
     2
1070
   271
1070
     2
1070
   279
1070
     2
1070
   340
1005
1372
1002
}
  0
DIMENSION
  5
1A525
  8
SUNPOU
  2
*D12
 10
3991.8769462040632
 20
3567.7543537309471
 30
0.0
 11
3937.8769462040618
 21
3968.4293943533489
 31
0.0
 70
     0
  1
800
 13
3839.1407464629051
 23
4369.1044349757503
 33
0.0
 14
3839.1407464629051
 24
3567.7543537309471
 34
0.0
 50
90.0
1001
ACAD
1000
DSTYLE
1002
{
1070
   287
1070
     5
1070
   287
1070
     5
1070
   287
1070
     5
1070
   287
1070
     5
1070
    40
1040
20.0
1070
    41
1040
2.0
1070
    42
1040
1.0
1070
    43
1040
6.0
1070
    44
1040
1.0
1070
    73
1070
     0
1070
    74
1070
     0
1070
    77
1070
     1
1070
    78
1070
     8
1070
   140
1040
3.0
1070
   147
1040
1.1999999999999991
1070
   172
1070
     1
1070
   176
1070
   256
1070
   177
1070
   256
1070
   178
1070
   256
1070
   271
1070
     2
1070
   279
1070
     2
1070
   287
1070
     5
1070
   340
1005
1372
1002
}
  0
DIMENSION
  5
1A526
  8
SUNPOU
  2
*D13
 10
3597.8019857941558
 20
4651.8810759642038
 30
0.0
 11
2097.802160733756
 21
4705.8810759642029
 31
0.0
 70
     0
 13
597.80233567335745
 23
4423.7543537309466
 33
0.0
 14
3597.8019857941558
 24
4423.7543537309466
 34
0.0
1001
ACAD
1000
DSTYLE
1002
{
1070
   287
1070
     5
1070
   287
1070
     5
1070
   287
1070
     5
1070
   287
1070
     5
1070
    40
1040
20.0
1070
    41
1040
2.0
1070
    42
1040
1.0
1070
    43
1040
6.0
1070
    44
1040
1.0
1070
    73
1070
     0
1070
    74
1070
     0
1070
    77
1070
     1
1070
    78
1070
     8
1070
   140
1040
3.0
1070
   147
1040
1.1999999999999991
1070
   172
1070
     1
1070
   176
1070
   256
1070
   177
1070
   256
1070
   178
1070
   256
1070
   271
1070
     2
1070
   279
1070
     2
1070
   287
1070
     5
1070
   340
1005
1372
1002
}
  0
LINE
  5
1A527
  8
SJC
 10
4379.849108281438
 20
3167.7543596913488
 30
0.0
 11
4679.8491082814371
 21
3167.7543596913488
 31
0.0
1001
ACAD
1000
ASC_BOUNDS
1002
{
1070
    19
1005
0
1002
}
  0
LINE
  5
1A52A
  8
MOJI
  6
CONTINUOUS
 10
2017.763304184575
 20
3681.08839745255
 30
0.0
 11
2886.6267369209272
 21
3681.08839745255
 31
0.0
  0
DIMENSION
  5
1A52D
  8
SUNPOU
  2
*D14
 10
4844.5218357055583
 20
3567.7543537309471
 30
0.0
 11
4790.5218357055574
 21
3367.7543567111488
 31
0.0
 70
     0
 13
4679.8491082814371
 23
3167.7543596913488
 33
0.0
 14
4729.4789274567056
 24
3567.7543537309471
 34
0.0
 50
90.0
1001
ACAD
1000
DSTYLE
1002
{
1070
   287
1070
     5
1070
   287
1070
     5
1070
   287
1070
     5
1070
   287
1070
     5
1070
    40
1040
20.0
1070
    41
1040
2.0
1070
    42
1040
1.0
1070
    43
1040
6.0
1070
    44
1040
1.0
1070
    73
1070
     0
1070
    74
1070
     0
1070
    77
1070
     1
1070
    78
1070
     8
1070
   140
1040
3.0
1070
   147
1040
1.1999999999999991
1070
   172
1070
     1
1070
   176
1070
   256
1070
   177
1070
   256
1070
   178
1070
   256
1070
   271
1070
     2
1070
   279
1070
     2
1070
   287
1070
     5
1070
   340
1005
1372
1002
}
  0
DIMENSION
  5
1A52E
  8
SUNPOU
  2
*D15
 10
4844.5218357055583
 20
4408.7543537309457
 30
0.0
 11
4790.5218357055574
 21
3988.254353730948
 31
0.0
 70
     0
 13
4729.4789274567056
 23
3567.7543537309471
 33
0.0
 14
4529.849108281438
 24
4408.7543537309457
 34
0.0
 50
90.0
1001
ACAD
1000
DSTYLE
1002
{
1070
   287
1070
     5
1070
   287
1070
     5
1070
   287
1070
     5
1070
   287
1070
     5
1070
    40
1040
20.0
1070
    41
1040
2.0
1070
    42
1040
1.0
1070
    43
1040
6.0
1070
    44
1040
1.0
1070
    73
1070
     0
1070
    74
1070
     0
1070
    77
1070
     1
1070
    78
1070
     8
1070
   140
1040
3.0
1070
   147
1040
1.1999999999999991
1070
   172
1070
     1
1070
   176
1070
   256
1070
   177
1070
   256
1070
   178
1070
   256
1070
   271
1070
     2
1070
   279
1070
     2
1070
   287
1070
     5
1070
   340
1005
1372
1002
}
  0
DIMENSION
  5
1A52F
  8
SUNPOU
  2
*D16
 10
4976.3497530219056
 20
3167.7543596913488
 30
0.0
 11
4922.3497530219047
 21
3788.2543567111479
 31
0.0
 70
     0
 13
4529.849108281438
 23
4408.7543537309457
 33
0.0
 14
4679.8491082814371
 24
3167.7543596913488
 34
0.0
 50
90.0
1001
ACAD
1000
DSTYLE
1002
{
1070
   287
1070
     5
1070
   287
1070
     5
1070
   287
1070
     5
1070
   287
1070
     5
1070
    40
1040
20.0
1070
    41
1040
2.0
1070
    42
1040
1.0
1070
    43
1040
6.0
1070
    44
1040
1.0
1070
    73
1070
     0
1070
    74
1070
     0
1070
    77
1070
     1
1070
    78
1070
     8
1070
   140
1040
3.0
1070
   147
1040
1.1999999999999991
1070
   172
1070
     1
1070
   176
1070
   256
1070
   177
1070
   256
1070
   178
1070
   256
1070
   271
1070
     2
1070
   279
1070
     2
1070
   287
1070
     5
1070
   340
1005
1372
1002
}
  0
DIMENSION
  5
1A530
  8
SUNPOU
  2
*D17
 10
5601.6686766888051
 20
4408.7543537309457
 30
0.0
 11
5547.6686766888042
 21
3988.254353730948
 31
0.0
 70
     0
 13
5481.6386799075417
 23
3567.7543537309471
 33
0.0
 14
5337.2091660508813
 24
4408.7543537309457
 34
0.0
 50
90.0
1001
ACAD
1000
DSTYLE
1002
{
1070
   287
1070
     5
1070
   287
1070
     5
1070
   287
1070
     5
1070
   287
1070
     5
1070
    40
1040
20.0
1070
    41
1040
2.0
1070
    42
1040
1.0
1070
    43
1040
6.0
1070
    44
1040
1.0
1070
    73
1070
     0
1070
    74
1070
     0
1070
    77
1070
     1
1070
    78
1070
     8
1070
   140
1040
3.0
1070
   147
1040
1.1999999999999991
1070
   172
1070
     1
1070
   176
1070
   256
1070
   177
1070
   256
1070
   178
1070
   256
1070
   271
1070
     2
1070
   279
1070
     2
1070
   287
1070
     5
1070
   340
1005
1372
1002
}
  0
DIMENSION
  5
1A531
  8
SUNPOU
  2
*D18
 10
5733.9482399225271
 20
3367.7543567113462
 30
0.0
 11
5679.9482399225262
 21
3888.2543552211459
 31
0.0
 70
     0
 13
5337.2091660508813
 23
4408.7543537309457
 33
0.0
 14
5367.4594097404788
 24
3367.7543567113462
 34
0.0
 50
90.0
1001
ACAD
1000
DSTYLE
1002
{
1070
   287
1070
     5
1070
   287
1070
     5
1070
   287
1070
     5
1070
   287
1070
     5
1070
    40
1040
20.0
1070
    41
1040
2.0
1070
    42
1040
1.0
1070
    43
1040
6.0
1070
    44
1040
1.0
1070
    73
1070
     0
1070
    74
1070
     0
1070
    77
1070
     1
1070
    78
1070
     8
1070
   140
1040
3.0
1070
   147
1040
1.1999999999999991
1070
   172
1070
     1
1070
   176
1070
   256
1070
   177
1070
   256
1070
   178
1070
   256
1070
   271
1070
     2
1070
   279
1070
     2
1070
   287
1070
     5
1070
   340
1005
1372
1002
}
  0
DIMENSION
  5
1A532
  8
SUNPOU
  2
*D19
 10
6338.8977254976062
 20
3567.7543537309471
 30
0.0
 11
6284.8977254976044
 21
3318.9401179367478
 31
0.0
 70
     0
  1
1000
 13
6114.7381302984813
 23
3070.1258821425472
 33
0.0
 14
6258.8698571795321
 24
3567.7543537309471
 34
0.0
 50
90.0
1001
ACAD
1000
DSTYLE
1002
{
1070
   287
1070
     5
1070
   287
1070
     5
1070
   287
1070
     5
1070
   287
1070
     5
1070
    40
1040
20.0
1070
    41
1040
2.0
1070
    42
1040
1.0
1070
    43
1040
6.0
1070
    44
1040
1.0
1070
    73
1070
     0
1070
    74
1070
     0
1070
    77
1070
     1
1070
    78
1070
     8
1070
   140
1040
3.0
1070
   147
1040
1.1999999999999991
1070
   172
1070
     1
1070
   176
1070
   256
1070
   177
1070
   256
1070
   178
1070
   256
1070
   271
1070
     2
1070
   279
1070
     2
1070
   287
1070
     5
1070
   340
1005
1372
1002
}
  0
DIMENSION
  5
1A533
  8
SUNPOU
  2
*D20
 10
6338.8977254976062
 20
3567.7543537309471
 30
0.0
 11
6284.8977254976044
 21
3988.254353730948
 31
0.0
 70
     0
 13
6114.7381302984813
 23
4408.7543537309457
 33
0.0
 14
6258.8698571795321
 24
3567.7543537309471
 34
0.0
 50
90.0
1001
ACAD
1000
DSTYLE
1002
{
1070
   287
1070
     5
1070
   287
1070
     5
1070
   287
1070
     5
1070
   287
1070
     5
1070
    40
1040
20.0
1070
    41
1040
2.0
1070
    42
1040
1.0
1070
    43
1040
6.0
1070
    44
1040
1.0
1070
    73
1070
     0
1070
    74
1070
     0
1070
    77
1070
     1
1070
    78
1070
     8
1070
   140
1040
3.0
1070
   147
1040
1.1999999999999991
1070
   172
1070
     1
1070
   176
1070
   256
1070
   177
1070
   256
1070
   178
1070
   256
1070
   271
1070
     2
1070
   279
1070
     2
1070
   287
1070
     5
1070
   340
1005
1372
1002
}
  0
DIMENSION
  5
1A534
  8
SUNPOU
  2
*D21
 10
6471.1772887313291
 20
3070.1258821425472
 30
0.0
 11
6417.1772887313273
 21
3739.4401179367478
 31
0.0
 70
     0
  1
1841
 13
6114.7381302984813
 23
4408.7543537309457
 33
0.0
 14
6134.7381302984813
 24
3070.1258821425472
 34
0.0
 50
90.0
1001
ACAD
1000
DSTYLE
1002
{
1070
   287
1070
     5
1070
   287
1070
     5
1070
   287
1070
     5
1070
   287
1070
     5
1070
    40
1040
20.0
1070
    41
1040
2.0
1070
    42
1040
1.0
1070
    43
1040
6.0
1070
    44
1040
1.0
1070
    73
1070
     0
1070
    74
1070
     0
1070
    77
1070
     1
1070
    78
1070
     8
1070
   140
1040
3.0
1070
   147
1040
1.1999999999999991
1070
   172
1070
     1
1070
   176
1070
   256
1070
   177
1070
   256
1070
   178
1070
   256
1070
   271
1070
     2
1070
   279
1070
     2
1070
   287
1070
     5
1070
   340
1005
1372
1002
}
  0
DIMENSION
  5
1A535
  8
SUNPOU
  2
*D22
 10
7192.3862620467326
 20
4408.7541097244466
 30
0.0
 11
7138.3862620467326
 21
3988.254109724448
 31
0.0
 70
     0
 13
7028.695710968027
 23
3567.7541097244471
 33
0.0
 14
6901.66565941922
 24
4408.7541097244466
 34
0.0
 50
90.0
1001
ACAD
1000
DSTYLE
1002
{
1070
   287
1070
     5
1070
   287
1070
     5
1070
   287
1070
     5
1070
   287
1070
     5
1070
    40
1040
20.0
1070
    41
1040
2.0
1070
    42
1040
1.0
1070
    43
1040
6.0
1070
    44
1040
1.0
1070
    73
1070
     0
1070
    74
1070
     0
1070
    77
1070
     1
1070
    78
1070
     8
1070
   140
1040
3.0
1070
   147
1040
1.1999999999999991
1070
   172
1070
     1
1070
   176
1070
   256
1070
   177
1070
   256
1070
   178
1070
   256
1070
   271
1070
     2
1070
   279
1070
     2
1070
   287
1070
     5
1070
   340
1005
1372
1002
}
  0
DIMENSION
  5
1A536
  8
SUNPOU
  2
*D23
 10
5601.6686766888051
 20
3567.7543537309471
 30
0.0
 11
5547.6686766888042
 21
3467.7543552211482
 31
0.0
 70
     0
 13
5377.2091660508813
 23
3367.7543567113462
 33
0.0
 14
5481.6386799075417
 24
3567.7543537309471
 34
0.0
 50
90.0
1001
ACAD
1000
DSTYLE
1002
{
1070
   287
1070
     5
1070
   287
1070
     5
1070
   287
1070
     5
1070
   287
1070
     5
1070
    40
1040
20.0
1070
    41
1040
2.0
1070
    42
1040
1.0
1070
    43
1040
6.0
1070
    44
1040
1.0
1070
    73
1070
     0
1070
    74
1070
     0
1070
    77
1070
     1
1070
    78
1070
     8
1070
   140
1040
3.0
1070
   147
1040
1.1999999999999991
1070
   172
1070
     1
1070
   176
1070
   256
1070
   177
1070
   256
1070
   178
1070
   256
1070
   271
1070
     2
1070
   279
1070
     2
1070
   287
1070
     5
1070
   340
1005
1372
1002
}
  0
LINE
  5
1A537
  8
MOJI
 10
755.80534148582944
 20
3453.1749918638088
 30
0.0
 11
1361.479927869455
 21
3453.1749918638088
 31
0.0
  0
TEXT
  5
1A538
  8
MOJI
 10
449.35988883990279
 20
3584.462696285424
 30
0.0
 40
60.0
  1
GL
 41
0.8
  7
EXT08
  0
TEXT
  5
1A539
  8
MOJI
 10
4198.8223243463272
 20
3588.226527462929
 30
0.0
 40
60.0
  1
GL
 41
0.8
  7
EXT08
  0
LINE
  5
1A53A
  8
HATCH
 10
4330.4358440097003
 20
3566.2008365709548
 30
0.0
 11
4296.4185456052619
 21
3532.183538166516
 31
0.0
  0
LINE
  5
1A53B
  8
HATCH
 10
4315.4358440097012
 20
3551.2008365709562
 30
0.0
 11
4334.4531424141387
 21
3532.183538166516
 31
0.0
  0
LINE
  5
1A53C
  8
HATCH
 10
4247.4012472008226
 20
3566.2008365709548
 30
0.0
 11
4213.3839487963851
 21
3532.183538166516
 31
0.0
  0
LINE
  5
1A53D
  8
HATCH
 10
4262.4012472008226
 20
3566.2008365709548
 30
0.0
 11
4228.3839487963851
 21
3532.183538166516
 31
0.0
  0
LINE
  5
1A53E
  8
HATCH
 10
4232.4012472008226
 20
3566.2008365709548
 30
0.0
 11
4198.3839487963851
 21
3532.183538166516
 31
0.0
  0
LINE
  5
1A53F
  8
HATCH
 10
4262.4012472008226
 20
3566.2008365709548
 30
0.0
 11
4296.4185456052619
 21
3532.183538166516
 31
0.0
  0
LINE
  5
1A540
  8
HATCH
 10
4300.4358440097003
 20
3566.2008365709548
 30
0.0
 11
4281.418545605261
 21
3547.1835381665192
 31
0.0
  0
LINE
  5
1A541
  8
HATCH
 10
4315.4358440097012
 20
3566.2008365709548
 30
0.0
 11
4288.9185456052619
 21
3539.6835381665192
 31
0.0
  0
LINE
  5
1A542
  8
HATCH
 10
4247.4012472008226
 20
3551.2008365709562
 30
0.0
 11
4266.4185456052619
 21
3532.183538166516
 31
0.0
  0
LINE
  5
1A543
  8
HATCH
 10
4254.9012472008226
 20
3558.7008365709548
 30
0.0
 11
4281.418545605261
 21
3532.183538166516
 31
0.0
  0
LINE
  5
1A544
  8
HATCH
 10
4330.4358440097003
 20
3566.2008365709548
 30
0.0
 11
4364.4531424141387
 21
3532.183538166516
 31
0.0
  0
LINE
  5
1A545
  8
HATCH
 10
4322.9358440097003
 20
3558.7008365709548
 30
0.0
 11
4349.4531424141378
 21
3532.183538166516
 31
0.0
  0
LINE
  5
1A546
  8
SJC
 10
4679.8491082814371
 20
3167.7543596913488
 30
0.0
 11
4679.8491082814371
 21
3567.7543537309471
 31
0.0
  0
LINE
  5
1A547
  8
SJC
 10
4379.8491082814389
 20
3167.7543596913488
 30
0.0
 11
4379.849108281438
 21
3567.7543537309471
 31
0.0
  0
DIMENSION
  5
1A548
  8
SUNPOU
  2
*D24
 10
4679.8491082814371
 20
3038.0780045675492
 30
0.0
 11
4528.0729202780476
 21
3092.7628908151091
 31
0.0
 70
   128
  1
□300
 13
4379.8491082814389
 23
3167.7543596913488
 33
0.0
 14
4679.8491082814371
 24
3167.7543596913488
 34
0.0
1001
ACAD
1000
DSTYLE
1002
{
1070
   287
1070
     5
1070
   287
1070
     5
1070
   287
1070
     5
1070
   287
1070
     5
1070
    40
1040
20.0
1070
    41
1040
2.0
1070
    42
1040
1.0
1070
    43
1040
6.0
1070
    44
1040
1.0
1070
    73
1070
     0
1070
    74
1070
     0
1070
    77
1070
     1
1070
    78
1070
     8
1070
   140
1040
3.0
1070
   147
1040
1.1999999999999991
1070
   172
1070
     1
1070
   176
1070
   256
1070
   177
1070
   256
1070
   178
1070
   256
1070
   271
1070
     2
1070
   279
1070
     2
1070
   287
1070
     5
1070
   340
1005
1372
1002
}
  0
TEXT
  5
1A549
  8
MOJI
 10
5176.476693199671
 20
3588.226527462929
 30
0.0
 40
60.0
  1
GL
 41
0.8
  7
EXT08
  0
TEXT
  5
1A54A
  8
MOJI
 10
5925.0291801454259
 20
3588.226527462929
 30
0.0
 40
60.0
  1
GL
 41
0.8
  7
EXT08
  0
LINE
  5
1A54B
  8
MOJI2
 10
327.52849870311547
 20
4820.8071815230833
 30
0.0
 11
577.9920120221941
 21
4820.8071815230833
 31
0.0
  0
LINE
  5
1A556
  8
SJC2
 10
3839.1407464629042
 20
4423.7509391817803
 30
0.0
 11
3839.1407464629042
 21
3876.2141358508452
 31
0.0
  0
LINE
  5
1A557
  8
SJC2
 10
3859.1407464629042
 20
3876.2141358508452
 30
0.0
 11
3819.1407464629051
 21
3776.2141358508452
 31
0.0
  0
LINE
  5
1A558
  8
SJC2
 10
3839.1407464629042
 20
3776.2141358508452
 30
0.0
 11
3819.1407464629051
 21
3776.2141358508452
 31
0.0
  0
LINE
  5
1A559
  8
SJC2
 10
3839.1407464629042
 20
3876.2141358508452
 30
0.0
 11
3859.1407464629042
 21
3876.2141358508452
 31
0.0
  0
LINE
  5
1A55A
  8
SJC2
 10
3839.1407464629042
 20
3776.2141358508452
 30
0.0
 11
3839.1407464629051
 21
3528.6773325199101
 31
0.0
  0
LINE
  5
1A562
  8
HATCH
 10
6044.5075107758748
 20
3566.2008365709548
 30
0.0
 11
6078.5248091803132
 21
3532.183538166516
 31
0.0
  0
LINE
  5
1A563
  8
HATCH
 10
6037.0075107758748
 20
3558.7008365709548
 30
0.0
 11
6063.5248091803142
 21
3532.183538166516
 31
0.0
  0
LINE
  5
1A564
  8
HATCH
 10
5968.972913966998
 20
3558.7008365709548
 30
0.0
 11
5995.4902123714364
 21
3532.183538166516
 31
0.0
  0
LINE
  5
1A565
  8
HATCH
 10
5961.472913966998
 20
3551.2008365709562
 30
0.0
 11
5980.4902123714364
 21
3532.183538166516
 31
0.0
  0
LINE
  5
1A566
  8
HATCH
 10
6029.5075107758748
 20
3566.2008365709548
 30
0.0
 11
6002.9902123714364
 21
3539.6835381665192
 31
0.0
  0
LINE
  5
1A567
  8
HATCH
 10
6005.0746223371434
 20
3566.2008365709548
 30
0.0
 11
5986.0573239327041
 21
3547.1835381665192
 31
0.0
  0
LINE
  5
1A568
  8
HATCH
 10
5976.472913966998
 20
3566.2008365709548
 30
0.0
 11
6010.4902123714364
 21
3532.183538166516
 31
0.0
  0
LINE
  5
1A569
  8
HATCH
 10
5946.472913966998
 20
3566.2008365709548
 30
0.0
 11
5912.4556155625596
 21
3532.183538166516
 31
0.0
  0
LINE
  5
1A56A
  8
HATCH
 10
5976.472913966998
 20
3566.2008365709548
 30
0.0
 11
5942.4556155625587
 21
3532.183538166516
 31
0.0
  0
LINE
  5
1A56B
  8
HATCH
 10
5961.472913966998
 20
3566.2008365709548
 30
0.0
 11
5927.4556155625596
 21
3532.183538166516
 31
0.0
  0
LINE
  5
1A56C
  8
HATCH
 10
6029.5075107758748
 20
3551.2008365709562
 30
0.0
 11
6048.5248091803142
 21
3532.183538166516
 31
0.0
  0
LINE
  5
1A56D
  8
HATCH
 10
6044.5075107758748
 20
3566.2008365709548
 30
0.0
 11
6010.4902123714364
 21
3532.183538166516
 31
0.0
  0
DIMENSION
  5
1A56E
  8
SUNPOU
  2
*D25
 10
6661.4468430065544
 20
4369.7543377869479
 30
0.0
 11
6607.4468430065517
 21
3968.7543457589491
 31
0.0
 70
     0
  1
800
 13
6699.3206917312182
 23
3567.7543537309471
 33
0.0
 14
6831.664439759219
 24
4369.7543377869479
 34
0.0
 50
90.0
1001
ACAD
1000
DSTYLE
1002
{
1070
    40
1040
20.0
1070
    41
1040
2.0
1070
    42
1040
1.0
1070
    43
1040
6.0
1070
    44
1040
1.0
1070
    73
1070
     0
1070
    74
1070
     0
1070
    77
1070
     1
1070
    78
1070
     8
1070
   140
1040
3.0
1070
   147
1040
1.1999999999999991
1070
   172
1070
     1
1070
   176
1070
   256
1070
   177
1070
   256
1070
   178
1070
   256
1070
   271
1070
     2
1070
   340
1005
1372
1002
}
  0
DIMENSION
  5
1A56F
  8
SUNPOU
  2
*D26
 10
5885.076337630735
 20
4369.7543377869479
 30
0.0
 11
5831.0763376307341
 21
3968.7543457589481
 31
0.0
 70
     0
  1
800
 13
5922.9501863553996
 23
3567.7543537309471
 33
0.0
 14
6055.2939343833996
 24
4369.7543377869479
 34
0.0
 50
90.0
1001
ACAD
1000
DSTYLE
1002
{
1070
    40
1040
20.0
1070
    41
1040
2.0
1070
    42
1040
1.0
1070
    43
1040
6.0
1070
    44
1040
1.0
1070
    73
1070
     0
1070
    74
1070
     0
1070
    77
1070
     1
1070
    78
1070
     8
1070
   140
1040
3.0
1070
   147
1040
1.1999999999999991
1070
   172
1070
     1
1070
   176
1070
   256
1070
   177
1070
   256
1070
   178
1070
   256
1070
   271
1070
     2
1070
   340
1005
1372
1002
}
  0
DIMENSION
  5
1A570
  8
SUNPOU
  2
*D27
 10
4157.3756551679744
 20
4369.7544593801504
 30
0.0
 11
4103.3756551679726
 21
3968.7544065555489
 31
0.0
 70
     0
  1
800
 13
4195.249503892639
 23
3567.7543537309471
 33
0.0
 14
4459.8491093246394
 24
4369.7544593801504
 34
0.0
 50
90.0
1001
ACAD
1000
DSTYLE
1002
{
1070
    40
1040
20.0
1070
    41
1040
2.0
1070
    42
1040
1.0
1070
    43
1040
6.0
1070
    44
1040
1.0
1070
    73
1070
     0
1070
    74
1070
     0
1070
    77
1070
     1
1070
    78
1070
     8
1070
   140
1040
3.0
1070
   147
1040
1.1999999999999991
1070
   172
1070
     1
1070
   176
1070
   256
1070
   177
1070
   256
1070
   178
1070
   256
1070
   271
1070
     2
1070
   340
1005
1372
1002
}
  0
DIMENSION
  5
1A571
  8
SUNPOU
  2
*D28
 10
5154.9058034695554
 20
4369.7544593801504
 30
0.0
 11
5100.9058034695536
 21
3968.7544065555512
 31
0.0
 70
     0
  1
800
 13
5192.7796521942191
 23
3567.7543537309512
 33
0.0
 14
5267.2079463908804
 24
4369.7544593801504
 34
0.0
 50
90.0
1001
ACAD
1000
DSTYLE
1002
{
1070
    40
1040
20.0
1070
    41
1040
2.0
1070
    42
1040
1.0
1070
    43
1040
6.0
1070
    44
1040
1.0
1070
    73
1070
     0
1070
    74
1070
     0
1070
    77
1070
     1
1070
    78
1070
     8
1070
   140
1040
3.0
1070
   147
1040
1.1999999999999991
1070
   172
1070
     1
1070
   176
1070
   256
1070
   177
1070
   256
1070
   178
1070
   256
1070
   271
1070
     2
1070
   340
1005
1372
1002
}
  0
INSERT
  5
1A572
  8
HATCH
  2
*X0
 10
46.758314035938383
 20
0.0
 30
0.0
1001
ACAD
1000
HATCH
1002
{
1070
    19
1000
AR-CONC
1040
10.0
1040
0.0
1002
}
  0
INSERT
  5
1A573
  8
HATCH
  2
*X0
 10
10627.660018065821
 20
0.0
 30
0.0
 41
-1.0
1001
ACAD
1000
HATCH
1002
{
1070
    19
1000
AR-CONC
1040
10.0
1040
0.0
1002
}
  0
LINE
  5
1A574
  8
SJC2
 10
4570.3988514488401
 20
4338.7543988070247
 30
0.0
 11
4570.3988514488401
 21
4356.7545816442471
 31
0.0
  0
ARC
  5
1A575
  8
SJC2
 10
4568.3988514490657
 20
4342.7543682593969
 30
0.0
 40
2.0
 50
270.00087511131733
 51
359.99912488868267
  0
ARC
  5
1A576
  8
SJC2
 10
4568.3988514490657
 20
4338.7543682598734
 30
0.0
 40
2.0
 50
0.0008751113173351
 51
89.999124888682658
  0
LINE
  5
1A577
  8
SJC2
 10
4562.3988514488401
 20
4340.7543682596233
 30
0.0
 11
4568.3988819962151
 21
4340.7543682596233
 31
0.0
  0
LINE
  5
1A578
  8
SJC2
 10
4568.8995228578897
 20
4358.255130938298
 30
0.0
 11
4562.3988514488401
 21
4358.2542154109724
 31
0.0
  0
LINE
  5
1A579
  8
SJC2
 10
4562.3988514488401
 20
4354.7544596037469
 30
0.0
 11
4568.3988819962151
 21
4354.7544596037469
 31
0.0
  0
ARC
  5
1A57A
  8
SJC2
 10
4568.8988514128141
 20
4356.7545205507477
 30
0.0
 40
1.5000000372499991
 50
0.0023336003209662
 51
89.997666399574825
  0
ARC
  5
1A57B
  8
SJC2
 10
4568.3988514490657
 20
4356.7544596035223
 30
0.0
 40
2.0
 50
270.00087511131733
 51
359.99912488868267
  0
ARC
  5
1A57C
  8
SJC2
 10
4568.3988514525654
 20
4352.7544596039734
 30
0.0
 40
2.0
 50
359.99650379029839
 51
89.999124988682155
  0
LINE
  5
1A57D
  8
SJC2
 10
4562.3988514488401
 20
4337.2544598645218
 30
0.0
 11
4568.8989125063399
 21
4337.2544598645218
 31
0.0
  0
POLYLINE
  5
1A57E
  8
SJC2
 66
     1
 10
0.0
 20
0.0
 30
0.0
  0
VERTEX
  5
20E7A
  8
SJC2
 10
4560.0987416198386
 20
4336.7544293543979
 30
0.0
  0
VERTEX
  5
20E7B
  8
SJC2
 10
4562.3988514488401
 20
4336.7544293543979
 30
0.0
  0
VERTEX
  5
20E7C
  8
SJC2
 10
4562.3988514488401
 20
4358.7543985089978
 30
0.0
  0
VERTEX
  5
20E7D
  8
SJC2
 10
4560.0987416198386
 20
4358.7543985089978
 30
0.0
  0
SEQEND
  5
20E7E
  8
SJC2
  0
ARC
  5
1A57F
  8
SJC2
 10
4568.8988514128141
 20
4338.7544599005232
 30
0.0
 40
1.5000000372499991
 50
270.00233360042517
 51
359.99766639957483
  0
LINE
  5
1A580
  8
CENTER
 10
4589.3630023218848
 20
4347.7543376377471
 30
0.0
 11
4439.5994749430392
 21
4347.7543376377471
 31
0.0
  0
TEXT
  5
1A581
  8
MOJI
 10
6607.8209818838441
 20
3152.135484083763
 30
0.0
 40
60.0
  1
ナットアンカー M12
 50
359.99972432623952
 41
0.8
  7
EXT08
  0
TEXT
  5
1A582
  8
MOJI
 10
6702.2258458613524
 20
3256.2508001755268
 30
0.0
 40
60.0
  1
取付ボルトM12×30
 50
359.99972432623952
 41
0.8
  7
EXT08
  0
LINE
  5
1A583
  8
MOJI
 10
7284.4877571460029
 20
3230.5774420988091
 30
0.0
 11
6585.4534504499816
 21
3230.5808144045991
 31
0.0
  0
INSERT
  5
1A584
  8
0
  2
*U45
 10
0.0
 20
0.0
 30
0.0
1001
ACAD
1000
DSTYLE
1002
{
1070
     5
1000

1070
    40
1040
20.0
1070
    41
1040
2.0
1070
    42
1040
1.0
1070
    43
1040
6.0
1070
    44
1040
1.0
1070
    73
1070
     0
1070
    74
1070
     0
1070
    77
1070
     0
1070
    78
1070
     8
1070
   140
1040
3.0
1070
   147
1040
1.1999999999999991
1070
   172
1070
     1
1070
   271
1070
     2
1070
   279
1070
     2
1070
   340
1005
1372
1070
   342
1005
0
1002
}
  0
DIMENSION
  5
1A585
  8
SUNPOU
  2
*D29
 10
6976.6654157292114
 20
3399.3361997347888
 30
0.0
 11
6865.1086568176252
 21
3442.1315947703042
 31
0.0
 70
   128
  1
□<>
 13
6826.6654157292114
 23
3567.7543537309471
 33
0.0
 14
6976.6654157292114
 24
3567.7543537309471
 34
0.0
1001
ACAD
1000
DSTYLE
1002
{
1070
   287
1070
     5
1070
   287
1070
     5
1070
   287
1070
     5
1070
   287
1070
     5
1070
    40
1040
20.0
1070
    41
1040
2.0
1070
    42
1040
1.0
1070
    43
1040
6.0
1070
    44
1040
1.0
1070
    73
1070
     0
1070
    74
1070
     0
1070
    77
1070
     1
1070
    78
1070
     8
1070
   140
1040
3.0
1070
   147
1040
1.1999999999999991
1070
   172
1070
     1
1070
   179
1070
     2
1070
   271
1070
     2
1070
   279
1070
     2
1070
   287
1070
     5
1070
   340
1005
1372
1002
}
  0
LINE
  5
1A586
  8
SJC
 10
6826.6654157292114
 20
3576.7543537309461
 30
0.0
 11
6976.6654157292114
 21
3576.7543537309461
 31
0.0
  0
LINE
  5
1A587
  8
SJC
 10
6697.9718009384678
 20
3567.7541097244471
 30
0.0
 11
7028.695710968027
 21
3567.7541097244471
 31
0.0
  0
TEXT
  5
1A588
  8
MOJI
 10
6696.4932309781843
 20
3585.7967119946479
 30
0.0
 40
60.0
  1
GL
 41
0.8
  7
EXT08
  0
LINE
  5
1A589
  8
CENTER
 10
6851.6647601615769
 20
3537.7543537309461
 30
0.0
 11
6851.6647601615769
 21
3606.7543537309471
 31
0.0
  0
LINE
  5
1A58A
  8
SJC
 10
6826.6654157292114
 20
3576.7543537309461
 30
0.0
 11
6826.6654157292114
 21
3567.7543537309471
 31
0.0
  0
DIMENSION
  5
1A58B
  8
SUNPOU
  2
*D30
 10
7100.7819637293551
 20
3576.7543537309461
 30
0.0
 11
7053.3562872672856
 21
3622.9450916636019
 31
0.0
 70
   128
  1
t<>
 13
7028.695710968027
 23
3567.7541097244471
 33
0.0
 14
6976.6654157292114
 24
3576.7543537309461
 34
0.0
 50
90.0
1001
ACAD
1000
DSTYLE
1002
{
1070
   287
1070
     5
1070
   287
1070
     5
1070
   287
1070
     5
1070
   287
1070
     5
1070
    40
1040
20.0
1070
    41
1040
2.0
1070
    42
1040
1.0
1070
    43
1040
6.0
1070
    44
1040
1.0
1070
    73
1070
     0
1070
    74
1070
     0
1070
    77
1070
     1
1070
    78
1070
     8
1070
   140
1040
3.0
1070
   147
1040
1.1999999999999991
1070
   172
1070
     1
1070
   176
1070
   256
1070
   177
1070
   256
1070
   178
1070
   256
1070
   271
1070
     2
1070
   275
1070
     1
1070
   279
1070
     2
1070
   287
1070
     5
1070
   340
1005
1372
1002
}
  0
LINE
  5
1A58C
  8
CENTER
 10
6951.6647601615769
 20
3606.6111932037061
 30
0.0
 11
6951.6647601615769
 21
3537.6111932037052
 31
0.0
  0
LINE
  5
1A58D
  8
SJC
 10
6976.6654157292114
 20
3567.7543537309471
 30
0.0
 11
6976.6654157292114
 21
3576.7543537309461
 31
0.0
  0
TEXT
  5
1A58E
  8
MOJI
 10
6580.8698087876583
 20
3067.055887435316
 30
0.0
 40
60.0
  1
(ドリル径%%c18,深さ55mm)
 50
359.99972432623952
 41
0.8
  7
EXT08
  0
INSERT
  5
1A58F
  8
ZWAKU
  2
CALCOMP_TECHJET720A3
 10
0.0
 20
0.0
 30
0.0
 41
20.0
 42
20.0
 43
20.0
  0
ARC
  5
1A590
  8
SJC
 10
6099.613008453779
 20
3383.769036584898
 30
0.0
 40
20.92267491504623
 50
223.7050920266837
 51
316.29490797332141
  0
ARC
  5
1A591
  8
SJC
 10
6099.613008453779
 20
3354.8561318689972
 30
0.0
 40
20.92267491504623
 50
43.705092026678642
 51
136.2949079733163
  0
ARC
  5
1A592
  8
SJC
 10
6129.8632521435811
 20
3383.769036584898
 30
0.0
 40
20.92267491504623
 50
223.7050920266837
 51
316.29490797332141
  0
ARC
  5
1A593
  8
SJC
 10
6129.863252143582
 20
3313.6005805992982
 30
0.0
 40
20.92267491504623
 50
223.7050920266837
 51
316.29490797332141
  0
ARC
  5
1A594
  8
SJC
 10
6129.863252143582
 20
3284.6876758833969
 30
0.0
 40
20.92267491504623
 50
43.705092026678642
 51
136.2949079733163
  0
ARC
  5
1A595
  8
SJC
 10
6099.6130084535816
 20
3284.6876758836079
 30
0.0
 40
20.92267491504623
 50
43.705092026678642
 51
136.2949079733163
  0
INSERT
  5
1A59A
  8
0
  2
*U46
 10
0.0
 20
0.0
 30
0.0
1001
ACAD
1000
DSTYLE
1002
{
1070
    40
1040
20.0
1070
    41
1040
2.0
1070
    42
1040
1.0
1070
    43
1040
6.0
1070
    44
1040
1.0
1070
    73
1070
     0
1070
    74
1070
     0
1070
    77
1070
     0
1070
    78
1070
     8
1070
   140
1040
3.0
1070
   147
1040
1.1999999999999991
1070
   172
1070
     1
1070
   179
1070
     2
1070
   271
1070
     2
1070
   279
1070
     2
1070
   340
1005
1372
1002
}
  0
LINE
  5
1A5A7
  8
SJC2
 10
4570.3988514488401
 20
3988.7544149002242
 30
0.0
 11
4570.3988514488401
 21
4006.7545977374471
 31
0.0
  0
ARC
  5
1A5A8
  8
SJC2
 10
4568.3988514490657
 20
3992.7543843526
 30
0.0
 40
2.0
 50
270.00087511131733
 51
359.99912488868267
  0
ARC
  5
1A5A9
  8
SJC2
 10
4568.3988514490657
 20
3988.754384353073
 30
0.0
 40
2.0
 50
0.0008751113173351
 51
89.999124888682658
  0
LINE
  5
1A5AA
  8
SJC2
 10
4562.3988514488401
 20
3990.754384352826
 30
0.0
 11
4568.3988819962151
 21
3990.754384352826
 31
0.0
  0
LINE
  5
1A5AB
  8
SJC2
 10
4568.8995228578897
 20
4008.255147031497
 30
0.0
 11
4562.3988514488401
 21
4008.2542315041719
 31
0.0
  0
LINE
  5
1A5AC
  8
SJC2
 10
4562.3988514488401
 20
4004.7544756969469
 30
0.0
 11
4568.3988819962151
 21
4004.7544756969469
 31
0.0
  0
ARC
  5
1A5AD
  8
SJC2
 10
4568.8988514128141
 20
4006.7545366439481
 30
0.0
 40
1.5000000372499991
 50
0.0023336003209662
 51
89.997666399574825
  0
ARC
  5
1A5AE
  8
SJC2
 10
4568.3988514490657
 20
4006.7544756967259
 30
0.0
 40
2.0
 50
270.00087511131733
 51
359.99912488868267
  0
ARC
  5
1A5AF
  8
SJC2
 10
4568.3988514525654
 20
4002.754475697172
 30
0.0
 40
2.0
 50
359.99650379029839
 51
89.999124988682155
  0
LINE
  5
1A5B0
  8
SJC2
 10
4562.3988514488401
 20
3987.2544759577222
 30
0.0
 11
4568.8989125063399
 21
3987.2544759577222
 31
0.0
  0
POLYLINE
  5
1A5B1
  8
SJC2
 66
     1
 10
0.0
 20
0.0
 30
0.0
  0
VERTEX
  5
20EA3
  8
SJC2
 10
4560.0987416198386
 20
3986.7544454475978
 30
0.0
  0
VERTEX
  5
20EA4
  8
SJC2
 10
4562.3988514488401
 20
3986.7544454475978
 30
0.0
  0
VERTEX
  5
20EA5
  8
SJC2
 10
4562.3988514488401
 20
4008.7544146021969
 30
0.0
  0
VERTEX
  5
20EA6
  8
SJC2
 10
4560.0987416198386
 20
4008.7544146021969
 30
0.0
  0
SEQEND
  5
20EA7
  8
SJC2
  0
ARC
  5
1A5B2
  8
SJC2
 10
4568.8988514128141
 20
3988.7544759937232
 30
0.0
 40
1.5000000372499991
 50
270.00233360042517
 51
359.99766639957483
  0
LINE
  5
1A5CB
  8
SJC
 10
3597.8019857941558
 20
4323.9543376563006
 30
0.0
 11
3494.8019857941572
 21
4323.9543376563006
 31
0.0
  0
LINE
  5
1A5CC
  8
SJC
 10
3494.8019857941581
 20
4352.5504883878712
 30
0.0
 11
3494.8019857941572
 21
4323.9543376563006
 31
0.0
  0
ARC
  5
1A5CD
  8
SJC
 10
3499.8019857941572
 20
4342.2543376377462
 30
0.0
 40
5.0
 50
90.0
 51
180.0
  0
LINE
  5
1A5CE
  8
SJC
 10
3597.8019857941558
 20
4347.2543376377471
 30
0.0
 11
3499.8019857941572
 21
4347.2543376377471
 31
0.0
  0
LINE
  5
1A5CF
  8
SJC2
 10
3597.8019857941558
 20
4337.9616385814506
 30
0.0
 11
3507.3019862975489
 21
4338.4281436339143
 31
0.0
  0
LINE
  5
1A5D0
  8
SJC
 10
3597.8019857941581
 20
4323.9543376563006
 30
0.0
 11
3700.8019857941581
 21
4323.9543376563006
 31
0.0
  0
LINE
  5
1A5D1
  8
SJC
 10
3700.8019857941558
 20
4352.5504883878712
 30
0.0
 11
3700.8019857941581
 21
4323.9543376563006
 31
0.0
  0
ARC
  5
1A5D2
  8
SJC
 10
3695.8019857941572
 20
4342.2543376377462
 30
0.0
 40
5.0
 50
0.0
 51
90.0
  0
LINE
  5
1A5D3
  8
SJC
 10
3597.8019857941581
 20
4347.2543376377471
 30
0.0
 11
3695.8019857941572
 21
4347.2543376377471
 31
0.0
  0
LINE
  5
1A5D4
  8
SJC2
 10
3597.8019857941558
 20
4337.9616385814506
 30
0.0
 11
3688.301985290766
 21
4338.4281436339143
 31
0.0
  0
LINE
  5
1A5D5
  8
SJC
 10
3695.8019862975511
 20
4348.3077885904859
 30
0.0
 11
3499.8019862975511
 21
4348.3077885904859
 31
0.0
  0
LINE
  5
1A5D6
  8
SJC
 10
3494.8019862975511
 20
4370.7043376377469
 30
0.0
 11
3494.8019862975511
 21
4353.3077885904859
 31
0.0
  0
ARC
  5
1A5D7
  8
SJC
 10
3499.8019862975511
 20
4353.3077885904859
 30
0.0
 40
5.0
 50
180.0
 51
270.0
  0
LINE
  5
1A5D8
  8
SJC
 10
3700.8019862975489
 20
4370.7043376377469
 30
0.0
 11
3700.8019862975511
 21
4353.3077885904859
 31
0.0
  0
ARC
  5
1A5D9
  8
SJC
 10
3695.8019862975511
 20
4353.3077885904859
 30
0.0
 40
5.0
 50
270.0
 51
0.0
  0
LINE
  5
1A5DA
  8
SJC
 10
3700.8019862975489
 20
4370.7043376377469
 30
0.0
 11
3494.8019862975511
 21
4370.7043376377469
 31
0.0
  0
POLYLINE
  5
1A5DB
  8
SJC2
 66
     1
 10
0.0
 20
0.0
 30
0.0
  0
VERTEX
  5
20EA8
  8
SJC2
 10
3508.8019630698559
 20
4323.9543376563006
 30
0.0
  0
VERTEX
  5
20EA9
  8
SJC2
 10
3530.8018940774568
 20
4323.9543376563006
 30
0.0
  0
VERTEX
  5
20EAA
  8
SJC2
 10
3530.8018940774568
 20
4321.6543804151952
 30
0.0
  0
VERTEX
  5
20EAB
  8
SJC2
 10
3508.8019630698559
 20
4321.6543804151952
 30
0.0
  0
VERTEX
  5
20EAC
  8
SJC2
 10
3508.8019630698559
 20
4323.9543376562942
 30
0.0
  0
SEQEND
  5
20EAD
  8
SJC2
  0
LINE
  5
1A5DC
  8
SJC2
 10
3513.8019248483561
 20
4307.2043528741488
 30
0.0
 11
3515.3018637908549
 21
4305.7043376377478
 31
0.0
  0
LINE
  5
1A5DD
  8
SJC2
 10
3515.3018637908549
 20
4305.7043376377478
 30
0.0
 11
3524.3019552094561
 21
4305.7043376377478
 31
0.0
  0
ARC
  5
1A5DE
  8
SJC2
 10
3510.8013832656561
 20
4316.1536481335934
 30
0.0
 40
1.5000000372999991
 50
179.99941938640001
 51
270.57788632913292
  0
LINE
  5
1A5DF
  8
SJC2
 10
3509.301383228456
 20
4316.153663333992
 30
0.0
 11
3509.3021461678568
 21
4321.6542278272937
 31
0.0
  0
LINE
  5
1A5E0
  8
SJC2
 10
3513.8019248483561
 20
4314.6538006854926
 30
0.0
 11
3513.8019248483561
 21
4307.2043528741488
 31
0.0
  0
LINE
  5
1A5E1
  8
SJC2
 10
3515.3018637908549
 20
4314.653953273395
 30
0.0
 11
3515.3018637908549
 21
4305.7043376377478
 31
0.0
  0
ARC
  5
1A5E2
  8
SJC2
 10
3514.8018638278568
 20
4316.6538006817937
 30
0.0
 40
2.0
 50
180.0008750113
 51
270.00349620970002
  0
LINE
  5
1A5E3
  8
SJC2
 10
3512.8018638281551
 20
4321.6543804151952
 30
0.0
 11
3512.8018638281551
 21
4316.6537701380948
 31
0.0
  0
ARC
  5
1A5E4
  8
SJC2
 10
3511.301100851555
 20
4316.1537244277943
 30
0.0
 40
1.5000000372999991
 50
269.99796232400001
 51
0.0005806023
  0
LINE
  5
1A5E5
  8
SJC2
 10
3510.8165120382459
 20
4314.6537243914927
 30
0.0
 11
3528.8026875643582
 21
4314.6537243914927
 31
0.0
  0
LINE
  5
1A5E6
  8
SJC2
 10
3524.3019552094561
 20
4305.7043376377478
 30
0.0
 11
3525.8018941519572
 21
4307.2043528741488
 31
0.0
  0
LINE
  5
1A5E7
  8
SJC2
 10
3524.3019552094561
 20
4314.653953273395
 30
0.0
 11
3524.3019552094561
 21
4305.7043376377478
 31
0.0
  0
LINE
  5
1A5E8
  8
SJC2
 10
3525.8018941519572
 20
4307.2043528741488
 30
0.0
 11
3525.8018941519572
 21
4314.6542584491935
 31
0.0
  0
ARC
  5
1A5E9
  8
SJC2
 10
3524.8019551724551
 20
4316.6541821549936
 30
0.0
 40
2.0
 50
270.00087511129999
 51
359.99912488870001
  0
LINE
  5
1A5EA
  8
SJC2
 10
3526.801955172255
 20
4321.6543804151952
 30
0.0
 11
3526.801955172255
 21
4316.6542279017949
 31
0.0
  0
ARC
  5
1A5EB
  8
SJC2
 10
3528.8026264696559
 20
4316.1536481335934
 30
0.0
 40
1.5000000372999991
 50
270.00233364489998
 51
0.0005806136
  0
LINE
  5
1A5EC
  8
SJC2
 10
3530.302626506756
 20
4316.153663333992
 30
0.0
 11
3530.3017109794569
 21
4321.6542278272937
 31
0.0
  0
ARC
  5
1A5ED
  8
SJC2
 10
3528.3028707367562
 20
4316.1537244259962
 30
0.0
 40
1.5000000372999991
 50
179.99941932740001
 51
270.00349478290002
  0
LINE
  5
1A5EE
  8
CENTER
 10
3519.8019857941572
 20
4382.9011453173507
 30
0.0
 11
3519.8019857941572
 21
4301.6626204590939
 31
0.0
  0
LINE
  5
1A5EF
  8
SJC2
 10
3513.8019248483561
 20
4307.2043528741488
 30
0.0
 11
3525.8018941519572
 21
4307.2043528741488
 31
0.0
  0
POLYLINE
  5
1A5F0
  8
SJC2
 66
     1
 10
0.0
 20
0.0
 30
0.0
  0
VERTEX
  5
20EAE
  8
SJC2
 10
3664.8019630698559
 20
4323.9543376563006
 30
0.0
  0
VERTEX
  5
20EAF
  8
SJC2
 10
3686.8018940774559
 20
4323.9543376563006
 30
0.0
  0
VERTEX
  5
20EB0
  8
SJC2
 10
3686.8018940774559
 20
4321.6543804151952
 30
0.0
  0
VERTEX
  5
20EB1
  8
SJC2
 10
3664.8019630698559
 20
4321.6543804151952
 30
0.0
  0
VERTEX
  5
20EB2
  8
SJC2
 10
3664.8019630698559
 20
4323.9543376562942
 30
0.0
  0
SEQEND
  5
20EB3
  8
SJC2
  0
LINE
  5
1A5F1
  8
SJC2
 10
3669.8019248483561
 20
4307.2043528741488
 30
0.0
 11
3671.3018637908549
 21
4305.7043376377478
 31
0.0
  0
LINE
  5
1A5F2
  8
SJC2
 10
3671.3018637908549
 20
4305.7043376377478
 30
0.0
 11
3680.3019552094561
 21
4305.7043376377478
 31
0.0
  0
ARC
  5
1A5F3
  8
SJC2
 10
3666.8013832656561
 20
4316.1536481335934
 30
0.0
 40
1.5000000372999991
 50
179.99941938640001
 51
270.57788632913292
  0
LINE
  5
1A5F4
  8
SJC2
 10
3665.301383228456
 20
4316.153663333992
 30
0.0
 11
3665.3021461678559
 21
4321.6542278272937
 31
0.0
  0
LINE
  5
1A5F5
  8
SJC2
 10
3669.8019248483561
 20
4314.6538006854926
 30
0.0
 11
3669.8019248483561
 21
4307.2043528741488
 31
0.0
  0
LINE
  5
1A5F6
  8
SJC2
 10
3671.3018637908549
 20
4314.653953273395
 30
0.0
 11
3671.3018637908549
 21
4305.7043376377478
 31
0.0
  0
ARC
  5
1A5F7
  8
SJC2
 10
3670.8018638278581
 20
4316.6538006817937
 30
0.0
 40
2.0
 50
180.0008750113
 51
270.00349620970002
  0
LINE
  5
1A5F8
  8
SJC2
 10
3668.801863828156
 20
4321.6543804151952
 30
0.0
 11
3668.801863828156
 21
4316.6537701380948
 31
0.0
  0
ARC
  5
1A5F9
  8
SJC2
 10
3667.301100851555
 20
4316.1537244277943
 30
0.0
 40
1.5000000372999991
 50
269.99796232400001
 51
0.0005806023
  0
LINE
  5
1A5FA
  8
SJC2
 10
3666.816512038245
 20
4314.6537243914927
 30
0.0
 11
3684.8026875643582
 21
4314.6537243914927
 31
0.0
  0
LINE
  5
1A5FB
  8
SJC2
 10
3680.3019552094561
 20
4305.7043376377478
 30
0.0
 11
3681.8018941519572
 21
4307.2043528741488
 31
0.0
  0
LINE
  5
1A5FC
  8
SJC2
 10
3680.3019552094561
 20
4314.653953273395
 30
0.0
 11
3680.3019552094561
 21
4305.7043376377478
 31
0.0
  0
LINE
  5
1A5FD
  8
SJC2
 10
3681.8018941519572
 20
4307.2043528741488
 30
0.0
 11
3681.8018941519572
 21
4314.6542584491935
 31
0.0
  0
ARC
  5
1A5FE
  8
SJC2
 10
3680.801955172456
 20
4316.6541821549936
 30
0.0
 40
2.0
 50
270.00087511129999
 51
359.99912488870001
  0
LINE
  5
1A5FF
  8
SJC2
 10
3682.801955172255
 20
4321.6543804151952
 30
0.0
 11
3682.801955172255
 21
4316.6542279017949
 31
0.0
  0
ARC
  5
1A600
  8
SJC2
 10
3684.8026264696559
 20
4316.1536481335934
 30
0.0
 40
1.5000000372999991
 50
270.00233364489998
 51
0.0005806136
  0
LINE
  5
1A601
  8
SJC2
 10
3686.302626506757
 20
4316.153663333992
 30
0.0
 11
3686.3017109794559
 21
4321.6542278272937
 31
0.0
  0
ARC
  5
1A602
  8
SJC2
 10
3684.3028707367562
 20
4316.1537244259962
 30
0.0
 40
1.5000000372999991
 50
179.99941932740001
 51
270.00349478290002
  0
LINE
  5
1A603
  8
CENTER
 10
3675.8019857941558
 20
4382.9011453173507
 30
0.0
 11
3675.8019857941558
 21
4301.6626204590939
 31
0.0
  0
LINE
  5
1A604
  8
SJC2
 10
3669.8019248483561
 20
4307.2043528741488
 30
0.0
 11
3681.8018941519572
 21
4307.2043528741488
 31
0.0
  0
LINE
  5
1A605
  8
SJC
 10
597.80233567335745
 20
4323.9543376562979
 30
0.0
 11
494.80233567335739
 21
4323.9543376562979
 31
0.0
  0
LINE
  5
1A606
  8
SJC
 10
494.80233567335921
 20
4352.5504883878712
 30
0.0
 11
494.80233567335739
 21
4323.9543376562979
 31
0.0
  0
ARC
  5
1A607
  8
SJC
 10
499.8023356733575
 20
4342.2543376377462
 30
0.0
 40
5.0
 50
90.0
 51
180.0
  0
LINE
  5
1A608
  8
SJC
 10
597.80233567335745
 20
4347.2543376377471
 30
0.0
 11
499.8023356733575
 21
4347.2543376377471
 31
0.0
  0
LINE
  5
1A609
  8
SJC2
 10
597.80233567335745
 20
4337.9616385814506
 30
0.0
 11
507.30233617674998
 21
4338.4281436339143
 31
0.0
  0
LINE
  5
1A60A
  8
SJC
 10
597.80233567335927
 20
4323.9543376562979
 30
0.0
 11
700.80233567335915
 21
4323.9543376562979
 31
0.0
  0
LINE
  5
1A60B
  8
SJC
 10
700.80233567335745
 20
4352.5504883878712
 30
0.0
 11
700.80233567335915
 21
4323.9543376562979
 31
0.0
  0
ARC
  5
1A60C
  8
SJC
 10
695.80233567335745
 20
4342.2543376377462
 30
0.0
 40
5.0
 50
0.0
 51
90.0
  0
LINE
  5
1A60D
  8
SJC
 10
597.80233567335927
 20
4347.2543376377471
 30
0.0
 11
695.80233567335745
 21
4347.2543376377471
 31
0.0
  0
LINE
  5
1A60E
  8
SJC2
 10
597.80233567335745
 20
4337.9616385814506
 30
0.0
 11
688.30233516996668
 21
4338.4281436339143
 31
0.0
  0
LINE
  5
1A60F
  8
SJC
 10
695.80233617675185
 20
4348.3077885904859
 30
0.0
 11
499.80233617675179
 21
4348.3077885904859
 31
0.0
  0
LINE
  5
1A610
  8
SJC
 10
494.80233617675179
 20
4370.7043376377469
 30
0.0
 11
494.80233617675179
 21
4353.3077885904859
 31
0.0
  0
ARC
  5
1A611
  8
SJC
 10
499.80233617675179
 20
4353.3077885904859
 30
0.0
 40
5.0
 50
180.0
 51
270.0
  0
LINE
  5
1A612
  8
SJC
 10
700.80233617675003
 20
4370.7043376377469
 30
0.0
 11
700.80233617675185
 21
4353.3077885904859
 31
0.0
  0
ARC
  5
1A613
  8
SJC
 10
695.80233617675185
 20
4353.3077885904859
 30
0.0
 40
5.0
 50
270.0
 51
0.0
  0
LINE
  5
1A614
  8
SJC
 10
700.80233617675003
 20
4370.7043376377469
 30
0.0
 11
494.80233617675179
 21
4370.7043376377469
 31
0.0
  0
POLYLINE
  5
1A615
  8
SJC2
 66
     1
 10
0.0
 20
0.0
 30
0.0
  0
VERTEX
  5
20EB4
  8
SJC2
 10
508.80231294905752
 20
4323.9543376563006
 30
0.0
  0
VERTEX
  5
20EB5
  8
SJC2
 10
530.80224395665755
 20
4323.9543376563006
 30
0.0
  0
VERTEX
  5
20EB6
  8
SJC2
 10
530.80224395665755
 20
4321.6543804151952
 30
0.0
  0
VERTEX
  5
20EB7
  8
SJC2
 10
508.80231294905752
 20
4321.6543804151952
 30
0.0
  0
VERTEX
  5
20EB8
  8
SJC2
 10
508.80231294905752
 20
4323.9543376562942
 30
0.0
  0
SEQEND
  5
20EB9
  8
SJC2
  0
LINE
  5
1A616
  8
SJC2
 10
513.80227472755723
 20
4307.2043528741488
 30
0.0
 11
515.30221367005652
 21
4305.7043376377478
 31
0.0
  0
LINE
  5
1A617
  8
SJC2
 10
515.30221367005652
 20
4305.7043376377478
 30
0.0
 11
524.30230508865668
 21
4305.7043376377478
 31
0.0
  0
ARC
  5
1A618
  8
SJC2
 10
510.80173314485722
 20
4316.1536481335934
 30
0.0
 40
1.5000000372999991
 50
179.99941938640001
 51
270.57788632913292
  0
LINE
  5
1A619
  8
SJC2
 10
509.30173310765713
 20
4316.153663333992
 30
0.0
 11
509.30249604705739
 21
4321.6542278272937
 31
0.0
  0
LINE
  5
1A61A
  8
SJC2
 10
513.80227472755723
 20
4314.6538006854926
 30
0.0
 11
513.80227472755723
 21
4307.2043528741488
 31
0.0
  0
LINE
  5
1A61B
  8
SJC2
 10
515.30221367005652
 20
4314.653953273395
 30
0.0
 11
515.30221367005652
 21
4305.7043376377478
 31
0.0
  0
ARC
  5
1A61C
  8
SJC2
 10
514.8022137070584
 20
4316.6538006817937
 30
0.0
 40
2.0
 50
180.0008750113
 51
270.00349620970002
  0
LINE
  5
1A61D
  8
SJC2
 10
512.80221370735671
 20
4321.6543804151952
 30
0.0
 11
512.80221370735671
 21
4316.6537701380948
 31
0.0
  0
ARC
  5
1A61E
  8
SJC2
 10
511.30145073075607
 20
4316.1537244277943
 30
0.0
 40
1.5000000372999991
 50
269.99796232400001
 51
0.0005806023
  0
LINE
  5
1A61F
  8
SJC2
 10
510.8168619174466
 20
4314.6537243914927
 30
0.0
 11
528.80303744355842
 21
4314.6537243914927
 31
0.0
  0
LINE
  5
1A620
  8
SJC2
 10
524.30230508865668
 20
4305.7043376377478
 30
0.0
 11
525.80224403115778
 21
4307.2043528741488
 31
0.0
  0
LINE
  5
1A621
  8
SJC2
 10
524.30230508865668
 20
4314.653953273395
 30
0.0
 11
524.30230508865668
 21
4305.7043376377478
 31
0.0
  0
LINE
  5
1A622
  8
SJC2
 10
525.80224403115778
 20
4307.2043528741488
 30
0.0
 11
525.80224403115778
 21
4314.6542584491899
 31
0.0
  0
ARC
  5
1A623
  8
SJC2
 10
524.80230505165673
 20
4316.6541821549899
 30
0.0
 40
2.0
 50
270.00087511129999
 51
359.99912488870001
  0
LINE
  5
1A624
  8
SJC2
 10
526.80230505145664
 20
4321.6543804151952
 30
0.0
 11
526.80230505145664
 21
4316.6542279017922
 31
0.0
  0
ARC
  5
1A625
  8
SJC2
 10
528.80297634885756
 20
4316.1536481335934
 30
0.0
 40
1.5000000372999991
 50
270.00233364489998
 51
0.0005806136
  0
LINE
  5
1A626
  8
SJC2
 10
530.30297638595755
 20
4316.153663333992
 30
0.0
 11
530.30206085865746
 21
4321.6542278272937
 31
0.0
  0
ARC
  5
1A627
  8
SJC2
 10
528.30322061595677
 20
4316.1537244259916
 30
0.0
 40
1.5000000372999991
 50
179.99941932740001
 51
270.00349478290002
  0
ARC
  5
1A628
  8
SJC2
 10
519.80233567335745
 20
4353.970753049045
 30
0.0
 40
21.72434559525518
 50
59.579364889457949
 51
120.42063511054189
  0
LINE
  5
1A629
  8
SJC2
 10
508.80233567335739
 20
4370.7043376377469
 30
0.0
 11
530.80233567335745
 21
4370.7043376377469
 31
0.0
  0
LINE
  5
1A62A
  8
CENTER
 10
519.80233567335745
 20
4382.9011453173471
 30
0.0
 11
519.80233567335745
 21
4301.6626204590939
 31
0.0
  0
LINE
  5
1A62B
  8
SJC2
 10
513.80227472755723
 20
4307.2043528741488
 30
0.0
 11
525.80224403115778
 21
4307.2043528741488
 31
0.0
  0
POLYLINE
  5
1A62C
  8
SJC2
 66
     1
 10
0.0
 20
0.0
 30
0.0
  0
VERTEX
  5
20EBA
  8
SJC2
 10
664.80231294905741
 20
4323.9543376563006
 30
0.0
  0
VERTEX
  5
20EBB
  8
SJC2
 10
686.80224395665755
 20
4323.9543376563006
 30
0.0
  0
VERTEX
  5
20EBC
  8
SJC2
 10
686.80224395665755
 20
4321.6543804151952
 30
0.0
  0
VERTEX
  5
20EBD
  8
SJC2
 10
664.80231294905741
 20
4321.6543804151952
 30
0.0
  0
VERTEX
  5
20EBE
  8
SJC2
 10
664.80231294905741
 20
4323.9543376562942
 30
0.0
  0
SEQEND
  5
20EBF
  8
SJC2
  0
LINE
  5
1A62D
  8
SJC2
 10
669.80227472755723
 20
4307.2043528741488
 30
0.0
 11
671.30221367005652
 21
4305.7043376377478
 31
0.0
  0
LINE
  5
1A62E
  8
SJC2
 10
671.30221367005652
 20
4305.7043376377478
 30
0.0
 11
680.30230508865679
 21
4305.7043376377478
 31
0.0
  0
ARC
  5
1A62F
  8
SJC2
 10
666.80173314485728
 20
4316.1536481335934
 30
0.0
 40
1.5000000372999991
 50
179.99941938640001
 51
270.57788632913292
  0
LINE
  5
1A630
  8
SJC2
 10
665.30173310765713
 20
4316.153663333992
 30
0.0
 11
665.3024960470575
 21
4321.6542278272937
 31
0.0
  0
LINE
  5
1A631
  8
SJC2
 10
669.80227472755723
 20
4314.6538006854926
 30
0.0
 11
669.80227472755723
 21
4307.2043528741488
 31
0.0
  0
LINE
  5
1A632
  8
SJC2
 10
671.30221367005652
 20
4314.653953273395
 30
0.0
 11
671.30221367005652
 21
4305.7043376377478
 31
0.0
  0
ARC
  5
1A633
  8
SJC2
 10
670.80221370705829
 20
4316.6538006817937
 30
0.0
 40
2.0
 50
180.0008750113
 51
270.00349620970002
  0
LINE
  5
1A634
  8
SJC2
 10
668.8022137073566
 20
4321.6543804151952
 30
0.0
 11
668.8022137073566
 21
4316.6537701380948
 31
0.0
  0
ARC
  5
1A635
  8
SJC2
 10
667.30145073075619
 20
4316.1537244277943
 30
0.0
 40
1.5000000372999991
 50
269.99796232400001
 51
0.0005806023
  0
LINE
  5
1A636
  8
SJC2
 10
666.81686191744654
 20
4314.6537243914927
 30
0.0
 11
684.80303744355842
 21
4314.6537243914927
 31
0.0
  0
LINE
  5
1A637
  8
SJC2
 10
680.30230508865679
 20
4305.7043376377478
 30
0.0
 11
681.8022440311579
 21
4307.2043528741488
 31
0.0
  0
LINE
  5
1A638
  8
SJC2
 10
680.30230508865679
 20
4314.653953273395
 30
0.0
 11
680.30230508865679
 21
4305.7043376377478
 31
0.0
  0
LINE
  5
1A639
  8
SJC2
 10
681.8022440311579
 20
4307.2043528741488
 30
0.0
 11
681.8022440311579
 21
4314.6542584491935
 31
0.0
  0
ARC
  5
1A63A
  8
SJC2
 10
680.80230505165673
 20
4316.6541821549936
 30
0.0
 40
2.0
 50
270.00087511129999
 51
359.99912488870001
  0
LINE
  5
1A63B
  8
SJC2
 10
682.80230505145664
 20
4321.6543804151952
 30
0.0
 11
682.80230505145664
 21
4316.6542279017949
 31
0.0
  0
ARC
  5
1A63C
  8
SJC2
 10
684.80297634885756
 20
4316.1536481335934
 30
0.0
 40
1.5000000372999991
 50
270.00233364489998
 51
0.0005806136
  0
LINE
  5
1A63D
  8
SJC2
 10
686.30297638595755
 20
4316.153663333992
 30
0.0
 11
686.30206085865746
 21
4321.6542278272937
 31
0.0
  0
ARC
  5
1A63E
  8
SJC2
 10
684.30322061595689
 20
4316.1537244259916
 30
0.0
 40
1.5000000372999991
 50
179.99941932740001
 51
270.00349478290002
  0
LINE
  5
1A63F
  8
CENTER
 10
675.80233567335745
 20
4382.9011453173471
 30
0.0
 11
675.80233567335745
 21
4301.6626204590939
 31
0.0
  0
LINE
  5
1A640
  8
SJC2
 10
669.80227472755723
 20
4307.2043528741488
 30
0.0
 11
681.8022440311579
 21
4307.2043528741488
 31
0.0
  0
LINE
  5
1A641
  8
SJC
 10
484.1524330113574
 20
4369.1044349757503
 30
0.0
 11
494.80233567336018
 21
4369.1044349757503
 31
0.0
  0
LINE
  5
1A642
  8
SJC
 10
484.1524330113574
 20
4326.4042402997466
 30
0.0
 11
494.80233567335762
 21
4326.4042402997466
 31
0.0
  0
ARC
  5
1A643
  8
SJC
 10
484.1524330113574
 20
4347.7543376377471
 30
0.0
 40
21.350097338000001
 50
90.0
 51
270.0
  0
LINE
  5
1A644
  8
SJC
 10
700.80233617674946
 20
4019.1044510689499
 30
0.0
 11
3494.8019857941581
 21
4019.1044510689499
 31
0.0
  0
LINE
  5
1A645
  8
SJC
 10
700.80233617675412
 20
3976.404256392947
 30
0.0
 11
3494.8019857941549
 21
3976.404256392947
 31
0.0
  0
LINE
  5
1A646
  8
SJC
 10
3700.8019857941549
 20
4019.1044510689499
 30
0.0
 11
3839.1407464629042
 21
4019.1044510689499
 31
0.0
  0
LINE
  5
1A647
  8
SJC
 10
3700.8019857941572
 20
3976.404256392947
 30
0.0
 11
3839.1407464629042
 21
3976.404256392947
 31
0.0
  0
LINE
  5
1A648
  8
CENTER
 10
452.80233567335648
 20
3997.7543537309471
 30
0.0
 11
3839.1407464629042
 21
3997.7543537309471
 31
0.0
  0
LINE
  5
1A649
  8
SJC
 10
3597.8019857941558
 20
3973.954353749501
 30
0.0
 11
3494.8019857941549
 21
3973.954353749501
 31
0.0
  0
LINE
  5
1A64A
  8
SJC
 10
3494.8019857941581
 20
4002.5505044810702
 30
0.0
 11
3494.8019857941549
 21
3973.954353749501
 31
0.0
  0
ARC
  5
1A64B
  8
SJC
 10
3499.8019857941558
 20
3992.2543537309471
 30
0.0
 40
5.0
 50
90.0
 51
180.0
  0
LINE
  5
1A64C
  8
SJC
 10
3597.8019857941558
 20
3997.2543537309471
 30
0.0
 11
3499.8019857941558
 21
3997.2543537309471
 31
0.0
  0
LINE
  5
1A64D
  8
SJC2
 10
3597.8019857941558
 20
3987.9616546746511
 30
0.0
 11
3507.301986297548
 21
3988.4281597271151
 31
0.0
  0
LINE
  5
1A64E
  8
SJC
 10
3597.8019857941581
 20
3973.954353749501
 30
0.0
 11
3700.8019857941572
 21
3973.954353749501
 31
0.0
  0
LINE
  5
1A64F
  8
SJC
 10
3700.8019857941558
 20
4002.5505044810702
 30
0.0
 11
3700.8019857941572
 21
3973.954353749501
 31
0.0
  0
ARC
  5
1A650
  8
SJC
 10
3695.8019857941558
 20
3992.2543537309471
 30
0.0
 40
5.0
 50
0.0
 51
90.0
  0
LINE
  5
1A651
  8
SJC
 10
3597.8019857941581
 20
3997.2543537309471
 30
0.0
 11
3695.8019857941558
 21
3997.2543537309471
 31
0.0
  0
LINE
  5
1A652
  8
SJC2
 10
3597.8019857941558
 20
3987.9616546746511
 30
0.0
 11
3688.3019852907651
 21
3988.4281597271151
 31
0.0
  0
LINE
  5
1A653
  8
SJC
 10
3695.8019862975498
 20
3998.307804683689
 30
0.0
 11
3499.8019862975498
 21
3998.307804683689
 31
0.0
  0
LINE
  5
1A654
  8
SJC
 10
3494.8019862975498
 20
4020.704353730951
 30
0.0
 11
3494.8019862975498
 21
4003.3078046836881
 31
0.0
  0
ARC
  5
1A655
  8
SJC
 10
3499.8019862975498
 20
4003.3078046836881
 30
0.0
 40
5.0
 50
180.0
 51
270.0
  0
LINE
  5
1A656
  8
SJC
 10
3700.801986297548
 20
4020.704353730951
 30
0.0
 11
3700.8019862975498
 21
4003.3078046836881
 31
0.0
  0
ARC
  5
1A657
  8
SJC
 10
3695.8019862975498
 20
4003.3078046836881
 30
0.0
 40
5.0
 50
270.0
 51
0.0
  0
LINE
  5
1A658
  8
SJC
 10
3700.801986297548
 20
4020.704353730951
 30
0.0
 11
3494.8019862975498
 21
4020.704353730951
 31
0.0
  0
POLYLINE
  5
1A659
  8
SJC2
 66
     1
 10
0.0
 20
0.0
 30
0.0
  0
VERTEX
  5
20EC0
  8
SJC2
 10
3508.801963069855
 20
3973.954353749501
 30
0.0
  0
VERTEX
  5
20EC1
  8
SJC2
 10
3530.801894077455
 20
3973.954353749501
 30
0.0
  0
VERTEX
  5
20EC2
  8
SJC2
 10
3530.801894077455
 20
3971.6543965083952
 30
0.0
  0
VERTEX
  5
20EC3
  8
SJC2
 10
3508.801963069855
 20
3971.6543965083952
 30
0.0
  0
VERTEX
  5
20EC4
  8
SJC2
 10
3508.801963069855
 20
3973.9543537494942
 30
0.0
  0
SEQEND
  5
20EC5
  8
SJC2
  0
LINE
  5
1A65A
  8
SJC2
 10
3513.8019248483552
 20
3957.2043689673492
 30
0.0
 11
3515.3018637908549
 21
3955.704353730951
 31
0.0
  0
LINE
  5
1A65B
  8
SJC2
 10
3515.3018637908549
 20
3955.704353730951
 30
0.0
 11
3524.3019552094538
 21
3955.704353730951
 31
0.0
  0
ARC
  5
1A65C
  8
SJC2
 10
3510.8013832656552
 20
3966.1536642267929
 30
0.0
 40
1.5000000372999991
 50
179.99941938640001
 51
270.57788632913292
  0
LINE
  5
1A65D
  8
SJC2
 10
3509.3013832284551
 20
3966.153679427196
 30
0.0
 11
3509.302146167855
 21
3971.6542439204932
 31
0.0
  0
LINE
  5
1A65E
  8
SJC2
 10
3513.8019248483552
 20
3964.653816778693
 30
0.0
 11
3513.8019248483552
 21
3957.2043689673492
 31
0.0
  0
LINE
  5
1A65F
  8
SJC2
 10
3515.3018637908549
 20
3964.6539693665941
 30
0.0
 11
3515.3018637908549
 21
3955.704353730951
 31
0.0
  0
ARC
  5
1A660
  8
SJC2
 10
3514.8018638278568
 20
3966.6538167749932
 30
0.0
 40
2.0
 50
180.0008750113
 51
270.00349620970002
  0
LINE
  5
1A661
  8
SJC2
 10
3512.8018638281551
 20
3971.6543965083952
 30
0.0
 11
3512.8018638281551
 21
3966.6537862312939
 31
0.0
  0
ARC
  5
1A662
  8
SJC2
 10
3511.3011008515541
 20
3966.1537405209929
 30
0.0
 40
1.5000000372999991
 50
269.99796232400001
 51
0.0005806023
  0
LINE
  5
1A663
  8
SJC2
 10
3510.816512038245
 20
3964.6537404846931
 30
0.0
 11
3528.8026875643568
 21
3964.6537404846931
 31
0.0
  0
LINE
  5
1A664
  8
SJC2
 10
3524.3019552094538
 20
3955.704353730951
 30
0.0
 11
3525.8018941519558
 21
3957.2043689673492
 31
0.0
  0
LINE
  5
1A665
  8
SJC2
 10
3524.3019552094538
 20
3964.6539693665941
 30
0.0
 11
3524.3019552094538
 21
3955.704353730951
 31
0.0
  0
LINE
  5
1A666
  8
SJC2
 10
3525.8018941519558
 20
3957.2043689673492
 30
0.0
 11
3525.8018941519558
 21
3964.6542745423949
 31
0.0
  0
ARC
  5
1A667
  8
SJC2
 10
3524.8019551724551
 20
3966.654198248194
 30
0.0
 40
2.0
 50
270.00087511129999
 51
359.99912488870001
  0
LINE
  5
1A668
  8
SJC2
 10
3526.801955172255
 20
3971.6543965083952
 30
0.0
 11
3526.801955172255
 21
3966.6542439949958
 31
0.0
  0
ARC
  5
1A669
  8
SJC2
 10
3528.802626469655
 20
3966.1536642267929
 30
0.0
 40
1.5000000372999991
 50
270.00233364489998
 51
0.0005806136
  0
LINE
  5
1A66A
  8
SJC2
 10
3530.302626506756
 20
3966.153679427196
 30
0.0
 11
3530.301710979455
 21
3971.6542439204932
 31
0.0
  0
ARC
  5
1A66B
  8
SJC2
 10
3528.3028707367548
 20
3966.1537405191962
 30
0.0
 40
1.5000000372999991
 50
179.99941932740001
 51
270.00349478290002
  0
LINE
  5
1A66C
  8
CENTER
 10
3519.8019857941549
 20
4032.9011614105511
 30
0.0
 11
3519.8019857941549
 21
3951.662636552293
 31
0.0
  0
LINE
  5
1A66D
  8
SJC2
 10
3513.8019248483552
 20
3957.2043689673492
 30
0.0
 11
3525.8018941519558
 21
3957.2043689673492
 31
0.0
  0
POLYLINE
  5
1A66E
  8
SJC2
 66
     1
 10
0.0
 20
0.0
 30
0.0
  0
VERTEX
  5
20EC6
  8
SJC2
 10
3664.8019630698559
 20
3973.954353749501
 30
0.0
  0
VERTEX
  5
20EC7
  8
SJC2
 10
3686.8018940774559
 20
3973.954353749501
 30
0.0
  0
VERTEX
  5
20EC8
  8
SJC2
 10
3686.8018940774559
 20
3971.6543965083952
 30
0.0
  0
VERTEX
  5
20EC9
  8
SJC2
 10
3664.8019630698559
 20
3971.6543965083952
 30
0.0
  0
VERTEX
  5
20ECA
  8
SJC2
 10
3664.8019630698559
 20
3973.9543537494942
 30
0.0
  0
SEQEND
  5
20ECB
  8
SJC2
  0
LINE
  5
1A66F
  8
SJC2
 10
3669.8019248483561
 20
3957.2043689673519
 30
0.0
 11
3671.3018637908549
 21
3955.704353730951
 31
0.0
  0
LINE
  5
1A670
  8
SJC2
 10
3671.3018637908549
 20
3955.704353730951
 30
0.0
 11
3680.3019552094552
 21
3955.704353730951
 31
0.0
  0
ARC
  5
1A671
  8
SJC2
 10
3666.8013832656561
 20
3966.153664226797
 30
0.0
 40
1.5000000372999991
 50
179.99941938640001
 51
270.57788632913292
  0
LINE
  5
1A672
  8
SJC2
 10
3665.3013832284551
 20
3966.153679427196
 30
0.0
 11
3665.3021461678559
 21
3971.6542439204932
 31
0.0
  0
LINE
  5
1A673
  8
SJC2
 10
3669.8019248483561
 20
3964.653816778693
 30
0.0
 11
3669.8019248483561
 21
3957.2043689673519
 31
0.0
  0
LINE
  5
1A674
  8
SJC2
 10
3671.3018637908549
 20
3964.6539693665941
 30
0.0
 11
3671.3018637908549
 21
3955.704353730951
 31
0.0
  0
ARC
  5
1A675
  8
SJC2
 10
3670.8018638278568
 20
3966.6538167749968
 30
0.0
 40
2.0
 50
180.0008750113
 51
270.00349620970002
  0
LINE
  5
1A676
  8
SJC2
 10
3668.8018638281551
 20
3971.6543965083952
 30
0.0
 11
3668.8018638281551
 21
3966.6537862312939
 31
0.0
  0
ARC
  5
1A677
  8
SJC2
 10
3667.301100851555
 20
3966.1537405209961
 30
0.0
 40
1.5000000372999991
 50
269.99796232400001
 51
0.0005806023
  0
LINE
  5
1A678
  8
SJC2
 10
3666.816512038245
 20
3964.6537404846972
 30
0.0
 11
3684.8026875643559
 21
3964.6537404846972
 31
0.0
  0
LINE
  5
1A679
  8
SJC2
 10
3680.3019552094552
 20
3955.704353730951
 30
0.0
 11
3681.8018941519558
 21
3957.2043689673519
 31
0.0
  0
LINE
  5
1A67A
  8
SJC2
 10
3680.3019552094552
 20
3964.6539693665941
 30
0.0
 11
3680.3019552094552
 21
3955.704353730951
 31
0.0
  0
LINE
  5
1A67B
  8
SJC2
 10
3681.8018941519558
 20
3957.2043689673519
 30
0.0
 11
3681.8018941519558
 21
3964.6542745423949
 31
0.0
  0
ARC
  5
1A67C
  8
SJC2
 10
3680.8019551724551
 20
3966.654198248194
 30
0.0
 40
2.0
 50
270.00087511129999
 51
359.99912488870001
  0
LINE
  5
1A67D
  8
SJC2
 10
3682.801955172255
 20
3971.6543965083952
 30
0.0
 11
3682.801955172255
 21
3966.6542439949958
 31
0.0
  0
ARC
  5
1A67E
  8
SJC2
 10
3684.8026264696559
 20
3966.153664226797
 30
0.0
 40
1.5000000372999991
 50
270.00233364489998
 51
0.0005806136
  0
LINE
  5
1A67F
  8
SJC2
 10
3686.3026265067551
 20
3966.153679427196
 30
0.0
 11
3686.3017109794559
 21
3971.6542439204932
 31
0.0
  0
ARC
  5
1A680
  8
SJC2
 10
3684.3028707367548
 20
3966.1537405191962
 30
0.0
 40
1.5000000372999991
 50
179.99941932740001
 51
270.00349478290002
  0
LINE
  5
1A681
  8
CENTER
 10
3675.8019857941549
 20
4032.9011614105511
 30
0.0
 11
3675.8019857941549
 21
3951.662636552293
 31
0.0
  0
LINE
  5
1A682
  8
SJC2
 10
3669.8019248483561
 20
3957.2043689673519
 30
0.0
 11
3681.8018941519558
 21
3957.2043689673519
 31
0.0
  0
LINE
  5
1A683
  8
SJC
 10
597.80233567335654
 20
3973.9543537494978
 30
0.0
 11
494.80233567335648
 21
3973.9543537494978
 31
0.0
  0
LINE
  5
1A684
  8
SJC
 10
494.80233567335841
 20
4002.5505044810702
 30
0.0
 11
494.80233567335648
 21
3973.9543537494978
 31
0.0
  0
ARC
  5
1A685
  8
SJC
 10
499.80233567335648
 20
3992.2543537309471
 30
0.0
 40
5.0
 50
90.0
 51
180.0
  0
LINE
  5
1A686
  8
SJC
 10
597.80233567335654
 20
3997.2543537309471
 30
0.0
 11
499.80233567335648
 21
3997.2543537309471
 31
0.0
  0
LINE
  5
1A687
  8
SJC2
 10
597.80233567335654
 20
3987.9616546746511
 30
0.0
 11
507.30233617674912
 21
3988.4281597271151
 31
0.0
  0
LINE
  5
1A688
  8
SJC
 10
597.80233567335824
 20
3973.9543537494978
 30
0.0
 11
700.80233567335824
 21
3973.9543537494978
 31
0.0
  0
LINE
  5
1A689
  8
SJC
 10
700.80233567335654
 20
4002.5505044810702
 30
0.0
 11
700.80233567335824
 21
3973.9543537494978
 31
0.0
  0
ARC
  5
1A68A
  8
SJC
 10
695.80233567335654
 20
3992.2543537309471
 30
0.0
 40
5.0
 50
0.0
 51
90.0
  0
LINE
  5
1A68B
  8
SJC
 10
597.80233567335824
 20
3997.2543537309471
 30
0.0
 11
695.80233567335654
 21
3997.2543537309471
 31
0.0
  0
LINE
  5
1A68C
  8
SJC2
 10
597.80233567335654
 20
3987.9616546746511
 30
0.0
 11
688.30233516996566
 21
3988.4281597271151
 31
0.0
  0
LINE
  5
1A68D
  8
SJC
 10
695.80233617675094
 20
3998.3078046836849
 30
0.0
 11
499.80233617675088
 21
3998.3078046836849
 31
0.0
  0
LINE
  5
1A68E
  8
SJC
 10
494.80233617675088
 20
4020.7043537309469
 30
0.0
 11
494.80233617675088
 21
4003.3078046836849
 31
0.0
  0
ARC
  5
1A68F
  8
SJC
 10
499.80233617675088
 20
4003.3078046836849
 30
0.0
 40
5.0
 50
180.0
 51
270.0
  0
LINE
  5
1A690
  8
SJC
 10
700.80233617674912
 20
4020.7043537309469
 30
0.0
 11
700.80233617675094
 21
4003.3078046836849
 31
0.0
  0
ARC
  5
1A691
  8
SJC
 10
695.80233617675094
 20
4003.3078046836849
 30
0.0
 40
5.0
 50
270.0
 51
0.0
  0
LINE
  5
1A692
  8
SJC
 10
700.80233617674912
 20
4020.7043537309469
 30
0.0
 11
494.80233617675088
 21
4020.7043537309469
 31
0.0
  0
POLYLINE
  5
1A693
  8
SJC2
 66
     1
 10
0.0
 20
0.0
 30
0.0
  0
VERTEX
  5
20ECC
  8
SJC2
 10
508.80231294905678
 20
3973.954353749501
 30
0.0
  0
VERTEX
  5
20ECD
  8
SJC2
 10
530.80224395665687
 20
3973.954353749501
 30
0.0
  0
VERTEX
  5
20ECE
  8
SJC2
 10
530.80224395665687
 20
3971.6543965083952
 30
0.0
  0
VERTEX
  5
20ECF
  8
SJC2
 10
508.80231294905678
 20
3971.6543965083952
 30
0.0
  0
VERTEX
  5
20ED0
  8
SJC2
 10
508.80231294905678
 20
3973.9543537494942
 30
0.0
  0
SEQEND
  5
20ED1
  8
SJC2
  0
LINE
  5
1A694
  8
SJC2
 10
513.80227472755632
 20
3957.2043689673492
 30
0.0
 11
515.30221367005549
 21
3955.7043537309469
 31
0.0
  0
LINE
  5
1A695
  8
SJC2
 10
515.30221367005549
 20
3955.7043537309469
 30
0.0
 11
524.30230508865577
 21
3955.7043537309469
 31
0.0
  0
ARC
  5
1A696
  8
SJC2
 10
510.80173314485631
 20
3966.1536642267929
 30
0.0
 40
1.5000000372999991
 50
179.99941938640001
 51
270.57788632913292
  0
LINE
  5
1A697
  8
SJC2
 10
509.30173310765622
 20
3966.1536794271919
 30
0.0
 11
509.30249604705648
 21
3971.6542439204932
 31
0.0
  0
LINE
  5
1A698
  8
SJC2
 10
513.80227472755632
 20
3964.653816778693
 30
0.0
 11
513.80227472755632
 21
3957.2043689673492
 31
0.0
  0
LINE
  5
1A699
  8
SJC2
 10
515.30221367005549
 20
3964.6539693665941
 30
0.0
 11
515.30221367005549
 21
3955.7043537309469
 31
0.0
  0
ARC
  5
1A69A
  8
SJC2
 10
514.80221370705749
 20
3966.6538167749932
 30
0.0
 40
2.0
 50
180.0008750113
 51
270.00349620970002
  0
LINE
  5
1A69B
  8
SJC2
 10
512.8022137073558
 20
3971.6543965083952
 30
0.0
 11
512.8022137073558
 21
3966.6537862312939
 31
0.0
  0
ARC
  5
1A69C
  8
SJC2
 10
511.30145073075528
 20
3966.1537405209929
 30
0.0
 40
1.5000000372999991
 50
269.99796232400001
 51
0.0005806023
  0
LINE
  5
1A69D
  8
SJC2
 10
510.81686191744569
 20
3964.6537404846931
 30
0.0
 11
528.8030374435574
 21
3964.6537404846931
 31
0.0
  0
LINE
  5
1A69E
  8
SJC2
 10
524.30230508865577
 20
3955.7043537309469
 30
0.0
 11
525.80224403115687
 21
3957.2043689673492
 31
0.0
  0
LINE
  5
1A69F
  8
SJC2
 10
524.30230508865577
 20
3964.6539693665941
 30
0.0
 11
524.30230508865577
 21
3955.7043537309469
 31
0.0
  0
LINE
  5
1A6A0
  8
SJC2
 10
525.80224403115687
 20
3957.2043689673492
 30
0.0
 11
525.80224403115687
 21
3964.6542745423949
 31
0.0
  0
ARC
  5
1A6A1
  8
SJC2
 10
524.80230505165571
 20
3966.654198248194
 30
0.0
 40
2.0
 50
270.00087511129999
 51
359.99912488870001
  0
LINE
  5
1A6A2
  8
SJC2
 10
526.80230505145573
 20
3971.6543965083952
 30
0.0
 11
526.80230505145573
 21
3966.6542439949908
 31
0.0
  0
ARC
  5
1A6A3
  8
SJC2
 10
528.80297634885665
 20
3966.1536642267929
 30
0.0
 40
1.5000000372999991
 50
270.00233364489998
 51
0.0005806136
  0
LINE
  5
1A6A4
  8
SJC2
 10
530.30297638595675
 20
3966.1536794271919
 30
0.0
 11
530.30206085865655
 21
3971.6542439204932
 31
0.0
  0
ARC
  5
1A6A5
  8
SJC2
 10
528.30322061595598
 20
3966.1537405191921
 30
0.0
 40
1.5000000372999991
 50
179.99941932740001
 51
270.00349478290002
  0
LINE
  5
1A6A6
  8
CENTER
 10
519.80233567335654
 20
4032.901161410547
 30
0.0
 11
519.80233567335654
 21
3951.662636552293
 31
0.0
  0
LINE
  5
1A6A7
  8
SJC2
 10
513.80227472755632
 20
3957.2043689673492
 30
0.0
 11
525.80224403115687
 21
3957.2043689673492
 31
0.0
  0
POLYLINE
  5
1A6A8
  8
SJC2
 66
     1
 10
0.0
 20
0.0
 30
0.0
  0
VERTEX
  5
20ED2
  8
SJC2
 10
664.80231294905684
 20
3973.954353749501
 30
0.0
  0
VERTEX
  5
20ED3
  8
SJC2
 10
686.80224395665675
 20
3973.954353749501
 30
0.0
  0
VERTEX
  5
20ED4
  8
SJC2
 10
686.80224395665675
 20
3971.6543965083952
 30
0.0
  0
VERTEX
  5
20ED5
  8
SJC2
 10
664.80231294905684
 20
3971.6543965083952
 30
0.0
  0
VERTEX
  5
20ED6
  8
SJC2
 10
664.80231294905684
 20
3973.9543537494942
 30
0.0
  0
SEQEND
  5
20ED7
  8
SJC2
  0
LINE
  5
1A6A9
  8
SJC2
 10
669.80227472755632
 20
3957.2043689673492
 30
0.0
 11
671.30221367005561
 21
3955.704353730951
 31
0.0
  0
LINE
  5
1A6AA
  8
SJC2
 10
671.30221367005561
 20
3955.704353730951
 30
0.0
 11
680.30230508865577
 21
3955.704353730951
 31
0.0
  0
ARC
  5
1A6AB
  8
SJC2
 10
666.80173314485626
 20
3966.1536642267929
 30
0.0
 40
1.5000000372999991
 50
179.99941938640001
 51
270.57788632913292
  0
LINE
  5
1A6AC
  8
SJC2
 10
665.3017331076561
 20
3966.153679427196
 30
0.0
 11
665.30249604705659
 21
3971.6542439204932
 31
0.0
  0
LINE
  5
1A6AD
  8
SJC2
 10
669.80227472755632
 20
3964.653816778693
 30
0.0
 11
669.80227472755632
 21
3957.2043689673492
 31
0.0
  0
LINE
  5
1A6AE
  8
SJC2
 10
671.30221367005561
 20
3964.6539693665941
 30
0.0
 11
671.30221367005561
 21
3955.704353730951
 31
0.0
  0
ARC
  5
1A6AF
  8
SJC2
 10
670.80221370705749
 20
3966.6538167749932
 30
0.0
 40
2.0
 50
180.0008750113
 51
270.00349620970002
  0
LINE
  5
1A6B0
  8
SJC2
 10
668.80221370735569
 20
3971.6543965083952
 30
0.0
 11
668.80221370735569
 21
3966.6537862312939
 31
0.0
  0
ARC
  5
1A6B1
  8
SJC2
 10
667.30145073075516
 20
3966.1537405209929
 30
0.0
 40
1.5000000372999991
 50
269.99796232400001
 51
0.0005806023
  0
LINE
  5
1A6B2
  8
SJC2
 10
666.81686191744575
 20
3964.6537404846931
 30
0.0
 11
684.80303744355751
 21
3964.6537404846931
 31
0.0
  0
LINE
  5
1A6B3
  8
SJC2
 10
680.30230508865577
 20
3955.704353730951
 30
0.0
 11
681.80224403115699
 21
3957.2043689673492
 31
0.0
  0
LINE
  5
1A6B4
  8
SJC2
 10
680.30230508865577
 20
3964.6539693665941
 30
0.0
 11
680.30230508865577
 21
3955.704353730951
 31
0.0
  0
LINE
  5
1A6B5
  8
SJC2
 10
681.80224403115699
 20
3957.2043689673492
 30
0.0
 11
681.80224403115699
 21
3964.6542745423949
 31
0.0
  0
ARC
  5
1A6B6
  8
SJC2
 10
680.80230505165582
 20
3966.654198248194
 30
0.0
 40
2.0
 50
270.00087511129999
 51
359.99912488870001
  0
LINE
  5
1A6B7
  8
SJC2
 10
682.80230505145573
 20
3971.6543965083952
 30
0.0
 11
682.80230505145573
 21
3966.6542439949958
 31
0.0
  0
ARC
  5
1A6B8
  8
SJC2
 10
684.80297634885665
 20
3966.1536642267929
 30
0.0
 40
1.5000000372999991
 50
270.00233364489998
 51
0.0005806136
  0
LINE
  5
1A6B9
  8
SJC2
 10
686.30297638595675
 20
3966.153679427196
 30
0.0
 11
686.30206085865655
 21
3971.6542439204932
 31
0.0
  0
ARC
  5
1A6BA
  8
SJC2
 10
684.30322061595587
 20
3966.1537405191921
 30
0.0
 40
1.5000000372999991
 50
179.99941932740001
 51
270.00349478290002
  0
LINE
  5
1A6BB
  8
CENTER
 10
675.80233567335654
 20
4032.901161410547
 30
0.0
 11
675.80233567335654
 21
3951.662636552293
 31
0.0
  0
LINE
  5
1A6BC
  8
SJC2
 10
669.80227472755632
 20
3957.2043689673492
 30
0.0
 11
681.80224403115699
 21
3957.2043689673492
 31
0.0
  0
LINE
  5
1A6BD
  8
SJC
 10
484.15243301135661
 20
4019.1044510689499
 30
0.0
 11
494.80233567335972
 21
4019.1044510689499
 31
0.0
  0
LINE
  5
1A6BE
  8
SJC
 10
484.15243301135661
 20
3976.404256392947
 30
0.0
 11
494.80233567335688
 21
3976.404256392947
 31
0.0
  0
ARC
  5
1A6BF
  8
SJC
 10
484.15243301135661
 20
3997.7543537309471
 30
0.0
 40
21.350097338000001
 50
90.0
 51
270.0
  0
LINE
  5
1A73C
  8
SJC
 10
3567.5517421041559
 20
3567.7543537309512
 30
0.0
 11
3567.5517421041582
 21
3973.9543537494978
 31
0.0
  0
LINE
  5
1A73D
  8
SJC
 10
3628.052229484158
 20
3973.9543537494978
 30
0.0
 11
3628.0522294841539
 21
3567.7543537309512
 31
0.0
  0
LINE
  5
1A73E
  8
SJC2
 10
508.80233567335739
 20
4370.7043376377469
 30
0.0
 11
508.80233567335739
 21
4372.7043376377478
 31
0.0
  0
LINE
  5
1A73F
  8
SJC2
 10
530.80233567335745
 20
4372.7043376377478
 30
0.0
 11
530.80233567335745
 21
4370.7043376377469
 31
0.0
  0
LINE
  5
1A740
  8
SJC2
 10
508.8023356733575
 20
4372.7043376377478
 30
0.0
 11
530.80233567335745
 21
4372.7043376377478
 31
0.0
  0
ARC
  5
1A741
  8
SJC2
 10
675.80233567335745
 20
4353.970753049045
 30
0.0
 40
21.72434559525518
 50
59.579364889457949
 51
120.42063511054189
  0
LINE
  5
1A742
  8
SJC2
 10
664.80233567335745
 20
4370.7043376377469
 30
0.0
 11
686.80233567335745
 21
4370.7043376377469
 31
0.0
  0
LINE
  5
1A743
  8
SJC2
 10
664.80233567335745
 20
4370.7043376377469
 30
0.0
 11
664.80233567335745
 21
4372.7043376377478
 31
0.0
  0
LINE
  5
1A744
  8
SJC2
 10
686.80233567335745
 20
4372.7043376377478
 30
0.0
 11
686.80233567335745
 21
4370.7043376377469
 31
0.0
  0
LINE
  5
1A745
  8
SJC2
 10
664.80233567335745
 20
4372.7043376377478
 30
0.0
 11
686.80233567335745
 21
4372.7043376377478
 31
0.0
  0
ARC
  5
1A746
  8
SJC2
 10
519.80233567335745
 20
4003.9707691422441
 30
0.0
 40
21.72434559525518
 50
59.579364889457949
 51
120.42063511054189
  0
LINE
  5
1A747
  8
SJC2
 10
508.80233567335739
 20
4020.7043537309469
 30
0.0
 11
530.80233567335745
 21
4020.7043537309469
 31
0.0
  0
LINE
  5
1A748
  8
SJC2
 10
508.80233567335739
 20
4020.7043537309469
 30
0.0
 11
508.80233567335739
 21
4022.7043537309469
 31
0.0
  0
LINE
  5
1A749
  8
SJC2
 10
530.80233567335745
 20
4022.7043537309469
 30
0.0
 11
530.80233567335745
 21
4020.7043537309469
 31
0.0
  0
LINE
  5
1A74A
  8
SJC2
 10
508.80233567335739
 20
4022.7043537309469
 30
0.0
 11
530.80233567335745
 21
4022.7043537309469
 31
0.0
  0
ARC
  5
1A74B
  8
SJC2
 10
675.80233567335745
 20
4003.9707691422441
 30
0.0
 40
21.72434559525518
 50
59.579364889457949
 51
120.42063511054189
  0
LINE
  5
1A74C
  8
SJC2
 10
664.80233567335745
 20
4020.7043537309469
 30
0.0
 11
686.80233567335745
 21
4020.7043537309469
 31
0.0
  0
LINE
  5
1A74D
  8
SJC2
 10
664.80233567335745
 20
4020.7043537309469
 30
0.0
 11
664.80233567335745
 21
4022.7043537309469
 31
0.0
  0
LINE
  5
1A74E
  8
SJC2
 10
686.80233567335745
 20
4022.7043537309469
 30
0.0
 11
686.80233567335745
 21
4020.7043537309469
 31
0.0
  0
LINE
  5
1A74F
  8
SJC2
 10
664.80233567335745
 20
4022.7043537309469
 30
0.0
 11
686.80233567335745
 21
4022.7043537309469
 31
0.0
  0
ARC
  5
1A75A
  8
SJC2
 10
3519.8019857941572
 20
4353.970753049045
 30
0.0
 40
21.72434559525518
 50
59.579364889457949
 51
120.42063511054189
  0
LINE
  5
1A75B
  8
SJC2
 10
3508.8019857941558
 20
4370.7043376377469
 30
0.0
 11
3530.8019857941572
 21
4370.7043376377469
 31
0.0
  0
LINE
  5
1A75C
  8
SJC2
 10
3508.8019857941558
 20
4370.7043376377469
 30
0.0
 11
3508.8019857941558
 21
4372.7043376377478
 31
0.0
  0
LINE
  5
1A75D
  8
SJC2
 10
3530.8019857941572
 20
4372.7043376377478
 30
0.0
 11
3530.8019857941572
 21
4370.7043376377469
 31
0.0
  0
LINE
  5
1A75E
  8
SJC2
 10
3508.8019857941558
 20
4372.7043376377478
 30
0.0
 11
3530.8019857941572
 21
4372.7043376377478
 31
0.0
  0
ARC
  5
1A75F
  8
SJC2
 10
3675.8019857941558
 20
4353.970753049045
 30
0.0
 40
21.72434559525518
 50
59.579364889457949
 51
120.42063511054189
  0
LINE
  5
1A760
  8
SJC2
 10
3664.8019857941558
 20
4370.7043376377469
 30
0.0
 11
3686.8019857941558
 21
4370.7043376377469
 31
0.0
  0
LINE
  5
1A761
  8
SJC2
 10
3664.8019857941558
 20
4370.7043376377469
 30
0.0
 11
3664.8019857941558
 21
4372.7043376377478
 31
0.0
  0
LINE
  5
1A762
  8
SJC2
 10
3686.8019857941558
 20
4372.7043376377478
 30
0.0
 11
3686.8019857941558
 21
4370.7043376377469
 31
0.0
  0
LINE
  5
1A763
  8
SJC2
 10
3664.8019857941558
 20
4372.7043376377478
 30
0.0
 11
3686.8019857941558
 21
4372.7043376377478
 31
0.0
  0
ARC
  5
1A764
  8
SJC2
 10
3519.8019857941572
 20
4003.9707691422441
 30
0.0
 40
21.72434559525518
 50
59.579364889457949
 51
120.42063511054189
  0
LINE
  5
1A765
  8
SJC2
 10
3508.8019857941558
 20
4020.704353730951
 30
0.0
 11
3530.8019857941572
 21
4020.704353730951
 31
0.0
  0
LINE
  5
1A766
  8
SJC2
 10
3508.8019857941558
 20
4020.704353730951
 30
0.0
 11
3508.8019857941558
 21
4022.704353730951
 31
0.0
  0
LINE
  5
1A767
  8
SJC2
 10
3530.8019857941572
 20
4022.704353730951
 30
0.0
 11
3530.8019857941572
 21
4020.704353730951
 31
0.0
  0
LINE
  5
1A768
  8
SJC2
 10
3508.8019857941558
 20
4022.704353730951
 30
0.0
 11
3530.8019857941572
 21
4022.704353730951
 31
0.0
  0
ARC
  5
1A769
  8
SJC2
 10
3675.8019857941558
 20
4003.9707691422441
 30
0.0
 40
21.72434559525518
 50
59.579364889457949
 51
120.42063511054189
  0
LINE
  5
1A76A
  8
SJC2
 10
3664.8019857941558
 20
4020.704353730951
 30
0.0
 11
3686.8019857941558
 21
4020.704353730951
 31
0.0
  0
LINE
  5
1A76B
  8
SJC2
 10
3664.8019857941558
 20
4020.704353730951
 30
0.0
 11
3664.8019857941558
 21
4022.704353730951
 31
0.0
  0
LINE
  5
1A76C
  8
SJC2
 10
3686.8019857941558
 20
4022.704353730951
 30
0.0
 11
3686.8019857941558
 21
4020.704353730951
 31
0.0
  0
LINE
  5
1A76D
  8
SJC2
 10
3664.8019857941558
 20
4022.704353730951
 30
0.0
 11
3686.8019857941558
 21
4022.704353730951
 31
0.0
  0
LINE
  5
1A778
  8
CENTER
 10
4479.5994749430392
 20
4317.7543376377462
 30
0.0
 11
4479.5994749430392
 21
4377.7543376377471
 31
0.0
  0
ARC
  5
1A779
  8
SJC2
 10
4479.5994749430392
 20
4347.7543376377471
 30
0.0
 40
21.5
 50
90.0
 51
178.66750998291371
  0
ARC
  5
1A77A
  8
SJC2
 10
4479.5994749430392
 20
4347.7543376377471
 30
0.0
 40
23.100000000000001
 50
90.0
 51
178.66750998291371
  0
LINE
  5
1A77B
  8
SJC2
 10
4458.1052888965278
 20
4348.2543038345502
 30
0.0
 11
4456.5057215628467
 21
4348.2915106212886
 31
0.0
  0
LINE
  5
1A77C
  8
SJC2
 10
4503.3994749430403
 20
4357.5504883878712
 30
0.0
 11
4501.0994749430392
 21
4357.5504883878712
 31
0.0
  0
LINE
  5
1A77D
  8
SJC2
 10
4501.0994749430392
 20
4347.7543376377471
 30
0.0
 11
4501.0994749430392
 21
4357.5504883878712
 31
0.0
  0
LINE
  5
1A77E
  8
SJC2
 10
4503.3994749430403
 20
4347.7543376377471
 30
0.0
 11
4503.3994749430403
 21
4357.5504883878712
 31
0.0
  0
ARC
  5
1A77F
  8
SJC2
 10
4479.5994749430411
 20
4347.7543376377471
 30
0.0
 40
21.5
 50
181.33249001708629
 51
0.000000000000007
  0
ARC
  5
1A780
  8
SJC2
 10
4479.5994749430411
 20
4347.7543376377471
 30
0.0
 40
23.800000000000001
 50
181.33249001708629
 51
0.000000000000007
  0
LINE
  5
1A781
  8
SJC2
 10
4458.1052888965278
 20
4347.2543714409467
 30
0.0
 11
4455.805910854343
 21
4347.2008866850083
 31
0.0
  0
ARC
  5
1A782
  8
SJC2
 10
4479.5994749430392
 20
4342.8543376377484
 30
0.0
 40
28.0
 50
34.095697561129349
 51
90.0
  0
ARC
  5
1A783
  8
SJC2
 10
4479.5994749430392
 20
4342.8543376377484
 30
0.0
 40
26.399999999999999
 50
36.480642265211763
 51
90.0
  0
LINE
  5
1A784
  8
SJC2
 10
4502.7863430288626
 20
4358.5504883878712
 30
0.0
 11
4500.8266003167064
 21
4358.5504883878712
 31
0.0
  0
CIRCLE
  5
1A785
  8
SJC2
 10
4479.5994749430392
 20
4347.7543376377471
 30
0.0
 40
21.350000000000001
  0
CIRCLE
  5
1A786
  8
SJC2
 10
4479.5994749430392
 20
4347.7543376377471
 30
0.0
 40
19.050000000000001
  0
CIRCLE
  5
1A787
  8
SJC
 10
4479.5994749430392
 20
4347.7543376377471
 30
0.0
 40
20.0
  0
LINE
  5
1A788
  8
CENTER
 10
4589.3630023218848
 20
3997.7543537309471
 30
0.0
 11
4439.5994749430392
 21
3997.7543537309471
 31
0.0
  0
LINE
  5
1A789
  8
CENTER
 10
4479.5994749430392
 20
3967.7543537309471
 30
0.0
 11
4479.5994749430392
 21
4027.7543537309471
 31
0.0
  0
ARC
  5
1A78A
  8
SJC2
 10
4479.5994749430392
 20
3997.7543537309471
 30
0.0
 40
21.5
 50
90.0
 51
178.66750998291371
  0
ARC
  5
1A78B
  8
SJC2
 10
4479.5994749430392
 20
3997.7543537309471
 30
0.0
 40
23.100000000000001
 50
90.0
 51
178.66750998291371
  0
LINE
  5
1A78C
  8
SJC2
 10
4458.1052888965278
 20
3998.2543199277502
 30
0.0
 11
4456.5057215628467
 21
3998.291526714489
 31
0.0
  0
LINE
  5
1A78D
  8
SJC2
 10
4503.3994749430403
 20
4007.5505044810702
 30
0.0
 11
4501.0994749430392
 21
4007.5505044810702
 31
0.0
  0
LINE
  5
1A78E
  8
SJC2
 10
4501.0994749430392
 20
3997.7543537309471
 30
0.0
 11
4501.0994749430392
 21
4007.5505044810702
 31
0.0
  0
LINE
  5
1A78F
  8
SJC2
 10
4503.3994749430403
 20
3997.7543537309471
 30
0.0
 11
4503.3994749430403
 21
4007.5505044810702
 31
0.0
  0
ARC
  5
1A790
  8
SJC2
 10
4479.5994749430411
 20
3997.7543537309471
 30
0.0
 40
21.5
 50
181.33249001708629
 51
0.000000000000007
  0
ARC
  5
1A791
  8
SJC2
 10
4479.5994749430411
 20
3997.7543537309471
 30
0.0
 40
23.800000000000001
 50
181.33249001708629
 51
0.000000000000007
  0
LINE
  5
1A792
  8
SJC2
 10
4458.1052888965278
 20
3997.2543875341471
 30
0.0
 11
4455.805910854343
 21
3997.2009027782078
 31
0.0
  0
ARC
  5
1A793
  8
SJC2
 10
4479.5994749430392
 20
3992.8543537309488
 30
0.0
 40
28.0
 50
34.095697561129349
 51
90.0
  0
ARC
  5
1A794
  8
SJC2
 10
4479.5994749430392
 20
3992.8543537309488
 30
0.0
 40
26.399999999999999
 50
36.480642265211763
 51
90.0
  0
LINE
  5
1A795
  8
SJC2
 10
4502.7863430288626
 20
4008.5505044810702
 30
0.0
 11
4500.8266003167064
 21
4008.5505044810702
 31
0.0
  0
CIRCLE
  5
1A796
  8
SJC2
 10
4479.5994749430392
 20
3997.7543537309471
 30
0.0
 40
21.350000000000001
  0
CIRCLE
  5
1A797
  8
SJC2
 10
4479.5994749430392
 20
3997.7543537309471
 30
0.0
 40
19.050000000000001
  0
CIRCLE
  5
1A798
  8
SJC
 10
4479.5994749430392
 20
3997.7543537309471
 30
0.0
 40
20.0
  0
LINE
  5
1AF7B
  8
SJC
 10
5306.9595327124816
 20
4362.4502555800127
 30
0.0
 11
5306.9595327124816
 21
4385.7543537309466
 31
0.0
  0
LINE
  5
1AF7C
  8
SJC2
 10
5377.7589092182816
 20
4338.7543988070247
 30
0.0
 11
5377.7589092182816
 21
4356.7545816442471
 31
0.0
  0
ARC
  5
1AF7D
  8
SJC2
 10
5375.7589092185071
 20
4342.7543682593969
 30
0.0
 40
2.0
 50
270.00087511131733
 51
359.99912488868267
  0
ARC
  5
1AF7E
  8
SJC2
 10
5375.7589092185071
 20
4338.7543682598734
 30
0.0
 40
2.0
 50
0.0008751113173351
 51
89.999124888682658
  0
LINE
  5
1AF7F
  8
SJC2
 10
5369.7589092182816
 20
4340.7543682596233
 30
0.0
 11
5375.7589397656566
 21
4340.7543682596233
 31
0.0
  0
LINE
  5
1AF80
  8
SJC2
 10
5376.259580627333
 20
4358.255130938298
 30
0.0
 11
5369.7589092182816
 21
4358.2542154109724
 31
0.0
  0
LINE
  5
1AF81
  8
SJC2
 10
5369.7589092182816
 20
4354.7544596037469
 30
0.0
 11
5375.7589397656566
 21
4354.7544596037469
 31
0.0
  0
ARC
  5
1AF82
  8
SJC2
 10
5376.2589091822583
 20
4356.7545205507477
 30
0.0
 40
1.5000000372499991
 50
0.0023336003209662
 51
89.997666399574825
  0
ARC
  5
1AF83
  8
SJC2
 10
5375.7589092185071
 20
4356.7544596035223
 30
0.0
 40
2.0
 50
270.00087511131733
 51
359.99912488868267
  0
ARC
  5
1AF84
  8
SJC2
 10
5375.7589092220078
 20
4352.7544596039734
 30
0.0
 40
2.0
 50
359.99650379029839
 51
89.999124988682155
  0
LINE
  5
1AF85
  8
SJC2
 10
5369.7589092182816
 20
4337.2544598645218
 30
0.0
 11
5376.2589702757841
 21
4337.2544598645218
 31
0.0
  0
POLYLINE
  5
1AF86
  8
SJC2
 66
     1
 10
0.0
 20
0.0
 30
0.0
  0
VERTEX
  5
20ED8
  8
SJC2
 10
5367.4587993892819
 20
4336.7544293543979
 30
0.0
  0
VERTEX
  5
20ED9
  8
SJC2
 10
5369.7589092182816
 20
4336.7544293543979
 30
0.0
  0
VERTEX
  5
20EDA
  8
SJC2
 10
5369.7589092182816
 20
4358.7543985089978
 30
0.0
  0
VERTEX
  5
20EDB
  8
SJC2
 10
5367.4587993892819
 20
4358.7543985089978
 30
0.0
  0
SEQEND
  5
20EDC
  8
SJC2
  0
ARC
  5
1AF87
  8
SJC2
 10
5376.2589091822583
 20
4338.7544599005232
 30
0.0
 40
1.5000000372499991
 50
270.00233360042517
 51
359.99766639957483
  0
LINE
  5
1AF88
  8
CENTER
 10
5396.7230600913281
 20
4347.7543376377471
 30
0.0
 11
5246.9595327124807
 21
4347.7543376377471
 31
0.0
  0
LINE
  5
1AF89
  8
CENTER
 10
5286.9595327124816
 20
4317.7543376377462
 30
0.0
 11
5286.9595327124816
 21
4377.7543376377471
 31
0.0
  0
ARC
  5
1AF8A
  8
SJC2
 10
5286.9595327124816
 20
4347.7543376377471
 30
0.0
 40
21.5
 50
90.0
 51
178.66750998291371
  0
ARC
  5
1AF8B
  8
SJC2
 10
5286.9595327124816
 20
4347.7543376377471
 30
0.0
 40
23.100000000000001
 50
90.0
 51
178.66750998291371
  0
LINE
  5
1AF8C
  8
SJC2
 10
5265.4653466659702
 20
4348.2543038345502
 30
0.0
 11
5263.86577933229
 21
4348.2915106212886
 31
0.0
  0
LINE
  5
1AF8D
  8
SJC2
 10
5310.7595327124827
 20
4357.5504883878712
 30
0.0
 11
5308.4595327124816
 21
4357.5504883878712
 31
0.0
  0
LINE
  5
1AF8E
  8
SJC2
 10
5308.4595327124816
 20
4347.7543376377471
 30
0.0
 11
5308.4595327124816
 21
4357.5504883878712
 31
0.0
  0
LINE
  5
1AF8F
  8
SJC2
 10
5310.7595327124827
 20
4347.7543376377471
 30
0.0
 11
5310.7595327124827
 21
4357.5504883878712
 31
0.0
  0
ARC
  5
1AF90
  8
SJC2
 10
5286.9595327124835
 20
4347.7543376377471
 30
0.0
 40
21.5
 50
181.33249001708629
 51
0.000000000000007
  0
ARC
  5
1AF91
  8
SJC2
 10
5286.9595327124835
 20
4347.7543376377471
 30
0.0
 40
23.800000000000001
 50
181.33249001708629
 51
0.000000000000007
  0
LINE
  5
1AF92
  8
SJC2
 10
5265.4653466659702
 20
4347.2543714409467
 30
0.0
 11
5263.1659686237872
 21
4347.2008866850083
 31
0.0
  0
ARC
  5
1AF93
  8
SJC2
 10
5286.9595327124816
 20
4342.8543376377484
 30
0.0
 40
28.0
 50
34.095697561129349
 51
90.0
  0
ARC
  5
1AF94
  8
SJC2
 10
5286.9595327124816
 20
4342.8543376377484
 30
0.0
 40
26.399999999999999
 50
36.480642265211763
 51
90.0
  0
LINE
  5
1AF95
  8
SJC2
 10
5310.1464007983059
 20
4358.5504883878712
 30
0.0
 11
5308.1866580861488
 21
4358.5504883878712
 31
0.0
  0
CIRCLE
  5
1AF96
  8
SJC2
 10
5286.9595327124816
 20
4347.7543376377471
 30
0.0
 40
21.350000000000001
  0
CIRCLE
  5
1AF97
  8
SJC2
 10
5286.9595327124816
 20
4347.7543376377471
 30
0.0
 40
19.050000000000001
  0
CIRCLE
  5
1AF98
  8
SJC
 10
5286.9595327124816
 20
4347.7543376377471
 30
0.0
 40
20.0
  0
LINE
  5
1AF99
  8
SJC
 10
6084.4884969600826
 20
4362.4502555800127
 30
0.0
 11
6084.4884969600826
 21
4385.7543537309466
 31
0.0
  0
LINE
  5
1AF9A
  8
SJC2
 10
6155.2878734658843
 20
4338.7543988070247
 30
0.0
 11
6155.2878734658843
 21
4356.7545816442471
 31
0.0
  0
ARC
  5
1AF9B
  8
SJC2
 10
6153.2878734661081
 20
4342.7543682593969
 30
0.0
 40
2.0
 50
270.00087511131733
 51
359.99912488868267
  0
ARC
  5
1AF9C
  8
SJC2
 10
6153.2878734661081
 20
4338.7543682598734
 30
0.0
 40
2.0
 50
0.0008751113173351
 51
89.999124888682658
  0
LINE
  5
1AF9D
  8
SJC2
 10
6147.2878734658843
 20
4340.7543682596233
 30
0.0
 11
6153.2879040132584
 21
4340.7543682596233
 31
0.0
  0
LINE
  5
1AF9E
  8
SJC2
 10
6153.7885448749339
 20
4358.255130938298
 30
0.0
 11
6147.2878734658843
 21
4358.2542154109724
 31
0.0
  0
LINE
  5
1AF9F
  8
SJC2
 10
6147.2878734658843
 20
4354.7544596037469
 30
0.0
 11
6153.2879040132584
 21
4354.7544596037469
 31
0.0
  0
ARC
  5
1AFA0
  8
SJC2
 10
6153.7878734298592
 20
4356.7545205507477
 30
0.0
 40
1.5000000372499991
 50
0.0023336003209662
 51
89.997666399574825
  0
ARC
  5
1AFA1
  8
SJC2
 10
6153.2878734661081
 20
4356.7544596035223
 30
0.0
 40
2.0
 50
270.00087511131733
 51
359.99912488868267
  0
ARC
  5
1AFA2
  8
SJC2
 10
6153.2878734696087
 20
4352.7544596039734
 30
0.0
 40
2.0
 50
359.99650379029839
 51
89.999124988682155
  0
LINE
  5
1AFA3
  8
SJC2
 10
6147.2878734658843
 20
4337.2544598645218
 30
0.0
 11
6153.7879345233841
 21
4337.2544598645218
 31
0.0
  0
POLYLINE
  5
1AFA4
  8
SJC2
 66
     1
 10
0.0
 20
0.0
 30
0.0
  0
VERTEX
  5
20EDD
  8
SJC2
 10
6144.9877636368828
 20
4336.7544293543979
 30
0.0
  0
VERTEX
  5
20EDE
  8
SJC2
 10
6147.2878734658843
 20
4336.7544293543979
 30
0.0
  0
VERTEX
  5
20EDF
  8
SJC2
 10
6147.2878734658843
 20
4358.7543985089978
 30
0.0
  0
VERTEX
  5
20EE0
  8
SJC2
 10
6144.9877636368828
 20
4358.7543985089978
 30
0.0
  0
SEQEND
  5
20EE1
  8
SJC2
  0
ARC
  5
1AFA5
  8
SJC2
 10
6153.7878734298592
 20
4338.7544599005232
 30
0.0
 40
1.5000000372499991
 50
270.00233360042517
 51
359.99766639957483
  0
LINE
  5
1AFA6
  8
CENTER
 10
6174.2520243389299
 20
4347.7543376377471
 30
0.0
 11
6024.4884969600816
 21
4347.7543376377471
 31
0.0
  0
LINE
  5
1AFA7
  8
CENTER
 10
6064.4884969600816
 20
4317.7543376377462
 30
0.0
 11
6064.4884969600816
 21
4377.7543376377471
 31
0.0
  0
ARC
  5
1AFA8
  8
SJC2
 10
6064.4884969600816
 20
4347.7543376377471
 30
0.0
 40
21.5
 50
90.0
 51
178.66750998291371
  0
ARC
  5
1AFA9
  8
SJC2
 10
6064.4884969600816
 20
4347.7543376377471
 30
0.0
 40
23.100000000000001
 50
90.0
 51
178.66750998291371
  0
LINE
  5
1AFAA
  8
SJC2
 10
6042.9943109135711
 20
4348.2543038345502
 30
0.0
 11
6041.3947435798909
 21
4348.2915106212886
 31
0.0
  0
LINE
  5
1AFAB
  8
SJC2
 10
6088.2884969600836
 20
4357.5504883878712
 30
0.0
 11
6085.9884969600826
 21
4357.5504883878712
 31
0.0
  0
LINE
  5
1AFAC
  8
SJC2
 10
6085.9884969600826
 20
4347.7543376377471
 30
0.0
 11
6085.9884969600826
 21
4357.5504883878712
 31
0.0
  0
LINE
  5
1AFAD
  8
SJC2
 10
6088.2884969600836
 20
4347.7543376377471
 30
0.0
 11
6088.2884969600836
 21
4357.5504883878712
 31
0.0
  0
ARC
  5
1AFAE
  8
SJC2
 10
6064.4884969600844
 20
4347.7543376377471
 30
0.0
 40
21.5
 50
181.33249001708629
 51
0.000000000000007
  0
ARC
  5
1AFAF
  8
SJC2
 10
6064.4884969600844
 20
4347.7543376377471
 30
0.0
 40
23.800000000000001
 50
181.33249001708629
 51
0.000000000000007
  0
LINE
  5
1AFB0
  8
SJC2
 10
6042.9943109135711
 20
4347.2543714409467
 30
0.0
 11
6040.6949328713872
 21
4347.2008866850083
 31
0.0
  0
ARC
  5
1AFB1
  8
SJC2
 10
6064.4884969600816
 20
4342.8543376377484
 30
0.0
 40
28.0
 50
34.095697561129349
 51
90.0
  0
ARC
  5
1AFB2
  8
SJC2
 10
6064.4884969600816
 20
4342.8543376377484
 30
0.0
 40
26.399999999999999
 50
36.480642265211763
 51
90.0
  0
LINE
  5
1AFB3
  8
SJC2
 10
6087.6753650459068
 20
4358.5504883878712
 30
0.0
 11
6085.7156223337497
 21
4358.5504883878712
 31
0.0
  0
CIRCLE
  5
1AFB4
  8
SJC2
 10
6064.4884969600816
 20
4347.7543376377471
 30
0.0
 40
21.350000000000001
  0
CIRCLE
  5
1AFB5
  8
SJC2
 10
6064.4884969600816
 20
4347.7543376377471
 30
0.0
 40
19.050000000000001
  0
CIRCLE
  5
1AFB6
  8
SJC
 10
6064.4884969600816
 20
4347.7543376377471
 30
0.0
 40
20.0
  0
LINE
  5
1AFB7
  8
SJC
 10
6871.4160260808203
 20
4362.4500115735127
 30
0.0
 11
6871.4160260808203
 21
4385.7541097244457
 31
0.0
  0
LINE
  5
1AFB8
  8
SJC2
 10
6942.2154025866221
 20
4338.7541548005247
 30
0.0
 11
6942.2154025866221
 21
4356.7543376377471
 31
0.0
  0
ARC
  5
1AFB9
  8
SJC2
 10
6940.2154025868467
 20
4342.7541242528969
 30
0.0
 40
2.0
 50
270.00087511131733
 51
359.99912488868267
  0
ARC
  5
1AFBA
  8
SJC2
 10
6940.2154025868467
 20
4338.7541242533698
 30
0.0
 40
2.0
 50
0.0008751113173351
 51
89.999124888682658
  0
LINE
  5
1AFBB
  8
SJC2
 10
6934.2154025866203
 20
4340.7541242531224
 30
0.0
 11
6940.2154331339962
 21
4340.7541242531224
 31
0.0
  0
LINE
  5
1AFBC
  8
SJC2
 10
6940.7160739956716
 20
4358.254886931798
 30
0.0
 11
6934.2154025866203
 21
4358.2539714044724
 31
0.0
  0
LINE
  5
1AFBD
  8
SJC2
 10
6934.2154025866203
 20
4354.7542155972478
 30
0.0
 11
6940.2154331339962
 21
4354.7542155972478
 31
0.0
  0
ARC
  5
1AFBE
  8
SJC2
 10
6940.7154025505961
 20
4356.7542765442486
 30
0.0
 40
1.5000000372499991
 50
0.0023336003209662
 51
89.997666399574825
  0
ARC
  5
1AFBF
  8
SJC2
 10
6940.2154025868467
 20
4356.7542155970223
 30
0.0
 40
2.0
 50
270.00087511131733
 51
359.99912488868267
  0
ARC
  5
1AFC0
  8
SJC2
 10
6940.2154025903474
 20
4352.7542155974743
 30
0.0
 40
2.0
 50
359.99650379029839
 51
89.999124988682155
  0
LINE
  5
1AFC1
  8
SJC2
 10
6934.2154025866203
 20
4337.2542158580209
 30
0.0
 11
6940.7154636441219
 21
4337.2542158580209
 31
0.0
  0
POLYLINE
  5
1AFC2
  8
SJC2
 66
     1
 10
0.0
 20
0.0
 30
0.0
  0
VERTEX
  5
20EE2
  8
SJC2
 10
6931.9152927576206
 20
4336.7541853478979
 30
0.0
  0
VERTEX
  5
20EE3
  8
SJC2
 10
6934.2154025866203
 20
4336.7541853478979
 30
0.0
  0
VERTEX
  5
20EE4
  8
SJC2
 10
6934.2154025866203
 20
4358.7541545024978
 30
0.0
  0
VERTEX
  5
20EE5
  8
SJC2
 10
6931.9152927576206
 20
4358.7541545024978
 30
0.0
  0
SEQEND
  5
20EE6
  8
SJC2
  0
ARC
  5
1AFC3
  8
SJC2
 10
6940.7154025505961
 20
4338.7542158940232
 30
0.0
 40
1.5000000372499991
 50
270.00233360042517
 51
359.99766639957483
  0
LINE
  5
1AFC4
  8
CENTER
 10
6961.1795534596658
 20
4347.7540936312471
 30
0.0
 11
6811.4160260808203
 21
4347.7540936312471
 31
0.0
  0
LINE
  5
1AFC5
  8
CENTER
 10
6851.4160260808212
 20
4317.7540936312471
 30
0.0
 11
6851.4160260808212
 21
4377.7540936312471
 31
0.0
  0
ARC
  5
1AFC6
  8
SJC2
 10
6851.4160260808212
 20
4347.7540936312471
 30
0.0
 40
21.5
 50
90.0
 51
178.66750998291371
  0
ARC
  5
1AFC7
  8
SJC2
 10
6851.4160260808212
 20
4347.7540936312471
 30
0.0
 40
23.100000000000001
 50
90.0
 51
178.66750998291371
  0
LINE
  5
1AFC8
  8
SJC2
 10
6829.9218400343088
 20
4348.2540598280493
 30
0.0
 11
6828.3222727006287
 21
4348.2912666147886
 31
0.0
  0
LINE
  5
1AFC9
  8
SJC2
 10
6875.2160260808214
 20
4357.5502443813702
 30
0.0
 11
6872.9160260808203
 21
4357.5502443813702
 31
0.0
  0
LINE
  5
1AFCA
  8
SJC2
 10
6872.9160260808203
 20
4347.7540936312471
 30
0.0
 11
6872.9160260808203
 21
4357.5502443813702
 31
0.0
  0
LINE
  5
1AFCB
  8
SJC2
 10
6875.2160260808214
 20
4347.7540936312471
 30
0.0
 11
6875.2160260808214
 21
4357.5502443813702
 31
0.0
  0
ARC
  5
1AFCC
  8
SJC2
 10
6851.416026080823
 20
4347.7540936312471
 30
0.0
 40
21.5
 50
181.33249001708629
 51
0.000000000000007
  0
ARC
  5
1AFCD
  8
SJC2
 10
6851.416026080823
 20
4347.7540936312471
 30
0.0
 40
23.800000000000001
 50
181.33249001708629
 51
0.000000000000007
  0
LINE
  5
1AFCE
  8
SJC2
 10
6829.9218400343088
 20
4347.2541274344476
 30
0.0
 11
6827.622461992125
 21
4347.2006426785083
 31
0.0
  0
ARC
  5
1AFCF
  8
SJC2
 10
6851.4160260808212
 20
4342.8540936312493
 30
0.0
 40
28.0
 50
34.095697561129349
 51
90.0
  0
ARC
  5
1AFD0
  8
SJC2
 10
6851.4160260808212
 20
4342.8540936312493
 30
0.0
 40
26.399999999999999
 50
36.480642265211763
 51
90.0
  0
LINE
  5
1AFD1
  8
SJC2
 10
6874.6028941666445
 20
4358.5502443813712
 30
0.0
 11
6872.6431514544875
 21
4358.5502443813712
 31
0.0
  0
CIRCLE
  5
1AFD2
  8
SJC2
 10
6851.4160260808212
 20
4347.7540936312471
 30
0.0
 40
21.350000000000001
  0
CIRCLE
  5
1AFD3
  8
SJC2
 10
6851.4160260808212
 20
4347.7540936312471
 30
0.0
 40
19.050000000000001
  0
CIRCLE
  5
1AFD4
  8
SJC
 10
6851.4160260808212
 20
4347.7540936312471
 30
0.0
 40
20.0
  0
LINE
  5
1B012
  8
SJC2
 10
4497.599108281438
 20
4385.7543537309466
 30
0.0
 11
4529.849108281438
 21
4385.7543537309466
 31
0.0
  0
LINE
  5
1B013
  8
SJC2
 10
4496.099108281438
 20
4395.7543537309457
 30
0.0
 11
4529.849108281438
 21
4395.7543537309457
 31
0.0
  0
LINE
  5
1B014
  8
SJC2
 10
4496.099108281438
 20
4395.7543537309457
 30
0.0
 11
4529.849108281438
 21
4395.7543537309457
 31
0.0
  0
LINE
  5
1B015
  8
SJC2
 10
4496.099108281438
 20
4395.7543537309457
 30
0.0
 11
4496.099108281438
 21
4395.6734976760563
 31
0.0
  0
LINE
  5
1B016
  8
SJC2
 10
4498.599108281438
 20
4398.7543537309466
 30
0.0
 11
4529.849108281438
 21
4398.7543537309466
 31
0.0
  0
LINE
  5
1B017
  8
SJC2
 10
4497.849108281438
 20
4395.7543537309457
 30
0.0
 11
4529.849108281438
 21
4395.7543537309457
 31
0.0
  0
LINE
  5
1B018
  8
SJC2
 10
4529.849108281438
 20
4395.7543537309457
 30
0.0
 11
4497.849108281438
 21
4395.7543537309457
 31
0.0
  0
LINE
  5
1B019
  8
SJC2
 10
4562.0991082814371
 20
4385.7543537309466
 30
0.0
 11
4529.849108281438
 21
4385.7543537309466
 31
0.0
  0
LINE
  5
1B01A
  8
SJC2
 10
4563.5991082814371
 20
4395.7543537309457
 30
0.0
 11
4529.849108281438
 21
4395.7543537309457
 31
0.0
  0
LINE
  5
1B01B
  8
SJC2
 10
4563.5991082814371
 20
4395.7543537309457
 30
0.0
 11
4529.849108281438
 21
4395.7543537309457
 31
0.0
  0
LINE
  5
1B01C
  8
SJC2
 10
4561.099108281438
 20
4398.7543537309466
 30
0.0
 11
4529.849108281438
 21
4398.7543537309466
 31
0.0
  0
LINE
  5
1B01D
  8
SJC2
 10
4561.849108281438
 20
4395.7543537309457
 30
0.0
 11
4529.849108281438
 21
4395.7543537309457
 31
0.0
  0
LINE
  5
1B01E
  8
SJC2
 10
4529.849108281438
 20
4395.7543537309457
 30
0.0
 11
4561.849108281438
 21
4395.7543537309457
 31
0.0
  0
LINE
  5
1B01F
  8
SJC2
 10
4496.099108281438
 20
4395.7543537309457
 30
0.0
 11
4496.099108281438
 21
4395.7418459086621
 31
0.0
  0
ARC
  5
1B020
  8
SJC2
 10
4530.0991082814362
 20
4395.7418459086621
 30
0.0
 40
34.0
 50
180.0
 51
197.0825832433664
  0
ARC
  5
1B021
  8
SJC2
 10
4529.5991082814362
 20
4395.7418459086621
 30
0.0
 40
34.0
 50
342.91741675663349
 51
0.0
  0
ARC
  5
1B022
  8
SJC2
 10
4529.849108281438
 20
4362.7543537309457
 30
0.0
 40
46.0
 50
51.586749207541658
 51
90.0
  0
ARC
  5
1B023
  8
SJC2
 10
4529.849108281438
 20
4362.7543537309457
 30
0.0
 40
46.0
 50
90.0
 51
128.41325079245831
  0
ARC
  5
1B024
  8
SJC2
 10
4561.099108281438
 20
4396.2543537309457
 30
0.0
 40
2.5
 50
0.0
 51
90.0
  0
ARC
  5
1B025
  8
SJC2
 10
4558.5545084702508
 20
4398.954353730951
 30
0.0
 40
0.2
 50
231.58674920754169
 51
270.0
  0
ARC
  5
1B026
  8
SJC2
 10
4498.599108281438
 20
4396.2543537309457
 30
0.0
 40
2.5
 50
90.0
 51
180.0
  0
ARC
  5
1B027
  8
SJC2
 10
4501.1437080926216
 20
4398.954353730951
 30
0.0
 40
0.2
 50
270.0
 51
308.41325079245831
  0
LINE
  5
1B028
  8
SJC2
 10
4496.099108281438
 20
4395.7543537309457
 30
0.0
 11
4496.099108281438
 21
4396.2543537309457
 31
0.0
  0
LINE
  5
1B029
  8
SJC2
 10
4563.5991082814371
 20
4395.7543537309457
 30
0.0
 11
4563.5991082814371
 21
4396.2543537309457
 31
0.0
  0
LINE
  5
1B02A
  8
SJC2
 10
5304.9591660508804
 20
4385.7543537309466
 30
0.0
 11
5337.2091660508813
 21
4385.7543537309466
 31
0.0
  0
LINE
  5
1B02B
  8
SJC2
 10
5303.4591660508804
 20
4395.7543537309457
 30
0.0
 11
5337.2091660508813
 21
4395.7543537309457
 31
0.0
  0
LINE
  5
1B02C
  8
SJC2
 10
5303.4591660508804
 20
4395.7543537309457
 30
0.0
 11
5337.2091660508813
 21
4395.7543537309457
 31
0.0
  0
LINE
  5
1B02D
  8
SJC2
 10
5303.4591660508804
 20
4395.7543537309457
 30
0.0
 11
5303.4591660508804
 21
4395.6734976760563
 31
0.0
  0
LINE
  5
1B02E
  8
SJC2
 10
5305.9591660508813
 20
4398.7543537309466
 30
0.0
 11
5337.2091660508813
 21
4398.7543537309466
 31
0.0
  0
LINE
  5
1B02F
  8
SJC2
 10
5305.2091660508813
 20
4395.7543537309457
 30
0.0
 11
5337.2091660508813
 21
4395.7543537309457
 31
0.0
  0
LINE
  5
1B030
  8
SJC2
 10
5337.2091660508813
 20
4395.7543537309457
 30
0.0
 11
5305.2091660508813
 21
4395.7543537309457
 31
0.0
  0
LINE
  5
1B031
  8
SJC2
 10
5369.4591660508804
 20
4385.7543537309466
 30
0.0
 11
5337.2091660508813
 21
4385.7543537309466
 31
0.0
  0
LINE
  5
1B032
  8
SJC2
 10
5370.9591660508804
 20
4395.7543537309457
 30
0.0
 11
5337.2091660508813
 21
4395.7543537309457
 31
0.0
  0
LINE
  5
1B033
  8
SJC2
 10
5370.9591660508804
 20
4395.7543537309457
 30
0.0
 11
5337.2091660508813
 21
4395.7543537309457
 31
0.0
  0
LINE
  5
1B034
  8
SJC2
 10
5368.4591660508813
 20
4398.7543537309466
 30
0.0
 11
5337.2091660508813
 21
4398.7543537309466
 31
0.0
  0
LINE
  5
1B035
  8
SJC2
 10
5369.2091660508813
 20
4395.7543537309457
 30
0.0
 11
5337.2091660508813
 21
4395.7543537309457
 31
0.0
  0
LINE
  5
1B036
  8
SJC2
 10
5337.2091660508813
 20
4395.7543537309457
 30
0.0
 11
5369.2091660508813
 21
4395.7543537309457
 31
0.0
  0
LINE
  5
1B037
  8
SJC2
 10
5303.4591660508804
 20
4395.7543537309457
 30
0.0
 11
5303.4591660508804
 21
4395.7418459086621
 31
0.0
  0
ARC
  5
1B038
  8
SJC2
 10
5337.4591660508777
 20
4395.7418459086621
 30
0.0
 40
34.0
 50
180.0
 51
197.0825832433664
  0
ARC
  5
1B039
  8
SJC2
 10
5336.9591660508786
 20
4395.7418459086621
 30
0.0
 40
34.0
 50
342.91741675663349
 51
0.0
  0
ARC
  5
1B03A
  8
SJC2
 10
5337.2091660508813
 20
4362.7543537309457
 30
0.0
 40
46.0
 50
51.586749207541658
 51
90.0
  0
ARC
  5
1B03B
  8
SJC2
 10
5337.2091660508813
 20
4362.7543537309457
 30
0.0
 40
46.0
 50
90.0
 51
128.41325079245831
  0
ARC
  5
1B03C
  8
SJC2
 10
5368.4591660508813
 20
4396.2543537309457
 30
0.0
 40
2.5
 50
0.0
 51
90.0
  0
ARC
  5
1B03D
  8
SJC2
 10
5365.914566239695
 20
4398.954353730951
 30
0.0
 40
0.2
 50
231.58674920754169
 51
270.0
  0
ARC
  5
1B03E
  8
SJC2
 10
5305.9591660508813
 20
4396.2543537309457
 30
0.0
 40
2.5
 50
90.0
 51
180.0
  0
ARC
  5
1B03F
  8
SJC2
 10
5308.5037658620649
 20
4398.954353730951
 30
0.0
 40
0.2
 50
270.0
 51
308.41325079245831
  0
LINE
  5
1B040
  8
SJC2
 10
5303.4591660508804
 20
4395.7543537309457
 30
0.0
 11
5303.4591660508804
 21
4396.2543537309457
 31
0.0
  0
LINE
  5
1B041
  8
SJC2
 10
5370.9591660508804
 20
4395.7543537309457
 30
0.0
 11
5370.9591660508804
 21
4396.2543537309457
 31
0.0
  0
LINE
  5
1B042
  8
SJC2
 10
6082.4881302984813
 20
4385.7543537309466
 30
0.0
 11
6114.7381302984813
 21
4385.7543537309466
 31
0.0
  0
LINE
  5
1B043
  8
SJC2
 10
6080.9881302984813
 20
4395.7543537309457
 30
0.0
 11
6114.7381302984813
 21
4395.7543537309457
 31
0.0
  0
LINE
  5
1B044
  8
SJC2
 10
6080.9881302984813
 20
4395.7543537309457
 30
0.0
 11
6114.7381302984813
 21
4395.7543537309457
 31
0.0
  0
LINE
  5
1B045
  8
SJC2
 10
6080.9881302984813
 20
4395.7543537309457
 30
0.0
 11
6080.9881302984813
 21
4395.6734976760563
 31
0.0
  0
LINE
  5
1B046
  8
SJC2
 10
6083.4881302984813
 20
4398.7543537309466
 30
0.0
 11
6114.7381302984813
 21
4398.7543537309466
 31
0.0
  0
LINE
  5
1B047
  8
SJC2
 10
6082.7381302984813
 20
4395.7543537309457
 30
0.0
 11
6114.7381302984813
 21
4395.7543537309457
 31
0.0
  0
LINE
  5
1B048
  8
SJC2
 10
6114.7381302984813
 20
4395.7543537309457
 30
0.0
 11
6082.7381302984813
 21
4395.7543537309457
 31
0.0
  0
LINE
  5
1B049
  8
SJC2
 10
6146.9881302984813
 20
4385.7543537309466
 30
0.0
 11
6114.7381302984813
 21
4385.7543537309466
 31
0.0
  0
LINE
  5
1B04A
  8
SJC2
 10
6148.4881302984813
 20
4395.7543537309457
 30
0.0
 11
6114.7381302984813
 21
4395.7543537309457
 31
0.0
  0
LINE
  5
1B04B
  8
SJC2
 10
6148.4881302984813
 20
4395.7543537309457
 30
0.0
 11
6114.7381302984813
 21
4395.7543537309457
 31
0.0
  0
LINE
  5
1B04C
  8
SJC2
 10
6145.9881302984813
 20
4398.7543537309466
 30
0.0
 11
6114.7381302984813
 21
4398.7543537309466
 31
0.0
  0
LINE
  5
1B04D
  8
SJC2
 10
6146.7381302984813
 20
4395.7543537309457
 30
0.0
 11
6114.7381302984813
 21
4395.7543537309457
 31
0.0
  0
LINE
  5
1B04E
  8
SJC2
 10
6114.7381302984813
 20
4395.7543537309457
 30
0.0
 11
6146.7381302984813
 21
4395.7543537309457
 31
0.0
  0
LINE
  5
1B04F
  8
SJC2
 10
6080.9881302984813
 20
4395.7543537309457
 30
0.0
 11
6080.9881302984813
 21
4395.7418459086621
 31
0.0
  0
ARC
  5
1B050
  8
SJC2
 10
6114.9881302984786
 20
4395.7418459086621
 30
0.0
 40
34.0
 50
180.0
 51
197.0825832433664
  0
ARC
  5
1B051
  8
SJC2
 10
6114.4881302984804
 20
4395.7418459086621
 30
0.0
 40
34.0
 50
342.91741675663349
 51
0.0
  0
ARC
  5
1B052
  8
SJC2
 10
6114.7381302984813
 20
4362.7543537309457
 30
0.0
 40
46.0
 50
51.586749207541658
 51
90.0
  0
ARC
  5
1B053
  8
SJC2
 10
6114.7381302984813
 20
4362.7543537309457
 30
0.0
 40
46.0
 50
90.0
 51
128.41325079245831
  0
ARC
  5
1B054
  8
SJC2
 10
6145.9881302984813
 20
4396.2543537309457
 30
0.0
 40
2.5
 50
0.0
 51
90.0
  0
ARC
  5
1B055
  8
SJC2
 10
6143.443530487295
 20
4398.954353730951
 30
0.0
 40
0.2
 50
231.58674920754169
 51
270.0
  0
ARC
  5
1B056
  8
SJC2
 10
6083.4881302984813
 20
4396.2543537309457
 30
0.0
 40
2.5
 50
90.0
 51
180.0
  0
ARC
  5
1B057
  8
SJC2
 10
6086.0327301096659
 20
4398.954353730951
 30
0.0
 40
0.2
 50
270.0
 51
308.41325079245831
  0
LINE
  5
1B058
  8
SJC2
 10
6080.9881302984813
 20
4395.7543537309457
 30
0.0
 11
6080.9881302984813
 21
4396.2543537309457
 31
0.0
  0
LINE
  5
1B059
  8
SJC2
 10
6148.4881302984813
 20
4395.7543537309457
 30
0.0
 11
6148.4881302984813
 21
4396.2543537309457
 31
0.0
  0
LINE
  5
1B05A
  8
SJC2
 10
6869.4156594192191
 20
4385.7541097244457
 30
0.0
 11
6901.66565941922
 21
4385.7541097244457
 31
0.0
  0
LINE
  5
1B05B
  8
SJC2
 10
6867.9156594192191
 20
4395.7541097244457
 30
0.0
 11
6901.66565941922
 21
4395.7541097244457
 31
0.0
  0
LINE
  5
1B05C
  8
SJC2
 10
6867.9156594192191
 20
4395.7541097244457
 30
0.0
 11
6901.66565941922
 21
4395.7541097244457
 31
0.0
  0
LINE
  5
1B05D
  8
SJC2
 10
6867.9156594192191
 20
4395.7541097244457
 30
0.0
 11
6867.9156594192191
 21
4395.6732536695554
 31
0.0
  0
LINE
  5
1B05E
  8
SJC2
 10
6870.41565941922
 20
4398.7541097244457
 30
0.0
 11
6901.66565941922
 21
4398.7541097244457
 31
0.0
  0
LINE
  5
1B05F
  8
SJC2
 10
6869.6656594192191
 20
4395.7541097244457
 30
0.0
 11
6901.66565941922
 21
4395.7541097244457
 31
0.0
  0
LINE
  5
1B060
  8
SJC2
 10
6901.66565941922
 20
4395.7541097244457
 30
0.0
 11
6869.6656594192191
 21
4395.7541097244457
 31
0.0
  0
LINE
  5
1B061
  8
SJC2
 10
6933.9156594192191
 20
4385.7541097244457
 30
0.0
 11
6901.66565941922
 21
4385.7541097244457
 31
0.0
  0
LINE
  5
1B062
  8
SJC2
 10
6935.4156594192191
 20
4395.7541097244457
 30
0.0
 11
6901.66565941922
 21
4395.7541097244457
 31
0.0
  0
LINE
  5
1B063
  8
SJC2
 10
6935.4156594192191
 20
4395.7541097244457
 30
0.0
 11
6901.66565941922
 21
4395.7541097244457
 31
0.0
  0
LINE
  5
1B064
  8
SJC2
 10
6932.91565941922
 20
4398.7541097244457
 30
0.0
 11
6901.66565941922
 21
4398.7541097244457
 31
0.0
  0
LINE
  5
1B065
  8
SJC2
 10
6933.6656594192191
 20
4395.7541097244457
 30
0.0
 11
6901.66565941922
 21
4395.7541097244457
 31
0.0
  0
LINE
  5
1B066
  8
SJC2
 10
6901.66565941922
 20
4395.7541097244457
 30
0.0
 11
6933.6656594192191
 21
4395.7541097244457
 31
0.0
  0
LINE
  5
1B067
  8
SJC2
 10
6867.9156594192191
 20
4395.7541097244457
 30
0.0
 11
6867.9156594192191
 21
4395.7416019021621
 31
0.0
  0
ARC
  5
1B068
  8
SJC2
 10
6901.9156594192164
 20
4395.7416019021621
 30
0.0
 40
34.0
 50
180.0
 51
197.0825832433664
  0
ARC
  5
1B069
  8
SJC2
 10
6901.4156594192173
 20
4395.7416019021621
 30
0.0
 40
34.0
 50
342.91741675663349
 51
0.0
  0
ARC
  5
1B06A
  8
SJC2
 10
6901.66565941922
 20
4362.7541097244466
 30
0.0
 40
46.0
 50
51.586749207541658
 51
90.0
  0
ARC
  5
1B06B
  8
SJC2
 10
6901.66565941922
 20
4362.7541097244466
 30
0.0
 40
46.0
 50
90.0
 51
128.41325079245831
  0
ARC
  5
1B06C
  8
SJC2
 10
6932.91565941922
 20
4396.2541097244466
 30
0.0
 40
2.5
 50
0.0
 51
90.0
  0
ARC
  5
1B06D
  8
SJC2
 10
6930.3710596080336
 20
4398.954109724451
 30
0.0
 40
0.2
 50
231.58674920754169
 51
270.0
  0
ARC
  5
1B06E
  8
SJC2
 10
6870.41565941922
 20
4396.2541097244466
 30
0.0
 40
2.5
 50
90.0
 51
180.0
  0
ARC
  5
1B06F
  8
SJC2
 10
6872.9602592304027
 20
4398.954109724451
 30
0.0
 40
0.2
 50
270.0
 51
308.41325079245831
  0
LINE
  5
1B070
  8
SJC2
 10
6867.9156594192191
 20
4395.7541097244457
 30
0.0
 11
6867.9156594192191
 21
4396.2541097244466
 31
0.0
  0
LINE
  5
1B071
  8
SJC2
 10
6935.4156594192191
 20
4395.7541097244457
 30
0.0
 11
6935.4156594192191
 21
4396.2541097244466
 31
0.0
  0
LINE
  5
1B072
  8
SJC2
 10
565.55233567335745
 20
4385.7543537309466
 30
0.0
 11
597.80233567335745
 21
4385.7543537309466
 31
0.0
  0
LINE
  5
1B073
  8
SJC2
 10
564.05233567335745
 20
4395.7543537309457
 30
0.0
 11
597.80233567335745
 21
4395.7543537309457
 31
0.0
  0
LINE
  5
1B074
  8
SJC2
 10
564.05233567335745
 20
4395.7543537309457
 30
0.0
 11
597.80233567335745
 21
4395.7543537309457
 31
0.0
  0
LINE
  5
1B075
  8
SJC2
 10
564.05233567335745
 20
4395.7543537309457
 30
0.0
 11
564.05233567335745
 21
4395.6734976760563
 31
0.0
  0
LINE
  5
1B076
  8
SJC2
 10
566.55233567335745
 20
4398.7543537309466
 30
0.0
 11
597.80233567335745
 21
4398.7543537309466
 31
0.0
  0
LINE
  5
1B077
  8
SJC2
 10
565.80233567335745
 20
4395.7543537309457
 30
0.0
 11
597.80233567335745
 21
4395.7543537309457
 31
0.0
  0
LINE
  5
1B078
  8
SJC2
 10
597.80233567335745
 20
4395.7543537309457
 30
0.0
 11
565.80233567335745
 21
4395.7543537309457
 31
0.0
  0
LINE
  5
1B079
  8
SJC2
 10
630.05233567335745
 20
4385.7543537309466
 30
0.0
 11
597.80233567335745
 21
4385.7543537309466
 31
0.0
  0
LINE
  5
1B07A
  8
SJC2
 10
631.55233567335745
 20
4395.7543537309457
 30
0.0
 11
597.80233567335745
 21
4395.7543537309457
 31
0.0
  0
LINE
  5
1B07B
  8
SJC2
 10
631.55233567335745
 20
4395.7543537309457
 30
0.0
 11
597.80233567335745
 21
4395.7543537309457
 31
0.0
  0
LINE
  5
1B07C
  8
SJC2
 10
629.05233567335745
 20
4398.7543537309466
 30
0.0
 11
597.80233567335745
 21
4398.7543537309466
 31
0.0
  0
LINE
  5
1B07D
  8
SJC2
 10
629.80233567335745
 20
4395.7543537309457
 30
0.0
 11
597.80233567335745
 21
4395.7543537309457
 31
0.0
  0
LINE
  5
1B07E
  8
SJC2
 10
597.80233567335745
 20
4395.7543537309457
 30
0.0
 11
629.80233567335745
 21
4395.7543537309457
 31
0.0
  0
LINE
  5
1B07F
  8
SJC2
 10
564.05233567335745
 20
4395.7543537309457
 30
0.0
 11
564.05233567335745
 21
4395.7418459086621
 31
0.0
  0
ARC
  5
1B080
  8
SJC2
 10
598.05233567335563
 20
4395.7418459086621
 30
0.0
 40
34.0
 50
180.0
 51
197.0825832433664
  0
ARC
  5
1B081
  8
SJC2
 10
597.55233567335563
 20
4395.7418459086621
 30
0.0
 40
34.0
 50
342.91741675663349
 51
0.0
  0
ARC
  5
1B082
  8
SJC2
 10
597.80233567335745
 20
4362.7543537309457
 30
0.0
 40
46.0
 50
51.586749207541658
 51
90.0
  0
ARC
  5
1B083
  8
SJC2
 10
597.80233567335745
 20
4362.7543537309457
 30
0.0
 40
46.0
 50
90.0
 51
128.41325079245831
  0
ARC
  5
1B084
  8
SJC2
 10
629.05233567335745
 20
4396.2543537309457
 30
0.0
 40
2.5
 50
0.0
 51
90.0
  0
ARC
  5
1B085
  8
SJC2
 10
626.50773586217099
 20
4398.954353730951
 30
0.0
 40
0.2
 50
231.58674920754169
 51
270.0
  0
ARC
  5
1B086
  8
SJC2
 10
566.55233567335745
 20
4396.2543537309457
 30
0.0
 40
2.5
 50
90.0
 51
180.0
  0
ARC
  5
1B087
  8
SJC2
 10
569.09693548454186
 20
4398.954353730951
 30
0.0
 40
0.2
 50
270.0
 51
308.41325079245831
  0
LINE
  5
1B088
  8
SJC2
 10
564.05233567335745
 20
4395.7543537309457
 30
0.0
 11
564.05233567335745
 21
4396.2543537309457
 31
0.0
  0
LINE
  5
1B089
  8
SJC2
 10
631.55233567335745
 20
4395.7543537309457
 30
0.0
 11
631.55233567335745
 21
4396.2543537309457
 31
0.0
  0
LINE
  5
1B08A
  8
SJC
 10
3628.0519243081558
 20
4385.7543537309466
 30
0.0
 11
3628.0519243081558
 21
4370.7043376377469
 31
0.0
  0
LINE
  5
1B08B
  8
SJC
 10
3567.5520472801541
 20
4370.7043376377469
 30
0.0
 11
3567.5520472801541
 21
4385.7543537309466
 31
0.0
  0
LINE
  5
1B08C
  8
SJC2
 10
3565.5519857941572
 20
4385.7543537309466
 30
0.0
 11
3597.8019857941558
 21
4385.7543537309466
 31
0.0
  0
LINE
  5
1B08D
  8
SJC2
 10
3564.0519857941572
 20
4395.7543537309457
 30
0.0
 11
3597.8019857941558
 21
4395.7543537309457
 31
0.0
  0
LINE
  5
1B08E
  8
SJC2
 10
3564.0519857941572
 20
4395.7543537309457
 30
0.0
 11
3597.8019857941558
 21
4395.7543537309457
 31
0.0
  0
LINE
  5
1B08F
  8
SJC2
 10
3564.0519857941572
 20
4395.7543537309457
 30
0.0
 11
3564.0519857941572
 21
4395.6734976760563
 31
0.0
  0
LINE
  5
1B090
  8
SJC2
 10
3566.5519857941558
 20
4398.7543537309466
 30
0.0
 11
3597.8019857941558
 21
4398.7543537309466
 31
0.0
  0
LINE
  5
1B091
  8
SJC2
 10
3565.8019857941558
 20
4395.7543537309457
 30
0.0
 11
3597.8019857941558
 21
4395.7543537309457
 31
0.0
  0
LINE
  5
1B092
  8
SJC2
 10
3597.8019857941558
 20
4395.7543537309457
 30
0.0
 11
3565.8019857941558
 21
4395.7543537309457
 31
0.0
  0
LINE
  5
1B093
  8
SJC2
 10
3630.0519857941572
 20
4385.7543537309466
 30
0.0
 11
3597.8019857941558
 21
4385.7543537309466
 31
0.0
  0
LINE
  5
1B094
  8
SJC2
 10
3631.5519857941572
 20
4395.7543537309457
 30
0.0
 11
3597.8019857941558
 21
4395.7543537309457
 31
0.0
  0
LINE
  5
1B095
  8
SJC2
 10
3631.5519857941572
 20
4395.7543537309457
 30
0.0
 11
3597.8019857941558
 21
4395.7543537309457
 31
0.0
  0
LINE
  5
1B096
  8
SJC2
 10
3629.0519857941558
 20
4398.7543537309466
 30
0.0
 11
3597.8019857941558
 21
4398.7543537309466
 31
0.0
  0
LINE
  5
1B097
  8
SJC2
 10
3629.8019857941558
 20
4395.7543537309457
 30
0.0
 11
3597.8019857941558
 21
4395.7543537309457
 31
0.0
  0
LINE
  5
1B098
  8
SJC2
 10
3597.8019857941558
 20
4395.7543537309457
 30
0.0
 11
3629.8019857941558
 21
4395.7543537309457
 31
0.0
  0
LINE
  5
1B099
  8
SJC2
 10
3564.0519857941572
 20
4395.7543537309457
 30
0.0
 11
3564.0519857941572
 21
4395.7418459086621
 31
0.0
  0
ARC
  5
1B09A
  8
SJC2
 10
3598.0519857941549
 20
4395.7418459086621
 30
0.0
 40
34.0
 50
180.0
 51
197.0825832433664
  0
ARC
  5
1B09B
  8
SJC2
 10
3597.551985794154
 20
4395.7418459086621
 30
0.0
 40
34.0
 50
342.91741675663349
 51
0.0
  0
ARC
  5
1B09C
  8
SJC2
 10
3597.8019857941558
 20
4362.7543537309457
 30
0.0
 40
46.0
 50
51.586749207541658
 51
90.0
  0
ARC
  5
1B09D
  8
SJC2
 10
3597.8019857941558
 20
4362.7543537309457
 30
0.0
 40
46.0
 50
90.0
 51
128.41325079245831
  0
ARC
  5
1B09E
  8
SJC2
 10
3629.0519857941558
 20
4396.2543537309457
 30
0.0
 40
2.5
 50
0.0
 51
90.0
  0
ARC
  5
1B09F
  8
SJC2
 10
3626.5073859829699
 20
4398.954353730951
 30
0.0
 40
0.2
 50
231.58674920754169
 51
270.0
  0
ARC
  5
1B0A0
  8
SJC2
 10
3566.5519857941558
 20
4396.2543537309457
 30
0.0
 40
2.5
 50
90.0
 51
180.0
  0
ARC
  5
1B0A1
  8
SJC2
 10
3569.0965856053408
 20
4398.954353730951
 30
0.0
 40
0.2
 50
270.0
 51
308.41325079245831
  0
LINE
  5
1B0A2
  8
SJC2
 10
3564.0519857941572
 20
4395.7543537309457
 30
0.0
 11
3564.0519857941572
 21
4396.2543537309457
 31
0.0
  0
LINE
  5
1B0A3
  8
SJC2
 10
3631.5519857941572
 20
4395.7543537309457
 30
0.0
 11
3631.5519857941572
 21
4396.2543537309457
 31
0.0
  0
LINE
  5
1B0DB
  8
SJC
 10
5306.960143063684
 20
3367.7543567113462
 30
0.0
 11
5306.9601430636803
 21
3984.853190992646
 31
0.0
  0
LINE
  5
1B0DC
  8
SJC
 10
5306.9601430636803
 20
4012.4502716732131
 30
0.0
 11
5306.9601430636803
 21
4334.8531748994501
 31
0.0
  0
LINE
  5
1B0DD
  8
SJC2
 10
5377.7595195694812
 20
3988.7544149002242
 30
0.0
 11
5377.7595195694812
 21
4006.7545977374471
 31
0.0
  0
ARC
  5
1B0DE
  8
SJC2
 10
5375.7595195697068
 20
3992.7543843526
 30
0.0
 40
2.0
 50
270.00087511131733
 51
359.99912488868267
  0
ARC
  5
1B0DF
  8
SJC2
 10
5375.7595195697068
 20
3988.754384353073
 30
0.0
 40
2.0
 50
0.0008751113173351
 51
89.999124888682658
  0
LINE
  5
1B0E0
  8
SJC2
 10
5369.7595195694812
 20
3990.754384352826
 30
0.0
 11
5375.7595501168571
 21
3990.754384352826
 31
0.0
  0
LINE
  5
1B0E1
  8
SJC2
 10
5376.2601909785308
 20
4008.255147031497
 30
0.0
 11
5369.7595195694812
 21
4008.2542315041719
 31
0.0
  0
LINE
  5
1B0E2
  8
SJC2
 10
5369.7595195694812
 20
4004.7544756969469
 30
0.0
 11
5375.7595501168571
 21
4004.7544756969469
 31
0.0
  0
ARC
  5
1B0E3
  8
SJC2
 10
5376.2595195334561
 20
4006.7545366439481
 30
0.0
 40
1.5000000372499991
 50
0.0023336003209662
 51
89.997666399574825
  0
ARC
  5
1B0E4
  8
SJC2
 10
5375.7595195697068
 20
4006.7544756967259
 30
0.0
 40
2.0
 50
270.00087511131733
 51
359.99912488868267
  0
ARC
  5
1B0E5
  8
SJC2
 10
5375.7595195732074
 20
4002.754475697172
 30
0.0
 40
2.0
 50
359.99650379029839
 51
89.999124988682155
  0
LINE
  5
1B0E6
  8
SJC2
 10
5369.7595195694812
 20
3987.2544759577222
 30
0.0
 11
5376.2595806269819
 21
3987.2544759577222
 31
0.0
  0
POLYLINE
  5
1B0E7
  8
SJC2
 66
     1
 10
0.0
 20
0.0
 30
0.0
  0
VERTEX
  5
20EE7
  8
SJC2
 10
5367.4594097404797
 20
3986.7544454475978
 30
0.0
  0
VERTEX
  5
20EE8
  8
SJC2
 10
5369.7595195694812
 20
3986.7544454475978
 30
0.0
  0
VERTEX
  5
20EE9
  8
SJC2
 10
5369.7595195694812
 20
4008.7544146021969
 30
0.0
  0
VERTEX
  5
20EEA
  8
SJC2
 10
5367.4594097404797
 20
4008.7544146021969
 30
0.0
  0
SEQEND
  5
20EEB
  8
SJC2
  0
ARC
  5
1B0E8
  8
SJC2
 10
5376.2595195334561
 20
3988.7544759937232
 30
0.0
 40
1.5000000372499991
 50
270.00233360042517
 51
359.99766639957483
  0
LINE
  5
1B0F5
  8
CENTER
 10
5396.7236704425259
 20
3997.7543537309471
 30
0.0
 11
5246.9601430636812
 21
3997.7543537309471
 31
0.0
  0
LINE
  5
1B0F6
  8
CENTER
 10
5286.9601430636803
 20
3967.7543537309471
 30
0.0
 11
5286.9601430636803
 21
4027.7543537309471
 31
0.0
  0
ARC
  5
1B0F7
  8
SJC2
 10
5286.9601430636803
 20
3997.7543537309471
 30
0.0
 40
21.5
 50
90.0
 51
178.66750998291371
  0
ARC
  5
1B0F8
  8
SJC2
 10
5286.9601430636803
 20
3997.7543537309471
 30
0.0
 40
23.100000000000001
 50
90.0
 51
178.66750998291371
  0
LINE
  5
1B0F9
  8
SJC2
 10
5265.4659570171689
 20
3998.2543199277502
 30
0.0
 11
5263.8663896834887
 21
3998.291526714489
 31
0.0
  0
LINE
  5
1B0FA
  8
SJC2
 10
5310.7601430636814
 20
4007.5505044810702
 30
0.0
 11
5308.4601430636803
 21
4007.5505044810702
 31
0.0
  0
LINE
  5
1B0FB
  8
SJC2
 10
5308.4601430636803
 20
3997.7543537309471
 30
0.0
 11
5308.4601430636803
 21
4007.5505044810702
 31
0.0
  0
LINE
  5
1B0FC
  8
SJC2
 10
5310.7601430636814
 20
3997.7543537309471
 30
0.0
 11
5310.7601430636814
 21
4007.5505044810702
 31
0.0
  0
ARC
  5
1B0FD
  8
SJC2
 10
5286.9601430636822
 20
3997.7543537309471
 30
0.0
 40
21.5
 50
181.33249001708629
 51
0.000000000000007
  0
ARC
  5
1B0FE
  8
SJC2
 10
5286.9601430636822
 20
3997.7543537309471
 30
0.0
 40
23.800000000000001
 50
181.33249001708629
 51
0.000000000000007
  0
LINE
  5
1B0FF
  8
SJC2
 10
5265.4659570171689
 20
3997.2543875341471
 30
0.0
 11
5263.166578974985
 21
3997.2009027782078
 31
0.0
  0
ARC
  5
1B100
  8
SJC2
 10
5286.9601430636803
 20
3992.8543537309488
 30
0.0
 40
28.0
 50
34.095697561129349
 51
90.0
  0
ARC
  5
1B101
  8
SJC2
 10
5286.9601430636803
 20
3992.8543537309488
 30
0.0
 40
26.399999999999999
 50
36.480642265211763
 51
90.0
  0
LINE
  5
1B102
  8
SJC2
 10
5310.1470111495046
 20
4008.5505044810702
 30
0.0
 11
5308.1872684373484
 21
4008.5505044810702
 31
0.0
  0
CIRCLE
  5
1B103
  8
SJC2
 10
5286.9601430636803
 20
3997.7543537309471
 30
0.0
 40
21.350000000000001
  0
CIRCLE
  5
1B104
  8
SJC2
 10
5286.9601430636803
 20
3997.7543537309471
 30
0.0
 40
19.050000000000001
  0
CIRCLE
  5
1B105
  8
SJC
 10
5286.9601430636803
 20
3997.7543537309471
 30
0.0
 40
20.0
  0
LINE
  5
1B118
  8
SJC
 10
6084.489107311686
 20
3369.3138612842599
 30
0.0
 11
6084.4891073116796
 21
3984.853190992646
 31
0.0
  0
LINE
  5
1B119
  8
SJC
 10
6084.4891073116814
 20
4012.4502716732131
 30
0.0
 11
6084.4891073116814
 21
4334.8531748994501
 31
0.0
  0
LINE
  5
1B11A
  8
SJC2
 10
6155.2884838174823
 20
3988.7544149002242
 30
0.0
 11
6155.2884838174823
 21
4006.7545977374471
 31
0.0
  0
ARC
  5
1B11B
  8
SJC2
 10
6153.2884838177079
 20
3992.7543843526
 30
0.0
 40
2.0
 50
270.00087511131733
 51
359.99912488868267
  0
ARC
  5
1B11C
  8
SJC2
 10
6153.2884838177079
 20
3988.754384353073
 30
0.0
 40
2.0
 50
0.0008751113173351
 51
89.999124888682658
  0
LINE
  5
1B11D
  8
SJC2
 10
6147.2884838174832
 20
3990.754384352826
 30
0.0
 11
6153.2885143648582
 21
3990.754384352826
 31
0.0
  0
LINE
  5
1B11E
  8
SJC2
 10
6153.7891552265328
 20
4008.255147031497
 30
0.0
 11
6147.2884838174832
 21
4008.2542315041719
 31
0.0
  0
LINE
  5
1B11F
  8
SJC2
 10
6147.2884838174832
 20
4004.7544756969469
 30
0.0
 11
6153.2885143648582
 21
4004.7544756969469
 31
0.0
  0
ARC
  5
1B120
  8
SJC2
 10
6153.7884837814581
 20
4006.7545366439481
 30
0.0
 40
1.5000000372499991
 50
0.0023336003209662
 51
89.997666399574825
  0
ARC
  5
1B121
  8
SJC2
 10
6153.2884838177079
 20
4006.7544756967259
 30
0.0
 40
2.0
 50
270.00087511131733
 51
359.99912488868267
  0
ARC
  5
1B122
  8
SJC2
 10
6153.2884838212067
 20
4002.754475697172
 30
0.0
 40
2.0
 50
359.99650379029839
 51
89.999124988682155
  0
LINE
  5
1B123
  8
SJC2
 10
6147.2884838174832
 20
3987.2544759577222
 30
0.0
 11
6153.788544874983
 21
3987.2544759577222
 31
0.0
  0
POLYLINE
  5
1B124
  8
SJC2
 66
     1
 10
0.0
 20
0.0
 30
0.0
  0
VERTEX
  5
20EEC
  8
SJC2
 10
6144.9883739884817
 20
3986.7544454475978
 30
0.0
  0
VERTEX
  5
20EED
  8
SJC2
 10
6147.2884838174832
 20
3986.7544454475978
 30
0.0
  0
VERTEX
  5
20EEE
  8
SJC2
 10
6147.2884838174832
 20
4008.7544146021969
 30
0.0
  0
VERTEX
  5
20EEF
  8
SJC2
 10
6144.9883739884817
 20
4008.7544146021969
 30
0.0
  0
SEQEND
  5
20EF0
  8
SJC2
  0
ARC
  5
1B125
  8
SJC2
 10
6153.7884837814581
 20
3988.7544759937232
 30
0.0
 40
1.5000000372499991
 50
270.00233360042517
 51
359.99766639957483
  0
LINE
  5
1B132
  8
CENTER
 10
6174.2526346905279
 20
3997.7543537309471
 30
0.0
 11
6024.4891073116823
 21
3997.7543537309471
 31
0.0
  0
LINE
  5
1B133
  8
CENTER
 10
6064.4891073116823
 20
3967.7543537309471
 30
0.0
 11
6064.4891073116823
 21
4027.7543537309471
 31
0.0
  0
ARC
  5
1B134
  8
SJC2
 10
6064.4891073116823
 20
3997.7543537309471
 30
0.0
 40
21.5
 50
90.0
 51
178.66750998291371
  0
ARC
  5
1B135
  8
SJC2
 10
6064.4891073116823
 20
3997.7543537309471
 30
0.0
 40
23.100000000000001
 50
90.0
 51
178.66750998291371
  0
LINE
  5
1B136
  8
SJC2
 10
6042.99492126517
 20
3998.2543199277502
 30
0.0
 11
6041.3953539314889
 21
3998.291526714489
 31
0.0
  0
LINE
  5
1B137
  8
SJC2
 10
6088.2891073116816
 20
4007.5505044810702
 30
0.0
 11
6085.9891073116814
 21
4007.5505044810702
 31
0.0
  0
LINE
  5
1B138
  8
SJC2
 10
6085.9891073116814
 20
3997.7543537309471
 30
0.0
 11
6085.9891073116814
 21
4007.5505044810702
 31
0.0
  0
LINE
  5
1B139
  8
SJC2
 10
6088.2891073116816
 20
3997.7543537309471
 30
0.0
 11
6088.2891073116816
 21
4007.5505044810702
 31
0.0
  0
ARC
  5
1B13A
  8
SJC2
 10
6064.4891073116833
 20
3997.7543537309471
 30
0.0
 40
21.5
 50
181.33249001708629
 51
0.000000000000007
  0
ARC
  5
1B13B
  8
SJC2
 10
6064.4891073116833
 20
3997.7543537309471
 30
0.0
 40
23.800000000000001
 50
181.33249001708629
 51
0.000000000000007
  0
LINE
  5
1B13C
  8
SJC2
 10
6042.99492126517
 20
3997.2543875341471
 30
0.0
 11
6040.6955432229861
 21
3997.2009027782078
 31
0.0
  0
ARC
  5
1B13D
  8
SJC2
 10
6064.4891073116823
 20
3992.8543537309488
 30
0.0
 40
28.0
 50
34.095697561129349
 51
90.0
  0
ARC
  5
1B13E
  8
SJC2
 10
6064.4891073116823
 20
3992.8543537309488
 30
0.0
 40
26.399999999999999
 50
36.480642265211763
 51
90.0
  0
LINE
  5
1B13F
  8
SJC2
 10
6087.6759753975048
 20
4008.5505044810702
 30
0.0
 11
6085.7162326853477
 21
4008.5505044810702
 31
0.0
  0
CIRCLE
  5
1B140
  8
SJC2
 10
6064.4891073116823
 20
3997.7543537309471
 30
0.0
 40
21.350000000000001
  0
CIRCLE
  5
1B141
  8
SJC2
 10
6064.4891073116823
 20
3997.7543537309471
 30
0.0
 40
19.050000000000001
  0
CIRCLE
  5
1B142
  8
SJC
 10
6064.4891073116823
 20
3997.7543537309471
 30
0.0
 40
20.0
  0
LINE
  5
1B155
  8
SJC
 10
6871.4166364324201
 20
3576.7543537309461
 30
0.0
 11
6871.4166364324174
 21
3984.852946986146
 31
0.0
  0
LINE
  5
1B156
  8
SJC
 10
6871.4166364324183
 20
4012.4500276667131
 30
0.0
 11
6871.4166364324183
 21
4334.8529308929492
 31
0.0
  0
LINE
  5
1B157
  8
SJC2
 10
6942.2160129382191
 20
3988.7541708937242
 30
0.0
 11
6942.2160129382191
 21
4006.7543537309461
 31
0.0
  0
ARC
  5
1B158
  8
SJC2
 10
6940.2160129384456
 20
3992.7541403461
 30
0.0
 40
2.0
 50
270.00087511131733
 51
359.99912488868267
  0
ARC
  5
1B159
  8
SJC2
 10
6940.2160129384456
 20
3988.754140346573
 30
0.0
 40
2.0
 50
0.0008751113173351
 51
89.999124888682658
  0
LINE
  5
1B15A
  8
SJC2
 10
6934.2160129382191
 20
3990.7541403463251
 30
0.0
 11
6940.216043485595
 21
3990.7541403463251
 31
0.0
  0
LINE
  5
1B15B
  8
SJC2
 10
6940.7166843472687
 20
4008.254903024997
 30
0.0
 11
6934.2160129382191
 21
4008.253987497671
 31
0.0
  0
LINE
  5
1B15C
  8
SJC2
 10
6934.2160129382191
 20
4004.7542316904469
 30
0.0
 11
6940.216043485595
 21
4004.7542316904469
 31
0.0
  0
ARC
  5
1B15D
  8
SJC2
 10
6940.7160129021941
 20
4006.7542926374481
 30
0.0
 40
1.5000000372499991
 50
0.0023336003209662
 51
89.997666399574825
  0
ARC
  5
1B15E
  8
SJC2
 10
6940.2160129384456
 20
4006.7542316902259
 30
0.0
 40
2.0
 50
270.00087511131733
 51
359.99912488868267
  0
ARC
  5
1B15F
  8
SJC2
 10
6940.2160129419444
 20
4002.7542316906729
 30
0.0
 40
2.0
 50
359.99650379029839
 51
89.999124988682155
  0
LINE
  5
1B160
  8
SJC2
 10
6934.2160129382191
 20
3987.2542319512208
 30
0.0
 11
6940.7160739957199
 21
3987.2542319512208
 31
0.0
  0
POLYLINE
  5
1B161
  8
SJC2
 66
     1
 10
0.0
 20
0.0
 30
0.0
  0
VERTEX
  5
20EF1
  8
SJC2
 10
6931.9159031092177
 20
3986.7542014410969
 30
0.0
  0
VERTEX
  5
20EF2
  8
SJC2
 10
6934.2160129382191
 20
3986.7542014410969
 30
0.0
  0
VERTEX
  5
20EF3
  8
SJC2
 10
6934.2160129382191
 20
4008.7541705956969
 30
0.0
  0
VERTEX
  5
20EF4
  8
SJC2
 10
6931.9159031092177
 20
4008.7541705956969
 30
0.0
  0
SEQEND
  5
20EF5
  8
SJC2
  0
ARC
  5
1B162
  8
SJC2
 10
6940.7160129021941
 20
3988.7542319872232
 30
0.0
 40
1.5000000372499991
 50
270.00233360042517
 51
359.99766639957483
  0
LINE
  5
1B16F
  8
CENTER
 10
6961.1801638112647
 20
3997.7541097244471
 30
0.0
 11
6811.4166364324183
 21
3997.7541097244471
 31
0.0
  0
LINE
  5
1B170
  8
CENTER
 10
6851.4166364324183
 20
3967.7541097244471
 30
0.0
 11
6851.4166364324183
 21
4027.7541097244471
 31
0.0
  0
ARC
  5
1B171
  8
SJC2
 10
6851.4166364324183
 20
3997.7541097244471
 30
0.0
 40
21.5
 50
90.0
 51
178.66750998291371
  0
ARC
  5
1B172
  8
SJC2
 10
6851.4166364324183
 20
3997.7541097244471
 30
0.0
 40
23.100000000000001
 50
90.0
 51
178.66750998291371
  0
LINE
  5
1B173
  8
SJC2
 10
6829.9224503859068
 20
3998.2540759212502
 30
0.0
 11
6828.3228830522257
 21
3998.2912827079899
 31
0.0
  0
LINE
  5
1B174
  8
SJC2
 10
6875.2166364324194
 20
4007.5502604745702
 30
0.0
 11
6872.9166364324183
 21
4007.5502604745702
 31
0.0
  0
LINE
  5
1B175
  8
SJC2
 10
6872.9166364324183
 20
3997.7541097244471
 30
0.0
 11
6872.9166364324183
 21
4007.5502604745702
 31
0.0
  0
LINE
  5
1B176
  8
SJC2
 10
6875.2166364324194
 20
3997.7541097244471
 30
0.0
 11
6875.2166364324194
 21
4007.5502604745702
 31
0.0
  0
ARC
  5
1B177
  8
SJC2
 10
6851.4166364324201
 20
3997.7541097244471
 30
0.0
 40
21.5
 50
181.33249001708629
 51
0.000000000000007
  0
ARC
  5
1B178
  8
SJC2
 10
6851.4166364324201
 20
3997.7541097244471
 30
0.0
 40
23.800000000000001
 50
181.33249001708629
 51
0.000000000000007
  0
LINE
  5
1B179
  8
SJC2
 10
6829.9224503859068
 20
3997.2541435276471
 30
0.0
 11
6827.6230723437229
 21
3997.2006587717078
 31
0.0
  0
ARC
  5
1B17A
  8
SJC2
 10
6851.4166364324183
 20
3992.8541097244488
 30
0.0
 40
28.0
 50
34.095697561129349
 51
90.0
  0
ARC
  5
1B17B
  8
SJC2
 10
6851.4166364324183
 20
3992.8541097244488
 30
0.0
 40
26.399999999999999
 50
36.480642265211763
 51
90.0
  0
LINE
  5
1B17C
  8
SJC2
 10
6874.6035045182416
 20
4008.5502604745702
 30
0.0
 11
6872.6437618060854
 21
4008.5502604745702
 31
0.0
  0
CIRCLE
  5
1B17D
  8
SJC2
 10
6851.4166364324183
 20
3997.7541097244471
 30
0.0
 40
21.350000000000001
  0
CIRCLE
  5
1B17E
  8
SJC2
 10
6851.4166364324183
 20
3997.7541097244471
 30
0.0
 40
19.050000000000001
  0
CIRCLE
  5
1B17F
  8
SJC
 10
6851.4166364324183
 20
3997.7541097244471
 30
0.0
 40
20.0
  0
DIMENSION
  5
1B3AA
  8
SUNPOU
  2
*D6
 10
3839.1407464629042
 20
4651.8810759642038
 30
0.0
 11
3738.47136612853
 21
4705.8810759642029
 31
0.0
 70
     0
  1
3000
 13
3597.8019857941558
 23
4423.7543537309466
 33
0.0
 14
3839.1407464629042
 24
4416.7509391817803
 34
0.0
1001
ACAD
1000
DSTYLE
1002
{
1070
   287
1070
     5
1070
     7
1000
NONE
1070
   173
1070
     1
1070
     6
1000

1070
    76
1070
     1
1070
    40
1040
20.0
1070
    41
1040
2.0
1070
    42
1040
1.0
1070
    43
1040
6.0
1070
    44
1040
1.0
1070
    73
1070
     0
1070
    74
1070
     0
1070
    77
1070
     1
1070
    78
1070
     8
1070
   140
1040
3.0
1070
   147
1040
1.1999999999999991
1070
   172
1070
     1
1070
   179
1070
     2
1070
   271
1070
     2
1070
   272
1070
     2
1070
   279
1070
     2
1070
   340
1005
1372
1002
}
  0
INSERT
  5
1BAE9
  8
0
  2
*U47
 10
0.0
 20
0.0
 30
0.0
1001
ACAD
1000
DSTYLE
1002
{
1070
    40
1040
20.0
1070
    41
1040
2.0
1070
    42
1040
1.0
1070
    43
1040
6.0
1070
    44
1040
1.0
1070
    73
1070
     0
1070
    74
1070
     0
1070
    77
1070
     1
1070
    78
1070
     8
1070
   140
1040
3.0
1070
   147
1040
1.1999999999999991
1070
   172
1070
     1
1070
   179
1070
     2
1070
   271
1070
     2
1070
   272
1070
     2
1070
   279
1070
     2
1070
   340
1005
1372
1002
}
  0
INSERT
  5
1BAEA
  8
0
  2
*U48
 10
0.0
 20
0.0
 30
0.0
1001
ACAD
1000
DSTYLE
1002
{
1070
    40
1040
20.0
1070
    41
1040
2.0
1070
    42
1040
1.0
1070
    43
1040
6.0
1070
    44
1040
1.0
1070
    73
1070
     0
1070
    74
1070
     0
1070
    77
1070
     1
1070
    78
1070
     8
1070
   140
1040
3.0
1070
   147
1040
1.1999999999999991
1070
   172
1070
     1
1070
   179
1070
     2
1070
   271
1070
     2
1070
   272
1070
     2
1070
   279
1070
     2
1070
   340
1005
1372
1002
}
  0
INSERT
  5
1BC53
  8
HATCH
  6
CONTINUOUS
  2
*X49
 10
0.0
 20
0.0
 30
0.0
1001
ACAD
1000
HATCH
1002
{
1070
    19
1000
PLAST
1040
500.0
1040
0.7853981633974483
1000
R14_HATCH_DATA
1000
1BC53
1011
1.0
1021
0.0
1031
0.0
1021
0.0
1031
0.0
1011
0.0
1021
0.0
1031
0.0
1021
1.0
1031
0.0
1011
0.0
1021
0.0
1031
0.0
1021
0.0
1031
1.0
1040
0.0
1010
0.0
1020
0.0
1030
1.0
1000
PLAST
1070
     0
1070
     0
1071
        2
1071
        7
1070
     0
1070
     1
1071
        4
1040
4679.8491082814371
1040
3567.7543537309471
1040
4560.0987416198368
1040
3567.7543537309471
1040
4560.0987416198377
1040
3167.7543596913488
1040
4679.8491082814371
1040
3167.7543596913488
1071
        0
1071
        7
1070
     0
1070
     1
1071
        4
1040
4499.5994749430383
1040
3567.754353730943
1040
4379.8491082814371
1040
3567.7543537309471
1040
4379.849108281438
1040
3167.7543596913488
1040
4499.5994749430383
1040
3167.7543596913461
1071
        0
1070
     0
1070
     1
1040
0.7853981633974483
1040
500.0
1070
     0
1070
     3
1040
0.7853981633974483
1040
-0.0000000000009095
1040
22360.0
1040
-88.388347648318415
1040
88.388347648318444
1070
     0
1040
0.7853981633974483
1040
-11.04854345604071
1040
22371.04854345604
1040
-88.388347648318415
1040
88.388347648318444
1070
     0
1040
0.7853981633974483
1040
-22.09708691208052
1040
22382.097086912079
1040
-88.388347648318415
1040
88.388347648318444
1070
     0
1040
2.2020219199588071
1071
        2
1040
4601.2995891420132
1040
3320.073803627296
1040
0.0
1040
4451.482575009838
1040
3324.477825352405
1040
0.0
1002
}
  0
DIMENSION
  5
1BC54
  8
SUNPOU
  2
*D31
 10
4679.8491082814371
 20
3038.0780045675492
 30
0.0
 11
4528.0729202780467
 21
3092.7628908151091
 31
0.0
 70
   128
  1
□300
 13
4379.849108281438
 23
3167.7543596913488
 33
0.0
 14
4679.8491082814371
 24
3167.7543596913488
 34
0.0
1001
ACAD
1000
DSTYLE
1002
{
1070
   287
1070
     5
1070
   287
1070
     5
1070
   287
1070
     5
1070
   287
1070
     5
1070
    40
1040
20.0
1070
    41
1040
2.0
1070
    42
1040
1.0
1070
    43
1040
6.0
1070
    44
1040
1.0
1070
    73
1070
     0
1070
    74
1070
     0
1070
    77
1070
     1
1070
    78
1070
     8
1070
   140
1040
3.0
1070
   147
1040
1.1999999999999991
1070
   172
1070
     1
1070
   176
1070
   256
1070
   177
1070
   256
1070
   178
1070
   256
1070
   271
1070
     2
1070
   279
1070
     2
1070
   287
1070
     5
1070
   340
1005
1372
1002
}
  0
LINE
  5
1F526
  8
MOJI
 10
5317.9801253029664
 20
1619.574441980207
 30
0.0
 11
4514.3087973885713
 21
1619.5778068542861
 31
0.0
  0
TEXT
  5
1F527
  8
MOJI
 10
4523.8758866423123
 20
1541.729790519792
 30
0.0
 40
60.0
  1
(ドリル径%%c18,深さ55mm)
 50
359.99972432623952
 41
0.8
  7
EXT08
  0
TEXT
  5
1F528
  8
MOJI
 10
4609.9600699754219
 20
1640.686634751451
 30
0.0
 40
60.0
  1
ナットアンカー M12
 50
359.99972432623952
 41
0.8
  7
EXT08
  0
TEXT
  5
1F529
  8
MOJI2
 10
3862.4529420470649
 20
2313.9523546088571
 30
0.0
 40
80.0
  1
ベースプレート詳細図 (1/10)
 41
0.8
  7
EXT08
  0
DIMENSION
  5
1F52A
  8
SUNPOU
  2
*D32
 10
4389.7997378352165
 20
777.96698968679993
 30
0.0
 11
4239.7997378352165
 21
831.96698968679993
 31
0.0
 70
     0
 13
4089.799737835217
 23
1072.7990340487961
 33
0.0
 14
4389.7997378352165
 24
1072.7990340487961
 34
0.0
1001
ACAD
1000
DSTYLE
1002
{
1070
   287
1070
     5
1070
   287
1070
     5
1070
   287
1070
     5
1070
   287
1070
     5
1070
    40
1040
20.0
1070
    41
1040
2.0
1070
    42
1040
1.0
1070
    43
1040
6.0
1070
    44
1040
1.0
1070
    73
1070
     0
1070
    74
1070
     0
1070
    77
1070
     1
1070
    78
1070
     8
1070
   140
1040
3.0
1070
   144
1040
0.5
1070
   147
1040
1.1999999999999991
1070
   172
1070
     1
1070
   179
1070
     2
1070
   271
1070
     2
1070
   279
1070
     2
1070
   287
1070
     5
1070
   340
1005
1372
1002
}
  0
DIMENSION
  5
1F52B
  8
SUNPOU
  2
*D33
 10
4339.7997378352165
 20
900.45703667109774
 30
0.0
 11
4239.7997378352165
 21
954.66461405877271
 31
0.0
 70
   128
 13
4139.7997378352165
 23
1072.7990340487961
 33
0.0
 14
4339.7997378352165
 24
1072.7990340487961
 34
0.0
1001
ACAD
1000
DSTYLE
1002
{
1070
   287
1070
     5
1070
   287
1070
     5
1070
   287
1070
     5
1070
   287
1070
     5
1070
    40
1040
20.0
1070
    41
1040
2.0
1070
    42
1040
1.0
1070
    43
1040
6.0
1070
    44
1040
1.0
1070
    73
1070
     0
1070
    74
1070
     0
1070
    77
1070
     1
1070
    78
1070
     8
1070
   140
1040
3.0
1070
   144
1040
0.5
1070
   147
1040
1.1999999999999991
1070
   172
1070
     1
1070
   179
1070
     2
1070
   271
1070
     2
1070
   279
1070
     2
1070
   287
1070
     5
1070
   340
1005
1372
1002
}
  0
DIMENSION
  5
1F52C
  8
SUNPOU
  2
*D34
 10
4089.799737835217
 20
900.45703667109774
 30
0.0
 11
4036.0694556550861
 21
950.17588418368905
 31
0.0
 70
   128
 13
4139.7997378352165
 23
1072.7990340487961
 33
0.0
 14
4089.799737835217
 24
1072.7990340487961
 34
0.0
1001
ACAD
1000
DSTYLE
1002
{
1070
   287
1070
     5
1070
   287
1070
     5
1070
   287
1070
     5
1070
   287
1070
     5
1070
    40
1040
20.0
1070
    41
1040
2.0
1070
    42
1040
1.0
1070
    43
1040
6.0
1070
    44
1040
1.0
1070
    73
1070
     0
1070
    74
1070
     0
1070
    77
1070
     1
1070
    78
1070
     8
1070
   140
1040
3.0
1070
   144
1040
0.5
1070
   147
1040
1.1999999999999991
1070
   172
1070
     1
1070
   179
1070
     2
1070
   271
1070
     2
1070
   279
1070
     2
1070
   287
1070
     5
1070
   340
1005
1372
1002
}
  0
DIMENSION
  5
1F52D
  8
SUNPOU
  2
*D35
 10
4389.7997378352165
 20
900.45703667109774
 30
0.0
 11
4449.1655929991084
 21
951.69353368263899
 31
0.0
 70
   128
 13
4339.7997378352165
 23
1072.7990340487961
 33
0.0
 14
4389.7997378352165
 24
1072.7990340487961
 34
0.0
1001
ACAD
1000
DSTYLE
1002
{
1070
   287
1070
     5
1070
   287
1070
     5
1070
   287
1070
     5
1070
   287
1070
     5
1070
    40
1040
20.0
1070
    41
1040
2.0
1070
    42
1040
1.0
1070
    43
1040
6.0
1070
    44
1040
1.0
1070
    73
1070
     0
1070
    74
1070
     0
1070
    77
1070
     1
1070
    78
1070
     8
1070
   140
1040
3.0
1070
   144
1040
0.5
1070
   147
1040
1.1999999999999991
1070
   172
1070
     1
1070
   179
1070
     2
1070
   271
1070
     2
1070
   279
1070
     2
1070
   287
1070
     5
1070
   340
1005
1372
1002
}
  0
DIMENSION
  5
1F52E
  8
SUNPOU
  2
*D36
 10
4629.0940131724819
 20
1072.799034048795
 30
0.0
 11
4572.7429514315636
 21
1012.921928187381
 31
0.0
 70
   128
 13
4389.7997378352165
 23
1122.7990340487961
 33
0.0
 14
4389.7997378352165
 24
1072.7990340487961
 34
0.0
 50
90.0
1001
ACAD
1000
DSTYLE
1002
{
1070
   287
1070
     5
1070
   287
1070
     5
1070
   287
1070
     5
1070
   287
1070
     5
1070
    40
1040
20.0
1070
    41
1040
2.0
1070
    42
1040
1.0
1070
    43
1040
6.0
1070
    44
1040
1.0
1070
    73
1070
     0
1070
    74
1070
     0
1070
    77
1070
     1
1070
    78
1070
     8
1070
   140
1040
3.0
1070
   144
1040
0.5
1070
   147
1040
1.1999999999999991
1070
   172
1070
     1
1070
   179
1070
     2
1070
   271
1070
     2
1070
   279
1070
     2
1070
   287
1070
     5
1070
   340
1005
1372
1002
}
  0
LINE
  5
1F52F
  8
SJC
 10
4322.4997411880231
 20
1736.5681724968999
 30
0.0
 11
4322.4997411880231
 21
1800.568172496882
 31
0.0
  0
LINE
  5
1F530
  8
SJC
 10
4357.0997411880144
 20
1736.5681724968999
 30
0.0
 11
4357.099741188018
 21
1800.568172496882
 31
0.0
  0
LINE
  5
1F531
  8
CENTER
 10
4339.7997411880187
 20
1659.629275208506
 30
0.0
 11
4339.7997411880187
 21
1867.812131519684
 31
0.0
  0
LINE
  5
1F532
  8
SJC
 10
4122.4997344824278
 20
1736.5681724968999
 30
0.0
 11
4122.4997344824278
 21
1800.568172496882
 31
0.0
  0
LINE
  5
1F533
  8
CENTER
 10
4139.7997344824234
 20
1662.5274074549891
 30
0.0
 11
4139.7997344824234
 21
1867.812131519684
 31
0.0
  0
LINE
  5
1F534
  8
SJC
 10
4157.0997344824191
 20
1736.5681724968999
 30
0.0
 11
4157.0997344824218
 21
1800.568172496882
 31
0.0
  0
INSERT
  5
1F535
  8
0
  2
*U50
 10
0.0
 20
0.0
 30
0.0
1001
ACAD
1000
DSTYLE
1002
{
1070
     5
1000

1070
    40
1040
25.0
1070
    41
1040
2.0
1070
    42
1040
1.0
1070
    43
1040
6.0
1070
    44
1040
1.0
1070
    73
1070
     0
1070
    74
1070
     0
1070
    77
1070
     1
1070
    78
1070
     8
1070
   140
1040
3.0
1070
   147
1040
1.1999999999999991
1070
   172
1070
     1
1070
   176
1070
   256
1070
   177
1070
   256
1070
   178
1070
   256
1070
   271
1070
     2
1070
   275
1070
     1
1070
   279
1070
     2
1070
   340
1005
1372
1070
   342
1005
0
1002
}
  0
DIMENSION
  5
1F536
  8
SUNPOU
  2
*D37
 10
4546.5949895121439
 20
1800.568172496882
 30
0.0
 11
4492.1267828360023
 21
1876.344391759056
 31
0.0
 70
   128
  1
t9
 13
4389.7997378352165
 23
1818.5681724968811
 33
0.0
 14
4389.7997378352165
 24
1800.568172496882
 34
0.0
 50
90.0
1001
ACAD
1000
DSTYLE
1002
{
1070
   287
1070
     5
1070
   287
1070
     5
1070
   287
1070
     5
1070
   287
1070
     5
1070
    40
1040
20.0
1070
    41
1040
2.0
1070
    42
1040
1.0
1070
    43
1040
6.0
1070
    44
1040
1.0
1070
    73
1070
     0
1070
    74
1070
     0
1070
    77
1070
     1
1070
    78
1070
     8
1070
   140
1040
3.0
1070
   144
1040
0.5
1070
   147
1040
1.1999999999999991
1070
   172
1070
     1
1070
   179
1070
     2
1070
   271
1070
     2
1070
   279
1070
     2
1070
   287
1070
     5
1070
   340
1005
1372
1002
}
  0
LINE
  5
1F537
  8
CENTER
 10
4239.7997378352211
 20
1752.1289629095329
 30
0.0
 11
4239.7997378352211
 21
2128.7000414772451
 31
0.0
  0
INSERT
  5
1F538
  8
0
  2
*U51
 10
0.0
 20
0.0
 30
0.0
1001
ACAD
1000
DSTYLE
1002
{
1070
     5
1000

1070
    40
1040
20.0
1070
    41
1040
2.0
1070
    42
1040
1.0
1070
    43
1040
6.0
1070
    44
1040
1.0
1070
    73
1070
     0
1070
    74
1070
     0
1070
    77
1070
     0
1070
    78
1070
     8
1070
   140
1040
3.0
1070
   147
1040
1.1999999999999991
1070
   172
1070
     1
1070
   271
1070
     2
1070
   279
1070
     2
1070
   340
1005
1372
1070
   342
1005
0
1002
}
  0
DIMENSION
  5
1F539
  8
SUNPOU
  2
*D38
 10
4629.0940131724819
 20
1372.799034048795
 30
0.0
 11
4571.2242111350042
 21
1434.1344057372769
 31
0.0
 70
   128
 13
4389.7997378352165
 23
1322.7990340487961
 33
0.0
 14
4389.7997378352165
 24
1372.7990340487961
 34
0.0
 50
90.0
1001
ACAD
1000
DSTYLE
1002
{
1070
   287
1070
     5
1070
   287
1070
     5
1070
   287
1070
     5
1070
   287
1070
     5
1070
    40
1040
20.0
1070
    41
1040
2.0
1070
    42
1040
1.0
1070
    43
1040
6.0
1070
    44
1040
1.0
1070
    73
1070
     0
1070
    74
1070
     0
1070
    77
1070
     1
1070
    78
1070
     8
1070
   140
1040
3.0
1070
   144
1040
0.5
1070
   147
1040
1.1999999999999991
1070
   172
1070
     1
1070
   179
1070
     2
1070
   271
1070
     2
1070
   279
1070
     2
1070
   287
1070
     5
1070
   340
1005
1372
1002
}
  0
DIMENSION
  5
1F53A
  8
SUNPOU
  2
*D39
 10
4629.0940131724819
 20
1122.799034048795
 30
0.0
 11
4569.2124734306344
 21
1222.7990340487961
 31
0.0
 70
   128
 13
4389.7997378352165
 23
1322.7990340487961
 33
0.0
 14
4389.7997378352165
 24
1122.7990340487961
 34
0.0
 50
90.0
1001
ACAD
1000
DSTYLE
1002
{
1070
   287
1070
     5
1070
   287
1070
     5
1070
   287
1070
     5
1070
   287
1070
     5
1070
    40
1040
20.0
1070
    41
1040
2.0
1070
    42
1040
1.0
1070
    43
1040
6.0
1070
    44
1040
1.0
1070
    73
1070
     0
1070
    74
1070
     0
1070
    77
1070
     1
1070
    78
1070
     8
1070
   140
1040
3.0
1070
   144
1040
0.5
1070
   147
1040
1.1999999999999991
1070
   172
1070
     1
1070
   179
1070
     2
1070
   271
1070
     2
1070
   279
1070
     2
1070
   287
1070
     5
1070
   340
1005
1372
1002
}
  0
DIMENSION
  5
1F53B
  8
SUNPOU
  2
*D40
 10
4751.648396260618
 20
1072.799034048795
 30
0.0
 11
4697.648396260618
 21
1222.7990340487961
 31
0.0
 70
     0
 13
4389.7997378352165
 23
1372.7990340487961
 33
0.0
 14
4389.7997378352165
 24
1072.7990340487961
 34
0.0
 50
90.0
1001
ACAD
1000
DSTYLE
1002
{
1070
   287
1070
     5
1070
   287
1070
     5
1070
   287
1070
     5
1070
   287
1070
     5
1070
    40
1040
20.0
1070
    41
1040
2.0
1070
    42
1040
1.0
1070
    43
1040
6.0
1070
    44
1040
1.0
1070
    73
1070
     0
1070
    74
1070
     0
1070
    77
1070
     1
1070
    78
1070
     8
1070
   140
1040
3.0
1070
   144
1040
0.5
1070
   147
1040
1.1999999999999991
1070
   172
1070
     1
1070
   179
1070
     2
1070
   271
1070
     2
1070
   279
1070
     2
1070
   287
1070
     5
1070
   340
1005
1372
1002
}
  0
CIRCLE
  5
1F53C
  8
HASEN
 10
4239.7997378352165
 20
1222.7990340487961
 30
0.0
 40
60.5
  0
CIRCLE
  5
1F53D
  8
SJC
 10
4239.7997378352165
 20
1222.7990340487961
 30
0.0
 40
50.0
  0
CIRCLE
  5
1F53E
  8
HASEN
 10
4239.7997378352165
 20
1222.7990340487961
 30
0.0
 40
54.100000000000001
  0
LINE
  5
1F53F
  8
CENTER
 10
4239.7997378352165
 20
1405.4975319690559
 30
0.0
 11
4239.7997378352165
 21
1040.1005361285311
 31
0.0
  0
POLYLINE
  5
1F540
  8
SJC
 66
     1
 10
0.0
 20
0.0
 30
0.0
 70
     1
  0
VERTEX
  5
20F96
  8
SJC
 10
4089.799737835217
 20
1372.7990340487961
 30
0.0
  0
VERTEX
  5
20F97
  8
SJC
 10
4089.799737835217
 20
1072.7990340487961
 30
0.0
  0
VERTEX
  5
20F98
  8
SJC
 10
4389.7997378352165
 20
1072.7990340487961
 30
0.0
  0
VERTEX
  5
20F99
  8
SJC
 10
4389.7997378352165
 20
1372.7990340487961
 30
0.0
  0
SEQEND
  5
20F9A
  8
SJC
  0
LINE
  5
1F541
  8
CENTER
 10
4171.6747378352165
 20
1122.7990340487961
 30
0.0
 11
4107.9247378352184
 21
1122.7990340487961
 31
0.0
  0
LINE
  5
1F542
  8
CENTER
 10
4057.1012399149549
 20
1222.7990340487961
 30
0.0
 11
4422.49823575548
 21
1222.7990340487961
 31
0.0
  0
CIRCLE
  5
1F543
  8
SJC
 10
4139.7997378352165
 20
1122.7990340487961
 30
0.0
 40
23.375
  0
LINE
  5
1F544
  8
CENTER
 10
4139.7997378352165
 20
1154.6740340487961
 30
0.0
 11
4139.7997378352165
 21
1090.9240340487961
 31
0.0
  0
CIRCLE
  5
1F545
  8
SJC
 10
4339.7997378352165
 20
1122.7990340487961
 30
0.0
 40
23.375
  0
LINE
  5
1F546
  8
CENTER
 10
4339.7997378352165
 20
1154.6740340487961
 30
0.0
 11
4339.7997378352165
 21
1090.9240340487961
 31
0.0
  0
LINE
  5
1F547
  8
CENTER
 10
4307.9247378352165
 20
1122.7990340487961
 30
0.0
 11
4371.6747378352165
 21
1122.7990340487961
 31
0.0
  0
LINE
  5
1F548
  8
CENTER
 10
4171.6747378352165
 20
1322.7990340487961
 30
0.0
 11
4107.9247378352184
 21
1322.7990340487961
 31
0.0
  0
LINE
  5
1F549
  8
CENTER
 10
4139.7997378352165
 20
1290.9240340487961
 30
0.0
 11
4139.7997378352165
 21
1354.6740340487961
 31
0.0
  0
LINE
  5
1F54A
  8
CENTER
 10
4139.7997378352165
 20
1290.9240340487961
 30
0.0
 11
4139.7997378352165
 21
1354.6740340487961
 31
0.0
  0
CIRCLE
  5
1F54B
  8
SJC
 10
4139.7997378352165
 20
1322.7990340487961
 30
0.0
 40
23.375
  0
LINE
  5
1F54C
  8
CENTER
 10
4339.7997378352165
 20
1290.9240340487961
 30
0.0
 11
4339.7997378352165
 21
1354.6740340487961
 31
0.0
  0
LINE
  5
1F54D
  8
CENTER
 10
4307.9247378352165
 20
1322.7990340487961
 30
0.0
 11
4371.6747378352165
 21
1322.7990340487961
 31
0.0
  0
CIRCLE
  5
1F54E
  8
SJC
 10
4339.7997378352165
 20
1322.7990340487961
 30
0.0
 40
23.375
  0
LINE
  5
1F54F
  8
MOJI
 10
4266.7367204950569
 20
1477.6996441298029
 30
0.0
 11
3991.3332082393522
 21
1477.6996441298029
 31
0.0
  0
TEXT
  5
1F550
  8
MOJI
 10
3998.624221349166
 20
1497.6996441298029
 30
0.0
 40
60.0
  1
4-%%c22
 41
0.8
  7
EXT08
 72
     2
 11
4231.7670784920228
 21
1527.6996441298029
 31
0.0
 73
     2
  0
LINE
  5
1F551
  8
SJC
 10
4157.0997344824191
 20
1736.5681724968999
 30
0.0
 11
4160.9157344824253
 21
1700.568172496882
 31
0.0
  0
LINE
  5
1F552
  8
SJC
 10
4155.6157344824223
 20
1700.568172496882
 30
0.0
 11
4157.0997344824218
 21
1686.5681724968811
 31
0.0
  0
LINE
  5
1F553
  8
SJC
 10
4122.4997344824278
 20
1736.5681724968999
 30
0.0
 11
4118.6837344824216
 21
1700.568172496882
 31
0.0
  0
LINE
  5
1F554
  8
SJC
 10
4141.7197344824208
 20
1700.568172496882
 30
0.0
 11
4139.7997344824234
 21
1724.5681724968711
 31
0.0
  0
LINE
  5
1F555
  8
SJC
 10
4137.8797344824243
 20
1700.568172496882
 30
0.0
 11
4139.7997344824234
 21
1724.5681724968711
 31
0.0
  0
LINE
  5
1F556
  8
SJC
 10
4137.8797344824243
 20
1700.568172496882
 30
0.0
 11
4118.6837344824216
 21
1700.568172496882
 31
0.0
  0
LINE
  5
1F557
  8
SJC
 10
4123.9837344824246
 20
1700.568172496882
 30
0.0
 11
4122.4997344824242
 21
1686.5681724968811
 31
0.0
  0
LINE
  5
1F558
  8
SJC2
 10
4119.3197344824202
 20
1706.568172496882
 30
0.0
 11
4138.3597344824238
 21
1706.568172496882
 31
0.0
  0
LINE
  5
1F559
  8
SJC2
 10
4119.9557344824234
 20
1712.5681724968811
 30
0.0
 11
4138.8397344824243
 21
1712.5681724968811
 31
0.0
  0
LINE
  5
1F55A
  8
SJC2
 10
4120.5917344824211
 20
1718.5681724968811
 30
0.0
 11
4139.3197344824266
 21
1718.5681724968811
 31
0.0
  0
LINE
  5
1F55B
  8
SJC
 10
4157.0997344824218
 20
1686.5681724968811
 30
0.0
 11
4122.4997344824242
 21
1686.5681724968811
 31
0.0
  0
LINE
  5
1F55C
  8
SJC
 10
4160.9157344824253
 20
1700.568172496882
 30
0.0
 11
4141.7197344824208
 21
1700.568172496882
 31
0.0
  0
LINE
  5
1F55D
  8
SJC2
 10
4160.2797344824257
 20
1706.568172496882
 30
0.0
 11
4141.2397344824221
 21
1706.568172496882
 31
0.0
  0
LINE
  5
1F55E
  8
SJC2
 10
4159.6437344824253
 20
1712.5681724968811
 30
0.0
 11
4140.7597344824217
 21
1712.5681724968811
 31
0.0
  0
LINE
  5
1F55F
  8
SJC2
 10
4159.0077344824249
 20
1718.5681724968811
 30
0.0
 11
4140.2797344824194
 21
1718.5681724968811
 31
0.0
  0
LINE
  5
1F560
  8
SJC
 10
4357.0997411880144
 20
1736.5681724968999
 30
0.0
 11
4360.9157411880196
 21
1700.568172496882
 31
0.0
  0
LINE
  5
1F561
  8
SJC
 10
4355.6157411880167
 20
1700.568172496882
 30
0.0
 11
4357.099741188018
 21
1686.5681724968811
 31
0.0
  0
LINE
  5
1F562
  8
SJC
 10
4322.4997411880231
 20
1736.5681724968999
 30
0.0
 11
4318.683741188016
 21
1700.568172496882
 31
0.0
  0
LINE
  5
1F563
  8
SJC
 10
4337.8797411880214
 20
1700.568172496882
 30
0.0
 11
4339.7997411880187
 21
1724.5681724968711
 31
0.0
  0
LINE
  5
1F564
  8
SJC
 10
4341.719741188017
 20
1700.568172496882
 30
0.0
 11
4339.7997411880187
 21
1724.5681724968711
 31
0.0
  0
LINE
  5
1F565
  8
SJC
 10
4323.9837411880198
 20
1700.568172496882
 30
0.0
 11
4322.4997411880186
 21
1686.5681724968811
 31
0.0
  0
LINE
  5
1F566
  8
SJC
 10
4337.8797411880214
 20
1700.568172496882
 30
0.0
 11
4318.683741188016
 21
1700.568172496882
 31
0.0
  0
LINE
  5
1F567
  8
SJC2
 10
4319.3197411880146
 20
1706.568172496882
 30
0.0
 11
4338.3597411880201
 21
1706.568172496882
 31
0.0
  0
LINE
  5
1F568
  8
SJC2
 10
4319.9557411880169
 20
1712.5681724968811
 30
0.0
 11
4338.8397411880196
 21
1712.5681724968811
 31
0.0
  0
LINE
  5
1F569
  8
SJC2
 10
4320.5917411880173
 20
1718.5681724968811
 30
0.0
 11
4339.3197411880228
 21
1718.5681724968811
 31
0.0
  0
LINE
  5
1F56A
  8
SJC
 10
4357.099741188018
 20
1686.5681724968811
 30
0.0
 11
4322.4997411880186
 21
1686.5681724968811
 31
0.0
  0
LINE
  5
1F56B
  8
SJC
 10
4360.9157411880196
 20
1700.568172496882
 30
0.0
 11
4341.719741188017
 21
1700.568172496882
 31
0.0
  0
LINE
  5
1F56C
  8
SJC2
 10
4360.2797411880219
 20
1706.568172496882
 30
0.0
 11
4341.2397411880183
 21
1706.568172496882
 31
0.0
  0
LINE
  5
1F56D
  8
SJC2
 10
4359.6437411880188
 20
1712.5681724968811
 30
0.0
 11
4340.7597411880179
 21
1712.5681724968811
 31
0.0
  0
LINE
  5
1F56E
  8
SJC2
 10
4359.0077411880211
 20
1718.5681724968811
 30
0.0
 11
4340.2797411880147
 21
1718.5681724968811
 31
0.0
  0
INSERT
  5
1F56F
  8
0
  2
*U52
 10
0.0
 20
0.0
 30
0.0
1001
ACAD
1000
DSTYLE
1002
{
1070
     5
1000

1070
    40
1040
25.0
1070
    41
1040
2.0
1070
    42
1040
1.0
1070
    43
1040
6.0
1070
    44
1040
1.0
1070
    73
1070
     0
1070
    74
1070
     0
1070
    77
1070
     1
1070
    78
1070
     8
1070
   140
1040
3.0
1070
   147
1040
1.1999999999999991
1070
   172
1070
     1
1070
   176
1070
   256
1070
   177
1070
   256
1070
   178
1070
   256
1070
   271
1070
     2
1070
   275
1070
     1
1070
   279
1070
     2
1070
   340
1005
1372
1070
   342
1005
0
1002
}
  0
LINE
  5
1F570
  8
SJC
 10
4179.2997378352147
 20
2087.430963623603
 30
0.0
 11
4179.2997378352184
 21
1818.5681724968811
 31
0.0
  0
LINE
  5
1F571
  8
SJC
 10
4300.2997378352165
 20
2087.4309636236071
 30
0.0
 11
4300.2997378352165
 21
1818.5681724968811
 31
0.0
  0
LINE
  5
1F572
  8
SJC
 10
4139.7997344824234
 20
1823.568172496882
 30
0.0
 11
4163.7997344824234
 21
1823.568172496882
 31
0.0
  0
LINE
  5
1F573
  8
SJC
 10
4089.799737835217
 20
1800.568172496882
 30
0.0
 11
4389.7997378352165
 21
1800.568172496882
 31
0.0
  0
LINE
  5
1F574
  8
SJC
 10
4389.7997378352165
 20
1818.5681724968811
 30
0.0
 11
4089.799737835217
 21
1818.5681724968811
 31
0.0
  0
LINE
  5
1F575
  8
SJC
 10
4115.7997344824244
 20
1818.5681724968811
 30
0.0
 11
4115.7997344824244
 21
1823.568172496882
 31
0.0
  0
LINE
  5
1F576
  8
SJC
 10
4139.7997344824234
 20
1823.568172496882
 30
0.0
 11
4115.7997344824244
 21
1823.568172496882
 31
0.0
  0
INSERT
  5
1F577
  8
SJC
  2
B0030003
 10
4139.7997344824234
 20
1829.568172496882
 30
0.0
 41
2.0
 42
2.0
 43
2.0
 50
90.0
  0
INSERT
  5
1F578
  8
SJC
  2
B0030004
 10
4139.7997344824234
 20
1829.568172496882
 30
0.0
 41
2.0
 42
2.0
 43
2.0
 50
270.0
  0
LINE
  5
1F579
  8
SJC
 10
4089.799737835217
 20
1818.5681724968811
 30
0.0
 11
4089.799737835217
 21
1800.568172496882
 31
0.0
  0
LINE
  5
1F57A
  8
SJC
 10
4163.7997344824234
 20
1818.5681724968811
 30
0.0
 11
4163.7997344824234
 21
1823.568172496882
 31
0.0
  0
LINE
  5
1F57B
  8
SJC
 10
4363.7997411880178
 20
1818.5681724968811
 30
0.0
 11
4363.7997411880178
 21
1823.568172496882
 31
0.0
  0
LINE
  5
1F57C
  8
SJC
 10
4389.7997378352165
 20
1800.568172496882
 30
0.0
 11
4389.7997378352165
 21
1818.5681724968811
 31
0.0
  0
LINE
  5
1F57D
  8
SJC
 10
4315.7997411880178
 20
1818.5681724968811
 30
0.0
 11
4315.7997411880178
 21
1823.568172496882
 31
0.0
  0
LINE
  5
1F57E
  8
SJC
 10
4339.7997411880187
 20
1823.568172496882
 30
0.0
 11
4315.7997411880178
 21
1823.568172496882
 31
0.0
  0
LINE
  5
1F57F
  8
SJC
 10
4339.7997411880187
 20
1823.568172496882
 30
0.0
 11
4363.7997411880178
 21
1823.568172496882
 31
0.0
  0
INSERT
  5
1F580
  8
SJC
  2
B0030003
 10
4339.7997411880187
 20
1829.568172496882
 30
0.0
 41
2.0
 42
2.0
 43
2.0
 50
90.0
  0
INSERT
  5
1F581
  8
SJC
  2
B0030004
 10
4339.7997411880187
 20
1829.568172496882
 30
0.0
 41
2.0
 42
2.0
 43
2.0
 50
270.0
  0
ARC
  5
1F582
  8
SJC
 10
4209.5497378352165
 20
2051.8611711359381
 30
0.0
 40
46.693389656520587
 50
49.620806816153589
 51
130.37919318384641
  0
ARC
  5
1F583
  8
SJC
 10
4209.5497378352165
 20
2123.0007561112689
 30
0.0
 40
46.693389656520587
 50
229.62080681615359
 51
310.37919318384638
  0
ARC
  5
1F584
  8
SJC
 10
4270.0497378352229
 20
2051.8611711359381
 30
0.0
 40
46.693389656520587
 50
49.620806816153589
 51
130.37919318384641
  0
TEXT
  5
1F585
  8
MOJI
 10
4560.8400451416728
 20
1996.613836850825
 30
0.0
 40
60.0
  1
M12×30
 50
359.99972432623952
 41
0.8
  7
EXT08
  0
TEXT
  5
1F586
  8
MOJI
 10
4570.3262043002424
 20
2091.4079259793511
 30
0.0
 40
60.0
  1
取付ボルト
 50
359.99972432623952
 41
0.8
  7
EXT08
  0
LINE
  5
1F587
  8
MOJI
 10
4875.9744637829299
 20
2071.4401777884559
 30
0.0
 11
4529.3392439221998
 21
2071.442510445479
 31
0.0
  0
LINE
  5
1F588
  8
MOJI2
 10
3857.68215216402
 20
2274.5392113851708
 30
0.0
 11
4619.4862500672243
 21
2274.5392113851708
 31
0.0
  0
LINE
  5
1F589
  8
MOJI2
 10
3857.68215216402
 20
2294.5392113851708
 30
0.0
 11
4619.4862500672243
 21
2294.5392113851708
 31
0.0
  0
LINE
  5
1F58A
  8
MOJI
 10
7183.4057366918851
 20
1361.5036701292261
 30
0.0
 11
7183.4057366918851
 21
2261.503670129227
 31
0.0
  0
TEXT
  5
1F58B
  8
MOJI
 10
6708.1326657152886
 20
2178.4374546745198
 30
0.0
 40
60.0
  1
摘  要
 41
0.8
  7
EXT08
 72
     1
 11
6788.589808572433
 21
2178.4374546745198
 31
0.0
  0
TEXT
  5
1F58C
  8
MOJI
 10
6100.2912296132617
 20
2179.379155857423
 30
0.0
 40
60.0
  1
材  質
 41
0.8
  7
EXT08
 72
     1
 11
6180.2912296132627
 21
2179.379155857423
 31
0.0
  0
TEXT
  5
1F58D
  8
MOJI
 10
5697.7784061464718
 20
2178.4374546745198
 30
0.0
 40
60.0
  1
品  名
 41
0.8
  7
EXT08
 72
     1
 11
5776.1784061464714
 21
2178.4374546745198
 31
0.0
  0
LINE
  5
1F58E
  8
MOJI
 10
5549.7012766376429
 20
1361.5036701292261
 30
0.0
 11
5549.7012766376429
 21
2261.503670129227
 31
0.0
  0
LINE
  5
1F58F
  8
MOJI
 10
6001.0113494697152
 20
1361.5036701292261
 30
0.0
 11
6001.0113494697116
 21
2261.503670129227
 31
0.0
  0
LINE
  5
1F590
  8
MOJI
 10
6370.3806542270086
 20
1361.5036701292261
 30
0.0
 11
6370.3806542270113
 21
2261.503670129227
 31
0.0
  0
LINE
  5
1F591
  8
MOJI
 10
7183.4057366918851
 20
1561.5036701292261
 30
0.0
 11
5549.7012766376429
 21
1561.5036701292261
 31
0.0
  0
LINE
  5
1F592
  8
MOJI
 10
7183.4057366918851
 20
1761.5036701292261
 30
0.0
 11
5549.7012766376429
 21
1761.5036701292261
 31
0.0
  0
LINE
  5
1F593
  8
MOJI
 10
7183.4057366918851
 20
1861.5036701292261
 30
0.0
 11
5549.7012766376429
 21
1861.5036701292261
 31
0.0
  0
LINE
  5
1F594
  8
MOJI
 10
7183.4057366918851
 20
1961.5036701292261
 30
0.0
 11
5549.7012766376429
 21
1961.5036701292261
 31
0.0
  0
LINE
  5
1F595
  8
MOJI
 10
7183.4057366918851
 20
2061.5036701292261
 30
0.0
 11
5549.7012766376429
 21
2061.5036701292261
 31
0.0
  0
LINE
  5
1F596
  8
MOJI
 10
7183.4057366918851
 20
2161.5036701292261
 30
0.0
 11
5549.7012766376429
 21
2161.5036701292261
 31
0.0
  0
TEXT
  5
1F597
  8
MOJI
 10
5958.2323429316721
 20
2080.3077050726101
 30
0.0
 40
60.0
  1
   STK400
 41
0.8
  7
EXT08
 72
     1
 11
6178.346628645957
 21
2080.3077050726101
 31
0.0
  0
TEXT
  5
1F598
  8
MOJI
 10
5958.2323429316721
 20
1979.5212338125741
 30
0.0
 40
60.0
  1
   STK400
 41
0.8
  7
EXT08
 72
     1
 11
6178.346628645957
 21
1979.5212338125741
 31
0.0
  0
TEXT
  5
1F599
  8
MOJI
 10
5958.232342931673
 20
1881.225361527293
 30
0.0
 40
60.0
  1
   SGH400
 41
0.8
  7
EXT08
 72
     1
 11
6185.2037715031001
 21
1881.225361527293
 31
0.0
  0
LINE
  5
1F59A
  8
MOJI
 10
7183.4057366918869
 20
1461.5036701292261
 30
0.0
 11
5549.7012766376429
 21
1461.5036701292261
 31
0.0
  0
LINE
  5
1F59B
  8
MOJI
 10
7183.4057366918851
 20
1361.5036701292261
 30
0.0
 11
5549.701276637642
 21
1361.5036701292261
 31
0.0
  0
TEXT
  5
1F59C
  8
MOJI
 10
5645.9673774801622
 20
1386.021453253077
 30
0.0
 40
60.0
  1
取付ボルト
 41
0.8
  7
EXT08
 72
     1
 11
5778.7673774801624
 21
1386.021453253077
 31
0.0
  0
TEXT
  5
1F59D
  8
MOJI
 10
5610.8159129413762
 20
1683.1398424912511
 30
0.0
 40
60.0
  1
 角根ボルト　
 41
0.8
  7
EXT08
 72
     1
 11
5774.015912941376
 21
1683.1398424912511
 31
0.0
  0
TEXT
  5
1F59E
  8
MOJI
 10
5583.1065156887289
 20
1483.5036701292261
 30
0.0
 40
60.0
  1
ナットアンカー
 41
0.8
  7
EXT08
 72
     1
 11
5778.3065156887287
 21
1483.5036701292261
 31
0.0
  0
TEXT
  5
1F59F
  8
MOJI
 10
5606.1890715974496
 20
1979.5216915761771
 30
0.0
 40
60.0
  1
ビームパイプ
 41
0.8
  7
EXT08
 72
     1
 11
5777.0462144545927
 21
1979.5216915761771
 31
0.0
  0
TEXT
  5
1F5A0
  8
MOJI
 10
5627.3334453349207
 20
1881.226124466692
 30
0.0
 40
60.0
  1
43PF金具
 41
0.8
  7
EXT08
 72
     1
 11
5772.2477310492068
 21
1881.226124466692
 31
0.0
  0
TEXT
  5
1F5A1
  8
MOJI
 10
5644.0085933578366
 20
1776.348258871916
 30
0.0
 40
60.0
  1
取付ボルト
 41
0.8
  7
EXT08
 72
     1
 11
5776.8085933578377
 21
1776.348258871916
 31
0.0
  0
TEXT
  5
1F5A2
  8
MOJI
 10
5695.1651161243208
 20
2080.3077050726101
 30
0.0
 40
60.0
  1
支  柱
 41
0.8
  7
EXT08
 72
     1
 11
5775.1651161243208
 21
2080.3077050726101
 31
0.0
  0
TEXT
  5
1F5A3
  8
MOJI
 10
6425.9579129014128
 20
1678.0719994230999
 30
0.0
 40
60.0
  1
溶融亜鉛めっき M12×65
 41
0.8
  7
EXT08
 72
     1
 11
6786.1864843299836
 21
1678.0719994230999
 31
0.0
  0
TEXT
  5
1F5A4
  8
MOJI
 10
6361.6023037827363
 20
1381.5036701292261
 30
0.0
 40
60.0
  1
　溶融亜鉛めっき  M12×30
 41
0.8
  7
EXT08
 72
     1
 11
6793.8308752113089
 21
1381.5036701292261
 31
0.0
  0
TEXT
  5
1F5A5
  8
MOJI
 10
6437.7933432241889
 20
1481.5036701292261
 30
0.0
 40
60.0
  1
　溶融亜鉛めっき  M12
 41
0.8
  7
EXT08
 72
     1
 11
6795.5076289384751
 21
1481.5036701292261
 31
0.0
  0
TEXT
  5
1F5A6
  8
MOJI
 10
6084.514102549475
 20
1381.5036701292261
 30
0.0
 40
60.0
  1
4.6相当
 41
0.8
  7
EXT08
 72
     1
 11
6194.6855311209038
 21
1381.5036701292261
 31
0.0
  0
TEXT
  5
1F5A7
  8
MOJI
 10
5988.6057449449081
 20
1675.458816169255
 30
0.0
 40
60.0
  1
   4.6相当
 41
0.8
  7
EXT08
 72
     1
 11
6185.1771735163356
 21
1675.458816169255
 31
0.0
  0
TEXT
  5
1F5A8
  8
MOJI
 10
6425.9579129014128
 20
1778.0719994230999
 30
0.0
 40
60.0
  1
溶融亜鉛めっき M12×80
 41
0.8
  7
EXT08
 72
     1
 11
6786.1864843299836
 21
1778.0719994230999
 31
0.0
  0
TEXT
  5
1F5A9
  8
MOJI
 10
6451.0884971584628
 20
1977.3669885209999
 30
0.0
 40
60.0
  1
亜鉛めっき＋静電粉体塗装
 41
0.8
  7
EXT08
 72
     1
 11
6790.2884971584626
 21
1977.3669885209999
 31
0.0
  0
TEXT
  5
1F5AA
  8
MOJI
 10
6451.0884971584628
 20
2078.1534597810391
 30
0.0
 40
60.0
  1
亜鉛めっき＋静電粉体塗装
 41
0.8
  7
EXT08
 72
     1
 11
6790.2884971584626
 21
2078.1534597810391
 31
0.0
  0
TEXT
  5
1F5AB
  8
MOJI
 10
6451.0884971584628
 20
1879.0711162357179
 30
0.0
 40
60.0
  1
亜鉛めっき＋静電粉体塗装
 41
0.8
  7
EXT08
 72
     1
 11
6790.2884971584626
 21
1879.0711162357179
 31
0.0
  0
TEXT
  5
1F5AC
  8
MOJI
 10
5988.6057449449081
 20
1775.458816169255
 30
0.0
 40
60.0
  1
   4.6相当
 41
0.8
  7
EXT08
 72
     1
 11
6185.1771735163356
 21
1775.458816169255
 31
0.0
  0
LINE
  5
1F5AD
  8
MOJI
 10
7183.4057366918851
 20
2261.503670129227
 30
0.0
 11
5549.7012766376429
 21
2261.503670129227
 31
0.0
  0
LINE
  5
1F5AE
  8
MOJI
 10
7183.4057366918851
 20
1661.5036701292261
 30
0.0
 11
5549.7012766376429
 21
1661.5036701292261
 31
0.0
  0
TEXT
  5
1F5AF
  8
MOJI
 10
6137.144157529925
 20
1578.1739964748231
 30
0.0
 40
60.0
  1
PE
 41
0.8
  7
EXT08
 72
     1
 11
6185.1441575299259
 21
1578.1739964748231
 31
0.0
  0
TEXT
  5
1F5B0
  8
MOJI
 10
5608.8862913555922
 20
1576.632685633223
 30
0.0
 40
60.0
  1
頭部キャップ
 41
0.8
  7
EXT08
 72
     1
 11
5774.9434342127352
 21
1576.632685633223
 31
0.0
  0
TEXT
  5
1F5B1
  8
MOJI
 10
6682.1755093584534
 20
1577.875919493184
 30
0.0
 40
60.0
  1
着色樹脂
 41
0.8
  7
EXT08
 72
     1
 11
6790.9755093584527
 21
1577.875919493184
 31
0.0
  0
INSERT
  5
1F645
  8
0
  2
*U53
 10
0.0
 20
0.0
 30
0.0
1001
ACAD
1000
DSTYLE
1002
{
1070
     5
1000

1070
    40
1040
20.0
1070
    41
1040
2.0
1070
    42
1040
1.0
1070
    43
1040
6.0
1070
    44
1040
1.0
1070
    73
1070
     0
1070
    74
1070
     0
1070
    77
1070
     0
1070
    78
1070
     8
1070
   140
1040
3.0
1070
   147
1040
1.1999999999999991
1070
   172
1070
     1
1070
   271
1070
     2
1070
   279
1070
     2
1070
   340
1005
1372
1070
   342
1005
0
1002
}
  0
TEXT
  5
1F646
  8
MOJI
 10
3901.4398604711282
 20
1146.6168557284871
 30
0.0
 40
60.0
  1
%%c50
 41
0.8
  7
EXT08
 72
     2
 11
4029.4398604711282
 21
1176.6168557284871
 31
0.0
 73
     2
  0
LINE
  5
1F647
  8
MOJI
 10
4031.8403804622421
 20
1126.6168557284871
 30
0.0
 11
3888.5856855817779
 21
1126.6168557284871
 31
0.0
  0
LINE
  5
2020C
  8
SJC
 10
861.75795586019922
 20
422.02188287510938
 30
0.0
 11
861.75795586019922
 21
2617.190147402755
 31
0.0
  0
LINE
  5
2020D
  8
SJC
 10
1103.7580743246001
 20
2617.190147402755
 30
0.0
 11
1103.7580743246001
 21
2523.973819171817
 31
0.0
  0
POLYLINE
  5
2020E
  8
SJC2
 66
     1
 10
0.0
 20
0.0
 30
0.0
  0
VERTEX
  5
20FAB
  8
SJC2
 10
861.75795586019922
 20
2421.1905142695541
 30
0.0
  0
VERTEX
  5
20FAC
  8
SJC2
 10
852.55751654419873
 20
2421.1905142695541
 30
0.0
  0
VERTEX
  5
20FAD
  8
SJC2
 10
852.55751654419873
 20
2509.190390887954
 30
0.0
  0
VERTEX
  5
20FAE
  8
SJC2
 10
861.75795586019922
 20
2509.190390887954
 30
0.0
  0
SEQEND
  5
20FAF
  8
SJC2
  0
LINE
  5
2020F
  8
SJC2
 10
852.55751654419873
 20
2423.1906363099552
 30
0.0
 11
826.55727231419939
 21
2423.1906363099552
 31
0.0
  0
LINE
  5
20210
  8
SJC2
 10
820.55751654419862
 20
2429.1903920799532
 30
0.0
 11
820.55751654419862
 21
2501.191123428755
 31
0.0
  0
ARC
  5
20211
  8
SJC2
 10
826.55751668819914
 20
2429.1906364539541
 30
0.0
 40
6.000000149199999
 50
180.00233360030001
 51
269.99766639960001
  0
ARC
  5
20212
  8
SJC2
 10
828.55751654339838
 20
2445.1902698895542
 30
0.0
 40
8.0
 50
180.00087511129999
 51
269.99912488870001
  0
ARC
  5
20213
  8
SJC2
 10
828.55751654339838
 20
2429.1902698911549
 30
0.0
 40
8.0
 50
90.00087511129999
 51
179.99912488870001
  0
LINE
  5
20214
  8
SJC2
 10
852.55751654419873
 20
2437.1902698903541
 30
0.0
 11
828.55739435460055
 21
2437.1902698903541
 31
0.0
  0
LINE
  5
20215
  8
SJC2
 10
826.55483090780035
 20
2507.193320605154
 30
0.0
 11
852.55751654419873
 21
2507.1896584959541
 31
0.0
  0
LINE
  5
20216
  8
SJC2
 10
852.55751654419873
 20
2493.1906352667538
 30
0.0
 11
828.55739435460055
 21
2493.1906352667538
 31
0.0
  0
ARC
  5
20217
  8
SJC2
 10
826.55751668819914
 20
2501.1908790547541
 30
0.0
 40
6.000000149199999
 50
90.002333600400007
 51
179.99766639969999
  0
ARC
  5
20218
  8
SJC2
 10
828.55751654339838
 20
2501.1906352659539
 30
0.0
 40
8.0
 50
180.00087511129999
 51
269.99912488870001
  0
ARC
  5
20219
  8
SJC2
 10
828.55751652939955
 20
2485.1906352679548
 30
0.0
 40
8.0
 50
90.000875011299996
 51
180.00349620969999
  0
LINE
  5
2021A
  8
CENTER
 10
784.68883421739883
 20
2465.190147402755
 30
0.0
 11
1333.7580743246001
 21
2465.190147402755
 31
0.0
  0
LINE
  5
2021B
  8
CENTER
 10
982.75801509219855
 20
325.40536820150737
 30
0.0
 11
982.75801509219855
 21
2759.190147402755
 31
0.0
  0
LINE
  5
2021C
  8
SJC
 10
1103.7580743246001
 20
650.63114755274717
 30
0.0
 11
1103.7580743246001
 21
650.63114755274717
 31
0.0
  0
LINE
  5
2021D
  8
SJC
 10
861.75795586019922
 20
650.63114755274717
 30
0.0
 11
861.75795586019922
 21
650.63114755274717
 31
0.0
  0
LINE
  5
2021E
  8
SJC
 10
2577.3805601893082
 20
2550.5904316613892
 30
0.0
 11
3145.3805482681082
 21
2550.5935885131548
 31
0.0
  0
LINE
  5
2021F
  8
SJC
 10
2577.3805601893082
 20
2379.790221920211
 30
0.0
 11
3145.3805482681082
 21
2379.7876218199531
 31
0.0
  0
LINE
  5
20220
  8
SJC
 10
2224.3805009569069
 20
2556.990147402757
 30
0.0
 11
2224.3805009569078
 21
2617.190147402755
 31
0.0
  0
LINE
  5
20221
  8
SJC
 10
2466.380619421308
 20
2617.190147402755
 30
0.0
 11
2466.380619421308
 21
2556.990147402757
 31
0.0
  0
LINE
  5
20222
  8
SJC
 10
3021.7428547981081
 20
2379.7900632263559
 30
0.0
 11
3021.7428547981081
 21
2379.7900632263559
 31
0.0
  0
POLYLINE
  5
20223
  8
SJC
 66
     1
 10
0.0
 20
0.0
 30
0.0
  0
VERTEX
  5
20FB0
  8
SJC
 10
2789.4427720531962
 20
2550.5906662255838
 30
0.0
  0
VERTEX
  5
20FB1
  8
SJC
 10
2787.117822580592
 20
2545.242941619952
 30
0.0
  0
VERTEX
  5
20FB2
  8
SJC
 10
2785.369165380192
 20
2537.9983738571541
 30
0.0
  0
VERTEX
  5
20FB3
  8
SJC
 10
2783.6205081793928
 20
2531.5027074499521
 30
0.0
  0
VERTEX
  5
20FB4
  8
SJC
 10
2782.1214847641909
 20
2522.7591162715548
 30
0.0
  0
VERTEX
  5
20FB5
  8
SJC
 10
2781.1223392713919
 20
2515.0143654103522
 30
0.0
  0
VERTEX
  5
20FB6
  8
SJC
 10
2779.8729496417918
 20
2506.020835271157
 30
0.0
  0
VERTEX
  5
20FB7
  8
SJC
 10
2779.1234379341922
 20
2497.5265727023552
 30
0.0
  0
VERTEX
  5
20FB8
  8
SJC
 10
2779.1234379341922
 20
2489.7824321927551
 30
0.0
  0
VERTEX
  5
20FB9
  8
SJC
 10
2780.3728275637918
 20
2482.537254077954
 30
0.0
  0
VERTEX
  5
20FBA
  8
SJC
 10
2781.3713627053912
 20
2475.292686314755
 30
0.0
  0
VERTEX
  5
20FBB
  8
SJC
 10
2782.621362686592
 20
2467.797569239156
 30
0.0
  0
VERTEX
  5
20FBC
  8
SJC
 10
2782.8703861201921
 20
2459.8034897683542
 30
0.0
  0
VERTEX
  5
20FBD
  8
SJC
 10
2782.3711185497932
 20
2452.5589220051561
 30
0.0
  0
VERTEX
  5
20FBE
  8
SJC
 10
2781.3713627053912
 20
2446.3131945591531
 30
0.0
  0
VERTEX
  5
20FBF
  8
SJC
 10
2778.8738041485922
 20
2437.3196644195559
 30
0.0
  0
VERTEX
  5
20FC0
  8
SJC
 10
2776.874902811393
 20
2430.324425266354
 30
0.0
  0
VERTEX
  5
20FC1
  8
SJC
 10
2775.3764897477922
 20
2423.3294912883539
 30
0.0
  0
VERTEX
  5
20FC2
  8
SJC
 10
2774.127100117792
 20
2414.3356559731551
 30
0.0
  0
VERTEX
  5
20FC3
  8
SJC
 10
2772.877710488192
 20
2407.8399895659541
 30
0.0
  0
VERTEX
  5
20FC4
  8
SJC
 10
2772.1281987805919
 20
2401.5945672959569
 30
0.0
  0
VERTEX
  5
20FC5
  8
SJC
 10
2771.8785649949918
 20
2392.8509761175551
 30
0.0
  0
VERTEX
  5
20FC6
  8
SJC
 10
2772.378442917392
 20
2385.8557369639529
 30
0.0
  0
VERTEX
  5
20FC7
  8
SJC
 10
2773.348778477337
 20
2379.790102396968
 30
0.0
  0
SEQEND
  5
20FC8
  8
SJC
  0
LINE
  5
20224
  8
SJC
 10
2577.3805601893082
 20
2541.3897922635551
 30
0.0
 11
2786.1877688373052
 21
2541.3897922635551
 31
0.0
  0
LINE
  5
20225
  8
SJC
 10
2577.3805601893082
 20
2388.9911128939571
 30
0.0
 11
2772.1543897904839
 21
2388.9911128939571
 31
0.0
  0
LINE
  5
20226
  8
CENTER
 10
2345.3805601893068
 20
2759.190147402755
 30
0.0
 11
2345.3805601893068
 21
325.40536820150737
 31
0.0
  0
LINE
  5
20227
  8
SJC
 10
2466.380619421308
 20
650.63114755274717
 30
0.0
 11
2466.380619421308
 21
650.63114755274717
 31
0.0
  0
LINE
  5
20228
  8
SJC
 10
2224.3805009569078
 20
650.63114755274717
 30
0.0
 11
2224.3805009569078
 21
650.63114755274717
 31
0.0
  0
LINE
  5
20229
  8
MOJI2
 10
1483.0880185844101
 20
3082.8134292151558
 30
0.0
 11
1725.5284796632179
 21
3082.8134292151558
 31
0.0
  0
TEXT
  5
2022A
  8
MOJI2
 10
1492.4511327234809
 20
3096.7850903495928
 30
0.0
 40
80.0
  1
支柱図 (1/5)
 41
0.8
  7
EXT08
  0
LINE
  5
2022B
  8
SJC
 10
1103.7580743246001
 20
2413.5854964495711
 30
0.0
 11
1103.7580743246001
 21
1123.9738352650161
 31
0.0
  0
LINE
  5
2022C
  8
CENTER
 10
784.68883421739883
 20
1065.190163495954
 30
0.0
 11
1333.7580743246001
 21
1065.190163495954
 31
0.0
  0
ARC
  5
2022D
  8
SJC
 10
1890.7806443660829
 20
1065.1902277830879
 30
0.0
 40
85.400084176800007
 50
90.0
 51
270.0
  0
LINE
  5
2022E
  8
SJC
 10
2757.3805601893032
 20
1150.5914118620419
 30
0.0
 11
3145.3805482681082
 21
1150.5936046063539
 31
0.0
  0
LINE
  5
2022F
  8
SJC
 10
2757.3805601893141
 20
979.78939210883607
 30
0.0
 11
3145.3805482681082
 21
979.78763791315578
 31
0.0
  0
LINE
  5
20230
  8
SJC
 10
1933.380562202884
 20
1150.590617135887
 30
0.0
 11
1890.7806443660829
 21
1150.5903119598879
 31
0.0
  0
LINE
  5
20231
  8
SJC
 10
1933.380562202884
 20
979.79014360668577
 30
0.0
 11
1890.7806443660829
 21
979.7901436062856
 31
0.0
  0
LINE
  5
20232
  8
SJC
 10
2224.3805009569078
 20
1156.9901634959569
 30
0.0
 11
2224.3805009569078
 21
2369.9901474769581
 31
0.0
  0
LINE
  5
20233
  8
SJC
 10
2466.380619421308
 20
2369.9901474769581
 30
0.0
 11
2466.380619421308
 21
1156.9901634959569
 31
0.0
  0
LINE
  5
20234
  8
CENTER
 10
1745.3805601893071
 20
1065.190163495954
 30
0.0
 11
3218.2784964009079
 21
1065.190163495954
 31
0.0
  0
LINE
  5
20235
  8
SJC
 10
1103.7580743246001
 20
1013.585512542769
 30
0.0
 11
1103.7580743246001
 21
422.02188287510938
 31
0.0
  0
LINE
  5
20236
  8
SJC
 10
2224.3805009569078
 20
422.02188287510938
 30
0.0
 11
2224.3805009569078
 21
969.99016357015705
 31
0.0
  0
LINE
  5
20237
  8
SJC
 10
2466.380619421308
 20
969.99016357015705
 30
0.0
 11
2466.380619421308
 21
422.02188287510938
 31
0.0
  0
LINE
  5
20238
  8
MOJI2
 10
1483.0880185844101
 20
3062.8134292151558
 30
0.0
 11
1725.5284796632179
 21
3062.8134292151558
 31
0.0
  0
TEXT
  5
20239
  8
MOJI
 10
3090.3095367632241
 20
2640.7360386808718
 30
0.0
 40
60.0
  1
%%C42.7×t2.3
 41
0.8
  7
EXT08
  0
LINE
  5
2023A
  8
MOJI
 10
3048.3546126337128
 20
2725.7463287662208
 30
0.0
 11
3570.2661230132621
 21
2725.7463287662208
 31
0.0
  0
TEXT
  5
2023B
  8
MOJI
 10
2757.1941617813
 20
488.03301047781127
 30
0.0
 40
60.0
  1
支柱 %%C60.5×t3.2
 41
0.8
  7
EXT08
  0
LINE
  5
2023C
  8
MOJI
 10
2721.6912024772569
 20
464.8316782614711
 30
0.0
 11
3314.4831533290821
 21
464.8316782614711
 31
0.0
  0
TEXT
  5
2023D
  8
MOJI
 10
1679.7029990121321
 20
1413.660120795055
 30
0.0
 40
60.0
  1
角根ボルト
 41
0.8
  7
EXT08
  0
TEXT
  5
2023E
  8
MOJI
 10
1653.6986699387869
 20
1301.3540657760891
 30
0.0
 40
60.0
  1
M12×65
 41
0.8
  7
EXT08
  0
LINE
  5
2023F
  8
MOJI
 10
1612.823399081529
 20
1385.8772506385681
 30
0.0
 11
1975.0088218292201
 21
1385.8772506385681
 31
0.0
  0
TEXT
  5
20240
  8
MOJI
 10
3131.0736658172232
 20
2749.9246180111882
 30
0.0
 40
60.0
  1
ビームパイプ
 41
0.8
  7
EXT08
  0
LINE
  5
20241
  8
MOJI
 10
2882.0482298618122
 20
763.60541154653765
 30
0.0
 11
3229.5148582754491
 21
763.60541154653765
 31
0.0
  0
TEXT
  5
20242
  8
MOJI
 10
2924.0534248518202
 20
785.97499437874637
 30
0.0
 40
60.0
  1
43PF金具
 41
0.8
  7
EXT08
  0
INSERT
  5
20243
  8
0
  2
*U54
 10
0.0
 20
0.0
 30
0.0
1001
ACAD
1000
DSTYLE
1002
{
1070
    40
1040
20.0
1070
    41
1040
2.0
1070
    42
1040
1.0
1070
    43
1040
6.0
1070
    44
1040
1.0
1070
    73
1070
     0
1070
    74
1070
     0
1070
    77
1070
     0
1070
    78
1070
     8
1070
   140
1040
3.0
1070
   147
1040
1.1999999999999991
1070
   172
1070
     1
1070
   179
1070
     2
1070
   271
1070
     2
1070
   279
1070
     2
1070
   340
1005
1372
1002
}
  0
INSERT
  5
20244
  8
0
  2
*U55
 10
0.0
 20
0.0
 30
0.0
1001
ACAD
1000
DSTYLE
1002
{
1070
    40
1040
20.0
1070
    41
1040
2.0
1070
    42
1040
1.0
1070
    43
1040
6.0
1070
    44
1040
1.0
1070
    73
1070
     0
1070
    74
1070
     0
1070
    77
1070
     0
1070
    78
1070
     8
1070
   140
1040
3.0
1070
   147
1040
1.1999999999999991
1070
   172
1070
     1
1070
   179
1070
     2
1070
   271
1070
     2
1070
   279
1070
     2
1070
   340
1005
1372
1002
}
  0
INSERT
  5
20245
  8
0
  2
*U56
 10
0.0
 20
0.0
 30
0.0
1001
ACAD
1000
DSTYLE
1002
{
1070
    40
1040
20.0
1070
    41
1040
2.0
1070
    42
1040
1.0
1070
    43
1040
6.0
1070
    44
1040
1.0
1070
    73
1070
     0
1070
    74
1070
     0
1070
    77
1070
     0
1070
    78
1070
     8
1070
   140
1040
3.0
1070
   147
1040
1.1999999999999991
1070
   172
1070
     1
1070
   179
1070
     2
1070
   271
1070
     2
1070
   279
1070
     2
1070
   340
1005
1372
1002
}
  0
INSERT
  5
20246
  8
0
  2
*U57
 10
0.0
 20
0.0
 30
0.0
1001
ACAD
1000
DSTYLE
1002
{
1070
    40
1040
20.0
1070
    41
1040
2.0
1070
    42
1040
1.0
1070
    43
1040
6.0
1070
    44
1040
1.0
1070
    73
1070
     0
1070
    74
1070
     0
1070
    77
1070
     0
1070
    78
1070
     8
1070
   140
1040
3.0
1070
   147
1040
1.1999999999999991
1070
   172
1070
     1
1070
   179
1070
     2
1070
   271
1070
     2
1070
   279
1070
     2
1070
   340
1005
1372
1002
}
  0
ARC
  5
20247
  8
SJC
 10
922.25798547629938
 20
500.9507099886759
 30
0.0
 40
99.448546158665465
 50
232.5293396717305
 51
307.47066032826962
  0
ARC
  5
20248
  8
SJC
 10
922.25798547629938
 20
343.09305576154293
 30
0.0
 40
99.448546158665465
 50
52.529339671730419
 51
127.4706603282695
  0
ARC
  5
20249
  8
SJC
 10
1043.2580447084999
 20
500.9507099886759
 30
0.0
 40
99.448546158665465
 50
232.5293396717305
 51
307.47066032826962
  0
ARC
  5
2024A
  8
SJC
 10
2284.8805305730079
 20
500.9507099886759
 30
0.0
 40
99.448546158665465
 50
232.5293396717305
 51
307.47066032826962
  0
ARC
  5
2024B
  8
SJC
 10
2284.8805305730079
 20
343.09305576154293
 30
0.0
 40
99.448546158665465
 50
52.529339671730419
 51
127.4706603282695
  0
ARC
  5
2024C
  8
SJC
 10
2405.8805898052078
 20
500.9507099886759
 30
0.0
 40
99.448546158665465
 50
232.5293396717305
 51
307.47066032826962
  0
ARC
  5
2024D
  8
SJC
 10
3101.8545536936681
 20
2507.8918679579551
 30
0.0
 40
60.974987839839009
 50
315.54768914995458
 51
44.452310850045151
  0
ARC
  5
2024E
  8
SJC
 10
3188.906542842547
 20
2507.8918679579551
 30
0.0
 40
60.974987839839009
 50
135.54768914995481
 51
224.45231085004539
  0
ARC
  5
2024F
  8
SJC
 10
3101.8545536936681
 20
2422.488884611354
 30
0.0
 40
60.974987839839009
 50
315.54768914995458
 51
44.452310850045151
  0
ARC
  5
20250
  8
SJC
 10
3101.8545536936681
 20
1107.891884051154
 30
0.0
 40
60.974987839839009
 50
315.54768914995458
 51
44.452310850045151
  0
ARC
  5
20251
  8
SJC
 10
3188.906542842547
 20
1107.891884051154
 30
0.0
 40
60.974987839839009
 50
135.54768914995481
 51
224.45231085004539
  0
ARC
  5
20252
  8
SJC
 10
3101.8545536936681
 20
1022.488900704557
 30
0.0
 40
60.974987839839009
 50
315.54768914995458
 51
44.452310850045151
  0
POLYLINE
  5
20253
  8
SJC2
 66
     1
 10
0.0
 20
0.0
 30
0.0
  0
VERTEX
  5
20FE9
  8
SJC2
 10
861.75795586019922
 20
1021.190530362753
 30
0.0
  0
VERTEX
  5
20FEA
  8
SJC2
 10
852.55751654419873
 20
1021.190530362753
 30
0.0
  0
VERTEX
  5
20FEB
  8
SJC2
 10
852.55751654419873
 20
1109.190406981153
 30
0.0
  0
VERTEX
  5
20FEC
  8
SJC2
 10
861.75795586019922
 20
1109.190406981153
 30
0.0
  0
SEQEND
  5
20FED
  8
SJC2
  0
LINE
  5
20254
  8
SJC2
 10
852.55751654419873
 20
1023.190652403155
 30
0.0
 11
826.55727231419939
 21
1023.190652403155
 31
0.0
  0
LINE
  5
20255
  8
SJC2
 10
820.55751654419862
 20
1029.190408173155
 30
0.0
 11
820.55751654419862
 21
1101.191139521954
 31
0.0
  0
ARC
  5
20256
  8
SJC2
 10
826.55751668819914
 20
1029.190652547157
 30
0.0
 40
6.000000149199999
 50
180.00233360030001
 51
269.99766639960001
  0
ARC
  5
20257
  8
SJC2
 10
828.55751654339838
 20
1045.190285982753
 30
0.0
 40
8.0
 50
180.00087511129999
 51
269.99912488870001
  0
ARC
  5
20258
  8
SJC2
 10
828.55751654339838
 20
1029.190285984354
 30
0.0
 40
8.0
 50
90.00087511129999
 51
179.99912488870001
  0
LINE
  5
20259
  8
SJC2
 10
852.55751654419873
 20
1037.1902859835541
 30
0.0
 11
828.55739435460055
 21
1037.1902859835541
 31
0.0
  0
LINE
  5
2025A
  8
SJC2
 10
826.55483090780035
 20
1107.193336698354
 30
0.0
 11
852.55751654419873
 21
1107.1896745891529
 31
0.0
  0
LINE
  5
2025B
  8
SJC2
 10
852.55751654419873
 20
1093.1906513599531
 30
0.0
 11
828.55739435460055
 21
1093.1906513599531
 31
0.0
  0
ARC
  5
2025C
  8
SJC2
 10
826.55751668819914
 20
1101.1908951479561
 30
0.0
 40
6.000000149199999
 50
90.002333600400007
 51
179.99766639969999
  0
ARC
  5
2025D
  8
SJC2
 10
828.55751654339838
 20
1101.190651359153
 30
0.0
 40
8.0
 50
180.00087511129999
 51
269.99912488870001
  0
ARC
  5
2025E
  8
SJC2
 10
828.55751652939955
 20
1085.1906513611541
 30
0.0
 40
8.0
 50
90.000875011299996
 51
180.00349620969999
  0
ARC
  5
2025F
  8
SJC
 10
1183.7580743246001
 20
1065.190163495954
 30
0.0
 40
86.0
 50
1.332490017086295
 51
90.0
  0
ARC
  5
20260
  8
SJC
 10
1183.7580743246001
 20
1065.190163495954
 30
0.0
 40
92.400000000000006
 50
1.332490017086295
 51
90.0
  0
LINE
  5
20261
  8
SJC
 10
1269.7348185106459
 20
1067.1900282831671
 30
0.0
 11
1276.1330878453659
 21
1067.338855430123
 31
0.0
  0
LINE
  5
20262
  8
SJC
 10
1088.558074324603
 20
1104.3747664964501
 30
0.0
 11
1097.7580743246001
 21
1104.3747664964501
 31
0.0
  0
LINE
  5
20263
  8
SJC
 10
1097.7580743246001
 20
1065.190163495954
 30
0.0
 11
1097.7580743246001
 21
1104.3747664964501
 31
0.0
  0
LINE
  5
20264
  8
SJC
 10
1088.558074324603
 20
1065.190163495954
 30
0.0
 11
1088.558074324603
 21
1104.3747664964501
 31
0.0
  0
ARC
  5
20265
  8
SJC
 10
1183.7580743246001
 20
1065.190163495954
 30
0.0
 40
86.0
 50
180.0
 51
358.66750998291371
  0
ARC
  5
20266
  8
SJC
 10
1183.7580743246001
 20
1065.190163495954
 30
0.0
 40
95.200000000000017
 50
180.0
 51
358.66750998291371
  0
LINE
  5
20267
  8
SJC
 10
1269.7348185106459
 20
1063.1902987087481
 30
0.0
 11
1278.9323306793881
 21
1062.9763596849989
 31
0.0
  0
ARC
  5
20268
  8
SJC
 10
1183.7580743246001
 20
1045.590163495955
 30
0.0
 40
112.0
 50
90.0
 51
145.90430243887059
  0
ARC
  5
20269
  8
SJC
 10
1183.7580743246001
 20
1045.590163495955
 30
0.0
 40
105.59999999999999
 50
90.0
 51
143.5193577347882
  0
LINE
  5
2026A
  8
SJC
 10
1091.0106019813029
 20
1108.3747664964501
 30
0.0
 11
1098.8495728299381
 21
1108.3747664964501
 31
0.0
  0
POLYLINE
  5
2026B
  8
SJC2
 66
     1
 10
0.0
 20
0.0
 30
0.0
  0
VERTEX
  5
20FEE
  8
SJC2
 10
1139.7579834273999
 20
970.59016357016299
 30
0.0
  0
VERTEX
  5
20FEF
  8
SJC2
 10
1227.7577074578001
 20
970.59016357016299
 30
0.0
  0
VERTEX
  5
20FF0
  8
SJC2
 10
1227.7577074578001
 20
961.39033460573773
 30
0.0
  0
VERTEX
  5
20FF1
  8
SJC2
 10
1139.7579834273999
 20
961.39033460573773
 30
0.0
  0
VERTEX
  5
20FF2
  8
SJC2
 10
1139.7579834273999
 20
970.59016357013388
 30
0.0
  0
SEQEND
  5
20FF3
  8
SJC2
  0
LINE
  5
2026C
  8
SJC2
 10
1159.757830541399
 20
903.59022444155926
 30
0.0
 11
1165.7575863113959
 21
897.59016349595549
 31
0.0
  0
LINE
  5
2026D
  8
SJC2
 10
1165.7575863113959
 20
897.59016349595549
 30
0.0
 11
1201.757951985797
 21
897.59016349595549
 31
0.0
  0
ARC
  5
2026E
  8
SJC2
 10
1147.755664210599
 20
939.38740547933764
 30
0.0
 40
6.000000149199999
 50
179.99941938640001
 51
270.57788632913292
  0
LINE
  5
2026F
  8
SJC2
 10
1141.7556640617979
 20
939.38746628093566
 30
0.0
 11
1141.7587158194001
 21
961.38972425413886
 31
0.0
  0
LINE
  5
20270
  8
SJC2
 10
1159.757830541399
 20
933.38801568693816
 30
0.0
 11
1159.757830541399
 21
903.59022444155926
 31
0.0
  0
LINE
  5
20271
  8
SJC2
 10
1165.7575863113959
 20
933.38862603853693
 30
0.0
 11
1165.7575863113959
 21
897.59016349595549
 31
0.0
  0
ARC
  5
20272
  8
SJC2
 10
1163.7575864594039
 20
941.38801567213875
 30
0.0
 40
8.0
 50
180.0008750113
 51
270.00349620970002
  0
LINE
  5
20273
  8
SJC2
 10
1155.7575864605969
 20
961.39033460573773
 30
0.0
 11
1155.7575864605969
 21
941.38789349733634
 31
0.0
  0
ARC
  5
20274
  8
SJC2
 10
1149.7545345541951
 20
939.38771065613764
 30
0.0
 40
6.000000149199999
 50
269.99796232400001
 51
0.0005806023
  0
LINE
  5
20275
  8
SJC2
 10
1147.816179300956
 20
933.38771051093875
 30
0.0
 11
1219.7608814054031
 21
933.38771051093875
 31
0.0
  0
LINE
  5
20276
  8
SJC2
 10
1201.757951985797
 20
897.59016349595549
 30
0.0
 11
1207.757707755801
 21
903.59022444155926
 31
0.0
  0
LINE
  5
20277
  8
SJC2
 10
1201.757951985797
 20
933.38862603853693
 30
0.0
 11
1201.757951985797
 21
897.59016349595549
 31
0.0
  0
LINE
  5
20278
  8
SJC2
 10
1207.757707755801
 20
903.59022444155926
 30
0.0
 11
1207.757707755801
 21
933.3898467417348
 31
0.0
  0
ARC
  5
20279
  8
SJC2
 10
1203.757951837797
 20
941.38954156493492
 30
0.0
 40
8.0
 50
270.00087511129999
 51
359.99912488870001
  0
LINE
  5
2027A
  8
SJC2
 10
1211.757951836996
 20
961.39033460573773
 30
0.0
 11
1211.757951836996
 21
941.38972455213286
 31
0.0
  0
ARC
  5
2027B
  8
SJC2
 10
1219.7606370266001
 20
939.38740547933764
 30
0.0
 40
6.000000149199999
 50
270.00233364489998
 51
0.0005806136
  0
LINE
  5
2027C
  8
SJC2
 10
1225.760637175001
 20
939.38746628093566
 30
0.0
 11
1225.7569750657999
 21
961.38972425413886
 31
0.0
  0
ARC
  5
2027D
  8
SJC2
 10
1217.7616140949981
 20
939.38771064893444
 30
0.0
 40
6.000000149199999
 50
179.99941932740001
 51
270.00349478290002
  0
ARC
  5
2027E
  8
SJC2
 10
1183.7580743246001
 20
1090.6558251411441
 30
0.0
 40
86.897382381020705
 50
59.579364889457949
 51
120.42063511054189
  0
LINE
  5
2027F
  8
SJC2
 10
1139.7580743246001
 20
1157.590163495955
 30
0.0
 11
1227.7580743246001
 21
1157.590163495955
 31
0.0
  0
LINE
  5
20280
  8
SJC2
 10
1159.757830541399
 20
903.59022444155926
 30
0.0
 11
1207.757707755801
 21
903.59022444155926
 31
0.0
  0
LINE
  5
20281
  8
SJC2
 10
1139.7580743246001
 20
1157.590163495955
 30
0.0
 11
1139.7580743246001
 21
1165.590163495955
 31
0.0
  0
LINE
  5
20282
  8
SJC2
 10
1227.7580743246001
 20
1165.590163495955
 30
0.0
 11
1227.7580743246001
 21
1157.590163495955
 31
0.0
  0
LINE
  5
20283
  8
SJC2
 10
1139.7580743246001
 20
1165.590163495955
 30
0.0
 11
1227.7580743246001
 21
1165.590163495955
 31
0.0
  0
LINE
  5
20284
  8
CENTER
 10
1183.7580743246001
 20
1215.190163495954
 30
0.0
 11
1183.7580743246001
 21
885.19016349595404
 31
0.0
  0
CIRCLE
  5
20285
  8
SJC2
 10
1183.7580743246001
 20
1065.190163495954
 30
0.0
 40
85.400000000000006
  0
CIRCLE
  5
20286
  8
SJC2
 10
1183.7580743246001
 20
1065.190163495954
 30
0.0
 40
76.200000000000003
  0
LINE
  5
20287
  8
SJC2
 10
1201.7579519857991
 20
1041.1902248887559
 30
0.0
 11
1207.7577077558001
 21
1051.582680788757
 31
0.0
  0
LINE
  5
20288
  8
SJC2
 10
1207.7577077558001
 20
1041.1902248887559
 30
0.0
 11
1159.757830541399
 21
1041.1902248887559
 31
0.0
  0
LINE
  5
20289
  8
SJC2
 10
1165.7575863114
 20
1041.1902248887559
 30
0.0
 11
1159.758440892999
 21
1051.582680788757
 31
0.0
  0
LINE
  5
2028A
  8
SJC2
 10
1159.757830541399
 20
1137.5118611452419
 30
0.0
 11
1159.757830541399
 21
992.86846584666625
 31
0.0
  0
LINE
  5
2028B
  8
SJC2
 10
1165.7575863113991
 20
991.14678375262883
 30
0.0
 11
1165.7575863114
 21
1041.1902248887559
 31
0.0
  0
LINE
  5
2028C
  8
SJC2
 10
1207.7577077558001
 20
992.86826330178155
 30
0.0
 11
1207.7577077558001
 21
1137.5120636901261
 31
0.0
  0
LINE
  5
2028D
  8
SJC2
 10
1201.7579519857991
 20
991.14663537425076
 30
0.0
 11
1201.7579519857991
 21
1041.1902248887559
 31
0.0
  0
LINE
  5
2028E
  8
SJC2
 10
1207.7577077558001
 20
973.06493570699229
 30
0.0
 11
1207.7577077558001
 21
970.59016357016299
 31
0.0
  0
LINE
  5
2028F
  8
SJC2
 10
1159.757830541399
 20
973.06509471255049
 30
0.0
 11
1159.757830541399
 21
970.59016357016299
 31
0.0
  0
LINE
  5
20290
  8
SJC2
 10
1165.7575863113991
 20
971.70742481502748
 30
0.0
 11
1165.7575863113991
 21
970.59016357016299
 31
0.0
  0
LINE
  5
20291
  8
SJC2
 10
1201.7579519857991
 20
971.70730729128991
 30
0.0
 11
1201.7579519857991
 21
970.59016357016299
 31
0.0
  0
ARC
  5
20292
  8
SJC
 10
1183.7580743246001
 20
2465.190147402755
 30
0.0
 40
86.0
 50
1.332490017086295
 51
90.0
  0
ARC
  5
20293
  8
SJC
 10
1183.7580743246001
 20
2465.190147402755
 30
0.0
 40
92.400000000000006
 50
1.332490017086295
 51
90.0
  0
LINE
  5
20294
  8
SJC
 10
1269.7348185106459
 20
2467.1900121899671
 30
0.0
 11
1276.1330878453659
 21
2467.3388393369241
 31
0.0
  0
LINE
  5
20295
  8
SJC
 10
1088.558074324603
 20
2504.3747504032508
 30
0.0
 11
1097.7580743246001
 21
2504.3747504032508
 31
0.0
  0
LINE
  5
20296
  8
SJC
 10
1097.7580743246001
 20
2465.190147402755
 30
0.0
 11
1097.7580743246001
 21
2504.3747504032508
 31
0.0
  0
LINE
  5
20297
  8
SJC
 10
1088.558074324603
 20
2465.190147402755
 30
0.0
 11
1088.558074324603
 21
2504.3747504032508
 31
0.0
  0
ARC
  5
20298
  8
SJC
 10
1183.7580743246001
 20
2465.190147402755
 30
0.0
 40
86.0
 50
180.0
 51
358.66750998291371
  0
ARC
  5
20299
  8
SJC
 10
1183.7580743246001
 20
2465.190147402755
 30
0.0
 40
95.200000000000017
 50
180.0
 51
358.66750998291371
  0
LINE
  5
2029A
  8
SJC
 10
1269.7348185106459
 20
2463.1902826155501
 30
0.0
 11
1278.9323306793881
 21
2462.9763435917998
 31
0.0
  0
ARC
  5
2029B
  8
SJC
 10
1183.7580743246001
 20
2445.590147402756
 30
0.0
 40
112.0
 50
90.0
 51
145.90430243887059
  0
ARC
  5
2029C
  8
SJC
 10
1183.7580743246001
 20
2445.590147402756
 30
0.0
 40
105.59999999999999
 50
90.0
 51
143.5193577347882
  0
LINE
  5
2029D
  8
SJC
 10
1091.0106019813029
 20
2508.3747504032508
 30
0.0
 11
1098.8495728299381
 21
2508.3747504032508
 31
0.0
  0
POLYLINE
  5
2029E
  8
SJC2
 66
     1
 10
0.0
 20
0.0
 30
0.0
  0
VERTEX
  5
20FF4
  8
SJC2
 10
1139.7579834273999
 20
2370.590147476963
 30
0.0
  0
VERTEX
  5
20FF5
  8
SJC2
 10
1227.7577074578001
 20
2370.590147476963
 30
0.0
  0
VERTEX
  5
20FF6
  8
SJC2
 10
1227.7577074578001
 20
2361.3903185125391
 30
0.0
  0
VERTEX
  5
20FF7
  8
SJC2
 10
1139.7579834273999
 20
2361.3903185125391
 30
0.0
  0
VERTEX
  5
20FF8
  8
SJC2
 10
1139.7579834273999
 20
2370.5901474769348
 30
0.0
  0
SEQEND
  5
20FF9
  8
SJC2
  0
LINE
  5
2029F
  8
SJC2
 10
1159.757830541399
 20
2303.5902083483602
 30
0.0
 11
1165.7575863113959
 21
2297.590147402756
 31
0.0
  0
LINE
  5
202A0
  8
SJC2
 10
1165.7575863113959
 20
2297.590147402756
 30
0.0
 11
1201.757951985797
 21
2297.590147402756
 31
0.0
  0
ARC
  5
202A1
  8
SJC2
 10
1147.755664210599
 20
2339.3873893861378
 30
0.0
 40
6.000000149199999
 50
179.99941938640001
 51
270.57788632913292
  0
LINE
  5
202A2
  8
SJC2
 10
1141.7556640617979
 20
2339.3874501877358
 30
0.0
 11
1141.7587158194001
 21
2361.3897081609398
 31
0.0
  0
LINE
  5
202A3
  8
SJC2
 10
1159.757830541399
 20
2333.3879995937391
 30
0.0
 11
1159.757830541399
 21
2303.5902083483602
 31
0.0
  0
LINE
  5
202A4
  8
SJC2
 10
1165.7575863113959
 20
2333.388609945338
 30
0.0
 11
1165.7575863113959
 21
2297.590147402756
 31
0.0
  0
ARC
  5
202A5
  8
SJC2
 10
1163.7575864594039
 20
2341.3879995789389
 30
0.0
 40
8.0
 50
180.0008750113
 51
270.00349620970002
  0
LINE
  5
202A6
  8
SJC2
 10
1155.7575864605969
 20
2361.3903185125391
 30
0.0
 11
1155.7575864605969
 21
2341.3878774041368
 31
0.0
  0
ARC
  5
202A7
  8
SJC2
 10
1149.7545345541951
 20
2339.387694562939
 30
0.0
 40
6.000000149199999
 50
269.99796232400001
 51
0.0005806023
  0
LINE
  5
202A8
  8
SJC2
 10
1147.816179300956
 20
2333.3876944177391
 30
0.0
 11
1219.7608814054031
 21
2333.3876944177391
 31
0.0
  0
LINE
  5
202A9
  8
SJC2
 10
1201.757951985797
 20
2297.590147402756
 30
0.0
 11
1207.757707755801
 21
2303.5902083483602
 31
0.0
  0
LINE
  5
202AA
  8
SJC2
 10
1201.757951985797
 20
2333.388609945338
 30
0.0
 11
1201.757951985797
 21
2297.590147402756
 31
0.0
  0
LINE
  5
202AB
  8
SJC2
 10
1207.757707755801
 20
2303.5902083483602
 30
0.0
 11
1207.757707755801
 21
2333.3898306485348
 31
0.0
  0
ARC
  5
202AC
  8
SJC2
 10
1203.757951837797
 20
2341.3895254717349
 30
0.0
 40
8.0
 50
270.00087511129999
 51
359.99912488870001
  0
LINE
  5
202AD
  8
SJC2
 10
1211.757951836996
 20
2361.3903185125391
 30
0.0
 11
1211.757951836996
 21
2341.389708458933
 31
0.0
  0
ARC
  5
202AE
  8
SJC2
 10
1219.7606370266001
 20
2339.3873893861378
 30
0.0
 40
6.000000149199999
 50
270.00233364489998
 51
0.0005806136
  0
LINE
  5
202AF
  8
SJC2
 10
1225.760637175001
 20
2339.3874501877358
 30
0.0
 11
1225.7569750657999
 21
2361.3897081609398
 31
0.0
  0
ARC
  5
202B0
  8
SJC2
 10
1217.7616140949981
 20
2339.3876945557349
 30
0.0
 40
6.000000149199999
 50
179.99941932740001
 51
270.00349478290002
  0
ARC
  5
202B1
  8
SJC2
 10
1183.7580743246001
 20
2490.6558090479448
 30
0.0
 40
86.897382381020705
 50
59.579364889457949
 51
120.42063511054189
  0
LINE
  5
202B2
  8
SJC2
 10
1139.7580743246001
 20
2557.590147402756
 30
0.0
 11
1227.7580743246001
 21
2557.590147402756
 31
0.0
  0
LINE
  5
202B3
  8
SJC2
 10
1159.757830541399
 20
2303.5902083483602
 30
0.0
 11
1207.757707755801
 21
2303.5902083483602
 31
0.0
  0
LINE
  5
202B4
  8
SJC2
 10
1139.7580743246001
 20
2557.590147402756
 30
0.0
 11
1139.7580743246001
 21
2565.590147402756
 31
0.0
  0
LINE
  5
202B5
  8
SJC2
 10
1227.7580743246001
 20
2565.590147402756
 30
0.0
 11
1227.7580743246001
 21
2557.590147402756
 31
0.0
  0
LINE
  5
202B6
  8
SJC2
 10
1139.7580743246001
 20
2565.590147402756
 30
0.0
 11
1227.7580743246001
 21
2565.590147402756
 31
0.0
  0
LINE
  5
202B7
  8
CENTER
 10
1183.7580743246001
 20
2615.190147402755
 30
0.0
 11
1183.7580743246001
 21
2285.1901474027541
 31
0.0
  0
CIRCLE
  5
202B8
  8
SJC2
 10
1183.7580743246001
 20
2465.190147402755
 30
0.0
 40
85.400000000000006
  0
CIRCLE
  5
202B9
  8
SJC2
 10
1183.7580743246001
 20
2465.190147402755
 30
0.0
 40
76.200000000000003
  0
LINE
  5
202BA
  8
SJC2
 10
1201.7579519857991
 20
2441.1902087955532
 30
0.0
 11
1207.7577077558001
 21
2451.5826646955538
 31
0.0
  0
LINE
  5
202BB
  8
SJC2
 10
1207.7577077558001
 20
2441.1902087955532
 30
0.0
 11
1159.757830541399
 21
2441.1902087955532
 31
0.0
  0
LINE
  5
202BC
  8
SJC2
 10
1165.7575863114
 20
2441.1902087955532
 30
0.0
 11
1159.758440892999
 21
2451.5826646955538
 31
0.0
  0
LINE
  5
202BD
  8
SJC2
 10
1159.757830541399
 20
2537.5118450520422
 30
0.0
 11
1159.757830541399
 21
2392.8684497534668
 31
0.0
  0
LINE
  5
202BE
  8
SJC2
 10
1165.7575863113991
 20
2391.1467676594261
 30
0.0
 11
1165.7575863114
 21
2441.1902087955532
 31
0.0
  0
LINE
  5
202BF
  8
SJC2
 10
1207.7577077558001
 20
2392.8682472085779
 30
0.0
 11
1207.7577077558001
 21
2537.5120475969311
 31
0.0
  0
LINE
  5
202C0
  8
SJC2
 10
1201.7579519857991
 20
2391.1466192810481
 30
0.0
 11
1201.7579519857991
 21
2441.1902087955532
 31
0.0
  0
LINE
  5
202C1
  8
SJC2
 10
1207.7577077558001
 20
2373.0649196137929
 30
0.0
 11
1207.7577077558001
 21
2370.590147476963
 31
0.0
  0
LINE
  5
202C2
  8
SJC2
 10
1159.757830541399
 20
2373.065078619351
 30
0.0
 11
1159.757830541399
 21
2370.590147476963
 31
0.0
  0
LINE
  5
202C3
  8
SJC2
 10
1165.7575863113991
 20
2371.707408721828
 30
0.0
 11
1165.7575863113991
 21
2370.590147476963
 31
0.0
  0
LINE
  5
202C4
  8
SJC2
 10
1201.7579519857991
 20
2371.7072911980899
 30
0.0
 11
1201.7579519857991
 21
2370.590147476963
 31
0.0
  0
LINE
  5
202C5
  8
SJC
 10
2345.3805601893068
 20
969.99016357015705
 30
0.0
 11
1933.3805601893071
 21
969.99016357015705
 31
0.0
  0
LINE
  5
202C6
  8
SJC
 10
1933.3805601893121
 20
1043.190163495957
 30
0.0
 11
1933.3805601893071
 21
969.99016357015705
 31
0.0
  0
ARC
  5
202C7
  8
SJC
 10
1953.3805601893071
 20
1043.190163495954
 30
0.0
 40
20.0
 50
90.0
 51
180.0
  0
LINE
  5
202C8
  8
SJC
 10
2345.3805601893068
 20
1063.190163495954
 30
0.0
 11
1953.3805601893071
 21
1063.190163495954
 31
0.0
  0
LINE
  5
202C9
  8
SJC2
 10
2345.3805601893068
 20
1026.019367270764
 30
0.0
 11
1983.3805622028781
 21
1027.8853874806191
 31
0.0
  0
LINE
  5
202CA
  8
SJC
 10
2345.380560189315
 20
969.99016357015705
 30
0.0
 11
2757.380560189315
 21
969.99016357015705
 31
0.0
  0
LINE
  5
202CB
  8
SJC
 10
2757.3805601893109
 20
1043.190163495957
 30
0.0
 11
2757.380560189315
 21
969.99016357015705
 31
0.0
  0
ARC
  5
202CC
  8
SJC
 10
2737.3805601893082
 20
1043.190163495954
 30
0.0
 40
20.0
 50
0.0
 51
90.0
  0
LINE
  5
202CD
  8
SJC
 10
2345.380560189315
 20
1063.190163495954
 30
0.0
 11
2737.3805601893082
 21
1063.190163495954
 31
0.0
  0
LINE
  5
202CE
  8
SJC2
 10
2345.3805601893068
 20
1026.019367270764
 30
0.0
 11
2707.3805581757442
 21
1027.8853874806191
 31
0.0
  0
LINE
  5
202CF
  8
SJC
 10
2737.3805622028849
 20
1067.403967306909
 30
0.0
 11
1953.3805622028849
 21
1067.403967306909
 31
0.0
  0
LINE
  5
202D0
  8
SJC
 10
1933.380562202884
 20
1156.9901634959569
 30
0.0
 11
1933.380562202884
 21
1087.403967306909
 31
0.0
  0
ARC
  5
202D1
  8
SJC
 10
1953.3805622028849
 20
1087.403967306909
 30
0.0
 40
20.0
 50
180.0
 51
270.0
  0
LINE
  5
202D2
  8
SJC
 10
2757.3805622028772
 20
1156.9901634959569
 30
0.0
 11
2757.3805622028849
 21
1087.403967306909
 31
0.0
  0
ARC
  5
202D3
  8
SJC
 10
2737.3805622028849
 20
1087.403967306909
 30
0.0
 40
20.0
 50
270.0
 51
0.0
  0
LINE
  5
202D4
  8
SJC
 10
2757.3805622028772
 20
1156.9901634959569
 30
0.0
 11
1933.380562202884
 21
1156.9901634959569
 31
0.0
  0
POLYLINE
  5
202D5
  8
SJC2
 66
     1
 10
0.0
 20
0.0
 30
0.0
  0
VERTEX
  5
20FFA
  8
SJC2
 10
1989.3804692921069
 20
969.99016357016444
 30
0.0
  0
VERTEX
  5
20FFB
  8
SJC2
 10
2077.3801933225081
 20
969.99016357016444
 30
0.0
  0
VERTEX
  5
20FFC
  8
SJC2
 10
2077.3801933225081
 20
960.79033460573919
 30
0.0
  0
VERTEX
  5
20FFD
  8
SJC2
 10
1989.3804692921069
 20
960.79033460573919
 30
0.0
  0
VERTEX
  5
20FFE
  8
SJC2
 10
1989.3804692921069
 20
969.99016357013534
 30
0.0
  0
SEQEND
  5
20FFF
  8
SJC2
  0
LINE
  5
202D6
  8
SJC2
 10
2009.380316406106
 20
902.99022444156071
 30
0.0
 11
2015.380072176104
 21
896.99016349595695
 31
0.0
  0
LINE
  5
202D7
  8
SJC2
 10
2015.380072176104
 20
896.99016349595695
 30
0.0
 11
2051.3804378505051
 21
896.99016349595695
 31
0.0
  0
ARC
  5
202D8
  8
SJC2
 10
1997.3781500753059
 20
938.78740547933921
 30
0.0
 40
6.000000149199999
 50
179.99941938640001
 51
270.57788632913292
  0
LINE
  5
202D9
  8
SJC2
 10
1991.378149926506
 20
938.78746628093711
 30
0.0
 11
1991.3812016841071
 21
960.78972425414031
 31
0.0
  0
LINE
  5
202DA
  8
SJC2
 10
2009.380316406106
 20
932.78801568693962
 30
0.0
 11
2009.380316406106
 21
902.99022444156071
 31
0.0
  0
LINE
  5
202DB
  8
SJC2
 10
2015.380072176104
 20
932.7886260385385
 30
0.0
 11
2015.380072176104
 21
896.99016349595695
 31
0.0
  0
ARC
  5
202DC
  8
SJC2
 10
2013.3800723241111
 20
940.7880156721402
 30
0.0
 40
8.0
 50
180.0008750113
 51
270.00349620970002
  0
LINE
  5
202DD
  8
SJC2
 10
2005.380072325305
 20
960.79033460573919
 30
0.0
 11
2005.380072325305
 21
940.78789349733779
 31
0.0
  0
ARC
  5
202DE
  8
SJC2
 10
1999.377020418902
 20
938.78771065613898
 30
0.0
 40
6.000000149199999
 50
269.99796232400001
 51
0.0005806023
  0
LINE
  5
202DF
  8
SJC2
 10
1997.4386651656639
 20
932.78771051094009
 30
0.0
 11
2069.3833672701112
 21
932.78771051094009
 31
0.0
  0
LINE
  5
202E0
  8
SJC2
 10
2051.3804378505051
 20
896.99016349595695
 30
0.0
 11
2057.3801936205091
 21
902.99022444156071
 31
0.0
  0
LINE
  5
202E1
  8
SJC2
 10
2051.3804378505051
 20
932.7886260385385
 30
0.0
 11
2051.3804378505051
 21
896.99016349595695
 31
0.0
  0
LINE
  5
202E2
  8
SJC2
 10
2057.3801936205091
 20
902.99022444156071
 30
0.0
 11
2057.3801936205091
 21
932.78984674173626
 31
0.0
  0
ARC
  5
202E3
  8
SJC2
 10
2053.3804377025049
 20
940.78954156493626
 30
0.0
 40
8.0
 50
270.00087511129999
 51
359.99912488870001
  0
LINE
  5
202E4
  8
SJC2
 10
2061.3804377017041
 20
960.79033460573919
 30
0.0
 11
2061.3804377017041
 21
940.78972455213432
 31
0.0
  0
ARC
  5
202E5
  8
SJC2
 10
2069.3831228913068
 20
938.78740547933921
 30
0.0
 40
6.000000149199999
 50
270.00233364489998
 51
0.0005806136
  0
LINE
  5
202E6
  8
SJC2
 10
2075.3831230397082
 20
938.78746628093711
 30
0.0
 11
2075.3794609305078
 21
960.78972425414031
 31
0.0
  0
ARC
  5
202E7
  8
SJC2
 10
2067.3840999597051
 20
938.7877106489359
 30
0.0
 40
6.000000149199999
 50
179.99941932740001
 51
270.00349478290002
  0
ARC
  5
202E8
  8
SJC2
 10
2033.3805601893071
 20
1090.055825141146
 30
0.0
 40
86.897382381020705
 50
59.579364889457949
 51
120.42063511054189
  0
LINE
  5
202E9
  8
SJC2
 10
1989.3805601893071
 20
1156.9901634959569
 30
0.0
 11
2077.3805601893082
 21
1156.9901634959569
 31
0.0
  0
LINE
  5
202EA
  8
CENTER
 10
2033.3805601893071
 20
1205.7773942143569
 30
0.0
 11
2033.3805601893071
 21
880.82329478134125
 31
0.0
  0
LINE
  5
202EB
  8
SJC2
 10
2009.380316406106
 20
902.99022444156071
 30
0.0
 11
2057.3801936205091
 21
902.99022444156071
 31
0.0
  0
POLYLINE
  5
202EC
  8
SJC2
 66
     1
 10
0.0
 20
0.0
 30
0.0
  0
VERTEX
  5
21000
  8
SJC2
 10
2613.380469292108
 20
969.99016357016444
 30
0.0
  0
VERTEX
  5
21001
  8
SJC2
 10
2701.3801933225081
 20
969.99016357016444
 30
0.0
  0
VERTEX
  5
21002
  8
SJC2
 10
2701.3801933225081
 20
960.79033460573919
 30
0.0
  0
VERTEX
  5
21003
  8
SJC2
 10
2613.380469292108
 20
960.79033460573919
 30
0.0
  0
VERTEX
  5
21004
  8
SJC2
 10
2613.380469292108
 20
969.99016357014261
 30
0.0
  0
SEQEND
  5
21005
  8
SJC2
  0
LINE
  5
202ED
  8
SJC2
 10
2633.3803164061069
 20
902.99022444156071
 30
0.0
 11
2639.380072176104
 21
896.99016349595695
 31
0.0
  0
LINE
  5
202EE
  8
SJC2
 10
2639.380072176104
 20
896.99016349595695
 30
0.0
 11
2675.3804378505051
 21
896.99016349595695
 31
0.0
  0
ARC
  5
202EF
  8
SJC2
 10
2621.3781500753071
 20
938.78740547933921
 30
0.0
 40
6.000000149199999
 50
179.99941938640001
 51
270.57788632913292
  0
LINE
  5
202F0
  8
SJC2
 10
2615.378149926506
 20
938.78746628093711
 30
0.0
 11
2615.381201684108
 21
960.78972425414031
 31
0.0
  0
LINE
  5
202F1
  8
SJC2
 10
2633.3803164061069
 20
932.78801568693962
 30
0.0
 11
2633.3803164061069
 21
902.99022444156071
 31
0.0
  0
LINE
  5
202F2
  8
SJC2
 10
2639.380072176104
 20
932.7886260385385
 30
0.0
 11
2639.380072176104
 21
896.99016349595695
 31
0.0
  0
ARC
  5
202F3
  8
SJC2
 10
2637.3800723241111
 20
940.7880156721402
 30
0.0
 40
8.0
 50
180.0008750113
 51
270.00349620970002
  0
LINE
  5
202F4
  8
SJC2
 10
2629.3800723253039
 20
960.79033460573919
 30
0.0
 11
2629.3800723253039
 21
940.78789349733779
 31
0.0
  0
ARC
  5
202F5
  8
SJC2
 10
2623.3770204189032
 20
938.78771065613898
 30
0.0
 40
6.000000149199999
 50
269.99796232400001
 51
0.0005806023
  0
LINE
  5
202F6
  8
SJC2
 10
2621.4386651656641
 20
932.78771051094009
 30
0.0
 11
2693.3833672701112
 21
932.78771051094009
 31
0.0
  0
LINE
  5
202F7
  8
SJC2
 10
2675.3804378505051
 20
896.99016349595695
 30
0.0
 11
2681.3801936205091
 21
902.99022444156071
 31
0.0
  0
LINE
  5
202F8
  8
SJC2
 10
2675.3804378505051
 20
932.7886260385385
 30
0.0
 11
2675.3804378505051
 21
896.99016349595695
 31
0.0
  0
LINE
  5
202F9
  8
SJC2
 10
2681.3801936205091
 20
902.99022444156071
 30
0.0
 11
2681.3801936205091
 21
932.78984674174353
 31
0.0
  0
ARC
  5
202FA
  8
SJC2
 10
2677.3804377025049
 20
940.78954156494365
 30
0.0
 40
8.0
 50
270.00087511129999
 51
359.99912488870001
  0
LINE
  5
202FB
  8
SJC2
 10
2685.3804377017041
 20
960.79033460573919
 30
0.0
 11
2685.3804377017041
 21
940.78972455214159
 31
0.0
  0
ARC
  5
202FC
  8
SJC2
 10
2693.3831228913082
 20
938.78740547933921
 30
0.0
 40
6.000000149199999
 50
270.00233364489998
 51
0.0005806136
  0
LINE
  5
202FD
  8
SJC2
 10
2699.3831230397082
 20
938.78746628093711
 30
0.0
 11
2699.3794609305078
 21
960.78972425414031
 31
0.0
  0
ARC
  5
202FE
  8
SJC2
 10
2691.384099959706
 20
938.7877106489359
 30
0.0
 40
6.000000149199999
 50
179.99941932740001
 51
270.00349478290002
  0
LINE
  5
202FF
  8
CENTER
 10
2657.3805601893082
 20
1205.7773942143569
 30
0.0
 11
2657.3805601893082
 21
880.82329478134125
 31
0.0
  0
LINE
  5
20300
  8
SJC2
 10
2633.3803164061069
 20
902.99022444156071
 30
0.0
 11
2681.3801936205091
 21
902.99022444156071
 31
0.0
  0
LINE
  5
20301
  8
SJC2
 10
1989.3805601893071
 20
1156.9901634959569
 30
0.0
 11
1989.3805601893071
 21
1164.9901634959569
 31
0.0
  0
LINE
  5
20302
  8
SJC2
 10
2077.3805601893082
 20
1164.9901634959569
 30
0.0
 11
2077.3805601893082
 21
1156.9901634959569
 31
0.0
  0
LINE
  5
20303
  8
SJC2
 10
1989.3805601893071
 20
1164.9901634959569
 30
0.0
 11
2077.3805601893082
 21
1164.9901634959569
 31
0.0
  0
ARC
  5
20304
  8
SJC2
 10
2657.3805601893082
 20
1090.055825141146
 30
0.0
 40
86.897382381020705
 50
59.579364889457949
 51
120.42063511054189
  0
LINE
  5
20305
  8
SJC2
 10
2613.3805601893082
 20
1156.9901634959569
 30
0.0
 11
2701.3805601893068
 21
1156.9901634959569
 31
0.0
  0
LINE
  5
20306
  8
SJC2
 10
2613.3805601893082
 20
1156.9901634959569
 30
0.0
 11
2613.3805601893082
 21
1164.9901634959569
 31
0.0
  0
LINE
  5
20307
  8
SJC2
 10
2701.3805601893068
 20
1164.9901634959569
 30
0.0
 11
2701.3805601893068
 21
1156.9901634959569
 31
0.0
  0
LINE
  5
20308
  8
SJC2
 10
2613.3805601893082
 20
1164.9901634959569
 30
0.0
 11
2701.3805601893068
 21
1164.9901634959569
 31
0.0
  0
LINE
  5
20309
  8
CENTER
 10
2345.3805601893068
 20
925.69988563580046
 30
0.0
 11
2345.3805601893068
 21
1204.6804413560999
 31
0.0
  0
ARC
  5
2030A
  8
SJC
 10
1890.7806443660829
 20
2465.1902116898859
 30
0.0
 40
85.400084176800007
 50
90.0
 51
270.0
  0
LINE
  5
2030B
  8
SJC
 10
2125.3805601893082
 20
2550.591976486452
 30
0.0
 11
2083.3805622028822
 21
2550.5916756081392
 31
0.0
  0
LINE
  5
2030C
  8
SJC
 10
2013.3805601921811
 20
2550.590147402756
 30
0.0
 11
1890.7806443660829
 21
2550.5902958666852
 31
0.0
  0
LINE
  5
2030D
  8
SJC
 10
2125.3806260959891
 20
2541.3919764866878
 30
0.0
 11
2077.3805601905392
 21
2541.3916326252729
 31
0.0
  0
LINE
  5
2030E
  8
SJC
 10
2013.3805601921811
 20
2541.3911741440102
 30
0.0
 11
1913.2332770445651
 21
2541.3904567119389
 31
0.0
  0
LINE
  5
2030F
  8
SJC
 10
2125.3805601893068
 20
2379.7901275152908
 30
0.0
 11
2077.3805601905392
 21
2379.7901275148402
 31
0.0
  0
LINE
  5
20310
  8
SJC
 10
2013.380560192182
 20
2379.7901275142358
 30
0.0
 11
1890.7806443660829
 21
2379.7901275130862
 31
0.0
  0
LINE
  5
20311
  8
SJC
 10
2125.3805601892209
 20
2388.9901275152879
 30
0.0
 11
2077.3805601905392
 21
2388.9901275148368
 31
0.0
  0
LINE
  5
20312
  8
SJC
 10
2013.380560192182
 20
2388.990127514237
 30
0.0
 11
1927.2667460573759
 21
2388.9901275134289
 31
0.0
  0
LINE
  5
20313
  8
CENTER
 10
1725.3805601893071
 20
2465.190147402755
 30
0.0
 11
3218.2784964009079
 21
2465.190147402755
 31
0.0
  0
LINE
  5
20314
  8
SJC
 10
2345.3805601893068
 20
2369.9901474769581
 30
0.0
 11
1933.3805601893071
 21
2369.9901474769581
 31
0.0
  0
LINE
  5
20315
  8
SJC
 10
1933.380560189308
 20
2379.5901474769562
 30
0.0
 11
1933.3805601893071
 21
2369.9901474769581
 31
0.0
  0
LINE
  5
20316
  8
SJC
 10
2345.380560189315
 20
2369.9901474769581
 30
0.0
 11
2757.380560189315
 21
2369.9901474769581
 31
0.0
  0
LINE
  5
20317
  8
SJC
 10
1933.380560189308
 20
2379.5901474769562
 30
0.0
 11
1983.3805581757349
 21
2379.5901474769562
 31
0.0
  0
LINE
  5
20318
  8
SJC
 10
2083.3805622028808
 20
2379.5901474769562
 30
0.0
 11
2757.380560189315
 21
2379.5901474769562
 31
0.0
  0
LINE
  5
20319
  8
SJC
 10
2757.3805601893141
 20
2379.7893979447622
 30
0.0
 11
2757.380560189315
 21
2369.9901474769581
 31
0.0
  0
LINE
  5
2031A
  8
SJC
 10
1933.380562202884
 20
2556.990147402757
 30
0.0
 11
1933.380562202884
 21
2550.590147402756
 31
0.0
  0
LINE
  5
2031B
  8
SJC
 10
2757.3805622028772
 20
2556.990147402757
 30
0.0
 11
2757.380562202879
 21
2550.5914320721931
 31
0.0
  0
LINE
  5
2031C
  8
SJC
 10
2757.3805622028772
 20
2556.990147402757
 30
0.0
 11
1933.380562202884
 21
2556.990147402757
 31
0.0
  0
LINE
  5
2031D
  8
SJC
 10
2757.3805622028772
 20
2550.590147402756
 30
0.0
 11
2077.3805601905392
 21
2550.590147402756
 31
0.0
  0
LINE
  5
2031E
  8
SJC
 10
1983.3805581757349
 20
2550.590147402756
 30
0.0
 11
1933.380562202884
 21
2550.590147402756
 31
0.0
  0
POLYLINE
  5
2031F
  8
SJC2
 66
     1
 10
0.0
 20
0.0
 30
0.0
  0
VERTEX
  5
21006
  8
SJC2
 10
2001.380469294161
 20
2369.9902334422
 30
0.0
  0
VERTEX
  5
21007
  8
SJC2
 10
2089.3801933245609
 20
2369.9902334422
 30
0.0
  0
VERTEX
  5
21008
  8
SJC2
 10
2089.3801933245609
 20
2360.7904044777752
 30
0.0
  0
VERTEX
  5
21009
  8
SJC2
 10
2001.380469294161
 20
2360.7904044777752
 30
0.0
  0
VERTEX
  5
2100A
  8
SJC2
 10
2001.380469294161
 20
2369.9902334421708
 30
0.0
  0
SEQEND
  5
2100B
  8
SJC2
  0
LINE
  5
20320
  8
SJC2
 10
2021.3803164081589
 20
2302.9902943135962
 30
0.0
 11
2027.3800721781561
 21
2296.9902333679929
 31
0.0
  0
LINE
  5
20321
  8
SJC2
 10
2027.3800721781561
 20
2296.9902333679929
 30
0.0
 11
2063.3804378525579
 21
2296.9902333679929
 31
0.0
  0
ARC
  5
20322
  8
SJC2
 10
2009.37815007736
 20
2338.7874753513752
 30
0.0
 40
6.000000149199999
 50
179.99941938640001
 51
270.57788632913292
  0
LINE
  5
20323
  8
SJC2
 10
2003.378149928559
 20
2338.7875361529732
 30
0.0
 11
2003.38120168616
 21
2360.7897941261758
 31
0.0
  0
LINE
  5
20324
  8
SJC2
 10
2021.3803164081589
 20
2332.788085558976
 30
0.0
 11
2021.3803164081589
 21
2302.9902943135962
 31
0.0
  0
LINE
  5
20325
  8
SJC2
 10
2027.3800721781561
 20
2332.788695910574
 30
0.0
 11
2027.3800721781561
 21
2296.9902333679929
 31
0.0
  0
ARC
  5
20326
  8
SJC2
 10
2025.3800723261641
 20
2340.7880855441758
 30
0.0
 40
8.0
 50
180.0008750113
 51
270.00349620970002
  0
LINE
  5
20327
  8
SJC2
 10
2017.3800723273571
 20
2360.7904044777752
 30
0.0
 11
2017.3800723273571
 21
2340.7879633693742
 31
0.0
  0
ARC
  5
20328
  8
SJC2
 10
2011.377020420955
 20
2338.7877805281751
 30
0.0
 40
6.000000149199999
 50
269.99796232400001
 51
0.0005806023
  0
LINE
  5
20329
  8
SJC2
 10
2009.4386651677171
 20
2332.7877803829761
 30
0.0
 11
2081.3833672721639
 21
2332.7877803829761
 31
0.0
  0
LINE
  5
2032A
  8
SJC2
 10
2063.3804378525579
 20
2296.9902333679929
 30
0.0
 11
2069.3801936225618
 21
2302.9902943135962
 31
0.0
  0
LINE
  5
2032B
  8
SJC2
 10
2063.3804378525579
 20
2332.788695910574
 30
0.0
 11
2063.3804378525579
 21
2296.9902333679929
 31
0.0
  0
LINE
  5
2032C
  8
SJC2
 10
2069.3801936225618
 20
2302.9902943135962
 30
0.0
 11
2069.3801936225618
 21
2332.7899166137722
 31
0.0
  0
ARC
  5
2032D
  8
SJC2
 10
2065.3804377045572
 20
2340.7896114369728
 30
0.0
 40
8.0
 50
270.00087511129999
 51
359.99912488870001
  0
LINE
  5
2032E
  8
SJC2
 10
2073.3804377037568
 20
2360.7904044777752
 30
0.0
 11
2073.3804377037568
 21
2340.7897944241699
 31
0.0
  0
ARC
  5
2032F
  8
SJC2
 10
2081.3831228933609
 20
2338.7874753513752
 30
0.0
 40
6.000000149199999
 50
270.00233364489998
 51
0.0005806136
  0
LINE
  5
20330
  8
SJC2
 10
2087.3831230417609
 20
2338.7875361529732
 30
0.0
 11
2087.379460932561
 21
2360.7897941261758
 31
0.0
  0
ARC
  5
20331
  8
SJC2
 10
2079.3840999617578
 20
2338.7877805209719
 30
0.0
 40
6.000000149199999
 50
179.99941932740001
 51
270.00349478290002
  0
ARC
  5
20332
  8
SJC2
 10
2045.38056019136
 20
2490.0558950131822
 30
0.0
 40
86.897382381020705
 50
59.579364889457949
 51
120.42063511054189
  0
LINE
  5
20333
  8
SJC2
 10
2001.38056019136
 20
2556.9902333679929
 30
0.0
 11
2089.38056019136
 21
2556.9902333679929
 31
0.0
  0
LINE
  5
20334
  8
CENTER
 10
2045.38056019136
 20
2605.777464086394
 30
0.0
 11
2045.38056019136
 21
2280.8233646533772
 31
0.0
  0
LINE
  5
20335
  8
SJC2
 10
2021.3803164081589
 20
2302.9902943135962
 30
0.0
 11
2069.3801936225618
 21
2302.9902943135962
 31
0.0
  0
POLYLINE
  5
20336
  8
SJC2
 66
     1
 10
0.0
 20
0.0
 30
0.0
  0
VERTEX
  5
2100C
  8
SJC2
 10
2613.380469292108
 20
2369.9901474769649
 30
0.0
  0
VERTEX
  5
2100D
  8
SJC2
 10
2701.3801933225081
 20
2369.9901474769649
 30
0.0
  0
VERTEX
  5
2100E
  8
SJC2
 10
2701.3801933225081
 20
2360.7903185125401
 30
0.0
  0
VERTEX
  5
2100F
  8
SJC2
 10
2613.380469292108
 20
2360.7903185125401
 30
0.0
  0
VERTEX
  5
21010
  8
SJC2
 10
2613.380469292108
 20
2369.9901474769431
 30
0.0
  0
SEQEND
  5
21011
  8
SJC2
  0
LINE
  5
20337
  8
SJC2
 10
2633.3803164061069
 20
2302.9902083483612
 30
0.0
 11
2639.380072176104
 21
2296.9901474027579
 31
0.0
  0
LINE
  5
20338
  8
SJC2
 10
2639.380072176104
 20
2296.9901474027579
 30
0.0
 11
2675.3804378505051
 21
2296.9901474027579
 31
0.0
  0
ARC
  5
20339
  8
SJC2
 10
2621.3781500753071
 20
2338.7873893861401
 30
0.0
 40
6.000000149199999
 50
179.99941938640001
 51
270.57788632913292
  0
LINE
  5
2033A
  8
SJC2
 10
2615.378149926506
 20
2338.7874501877382
 30
0.0
 11
2615.381201684108
 21
2360.7897081609408
 31
0.0
  0
LINE
  5
2033B
  8
SJC2
 10
2633.3803164061069
 20
2332.7879995937401
 30
0.0
 11
2633.3803164061069
 21
2302.9902083483612
 31
0.0
  0
LINE
  5
2033C
  8
SJC2
 10
2639.380072176104
 20
2332.788609945339
 30
0.0
 11
2639.380072176104
 21
2296.9901474027579
 31
0.0
  0
ARC
  5
2033D
  8
SJC2
 10
2637.3800723241111
 20
2340.7879995789408
 30
0.0
 40
8.0
 50
180.0008750113
 51
270.00349620970002
  0
LINE
  5
2033E
  8
SJC2
 10
2629.3800723253039
 20
2360.7903185125401
 30
0.0
 11
2629.3800723253039
 21
2340.7878774041378
 31
0.0
  0
ARC
  5
2033F
  8
SJC2
 10
2623.3770204189032
 20
2338.78769456294
 30
0.0
 40
6.000000149199999
 50
269.99796232400001
 51
0.0005806023
  0
LINE
  5
20340
  8
SJC2
 10
2621.4386651656641
 20
2332.7876944177401
 30
0.0
 11
2693.3833672701112
 21
2332.7876944177401
 31
0.0
  0
LINE
  5
20341
  8
SJC2
 10
2675.3804378505051
 20
2296.9901474027579
 30
0.0
 11
2681.3801936205091
 21
2302.9902083483612
 31
0.0
  0
LINE
  5
20342
  8
SJC2
 10
2675.3804378505051
 20
2332.788609945339
 30
0.0
 11
2675.3804378505051
 21
2296.9901474027579
 31
0.0
  0
LINE
  5
20343
  8
SJC2
 10
2681.3801936205091
 20
2302.9902083483612
 30
0.0
 11
2681.3801936205091
 21
2332.789830648544
 31
0.0
  0
ARC
  5
20344
  8
SJC2
 10
2677.3804377025049
 20
2340.7895254717441
 30
0.0
 40
8.0
 50
270.00087511129999
 51
359.99912488870001
  0
LINE
  5
20345
  8
SJC2
 10
2685.3804377017041
 20
2360.7903185125401
 30
0.0
 11
2685.3804377017041
 21
2340.7897084589422
 31
0.0
  0
ARC
  5
20346
  8
SJC2
 10
2693.3831228913082
 20
2338.7873893861401
 30
0.0
 40
6.000000149199999
 50
270.00233364489998
 51
0.0005806136
  0
LINE
  5
20347
  8
SJC2
 10
2699.3831230397082
 20
2338.7874501877382
 30
0.0
 11
2699.3794609305078
 21
2360.7897081609408
 31
0.0
  0
ARC
  5
20348
  8
SJC2
 10
2691.384099959706
 20
2338.7876945557359
 30
0.0
 40
6.000000149199999
 50
179.99941932740001
 51
270.00349478290002
  0
LINE
  5
20349
  8
CENTER
 10
2657.3805601893082
 20
2605.7773781211581
 30
0.0
 11
2657.3805601893082
 21
2280.8232786881422
 31
0.0
  0
LINE
  5
2034A
  8
SJC2
 10
2633.3803164061069
 20
2302.9902083483612
 30
0.0
 11
2681.3801936205091
 21
2302.9902083483612
 31
0.0
  0
LINE
  5
2034B
  8
SJC2
 10
2001.38056019136
 20
2556.9902333679929
 30
0.0
 11
2001.38056019136
 21
2564.9902333679929
 31
0.0
  0
LINE
  5
2034C
  8
SJC2
 10
2089.38056019136
 20
2564.9902333679929
 30
0.0
 11
2089.38056019136
 21
2556.9902333679929
 31
0.0
  0
LINE
  5
2034D
  8
SJC2
 10
2001.38056019136
 20
2564.9902333679929
 30
0.0
 11
2089.38056019136
 21
2564.9902333679929
 31
0.0
  0
ARC
  5
2034E
  8
SJC2
 10
2657.3805601893082
 20
2490.0558090479472
 30
0.0
 40
86.897382381020705
 50
59.579364889457949
 51
120.42063511054189
  0
LINE
  5
2034F
  8
SJC2
 10
2613.3805601893082
 20
2556.990147402757
 30
0.0
 11
2701.3805601893068
 21
2556.990147402757
 31
0.0
  0
LINE
  5
20350
  8
SJC2
 10
2613.3805601893082
 20
2556.990147402757
 30
0.0
 11
2613.3805601893082
 21
2564.9901474027579
 31
0.0
  0
LINE
  5
20351
  8
SJC2
 10
2701.3805601893068
 20
2564.9901474027579
 30
0.0
 11
2701.3805601893068
 21
2556.990147402757
 31
0.0
  0
LINE
  5
20352
  8
SJC2
 10
2613.3805601893082
 20
2564.9901474027579
 30
0.0
 11
2701.3805601893068
 21
2564.9901474027579
 31
0.0
  0
LINE
  5
20353
  8
SJC
 10
2577.3805601893082
 20
2550.5904316613892
 30
0.0
 11
2577.3805601893082
 21
2379.790221920211
 31
0.0
  0
LINE
  5
20354
  8
SJC
 10
2125.3805601893068
 20
2379.7901275152908
 30
0.0
 11
2125.3805601893082
 21
2550.591976486452
 31
0.0
  0
POLYLINE
  5
20355
  8
SJC
 66
     1
 10
0.0
 20
0.0
 30
0.0
  0
VERTEX
  5
21012
  8
SJC
 10
1909.9784482007999
 20
2550.5906340444021
 30
0.0
  0
VERTEX
  5
21013
  8
SJC
 10
1912.303383682477
 20
2545.242941619952
 30
0.0
  0
VERTEX
  5
21014
  8
SJC
 10
1914.0520408828761
 20
2537.9983738571541
 30
0.0
  0
VERTEX
  5
21015
  8
SJC
 10
1915.8006980832761
 20
2531.5027074499521
 30
0.0
  0
VERTEX
  5
21016
  8
SJC
 10
1917.2997214984771
 20
2522.7591162715548
 30
0.0
  0
VERTEX
  5
21017
  8
SJC
 10
1918.298866991277
 20
2515.0143654103522
 30
0.0
  0
VERTEX
  5
21018
  8
SJC
 10
1919.548256621277
 20
2506.020835271157
 30
0.0
  0
VERTEX
  5
21019
  8
SJC
 10
1920.2977683288759
 20
2497.5265727023552
 30
0.0
  0
VERTEX
  5
2101A
  8
SJC
 10
1920.2977683288759
 20
2489.7824321927551
 30
0.0
  0
VERTEX
  5
2101B
  8
SJC
 10
1919.0483786988771
 20
2482.537254077954
 30
0.0
  0
VERTEX
  5
2101C
  8
SJC
 10
1918.049843557676
 20
2475.292686314755
 30
0.0
  0
VERTEX
  5
2101D
  8
SJC
 10
1916.799843576476
 20
2467.797569239156
 30
0.0
  0
VERTEX
  5
2101E
  8
SJC
 10
1916.5508201424759
 20
2459.8034897683542
 30
0.0
  0
VERTEX
  5
2101F
  8
SJC
 10
1917.0500877132761
 20
2452.5589220051561
 30
0.0
  0
VERTEX
  5
21020
  8
SJC
 10
1918.049843557676
 20
2446.3131945591531
 30
0.0
  0
VERTEX
  5
21021
  8
SJC
 10
1920.547402114076
 20
2437.3196644195559
 30
0.0
  0
VERTEX
  5
21022
  8
SJC
 10
1922.5463034516761
 20
2430.324425266354
 30
0.0
  0
VERTEX
  5
21023
  8
SJC
 10
1924.0447165152759
 20
2423.3294912883539
 30
0.0
  0
VERTEX
  5
21024
  8
SJC
 10
1925.294106144876
 20
2414.3356559731551
 30
0.0
  0
VERTEX
  5
21025
  8
SJC
 10
1926.5434957748771
 20
2407.8399895659541
 30
0.0
  0
VERTEX
  5
21026
  8
SJC
 10
1927.293007482476
 20
2401.5945672959569
 30
0.0
  0
VERTEX
  5
21027
  8
SJC
 10
1927.542641267677
 20
2392.8509761175551
 30
0.0
  0
VERTEX
  5
21028
  8
SJC
 10
1927.0427633456759
 20
2385.8557369639529
 30
0.0
  0
VERTEX
  5
21029
  8
SJC
 10
1926.0724208287179
 20
2379.7900589106221
 30
0.0
  0
SEQEND
  5
2102A
  8
SJC
  0
LINE
  5
20356
  8
SJC2
 10
2063.3804378529589
 20
2441.1902947607891
 30
0.0
 11
2069.3801936229602
 21
2451.5827506607902
 31
0.0
  0
LINE
  5
20357
  8
SJC2
 10
2027.3800721785601
 20
2441.1902947607891
 30
0.0
 11
2021.38092676016
 21
2451.5827506607902
 31
0.0
  0
LINE
  5
20358
  8
SJC2
 10
2069.3801936229602
 20
2441.1902947607891
 30
0.0
 11
2021.3803164085591
 21
2441.1902947607891
 31
0.0
  0
LINE
  5
20359
  8
SJC2
 10
2027.3800721785601
 20
2369.9902334422
 30
0.0
 11
2027.3800721785601
 21
2441.1902947607891
 31
0.0
  0
LINE
  5
2035A
  8
SJC2
 10
2063.3804378529589
 20
2369.9902334422
 30
0.0
 11
2063.3804378529589
 21
2441.1902947607891
 31
0.0
  0
LINE
  5
2035B
  8
SJC2
 10
2069.3801936229602
 20
2369.9902334422
 30
0.0
 11
2069.3801936229602
 21
2556.9902333679929
 31
0.0
  0
LINE
  5
2035C
  8
SJC2
 10
2021.3803164085591
 20
2556.9902333679929
 30
0.0
 11
2021.3803164085591
 21
2369.9902334422
 31
0.0
  0
LINE
  5
2035D
  8
SJC2
 10
2675.3804378509071
 20
2446.7901200404049
 30
0.0
 11
2681.3801936209079
 21
2457.1825759404019
 31
0.0
  0
LINE
  5
2035E
  8
SJC2
 10
2639.3800721765069
 20
2446.7901200404049
 30
0.0
 11
2633.3809267581069
 21
2457.1825759404019
 31
0.0
  0
LINE
  5
2035F
  8
SJC2
 10
2681.3801936209079
 20
2446.7901200404049
 30
0.0
 11
2633.3803164065071
 21
2446.7901200404049
 31
0.0
  0
LINE
  5
20360
  8
SJC2
 10
2639.3800721765069
 20
2369.990194427206
 30
0.0
 11
2639.3800721765069
 21
2446.7901200404049
 31
0.0
  0
LINE
  5
20361
  8
SJC2
 10
2675.3804378509071
 20
2369.990194427206
 30
0.0
 11
2675.3804378509071
 21
2446.7901200404049
 31
0.0
  0
LINE
  5
20362
  8
SJC2
 10
2681.3801936209079
 20
2369.990194427206
 30
0.0
 11
2681.3801936209079
 21
2571.5890073412052
 31
0.0
  0
LINE
  5
20363
  8
SJC2
 10
2633.3803164065071
 20
2571.5890073412052
 30
0.0
 11
2633.3803164065071
 21
2369.990194427206
 31
0.0
  0
LINE
  5
20364
  8
SJC2
 10
2083.3805622028822
 20
2369.9901474769581
 30
0.0
 11
2083.3805622028822
 21
2379.5901474769562
 31
0.0
  0
LINE
  5
20365
  8
SJC2
 10
2083.3805622028822
 20
2550.590147402756
 30
0.0
 11
2083.3805622028822
 21
2556.990147402757
 31
0.0
  0
LINE
  5
20366
  8
SJC2
 10
1983.3805581757349
 20
2369.9901474769581
 30
0.0
 11
1983.3805581757349
 21
2379.5901474769562
 31
0.0
  0
LINE
  5
20367
  8
SJC2
 10
1983.3805581757349
 20
2550.590147402756
 30
0.0
 11
1983.3805581757349
 21
2556.990147402757
 31
0.0
  0
LINE
  5
20368
  8
SJC2
 10
2077.3805601905392
 20
2541.3916326252688
 30
0.0
 11
2077.3805601905392
 21
2550.590147402756
 31
0.0
  0
LINE
  5
20369
  8
SJC2
 10
2013.3805601921811
 20
2541.3911741440102
 30
0.0
 11
2013.3805601921811
 21
2550.590147402756
 31
0.0
  0
LINE
  5
2036A
  8
SJC2
 10
2013.380560192182
 20
2388.990127514237
 30
0.0
 11
2013.380560192182
 21
2379.7901275142358
 31
0.0
  0
LINE
  5
2036B
  8
SJC2
 10
2077.3805601905392
 20
2388.9901275148368
 30
0.0
 11
2077.3805601905392
 21
2379.7901275148402
 31
0.0
  0
LINE
  5
2036C
  8
SJC2
 10
2216.3805601893082
 20
2617.190147402755
 30
0.0
 11
2345.3805601893082
 21
2617.190147402755
 31
0.0
  0
LINE
  5
2036D
  8
SJC2
 10
2210.3805601893082
 20
2657.190147402755
 30
0.0
 11
2345.3805601893082
 21
2657.190147402755
 31
0.0
  0
LINE
  5
2036E
  8
SJC2
 10
2210.3805601893068
 20
2657.190147402755
 30
0.0
 11
2345.3805601893068
 21
2657.190147402755
 31
0.0
  0
LINE
  5
2036F
  8
SJC2
 10
2220.3805601893068
 20
2669.190147402755
 30
0.0
 11
2345.3805601893068
 21
2669.190147402755
 31
0.0
  0
LINE
  5
20370
  8
SJC2
 10
2217.3805601893068
 20
2657.190147402755
 30
0.0
 11
2345.3805601893068
 21
2657.190147402755
 31
0.0
  0
LINE
  5
20371
  8
SJC2
 10
2345.3805601893082
 20
2657.190147402755
 30
0.0
 11
2217.3805601893082
 21
2657.190147402755
 31
0.0
  0
LINE
  5
20372
  8
SJC2
 10
2474.3805601893082
 20
2617.190147402755
 30
0.0
 11
2345.3805601893082
 21
2617.190147402755
 31
0.0
  0
LINE
  5
20373
  8
SJC2
 10
2480.3805601893082
 20
2657.190147402755
 30
0.0
 11
2345.3805601893082
 21
2657.190147402755
 31
0.0
  0
LINE
  5
20374
  8
SJC2
 10
2480.3805601893082
 20
2657.190147402755
 30
0.0
 11
2345.3805601893068
 21
2657.190147402755
 31
0.0
  0
LINE
  5
20375
  8
SJC2
 10
2480.3805601893082
 20
2657.190147402755
 30
0.0
 11
2480.3805601893082
 21
2656.8667231831942
 31
0.0
  0
LINE
  5
20376
  8
SJC2
 10
2470.3805601893068
 20
2669.190147402755
 30
0.0
 11
2345.3805601893068
 21
2669.190147402755
 31
0.0
  0
LINE
  5
20377
  8
SJC2
 10
2473.3805601893068
 20
2657.190147402755
 30
0.0
 11
2345.3805601893068
 21
2657.190147402755
 31
0.0
  0
LINE
  5
20378
  8
SJC2
 10
2345.3805601893082
 20
2657.190147402755
 30
0.0
 11
2473.3805601893082
 21
2657.190147402755
 31
0.0
  0
ARC
  5
20379
  8
SJC2
 10
2346.3805601892991
 20
2657.1401161136268
 30
0.0
 40
136.0
 50
180.0
 51
197.0825832433664
  0
LINE
  5
2037A
  8
SJC2
 10
2480.3805601893082
 20
2657.190147402755
 30
0.0
 11
2480.3805601893082
 21
2656.8667231831942
 31
0.0
  0
LINE
  5
2037B
  8
SJC2
 10
2480.3805601893082
 20
2657.190147402755
 30
0.0
 11
2480.3805601893082
 21
2657.1401161136268
 31
0.0
  0
ARC
  5
2037C
  8
SJC2
 10
2344.3805601892991
 20
2657.1401161136268
 30
0.0
 40
136.0
 50
342.91741675663349
 51
0.0
  0
ARC
  5
2037D
  8
SJC2
 10
2345.3805601893068
 20
2525.190147402755
 30
0.0
 40
184.0
 50
51.586749207541658
 51
90.0
  0
ARC
  5
2037E
  8
SJC2
 10
2345.3805601893068
 20
2525.190147402755
 30
0.0
 40
184.0
 50
90.0
 51
128.41325079245831
  0
ARC
  5
2037F
  8
SJC2
 10
2470.3805601893068
 20
2659.190147402755
 30
0.0
 40
10.0
 50
0.0
 51
90.0
  0
ARC
  5
20380
  8
SJC2
 10
2460.2021609445619
 20
2669.9901474027538
 30
0.0
 40
0.8
 50
231.58674920754169
 51
270.0
  0
LINE
  5
20381
  8
SJC2
 10
2480.3805601893082
 20
2657.190147402755
 30
0.0
 11
2480.3805601893082
 21
2659.190147402755
 31
0.0
  0
ARC
  5
20382
  8
SJC2
 10
2220.3805601893068
 20
2659.190147402755
 30
0.0
 40
10.0
 50
90.0
 51
180.0
  0
ARC
  5
20383
  8
SJC2
 10
2230.5589594340472
 20
2669.9901474027538
 30
0.0
 40
0.8
 50
270.0
 51
308.41325079245831
  0
LINE
  5
20384
  8
SJC2
 10
2210.3805601893068
 20
2657.190147402755
 30
0.0
 11
2210.3805601893068
 21
2659.190147402755
 31
0.0
  0
SOLID
  5
20385
  8
MOJI
 10
2468.9040254470601
 20
2713.6920049484329
 30
0.0
 11
2423.1054337692808
 21
2691.9679757462659
 31
0.0
 12
2459.3827948043158
 22
2727.3713304005651
 32
0.0
 13
2459.3827948043158
 23
2727.3713304005651
 33
0.0
1001
ACAD
1000
DSTYLE
1002
{
1070
     5
1000

1070
    40
1040
25.0
1070
    41
1040
2.0
1070
    42
1040
1.0
1070
    43
1040
6.0
1070
    44
1040
1.0
1070
    73
1070
     0
1070
    74
1070
     0
1070
    77
1070
     1
1070
    78
1070
     8
1070
   140
1040
3.0
1070
   147
1040
1.1999999999999991
1070
   172
1070
     1
1070
   176
1070
   256
1070
   177
1070
   256
1070
   178
1070
   256
1070
   271
1070
     2
1070
   275
1070
     1
1070
   279
1070
     2
1070
   340
1005
1372
1070
   342
1005
0
1002
}
  0
POLYLINE
  5
20386
  8
MOJI
 66
     1
 10
0.0
 20
0.0
 30
0.0
1001
ACAD
1000
DSTYLE
1002
{
1070
     5
1000

1070
    40
1040
25.0
1070
    41
1040
2.0
1070
    42
1040
1.0
1070
    43
1040
6.0
1070
    44
1040
1.0
1070
    73
1070
     0
1070
    74
1070
     0
1070
    77
1070
     1
1070
    78
1070
     8
1070
   140
1040
3.0
1070
   147
1040
1.1999999999999991
1070
   172
1070
     1
1070
   176
1070
   256
1070
   177
1070
   256
1070
   178
1070
   256
1070
   271
1070
     2
1070
   275
1070
     1
1070
   279
1070
     2
1070
   340
1005
1372
1070
   342
1005
0
1002
}
  0
VERTEX
  5
2102B
  8
MOJI
 10
2464.1434101256882
 20
2720.5316676744992
 30
0.0
  0
VERTEX
  5
2102C
  8
MOJI
 10
2518.8793535760251
 20
2758.6295654007008
 30
0.0
  0
SEQEND
  5
2102D
  8
MOJI
  0
LINE
  5
20387
  8
MOJI
 10
2838.7200974253092
 20
2758.6295654007008
 30
0.0
 11
2518.8793535760251
 21
2758.6295654007008
 31
0.0
  0
TEXT
  5
20388
  8
MOJI
 10
2512.2373972229552
 20
2780.3367059486668
 30
0.0
 40
60.0
  1
頭部キャップ
 41
0.8
  7
EXT08
  0
LINE
  5
20389
  8
SJC2
 10
853.75801509219889
 20
2617.190147402755
 30
0.0
 11
982.758015092199
 21
2617.190147402755
 31
0.0
  0
LINE
  5
2038A
  8
SJC2
 10
847.75801509219912
 20
2657.190147402755
 30
0.0
 11
982.758015092199
 21
2657.190147402755
 31
0.0
  0
LINE
  5
2038B
  8
SJC2
 10
847.75801509219855
 20
2657.190147402755
 30
0.0
 11
982.75801509219855
 21
2657.190147402755
 31
0.0
  0
LINE
  5
2038C
  8
SJC2
 10
857.75801509219855
 20
2669.190147402755
 30
0.0
 11
982.75801509219855
 21
2669.190147402755
 31
0.0
  0
LINE
  5
2038D
  8
SJC2
 10
854.75801509219855
 20
2657.190147402755
 30
0.0
 11
982.75801509219855
 21
2657.190147402755
 31
0.0
  0
LINE
  5
2038E
  8
SJC2
 10
982.758015092199
 20
2657.190147402755
 30
0.0
 11
854.75801509219889
 21
2657.190147402755
 31
0.0
  0
LINE
  5
2038F
  8
SJC2
 10
1111.758015092199
 20
2617.190147402755
 30
0.0
 11
982.758015092199
 21
2617.190147402755
 31
0.0
  0
LINE
  5
20390
  8
SJC2
 10
1117.758015092199
 20
2657.190147402755
 30
0.0
 11
982.758015092199
 21
2657.190147402755
 31
0.0
  0
LINE
  5
20391
  8
SJC2
 10
1117.7580150921981
 20
2657.190147402755
 30
0.0
 11
982.75801509219855
 21
2657.190147402755
 31
0.0
  0
LINE
  5
20392
  8
SJC2
 10
1117.758015092199
 20
2657.190147402755
 30
0.0
 11
1117.758015092199
 21
2656.8667231831942
 31
0.0
  0
LINE
  5
20393
  8
SJC2
 10
1107.7580150921981
 20
2669.190147402755
 30
0.0
 11
982.75801509219855
 21
2669.190147402755
 31
0.0
  0
LINE
  5
20394
  8
SJC2
 10
1110.7580150921981
 20
2657.190147402755
 30
0.0
 11
982.75801509219855
 21
2657.190147402755
 31
0.0
  0
LINE
  5
20395
  8
SJC2
 10
982.758015092199
 20
2657.190147402755
 30
0.0
 11
1110.758015092199
 21
2657.190147402755
 31
0.0
  0
ARC
  5
20396
  8
SJC2
 10
983.75801509219025
 20
2657.1401161136268
 30
0.0
 40
136.0
 50
180.0
 51
197.0825832433664
  0
LINE
  5
20397
  8
SJC2
 10
1117.758015092199
 20
2657.190147402755
 30
0.0
 11
1117.758015092199
 21
2656.8667231831942
 31
0.0
  0
LINE
  5
20398
  8
SJC2
 10
1117.758015092199
 20
2657.190147402755
 30
0.0
 11
1117.758015092199
 21
2657.1401161136268
 31
0.0
  0
ARC
  5
20399
  8
SJC2
 10
981.75801509219025
 20
2657.1401161136268
 30
0.0
 40
136.0
 50
342.91741675663349
 51
0.0
  0
ARC
  5
2039A
  8
SJC2
 10
982.75801509219855
 20
2525.190147402755
 30
0.0
 40
184.0
 50
51.586749207541658
 51
90.0
  0
ARC
  5
2039B
  8
SJC2
 10
982.75801509219855
 20
2525.190147402755
 30
0.0
 40
184.0
 50
90.0
 51
128.41325079245831
  0
ARC
  5
2039C
  8
SJC2
 10
1107.7580150921981
 20
2659.190147402755
 30
0.0
 40
10.0
 50
0.0
 51
90.0
  0
ARC
  5
2039D
  8
SJC2
 10
1097.5796158474529
 20
2669.9901474027538
 30
0.0
 40
0.8
 50
231.58674920754169
 51
270.0
  0
LINE
  5
2039E
  8
SJC2
 10
1117.7580150921981
 20
2657.190147402755
 30
0.0
 11
1117.7580150921981
 21
2659.190147402755
 31
0.0
  0
ARC
  5
2039F
  8
SJC2
 10
857.75801509219855
 20
2659.190147402755
 30
0.0
 40
10.0
 50
90.0
 51
180.0
  0
ARC
  5
203A0
  8
SJC2
 10
867.93641433693801
 20
2669.9901474027538
 30
0.0
 40
0.8
 50
270.0
 51
308.41325079245831
  0
LINE
  5
203A1
  8
SJC2
 10
847.75801509219855
 20
2657.190147402755
 30
0.0
 11
847.75801509219855
 21
2659.190147402755
 31
0.0
  0
DIMENSION
  5
203A2
  8
SUNPOU
  2
*D41
 10
1503.6858390594321
 20
2465.190147402755
 30
0.0
 11
1449.6858390594321
 21
2587.1901474027541
 31
0.0
 70
     0
 13
982.75801509219741
 23
2709.1901474027541
 33
0.0
 14
1333.758074324599
 24
2465.190147402755
 34
0.0
 50
90.0
1001
ACAD
1000
DSTYLE
1002
{
1070
   287
1070
     5
1070
   287
1070
     5
1070
   287
1070
     5
1070
   287
1070
     5
1070
    40
1040
20.0
1070
    41
1040
2.0
1070
    42
1040
1.0
1070
    43
1040
6.0
1070
    44
1040
1.0
1070
    73
1070
     0
1070
    74
1070
     0
1070
    77
1070
     1
1070
    78
1070
     8
1070
   140
1040
3.0
1070
   144
1040
0.25
1070
   147
1040
1.1999999999999991
1070
   172
1070
     1
1070
   176
1070
   256
1070
   177
1070
   256
1070
   178
1070
   256
1070
   271
1070
     2
1070
   279
1070
     2
1070
   287
1070
     5
1070
   340
1005
1372
1002
}
  0
DIMENSION
  5
203A3
  8
SUNPOU
  2
*D42
 10
1503.6858390594321
 20
1065.190163495954
 30
0.0
 11
1449.6858390594321
 21
1765.190155449355
 31
0.0
 70
     0
 13
1333.758074324599
 23
2465.190147402755
 33
0.0
 14
1333.7580743246001
 24
1065.190163495954
 34
0.0
 50
90.0
1001
ACAD
1000
DSTYLE
1002
{
1070
   287
1070
     5
1070
   287
1070
     5
1070
   287
1070
     5
1070
   287
1070
     5
1070
    40
1040
20.0
1070
    41
1040
2.0
1070
    42
1040
1.0
1070
    43
1040
6.0
1070
    44
1040
1.0
1070
    73
1070
     0
1070
    74
1070
     0
1070
    77
1070
     1
1070
    78
1070
     8
1070
   140
1040
3.0
1070
   144
1040
0.25
1070
   147
1040
1.1999999999999991
1070
   172
1070
     1
1070
   176
1070
   256
1070
   177
1070
   256
1070
   178
1070
   256
1070
   271
1070
     2
1070
   279
1070
     2
1070
   287
1070
     5
1070
   340
1005
1372
1002
}
  0
DIMENSION
  5
203A4
  8
SUNPOU
  2
*D43
 10
2345.3805601893068
 20
2869.4540573943532
 30
0.0
 11
2075.3805601893068
 21
2923.4540573943518
 31
0.0
 70
     0
  1
<>
 13
1805.3805601893059
 23
2465.190147402755
 33
0.0
 14
2345.3805601893068
 24
2759.190147402755
 34
0.0
1001
ACAD
1000
DSTYLE
1002
{
1070
   287
1070
     5
1070
    40
1040
20.0
1070
    41
1040
2.0
1070
    42
1040
1.0
1070
    43
1040
6.0
1070
    44
1040
1.0
1070
    73
1070
     0
1070
    74
1070
     0
1070
    77
1070
     1
1070
    78
1070
     8
1070
   140
1040
3.0
1070
   144
1040
0.25
1070
   147
1040
1.1999999999999991
1070
   172
1070
     1
1070
   179
1070
     2
1070
   271
1070
     2
1070
   272
1070
     2
1070
   279
1070
     2
1070
   340
1005
1372
1002
}
  0
DIMENSION
  5
203A5
  8
SUNPOU
  2
*D44
 10
1183.758074324599
 20
2869.4540573943532
 30
0.0
 11
1083.258044708399
 21
2923.4540573943518
 31
0.0
 70
     0
  1
55
 13
982.75801509219855
 23
2759.190147402755
 33
0.0
 14
1183.758074324599
 24
2615.190147402755
 34
0.0
1001
ACAD
1000
DSTYLE
1002
{
1070
   287
1070
     5
1070
    40
1040
20.0
1070
    41
1040
2.0
1070
    42
1040
1.0
1070
    43
1040
6.0
1070
    44
1040
1.0
1070
    73
1070
     0
1070
    74
1070
     0
1070
    77
1070
     1
1070
    78
1070
     8
1070
   140
1040
3.0
1070
   144
1040
0.25
1070
   147
1040
1.1999999999999991
1070
   172
1070
     1
1070
   179
1070
     2
1070
   271
1070
     0
1070
   272
1070
     2
1070
   279
1070
     2
1070
   340
1005
1372
1002
}
  0
TEXT
  5
203A6
  8
MOJI
 10
413.60905289238502
 20
2178.9269250358411
 30
0.0
 40
60.0
  1
M12×80
 41
0.8
  7
EXT08
  0
LINE
  5
203A7
  8
MOJI
 10
386.21675007282471
 20
2257.9637839393331
 30
0.0
 11
705.38101139872742
 21
2257.9637839393331
 31
0.0
  0
TEXT
  5
203A8
  8
MOJI
 10
424.58516340742352
 20
2273.6584058601579
 30
0.0
 40
60.0
  1
取付ボルト
 41
0.8
  7
EXT08
 72
     1
 11
557.38516340742353
 21
2273.6584058601579
 31
0.0
  0
INSERT
  5
203A9
  8
0
  2
*U58
 10
0.0
 20
0.0
 30
0.0
1001
ACAD
1000
DSTYLE
1002
{
1070
    40
1040
20.0
1070
    41
1040
2.0
1070
    42
1040
1.0
1070
    43
1040
6.0
1070
    44
1040
1.0
1070
    73
1070
     0
1070
    74
1070
     0
1070
    77
1070
     1
1070
    78
1070
     8
1070
   140
1040
3.0
1070
   147
1040
1.1999999999999991
1070
   172
1070
     1
1070
   179
1070
     2
1070
   271
1070
     2
1070
   272
1070
     2
1070
   279
1070
     2
1070
   340
1005
1372
1002
}
  0
INSERT
  5
203AA
  8
0
  2
*U59
 10
0.0
 20
0.0
 30
0.0
1001
ACAD
1000
DSTYLE
1002
{
1070
    40
1040
20.0
1070
    41
1040
2.0
1070
    42
1040
1.0
1070
    43
1040
6.0
1070
    44
1040
1.0
1070
    73
1070
     0
1070
    74
1070
     0
1070
    77
1070
     1
1070
    78
1070
     8
1070
   140
1040
3.0
1070
   147
1040
1.1999999999999991
1070
   172
1070
     1
1070
   179
1070
     2
1070
   271
1070
     2
1070
   272
1070
     2
1070
   279
1070
     2
1070
   340
1005
1372
1002
}
  0
VIEWPORT
  5
BDE
 67
     1
  8
0
 10
6.5780254777070057
 20
4.5
 30
0.0
 40
13.15605095541401
 41
9.0
 68
     1
 69
     1
1001
ACAD
1000
MVIEW
1002
{
1070
    16
1010
0.0
1020
0.0
1030
0.0
1010
0.0
1020
0.0
1030
1.0
1040
0.0
1040
9.0
1040
6.5780254777070057
1040
4.5
1040
50.0
1040
0.0
1040
0.0
1070
     0
1070
   100
1070
     1
1070
     1
1070
     0
1070
     0
1070
     0
1070
     0
1040
0.0
1040
0.0
1040
0.0
1040
10.0
1040
10.0
1040
0.0
1040
0.0
1070
     0
1002
{
1002
}
1002
}
  0
ENDSEC
  0
EOF
