  0
SECTION
  2
HEADER
  9
$ACADVER
  1
AC1009
  9
$INSBASE
 10
0.0
 20
0.0
 30
0.0
  9
$EXTMIN
 10
0.0
 20
0.0
 30
0.0
  9
$EXTMAX
 10
6150.0
 20
4305.0
 30
0.0
  9
$LIMMIN
 10
0.0
 20
0.0
  9
$LIMMAX
 10
6300.0
 20
4455.0
  9
$ORTHOMODE
 70
     1
  9
$REGENMODE
 70
     1
  9
$FILLMODE
 70
     1
  9
$QTEXTMODE
 70
     0
  9
$MIRRTEXT
 70
     0
  9
$DRAGMODE
 70
     2
  9
$LTSCALE
 40
150.0
  9
$OSMODE
 70
    37
  9
$ATTMODE
 70
     1
  9
$TEXTSIZE
 40
45.0
  9
$TRACEWID
 40
1.0
  9
$TEXTSTYLE
  7
EXT08
  9
$CLAYER
  8
0
  9
$CELTYPE
  6
BYLAYER
  9
$CECOLOR
 62
   256
  9
$DIMSCALE
 40
15.0
  9
$DIMASZ
 40
2.0
  9
$DIMEXO
 40
1.0
  9
$DIMDLI
 40
6.0
  9
$DIMRND
 40
0.0
  9
$DIMDLE
 40
0.0
  9
$DIMEXE
 40
1.0
  9
$DIMTP
 40
0.0
  9
$DIMTM
 40
0.0
  9
$DIMTXT
 40
3.0
  9
$DIMCEN
 40
0.09
  9
$DIMTSZ
 40
0.0
  9
$DIMTOL
 70
     0
  9
$DIMLIM
 70
     0
  9
$DIMTIH
 70
     0
  9
$DIMTOH
 70
     0
  9
$DIMSE1
 70
     0
  9
$DIMSE2
 70
     0
  9
$DIMTAD
 70
     1
  9
$DIMZIN
 70
     8
  9
$DIMBLK
  1

  9
$DIMASO
 70
     1
  9
$DIMSHO
 70
     1
  9
$DIMPOST
  1

  9
$DIMAPOST
  1

  9
$DIMALT
 70
     0
  9
$DIMALTD
 70
     2
  9
$DIMALTF
 40
25.399999999999999
  9
$DIMLFAC
 40
1.0
  9
$DIMTOFL
 70
     1
  9
$DIMTVP
 40
0.0
  9
$DIMTIX
 70
     0
  9
$DIMSOXD
 70
     0
  9
$DIMSAH
 70
     0
  9
$DIMBLK1
  1

  9
$DIMBLK2
  1

  9
$DIMSTYLE
  2
SJC
  9
$DIMCLRD
 70
     0
  9
$DIMCLRE
 70
     0
  9
$DIMCLRT
 70
     0
  9
$DIMTFAC
 40
1.0
  9
$DIMGAP
 40
1.1999999999999991
  9
$LUNITS
 70
     2
  9
$LUPREC
 70
     2
  9
$SKETCHINC
 40
1.0
  9
$FILLETRAD
 40
200.0
  9
$AUNITS
 70
     0
  9
$AUPREC
 70
     0
  9
$MENU
  1
.
  9
$ELEVATION
 40
0.0
  9
$PELEVATION
 40
0.0
  9
$THICKNESS
 40
0.0
  9
$LIMCHECK
 70
     0
  9
$BLIPMODE
 70
     0
  9
$CHAMFERA
 40
0.0
  9
$CHAMFERB
 40
0.0
  9
$SKPOLY
 70
     0
  9
$TDCREATE
 40
2456287.4708731128
  9
$TDUPDATE
 40
2456560.4237767588
  9
$TDINDWG
 40
0.1509592477
  9
$TDUSRTIMER
 40
0.1509590625
  9
$USRTIMER
 70
     1
  9
$ANGBASE
 50
0.0
  9
$ANGDIR
 70
     0
  9
$PDMODE
 70
    33
  9
$PDSIZE
 40
5.0
  9
$PLINEWID
 40
0.0
  9
$COORDS
 70
     1
  9
$SPLFRAME
 70
     0
  9
$SPLINETYPE
 70
     6
  9
$SPLINESEGS
 70
     8
  9
$ATTDIA
 70
     0
  9
$ATTREQ
 70
     1
  9
$HANDLING
 70
     1
  9
$HANDSEED
  5
1C64
  9
$SURFTAB1
 70
     6
  9
$SURFTAB2
 70
     6
  9
$SURFTYPE
 70
     6
  9
$SURFU
 70
     6
  9
$SURFV
 70
     6
  9
$UCSNAME
  2

  9
$UCSORG
 10
0.0
 20
0.0
 30
0.0
  9
$UCSXDIR
 10
1.0
 20
0.0
 30
0.0
  9
$UCSYDIR
 10
0.0
 20
1.0
 30
0.0
  9
$PUCSNAME
  2

  9
$PUCSORG
 10
0.0
 20
0.0
 30
0.0
  9
$PUCSXDIR
 10
1.0
 20
0.0
 30
0.0
  9
$PUCSYDIR
 10
0.0
 20
1.0
 30
0.0
  9
$USERI1
 70
     3
  9
$USERI2
 70
    15
  9
$USERI3
 70
     0
  9
$USERI4
 70
     0
  9
$USERI5
 70
     0
  9
$USERR1
 40
0.0
  9
$USERR2
 40
0.0
  9
$USERR3
 40
0.0
  9
$USERR4
 40
0.0
  9
$USERR5
 40
0.0
  9
$WORLDVIEW
 70
     1
  9
$SHADEDGE
 70
     3
  9
$SHADEDIF
 70
    70
  9
$TILEMODE
 70
     1
  9
$MAXACTVP
 70
    64
  9
$PLIMCHECK
 70
     0
  9
$PEXTMIN
 10
0.0
 20
0.0
 30
0.0
  9
$PEXTMAX
 10
0.0
 20
0.0
 30
0.0
  9
$PLIMMIN
 10
0.0
 20
0.0
  9
$PLIMMAX
 10
12.0
 20
9.0
  9
$UNITMODE
 70
     0
  9
$VISRETAIN
 70
     1
  9
$PLINEGEN
 70
     0
  9
$PSLTSCALE
 70
     1
  0
ENDSEC
  0
SECTION
  2
TABLES
  0
TABLE
  2
VPORT
 70
     2
  0
VPORT
  2
*ACTIVE
 70
     0
 10
0.0
 20
0.0
 11
1.0
 21
1.0
 12
5221.3053686685789
 22
2280.3068076529571
 13
0.0
 23
0.0
 14
10.0
 24
10.0
 15
10.0
 25
10.0
 16
0.0
 26
0.0
 36
1.0
 17
0.0
 27
0.0
 37
0.0
 40
6723.3950688593413
 41
1.9010526315789471
 42
50.0
 43
0.0
 44
0.0
 50
0.0
 51
0.0
 71
     0
 72
  1000
 73
     1
 74
     3
 75
     0
 76
     0
 77
     0
 78
     0
  0
ENDTAB
  0
TABLE
  2
LTYPE
 70
     4
  0
LTYPE
  2
CONTINUOUS
 70
     0
  3
Solid line
 72
    65
 73
     0
 40
0.0
  0
LTYPE
  2
PHANTOM
 70
     0
  3
Phantom ______  __  __  ______  __  __  ______
 72
    65
 73
     6
 40
2.5
 49
1.25
 49
-0.25
 49
0.25
 49
-0.25
 49
0.25
 49
-0.25
  0
LTYPE
  2
CENTER
 70
     0
  3
Center ____ _ ____ _ ____ _ ____ _ ____ _ ____
 72
    65
 73
     4
 40
2.0
 49
1.25
 49
-0.25
 49
0.25
 49
-0.25
  0
LTYPE
  2
HIDDEN
 70
     0
  3
Hidden __ __ __ __ __ __ __ __ __ __ __ __ __ _
 72
    65
 73
     2
 40
0.375
 49
0.25
 49
-0.125
  0
ENDTAB
  0
TABLE
  2
LAYER
 70
    15
  0
LAYER
  2
0
 70
     0
 62
     7
  6
CONTINUOUS
  0
LAYER
  2
ZWAKU
 70
     1
 62
    -7
  6
CONTINUOUS
  0
LAYER
  2
SJC
 70
     0
 62
     1
  6
CONTINUOUS
  0
LAYER
  2
INFORMATION
 70
     1
 62
     7
  6
CONTINUOUS
  0
LAYER
  2
SJC2
 70
     0
 62
     7
  6
CONTINUOUS
  0
LAYER
  2
KASOU
 70
     0
 62
     2
  6
PHANTOM
  0
LAYER
  2
CENTER
 70
     0
 62
     3
  6
CENTER
  0
LAYER
  2
SUNPOU
 70
     0
 62
     4
  6
CONTINUOUS
  0
LAYER
  2
WAKU
 70
     0
 62
     5
  6
CONTINUOUS
  0
LAYER
  2
MOJI
 70
     0
 62
     6
  6
CONTINUOUS
  0
LAYER
  2
MOJI2
 70
     0
 62
     1
  6
CONTINUOUS
  0
LAYER
  2
HASEN
 70
     0
 62
     7
  6
HIDDEN
  0
LAYER
  2
HATCH
 70
     0
 62
     2
  6
CONTINUOUS
  0
LAYER
  2
HOJO
 70
     0
 62
    -8
  6
CONTINUOUS
  0
LAYER
  2
DEFPOINTS
 70
     0
 62
     7
  6
CONTINUOUS
  0
ENDTAB
  0
TABLE
  2
STYLE
 70
     8
  0
STYLE
  2
STANDARD
 70
     0
 40
0.0
 41
1.0
 50
0.0
 71
     0
 42
3.0
  3
txt.shx
  4
extfont2.shx
  0
STYLE
  2
KANJI
 70
     0
 40
0.0
 41
1.0
 50
0.0
 71
     0
 42
0.0
  3
ROMANS.SHX
  4
BIGFONT.SHX
  0
STYLE
  2
SIMPLEX
 70
     0
 40
0.0
 41
1.0
 50
0.0
 71
     0
 42
0.0
  3
SCRIPTS.shx
  4

  0
STYLE
  2
TATEEXT
 70
     4
 40
0.0
 41
1.0
 50
0.0
 71
     0
 42
0.0
  3
ROMANS.shx
  4
EXTFONT.shx
  0
STYLE
  2
TATEBIG
 70
     4
 40
0.0
 41
1.0
 50
0.0
 71
     0
 42
0.0
  3
ROMANS.shx
  4
BIGFONT.shx
  0
STYLE
  2
EXT08
 70
     0
 40
0.0
 41
0.8
 50
0.0
 71
     0
 42
45.0
  3
ROMANS.shx
  4
EXTFONT.shx
  0
STYLE
  2
EXT
 70
     0
 40
0.0
 41
1.0
 50
0.0
 71
     0
 42
0.0
  3
ROMANS.shx
  4
EXTFONT.shx
  0
STYLE
  2
KANJI08
 70
     0
 40
0.0
 41
0.8
 50
0.0
 71
     0
 42
0.0
  3
ROMANS.shx
  4
BIGFONT.shx
  0
ENDTAB
  0
TABLE
  2
VIEW
 70
     0
  0
ENDTAB
  0
TABLE
  2
UCS
 70
     0
  0
ENDTAB
  0
TABLE
  2
APPID
 70
     2
  0
APPID
  2
ACAD
 70
     0
  0
APPID
  2
ACAD_PSEXT
 70
     0
  0
ENDTAB
  0
TABLE
  2
DIMSTYLE
 70
     5
  0
DIMSTYLE
  2
ISO-25
 70
     0
  3

  4

  5

  6

  7

 40
1.0
 41
2.5
 42
0.625
 43
3.75
 44
1.25
 45
0.0
 46
0.0
 47
0.0
 48
0.0
140
2.5
141
2.5
142
0.0
143
0.03937007874016
144
1.0
145
0.0
146
1.0
147
0.625
 71
     0
 72
     0
 73
     0
 74
     0
 75
     0
 76
     0
 77
     1
 78
     8
170
     0
171
     3
172
     1
173
     0
174
     0
175
     0
176
     0
177
     0
178
     0
  0
DIMSTYLE
  2
STANDARD
 70
     0
  3

  4

  5

  6

  7

 40
1.0
 41
0.18
 42
0.0625
 43
0.38
 44
0.18
 45
0.0
 46
0.0
 47
0.0
 48
0.0
140
0.18
141
0.09
142
0.0
143
25.399999999999999
144
1.0
145
0.0
146
1.0
147
0.09
 71
     0
 72
     0
 73
     1
 74
     1
 75
     0
 76
     0
 77
     0
 78
     0
170
     0
171
     2
172
     0
173
     0
174
     0
175
     0
176
     0
177
     0
178
     0
  0
DIMSTYLE
  2
RUISEKI1
 70
     0
  3

  4

  5

  6
DOT
  7

 40
15.0
 41
2.0
 42
1.0
 43
6.0
 44
30.0
 45
0.0
 46
0.0
 47
0.0
 48
0.0
140
0.18
141
0.09
142
0.0
143
25.399999999999999
144
1.0
145
0.0
146
1.0
147
1.5
 71
     0
 72
     0
 73
     1
 74
     1
 75
     0
 76
     0
 77
     1
 78
     0
170
     0
171
     2
172
     0
173
     1
174
     0
175
     0
176
     0
177
     0
178
     0
  0
DIMSTYLE
  2
RUISEKI2
 70
     0
  3

  4

  5

  6
NONE
  7

 40
15.0
 41
2.0
 42
1.0
 43
6.0
 44
30.0
 45
0.0
 46
0.0
 47
0.0
 48
0.0
140
0.18
141
0.09
142
0.0
143
25.399999999999999
144
1.0
145
0.0
146
1.0
147
1.5
 71
     0
 72
     0
 73
     1
 74
     1
 75
     0
 76
     0
 77
     1
 78
     0
170
     0
171
     2
172
     0
173
     1
174
     0
175
     0
176
     0
177
     0
178
     0
  0
DIMSTYLE
  2
SJC
 70
     0
  3

  4

  5

  6

  7

 40
1.0
 41
0.18
 42
0.0625
 43
0.38
 44
0.18
 45
0.0
 46
0.0
 47
0.0
 48
0.0
140
0.18
141
0.09
142
0.0
143
25.399999999999999
144
1.0
145
0.0
146
1.0
147
0.09
 71
     0
 72
     0
 73
     1
 74
     1
 75
     0
 76
     0
 77
     0
 78
     0
170
     0
171
     2
172
     0
173
     0
174
     0
175
     0
176
     0
177
     0
178
     0
  0
ENDTAB
  0
ENDSEC
  0
SECTION
  2
BLOCKS
  0
BLOCK
  8
0
  2
$MODEL_SPACE
 70
     0
 10
0.0
 20
0.0
 30
0.0
  3
$MODEL_SPACE
  1

  0
ENDBLK
  5
21
  8
0
  0
BLOCK
 67
     1
  8
0
  2
$PAPER_SPACE
 70
     0
 10
0.0
 20
0.0
 30
0.0
  3
$PAPER_SPACE
  1

  0
ENDBLK
  5
D5
 67
     1
  8
0
  0
BLOCK
  8
0
  2
SEIKO_LS-1100A3
 70
     0
 10
0.0
 20
0.0
 30
0.0
  3
SEIKO_LS-1100A3
  1

  0
POLYLINE
  5
F8
  8
ZWAKU
 66
     1
 10
0.0
 20
0.0
 30
0.0
 70
     1
  0
VERTEX
  5
1A8C
  8
ZWAKU
 10
0.0
 20
0.0
 30
0.0
  0
VERTEX
  5
1A8D
  8
ZWAKU
 10
0.0
 20
287.0
 30
0.0
  0
VERTEX
  5
1A8E
  8
ZWAKU
 10
410.0
 20
287.0
 30
0.0
  0
VERTEX
  5
1A8F
  8
ZWAKU
 10
410.0
 20
0.0
 30
0.0
  0
SEQEND
  5
1A90
  8
ZWAKU
  0
ENDBLK
  5
FA
  8
0
  0
BLOCK
  8
0
  2
_DOT
 70
     0
 10
0.0
 20
0.0
 30
0.0
  3
_DOT
  1

  0
POLYLINE
  5
10F
  8
0
  6
BYBLOCK
 62
     0
 66
     1
 10
0.0
 20
0.0
 30
0.0
 70
     1
 40
0.5
 41
0.5
  0
VERTEX
  5
1A91
  8
0
  6
BYBLOCK
 62
     0
 10
-0.25
 20
0.0
 30
0.0
 42
1.0
  0
VERTEX
  5
1A92
  8
0
  6
BYBLOCK
 62
     0
 10
0.25
 20
0.0
 30
0.0
 42
1.0
  0
SEQEND
  5
1A93
  8
0
  6
BYBLOCK
 62
     0
  0
LINE
  5
110
  8
0
  6
BYBLOCK
 62
     0
 10
-0.5
 20
0.0
 30
0.0
 11
-1.0
 21
0.0
 31
0.0
  0
ENDBLK
  5
112
  8
0
  0
BLOCK
  8
0
  2
_NONE
 70
     0
 10
0.0
 20
0.0
 30
0.0
  3
_NONE
  1

  0
ENDBLK
  5
116
  8
0
  0
BLOCK
  8
0
  2
B0040021
 70
     0
 10
0.0
 20
0.0
 30
0.0
  3
B0040021
  1

  0
LINE
  5
12E
  8
HATCH
 10
90.534596808877254
 20
-7.5000000000002274
 30
0.0
 11
117.0518952133159
 21
-34.017298404438861
 31
0.0
  0
LINE
  5
12F
  8
HATCH
 10
98.034596808877254
 20
0.0
 30
0.0
 11
132.0518952133159
 21
-34.017298404438861
 31
0.0
  0
LINE
  5
130
  8
HATCH
 10
22.5
 20
-7.5000000000002274
 30
0.0
 11
49.017298404438627
 21
-34.017298404438861
 31
0.0
  0
LINE
  5
131
  8
HATCH
 10
30.0
 20
0.0
 30
0.0
 11
-4.0172984044386331
 21
-34.017298404438861
 31
0.0
  0
LINE
  5
132
  8
HATCH
 10
15.0
 20
-15.000000000000229
 30
0.0
 11
34.017298404438627
 21
-34.017298404438861
 31
0.0
  0
LINE
  5
133
  8
HATCH
 10
0.0
 20
0.0
 30
0.0
 11
-34.017298404438627
 21
-34.017298404438861
 31
0.0
  0
LINE
  5
134
  8
HATCH
 10
15.0
 20
0.0
 30
0.0
 11
-19.01729840443863
 21
-34.017298404438861
 31
0.0
  0
LINE
  5
135
  8
HATCH
 10
83.034596808877254
 20
0.0
 30
0.0
 11
56.517298404438861
 21
-26.51729840443863
 31
0.0
  0
LINE
  5
136
  8
HATCH
 10
98.034596808877254
 20
0.0
 30
0.0
 11
64.017298404438634
 21
-34.017298404438861
 31
0.0
  0
LINE
  5
137
  8
HATCH
 10
68.034596808877254
 20
0.0
 30
0.0
 11
49.017298404438861
 21
-19.01729840443863
 31
0.0
  0
LINE
  5
138
  8
HATCH
 10
30.0
 20
0.0
 30
0.0
 11
64.017298404438634
 21
-34.017298404438861
 31
0.0
  0
LINE
  5
139
  8
HATCH
 10
83.034596808877254
 20
-15.000000000000229
 30
0.0
 11
102.0518952133159
 21
-34.017298404438861
 31
0.0
  0
ENDBLK
  5
13A
  8
0
  0
BLOCK
  8
0
  2
*D5
 70
     1
 10
0.0
 20
0.0
 30
0.0
  3
*D5
  1

  0
LINE
  5
1A94
  8
SUNPOU
 10
1315.486041200897
 20
2728.4226279959089
 30
0.0
 11
1315.486041200897
 21
3198.0425213434009
 31
0.0
  0
LINE
  5
1A95
  8
SUNPOU
 10
3315.486041200897
 20
2728.4226279959089
 30
0.0
 11
3315.486041200897
 21
3198.0425213434009
 31
0.0
  0
LINE
  5
1A96
  8
SUNPOU
 10
1345.486041200897
 20
3183.0425213434009
 30
0.0
 11
3285.486041200897
 21
3183.0425213434009
 31
0.0
  0
SOLID
  5
1A97
  8
SUNPOU
 10
1345.486041200897
 20
3188.0425213434009
 30
0.0
 11
1345.486041200897
 21
3178.0425213434
 31
0.0
 12
1315.486041200897
 22
3183.0425213434009
 32
0.0
 13
1315.486041200897
 23
3183.0425213434009
 33
0.0
  0
SOLID
  5
1A98
  8
SUNPOU
 10
3285.486041200897
 20
3188.0425213434009
 30
0.0
 11
3285.486041200897
 21
3178.0425213434
 31
0.0
 12
3315.486041200897
 22
3183.0425213434009
 32
0.0
 13
3315.486041200897
 23
3183.0425213434009
 33
0.0
  0
TEXT
  8
SUNPOU
  40
45
  5
1C5A
  72
0
  71
0
 10
2225.49
 20
3143.89
 30
0.000000
  1
2000
  7
KANJI08
  0
POINT
  5
1A9A
  8
DEFPOINTS
 62
     0
 10
1315.486041200897
 20
2713.4226279959089
 30
0.0
  0
POINT
  5
1A9B
  8
DEFPOINTS
 62
     0
 10
3315.486041200897
 20
2713.4226279959089
 30
0.0
  0
POINT
  5
1A9C
  8
DEFPOINTS
 62
     0
 10
3315.486041200897
 20
3183.0425213434009
 30
0.0
  0
ENDBLK
  5
418
  8
0
  0
BLOCK
  8
0
  2
*D6
 70
     1
 10
0.0
 20
0.0
 30
0.0
  3
*D6
  1

  0
LINE
  5
1A9D
  8
SUNPOU
 10
1050.350081079345
 20
1551.572627995909
 30
0.0
 11
803.72619141144935
 21
1551.572627995909
 31
0.0
  0
LINE
  5
1A9E
  8
SUNPOU
 10
889.94737533880095
 20
2151.572627995909
 30
0.0
 11
803.72619141144946
 21
2151.572627995909
 31
0.0
  0
LINE
  5
1A9F
  8
SUNPOU
 10
818.72619141144935
 20
1581.572627995909
 30
0.0
 11
818.72619141144946
 21
2121.572627995909
 31
0.0
  0
SOLID
  5
1AA0
  8
SUNPOU
 10
813.72619141144935
 20
1581.572627995909
 30
0.0
 11
823.72619141144935
 21
1581.572627995909
 31
0.0
 12
818.72619141144935
 22
1551.572627995909
 32
0.0
 13
818.72619141144935
 23
1551.572627995909
 33
0.0
  0
SOLID
  5
1AA1
  8
SUNPOU
 10
813.72619141144935
 20
2121.572627995909
 30
0.0
 11
823.72619141144935
 21
2121.572627995909
 31
0.0
 12
818.72619141144946
 22
2151.572627995909
 32
0.0
 13
818.72619141144946
 23
2151.572627995909
 33
0.0
  0
TEXT
  8
SUNPOU
  40
45
  5
1C5B
  72
0
  71
0
 10
688.226
 20
1771.92
 30
0.000000
  1
600
  7
KANJI08
  0
POINT
  5
1AA3
  8
DEFPOINTS
 62
     0
 10
1065.350081079345
 20
1551.572627995909
 30
0.0
  0
POINT
  5
1AA4
  8
DEFPOINTS
 62
     0
 10
904.94737533880095
 20
2151.572627995909
 30
0.0
  0
POINT
  5
1AA5
  8
DEFPOINTS
 62
     0
 10
818.72619141144946
 20
2151.572627995909
 30
0.0
  0
ENDBLK
  5
42D
  8
0
  0
BLOCK
  8
0
  2
*D7
 70
     1
 10
0.0
 20
0.0
 30
0.0
  3
*D7
  1

  0
LINE
  5
1AA6
  8
SUNPOU
 10
1300.4860412008959
 20
2651.5726279959099
 30
0.0
 11
803.72619141144946
 21
2651.5726279959099
 31
0.0
  0
LINE
  5
1AA7
  8
SUNPOU
 10
1500.486041200897
 20
2951.572627995909
 30
0.0
 11
803.72619141144958
 21
2951.5726279959099
 31
0.0
  0
LINE
  5
1AA8
  8
SUNPOU
 10
818.72619141144946
 20
2681.5726279959099
 30
0.0
 11
818.72619141144969
 21
2921.5726279959099
 31
0.0
  0
SOLID
  5
1AA9
  8
SUNPOU
 10
813.72619141144958
 20
2681.5726279959099
 30
0.0
 11
823.72619141144958
 21
2681.5726279959099
 31
0.0
 12
818.72619141144946
 22
2651.5726279959099
 32
0.0
 13
818.72619141144946
 23
2651.5726279959099
 33
0.0
  0
SOLID
  5
1AAA
  8
SUNPOU
 10
813.72619141144958
 20
2921.5726279959099
 30
0.0
 11
823.72619141144958
 21
2921.5726279959099
 31
0.0
 12
818.72619141144969
 22
2951.5726279959099
 32
0.0
 13
818.72619141144969
 23
2951.5726279959099
 33
0.0
  0
TEXT
  8
SUNPOU
  40
45
  5
1C5C
  72
0
  71
0
 10
688.226
 20
2721.92
 30
0.000000
  1
300
  7
KANJI08
  0
POINT
  5
1AAC
  8
DEFPOINTS
 62
     0
 10
1315.486041200897
 20
2651.5726279959099
 30
0.0
  0
POINT
  5
1AAD
  8
DEFPOINTS
 62
     0
 10
1515.486041200897
 20
2951.572627995909
 30
0.0
  0
POINT
  5
1AAE
  8
DEFPOINTS
 62
     0
 10
818.72619141144969
 20
2951.5726279959099
 30
0.0
  0
ENDBLK
  5
451
  8
0
  0
BLOCK
  8
0
  2
*D8
 70
     1
 10
0.0
 20
0.0
 30
0.0
  3
*D8
  1

  0
LINE
  5
1AAF
  8
SUNPOU
 10
1050.350081079345
 20
1551.5726279959081
 30
0.0
 11
699.8603506339764
 21
1551.5726279959081
 31
0.0
  0
LINE
  5
1AB0
  8
SUNPOU
 10
1460.486041200897
 20
2951.572627995909
 30
0.0
 11
699.86035063397685
 21
2951.5726279959099
 31
0.0
  0
LINE
  5
1AB1
  8
SUNPOU
 10
714.86035063397651
 20
1581.5726279959081
 30
0.0
 11
714.86035063397685
 21
2921.5726279959099
 31
0.0
  0
SOLID
  5
1AB2
  8
SUNPOU
 10
709.86035063397651
 20
1581.5726279959081
 30
0.0
 11
719.86035063397651
 21
1581.5726279959081
 31
0.0
 12
714.86035063397651
 22
1551.5726279959081
 32
0.0
 13
714.86035063397651
 23
1551.5726279959081
 33
0.0
  0
SOLID
  5
1AB3
  8
SUNPOU
 10
709.86035063397685
 20
2921.5726279959099
 30
0.0
 11
719.86035063397685
 21
2921.5726279959099
 31
0.0
 12
714.86035063397685
 22
2951.5726279959099
 32
0.0
 13
714.86035063397685
 23
2951.5726279959099
 33
0.0
  0
TEXT
  8
SUNPOU
  40
45
  5
1C5D
  72
0
  71
0
 10
584.360
 20
2171.92
 30
0.000000
  1
1400
  7
KANJI08
  0
POINT
  5
1AB5
  8
DEFPOINTS
 62
     0
 10
1065.350081079345
 20
1551.5726279959081
 30
0.0
  0
POINT
  5
1AB6
  8
DEFPOINTS
 62
     0
 10
1475.486041200897
 20
2951.572627995909
 30
0.0
  0
POINT
  5
1AB7
  8
DEFPOINTS
 62
     0
 10
714.86035063397685
 20
2951.5726279959099
 30
0.0
  0
ENDBLK
  5
45D
  8
0
  0
BLOCK
  8
0
  2
*D9
 70
     1
 10
0.0
 20
0.0
 30
0.0
  3
*D9
  1

  0
LINE
  5
1AB8
  8
SUNPOU
 62
     0
 10
1515.4860412008979
 20
2713.4226279959098
 30
0.0
 11
1393.9874539776449
 21
2832.3263424154102
 31
0.0
  0
TEXT
  8
SUNPOU
  40
45
  5
1C5E
  62
0
  72
0
  71
0
 10
1411.94
 20
2711.04
 30
0.000000
  1
R200
  7
EXT08
  0
SOLID
  5
1ABA
  8
SUNPOU
 62
     0
 10
1397.484622048808
 20
2835.8998302749178
 30
0.0
 11
1390.4902859064839
 21
2828.752854555903
 31
0.0
 12
1372.5465268206019
 22
2853.3093508423808
 32
0.0
 13
1372.5465268206019
 23
2853.3093508423808
 33
0.0
  0
POINT
  5
1ABB
  8
DEFPOINTS
 62
     0
 10
1372.5465268206019
 20
2853.3093508423808
 30
0.0
  0
POINT
  5
1ABC
  8
DEFPOINTS
 62
     0
 10
1515.4860412008979
 20
2713.4226279959098
 30
0.0
  0
ENDBLK
  5
509
  8
0
  0
BLOCK
  8
0
  2
*D10
 70
     1
 10
0.0
 20
0.0
 30
0.0
  3
*D10
  1

  0
LINE
  5
1ABD
  8
SUNPOU
 62
     0
 10
1300.4860412008959
 20
2651.5726279959099
 30
0.0
 11
803.72619141144958
 21
2651.5726279959099
 31
0.0
  0
LINE
  5
1ABE
  8
SUNPOU
 62
     0
 10
1300.486041200897
 20
2401.5726279958958
 30
0.0
 11
803.72619141144958
 21
2401.5726279958958
 31
0.0
  0
LINE
  5
1ABF
  8
SUNPOU
 62
     0
 10
818.72619141144969
 20
2621.5726279959099
 30
0.0
 11
818.72619141144969
 21
2431.5726279958958
 31
0.0
  0
SOLID
  5
1AC0
  8
SUNPOU
 62
     0
 10
813.72619141144958
 20
2621.5726279959099
 30
0.0
 11
823.72619141144958
 21
2621.5726279959099
 31
0.0
 12
818.72619141144969
 22
2651.5726279959099
 32
0.0
 13
818.72619141144969
 23
2651.5726279959099
 33
0.0
  0
SOLID
  5
1AC1
  8
SUNPOU
 62
     0
 10
813.72619141144958
 20
2431.5726279958958
 30
0.0
 11
823.72619141144958
 21
2431.5726279958958
 31
0.0
 12
818.72619141144969
 22
2401.5726279958958
 32
0.0
 13
818.72619141144969
 23
2401.5726279958958
 33
0.0
  0
TEXT
  8
SUNPOU
  40
45
  5
1C5F
  62
0
  72
0
  71
0
 10
688.226
 20
2446.92
 30
0.000000
  1
250
  7
EXT08
  0
POINT
  5
1AC3
  8
DEFPOINTS
 62
     0
 10
1315.486041200897
 20
2651.5726279959099
 30
0.0
  0
POINT
  5
1AC4
  8
DEFPOINTS
 62
     0
 10
1315.486041200897
 20
2401.5726279958958
 30
0.0
  0
POINT
  5
1AC5
  8
DEFPOINTS
 62
     0
 10
818.72619141144969
 20
2401.5726279958958
 30
0.0
  0
ENDBLK
  5
552
  8
0
  0
BLOCK
  8
0
  2
*D11
 70
     1
 10
0.0
 20
0.0
 30
0.0
  3
*D11
  1

  0
LINE
  5
1AC6
  8
SUNPOU
 62
     0
 10
1300.486041200897
 20
2401.5726279958958
 30
0.0
 11
803.72619141144946
 21
2401.5726279958958
 31
0.0
  0
LINE
  5
1AC7
  8
SUNPOU
 62
     0
 10
889.94737533880095
 20
2151.572627995909
 30
0.0
 11
803.72619141144946
 21
2151.572627995909
 31
0.0
  0
LINE
  5
1AC8
  8
SUNPOU
 62
     0
 10
818.72619141144946
 20
2371.5726279958972
 30
0.0
 11
818.72619141144946
 21
2181.572627995909
 31
0.0
  0
SOLID
  5
1AC9
  8
SUNPOU
 62
     0
 10
813.72619141144958
 20
2371.5726279958972
 30
0.0
 11
823.72619141144958
 21
2371.5726279958972
 31
0.0
 12
818.72619141144946
 22
2401.5726279958958
 32
0.0
 13
818.72619141144946
 23
2401.5726279958958
 33
0.0
  0
SOLID
  5
1ACA
  8
SUNPOU
 62
     0
 10
813.72619141144935
 20
2181.572627995909
 30
0.0
 11
823.72619141144935
 21
2181.572627995909
 31
0.0
 12
818.72619141144946
 22
2151.572627995909
 32
0.0
 13
818.72619141144946
 23
2151.572627995909
 33
0.0
  0
TEXT
  8
SUNPOU
  40
45
  5
1C60
  62
0
  72
0
  71
0
 10
688.226
 20
2196.92
 30
0.000000
  1
250
  7
EXT08
  0
POINT
  5
1ACC
  8
DEFPOINTS
 62
     0
 10
1315.486041200897
 20
2401.5726279958958
 30
0.0
  0
POINT
  5
1ACD
  8
DEFPOINTS
 62
     0
 10
904.94737533880095
 20
2151.572627995909
 30
0.0
  0
POINT
  5
1ACE
  8
DEFPOINTS
 62
     0
 10
818.72619141144946
 20
2151.572627995909
 30
0.0
  0
ENDBLK
  5
55F
  8
0
  0
BLOCK
  8
0
  2
*D12
 70
     1
 10
0.0
 20
0.0
 30
0.0
  3
*D12
  1

  0
LINE
  5
1ACF
  8
SUNPOU
 62
     0
 10
1115.4860412008959
 20
1536.572627995909
 30
0.0
 11
1115.4860412008959
 21
1335.385379250705
 31
0.0
  0
LINE
  5
1AD0
  8
SUNPOU
 62
     0
 10
1515.486041200897
 20
1536.572627995909
 30
0.0
 11
1515.486041200897
 21
1335.385379250705
 31
0.0
  0
LINE
  5
1AD1
  8
SUNPOU
 62
     0
 10
1145.4860412008959
 20
1350.385379250705
 30
0.0
 11
1485.4860412008959
 21
1350.385379250705
 31
0.0
  0
SOLID
  5
1AD2
  8
SUNPOU
 62
     0
 10
1145.4860412008959
 20
1355.385379250705
 30
0.0
 11
1145.4860412008959
 21
1345.385379250705
 31
0.0
 12
1115.4860412008959
 22
1350.385379250705
 32
0.0
 13
1115.4860412008959
 23
1350.385379250705
 33
0.0
  0
SOLID
  5
1AD3
  8
SUNPOU
 62
     0
 10
1485.4860412008959
 20
1355.385379250705
 30
0.0
 11
1485.4860412008959
 21
1345.385379250705
 31
0.0
 12
1515.486041200897
 22
1350.385379250705
 32
0.0
 13
1515.486041200897
 23
1350.385379250705
 33
0.0
  0
TEXT
  8
SUNPOU
  40
45
  5
1C61
  62
0
  72
0
  71
0
 10
1225.49
 20
1311.24
 30
0.000000
  1
400
  7
EXT08
  0
POINT
  5
1AD5
  8
DEFPOINTS
 62
     0
 10
1115.4860412008959
 20
1551.572627995909
 30
0.0
  0
POINT
  5
1AD6
  8
DEFPOINTS
 62
     0
 10
1515.486041200897
 20
1551.572627995909
 30
0.0
  0
POINT
  5
1AD7
  8
DEFPOINTS
 62
     0
 10
1515.486041200897
 20
1350.385379250705
 30
0.0
  0
ENDBLK
  5
67B
  8
0
  0
BLOCK
  8
0
  2
*D13
 70
     1
 10
0.0
 20
0.0
 30
0.0
  3
*D13
  1

  0
LINE
  5
1ADC
  8
SUNPOU
 62
     0
 10
4784.4355135998267
 20
1536.572627995909
 30
0.0
 11
4784.4355135998267
 21
1335.385379250705
 31
0.0
  0
LINE
  5
1ADD
  8
SUNPOU
 62
     0
 10
5184.4355135998276
 20
1536.572627995909
 30
0.0
 11
5184.4355135998276
 21
1335.385379250705
 31
0.0
  0
LINE
  5
1ADE
  8
SUNPOU
 62
     0
 10
4814.4355135998276
 20
1350.385379250705
 30
0.0
 11
5154.4355135998267
 21
1350.385379250705
 31
0.0
  0
SOLID
  5
1ADF
  8
SUNPOU
 62
     0
 10
4814.4355135998276
 20
1355.385379250705
 30
0.0
 11
4814.4355135998276
 21
1345.385379250705
 31
0.0
 12
4784.4355135998267
 22
1350.385379250705
 32
0.0
 13
4784.4355135998267
 23
1350.385379250705
 33
0.0
  0
SOLID
  5
1AE0
  8
SUNPOU
 62
     0
 10
5154.4355135998267
 20
1355.385379250705
 30
0.0
 11
5154.4355135998267
 21
1345.385379250705
 31
0.0
 12
5184.4355135998276
 22
1350.385379250705
 32
0.0
 13
5184.4355135998276
 23
1350.385379250705
 33
0.0
  0
TEXT
  8
SUNPOU
  40
45
  5
1C62
  62
0
  72
0
  71
0
 10
4894.44
 20
1311.24
 30
0.000000
  1
400
  7
EXT08
  0
POINT
  5
1AE2
  8
DEFPOINTS
 62
     0
 10
4784.4355135998267
 20
1551.572627995909
 30
0.0
  0
POINT
  5
1AE3
  8
DEFPOINTS
 62
     0
 10
5184.4355135998276
 20
1551.572627995909
 30
0.0
  0
POINT
  5
1AE4
  8
DEFPOINTS
 62
     0
 10
5184.4355135998276
 20
1350.385379250705
 30
0.0
  0
ENDBLK
  5
174E
  8
0
  0
BLOCK
  8
0
  2
*D14
 70
     1
 10
0.0
 20
0.0
 30
0.0
  3
*D14
  1

  0
LINE
  5
1AE5
  8
SUNPOU
 62
     0
 10
3315.486041200897
 20
2728.4226279959089
 30
0.0
 11
3315.486041200897
 21
3196.1818409568459
 31
0.0
  0
LINE
  5
1AE6
  8
SUNPOU
 62
     0
 10
3415.4860412008961
 20
2728.4226279959089
 30
0.0
 11
3415.4860412008961
 21
3196.1818409568459
 31
0.0
  0
LINE
  5
1AE7
  8
SUNPOU
 62
     0
 10
3345.486041200897
 20
3181.1818409568459
 30
0.0
 11
3385.486041200897
 21
3181.1818409568459
 31
0.0
  0
TEXT
  8
SUNPOU
  40
45
  5
1C63
  62
0
  72
0
  71
0
 10
3275.49
 20
3166.03
 30
0.000000
  1
100
  7
EXT08
  0
SOLID
  5
1AE9
  8
SUNPOU
 62
     0
 10
3345.486041200897
 20
3186.1818409568459
 30
0.0
 11
3345.486041200897
 21
3176.1818409568459
 31
0.0
 12
3315.486041200897
 22
3181.1818409568459
 32
0.0
 13
3315.486041200897
 23
3181.1818409568459
 33
0.0
  0
SOLID
  5
1AEA
  8
SUNPOU
 62
     0
 10
3385.486041200897
 20
3186.1818409568459
 30
0.0
 11
3385.486041200897
 21
3176.1818409568459
 31
0.0
 12
3415.4860412008961
 22
3181.1818409568459
 32
0.0
 13
3415.4860412008961
 23
3181.1818409568459
 33
0.0
  0
POINT
  5
1AEB
  8
DEFPOINTS
 62
     0
 10
3315.486041200897
 20
2713.4226279959089
 30
0.0
  0
POINT
  5
1AEC
  8
DEFPOINTS
 62
     0
 10
3415.4860412008961
 20
2713.4226279959089
 30
0.0
  0
POINT
  5
1AED
  8
DEFPOINTS
 62
     0
 10
3415.4860412008961
 20
3181.1818409568459
 30
0.0
  0
ENDBLK
  5
17E7
  8
0
  0
BLOCK
  8
0
  2
*U15
 70
     1
 10
0.0
 20
0.0
 30
0.0
  3
*U15
  1

  0
TEXT
  5
1AD9
  8
SUNPOU
 10
3904.0846183652989
 20
3201.0425213434009
 30
0.0
 40
45.0
  1
2000
 41
0.8
  7
KANJI08
  0
ENDBLK
  5
1ADB
  8
0
  0
BLOCK
  8
0
  2
*X16
 70
     1
 10
0.0
 20
0.0
 30
0.0
  3
*X16
  1

  0
LINE
  5
1AEF
  8
0
 62
     0
 10
3238.9720975007099
 20
2377.2726279959079
 30
0.0
 11
3255.4860412008961
 21
2393.7865716960941
 31
0.0
  0
LINE
  5
1AF0
  8
0
 62
     0
 10
3221.2944279710459
 20
2377.2726279959079
 30
0.0
 11
3255.4860412008961
 21
2411.4642412257581
 31
0.0
  0
LINE
  5
1AF1
  8
0
 62
     0
 10
3203.616758441382
 20
2377.272627995907
 30
0.0
 11
3252.2167584413842
 21
2425.8726279959092
 31
0.0
  0
LINE
  5
1AF2
  8
0
 62
     0
 10
3185.939088911719
 20
2377.2726279959079
 30
0.0
 11
3234.5390889117198
 21
2425.8726279959092
 31
0.0
  0
LINE
  5
1AF3
  8
0
 62
     0
 10
3168.261419382055
 20
2377.2726279959079
 30
0.0
 11
3216.8614193820558
 21
2425.8726279959092
 31
0.0
  0
LINE
  5
1AF4
  8
0
 62
     0
 10
3150.583749852392
 20
2377.2726279959079
 30
0.0
 11
3199.1837498523928
 21
2425.8726279959092
 31
0.0
  0
LINE
  5
1AF5
  8
0
 62
     0
 10
3132.906080322728
 20
2377.2726279959079
 30
0.0
 11
3181.5060803227288
 21
2425.8726279959092
 31
0.0
  0
LINE
  5
1AF6
  8
0
 62
     0
 10
3115.2284107930641
 20
2377.2726279959079
 30
0.0
 11
3163.8284107930649
 21
2425.8726279959092
 31
0.0
  0
LINE
  5
1AF7
  8
0
 62
     0
 10
3097.5507412634011
 20
2377.2726279959079
 30
0.0
 11
3146.150741263401
 21
2425.8726279959092
 31
0.0
  0
LINE
  5
1AF8
  8
0
 62
     0
 10
3079.8730717337371
 20
2377.2726279959079
 30
0.0
 11
3128.4730717337379
 21
2425.8726279959092
 31
0.0
  0
LINE
  5
1AF9
  8
0
 62
     0
 10
3062.1954022040732
 20
2377.2726279959079
 30
0.0
 11
3110.795402204074
 21
2425.8726279959092
 31
0.0
  0
LINE
  5
1AFA
  8
0
 62
     0
 10
3044.5177326744101
 20
2377.2726279959079
 30
0.0
 11
3093.11773267441
 21
2425.8726279959092
 31
0.0
  0
LINE
  5
1AFB
  8
0
 62
     0
 10
3026.8400631447462
 20
2377.2726279959088
 30
0.0
 11
3075.440063144747
 21
2425.8726279959092
 31
0.0
  0
LINE
  5
1AFC
  8
0
 62
     0
 10
3009.1623936150831
 20
2377.2726279959088
 30
0.0
 11
3057.7623936150831
 21
2425.8726279959092
 31
0.0
  0
LINE
  5
1AFD
  8
0
 62
     0
 10
2991.4847240854178
 20
2377.2726279959088
 30
0.0
 11
3040.0847240854191
 21
2425.8726279959092
 31
0.0
  0
LINE
  5
1AFE
  8
0
 62
     0
 10
2973.8070545557548
 20
2377.2726279959079
 30
0.0
 11
3022.4070545557552
 21
2425.8726279959092
 31
0.0
  0
LINE
  5
1AFF
  8
0
 62
     0
 10
2956.1293850260922
 20
2377.2726279959088
 30
0.0
 11
3004.7293850260921
 21
2425.8726279959092
 31
0.0
  0
LINE
  5
1B00
  8
0
 62
     0
 10
2938.4517154964278
 20
2377.2726279959088
 30
0.0
 11
2987.0517154964282
 21
2425.8726279959092
 31
0.0
  0
LINE
  5
1B01
  8
0
 62
     0
 10
2920.7740459667639
 20
2377.2726279959088
 30
0.0
 11
2969.3740459667652
 21
2425.8726279959092
 31
0.0
  0
LINE
  5
1B02
  8
0
 62
     0
 10
2903.0963764371008
 20
2377.2726279959088
 30
0.0
 11
2951.6963764371021
 21
2425.8726279959092
 31
0.0
  0
LINE
  5
1B03
  8
0
 62
     0
 10
2885.4187069074369
 20
2377.2726279959088
 30
0.0
 11
2934.0187069074368
 21
2425.8726279959092
 31
0.0
  0
LINE
  5
1B04
  8
0
 62
     0
 10
2867.741037377773
 20
2377.2726279959088
 30
0.0
 11
2916.3410373777729
 21
2425.8726279959092
 31
0.0
  0
LINE
  5
1B05
  8
0
 62
     0
 10
2850.063367848109
 20
2377.2726279959088
 30
0.0
 11
2898.6633678481098
 21
2425.8726279959092
 31
0.0
  0
LINE
  5
1B06
  8
0
 62
     0
 10
2832.385698318446
 20
2377.2726279959088
 30
0.0
 11
2880.9856983184468
 21
2425.8726279959092
 31
0.0
  0
LINE
  5
1B07
  8
0
 62
     0
 10
2814.708028788782
 20
2377.2726279959088
 30
0.0
 11
2863.3080287887828
 21
2425.8726279959092
 31
0.0
  0
LINE
  5
1B08
  8
0
 62
     0
 10
2797.0303592591181
 20
2377.2726279959088
 30
0.0
 11
2845.630359259118
 21
2425.8726279959092
 31
0.0
  0
LINE
  5
1B09
  8
0
 62
     0
 10
2779.3526897294551
 20
2377.2726279959088
 30
0.0
 11
2827.952689729455
 21
2425.8726279959092
 31
0.0
  0
LINE
  5
1B0A
  8
0
 62
     0
 10
2761.6750201997911
 20
2377.2726279959088
 30
0.0
 11
2810.275020199791
 21
2425.8726279959092
 31
0.0
  0
LINE
  5
1B0B
  8
0
 62
     0
 10
2743.9973506701272
 20
2377.2726279959088
 30
0.0
 11
2792.597350670128
 21
2425.8726279959092
 31
0.0
  0
LINE
  5
1B0C
  8
0
 62
     0
 10
2726.3196811404641
 20
2377.2726279959088
 30
0.0
 11
2774.919681140464
 21
2425.8726279959092
 31
0.0
  0
LINE
  5
1B0D
  8
0
 62
     0
 10
2708.6420116108002
 20
2377.2726279959088
 30
0.0
 11
2757.242011610801
 21
2425.8726279959092
 31
0.0
  0
LINE
  5
1B0E
  8
0
 62
     0
 10
2690.9643420811358
 20
2377.2726279959088
 30
0.0
 11
2739.5643420811371
 21
2425.8726279959092
 31
0.0
  0
LINE
  5
1B0F
  8
0
 62
     0
 10
2673.2866725514732
 20
2377.2726279959088
 30
0.0
 11
2721.8866725514731
 21
2425.8726279959092
 31
0.0
  0
LINE
  5
1B10
  8
0
 62
     0
 10
2655.6090030218102
 20
2377.2726279959088
 30
0.0
 11
2704.2090030218092
 21
2425.8726279959092
 31
0.0
  0
LINE
  5
1B11
  8
0
 62
     0
 10
2637.9313334921462
 20
2377.2726279959088
 30
0.0
 11
2686.5313334921452
 21
2425.8726279959092
 31
0.0
  0
LINE
  5
1B12
  8
0
 62
     0
 10
2620.2536639624818
 20
2377.2726279959088
 30
0.0
 11
2668.8536639624822
 21
2425.8726279959092
 31
0.0
  0
LINE
  5
1B13
  8
0
 62
     0
 10
2602.5759944328188
 20
2377.2726279959102
 30
0.0
 11
2651.1759944328178
 21
2425.8726279959092
 31
0.0
  0
LINE
  5
1B14
  8
0
 62
     0
 10
2584.8983249031548
 20
2377.2726279959088
 30
0.0
 11
2633.4983249031552
 21
2425.8726279959092
 31
0.0
  0
LINE
  5
1B15
  8
0
 62
     0
 10
2567.2206553734909
 20
2377.2726279959088
 30
0.0
 11
2615.8206553734899
 21
2425.8726279959092
 31
0.0
  0
LINE
  5
1B16
  8
0
 62
     0
 10
2549.5429858438279
 20
2377.2726279959088
 30
0.0
 11
2598.1429858438269
 21
2425.8726279959092
 31
0.0
  0
LINE
  5
1B17
  8
0
 62
     0
 10
2531.8653163141639
 20
2377.2726279959088
 30
0.0
 11
2580.4653163141629
 21
2425.8726279959092
 31
0.0
  0
LINE
  5
1B18
  8
0
 62
     0
 10
2514.1876467845
 20
2377.2726279959088
 30
0.0
 11
2562.7876467844999
 21
2425.8726279959092
 31
0.0
  0
LINE
  5
1B19
  8
0
 62
     0
 10
2496.5099772548369
 20
2377.2726279959102
 30
0.0
 11
2545.1099772548359
 21
2425.8726279959092
 31
0.0
  0
LINE
  5
1B1A
  8
0
 62
     0
 10
2478.832307725173
 20
2377.2726279959088
 30
0.0
 11
2527.4323077251729
 21
2425.8726279959092
 31
0.0
  0
LINE
  5
1B1B
  8
0
 62
     0
 10
2461.1546381955091
 20
2377.2726279959102
 30
0.0
 11
2509.7546381955081
 21
2425.8726279959092
 31
0.0
  0
LINE
  5
1B1C
  8
0
 62
     0
 10
2443.476968665846
 20
2377.2726279959102
 30
0.0
 11
2492.076968665845
 21
2425.8726279959092
 31
0.0
  0
LINE
  5
1B1D
  8
0
 62
     0
 10
2425.7992991361821
 20
2377.2726279959102
 30
0.0
 11
2474.3992991361811
 21
2425.8726279959092
 31
0.0
  0
LINE
  5
1B1E
  8
0
 62
     0
 10
2408.1216296065181
 20
2377.2726279959102
 30
0.0
 11
2456.721629606518
 21
2425.8726279959092
 31
0.0
  0
LINE
  5
1B1F
  8
0
 62
     0
 10
2390.4439600768551
 20
2377.2726279959102
 30
0.0
 11
2439.0439600768541
 21
2425.8726279959092
 31
0.0
  0
LINE
  5
1B20
  8
0
 62
     0
 10
2372.7662905471921
 20
2377.2726279959102
 30
0.0
 11
2421.3662905471911
 21
2425.8726279959092
 31
0.0
  0
LINE
  5
1B21
  8
0
 62
     0
 10
2355.0886210175272
 20
2377.2726279959102
 30
0.0
 11
2403.6886210175262
 21
2425.8726279959092
 31
0.0
  0
LINE
  5
1B22
  8
0
 62
     0
 10
2337.4109514878642
 20
2377.2726279959102
 30
0.0
 11
2386.0109514878632
 21
2425.8726279959092
 31
0.0
  0
LINE
  5
1B23
  8
0
 62
     0
 10
2319.7332819582002
 20
2377.2726279959102
 30
0.0
 11
2368.3332819581992
 21
2425.8726279959092
 31
0.0
  0
LINE
  5
1B24
  8
0
 62
     0
 10
2302.0556124285372
 20
2377.2726279959102
 30
0.0
 11
2350.6556124285362
 21
2425.8726279959092
 31
0.0
  0
LINE
  5
1B25
  8
0
 62
     0
 10
2284.3779428988719
 20
2377.2726279959102
 30
0.0
 11
2332.9779428988709
 21
2425.8726279959092
 31
0.0
  0
LINE
  5
1B26
  8
0
 62
     0
 10
2266.7002733692088
 20
2377.2726279959102
 30
0.0
 11
2315.3002733692078
 21
2425.8726279959092
 31
0.0
  0
LINE
  5
1B27
  8
0
 62
     0
 10
2249.0226038395449
 20
2377.2726279959102
 30
0.0
 11
2297.6226038395448
 21
2425.8726279959092
 31
0.0
  0
LINE
  5
1B28
  8
0
 62
     0
 10
2231.344934309881
 20
2377.2726279959102
 30
0.0
 11
2279.94493430988
 21
2425.8726279959092
 31
0.0
  0
LINE
  5
1B29
  8
0
 62
     0
 10
2213.6672647802179
 20
2377.2726279959102
 30
0.0
 11
2262.2672647802169
 21
2425.8726279959092
 31
0.0
  0
LINE
  5
1B2A
  8
0
 62
     0
 10
2195.989595250554
 20
2377.2726279959102
 30
0.0
 11
2244.5895952505539
 21
2425.8726279959092
 31
0.0
  0
LINE
  5
1B2B
  8
0
 62
     0
 10
2178.31192572089
 20
2377.2726279959102
 30
0.0
 11
2226.9119257208899
 21
2425.8726279959092
 31
0.0
  0
LINE
  5
1B2C
  8
0
 62
     0
 10
2160.634256191227
 20
2377.2726279959102
 30
0.0
 11
2209.234256191226
 21
2425.8726279959092
 31
0.0
  0
LINE
  5
1B2D
  8
0
 62
     0
 10
2142.9565866615631
 20
2377.2726279959102
 30
0.0
 11
2191.556586661563
 21
2425.8726279959092
 31
0.0
  0
LINE
  5
1B2E
  8
0
 62
     0
 10
2125.2789171318991
 20
2377.2726279959102
 30
0.0
 11
2173.878917131899
 21
2425.8726279959092
 31
0.0
  0
LINE
  5
1B2F
  8
0
 62
     0
 10
2107.6012476022361
 20
2377.2726279959102
 30
0.0
 11
2156.2012476022351
 21
2425.8726279959092
 31
0.0
  0
LINE
  5
1B30
  8
0
 62
     0
 10
2089.9235780725721
 20
2377.2726279959102
 30
0.0
 11
2138.5235780725711
 21
2425.8726279959092
 31
0.0
  0
LINE
  5
1B31
  8
0
 62
     0
 10
2072.2459085429091
 20
2377.2726279959102
 30
0.0
 11
2120.8459085429081
 21
2425.8726279959092
 31
0.0
  0
LINE
  5
1B32
  8
0
 62
     0
 10
2054.5682390132451
 20
2377.2726279959102
 30
0.0
 11
2103.1682390132441
 21
2425.8726279959092
 31
0.0
  0
LINE
  5
1B33
  8
0
 62
     0
 10
2036.890569483581
 20
2377.2726279959102
 30
0.0
 11
2085.4905694835811
 21
2425.8726279959092
 31
0.0
  0
LINE
  5
1B34
  8
0
 62
     0
 10
2019.212899953917
 20
2377.2726279959102
 30
0.0
 11
2067.8128999539172
 21
2425.8726279959092
 31
0.0
  0
LINE
  5
1B35
  8
0
 62
     0
 10
2001.535230424254
 20
2377.2726279959102
 30
0.0
 11
2050.1352304242532
 21
2425.8726279959092
 31
0.0
  0
LINE
  5
1B36
  8
0
 62
     0
 10
1983.8575608945901
 20
2377.2726279959102
 30
0.0
 11
2032.45756089459
 21
2425.8726279959092
 31
0.0
  0
LINE
  5
1B37
  8
0
 62
     0
 10
1966.1798913649261
 20
2377.2726279959102
 30
0.0
 11
2014.779891364926
 21
2425.8726279959092
 31
0.0
  0
LINE
  5
1B38
  8
0
 62
     0
 10
1948.5022218352619
 20
2377.2726279959102
 30
0.0
 11
1997.1022218352621
 21
2425.8726279959092
 31
0.0
  0
LINE
  5
1B39
  8
0
 62
     0
 10
1930.8245523055989
 20
2377.2726279959102
 30
0.0
 11
1979.424552305599
 21
2425.8726279959101
 31
0.0
  0
LINE
  5
1B3A
  8
0
 62
     0
 10
1913.146882775935
 20
2377.2726279959102
 30
0.0
 11
1961.7468827759351
 21
2425.8726279959092
 31
0.0
  0
LINE
  5
1B3B
  8
0
 62
     0
 10
1895.469213246271
 20
2377.2726279959102
 30
0.0
 11
1944.0692132462709
 21
2425.8726279959101
 31
0.0
  0
LINE
  5
1B3C
  8
0
 62
     0
 10
1877.7915437166071
 20
2377.2726279959102
 30
0.0
 11
1926.3915437166081
 21
2425.8726279959092
 31
0.0
  0
LINE
  5
1B3D
  8
0
 62
     0
 10
1860.113874186944
 20
2377.2726279959102
 30
0.0
 11
1908.7138741869439
 21
2425.8726279959101
 31
0.0
  0
LINE
  5
1B3E
  8
0
 62
     0
 10
1842.4362046572801
 20
2377.2726279959102
 30
0.0
 11
1891.03620465728
 21
2425.8726279959092
 31
0.0
  0
LINE
  5
1B3F
  8
0
 62
     0
 10
1824.7585351276171
 20
2377.2726279959102
 30
0.0
 11
1873.358535127617
 21
2425.8726279959101
 31
0.0
  0
LINE
  5
1B40
  8
0
 62
     0
 10
1807.0808655979531
 20
2377.2726279959102
 30
0.0
 11
1855.680865597953
 21
2425.8726279959101
 31
0.0
  0
LINE
  5
1B41
  8
0
 62
     0
 10
1789.4031960682889
 20
2377.2726279959102
 30
0.0
 11
1838.0031960682891
 21
2425.8726279959101
 31
0.0
  0
LINE
  5
1B42
  8
0
 62
     0
 10
1771.7255265386259
 20
2377.2726279959102
 30
0.0
 11
1820.325526538626
 21
2425.8726279959101
 31
0.0
  0
LINE
  5
1B43
  8
0
 62
     0
 10
1754.047857008962
 20
2377.2726279959102
 30
0.0
 11
1802.6478570089621
 21
2425.8726279959101
 31
0.0
  0
LINE
  5
1B44
  8
0
 62
     0
 10
1736.370187479298
 20
2377.2726279959102
 30
0.0
 11
1784.9701874792991
 21
2425.8726279959101
 31
0.0
  0
LINE
  5
1B45
  8
0
 62
     0
 10
1718.6925179496341
 20
2377.2726279959102
 30
0.0
 11
1767.2925179496351
 21
2425.8726279959101
 31
0.0
  0
LINE
  5
1B46
  8
0
 62
     0
 10
1701.0148484199699
 20
2377.2726279959102
 30
0.0
 11
1749.6148484199709
 21
2425.872627995911
 31
0.0
  0
LINE
  5
1B47
  8
0
 62
     0
 10
1683.3371788903071
 20
2377.2726279959102
 30
0.0
 11
1731.9371788903079
 21
2425.8726279959101
 31
0.0
  0
LINE
  5
1B48
  8
0
 62
     0
 10
1665.6595093606429
 20
2377.2726279959102
 30
0.0
 11
1714.259509360644
 21
2425.872627995911
 31
0.0
  0
LINE
  5
1B49
  8
0
 62
     0
 10
1647.981839830979
 20
2377.2726279959102
 30
0.0
 11
1696.58183983098
 21
2425.872627995911
 31
0.0
  0
LINE
  5
1B4A
  8
0
 62
     0
 10
1630.3041703013159
 20
2377.2726279959102
 30
0.0
 11
1678.904170301317
 21
2425.872627995911
 31
0.0
  0
LINE
  5
1B4B
  8
0
 62
     0
 10
1612.626500771652
 20
2377.2726279959102
 30
0.0
 11
1661.226500771653
 21
2425.872627995911
 31
0.0
  0
LINE
  5
1B4C
  8
0
 62
     0
 10
1594.948831241988
 20
2377.2726279959102
 30
0.0
 11
1643.5488312419891
 21
2425.872627995911
 31
0.0
  0
LINE
  5
1B4D
  8
0
 62
     0
 10
1577.2711617123241
 20
2377.2726279959088
 30
0.0
 11
1625.8711617123261
 21
2425.872627995911
 31
0.0
  0
LINE
  5
1B4E
  8
0
 62
     0
 10
1559.5934921826611
 20
2377.2726279959102
 30
0.0
 11
1608.1934921826621
 21
2425.872627995911
 31
0.0
  0
LINE
  5
1B4F
  8
0
 62
     0
 10
1541.9158226529969
 20
2377.2726279959088
 30
0.0
 11
1590.5158226529979
 21
2425.872627995911
 31
0.0
  0
LINE
  5
1B50
  8
0
 62
     0
 10
1524.2381531233329
 20
2377.2726279959102
 30
0.0
 11
1572.8381531233349
 21
2425.872627995911
 31
0.0
  0
LINE
  5
1B51
  8
0
 62
     0
 10
1506.5604835936699
 20
2377.2726279959102
 30
0.0
 11
1555.160483593671
 21
2425.872627995911
 31
0.0
  0
LINE
  5
1B52
  8
0
 62
     0
 10
1488.882814064006
 20
2377.2726279959102
 30
0.0
 11
1537.482814064007
 21
2425.872627995911
 31
0.0
  0
LINE
  5
1B53
  8
0
 62
     0
 10
1471.2051445343429
 20
2377.2726279959102
 30
0.0
 11
1519.805144534344
 21
2425.872627995911
 31
0.0
  0
LINE
  5
1B54
  8
0
 62
     0
 10
1453.527475004679
 20
2377.2726279959088
 30
0.0
 11
1502.12747500468
 21
2425.872627995911
 31
0.0
  0
LINE
  5
1B55
  8
0
 62
     0
 10
1435.849805475015
 20
2377.2726279959102
 30
0.0
 11
1484.449805475017
 21
2425.872627995911
 31
0.0
  0
LINE
  5
1B56
  8
0
 62
     0
 10
1418.1721359453511
 20
2377.2726279959088
 30
0.0
 11
1466.7721359453531
 21
2425.872627995911
 31
0.0
  0
LINE
  5
1B57
  8
0
 62
     0
 10
1400.4944664156881
 20
2377.2726279959102
 30
0.0
 11
1449.0944664156891
 21
2425.872627995911
 31
0.0
  0
LINE
  5
1B58
  8
0
 62
     0
 10
1382.8167968860239
 20
2377.2726279959102
 30
0.0
 11
1431.4167968860261
 21
2425.872627995911
 31
0.0
  0
LINE
  5
1B59
  8
0
 62
     0
 10
1375.486041200895
 20
2387.6195418404441
 30
0.0
 11
1413.7391273563619
 21
2425.872627995911
 31
0.0
  0
LINE
  5
1B5A
  8
0
 62
     0
 10
1375.486041200895
 20
2405.297211370108
 30
0.0
 11
1396.061457826698
 21
2425.872627995911
 31
0.0
  0
LINE
  5
1B5B
  8
0
 62
     0
 10
1375.486041200895
 20
2422.974880899772
 30
0.0
 11
1378.3837882970349
 21
2425.872627995911
 31
0.0
  0
ENDBLK
  5
1B5D
  8
0
  0
BLOCK
  8
0
  2
*X17
 70
     1
 10
0.0
 20
0.0
 30
0.0
  3
*X17
  1

  0
LINE
  5
1B5F
  8
0
 62
     0
 10
3238.9720975007099
 20
2627.2726279959079
 30
0.0
 11
3255.4860412008961
 21
2643.7865716960941
 31
0.0
  0
LINE
  5
1B60
  8
0
 62
     0
 10
3221.2944279710459
 20
2627.2726279959079
 30
0.0
 11
3255.4860412008961
 21
2661.4642412257581
 31
0.0
  0
LINE
  5
1B61
  8
0
 62
     0
 10
3203.616758441382
 20
2627.272627995907
 30
0.0
 11
3252.2167584413842
 21
2675.8726279959092
 31
0.0
  0
LINE
  5
1B62
  8
0
 62
     0
 10
3185.939088911719
 20
2627.2726279959079
 30
0.0
 11
3234.5390889117198
 21
2675.8726279959092
 31
0.0
  0
LINE
  5
1B63
  8
0
 62
     0
 10
3168.261419382055
 20
2627.2726279959079
 30
0.0
 11
3216.8614193820558
 21
2675.8726279959092
 31
0.0
  0
LINE
  5
1B64
  8
0
 62
     0
 10
3150.583749852392
 20
2627.2726279959079
 30
0.0
 11
3199.1837498523928
 21
2675.8726279959092
 31
0.0
  0
LINE
  5
1B65
  8
0
 62
     0
 10
3132.906080322728
 20
2627.2726279959079
 30
0.0
 11
3181.5060803227288
 21
2675.8726279959092
 31
0.0
  0
LINE
  5
1B66
  8
0
 62
     0
 10
3115.2284107930641
 20
2627.2726279959079
 30
0.0
 11
3163.8284107930649
 21
2675.8726279959092
 31
0.0
  0
LINE
  5
1B67
  8
0
 62
     0
 10
3097.5507412634011
 20
2627.2726279959079
 30
0.0
 11
3146.1507412634019
 21
2675.8726279959092
 31
0.0
  0
LINE
  5
1B68
  8
0
 62
     0
 10
3079.8730717337371
 20
2627.2726279959079
 30
0.0
 11
3128.4730717337379
 21
2675.8726279959092
 31
0.0
  0
LINE
  5
1B69
  8
0
 62
     0
 10
3062.1954022040732
 20
2627.2726279959079
 30
0.0
 11
3110.795402204074
 21
2675.8726279959092
 31
0.0
  0
LINE
  5
1B6A
  8
0
 62
     0
 10
3044.5177326744101
 20
2627.2726279959079
 30
0.0
 11
3093.11773267441
 21
2675.8726279959092
 31
0.0
  0
LINE
  5
1B6B
  8
0
 62
     0
 10
3026.8400631447462
 20
2627.2726279959088
 30
0.0
 11
3075.440063144747
 21
2675.8726279959092
 31
0.0
  0
LINE
  5
1B6C
  8
0
 62
     0
 10
3009.1623936150831
 20
2627.2726279959088
 30
0.0
 11
3057.7623936150831
 21
2675.8726279959092
 31
0.0
  0
LINE
  5
1B6D
  8
0
 62
     0
 10
2991.4847240854178
 20
2627.2726279959088
 30
0.0
 11
3040.0847240854191
 21
2675.8726279959092
 31
0.0
  0
LINE
  5
1B6E
  8
0
 62
     0
 10
2973.8070545557548
 20
2627.2726279959079
 30
0.0
 11
3022.4070545557552
 21
2675.8726279959092
 31
0.0
  0
LINE
  5
1B6F
  8
0
 62
     0
 10
2956.1293850260922
 20
2627.2726279959088
 30
0.0
 11
3004.7293850260921
 21
2675.8726279959092
 31
0.0
  0
LINE
  5
1B70
  8
0
 62
     0
 10
2938.4517154964278
 20
2627.2726279959088
 30
0.0
 11
2987.0517154964282
 21
2675.8726279959092
 31
0.0
  0
LINE
  5
1B71
  8
0
 62
     0
 10
2920.7740459667639
 20
2627.2726279959088
 30
0.0
 11
2969.3740459667652
 21
2675.8726279959092
 31
0.0
  0
LINE
  5
1B72
  8
0
 62
     0
 10
2903.0963764371008
 20
2627.2726279959088
 30
0.0
 11
2951.6963764371021
 21
2675.8726279959092
 31
0.0
  0
LINE
  5
1B73
  8
0
 62
     0
 10
2885.4187069074369
 20
2627.2726279959088
 30
0.0
 11
2934.0187069074368
 21
2675.8726279959092
 31
0.0
  0
LINE
  5
1B74
  8
0
 62
     0
 10
2867.741037377773
 20
2627.2726279959088
 30
0.0
 11
2916.3410373777729
 21
2675.8726279959092
 31
0.0
  0
LINE
  5
1B75
  8
0
 62
     0
 10
2850.063367848109
 20
2627.2726279959088
 30
0.0
 11
2898.6633678481098
 21
2675.8726279959092
 31
0.0
  0
LINE
  5
1B76
  8
0
 62
     0
 10
2832.385698318446
 20
2627.2726279959088
 30
0.0
 11
2880.9856983184468
 21
2675.8726279959092
 31
0.0
  0
LINE
  5
1B77
  8
0
 62
     0
 10
2814.708028788782
 20
2627.2726279959088
 30
0.0
 11
2863.3080287887828
 21
2675.8726279959092
 31
0.0
  0
LINE
  5
1B78
  8
0
 62
     0
 10
2797.0303592591181
 20
2627.2726279959088
 30
0.0
 11
2845.630359259118
 21
2675.8726279959092
 31
0.0
  0
LINE
  5
1B79
  8
0
 62
     0
 10
2779.3526897294551
 20
2627.2726279959088
 30
0.0
 11
2827.952689729455
 21
2675.8726279959092
 31
0.0
  0
LINE
  5
1B7A
  8
0
 62
     0
 10
2761.6750201997911
 20
2627.2726279959088
 30
0.0
 11
2810.275020199791
 21
2675.8726279959092
 31
0.0
  0
LINE
  5
1B7B
  8
0
 62
     0
 10
2743.9973506701272
 20
2627.2726279959088
 30
0.0
 11
2792.597350670128
 21
2675.8726279959092
 31
0.0
  0
LINE
  5
1B7C
  8
0
 62
     0
 10
2726.3196811404641
 20
2627.2726279959088
 30
0.0
 11
2774.919681140464
 21
2675.8726279959092
 31
0.0
  0
LINE
  5
1B7D
  8
0
 62
     0
 10
2708.6420116108002
 20
2627.2726279959088
 30
0.0
 11
2757.242011610801
 21
2675.8726279959092
 31
0.0
  0
LINE
  5
1B7E
  8
0
 62
     0
 10
2690.9643420811358
 20
2627.2726279959088
 30
0.0
 11
2739.5643420811371
 21
2675.8726279959092
 31
0.0
  0
LINE
  5
1B7F
  8
0
 62
     0
 10
2673.2866725514732
 20
2627.2726279959088
 30
0.0
 11
2721.8866725514731
 21
2675.8726279959092
 31
0.0
  0
LINE
  5
1B80
  8
0
 62
     0
 10
2655.6090030218102
 20
2627.2726279959088
 30
0.0
 11
2704.2090030218092
 21
2675.8726279959092
 31
0.0
  0
LINE
  5
1B81
  8
0
 62
     0
 10
2637.9313334921462
 20
2627.2726279959088
 30
0.0
 11
2686.5313334921452
 21
2675.8726279959092
 31
0.0
  0
LINE
  5
1B82
  8
0
 62
     0
 10
2620.2536639624818
 20
2627.2726279959088
 30
0.0
 11
2668.8536639624822
 21
2675.8726279959092
 31
0.0
  0
LINE
  5
1B83
  8
0
 62
     0
 10
2602.5759944328188
 20
2627.2726279959102
 30
0.0
 11
2651.1759944328178
 21
2675.8726279959092
 31
0.0
  0
LINE
  5
1B84
  8
0
 62
     0
 10
2584.8983249031548
 20
2627.2726279959088
 30
0.0
 11
2633.4983249031552
 21
2675.8726279959092
 31
0.0
  0
LINE
  5
1B85
  8
0
 62
     0
 10
2567.2206553734909
 20
2627.2726279959088
 30
0.0
 11
2615.8206553734899
 21
2675.8726279959092
 31
0.0
  0
LINE
  5
1B86
  8
0
 62
     0
 10
2549.5429858438279
 20
2627.2726279959088
 30
0.0
 11
2598.1429858438269
 21
2675.8726279959092
 31
0.0
  0
LINE
  5
1B87
  8
0
 62
     0
 10
2531.8653163141639
 20
2627.2726279959088
 30
0.0
 11
2580.4653163141629
 21
2675.8726279959092
 31
0.0
  0
LINE
  5
1B88
  8
0
 62
     0
 10
2514.1876467845
 20
2627.2726279959088
 30
0.0
 11
2562.7876467844999
 21
2675.8726279959092
 31
0.0
  0
LINE
  5
1B89
  8
0
 62
     0
 10
2496.5099772548369
 20
2627.2726279959102
 30
0.0
 11
2545.1099772548359
 21
2675.8726279959092
 31
0.0
  0
LINE
  5
1B8A
  8
0
 62
     0
 10
2478.832307725173
 20
2627.2726279959102
 30
0.0
 11
2527.4323077251729
 21
2675.8726279959092
 31
0.0
  0
LINE
  5
1B8B
  8
0
 62
     0
 10
2461.1546381955091
 20
2627.2726279959102
 30
0.0
 11
2509.7546381955081
 21
2675.8726279959092
 31
0.0
  0
LINE
  5
1B8C
  8
0
 62
     0
 10
2443.476968665846
 20
2627.2726279959102
 30
0.0
 11
2492.076968665845
 21
2675.8726279959092
 31
0.0
  0
LINE
  5
1B8D
  8
0
 62
     0
 10
2425.7992991361821
 20
2627.2726279959102
 30
0.0
 11
2474.3992991361811
 21
2675.8726279959092
 31
0.0
  0
LINE
  5
1B8E
  8
0
 62
     0
 10
2408.1216296065181
 20
2627.2726279959102
 30
0.0
 11
2456.721629606518
 21
2675.8726279959092
 31
0.0
  0
LINE
  5
1B8F
  8
0
 62
     0
 10
2390.4439600768551
 20
2627.2726279959102
 30
0.0
 11
2439.0439600768541
 21
2675.8726279959092
 31
0.0
  0
LINE
  5
1B90
  8
0
 62
     0
 10
2372.7662905471921
 20
2627.2726279959102
 30
0.0
 11
2421.3662905471911
 21
2675.8726279959092
 31
0.0
  0
LINE
  5
1B91
  8
0
 62
     0
 10
2355.0886210175272
 20
2627.2726279959102
 30
0.0
 11
2403.6886210175262
 21
2675.8726279959092
 31
0.0
  0
LINE
  5
1B92
  8
0
 62
     0
 10
2337.4109514878642
 20
2627.2726279959102
 30
0.0
 11
2386.0109514878632
 21
2675.8726279959092
 31
0.0
  0
LINE
  5
1B93
  8
0
 62
     0
 10
2319.7332819582002
 20
2627.2726279959102
 30
0.0
 11
2368.3332819581992
 21
2675.8726279959092
 31
0.0
  0
LINE
  5
1B94
  8
0
 62
     0
 10
2302.0556124285372
 20
2627.2726279959102
 30
0.0
 11
2350.6556124285362
 21
2675.8726279959092
 31
0.0
  0
LINE
  5
1B95
  8
0
 62
     0
 10
2284.3779428988719
 20
2627.2726279959102
 30
0.0
 11
2332.9779428988709
 21
2675.8726279959092
 31
0.0
  0
LINE
  5
1B96
  8
0
 62
     0
 10
2266.7002733692088
 20
2627.2726279959102
 30
0.0
 11
2315.3002733692078
 21
2675.8726279959092
 31
0.0
  0
LINE
  5
1B97
  8
0
 62
     0
 10
2249.0226038395449
 20
2627.2726279959102
 30
0.0
 11
2297.6226038395448
 21
2675.8726279959092
 31
0.0
  0
LINE
  5
1B98
  8
0
 62
     0
 10
2231.344934309881
 20
2627.2726279959102
 30
0.0
 11
2279.94493430988
 21
2675.8726279959092
 31
0.0
  0
LINE
  5
1B99
  8
0
 62
     0
 10
2213.6672647802179
 20
2627.2726279959102
 30
0.0
 11
2262.2672647802169
 21
2675.8726279959092
 31
0.0
  0
LINE
  5
1B9A
  8
0
 62
     0
 10
2195.989595250554
 20
2627.2726279959102
 30
0.0
 11
2244.5895952505539
 21
2675.8726279959092
 31
0.0
  0
LINE
  5
1B9B
  8
0
 62
     0
 10
2178.3119257208909
 20
2627.2726279959102
 30
0.0
 11
2226.9119257208899
 21
2675.8726279959092
 31
0.0
  0
LINE
  5
1B9C
  8
0
 62
     0
 10
2160.634256191227
 20
2627.2726279959102
 30
0.0
 11
2209.234256191226
 21
2675.8726279959092
 31
0.0
  0
LINE
  5
1B9D
  8
0
 62
     0
 10
2142.9565866615631
 20
2627.2726279959102
 30
0.0
 11
2191.556586661563
 21
2675.8726279959092
 31
0.0
  0
LINE
  5
1B9E
  8
0
 62
     0
 10
2125.2789171318991
 20
2627.2726279959102
 30
0.0
 11
2173.878917131899
 21
2675.8726279959092
 31
0.0
  0
LINE
  5
1B9F
  8
0
 62
     0
 10
2107.6012476022361
 20
2627.2726279959102
 30
0.0
 11
2156.2012476022351
 21
2675.8726279959092
 31
0.0
  0
LINE
  5
1BA0
  8
0
 62
     0
 10
2089.9235780725721
 20
2627.2726279959102
 30
0.0
 11
2138.5235780725711
 21
2675.8726279959092
 31
0.0
  0
LINE
  5
1BA1
  8
0
 62
     0
 10
2072.2459085429091
 20
2627.2726279959102
 30
0.0
 11
2120.8459085429081
 21
2675.8726279959092
 31
0.0
  0
LINE
  5
1BA2
  8
0
 62
     0
 10
2054.5682390132451
 20
2627.2726279959102
 30
0.0
 11
2103.1682390132441
 21
2675.8726279959092
 31
0.0
  0
LINE
  5
1BA3
  8
0
 62
     0
 10
2036.890569483581
 20
2627.2726279959102
 30
0.0
 11
2085.4905694835811
 21
2675.8726279959092
 31
0.0
  0
LINE
  5
1BA4
  8
0
 62
     0
 10
2019.212899953917
 20
2627.2726279959102
 30
0.0
 11
2067.8128999539172
 21
2675.8726279959092
 31
0.0
  0
LINE
  5
1BA5
  8
0
 62
     0
 10
2001.535230424254
 20
2627.2726279959102
 30
0.0
 11
2050.1352304242532
 21
2675.8726279959092
 31
0.0
  0
LINE
  5
1BA6
  8
0
 62
     0
 10
1983.8575608945901
 20
2627.2726279959102
 30
0.0
 11
2032.45756089459
 21
2675.8726279959092
 31
0.0
  0
LINE
  5
1BA7
  8
0
 62
     0
 10
1966.1798913649261
 20
2627.2726279959102
 30
0.0
 11
2014.779891364926
 21
2675.8726279959092
 31
0.0
  0
LINE
  5
1BA8
  8
0
 62
     0
 10
1948.5022218352619
 20
2627.2726279959102
 30
0.0
 11
1997.1022218352621
 21
2675.8726279959092
 31
0.0
  0
LINE
  5
1BA9
  8
0
 62
     0
 10
1930.8245523055989
 20
2627.2726279959102
 30
0.0
 11
1979.424552305599
 21
2675.8726279959101
 31
0.0
  0
LINE
  5
1BAA
  8
0
 62
     0
 10
1913.146882775935
 20
2627.2726279959102
 30
0.0
 11
1961.7468827759351
 21
2675.8726279959092
 31
0.0
  0
LINE
  5
1BAB
  8
0
 62
     0
 10
1895.469213246271
 20
2627.2726279959102
 30
0.0
 11
1944.0692132462709
 21
2675.8726279959101
 31
0.0
  0
LINE
  5
1BAC
  8
0
 62
     0
 10
1877.791543716608
 20
2627.2726279959102
 30
0.0
 11
1926.3915437166081
 21
2675.8726279959092
 31
0.0
  0
LINE
  5
1BAD
  8
0
 62
     0
 10
1860.113874186944
 20
2627.2726279959102
 30
0.0
 11
1908.7138741869439
 21
2675.8726279959101
 31
0.0
  0
LINE
  5
1BAE
  8
0
 62
     0
 10
1842.4362046572801
 20
2627.2726279959102
 30
0.0
 11
1891.03620465728
 21
2675.8726279959092
 31
0.0
  0
LINE
  5
1BAF
  8
0
 62
     0
 10
1824.7585351276171
 20
2627.2726279959102
 30
0.0
 11
1873.358535127617
 21
2675.8726279959101
 31
0.0
  0
LINE
  5
1BB0
  8
0
 62
     0
 10
1807.0808655979531
 20
2627.2726279959102
 30
0.0
 11
1855.680865597953
 21
2675.8726279959101
 31
0.0
  0
LINE
  5
1BB1
  8
0
 62
     0
 10
1789.4031960682889
 20
2627.2726279959102
 30
0.0
 11
1838.0031960682891
 21
2675.8726279959101
 31
0.0
  0
LINE
  5
1BB2
  8
0
 62
     0
 10
1771.7255265386259
 20
2627.2726279959102
 30
0.0
 11
1820.325526538626
 21
2675.8726279959101
 31
0.0
  0
LINE
  5
1BB3
  8
0
 62
     0
 10
1754.047857008962
 20
2627.2726279959102
 30
0.0
 11
1802.6478570089621
 21
2675.8726279959101
 31
0.0
  0
LINE
  5
1BB4
  8
0
 62
     0
 10
1736.370187479298
 20
2627.2726279959102
 30
0.0
 11
1784.9701874792991
 21
2675.8726279959101
 31
0.0
  0
LINE
  5
1BB5
  8
0
 62
     0
 10
1718.6925179496341
 20
2627.2726279959102
 30
0.0
 11
1767.2925179496351
 21
2675.8726279959101
 31
0.0
  0
LINE
  5
1BB6
  8
0
 62
     0
 10
1701.0148484199699
 20
2627.2726279959102
 30
0.0
 11
1749.6148484199709
 21
2675.872627995911
 31
0.0
  0
LINE
  5
1BB7
  8
0
 62
     0
 10
1683.3371788903071
 20
2627.2726279959102
 30
0.0
 11
1731.9371788903079
 21
2675.8726279959101
 31
0.0
  0
LINE
  5
1BB8
  8
0
 62
     0
 10
1665.6595093606429
 20
2627.2726279959102
 30
0.0
 11
1714.259509360644
 21
2675.872627995911
 31
0.0
  0
LINE
  5
1BB9
  8
0
 62
     0
 10
1647.9818398309801
 20
2627.2726279959102
 30
0.0
 11
1696.58183983098
 21
2675.872627995911
 31
0.0
  0
LINE
  5
1BBA
  8
0
 62
     0
 10
1630.3041703013159
 20
2627.2726279959102
 30
0.0
 11
1678.904170301317
 21
2675.872627995911
 31
0.0
  0
LINE
  5
1BBB
  8
0
 62
     0
 10
1612.626500771652
 20
2627.2726279959102
 30
0.0
 11
1661.226500771653
 21
2675.872627995911
 31
0.0
  0
LINE
  5
1BBC
  8
0
 62
     0
 10
1594.948831241988
 20
2627.2726279959102
 30
0.0
 11
1643.5488312419891
 21
2675.872627995911
 31
0.0
  0
LINE
  5
1BBD
  8
0
 62
     0
 10
1577.2711617123241
 20
2627.2726279959102
 30
0.0
 11
1625.8711617123261
 21
2675.872627995911
 31
0.0
  0
LINE
  5
1BBE
  8
0
 62
     0
 10
1559.5934921826611
 20
2627.2726279959102
 30
0.0
 11
1608.1934921826621
 21
2675.872627995911
 31
0.0
  0
LINE
  5
1BBF
  8
0
 62
     0
 10
1541.9158226529969
 20
2627.2726279959102
 30
0.0
 11
1590.5158226529979
 21
2675.872627995911
 31
0.0
  0
LINE
  5
1BC0
  8
0
 62
     0
 10
1524.2381531233341
 20
2627.2726279959102
 30
0.0
 11
1572.8381531233349
 21
2675.872627995911
 31
0.0
  0
LINE
  5
1BC1
  8
0
 62
     0
 10
1506.5604835936699
 20
2627.2726279959102
 30
0.0
 11
1555.160483593671
 21
2675.872627995911
 31
0.0
  0
LINE
  5
1BC2
  8
0
 62
     0
 10
1488.882814064006
 20
2627.2726279959102
 30
0.0
 11
1537.482814064007
 21
2675.872627995911
 31
0.0
  0
LINE
  5
1BC3
  8
0
 62
     0
 10
1471.2051445343429
 20
2627.2726279959102
 30
0.0
 11
1519.805144534344
 21
2675.872627995911
 31
0.0
  0
LINE
  5
1BC4
  8
0
 62
     0
 10
1453.527475004679
 20
2627.2726279959102
 30
0.0
 11
1502.12747500468
 21
2675.872627995911
 31
0.0
  0
LINE
  5
1BC5
  8
0
 62
     0
 10
1435.849805475015
 20
2627.2726279959102
 30
0.0
 11
1484.449805475017
 21
2675.872627995911
 31
0.0
  0
LINE
  5
1BC6
  8
0
 62
     0
 10
1418.172135945352
 20
2627.2726279959102
 30
0.0
 11
1466.7721359453531
 21
2675.872627995911
 31
0.0
  0
LINE
  5
1BC7
  8
0
 62
     0
 10
1400.4944664156881
 20
2627.2726279959102
 30
0.0
 11
1449.0944664156891
 21
2675.872627995911
 31
0.0
  0
LINE
  5
1BC8
  8
0
 62
     0
 10
1382.8167968860239
 20
2627.2726279959102
 30
0.0
 11
1431.4167968860261
 21
2675.872627995911
 31
0.0
  0
LINE
  5
1BC9
  8
0
 62
     0
 10
1375.486041200895
 20
2637.6195418404441
 30
0.0
 11
1413.7391273563619
 21
2675.872627995911
 31
0.0
  0
LINE
  5
1BCA
  8
0
 62
     0
 10
1375.486041200895
 20
2655.297211370108
 30
0.0
 11
1396.061457826698
 21
2675.872627995911
 31
0.0
  0
LINE
  5
1BCB
  8
0
 62
     0
 10
1375.486041200895
 20
2672.974880899772
 30
0.0
 11
1378.3837882970349
 21
2675.872627995911
 31
0.0
  0
ENDBLK
  5
1BCD
  8
0
  0
BLOCK
  8
0
  2
*U18
 70
     1
 10
0.0
 20
0.0
 30
0.0
  3
*U18
  1

  0
SOLID
  5
1BCF
  8
MOJI
 10
-2761.0875922084811
 20
2347.7052150981472
 30
0.0
 11
-2741.7403303345209
 21
2371.1718607463949
 31
0.0
 12
-2752.4309902753221
 22
2342.698894795687
 32
0.0
 13
-2752.4309902753221
 23
2342.698894795687
 33
0.0
210
0.0
220
0.0
230
-1.0
  0
POLYLINE
  5
1BD0
  8
MOJI
 66
     1
 10
0.0
 20
0.0
 30
0.0
210
0.0
220
0.0
230
-1.0
  0
VERTEX
  5
1BD1
  8
MOJI
 10
-2756.7592912419009
 20
2345.2020549469171
 30
0.0
  0
VERTEX
  5
1BD2
  8
MOJI
 10
-2838.2093187252258
 20
2204.363989707354
 30
0.0
  0
SEQEND
  5
1BD3
  8
MOJI
  0
ENDBLK
  5
1BD5
  8
0
  0
BLOCK
  8
0
  2
*U19
 70
     1
 10
0.0
 20
0.0
 30
0.0
  3
*U19
  1

  0
TEXT
  5
1BD7
  8
MOJI
 10
2859.6725510348469
 20
2220.0636384588202
 30
0.0
 40
45.0
  1
セイフティグリーン
 41
0.8
  7
EXT08
  0
ENDBLK
  5
1BD9
  8
0
  0
BLOCK
  8
0
  2
*U20
 70
     1
 10
0.0
 20
0.0
 30
0.0
  3
*U20
  1

  0
SOLID
  5
1BDB
  8
MOJI
 10
-2670.0187874749681
 20
2852.269810180162
 30
0.0
 11
-2650.5091728922298
 21
2875.6016540599971
 31
0.0
 12
-2661.3971292121701
 22
2847.2035483630489
 32
0.0
 13
-2661.3971292121701
 23
2847.2035483630489
 33
0.0
210
0.0
220
0.0
230
-1.0
  0
POLYLINE
  5
1BDC
  8
MOJI
 66
     1
 10
0.0
 20
0.0
 30
0.0
210
0.0
220
0.0
230
-1.0
  0
VERTEX
  5
1BDD
  8
MOJI
 10
-2665.7079583435689
 20
2849.7366792716052
 30
0.0
  0
VERTEX
  5
1BDE
  8
MOJI
 10
-2727.893982438974
 20
2743.9098057646629
 30
0.0
  0
SEQEND
  5
1BDF
  8
MOJI
  0
ENDBLK
  5
1BE1
  8
0
  0
BLOCK
  8
0
  2
*U21
 70
     1
 10
0.0
 20
0.0
 30
0.0
  3
*U21
  1

  0
TEXT
  5
1BE3
  8
MOJI
 10
2749.3572147485952
 20
2759.6094545161291
 30
0.0
 40
45.0
  1
ホワイト１０
 41
0.8
  7
EXT08
  0
ENDBLK
  5
1BE5
  8
0
  0
BLOCK
  8
0
  2
*X22
 70
     1
 10
0.0
 20
0.0
 30
0.0
  3
*X22
  1

  0
LINE
  5
1BE7
  8
0
 62
     0
 10
4405.363339967601
 20
2627.2726279959088
 30
0.0
 11
4415.4860412008957
 21
2637.395329229204
 31
0.0
  0
LINE
  5
1BE8
  8
0
 62
     0
 10
4387.4028277254629
 20
2627.2726279959088
 30
0.0
 11
4415.4860412008948
 21
2655.355841471342
 31
0.0
  0
LINE
  5
1BE9
  8
0
 62
     0
 10
4369.4423154833248
 20
2627.2726279959088
 30
0.0
 11
4415.4860412008957
 21
2673.316353713481
 31
0.0
  0
LINE
  5
1BEA
  8
0
 62
     0
 10
4351.4818032411868
 20
2627.2726279959088
 30
0.0
 11
4400.081803241188
 21
2675.8726279959092
 31
0.0
  0
LINE
  5
1BEB
  8
0
 62
     0
 10
4333.5212909990487
 20
2627.2726279959088
 30
0.0
 11
4382.1212909990481
 21
2675.8726279959092
 31
0.0
  0
LINE
  5
1BEC
  8
0
 62
     0
 10
4315.5607787569106
 20
2627.2726279959088
 30
0.0
 11
4364.1607787569101
 21
2675.8726279959092
 31
0.0
  0
LINE
  5
1BED
  8
0
 62
     0
 10
4297.6002665147726
 20
2627.2726279959088
 30
0.0
 11
4346.200266514772
 21
2675.8726279959092
 31
0.0
  0
LINE
  5
1BEE
  8
0
 62
     0
 10
4279.6397542726336
 20
2627.2726279959088
 30
0.0
 11
4328.2397542726339
 21
2675.8726279959092
 31
0.0
  0
LINE
  5
1BEF
  8
0
 62
     0
 10
4261.6792420304946
 20
2627.2726279959088
 30
0.0
 11
4310.279242030495
 21
2675.8726279959092
 31
0.0
  0
LINE
  5
1BF0
  8
0
 62
     0
 10
4243.7187297883584
 20
2627.2726279959088
 30
0.0
 11
4292.3187297883578
 21
2675.8726279959092
 31
0.0
  0
LINE
  5
1BF1
  8
0
 62
     0
 10
4225.7582175462203
 20
2627.2726279959088
 30
0.0
 11
4274.3582175462197
 21
2675.8726279959092
 31
0.0
  0
LINE
  5
1BF2
  8
0
 62
     0
 10
4207.7977053040813
 20
2627.2726279959102
 30
0.0
 11
4256.3977053040799
 21
2675.8726279959092
 31
0.0
  0
LINE
  5
1BF3
  8
0
 62
     0
 10
4189.8371930619433
 20
2627.2726279959102
 30
0.0
 11
4238.4371930619427
 21
2675.8726279959092
 31
0.0
  0
LINE
  5
1BF4
  8
0
 62
     0
 10
4171.8766808198043
 20
2627.2726279959102
 30
0.0
 11
4220.4766808198037
 21
2675.8726279959092
 31
0.0
  0
LINE
  5
1BF5
  8
0
 62
     0
 10
4153.9161685776653
 20
2627.2726279959088
 30
0.0
 11
4202.5161685776657
 21
2675.8726279959101
 31
0.0
  0
LINE
  5
1BF6
  8
0
 62
     0
 10
4135.9556563355281
 20
2627.2726279959088
 30
0.0
 11
4184.5556563355267
 21
2675.8726279959092
 31
0.0
  0
LINE
  5
1BF7
  8
0
 62
     0
 10
4117.9951440933892
 20
2627.2726279959088
 30
0.0
 11
4166.5951440933886
 21
2675.8726279959092
 31
0.0
  0
LINE
  5
1BF8
  8
0
 62
     0
 10
4100.0346318512511
 20
2627.2726279959088
 30
0.0
 11
4148.6346318512506
 21
2675.8726279959092
 31
0.0
  0
LINE
  5
1BF9
  8
0
 62
     0
 10
4082.0741196091121
 20
2627.2726279959088
 30
0.0
 11
4130.6741196091134
 21
2675.8726279959092
 31
0.0
  0
LINE
  5
1BFA
  8
0
 62
     0
 10
4064.1136073669741
 20
2627.2726279959088
 30
0.0
 11
4112.7136073669726
 21
2675.8726279959092
 31
0.0
  0
LINE
  5
1BFB
  8
0
 62
     0
 10
4046.153095124836
 20
2627.2726279959088
 30
0.0
 11
4094.753095124835
 21
2675.8726279959092
 31
0.0
  0
LINE
  5
1BFC
  8
0
 62
     0
 10
4028.1925828826979
 20
2627.2726279959088
 30
0.0
 11
4076.7925828826969
 21
2675.8726279959092
 31
0.0
  0
LINE
  5
1BFD
  8
0
 62
     0
 10
4010.232070640559
 20
2627.2726279959088
 30
0.0
 11
4058.8320706405589
 21
2675.8726279959092
 31
0.0
  0
LINE
  5
1BFE
  8
0
 62
     0
 10
3992.2715583984209
 20
2627.2726279959088
 30
0.0
 11
4040.8715583984199
 21
2675.8726279959092
 31
0.0
  0
LINE
  5
1BFF
  8
0
 62
     0
 10
3974.3110461562828
 20
2627.2726279959088
 30
0.0
 11
4022.9110461562832
 21
2675.8726279959092
 31
0.0
  0
LINE
  5
1C00
  8
0
 62
     0
 10
3956.3505339141452
 20
2627.2726279959088
 30
0.0
 11
4004.9505339141442
 21
2675.8726279959092
 31
0.0
  0
LINE
  5
1C01
  8
0
 62
     0
 10
3938.3900216720058
 20
2627.2726279959102
 30
0.0
 11
3986.9900216720062
 21
2675.8726279959092
 31
0.0
  0
LINE
  5
1C02
  8
0
 62
     0
 10
3920.4295094298682
 20
2627.2726279959102
 30
0.0
 11
3969.0295094298681
 21
2675.8726279959092
 31
0.0
  0
LINE
  5
1C03
  8
0
 62
     0
 10
3902.4689971877292
 20
2627.2726279959088
 30
0.0
 11
3951.06899718773
 21
2675.8726279959092
 31
0.0
  0
LINE
  5
1C04
  8
0
 62
     0
 10
3884.5084849455911
 20
2627.2726279959088
 30
0.0
 11
3933.108484945591
 21
2675.8726279959101
 31
0.0
  0
LINE
  5
1C05
  8
0
 62
     0
 10
3866.5479727034531
 20
2627.2726279959088
 30
0.0
 11
3915.147972703453
 21
2675.8726279959092
 31
0.0
  0
LINE
  5
1C06
  8
0
 62
     0
 10
3848.587460461315
 20
2627.2726279959088
 30
0.0
 11
3897.1874604613149
 21
2675.8726279959092
 31
0.0
  0
LINE
  5
1C07
  8
0
 62
     0
 10
3830.626948219176
 20
2627.2726279959088
 30
0.0
 11
3879.2269482191768
 21
2675.8726279959092
 31
0.0
  0
LINE
  5
1C08
  8
0
 62
     0
 10
3812.666435977038
 20
2627.2726279959088
 30
0.0
 11
3861.2664359770388
 21
2675.8726279959092
 31
0.0
  0
LINE
  5
1C09
  8
0
 62
     0
 10
3794.7059237348999
 20
2627.2726279959088
 30
0.0
 11
3843.3059237349012
 21
2675.8726279959092
 31
0.0
  0
LINE
  5
1C0A
  8
0
 62
     0
 10
3776.7454114927618
 20
2627.2726279959088
 30
0.0
 11
3825.3454114927622
 21
2675.8726279959092
 31
0.0
  0
LINE
  5
1C0B
  8
0
 62
     0
 10
3758.7848992506229
 20
2627.2726279959088
 30
0.0
 11
3807.3848992506232
 21
2675.8726279959092
 31
0.0
  0
LINE
  5
1C0C
  8
0
 62
     0
 10
3740.8243870084848
 20
2627.2726279959088
 30
0.0
 11
3789.4243870084852
 21
2675.8726279959092
 31
0.0
  0
LINE
  5
1C0D
  8
0
 62
     0
 10
3722.8638747663458
 20
2627.2726279959088
 30
0.0
 11
3771.4638747663471
 21
2675.8726279959092
 31
0.0
  0
LINE
  5
1C0E
  8
0
 62
     0
 10
3704.9033625242082
 20
2627.2726279959088
 30
0.0
 11
3753.503362524209
 21
2675.8726279959092
 31
0.0
  0
LINE
  5
1C0F
  8
0
 62
     0
 10
3686.942850282071
 20
2627.2726279959088
 30
0.0
 11
3735.5428502820691
 21
2675.8726279959092
 31
0.0
  0
LINE
  5
1C10
  8
0
 62
     0
 10
3668.9823380399312
 20
2627.2726279959088
 30
0.0
 11
3717.582338039932
 21
2675.8726279959092
 31
0.0
  0
LINE
  5
1C11
  8
0
 62
     0
 10
3651.0218257977931
 20
2627.2726279959088
 30
0.0
 11
3699.6218257977939
 21
2675.8726279959092
 31
0.0
  0
LINE
  5
1C12
  8
0
 62
     0
 10
3633.061313555655
 20
2627.2726279959088
 30
0.0
 11
3681.6613135556559
 21
2675.8726279959092
 31
0.0
  0
LINE
  5
1C13
  8
0
 62
     0
 10
3615.1008013135161
 20
2627.2726279959088
 30
0.0
 11
3663.7008013135169
 21
2675.8726279959092
 31
0.0
  0
LINE
  5
1C14
  8
0
 62
     0
 10
3597.140289071378
 20
2627.2726279959088
 30
0.0
 11
3645.7402890713788
 21
2675.8726279959092
 31
0.0
  0
LINE
  5
1C15
  8
0
 62
     0
 10
3579.1797768292399
 20
2627.2726279959088
 30
0.0
 11
3627.7797768292398
 21
2675.8726279959092
 31
0.0
  0
LINE
  5
1C16
  8
0
 62
     0
 10
3561.219264587101
 20
2627.2726279959088
 30
0.0
 11
3609.8192645871022
 21
2675.8726279959092
 31
0.0
  0
LINE
  5
1C17
  8
0
 62
     0
 10
3543.2587523449629
 20
2627.2726279959088
 30
0.0
 11
3591.8587523449642
 21
2675.8726279959092
 31
0.0
  0
LINE
  5
1C18
  8
0
 62
     0
 10
3525.2982401028248
 20
2627.2726279959088
 30
0.0
 11
3573.8982401028261
 21
2675.8726279959092
 31
0.0
  0
LINE
  5
1C19
  8
0
 62
     0
 10
3507.3377278606858
 20
2627.2726279959088
 30
0.0
 11
3555.9377278606871
 21
2675.8726279959101
 31
0.0
  0
LINE
  5
1C1A
  8
0
 62
     0
 10
3489.3772156185478
 20
2627.2726279959088
 30
0.0
 11
3537.9772156185481
 21
2675.8726279959092
 31
0.0
  0
LINE
  5
1C1B
  8
0
 62
     0
 10
3475.4860412008952
 20
2631.3419658203939
 30
0.0
 11
3520.0167033764101
 21
2675.8726279959092
 31
0.0
  0
LINE
  5
1C1C
  8
0
 62
     0
 10
3475.4860412008961
 20
2649.3024780625328
 30
0.0
 11
3502.056191134272
 21
2675.8726279959092
 31
0.0
  0
LINE
  5
1C1D
  8
0
 62
     0
 10
3475.4860412008952
 20
2667.2629903046709
 30
0.0
 11
3484.0956788921339
 21
2675.8726279959092
 31
0.0
  0
ENDBLK
  5
1C1F
  8
0
  0
BLOCK
  8
0
  2
*X23
 70
     1
 10
0.0
 20
0.0
 30
0.0
  3
*X23
  1

  0
LINE
  5
1C21
  8
0
 62
     0
 10
4406.8105113575384
 20
2377.2726279959102
 30
0.0
 11
4415.4860412008948
 21
2385.948157839267
 31
0.0
  0
LINE
  5
1C22
  8
0
 62
     0
 10
4388.8499991154004
 20
2377.2726279959102
 30
0.0
 11
4415.4860412008957
 21
2403.9086700814059
 31
0.0
  0
LINE
  5
1C23
  8
0
 62
     0
 10
4370.8894868732623
 20
2377.2726279959102
 30
0.0
 11
4415.4860412008957
 21
2421.869182323544
 31
0.0
  0
LINE
  5
1C24
  8
0
 62
     0
 10
4352.9289746311242
 20
2377.2726279959102
 30
0.0
 11
4401.5289746311237
 21
2425.8726279959101
 31
0.0
  0
LINE
  5
1C25
  8
0
 62
     0
 10
4334.9684623889843
 20
2377.2726279959088
 30
0.0
 11
4383.5684623889847
 21
2425.8726279959092
 31
0.0
  0
LINE
  5
1C26
  8
0
 62
     0
 10
4317.0079501468472
 20
2377.2726279959088
 30
0.0
 11
4365.6079501468485
 21
2425.8726279959092
 31
0.0
  0
LINE
  5
1C27
  8
0
 62
     0
 10
4299.0474379047091
 20
2377.2726279959102
 30
0.0
 11
4347.6474379047077
 21
2425.8726279959101
 31
0.0
  0
LINE
  5
1C28
  8
0
 62
     0
 10
4281.086925662571
 20
2377.2726279959102
 30
0.0
 11
4329.6869256625696
 21
2425.8726279959101
 31
0.0
  0
LINE
  5
1C29
  8
0
 62
     0
 10
4263.1264134204321
 20
2377.2726279959088
 30
0.0
 11
4311.7264134204333
 21
2425.8726279959101
 31
0.0
  0
LINE
  5
1C2A
  8
0
 62
     0
 10
4245.165901178294
 20
2377.2726279959102
 30
0.0
 11
4293.7659011782953
 21
2425.8726279959101
 31
0.0
  0
LINE
  5
1C2B
  8
0
 62
     0
 10
4227.205388936155
 20
2377.2726279959102
 30
0.0
 11
4275.8053889361563
 21
2425.872627995911
 31
0.0
  0
LINE
  5
1C2C
  8
0
 62
     0
 10
4209.244876694017
 20
2377.2726279959102
 30
0.0
 11
4257.8448766940182
 21
2425.8726279959092
 31
0.0
  0
LINE
  5
1C2D
  8
0
 62
     0
 10
4191.284364451878
 20
2377.2726279959102
 30
0.0
 11
4239.8843644518793
 21
2425.8726279959092
 31
0.0
  0
LINE
  5
1C2E
  8
0
 62
     0
 10
4173.3238522097399
 20
2377.2726279959102
 30
0.0
 11
4221.9238522097412
 21
2425.8726279959101
 31
0.0
  0
LINE
  5
1C2F
  8
0
 62
     0
 10
4155.3633399676019
 20
2377.2726279959102
 30
0.0
 11
4203.9633399676022
 21
2425.8726279959101
 31
0.0
  0
LINE
  5
1C30
  8
0
 62
     0
 10
4137.4028277254629
 20
2377.2726279959102
 30
0.0
 11
4186.0028277254642
 21
2425.8726279959092
 31
0.0
  0
LINE
  5
1C31
  8
0
 62
     0
 10
4119.4423154833248
 20
2377.2726279959102
 30
0.0
 11
4168.0423154833261
 21
2425.8726279959092
 31
0.0
  0
LINE
  5
1C32
  8
0
 62
     0
 10
4101.4818032411868
 20
2377.2726279959102
 30
0.0
 11
4150.081803241188
 21
2425.8726279959101
 31
0.0
  0
LINE
  5
1C33
  8
0
 62
     0
 10
4083.5212909990491
 20
2377.2726279959088
 30
0.0
 11
4132.1212909990491
 21
2425.8726279959101
 31
0.0
  0
LINE
  5
1C34
  8
0
 62
     0
 10
4065.5607787569111
 20
2377.2726279959088
 30
0.0
 11
4114.1607787569101
 21
2425.8726279959092
 31
0.0
  0
LINE
  5
1C35
  8
0
 62
     0
 10
4047.600266514773
 20
2377.2726279959088
 30
0.0
 11
4096.2002665147729
 21
2425.8726279959092
 31
0.0
  0
LINE
  5
1C36
  8
0
 62
     0
 10
4029.639754272634
 20
2377.2726279959102
 30
0.0
 11
4078.2397542726339
 21
2425.8726279959101
 31
0.0
  0
LINE
  5
1C37
  8
0
 62
     0
 10
4011.679242030496
 20
2377.2726279959102
 30
0.0
 11
4060.2792420304959
 21
2425.8726279959101
 31
0.0
  0
LINE
  5
1C38
  8
0
 62
     0
 10
3993.7187297883579
 20
2377.2726279959088
 30
0.0
 11
4042.3187297883578
 21
2425.8726279959101
 31
0.0
  0
LINE
  5
1C39
  8
0
 62
     0
 10
3975.7582175462189
 20
2377.2726279959088
 30
0.0
 11
4024.3582175462202
 21
2425.8726279959101
 31
0.0
  0
LINE
  5
1C3A
  8
0
 62
     0
 10
3957.7977053040809
 20
2377.2726279959102
 30
0.0
 11
4006.3977053040808
 21
2425.8726279959101
 31
0.0
  0
LINE
  5
1C3B
  8
0
 62
     0
 10
3939.8371930619428
 20
2377.2726279959102
 30
0.0
 11
3988.4371930619432
 21
2425.8726279959092
 31
0.0
  0
LINE
  5
1C3C
  8
0
 62
     0
 10
3921.8766808198038
 20
2377.2726279959102
 30
0.0
 11
3970.4766808198051
 21
2425.8726279959092
 31
0.0
  0
LINE
  5
1C3D
  8
0
 62
     0
 10
3903.9161685776662
 20
2377.2726279959102
 30
0.0
 11
3952.5161685776661
 21
2425.8726279959101
 31
0.0
  0
LINE
  5
1C3E
  8
0
 62
     0
 10
3885.9556563355281
 20
2377.2726279959102
 30
0.0
 11
3934.5556563355281
 21
2425.8726279959101
 31
0.0
  0
LINE
  5
1C3F
  8
0
 62
     0
 10
3867.9951440933901
 20
2377.2726279959102
 30
0.0
 11
3916.59514409339
 21
2425.8726279959101
 31
0.0
  0
LINE
  5
1C40
  8
0
 62
     0
 10
3850.0346318512511
 20
2377.2726279959102
 30
0.0
 11
3898.6346318512519
 21
2425.8726279959092
 31
0.0
  0
LINE
  5
1C41
  8
0
 62
     0
 10
3832.0741196091121
 20
2377.2726279959088
 30
0.0
 11
3880.6741196091129
 21
2425.8726279959101
 31
0.0
  0
LINE
  5
1C42
  8
0
 62
     0
 10
3814.1136073669741
 20
2377.2726279959088
 30
0.0
 11
3862.7136073669758
 21
2425.8726279959101
 31
0.0
  0
LINE
  5
1C43
  8
0
 62
     0
 10
3796.153095124836
 20
2377.2726279959088
 30
0.0
 11
3844.7530951248368
 21
2425.8726279959101
 31
0.0
  0
LINE
  5
1C44
  8
0
 62
     0
 10
3778.1925828826979
 20
2377.2726279959088
 30
0.0
 11
3826.7925828826978
 21
2425.8726279959101
 31
0.0
  0
LINE
  5
1C45
  8
0
 62
     0
 10
3760.2320706405599
 20
2377.2726279959102
 30
0.0
 11
3808.8320706405611
 21
2425.8726279959101
 31
0.0
  0
LINE
  5
1C46
  8
0
 62
     0
 10
3742.2715583984209
 20
2377.2726279959088
 30
0.0
 11
3790.8715583984222
 21
2425.8726279959101
 31
0.0
  0
LINE
  5
1C47
  8
0
 62
     0
 10
3724.3110461562828
 20
2377.2726279959088
 30
0.0
 11
3772.9110461562841
 21
2425.8726279959101
 31
0.0
  0
LINE
  5
1C48
  8
0
 62
     0
 10
3706.3505339141439
 20
2377.2726279959088
 30
0.0
 11
3754.950533914146
 21
2425.8726279959101
 31
0.0
  0
LINE
  5
1C49
  8
0
 62
     0
 10
3688.3900216720058
 20
2377.2726279959102
 30
0.0
 11
3736.9900216720071
 21
2425.8726279959101
 31
0.0
  0
LINE
  5
1C4A
  8
0
 62
     0
 10
3670.4295094298682
 20
2377.2726279959102
 30
0.0
 11
3719.0295094298681
 21
2425.8726279959092
 31
0.0
  0
LINE
  5
1C4B
  8
0
 62
     0
 10
3652.4689971877301
 20
2377.2726279959088
 30
0.0
 11
3701.06899718773
 21
2425.8726279959092
 31
0.0
  0
LINE
  5
1C4C
  8
0
 62
     0
 10
3634.5084849455911
 20
2377.2726279959102
 30
0.0
 11
3683.108484945591
 21
2425.8726279959101
 31
0.0
  0
LINE
  5
1C4D
  8
0
 62
     0
 10
3616.5479727034531
 20
2377.2726279959102
 30
0.0
 11
3665.147972703453
 21
2425.8726279959101
 31
0.0
  0
LINE
  5
1C4E
  8
0
 62
     0
 10
3598.587460461315
 20
2377.2726279959102
 30
0.0
 11
3647.1874604613158
 21
2425.8726279959101
 31
0.0
  0
LINE
  5
1C4F
  8
0
 62
     0
 10
3580.6269482191769
 20
2377.2726279959102
 30
0.0
 11
3629.2269482191768
 21
2425.8726279959092
 31
0.0
  0
LINE
  5
1C50
  8
0
 62
     0
 10
3562.666435977038
 20
2377.2726279959088
 30
0.0
 11
3611.2664359770388
 21
2425.8726279959101
 31
0.0
  0
LINE
  5
1C51
  8
0
 62
     0
 10
3544.7059237348999
 20
2377.2726279959088
 30
0.0
 11
3593.3059237349012
 21
2425.8726279959101
 31
0.0
  0
LINE
  5
1C52
  8
0
 62
     0
 10
3526.7454114927618
 20
2377.2726279959088
 30
0.0
 11
3575.3454114927622
 21
2425.8726279959101
 31
0.0
  0
LINE
  5
1C53
  8
0
 62
     0
 10
3508.7848992506229
 20
2377.2726279959088
 30
0.0
 11
3557.3848992506241
 21
2425.8726279959101
 31
0.0
  0
LINE
  5
1C54
  8
0
 62
     0
 10
3490.8243870084848
 20
2377.2726279959088
 30
0.0
 11
3539.4243870084861
 21
2425.8726279959101
 31
0.0
  0
LINE
  5
1C55
  8
0
 62
     0
 10
3475.4860412008961
 20
2379.8947944304591
 30
0.0
 11
3521.4638747663471
 21
2425.8726279959101
 31
0.0
  0
LINE
  5
1C56
  8
0
 62
     0
 10
3475.4860412008952
 20
2397.8553066725958
 30
0.0
 11
3503.5033625242099
 21
2425.8726279959101
 31
0.0
  0
LINE
  5
1C57
  8
0
 62
     0
 10
3475.4860412008961
 20
2415.8158189147348
 30
0.0
 11
3485.542850282071
 21
2425.8726279959101
 31
0.0
  0
ENDBLK
  5
1C59
  8
0
  0
ENDSEC
  0
SECTION
  2
ENTITIES
  0
INSERT
  5
FD
  8
ZWAKU
  2
SEIKO_LS-1100A3
 10
0.0
 20
0.0
 30
0.0
 41
15.0
 42
15.0
 43
15.0
  0
TEXT
  5
FF
  8
INFORMATION
 10
1.0
 20
2.0
 30
0.0
 40
0.8
  1
PLOTTER=SEIKO_LS-1100
  0
TEXT
  5
100
  8
INFORMATION
 10
1.0
 20
3.0
 30
0.0
 40
0.8
  1
PAPER=A3
  0
TEXT
  5
2DB
  8
MOJI2
 10
754.67626246180578
 20
3437.4066244678738
 30
0.0
 40
60.0
  1
設置図
 41
0.8
  7
KANJI08
  0
TEXT
  5
2DC
  8
MOJI
 10
2165.8018997226709
 20
2226.220229472814
 30
0.0
 40
45.0
  1
ビームパイプ %%C48.6×t3.2
 41
0.8
  7
KANJI08
  0
TEXT
  5
2DD
  8
MOJI
 10
2177.705240731173
 20
2730.8822830162958
 30
0.0
 40
45.0
  1
主柱 %%C76.3×t3.2
 41
0.8
  7
KANJI08
  0
LINE
  5
2DE
  8
MOJI
 10
2136.3085316235629
 20
2710.8822830162958
 30
0.0
 11
2584.071224298305
 21
2710.8822830162958
 31
0.0
  0
TEXT
  5
2FB
  8
MOJI
 10
923.50586439689505
 20
2171.897519440678
 30
0.0
 40
45.0
  1
GL
 41
0.8
  7
KANJI08
  0
LINE
  5
307
  8
MOJI2
 10
734.33631895424685
 20
3423.4977258410381
 30
0.0
 11
928.5590696261479
 21
3423.4977258410381
 31
0.0
  0
LINE
  5
308
  8
MOJI
 10
2136.3085316235629
 20
2204.9822830162939
 30
0.0
 11
2749.146448350728
 21
2204.9822830162939
 31
0.0
  0
LINE
  5
30D
  8
SJC
 10
904.94737533880095
 20
2151.572627995909
 30
0.0
 11
1277.3360412008969
 21
2151.572627995909
 31
0.0
1001
ACAD
1000
ASC_BOUNDS
1002
{
1070
    19
1002
}
  0
LINE
  5
30E
  8
MOJI2
 10
734.33631895424685
 20
3408.4977258410381
 30
0.0
 11
928.5590696261479
 21
3408.4977258410381
 31
0.0
  0
LINE
  5
30F
  8
CENTER
 10
1315.486041200897
 20
2713.4226279959089
 30
0.0
 11
1315.486041200897
 21
1451.5726279959081
 31
0.0
  0
LINE
  5
310
  8
CENTER
 10
1515.486041200897
 20
2913.4226279959089
 30
0.0
 11
3115.486041200897
 21
2913.4226279959089
 31
0.0
  0
LINE
  5
312
  8
CENTER
 10
3315.486041200897
 20
2713.4226279959089
 30
0.0
 11
3315.486041200897
 21
1451.5726279959081
 31
0.0
  0
DIMENSION
  5
314
  8
SUNPOU
  2
*D5
 10
3315.486041200897
 20
3183.0425213434009
 30
0.0
 11
2315.4860412008961
 21
3223.5425213434009
 31
0.0
 70
     0
 13
1315.486041200897
 23
2713.4226279959089
 33
0.0
 14
3315.486041200897
 24
2713.4226279959089
 34
0.0
1001
ACAD
1000
DSTYLE
1002
{
1070
   287
1070
     5
1070
    40
1040
15.0
1070
    41
1040
2.0
1070
    42
1040
1.0
1070
    43
1040
6.0
1070
    44
1040
1.0
1070
    73
1070
     0
1070
    74
1070
     0
1070
    77
1070
     1
1070
    78
1070
     8
1070
   140
1040
3.0
1070
   147
1040
1.1999999999999991
1070
   172
1070
     1
1070
   176
1070
   256
1070
   177
1070
   256
1070
   178
1070
   256
1070
   271
1070
     1
1070
   275
1070
     1
1070
   279
1070
     2
1070
   340
1005
11F
1002
}
  0
LINE
  5
317
  8
SJC
 10
1065.350081079345
 20
1551.572627995909
 30
0.0
 11
1565.622001322449
 21
1551.572627995909
 31
0.0
1001
ACAD
1000
ASC_BOUNDS
1002
{
1070
    19
1005
0
1002
}
  0
LINE
  5
318
  8
SJC
 10
1353.636041200896
 20
2151.572627995909
 30
0.0
 11
3277.3360412008969
 21
2151.572627995909
 31
0.0
1001
ACAD
1000
ASC_BOUNDS
1002
{
1070
    19
1002
}
  0
INSERT
  5
31B
  8
SUNPOU
  2
B0040021
 10
2010.618888990841
 20
2151.572627995909
 30
0.0
  0
LINE
  5
31C
  8
SJC
 10
1065.350081079345
 20
1501.5726279959081
 30
0.0
 11
1565.622001322449
 21
1501.5726279959081
 31
0.0
  0
POLYLINE
  5
31D
  8
HATCH
 66
     1
 10
0.0
 20
0.0
 30
0.0
 70
     3
  0
VERTEX
  5
31E
  8
HATCH
 10
1145.350081079345
 20
1526.5726279959081
 30
0.0
 42
-0.1703036214138359
  0
VERTEX
  5
31F
  8
HATCH
 10
1151.842270485763
 20
1545.080438589491
 30
0.0
 42
-0.2278377915826702
 70
     1
  0
VERTEX
  5
320
  8
HATCH
 10
1165.350081079345
 20
1551.5726279959081
 30
0.0
 42
-0.2278377915826684
  0
VERTEX
  5
321
  8
HATCH
 10
1178.8578916729259
 20
1545.080438589491
 30
0.0
 42
-0.1703036214138354
 70
     1
  0
VERTEX
  5
322
  8
HATCH
 10
1185.350081079345
 20
1526.5726279959081
 30
0.0
 42
-0.1703036214138303
  0
VERTEX
  5
323
  8
HATCH
 10
1178.8578916729271
 20
1508.0648174023261
 30
0.0
 42
-0.2278377915826667
 70
     1
  0
VERTEX
  5
324
  8
HATCH
 10
1165.350081079345
 20
1501.5726279959081
 30
0.0
 42
-0.2278377915826721
  0
VERTEX
  5
325
  8
HATCH
 10
1151.8422704857619
 20
1508.064817402327
 30
0.0
 42
-0.1703036214138317
 70
     1
  0
SEQEND
  5
326
  8
HATCH
  0
POLYLINE
  5
327
  8
HATCH
 66
     1
 10
0.0
 20
0.0
 30
0.0
 70
     3
  0
VERTEX
  5
328
  8
HATCH
 10
1105.350081079345
 20
1526.5726279959081
 30
0.0
 42
-0.1703036214138359
  0
VERTEX
  5
329
  8
HATCH
 10
1111.842270485763
 20
1545.080438589491
 30
0.0
 42
-0.2278377915826702
 70
     1
  0
VERTEX
  5
32A
  8
HATCH
 10
1125.350081079345
 20
1551.5726279959081
 30
0.0
 42
-0.2278377915826684
  0
VERTEX
  5
32B
  8
HATCH
 10
1138.8578916729259
 20
1545.080438589491
 30
0.0
 42
-0.1703036214138354
 70
     1
  0
VERTEX
  5
32C
  8
HATCH
 10
1145.350081079345
 20
1526.5726279959081
 30
0.0
 42
-0.1703036214138303
  0
VERTEX
  5
32D
  8
HATCH
 10
1138.8578916729271
 20
1508.0648174023261
 30
0.0
 42
-0.2278377915826667
 70
     1
  0
VERTEX
  5
32E
  8
HATCH
 10
1125.350081079345
 20
1501.5726279959081
 30
0.0
 42
-0.2278377915826721
  0
VERTEX
  5
32F
  8
HATCH
 10
1111.8422704857619
 20
1508.064817402327
 30
0.0
 42
-0.1703036214138317
 70
     1
  0
SEQEND
  5
330
  8
HATCH
  0
POLYLINE
  5
331
  8
HATCH
 66
     1
 10
0.0
 20
0.0
 30
0.0
 70
     3
  0
VERTEX
  5
332
  8
HATCH
 10
1065.350081079345
 20
1526.5726279959081
 30
0.0
 42
-0.1703036214138359
  0
VERTEX
  5
333
  8
HATCH
 10
1071.842270485763
 20
1545.080438589491
 30
0.0
 42
-0.2278377915826702
 70
     1
  0
VERTEX
  5
334
  8
HATCH
 10
1085.350081079345
 20
1551.5726279959081
 30
0.0
 42
-0.2278377915826684
  0
VERTEX
  5
335
  8
HATCH
 10
1098.8578916729259
 20
1545.080438589491
 30
0.0
 42
-0.1703036214138354
 70
     1
  0
VERTEX
  5
336
  8
HATCH
 10
1105.350081079345
 20
1526.5726279959081
 30
0.0
 42
-0.1703036214138303
  0
VERTEX
  5
337
  8
HATCH
 10
1098.8578916729271
 20
1508.0648174023261
 30
0.0
 42
-0.2278377915826667
 70
     1
  0
VERTEX
  5
338
  8
HATCH
 10
1085.350081079345
 20
1501.5726279959081
 30
0.0
 42
-0.2278377915826721
  0
VERTEX
  5
339
  8
HATCH
 10
1071.8422704857619
 20
1508.064817402327
 30
0.0
 42
-0.1703036214138317
 70
     1
  0
SEQEND
  5
33A
  8
HATCH
  0
LINE
  5
33B
  8
SJC
 10
1065.350081079345
 20
1501.5726279959081
 30
0.0
 11
1065.350081079345
 21
1551.5726279959081
 31
0.0
  0
POLYLINE
  5
346
  8
HATCH
 66
     1
 10
0.0
 20
0.0
 30
0.0
 70
     3
  0
VERTEX
  5
347
  8
HATCH
 10
1485.622001322449
 20
1526.5726279959081
 30
0.0
 42
-0.1703036214138359
  0
VERTEX
  5
348
  8
HATCH
 10
1492.114190728867
 20
1545.080438589491
 30
0.0
 42
-0.2278377915826702
 70
     1
  0
VERTEX
  5
349
  8
HATCH
 10
1505.622001322449
 20
1551.5726279959081
 30
0.0
 42
-0.2278377915826684
  0
VERTEX
  5
34A
  8
HATCH
 10
1519.1298119160299
 20
1545.080438589491
 30
0.0
 42
-0.1703036214138354
 70
     1
  0
VERTEX
  5
34B
  8
HATCH
 10
1525.622001322449
 20
1526.5726279959081
 30
0.0
 42
-0.1703036214138303
  0
VERTEX
  5
34C
  8
HATCH
 10
1519.129811916031
 20
1508.0648174023261
 30
0.0
 42
-0.2278377915826667
 70
     1
  0
VERTEX
  5
34D
  8
HATCH
 10
1505.622001322449
 20
1501.5726279959081
 30
0.0
 42
-0.2278377915826721
  0
VERTEX
  5
34E
  8
HATCH
 10
1492.1141907288661
 20
1508.064817402327
 30
0.0
 42
-0.1703036214138317
 70
     1
  0
SEQEND
  5
34F
  8
HATCH
  0
POLYLINE
  5
350
  8
HATCH
 66
     1
 10
0.0
 20
0.0
 30
0.0
 70
     3
  0
VERTEX
  5
351
  8
HATCH
 10
1185.350081079345
 20
1526.5726279959081
 30
0.0
 42
-0.1703036214138359
  0
VERTEX
  5
352
  8
HATCH
 10
1191.842270485763
 20
1545.080438589491
 30
0.0
 42
-0.2278377915826702
 70
     1
  0
VERTEX
  5
353
  8
HATCH
 10
1205.350081079345
 20
1551.5726279959081
 30
0.0
 42
-0.2278377915826684
  0
VERTEX
  5
354
  8
HATCH
 10
1218.8578916729259
 20
1545.080438589491
 30
0.0
 42
-0.1703036214138354
 70
     1
  0
VERTEX
  5
355
  8
HATCH
 10
1225.350081079345
 20
1526.5726279959081
 30
0.0
 42
-0.1703036214138303
  0
VERTEX
  5
356
  8
HATCH
 10
1218.8578916729271
 20
1508.0648174023261
 30
0.0
 42
-0.2278377915826667
 70
     1
  0
VERTEX
  5
357
  8
HATCH
 10
1205.350081079345
 20
1501.5726279959081
 30
0.0
 42
-0.2278377915826721
  0
VERTEX
  5
358
  8
HATCH
 10
1191.8422704857619
 20
1508.064817402327
 30
0.0
 42
-0.1703036214138317
 70
     1
  0
SEQEND
  5
359
  8
HATCH
  0
POLYLINE
  5
35A
  8
HATCH
 66
     1
 10
0.0
 20
0.0
 30
0.0
 70
     3
  0
VERTEX
  5
35B
  8
HATCH
 10
1405.622001322449
 20
1526.5726279959081
 30
0.0
 42
-0.1703036214138359
  0
VERTEX
  5
35C
  8
HATCH
 10
1412.114190728867
 20
1545.080438589491
 30
0.0
 42
-0.2278377915826702
 70
     1
  0
VERTEX
  5
35D
  8
HATCH
 10
1425.622001322449
 20
1551.5726279959081
 30
0.0
 42
-0.2278377915826684
  0
VERTEX
  5
35E
  8
HATCH
 10
1439.1298119160299
 20
1545.080438589491
 30
0.0
 42
-0.1703036214138354
 70
     1
  0
VERTEX
  5
35F
  8
HATCH
 10
1445.622001322449
 20
1526.5726279959081
 30
0.0
 42
-0.1703036214138303
  0
VERTEX
  5
360
  8
HATCH
 10
1439.129811916031
 20
1508.0648174023261
 30
0.0
 42
-0.2278377915826667
 70
     1
  0
VERTEX
  5
361
  8
HATCH
 10
1425.622001322449
 20
1501.5726279959081
 30
0.0
 42
-0.2278377915826721
  0
VERTEX
  5
362
  8
HATCH
 10
1412.1141907288661
 20
1508.064817402327
 30
0.0
 42
-0.1703036214138317
 70
     1
  0
SEQEND
  5
363
  8
HATCH
  0
POLYLINE
  5
364
  8
HATCH
 66
     1
 10
0.0
 20
0.0
 30
0.0
 70
     3
  0
VERTEX
  5
365
  8
HATCH
 10
1445.622001322449
 20
1526.5726279959081
 30
0.0
 42
-0.1703036214138359
  0
VERTEX
  5
366
  8
HATCH
 10
1452.114190728867
 20
1545.080438589491
 30
0.0
 42
-0.2278377915826702
 70
     1
  0
VERTEX
  5
367
  8
HATCH
 10
1465.622001322449
 20
1551.5726279959081
 30
0.0
 42
-0.2278377915826684
  0
VERTEX
  5
368
  8
HATCH
 10
1479.1298119160299
 20
1545.080438589491
 30
0.0
 42
-0.1703036214138354
 70
     1
  0
VERTEX
  5
369
  8
HATCH
 10
1485.622001322449
 20
1526.5726279959081
 30
0.0
 42
-0.1703036214138303
  0
VERTEX
  5
36A
  8
HATCH
 10
1479.129811916031
 20
1508.0648174023261
 30
0.0
 42
-0.2278377915826667
 70
     1
  0
VERTEX
  5
36B
  8
HATCH
 10
1465.622001322449
 20
1501.5726279959081
 30
0.0
 42
-0.2278377915826721
  0
VERTEX
  5
36C
  8
HATCH
 10
1452.1141907288661
 20
1508.064817402327
 30
0.0
 42
-0.1703036214138317
 70
     1
  0
SEQEND
  5
36D
  8
HATCH
  0
LINE
  5
36E
  8
SJC
 10
1565.6220013224481
 20
1501.5726279959081
 30
0.0
 11
1565.6220013224481
 21
1551.5726279959081
 31
0.0
  0
POLYLINE
  5
379
  8
HATCH
 66
     1
 10
0.0
 20
0.0
 30
0.0
 70
     3
  0
VERTEX
  5
37A
  8
HATCH
 10
1525.6220013224481
 20
1526.5726279959081
 30
0.0
 42
-0.1703036214138359
  0
VERTEX
  5
37B
  8
HATCH
 10
1532.1141907288661
 20
1545.080438589491
 30
0.0
 42
-0.2278377915826702
 70
     1
  0
VERTEX
  5
37C
  8
HATCH
 10
1545.6220013224481
 20
1551.5726279959081
 30
0.0
 42
-0.2278377915826684
  0
VERTEX
  5
37D
  8
HATCH
 10
1559.1298119160299
 20
1545.080438589491
 30
0.0
 42
-0.1703036214138354
 70
     1
  0
VERTEX
  5
37E
  8
HATCH
 10
1565.6220013224481
 20
1526.5726279959081
 30
0.0
 42
-0.1703036214138303
  0
VERTEX
  5
37F
  8
HATCH
 10
1559.129811916031
 20
1508.0648174023261
 30
0.0
 42
-0.2278377915826667
 70
     1
  0
VERTEX
  5
380
  8
HATCH
 10
1545.6220013224481
 20
1501.5726279959081
 30
0.0
 42
-0.2278377915826721
  0
VERTEX
  5
381
  8
HATCH
 10
1532.1141907288661
 20
1508.064817402327
 30
0.0
 42
-0.1703036214138317
 70
     1
  0
SEQEND
  5
382
  8
HATCH
  0
LINE
  5
3ED
  8
SJC
 10
3353.6360412008962
 20
2151.572627995909
 30
0.0
 11
3377.3360412008969
 21
2151.572627995909
 31
0.0
1001
ACAD
1000
ASC_BOUNDS
1002
{
1070
    19
1005
0
1002
}
  0
DIMENSION
  5
3EF
  8
SUNPOU
  2
*D6
 10
818.72619141144946
 20
2151.572627995909
 30
0.0
 11
778.22619141144912
 21
1851.572627995909
 31
0.0
 70
     0
 13
1065.350081079345
 23
1551.572627995909
 33
0.0
 14
904.94737533880095
 24
2151.572627995909
 34
0.0
 50
90.0
1001
ACAD
1000
DSTYLE
1002
{
1070
   287
1070
     5
1070
    40
1040
15.0
1070
    41
1040
2.0
1070
    42
1040
1.0
1070
    43
1040
6.0
1070
    44
1040
1.0
1070
    73
1070
     0
1070
    74
1070
     0
1070
    77
1070
     1
1070
    78
1070
     8
1070
   140
1040
3.0
1070
   147
1040
1.1999999999999991
1070
   172
1070
     1
1070
   176
1070
   256
1070
   177
1070
   256
1070
   178
1070
   256
1070
   271
1070
     1
1070
   275
1070
     1
1070
   279
1070
     2
1070
   340
1005
11F
1002
}
  0
LINE
  5
3F2
  8
SJC
 10
1515.486041200897
 20
2951.572627995909
 30
0.0
 11
3115.486041200897
 21
2951.572627995909
 31
0.0
  0
LINE
  5
3F3
  8
SJC
 10
1515.486041200897
 20
2875.2726279959088
 30
0.0
 11
3115.486041200897
 21
2875.2726279959088
 31
0.0
  0
LINE
  5
3F6
  8
SJC
 10
3277.336041200896
 20
2713.4226279959089
 30
0.0
 11
3277.336041200896
 21
2675.8726279959092
 31
0.0
  0
LINE
  5
3F7
  8
SJC
 10
3353.6360412008971
 20
2713.4226279959089
 30
0.0
 11
3353.6360412008971
 21
1551.572627995909
 31
0.0
  0
LINE
  5
3F8
  8
SJC
 10
1353.6360412008969
 20
2713.4226279959098
 30
0.0
 11
1353.6360412008969
 21
2675.8726279959092
 31
0.0
1001
ACAD
1000
ASC_BOUNDS
1002
{
1070
    19
1002
}
  0
LINE
  5
3F9
  8
SJC
 10
1277.3360412008969
 20
2713.4226279959089
 30
0.0
 11
1277.3360412008969
 21
1551.572627995909
 31
0.0
1001
ACAD
1000
ASC_BOUNDS
1002
{
1070
    19
1002
}
  0
DIMENSION
  5
3FC
  8
SUNPOU
  2
*D7
 10
818.72619141144969
 20
2951.5726279959099
 30
0.0
 11
778.22619141144924
 21
2801.5726279959099
 31
0.0
 70
     0
 13
1315.486041200897
 23
2651.5726279959099
 33
0.0
 14
1515.486041200897
 24
2951.572627995909
 34
0.0
 50
90.0
1001
ACAD
1000
DSTYLE
1002
{
1070
   287
1070
     5
1070
    40
1040
15.0
1070
    41
1040
2.0
1070
    42
1040
1.0
1070
    43
1040
6.0
1070
    44
1040
1.0
1070
    73
1070
     0
1070
    74
1070
     0
1070
    77
1070
     1
1070
    78
1070
     8
1070
   140
1040
3.0
1070
   147
1040
1.1999999999999991
1070
   172
1070
     1
1070
   176
1070
   256
1070
   177
1070
   256
1070
   178
1070
   256
1070
   271
1070
     1
1070
   275
1070
     1
1070
   279
1070
     2
1070
   340
1005
11F
1002
}
  0
DIMENSION
  5
3FD
  8
SUNPOU
  2
*D8
 10
714.86035063397685
 20
2951.5726279959099
 30
0.0
 11
674.36035063397628
 21
2251.572627995909
 31
0.0
 70
     0
 13
1065.350081079345
 23
1551.5726279959081
 33
0.0
 14
1475.486041200897
 24
2951.572627995909
 34
0.0
 50
90.0
1001
ACAD
1000
DSTYLE
1002
{
1070
   287
1070
     5
1070
    40
1040
15.0
1070
    41
1040
2.0
1070
    42
1040
1.0
1070
    43
1040
6.0
1070
    44
1040
1.0
1070
    73
1070
     0
1070
    74
1070
     0
1070
    77
1070
     1
1070
    78
1070
     8
1070
   140
1040
3.0
1070
   147
1040
1.1999999999999991
1070
   172
1070
     1
1070
   176
1070
   256
1070
   177
1070
   256
1070
   178
1070
   256
1070
   271
1070
     1
1070
   275
1070
     1
1070
   279
1070
     2
1070
   340
1005
11F
1002
}
  0
SOLID
  5
400
  8
MOJI
  6
CONTINUOUS
 10
2086.0631864522529
 20
2845.2369777986692
 30
0.0
 11
2095.5460360478978
 21
2848.4111806192818
 31
0.0
 12
2081.2820027882372
 22
2875.2726279959088
 32
0.0
 13
2081.2820027882372
 23
2875.2726279959088
 33
0.0
  0
LINE
  5
401
  8
MOJI
  6
CONTINUOUS
 10
2090.8046112500761
 20
2846.8240792089759
 30
0.0
 11
2136.3085316235629
 21
2710.8822830162958
 31
0.0
  0
LINE
  5
402
  8
MOJI
  6
CONTINUOUS
 10
1995.8731470275959
 20
2627.2726279959088
 30
0.0
 11
2136.3085316235629
 21
2204.9822830162939
 31
0.0
  0
SOLID
  5
403
  8
MOJI
  6
CONTINUOUS
 10
2083.4188123081822
 20
2347.2369777986678
 30
0.0
 11
2092.9016619038262
 21
2350.4111806192809
 31
0.0
 12
2078.6376286441659
 22
2377.2726279959079
 32
0.0
 13
2078.6376286441659
 23
2377.2726279959079
 33
0.0
  0
LINE
  5
405
  8
SJC
 10
1353.636041200896
 20
2627.272627995882
 30
0.0
 11
1353.636041200896
 21
2425.8726279959092
 31
0.0
1001
ACAD
1000
ASC_BOUNDS
1002
{
1070
    19
1005
3FE
1002
}
  0
LINE
  5
408
  8
SJC
 10
3277.336041200896
 20
2627.272627995882
 30
0.0
 11
3277.336041200896
 21
2425.8726279959092
 31
0.0
  0
TEXT
  5
4B6
  8
INFORMATION
 10
1.0
 20
1.0
 30
0.0
 40
0.8
  1
VERSION=3.0
  0
ARC
  5
4B7
  8
CENTER
 10
1515.486041200897
 20
2713.4226279959089
 30
0.0
 40
200.0
 50
90.0
 51
180.0
  0
ARC
  5
4C0
  8
SJC
 10
1515.486041200897
 20
2713.4226279959089
 30
0.0
 40
161.84999999999999
 50
90.0
 51
180.0
  0
ARC
  5
4C1
  8
SJC
 10
1515.486041200897
 20
2713.4226279959089
 30
0.0
 40
238.15000000000001
 50
90.0
 51
180.0
  0
ARC
  5
4EF
  8
CENTER
 10
3115.486041200897
 20
2713.4226279959089
 30
0.0
 40
200.0
 50
0.000000000000007
 51
90.0
  0
ARC
  5
4F0
  8
SJC
 10
3115.486041200897
 20
2713.4226279959089
 30
0.0
 40
238.15000000000001
 50
0.000000000000007
 51
90.0
  0
ARC
  5
4F1
  8
SJC
 10
3115.486041200897
 20
2713.4226279959089
 30
0.0
 40
161.84999999999999
 50
0.000000000000007
 51
90.0
  0
DIMENSION
  5
501
  8
SUNPOU
  2
*D9
 10
1515.4860412008979
 20
2713.4226279959098
 30
0.0
 11
1501.9437413789101
 21
2790.6945941200202
 31
0.0
 70
   132
 15
1372.5465268206019
 25
2853.3093508423808
 35
0.0
 40
0.0
1001
ACAD
1000
DSTYLE
1002
{
1070
   287
1070
     5
1070
    40
1040
15.0
1070
    41
1040
2.0
1070
    42
1040
1.0
1070
    43
1040
6.0
1070
    44
1040
1.0
1070
    73
1070
     0
1070
    74
1070
     0
1070
    77
1070
     1
1070
    78
1070
     8
1070
   140
1040
3.0
1070
   147
1040
1.1999999999999991
1070
   172
1070
     1
1070
   179
1070
     2
1070
   271
1070
     2
1070
   279
1070
     2
1070
   288
1070
     1
1070
   340
1005
11D
1002
}
  0
LINE
  5
531
  8
SJC
 10
1353.636041200896
 20
2675.8726279959092
 30
0.0
 11
3277.336041200896
 21
2675.8726279959092
 31
0.0
  0
LINE
  5
532
  8
SJC
 10
1353.6360412008739
 20
2627.2726279959088
 30
0.0
 11
3277.3360412009192
 21
2627.2726279959088
 31
0.0
  0
ARC
  5
53C
  8
SJC
 10
1383.045775983783
 20
2651.5726279958958
 30
0.0
 40
38.150000000005512
 50
140.43454069638369
 51
219.56545930361631
  0
ARC
  5
53D
  8
SJC
 10
3247.92630641801
 20
2651.5726279958958
 30
0.0
 40
38.150000000005512
 50
320.43454069638381
 51
39.565459303616258
  0
LINE
  5
53E
  8
SJC
 10
1353.6360412008739
 20
2377.2726279959088
 30
0.0
 11
3277.3360412009192
 21
2377.2726279959088
 31
0.0
  0
LINE
  5
53F
  8
SJC
 10
1353.636041200896
 20
2425.8726279959092
 30
0.0
 11
3277.336041200896
 21
2425.8726279959092
 31
0.0
  0
ARC
  5
540
  8
SJC
 10
1383.045775983783
 20
2401.5726279958958
 30
0.0
 40
38.150000000005512
 50
140.43454069638369
 51
219.56545930361631
  0
ARC
  5
541
  8
SJC
 10
3247.92630641801
 20
2401.5726279958958
 30
0.0
 40
38.150000000005512
 50
320.43454069638381
 51
39.565459303616258
  0
LINE
  5
542
  8
SJC
 10
1353.636041200896
 20
2377.272627995882
 30
0.0
 11
1353.636041200896
 21
1551.572627995909
 31
0.0
1001
ACAD
1000
ASC_BOUNDS
1002
{
1070
    19
1002
}
  0
LINE
  5
543
  8
SJC
 10
3277.336041200896
 20
2377.272627995882
 30
0.0
 11
3277.336041200896
 21
1551.572627995909
 31
0.0
  0
SOLID
  5
544
  8
MOJI
  6
CONTINUOUS
 10
2000.654330691613
 20
2597.2369777986728
 30
0.0
 11
2010.137180287257
 21
2600.411180619285
 31
0.0
 12
1995.8731470275959
 22
2627.272627995912
 32
0.0
 13
1995.8731470275959
 23
2627.272627995912
 33
0.0
  0
DIMENSION
  5
546
  8
SUNPOU
  2
*D10
 10
818.72619141144969
 20
2401.5726279958958
 30
0.0
 11
778.22619141144924
 21
2526.5726279959031
 31
0.0
 70
     0
 13
1315.486041200897
 23
2651.5726279959099
 33
0.0
 14
1315.486041200897
 24
2401.5726279958958
 34
0.0
 50
90.0
1001
ACAD
1000
DSTYLE
1002
{
1070
   287
1070
     5
1070
    40
1040
15.0
1070
    41
1040
2.0
1070
    42
1040
1.0
1070
    43
1040
6.0
1070
    44
1040
1.0
1070
    73
1070
     0
1070
    74
1070
     0
1070
    77
1070
     1
1070
    78
1070
     8
1070
   140
1040
3.0
1070
   147
1040
1.1999999999999991
1070
   172
1070
     1
1070
   179
1070
     2
1070
   271
1070
     2
1070
   279
1070
     2
1070
   340
1005
11D
1002
}
  0
DIMENSION
  5
553
  8
SUNPOU
  2
*D11
 10
818.72619141144946
 20
2151.572627995909
 30
0.0
 11
778.22619141144912
 21
2276.5726279959031
 31
0.0
 70
     0
 13
1315.486041200897
 23
2401.5726279958958
 33
0.0
 14
904.94737533880095
 24
2151.572627995909
 34
0.0
 50
90.0
1001
ACAD
1000
DSTYLE
1002
{
1070
   287
1070
     5
1070
    40
1040
15.0
1070
    41
1040
2.0
1070
    42
1040
1.0
1070
    43
1040
6.0
1070
    44
1040
1.0
1070
    73
1070
     0
1070
    74
1070
     0
1070
    77
1070
     1
1070
    78
1070
     8
1070
   140
1040
3.0
1070
   147
1040
1.1999999999999991
1070
   172
1070
     1
1070
   179
1070
     2
1070
   271
1070
     2
1070
   279
1070
     2
1070
   340
1005
11D
1002
}
  0
LINE
  5
650
  8
HATCH
 10
1115.4860412008959
 20
1602.6186780887519
 30
0.0
 11
1277.3360412008969
 21
1764.468678088753
 31
0.0
  0
LINE
  5
651
  8
HATCH
 10
1353.6360412008969
 20
1840.7686780887529
 30
0.0
 11
1515.486041200897
 21
2002.6186780887531
 31
0.0
  0
LINE
  5
652
  8
HATCH
 10
1115.4860412008959
 20
1779.39537338539
 30
0.0
 11
1277.3360412008969
 21
1941.2453733853899
 31
0.0
  0
LINE
  5
653
  8
HATCH
 10
1353.6360412008969
 20
2017.5453733853899
 30
0.0
 11
1487.663295811416
 21
2151.572627995909
 31
0.0
  0
LINE
  5
654
  8
HATCH
 10
1115.4860412008959
 20
1956.1720686820261
 30
0.0
 11
1277.3360412008969
 21
2118.0220686820271
 31
0.0
  0
LINE
  5
657
  8
HATCH
 10
1115.4860412008959
 20
1624.7157650008321
 30
0.0
 11
1277.3360412008969
 21
1786.5657650008329
 31
0.0
  0
LINE
  5
658
  8
HATCH
 10
1353.6360412008969
 20
1862.8657650008331
 30
0.0
 11
1515.486041200897
 21
2024.7157650008321
 31
0.0
  0
LINE
  5
659
  8
HATCH
 10
1115.4860412008959
 20
1801.49246029747
 30
0.0
 11
1277.3360412008969
 21
1963.3424602974701
 31
0.0
  0
LINE
  5
65A
  8
HATCH
 10
1353.6360412008969
 20
2039.6424602974701
 30
0.0
 11
1465.566208899337
 21
2151.572627995909
 31
0.0
  0
LINE
  5
65B
  8
HATCH
 10
1115.4860412008959
 20
1978.269155594106
 30
0.0
 11
1277.3360412008969
 21
2140.1191555941068
 31
0.0
  0
LINE
  5
65D
  8
HATCH
 10
1395.8962947892451
 20
1551.572627995909
 30
0.0
 11
1515.486041200897
 21
1671.1623744075589
 31
0.0
  0
LINE
  5
65E
  8
HATCH
 10
1120.2458172838931
 20
1651.572627995909
 30
0.0
 11
1277.3360412008969
 21
1808.6628519129131
 31
0.0
  0
LINE
  5
65F
  8
HATCH
 10
1353.6360412008969
 20
1884.9628519129119
 30
0.0
 11
1515.486041200897
 21
2046.812851912912
 31
0.0
  0
LINE
  5
660
  8
HATCH
 10
1115.4860412008959
 20
1823.589547209549
 30
0.0
 11
1277.3360412008969
 21
1985.4395472095489
 31
0.0
  0
LINE
  5
661
  8
HATCH
 10
1353.6360412008969
 20
2061.7395472095491
 30
0.0
 11
1443.469121987257
 21
2151.5726279959099
 31
0.0
  0
LINE
  5
662
  8
HATCH
 10
1115.4860412008959
 20
2000.3662425061859
 30
0.0
 11
1266.6924266906201
 21
2151.572627995909
 31
0.0
  0
LINE
  5
664
  8
HATCH
 10
1373.7992078771681
 20
1551.572627995909
 30
0.0
 11
1515.486041200897
 21
1693.2594613196379
 31
0.0
  0
LINE
  5
665
  8
HATCH
 10
1115.4860412008959
 20
2132.9487639786639
 30
0.0
 11
1134.1099052181421
 21
2151.572627995909
 31
0.0
  0
LINE
  5
668
  8
HATCH
 10
1197.0225125805309
 20
1551.572627995909
 30
0.0
 11
1277.3360412008969
 21
1631.886156616275
 31
0.0
  0
LINE
  5
669
  8
HATCH
 10
1219.11959949261
 20
1551.572627995909
 30
0.0
 11
1277.3360412008969
 21
1609.789069704196
 31
0.0
  0
LINE
  5
66A
  8
HATCH
 10
1241.216686404689
 20
1551.572627995909
 30
0.0
 11
1277.3360412008969
 21
1587.6919827921161
 31
0.0
  0
LINE
  5
66B
  8
HATCH
 10
1417.9933817013271
 20
1551.572627995909
 30
0.0
 11
1515.486041200897
 21
1649.0652874954769
 31
0.0
  0
DIMENSION
  5
66F
  8
SUNPOU
  2
*D12
 10
1515.486041200897
 20
1350.385379250705
 30
0.0
 11
1315.486041200897
 21
1390.885379250705
 31
0.0
 70
     0
 13
1115.4860412008959
 23
1551.572627995909
 33
0.0
 14
1515.486041200897
 24
1551.572627995909
 34
0.0
1001
ACAD
1000
DSTYLE
1002
{
1070
   287
1070
     5
1070
    40
1040
15.0
1070
    41
1040
2.0
1070
    42
1040
1.0
1070
    43
1040
6.0
1070
    44
1040
1.0
1070
    73
1070
     0
1070
    74
1070
     0
1070
    77
1070
     1
1070
    78
1070
     8
1070
   140
1040
3.0
1070
   147
1040
1.1999999999999991
1070
   172
1070
     1
1070
   179
1070
     2
1070
   271
1070
     2
1070
   279
1070
     2
1070
   340
1005
11D
1002
}
  0
LINE
  5
722
  8
CENTER
 10
4984.4355135998267
 20
3001.572627995909
 30
0.0
 11
4984.4355135998267
 21
1451.5726279959081
 31
0.0
  0
LINE
  5
723
  8
SJC
 10
5022.5855135998263
 20
2151.572627995909
 30
0.0
 11
5284.4355135998267
 21
2151.572627995909
 31
0.0
1001
ACAD
1000
ASC_BOUNDS
1002
{
1070
    19
1005
0
1002
}
  0
LINE
  5
725
  8
SJC
 10
5022.5855135998263
 20
2913.4226279959089
 30
0.0
 11
5022.5855135998272
 21
1551.572627995909
 31
0.0
  0
LINE
  5
727
  8
SJC
 10
4946.285513599827
 20
2913.4226279959098
 30
0.0
 11
4946.2855135998279
 21
1551.572627995909
 31
0.0
  0
LINE
  5
72D
  8
SJC
 10
4734.2995534782749
 20
1551.572627995909
 30
0.0
 11
5234.5714737213784
 21
1551.572627995909
 31
0.0
1001
ACAD
1000
ASC_BOUNDS
1002
{
1070
    19
1005
0
1002
}
  0
LINE
  5
730
  8
SJC
 10
4734.2995534782749
 20
1501.5726279959081
 30
0.0
 11
5234.5714737213784
 21
1501.572627995909
 31
0.0
  0
POLYLINE
  5
73B
  8
HATCH
 66
     1
 10
0.0
 20
0.0
 30
0.0
 70
     3
  0
VERTEX
  5
73C
  8
HATCH
 10
4814.299553478274
 20
1526.5726279959081
 30
0.0
 42
-0.1703036214138359
  0
VERTEX
  5
73D
  8
HATCH
 10
4820.791742884694
 20
1545.080438589491
 30
0.0
 42
-0.2278377915826702
 70
     1
  0
VERTEX
  5
73E
  8
HATCH
 10
4834.2995534782749
 20
1551.5726279959081
 30
0.0
 42
-0.2278377915826684
  0
VERTEX
  5
73F
  8
HATCH
 10
4847.8073640718567
 20
1545.080438589491
 30
0.0
 42
-0.1703036214138354
 70
     1
  0
VERTEX
  5
740
  8
HATCH
 10
4854.299553478274
 20
1526.5726279959081
 30
0.0
 42
-0.1703036214138303
  0
VERTEX
  5
741
  8
HATCH
 10
4847.8073640718576
 20
1508.0648174023261
 30
0.0
 42
-0.2278377915826667
 70
     1
  0
VERTEX
  5
742
  8
HATCH
 10
4834.2995534782749
 20
1501.5726279959081
 30
0.0
 42
-0.2278377915826721
  0
VERTEX
  5
743
  8
HATCH
 10
4820.7917428846931
 20
1508.064817402327
 30
0.0
 42
-0.1703036214138317
 70
     1
  0
SEQEND
  5
744
  8
HATCH
  0
POLYLINE
  5
745
  8
HATCH
 66
     1
 10
0.0
 20
0.0
 30
0.0
 70
     3
  0
VERTEX
  5
746
  8
HATCH
 10
4774.299553478274
 20
1526.5726279959081
 30
0.0
 42
-0.1703036214138359
  0
VERTEX
  5
747
  8
HATCH
 10
4780.7917428846931
 20
1545.080438589491
 30
0.0
 42
-0.2278377915826702
 70
     1
  0
VERTEX
  5
748
  8
HATCH
 10
4794.2995534782749
 20
1551.5726279959081
 30
0.0
 42
-0.2278377915826684
  0
VERTEX
  5
749
  8
HATCH
 10
4807.8073640718567
 20
1545.080438589491
 30
0.0
 42
-0.1703036214138354
 70
     1
  0
VERTEX
  5
74A
  8
HATCH
 10
4814.299553478274
 20
1526.5726279959081
 30
0.0
 42
-0.1703036214138303
  0
VERTEX
  5
74B
  8
HATCH
 10
4807.8073640718576
 20
1508.0648174023261
 30
0.0
 42
-0.2278377915826667
 70
     1
  0
VERTEX
  5
74C
  8
HATCH
 10
4794.2995534782749
 20
1501.5726279959081
 30
0.0
 42
-0.2278377915826721
  0
VERTEX
  5
74D
  8
HATCH
 10
4780.7917428846922
 20
1508.064817402327
 30
0.0
 42
-0.1703036214138317
 70
     1
  0
SEQEND
  5
74E
  8
HATCH
  0
LINE
  5
74F
  8
SJC
 10
4734.2995534782749
 20
1501.5726279959081
 30
0.0
 11
4734.2995534782749
 21
1551.5726279959081
 31
0.0
  0
POLYLINE
  5
750
  8
HATCH
 66
     1
 10
0.0
 20
0.0
 30
0.0
 70
     3
  0
VERTEX
  5
751
  8
HATCH
 10
4734.2995534782749
 20
1526.5726279959081
 30
0.0
 42
-0.1703036214138359
  0
VERTEX
  5
752
  8
HATCH
 10
4740.7917428846931
 20
1545.080438589491
 30
0.0
 42
-0.2278377915826702
 70
     1
  0
VERTEX
  5
753
  8
HATCH
 10
4754.2995534782749
 20
1551.5726279959081
 30
0.0
 42
-0.2278377915826684
  0
VERTEX
  5
754
  8
HATCH
 10
4767.8073640718558
 20
1545.080438589491
 30
0.0
 42
-0.1703036214138354
 70
     1
  0
VERTEX
  5
755
  8
HATCH
 10
4774.299553478274
 20
1526.5726279959081
 30
0.0
 42
-0.1703036214138303
  0
VERTEX
  5
756
  8
HATCH
 10
4767.8073640718576
 20
1508.0648174023261
 30
0.0
 42
-0.2278377915826667
 70
     1
  0
VERTEX
  5
757
  8
HATCH
 10
4754.2995534782749
 20
1501.5726279959081
 30
0.0
 42
-0.2278377915826721
  0
VERTEX
  5
758
  8
HATCH
 10
4740.7917428846922
 20
1508.064817402327
 30
0.0
 42
-0.1703036214138317
 70
     1
  0
SEQEND
  5
759
  8
HATCH
  0
POLYLINE
  5
75A
  8
HATCH
 66
     1
 10
0.0
 20
0.0
 30
0.0
 70
     3
  0
VERTEX
  5
75B
  8
HATCH
 10
5113.3540372121679
 20
1526.5726279959081
 30
0.0
 42
-0.1703036214138359
  0
VERTEX
  5
75C
  8
HATCH
 10
5119.8462266185861
 20
1545.080438589491
 30
0.0
 42
-0.2278377915826702
 70
     1
  0
VERTEX
  5
75D
  8
HATCH
 10
5133.3540372121679
 20
1551.5726279959081
 30
0.0
 42
-0.2278377915826684
  0
VERTEX
  5
75E
  8
HATCH
 10
5146.8618478057497
 20
1545.080438589491
 30
0.0
 42
-0.1703036214138354
 70
     1
  0
VERTEX
  5
75F
  8
HATCH
 10
5153.354037212167
 20
1526.5726279959081
 30
0.0
 42
-0.1703036214138303
  0
VERTEX
  5
760
  8
HATCH
 10
5146.8618478057506
 20
1508.0648174023261
 30
0.0
 42
-0.2278377915826667
 70
     1
  0
VERTEX
  5
761
  8
HATCH
 10
5133.3540372121679
 20
1501.5726279959081
 30
0.0
 42
-0.2278377915826721
  0
VERTEX
  5
762
  8
HATCH
 10
5119.8462266185861
 20
1508.064817402327
 30
0.0
 42
-0.1703036214138317
 70
     1
  0
SEQEND
  5
763
  8
HATCH
  0
LINE
  5
782
  8
SJC
 10
5234.5714737213784
 20
1501.5726279959081
 30
0.0
 11
5234.5714737213784
 21
1551.5726279959081
 31
0.0
  0
POLYLINE
  5
783
  8
HATCH
 66
     1
 10
0.0
 20
0.0
 30
0.0
 70
     3
  0
VERTEX
  5
784
  8
HATCH
 10
5193.3540372121661
 20
1526.5726279959081
 30
0.0
 42
-0.1703036214138359
  0
VERTEX
  5
785
  8
HATCH
 10
5199.8462266185861
 20
1545.080438589491
 30
0.0
 42
-0.2278377915826702
 70
     1
  0
VERTEX
  5
786
  8
HATCH
 10
5213.354037212167
 20
1551.5726279959081
 30
0.0
 42
-0.2278377915826684
  0
VERTEX
  5
787
  8
HATCH
 10
5226.8618478057488
 20
1545.080438589491
 30
0.0
 42
-0.1703036214138354
 70
     1
  0
VERTEX
  5
788
  8
HATCH
 10
5233.3540372121661
 20
1526.5726279959081
 30
0.0
 42
-0.1703036214138303
  0
VERTEX
  5
789
  8
HATCH
 10
5226.8618478057497
 20
1508.0648174023261
 30
0.0
 42
-0.2278377915826667
 70
     1
  0
VERTEX
  5
78A
  8
HATCH
 10
5213.354037212167
 20
1501.5726279959081
 30
0.0
 42
-0.2278377915826721
  0
VERTEX
  5
78B
  8
HATCH
 10
5199.8462266185852
 20
1508.064817402327
 30
0.0
 42
-0.1703036214138317
 70
     1
  0
SEQEND
  5
78C
  8
HATCH
  0
POLYLINE
  5
78D
  8
HATCH
 66
     1
 10
0.0
 20
0.0
 30
0.0
 70
     3
  0
VERTEX
  5
78E
  8
HATCH
 10
5153.354037212167
 20
1526.5726279959081
 30
0.0
 42
-0.1703036214138359
  0
VERTEX
  5
78F
  8
HATCH
 10
5159.8462266185861
 20
1545.080438589491
 30
0.0
 42
-0.2278377915826702
 70
     1
  0
VERTEX
  5
790
  8
HATCH
 10
5173.354037212167
 20
1551.5726279959081
 30
0.0
 42
-0.2278377915826684
  0
VERTEX
  5
791
  8
HATCH
 10
5186.8618478057488
 20
1545.080438589491
 30
0.0
 42
-0.1703036214138354
 70
     1
  0
VERTEX
  5
792
  8
HATCH
 10
5193.3540372121661
 20
1526.5726279959081
 30
0.0
 42
-0.1703036214138303
  0
VERTEX
  5
793
  8
HATCH
 10
5186.8618478057497
 20
1508.0648174023261
 30
0.0
 42
-0.2278377915826667
 70
     1
  0
VERTEX
  5
794
  8
HATCH
 10
5173.354037212167
 20
1501.5726279959081
 30
0.0
 42
-0.2278377915826721
  0
VERTEX
  5
795
  8
HATCH
 10
5159.8462266185843
 20
1508.064817402327
 30
0.0
 42
-0.1703036214138317
 70
     1
  0
SEQEND
  5
796
  8
HATCH
  0
LINE
  5
798
  8
HATCH
 10
4784.4355135998267
 20
1602.618678088754
 30
0.0
 11
4946.285513599827
 21
1764.468678088753
 31
0.0
  0
LINE
  5
799
  8
HATCH
 10
5022.5855135998263
 20
1840.7686780887529
 30
0.0
 11
5184.4355135998267
 21
2002.6186780887531
 31
0.0
  0
LINE
  5
79A
  8
HATCH
 10
4784.4355135998267
 20
1779.3953733853921
 30
0.0
 11
4946.285513599827
 21
1941.2453733853899
 31
0.0
  0
LINE
  5
79B
  8
HATCH
 10
5022.5855135998263
 20
2017.5453733853899
 30
0.0
 11
5156.6127682103461
 21
2151.572627995909
 31
0.0
  0
LINE
  5
79C
  8
HATCH
 10
4784.4355135998267
 20
1956.1720686820281
 30
0.0
 11
4946.285513599827
 21
2118.0220686820271
 31
0.0
  0
LINE
  5
79E
  8
HATCH
 10
5022.5855135998263
 20
1663.991982792116
 30
0.0
 11
5184.4355135998276
 21
1825.841982792115
 31
0.0
  0
LINE
  5
79F
  8
HATCH
 10
4784.4355135998267
 20
1624.7157650008321
 30
0.0
 11
4946.285513599827
 21
1786.5657650008329
 31
0.0
  0
LINE
  5
7A0
  8
HATCH
 10
5022.5855135998263
 20
1862.8657650008331
 30
0.0
 11
5184.4355135998267
 21
2024.7157650008321
 31
0.0
  0
LINE
  5
7A1
  8
HATCH
 10
4784.4355135998267
 20
1801.49246029747
 30
0.0
 11
4946.285513599827
 21
1963.3424602974701
 31
0.0
  0
LINE
  5
7A2
  8
HATCH
 10
5022.5855135998272
 20
2039.6424602974701
 30
0.0
 11
5134.4355135998267
 21
2151.4924602974688
 31
0.0
  0
LINE
  5
7A3
  8
HATCH
 10
4784.4355135998267
 20
1978.269155594108
 30
0.0
 11
4946.285513599827
 21
2140.1191555941068
 31
0.0
  0
LINE
  5
7A5
  8
HATCH
 10
5022.5855135998263
 20
1686.089069704195
 30
0.0
 11
5184.4355135998276
 21
1847.9390697041949
 31
0.0
  0
LINE
  5
7A7
  8
HATCH
 10
4784.4355135998267
 20
1646.8128519129129
 30
0.0
 11
4946.285513599827
 21
1808.6628519129131
 31
0.0
  0
LINE
  5
7A8
  8
HATCH
 10
5022.5855135998263
 20
1884.9628519129119
 30
0.0
 11
5184.4355135998267
 21
2046.812851912912
 31
0.0
  0
LINE
  5
7A9
  8
HATCH
 10
4784.4355135998267
 20
1823.5895472095499
 30
0.0
 11
4946.285513599827
 21
1985.4395472095489
 31
0.0
  0
LINE
  5
7AA
  8
HATCH
 10
5022.5855135998272
 20
2061.7395472095491
 30
0.0
 11
5112.4185943861867
 21
2151.5726279959099
 31
0.0
  0
LINE
  5
7AB
  8
HATCH
 10
4784.4355135998258
 20
2000.3662425061871
 30
0.0
 11
4935.641899089549
 21
2151.572627995909
 31
0.0
  0
LINE
  5
7AD
  8
HATCH
 10
5022.5855135998263
 20
1708.186156616275
 30
0.0
 11
5184.4355135998276
 21
1870.0361566162769
 31
0.0
  0
ARC
  5
7FB
  8
SJC
 10
4984.4355135998267
 20
2913.4226279959089
 30
0.0
 40
38.149999999999643
 50
0.0
 51
180.0
  0
LINE
  5
7FE
  8
SJC
 10
4784.4355135998258
 20
2151.572627995909
 30
0.0
 11
4784.4355135998267
 21
1551.572627995909
 31
0.0
1001
ACAD
1000
ASC_BOUNDS
1002
{
1070
    19
1002
}
  0
LINE
  5
7FF
  8
SJC
 10
5184.4355135998267
 20
2151.572627995909
 30
0.0
 11
5184.4355135998276
 21
1551.572627995909
 31
0.0
1001
ACAD
1000
ASC_BOUNDS
1002
{
1070
    19
1002
}
  0
LINE
  5
800
  8
SJC
 10
4946.285513599827
 20
2151.572627995909
 30
0.0
 11
4684.4355135998267
 21
2151.572627995909
 31
0.0
1001
ACAD
1000
ASC_BOUNDS
1002
{
1070
    19
1005
0
1002
}
  0
LINE
  5
912
  8
SJC
 10
5051.4317998701472
 20
4165.2545027623164
 30
0.0
 11
5981.4317998701463
 21
4165.2545027623164
 31
0.0
  0
LINE
  5
913
  8
SJC
 10
5051.4317998701472
 20
3940.254502762316
 30
0.0
 11
5981.4317998701463
 21
3940.254502762316
 31
0.0
  0
LINE
  5
914
  8
SJC
 10
5028.9317998701472
 20
4015.254502762316
 30
0.0
 11
6003.9317998701463
 21
4015.254502762316
 31
0.0
  0
LINE
  5
915
  8
SJC
 10
5028.9317998701472
 20
4090.254502762316
 30
0.0
 11
6003.9317998701463
 21
4090.254502762316
 31
0.0
  0
TEXT
  5
916
  8
MOJI
 10
5287.795190993811
 20
3955.6695891817881
 30
0.0
 40
45.0
  1
KGSH00097
 41
0.8
  7
EXT08
  0
TEXT
  5
917
  8
MOJI
 10
5287.795190993811
 20
4030.6695891817872
 30
0.0
 40
45.0
  1
KSP-8-20WM
 41
0.8
  7
EXT08
  0
TEXT
  5
918
  8
MOJI
 10
5287.795190993811
 20
4105.6695891817872
 30
0.0
 40
45.0
  1
高強度セイフティパイプ
 41
0.8
  7
EXT08
  0
TEXT
  5
919
  8
MOJI
 10
5078.0889427272896
 20
4104.3545027623159
 30
0.0
 40
45.0
  1
タイプ
 41
0.8
  7
EXT08
 72
     4
 11
5141.4317998701463
 21
4127.7545027623164
 31
0.0
  0
LINE
  5
91A
  8
SJC
 10
5253.9317998701463
 20
3940.254502762316
 30
0.0
 11
5253.9317998701463
 21
4165.2545027623164
 31
0.0
  0
ARC
  5
91B
  8
SJC
 10
5051.4317998701472
 20
4142.7545027623173
 30
0.0
 40
22.5
 50
90.0
 51
180.0
  0
ARC
  5
91C
  8
SJC
 10
5051.4317998701472
 20
3962.7545027623169
 30
0.0
 40
22.5
 50
180.0
 51
270.0
  0
LINE
  5
91D
  8
SJC
 10
5028.9317998701472
 20
3962.7545027623169
 30
0.0
 11
5028.9317998701472
 21
4142.7545027623173
 31
0.0
  0
TEXT
  5
91E
  8
MOJI
 10
5081.4317998701463
 20
4030.2545027623169
 30
0.0
 40
45.0
  1
品  番
 41
0.8
  7
EXT08
 72
     4
 11
5141.4317998701463
 21
4052.754502762316
 31
0.0
  0
TEXT
  5
91F
  8
MOJI
 10
5058.6317998701461
 20
3955.2545027623169
 30
0.0
 40
45.0
  1
図面番号
 41
0.8
  7
EXT08
 72
     4
 11
5141.4317998701463
 21
3977.754502762316
 31
0.0
  0
ARC
  5
920
  8
SJC
 10
5981.4317998701463
 20
4142.7545027623173
 30
0.0
 40
22.5
 50
0.0
 51
90.0
  0
ARC
  5
921
  8
SJC
 10
5981.4317998701463
 20
3962.7545027623169
 30
0.0
 40
22.5
 50
270.0
 51
0.0
  0
LINE
  5
922
  8
SJC
 10
6003.9317998701463
 20
3962.7545027623169
 30
0.0
 11
6003.9317998701463
 21
4142.7545027623173
 31
0.0
  0
LINE
  5
EA7
  8
MOJI
 10
4628.2035786553051
 20
606.98140002950743
 30
0.0
 11
5691.0795432150417
 21
606.98140002950743
 31
0.0
  0
LINE
  5
EA8
  8
MOJI
 10
5691.0795432150417
 20
606.98140002950743
 30
0.0
 11
5691.0795432150408
 21
379.33704460698158
 31
0.0
  0
LINE
  5
EA9
  8
MOJI
 10
4918.9652661473556
 20
379.33704460698158
 30
0.0
 11
4918.9652661473556
 21
606.98140002950743
 31
0.0
  0
LINE
  5
EAA
  8
MOJI
 10
4628.2035786553051
 20
379.33704460698158
 30
0.0
 11
4628.2035786553051
 21
606.98140002950743
 31
0.0
  0
LINE
  5
EAB
  8
MOJI
 10
5148.1779996400837
 20
379.33704460698158
 30
0.0
 11
5148.1779996400865
 21
606.98140002950743
 31
0.0
  0
TEXT
  5
EAC
  8
MOJI
 10
4720.9511115145051
 20
547.64697883541544
 30
0.0
 40
45.0
  1
品  名
 41
0.8
  7
EXT08
 72
     1
 11
4779.7511115145062
 21
547.64697883541544
 31
0.0
  0
TEXT
  5
EAD
  8
MOJI
 10
4974.089531650653
 20
550.01827420440009
 30
0.0
 40
45.0
  1
材  質
 41
0.8
  7
EXT08
 72
     1
 11
5034.089531650653
 21
550.01827420440009
 31
0.0
  0
TEXT
  5
EAE
  8
MOJI
 10
5356.1241430000864
 20
546.03142712751298
 30
0.0
 40
45.0
  1
摘  要
 41
0.8
  7
EXT08
 72
     1
 11
5416.467000142944
 21
546.03142712751298
 31
0.0
  0
TEXT
  5
EAF
  8
MOJI
 10
4652.987367387932
 20
400.46383898699582
 30
0.0
 40
45.0
  1
ビームパイプ
 41
0.8
  7
EXT08
 72
     1
 11
4781.1302245307897
 21
400.46383898699582
 31
0.0
  0
TEXT
  5
EB0
  8
MOJI
 10
4717.7873673879321
 20
476.2168553221851
 30
0.0
 40
45.0
  1
主  柱
 41
0.8
  7
EXT08
 72
     1
 11
4777.7873673879321
 21
476.2168553221851
 31
0.0
  0
TEXT
  5
EB1
  8
MOJI
 10
4936.6704570057318
 20
476.2168553221851
 30
0.0
 40
45.0
  1
STK400
 41
0.8
  7
EXT08
 72
     1
 11
5036.9561712914456
 21
476.2168553221851
 31
0.0
  0
TEXT
  5
EB2
  8
MOJI
 10
5173.2560201200868
 20
476.2168553221851
 30
0.0
 40
45.0
  1
亜鉛めっき＋静電粉体塗装
 41
0.8
  7
EXT08
 72
     1
 11
5427.6560201200864
 21
476.2168553221851
 31
0.0
  0
LINE
  5
EC3
  8
MOJI
 10
4628.2035786553051
 20
531.09994822199883
 30
0.0
 11
5691.0795432150417
 21
531.09994822199883
 31
0.0
  0
LINE
  5
EC4
  8
MOJI
 10
4628.2035786553051
 20
455.21849641449018
 30
0.0
 11
5691.0795432150417
 21
455.21849641449018
 31
0.0
  0
LINE
  5
EC5
  8
MOJI
 10
4628.2035786553051
 20
379.33704460698158
 30
0.0
 11
5691.0795432150417
 21
379.33704460698158
 31
0.0
  0
TEXT
  5
ECC
  8
MOJI
 10
5173.2560201200868
 20
400.3354035146765
 30
0.0
 40
45.0
  1
亜鉛めっき＋静電粉体塗装
 41
0.8
  7
EXT08
 72
     1
 11
5427.6560201200864
 21
400.3354035146765
 31
0.0
  0
TEXT
  5
ECD
  8
MOJI
 10
4936.6704570057318
 20
400.3354035146765
 30
0.0
 40
45.0
  1
STK400
 41
0.8
  7
EXT08
 72
     1
 11
5036.9561712914456
 21
400.3354035146765
 31
0.0
  0
LINE
  5
1007
  8
SJC
 10
1115.4860412008959
 20
2151.572627995909
 30
0.0
 11
1115.4860412008959
 21
1551.572627995909
 31
0.0
1001
ACAD
1000
ASC_BOUNDS
1002
{
1070
    19
1002
}
  0
LINE
  5
1008
  8
SJC
 10
1515.486041200897
 20
2151.572627995909
 30
0.0
 11
1515.486041200897
 21
1551.572627995909
 31
0.0
1001
ACAD
1000
ASC_BOUNDS
1002
{
1070
    19
1002
}
  0
LINE
  5
1048
  8
HATCH
 10
1353.636041200896
 20
1708.186156616275
 30
0.0
 11
1515.486041200897
 21
1870.0361566162751
 31
0.0
  0
LINE
  5
1049
  8
HATCH
 10
1353.6360412008969
 20
1686.089069704195
 30
0.0
 11
1515.486041200897
 21
1847.9390697041949
 31
0.0
  0
LINE
  5
104A
  8
HATCH
 10
1353.6360412008969
 20
1663.991982792116
 30
0.0
 11
1515.486041200897
 21
1825.8419827921159
 31
0.0
  0
LINE
  5
10D2
  8
HATCH
 10
4910.1661588036186
 20
1551.572627995909
 30
0.0
 11
4946.285513599827
 21
1587.6919827921161
 31
0.0
  0
LINE
  5
10D3
  8
HATCH
 10
5086.9428541002571
 20
1551.572627995909
 30
0.0
 11
5184.4355135998276
 21
1649.065287495479
 31
0.0
  0
LINE
  5
10D4
  8
HATCH
 10
4888.0690718915403
 20
1551.572627995909
 30
0.0
 11
4946.285513599827
 21
1609.789069704196
 31
0.0
  0
LINE
  5
10D5
  8
HATCH
 10
5064.845767188177
 20
1551.572627995909
 30
0.0
 11
5184.4355135998267
 21
1671.1623744075589
 31
0.0
  0
LINE
  5
10D6
  8
HATCH
 10
4865.9719849794601
 20
1551.572627995909
 30
0.0
 11
4946.285513599827
 21
1631.886156616275
 31
0.0
  0
LINE
  5
10D7
  8
HATCH
 10
5042.7486802760968
 20
1551.572627995909
 30
0.0
 11
5184.4355135998276
 21
1693.2594613196391
 31
0.0
  0
TEXT
  5
110F
  8
MOJI
 10
981.53178366659313
 20
1123.648607357065
 30
0.0
 40
60.0
  1
※基礎寸法は参考値です。
 41
0.8
  7
EXT08
 72
     1
 11
1310.5603550951639
 21
1123.648607357065
 31
0.0
  0
LINE
  5
132D
  8
CENTER
 10
4415.4860412008957
 20
2913.4226279959089
 30
0.0
 11
3615.486041200897
 21
2913.4226279959089
 31
0.0
  0
LINE
  5
1331
  8
CENTER
 10
3415.4860412008961
 20
2713.4226279959089
 30
0.0
 11
3415.4860412008961
 21
1451.5726279959081
 31
0.0
  0
LINE
  5
1333
  8
SJC
 10
4415.4860412008957
 20
2151.572627995909
 30
0.0
 11
3453.6360412008962
 21
2151.572627995909
 31
0.0
1001
ACAD
1000
ASC_BOUNDS
1002
{
1070
    19
1002
}
  0
LINE
  5
138A
  8
SJC
 10
4415.4860412008957
 20
2951.5726279959099
 30
0.0
 11
3615.486041200897
 21
2951.572627995909
 31
0.0
  0
LINE
  5
138B
  8
SJC
 10
4415.4860412008957
 20
2875.2726279959088
 30
0.0
 11
3615.486041200897
 21
2875.2726279959088
 31
0.0
  0
LINE
  5
138C
  8
SJC
 10
3453.6360412008971
 20
2713.4226279959089
 30
0.0
 11
3453.6360412008971
 21
2675.8726279959092
 31
0.0
  0
LINE
  5
138D
  8
SJC
 10
3377.3360412008969
 20
2713.4226279959089
 30
0.0
 11
3377.3360412008969
 21
1551.572627995909
 31
0.0
  0
LINE
  5
1392
  8
SJC
 10
3453.6360412008971
 20
2627.272627995882
 30
0.0
 11
3453.6360412008971
 21
2425.8726279959092
 31
0.0
  0
LINE
  5
1393
  8
SJC
 10
3453.6360412008971
 20
2377.272627995882
 30
0.0
 11
3453.6360412008971
 21
1551.572627995909
 31
0.0
  0
ARC
  5
1394
  8
CENTER
 10
3615.486041200897
 20
2713.4226279959089
 30
0.0
 40
200.0
 50
90.0
 51
180.0
  0
ARC
  5
1395
  8
SJC
 10
3615.486041200897
 20
2713.4226279959089
 30
0.0
 40
238.15000000000001
 50
90.0
 51
180.0
  0
ARC
  5
1396
  8
SJC
 10
3615.486041200897
 20
2713.4226279959089
 30
0.0
 40
161.84999999999999
 50
90.0
 51
180.0
  0
LINE
  5
1397
  8
SJC
 10
4415.4860412008957
 20
2627.2726279959088
 30
0.0
 11
3453.6360412008748
 21
2627.2726279959088
 31
0.0
  0
LINE
  5
1398
  8
SJC
 10
4415.4860412008957
 20
2675.8726279959092
 30
0.0
 11
3453.6360412008971
 21
2675.8726279959092
 31
0.0
  0
ARC
  5
139A
  8
SJC
 10
3483.0457759837841
 20
2651.5726279958958
 30
0.0
 40
38.150000000005512
 50
140.43454069638369
 51
219.56545930361631
  0
LINE
  5
139B
  8
SJC
 10
4415.4860412008957
 20
2377.2726279959088
 30
0.0
 11
3453.6360412008748
 21
2377.2726279959088
 31
0.0
  0
LINE
  5
139C
  8
SJC
 10
4415.4860412008957
 20
2425.8726279959092
 30
0.0
 11
3453.6360412008971
 21
2425.8726279959092
 31
0.0
  0
ARC
  5
139E
  8
SJC
 10
3483.0457759837841
 20
2401.5726279958958
 30
0.0
 40
38.150000000005512
 50
140.43454069638369
 51
219.56545930361631
  0
LINE
  5
142C
  8
SJC2
 10
4415.4860412008957
 20
3051.5726279959108
 30
0.0
 11
4415.4860412008957
 21
2601.5726279959099
 31
0.0
  0
LINE
  5
1524
  8
SUNPOU
 10
3415.486041200897
 20
2728.4226279959089
 30
0.0
 11
3415.486041200897
 21
3198.0425213434009
 31
0.0
  0
LINE
  5
1526
  8
SUNPOU
 10
3445.486041200897
 20
3183.0425213434009
 30
0.0
 11
4415.4860412008957
 21
3183.0425213434009
 31
0.0
  0
SOLID
  5
1527
  8
SUNPOU
 10
3445.486041200897
 20
3188.0425213434009
 30
0.0
 11
3445.486041200897
 21
3178.0425213434
 31
0.0
 12
3415.486041200897
 22
3183.0425213434009
 32
0.0
 13
3415.486041200897
 23
3183.0425213434009
 33
0.0
  0
INSERT
  5
1529
  8
0
  2
*U15
 10
0.0
 20
0.0
 30
0.0
  0
LINE
  5
1567
  8
SJC2
 10
4390.4860412008966
 20
2601.5726279959099
 30
0.0
 11
4415.4860412008957
 21
2601.5726279959099
 31
0.0
  0
LINE
  5
1568
  8
SJC2
 10
4415.4860412008957
 20
2501.5726279959099
 30
0.0
 11
4440.4860412008957
 21
2501.5726279959099
 31
0.0
  0
LINE
  5
156B
  8
SJC2
 10
4390.4860412008966
 20
2601.5726279959099
 30
0.0
 11
4440.4860412008957
 21
2501.5726279959099
 31
0.0
  0
LINE
  5
156C
  8
SJC2
 10
4415.4860412008957
 20
2501.5726279959108
 30
0.0
 11
4415.4860412008957
 21
2051.572627995909
 31
0.0
  0
LINE
  5
15C6
  8
SJC
 10
3115.3500810793448
 20
1551.572627995909
 30
0.0
 11
3615.6220013224488
 21
1551.572627995909
 31
0.0
1001
ACAD
1000
ASC_BOUNDS
1002
{
1070
    19
1005
0
1002
}
  0
LINE
  5
15C7
  8
SJC
 10
3165.4860412008961
 20
2151.572627995909
 30
0.0
 11
3165.4860412008961
 21
1551.572627995909
 31
0.0
1001
ACAD
1000
ASC_BOUNDS
1002
{
1070
    19
1002
}
  0
LINE
  5
15C8
  8
SJC
 10
3565.486041200897
 20
2151.572627995909
 30
0.0
 11
3565.486041200897
 21
1551.572627995909
 31
0.0
1001
ACAD
1000
ASC_BOUNDS
1002
{
1070
    19
1002
}
  0
LINE
  5
15C9
  8
SJC
 10
3115.3500810793448
 20
1501.5726279959081
 30
0.0
 11
3615.6220013224488
 21
1501.5726279959081
 31
0.0
  0
POLYLINE
  5
15CA
  8
HATCH
 66
     1
 10
0.0
 20
0.0
 30
0.0
 70
     3
  0
VERTEX
  5
15CB
  8
HATCH
 10
3195.3500810793448
 20
1526.5726279959081
 30
0.0
 42
-0.1703036214138359
  0
VERTEX
  5
15CC
  8
HATCH
 10
3201.842270485763
 20
1545.080438589491
 30
0.0
 42
-0.2278377915826702
 70
     1
  0
VERTEX
  5
15CD
  8
HATCH
 10
3215.3500810793448
 20
1551.5726279959081
 30
0.0
 42
-0.2278377915826684
  0
VERTEX
  5
15CE
  8
HATCH
 10
3228.8578916729271
 20
1545.080438589491
 30
0.0
 42
-0.1703036214138354
 70
     1
  0
VERTEX
  5
15CF
  8
HATCH
 10
3235.3500810793448
 20
1526.5726279959081
 30
0.0
 42
-0.1703036214138303
  0
VERTEX
  5
15D0
  8
HATCH
 10
3228.857891672928
 20
1508.0648174023261
 30
0.0
 42
-0.2278377915826667
 70
     1
  0
VERTEX
  5
15D1
  8
HATCH
 10
3215.3500810793448
 20
1501.5726279959081
 30
0.0
 42
-0.2278377915826721
  0
VERTEX
  5
15D2
  8
HATCH
 10
3201.8422704857621
 20
1508.064817402327
 30
0.0
 42
-0.1703036214138317
 70
     1
  0
SEQEND
  5
15D3
  8
HATCH
  0
POLYLINE
  5
15D4
  8
HATCH
 66
     1
 10
0.0
 20
0.0
 30
0.0
 70
     3
  0
VERTEX
  5
15D5
  8
HATCH
 10
3155.3500810793448
 20
1526.5726279959081
 30
0.0
 42
-0.1703036214138359
  0
VERTEX
  5
15D6
  8
HATCH
 10
3161.8422704857639
 20
1545.080438589491
 30
0.0
 42
-0.2278377915826702
 70
     1
  0
VERTEX
  5
15D7
  8
HATCH
 10
3175.3500810793448
 20
1551.5726279959081
 30
0.0
 42
-0.2278377915826684
  0
VERTEX
  5
15D8
  8
HATCH
 10
3188.8578916729271
 20
1545.080438589491
 30
0.0
 42
-0.1703036214138354
 70
     1
  0
VERTEX
  5
15D9
  8
HATCH
 10
3195.3500810793448
 20
1526.5726279959081
 30
0.0
 42
-0.1703036214138303
  0
VERTEX
  5
15DA
  8
HATCH
 10
3188.857891672928
 20
1508.0648174023261
 30
0.0
 42
-0.2278377915826667
 70
     1
  0
VERTEX
  5
15DB
  8
HATCH
 10
3175.3500810793448
 20
1501.5726279959081
 30
0.0
 42
-0.2278377915826721
  0
VERTEX
  5
15DC
  8
HATCH
 10
3161.8422704857621
 20
1508.064817402327
 30
0.0
 42
-0.1703036214138317
 70
     1
  0
SEQEND
  5
15DD
  8
HATCH
  0
POLYLINE
  5
15DE
  8
HATCH
 66
     1
 10
0.0
 20
0.0
 30
0.0
 70
     3
  0
VERTEX
  5
15DF
  8
HATCH
 10
3115.3500810793448
 20
1526.5726279959081
 30
0.0
 42
-0.1703036214138359
  0
VERTEX
  5
15E0
  8
HATCH
 10
3121.842270485763
 20
1545.080438589491
 30
0.0
 42
-0.2278377915826702
 70
     1
  0
VERTEX
  5
15E1
  8
HATCH
 10
3135.3500810793448
 20
1551.5726279959081
 30
0.0
 42
-0.2278377915826684
  0
VERTEX
  5
15E2
  8
HATCH
 10
3148.8578916729271
 20
1545.080438589491
 30
0.0
 42
-0.1703036214138354
 70
     1
  0
VERTEX
  5
15E3
  8
HATCH
 10
3155.3500810793448
 20
1526.5726279959081
 30
0.0
 42
-0.1703036214138303
  0
VERTEX
  5
15E4
  8
HATCH
 10
3148.8578916729271
 20
1508.0648174023261
 30
0.0
 42
-0.2278377915826667
 70
     1
  0
VERTEX
  5
15E5
  8
HATCH
 10
3135.3500810793448
 20
1501.5726279959081
 30
0.0
 42
-0.2278377915826721
  0
VERTEX
  5
15E6
  8
HATCH
 10
3121.842270485763
 20
1508.064817402327
 30
0.0
 42
-0.1703036214138317
 70
     1
  0
SEQEND
  5
15E7
  8
HATCH
  0
LINE
  5
15E8
  8
SJC
 10
3115.3500810793448
 20
1501.5726279959081
 30
0.0
 11
3115.3500810793448
 21
1551.5726279959081
 31
0.0
  0
POLYLINE
  5
15F3
  8
HATCH
 66
     1
 10
0.0
 20
0.0
 30
0.0
 70
     3
  0
VERTEX
  5
15F4
  8
HATCH
 10
3235.3500810793448
 20
1526.5726279959081
 30
0.0
 42
-0.1703036214138359
  0
VERTEX
  5
15F5
  8
HATCH
 10
3241.8422704857639
 20
1545.080438589491
 30
0.0
 42
-0.2278377915826702
 70
     1
  0
VERTEX
  5
15F6
  8
HATCH
 10
3255.3500810793448
 20
1551.5726279959081
 30
0.0
 42
-0.2278377915826684
  0
VERTEX
  5
15F7
  8
HATCH
 10
3268.8578916729271
 20
1545.080438589491
 30
0.0
 42
-0.1703036214138354
 70
     1
  0
VERTEX
  5
15F8
  8
HATCH
 10
3275.3500810793448
 20
1526.5726279959081
 30
0.0
 42
-0.1703036214138303
  0
VERTEX
  5
15F9
  8
HATCH
 10
3268.857891672928
 20
1508.0648174023261
 30
0.0
 42
-0.2278377915826667
 70
     1
  0
VERTEX
  5
15FA
  8
HATCH
 10
3255.3500810793448
 20
1501.5726279959081
 30
0.0
 42
-0.2278377915826721
  0
VERTEX
  5
15FB
  8
HATCH
 10
3241.8422704857621
 20
1508.064817402327
 30
0.0
 42
-0.1703036214138317
 70
     1
  0
SEQEND
  5
15FC
  8
HATCH
  0
LINE
  5
161C
  8
HATCH
 10
3165.4860412008961
 20
1602.6186780887519
 30
0.0
 11
3277.336041200896
 21
1714.4686780887521
 31
0.0
  0
LINE
  5
161D
  8
HATCH
 10
3353.636041200898
 20
1790.7686780887529
 30
0.0
 11
3377.3360412008969
 21
1814.468678088753
 31
0.0
  0
LINE
  5
161E
  8
HATCH
 10
3165.4860412008961
 20
1779.39537338539
 30
0.0
 11
3277.336041200896
 21
1891.2453733853899
 31
0.0
  0
LINE
  5
161F
  8
HATCH
 10
3353.636041200898
 20
1967.5453733853899
 30
0.0
 11
3377.3360412008969
 21
1991.2453733853899
 31
0.0
  0
LINE
  5
1620
  8
HATCH
 10
3165.4860412008961
 20
1956.1720686820261
 30
0.0
 11
3277.336041200896
 21
2068.0220686820262
 31
0.0
  0
LINE
  5
1622
  8
HATCH
 10
3353.636041200898
 20
1613.991982792116
 30
0.0
 11
3377.3360412008969
 21
1637.6919827921149
 31
0.0
  0
LINE
  5
1623
  8
HATCH
 10
3165.4860412008961
 20
1624.7157650008321
 30
0.0
 11
3277.336041200896
 21
1736.5657650008329
 31
0.0
  0
LINE
  5
1624
  8
HATCH
 10
3353.636041200898
 20
1812.8657650008331
 30
0.0
 11
3377.3360412008969
 21
1836.565765000832
 31
0.0
  0
LINE
  5
1625
  8
HATCH
 10
3165.4860412008961
 20
1801.49246029747
 30
0.0
 11
3277.336041200896
 21
1913.342460297469
 31
0.0
  0
LINE
  5
1626
  8
HATCH
 10
3353.636041200898
 20
1989.6424602974701
 30
0.0
 11
3377.3360412008969
 21
2013.342460297469
 31
0.0
  0
LINE
  5
1627
  8
HATCH
 10
3165.4860412008961
 20
1978.269155594106
 30
0.0
 11
3277.336041200896
 21
2090.1191555941059
 31
0.0
  0
LINE
  5
1628
  8
HATCH
 10
3269.1195994926102
 20
1551.572627995909
 30
0.0
 11
3277.336041200896
 21
1559.7890697041951
 31
0.0
  0
LINE
  5
1629
  8
HATCH
 10
3353.636041200898
 20
1636.089069704195
 30
0.0
 11
3377.3360412008969
 21
1659.7890697041951
 31
0.0
  0
LINE
  5
162A
  8
HATCH
 10
3453.6360412008971
 20
1559.3123744075599
 30
0.0
 11
3565.486041200897
 21
1671.1623744075589
 31
0.0
  0
LINE
  5
162B
  8
HATCH
 10
3170.2458172838928
 20
1651.572627995909
 30
0.0
 11
3277.336041200896
 21
1758.6628519129119
 31
0.0
  0
LINE
  5
162C
  8
HATCH
 10
3353.636041200898
 20
1834.9628519129119
 30
0.0
 11
3377.3360412008969
 21
1858.662851912911
 31
0.0
  0
LINE
  5
162D
  8
HATCH
 10
3165.4860412008961
 20
1823.589547209549
 30
0.0
 11
3277.336041200896
 21
1935.4395472095489
 31
0.0
  0
LINE
  5
162E
  8
HATCH
 10
3353.6360412008971
 20
2011.7395472095491
 30
0.0
 11
3377.3360412008969
 21
2035.4395472095489
 31
0.0
  0
LINE
  5
162F
  8
HATCH
 10
3165.4860412008961
 20
2000.3662425061859
 30
0.0
 11
3277.336041200896
 21
2112.2162425061852
 31
0.0
  0
LINE
  5
1630
  8
HATCH
 10
3247.0225125805309
 20
1551.572627995909
 30
0.0
 11
3277.336041200896
 21
1581.8861566162741
 31
0.0
  0
LINE
  5
1631
  8
HATCH
 10
3353.6360412008971
 20
1658.186156616275
 30
0.0
 11
3377.3360412008969
 21
1681.886156616275
 31
0.0
  0
LINE
  5
1632
  8
HATCH
 10
3453.6360412008962
 20
1581.4094613196371
 30
0.0
 11
3565.486041200897
 21
1693.2594613196379
 31
0.0
  0
LINE
  5
1633
  8
HATCH
 10
3165.4860412008961
 20
2132.9487639786639
 30
0.0
 11
3184.109905218143
 21
2151.572627995909
 31
0.0
  0
LINE
  5
1634
  8
HATCH
 10
3467.9933817013271
 20
1551.572627995909
 30
0.0
 11
3565.486041200897
 21
1649.0652874954769
 31
0.0
  0
LINE
  5
16E3
  8
SJC
 10
3453.6360412008962
 20
2151.572627995909
 30
0.0
 11
3577.3360412008969
 21
2151.572627995909
 31
0.0
1001
ACAD
1000
ASC_BOUNDS
1002
{
1070
    19
1005
0
1002
}
  0
LINE
  5
16E7
  8
SJC
 10
3565.486041200897
 20
2151.572627995909
 30
0.0
 11
3565.486041200897
 21
1551.572627995909
 31
0.0
1001
ACAD
1000
ASC_BOUNDS
1002
{
1070
    19
1002
}
  0
POLYLINE
  5
172E
  8
HATCH
 66
     1
 10
0.0
 20
0.0
 30
0.0
 70
     3
  0
VERTEX
  5
172F
  8
HATCH
 10
4854.299553478274
 20
1526.5726279959081
 30
0.0
 42
-0.1703036214138359
  0
VERTEX
  5
1730
  8
HATCH
 10
4860.7917428846931
 20
1545.080438589491
 30
0.0
 42
-0.2278377915826702
 70
     1
  0
VERTEX
  5
1731
  8
HATCH
 10
4874.2995534782749
 20
1551.5726279959081
 30
0.0
 42
-0.2278377915826684
  0
VERTEX
  5
1732
  8
HATCH
 10
4887.8073640718567
 20
1545.080438589491
 30
0.0
 42
-0.1703036214138354
 70
     1
  0
VERTEX
  5
1733
  8
HATCH
 10
4894.2995534782749
 20
1526.5726279959081
 30
0.0
 42
-0.1703036214138303
  0
VERTEX
  5
1734
  8
HATCH
 10
4887.8073640718567
 20
1508.0648174023261
 30
0.0
 42
-0.2278377915826667
 70
     1
  0
VERTEX
  5
1735
  8
HATCH
 10
4874.2995534782749
 20
1501.5726279959081
 30
0.0
 42
-0.2278377915826721
  0
VERTEX
  5
1736
  8
HATCH
 10
4860.7917428846931
 20
1508.064817402327
 30
0.0
 42
-0.1703036214138317
 70
     1
  0
SEQEND
  5
1737
  8
HATCH
  0
POLYLINE
  5
1738
  8
HATCH
 66
     1
 10
0.0
 20
0.0
 30
0.0
 70
     3
  0
VERTEX
  5
1739
  8
HATCH
 10
5073.3540372121688
 20
1526.5726279959081
 30
0.0
 42
-0.1703036214138359
  0
VERTEX
  5
173A
  8
HATCH
 10
5079.846226618587
 20
1545.0804385894901
 30
0.0
 42
-0.2278377915826702
 70
     1
  0
VERTEX
  5
173B
  8
HATCH
 10
5093.3540372121688
 20
1551.5726279959081
 30
0.0
 42
-0.2278377915826684
  0
VERTEX
  5
173C
  8
HATCH
 10
5106.8618478057506
 20
1545.0804385894901
 30
0.0
 42
-0.1703036214138354
 70
     1
  0
VERTEX
  5
173D
  8
HATCH
 10
5113.3540372121679
 20
1526.5726279959081
 30
0.0
 42
-0.1703036214138303
  0
VERTEX
  5
173E
  8
HATCH
 10
5106.8618478057524
 20
1508.0648174023261
 30
0.0
 42
-0.2278377915826667
 70
     1
  0
VERTEX
  5
173F
  8
HATCH
 10
5093.3540372121688
 20
1501.5726279959081
 30
0.0
 42
-0.2278377915826721
  0
VERTEX
  5
1740
  8
HATCH
 10
5079.8462266185861
 20
1508.0648174023261
 30
0.0
 42
-0.1703036214138317
 70
     1
  0
SEQEND
  5
1741
  8
HATCH
  0
DIMENSION
  5
1742
  8
SUNPOU
  2
*D13
 10
5184.4355135998276
 20
1350.385379250705
 30
0.0
 11
4984.4355135998267
 21
1390.885379250705
 31
0.0
 70
     0
 13
4784.4355135998267
 23
1551.572627995909
 33
0.0
 14
5184.4355135998276
 24
1551.572627995909
 34
0.0
1001
ACAD
1000
DSTYLE
1002
{
1070
   287
1070
     5
1070
    40
1040
15.0
1070
    41
1040
2.0
1070
    42
1040
1.0
1070
    43
1040
6.0
1070
    44
1040
1.0
1070
    73
1070
     0
1070
    74
1070
     0
1070
    77
1070
     1
1070
    78
1070
     8
1070
   140
1040
3.0
1070
   147
1040
1.1999999999999991
1070
   172
1070
     1
1070
   179
1070
     2
1070
   271
1070
     2
1070
   279
1070
     2
1070
   340
1005
11D
1002
}
  0
POLYLINE
  5
179C
  8
HATCH
 66
     1
 10
0.0
 20
0.0
 30
0.0
 70
     3
  0
VERTEX
  5
179D
  8
HATCH
 10
3535.6220013224488
 20
1526.5726279959081
 30
0.0
 42
0.1703036214138359
  0
VERTEX
  5
179E
  8
HATCH
 10
3529.129811916031
 20
1545.080438589491
 30
0.0
 42
0.2278377915826702
 70
     1
  0
VERTEX
  5
179F
  8
HATCH
 10
3515.6220013224479
 20
1551.5726279959081
 30
0.0
 42
0.2278377915826684
  0
VERTEX
  5
17A0
  8
HATCH
 10
3502.114190728867
 20
1545.080438589491
 30
0.0
 42
0.1703036214138354
 70
     1
  0
VERTEX
  5
17A1
  8
HATCH
 10
3495.6220013224479
 20
1526.5726279959081
 30
0.0
 42
0.1703036214138303
  0
VERTEX
  5
17A2
  8
HATCH
 10
3502.1141907288661
 20
1508.0648174023261
 30
0.0
 42
0.2278377915826667
 70
     1
  0
VERTEX
  5
17A3
  8
HATCH
 10
3515.6220013224479
 20
1501.5726279959081
 30
0.0
 42
0.2278377915826721
  0
VERTEX
  5
17A4
  8
HATCH
 10
3529.129811916031
 20
1508.064817402327
 30
0.0
 42
0.1703036214138317
 70
     1
  0
SEQEND
  5
17A5
  8
HATCH
  0
POLYLINE
  5
17A6
  8
HATCH
 66
     1
 10
0.0
 20
0.0
 30
0.0
 70
     3
  0
VERTEX
  5
17A7
  8
HATCH
 10
3575.6220013224488
 20
1526.5726279959081
 30
0.0
 42
0.1703036214138359
  0
VERTEX
  5
17A8
  8
HATCH
 10
3569.1298119160301
 20
1545.080438589491
 30
0.0
 42
0.2278377915826702
 70
     1
  0
VERTEX
  5
17A9
  8
HATCH
 10
3555.6220013224479
 20
1551.5726279959081
 30
0.0
 42
0.2278377915826684
  0
VERTEX
  5
17AA
  8
HATCH
 10
3542.114190728867
 20
1545.080438589491
 30
0.0
 42
0.1703036214138354
 70
     1
  0
VERTEX
  5
17AB
  8
HATCH
 10
3535.6220013224488
 20
1526.5726279959081
 30
0.0
 42
0.1703036214138303
  0
VERTEX
  5
17AC
  8
HATCH
 10
3542.1141907288661
 20
1508.0648174023261
 30
0.0
 42
0.2278377915826667
 70
     1
  0
VERTEX
  5
17AD
  8
HATCH
 10
3555.6220013224479
 20
1501.5726279959081
 30
0.0
 42
0.2278377915826721
  0
VERTEX
  5
17AE
  8
HATCH
 10
3569.129811916031
 20
1508.064817402327
 30
0.0
 42
0.1703036214138317
 70
     1
  0
SEQEND
  5
17AF
  8
HATCH
  0
POLYLINE
  5
17B0
  8
HATCH
 66
     1
 10
0.0
 20
0.0
 30
0.0
 70
     3
  0
VERTEX
  5
17B1
  8
HATCH
 10
3615.6220013224479
 20
1526.5726279959081
 30
0.0
 42
0.1703036214138359
  0
VERTEX
  5
17B2
  8
HATCH
 10
3609.1298119160301
 20
1545.080438589491
 30
0.0
 42
0.2278377915826702
 70
     1
  0
VERTEX
  5
17B3
  8
HATCH
 10
3595.6220013224479
 20
1551.5726279959081
 30
0.0
 42
0.2278377915826684
  0
VERTEX
  5
17B4
  8
HATCH
 10
3582.114190728867
 20
1545.080438589491
 30
0.0
 42
0.1703036214138354
 70
     1
  0
VERTEX
  5
17B5
  8
HATCH
 10
3575.6220013224488
 20
1526.5726279959081
 30
0.0
 42
0.1703036214138303
  0
VERTEX
  5
17B6
  8
HATCH
 10
3582.1141907288661
 20
1508.0648174023261
 30
0.0
 42
0.2278377915826667
 70
     1
  0
VERTEX
  5
17B7
  8
HATCH
 10
3595.6220013224479
 20
1501.5726279959081
 30
0.0
 42
0.2278377915826721
  0
VERTEX
  5
17B8
  8
HATCH
 10
3609.129811916031
 20
1508.064817402327
 30
0.0
 42
0.1703036214138317
 70
     1
  0
SEQEND
  5
17B9
  8
HATCH
  0
LINE
  5
17BA
  8
SJC
 10
3615.6220013224479
 20
1501.5726279959081
 30
0.0
 11
3615.6220013224479
 21
1551.5726279959081
 31
0.0
  0
POLYLINE
  5
17BB
  8
HATCH
 66
     1
 10
0.0
 20
0.0
 30
0.0
 70
     3
  0
VERTEX
  5
17BC
  8
HATCH
 10
3495.6220013224479
 20
1526.5726279959081
 30
0.0
 42
0.1703036214138359
  0
VERTEX
  5
17BD
  8
HATCH
 10
3489.1298119160301
 20
1545.080438589491
 30
0.0
 42
0.2278377915826702
 70
     1
  0
VERTEX
  5
17BE
  8
HATCH
 10
3475.6220013224488
 20
1551.5726279959081
 30
0.0
 42
0.2278377915826684
  0
VERTEX
  5
17BF
  8
HATCH
 10
3462.114190728867
 20
1545.080438589491
 30
0.0
 42
0.1703036214138354
 70
     1
  0
VERTEX
  5
17C0
  8
HATCH
 10
3455.6220013224479
 20
1526.5726279959081
 30
0.0
 42
0.1703036214138303
  0
VERTEX
  5
17C1
  8
HATCH
 10
3462.1141907288661
 20
1508.0648174023261
 30
0.0
 42
0.2278377915826667
 70
     1
  0
VERTEX
  5
17C2
  8
HATCH
 10
3475.6220013224488
 20
1501.5726279959081
 30
0.0
 42
0.2278377915826721
  0
VERTEX
  5
17C3
  8
HATCH
 10
3489.129811916031
 20
1508.064817402327
 30
0.0
 42
0.1703036214138317
 70
     1
  0
SEQEND
  5
17C4
  8
HATCH
  0
LINE
  5
17C5
  8
SJC
 10
3453.6360412008962
 20
2151.572627995909
 30
0.0
 11
3677.336041200896
 21
2151.572627995909
 31
0.0
1001
ACAD
1000
ASC_BOUNDS
1002
{
1070
    19
1002
}
  0
LINE
  5
17C6
  8
HATCH
 10
3453.6360412008971
 20
1890.7686780887529
 30
0.0
 11
3565.486041200897
 21
2002.6186780887531
 31
0.0
  0
LINE
  5
17C7
  8
HATCH
 10
3453.6360412008971
 20
1912.8657650008331
 30
0.0
 11
3565.486041200897
 21
2024.7157650008321
 31
0.0
  0
LINE
  5
17C8
  8
HATCH
 10
3453.6360412008971
 20
1934.962851912911
 30
0.0
 11
3565.486041200897
 21
2046.812851912912
 31
0.0
  0
LINE
  5
17C9
  8
HATCH
 10
3453.6360412008962
 20
2067.5453733853892
 30
0.0
 11
3537.663295811416
 21
2151.572627995909
 31
0.0
  0
LINE
  5
17CA
  8
HATCH
 10
3453.6360412008971
 20
2089.6424602974689
 30
0.0
 11
3515.5662088993372
 21
2151.572627995909
 31
0.0
  0
LINE
  5
17CB
  8
HATCH
 10
3453.6360412008962
 20
2111.7395472095491
 30
0.0
 11
3493.4691219872579
 21
2151.5726279959099
 31
0.0
  0
LINE
  5
17CC
  8
HATCH
 10
3453.6360412008962
 20
1758.186156616275
 30
0.0
 11
3565.486041200897
 21
1870.0361566162751
 31
0.0
  0
LINE
  5
17CD
  8
HATCH
 10
3453.6360412008971
 20
1736.089069704195
 30
0.0
 11
3565.486041200897
 21
1847.9390697041949
 31
0.0
  0
LINE
  5
17CE
  8
HATCH
 10
3453.6360412008971
 20
1713.9919827921151
 30
0.0
 11
3565.486041200897
 21
1825.8419827921159
 31
0.0
  0
DIMENSION
  5
17DB
  8
SUNPOU
  2
*D14
 10
3415.4860412008961
 20
3181.1818409568459
 30
0.0
 11
3365.486041200897
 21
3245.6818409568468
 31
0.0
 70
     0
 13
3315.486041200897
 23
2713.4226279959089
 33
0.0
 14
3415.4860412008961
 24
2713.4226279959089
 34
0.0
1001
ACAD
1000
DSTYLE
1002
{
1070
   287
1070
     5
1070
    40
1040
15.0
1070
    41
1040
2.0
1070
    42
1040
1.0
1070
    43
1040
6.0
1070
    44
1040
1.0
1070
    73
1070
     0
1070
    74
1070
     0
1070
    77
1070
     1
1070
    78
1070
     8
1070
   140
1040
3.0
1070
   147
1040
1.1999999999999991
1070
   172
1070
     1
1070
   179
1070
     2
1070
   271
1070
     2
1070
   279
1070
     2
1070
   340
1005
11D
1002
}
  0
TEXT
  5
1907
  8
MOJI
 10
4075.6829413939058
 20
282.74555736020147
 30
0.0
 40
60.0
  1
※本製品は車両用防護柵の強度を保有するものではありません。
 41
0.8
  7
EXT08
 72
     1
 11
4894.3115128224781
 21
282.74555736020147
 31
0.0
  0
SOLID
  5
1A1B
  8
MOJI
  6
CONTINUOUS
 10
2000.654330691613
 20
2597.2369777986728
 30
0.0
 11
2010.137180287257
 21
2600.411180619285
 31
0.0
 12
1995.8731470275959
 22
2627.272627995912
 32
0.0
 13
1995.8731470275959
 23
2627.272627995912
 33
0.0
  0
LINE
  5
1A1C
  8
SJC
 10
1375.486041200895
 20
2377.2726279959102
 30
0.0
 11
1375.486041200895
 21
2425.8726279959092
 31
0.0
  0
LINE
  5
1A1D
  8
SJC
 10
3255.4860412008961
 20
2377.2726279959102
 30
0.0
 11
3255.4860412008961
 21
2425.8726279959092
 31
0.0
  0
LINE
  5
1A1E
  8
SJC
 10
1375.486041200895
 20
2627.2726279959102
 30
0.0
 11
1375.486041200895
 21
2675.8726279959092
 31
0.0
  0
LINE
  5
1A1F
  8
SJC
 10
3255.4860412008961
 20
2627.2726279959102
 30
0.0
 11
3255.4860412008961
 21
2675.8726279959092
 31
0.0
  0
INSERT
  5
1A20
  8
KASOU
  6
CONTINUOUS
  2
*X16
 10
0.0
 20
0.0
 30
0.0
1001
ACAD
1000
HATCH
1002
{
1070
    19
1000
ANSI31
1040
100.0
1040
0.0
1000
R14_HATCH_DATA
1000
1A20
1011
1.0
1021
0.0
1031
-2.0
1021
0.0
1031
0.0
1011
0.0
1021
0.0
1031
-2.0
1021
1.0
1031
0.0
1011
0.0
1021
0.0
1031
-2.0
1021
0.0
1031
1.0
1040
0.0
1010
0.0
1020
0.0
1030
1.0
1000
ANSI31
1070
     0
1070
     0
1071
        1
1071
        1
1071
        4
1070
     1
1040
1375.486041200895
1040
2377.2726279959102
1040
3255.4860412008961
1040
2377.2726279959102
1070
     1
1040
3255.4860412008961
1040
2377.2726279959102
1040
3255.4860412008961
1040
2425.8726279959092
1070
     1
1040
3255.4860412008961
1040
2425.8726279959092
1040
1375.4860412008959
1040
2425.8726279959092
1070
     1
1040
1375.486041200895
1040
2425.8726279959092
1040
1375.486041200895
1040
2377.2726279959102
1071
        0
1070
     0
1070
     1
1040
0.0
1040
100.0
1070
     0
1070
     1
1040
0.7853981633974483
1040
-48.504645199788683
1040
804.5298296727874
1040
-8.8388347648318426
1040
8.8388347648318444
1070
     0
1071
        1
1040
-48.504645199788683
1040
804.5298296727874
1040
0.0
1002
}
  0
INSERT
  5
1A21
  8
KASOU
  6
CONTINUOUS
  2
*X17
 10
0.0
 20
0.0
 30
0.0
1001
ACAD
1000
HATCH
1002
{
1070
    19
1000
ANSI31
1040
100.0
1040
0.0
1000
R14_HATCH_DATA
1000
1A21
1011
1.0
1021
0.0
1031
-2.0
1021
0.0
1031
0.0
1011
0.0
1021
0.0
1031
-2.0
1021
1.0
1031
0.0
1011
0.0
1021
0.0
1031
-2.0
1021
0.0
1031
1.0
1040
0.0
1010
0.0
1020
0.0
1030
1.0
1000
ANSI31
1070
     0
1070
     0
1071
        1
1071
        1
1071
        4
1070
     1
1040
1375.486041200895
1040
2627.2726279959102
1040
3255.4860412008961
1040
2627.2726279959102
1070
     1
1040
3255.4860412008961
1040
2627.2726279959102
1040
3255.4860412008961
1040
2675.8726279959092
1070
     1
1040
3255.4860412008961
1040
2675.8726279959092
1040
1375.4860412008959
1040
2675.8726279959092
1070
     1
1040
1375.486041200895
1040
2675.8726279959092
1040
1375.486041200895
1040
2627.2726279959102
1071
        0
1070
     0
1070
     1
1040
0.0
1040
100.0
1070
     0
1070
     1
1040
0.7853981633974483
1040
-48.504645199788683
1040
1054.5298296727869
1040
-8.8388347648318426
1040
8.8388347648318444
1070
     0
1071
        1
1040
-48.504645199788683
1040
1054.5298296727869
1040
0.0
1002
}
  0
INSERT
  5
1A22
  8
0
  2
*U18
 10
0.0
 20
0.0
 30
0.0
1001
ACAD
1000
DSTYLE
1002
{
1070
     5
1000

1070
    40
1040
15.0
1070
    41
1040
2.0
1070
    42
1040
1.0
1070
    43
1040
6.0
1070
    44
1040
1.0
1070
    73
1070
     0
1070
    74
1070
     0
1070
    77
1070
     1
1070
    78
1070
     8
1070
   140
1040
3.0
1070
   147
1040
1.1999999999999991
1070
   172
1070
     1
1070
   179
1070
     2
1070
   271
1070
     2
1070
   279
1070
     2
1070
   340
1005
11D
1070
   342
1005
0
1002
}
  0
INSERT
  5
1A23
  8
0
  2
*U19
 10
0.0
 20
0.0
 30
0.0
  0
LINE
  5
1A24
  8
MOJI
  6
CONTINUOUS
 10
2838.2093187252258
 20
2204.363989707354
 30
0.0
 11
3245.6271239377588
 21
2204.363989707354
 31
0.0
  0
INSERT
  5
1A25
  8
0
  2
*U20
 10
0.0
 20
0.0
 30
0.0
1001
ACAD
1000
DSTYLE
1002
{
1070
     5
1000

1070
    40
1040
15.0
1070
    41
1040
2.0
1070
    42
1040
1.0
1070
    43
1040
6.0
1070
    44
1040
1.0
1070
    73
1070
     0
1070
    74
1070
     0
1070
    77
1070
     1
1070
    78
1070
     8
1070
   140
1040
3.0
1070
   147
1040
1.1999999999999991
1070
   172
1070
     1
1070
   179
1070
     2
1070
   271
1070
     2
1070
   279
1070
     2
1070
   340
1005
11D
1070
   342
1005
0
1002
}
  0
INSERT
  5
1A26
  8
0
  2
*U21
 10
0.0
 20
0.0
 30
0.0
  0
LINE
  5
1A27
  8
MOJI
  6
CONTINUOUS
 10
2727.893982438974
 20
2743.9098057646629
 30
0.0
 11
3022.139015214249
 21
2743.9098057646629
 31
0.0
  0
LINE
  5
1A3A
  8
SJC
 10
3475.4860412008952
 20
2377.2726279959102
 30
0.0
 11
3475.4860412008952
 21
2425.8726279959092
 31
0.0
  0
LINE
  5
1A3B
  8
SJC
 10
3475.4860412008952
 20
2627.2726279959102
 30
0.0
 11
3475.4860412008952
 21
2675.8726279959092
 31
0.0
  0
LINE
  5
1A3E
  8
SJC
 10
4415.4860412008957
 20
2425.8726279959092
 30
0.0
 11
4415.4860412008957
 21
2377.2726279959088
 31
0.0
  0
INSERT
  5
1A3F
  8
HATCH
  6
CONTINUOUS
  2
*X22
 10
0.0
 20
0.0
 30
0.0
1001
ACAD
1000
HATCH
1002
{
1070
    19
1000
ANSI31
1040
4.0
1040
0.0
1000
R14_HATCH_DATA
1000
1A3F
1011
1.0
1021
0.0
1031
-2.0
1021
0.0
1031
0.0
1011
0.0
1021
0.0
1031
-2.0
1021
1.0
1031
0.0
1011
0.0
1021
0.0
1031
-2.0
1021
0.0
1031
1.0
1040
0.0
1010
0.0
1020
0.0
1030
1.0
1000
ANSI31
1070
     0
1070
     0
1071
        1
1071
        1
1071
        4
1070
     1
1040
3475.4860412008952
1040
2627.2726279959102
1040
3475.4860412008952
1040
2675.8726279959092
1070
     1
1040
3475.4860412008952
1040
2675.8726279959092
1040
4415.4860412008957
1040
2675.8726279959092
1070
     1
1040
4415.4860412008957
1040
2675.8726279959092
1040
4415.4860412008957
1040
2627.2726279959088
1070
     1
1040
4415.4860412008957
1040
2627.2726279959088
1040
3475.4860412008952
1040
2627.2726279959088
1071
        0
1070
     0
1070
     1
1040
0.0
1040
4.0
1070
     0
1070
     1
1040
0.7853981633974483
1040
0.0
1040
0.0
1040
-8.9802561210691518
1040
8.9802561210691536
1070
     0
1071
        1
1040
0.0
1040
0.0
1040
0.0
1002
}
  0
INSERT
  5
1A40
  8
HATCH
  6
CONTINUOUS
  2
*X23
 10
0.0
 20
0.0
 30
0.0
1001
ACAD
1000
HATCH
1002
{
1070
    19
1000
ANSI31
1040
4.0
1040
0.0
1000
R14_HATCH_DATA
1000
1A40
1011
1.0
1021
0.0
1031
-2.0
1021
0.0
1031
0.0
1011
0.0
1021
0.0
1031
-2.0
1021
1.0
1031
0.0
1011
0.0
1021
0.0
1031
-2.0
1021
0.0
1031
1.0
1040
0.0
1010
0.0
1020
0.0
1030
1.0
1000
ANSI31
1070
     0
1070
     0
1071
        1
1071
        1
1071
        4
1070
     1
1040
3475.4860412008961
1040
2377.2726279959102
1040
3475.4860412008961
1040
2425.8726279959092
1070
     1
1040
3475.4860412008961
1040
2425.8726279959101
1040
4415.4860412008957
1040
2425.8726279959092
1070
     1
1040
4415.4860412008957
1040
2425.8726279959092
1040
4415.4860412008957
1040
2377.2726279959102
1070
     1
1040
4415.4860412008957
1040
2377.2726279959102
1040
3475.4860412008952
1040
2377.2726279959102
1071
        0
1070
     0
1070
     1
1040
0.0
1040
4.0
1070
     0
1070
     1
1040
0.7853981633974483
1040
0.0
1040
0.0
1040
-8.9802561210691518
1040
8.9802561210691536
1070
     0
1071
        1
1040
0.0000000000004547
1040
-249.9999999999996
1040
0.0
1002
}
  0
ENDSEC
  0
EOF
