  0
SECTION
  2
HEADER
  9
$ACADVER
  1
AC1009
  9
$INSBASE
 10
0.0
 20
0.0
 30
0.0
  9
$EXTMIN
 10
0.0
 20
0.0
 30
0.0
  9
$EXTMAX
 10
6150.0
 20
4305.0
 30
0.0
  9
$LIMMIN
 10
0.0
 20
0.0
  9
$LIMMAX
 10
6300.0
 20
4455.0
  9
$ORTHOMODE
 70
     1
  9
$REGENMODE
 70
     1
  9
$FILLMODE
 70
     1
  9
$QTEXTMODE
 70
     0
  9
$MIRRTEXT
 70
     0
  9
$DRAGMODE
 70
     2
  9
$LTSCALE
 40
150.0
  9
$OSMODE
 70
    37
  9
$ATTMODE
 70
     1
  9
$TEXTSIZE
 40
45.0
  9
$TRACEWID
 40
1.0
  9
$TEXTSTYLE
  7
EXT08
  9
$CLAYER
  8
0
  9
$CELTYPE
  6
BYLAYER
  9
$CECOLOR
 62
   256
  9
$DIMSCALE
 40
15.0
  9
$DIMASZ
 40
2.0
  9
$DIMEXO
 40
1.0
  9
$DIMDLI
 40
6.0
  9
$DIMRND
 40
0.0
  9
$DIMDLE
 40
0.0
  9
$DIMEXE
 40
1.0
  9
$DIMTP
 40
0.0
  9
$DIMTM
 40
0.0
  9
$DIMTXT
 40
3.0
  9
$DIMCEN
 40
0.09
  9
$DIMTSZ
 40
0.0
  9
$DIMTOL
 70
     0
  9
$DIMLIM
 70
     0
  9
$DIMTIH
 70
     0
  9
$DIMTOH
 70
     0
  9
$DIMSE1
 70
     0
  9
$DIMSE2
 70
     0
  9
$DIMTAD
 70
     1
  9
$DIMZIN
 70
     8
  9
$DIMBLK
  1

  9
$DIMASO
 70
     1
  9
$DIMSHO
 70
     1
  9
$DIMPOST
  1

  9
$DIMAPOST
  1

  9
$DIMALT
 70
     0
  9
$DIMALTD
 70
     2
  9
$DIMALTF
 40
25.399999999999999
  9
$DIMLFAC
 40
1.0
  9
$DIMTOFL
 70
     1
  9
$DIMTVP
 40
0.0
  9
$DIMTIX
 70
     0
  9
$DIMSOXD
 70
     0
  9
$DIMSAH
 70
     0
  9
$DIMBLK1
  1

  9
$DIMBLK2
  1

  9
$DIMSTYLE
  2
SJC
  9
$DIMCLRD
 70
     0
  9
$DIMCLRE
 70
     0
  9
$DIMCLRT
 70
     0
  9
$DIMTFAC
 40
1.0
  9
$DIMGAP
 40
1.1999999999999991
  9
$LUNITS
 70
     2
  9
$LUPREC
 70
     2
  9
$SKETCHINC
 40
1.0
  9
$FILLETRAD
 40
200.0
  9
$AUNITS
 70
     0
  9
$AUPREC
 70
     0
  9
$MENU
  1
.
  9
$ELEVATION
 40
0.0
  9
$PELEVATION
 40
0.0
  9
$THICKNESS
 40
0.0
  9
$LIMCHECK
 70
     0
  9
$BLIPMODE
 70
     0
  9
$CHAMFERA
 40
0.0
  9
$CHAMFERB
 40
0.0
  9
$SKPOLY
 70
     0
  9
$TDCREATE
 40
2456287.4708731128
  9
$TDUPDATE
 40
2456560.4232421881
  9
$TDINDWG
 40
0.1487646875
  9
$TDUSRTIMER
 40
0.1487645023
  9
$USRTIMER
 70
     1
  9
$ANGBASE
 50
0.0
  9
$ANGDIR
 70
     0
  9
$PDMODE
 70
    33
  9
$PDSIZE
 40
5.0
  9
$PLINEWID
 40
0.0
  9
$COORDS
 70
     1
  9
$SPLFRAME
 70
     0
  9
$SPLINETYPE
 70
     6
  9
$SPLINESEGS
 70
     8
  9
$ATTDIA
 70
     0
  9
$ATTREQ
 70
     1
  9
$HANDLING
 70
     1
  9
$HANDSEED
  5
1A08
  9
$SURFTAB1
 70
     6
  9
$SURFTAB2
 70
     6
  9
$SURFTYPE
 70
     6
  9
$SURFU
 70
     6
  9
$SURFV
 70
     6
  9
$UCSNAME
  2

  9
$UCSORG
 10
0.0
 20
0.0
 30
0.0
  9
$UCSXDIR
 10
1.0
 20
0.0
 30
0.0
  9
$UCSYDIR
 10
0.0
 20
1.0
 30
0.0
  9
$PUCSNAME
  2

  9
$PUCSORG
 10
0.0
 20
0.0
 30
0.0
  9
$PUCSXDIR
 10
1.0
 20
0.0
 30
0.0
  9
$PUCSYDIR
 10
0.0
 20
1.0
 30
0.0
  9
$USERI1
 70
     3
  9
$USERI2
 70
    15
  9
$USERI3
 70
     0
  9
$USERI4
 70
     0
  9
$USERI5
 70
     0
  9
$USERR1
 40
0.0
  9
$USERR2
 40
0.0
  9
$USERR3
 40
0.0
  9
$USERR4
 40
0.0
  9
$USERR5
 40
0.0
  9
$WORLDVIEW
 70
     1
  9
$SHADEDGE
 70
     3
  9
$SHADEDIF
 70
    70
  9
$TILEMODE
 70
     1
  9
$MAXACTVP
 70
    64
  9
$PLIMCHECK
 70
     0
  9
$PEXTMIN
 10
0.0
 20
0.0
 30
0.0
  9
$PEXTMAX
 10
0.0
 20
0.0
 30
0.0
  9
$PLIMMIN
 10
0.0
 20
0.0
  9
$PLIMMAX
 10
12.0
 20
9.0
  9
$UNITMODE
 70
     0
  9
$VISRETAIN
 70
     1
  9
$PLINEGEN
 70
     0
  9
$PSLTSCALE
 70
     1
  0
ENDSEC
  0
SECTION
  2
TABLES
  0
TABLE
  2
VPORT
 70
     2
  0
VPORT
  2
*ACTIVE
 70
     0
 10
0.0
 20
0.0
 11
1.0
 21
1.0
 12
5826.2431025951946
 22
2154.8962352700719
 13
0.0
 23
0.0
 14
10.0
 24
10.0
 15
10.0
 25
10.0
 16
0.0
 26
0.0
 36
1.0
 17
0.0
 27
0.0
 37
0.0
 40
5839.6846442330452
 41
1.9010526315789471
 42
50.0
 43
0.0
 44
0.0
 50
0.0
 51
0.0
 71
     0
 72
  1000
 73
     1
 74
     3
 75
     0
 76
     0
 77
     0
 78
     0
  0
ENDTAB
  0
TABLE
  2
LTYPE
 70
     4
  0
LTYPE
  2
CONTINUOUS
 70
     0
  3
Solid line
 72
    65
 73
     0
 40
0.0
  0
LTYPE
  2
PHANTOM
 70
     0
  3
Phantom ______  __  __  ______  __  __  ______
 72
    65
 73
     6
 40
2.5
 49
1.25
 49
-0.25
 49
0.25
 49
-0.25
 49
0.25
 49
-0.25
  0
LTYPE
  2
CENTER
 70
     0
  3
Center ____ _ ____ _ ____ _ ____ _ ____ _ ____
 72
    65
 73
     4
 40
2.0
 49
1.25
 49
-0.25
 49
0.25
 49
-0.25
  0
LTYPE
  2
HIDDEN
 70
     0
  3
Hidden __ __ __ __ __ __ __ __ __ __ __ __ __ _
 72
    65
 73
     2
 40
0.375
 49
0.25
 49
-0.125
  0
ENDTAB
  0
TABLE
  2
LAYER
 70
    15
  0
LAYER
  2
0
 70
     0
 62
     7
  6
CONTINUOUS
  0
LAYER
  2
ZWAKU
 70
     1
 62
    -7
  6
CONTINUOUS
  0
LAYER
  2
SJC
 70
     0
 62
     1
  6
CONTINUOUS
  0
LAYER
  2
INFORMATION
 70
     1
 62
     7
  6
CONTINUOUS
  0
LAYER
  2
SJC2
 70
     0
 62
     7
  6
CONTINUOUS
  0
LAYER
  2
KASOU
 70
     0
 62
     2
  6
PHANTOM
  0
LAYER
  2
CENTER
 70
     0
 62
     3
  6
CENTER
  0
LAYER
  2
SUNPOU
 70
     0
 62
     4
  6
CONTINUOUS
  0
LAYER
  2
WAKU
 70
     0
 62
     5
  6
CONTINUOUS
  0
LAYER
  2
MOJI
 70
     0
 62
     6
  6
CONTINUOUS
  0
LAYER
  2
MOJI2
 70
     0
 62
     1
  6
CONTINUOUS
  0
LAYER
  2
HASEN
 70
     0
 62
     7
  6
HIDDEN
  0
LAYER
  2
HATCH
 70
     0
 62
     2
  6
CONTINUOUS
  0
LAYER
  2
HOJO
 70
     0
 62
    -8
  6
CONTINUOUS
  0
LAYER
  2
DEFPOINTS
 70
     0
 62
     7
  6
CONTINUOUS
  0
ENDTAB
  0
TABLE
  2
STYLE
 70
     8
  0
STYLE
  2
STANDARD
 70
     0
 40
0.0
 41
1.0
 50
0.0
 71
     0
 42
3.0
  3
txt.shx
  4
extfont2.shx
  0
STYLE
  2
KANJI
 70
     0
 40
0.0
 41
1.0
 50
0.0
 71
     0
 42
0.0
  3
ROMANS.SHX
  4
BIGFONT.SHX
  0
STYLE
  2
SIMPLEX
 70
     0
 40
0.0
 41
1.0
 50
0.0
 71
     0
 42
0.0
  3
SCRIPTS.shx
  4

  0
STYLE
  2
TATEEXT
 70
     4
 40
0.0
 41
1.0
 50
0.0
 71
     0
 42
0.0
  3
ROMANS.shx
  4
EXTFONT.shx
  0
STYLE
  2
TATEBIG
 70
     4
 40
0.0
 41
1.0
 50
0.0
 71
     0
 42
0.0
  3
ROMANS.shx
  4
BIGFONT.shx
  0
STYLE
  2
EXT08
 70
     0
 40
0.0
 41
0.8
 50
0.0
 71
     0
 42
45.0
  3
ROMANS.shx
  4
EXTFONT.shx
  0
STYLE
  2
EXT
 70
     0
 40
0.0
 41
1.0
 50
0.0
 71
     0
 42
0.0
  3
ROMANS.shx
  4
EXTFONT.shx
  0
STYLE
  2
KANJI08
 70
     0
 40
0.0
 41
0.8
 50
0.0
 71
     0
 42
0.0
  3
ROMANS.shx
  4
BIGFONT.shx
  0
ENDTAB
  0
TABLE
  2
VIEW
 70
     0
  0
ENDTAB
  0
TABLE
  2
UCS
 70
     0
  0
ENDTAB
  0
TABLE
  2
APPID
 70
     2
  0
APPID
  2
ACAD
 70
     0
  0
APPID
  2
ACAD_PSEXT
 70
     0
  0
ENDTAB
  0
TABLE
  2
DIMSTYLE
 70
     5
  0
DIMSTYLE
  2
ISO-25
 70
     0
  3

  4

  5

  6

  7

 40
1.0
 41
2.5
 42
0.625
 43
3.75
 44
1.25
 45
0.0
 46
0.0
 47
0.0
 48
0.0
140
2.5
141
2.5
142
0.0
143
0.03937007874016
144
1.0
145
0.0
146
1.0
147
0.625
 71
     0
 72
     0
 73
     0
 74
     0
 75
     0
 76
     0
 77
     1
 78
     8
170
     0
171
     3
172
     1
173
     0
174
     0
175
     0
176
     0
177
     0
178
     0
  0
DIMSTYLE
  2
STANDARD
 70
     0
  3

  4

  5

  6

  7

 40
1.0
 41
0.18
 42
0.0625
 43
0.38
 44
0.18
 45
0.0
 46
0.0
 47
0.0
 48
0.0
140
0.18
141
0.09
142
0.0
143
25.399999999999999
144
1.0
145
0.0
146
1.0
147
0.09
 71
     0
 72
     0
 73
     1
 74
     1
 75
     0
 76
     0
 77
     0
 78
     0
170
     0
171
     2
172
     0
173
     0
174
     0
175
     0
176
     0
177
     0
178
     0
  0
DIMSTYLE
  2
RUISEKI1
 70
     0
  3

  4

  5

  6
DOT
  7

 40
15.0
 41
2.0
 42
1.0
 43
6.0
 44
30.0
 45
0.0
 46
0.0
 47
0.0
 48
0.0
140
0.18
141
0.09
142
0.0
143
25.399999999999999
144
1.0
145
0.0
146
1.0
147
1.5
 71
     0
 72
     0
 73
     1
 74
     1
 75
     0
 76
     0
 77
     1
 78
     0
170
     0
171
     2
172
     0
173
     1
174
     0
175
     0
176
     0
177
     0
178
     0
  0
DIMSTYLE
  2
RUISEKI2
 70
     0
  3

  4

  5

  6
NONE
  7

 40
15.0
 41
2.0
 42
1.0
 43
6.0
 44
30.0
 45
0.0
 46
0.0
 47
0.0
 48
0.0
140
0.18
141
0.09
142
0.0
143
25.399999999999999
144
1.0
145
0.0
146
1.0
147
1.5
 71
     0
 72
     0
 73
     1
 74
     1
 75
     0
 76
     0
 77
     1
 78
     0
170
     0
171
     2
172
     0
173
     1
174
     0
175
     0
176
     0
177
     0
178
     0
  0
DIMSTYLE
  2
SJC
 70
     0
  3

  4

  5

  6

  7

 40
1.0
 41
0.18
 42
0.0625
 43
0.38
 44
0.18
 45
0.0
 46
0.0
 47
0.0
 48
0.0
140
0.18
141
0.09
142
0.0
143
25.399999999999999
144
1.0
145
0.0
146
1.0
147
0.09
 71
     0
 72
     0
 73
     1
 74
     1
 75
     0
 76
     0
 77
     0
 78
     0
170
     0
171
     2
172
     0
173
     0
174
     0
175
     0
176
     0
177
     0
178
     0
  0
ENDTAB
  0
ENDSEC
  0
SECTION
  2
BLOCKS
  0
BLOCK
  8
0
  2
$MODEL_SPACE
 70
     0
 10
0.0
 20
0.0
 30
0.0
  3
$MODEL_SPACE
  1

  0
ENDBLK
  5
21
  8
0
  0
BLOCK
 67
     1
  8
0
  2
$PAPER_SPACE
 70
     0
 10
0.0
 20
0.0
 30
0.0
  3
$PAPER_SPACE
  1

  0
ENDBLK
  5
D5
 67
     1
  8
0
  0
BLOCK
  8
0
  2
SEIKO_LS-1100A3
 70
     0
 10
0.0
 20
0.0
 30
0.0
  3
SEIKO_LS-1100A3
  1

  0
POLYLINE
  5
F8
  8
ZWAKU
 66
     1
 10
0.0
 20
0.0
 30
0.0
 70
     1
  0
VERTEX
  5
199C
  8
ZWAKU
 10
0.0
 20
0.0
 30
0.0
  0
VERTEX
  5
199D
  8
ZWAKU
 10
0.0
 20
287.0
 30
0.0
  0
VERTEX
  5
199E
  8
ZWAKU
 10
410.0
 20
287.0
 30
0.0
  0
VERTEX
  5
199F
  8
ZWAKU
 10
410.0
 20
0.0
 30
0.0
  0
SEQEND
  5
19A0
  8
ZWAKU
  0
ENDBLK
  5
FA
  8
0
  0
BLOCK
  8
0
  2
_DOT
 70
     0
 10
0.0
 20
0.0
 30
0.0
  3
_DOT
  1

  0
POLYLINE
  5
10F
  8
0
  6
BYBLOCK
 62
     0
 66
     1
 10
0.0
 20
0.0
 30
0.0
 70
     1
 40
0.5
 41
0.5
  0
VERTEX
  5
19A1
  8
0
  6
BYBLOCK
 62
     0
 10
-0.25
 20
0.0
 30
0.0
 42
1.0
  0
VERTEX
  5
19A2
  8
0
  6
BYBLOCK
 62
     0
 10
0.25
 20
0.0
 30
0.0
 42
1.0
  0
SEQEND
  5
19A3
  8
0
  6
BYBLOCK
 62
     0
  0
LINE
  5
110
  8
0
  6
BYBLOCK
 62
     0
 10
-0.5
 20
0.0
 30
0.0
 11
-1.0
 21
0.0
 31
0.0
  0
ENDBLK
  5
112
  8
0
  0
BLOCK
  8
0
  2
_NONE
 70
     0
 10
0.0
 20
0.0
 30
0.0
  3
_NONE
  1

  0
ENDBLK
  5
116
  8
0
  0
BLOCK
  8
0
  2
B0040021
 70
     0
 10
0.0
 20
0.0
 30
0.0
  3
B0040021
  1

  0
LINE
  5
12E
  8
HATCH
 10
90.534596808877254
 20
-7.5000000000002274
 30
0.0
 11
117.0518952133159
 21
-34.017298404438861
 31
0.0
  0
LINE
  5
12F
  8
HATCH
 10
98.034596808877254
 20
0.0
 30
0.0
 11
132.0518952133159
 21
-34.017298404438861
 31
0.0
  0
LINE
  5
130
  8
HATCH
 10
22.5
 20
-7.5000000000002274
 30
0.0
 11
49.017298404438627
 21
-34.017298404438861
 31
0.0
  0
LINE
  5
131
  8
HATCH
 10
30.0
 20
0.0
 30
0.0
 11
-4.0172984044386331
 21
-34.017298404438861
 31
0.0
  0
LINE
  5
132
  8
HATCH
 10
15.0
 20
-15.000000000000229
 30
0.0
 11
34.017298404438627
 21
-34.017298404438861
 31
0.0
  0
LINE
  5
133
  8
HATCH
 10
0.0
 20
0.0
 30
0.0
 11
-34.017298404438627
 21
-34.017298404438861
 31
0.0
  0
LINE
  5
134
  8
HATCH
 10
15.0
 20
0.0
 30
0.0
 11
-19.01729840443863
 21
-34.017298404438861
 31
0.0
  0
LINE
  5
135
  8
HATCH
 10
83.034596808877254
 20
0.0
 30
0.0
 11
56.517298404438861
 21
-26.51729840443863
 31
0.0
  0
LINE
  5
136
  8
HATCH
 10
98.034596808877254
 20
0.0
 30
0.0
 11
64.017298404438634
 21
-34.017298404438861
 31
0.0
  0
LINE
  5
137
  8
HATCH
 10
68.034596808877254
 20
0.0
 30
0.0
 11
49.017298404438861
 21
-19.01729840443863
 31
0.0
  0
LINE
  5
138
  8
HATCH
 10
30.0
 20
0.0
 30
0.0
 11
64.017298404438634
 21
-34.017298404438861
 31
0.0
  0
LINE
  5
139
  8
HATCH
 10
83.034596808877254
 20
-15.000000000000229
 30
0.0
 11
102.0518952133159
 21
-34.017298404438861
 31
0.0
  0
ENDBLK
  5
13A
  8
0
  0
BLOCK
  8
0
  2
*D5
 70
     1
 10
0.0
 20
0.0
 30
0.0
  3
*D5
  1

  0
LINE
  5
19A4
  8
SUNPOU
 10
1315.486041200897
 20
2728.4226279959089
 30
0.0
 11
1315.486041200897
 21
3198.0425213434009
 31
0.0
  0
LINE
  5
19A5
  8
SUNPOU
 10
3315.486041200897
 20
2728.4226279959089
 30
0.0
 11
3315.486041200897
 21
3198.0425213434009
 31
0.0
  0
LINE
  5
19A6
  8
SUNPOU
 10
1345.486041200897
 20
3183.0425213434009
 30
0.0
 11
3285.486041200897
 21
3183.0425213434009
 31
0.0
  0
SOLID
  5
19A7
  8
SUNPOU
 10
1345.486041200897
 20
3188.0425213434009
 30
0.0
 11
1345.486041200897
 21
3178.0425213434
 31
0.0
 12
1315.486041200897
 22
3183.0425213434009
 32
0.0
 13
1315.486041200897
 23
3183.0425213434009
 33
0.0
  0
SOLID
  5
19A8
  8
SUNPOU
 10
3285.486041200897
 20
3188.0425213434009
 30
0.0
 11
3285.486041200897
 21
3178.0425213434
 31
0.0
 12
3315.486041200897
 22
3183.0425213434009
 32
0.0
 13
3315.486041200897
 23
3183.0425213434009
 33
0.0
  0
TEXT
  8
SUNPOU
  40
45
  5
19FE
  72
0
  71
0
 10
2225.49
 20
3143.89
 30
0.000000
  1
2000
  7
KANJI08
  0
POINT
  5
19AA
  8
DEFPOINTS
 62
     0
 10
1315.486041200897
 20
2713.4226279959089
 30
0.0
  0
POINT
  5
19AB
  8
DEFPOINTS
 62
     0
 10
3315.486041200897
 20
2713.4226279959089
 30
0.0
  0
POINT
  5
19AC
  8
DEFPOINTS
 62
     0
 10
3315.486041200897
 20
3183.0425213434009
 30
0.0
  0
ENDBLK
  5
418
  8
0
  0
BLOCK
  8
0
  2
*D6
 70
     1
 10
0.0
 20
0.0
 30
0.0
  3
*D6
  1

  0
LINE
  5
19AD
  8
SUNPOU
 10
1050.350081079345
 20
1551.572627995909
 30
0.0
 11
803.72619141144935
 21
1551.572627995909
 31
0.0
  0
LINE
  5
19AE
  8
SUNPOU
 10
889.94737533880095
 20
2151.572627995909
 30
0.0
 11
803.72619141144946
 21
2151.572627995909
 31
0.0
  0
LINE
  5
19AF
  8
SUNPOU
 10
818.72619141144935
 20
1581.572627995909
 30
0.0
 11
818.72619141144946
 21
2121.572627995909
 31
0.0
  0
SOLID
  5
19B0
  8
SUNPOU
 10
813.72619141144935
 20
1581.572627995909
 30
0.0
 11
823.72619141144935
 21
1581.572627995909
 31
0.0
 12
818.72619141144935
 22
1551.572627995909
 32
0.0
 13
818.72619141144935
 23
1551.572627995909
 33
0.0
  0
SOLID
  5
19B1
  8
SUNPOU
 10
813.72619141144935
 20
2121.572627995909
 30
0.0
 11
823.72619141144935
 21
2121.572627995909
 31
0.0
 12
818.72619141144946
 22
2151.572627995909
 32
0.0
 13
818.72619141144946
 23
2151.572627995909
 33
0.0
  0
TEXT
  8
SUNPOU
  40
45
  5
19FF
  72
0
  71
0
 10
688.226
 20
1771.92
 30
0.000000
  1
600
  7
KANJI08
  0
POINT
  5
19B3
  8
DEFPOINTS
 62
     0
 10
1065.350081079345
 20
1551.572627995909
 30
0.0
  0
POINT
  5
19B4
  8
DEFPOINTS
 62
     0
 10
904.94737533880095
 20
2151.572627995909
 30
0.0
  0
POINT
  5
19B5
  8
DEFPOINTS
 62
     0
 10
818.72619141144946
 20
2151.572627995909
 30
0.0
  0
ENDBLK
  5
42D
  8
0
  0
BLOCK
  8
0
  2
*D7
 70
     1
 10
0.0
 20
0.0
 30
0.0
  3
*D7
  1

  0
LINE
  5
19B6
  8
SUNPOU
 10
1300.4860412008959
 20
2651.5726279959099
 30
0.0
 11
803.72619141144946
 21
2651.5726279959099
 31
0.0
  0
LINE
  5
19B7
  8
SUNPOU
 10
1500.486041200897
 20
2951.572627995909
 30
0.0
 11
803.72619141144958
 21
2951.5726279959099
 31
0.0
  0
LINE
  5
19B8
  8
SUNPOU
 10
818.72619141144946
 20
2681.5726279959099
 30
0.0
 11
818.72619141144969
 21
2921.5726279959099
 31
0.0
  0
SOLID
  5
19B9
  8
SUNPOU
 10
813.72619141144958
 20
2681.5726279959099
 30
0.0
 11
823.72619141144958
 21
2681.5726279959099
 31
0.0
 12
818.72619141144946
 22
2651.5726279959099
 32
0.0
 13
818.72619141144946
 23
2651.5726279959099
 33
0.0
  0
SOLID
  5
19BA
  8
SUNPOU
 10
813.72619141144958
 20
2921.5726279959099
 30
0.0
 11
823.72619141144958
 21
2921.5726279959099
 31
0.0
 12
818.72619141144969
 22
2951.5726279959099
 32
0.0
 13
818.72619141144969
 23
2951.5726279959099
 33
0.0
  0
TEXT
  8
SUNPOU
  40
45
  5
1A00
  72
0
  71
0
 10
688.226
 20
2721.92
 30
0.000000
  1
300
  7
KANJI08
  0
POINT
  5
19BC
  8
DEFPOINTS
 62
     0
 10
1315.486041200897
 20
2651.5726279959099
 30
0.0
  0
POINT
  5
19BD
  8
DEFPOINTS
 62
     0
 10
1515.486041200897
 20
2951.572627995909
 30
0.0
  0
POINT
  5
19BE
  8
DEFPOINTS
 62
     0
 10
818.72619141144969
 20
2951.5726279959099
 30
0.0
  0
ENDBLK
  5
451
  8
0
  0
BLOCK
  8
0
  2
*D8
 70
     1
 10
0.0
 20
0.0
 30
0.0
  3
*D8
  1

  0
LINE
  5
19BF
  8
SUNPOU
 10
1050.350081079345
 20
1551.5726279959081
 30
0.0
 11
699.8603506339764
 21
1551.5726279959081
 31
0.0
  0
LINE
  5
19C0
  8
SUNPOU
 10
1460.486041200897
 20
2951.572627995909
 30
0.0
 11
699.86035063397685
 21
2951.5726279959099
 31
0.0
  0
LINE
  5
19C1
  8
SUNPOU
 10
714.86035063397651
 20
1581.5726279959081
 30
0.0
 11
714.86035063397685
 21
2921.5726279959099
 31
0.0
  0
SOLID
  5
19C2
  8
SUNPOU
 10
709.86035063397651
 20
1581.5726279959081
 30
0.0
 11
719.86035063397651
 21
1581.5726279959081
 31
0.0
 12
714.86035063397651
 22
1551.5726279959081
 32
0.0
 13
714.86035063397651
 23
1551.5726279959081
 33
0.0
  0
SOLID
  5
19C3
  8
SUNPOU
 10
709.86035063397685
 20
2921.5726279959099
 30
0.0
 11
719.86035063397685
 21
2921.5726279959099
 31
0.0
 12
714.86035063397685
 22
2951.5726279959099
 32
0.0
 13
714.86035063397685
 23
2951.5726279959099
 33
0.0
  0
TEXT
  8
SUNPOU
  40
45
  5
1A01
  72
0
  71
0
 10
584.360
 20
2171.92
 30
0.000000
  1
1400
  7
KANJI08
  0
POINT
  5
19C5
  8
DEFPOINTS
 62
     0
 10
1065.350081079345
 20
1551.5726279959081
 30
0.0
  0
POINT
  5
19C6
  8
DEFPOINTS
 62
     0
 10
1475.486041200897
 20
2951.572627995909
 30
0.0
  0
POINT
  5
19C7
  8
DEFPOINTS
 62
     0
 10
714.86035063397685
 20
2951.5726279959099
 30
0.0
  0
ENDBLK
  5
45D
  8
0
  0
BLOCK
  8
0
  2
*D9
 70
     1
 10
0.0
 20
0.0
 30
0.0
  3
*D9
  1

  0
LINE
  5
19C8
  8
SUNPOU
 62
     0
 10
1515.4860412008979
 20
2713.4226279959098
 30
0.0
 11
1393.9874539776449
 21
2832.3263424154102
 31
0.0
  0
TEXT
  8
SUNPOU
  40
45
  5
1A02
  62
0
  72
0
  71
0
 10
1411.94
 20
2711.04
 30
0.000000
  1
R200
  7
EXT08
  0
SOLID
  5
19CA
  8
SUNPOU
 62
     0
 10
1397.484622048808
 20
2835.8998302749178
 30
0.0
 11
1390.4902859064839
 21
2828.752854555903
 31
0.0
 12
1372.5465268206019
 22
2853.3093508423808
 32
0.0
 13
1372.5465268206019
 23
2853.3093508423808
 33
0.0
  0
POINT
  5
19CB
  8
DEFPOINTS
 62
     0
 10
1372.5465268206019
 20
2853.3093508423808
 30
0.0
  0
POINT
  5
19CC
  8
DEFPOINTS
 62
     0
 10
1515.4860412008979
 20
2713.4226279959098
 30
0.0
  0
ENDBLK
  5
509
  8
0
  0
BLOCK
  8
0
  2
*D10
 70
     1
 10
0.0
 20
0.0
 30
0.0
  3
*D10
  1

  0
LINE
  5
19CD
  8
SUNPOU
 62
     0
 10
1300.4860412008959
 20
2651.5726279959099
 30
0.0
 11
803.72619141144958
 21
2651.5726279959099
 31
0.0
  0
LINE
  5
19CE
  8
SUNPOU
 62
     0
 10
1300.486041200897
 20
2401.5726279958958
 30
0.0
 11
803.72619141144958
 21
2401.5726279958958
 31
0.0
  0
LINE
  5
19CF
  8
SUNPOU
 62
     0
 10
818.72619141144969
 20
2621.5726279959099
 30
0.0
 11
818.72619141144969
 21
2431.5726279958958
 31
0.0
  0
SOLID
  5
19D0
  8
SUNPOU
 62
     0
 10
813.72619141144958
 20
2621.5726279959099
 30
0.0
 11
823.72619141144958
 21
2621.5726279959099
 31
0.0
 12
818.72619141144969
 22
2651.5726279959099
 32
0.0
 13
818.72619141144969
 23
2651.5726279959099
 33
0.0
  0
SOLID
  5
19D1
  8
SUNPOU
 62
     0
 10
813.72619141144958
 20
2431.5726279958958
 30
0.0
 11
823.72619141144958
 21
2431.5726279958958
 31
0.0
 12
818.72619141144969
 22
2401.5726279958958
 32
0.0
 13
818.72619141144969
 23
2401.5726279958958
 33
0.0
  0
TEXT
  8
SUNPOU
  40
45
  5
1A03
  62
0
  72
0
  71
0
 10
688.226
 20
2446.92
 30
0.000000
  1
250
  7
EXT08
  0
POINT
  5
19D3
  8
DEFPOINTS
 62
     0
 10
1315.486041200897
 20
2651.5726279959099
 30
0.0
  0
POINT
  5
19D4
  8
DEFPOINTS
 62
     0
 10
1315.486041200897
 20
2401.5726279958958
 30
0.0
  0
POINT
  5
19D5
  8
DEFPOINTS
 62
     0
 10
818.72619141144969
 20
2401.5726279958958
 30
0.0
  0
ENDBLK
  5
552
  8
0
  0
BLOCK
  8
0
  2
*D11
 70
     1
 10
0.0
 20
0.0
 30
0.0
  3
*D11
  1

  0
LINE
  5
19D6
  8
SUNPOU
 62
     0
 10
1300.486041200897
 20
2401.5726279958958
 30
0.0
 11
803.72619141144946
 21
2401.5726279958958
 31
0.0
  0
LINE
  5
19D7
  8
SUNPOU
 62
     0
 10
889.94737533880095
 20
2151.572627995909
 30
0.0
 11
803.72619141144946
 21
2151.572627995909
 31
0.0
  0
LINE
  5
19D8
  8
SUNPOU
 62
     0
 10
818.72619141144946
 20
2371.5726279958972
 30
0.0
 11
818.72619141144946
 21
2181.572627995909
 31
0.0
  0
SOLID
  5
19D9
  8
SUNPOU
 62
     0
 10
813.72619141144958
 20
2371.5726279958972
 30
0.0
 11
823.72619141144958
 21
2371.5726279958972
 31
0.0
 12
818.72619141144946
 22
2401.5726279958958
 32
0.0
 13
818.72619141144946
 23
2401.5726279958958
 33
0.0
  0
SOLID
  5
19DA
  8
SUNPOU
 62
     0
 10
813.72619141144935
 20
2181.572627995909
 30
0.0
 11
823.72619141144935
 21
2181.572627995909
 31
0.0
 12
818.72619141144946
 22
2151.572627995909
 32
0.0
 13
818.72619141144946
 23
2151.572627995909
 33
0.0
  0
TEXT
  8
SUNPOU
  40
45
  5
1A04
  62
0
  72
0
  71
0
 10
688.226
 20
2196.92
 30
0.000000
  1
250
  7
EXT08
  0
POINT
  5
19DC
  8
DEFPOINTS
 62
     0
 10
1315.486041200897
 20
2401.5726279958958
 30
0.0
  0
POINT
  5
19DD
  8
DEFPOINTS
 62
     0
 10
904.94737533880095
 20
2151.572627995909
 30
0.0
  0
POINT
  5
19DE
  8
DEFPOINTS
 62
     0
 10
818.72619141144946
 20
2151.572627995909
 30
0.0
  0
ENDBLK
  5
55F
  8
0
  0
BLOCK
  8
0
  2
*D12
 70
     1
 10
0.0
 20
0.0
 30
0.0
  3
*D12
  1

  0
LINE
  5
19DF
  8
SUNPOU
 62
     0
 10
1115.4860412008959
 20
1536.572627995909
 30
0.0
 11
1115.4860412008959
 21
1335.385379250705
 31
0.0
  0
LINE
  5
19E0
  8
SUNPOU
 62
     0
 10
1515.486041200897
 20
1536.572627995909
 30
0.0
 11
1515.486041200897
 21
1335.385379250705
 31
0.0
  0
LINE
  5
19E1
  8
SUNPOU
 62
     0
 10
1145.4860412008959
 20
1350.385379250705
 30
0.0
 11
1485.4860412008959
 21
1350.385379250705
 31
0.0
  0
SOLID
  5
19E2
  8
SUNPOU
 62
     0
 10
1145.4860412008959
 20
1355.385379250705
 30
0.0
 11
1145.4860412008959
 21
1345.385379250705
 31
0.0
 12
1115.4860412008959
 22
1350.385379250705
 32
0.0
 13
1115.4860412008959
 23
1350.385379250705
 33
0.0
  0
SOLID
  5
19E3
  8
SUNPOU
 62
     0
 10
1485.4860412008959
 20
1355.385379250705
 30
0.0
 11
1485.4860412008959
 21
1345.385379250705
 31
0.0
 12
1515.486041200897
 22
1350.385379250705
 32
0.0
 13
1515.486041200897
 23
1350.385379250705
 33
0.0
  0
TEXT
  8
SUNPOU
  40
45
  5
1A05
  62
0
  72
0
  71
0
 10
1225.49
 20
1311.24
 30
0.000000
  1
400
  7
EXT08
  0
POINT
  5
19E5
  8
DEFPOINTS
 62
     0
 10
1115.4860412008959
 20
1551.572627995909
 30
0.0
  0
POINT
  5
19E6
  8
DEFPOINTS
 62
     0
 10
1515.486041200897
 20
1551.572627995909
 30
0.0
  0
POINT
  5
19E7
  8
DEFPOINTS
 62
     0
 10
1515.486041200897
 20
1350.385379250705
 30
0.0
  0
ENDBLK
  5
67B
  8
0
  0
BLOCK
  8
0
  2
*D13
 70
     1
 10
0.0
 20
0.0
 30
0.0
  3
*D13
  1

  0
LINE
  5
19EC
  8
SUNPOU
 62
     0
 10
4784.4355135998267
 20
1536.572627995909
 30
0.0
 11
4784.4355135998267
 21
1335.385379250705
 31
0.0
  0
LINE
  5
19ED
  8
SUNPOU
 62
     0
 10
5184.4355135998276
 20
1536.572627995909
 30
0.0
 11
5184.4355135998276
 21
1335.385379250705
 31
0.0
  0
LINE
  5
19EE
  8
SUNPOU
 62
     0
 10
4814.4355135998276
 20
1350.385379250705
 30
0.0
 11
5154.4355135998267
 21
1350.385379250705
 31
0.0
  0
SOLID
  5
19EF
  8
SUNPOU
 62
     0
 10
4814.4355135998276
 20
1355.385379250705
 30
0.0
 11
4814.4355135998276
 21
1345.385379250705
 31
0.0
 12
4784.4355135998267
 22
1350.385379250705
 32
0.0
 13
4784.4355135998267
 23
1350.385379250705
 33
0.0
  0
SOLID
  5
19F0
  8
SUNPOU
 62
     0
 10
5154.4355135998267
 20
1355.385379250705
 30
0.0
 11
5154.4355135998267
 21
1345.385379250705
 31
0.0
 12
5184.4355135998276
 22
1350.385379250705
 32
0.0
 13
5184.4355135998276
 23
1350.385379250705
 33
0.0
  0
TEXT
  8
SUNPOU
  40
45
  5
1A06
  62
0
  72
0
  71
0
 10
4894.44
 20
1311.24
 30
0.000000
  1
400
  7
EXT08
  0
POINT
  5
19F2
  8
DEFPOINTS
 62
     0
 10
4784.4355135998267
 20
1551.572627995909
 30
0.0
  0
POINT
  5
19F3
  8
DEFPOINTS
 62
     0
 10
5184.4355135998276
 20
1551.572627995909
 30
0.0
  0
POINT
  5
19F4
  8
DEFPOINTS
 62
     0
 10
5184.4355135998276
 20
1350.385379250705
 30
0.0
  0
ENDBLK
  5
174E
  8
0
  0
BLOCK
  8
0
  2
*D14
 70
     1
 10
0.0
 20
0.0
 30
0.0
  3
*D14
  1

  0
LINE
  5
19F5
  8
SUNPOU
 62
     0
 10
3315.486041200897
 20
2728.4226279959089
 30
0.0
 11
3315.486041200897
 21
3196.1818409568459
 31
0.0
  0
LINE
  5
19F6
  8
SUNPOU
 62
     0
 10
3415.4860412008961
 20
2728.4226279959089
 30
0.0
 11
3415.4860412008961
 21
3196.1818409568459
 31
0.0
  0
LINE
  5
19F7
  8
SUNPOU
 62
     0
 10
3345.486041200897
 20
3181.1818409568459
 30
0.0
 11
3385.486041200897
 21
3181.1818409568459
 31
0.0
  0
TEXT
  8
SUNPOU
  40
45
  5
1A07
  62
0
  72
0
  71
0
 10
3275.49
 20
3166.03
 30
0.000000
  1
100
  7
EXT08
  0
SOLID
  5
19F9
  8
SUNPOU
 62
     0
 10
3345.486041200897
 20
3186.1818409568459
 30
0.0
 11
3345.486041200897
 21
3176.1818409568459
 31
0.0
 12
3315.486041200897
 22
3181.1818409568459
 32
0.0
 13
3315.486041200897
 23
3181.1818409568459
 33
0.0
  0
SOLID
  5
19FA
  8
SUNPOU
 62
     0
 10
3385.486041200897
 20
3186.1818409568459
 30
0.0
 11
3385.486041200897
 21
3176.1818409568459
 31
0.0
 12
3415.4860412008961
 22
3181.1818409568459
 32
0.0
 13
3415.4860412008961
 23
3181.1818409568459
 33
0.0
  0
POINT
  5
19FB
  8
DEFPOINTS
 62
     0
 10
3315.486041200897
 20
2713.4226279959089
 30
0.0
  0
POINT
  5
19FC
  8
DEFPOINTS
 62
     0
 10
3415.4860412008961
 20
2713.4226279959089
 30
0.0
  0
POINT
  5
19FD
  8
DEFPOINTS
 62
     0
 10
3415.4860412008961
 20
3181.1818409568459
 30
0.0
  0
ENDBLK
  5
17E7
  8
0
  0
BLOCK
  8
0
  2
*U15
 70
     1
 10
0.0
 20
0.0
 30
0.0
  3
*U15
  1

  0
TEXT
  5
19E9
  8
SUNPOU
 10
3904.0846183652989
 20
3201.0425213434009
 30
0.0
 40
45.0
  1
2000
 41
0.8
  7
KANJI08
  0
ENDBLK
  5
19EB
  8
0
  0
ENDSEC
  0
SECTION
  2
ENTITIES
  0
INSERT
  5
FD
  8
ZWAKU
  2
SEIKO_LS-1100A3
 10
0.0
 20
0.0
 30
0.0
 41
15.0
 42
15.0
 43
15.0
  0
TEXT
  5
FF
  8
INFORMATION
 10
1.0
 20
2.0
 30
0.0
 40
0.8
  1
PLOTTER=SEIKO_LS-1100
  0
TEXT
  5
100
  8
INFORMATION
 10
1.0
 20
3.0
 30
0.0
 40
0.8
  1
PAPER=A3
  0
TEXT
  5
2DB
  8
MOJI2
 10
754.67626246180578
 20
3437.4066244678738
 30
0.0
 40
60.0
  1
設置図
 41
0.8
  7
KANJI08
  0
TEXT
  5
2DC
  8
MOJI
 10
2165.8018997226709
 20
2226.220229472814
 30
0.0
 40
45.0
  1
ビームパイプ %%C48.6×t3.2
 41
0.8
  7
KANJI08
  0
TEXT
  5
2DD
  8
MOJI
 10
2177.705240731173
 20
2730.8822830162958
 30
0.0
 40
45.0
  1
主柱 %%C76.3×t3.2
 41
0.8
  7
KANJI08
  0
LINE
  5
2DE
  8
MOJI
 10
2136.3085316235629
 20
2710.8822830162958
 30
0.0
 11
2584.071224298305
 21
2710.8822830162958
 31
0.0
  0
TEXT
  5
2FB
  8
MOJI
 10
923.50586439689505
 20
2171.897519440678
 30
0.0
 40
45.0
  1
GL
 41
0.8
  7
KANJI08
  0
LINE
  5
307
  8
MOJI2
 10
734.33631895424685
 20
3423.4977258410381
 30
0.0
 11
928.5590696261479
 21
3423.4977258410381
 31
0.0
  0
LINE
  5
308
  8
MOJI
 10
2136.3085316235629
 20
2204.9822830162939
 30
0.0
 11
2749.146448350728
 21
2204.9822830162939
 31
0.0
  0
LINE
  5
30D
  8
SJC
 10
904.94737533880095
 20
2151.572627995909
 30
0.0
 11
1277.3360412008969
 21
2151.572627995909
 31
0.0
1001
ACAD
1000
ASC_BOUNDS
1002
{
1070
    19
1002
}
  0
LINE
  5
30E
  8
MOJI2
 10
734.33631895424685
 20
3408.4977258410381
 30
0.0
 11
928.5590696261479
 21
3408.4977258410381
 31
0.0
  0
LINE
  5
30F
  8
CENTER
 10
1315.486041200897
 20
2713.4226279959089
 30
0.0
 11
1315.486041200897
 21
1451.5726279959081
 31
0.0
  0
LINE
  5
310
  8
CENTER
 10
1515.486041200897
 20
2913.4226279959089
 30
0.0
 11
3115.486041200897
 21
2913.4226279959089
 31
0.0
  0
LINE
  5
312
  8
CENTER
 10
3315.486041200897
 20
2713.4226279959089
 30
0.0
 11
3315.486041200897
 21
1451.5726279959081
 31
0.0
  0
DIMENSION
  5
314
  8
SUNPOU
  2
*D5
 10
3315.486041200897
 20
3183.0425213434009
 30
0.0
 11
2315.4860412008961
 21
3223.5425213434009
 31
0.0
 70
     0
 13
1315.486041200897
 23
2713.4226279959089
 33
0.0
 14
3315.486041200897
 24
2713.4226279959089
 34
0.0
1001
ACAD
1000
DSTYLE
1002
{
1070
   287
1070
     5
1070
    40
1040
15.0
1070
    41
1040
2.0
1070
    42
1040
1.0
1070
    43
1040
6.0
1070
    44
1040
1.0
1070
    73
1070
     0
1070
    74
1070
     0
1070
    77
1070
     1
1070
    78
1070
     8
1070
   140
1040
3.0
1070
   147
1040
1.1999999999999991
1070
   172
1070
     1
1070
   176
1070
   256
1070
   177
1070
   256
1070
   178
1070
   256
1070
   271
1070
     1
1070
   275
1070
     1
1070
   279
1070
     2
1070
   340
1005
11F
1002
}
  0
LINE
  5
317
  8
SJC
 10
1065.350081079345
 20
1551.572627995909
 30
0.0
 11
1565.622001322449
 21
1551.572627995909
 31
0.0
1001
ACAD
1000
ASC_BOUNDS
1002
{
1070
    19
1005
0
1002
}
  0
LINE
  5
318
  8
SJC
 10
1353.636041200896
 20
2151.572627995909
 30
0.0
 11
3277.3360412008969
 21
2151.572627995909
 31
0.0
1001
ACAD
1000
ASC_BOUNDS
1002
{
1070
    19
1002
}
  0
INSERT
  5
31B
  8
SUNPOU
  2
B0040021
 10
2010.618888990841
 20
2151.572627995909
 30
0.0
  0
LINE
  5
31C
  8
SJC
 10
1065.350081079345
 20
1501.5726279959081
 30
0.0
 11
1565.622001322449
 21
1501.5726279959081
 31
0.0
  0
POLYLINE
  5
31D
  8
HATCH
 66
     1
 10
0.0
 20
0.0
 30
0.0
 70
     3
  0
VERTEX
  5
31E
  8
HATCH
 10
1145.350081079345
 20
1526.5726279959081
 30
0.0
 42
-0.1703036214138359
  0
VERTEX
  5
31F
  8
HATCH
 10
1151.842270485763
 20
1545.080438589491
 30
0.0
 42
-0.2278377915826702
 70
     1
  0
VERTEX
  5
320
  8
HATCH
 10
1165.350081079345
 20
1551.5726279959081
 30
0.0
 42
-0.2278377915826684
  0
VERTEX
  5
321
  8
HATCH
 10
1178.8578916729259
 20
1545.080438589491
 30
0.0
 42
-0.1703036214138354
 70
     1
  0
VERTEX
  5
322
  8
HATCH
 10
1185.350081079345
 20
1526.5726279959081
 30
0.0
 42
-0.1703036214138303
  0
VERTEX
  5
323
  8
HATCH
 10
1178.8578916729271
 20
1508.0648174023261
 30
0.0
 42
-0.2278377915826667
 70
     1
  0
VERTEX
  5
324
  8
HATCH
 10
1165.350081079345
 20
1501.5726279959081
 30
0.0
 42
-0.2278377915826721
  0
VERTEX
  5
325
  8
HATCH
 10
1151.8422704857619
 20
1508.064817402327
 30
0.0
 42
-0.1703036214138317
 70
     1
  0
SEQEND
  5
326
  8
HATCH
  0
POLYLINE
  5
327
  8
HATCH
 66
     1
 10
0.0
 20
0.0
 30
0.0
 70
     3
  0
VERTEX
  5
328
  8
HATCH
 10
1105.350081079345
 20
1526.5726279959081
 30
0.0
 42
-0.1703036214138359
  0
VERTEX
  5
329
  8
HATCH
 10
1111.842270485763
 20
1545.080438589491
 30
0.0
 42
-0.2278377915826702
 70
     1
  0
VERTEX
  5
32A
  8
HATCH
 10
1125.350081079345
 20
1551.5726279959081
 30
0.0
 42
-0.2278377915826684
  0
VERTEX
  5
32B
  8
HATCH
 10
1138.8578916729259
 20
1545.080438589491
 30
0.0
 42
-0.1703036214138354
 70
     1
  0
VERTEX
  5
32C
  8
HATCH
 10
1145.350081079345
 20
1526.5726279959081
 30
0.0
 42
-0.1703036214138303
  0
VERTEX
  5
32D
  8
HATCH
 10
1138.8578916729271
 20
1508.0648174023261
 30
0.0
 42
-0.2278377915826667
 70
     1
  0
VERTEX
  5
32E
  8
HATCH
 10
1125.350081079345
 20
1501.5726279959081
 30
0.0
 42
-0.2278377915826721
  0
VERTEX
  5
32F
  8
HATCH
 10
1111.8422704857619
 20
1508.064817402327
 30
0.0
 42
-0.1703036214138317
 70
     1
  0
SEQEND
  5
330
  8
HATCH
  0
POLYLINE
  5
331
  8
HATCH
 66
     1
 10
0.0
 20
0.0
 30
0.0
 70
     3
  0
VERTEX
  5
332
  8
HATCH
 10
1065.350081079345
 20
1526.5726279959081
 30
0.0
 42
-0.1703036214138359
  0
VERTEX
  5
333
  8
HATCH
 10
1071.842270485763
 20
1545.080438589491
 30
0.0
 42
-0.2278377915826702
 70
     1
  0
VERTEX
  5
334
  8
HATCH
 10
1085.350081079345
 20
1551.5726279959081
 30
0.0
 42
-0.2278377915826684
  0
VERTEX
  5
335
  8
HATCH
 10
1098.8578916729259
 20
1545.080438589491
 30
0.0
 42
-0.1703036214138354
 70
     1
  0
VERTEX
  5
336
  8
HATCH
 10
1105.350081079345
 20
1526.5726279959081
 30
0.0
 42
-0.1703036214138303
  0
VERTEX
  5
337
  8
HATCH
 10
1098.8578916729271
 20
1508.0648174023261
 30
0.0
 42
-0.2278377915826667
 70
     1
  0
VERTEX
  5
338
  8
HATCH
 10
1085.350081079345
 20
1501.5726279959081
 30
0.0
 42
-0.2278377915826721
  0
VERTEX
  5
339
  8
HATCH
 10
1071.8422704857619
 20
1508.064817402327
 30
0.0
 42
-0.1703036214138317
 70
     1
  0
SEQEND
  5
33A
  8
HATCH
  0
LINE
  5
33B
  8
SJC
 10
1065.350081079345
 20
1501.5726279959081
 30
0.0
 11
1065.350081079345
 21
1551.5726279959081
 31
0.0
  0
POLYLINE
  5
346
  8
HATCH
 66
     1
 10
0.0
 20
0.0
 30
0.0
 70
     3
  0
VERTEX
  5
347
  8
HATCH
 10
1485.622001322449
 20
1526.5726279959081
 30
0.0
 42
-0.1703036214138359
  0
VERTEX
  5
348
  8
HATCH
 10
1492.114190728867
 20
1545.080438589491
 30
0.0
 42
-0.2278377915826702
 70
     1
  0
VERTEX
  5
349
  8
HATCH
 10
1505.622001322449
 20
1551.5726279959081
 30
0.0
 42
-0.2278377915826684
  0
VERTEX
  5
34A
  8
HATCH
 10
1519.1298119160299
 20
1545.080438589491
 30
0.0
 42
-0.1703036214138354
 70
     1
  0
VERTEX
  5
34B
  8
HATCH
 10
1525.622001322449
 20
1526.5726279959081
 30
0.0
 42
-0.1703036214138303
  0
VERTEX
  5
34C
  8
HATCH
 10
1519.129811916031
 20
1508.0648174023261
 30
0.0
 42
-0.2278377915826667
 70
     1
  0
VERTEX
  5
34D
  8
HATCH
 10
1505.622001322449
 20
1501.5726279959081
 30
0.0
 42
-0.2278377915826721
  0
VERTEX
  5
34E
  8
HATCH
 10
1492.1141907288661
 20
1508.064817402327
 30
0.0
 42
-0.1703036214138317
 70
     1
  0
SEQEND
  5
34F
  8
HATCH
  0
POLYLINE
  5
350
  8
HATCH
 66
     1
 10
0.0
 20
0.0
 30
0.0
 70
     3
  0
VERTEX
  5
351
  8
HATCH
 10
1185.350081079345
 20
1526.5726279959081
 30
0.0
 42
-0.1703036214138359
  0
VERTEX
  5
352
  8
HATCH
 10
1191.842270485763
 20
1545.080438589491
 30
0.0
 42
-0.2278377915826702
 70
     1
  0
VERTEX
  5
353
  8
HATCH
 10
1205.350081079345
 20
1551.5726279959081
 30
0.0
 42
-0.2278377915826684
  0
VERTEX
  5
354
  8
HATCH
 10
1218.8578916729259
 20
1545.080438589491
 30
0.0
 42
-0.1703036214138354
 70
     1
  0
VERTEX
  5
355
  8
HATCH
 10
1225.350081079345
 20
1526.5726279959081
 30
0.0
 42
-0.1703036214138303
  0
VERTEX
  5
356
  8
HATCH
 10
1218.8578916729271
 20
1508.0648174023261
 30
0.0
 42
-0.2278377915826667
 70
     1
  0
VERTEX
  5
357
  8
HATCH
 10
1205.350081079345
 20
1501.5726279959081
 30
0.0
 42
-0.2278377915826721
  0
VERTEX
  5
358
  8
HATCH
 10
1191.8422704857619
 20
1508.064817402327
 30
0.0
 42
-0.1703036214138317
 70
     1
  0
SEQEND
  5
359
  8
HATCH
  0
POLYLINE
  5
35A
  8
HATCH
 66
     1
 10
0.0
 20
0.0
 30
0.0
 70
     3
  0
VERTEX
  5
35B
  8
HATCH
 10
1405.622001322449
 20
1526.5726279959081
 30
0.0
 42
-0.1703036214138359
  0
VERTEX
  5
35C
  8
HATCH
 10
1412.114190728867
 20
1545.080438589491
 30
0.0
 42
-0.2278377915826702
 70
     1
  0
VERTEX
  5
35D
  8
HATCH
 10
1425.622001322449
 20
1551.5726279959081
 30
0.0
 42
-0.2278377915826684
  0
VERTEX
  5
35E
  8
HATCH
 10
1439.1298119160299
 20
1545.080438589491
 30
0.0
 42
-0.1703036214138354
 70
     1
  0
VERTEX
  5
35F
  8
HATCH
 10
1445.622001322449
 20
1526.5726279959081
 30
0.0
 42
-0.1703036214138303
  0
VERTEX
  5
360
  8
HATCH
 10
1439.129811916031
 20
1508.0648174023261
 30
0.0
 42
-0.2278377915826667
 70
     1
  0
VERTEX
  5
361
  8
HATCH
 10
1425.622001322449
 20
1501.5726279959081
 30
0.0
 42
-0.2278377915826721
  0
VERTEX
  5
362
  8
HATCH
 10
1412.1141907288661
 20
1508.064817402327
 30
0.0
 42
-0.1703036214138317
 70
     1
  0
SEQEND
  5
363
  8
HATCH
  0
POLYLINE
  5
364
  8
HATCH
 66
     1
 10
0.0
 20
0.0
 30
0.0
 70
     3
  0
VERTEX
  5
365
  8
HATCH
 10
1445.622001322449
 20
1526.5726279959081
 30
0.0
 42
-0.1703036214138359
  0
VERTEX
  5
366
  8
HATCH
 10
1452.114190728867
 20
1545.080438589491
 30
0.0
 42
-0.2278377915826702
 70
     1
  0
VERTEX
  5
367
  8
HATCH
 10
1465.622001322449
 20
1551.5726279959081
 30
0.0
 42
-0.2278377915826684
  0
VERTEX
  5
368
  8
HATCH
 10
1479.1298119160299
 20
1545.080438589491
 30
0.0
 42
-0.1703036214138354
 70
     1
  0
VERTEX
  5
369
  8
HATCH
 10
1485.622001322449
 20
1526.5726279959081
 30
0.0
 42
-0.1703036214138303
  0
VERTEX
  5
36A
  8
HATCH
 10
1479.129811916031
 20
1508.0648174023261
 30
0.0
 42
-0.2278377915826667
 70
     1
  0
VERTEX
  5
36B
  8
HATCH
 10
1465.622001322449
 20
1501.5726279959081
 30
0.0
 42
-0.2278377915826721
  0
VERTEX
  5
36C
  8
HATCH
 10
1452.1141907288661
 20
1508.064817402327
 30
0.0
 42
-0.1703036214138317
 70
     1
  0
SEQEND
  5
36D
  8
HATCH
  0
LINE
  5
36E
  8
SJC
 10
1565.6220013224481
 20
1501.5726279959081
 30
0.0
 11
1565.6220013224481
 21
1551.5726279959081
 31
0.0
  0
POLYLINE
  5
379
  8
HATCH
 66
     1
 10
0.0
 20
0.0
 30
0.0
 70
     3
  0
VERTEX
  5
37A
  8
HATCH
 10
1525.6220013224481
 20
1526.5726279959081
 30
0.0
 42
-0.1703036214138359
  0
VERTEX
  5
37B
  8
HATCH
 10
1532.1141907288661
 20
1545.080438589491
 30
0.0
 42
-0.2278377915826702
 70
     1
  0
VERTEX
  5
37C
  8
HATCH
 10
1545.6220013224481
 20
1551.5726279959081
 30
0.0
 42
-0.2278377915826684
  0
VERTEX
  5
37D
  8
HATCH
 10
1559.1298119160299
 20
1545.080438589491
 30
0.0
 42
-0.1703036214138354
 70
     1
  0
VERTEX
  5
37E
  8
HATCH
 10
1565.6220013224481
 20
1526.5726279959081
 30
0.0
 42
-0.1703036214138303
  0
VERTEX
  5
37F
  8
HATCH
 10
1559.129811916031
 20
1508.0648174023261
 30
0.0
 42
-0.2278377915826667
 70
     1
  0
VERTEX
  5
380
  8
HATCH
 10
1545.6220013224481
 20
1501.5726279959081
 30
0.0
 42
-0.2278377915826721
  0
VERTEX
  5
381
  8
HATCH
 10
1532.1141907288661
 20
1508.064817402327
 30
0.0
 42
-0.1703036214138317
 70
     1
  0
SEQEND
  5
382
  8
HATCH
  0
LINE
  5
3ED
  8
SJC
 10
3353.6360412008962
 20
2151.572627995909
 30
0.0
 11
3377.3360412008969
 21
2151.572627995909
 31
0.0
1001
ACAD
1000
ASC_BOUNDS
1002
{
1070
    19
1005
0
1002
}
  0
DIMENSION
  5
3EF
  8
SUNPOU
  2
*D6
 10
818.72619141144946
 20
2151.572627995909
 30
0.0
 11
778.22619141144912
 21
1851.572627995909
 31
0.0
 70
     0
 13
1065.350081079345
 23
1551.572627995909
 33
0.0
 14
904.94737533880095
 24
2151.572627995909
 34
0.0
 50
90.0
1001
ACAD
1000
DSTYLE
1002
{
1070
   287
1070
     5
1070
    40
1040
15.0
1070
    41
1040
2.0
1070
    42
1040
1.0
1070
    43
1040
6.0
1070
    44
1040
1.0
1070
    73
1070
     0
1070
    74
1070
     0
1070
    77
1070
     1
1070
    78
1070
     8
1070
   140
1040
3.0
1070
   147
1040
1.1999999999999991
1070
   172
1070
     1
1070
   176
1070
   256
1070
   177
1070
   256
1070
   178
1070
   256
1070
   271
1070
     1
1070
   275
1070
     1
1070
   279
1070
     2
1070
   340
1005
11F
1002
}
  0
LINE
  5
3F2
  8
SJC
 10
1515.486041200897
 20
2951.572627995909
 30
0.0
 11
3115.486041200897
 21
2951.572627995909
 31
0.0
  0
LINE
  5
3F3
  8
SJC
 10
1515.486041200897
 20
2875.2726279959088
 30
0.0
 11
3115.486041200897
 21
2875.2726279959088
 31
0.0
  0
LINE
  5
3F6
  8
SJC
 10
3277.336041200896
 20
2713.4226279959089
 30
0.0
 11
3277.336041200896
 21
2675.8726279959092
 31
0.0
  0
LINE
  5
3F7
  8
SJC
 10
3353.6360412008971
 20
2713.4226279959089
 30
0.0
 11
3353.6360412008971
 21
1551.572627995909
 31
0.0
  0
LINE
  5
3F8
  8
SJC
 10
1353.6360412008969
 20
2713.4226279959098
 30
0.0
 11
1353.6360412008969
 21
2675.8726279959092
 31
0.0
1001
ACAD
1000
ASC_BOUNDS
1002
{
1070
    19
1002
}
  0
LINE
  5
3F9
  8
SJC
 10
1277.3360412008969
 20
2713.4226279959089
 30
0.0
 11
1277.3360412008969
 21
1551.572627995909
 31
0.0
1001
ACAD
1000
ASC_BOUNDS
1002
{
1070
    19
1002
}
  0
DIMENSION
  5
3FC
  8
SUNPOU
  2
*D7
 10
818.72619141144969
 20
2951.5726279959099
 30
0.0
 11
778.22619141144924
 21
2801.5726279959099
 31
0.0
 70
     0
 13
1315.486041200897
 23
2651.5726279959099
 33
0.0
 14
1515.486041200897
 24
2951.572627995909
 34
0.0
 50
90.0
1001
ACAD
1000
DSTYLE
1002
{
1070
   287
1070
     5
1070
    40
1040
15.0
1070
    41
1040
2.0
1070
    42
1040
1.0
1070
    43
1040
6.0
1070
    44
1040
1.0
1070
    73
1070
     0
1070
    74
1070
     0
1070
    77
1070
     1
1070
    78
1070
     8
1070
   140
1040
3.0
1070
   147
1040
1.1999999999999991
1070
   172
1070
     1
1070
   176
1070
   256
1070
   177
1070
   256
1070
   178
1070
   256
1070
   271
1070
     1
1070
   275
1070
     1
1070
   279
1070
     2
1070
   340
1005
11F
1002
}
  0
DIMENSION
  5
3FD
  8
SUNPOU
  2
*D8
 10
714.86035063397685
 20
2951.5726279959099
 30
0.0
 11
674.36035063397628
 21
2251.572627995909
 31
0.0
 70
     0
 13
1065.350081079345
 23
1551.5726279959081
 33
0.0
 14
1475.486041200897
 24
2951.572627995909
 34
0.0
 50
90.0
1001
ACAD
1000
DSTYLE
1002
{
1070
   287
1070
     5
1070
    40
1040
15.0
1070
    41
1040
2.0
1070
    42
1040
1.0
1070
    43
1040
6.0
1070
    44
1040
1.0
1070
    73
1070
     0
1070
    74
1070
     0
1070
    77
1070
     1
1070
    78
1070
     8
1070
   140
1040
3.0
1070
   147
1040
1.1999999999999991
1070
   172
1070
     1
1070
   176
1070
   256
1070
   177
1070
   256
1070
   178
1070
   256
1070
   271
1070
     1
1070
   275
1070
     1
1070
   279
1070
     2
1070
   340
1005
11F
1002
}
  0
SOLID
  5
400
  8
MOJI
  6
CONTINUOUS
 10
2086.0631864522529
 20
2845.2369777986692
 30
0.0
 11
2095.5460360478978
 21
2848.4111806192818
 31
0.0
 12
2081.2820027882372
 22
2875.2726279959088
 32
0.0
 13
2081.2820027882372
 23
2875.2726279959088
 33
0.0
  0
LINE
  5
401
  8
MOJI
  6
CONTINUOUS
 10
2090.8046112500761
 20
2846.8240792089759
 30
0.0
 11
2136.3085316235629
 21
2710.8822830162958
 31
0.0
  0
LINE
  5
402
  8
MOJI
  6
CONTINUOUS
 10
1995.8731470275959
 20
2627.2726279959088
 30
0.0
 11
2136.3085316235629
 21
2204.9822830162939
 31
0.0
  0
SOLID
  5
403
  8
MOJI
  6
CONTINUOUS
 10
2083.4188123081822
 20
2347.2369777986678
 30
0.0
 11
2092.9016619038262
 21
2350.4111806192809
 31
0.0
 12
2078.6376286441659
 22
2377.2726279959079
 32
0.0
 13
2078.6376286441659
 23
2377.2726279959079
 33
0.0
  0
LINE
  5
405
  8
SJC
 10
1353.636041200896
 20
2627.272627995882
 30
0.0
 11
1353.636041200896
 21
2425.8726279959092
 31
0.0
1001
ACAD
1000
ASC_BOUNDS
1002
{
1070
    19
1005
3FE
1002
}
  0
LINE
  5
408
  8
SJC
 10
3277.336041200896
 20
2627.272627995882
 30
0.0
 11
3277.336041200896
 21
2425.8726279959092
 31
0.0
  0
TEXT
  5
4B6
  8
INFORMATION
 10
1.0
 20
1.0
 30
0.0
 40
0.8
  1
VERSION=3.0
  0
ARC
  5
4B7
  8
CENTER
 10
1515.486041200897
 20
2713.4226279959089
 30
0.0
 40
200.0
 50
90.0
 51
180.0
  0
ARC
  5
4C0
  8
SJC
 10
1515.486041200897
 20
2713.4226279959089
 30
0.0
 40
161.84999999999999
 50
90.0
 51
180.0
  0
ARC
  5
4C1
  8
SJC
 10
1515.486041200897
 20
2713.4226279959089
 30
0.0
 40
238.15000000000001
 50
90.0
 51
180.0
  0
ARC
  5
4EF
  8
CENTER
 10
3115.486041200897
 20
2713.4226279959089
 30
0.0
 40
200.0
 50
0.000000000000007
 51
90.0
  0
ARC
  5
4F0
  8
SJC
 10
3115.486041200897
 20
2713.4226279959089
 30
0.0
 40
238.15000000000001
 50
0.000000000000007
 51
90.0
  0
ARC
  5
4F1
  8
SJC
 10
3115.486041200897
 20
2713.4226279959089
 30
0.0
 40
161.84999999999999
 50
0.000000000000007
 51
90.0
  0
DIMENSION
  5
501
  8
SUNPOU
  2
*D9
 10
1515.4860412008979
 20
2713.4226279959098
 30
0.0
 11
1501.9437413789101
 21
2790.6945941200202
 31
0.0
 70
   132
 15
1372.5465268206019
 25
2853.3093508423808
 35
0.0
 40
0.0
1001
ACAD
1000
DSTYLE
1002
{
1070
   287
1070
     5
1070
    40
1040
15.0
1070
    41
1040
2.0
1070
    42
1040
1.0
1070
    43
1040
6.0
1070
    44
1040
1.0
1070
    73
1070
     0
1070
    74
1070
     0
1070
    77
1070
     1
1070
    78
1070
     8
1070
   140
1040
3.0
1070
   147
1040
1.1999999999999991
1070
   172
1070
     1
1070
   179
1070
     2
1070
   271
1070
     2
1070
   279
1070
     2
1070
   288
1070
     1
1070
   340
1005
11D
1002
}
  0
LINE
  5
531
  8
SJC
 10
1353.636041200896
 20
2675.8726279959092
 30
0.0
 11
3277.336041200896
 21
2675.8726279959092
 31
0.0
  0
LINE
  5
532
  8
SJC
 10
1353.6360412008739
 20
2627.2726279959088
 30
0.0
 11
3277.3360412009192
 21
2627.2726279959088
 31
0.0
  0
ARC
  5
53C
  8
SJC
 10
1383.045775983783
 20
2651.5726279958958
 30
0.0
 40
38.150000000005512
 50
140.43454069638369
 51
219.56545930361631
  0
ARC
  5
53D
  8
SJC
 10
3247.92630641801
 20
2651.5726279958958
 30
0.0
 40
38.150000000005512
 50
320.43454069638381
 51
39.565459303616258
  0
LINE
  5
53E
  8
SJC
 10
1353.6360412008739
 20
2377.2726279959088
 30
0.0
 11
3277.3360412009192
 21
2377.2726279959088
 31
0.0
  0
LINE
  5
53F
  8
SJC
 10
1353.636041200896
 20
2425.8726279959092
 30
0.0
 11
3277.336041200896
 21
2425.8726279959092
 31
0.0
  0
ARC
  5
540
  8
SJC
 10
1383.045775983783
 20
2401.5726279958958
 30
0.0
 40
38.150000000005512
 50
140.43454069638369
 51
219.56545930361631
  0
ARC
  5
541
  8
SJC
 10
3247.92630641801
 20
2401.5726279958958
 30
0.0
 40
38.150000000005512
 50
320.43454069638381
 51
39.565459303616258
  0
LINE
  5
542
  8
SJC
 10
1353.636041200896
 20
2377.272627995882
 30
0.0
 11
1353.636041200896
 21
1551.572627995909
 31
0.0
1001
ACAD
1000
ASC_BOUNDS
1002
{
1070
    19
1002
}
  0
LINE
  5
543
  8
SJC
 10
3277.336041200896
 20
2377.272627995882
 30
0.0
 11
3277.336041200896
 21
1551.572627995909
 31
0.0
  0
SOLID
  5
544
  8
MOJI
  6
CONTINUOUS
 10
2000.654330691613
 20
2597.2369777986728
 30
0.0
 11
2010.137180287257
 21
2600.411180619285
 31
0.0
 12
1995.8731470275959
 22
2627.272627995912
 32
0.0
 13
1995.8731470275959
 23
2627.272627995912
 33
0.0
  0
DIMENSION
  5
546
  8
SUNPOU
  2
*D10
 10
818.72619141144969
 20
2401.5726279958958
 30
0.0
 11
778.22619141144924
 21
2526.5726279959031
 31
0.0
 70
     0
 13
1315.486041200897
 23
2651.5726279959099
 33
0.0
 14
1315.486041200897
 24
2401.5726279958958
 34
0.0
 50
90.0
1001
ACAD
1000
DSTYLE
1002
{
1070
   287
1070
     5
1070
    40
1040
15.0
1070
    41
1040
2.0
1070
    42
1040
1.0
1070
    43
1040
6.0
1070
    44
1040
1.0
1070
    73
1070
     0
1070
    74
1070
     0
1070
    77
1070
     1
1070
    78
1070
     8
1070
   140
1040
3.0
1070
   147
1040
1.1999999999999991
1070
   172
1070
     1
1070
   179
1070
     2
1070
   271
1070
     2
1070
   279
1070
     2
1070
   340
1005
11D
1002
}
  0
DIMENSION
  5
553
  8
SUNPOU
  2
*D11
 10
818.72619141144946
 20
2151.572627995909
 30
0.0
 11
778.22619141144912
 21
2276.5726279959031
 31
0.0
 70
     0
 13
1315.486041200897
 23
2401.5726279958958
 33
0.0
 14
904.94737533880095
 24
2151.572627995909
 34
0.0
 50
90.0
1001
ACAD
1000
DSTYLE
1002
{
1070
   287
1070
     5
1070
    40
1040
15.0
1070
    41
1040
2.0
1070
    42
1040
1.0
1070
    43
1040
6.0
1070
    44
1040
1.0
1070
    73
1070
     0
1070
    74
1070
     0
1070
    77
1070
     1
1070
    78
1070
     8
1070
   140
1040
3.0
1070
   147
1040
1.1999999999999991
1070
   172
1070
     1
1070
   179
1070
     2
1070
   271
1070
     2
1070
   279
1070
     2
1070
   340
1005
11D
1002
}
  0
LINE
  5
650
  8
HATCH
 10
1115.4860412008959
 20
1602.6186780887519
 30
0.0
 11
1277.3360412008969
 21
1764.468678088753
 31
0.0
  0
LINE
  5
651
  8
HATCH
 10
1353.6360412008969
 20
1840.7686780887529
 30
0.0
 11
1515.486041200897
 21
2002.6186780887531
 31
0.0
  0
LINE
  5
652
  8
HATCH
 10
1115.4860412008959
 20
1779.39537338539
 30
0.0
 11
1277.3360412008969
 21
1941.2453733853899
 31
0.0
  0
LINE
  5
653
  8
HATCH
 10
1353.6360412008969
 20
2017.5453733853899
 30
0.0
 11
1487.663295811416
 21
2151.572627995909
 31
0.0
  0
LINE
  5
654
  8
HATCH
 10
1115.4860412008959
 20
1956.1720686820261
 30
0.0
 11
1277.3360412008969
 21
2118.0220686820271
 31
0.0
  0
LINE
  5
657
  8
HATCH
 10
1115.4860412008959
 20
1624.7157650008321
 30
0.0
 11
1277.3360412008969
 21
1786.5657650008329
 31
0.0
  0
LINE
  5
658
  8
HATCH
 10
1353.6360412008969
 20
1862.8657650008331
 30
0.0
 11
1515.486041200897
 21
2024.7157650008321
 31
0.0
  0
LINE
  5
659
  8
HATCH
 10
1115.4860412008959
 20
1801.49246029747
 30
0.0
 11
1277.3360412008969
 21
1963.3424602974701
 31
0.0
  0
LINE
  5
65A
  8
HATCH
 10
1353.6360412008969
 20
2039.6424602974701
 30
0.0
 11
1465.566208899337
 21
2151.572627995909
 31
0.0
  0
LINE
  5
65B
  8
HATCH
 10
1115.4860412008959
 20
1978.269155594106
 30
0.0
 11
1277.3360412008969
 21
2140.1191555941068
 31
0.0
  0
LINE
  5
65D
  8
HATCH
 10
1395.8962947892451
 20
1551.572627995909
 30
0.0
 11
1515.486041200897
 21
1671.1623744075589
 31
0.0
  0
LINE
  5
65E
  8
HATCH
 10
1120.2458172838931
 20
1651.572627995909
 30
0.0
 11
1277.3360412008969
 21
1808.6628519129131
 31
0.0
  0
LINE
  5
65F
  8
HATCH
 10
1353.6360412008969
 20
1884.9628519129119
 30
0.0
 11
1515.486041200897
 21
2046.812851912912
 31
0.0
  0
LINE
  5
660
  8
HATCH
 10
1115.4860412008959
 20
1823.589547209549
 30
0.0
 11
1277.3360412008969
 21
1985.4395472095489
 31
0.0
  0
LINE
  5
661
  8
HATCH
 10
1353.6360412008969
 20
2061.7395472095491
 30
0.0
 11
1443.469121987257
 21
2151.5726279959099
 31
0.0
  0
LINE
  5
662
  8
HATCH
 10
1115.4860412008959
 20
2000.3662425061859
 30
0.0
 11
1266.6924266906201
 21
2151.572627995909
 31
0.0
  0
LINE
  5
664
  8
HATCH
 10
1373.7992078771681
 20
1551.572627995909
 30
0.0
 11
1515.486041200897
 21
1693.2594613196379
 31
0.0
  0
LINE
  5
665
  8
HATCH
 10
1115.4860412008959
 20
2132.9487639786639
 30
0.0
 11
1134.1099052181421
 21
2151.572627995909
 31
0.0
  0
LINE
  5
668
  8
HATCH
 10
1197.0225125805309
 20
1551.572627995909
 30
0.0
 11
1277.3360412008969
 21
1631.886156616275
 31
0.0
  0
LINE
  5
669
  8
HATCH
 10
1219.11959949261
 20
1551.572627995909
 30
0.0
 11
1277.3360412008969
 21
1609.789069704196
 31
0.0
  0
LINE
  5
66A
  8
HATCH
 10
1241.216686404689
 20
1551.572627995909
 30
0.0
 11
1277.3360412008969
 21
1587.6919827921161
 31
0.0
  0
LINE
  5
66B
  8
HATCH
 10
1417.9933817013271
 20
1551.572627995909
 30
0.0
 11
1515.486041200897
 21
1649.0652874954769
 31
0.0
  0
DIMENSION
  5
66F
  8
SUNPOU
  2
*D12
 10
1515.486041200897
 20
1350.385379250705
 30
0.0
 11
1315.486041200897
 21
1390.885379250705
 31
0.0
 70
     0
 13
1115.4860412008959
 23
1551.572627995909
 33
0.0
 14
1515.486041200897
 24
1551.572627995909
 34
0.0
1001
ACAD
1000
DSTYLE
1002
{
1070
   287
1070
     5
1070
    40
1040
15.0
1070
    41
1040
2.0
1070
    42
1040
1.0
1070
    43
1040
6.0
1070
    44
1040
1.0
1070
    73
1070
     0
1070
    74
1070
     0
1070
    77
1070
     1
1070
    78
1070
     8
1070
   140
1040
3.0
1070
   147
1040
1.1999999999999991
1070
   172
1070
     1
1070
   179
1070
     2
1070
   271
1070
     2
1070
   279
1070
     2
1070
   340
1005
11D
1002
}
  0
LINE
  5
722
  8
CENTER
 10
4984.4355135998267
 20
3001.572627995909
 30
0.0
 11
4984.4355135998267
 21
1451.5726279959081
 31
0.0
  0
LINE
  5
723
  8
SJC
 10
5022.5855135998263
 20
2151.572627995909
 30
0.0
 11
5284.4355135998267
 21
2151.572627995909
 31
0.0
1001
ACAD
1000
ASC_BOUNDS
1002
{
1070
    19
1005
0
1002
}
  0
LINE
  5
725
  8
SJC
 10
5022.5855135998263
 20
2913.4226279959089
 30
0.0
 11
5022.5855135998272
 21
1551.572627995909
 31
0.0
  0
LINE
  5
727
  8
SJC
 10
4946.285513599827
 20
2913.4226279959098
 30
0.0
 11
4946.2855135998279
 21
1551.572627995909
 31
0.0
  0
LINE
  5
72D
  8
SJC
 10
4734.2995534782749
 20
1551.572627995909
 30
0.0
 11
5234.5714737213784
 21
1551.572627995909
 31
0.0
1001
ACAD
1000
ASC_BOUNDS
1002
{
1070
    19
1005
0
1002
}
  0
LINE
  5
730
  8
SJC
 10
4734.2995534782749
 20
1501.5726279959081
 30
0.0
 11
5234.5714737213784
 21
1501.572627995909
 31
0.0
  0
POLYLINE
  5
73B
  8
HATCH
 66
     1
 10
0.0
 20
0.0
 30
0.0
 70
     3
  0
VERTEX
  5
73C
  8
HATCH
 10
4814.299553478274
 20
1526.5726279959081
 30
0.0
 42
-0.1703036214138359
  0
VERTEX
  5
73D
  8
HATCH
 10
4820.791742884694
 20
1545.080438589491
 30
0.0
 42
-0.2278377915826702
 70
     1
  0
VERTEX
  5
73E
  8
HATCH
 10
4834.2995534782749
 20
1551.5726279959081
 30
0.0
 42
-0.2278377915826684
  0
VERTEX
  5
73F
  8
HATCH
 10
4847.8073640718567
 20
1545.080438589491
 30
0.0
 42
-0.1703036214138354
 70
     1
  0
VERTEX
  5
740
  8
HATCH
 10
4854.299553478274
 20
1526.5726279959081
 30
0.0
 42
-0.1703036214138303
  0
VERTEX
  5
741
  8
HATCH
 10
4847.8073640718576
 20
1508.0648174023261
 30
0.0
 42
-0.2278377915826667
 70
     1
  0
VERTEX
  5
742
  8
HATCH
 10
4834.2995534782749
 20
1501.5726279959081
 30
0.0
 42
-0.2278377915826721
  0
VERTEX
  5
743
  8
HATCH
 10
4820.7917428846931
 20
1508.064817402327
 30
0.0
 42
-0.1703036214138317
 70
     1
  0
SEQEND
  5
744
  8
HATCH
  0
POLYLINE
  5
745
  8
HATCH
 66
     1
 10
0.0
 20
0.0
 30
0.0
 70
     3
  0
VERTEX
  5
746
  8
HATCH
 10
4774.299553478274
 20
1526.5726279959081
 30
0.0
 42
-0.1703036214138359
  0
VERTEX
  5
747
  8
HATCH
 10
4780.7917428846931
 20
1545.080438589491
 30
0.0
 42
-0.2278377915826702
 70
     1
  0
VERTEX
  5
748
  8
HATCH
 10
4794.2995534782749
 20
1551.5726279959081
 30
0.0
 42
-0.2278377915826684
  0
VERTEX
  5
749
  8
HATCH
 10
4807.8073640718567
 20
1545.080438589491
 30
0.0
 42
-0.1703036214138354
 70
     1
  0
VERTEX
  5
74A
  8
HATCH
 10
4814.299553478274
 20
1526.5726279959081
 30
0.0
 42
-0.1703036214138303
  0
VERTEX
  5
74B
  8
HATCH
 10
4807.8073640718576
 20
1508.0648174023261
 30
0.0
 42
-0.2278377915826667
 70
     1
  0
VERTEX
  5
74C
  8
HATCH
 10
4794.2995534782749
 20
1501.5726279959081
 30
0.0
 42
-0.2278377915826721
  0
VERTEX
  5
74D
  8
HATCH
 10
4780.7917428846922
 20
1508.064817402327
 30
0.0
 42
-0.1703036214138317
 70
     1
  0
SEQEND
  5
74E
  8
HATCH
  0
LINE
  5
74F
  8
SJC
 10
4734.2995534782749
 20
1501.5726279959081
 30
0.0
 11
4734.2995534782749
 21
1551.5726279959081
 31
0.0
  0
POLYLINE
  5
750
  8
HATCH
 66
     1
 10
0.0
 20
0.0
 30
0.0
 70
     3
  0
VERTEX
  5
751
  8
HATCH
 10
4734.2995534782749
 20
1526.5726279959081
 30
0.0
 42
-0.1703036214138359
  0
VERTEX
  5
752
  8
HATCH
 10
4740.7917428846931
 20
1545.080438589491
 30
0.0
 42
-0.2278377915826702
 70
     1
  0
VERTEX
  5
753
  8
HATCH
 10
4754.2995534782749
 20
1551.5726279959081
 30
0.0
 42
-0.2278377915826684
  0
VERTEX
  5
754
  8
HATCH
 10
4767.8073640718558
 20
1545.080438589491
 30
0.0
 42
-0.1703036214138354
 70
     1
  0
VERTEX
  5
755
  8
HATCH
 10
4774.299553478274
 20
1526.5726279959081
 30
0.0
 42
-0.1703036214138303
  0
VERTEX
  5
756
  8
HATCH
 10
4767.8073640718576
 20
1508.0648174023261
 30
0.0
 42
-0.2278377915826667
 70
     1
  0
VERTEX
  5
757
  8
HATCH
 10
4754.2995534782749
 20
1501.5726279959081
 30
0.0
 42
-0.2278377915826721
  0
VERTEX
  5
758
  8
HATCH
 10
4740.7917428846922
 20
1508.064817402327
 30
0.0
 42
-0.1703036214138317
 70
     1
  0
SEQEND
  5
759
  8
HATCH
  0
POLYLINE
  5
75A
  8
HATCH
 66
     1
 10
0.0
 20
0.0
 30
0.0
 70
     3
  0
VERTEX
  5
75B
  8
HATCH
 10
5113.3540372121679
 20
1526.5726279959081
 30
0.0
 42
-0.1703036214138359
  0
VERTEX
  5
75C
  8
HATCH
 10
5119.8462266185861
 20
1545.080438589491
 30
0.0
 42
-0.2278377915826702
 70
     1
  0
VERTEX
  5
75D
  8
HATCH
 10
5133.3540372121679
 20
1551.5726279959081
 30
0.0
 42
-0.2278377915826684
  0
VERTEX
  5
75E
  8
HATCH
 10
5146.8618478057497
 20
1545.080438589491
 30
0.0
 42
-0.1703036214138354
 70
     1
  0
VERTEX
  5
75F
  8
HATCH
 10
5153.354037212167
 20
1526.5726279959081
 30
0.0
 42
-0.1703036214138303
  0
VERTEX
  5
760
  8
HATCH
 10
5146.8618478057506
 20
1508.0648174023261
 30
0.0
 42
-0.2278377915826667
 70
     1
  0
VERTEX
  5
761
  8
HATCH
 10
5133.3540372121679
 20
1501.5726279959081
 30
0.0
 42
-0.2278377915826721
  0
VERTEX
  5
762
  8
HATCH
 10
5119.8462266185861
 20
1508.064817402327
 30
0.0
 42
-0.1703036214138317
 70
     1
  0
SEQEND
  5
763
  8
HATCH
  0
LINE
  5
782
  8
SJC
 10
5234.5714737213784
 20
1501.5726279959081
 30
0.0
 11
5234.5714737213784
 21
1551.5726279959081
 31
0.0
  0
POLYLINE
  5
783
  8
HATCH
 66
     1
 10
0.0
 20
0.0
 30
0.0
 70
     3
  0
VERTEX
  5
784
  8
HATCH
 10
5193.3540372121661
 20
1526.5726279959081
 30
0.0
 42
-0.1703036214138359
  0
VERTEX
  5
785
  8
HATCH
 10
5199.8462266185861
 20
1545.080438589491
 30
0.0
 42
-0.2278377915826702
 70
     1
  0
VERTEX
  5
786
  8
HATCH
 10
5213.354037212167
 20
1551.5726279959081
 30
0.0
 42
-0.2278377915826684
  0
VERTEX
  5
787
  8
HATCH
 10
5226.8618478057488
 20
1545.080438589491
 30
0.0
 42
-0.1703036214138354
 70
     1
  0
VERTEX
  5
788
  8
HATCH
 10
5233.3540372121661
 20
1526.5726279959081
 30
0.0
 42
-0.1703036214138303
  0
VERTEX
  5
789
  8
HATCH
 10
5226.8618478057497
 20
1508.0648174023261
 30
0.0
 42
-0.2278377915826667
 70
     1
  0
VERTEX
  5
78A
  8
HATCH
 10
5213.354037212167
 20
1501.5726279959081
 30
0.0
 42
-0.2278377915826721
  0
VERTEX
  5
78B
  8
HATCH
 10
5199.8462266185852
 20
1508.064817402327
 30
0.0
 42
-0.1703036214138317
 70
     1
  0
SEQEND
  5
78C
  8
HATCH
  0
POLYLINE
  5
78D
  8
HATCH
 66
     1
 10
0.0
 20
0.0
 30
0.0
 70
     3
  0
VERTEX
  5
78E
  8
HATCH
 10
5153.354037212167
 20
1526.5726279959081
 30
0.0
 42
-0.1703036214138359
  0
VERTEX
  5
78F
  8
HATCH
 10
5159.8462266185861
 20
1545.080438589491
 30
0.0
 42
-0.2278377915826702
 70
     1
  0
VERTEX
  5
790
  8
HATCH
 10
5173.354037212167
 20
1551.5726279959081
 30
0.0
 42
-0.2278377915826684
  0
VERTEX
  5
791
  8
HATCH
 10
5186.8618478057488
 20
1545.080438589491
 30
0.0
 42
-0.1703036214138354
 70
     1
  0
VERTEX
  5
792
  8
HATCH
 10
5193.3540372121661
 20
1526.5726279959081
 30
0.0
 42
-0.1703036214138303
  0
VERTEX
  5
793
  8
HATCH
 10
5186.8618478057497
 20
1508.0648174023261
 30
0.0
 42
-0.2278377915826667
 70
     1
  0
VERTEX
  5
794
  8
HATCH
 10
5173.354037212167
 20
1501.5726279959081
 30
0.0
 42
-0.2278377915826721
  0
VERTEX
  5
795
  8
HATCH
 10
5159.8462266185843
 20
1508.064817402327
 30
0.0
 42
-0.1703036214138317
 70
     1
  0
SEQEND
  5
796
  8
HATCH
  0
LINE
  5
798
  8
HATCH
 10
4784.4355135998267
 20
1602.618678088754
 30
0.0
 11
4946.285513599827
 21
1764.468678088753
 31
0.0
  0
LINE
  5
799
  8
HATCH
 10
5022.5855135998263
 20
1840.7686780887529
 30
0.0
 11
5184.4355135998267
 21
2002.6186780887531
 31
0.0
  0
LINE
  5
79A
  8
HATCH
 10
4784.4355135998267
 20
1779.3953733853921
 30
0.0
 11
4946.285513599827
 21
1941.2453733853899
 31
0.0
  0
LINE
  5
79B
  8
HATCH
 10
5022.5855135998263
 20
2017.5453733853899
 30
0.0
 11
5156.6127682103461
 21
2151.572627995909
 31
0.0
  0
LINE
  5
79C
  8
HATCH
 10
4784.4355135998267
 20
1956.1720686820281
 30
0.0
 11
4946.285513599827
 21
2118.0220686820271
 31
0.0
  0
LINE
  5
79E
  8
HATCH
 10
5022.5855135998263
 20
1663.991982792116
 30
0.0
 11
5184.4355135998276
 21
1825.841982792115
 31
0.0
  0
LINE
  5
79F
  8
HATCH
 10
4784.4355135998267
 20
1624.7157650008321
 30
0.0
 11
4946.285513599827
 21
1786.5657650008329
 31
0.0
  0
LINE
  5
7A0
  8
HATCH
 10
5022.5855135998263
 20
1862.8657650008331
 30
0.0
 11
5184.4355135998267
 21
2024.7157650008321
 31
0.0
  0
LINE
  5
7A1
  8
HATCH
 10
4784.4355135998267
 20
1801.49246029747
 30
0.0
 11
4946.285513599827
 21
1963.3424602974701
 31
0.0
  0
LINE
  5
7A2
  8
HATCH
 10
5022.5855135998272
 20
2039.6424602974701
 30
0.0
 11
5134.4355135998267
 21
2151.4924602974688
 31
0.0
  0
LINE
  5
7A3
  8
HATCH
 10
4784.4355135998267
 20
1978.269155594108
 30
0.0
 11
4946.285513599827
 21
2140.1191555941068
 31
0.0
  0
LINE
  5
7A5
  8
HATCH
 10
5022.5855135998263
 20
1686.089069704195
 30
0.0
 11
5184.4355135998276
 21
1847.9390697041949
 31
0.0
  0
LINE
  5
7A7
  8
HATCH
 10
4784.4355135998267
 20
1646.8128519129129
 30
0.0
 11
4946.285513599827
 21
1808.6628519129131
 31
0.0
  0
LINE
  5
7A8
  8
HATCH
 10
5022.5855135998263
 20
1884.9628519129119
 30
0.0
 11
5184.4355135998267
 21
2046.812851912912
 31
0.0
  0
LINE
  5
7A9
  8
HATCH
 10
4784.4355135998267
 20
1823.5895472095499
 30
0.0
 11
4946.285513599827
 21
1985.4395472095489
 31
0.0
  0
LINE
  5
7AA
  8
HATCH
 10
5022.5855135998272
 20
2061.7395472095491
 30
0.0
 11
5112.4185943861867
 21
2151.5726279959099
 31
0.0
  0
LINE
  5
7AB
  8
HATCH
 10
4784.4355135998258
 20
2000.3662425061871
 30
0.0
 11
4935.641899089549
 21
2151.572627995909
 31
0.0
  0
LINE
  5
7AD
  8
HATCH
 10
5022.5855135998263
 20
1708.186156616275
 30
0.0
 11
5184.4355135998276
 21
1870.0361566162769
 31
0.0
  0
ARC
  5
7FB
  8
SJC
 10
4984.4355135998267
 20
2913.4226279959089
 30
0.0
 40
38.149999999999643
 50
0.0
 51
180.0
  0
LINE
  5
7FE
  8
SJC
 10
4784.4355135998258
 20
2151.572627995909
 30
0.0
 11
4784.4355135998267
 21
1551.572627995909
 31
0.0
1001
ACAD
1000
ASC_BOUNDS
1002
{
1070
    19
1002
}
  0
LINE
  5
7FF
  8
SJC
 10
5184.4355135998267
 20
2151.572627995909
 30
0.0
 11
5184.4355135998276
 21
1551.572627995909
 31
0.0
1001
ACAD
1000
ASC_BOUNDS
1002
{
1070
    19
1002
}
  0
LINE
  5
800
  8
SJC
 10
4946.285513599827
 20
2151.572627995909
 30
0.0
 11
4684.4355135998267
 21
2151.572627995909
 31
0.0
1001
ACAD
1000
ASC_BOUNDS
1002
{
1070
    19
1005
0
1002
}
  0
LINE
  5
912
  8
SJC
 10
5051.4317998701472
 20
4165.2545027623164
 30
0.0
 11
5981.4317998701463
 21
4165.2545027623164
 31
0.0
  0
LINE
  5
913
  8
SJC
 10
5051.4317998701472
 20
3940.254502762316
 30
0.0
 11
5981.4317998701463
 21
3940.254502762316
 31
0.0
  0
LINE
  5
914
  8
SJC
 10
5028.9317998701472
 20
4015.254502762316
 30
0.0
 11
6003.9317998701463
 21
4015.254502762316
 31
0.0
  0
LINE
  5
915
  8
SJC
 10
5028.9317998701472
 20
4090.254502762316
 30
0.0
 11
6003.9317998701463
 21
4090.254502762316
 31
0.0
  0
TEXT
  5
916
  8
MOJI
 10
5287.795190993811
 20
3955.6695891817881
 30
0.0
 40
45.0
  1
KGSH00096
 41
0.8
  7
EXT08
  0
TEXT
  5
917
  8
MOJI
 10
5287.795190993811
 20
4030.6695891817872
 30
0.0
 40
45.0
  1
KSP-8-20W(C)
 41
0.8
  7
EXT08
  0
TEXT
  5
918
  8
MOJI
 10
5287.795190993811
 20
4105.6695891817872
 30
0.0
 40
45.0
  1
高強度セイフティパイプ
 41
0.8
  7
EXT08
  0
TEXT
  5
919
  8
MOJI
 10
5078.0889427272896
 20
4104.3545027623159
 30
0.0
 40
45.0
  1
タイプ
 41
0.8
  7
EXT08
 72
     4
 11
5141.4317998701463
 21
4127.7545027623164
 31
0.0
  0
LINE
  5
91A
  8
SJC
 10
5253.9317998701463
 20
3940.254502762316
 30
0.0
 11
5253.9317998701463
 21
4165.2545027623164
 31
0.0
  0
ARC
  5
91B
  8
SJC
 10
5051.4317998701472
 20
4142.7545027623173
 30
0.0
 40
22.5
 50
90.0
 51
180.0
  0
ARC
  5
91C
  8
SJC
 10
5051.4317998701472
 20
3962.7545027623169
 30
0.0
 40
22.5
 50
180.0
 51
270.0
  0
LINE
  5
91D
  8
SJC
 10
5028.9317998701472
 20
3962.7545027623169
 30
0.0
 11
5028.9317998701472
 21
4142.7545027623173
 31
0.0
  0
TEXT
  5
91E
  8
MOJI
 10
5081.4317998701463
 20
4030.2545027623169
 30
0.0
 40
45.0
  1
品  番
 41
0.8
  7
EXT08
 72
     4
 11
5141.4317998701463
 21
4052.754502762316
 31
0.0
  0
TEXT
  5
91F
  8
MOJI
 10
5058.6317998701461
 20
3955.2545027623169
 30
0.0
 40
45.0
  1
図面番号
 41
0.8
  7
EXT08
 72
     4
 11
5141.4317998701463
 21
3977.754502762316
 31
0.0
  0
ARC
  5
920
  8
SJC
 10
5981.4317998701463
 20
4142.7545027623173
 30
0.0
 40
22.5
 50
0.0
 51
90.0
  0
ARC
  5
921
  8
SJC
 10
5981.4317998701463
 20
3962.7545027623169
 30
0.0
 40
22.5
 50
270.0
 51
0.0
  0
LINE
  5
922
  8
SJC
 10
6003.9317998701463
 20
3962.7545027623169
 30
0.0
 11
6003.9317998701463
 21
4142.7545027623173
 31
0.0
  0
LINE
  5
EA7
  8
MOJI
 10
4628.2035786553051
 20
606.98140002950743
 30
0.0
 11
5691.0795432150417
 21
606.98140002950743
 31
0.0
  0
LINE
  5
EA8
  8
MOJI
 10
5691.0795432150417
 20
606.98140002950743
 30
0.0
 11
5691.0795432150408
 21
379.33704460698158
 31
0.0
  0
LINE
  5
EA9
  8
MOJI
 10
4918.9652661473556
 20
379.33704460698158
 30
0.0
 11
4918.9652661473556
 21
606.98140002950743
 31
0.0
  0
LINE
  5
EAA
  8
MOJI
 10
4628.2035786553051
 20
379.33704460698158
 30
0.0
 11
4628.2035786553051
 21
606.98140002950743
 31
0.0
  0
LINE
  5
EAB
  8
MOJI
 10
5148.1779996400837
 20
379.33704460698158
 30
0.0
 11
5148.1779996400865
 21
606.98140002950743
 31
0.0
  0
TEXT
  5
EAC
  8
MOJI
 10
4720.9511115145051
 20
547.64697883541544
 30
0.0
 40
45.0
  1
品  名
 41
0.8
  7
EXT08
 72
     1
 11
4779.7511115145062
 21
547.64697883541544
 31
0.0
  0
TEXT
  5
EAD
  8
MOJI
 10
4974.089531650653
 20
550.01827420440009
 30
0.0
 40
45.0
  1
材  質
 41
0.8
  7
EXT08
 72
     1
 11
5034.089531650653
 21
550.01827420440009
 31
0.0
  0
TEXT
  5
EAE
  8
MOJI
 10
5356.1241430000864
 20
546.03142712751298
 30
0.0
 40
45.0
  1
摘  要
 41
0.8
  7
EXT08
 72
     1
 11
5416.467000142944
 21
546.03142712751298
 31
0.0
  0
TEXT
  5
EAF
  8
MOJI
 10
4652.987367387932
 20
400.46383898699582
 30
0.0
 40
45.0
  1
ビームパイプ
 41
0.8
  7
EXT08
 72
     1
 11
4781.1302245307897
 21
400.46383898699582
 31
0.0
  0
TEXT
  5
EB0
  8
MOJI
 10
4717.7873673879321
 20
476.2168553221851
 30
0.0
 40
45.0
  1
主  柱
 41
0.8
  7
EXT08
 72
     1
 11
4777.7873673879321
 21
476.2168553221851
 31
0.0
  0
TEXT
  5
EB1
  8
MOJI
 10
4936.6704570057318
 20
476.2168553221851
 30
0.0
 40
45.0
  1
STK400
 41
0.8
  7
EXT08
 72
     1
 11
5036.9561712914456
 21
476.2168553221851
 31
0.0
  0
TEXT
  5
EB2
  8
MOJI
 10
5173.2560201200868
 20
476.2168553221851
 30
0.0
 40
45.0
  1
亜鉛めっき＋静電粉体塗装
 41
0.8
  7
EXT08
 72
     1
 11
5427.6560201200864
 21
476.2168553221851
 31
0.0
  0
LINE
  5
EC3
  8
MOJI
 10
4628.2035786553051
 20
531.09994822199883
 30
0.0
 11
5691.0795432150417
 21
531.09994822199883
 31
0.0
  0
LINE
  5
EC4
  8
MOJI
 10
4628.2035786553051
 20
455.21849641449018
 30
0.0
 11
5691.0795432150417
 21
455.21849641449018
 31
0.0
  0
LINE
  5
EC5
  8
MOJI
 10
4628.2035786553051
 20
379.33704460698158
 30
0.0
 11
5691.0795432150417
 21
379.33704460698158
 31
0.0
  0
TEXT
  5
ECC
  8
MOJI
 10
5173.2560201200868
 20
400.3354035146765
 30
0.0
 40
45.0
  1
亜鉛めっき＋静電粉体塗装
 41
0.8
  7
EXT08
 72
     1
 11
5427.6560201200864
 21
400.3354035146765
 31
0.0
  0
TEXT
  5
ECD
  8
MOJI
 10
4936.6704570057318
 20
400.3354035146765
 30
0.0
 40
45.0
  1
STK400
 41
0.8
  7
EXT08
 72
     1
 11
5036.9561712914456
 21
400.3354035146765
 31
0.0
  0
LINE
  5
1007
  8
SJC
 10
1115.4860412008959
 20
2151.572627995909
 30
0.0
 11
1115.4860412008959
 21
1551.572627995909
 31
0.0
1001
ACAD
1000
ASC_BOUNDS
1002
{
1070
    19
1002
}
  0
LINE
  5
1008
  8
SJC
 10
1515.486041200897
 20
2151.572627995909
 30
0.0
 11
1515.486041200897
 21
1551.572627995909
 31
0.0
1001
ACAD
1000
ASC_BOUNDS
1002
{
1070
    19
1002
}
  0
LINE
  5
1048
  8
HATCH
 10
1353.636041200896
 20
1708.186156616275
 30
0.0
 11
1515.486041200897
 21
1870.0361566162751
 31
0.0
  0
LINE
  5
1049
  8
HATCH
 10
1353.6360412008969
 20
1686.089069704195
 30
0.0
 11
1515.486041200897
 21
1847.9390697041949
 31
0.0
  0
LINE
  5
104A
  8
HATCH
 10
1353.6360412008969
 20
1663.991982792116
 30
0.0
 11
1515.486041200897
 21
1825.8419827921159
 31
0.0
  0
LINE
  5
10D2
  8
HATCH
 10
4910.1661588036186
 20
1551.572627995909
 30
0.0
 11
4946.285513599827
 21
1587.6919827921161
 31
0.0
  0
LINE
  5
10D3
  8
HATCH
 10
5086.9428541002571
 20
1551.572627995909
 30
0.0
 11
5184.4355135998276
 21
1649.065287495479
 31
0.0
  0
LINE
  5
10D4
  8
HATCH
 10
4888.0690718915403
 20
1551.572627995909
 30
0.0
 11
4946.285513599827
 21
1609.789069704196
 31
0.0
  0
LINE
  5
10D5
  8
HATCH
 10
5064.845767188177
 20
1551.572627995909
 30
0.0
 11
5184.4355135998267
 21
1671.1623744075589
 31
0.0
  0
LINE
  5
10D6
  8
HATCH
 10
4865.9719849794601
 20
1551.572627995909
 30
0.0
 11
4946.285513599827
 21
1631.886156616275
 31
0.0
  0
LINE
  5
10D7
  8
HATCH
 10
5042.7486802760968
 20
1551.572627995909
 30
0.0
 11
5184.4355135998276
 21
1693.2594613196391
 31
0.0
  0
TEXT
  5
110F
  8
MOJI
 10
981.53178366659313
 20
1123.648607357065
 30
0.0
 40
60.0
  1
※基礎寸法は参考値です。
 41
0.8
  7
EXT08
 72
     1
 11
1310.5603550951639
 21
1123.648607357065
 31
0.0
  0
LINE
  5
132D
  8
CENTER
 10
4415.4860412008957
 20
2913.4226279959089
 30
0.0
 11
3615.486041200897
 21
2913.4226279959089
 31
0.0
  0
LINE
  5
1331
  8
CENTER
 10
3415.4860412008961
 20
2713.4226279959089
 30
0.0
 11
3415.4860412008961
 21
1451.5726279959081
 31
0.0
  0
LINE
  5
1333
  8
SJC
 10
4415.4860412008957
 20
2151.572627995909
 30
0.0
 11
3453.6360412008962
 21
2151.572627995909
 31
0.0
1001
ACAD
1000
ASC_BOUNDS
1002
{
1070
    19
1002
}
  0
LINE
  5
138A
  8
SJC
 10
4415.4860412008957
 20
2951.5726279959099
 30
0.0
 11
3615.486041200897
 21
2951.572627995909
 31
0.0
  0
LINE
  5
138B
  8
SJC
 10
4415.4860412008957
 20
2875.2726279959088
 30
0.0
 11
3615.486041200897
 21
2875.2726279959088
 31
0.0
  0
LINE
  5
138C
  8
SJC
 10
3453.6360412008971
 20
2713.4226279959089
 30
0.0
 11
3453.6360412008971
 21
2675.8726279959092
 31
0.0
  0
LINE
  5
138D
  8
SJC
 10
3377.3360412008969
 20
2713.4226279959089
 30
0.0
 11
3377.3360412008969
 21
1551.572627995909
 31
0.0
  0
LINE
  5
1392
  8
SJC
 10
3453.6360412008971
 20
2627.272627995882
 30
0.0
 11
3453.6360412008971
 21
2425.8726279959092
 31
0.0
  0
LINE
  5
1393
  8
SJC
 10
3453.6360412008971
 20
2377.272627995882
 30
0.0
 11
3453.6360412008971
 21
1551.572627995909
 31
0.0
  0
ARC
  5
1394
  8
CENTER
 10
3615.486041200897
 20
2713.4226279959089
 30
0.0
 40
200.0
 50
90.0
 51
180.0
  0
ARC
  5
1395
  8
SJC
 10
3615.486041200897
 20
2713.4226279959089
 30
0.0
 40
238.15000000000001
 50
90.0
 51
180.0
  0
ARC
  5
1396
  8
SJC
 10
3615.486041200897
 20
2713.4226279959089
 30
0.0
 40
161.84999999999999
 50
90.0
 51
180.0
  0
LINE
  5
1397
  8
SJC
 10
4415.4860412008957
 20
2627.2726279959088
 30
0.0
 11
3453.6360412008748
 21
2627.2726279959088
 31
0.0
  0
LINE
  5
1398
  8
SJC
 10
4415.4860412008957
 20
2675.8726279959092
 30
0.0
 11
3453.6360412008971
 21
2675.8726279959092
 31
0.0
  0
ARC
  5
139A
  8
SJC
 10
3483.0457759837841
 20
2651.5726279958958
 30
0.0
 40
38.150000000005512
 50
140.43454069638369
 51
219.56545930361631
  0
LINE
  5
139B
  8
SJC
 10
4415.4860412008957
 20
2377.2726279959088
 30
0.0
 11
3453.6360412008748
 21
2377.2726279959088
 31
0.0
  0
LINE
  5
139C
  8
SJC
 10
4415.4860412008957
 20
2425.8726279959092
 30
0.0
 11
3453.6360412008971
 21
2425.8726279959092
 31
0.0
  0
ARC
  5
139E
  8
SJC
 10
3483.0457759837841
 20
2401.5726279958958
 30
0.0
 40
38.150000000005512
 50
140.43454069638369
 51
219.56545930361631
  0
LINE
  5
142C
  8
SJC2
 10
4415.4860412008957
 20
3051.5726279959108
 30
0.0
 11
4415.4860412008957
 21
2601.5726279959099
 31
0.0
  0
LINE
  5
1524
  8
SUNPOU
 10
3415.486041200897
 20
2728.4226279959089
 30
0.0
 11
3415.486041200897
 21
3198.0425213434009
 31
0.0
  0
LINE
  5
1526
  8
SUNPOU
 10
3445.486041200897
 20
3183.0425213434009
 30
0.0
 11
4415.4860412008957
 21
3183.0425213434009
 31
0.0
  0
SOLID
  5
1527
  8
SUNPOU
 10
3445.486041200897
 20
3188.0425213434009
 30
0.0
 11
3445.486041200897
 21
3178.0425213434
 31
0.0
 12
3415.486041200897
 22
3183.0425213434009
 32
0.0
 13
3415.486041200897
 23
3183.0425213434009
 33
0.0
  0
INSERT
  5
1529
  8
0
  2
*U15
 10
0.0
 20
0.0
 30
0.0
  0
LINE
  5
1567
  8
SJC2
 10
4390.4860412008966
 20
2601.5726279959099
 30
0.0
 11
4415.4860412008957
 21
2601.5726279959099
 31
0.0
  0
LINE
  5
1568
  8
SJC2
 10
4415.4860412008957
 20
2501.5726279959099
 30
0.0
 11
4440.4860412008957
 21
2501.5726279959099
 31
0.0
  0
LINE
  5
156B
  8
SJC2
 10
4390.4860412008966
 20
2601.5726279959099
 30
0.0
 11
4440.4860412008957
 21
2501.5726279959099
 31
0.0
  0
LINE
  5
156C
  8
SJC2
 10
4415.4860412008957
 20
2501.5726279959108
 30
0.0
 11
4415.4860412008957
 21
2051.572627995909
 31
0.0
  0
LINE
  5
15C6
  8
SJC
 10
3115.3500810793448
 20
1551.572627995909
 30
0.0
 11
3615.6220013224488
 21
1551.572627995909
 31
0.0
1001
ACAD
1000
ASC_BOUNDS
1002
{
1070
    19
1005
0
1002
}
  0
LINE
  5
15C7
  8
SJC
 10
3165.4860412008961
 20
2151.572627995909
 30
0.0
 11
3165.4860412008961
 21
1551.572627995909
 31
0.0
1001
ACAD
1000
ASC_BOUNDS
1002
{
1070
    19
1002
}
  0
LINE
  5
15C8
  8
SJC
 10
3565.486041200897
 20
2151.572627995909
 30
0.0
 11
3565.486041200897
 21
1551.572627995909
 31
0.0
1001
ACAD
1000
ASC_BOUNDS
1002
{
1070
    19
1002
}
  0
LINE
  5
15C9
  8
SJC
 10
3115.3500810793448
 20
1501.5726279959081
 30
0.0
 11
3615.6220013224488
 21
1501.5726279959081
 31
0.0
  0
POLYLINE
  5
15CA
  8
HATCH
 66
     1
 10
0.0
 20
0.0
 30
0.0
 70
     3
  0
VERTEX
  5
15CB
  8
HATCH
 10
3195.3500810793448
 20
1526.5726279959081
 30
0.0
 42
-0.1703036214138359
  0
VERTEX
  5
15CC
  8
HATCH
 10
3201.842270485763
 20
1545.080438589491
 30
0.0
 42
-0.2278377915826702
 70
     1
  0
VERTEX
  5
15CD
  8
HATCH
 10
3215.3500810793448
 20
1551.5726279959081
 30
0.0
 42
-0.2278377915826684
  0
VERTEX
  5
15CE
  8
HATCH
 10
3228.8578916729271
 20
1545.080438589491
 30
0.0
 42
-0.1703036214138354
 70
     1
  0
VERTEX
  5
15CF
  8
HATCH
 10
3235.3500810793448
 20
1526.5726279959081
 30
0.0
 42
-0.1703036214138303
  0
VERTEX
  5
15D0
  8
HATCH
 10
3228.857891672928
 20
1508.0648174023261
 30
0.0
 42
-0.2278377915826667
 70
     1
  0
VERTEX
  5
15D1
  8
HATCH
 10
3215.3500810793448
 20
1501.5726279959081
 30
0.0
 42
-0.2278377915826721
  0
VERTEX
  5
15D2
  8
HATCH
 10
3201.8422704857621
 20
1508.064817402327
 30
0.0
 42
-0.1703036214138317
 70
     1
  0
SEQEND
  5
15D3
  8
HATCH
  0
POLYLINE
  5
15D4
  8
HATCH
 66
     1
 10
0.0
 20
0.0
 30
0.0
 70
     3
  0
VERTEX
  5
15D5
  8
HATCH
 10
3155.3500810793448
 20
1526.5726279959081
 30
0.0
 42
-0.1703036214138359
  0
VERTEX
  5
15D6
  8
HATCH
 10
3161.8422704857639
 20
1545.080438589491
 30
0.0
 42
-0.2278377915826702
 70
     1
  0
VERTEX
  5
15D7
  8
HATCH
 10
3175.3500810793448
 20
1551.5726279959081
 30
0.0
 42
-0.2278377915826684
  0
VERTEX
  5
15D8
  8
HATCH
 10
3188.8578916729271
 20
1545.080438589491
 30
0.0
 42
-0.1703036214138354
 70
     1
  0
VERTEX
  5
15D9
  8
HATCH
 10
3195.3500810793448
 20
1526.5726279959081
 30
0.0
 42
-0.1703036214138303
  0
VERTEX
  5
15DA
  8
HATCH
 10
3188.857891672928
 20
1508.0648174023261
 30
0.0
 42
-0.2278377915826667
 70
     1
  0
VERTEX
  5
15DB
  8
HATCH
 10
3175.3500810793448
 20
1501.5726279959081
 30
0.0
 42
-0.2278377915826721
  0
VERTEX
  5
15DC
  8
HATCH
 10
3161.8422704857621
 20
1508.064817402327
 30
0.0
 42
-0.1703036214138317
 70
     1
  0
SEQEND
  5
15DD
  8
HATCH
  0
POLYLINE
  5
15DE
  8
HATCH
 66
     1
 10
0.0
 20
0.0
 30
0.0
 70
     3
  0
VERTEX
  5
15DF
  8
HATCH
 10
3115.3500810793448
 20
1526.5726279959081
 30
0.0
 42
-0.1703036214138359
  0
VERTEX
  5
15E0
  8
HATCH
 10
3121.842270485763
 20
1545.080438589491
 30
0.0
 42
-0.2278377915826702
 70
     1
  0
VERTEX
  5
15E1
  8
HATCH
 10
3135.3500810793448
 20
1551.5726279959081
 30
0.0
 42
-0.2278377915826684
  0
VERTEX
  5
15E2
  8
HATCH
 10
3148.8578916729271
 20
1545.080438589491
 30
0.0
 42
-0.1703036214138354
 70
     1
  0
VERTEX
  5
15E3
  8
HATCH
 10
3155.3500810793448
 20
1526.5726279959081
 30
0.0
 42
-0.1703036214138303
  0
VERTEX
  5
15E4
  8
HATCH
 10
3148.8578916729271
 20
1508.0648174023261
 30
0.0
 42
-0.2278377915826667
 70
     1
  0
VERTEX
  5
15E5
  8
HATCH
 10
3135.3500810793448
 20
1501.5726279959081
 30
0.0
 42
-0.2278377915826721
  0
VERTEX
  5
15E6
  8
HATCH
 10
3121.842270485763
 20
1508.064817402327
 30
0.0
 42
-0.1703036214138317
 70
     1
  0
SEQEND
  5
15E7
  8
HATCH
  0
LINE
  5
15E8
  8
SJC
 10
3115.3500810793448
 20
1501.5726279959081
 30
0.0
 11
3115.3500810793448
 21
1551.5726279959081
 31
0.0
  0
POLYLINE
  5
15F3
  8
HATCH
 66
     1
 10
0.0
 20
0.0
 30
0.0
 70
     3
  0
VERTEX
  5
15F4
  8
HATCH
 10
3235.3500810793448
 20
1526.5726279959081
 30
0.0
 42
-0.1703036214138359
  0
VERTEX
  5
15F5
  8
HATCH
 10
3241.8422704857639
 20
1545.080438589491
 30
0.0
 42
-0.2278377915826702
 70
     1
  0
VERTEX
  5
15F6
  8
HATCH
 10
3255.3500810793448
 20
1551.5726279959081
 30
0.0
 42
-0.2278377915826684
  0
VERTEX
  5
15F7
  8
HATCH
 10
3268.8578916729271
 20
1545.080438589491
 30
0.0
 42
-0.1703036214138354
 70
     1
  0
VERTEX
  5
15F8
  8
HATCH
 10
3275.3500810793448
 20
1526.5726279959081
 30
0.0
 42
-0.1703036214138303
  0
VERTEX
  5
15F9
  8
HATCH
 10
3268.857891672928
 20
1508.0648174023261
 30
0.0
 42
-0.2278377915826667
 70
     1
  0
VERTEX
  5
15FA
  8
HATCH
 10
3255.3500810793448
 20
1501.5726279959081
 30
0.0
 42
-0.2278377915826721
  0
VERTEX
  5
15FB
  8
HATCH
 10
3241.8422704857621
 20
1508.064817402327
 30
0.0
 42
-0.1703036214138317
 70
     1
  0
SEQEND
  5
15FC
  8
HATCH
  0
LINE
  5
161C
  8
HATCH
 10
3165.4860412008961
 20
1602.6186780887519
 30
0.0
 11
3277.336041200896
 21
1714.4686780887521
 31
0.0
  0
LINE
  5
161D
  8
HATCH
 10
3353.636041200898
 20
1790.7686780887529
 30
0.0
 11
3377.3360412008969
 21
1814.468678088753
 31
0.0
  0
LINE
  5
161E
  8
HATCH
 10
3165.4860412008961
 20
1779.39537338539
 30
0.0
 11
3277.336041200896
 21
1891.2453733853899
 31
0.0
  0
LINE
  5
161F
  8
HATCH
 10
3353.636041200898
 20
1967.5453733853899
 30
0.0
 11
3377.3360412008969
 21
1991.2453733853899
 31
0.0
  0
LINE
  5
1620
  8
HATCH
 10
3165.4860412008961
 20
1956.1720686820261
 30
0.0
 11
3277.336041200896
 21
2068.0220686820262
 31
0.0
  0
LINE
  5
1622
  8
HATCH
 10
3353.636041200898
 20
1613.991982792116
 30
0.0
 11
3377.3360412008969
 21
1637.6919827921149
 31
0.0
  0
LINE
  5
1623
  8
HATCH
 10
3165.4860412008961
 20
1624.7157650008321
 30
0.0
 11
3277.336041200896
 21
1736.5657650008329
 31
0.0
  0
LINE
  5
1624
  8
HATCH
 10
3353.636041200898
 20
1812.8657650008331
 30
0.0
 11
3377.3360412008969
 21
1836.565765000832
 31
0.0
  0
LINE
  5
1625
  8
HATCH
 10
3165.4860412008961
 20
1801.49246029747
 30
0.0
 11
3277.336041200896
 21
1913.342460297469
 31
0.0
  0
LINE
  5
1626
  8
HATCH
 10
3353.636041200898
 20
1989.6424602974701
 30
0.0
 11
3377.3360412008969
 21
2013.342460297469
 31
0.0
  0
LINE
  5
1627
  8
HATCH
 10
3165.4860412008961
 20
1978.269155594106
 30
0.0
 11
3277.336041200896
 21
2090.1191555941059
 31
0.0
  0
LINE
  5
1628
  8
HATCH
 10
3269.1195994926102
 20
1551.572627995909
 30
0.0
 11
3277.336041200896
 21
1559.7890697041951
 31
0.0
  0
LINE
  5
1629
  8
HATCH
 10
3353.636041200898
 20
1636.089069704195
 30
0.0
 11
3377.3360412008969
 21
1659.7890697041951
 31
0.0
  0
LINE
  5
162A
  8
HATCH
 10
3453.6360412008971
 20
1559.3123744075599
 30
0.0
 11
3565.486041200897
 21
1671.1623744075589
 31
0.0
  0
LINE
  5
162B
  8
HATCH
 10
3170.2458172838928
 20
1651.572627995909
 30
0.0
 11
3277.336041200896
 21
1758.6628519129119
 31
0.0
  0
LINE
  5
162C
  8
HATCH
 10
3353.636041200898
 20
1834.9628519129119
 30
0.0
 11
3377.3360412008969
 21
1858.662851912911
 31
0.0
  0
LINE
  5
162D
  8
HATCH
 10
3165.4860412008961
 20
1823.589547209549
 30
0.0
 11
3277.336041200896
 21
1935.4395472095489
 31
0.0
  0
LINE
  5
162E
  8
HATCH
 10
3353.6360412008971
 20
2011.7395472095491
 30
0.0
 11
3377.3360412008969
 21
2035.4395472095489
 31
0.0
  0
LINE
  5
162F
  8
HATCH
 10
3165.4860412008961
 20
2000.3662425061859
 30
0.0
 11
3277.336041200896
 21
2112.2162425061852
 31
0.0
  0
LINE
  5
1630
  8
HATCH
 10
3247.0225125805309
 20
1551.572627995909
 30
0.0
 11
3277.336041200896
 21
1581.8861566162741
 31
0.0
  0
LINE
  5
1631
  8
HATCH
 10
3353.6360412008971
 20
1658.186156616275
 30
0.0
 11
3377.3360412008969
 21
1681.886156616275
 31
0.0
  0
LINE
  5
1632
  8
HATCH
 10
3453.6360412008962
 20
1581.4094613196371
 30
0.0
 11
3565.486041200897
 21
1693.2594613196379
 31
0.0
  0
LINE
  5
1633
  8
HATCH
 10
3165.4860412008961
 20
2132.9487639786639
 30
0.0
 11
3184.109905218143
 21
2151.572627995909
 31
0.0
  0
LINE
  5
1634
  8
HATCH
 10
3467.9933817013271
 20
1551.572627995909
 30
0.0
 11
3565.486041200897
 21
1649.0652874954769
 31
0.0
  0
LINE
  5
16E3
  8
SJC
 10
3453.6360412008962
 20
2151.572627995909
 30
0.0
 11
3577.3360412008969
 21
2151.572627995909
 31
0.0
1001
ACAD
1000
ASC_BOUNDS
1002
{
1070
    19
1005
0
1002
}
  0
LINE
  5
16E7
  8
SJC
 10
3565.486041200897
 20
2151.572627995909
 30
0.0
 11
3565.486041200897
 21
1551.572627995909
 31
0.0
1001
ACAD
1000
ASC_BOUNDS
1002
{
1070
    19
1002
}
  0
POLYLINE
  5
172E
  8
HATCH
 66
     1
 10
0.0
 20
0.0
 30
0.0
 70
     3
  0
VERTEX
  5
172F
  8
HATCH
 10
4854.299553478274
 20
1526.5726279959081
 30
0.0
 42
-0.1703036214138359
  0
VERTEX
  5
1730
  8
HATCH
 10
4860.7917428846931
 20
1545.080438589491
 30
0.0
 42
-0.2278377915826702
 70
     1
  0
VERTEX
  5
1731
  8
HATCH
 10
4874.2995534782749
 20
1551.5726279959081
 30
0.0
 42
-0.2278377915826684
  0
VERTEX
  5
1732
  8
HATCH
 10
4887.8073640718567
 20
1545.080438589491
 30
0.0
 42
-0.1703036214138354
 70
     1
  0
VERTEX
  5
1733
  8
HATCH
 10
4894.2995534782749
 20
1526.5726279959081
 30
0.0
 42
-0.1703036214138303
  0
VERTEX
  5
1734
  8
HATCH
 10
4887.8073640718567
 20
1508.0648174023261
 30
0.0
 42
-0.2278377915826667
 70
     1
  0
VERTEX
  5
1735
  8
HATCH
 10
4874.2995534782749
 20
1501.5726279959081
 30
0.0
 42
-0.2278377915826721
  0
VERTEX
  5
1736
  8
HATCH
 10
4860.7917428846931
 20
1508.064817402327
 30
0.0
 42
-0.1703036214138317
 70
     1
  0
SEQEND
  5
1737
  8
HATCH
  0
POLYLINE
  5
1738
  8
HATCH
 66
     1
 10
0.0
 20
0.0
 30
0.0
 70
     3
  0
VERTEX
  5
1739
  8
HATCH
 10
5073.3540372121688
 20
1526.5726279959081
 30
0.0
 42
-0.1703036214138359
  0
VERTEX
  5
173A
  8
HATCH
 10
5079.846226618587
 20
1545.0804385894901
 30
0.0
 42
-0.2278377915826702
 70
     1
  0
VERTEX
  5
173B
  8
HATCH
 10
5093.3540372121688
 20
1551.5726279959081
 30
0.0
 42
-0.2278377915826684
  0
VERTEX
  5
173C
  8
HATCH
 10
5106.8618478057506
 20
1545.0804385894901
 30
0.0
 42
-0.1703036214138354
 70
     1
  0
VERTEX
  5
173D
  8
HATCH
 10
5113.3540372121679
 20
1526.5726279959081
 30
0.0
 42
-0.1703036214138303
  0
VERTEX
  5
173E
  8
HATCH
 10
5106.8618478057524
 20
1508.0648174023261
 30
0.0
 42
-0.2278377915826667
 70
     1
  0
VERTEX
  5
173F
  8
HATCH
 10
5093.3540372121688
 20
1501.5726279959081
 30
0.0
 42
-0.2278377915826721
  0
VERTEX
  5
1740
  8
HATCH
 10
5079.8462266185861
 20
1508.0648174023261
 30
0.0
 42
-0.1703036214138317
 70
     1
  0
SEQEND
  5
1741
  8
HATCH
  0
DIMENSION
  5
1742
  8
SUNPOU
  2
*D13
 10
5184.4355135998276
 20
1350.385379250705
 30
0.0
 11
4984.4355135998267
 21
1390.885379250705
 31
0.0
 70
     0
 13
4784.4355135998267
 23
1551.572627995909
 33
0.0
 14
5184.4355135998276
 24
1551.572627995909
 34
0.0
1001
ACAD
1000
DSTYLE
1002
{
1070
   287
1070
     5
1070
    40
1040
15.0
1070
    41
1040
2.0
1070
    42
1040
1.0
1070
    43
1040
6.0
1070
    44
1040
1.0
1070
    73
1070
     0
1070
    74
1070
     0
1070
    77
1070
     1
1070
    78
1070
     8
1070
   140
1040
3.0
1070
   147
1040
1.1999999999999991
1070
   172
1070
     1
1070
   179
1070
     2
1070
   271
1070
     2
1070
   279
1070
     2
1070
   340
1005
11D
1002
}
  0
POLYLINE
  5
179C
  8
HATCH
 66
     1
 10
0.0
 20
0.0
 30
0.0
 70
     3
  0
VERTEX
  5
179D
  8
HATCH
 10
3535.6220013224488
 20
1526.5726279959081
 30
0.0
 42
0.1703036214138359
  0
VERTEX
  5
179E
  8
HATCH
 10
3529.129811916031
 20
1545.080438589491
 30
0.0
 42
0.2278377915826702
 70
     1
  0
VERTEX
  5
179F
  8
HATCH
 10
3515.6220013224479
 20
1551.5726279959081
 30
0.0
 42
0.2278377915826684
  0
VERTEX
  5
17A0
  8
HATCH
 10
3502.114190728867
 20
1545.080438589491
 30
0.0
 42
0.1703036214138354
 70
     1
  0
VERTEX
  5
17A1
  8
HATCH
 10
3495.6220013224479
 20
1526.5726279959081
 30
0.0
 42
0.1703036214138303
  0
VERTEX
  5
17A2
  8
HATCH
 10
3502.1141907288661
 20
1508.0648174023261
 30
0.0
 42
0.2278377915826667
 70
     1
  0
VERTEX
  5
17A3
  8
HATCH
 10
3515.6220013224479
 20
1501.5726279959081
 30
0.0
 42
0.2278377915826721
  0
VERTEX
  5
17A4
  8
HATCH
 10
3529.129811916031
 20
1508.064817402327
 30
0.0
 42
0.1703036214138317
 70
     1
  0
SEQEND
  5
17A5
  8
HATCH
  0
POLYLINE
  5
17A6
  8
HATCH
 66
     1
 10
0.0
 20
0.0
 30
0.0
 70
     3
  0
VERTEX
  5
17A7
  8
HATCH
 10
3575.6220013224488
 20
1526.5726279959081
 30
0.0
 42
0.1703036214138359
  0
VERTEX
  5
17A8
  8
HATCH
 10
3569.1298119160301
 20
1545.080438589491
 30
0.0
 42
0.2278377915826702
 70
     1
  0
VERTEX
  5
17A9
  8
HATCH
 10
3555.6220013224479
 20
1551.5726279959081
 30
0.0
 42
0.2278377915826684
  0
VERTEX
  5
17AA
  8
HATCH
 10
3542.114190728867
 20
1545.080438589491
 30
0.0
 42
0.1703036214138354
 70
     1
  0
VERTEX
  5
17AB
  8
HATCH
 10
3535.6220013224488
 20
1526.5726279959081
 30
0.0
 42
0.1703036214138303
  0
VERTEX
  5
17AC
  8
HATCH
 10
3542.1141907288661
 20
1508.0648174023261
 30
0.0
 42
0.2278377915826667
 70
     1
  0
VERTEX
  5
17AD
  8
HATCH
 10
3555.6220013224479
 20
1501.5726279959081
 30
0.0
 42
0.2278377915826721
  0
VERTEX
  5
17AE
  8
HATCH
 10
3569.129811916031
 20
1508.064817402327
 30
0.0
 42
0.1703036214138317
 70
     1
  0
SEQEND
  5
17AF
  8
HATCH
  0
POLYLINE
  5
17B0
  8
HATCH
 66
     1
 10
0.0
 20
0.0
 30
0.0
 70
     3
  0
VERTEX
  5
17B1
  8
HATCH
 10
3615.6220013224479
 20
1526.5726279959081
 30
0.0
 42
0.1703036214138359
  0
VERTEX
  5
17B2
  8
HATCH
 10
3609.1298119160301
 20
1545.080438589491
 30
0.0
 42
0.2278377915826702
 70
     1
  0
VERTEX
  5
17B3
  8
HATCH
 10
3595.6220013224479
 20
1551.5726279959081
 30
0.0
 42
0.2278377915826684
  0
VERTEX
  5
17B4
  8
HATCH
 10
3582.114190728867
 20
1545.080438589491
 30
0.0
 42
0.1703036214138354
 70
     1
  0
VERTEX
  5
17B5
  8
HATCH
 10
3575.6220013224488
 20
1526.5726279959081
 30
0.0
 42
0.1703036214138303
  0
VERTEX
  5
17B6
  8
HATCH
 10
3582.1141907288661
 20
1508.0648174023261
 30
0.0
 42
0.2278377915826667
 70
     1
  0
VERTEX
  5
17B7
  8
HATCH
 10
3595.6220013224479
 20
1501.5726279959081
 30
0.0
 42
0.2278377915826721
  0
VERTEX
  5
17B8
  8
HATCH
 10
3609.129811916031
 20
1508.064817402327
 30
0.0
 42
0.1703036214138317
 70
     1
  0
SEQEND
  5
17B9
  8
HATCH
  0
LINE
  5
17BA
  8
SJC
 10
3615.6220013224479
 20
1501.5726279959081
 30
0.0
 11
3615.6220013224479
 21
1551.5726279959081
 31
0.0
  0
POLYLINE
  5
17BB
  8
HATCH
 66
     1
 10
0.0
 20
0.0
 30
0.0
 70
     3
  0
VERTEX
  5
17BC
  8
HATCH
 10
3495.6220013224479
 20
1526.5726279959081
 30
0.0
 42
0.1703036214138359
  0
VERTEX
  5
17BD
  8
HATCH
 10
3489.1298119160301
 20
1545.080438589491
 30
0.0
 42
0.2278377915826702
 70
     1
  0
VERTEX
  5
17BE
  8
HATCH
 10
3475.6220013224488
 20
1551.5726279959081
 30
0.0
 42
0.2278377915826684
  0
VERTEX
  5
17BF
  8
HATCH
 10
3462.114190728867
 20
1545.080438589491
 30
0.0
 42
0.1703036214138354
 70
     1
  0
VERTEX
  5
17C0
  8
HATCH
 10
3455.6220013224479
 20
1526.5726279959081
 30
0.0
 42
0.1703036214138303
  0
VERTEX
  5
17C1
  8
HATCH
 10
3462.1141907288661
 20
1508.0648174023261
 30
0.0
 42
0.2278377915826667
 70
     1
  0
VERTEX
  5
17C2
  8
HATCH
 10
3475.6220013224488
 20
1501.5726279959081
 30
0.0
 42
0.2278377915826721
  0
VERTEX
  5
17C3
  8
HATCH
 10
3489.129811916031
 20
1508.064817402327
 30
0.0
 42
0.1703036214138317
 70
     1
  0
SEQEND
  5
17C4
  8
HATCH
  0
LINE
  5
17C5
  8
SJC
 10
3453.6360412008962
 20
2151.572627995909
 30
0.0
 11
3677.336041200896
 21
2151.572627995909
 31
0.0
1001
ACAD
1000
ASC_BOUNDS
1002
{
1070
    19
1002
}
  0
LINE
  5
17C6
  8
HATCH
 10
3453.6360412008971
 20
1890.7686780887529
 30
0.0
 11
3565.486041200897
 21
2002.6186780887531
 31
0.0
  0
LINE
  5
17C7
  8
HATCH
 10
3453.6360412008971
 20
1912.8657650008331
 30
0.0
 11
3565.486041200897
 21
2024.7157650008321
 31
0.0
  0
LINE
  5
17C8
  8
HATCH
 10
3453.6360412008971
 20
1934.962851912911
 30
0.0
 11
3565.486041200897
 21
2046.812851912912
 31
0.0
  0
LINE
  5
17C9
  8
HATCH
 10
3453.6360412008962
 20
2067.5453733853892
 30
0.0
 11
3537.663295811416
 21
2151.572627995909
 31
0.0
  0
LINE
  5
17CA
  8
HATCH
 10
3453.6360412008971
 20
2089.6424602974689
 30
0.0
 11
3515.5662088993372
 21
2151.572627995909
 31
0.0
  0
LINE
  5
17CB
  8
HATCH
 10
3453.6360412008962
 20
2111.7395472095491
 30
0.0
 11
3493.4691219872579
 21
2151.5726279959099
 31
0.0
  0
LINE
  5
17CC
  8
HATCH
 10
3453.6360412008962
 20
1758.186156616275
 30
0.0
 11
3565.486041200897
 21
1870.0361566162751
 31
0.0
  0
LINE
  5
17CD
  8
HATCH
 10
3453.6360412008971
 20
1736.089069704195
 30
0.0
 11
3565.486041200897
 21
1847.9390697041949
 31
0.0
  0
LINE
  5
17CE
  8
HATCH
 10
3453.6360412008971
 20
1713.9919827921151
 30
0.0
 11
3565.486041200897
 21
1825.8419827921159
 31
0.0
  0
DIMENSION
  5
17DB
  8
SUNPOU
  2
*D14
 10
3415.4860412008961
 20
3181.1818409568459
 30
0.0
 11
3365.486041200897
 21
3245.6818409568468
 31
0.0
 70
     0
 13
3315.486041200897
 23
2713.4226279959089
 33
0.0
 14
3415.4860412008961
 24
2713.4226279959089
 34
0.0
1001
ACAD
1000
DSTYLE
1002
{
1070
   287
1070
     5
1070
    40
1040
15.0
1070
    41
1040
2.0
1070
    42
1040
1.0
1070
    43
1040
6.0
1070
    44
1040
1.0
1070
    73
1070
     0
1070
    74
1070
     0
1070
    77
1070
     1
1070
    78
1070
     8
1070
   140
1040
3.0
1070
   147
1040
1.1999999999999991
1070
   172
1070
     1
1070
   179
1070
     2
1070
   271
1070
     2
1070
   279
1070
     2
1070
   340
1005
11D
1002
}
  0
TEXT
  5
1907
  8
MOJI
 10
4075.6829413939058
 20
282.74555736020147
 30
0.0
 40
60.0
  1
※本製品は車両用防護柵の強度を保有するものではありません。
 41
0.8
  7
EXT08
 72
     1
 11
4894.3115128224781
 21
282.74555736020147
 31
0.0
  0
ENDSEC
  0
EOF
