  0
SECTION
  2
HEADER
  9
$ACADVER
  1
AC1009
  9
$INSBASE
 10
0.0
 20
0.0
 30
0.0
  9
$EXTMIN
 10
0.0
 20
0.0
 30
0.0
  9
$EXTMAX
 10
6150.0
 20
4305.0
 30
0.0
  9
$LIMMIN
 10
0.0
 20
0.0
  9
$LIMMAX
 10
6300.0
 20
4455.0
  9
$ORTHOMODE
 70
     1
  9
$REGENMODE
 70
     1
  9
$FILLMODE
 70
     1
  9
$QTEXTMODE
 70
     0
  9
$MIRRTEXT
 70
     0
  9
$DRAGMODE
 70
     2
  9
$LTSCALE
 40
150.0
  9
$OSMODE
 70
    37
  9
$ATTMODE
 70
     1
  9
$TEXTSIZE
 40
45.0
  9
$TRACEWID
 40
1.0
  9
$TEXTSTYLE
  7
EXT08
  9
$CLAYER
  8
0
  9
$CELTYPE
  6
BYLAYER
  9
$CECOLOR
 62
   256
  9
$DIMSCALE
 40
15.0
  9
$DIMASZ
 40
2.0
  9
$DIMEXO
 40
1.0
  9
$DIMDLI
 40
6.0
  9
$DIMRND
 40
0.0
  9
$DIMDLE
 40
0.0
  9
$DIMEXE
 40
1.0
  9
$DIMTP
 40
0.0
  9
$DIMTM
 40
0.0
  9
$DIMTXT
 40
3.0
  9
$DIMCEN
 40
0.09
  9
$DIMTSZ
 40
0.0
  9
$DIMTOL
 70
     0
  9
$DIMLIM
 70
     0
  9
$DIMTIH
 70
     0
  9
$DIMTOH
 70
     0
  9
$DIMSE1
 70
     0
  9
$DIMSE2
 70
     0
  9
$DIMTAD
 70
     1
  9
$DIMZIN
 70
     8
  9
$DIMBLK
  1

  9
$DIMASO
 70
     1
  9
$DIMSHO
 70
     1
  9
$DIMPOST
  1

  9
$DIMAPOST
  1

  9
$DIMALT
 70
     0
  9
$DIMALTD
 70
     2
  9
$DIMALTF
 40
25.399999999999999
  9
$DIMLFAC
 40
1.0
  9
$DIMTOFL
 70
     1
  9
$DIMTVP
 40
0.0
  9
$DIMTIX
 70
     0
  9
$DIMSOXD
 70
     0
  9
$DIMSAH
 70
     0
  9
$DIMBLK1
  1

  9
$DIMBLK2
  1

  9
$DIMSTYLE
  2
SJC
  9
$DIMCLRD
 70
     0
  9
$DIMCLRE
 70
     0
  9
$DIMCLRT
 70
     0
  9
$DIMTFAC
 40
1.0
  9
$DIMGAP
 40
1.1999999999999991
  9
$LUNITS
 70
     2
  9
$LUPREC
 70
     2
  9
$SKETCHINC
 40
1.0
  9
$FILLETRAD
 40
200.0
  9
$AUNITS
 70
     0
  9
$AUPREC
 70
     0
  9
$MENU
  1
.
  9
$ELEVATION
 40
0.0
  9
$PELEVATION
 40
0.0
  9
$THICKNESS
 40
0.0
  9
$LIMCHECK
 70
     0
  9
$BLIPMODE
 70
     0
  9
$CHAMFERA
 40
0.0
  9
$CHAMFERB
 40
0.0
  9
$SKPOLY
 70
     0
  9
$TDCREATE
 40
2456287.4708731128
  9
$TDUPDATE
 40
2456560.4228577078
  9
$TDINDWG
 40
0.2839006944
  9
$TDUSRTIMER
 40
0.2839005093
  9
$USRTIMER
 70
     1
  9
$ANGBASE
 50
0.0
  9
$ANGDIR
 70
     0
  9
$PDMODE
 70
    33
  9
$PDSIZE
 40
5.0
  9
$PLINEWID
 40
0.0
  9
$COORDS
 70
     1
  9
$SPLFRAME
 70
     0
  9
$SPLINETYPE
 70
     6
  9
$SPLINESEGS
 70
     8
  9
$ATTDIA
 70
     0
  9
$ATTREQ
 70
     1
  9
$HANDLING
 70
     1
  9
$HANDSEED
  5
199A
  9
$SURFTAB1
 70
     6
  9
$SURFTAB2
 70
     6
  9
$SURFTYPE
 70
     6
  9
$SURFU
 70
     6
  9
$SURFV
 70
     6
  9
$UCSNAME
  2

  9
$UCSORG
 10
0.0
 20
0.0
 30
0.0
  9
$UCSXDIR
 10
1.0
 20
0.0
 30
0.0
  9
$UCSYDIR
 10
0.0
 20
1.0
 30
0.0
  9
$PUCSNAME
  2

  9
$PUCSORG
 10
0.0
 20
0.0
 30
0.0
  9
$PUCSXDIR
 10
1.0
 20
0.0
 30
0.0
  9
$PUCSYDIR
 10
0.0
 20
1.0
 30
0.0
  9
$USERI1
 70
     3
  9
$USERI2
 70
    15
  9
$USERI3
 70
     0
  9
$USERI4
 70
     0
  9
$USERI5
 70
     0
  9
$USERR1
 40
0.0
  9
$USERR2
 40
0.0
  9
$USERR3
 40
0.0
  9
$USERR4
 40
0.0
  9
$USERR5
 40
0.0
  9
$WORLDVIEW
 70
     1
  9
$SHADEDGE
 70
     3
  9
$SHADEDIF
 70
    70
  9
$TILEMODE
 70
     1
  9
$MAXACTVP
 70
    64
  9
$PLIMCHECK
 70
     0
  9
$PEXTMIN
 10
0.0
 20
0.0
 30
0.0
  9
$PEXTMAX
 10
0.0
 20
0.0
 30
0.0
  9
$PLIMMIN
 10
0.0
 20
0.0
  9
$PLIMMAX
 10
12.0
 20
9.0
  9
$UNITMODE
 70
     0
  9
$VISRETAIN
 70
     1
  9
$PLINEGEN
 70
     0
  9
$PSLTSCALE
 70
     1
  0
ENDSEC
  0
SECTION
  2
TABLES
  0
TABLE
  2
VPORT
 70
     2
  0
VPORT
  2
*ACTIVE
 70
     0
 10
0.0
 20
0.0
 11
1.0
 21
1.0
 12
7790.5659069085887
 22
2112.2664041140602
 13
0.0
 23
0.0
 14
10.0
 24
10.0
 15
10.0
 25
10.0
 16
0.0
 26
0.0
 36
1.0
 17
0.0
 27
0.0
 37
0.0
 40
6964.2042678115349
 41
1.9010526315789471
 42
50.0
 43
0.0
 44
0.0
 50
0.0
 51
0.0
 71
     0
 72
  1000
 73
     1
 74
     3
 75
     0
 76
     0
 77
     0
 78
     0
  0
ENDTAB
  0
TABLE
  2
LTYPE
 70
     4
  0
LTYPE
  2
CONTINUOUS
 70
     0
  3
Solid line
 72
    65
 73
     0
 40
0.0
  0
LTYPE
  2
PHANTOM
 70
     0
  3
Phantom ______  __  __  ______  __  __  ______
 72
    65
 73
     6
 40
2.5
 49
1.25
 49
-0.25
 49
0.25
 49
-0.25
 49
0.25
 49
-0.25
  0
LTYPE
  2
CENTER
 70
     0
  3
Center ____ _ ____ _ ____ _ ____ _ ____ _ ____
 72
    65
 73
     4
 40
2.0
 49
1.25
 49
-0.25
 49
0.25
 49
-0.25
  0
LTYPE
  2
HIDDEN
 70
     0
  3
Hidden __ __ __ __ __ __ __ __ __ __ __ __ __ _
 72
    65
 73
     2
 40
0.375
 49
0.25
 49
-0.125
  0
ENDTAB
  0
TABLE
  2
LAYER
 70
    15
  0
LAYER
  2
0
 70
     0
 62
     7
  6
CONTINUOUS
  0
LAYER
  2
ZWAKU
 70
     1
 62
    -7
  6
CONTINUOUS
  0
LAYER
  2
SJC
 70
     0
 62
     1
  6
CONTINUOUS
  0
LAYER
  2
INFORMATION
 70
     1
 62
     7
  6
CONTINUOUS
  0
LAYER
  2
SJC2
 70
     0
 62
     7
  6
CONTINUOUS
  0
LAYER
  2
KASOU
 70
     0
 62
     2
  6
PHANTOM
  0
LAYER
  2
CENTER
 70
     0
 62
     3
  6
CENTER
  0
LAYER
  2
SUNPOU
 70
     0
 62
     4
  6
CONTINUOUS
  0
LAYER
  2
WAKU
 70
     0
 62
     5
  6
CONTINUOUS
  0
LAYER
  2
MOJI
 70
     0
 62
     6
  6
CONTINUOUS
  0
LAYER
  2
MOJI2
 70
     0
 62
     1
  6
CONTINUOUS
  0
LAYER
  2
HASEN
 70
     0
 62
     7
  6
HIDDEN
  0
LAYER
  2
HATCH
 70
     0
 62
     2
  6
CONTINUOUS
  0
LAYER
  2
HOJO
 70
     0
 62
    -8
  6
CONTINUOUS
  0
LAYER
  2
DEFPOINTS
 70
     0
 62
     7
  6
CONTINUOUS
  0
ENDTAB
  0
TABLE
  2
STYLE
 70
     8
  0
STYLE
  2
STANDARD
 70
     0
 40
0.0
 41
1.0
 50
0.0
 71
     0
 42
3.0
  3
txt.shx
  4
extfont2.shx
  0
STYLE
  2
KANJI
 70
     0
 40
0.0
 41
1.0
 50
0.0
 71
     0
 42
0.0
  3
ROMANS.SHX
  4
BIGFONT.SHX
  0
STYLE
  2
SIMPLEX
 70
     0
 40
0.0
 41
1.0
 50
0.0
 71
     0
 42
0.0
  3
SCRIPTS.shx
  4

  0
STYLE
  2
TATEEXT
 70
     4
 40
0.0
 41
1.0
 50
0.0
 71
     0
 42
0.0
  3
ROMANS.shx
  4
EXTFONT.shx
  0
STYLE
  2
TATEBIG
 70
     4
 40
0.0
 41
1.0
 50
0.0
 71
     0
 42
0.0
  3
ROMANS.shx
  4
BIGFONT.shx
  0
STYLE
  2
EXT08
 70
     0
 40
0.0
 41
0.8
 50
0.0
 71
     0
 42
45.0
  3
ROMANS.shx
  4
EXTFONT.shx
  0
STYLE
  2
EXT
 70
     0
 40
0.0
 41
1.0
 50
0.0
 71
     0
 42
0.0
  3
ROMANS.shx
  4
EXTFONT.shx
  0
STYLE
  2
KANJI08
 70
     0
 40
0.0
 41
0.8
 50
0.0
 71
     0
 42
0.0
  3
ROMANS.shx
  4
BIGFONT.shx
  0
ENDTAB
  0
TABLE
  2
VIEW
 70
     0
  0
ENDTAB
  0
TABLE
  2
UCS
 70
     0
  0
ENDTAB
  0
TABLE
  2
APPID
 70
     2
  0
APPID
  2
ACAD
 70
     0
  0
APPID
  2
ACAD_PSEXT
 70
     0
  0
ENDTAB
  0
TABLE
  2
DIMSTYLE
 70
     5
  0
DIMSTYLE
  2
ISO-25
 70
     0
  3

  4

  5

  6

  7

 40
1.0
 41
2.5
 42
0.625
 43
3.75
 44
1.25
 45
0.0
 46
0.0
 47
0.0
 48
0.0
140
2.5
141
2.5
142
0.0
143
0.03937007874016
144
1.0
145
0.0
146
1.0
147
0.625
 71
     0
 72
     0
 73
     0
 74
     0
 75
     0
 76
     0
 77
     1
 78
     8
170
     0
171
     3
172
     1
173
     0
174
     0
175
     0
176
     0
177
     0
178
     0
  0
DIMSTYLE
  2
STANDARD
 70
     0
  3

  4

  5

  6

  7

 40
1.0
 41
0.18
 42
0.0625
 43
0.38
 44
0.18
 45
0.0
 46
0.0
 47
0.0
 48
0.0
140
0.18
141
0.09
142
0.0
143
25.399999999999999
144
1.0
145
0.0
146
1.0
147
0.09
 71
     0
 72
     0
 73
     1
 74
     1
 75
     0
 76
     0
 77
     0
 78
     0
170
     0
171
     2
172
     0
173
     0
174
     0
175
     0
176
     0
177
     0
178
     0
  0
DIMSTYLE
  2
RUISEKI1
 70
     0
  3

  4

  5

  6
DOT
  7

 40
15.0
 41
2.0
 42
1.0
 43
6.0
 44
30.0
 45
0.0
 46
0.0
 47
0.0
 48
0.0
140
0.18
141
0.09
142
0.0
143
25.399999999999999
144
1.0
145
0.0
146
1.0
147
1.5
 71
     0
 72
     0
 73
     1
 74
     1
 75
     0
 76
     0
 77
     1
 78
     0
170
     0
171
     2
172
     0
173
     1
174
     0
175
     0
176
     0
177
     0
178
     0
  0
DIMSTYLE
  2
RUISEKI2
 70
     0
  3

  4

  5

  6
NONE
  7

 40
15.0
 41
2.0
 42
1.0
 43
6.0
 44
30.0
 45
0.0
 46
0.0
 47
0.0
 48
0.0
140
0.18
141
0.09
142
0.0
143
25.399999999999999
144
1.0
145
0.0
146
1.0
147
1.5
 71
     0
 72
     0
 73
     1
 74
     1
 75
     0
 76
     0
 77
     1
 78
     0
170
     0
171
     2
172
     0
173
     1
174
     0
175
     0
176
     0
177
     0
178
     0
  0
DIMSTYLE
  2
SJC
 70
     0
  3

  4

  5

  6

  7

 40
1.0
 41
0.18
 42
0.0625
 43
0.38
 44
0.18
 45
0.0
 46
0.0
 47
0.0
 48
0.0
140
0.18
141
0.09
142
0.0
143
25.399999999999999
144
1.0
145
0.0
146
1.0
147
0.09
 71
     0
 72
     0
 73
     1
 74
     1
 75
     0
 76
     0
 77
     0
 78
     0
170
     0
171
     2
172
     0
173
     0
174
     0
175
     0
176
     0
177
     0
178
     0
  0
ENDTAB
  0
ENDSEC
  0
SECTION
  2
BLOCKS
  0
BLOCK
  8
0
  2
$MODEL_SPACE
 70
     0
 10
0.0
 20
0.0
 30
0.0
  3
$MODEL_SPACE
  1

  0
ENDBLK
  5
21
  8
0
  0
BLOCK
 67
     1
  8
0
  2
$PAPER_SPACE
 70
     0
 10
0.0
 20
0.0
 30
0.0
  3
$PAPER_SPACE
  1

  0
ENDBLK
  5
D5
 67
     1
  8
0
  0
BLOCK
  8
0
  2
SEIKO_LS-1100A3
 70
     0
 10
0.0
 20
0.0
 30
0.0
  3
SEIKO_LS-1100A3
  1

  0
POLYLINE
  5
F8
  8
ZWAKU
 66
     1
 10
0.0
 20
0.0
 30
0.0
 70
     1
  0
VERTEX
  5
1817
  8
ZWAKU
 10
0.0
 20
0.0
 30
0.0
  0
VERTEX
  5
1818
  8
ZWAKU
 10
0.0
 20
287.0
 30
0.0
  0
VERTEX
  5
1819
  8
ZWAKU
 10
410.0
 20
287.0
 30
0.0
  0
VERTEX
  5
181A
  8
ZWAKU
 10
410.0
 20
0.0
 30
0.0
  0
SEQEND
  5
181B
  8
ZWAKU
  0
ENDBLK
  5
FA
  8
0
  0
BLOCK
  8
0
  2
_DOT
 70
     0
 10
0.0
 20
0.0
 30
0.0
  3
_DOT
  1

  0
POLYLINE
  5
10F
  8
0
  6
BYBLOCK
 62
     0
 66
     1
 10
0.0
 20
0.0
 30
0.0
 70
     1
 40
0.5
 41
0.5
  0
VERTEX
  5
181C
  8
0
  6
BYBLOCK
 62
     0
 10
-0.25
 20
0.0
 30
0.0
 42
1.0
  0
VERTEX
  5
181D
  8
0
  6
BYBLOCK
 62
     0
 10
0.25
 20
0.0
 30
0.0
 42
1.0
  0
SEQEND
  5
181E
  8
0
  6
BYBLOCK
 62
     0
  0
LINE
  5
110
  8
0
  6
BYBLOCK
 62
     0
 10
-0.5
 20
0.0
 30
0.0
 11
-1.0
 21
0.0
 31
0.0
  0
ENDBLK
  5
112
  8
0
  0
BLOCK
  8
0
  2
_NONE
 70
     0
 10
0.0
 20
0.0
 30
0.0
  3
_NONE
  1

  0
ENDBLK
  5
116
  8
0
  0
BLOCK
  8
0
  2
B0040021
 70
     0
 10
0.0
 20
0.0
 30
0.0
  3
B0040021
  1

  0
LINE
  5
12E
  8
HATCH
 10
90.534596808877254
 20
-7.5000000000002274
 30
0.0
 11
117.0518952133159
 21
-34.017298404438861
 31
0.0
  0
LINE
  5
12F
  8
HATCH
 10
98.034596808877254
 20
0.0
 30
0.0
 11
132.0518952133159
 21
-34.017298404438861
 31
0.0
  0
LINE
  5
130
  8
HATCH
 10
22.5
 20
-7.5000000000002274
 30
0.0
 11
49.017298404438627
 21
-34.017298404438861
 31
0.0
  0
LINE
  5
131
  8
HATCH
 10
30.0
 20
0.0
 30
0.0
 11
-4.0172984044386331
 21
-34.017298404438861
 31
0.0
  0
LINE
  5
132
  8
HATCH
 10
15.0
 20
-15.000000000000229
 30
0.0
 11
34.017298404438627
 21
-34.017298404438861
 31
0.0
  0
LINE
  5
133
  8
HATCH
 10
0.0
 20
0.0
 30
0.0
 11
-34.017298404438627
 21
-34.017298404438861
 31
0.0
  0
LINE
  5
134
  8
HATCH
 10
15.0
 20
0.0
 30
0.0
 11
-19.01729840443863
 21
-34.017298404438861
 31
0.0
  0
LINE
  5
135
  8
HATCH
 10
83.034596808877254
 20
0.0
 30
0.0
 11
56.517298404438861
 21
-26.51729840443863
 31
0.0
  0
LINE
  5
136
  8
HATCH
 10
98.034596808877254
 20
0.0
 30
0.0
 11
64.017298404438634
 21
-34.017298404438861
 31
0.0
  0
LINE
  5
137
  8
HATCH
 10
68.034596808877254
 20
0.0
 30
0.0
 11
49.017298404438861
 21
-19.01729840443863
 31
0.0
  0
LINE
  5
138
  8
HATCH
 10
30.0
 20
0.0
 30
0.0
 11
64.017298404438634
 21
-34.017298404438861
 31
0.0
  0
LINE
  5
139
  8
HATCH
 10
83.034596808877254
 20
-15.000000000000229
 30
0.0
 11
102.0518952133159
 21
-34.017298404438861
 31
0.0
  0
ENDBLK
  5
13A
  8
0
  0
BLOCK
  8
0
  2
*D5
 70
     1
 10
0.0
 20
0.0
 30
0.0
  3
*D5
  1

  0
LINE
  5
181F
  8
SUNPOU
 10
2536.7125721558259
 20
2728.4226279959089
 30
0.0
 11
2536.7125721558259
 21
3198.0425213434009
 31
0.0
  0
LINE
  5
1820
  8
SUNPOU
 10
3536.7125721558259
 20
2728.4226279959089
 30
0.0
 11
3536.7125721558259
 21
3198.0425213434009
 31
0.0
  0
LINE
  5
1821
  8
SUNPOU
 10
2566.7125721558259
 20
3183.0425213434009
 30
0.0
 11
3506.7125721558259
 21
3183.0425213434009
 31
0.0
  0
SOLID
  5
1822
  8
SUNPOU
 10
2566.7125721558259
 20
3188.0425213434009
 30
0.0
 11
2566.7125721558259
 21
3178.0425213434
 31
0.0
 12
2536.7125721558259
 22
3183.0425213434009
 32
0.0
 13
2536.7125721558259
 23
3183.0425213434009
 33
0.0
  0
SOLID
  5
1823
  8
SUNPOU
 10
3506.7125721558259
 20
3188.0425213434009
 30
0.0
 11
3506.7125721558259
 21
3178.0425213434
 31
0.0
 12
3536.7125721558259
 22
3183.0425213434009
 32
0.0
 13
3536.7125721558259
 23
3183.0425213434009
 33
0.0
  0
TEXT
  8
SUNPOU
  40
45
  5
198E
  72
0
  71
0
 10
2946.71
 20
3143.89
 30
0.000000
  1
1000
  7
KANJI08
  0
POINT
  5
1825
  8
DEFPOINTS
 62
     0
 10
2536.7125721558259
 20
2713.4226279959089
 30
0.0
  0
POINT
  5
1826
  8
DEFPOINTS
 62
     0
 10
3536.7125721558259
 20
2713.4226279959089
 30
0.0
  0
POINT
  5
1827
  8
DEFPOINTS
 62
     0
 10
3536.7125721558259
 20
3183.0425213434009
 30
0.0
  0
ENDBLK
  5
418
  8
0
  0
BLOCK
  8
0
  2
*D6
 70
     1
 10
0.0
 20
0.0
 30
0.0
  3
*D6
  1

  0
LINE
  5
1828
  8
SUNPOU
 10
2456.3125721558258
 20
1901.572627995909
 30
0.0
 11
2024.952722366379
 21
1901.572627995909
 31
0.0
  0
LINE
  5
1829
  8
SUNPOU
 10
2111.1739062937299
 20
2151.572627995909
 30
0.0
 11
2024.952722366379
 21
2151.572627995909
 31
0.0
  0
LINE
  5
182A
  8
SUNPOU
 10
2039.952722366379
 20
1931.572627995909
 30
0.0
 11
2039.952722366379
 21
2121.572627995909
 31
0.0
  0
SOLID
  5
182B
  8
SUNPOU
 10
2034.952722366379
 20
1931.572627995909
 30
0.0
 11
2044.952722366379
 21
1931.572627995909
 31
0.0
 12
2039.952722366379
 22
1901.572627995909
 32
0.0
 13
2039.952722366379
 23
1901.572627995909
 33
0.0
  0
SOLID
  5
182C
  8
SUNPOU
 10
2034.952722366379
 20
2121.572627995909
 30
0.0
 11
2044.952722366379
 21
2121.572627995909
 31
0.0
 12
2039.952722366379
 22
2151.572627995909
 32
0.0
 13
2039.952722366379
 23
2151.572627995909
 33
0.0
  0
TEXT
  8
SUNPOU
  40
45
  5
198F
  72
0
  71
0
 10
1909.45
 20
1946.92
 30
0.000000
  1
250
  7
KANJI08
  0
POINT
  5
182E
  8
DEFPOINTS
 62
     0
 10
2471.3125721558258
 20
1901.572627995909
 30
0.0
  0
POINT
  5
182F
  8
DEFPOINTS
 62
     0
 10
2126.1739062937309
 20
2151.572627995909
 30
0.0
  0
POINT
  5
1830
  8
DEFPOINTS
 62
     0
 10
2039.952722366379
 20
2151.572627995909
 30
0.0
  0
ENDBLK
  5
42D
  8
0
  0
BLOCK
  8
0
  2
*D7
 70
     1
 10
0.0
 20
0.0
 30
0.0
  3
*D7
  1

  0
LINE
  5
1831
  8
SUNPOU
 10
3551.7125721558268
 20
2651.5726279959099
 30
0.0
 11
4048.4724219452728
 21
2651.5726279959099
 31
0.0
  0
LINE
  5
1832
  8
SUNPOU
 10
3351.7125721558268
 20
2951.572627995909
 30
0.0
 11
4048.4724219452728
 21
2951.572627995909
 31
0.0
  0
LINE
  5
1833
  8
SUNPOU
 10
4033.4724219452728
 20
2681.5726279959099
 30
0.0
 11
4033.4724219452728
 21
2921.572627995909
 31
0.0
  0
SOLID
  5
1834
  8
SUNPOU
 10
4028.4724219452728
 20
2681.5726279959099
 30
0.0
 11
4038.4724219452728
 21
2681.5726279959099
 31
0.0
 12
4033.4724219452728
 22
2651.5726279959099
 32
0.0
 13
4033.4724219452728
 23
2651.5726279959099
 33
0.0
  0
SOLID
  5
1835
  8
SUNPOU
 10
4028.4724219452728
 20
2921.572627995909
 30
0.0
 11
4038.4724219452728
 21
2921.572627995909
 31
0.0
 12
4033.4724219452728
 22
2951.572627995909
 32
0.0
 13
4033.4724219452728
 23
2951.572627995909
 33
0.0
  0
TEXT
  8
SUNPOU
  40
45
  5
1990
  72
0
  71
0
 10
3902.97
 20
2721.92
 30
0.000000
  1
300
  7
KANJI08
  0
POINT
  5
1837
  8
DEFPOINTS
 62
     0
 10
3536.7125721558268
 20
2651.5726279959099
 30
0.0
  0
POINT
  5
1838
  8
DEFPOINTS
 62
     0
 10
3336.7125721558268
 20
2951.572627995909
 30
0.0
  0
POINT
  5
1839
  8
DEFPOINTS
 62
     0
 10
4033.4724219452728
 20
2951.572627995909
 30
0.0
  0
ENDBLK
  5
451
  8
0
  0
BLOCK
  8
0
  2
*D8
 70
     1
 10
0.0
 20
0.0
 30
0.0
  3
*D8
  1

  0
LINE
  5
183A
  8
SUNPOU
 10
2456.3125721558258
 20
1901.572627995909
 30
0.0
 11
1858.862839882589
 21
1901.572627995909
 31
0.0
  0
LINE
  5
183B
  8
SUNPOU
 10
2681.7125721558259
 20
2951.572627995909
 30
0.0
 11
1858.8628398825899
 21
2951.572627995909
 31
0.0
  0
LINE
  5
183C
  8
SUNPOU
 10
1873.862839882589
 20
1931.5726279959081
 30
0.0
 11
1873.862839882589
 21
2921.572627995909
 31
0.0
  0
SOLID
  5
183D
  8
SUNPOU
 10
1868.862839882589
 20
1931.5726279959081
 30
0.0
 11
1878.862839882589
 21
1931.5726279959081
 31
0.0
 12
1873.862839882589
 22
1901.572627995909
 32
0.0
 13
1873.862839882589
 23
1901.572627995909
 33
0.0
  0
SOLID
  5
183E
  8
SUNPOU
 10
1868.862839882589
 20
2921.572627995909
 30
0.0
 11
1878.862839882589
 21
2921.572627995909
 31
0.0
 12
1873.862839882589
 22
2951.572627995909
 32
0.0
 13
1873.862839882589
 23
2951.572627995909
 33
0.0
  0
TEXT
  8
SUNPOU
  40
45
  5
1991
  72
0
  71
0
 10
1743.36
 20
2346.92
 30
0.000000
  1
1050
  7
KANJI08
  0
POINT
  5
1840
  8
DEFPOINTS
 62
     0
 10
2471.3125721558258
 20
1901.572627995909
 30
0.0
  0
POINT
  5
1841
  8
DEFPOINTS
 62
     0
 10
2696.7125721558259
 20
2951.572627995909
 30
0.0
  0
POINT
  5
1842
  8
DEFPOINTS
 62
     0
 10
1873.862839882589
 20
2951.572627995909
 30
0.0
  0
ENDBLK
  5
45D
  8
0
  0
BLOCK
  8
0
  2
*D9
 70
     1
 10
0.0
 20
0.0
 30
0.0
  3
*D9
  1

  0
LINE
  5
1843
  8
SUNPOU
 62
     0
 10
2736.7125721558282
 20
2713.4226279959112
 30
0.0
 11
2615.2139849325758
 21
2832.3263424154102
 31
0.0
  0
TEXT
  8
SUNPOU
  40
45
  5
1992
  62
0
  72
0
  71
0
 10
2633.17
 20
2711.04
 30
0.000000
  1
R200
  7
EXT08
  0
SOLID
  5
1845
  8
SUNPOU
 62
     0
 10
2618.7111530037369
 20
2835.8998302749178
 30
0.0
 11
2611.7168168614139
 21
2828.752854555903
 31
0.0
 12
2593.773057775531
 22
2853.3093508423808
 32
0.0
 13
2593.773057775531
 23
2853.3093508423808
 33
0.0
  0
POINT
  5
1846
  8
DEFPOINTS
 62
     0
 10
2593.773057775531
 20
2853.3093508423808
 30
0.0
  0
POINT
  5
1847
  8
DEFPOINTS
 62
     0
 10
2736.7125721558282
 20
2713.4226279959112
 30
0.0
  0
ENDBLK
  5
509
  8
0
  0
BLOCK
  8
0
  2
*D10
 70
     1
 10
0.0
 20
0.0
 30
0.0
  3
*D10
  1

  0
LINE
  5
1848
  8
SUNPOU
 62
     0
 10
3551.7125721558268
 20
2651.5726279959099
 30
0.0
 11
4048.4724219452728
 21
2651.5726279959099
 31
0.0
  0
LINE
  5
1849
  8
SUNPOU
 62
     0
 10
3551.7125721558268
 20
2401.5726279958958
 30
0.0
 11
4048.4724219452728
 21
2401.5726279958958
 31
0.0
  0
LINE
  5
184A
  8
SUNPOU
 62
     0
 10
4033.4724219452728
 20
2621.5726279959099
 30
0.0
 11
4033.4724219452728
 21
2431.5726279958958
 31
0.0
  0
SOLID
  5
184B
  8
SUNPOU
 62
     0
 10
4028.4724219452728
 20
2621.5726279959099
 30
0.0
 11
4038.4724219452728
 21
2621.5726279959099
 31
0.0
 12
4033.4724219452728
 22
2651.5726279959099
 32
0.0
 13
4033.4724219452728
 23
2651.5726279959099
 33
0.0
  0
SOLID
  5
184C
  8
SUNPOU
 62
     0
 10
4028.4724219452728
 20
2431.5726279958958
 30
0.0
 11
4038.4724219452728
 21
2431.5726279958958
 31
0.0
 12
4033.4724219452728
 22
2401.5726279958958
 32
0.0
 13
4033.4724219452728
 23
2401.5726279958958
 33
0.0
  0
TEXT
  8
SUNPOU
  40
45
  5
1993
  62
0
  72
0
  71
0
 10
3902.97
 20
2446.92
 30
0.000000
  1
250
  7
EXT08
  0
POINT
  5
184E
  8
DEFPOINTS
 62
     0
 10
3536.7125721558268
 20
2651.5726279959099
 30
0.0
  0
POINT
  5
184F
  8
DEFPOINTS
 62
     0
 10
3536.7125721558268
 20
2401.5726279958958
 30
0.0
  0
POINT
  5
1850
  8
DEFPOINTS
 62
     0
 10
4033.4724219452728
 20
2401.5726279958958
 30
0.0
  0
ENDBLK
  5
552
  8
0
  0
BLOCK
  8
0
  2
*D11
 70
     1
 10
0.0
 20
0.0
 30
0.0
  3
*D11
  1

  0
LINE
  5
1851
  8
SUNPOU
 62
     0
 10
3551.7125721558268
 20
2401.5726279958958
 30
0.0
 11
4048.4724219452728
 21
2401.5726279958958
 31
0.0
  0
LINE
  5
1852
  8
SUNPOU
 62
     0
 10
3962.2512380179219
 20
2151.572627995909
 30
0.0
 11
4048.4724219452728
 21
2151.572627995909
 31
0.0
  0
LINE
  5
1853
  8
SUNPOU
 62
     0
 10
4033.4724219452742
 20
2371.5726279958958
 30
0.0
 11
4033.4724219452742
 21
2181.572627995909
 31
0.0
  0
SOLID
  5
1854
  8
SUNPOU
 62
     0
 10
4028.4724219452742
 20
2371.5726279958958
 30
0.0
 11
4038.4724219452728
 21
2371.5726279958958
 31
0.0
 12
4033.4724219452742
 22
2401.5726279958958
 32
0.0
 13
4033.4724219452742
 23
2401.5726279958958
 33
0.0
  0
SOLID
  5
1855
  8
SUNPOU
 62
     0
 10
4028.4724219452742
 20
2181.572627995909
 30
0.0
 11
4038.4724219452728
 21
2181.572627995909
 31
0.0
 12
4033.4724219452742
 22
2151.572627995909
 32
0.0
 13
4033.4724219452742
 23
2151.572627995909
 33
0.0
  0
TEXT
  8
SUNPOU
  40
45
  5
1994
  62
0
  72
0
  71
0
 10
3902.97
 20
2196.92
 30
0.000000
  1
250
  7
EXT08
  0
POINT
  5
1857
  8
DEFPOINTS
 62
     0
 10
3536.7125721558268
 20
2401.5726279958958
 30
0.0
  0
POINT
  5
1858
  8
DEFPOINTS
 62
     0
 10
3947.2512380179219
 20
2151.572627995909
 30
0.0
  0
POINT
  5
1859
  8
DEFPOINTS
 62
     0
 10
4033.4724219452742
 20
2151.572627995909
 30
0.0
  0
ENDBLK
  5
55F
  8
0
  0
BLOCK
  8
0
  2
*D12
 70
     1
 10
0.0
 20
0.0
 30
0.0
  3
*D12
  1

  0
LINE
  5
185A
  8
SUNPOU
 62
     0
 10
2621.612572155826
 20
2151.572627995909
 30
0.0
 11
2845.3724670335691
 21
2151.572627995909
 31
0.0
  0
LINE
  5
185B
  8
SUNPOU
 62
     0
 10
2621.612572155826
 20
951.57262799590865
 30
0.0
 11
2845.3724670335691
 21
951.57262799590865
 31
0.0
  0
LINE
  5
185C
  8
SUNPOU
 62
     0
 10
2830.37246703357
 20
2121.572627995909
 30
0.0
 11
2830.3724670335691
 21
981.57262799590865
 31
0.0
  0
SOLID
  5
185D
  8
SUNPOU
 62
     0
 10
2825.3724670335691
 20
2121.572627995909
 30
0.0
 11
2835.3724670335691
 21
2121.572627995909
 31
0.0
 12
2830.37246703357
 22
2151.572627995909
 32
0.0
 13
2830.37246703357
 23
2151.572627995909
 33
0.0
  0
SOLID
  5
185E
  8
SUNPOU
 62
     0
 10
2825.3724670335691
 20
981.57262799590865
 30
0.0
 11
2835.3724670335691
 21
981.57262799590865
 31
0.0
 12
2830.3724670335691
 22
951.57262799590865
 32
0.0
 13
2830.3724670335691
 23
951.57262799590865
 33
0.0
  0
TEXT
  8
SUNPOU
  40
45
  5
1995
  62
0
  72
0
  71
0
 10
2699.87
 20
1471.92
 30
0.000000
  1
1200
  7
EXT08
  0
POINT
  5
1860
  8
DEFPOINTS
 62
     0
 10
2606.6125721558251
 20
2151.572627995909
 30
0.0
  0
POINT
  5
1861
  8
DEFPOINTS
 62
     0
 10
2606.612572155826
 20
951.57262799590865
 30
0.0
  0
POINT
  5
1862
  8
DEFPOINTS
 62
     0
 10
2830.3724670335691
 20
951.57262799590865
 30
0.0
  0
ENDBLK
  5
1021
  8
0
  0
BLOCK
  8
0
  2
*D13
 70
     1
 10
0.0
 20
0.0
 30
0.0
  3
*D13
  1

  0
LINE
  5
187D
  8
SUNPOU
 62
     0
 10
2617.112572155826
 20
1851.572627995909
 30
0.0
 11
2746.6950409648889
 21
1851.572627995909
 31
0.0
  0
LINE
  5
187E
  8
SUNPOU
 62
     0
 10
2621.612572155826
 20
2151.572627995909
 30
0.0
 11
2746.6950409648889
 21
2151.572627995909
 31
0.0
  0
LINE
  5
187F
  8
SUNPOU
 62
     0
 10
2731.6950409648889
 20
1881.572627995909
 30
0.0
 11
2731.6950409648889
 21
2121.572627995909
 31
0.0
  0
SOLID
  5
1880
  8
SUNPOU
 62
     0
 10
2726.6950409648889
 20
1881.572627995909
 30
0.0
 11
2736.6950409648889
 21
1881.572627995909
 31
0.0
 12
2731.6950409648889
 22
1851.572627995909
 32
0.0
 13
2731.6950409648889
 23
1851.572627995909
 33
0.0
  0
SOLID
  5
1881
  8
SUNPOU
 62
     0
 10
2726.6950409648889
 20
2121.572627995909
 30
0.0
 11
2736.6950409648889
 21
2121.572627995909
 31
0.0
 12
2731.6950409648889
 22
2151.572627995909
 32
0.0
 13
2731.6950409648889
 23
2151.572627995909
 33
0.0
  0
TEXT
  8
SUNPOU
  40
45
  5
1996
  62
0
  72
0
  71
0
 10
2601.20
 20
1921.92
 30
0.000000
  1
300
  7
EXT08
  0
POINT
  5
1883
  8
DEFPOINTS
 62
     0
 10
2602.112572155826
 20
1851.572627995909
 30
0.0
  0
POINT
  5
1884
  8
DEFPOINTS
 62
     0
 10
2606.6125721558251
 20
2151.572627995909
 30
0.0
  0
POINT
  5
1885
  8
DEFPOINTS
 62
     0
 10
2731.6950409648889
 20
2151.572627995909
 30
0.0
  0
ENDBLK
  5
117C
  8
0
  0
BLOCK
  8
0
  2
*D14
 70
     1
 10
0.0
 20
0.0
 30
0.0
  3
*D14
  1

  0
LINE
  5
196C
  8
SUNPOU
 62
     0
 10
5262.9313612552514
 20
2609.8787900864718
 30
0.0
 11
5093.6357586247486
 21
2609.8787900864731
 31
0.0
  0
LINE
  5
196D
  8
SUNPOU
 62
     0
 10
5262.9313612552487
 20
1409.878790086472
 30
0.0
 11
5093.6357586247486
 21
1409.878790086472
 31
0.0
  0
LINE
  5
196E
  8
SUNPOU
 62
     0
 10
5108.6357586247505
 20
2579.8787900864731
 30
0.0
 11
5108.6357586247486
 21
1439.878790086472
 31
0.0
  0
SOLID
  5
196F
  8
SUNPOU
 62
     0
 10
5103.6357586247505
 20
2579.8787900864731
 30
0.0
 11
5113.6357586247505
 21
2579.8787900864731
 31
0.0
 12
5108.6357586247505
 22
2609.8787900864731
 32
0.0
 13
5108.6357586247505
 23
2609.8787900864731
 33
0.0
  0
SOLID
  5
1970
  8
SUNPOU
 62
     0
 10
5103.6357586247486
 20
1439.878790086472
 30
0.0
 11
5113.6357586247486
 21
1439.878790086472
 31
0.0
 12
5108.6357586247486
 22
1409.878790086472
 32
0.0
 13
5108.6357586247486
 23
1409.878790086472
 33
0.0
  0
TEXT
  8
SUNPOU
  40
45
  5
1997
  62
0
  72
0
  71
0
 10
4978.14
 20
1930.23
 30
0.000000
  1
1200
  7
EXT08
  0
POINT
  5
1972
  8
DEFPOINTS
 62
     0
 10
5277.9313612552514
 20
2609.8787900864718
 30
0.0
  0
POINT
  5
1973
  8
DEFPOINTS
 62
     0
 10
5277.9313612552496
 20
1409.878790086472
 30
0.0
  0
POINT
  5
1974
  8
DEFPOINTS
 62
     0
 10
5108.6357586247486
 20
1409.878790086472
 30
0.0
  0
ENDBLK
  5
1675
  8
0
  0
BLOCK
  8
0
  2
*D15
 70
     1
 10
0.0
 20
0.0
 30
0.0
  3
*D15
  1

  0
LINE
  5
1975
  8
SUNPOU
 62
     0
 10
5427.2117740655249
 20
2961.2655389370661
 30
0.0
 11
5451.0497358704133
 21
2979.4795878276541
 31
0.0
  0
LINE
  5
1976
  8
SUNPOU
 62
     0
 10
5268.4509484449709
 20
2839.9599733257601
 30
0.0
 11
5244.6129866400825
 21
2821.7459244351739
 31
0.0
  0
TEXT
  8
SUNPOU
  40
45
  5
1998
  62
0
  72
0
  71
0
 10
5365.64
 20
2953.62
 30
0.000000
  1
%%c139.8
  7
EXT08
  0
LINE
  5
1978
  8
SUNPOU
 62
     0
 10
5403.3738122606364
 20
2943.05149004648
 30
0.0
 11
5292.2889102498593
 21
2858.1740222163471
 31
0.0
  0
SOLID
  5
1979
  8
SUNPOU
 62
     0
 10
5424.1760992504269
 20
2965.2385325712148
 30
0.0
 11
5430.2474488806229
 21
2957.2925453029188
 31
0.0
 12
5403.3738122606364
 22
2943.05149004648
 32
0.0
 13
5403.3738122606364
 23
2943.05149004648
 33
0.0
  0
SOLID
  5
197A
  8
SUNPOU
 62
     0
 10
5265.4152736298729
 20
2843.9329669599078
 30
0.0
 11
5271.4866232600689
 21
2835.9869796916119
 31
0.0
 12
5292.2889102498593
 22
2858.1740222163471
 32
0.0
 13
5292.2889102498593
 23
2858.1740222163471
 33
0.0
  0
POINT
  5
197B
  8
DEFPOINTS
 62
     0
 10
5292.2889102498593
 20
2858.1740222163471
 30
0.0
  0
POINT
  5
197C
  8
DEFPOINTS
 62
     0
 10
5403.3738122606364
 20
2943.05149004648
 30
0.0
  0
ENDBLK
  5
1680
  8
0
  0
BLOCK
  8
0
  2
*D16
 70
     1
 10
0.0
 20
0.0
 30
0.0
  3
*D16
  1

  0
LINE
  5
1985
  8
SUNPOU
 62
     0
 10
2721.7125721558259
 20
2951.572627995909
 30
0.0
 11
2024.952722366379
 21
2951.572627995909
 31
0.0
  0
LINE
  5
1986
  8
SUNPOU
 62
     0
 10
2111.1739062937299
 20
2151.572627995909
 30
0.0
 11
2024.952722366379
 21
2151.572627995909
 31
0.0
  0
LINE
  5
1987
  8
SUNPOU
 62
     0
 10
2039.952722366379
 20
2921.572627995909
 30
0.0
 11
2039.952722366379
 21
2181.572627995909
 31
0.0
  0
SOLID
  5
1988
  8
SUNPOU
 62
     0
 10
2034.952722366379
 20
2921.572627995909
 30
0.0
 11
2044.952722366379
 21
2921.572627995909
 31
0.0
 12
2039.952722366379
 22
2951.572627995909
 32
0.0
 13
2039.952722366379
 23
2951.572627995909
 33
0.0
  0
SOLID
  5
1989
  8
SUNPOU
 62
     0
 10
2034.952722366379
 20
2181.572627995909
 30
0.0
 11
2044.952722366379
 21
2181.572627995909
 31
0.0
 12
2039.952722366379
 22
2151.572627995909
 32
0.0
 13
2039.952722366379
 23
2151.572627995909
 33
0.0
  0
TEXT
  8
SUNPOU
  40
45
  5
1999
  62
0
  72
0
  71
0
 10
1909.45
 20
2471.92
 30
0.000000
  1
800
  7
EXT08
  0
POINT
  5
198B
  8
DEFPOINTS
 62
     0
 10
2736.7125721558259
 20
2951.572627995909
 30
0.0
  0
POINT
  5
198C
  8
DEFPOINTS
 62
     0
 10
2126.1739062937309
 20
2151.572627995909
 30
0.0
  0
POINT
  5
198D
  8
DEFPOINTS
 62
     0
 10
2039.952722366379
 20
2151.572627995909
 30
0.0
  0
ENDBLK
  5
1705
  8
0
  0
BLOCK
  8
0
  2
A$C43D45561
 70
     0
 10
0.0
 20
0.0
 30
0.0
  3
A$C43D45561
  1

  0
LINE
  5
17CD
  8
MOJI
 10
-0.0000100612460301
 20
303.52580181551917
 30
0.0
 11
1162.87595449849
 21
303.52580181551917
 31
0.0
  0
LINE
  5
17CE
  8
MOJI
 10
1162.87595449849
 20
303.52580181551917
 30
0.0
 11
1162.87595449849
 21
-0.000005414515158
 31
0.0
  0
LINE
  5
17CF
  8
MOJI
 10
290.76167743080532
 20
-0.000005414515158
 30
0.0
 11
290.76167743080532
 21
303.52580181551917
 31
0.0
  0
LINE
  5
17D0
  8
MOJI
 10
-0.0000100612469396
 20
-0.000005414515158
 30
0.0
 11
-0.0000100612460301
 21
303.52580181551917
 31
0.0
  0
LINE
  5
17D1
  8
MOJI
 10
619.97441092353438
 20
-0.000005414515158
 30
0.0
 11
619.97441092353529
 21
303.52580181551917
 31
0.0
  0
TEXT
  5
17D2
  8
MOJI
 10
92.747522797954119
 20
244.1913806214273
 30
0.0
 40
45.0
  1
品  名
 41
0.8
  7
EXT08
 72
     1
 11
151.54752279795409
 21
244.1913806214273
 31
0.0
  0
TEXT
  5
17D3
  8
MOJI
 10
395.88594293410188
 20
246.56267599041189
 30
0.0
 40
45.0
  1
材  質
 41
0.8
  7
EXT08
 72
     1
 11
455.88594293410182
 21
246.56267599041189
 31
0.0
  0
TEXT
  5
17D4
  8
MOJI
 10
827.92055428353467
 20
242.5758289135249
 30
0.0
 40
45.0
  1
摘  要
 41
0.8
  7
EXT08
 72
     1
 11
888.26341142639205
 21
242.5758289135249
 31
0.0
  0
TEXT
  5
17D5
  8
MOJI
 10
24.783778671381441
 20
97.008240773007628
 30
0.0
 40
45.0
  1
ビームパイプ
 41
0.8
  7
EXT08
 72
     1
 11
152.92663581423849
 21
97.008240773007628
 31
0.0
  0
TEXT
  5
17D6
  8
MOJI
 10
89.583778671380955
 20
172.7612571081969
 30
0.0
 40
45.0
  1
主  柱
 41
0.8
  7
EXT08
 72
     1
 11
149.58377867138091
 21
172.7612571081969
 31
0.0
  0
TEXT
  5
17D7
  8
MOJI
 10
358.46686828918098
 20
172.7612571081969
 30
0.0
 40
45.0
  1
STK400
 41
0.8
  7
EXT08
 72
     1
 11
458.75258257489531
 21
172.7612571081969
 31
0.0
  0
TEXT
  5
17D8
  8
MOJI
 10
645.05243140353525
 20
172.7612571081969
 30
0.0
 40
45.0
  1
亜鉛めっき＋静電粉体塗装
 41
0.8
  7
EXT08
 72
     1
 11
899.45243140353523
 21
172.7612571081969
 31
0.0
  0
LINE
  5
17D9
  8
MOJI
 10
-0.0000100612460301
 20
227.6443500080106
 30
0.0
 11
1162.87595449849
 21
227.6443500080106
 31
0.0
  0
LINE
  5
17DA
  8
MOJI
 10
-0.0000100612460301
 20
151.76289820050201
 30
0.0
 11
1162.87595449849
 21
151.76289820050201
 31
0.0
  0
LINE
  5
17DB
  8
MOJI
 10
-0.0000100612460301
 20
75.881446392993425
 30
0.0
 11
1162.87595449849
 21
75.881446392993425
 31
0.0
  0
TEXT
  5
17DC
  8
MOJI
 10
645.05243140353525
 20
96.879805300688304
 30
0.0
 40
45.0
  1
亜鉛めっき＋静電粉体塗装
 41
0.8
  7
EXT08
 72
     1
 11
899.45243140353523
 21
96.879805300688304
 31
0.0
  0
TEXT
  5
17DD
  8
MOJI
 10
358.46686828918098
 20
96.879805300688304
 30
0.0
 40
45.0
  1
STK400
 41
0.8
  7
EXT08
 72
     1
 11
458.75258257489531
 21
96.879805300688304
 31
0.0
  0
TEXT
  5
17DE
  8
MOJI
 10
92.926635814238566
 20
21.126788965499031
 30
0.0
 40
45.0
  1
鋼管杭
 41
0.8
  7
EXT08
 72
     1
 11
152.92663581423849
 21
21.126788965499031
 31
0.0
  0
LINE
  5
17DF
  8
MOJI
 10
-0.0000100612460301
 20
-0.000005414515158
 30
0.0
 11
1162.87595449849
 21
-0.000005414515158
 31
0.0
  0
TEXT
  5
17E0
  8
MOJI
 10
688.25243140353507
 20
20.99835349317971
 30
0.0
 40
45.0
  1
高耐食溶融めっき鋼管
 41
0.8
  7
EXT08
 72
     1
 11
899.45243140353523
 21
20.99835349317971
 31
0.0
  0
TEXT
  5
17E1
  8
MOJI
 10
318.69543971775238
 20
20.99835349317971
 30
0.0
 40
45.0
  1
STK400相当
 41
0.8
  7
EXT08
 72
     1
 11
458.75258257489531
 21
20.99835349317971
 31
0.0
  0
ENDBLK
  5
17E5
  8
0
  0
BLOCK
  8
0
  2
*U18
 70
     1
 10
0.0
 20
0.0
 30
0.0
  3
*U18
  1

  0
SOLID
  5
1864
  8
MOJI
 10
3583.6667012634221
 20
2180.6842633099341
 30
0.0
 11
3574.862572155826
 21
2151.572627995909
 31
0.0
 12
3573.749190939544
 22
2181.966054625153
 32
0.0
 13
3573.749190939544
 23
2181.966054625153
 33
0.0
  0
POLYLINE
  5
1865
  8
MOJI
 66
     1
 10
0.0
 20
0.0
 30
0.0
  0
VERTEX
  5
1866
  8
MOJI
 10
3578.7079461014828
 20
2181.3251589675442
 30
0.0
  0
VERTEX
  5
1867
  8
MOJI
 10
3594.0495946519632
 20
2300.0269757751521
 30
0.0
  0
VERTEX
  5
1868
  8
MOJI
 10
3939.6495946519622
 20
2300.0269757751521
 30
0.0
  0
SEQEND
  5
1869
  8
MOJI
  0
ENDBLK
  5
186B
  8
0
  0
BLOCK
  8
0
  2
*U19
 70
     1
 10
0.0
 20
0.0
 30
0.0
  3
*U19
  1

  0
TEXT
  5
186D
  8
MOJI
 10
3642.0495946519618
 20
2318.0269757751521
 30
0.0
 40
45.0
  1
モルタル充テン
 41
0.8
  7
EXT08
  0
ENDBLK
  5
186F
  8
0
  0
BLOCK
  8
0
  2
*U20
 70
     1
 10
0.0
 20
0.0
 30
0.0
  3
*U20
  1

  0
SOLID
  5
1871
  8
MOJI
 10
2618.8792813949258
 20
1623.742287637886
 30
0.0
 11
2606.612572155826
 21
1651.5726279959081
 31
0.0
 12
2627.242272362982
 22
1629.225022545595
 32
0.0
 13
2627.242272362982
 23
1629.225022545595
 33
0.0
  0
POLYLINE
  5
1872
  8
MOJI
 66
     1
 10
0.0
 20
0.0
 30
0.0
  0
VERTEX
  5
1873
  8
MOJI
 10
2623.0607768789541
 20
1626.48365509174
 30
0.0
  0
VERTEX
  5
1874
  8
MOJI
 10
2825.5286696225448
 20
1317.652900579953
 30
0.0
  0
VERTEX
  5
1875
  8
MOJI
 10
3001.414383908259
 20
1317.652900579953
 30
0.0
  0
SEQEND
  5
1876
  8
MOJI
  0
ENDBLK
  5
1878
  8
0
  0
BLOCK
  8
0
  2
*U21
 70
     1
 10
0.0
 20
0.0
 30
0.0
  3
*U21
  1

  0
TEXT
  5
187A
  8
MOJI
 10
2873.5286696225448
 20
1335.652900579953
 30
0.0
 40
45.0
  1
鋼管杭
 41
0.8
  7
EXT08
  0
ENDBLK
  5
187C
  8
0
  0
BLOCK
  8
0
  2
*X22
 70
     1
 10
0.0
 20
0.0
 30
0.0
  3
*X22
  1

  0
LINE
  5
1887
  8
0
 62
     0
 10
3509.8168880751409
 20
1863.0999952319571
 30
0.0
 11
3509.8168880751409
 21
1863.0999952319571
 31
0.0
  0
LINE
  5
1888
  8
0
 62
     0
 10
3583.8814787681508
 20
1875.813240748623
 30
0.0
 11
3583.8814787681508
 21
1875.813240748623
 31
0.0
  0
LINE
  5
1889
  8
0
 62
     0
 10
3589.1249164566179
 20
1951.5894541951741
 30
0.0
 11
3589.1249164566179
 21
1951.5894541951741
 31
0.0
  0
LINE
  5
188A
  8
0
 62
     0
 10
3584.255858193399
 20
2036.6320629293809
 30
0.0
 11
3584.255858193399
 21
2036.6320629293809
 31
0.0
  0
LINE
  5
188B
  8
0
 62
     0
 10
3589.4992958818671
 20
2112.408276375932
 30
0.0
 11
3589.4992958818671
 21
2112.408276375932
 31
0.0
  0
LINE
  5
188C
  8
0
 62
     0
 10
3524.199953495799
 20
1857.7295712417069
 30
0.0
 11
3524.199953495799
 21
1857.7295712417069
 31
0.0
  0
LINE
  5
188D
  8
0
 62
     0
 10
3591.9952510792359
 20
1854.8651992453699
 30
0.0
 11
3591.9952510792359
 21
1854.8651992453699
 31
0.0
  0
LINE
  5
188E
  8
0
 62
     0
 10
3481.671216052453
 20
1925.1493610132179
 30
0.0
 11
3481.671216052453
 21
1925.1493610132179
 31
0.0
  0
LINE
  5
188F
  8
0
 62
     0
 10
3576.2441920404472
 20
1905.2257264518701
 30
0.0
 11
3576.2441920404472
 21
1905.2257264518701
 31
0.0
  0
LINE
  5
1890
  8
0
 62
     0
 10
3490.65116358566
 20
2040.406491246192
 30
0.0
 11
3490.65116358566
 21
2040.406491246192
 31
0.0
  0
LINE
  5
1891
  8
0
 62
     0
 10
3599.464080347971
 20
2051.737009818532
 30
0.0
 11
3599.464080347971
 21
2051.737009818532
 31
0.0
  0
LINE
  5
1892
  8
0
 62
     0
 10
3488.6044917530962
 20
2122.3623568376802
 30
0.0
 11
3488.6044917530962
 21
2122.3623568376802
 31
0.0
  0
LINE
  5
1893
  8
0
 62
     0
 10
3583.4353289818569
 20
1895.244465301324
 30
0.0
 11
3583.4353289818569
 21
1895.244465301324
 31
0.0
  0
LINE
  5
1894
  8
0
 62
     0
 10
3551.6421708897528
 20
1891.0588166323071
 30
0.0
 11
3551.6421708897528
 21
1891.0588166323071
 31
0.0
  0
LINE
  5
1895
  8
0
 62
     0
 10
3471.4352730494729
 20
1880.4993782078971
 30
0.0
 11
3471.4352730494729
 21
1880.4993782078971
 31
0.0
  0
LINE
  5
1896
  8
0
 62
     0
 10
3585.0520021449061
 20
1941.1491040413671
 30
0.0
 11
3585.0520021449061
 21
1941.1491040413671
 31
0.0
  0
LINE
  5
1897
  8
0
 62
     0
 10
3490.1559795550902
 20
1974.347605336653
 30
0.0
 11
3490.1559795550902
 21
1974.347605336653
 31
0.0
  0
LINE
  5
1898
  8
0
 62
     0
 10
3491.772652718138
 20
2020.2522440766959
 30
0.0
 11
3491.772652718138
 21
2020.2522440766959
 31
0.0
  0
LINE
  5
1899
  8
0
 62
     0
 10
3590.385473320548
 20
2124.6184675638319
 30
0.0
 11
3590.385473320548
 21
2124.6184675638319
 31
0.0
  0
LINE
  5
189A
  8
0
 62
     0
 10
3478.3854173881641
 20
2109.8733804704061
 30
0.0
 11
3478.3854173881641
 21
2109.8733804704061
 31
0.0
  0
LINE
  5
189B
  8
0
 62
     0
 10
3595.776825832655
 20
1853.4045343778939
 30
0.0
 11
3595.776825832655
 21
1853.4045343778939
 31
0.0
  0
LINE
  5
189C
  8
0
 62
     0
 10
3597.3211274579512
 20
1895.6820538144709
 30
0.0
 11
3597.3211274579512
 21
1895.6820538144709
 31
0.0
  0
LINE
  5
189D
  8
0
 62
     0
 10
3598.8654290832469
 20
1937.959573251047
 30
0.0
 11
3598.8654290832469
 21
1937.959573251047
 31
0.0
  0
LINE
  5
189E
  8
0
 62
     0
 10
3532.1146624144931
 20
1886.7399085178261
 30
0.0
 11
3532.1146624144931
 21
1886.7399085178261
 31
0.0
  0
LINE
  5
189F
  8
0
 62
     0
 10
3600.4097307085422
 20
1980.237092687624
 30
0.0
 11
3600.4097307085422
 21
1980.237092687624
 31
0.0
  0
LINE
  5
18A0
  8
0
 62
     0
 10
3601.9540323338392
 20
2022.514612124201
 30
0.0
 11
3601.9540323338392
 21
2022.514612124201
 31
0.0
  0
LINE
  5
18A1
  8
0
 62
     0
 10
3472.329734815592
 20
2046.327995706358
 30
0.0
 11
3472.329734815592
 21
2046.327995706358
 31
0.0
  0
LINE
  5
18A2
  8
0
 62
     0
 10
3473.8740364408882
 20
2088.6055151429332
 30
0.0
 11
3473.8740364408882
 21
2088.6055151429332
 31
0.0
  0
LINE
  5
18A3
  8
0
 62
     0
 10
3475.418338066183
 20
2130.88303457951
 30
0.0
 11
3475.418338066183
 21
2130.88303457951
 31
0.0
  0
LINE
  5
18A4
  8
0
 62
     0
 10
3587.6153034716422
 20
2072.754584252576
 30
0.0
 11
3590.1903953308142
 21
2080.4290827323998
 31
0.0
  0
LINE
  5
18A5
  8
0
 62
     0
 10
3525.8130988515072
 20
1888.566620736794
 30
0.0
 11
3528.3881907106788
 21
1896.241119216618
 31
0.0
  0
LINE
  5
18A6
  8
0
 62
     0
 10
3480.9070580865791
 20
2031.7931553945459
 30
0.0
 11
3483.4821499457512
 21
2039.4676538743711
 31
0.0
  0
LINE
  5
18A7
  8
0
 62
     0
 10
3519.4941969473548
 20
1892.8259239274671
 30
0.0
 11
3525.8114632502238
 21
1888.5648740030199
 31
0.0
  0
LINE
  5
18A8
  8
0
 62
     0
 10
3474.5880154867459
 20
2036.0525060819921
 30
0.0
 11
3480.9052817896159
 21
2031.7914561575451
 31
0.0
  0
LINE
  5
18A9
  8
0
 62
     0
 10
3581.2962252950019
 20
2077.0138900497868
 30
0.0
 11
3587.6134915978719
 21
2072.7528401253389
 31
0.0
  0
LINE
  5
18AA
  8
0
 62
     0
 10
3519.4948475932711
 20
1892.8294563623119
 30
0.0
 11
3528.3872011556568
 21
1896.2429110817311
 31
0.0
  0
LINE
  5
18AB
  8
0
 62
     0
 10
3581.2964532551482
 20
2077.0178881451302
 30
0.0
 11
3590.188806817534
 21
2080.4313428645501
 31
0.0
  0
LINE
  5
18AC
  8
0
 62
     0
 10
3474.588210506517
 20
2036.056431512103
 30
0.0
 11
3483.4805640689028
 21
2039.469886231522
 31
0.0
  0
LINE
  5
18AD
  8
0
 62
     0
 10
3573.9457291892231
 20
1877.572148974516
 30
0.0
 11
3572.4773401595489
 21
1885.53285614521
 31
0.0
  0
LINE
  5
18AE
  8
0
 62
     0
 10
3482.8538100001579
 20
1885.5422911126941
 30
0.0
 11
3481.385420970485
 21
1893.502998283388
 31
0.0
  0
LINE
  5
18AF
  8
0
 62
     0
 10
3566.343306258354
 20
1878.2646165101739
 30
0.0
 11
3573.9343098578138
 21
1877.600489750437
 31
0.0
  0
LINE
  5
18B0
  8
0
 62
     0
 10
3475.2512630648439
 20
1886.2341376270199
 30
0.0
 11
3482.8422666643041
 21
1885.5700108672829
 31
0.0
  0
LINE
  5
18B1
  8
0
 62
     0
 10
3566.3513087400502
 20
1878.265918819337
 30
0.0
 11
3572.4738607223139
 21
1885.5624921400461
 31
0.0
  0
LINE
  5
18B2
  8
0
 62
     0
 10
3475.2589742420482
 20
1886.2354615887889
 30
0.0
 11
3481.381526224312
 21
1893.532034909497
 31
0.0
  0
ENDBLK
  5
18B4
  8
0
  0
BLOCK
  8
0
  2
*X23
 70
     1
 10
0.0
 20
0.0
 30
0.0
  3
*X23
  1

  0
LINE
  5
18B6
  8
0
 62
     0
 10
2509.8168880751409
 20
1863.0999952319571
 30
0.0
 11
2509.8168880751409
 21
1863.0999952319571
 31
0.0
  0
LINE
  5
18B7
  8
0
 62
     0
 10
2583.8814787681499
 20
1875.8132407486239
 30
0.0
 11
2583.8814787681499
 21
1875.8132407486239
 31
0.0
  0
LINE
  5
18B8
  8
0
 62
     0
 10
2589.1249164566179
 20
1951.5894541951741
 30
0.0
 11
2589.1249164566179
 21
1951.5894541951741
 31
0.0
  0
LINE
  5
18B9
  8
0
 62
     0
 10
2584.2558581933981
 20
2036.6320629293809
 30
0.0
 11
2584.2558581933981
 21
2036.6320629293809
 31
0.0
  0
LINE
  5
18BA
  8
0
 62
     0
 10
2589.4992958818671
 20
2112.408276375932
 30
0.0
 11
2589.4992958818671
 21
2112.408276375932
 31
0.0
  0
LINE
  5
18BB
  8
0
 62
     0
 10
2524.199953495799
 20
1857.7295712417069
 30
0.0
 11
2524.199953495799
 21
1857.7295712417069
 31
0.0
  0
LINE
  5
18BC
  8
0
 62
     0
 10
2591.995251079235
 20
1854.8651992453699
 30
0.0
 11
2591.995251079235
 21
1854.8651992453699
 31
0.0
  0
LINE
  5
18BD
  8
0
 62
     0
 10
2481.6712160524521
 20
1925.1493610132179
 30
0.0
 11
2481.6712160524521
 21
1925.1493610132179
 31
0.0
  0
LINE
  5
18BE
  8
0
 62
     0
 10
2576.2441920404472
 20
1905.2257264518701
 30
0.0
 11
2576.2441920404472
 21
1905.2257264518701
 31
0.0
  0
LINE
  5
18BF
  8
0
 62
     0
 10
2490.65116358566
 20
2040.406491246192
 30
0.0
 11
2490.65116358566
 21
2040.406491246192
 31
0.0
  0
LINE
  5
18C0
  8
0
 62
     0
 10
2599.464080347971
 20
2051.737009818532
 30
0.0
 11
2599.464080347971
 21
2051.737009818532
 31
0.0
  0
LINE
  5
18C1
  8
0
 62
     0
 10
2488.6044917530971
 20
2122.3623568376802
 30
0.0
 11
2488.6044917530971
 21
2122.3623568376802
 31
0.0
  0
LINE
  5
18C2
  8
0
 62
     0
 10
2583.4353289818569
 20
1895.244465301324
 30
0.0
 11
2583.4353289818569
 21
1895.244465301324
 31
0.0
  0
LINE
  5
18C3
  8
0
 62
     0
 10
2551.6421708897528
 20
1891.0588166323071
 30
0.0
 11
2551.6421708897528
 21
1891.0588166323071
 31
0.0
  0
LINE
  5
18C4
  8
0
 62
     0
 10
2471.4352730494729
 20
1880.4993782078971
 30
0.0
 11
2471.4352730494729
 21
1880.4993782078971
 31
0.0
  0
LINE
  5
18C5
  8
0
 62
     0
 10
2585.0520021449061
 20
1941.1491040413671
 30
0.0
 11
2585.0520021449061
 21
1941.1491040413671
 31
0.0
  0
LINE
  5
18C6
  8
0
 62
     0
 10
2490.1559795550902
 20
1974.347605336653
 30
0.0
 11
2490.1559795550902
 21
1974.347605336653
 31
0.0
  0
LINE
  5
18C7
  8
0
 62
     0
 10
2491.772652718138
 20
2020.2522440766959
 30
0.0
 11
2491.772652718138
 21
2020.2522440766959
 31
0.0
  0
LINE
  5
18C8
  8
0
 62
     0
 10
2590.385473320548
 20
2124.6184675638319
 30
0.0
 11
2590.385473320548
 21
2124.6184675638319
 31
0.0
  0
LINE
  5
18C9
  8
0
 62
     0
 10
2478.3854173881632
 20
2109.8733804704061
 30
0.0
 11
2478.3854173881632
 21
2109.8733804704061
 31
0.0
  0
LINE
  5
18CA
  8
0
 62
     0
 10
2595.776825832655
 20
1853.4045343778939
 30
0.0
 11
2595.776825832655
 21
1853.4045343778939
 31
0.0
  0
LINE
  5
18CB
  8
0
 62
     0
 10
2597.3211274579512
 20
1895.6820538144709
 30
0.0
 11
2597.3211274579512
 21
1895.6820538144709
 31
0.0
  0
LINE
  5
18CC
  8
0
 62
     0
 10
2598.8654290832469
 20
1937.959573251047
 30
0.0
 11
2598.8654290832469
 21
1937.959573251047
 31
0.0
  0
LINE
  5
18CD
  8
0
 62
     0
 10
2532.114662414494
 20
1886.7399085178261
 30
0.0
 11
2532.114662414494
 21
1886.7399085178261
 31
0.0
  0
LINE
  5
18CE
  8
0
 62
     0
 10
2600.4097307085431
 20
1980.237092687624
 30
0.0
 11
2600.4097307085431
 21
1980.237092687624
 31
0.0
  0
LINE
  5
18CF
  8
0
 62
     0
 10
2601.9540323338392
 20
2022.514612124201
 30
0.0
 11
2601.9540323338392
 21
2022.514612124201
 31
0.0
  0
LINE
  5
18D0
  8
0
 62
     0
 10
2472.329734815592
 20
2046.327995706358
 30
0.0
 11
2472.329734815592
 21
2046.327995706358
 31
0.0
  0
LINE
  5
18D1
  8
0
 62
     0
 10
2473.8740364408868
 20
2088.6055151429332
 30
0.0
 11
2473.8740364408868
 21
2088.6055151429332
 31
0.0
  0
LINE
  5
18D2
  8
0
 62
     0
 10
2475.418338066183
 20
2130.88303457951
 30
0.0
 11
2475.418338066183
 21
2130.88303457951
 31
0.0
  0
LINE
  5
18D3
  8
0
 62
     0
 10
2587.6153034716408
 20
2072.754584252576
 30
0.0
 11
2590.1903953308129
 21
2080.4290827323998
 31
0.0
  0
LINE
  5
18D4
  8
0
 62
     0
 10
2525.8130988515072
 20
1888.566620736794
 30
0.0
 11
2528.3881907106788
 21
1896.241119216618
 31
0.0
  0
LINE
  5
18D5
  8
0
 62
     0
 10
2480.9070580865791
 20
2031.7931553945459
 30
0.0
 11
2483.4821499457512
 21
2039.4676538743711
 31
0.0
  0
LINE
  5
18D6
  8
0
 62
     0
 10
2519.4941969473548
 20
1892.8259239274671
 30
0.0
 11
2525.8114632502238
 21
1888.5648740030199
 31
0.0
  0
LINE
  5
18D7
  8
0
 62
     0
 10
2474.588015486745
 20
2036.0525060819921
 30
0.0
 11
2480.9052817896149
 21
2031.7914561575451
 31
0.0
  0
LINE
  5
18D8
  8
0
 62
     0
 10
2581.2962252950019
 20
2077.0138900497868
 30
0.0
 11
2587.613491597871
 21
2072.7528401253389
 31
0.0
  0
LINE
  5
18D9
  8
0
 62
     0
 10
2519.4948475932711
 20
1892.8294563623119
 30
0.0
 11
2528.3872011556559
 21
1896.2429110817311
 31
0.0
  0
LINE
  5
18DA
  8
0
 62
     0
 10
2581.2964532551482
 20
2077.0178881451302
 30
0.0
 11
2590.188806817534
 21
2080.4313428645501
 31
0.0
  0
LINE
  5
18DB
  8
0
 62
     0
 10
2474.588210506517
 20
2036.056431512103
 30
0.0
 11
2483.4805640689028
 21
2039.469886231522
 31
0.0
  0
LINE
  5
18DC
  8
0
 62
     0
 10
2573.9457291892231
 20
1877.572148974516
 30
0.0
 11
2572.4773401595489
 21
1885.53285614521
 31
0.0
  0
LINE
  5
18DD
  8
0
 62
     0
 10
2482.8538100001579
 20
1885.5422911126941
 30
0.0
 11
2481.385420970485
 21
1893.502998283388
 31
0.0
  0
LINE
  5
18DE
  8
0
 62
     0
 10
2566.343306258354
 20
1878.2646165101739
 30
0.0
 11
2573.9343098578129
 21
1877.600489750437
 31
0.0
  0
LINE
  5
18DF
  8
0
 62
     0
 10
2475.2512630648439
 20
1886.2341376270199
 30
0.0
 11
2482.8422666643032
 21
1885.5700108672829
 31
0.0
  0
LINE
  5
18E0
  8
0
 62
     0
 10
2566.3513087400502
 20
1878.265918819337
 30
0.0
 11
2572.4738607223139
 21
1885.5624921400461
 31
0.0
  0
LINE
  5
18E1
  8
0
 62
     0
 10
2475.2589742420482
 20
1886.2354615887889
 30
0.0
 11
2481.381526224312
 21
1893.532034909497
 31
0.0
  0
ENDBLK
  5
18E3
  8
0
  0
BLOCK
  8
0
  2
*X24
 70
     1
 10
0.0
 20
0.0
 30
0.0
  3
*X24
  1

  0
LINE
  5
18E5
  8
0
 62
     0
 10
3472.7166270771941
 20
2627.2726279959102
 30
0.0
 11
3476.7125721558268
 21
2631.2685730745411
 31
0.0
  0
LINE
  5
18E6
  8
0
 62
     0
 10
3455.038957547531
 20
2627.2726279959088
 30
0.0
 11
3476.7125721558268
 21
2648.946242604206
 31
0.0
  0
LINE
  5
18E7
  8
0
 62
     0
 10
3437.3612880178671
 20
2627.2726279959088
 30
0.0
 11
3476.7125721558259
 21
2666.623912133869
 31
0.0
  0
LINE
  5
18E8
  8
0
 62
     0
 10
3419.6836184882031
 20
2627.2726279959088
 30
0.0
 11
3468.283618488203
 21
2675.8726279959092
 31
0.0
  0
LINE
  5
18E9
  8
0
 62
     0
 10
3402.0059489585392
 20
2627.2726279959102
 30
0.0
 11
3450.60594895854
 21
2675.8726279959092
 31
0.0
  0
LINE
  5
18EA
  8
0
 62
     0
 10
3384.3282794288762
 20
2627.2726279959088
 30
0.0
 11
3432.9282794288761
 21
2675.8726279959092
 31
0.0
  0
LINE
  5
18EB
  8
0
 62
     0
 10
3366.6506098992122
 20
2627.2726279959088
 30
0.0
 11
3415.2506098992121
 21
2675.8726279959092
 31
0.0
  0
LINE
  5
18EC
  8
0
 62
     0
 10
3348.9729403695492
 20
2627.2726279959102
 30
0.0
 11
3397.5729403695491
 21
2675.8726279959092
 31
0.0
  0
LINE
  5
18ED
  8
0
 62
     0
 10
3331.2952708398848
 20
2627.2726279959088
 30
0.0
 11
3379.8952708398851
 21
2675.8726279959092
 31
0.0
  0
LINE
  5
18EE
  8
0
 62
     0
 10
3313.6176013102208
 20
2627.2726279959088
 30
0.0
 11
3362.2176013102198
 21
2675.8726279959092
 31
0.0
  0
LINE
  5
18EF
  8
0
 62
     0
 10
3295.9399317805569
 20
2627.2726279959088
 30
0.0
 11
3344.5399317805568
 21
2675.8726279959092
 31
0.0
  0
LINE
  5
18F0
  8
0
 62
     0
 10
3278.2622622508929
 20
2627.2726279959102
 30
0.0
 11
3326.8622622508942
 21
2675.8726279959092
 31
0.0
  0
LINE
  5
18F1
  8
0
 62
     0
 10
3260.5845927212299
 20
2627.2726279959088
 30
0.0
 11
3309.1845927212298
 21
2675.8726279959092
 31
0.0
  0
LINE
  5
18F2
  8
0
 62
     0
 10
3242.906923191566
 20
2627.2726279959088
 30
0.0
 11
3291.5069231915659
 21
2675.8726279959092
 31
0.0
  0
LINE
  5
18F3
  8
0
 62
     0
 10
3225.2292536619029
 20
2627.2726279959102
 30
0.0
 11
3273.8292536619028
 21
2675.8726279959092
 31
0.0
  0
LINE
  5
18F4
  8
0
 62
     0
 10
3207.551584132239
 20
2627.2726279959088
 30
0.0
 11
3256.1515841322389
 21
2675.8726279959092
 31
0.0
  0
LINE
  5
18F5
  8
0
 62
     0
 10
3189.873914602575
 20
2627.2726279959088
 30
0.0
 11
3238.473914602575
 21
2675.8726279959092
 31
0.0
  0
LINE
  5
18F6
  8
0
 62
     0
 10
3172.1962450729111
 20
2627.2726279959088
 30
0.0
 11
3220.796245072911
 21
2675.8726279959092
 31
0.0
  0
LINE
  5
18F7
  8
0
 62
     0
 10
3154.5185755432481
 20
2627.2726279959088
 30
0.0
 11
3203.118575543248
 21
2675.8726279959092
 31
0.0
  0
LINE
  5
18F8
  8
0
 62
     0
 10
3136.8409060135841
 20
2627.2726279959088
 30
0.0
 11
3185.4409060135849
 21
2675.8726279959092
 31
0.0
  0
LINE
  5
18F9
  8
0
 62
     0
 10
3119.1632364839202
 20
2627.2726279959088
 30
0.0
 11
3167.7632364839201
 21
2675.8726279959092
 31
0.0
  0
LINE
  5
18FA
  8
0
 62
     0
 10
3101.4855669542571
 20
2627.2726279959102
 30
0.0
 11
3150.085566954257
 21
2675.8726279959092
 31
0.0
  0
LINE
  5
18FB
  8
0
 62
     0
 10
3083.8078974245932
 20
2627.2726279959088
 30
0.0
 11
3132.4078974245931
 21
2675.8726279959092
 31
0.0
  0
LINE
  5
18FC
  8
0
 62
     0
 10
3066.1302278949288
 20
2627.2726279959088
 30
0.0
 11
3114.7302278949292
 21
2675.8726279959092
 31
0.0
  0
LINE
  5
18FD
  8
0
 62
     0
 10
3048.4525583652662
 20
2627.2726279959088
 30
0.0
 11
3097.0525583652661
 21
2675.8726279959092
 31
0.0
  0
LINE
  5
18FE
  8
0
 62
     0
 10
3030.7748888356018
 20
2627.2726279959102
 30
0.0
 11
3079.3748888356022
 21
2675.8726279959101
 31
0.0
  0
LINE
  5
18FF
  8
0
 62
     0
 10
3013.0972193059379
 20
2627.2726279959088
 30
0.0
 11
3061.6972193059391
 21
2675.8726279959092
 31
0.0
  0
LINE
  5
1900
  8
0
 62
     0
 10
2995.4195497762739
 20
2627.2726279959102
 30
0.0
 11
3044.0195497762752
 21
2675.8726279959092
 31
0.0
  0
LINE
  5
1901
  8
0
 62
     0
 10
2977.7418802466109
 20
2627.2726279959088
 30
0.0
 11
3026.3418802466108
 21
2675.8726279959092
 31
0.0
  0
LINE
  5
1902
  8
0
 62
     0
 10
2960.0642107169469
 20
2627.2726279959088
 30
0.0
 11
3008.6642107169469
 21
2675.8726279959092
 31
0.0
  0
LINE
  5
1903
  8
0
 62
     0
 10
2942.3865411872839
 20
2627.2726279959088
 30
0.0
 11
2990.9865411872838
 21
2675.8726279959092
 31
0.0
  0
LINE
  5
1904
  8
0
 62
     0
 10
2924.70887165762
 20
2627.2726279959088
 30
0.0
 11
2973.3088716576199
 21
2675.8726279959092
 31
0.0
  0
LINE
  5
1905
  8
0
 62
     0
 10
2907.031202127956
 20
2627.2726279959088
 30
0.0
 11
2955.6312021279568
 21
2675.8726279959092
 31
0.0
  0
LINE
  5
1906
  8
0
 62
     0
 10
2889.3535325982921
 20
2627.2726279959088
 30
0.0
 11
2937.9535325982929
 21
2675.8726279959092
 31
0.0
  0
LINE
  5
1907
  8
0
 62
     0
 10
2871.675863068629
 20
2627.2726279959102
 30
0.0
 11
2920.275863068629
 21
2675.8726279959092
 31
0.0
  0
LINE
  5
1908
  8
0
 62
     0
 10
2853.9981935389651
 20
2627.2726279959088
 30
0.0
 11
2902.598193538965
 21
2675.8726279959092
 31
0.0
  0
LINE
  5
1909
  8
0
 62
     0
 10
2836.3205240093012
 20
2627.2726279959088
 30
0.0
 11
2884.920524009302
 21
2675.8726279959092
 31
0.0
  0
LINE
  5
190A
  8
0
 62
     0
 10
2818.6428544796381
 20
2627.2726279959088
 30
0.0
 11
2867.242854479638
 21
2675.8726279959092
 31
0.0
  0
LINE
  5
190B
  8
0
 62
     0
 10
2800.9651849499742
 20
2627.2726279959088
 30
0.0
 11
2849.5651849499741
 21
2675.8726279959092
 31
0.0
  0
LINE
  5
190C
  8
0
 62
     0
 10
2783.2875154203098
 20
2627.2726279959088
 30
0.0
 11
2831.887515420311
 21
2675.8726279959092
 31
0.0
  0
LINE
  5
190D
  8
0
 62
     0
 10
2765.6098458906458
 20
2627.2726279959088
 30
0.0
 11
2814.2098458906471
 21
2675.8726279959092
 31
0.0
  0
LINE
  5
190E
  8
0
 62
     0
 10
2747.9321763609828
 20
2627.2726279959102
 30
0.0
 11
2796.5321763609841
 21
2675.8726279959092
 31
0.0
  0
LINE
  5
190F
  8
0
 62
     0
 10
2730.2545068313188
 20
2627.2726279959088
 30
0.0
 11
2778.8545068313201
 21
2675.8726279959092
 31
0.0
  0
LINE
  5
1910
  8
0
 62
     0
 10
2712.5768373016558
 20
2627.2726279959088
 30
0.0
 11
2761.1768373016562
 21
2675.8726279959092
 31
0.0
  0
LINE
  5
1911
  8
0
 62
     0
 10
2694.8991677719928
 20
2627.2726279959102
 30
0.0
 11
2743.4991677719918
 21
2675.8726279959092
 31
0.0
  0
LINE
  5
1912
  8
0
 62
     0
 10
2677.2214982423279
 20
2627.2726279959088
 30
0.0
 11
2725.8214982423278
 21
2675.8726279959092
 31
0.0
  0
LINE
  5
1913
  8
0
 62
     0
 10
2659.5438287126649
 20
2627.2726279959102
 30
0.0
 11
2708.1438287126648
 21
2675.8726279959092
 31
0.0
  0
LINE
  5
1914
  8
0
 62
     0
 10
2641.8661591830009
 20
2627.2726279959088
 30
0.0
 11
2690.4661591830009
 21
2675.8726279959092
 31
0.0
  0
LINE
  5
1915
  8
0
 62
     0
 10
2624.1884896533379
 20
2627.2726279959102
 30
0.0
 11
2672.7884896533378
 21
2675.8726279959092
 31
0.0
  0
LINE
  5
1916
  8
0
 62
     0
 10
2606.5108201236731
 20
2627.2726279959088
 30
0.0
 11
2655.110820123673
 21
2675.8726279959092
 31
0.0
  0
LINE
  5
1917
  8
0
 62
     0
 10
2596.7125721558259
 20
2635.1520495577261
 30
0.0
 11
2637.4331505940099
 21
2675.8726279959092
 31
0.0
  0
LINE
  5
1918
  8
0
 62
     0
 10
2596.7125721558259
 20
2652.82971908739
 30
0.0
 11
2619.755481064346
 21
2675.8726279959092
 31
0.0
  0
LINE
  5
1919
  8
0
 62
     0
 10
2596.7125721558268
 20
2670.5073886170539
 30
0.0
 11
2602.077811534682
 21
2675.8726279959092
 31
0.0
  0
ENDBLK
  5
191B
  8
0
  0
BLOCK
  8
0
  2
*X25
 70
     1
 10
0.0
 20
0.0
 30
0.0
  3
*X25
  1

  0
LINE
  5
191D
  8
0
 62
     0
 10
3472.7166270771941
 20
2377.2726279959088
 30
0.0
 11
3476.7125721558268
 21
2381.2685730745411
 31
0.0
  0
LINE
  5
191E
  8
0
 62
     0
 10
3455.038957547531
 20
2377.2726279959088
 30
0.0
 11
3476.7125721558268
 21
2398.9462426042051
 31
0.0
  0
LINE
  5
191F
  8
0
 62
     0
 10
3437.3612880178671
 20
2377.2726279959088
 30
0.0
 11
3476.7125721558259
 21
2416.6239121338681
 31
0.0
  0
LINE
  5
1920
  8
0
 62
     0
 10
3419.6836184882031
 20
2377.2726279959088
 30
0.0
 11
3468.2836184882021
 21
2425.8726279959092
 31
0.0
  0
LINE
  5
1921
  8
0
 62
     0
 10
3402.0059489585392
 20
2377.2726279959088
 30
0.0
 11
3450.6059489585391
 21
2425.8726279959092
 31
0.0
  0
LINE
  5
1922
  8
0
 62
     0
 10
3384.3282794288762
 20
2377.2726279959088
 30
0.0
 11
3432.9282794288752
 21
2425.8726279959092
 31
0.0
  0
LINE
  5
1923
  8
0
 62
     0
 10
3366.6506098992122
 20
2377.2726279959088
 30
0.0
 11
3415.2506098992112
 21
2425.8726279959092
 31
0.0
  0
LINE
  5
1924
  8
0
 62
     0
 10
3348.9729403695492
 20
2377.2726279959088
 30
0.0
 11
3397.5729403695482
 21
2425.8726279959092
 31
0.0
  0
LINE
  5
1925
  8
0
 62
     0
 10
3331.2952708398848
 20
2377.2726279959088
 30
0.0
 11
3379.8952708398851
 21
2425.8726279959092
 31
0.0
  0
LINE
  5
1926
  8
0
 62
     0
 10
3313.6176013102222
 20
2377.2726279959088
 30
0.0
 11
3362.2176013102198
 21
2425.8726279959092
 31
0.0
  0
LINE
  5
1927
  8
0
 62
     0
 10
3295.9399317805578
 20
2377.2726279959088
 30
0.0
 11
3344.5399317805568
 21
2425.8726279959092
 31
0.0
  0
LINE
  5
1928
  8
0
 62
     0
 10
3278.2622622508929
 20
2377.2726279959088
 30
0.0
 11
3326.8622622508929
 21
2425.8726279959092
 31
0.0
  0
LINE
  5
1929
  8
0
 62
     0
 10
3260.5845927212299
 20
2377.2726279959088
 30
0.0
 11
3309.1845927212298
 21
2425.8726279959092
 31
0.0
  0
LINE
  5
192A
  8
0
 62
     0
 10
3242.906923191566
 20
2377.2726279959088
 30
0.0
 11
3291.5069231915659
 21
2425.8726279959092
 31
0.0
  0
LINE
  5
192B
  8
0
 62
     0
 10
3225.2292536619029
 20
2377.2726279959088
 30
0.0
 11
3273.8292536619019
 21
2425.8726279959092
 31
0.0
  0
LINE
  5
192C
  8
0
 62
     0
 10
3207.551584132239
 20
2377.2726279959088
 30
0.0
 11
3256.1515841322389
 21
2425.8726279959092
 31
0.0
  0
LINE
  5
192D
  8
0
 62
     0
 10
3189.873914602575
 20
2377.2726279959088
 30
0.0
 11
3238.473914602574
 21
2425.8726279959092
 31
0.0
  0
LINE
  5
192E
  8
0
 62
     0
 10
3172.196245072912
 20
2377.2726279959088
 30
0.0
 11
3220.796245072911
 21
2425.8726279959092
 31
0.0
  0
LINE
  5
192F
  8
0
 62
     0
 10
3154.5185755432481
 20
2377.2726279959088
 30
0.0
 11
3203.118575543248
 21
2425.8726279959092
 31
0.0
  0
LINE
  5
1930
  8
0
 62
     0
 10
3136.840906013585
 20
2377.2726279959088
 30
0.0
 11
3185.440906013584
 21
2425.8726279959092
 31
0.0
  0
LINE
  5
1931
  8
0
 62
     0
 10
3119.1632364839211
 20
2377.2726279959088
 30
0.0
 11
3167.7632364839201
 21
2425.8726279959092
 31
0.0
  0
LINE
  5
1932
  8
0
 62
     0
 10
3101.4855669542571
 20
2377.2726279959088
 30
0.0
 11
3150.085566954257
 21
2425.8726279959092
 31
0.0
  0
LINE
  5
1933
  8
0
 62
     0
 10
3083.8078974245932
 20
2377.2726279959088
 30
0.0
 11
3132.4078974245931
 21
2425.8726279959092
 31
0.0
  0
LINE
  5
1934
  8
0
 62
     0
 10
3066.1302278949302
 20
2377.2726279959088
 30
0.0
 11
3114.7302278949292
 21
2425.8726279959092
 31
0.0
  0
LINE
  5
1935
  8
0
 62
     0
 10
3048.4525583652662
 20
2377.2726279959088
 30
0.0
 11
3097.0525583652652
 21
2425.8726279959092
 31
0.0
  0
LINE
  5
1936
  8
0
 62
     0
 10
3030.7748888356018
 20
2377.2726279959088
 30
0.0
 11
3079.3748888356022
 21
2425.8726279959092
 31
0.0
  0
LINE
  5
1937
  8
0
 62
     0
 10
3013.0972193059388
 20
2377.2726279959102
 30
0.0
 11
3061.6972193059378
 21
2425.8726279959092
 31
0.0
  0
LINE
  5
1938
  8
0
 62
     0
 10
2995.4195497762748
 20
2377.2726279959088
 30
0.0
 11
3044.0195497762752
 21
2425.8726279959092
 31
0.0
  0
LINE
  5
1939
  8
0
 62
     0
 10
2977.7418802466109
 20
2377.2726279959088
 30
0.0
 11
3026.3418802466108
 21
2425.8726279959092
 31
0.0
  0
LINE
  5
193A
  8
0
 62
     0
 10
2960.0642107169479
 20
2377.2726279959102
 30
0.0
 11
3008.6642107169469
 21
2425.8726279959092
 31
0.0
  0
LINE
  5
193B
  8
0
 62
     0
 10
2942.3865411872839
 20
2377.2726279959088
 30
0.0
 11
2990.9865411872829
 21
2425.8726279959092
 31
0.0
  0
LINE
  5
193C
  8
0
 62
     0
 10
2924.7088716576209
 20
2377.2726279959102
 30
0.0
 11
2973.3088716576199
 21
2425.8726279959092
 31
0.0
  0
LINE
  5
193D
  8
0
 62
     0
 10
2907.0312021279569
 20
2377.2726279959088
 30
0.0
 11
2955.6312021279559
 21
2425.8726279959092
 31
0.0
  0
LINE
  5
193E
  8
0
 62
     0
 10
2889.353532598293
 20
2377.2726279959102
 30
0.0
 11
2937.953532598292
 21
2425.8726279959092
 31
0.0
  0
LINE
  5
193F
  8
0
 62
     0
 10
2871.675863068629
 20
2377.2726279959088
 30
0.0
 11
2920.275863068629
 21
2425.8726279959092
 31
0.0
  0
LINE
  5
1940
  8
0
 62
     0
 10
2853.9981935389651
 20
2377.2726279959102
 30
0.0
 11
2902.598193538965
 21
2425.8726279959092
 31
0.0
  0
LINE
  5
1941
  8
0
 62
     0
 10
2836.3205240093021
 20
2377.2726279959102
 30
0.0
 11
2884.9205240093011
 21
2425.8726279959092
 31
0.0
  0
LINE
  5
1942
  8
0
 62
     0
 10
2818.6428544796381
 20
2377.2726279959088
 30
0.0
 11
2867.2428544796371
 21
2425.8726279959092
 31
0.0
  0
LINE
  5
1943
  8
0
 62
     0
 10
2800.9651849499751
 20
2377.2726279959102
 30
0.0
 11
2849.5651849499741
 21
2425.8726279959092
 31
0.0
  0
LINE
  5
1944
  8
0
 62
     0
 10
2783.2875154203111
 20
2377.2726279959088
 30
0.0
 11
2831.8875154203101
 21
2425.8726279959092
 31
0.0
  0
LINE
  5
1945
  8
0
 62
     0
 10
2765.6098458906481
 20
2377.2726279959102
 30
0.0
 11
2814.2098458906462
 21
2425.8726279959092
 31
0.0
  0
LINE
  5
1946
  8
0
 62
     0
 10
2747.9321763609842
 20
2377.2726279959088
 30
0.0
 11
2796.5321763609832
 21
2425.8726279959092
 31
0.0
  0
LINE
  5
1947
  8
0
 62
     0
 10
2730.2545068313202
 20
2377.2726279959102
 30
0.0
 11
2778.8545068313192
 21
2425.8726279959092
 31
0.0
  0
LINE
  5
1948
  8
0
 62
     0
 10
2712.5768373016558
 20
2377.2726279959088
 30
0.0
 11
2761.1768373016548
 21
2425.8726279959092
 31
0.0
  0
LINE
  5
1949
  8
0
 62
     0
 10
2694.8991677719928
 20
2377.2726279959088
 30
0.0
 11
2743.4991677719918
 21
2425.8726279959092
 31
0.0
  0
LINE
  5
194A
  8
0
 62
     0
 10
2677.2214982423288
 20
2377.2726279959102
 30
0.0
 11
2725.8214982423278
 21
2425.8726279959092
 31
0.0
  0
LINE
  5
194B
  8
0
 62
     0
 10
2659.5438287126649
 20
2377.2726279959102
 30
0.0
 11
2708.1438287126639
 21
2425.8726279959092
 31
0.0
  0
LINE
  5
194C
  8
0
 62
     0
 10
2641.8661591830019
 20
2377.2726279959102
 30
0.0
 11
2690.4661591830009
 21
2425.8726279959092
 31
0.0
  0
LINE
  5
194D
  8
0
 62
     0
 10
2624.1884896533379
 20
2377.2726279959102
 30
0.0
 11
2672.7884896533369
 21
2425.8726279959092
 31
0.0
  0
LINE
  5
194E
  8
0
 62
     0
 10
2606.510820123674
 20
2377.2726279959102
 30
0.0
 11
2655.110820123673
 21
2425.8726279959092
 31
0.0
  0
LINE
  5
194F
  8
0
 62
     0
 10
2596.7125721558259
 20
2385.1520495577251
 30
0.0
 11
2637.4331505940099
 21
2425.8726279959092
 31
0.0
  0
LINE
  5
1950
  8
0
 62
     0
 10
2596.7125721558259
 20
2402.8297190873891
 30
0.0
 11
2619.755481064346
 21
2425.8726279959092
 31
0.0
  0
LINE
  5
1951
  8
0
 62
     0
 10
2596.7125721558259
 20
2420.507388617053
 30
0.0
 11
2602.077811534682
 21
2425.8726279959092
 31
0.0
  0
ENDBLK
  5
1953
  8
0
  0
BLOCK
  8
0
  2
*U26
 70
     1
 10
0.0
 20
0.0
 30
0.0
  3
*U26
  1

  0
SOLID
  5
1955
  8
MOJI
 10
-3461.0493467652982
 20
2446.1594065517088
 30
0.0
 11
-3450.800743533156
 21
2417.5243557958588
 31
0.0
 12
-3469.782411700593
 22
2441.2876946517799
 32
0.0
 13
-3469.782411700593
 23
2441.2876946517799
 33
0.0
210
0.0
220
0.0
230
-1.0
  0
POLYLINE
  5
1956
  8
MOJI
 66
     1
 10
0.0
 20
0.0
 30
0.0
210
0.0
220
0.0
230
-1.0
  0
VERTEX
  5
1957
  8
MOJI
 10
-3465.4158792329458
 20
2443.7235506017441
 30
0.0
  0
VERTEX
  5
1958
  8
MOJI
 10
-3594.0899734695549
 20
2674.3856348015029
 30
0.0
  0
SEQEND
  5
1959
  8
MOJI
  0
ENDBLK
  5
195B
  8
0
  0
BLOCK
  8
0
  2
*U27
 70
     1
 10
0.0
 20
0.0
 30
0.0
  3
*U27
  1

  0
TEXT
  5
195D
  8
MOJI
 10
3615.5532057791761
 20
2690.085283552969
 30
0.0
 40
45.0
  1
セイフティグリーン
 41
0.8
  7
EXT08
  0
ENDBLK
  5
195F
  8
0
  0
BLOCK
  8
0
  2
*U28
 70
     1
 10
0.0
 20
0.0
 30
0.0
  3
*U28
  1

  0
SOLID
  5
1961
  8
MOJI
 10
-2920.0808692261398
 20
2977.4949612995192
 30
0.0
 11
-2909.1929129062
 21
2949.09685560257
 31
0.0
 12
-2928.7025274889379
 22
2972.428699482406
 32
0.0
 13
-2928.7025274889379
 23
2972.428699482406
 33
0.0
210
0.0
220
0.0
230
-1.0
  0
POLYLINE
  5
1962
  8
MOJI
 66
     1
 10
0.0
 20
0.0
 30
0.0
210
0.0
220
0.0
230
-1.0
  0
VERTEX
  5
1963
  8
MOJI
 10
-2924.3916983575391
 20
2974.9618303909629
 30
0.0
  0
VERTEX
  5
1964
  8
MOJI
 10
-2986.5777224529438
 20
3080.7887038979038
 30
0.0
  0
SEQEND
  5
1965
  8
MOJI
  0
ENDBLK
  5
1967
  8
0
  0
BLOCK
  8
0
  2
*U29
 70
     1
 10
0.0
 20
0.0
 30
0.0
  3
*U29
  1

  0
TEXT
  5
1969
  8
MOJI
 10
3008.040954762565
 20
3095.5413732780671
 30
0.0
 40
45.0
  1
ホワイト１０
 41
0.8
  7
EXT08
  0
ENDBLK
  5
196B
  8
0
  0
BLOCK
  8
0
  2
*U30
 70
     1
 10
0.0
 20
0.0
 30
0.0
  3
*U30
  1

  0
SOLID
  5
197E
  8
MOJI
 10
5436.3206768736454
 20
2089.4930624690069
 30
0.0
 11
5415.7488388043384
 21
2067.0921812709339
 31
0.0
 12
5427.9435349678224
 22
2094.9541515078058
 32
0.0
 13
5427.9435349678224
 23
2094.9541515078058
 33
0.0
  0
POLYLINE
  5
197F
  8
MOJI
 66
     1
 10
0.0
 20
0.0
 30
0.0
  0
VERTEX
  5
1980
  8
MOJI
 10
5432.1321059207339
 20
2092.2236069884061
 30
0.0
  0
VERTEX
  5
1981
  8
MOJI
 10
5513.3480954818087
 20
2216.8064264116879
 30
0.0
  0
SEQEND
  5
1982
  8
MOJI
  0
ENDBLK
  5
1984
  8
0
  0
ENDSEC
  0
SECTION
  2
ENTITIES
  0
INSERT
  5
FD
  8
ZWAKU
  2
SEIKO_LS-1100A3
 10
0.0
 20
0.0
 30
0.0
 41
15.0
 42
15.0
 43
15.0
  0
TEXT
  5
FF
  8
INFORMATION
 10
1.0
 20
2.0
 30
0.0
 40
0.8
  1
PLOTTER=SEIKO_LS-1100
  0
TEXT
  5
100
  8
INFORMATION
 10
1.0
 20
3.0
 30
0.0
 40
0.8
  1
PAPER=A3
  0
TEXT
  5
2DB
  8
MOJI2
 10
2178.6697887628552
 20
3437.4066244678738
 30
0.0
 40
60.0
  1
設置図
 41
0.8
  7
KANJI08
  0
TEXT
  5
2DC
  8
MOJI
 10
2887.0284306776011
 20
2226.220229472814
 30
0.0
 40
45.0
  1
ビームパイプ %%C48.6×t3.2
 41
0.8
  7
KANJI08
  0
TEXT
  5
2DD
  8
MOJI
 10
2898.9317716861028
 20
2730.8822830162958
 30
0.0
 40
45.0
  1
主柱 %%C76.3×t3.2
 41
0.8
  7
KANJI08
  0
LINE
  5
2DE
  8
MOJI
 10
2857.5350625784922
 20
2710.8822830162958
 30
0.0
 11
3305.2977552532338
 21
2710.8822830162958
 31
0.0
  0
TEXT
  5
2FB
  8
MOJI
 10
2144.7323953518239
 20
2171.897519440678
 30
0.0
 40
45.0
  1
GL
 41
0.8
  7
KANJI08
  0
LINE
  5
307
  8
MOJI2
 10
2158.3298452552949
 20
3423.4977258410381
 30
0.0
 11
2352.5525959271959
 21
3423.4977258410381
 31
0.0
  0
LINE
  5
308
  8
MOJI
 10
2857.5350625784922
 20
2204.9822830162939
 30
0.0
 11
3470.3729793056582
 21
2204.9822830162939
 31
0.0
  0
LINE
  5
30D
  8
SJC
 10
2126.1739062937309
 20
2151.572627995909
 30
0.0
 11
2498.5625721558258
 21
2151.572627995909
 31
0.0
1001
ACAD
1000
ASC_BOUNDS
1002
{
1070
    19
1002
}
  0
LINE
  5
30E
  8
MOJI2
 10
2158.3298452552949
 20
3408.4977258410381
 30
0.0
 11
2352.5525959271959
 21
3408.4977258410381
 31
0.0
  0
LINE
  5
30F
  8
CENTER
 10
2536.7125721558259
 20
2713.4226279959089
 30
0.0
 11
2536.7125721558259
 21
901.57262799590887
 31
0.0
  0
LINE
  5
310
  8
CENTER
 10
2736.7125721558259
 20
2913.4226279959089
 30
0.0
 11
3336.7125721558259
 21
2913.4226279959089
 31
0.0
  0
LINE
  5
312
  8
CENTER
 10
3536.7125721558259
 20
2713.4226279959089
 30
0.0
 11
3536.7125721558259
 21
901.57262799590887
 31
0.0
  0
DIMENSION
  5
314
  8
SUNPOU
  2
*D5
 10
3536.7125721558259
 20
3183.0425213434009
 30
0.0
 11
3036.7125721558259
 21
3223.5425213434009
 31
0.0
 70
     0
 13
2536.7125721558259
 23
2713.4226279959089
 33
0.0
 14
3536.7125721558259
 24
2713.4226279959089
 34
0.0
1001
ACAD
1000
DSTYLE
1002
{
1070
   287
1070
     5
1070
    40
1040
15.0
1070
    41
1040
2.0
1070
    42
1040
1.0
1070
    43
1040
6.0
1070
    44
1040
1.0
1070
    73
1070
     0
1070
    74
1070
     0
1070
    77
1070
     1
1070
    78
1070
     8
1070
   140
1040
3.0
1070
   147
1040
1.1999999999999991
1070
   172
1070
     1
1070
   176
1070
   256
1070
   177
1070
   256
1070
   178
1070
   256
1070
   271
1070
     1
1070
   275
1070
     1
1070
   279
1070
     2
1070
   340
1005
11F
1002
}
  0
LINE
  5
318
  8
SJC
 10
2574.862572155826
 20
2151.572627995909
 30
0.0
 11
3498.5625721558258
 21
2151.572627995909
 31
0.0
1001
ACAD
1000
ASC_BOUNDS
1002
{
1070
    19
1002
}
  0
INSERT
  5
31B
  8
SUNPOU
  2
B0040021
 10
2973.5788855864421
 20
2151.572627995909
 30
0.0
  0
LINE
  5
3ED
  8
SJC
 10
3574.862572155826
 20
2151.572627995909
 30
0.0
 11
3937.2227064758449
 21
2151.572627995909
 31
0.0
1001
ACAD
1000
ASC_BOUNDS
1002
{
1070
    19
1005
0
1002
}
  0
DIMENSION
  5
3EF
  8
SUNPOU
  2
*D6
 10
2039.952722366379
 20
2151.572627995909
 30
0.0
 11
1999.452722366379
 21
2026.572627995909
 31
0.0
 70
     0
 13
2471.3125721558258
 23
1901.572627995909
 33
0.0
 14
2126.1739062937309
 24
2151.572627995909
 34
0.0
 50
90.0
1001
ACAD
1000
DSTYLE
1002
{
1070
   287
1070
     5
1070
    40
1040
15.0
1070
    41
1040
2.0
1070
    42
1040
1.0
1070
    43
1040
6.0
1070
    44
1040
1.0
1070
    73
1070
     0
1070
    74
1070
     0
1070
    77
1070
     1
1070
    78
1070
     8
1070
   140
1040
3.0
1070
   147
1040
1.1999999999999991
1070
   172
1070
     1
1070
   176
1070
   256
1070
   177
1070
   256
1070
   178
1070
   256
1070
   271
1070
     1
1070
   275
1070
     1
1070
   279
1070
     2
1070
   340
1005
11F
1002
}
  0
LINE
  5
3F2
  8
SJC
 10
2736.7125721558259
 20
2951.572627995909
 30
0.0
 11
3336.7125721558259
 21
2951.572627995909
 31
0.0
  0
LINE
  5
3F3
  8
SJC
 10
2736.7125721558259
 20
2875.2726279959088
 30
0.0
 11
3336.7125721558259
 21
2875.2726279959088
 31
0.0
  0
LINE
  5
3F6
  8
SJC
 10
3498.5625721558258
 20
2713.4226279959089
 30
0.0
 11
3498.5625721558258
 21
2675.8726279959092
 31
0.0
  0
LINE
  5
3F7
  8
SJC
 10
3574.862572155826
 20
2713.4226279959089
 30
0.0
 11
3574.862572155826
 21
1901.572627995909
 31
0.0
  0
LINE
  5
3F8
  8
SJC
 10
2574.8625721558269
 20
2713.4226279959098
 30
0.0
 11
2574.8625721558269
 21
2675.8726279959092
 31
0.0
1001
ACAD
1000
ASC_BOUNDS
1002
{
1070
    19
1002
}
  0
LINE
  5
3F9
  8
SJC
 10
2498.5625721558258
 20
2713.4226279959089
 30
0.0
 11
2498.5625721558258
 21
1901.5726279959081
 31
0.0
1001
ACAD
1000
ASC_BOUNDS
1002
{
1070
    19
1002
}
  0
DIMENSION
  5
3FC
  8
SUNPOU
  2
*D7
 10
4033.4724219452728
 20
2951.572627995909
 30
0.0
 11
3992.9724219452728
 21
2801.5726279959099
 31
0.0
 70
     0
 13
3536.7125721558268
 23
2651.5726279959099
 33
0.0
 14
3336.7125721558268
 24
2951.572627995909
 34
0.0
 50
90.0
1001
ACAD
1000
DSTYLE
1002
{
1070
   287
1070
     5
1070
    40
1040
15.0
1070
    41
1040
2.0
1070
    42
1040
1.0
1070
    43
1040
6.0
1070
    44
1040
1.0
1070
    73
1070
     0
1070
    74
1070
     0
1070
    77
1070
     1
1070
    78
1070
     8
1070
   140
1040
3.0
1070
   147
1040
1.1999999999999991
1070
   172
1070
     1
1070
   176
1070
   256
1070
   177
1070
   256
1070
   178
1070
   256
1070
   271
1070
     1
1070
   275
1070
     1
1070
   279
1070
     2
1070
   340
1005
11F
1002
}
  0
DIMENSION
  5
3FD
  8
SUNPOU
  2
*D8
 10
1873.862839882589
 20
2951.572627995909
 30
0.0
 11
1833.362839882589
 21
2426.5726279959099
 31
0.0
 70
     0
 13
2471.3125721558258
 23
1901.572627995909
 33
0.0
 14
2696.7125721558259
 24
2951.572627995909
 34
0.0
 50
90.0
1001
ACAD
1000
DSTYLE
1002
{
1070
   287
1070
     5
1070
    40
1040
15.0
1070
    41
1040
2.0
1070
    42
1040
1.0
1070
    43
1040
6.0
1070
    44
1040
1.0
1070
    73
1070
     0
1070
    74
1070
     0
1070
    77
1070
     1
1070
    78
1070
     8
1070
   140
1040
3.0
1070
   147
1040
1.1999999999999991
1070
   172
1070
     1
1070
   176
1070
   256
1070
   177
1070
   256
1070
   178
1070
   256
1070
   271
1070
     1
1070
   275
1070
     1
1070
   279
1070
     2
1070
   340
1005
11F
1002
}
  0
SOLID
  5
400
  8
MOJI
  6
CONTINUOUS
 10
2807.2897174071832
 20
2845.2369777986692
 30
0.0
 11
2816.7725670028271
 21
2848.4111806192818
 31
0.0
 12
2802.508533743166
 22
2875.2726279959088
 32
0.0
 13
2802.508533743166
 23
2875.2726279959088
 33
0.0
  0
LINE
  5
401
  8
MOJI
  6
CONTINUOUS
 10
2812.0311422050049
 20
2846.8240792089759
 30
0.0
 11
2857.5350625784922
 21
2710.8822830162958
 31
0.0
  0
LINE
  5
402
  8
MOJI
  6
CONTINUOUS
 10
2717.0996779825259
 20
2627.2726279959088
 30
0.0
 11
2857.5350625784922
 21
2204.9822830162939
 31
0.0
  0
SOLID
  5
403
  8
MOJI
  6
CONTINUOUS
 10
2804.645343263111
 20
2347.2369777986678
 30
0.0
 11
2814.1281928587559
 21
2350.4111806192809
 31
0.0
 12
2799.8641595990948
 22
2377.2726279959079
 32
0.0
 13
2799.8641595990948
 23
2377.2726279959079
 33
0.0
  0
LINE
  5
405
  8
SJC
 10
2574.862572155826
 20
2627.272627995882
 30
0.0
 11
2574.862572155826
 21
2425.8726279959092
 31
0.0
1001
ACAD
1000
ASC_BOUNDS
1002
{
1070
    19
1005
3FE
1002
}
  0
LINE
  5
408
  8
SJC
 10
3498.5625721558258
 20
2627.272627995882
 30
0.0
 11
3498.5625721558258
 21
2425.8726279959092
 31
0.0
  0
TEXT
  5
4B6
  8
INFORMATION
 10
1.0
 20
1.0
 30
0.0
 40
0.8
  1
VERSION=3.0
  0
ARC
  5
4B7
  8
CENTER
 10
2736.7125721558259
 20
2713.4226279959089
 30
0.0
 40
200.0
 50
90.0
 51
180.0
  0
ARC
  5
4C0
  8
SJC
 10
2736.7125721558259
 20
2713.4226279959089
 30
0.0
 40
161.84999999999999
 50
90.0
 51
180.0
  0
ARC
  5
4C1
  8
SJC
 10
2736.7125721558259
 20
2713.4226279959089
 30
0.0
 40
238.15000000000001
 50
90.0
 51
180.0
  0
ARC
  5
4EF
  8
CENTER
 10
3336.7125721558259
 20
2713.4226279959089
 30
0.0
 40
200.0
 50
0.000000000000007
 51
90.0
  0
ARC
  5
4F0
  8
SJC
 10
3336.7125721558259
 20
2713.4226279959089
 30
0.0
 40
238.15000000000001
 50
0.000000000000007
 51
90.0
  0
ARC
  5
4F1
  8
SJC
 10
3336.7125721558259
 20
2713.4226279959089
 30
0.0
 40
161.84999999999999
 50
0.000000000000007
 51
90.0
  0
DIMENSION
  5
501
  8
SUNPOU
  2
*D9
 10
2736.7125721558282
 20
2713.4226279959112
 30
0.0
 11
2723.170272333839
 21
2790.6945941200211
 31
0.0
 70
   132
 15
2593.773057775531
 25
2853.3093508423808
 35
0.0
 40
0.0
1001
ACAD
1000
DSTYLE
1002
{
1070
   287
1070
     5
1070
    40
1040
15.0
1070
    41
1040
2.0
1070
    42
1040
1.0
1070
    43
1040
6.0
1070
    44
1040
1.0
1070
    73
1070
     0
1070
    74
1070
     0
1070
    77
1070
     1
1070
    78
1070
     8
1070
   140
1040
3.0
1070
   147
1040
1.1999999999999991
1070
   172
1070
     1
1070
   179
1070
     2
1070
   271
1070
     2
1070
   279
1070
     2
1070
   288
1070
     1
1070
   340
1005
11D
1002
}
  0
LINE
  5
531
  8
SJC
 10
2574.862572155826
 20
2675.8726279959092
 30
0.0
 11
3498.5625721558258
 21
2675.8726279959092
 31
0.0
  0
LINE
  5
532
  8
SJC
 10
2574.8625721558042
 20
2627.2726279959088
 30
0.0
 11
3498.562572155849
 21
2627.2726279959088
 31
0.0
  0
ARC
  5
53C
  8
SJC
 10
2604.272306938713
 20
2651.5726279958958
 30
0.0
 40
38.150000000005512
 50
140.43454069638369
 51
219.56545930361631
  0
ARC
  5
53D
  8
SJC
 10
3469.1528373729388
 20
2651.5726279958958
 30
0.0
 40
38.150000000005512
 50
320.43454069638381
 51
39.565459303616258
  0
LINE
  5
53E
  8
SJC
 10
2574.8625721558042
 20
2377.2726279959088
 30
0.0
 11
3498.562572155849
 21
2377.2726279959088
 31
0.0
  0
LINE
  5
53F
  8
SJC
 10
2574.862572155826
 20
2425.8726279959092
 30
0.0
 11
3498.5625721558258
 21
2425.8726279959092
 31
0.0
  0
ARC
  5
540
  8
SJC
 10
2604.272306938713
 20
2401.5726279958958
 30
0.0
 40
38.150000000005512
 50
140.43454069638369
 51
219.56545930361631
  0
ARC
  5
541
  8
SJC
 10
3469.1528373729388
 20
2401.5726279958958
 30
0.0
 40
38.150000000005512
 50
320.43454069638381
 51
39.565459303616258
  0
LINE
  5
542
  8
SJC
 10
2574.862572155826
 20
2377.272627995882
 30
0.0
 11
2574.862572155826
 21
1901.5726279959081
 31
0.0
1001
ACAD
1000
ASC_BOUNDS
1002
{
1070
    19
1002
}
  0
LINE
  5
543
  8
SJC
 10
3498.5625721558258
 20
2377.272627995882
 30
0.0
 11
3498.5625721558249
 21
1901.572627995909
 31
0.0
  0
SOLID
  5
544
  8
MOJI
  6
CONTINUOUS
 10
2721.8808616465421
 20
2597.2369777986728
 30
0.0
 11
2731.3637112421861
 21
2600.411180619285
 31
0.0
 12
2717.0996779825259
 22
2627.272627995912
 32
0.0
 13
2717.0996779825259
 23
2627.272627995912
 33
0.0
  0
DIMENSION
  5
546
  8
SUNPOU
  2
*D10
 10
4033.4724219452728
 20
2401.5726279958958
 30
0.0
 11
3992.9724219452728
 21
2526.5726279959031
 31
0.0
 70
     0
 13
3536.7125721558268
 23
2651.5726279959099
 33
0.0
 14
3536.7125721558268
 24
2401.5726279958958
 34
0.0
 50
90.0
1001
ACAD
1000
DSTYLE
1002
{
1070
   287
1070
     5
1070
    40
1040
15.0
1070
    41
1040
2.0
1070
    42
1040
1.0
1070
    43
1040
6.0
1070
    44
1040
1.0
1070
    73
1070
     0
1070
    74
1070
     0
1070
    77
1070
     1
1070
    78
1070
     8
1070
   140
1040
3.0
1070
   147
1040
1.1999999999999991
1070
   172
1070
     1
1070
   179
1070
     2
1070
   271
1070
     2
1070
   279
1070
     2
1070
   340
1005
11D
1002
}
  0
DIMENSION
  5
553
  8
SUNPOU
  2
*D11
 10
4033.4724219452742
 20
2151.572627995909
 30
0.0
 11
3992.9724219452728
 21
2276.5726279959031
 31
0.0
 70
     0
 13
3536.7125721558268
 23
2401.5726279958958
 33
0.0
 14
3947.2512380179219
 24
2151.572627995909
 34
0.0
 50
90.0
1001
ACAD
1000
DSTYLE
1002
{
1070
   287
1070
     5
1070
    40
1040
15.0
1070
    41
1040
2.0
1070
    42
1040
1.0
1070
    43
1040
6.0
1070
    44
1040
1.0
1070
    73
1070
     0
1070
    74
1070
     0
1070
    77
1070
     1
1070
    78
1070
     8
1070
   140
1040
3.0
1070
   147
1040
1.1999999999999991
1070
   172
1070
     1
1070
   179
1070
     2
1070
   271
1070
     2
1070
   279
1070
     2
1070
   340
1005
11D
1002
}
  0
LINE
  5
912
  8
SJC
 10
5051.4317998701472
 20
4165.2545027623164
 30
0.0
 11
5981.4317998701463
 21
4165.2545027623164
 31
0.0
  0
LINE
  5
913
  8
SJC
 10
5051.4317998701472
 20
3940.254502762316
 30
0.0
 11
5981.4317998701463
 21
3940.254502762316
 31
0.0
  0
LINE
  5
914
  8
SJC
 10
5028.9317998701472
 20
4015.254502762316
 30
0.0
 11
6003.9317998701463
 21
4015.254502762316
 31
0.0
  0
LINE
  5
915
  8
SJC
 10
5028.9317998701472
 20
4090.254502762316
 30
0.0
 11
6003.9317998701463
 21
4090.254502762316
 31
0.0
  0
TEXT
  5
916
  8
MOJI
 10
5287.795190993811
 20
3955.6695891817881
 30
0.0
 40
45.0
  1
KGSH00095
 41
0.8
  7
EXT08
  0
TEXT
  5
917
  8
MOJI
 10
5287.795190993811
 20
4030.6695891817872
 30
0.0
 40
45.0
  1
KSP-8-10WM-EH
 41
0.8
  7
EXT08
  0
TEXT
  5
918
  8
MOJI
 10
5287.795190993811
 20
4105.6695891817872
 30
0.0
 40
45.0
  1
高強度セイフティパイプ
 41
0.8
  7
EXT08
  0
TEXT
  5
919
  8
MOJI
 10
5078.0889427272896
 20
4104.3545027623159
 30
0.0
 40
45.0
  1
タイプ
 41
0.8
  7
EXT08
 72
     4
 11
5141.4317998701463
 21
4127.7545027623164
 31
0.0
  0
LINE
  5
91A
  8
SJC
 10
5253.9317998701463
 20
3940.254502762316
 30
0.0
 11
5253.9317998701463
 21
4165.2545027623164
 31
0.0
  0
ARC
  5
91B
  8
SJC
 10
5051.4317998701472
 20
4142.7545027623173
 30
0.0
 40
22.5
 50
90.0
 51
180.0
  0
ARC
  5
91C
  8
SJC
 10
5051.4317998701472
 20
3962.7545027623169
 30
0.0
 40
22.5
 50
180.0
 51
270.0
  0
LINE
  5
91D
  8
SJC
 10
5028.9317998701472
 20
3962.7545027623169
 30
0.0
 11
5028.9317998701472
 21
4142.7545027623173
 31
0.0
  0
TEXT
  5
91E
  8
MOJI
 10
5081.4317998701463
 20
4030.2545027623169
 30
0.0
 40
45.0
  1
品  番
 41
0.8
  7
EXT08
 72
     4
 11
5141.4317998701463
 21
4052.754502762316
 31
0.0
  0
TEXT
  5
91F
  8
MOJI
 10
5058.6317998701461
 20
3955.2545027623169
 30
0.0
 40
45.0
  1
図面番号
 41
0.8
  7
EXT08
 72
     4
 11
5141.4317998701463
 21
3977.754502762316
 31
0.0
  0
ARC
  5
920
  8
SJC
 10
5981.4317998701463
 20
4142.7545027623173
 30
0.0
 40
22.5
 50
0.0
 51
90.0
  0
ARC
  5
921
  8
SJC
 10
5981.4317998701463
 20
3962.7545027623169
 30
0.0
 40
22.5
 50
270.0
 51
0.0
  0
LINE
  5
922
  8
SJC
 10
6003.9317998701463
 20
3962.7545027623169
 30
0.0
 11
6003.9317998701463
 21
4142.7545027623173
 31
0.0
  0
LINE
  5
FD1
  8
SJC
 10
2606.6125721558251
 20
2151.572627995909
 30
0.0
 11
2606.612572155826
 21
951.57262799590865
 31
0.0
  0
LINE
  5
FD2
  8
SJC
 10
2466.8125721558258
 20
2151.572627995909
 30
0.0
 11
2466.8125721558258
 21
951.57262799590865
 31
0.0
  0
LINE
  5
FD5
  8
SJC
 10
2470.0125721558261
 20
951.57262799590933
 30
0.0
 11
2606.612572155826
 21
951.57262799590933
 31
0.0
1001
ACAD
1000
ASC_BOUNDS
1002
{
1070
    19
1002
}
  0
LINE
  5
FD7
  8
SJC
 10
2498.5625721558258
 20
1901.5726279959081
 30
0.0
 11
2574.862572155826
 21
1901.5726279959081
 31
0.0
1001
ACAD
1000
ASC_BOUNDS
1002
{
1070
    19
1002
}
  0
LINE
  5
FD8
  8
SJC
 10
3466.8125721558258
 20
2151.572627995909
 30
0.0
 11
3466.8125721558258
 21
951.57262799590865
 31
0.0
  0
LINE
  5
FDA
  8
SJC
 10
3606.612572155826
 20
2151.572627995909
 30
0.0
 11
3606.612572155826
 21
951.57262799590865
 31
0.0
  0
LINE
  5
FDC
  8
SJC
 10
3498.5625721558249
 20
1901.572627995909
 30
0.0
 11
3574.862572155826
 21
1901.572627995909
 31
0.0
1001
ACAD
1000
ASC_BOUNDS
1002
{
1070
    19
1002
}
  0
LINE
  5
FDD
  8
SJC
 10
3470.0125721558261
 20
951.57262799590933
 30
0.0
 11
3606.612572155826
 21
951.57262799590933
 31
0.0
1001
ACAD
1000
ASC_BOUNDS
1002
{
1070
    19
1002
}
  0
DIMENSION
  5
1015
  8
SUNPOU
  2
*D12
 10
2830.3724670335691
 20
951.57262799590865
 30
0.0
 11
2789.8724670335691
 21
1551.572627995909
 31
0.0
 70
     0
 13
2606.6125721558251
 23
2151.572627995909
 33
0.0
 14
2606.612572155826
 24
951.57262799590865
 34
0.0
 50
90.0
1001
ACAD
1000
DSTYLE
1002
{
1070
   287
1070
     5
1070
    40
1040
15.0
1070
    41
1040
2.0
1070
    42
1040
1.0
1070
    43
1040
6.0
1070
    44
1040
1.0
1070
    73
1070
     0
1070
    74
1070
     0
1070
    77
1070
     1
1070
    78
1070
     8
1070
   140
1040
3.0
1070
   147
1040
1.1999999999999991
1070
   172
1070
     1
1070
   179
1070
     2
1070
   271
1070
     2
1070
   279
1070
     2
1070
   340
1005
11D
1002
}
  0
INSERT
  5
10A7
  8
0
  2
*U18
 10
0.0
 20
0.0
 30
0.0
1001
ACAD
1000
DSTYLE
1002
{
1070
    40
1040
15.0
1070
    41
1040
2.0
1070
    42
1040
1.0
1070
    43
1040
6.0
1070
    44
1040
1.0
1070
    73
1070
     0
1070
    74
1070
     0
1070
    77
1070
     1
1070
    78
1070
     8
1070
   140
1040
3.0
1070
   147
1040
1.1999999999999991
1070
   172
1070
     1
1070
   179
1070
     2
1070
   271
1070
     2
1070
   279
1070
     2
1070
   340
1005
11D
1002
}
  0
INSERT
  5
10A8
  8
0
  2
*U19
 10
0.0
 20
0.0
 30
0.0
  0
INSERT
  5
10A9
  8
0
  2
*U20
 10
0.0
 20
0.0
 30
0.0
1001
ACAD
1000
DSTYLE
1002
{
1070
    40
1040
15.0
1070
    41
1040
2.0
1070
    42
1040
1.0
1070
    43
1040
6.0
1070
    44
1040
1.0
1070
    73
1070
     0
1070
    74
1070
     0
1070
    77
1070
     1
1070
    78
1070
     8
1070
   140
1040
3.0
1070
   147
1040
1.1999999999999991
1070
   172
1070
     1
1070
   179
1070
     2
1070
   271
1070
     2
1070
   279
1070
     2
1070
   340
1005
11D
1002
}
  0
INSERT
  5
10AA
  8
0
  2
*U21
 10
0.0
 20
0.0
 30
0.0
  0
TEXT
  5
10AB
  8
MOJI
 10
2863.9522070458879
 20
1251.7352231563
 30
0.0
 40
45.0
  1
φ139.8×t4.5×L1200
 41
0.8
  7
EXT08
  0
LINE
  5
10AC
  8
MOJI
 10
3001.414383908259
 20
1317.652900579953
 30
0.0
 11
3223.8865258819501
 21
1317.652900579953
 31
0.0
  0
LINE
  5
10D9
  8
HASEN
 10
2471.3125721558258
 20
2151.572627995909
 30
0.0
 11
2471.3125721558258
 21
951.57262799590865
 31
0.0
  0
LINE
  5
10DA
  8
HASEN
 10
2602.112572155826
 20
2151.572627995909
 30
0.0
 11
2602.112572155826
 21
951.57262799590865
 31
0.0
  0
LINE
  5
10FD
  8
HASEN
 10
3471.3125721558258
 20
2151.572627995909
 30
0.0
 11
3471.3125721558258
 21
951.57262799590865
 31
0.0
  0
LINE
  5
10FE
  8
HASEN
 10
3602.1125721558269
 20
2151.572627995909
 30
0.0
 11
3602.112572155826
 21
951.57262799590865
 31
0.0
  0
LINE
  5
115A
  8
SJC
 10
3471.3125721558258
 20
1851.572627995909
 30
0.0
 11
3602.1125721558269
 21
1851.572627995909
 31
0.0
1001
ACAD
1000
ASC_BOUNDS
1002
{
1070
    19
1005
0
1002
}
  0
LINE
  5
115B
  8
SJC
 10
2471.3125721558258
 20
1851.572627995909
 30
0.0
 11
2602.1125721558269
 21
1851.572627995909
 31
0.0
1001
ACAD
1000
ASC_BOUNDS
1002
{
1070
    19
1005
0
1002
}
  0
LINE
  5
115C
  8
MOJI
 10
3223.8865258819501
 20
1317.652900579953
 30
0.0
 11
3438.1573790126349
 21
1317.652900579953
 31
0.0
  0
DIMENSION
  5
1170
  8
SUNPOU
  2
*D13
 10
2731.6950409648889
 20
2151.572627995909
 30
0.0
 11
2691.1950409648889
 21
2001.572627995909
 31
0.0
 70
     0
 13
2602.112572155826
 23
1851.572627995909
 33
0.0
 14
2606.6125721558251
 24
2151.572627995909
 34
0.0
 50
90.0
1001
ACAD
1000
DSTYLE
1002
{
1070
   287
1070
     5
1070
    40
1040
15.0
1070
    41
1040
2.0
1070
    42
1040
1.0
1070
    43
1040
6.0
1070
    44
1040
1.0
1070
    73
1070
     0
1070
    74
1070
     0
1070
    77
1070
     1
1070
    78
1070
     8
1070
   140
1040
3.0
1070
   147
1040
1.1999999999999991
1070
   172
1070
     1
1070
   179
1070
     2
1070
   271
1070
     2
1070
   279
1070
     2
1070
   340
1005
11D
1002
}
  0
INSERT
  5
11AA
  8
HATCH
  6
CONTINUOUS
  2
*X22
 10
0.0
 20
0.0
 30
0.0
1001
ACAD
1000
HATCH
1002
{
1070
    19
1000
AR-CONC
1040
0.5
1040
0.0
1000
ASC_BOUNDS
1070
     1
1070
     2
1070
     0
1000
ASC_SEEDPOINT
1011
-747.52902809612169
1021
-0.0
1031
9.5922905489131860E+015
1021
0.0
1031
0.0
1000
R14_HATCH_DATA
1000
11AA
1011
1.0
1021
-0.0
1031
9.5922905489131860E+015
1021
0.0
1031
0.0
1011
0.0
1021
-0.0
1031
9.5922905489131860E+015
1021
1.0
1031
0.0
1011
0.0
1021
-0.0
1031
9.5922905489131860E+015
1021
0.0
1031
1.0
1040
0.0
1010
0.0
1020
0.0
1030
1.0
1000
AR-CONC
1070
     0
1070
     1
1071
        1
1071
        1
1071
        8
1070
     1
1040
3574.8625721558251
1040
2151.572627995909
1040
3602.112572155826
1040
2151.572627995909
1070
     1
1040
3602.112572155826
1040
2151.572627995909
1040
3602.1125721558269
1040
1851.572627995909
1070
     1
1040
3602.1125721558269
1040
1851.572627995909
1040
3471.3125721558258
1040
1851.572627995909
1070
     1
1040
3471.3125721558258
1040
1851.572627995909
1040
3471.3125721558258
1040
2151.572627995909
1070
     1
1040
3471.3125721558258
1040
2151.572627995909
1040
3498.5625721558272
1040
2151.572627995909
1070
     1
1040
3498.5625721558258
1040
2151.572627995909
1040
3498.5625721558258
1040
1901.5726279959081
1070
     1
1040
3498.5625721558258
1040
1901.5726279959081
1040
3574.862572155826
1040
1901.5726279959081
1070
     1
1040
3574.862572155826
1040
1901.5726279959081
1040
3574.862572155826
1040
2151.572627995909
1071
        0
1070
     0
1070
     1
1040
0.0
1040
0.5
1070
     0
1070
    13
1040
0.8726646259971645
1040
-747.52902809612169
1040
0.0
1040
91.092334498002003
1040
-7.9695427694515431
1070
     2
1040
9.5250000000000004
1040
-104.77500000000001
1040
6.195918844579869
1040
-747.52902809612169
1040
0.0
1040
-17.621412987833491
1040
95.528321441089986
1070
     2
1040
7.6200000000000001
1040
-83.819999999999993
1040
1.753200686920823
1040
-739.93802809612157
1040
-0.664125
1040
73.471250832979621
1040
87.558343910145936
1070
     2
1040
8.0950000000000006
1040
-89.045000000000002
1040
0.8060663523995651
1040
-747.52902809612169
1040
25.399999999999999
1040
135.5395204460649
1040
-21.021163966363581
1070
     2
1040
14.2875
1040
-157.16249999999999
1040
1.6866093946402321
1040
-736.23407809612172
1040
23.648250000000001
1040
118.7021172331185
1040
123.7127779450246
1070
     2
1040
12.1425
1040
-133.5675
1040
6.1293170803237658
1040
-747.52902809612169
1040
25.399999999999999
1040
118.70230290696691
1040
123.7125589302988
1070
     2
1040
11.43
1040
-125.73
1040
0.3665191429188092
1040
-734.82902809612165
1040
19.050000000000001
1040
75.807439917691639
1040
-51.132759258381249
1070
     2
1040
9.5250000000000004
1040
-104.77500000000001
1040
5.6897733615015138
1040
-734.82902809612165
1040
19.050000000000001
1040
30.90101417382354
1040
92.093983061159619
1070
     2
1040
7.6200000000000001
1040
-83.819999999999993
1040
1.2470621851594761
1040
-728.5117780961217
1040
14.78895
1040
106.7082453850622
1040
40.961428858028718
1070
     2
1040
8.0950000000000006
1040
-89.045000000000002
1040
0.6544984694978737
1040
-747.52902809612169
1040
0.0
1040
1.5443016252959081
1040
42.277519436576547
1070
     6
1040
0.0
1040
-82.804000000000002
1040
0.0
1040
-85.090000000000003
1040
0.0
1040
-84.137500000000003
1040
0.1308996938995747
1040
-747.52902809612169
1040
0.0
1040
33.409831255152874
1040
50.090287409059748
1070
     6
1040
0.0
1040
-48.513999999999989
1040
0.0
1040
-80.899000000000001
1040
0.0
1040
-32.067500000000003
1040
5.715953300281428
1040
-775.85002809612172
1040
0.0
1040
67.795297583435698
1040
-2.864371996336728
1070
     6
1040
0.0
1040
-31.75
1040
0.0
1040
-99.060000000000002
1040
0.0
1040
-131.44499999999999
1040
5.5414203750819961
1040
-788.55002809612165
1040
0.0
1040
74.064590693009023
1040
12.713245516666509
1070
     6
1040
0.0
1040
-41.274999999999999
1040
0.0
1040
-65.786000000000001
1040
0.0
1040
-93.344999999999999
1071
        1
1040
-747.52902809612169
1040
0.0
1040
0.0
1002
}
  0
INSERT
  5
11AB
  8
HATCH
  6
CONTINUOUS
  2
*X23
 10
0.0
 20
0.0
 30
0.0
1001
ACAD
1000
HATCH
1002
{
1070
    19
1000
AR-CONC
1040
0.5
1040
0.0
1000
R14_HATCH_DATA
1000
11AB
1011
1.0
1021
-0.0
1031
9.5922905489131860E+015
1021
0.0
1031
0.0
1011
0.0
1021
-0.0
1031
9.5922905489131860E+015
1021
1.0
1031
0.0
1011
0.0
1021
-0.0
1031
9.5922905489131860E+015
1021
0.0
1031
1.0
1040
0.0
1010
0.0
1020
0.0
1030
1.0
1000
AR-CONC
1070
     0
1070
     0
1071
        1
1071
        1
1071
        8
1070
     1
1040
2574.8625721558251
1040
2151.572627995909
1040
2602.112572155826
1040
2151.572627995909
1070
     1
1040
2602.112572155826
1040
2151.572627995909
1040
2602.1125721558269
1040
1851.572627995909
1070
     1
1040
2602.1125721558269
1040
1851.572627995909
1040
2471.3125721558258
1040
1851.572627995909
1070
     1
1040
2471.3125721558258
1040
1851.572627995909
1040
2471.3125721558258
1040
2151.572627995909
1070
     1
1040
2471.3125721558258
1040
2151.572627995909
1040
2498.5625721558272
1040
2151.572627995909
1070
     1
1040
2498.5625721558258
1040
2151.572627995909
1040
2498.5625721558258
1040
1901.5726279959081
1070
     1
1040
2498.5625721558258
1040
1901.5726279959081
1040
2574.862572155826
1040
1901.5726279959081
1070
     1
1040
2574.862572155826
1040
1901.5726279959081
1040
2574.862572155826
1040
2151.572627995909
1071
        0
1070
     0
1070
     1
1040
0.0
1040
0.5
1070
     0
1070
    13
1040
0.8726646259971645
1040
-1747.5290280961219
1040
0.0
1040
91.092334498002003
1040
-7.9695427694515431
1070
     2
1040
9.5250000000000004
1040
-104.77500000000001
1040
6.195918844579869
1040
-1747.5290280961219
1040
0.0
1040
-17.621412987833491
1040
95.528321441089986
1070
     2
1040
7.6200000000000001
1040
-83.819999999999993
1040
1.753200686920823
1040
-1739.938028096122
1040
-0.664125
1040
73.471250832979621
1040
87.558343910145936
1070
     2
1040
8.0950000000000006
1040
-89.045000000000002
1040
0.8060663523995651
1040
-1747.5290280961219
1040
25.399999999999999
1040
135.5395204460649
1040
-21.021163966363581
1070
     2
1040
14.2875
1040
-157.16249999999999
1040
1.6866093946402321
1040
-1736.2340780961219
1040
23.648250000000001
1040
118.7021172331185
1040
123.7127779450246
1070
     2
1040
12.1425
1040
-133.56749999999991
1040
6.1293170803237658
1040
-1747.5290280961219
1040
25.399999999999999
1040
118.70230290696691
1040
123.7125589302988
1070
     2
1040
11.43
1040
-125.73
1040
0.3665191429188092
1040
-1734.8290280961221
1040
19.050000000000001
1040
75.807439917691639
1040
-51.132759258381249
1070
     2
1040
9.5250000000000004
1040
-104.77500000000001
1040
5.6897733615015138
1040
-1734.8290280961221
1040
19.050000000000001
1040
30.90101417382354
1040
92.093983061159619
1070
     2
1040
7.6200000000000001
1040
-83.819999999999993
1040
1.2470621851594761
1040
-1728.511778096122
1040
14.78895
1040
106.7082453850622
1040
40.961428858028718
1070
     2
1040
8.0950000000000006
1040
-89.045000000000002
1040
0.6544984694978737
1040
-1747.5290280961219
1040
0.0
1040
1.5443016252959081
1040
42.277519436576547
1070
     6
1040
0.0
1040
-82.804000000000002
1040
0.0
1040
-85.090000000000003
1040
0.0
1040
-84.137500000000003
1040
0.1308996938995747
1040
-1747.5290280961219
1040
0.0
1040
33.409831255152874
1040
50.090287409059748
1070
     6
1040
0.0
1040
-48.513999999999989
1040
0.0
1040
-80.899000000000001
1040
0.0
1040
-32.067500000000003
1040
5.715953300281428
1040
-1775.8500280961209
1040
0.0
1040
67.795297583435698
1040
-2.864371996336728
1070
     6
1040
0.0
1040
-31.75
1040
0.0
1040
-99.060000000000002
1040
0.0
1040
-131.44499999999999
1040
5.5414203750819961
1040
-1788.5500280961221
1040
0.0
1040
74.064590693009023
1040
12.713245516666509
1070
     6
1040
0.0
1040
-41.274999999999999
1040
0.0
1040
-65.786000000000001
1040
0.0
1040
-93.344999999999999
1071
        1
1040
-1747.5290280961219
1040
0.0
1040
0.0
1002
}
  0
TEXT
  5
1253
  8
MOJI
 10
2222.8579877583638
 20
729.79765837784885
 30
0.0
 40
60.0
  1
※基礎寸法は参考値です。
 41
0.8
  7
EXT08
 72
     1
 11
2551.8865591869348
 21
729.79765837784885
 31
0.0
  0
TEXT
  5
1544
  8
MOJI
 10
4085.4336669548052
 20
199.65727514146391
 30
0.0
 40
60.0
  1
※本製品は車両用防護柵の強度を保有するものではありません。
 41
0.8
  7
EXT08
 72
     1
 11
4904.062238383377
 21
199.65727514146391
 31
0.0
  0
LINE
  5
15B6
  8
SJC
 10
2596.7125721558259
 20
2675.8726279959092
 30
0.0
 11
2596.7125721558259
 21
2627.2726279959088
 31
0.0
  0
LINE
  5
15B7
  8
SJC
 10
2596.7125721558259
 20
2425.8726279959092
 30
0.0
 11
2596.7125721558259
 21
2377.2726279959088
 31
0.0
  0
LINE
  5
15B8
  8
SJC
 10
3476.7125721558259
 20
2675.8726279959092
 30
0.0
 11
3476.7125721558259
 21
2627.2726279959088
 31
0.0
  0
LINE
  5
15B9
  8
SJC
 10
3476.7125721558259
 20
2425.8726279959092
 30
0.0
 11
3476.7125721558259
 21
2377.2726279959088
 31
0.0
  0
INSERT
  5
15BA
  8
HATCH
  6
CONTINUOUS
  2
*X24
 10
0.0
 20
0.0
 30
0.0
1001
ACAD
1000
HATCH
1002
{
1070
    19
1000
ANSI31
1040
100.0
1040
0.0
1000
R14_HATCH_DATA
1000
15BA
1011
1.0
1021
-0.0
1031
9.5922905489131860E+015
1021
0.0
1031
0.0
1011
0.0
1021
-0.0
1031
9.5922905489131860E+015
1021
1.0
1031
0.0
1011
0.0
1021
-0.0
1031
9.5922905489131860E+015
1021
0.0
1031
1.0
1040
0.0
1010
0.0
1020
0.0
1030
1.0
1000
ANSI31
1070
     0
1070
     0
1071
        1
1071
        1
1071
        4
1070
     1
1040
3476.7125721558259
1040
2675.8726279959092
1040
3476.7125721558268
1040
2627.2726279959088
1070
     1
1040
3476.7125721558259
1040
2627.2726279959088
1040
2596.7125721558259
1040
2627.2726279959088
1070
     1
1040
2596.7125721558259
1040
2627.2726279959088
1040
2596.7125721558268
1040
2675.8726279959092
1070
     1
1040
2596.7125721558268
1040
2675.8726279959092
1040
3476.7125721558259
1040
2675.8726279959092
1071
        0
1070
     0
1070
     1
1040
0.0
1040
100.0
1070
     0
1070
     1
1040
0.7853981633974483
1040
560.22428302989726
1040
987.5724900843984
1040
-8.8388347648318426
1040
8.8388347648318444
1070
     0
1071
        1
1040
560.22428302989726
1040
987.5724900843984
1040
0.0
1002
}
  0
INSERT
  5
15BB
  8
HATCH
  6
CONTINUOUS
  2
*X25
 10
0.0
 20
0.0
 30
0.0
1001
ACAD
1000
HATCH
1002
{
1070
    19
1000
ANSI31
1040
100.0
1040
0.0
1000
R14_HATCH_DATA
1000
15BB
1011
1.0
1021
-0.0
1031
9.5922905489131860E+015
1021
0.0
1031
0.0
1011
0.0
1021
-0.0
1031
9.5922905489131860E+015
1021
1.0
1031
0.0
1011
0.0
1021
-0.0
1031
9.5922905489131860E+015
1021
0.0
1031
1.0
1040
0.0
1010
0.0
1020
0.0
1030
1.0
1000
ANSI31
1070
     0
1070
     0
1071
        1
1071
        1
1071
        4
1070
     1
1040
3476.7125721558259
1040
2425.8726279959092
1040
3476.7125721558268
1040
2377.2726279959088
1070
     1
1040
3476.7125721558259
1040
2377.2726279959088
1040
2596.7125721558259
1040
2377.2726279959088
1070
     1
1040
2596.7125721558259
1040
2377.2726279959088
1040
2596.7125721558259
1040
2425.8726279959092
1070
     1
1040
2596.7125721558259
1040
2425.8726279959092
1040
3476.712572155825
1040
2425.8726279959092
1071
        0
1070
     0
1070
     1
1040
0.0
1040
100.0
1070
     0
1070
     1
1040
0.7853981633974483
1040
560.22428302989726
1040
737.57249008439794
1040
-8.8388347648318426
1040
8.8388347648318444
1070
     0
1071
        1
1040
560.22428302989726
1040
737.57249008439794
1040
0.0
1002
}
  0
INSERT
  5
15BC
  8
0
  2
*U26
 10
0.0
 20
0.0
 30
0.0
1001
ACAD
1000
DSTYLE
1002
{
1070
     5
1000

1070
    40
1040
15.0
1070
    41
1040
2.0
1070
    42
1040
1.0
1070
    43
1040
6.0
1070
    44
1040
1.0
1070
    73
1070
     0
1070
    74
1070
     0
1070
    77
1070
     1
1070
    78
1070
     8
1070
   140
1040
3.0
1070
   147
1040
1.1999999999999991
1070
   172
1070
     1
1070
   179
1070
     2
1070
   271
1070
     2
1070
   279
1070
     2
1070
   340
1005
11D
1070
   342
1005
0
1002
}
  0
INSERT
  5
15BD
  8
0
  2
*U27
 10
0.0
 20
0.0
 30
0.0
  0
LINE
  5
15BE
  8
MOJI
  6
CONTINUOUS
 10
3594.0899734695549
 20
2674.3856348015029
 30
0.0
 11
4015.0863832705591
 21
2674.3856348015029
 31
0.0
  0
INSERT
  5
15BF
  8
0
  2
*U28
 10
0.0
 20
0.0
 30
0.0
1001
ACAD
1000
DSTYLE
1002
{
1070
     5
1000

1070
    40
1040
15.0
1070
    41
1040
2.0
1070
    42
1040
1.0
1070
    43
1040
6.0
1070
    44
1040
1.0
1070
    73
1070
     0
1070
    74
1070
     0
1070
    77
1070
     1
1070
    78
1070
     8
1070
   140
1040
3.0
1070
   147
1040
1.1999999999999991
1070
   172
1070
     1
1070
   179
1070
     2
1070
   271
1070
     2
1070
   279
1070
     2
1070
   340
1005
11D
1070
   342
1005
0
1002
}
  0
INSERT
  5
15C0
  8
0
  2
*U29
 10
0.0
 20
0.0
 30
0.0
  0
LINE
  5
15C1
  8
MOJI
  6
CONTINUOUS
 10
2986.5777224529438
 20
3080.7887038979038
 30
0.0
 11
3280.8227552282201
 21
3080.7887038979038
 31
0.0
  0
LINE
  5
1658
  8
CENTER
 10
5347.8313612552502
 20
2659.8787900864718
 30
0.0
 11
5347.8313612552502
 21
1359.878790086472
 31
0.0
  0
LINE
  5
1659
  8
SJC
 10
5277.9313612552514
 20
2609.8787900864718
 30
0.0
 11
5277.9313612552496
 21
1409.878790086472
 31
0.0
  0
LINE
  5
165A
  8
SJC
 10
5417.7313612552489
 20
2609.8787900864718
 30
0.0
 11
5417.7313612552489
 21
1409.878790086472
 31
0.0
  0
LINE
  5
165B
  8
SJC
 10
5277.9313612552496
 20
1409.878790086472
 30
0.0
 11
5417.7313612552489
 21
1409.878790086472
 31
0.0
1001
ACAD
1000
ASC_BOUNDS
1002
{
1070
    19
1002
}
  0
LINE
  5
165C
  8
HASEN
 10
5282.4313612552514
 20
2609.8787900864718
 30
0.0
 11
5282.4313612552514
 21
1409.878790086472
 31
0.0
  0
LINE
  5
165D
  8
HASEN
 10
5413.2313612552498
 20
2609.8787900864718
 30
0.0
 11
5413.2313612552498
 21
1409.878790086472
 31
0.0
  0
LINE
  5
165E
  8
SJC
 10
5277.9313612552514
 20
2609.8787900864718
 30
0.0
 11
5417.7313612552507
 21
2609.8787900864718
 31
0.0
1001
ACAD
1000
ASC_BOUNDS
1002
{
1070
    19
1002
}
  0
CIRCLE
  5
165F
  8
SJC
 10
5347.8313612552502
 20
2900.6127561314152
 30
0.0
 40
69.900000000000006
  0
CIRCLE
  5
1660
  8
SJC
 10
5347.8313612552502
 20
2900.6127561314152
 30
0.0
 40
65.400000000000006
  0
LINE
  5
1661
  8
CENTER
 10
5347.8313612552502
 20
2780.7127561314151
 30
0.0
 11
5347.8313612552502
 21
3020.5127561314148
 31
0.0
  0
LINE
  5
1662
  8
CENTER
 10
5227.9313612552514
 20
2900.6127561314152
 30
0.0
 11
5467.7313612552498
 21
2900.6127561314152
 31
0.0
  0
DIMENSION
  5
1663
  8
SUNPOU
  2
*D14
 10
5108.6357586247486
 20
1409.878790086472
 30
0.0
 11
5068.1357586247477
 21
2009.8787900864741
 31
0.0
 70
     0
 13
5277.9313612552514
 23
2609.8787900864718
 33
0.0
 14
5277.9313612552496
 24
1409.878790086472
 34
0.0
 50
90.0
1001
ACAD
1000
DSTYLE
1002
{
1070
   287
1070
     5
1070
    40
1040
15.0
1070
    41
1040
2.0
1070
    42
1040
1.0
1070
    43
1040
6.0
1070
    44
1040
1.0
1070
    73
1070
     0
1070
    74
1070
     0
1070
    77
1070
     1
1070
    78
1070
     8
1070
   140
1040
3.0
1070
   147
1040
1.1999999999999991
1070
   172
1070
     1
1070
   179
1070
     2
1070
   271
1070
     2
1070
   279
1070
     2
1070
   340
1005
11D
1002
}
  0
DIMENSION
  5
1664
  8
SUNPOU
  2
*D15
 10
5403.3738122606364
 20
2943.05149004648
 30
0.0
 11
5455.6415849968052
 21
3033.27216810648
 31
0.0
 70
   131
 15
5292.2889102498593
 25
2858.1740222163471
 35
0.0
 40
0.0
1001
ACAD
1000
DSTYLE
1002
{
1070
   287
1070
     5
1070
    40
1040
15.0
1070
    41
1040
2.0
1070
    42
1040
1.0
1070
    43
1040
6.0
1070
    44
1040
1.0
1070
    73
1070
     0
1070
    74
1070
     0
1070
    77
1070
     1
1070
    78
1070
     8
1070
   140
1040
3.0
1070
   147
1040
1.1999999999999991
1070
   172
1070
     1
1070
   179
1070
     2
1070
   271
1070
     2
1070
   279
1070
     2
1070
   288
1070
     1
1070
   340
1005
11D
1002
}
  0
INSERT
  5
1665
  8
0
  2
*U30
 10
0.0
 20
0.0
 30
0.0
1001
ACAD
1000
DSTYLE
1002
{
1070
    40
1040
15.0
1070
    41
1040
2.0
1070
    42
1040
1.0
1070
    43
1040
6.0
1070
    44
1040
1.0
1070
    73
1070
     0
1070
    74
1070
     0
1070
    77
1070
     1
1070
    78
1070
     8
1070
   140
1040
3.0
1070
   147
1040
1.1999999999999991
1070
   172
1070
     1
1070
   179
1070
     2
1070
   271
1070
     2
1070
   279
1070
     2
1070
   340
1005
11D
1002
}
  0
TEXT
  5
1666
  8
MOJI
 10
5514.0946494021173
 20
2240.4330935524022
 30
0.0
 40
45.0
  1
φ139.8×t4.5
 41
0.8
  7
EXT08
  0
LINE
  5
1667
  8
MOJI
 10
5513.3480954818087
 20
2216.8064264116879
 30
0.0
 11
5889.8138157122303
 21
2216.8064264116879
 31
0.0
  0
TEXT
  5
1668
  8
MOJI2
 10
5185.5570590778652
 20
1245.05647770207
 30
0.0
 40
60.0
  1
鋼管杭詳細図
 41
0.8
  7
KANJI08
  0
LINE
  5
1669
  8
MOJI2
 10
5162.5058509568316
 20
1231.147579075234
 30
0.0
 11
5550.5839328769043
 21
1231.147579075234
 31
0.0
  0
DIMENSION
  5
16F9
  8
SUNPOU
  2
*D16
 10
2039.952722366379
 20
2151.572627995909
 30
0.0
 11
1999.452722366379
 21
2551.5726279959099
 31
0.0
 70
     0
 13
2736.7125721558259
 23
2951.572627995909
 33
0.0
 14
2126.1739062937309
 24
2151.572627995909
 34
0.0
 50
90.0
1001
ACAD
1000
DSTYLE
1002
{
1070
   287
1070
     5
1070
    40
1040
15.0
1070
    41
1040
2.0
1070
    42
1040
1.0
1070
    43
1040
6.0
1070
    44
1040
1.0
1070
    73
1070
     0
1070
    74
1070
     0
1070
    77
1070
     1
1070
    78
1070
     8
1070
   140
1040
3.0
1070
   147
1040
1.1999999999999991
1070
   172
1070
     1
1070
   179
1070
     2
1070
   271
1070
     2
1070
   279
1070
     2
1070
   340
1005
11D
1002
}
  0
LINE
  5
17B7
  8
MOJI
 10
4528.2035786553051
 20
606.98140002950743
 30
0.0
 11
5691.0795432150417
 21
606.98140002950743
 31
0.0
  0
LINE
  5
17B8
  8
MOJI
 10
5691.0795432150417
 20
606.98140002950743
 30
0.0
 11
5691.0795432150417
 21
303.45559279947298
 31
0.0
  0
LINE
  5
17B9
  8
MOJI
 10
4818.9652661473556
 20
303.45559279947298
 30
0.0
 11
4818.9652661473556
 21
606.98140002950743
 31
0.0
  0
LINE
  5
17BA
  8
MOJI
 10
4528.2035786553042
 20
303.45559279947298
 30
0.0
 11
4528.2035786553051
 21
606.98140002950743
 31
0.0
  0
LINE
  5
17BB
  8
MOJI
 10
5148.1779996400865
 20
303.45559279947298
 30
0.0
 11
5148.1779996400865
 21
606.98140002950743
 31
0.0
  0
TEXT
  5
17BC
  8
MOJI
 10
4620.9511115145051
 20
547.64697883541544
 30
0.0
 40
45.0
  1
品  名
 41
0.8
  7
EXT08
 72
     1
 11
4679.7511115145053
 21
547.64697883541544
 31
0.0
  0
TEXT
  5
17BD
  8
MOJI
 10
4924.089531650653
 20
550.01827420440009
 30
0.0
 40
45.0
  1
材  質
 41
0.8
  7
EXT08
 72
     1
 11
4984.089531650653
 21
550.01827420440009
 31
0.0
  0
TEXT
  5
17BE
  8
MOJI
 10
5356.1241430000864
 20
546.03142712751298
 30
0.0
 40
45.0
  1
摘  要
 41
0.8
  7
EXT08
 72
     1
 11
5416.467000142944
 21
546.03142712751298
 31
0.0
  0
TEXT
  5
17BF
  8
MOJI
 10
4552.9873673879329
 20
400.46383898699582
 30
0.0
 40
45.0
  1
ビームパイプ
 41
0.8
  7
EXT08
 72
     1
 11
4681.1302245307888
 21
400.46383898699582
 31
0.0
  0
TEXT
  5
17C0
  8
MOJI
 10
4617.7873673879321
 20
476.2168553221851
 30
0.0
 40
45.0
  1
主  柱
 41
0.8
  7
EXT08
 72
     1
 11
4677.7873673879312
 21
476.2168553221851
 31
0.0
  0
TEXT
  5
17C1
  8
MOJI
 10
4886.6704570057318
 20
476.2168553221851
 30
0.0
 40
45.0
  1
STK400
 41
0.8
  7
EXT08
 72
     1
 11
4986.9561712914456
 21
476.2168553221851
 31
0.0
  0
TEXT
  5
17C2
  8
MOJI
 10
5173.2560201200868
 20
476.2168553221851
 30
0.0
 40
45.0
  1
亜鉛めっき＋静電粉体塗装
 41
0.8
  7
EXT08
 72
     1
 11
5427.6560201200864
 21
476.2168553221851
 31
0.0
  0
LINE
  5
17C3
  8
MOJI
 10
4528.2035786553051
 20
531.09994822199883
 30
0.0
 11
5691.0795432150417
 21
531.09994822199883
 31
0.0
  0
LINE
  5
17C4
  8
MOJI
 10
4528.2035786553051
 20
455.21849641449018
 30
0.0
 11
5691.0795432150417
 21
455.21849641449018
 31
0.0
  0
LINE
  5
17C5
  8
MOJI
 10
4528.2035786553051
 20
379.33704460698158
 30
0.0
 11
5691.0795432150417
 21
379.33704460698158
 31
0.0
  0
TEXT
  5
17C6
  8
MOJI
 10
5173.2560201200868
 20
400.3354035146765
 30
0.0
 40
45.0
  1
亜鉛めっき＋静電粉体塗装
 41
0.8
  7
EXT08
 72
     1
 11
5427.6560201200864
 21
400.3354035146765
 31
0.0
  0
TEXT
  5
17C7
  8
MOJI
 10
4886.6704570057318
 20
400.3354035146765
 30
0.0
 40
45.0
  1
STK400
 41
0.8
  7
EXT08
 72
     1
 11
4986.9561712914456
 21
400.3354035146765
 31
0.0
  0
TEXT
  5
17C8
  8
MOJI
 10
4621.1302245307897
 20
324.58238717948723
 30
0.0
 40
45.0
  1
鋼管杭
 41
0.8
  7
EXT08
 72
     1
 11
4681.1302245307888
 21
324.58238717948723
 31
0.0
  0
LINE
  5
17C9
  8
MOJI
 10
4528.2035786553051
 20
303.45559279947298
 30
0.0
 11
5691.0795432150417
 21
303.45559279947298
 31
0.0
  0
TEXT
  5
17CA
  8
MOJI
 10
5216.4560201200857
 20
324.4539517071679
 30
0.0
 40
45.0
  1
高耐食溶融めっき鋼管
 41
0.8
  7
EXT08
 72
     1
 11
5427.6560201200864
 21
324.4539517071679
 31
0.0
  0
TEXT
  5
17CB
  8
MOJI
 10
4846.8990284343035
 20
324.4539517071679
 30
0.0
 40
45.0
  1
STK400相当
 41
0.8
  7
EXT08
 72
     1
 11
4986.9561712914456
 21
324.4539517071679
 31
0.0
  0
ENDSEC
  0
EOF
