  0
SECTION
  2
HEADER
  9
$ACADVER
  1
AC1009
  9
$INSBASE
 10
0.0
 20
0.0
 30
0.0
  9
$EXTMIN
 10
0.0
 20
0.0
 30
0.0
  9
$EXTMAX
 10
6150.0
 20
4305.0
 30
0.0
  9
$LIMMIN
 10
0.0
 20
0.0
  9
$LIMMAX
 10
6300.0
 20
4455.0
  9
$ORTHOMODE
 70
     1
  9
$REGENMODE
 70
     1
  9
$FILLMODE
 70
     1
  9
$QTEXTMODE
 70
     0
  9
$MIRRTEXT
 70
     0
  9
$DRAGMODE
 70
     2
  9
$LTSCALE
 40
150.0
  9
$OSMODE
 70
    37
  9
$ATTMODE
 70
     1
  9
$TEXTSIZE
 40
45.0
  9
$TRACEWID
 40
1.0
  9
$TEXTSTYLE
  7
EXT08
  9
$CLAYER
  8
0
  9
$CELTYPE
  6
BYLAYER
  9
$CECOLOR
 62
   256
  9
$DIMSCALE
 40
15.0
  9
$DIMASZ
 40
2.0
  9
$DIMEXO
 40
1.0
  9
$DIMDLI
 40
6.0
  9
$DIMRND
 40
0.0
  9
$DIMDLE
 40
0.0
  9
$DIMEXE
 40
1.0
  9
$DIMTP
 40
0.0
  9
$DIMTM
 40
0.0
  9
$DIMTXT
 40
3.0
  9
$DIMCEN
 40
0.09
  9
$DIMTSZ
 40
0.0
  9
$DIMTOL
 70
     0
  9
$DIMLIM
 70
     0
  9
$DIMTIH
 70
     0
  9
$DIMTOH
 70
     0
  9
$DIMSE1
 70
     0
  9
$DIMSE2
 70
     0
  9
$DIMTAD
 70
     1
  9
$DIMZIN
 70
     8
  9
$DIMBLK
  1

  9
$DIMASO
 70
     1
  9
$DIMSHO
 70
     1
  9
$DIMPOST
  1

  9
$DIMAPOST
  1

  9
$DIMALT
 70
     0
  9
$DIMALTD
 70
     2
  9
$DIMALTF
 40
25.399999999999999
  9
$DIMLFAC
 40
1.0
  9
$DIMTOFL
 70
     1
  9
$DIMTVP
 40
0.0
  9
$DIMTIX
 70
     0
  9
$DIMSOXD
 70
     0
  9
$DIMSAH
 70
     0
  9
$DIMBLK1
  1

  9
$DIMBLK2
  1

  9
$DIMSTYLE
  2
SJC
  9
$DIMCLRD
 70
     0
  9
$DIMCLRE
 70
     0
  9
$DIMCLRT
 70
     0
  9
$DIMTFAC
 40
1.0
  9
$DIMGAP
 40
1.1999999999999991
  9
$LUNITS
 70
     2
  9
$LUPREC
 70
     2
  9
$SKETCHINC
 40
1.0
  9
$FILLETRAD
 40
200.0
  9
$AUNITS
 70
     0
  9
$AUPREC
 70
     0
  9
$MENU
  1
.
  9
$ELEVATION
 40
0.0
  9
$PELEVATION
 40
0.0
  9
$THICKNESS
 40
0.0
  9
$LIMCHECK
 70
     0
  9
$BLIPMODE
 70
     0
  9
$CHAMFERA
 40
0.0
  9
$CHAMFERB
 40
0.0
  9
$SKPOLY
 70
     0
  9
$TDCREATE
 40
2456287.4708731128
  9
$TDUPDATE
 40
2456554.449594364
  9
$TDINDWG
 40
0.2812082639
  9
$TDUSRTIMER
 40
0.2812080787
  9
$USRTIMER
 70
     1
  9
$ANGBASE
 50
0.0
  9
$ANGDIR
 70
     0
  9
$PDMODE
 70
    33
  9
$PDSIZE
 40
5.0
  9
$PLINEWID
 40
0.0
  9
$COORDS
 70
     1
  9
$SPLFRAME
 70
     0
  9
$SPLINETYPE
 70
     6
  9
$SPLINESEGS
 70
     8
  9
$ATTDIA
 70
     0
  9
$ATTREQ
 70
     1
  9
$HANDLING
 70
     1
  9
$HANDSEED
  5
1962
  9
$SURFTAB1
 70
     6
  9
$SURFTAB2
 70
     6
  9
$SURFTYPE
 70
     6
  9
$SURFU
 70
     6
  9
$SURFV
 70
     6
  9
$UCSNAME
  2

  9
$UCSORG
 10
0.0
 20
0.0
 30
0.0
  9
$UCSXDIR
 10
1.0
 20
0.0
 30
0.0
  9
$UCSYDIR
 10
0.0
 20
1.0
 30
0.0
  9
$PUCSNAME
  2

  9
$PUCSORG
 10
0.0
 20
0.0
 30
0.0
  9
$PUCSXDIR
 10
1.0
 20
0.0
 30
0.0
  9
$PUCSYDIR
 10
0.0
 20
1.0
 30
0.0
  9
$USERI1
 70
     3
  9
$USERI2
 70
    15
  9
$USERI3
 70
     0
  9
$USERI4
 70
     0
  9
$USERI5
 70
     0
  9
$USERR1
 40
0.0
  9
$USERR2
 40
0.0
  9
$USERR3
 40
0.0
  9
$USERR4
 40
0.0
  9
$USERR5
 40
0.0
  9
$WORLDVIEW
 70
     1
  9
$SHADEDGE
 70
     3
  9
$SHADEDIF
 70
    70
  9
$TILEMODE
 70
     1
  9
$MAXACTVP
 70
    64
  9
$PLIMCHECK
 70
     0
  9
$PEXTMIN
 10
0.0
 20
0.0
 30
0.0
  9
$PEXTMAX
 10
0.0
 20
0.0
 30
0.0
  9
$PLIMMIN
 10
0.0
 20
0.0
  9
$PLIMMAX
 10
12.0
 20
9.0
  9
$UNITMODE
 70
     0
  9
$VISRETAIN
 70
     1
  9
$PLINEGEN
 70
     0
  9
$PSLTSCALE
 70
     1
  0
ENDSEC
  0
SECTION
  2
TABLES
  0
TABLE
  2
VPORT
 70
     2
  0
VPORT
  2
*ACTIVE
 70
     0
 10
0.0
 20
0.0
 11
1.0
 21
1.0
 12
5187.4158276549188
 22
2256.210337125618
 13
0.0
 23
0.0
 14
10.0
 24
10.0
 15
10.0
 25
10.0
 16
0.0
 26
0.0
 36
1.0
 17
0.0
 27
0.0
 37
0.0
 40
5779.5761510355333
 41
1.9010526315789471
 42
50.0
 43
0.0
 44
0.0
 50
0.0
 51
0.0
 71
     0
 72
  1000
 73
     1
 74
     3
 75
     0
 76
     0
 77
     0
 78
     0
  0
ENDTAB
  0
TABLE
  2
LTYPE
 70
     4
  0
LTYPE
  2
CONTINUOUS
 70
     0
  3
Solid line
 72
    65
 73
     0
 40
0.0
  0
LTYPE
  2
PHANTOM
 70
     0
  3
Phantom ______  __  __  ______  __  __  ______
 72
    65
 73
     6
 40
2.5
 49
1.25
 49
-0.25
 49
0.25
 49
-0.25
 49
0.25
 49
-0.25
  0
LTYPE
  2
CENTER
 70
     0
  3
Center ____ _ ____ _ ____ _ ____ _ ____ _ ____
 72
    65
 73
     4
 40
2.0
 49
1.25
 49
-0.25
 49
0.25
 49
-0.25
  0
LTYPE
  2
HIDDEN
 70
     0
  3
Hidden __ __ __ __ __ __ __ __ __ __ __ __ __ _
 72
    65
 73
     2
 40
0.375
 49
0.25
 49
-0.125
  0
ENDTAB
  0
TABLE
  2
LAYER
 70
    15
  0
LAYER
  2
0
 70
     0
 62
     7
  6
CONTINUOUS
  0
LAYER
  2
ZWAKU
 70
     1
 62
    -7
  6
CONTINUOUS
  0
LAYER
  2
SJC
 70
     0
 62
     1
  6
CONTINUOUS
  0
LAYER
  2
INFORMATION
 70
     1
 62
     7
  6
CONTINUOUS
  0
LAYER
  2
SJC2
 70
     0
 62
     7
  6
CONTINUOUS
  0
LAYER
  2
KASOU
 70
     0
 62
     2
  6
PHANTOM
  0
LAYER
  2
CENTER
 70
     0
 62
     3
  6
CENTER
  0
LAYER
  2
SUNPOU
 70
     0
 62
     4
  6
CONTINUOUS
  0
LAYER
  2
WAKU
 70
     0
 62
     5
  6
CONTINUOUS
  0
LAYER
  2
MOJI
 70
     0
 62
     6
  6
CONTINUOUS
  0
LAYER
  2
MOJI2
 70
     0
 62
     1
  6
CONTINUOUS
  0
LAYER
  2
HASEN
 70
     0
 62
     7
  6
HIDDEN
  0
LAYER
  2
HATCH
 70
     0
 62
     2
  6
CONTINUOUS
  0
LAYER
  2
HOJO
 70
     0
 62
    -8
  6
CONTINUOUS
  0
LAYER
  2
DEFPOINTS
 70
     0
 62
     7
  6
CONTINUOUS
  0
ENDTAB
  0
TABLE
  2
STYLE
 70
     8
  0
STYLE
  2
STANDARD
 70
     0
 40
0.0
 41
1.0
 50
0.0
 71
     0
 42
3.0
  3
txt.shx
  4
extfont2.shx
  0
STYLE
  2
KANJI
 70
     0
 40
0.0
 41
1.0
 50
0.0
 71
     0
 42
0.0
  3
ROMANS.SHX
  4
BIGFONT.SHX
  0
STYLE
  2
SIMPLEX
 70
     0
 40
0.0
 41
1.0
 50
0.0
 71
     0
 42
0.0
  3
SCRIPTS.shx
  4

  0
STYLE
  2
TATEEXT
 70
     4
 40
0.0
 41
1.0
 50
0.0
 71
     0
 42
0.0
  3
ROMANS.shx
  4
EXTFONT.shx
  0
STYLE
  2
TATEBIG
 70
     4
 40
0.0
 41
1.0
 50
0.0
 71
     0
 42
0.0
  3
ROMANS.shx
  4
BIGFONT.shx
  0
STYLE
  2
EXT08
 70
     0
 40
0.0
 41
0.8
 50
0.0
 71
     0
 42
45.0
  3
ROMANS.shx
  4
EXTFONT.shx
  0
STYLE
  2
EXT
 70
     0
 40
0.0
 41
1.0
 50
0.0
 71
     0
 42
0.0
  3
ROMANS.shx
  4
EXTFONT.shx
  0
STYLE
  2
KANJI08
 70
     0
 40
0.0
 41
0.8
 50
0.0
 71
     0
 42
0.0
  3
ROMANS.shx
  4
BIGFONT.shx
  0
ENDTAB
  0
TABLE
  2
VIEW
 70
     0
  0
ENDTAB
  0
TABLE
  2
UCS
 70
     0
  0
ENDTAB
  0
TABLE
  2
APPID
 70
     2
  0
APPID
  2
ACAD
 70
     0
  0
APPID
  2
ACAD_PSEXT
 70
     0
  0
ENDTAB
  0
TABLE
  2
DIMSTYLE
 70
     5
  0
DIMSTYLE
  2
ISO-25
 70
     0
  3

  4

  5

  6

  7

 40
1.0
 41
2.5
 42
0.625
 43
3.75
 44
1.25
 45
0.0
 46
0.0
 47
0.0
 48
0.0
140
2.5
141
2.5
142
0.0
143
0.03937007874016
144
1.0
145
0.0
146
1.0
147
0.625
 71
     0
 72
     0
 73
     0
 74
     0
 75
     0
 76
     0
 77
     1
 78
     8
170
     0
171
     3
172
     1
173
     0
174
     0
175
     0
176
     0
177
     0
178
     0
  0
DIMSTYLE
  2
STANDARD
 70
     0
  3

  4

  5

  6

  7

 40
1.0
 41
0.18
 42
0.0625
 43
0.38
 44
0.18
 45
0.0
 46
0.0
 47
0.0
 48
0.0
140
0.18
141
0.09
142
0.0
143
25.399999999999999
144
1.0
145
0.0
146
1.0
147
0.09
 71
     0
 72
     0
 73
     1
 74
     1
 75
     0
 76
     0
 77
     0
 78
     0
170
     0
171
     2
172
     0
173
     0
174
     0
175
     0
176
     0
177
     0
178
     0
  0
DIMSTYLE
  2
RUISEKI1
 70
     0
  3

  4

  5

  6
DOT
  7

 40
15.0
 41
2.0
 42
1.0
 43
6.0
 44
30.0
 45
0.0
 46
0.0
 47
0.0
 48
0.0
140
0.18
141
0.09
142
0.0
143
25.399999999999999
144
1.0
145
0.0
146
1.0
147
1.5
 71
     0
 72
     0
 73
     1
 74
     1
 75
     0
 76
     0
 77
     1
 78
     0
170
     0
171
     2
172
     0
173
     1
174
     0
175
     0
176
     0
177
     0
178
     0
  0
DIMSTYLE
  2
RUISEKI2
 70
     0
  3

  4

  5

  6
NONE
  7

 40
15.0
 41
2.0
 42
1.0
 43
6.0
 44
30.0
 45
0.0
 46
0.0
 47
0.0
 48
0.0
140
0.18
141
0.09
142
0.0
143
25.399999999999999
144
1.0
145
0.0
146
1.0
147
1.5
 71
     0
 72
     0
 73
     1
 74
     1
 75
     0
 76
     0
 77
     1
 78
     0
170
     0
171
     2
172
     0
173
     1
174
     0
175
     0
176
     0
177
     0
178
     0
  0
DIMSTYLE
  2
SJC
 70
     0
  3

  4

  5

  6

  7

 40
1.0
 41
0.18
 42
0.0625
 43
0.38
 44
0.18
 45
0.0
 46
0.0
 47
0.0
 48
0.0
140
0.18
141
0.09
142
0.0
143
25.399999999999999
144
1.0
145
0.0
146
1.0
147
0.09
 71
     0
 72
     0
 73
     1
 74
     1
 75
     0
 76
     0
 77
     0
 78
     0
170
     0
171
     2
172
     0
173
     0
174
     0
175
     0
176
     0
177
     0
178
     0
  0
ENDTAB
  0
ENDSEC
  0
SECTION
  2
BLOCKS
  0
BLOCK
  8
0
  2
$MODEL_SPACE
 70
     0
 10
0.0
 20
0.0
 30
0.0
  3
$MODEL_SPACE
  1

  0
ENDBLK
  5
21
  8
0
  0
BLOCK
 67
     1
  8
0
  2
$PAPER_SPACE
 70
     0
 10
0.0
 20
0.0
 30
0.0
  3
$PAPER_SPACE
  1

  0
ENDBLK
  5
D5
 67
     1
  8
0
  0
BLOCK
  8
0
  2
SEIKO_LS-1100A3
 70
     0
 10
0.0
 20
0.0
 30
0.0
  3
SEIKO_LS-1100A3
  1

  0
POLYLINE
  5
F8
  8
ZWAKU
 66
     1
 10
0.0
 20
0.0
 30
0.0
 70
     1
  0
VERTEX
  5
17A7
  8
ZWAKU
 10
0.0
 20
0.0
 30
0.0
  0
VERTEX
  5
17A8
  8
ZWAKU
 10
0.0
 20
287.0
 30
0.0
  0
VERTEX
  5
17A9
  8
ZWAKU
 10
410.0
 20
287.0
 30
0.0
  0
VERTEX
  5
17AA
  8
ZWAKU
 10
410.0
 20
0.0
 30
0.0
  0
SEQEND
  5
17AB
  8
ZWAKU
  0
ENDBLK
  5
FA
  8
0
  0
BLOCK
  8
0
  2
_DOT
 70
     0
 10
0.0
 20
0.0
 30
0.0
  3
_DOT
  1

  0
POLYLINE
  5
10F
  8
0
  6
BYBLOCK
 62
     0
 66
     1
 10
0.0
 20
0.0
 30
0.0
 70
     1
 40
0.5
 41
0.5
  0
VERTEX
  5
17AC
  8
0
  6
BYBLOCK
 62
     0
 10
-0.25
 20
0.0
 30
0.0
 42
1.0
  0
VERTEX
  5
17AD
  8
0
  6
BYBLOCK
 62
     0
 10
0.25
 20
0.0
 30
0.0
 42
1.0
  0
SEQEND
  5
17AE
  8
0
  6
BYBLOCK
 62
     0
  0
LINE
  5
110
  8
0
  6
BYBLOCK
 62
     0
 10
-0.5
 20
0.0
 30
0.0
 11
-1.0
 21
0.0
 31
0.0
  0
ENDBLK
  5
112
  8
0
  0
BLOCK
  8
0
  2
_NONE
 70
     0
 10
0.0
 20
0.0
 30
0.0
  3
_NONE
  1

  0
ENDBLK
  5
116
  8
0
  0
BLOCK
  8
0
  2
B0040021
 70
     0
 10
0.0
 20
0.0
 30
0.0
  3
B0040021
  1

  0
LINE
  5
12E
  8
HATCH
 10
90.534596808877254
 20
-7.5000000000002274
 30
0.0
 11
117.0518952133159
 21
-34.017298404438861
 31
0.0
  0
LINE
  5
12F
  8
HATCH
 10
98.034596808877254
 20
0.0
 30
0.0
 11
132.0518952133159
 21
-34.017298404438861
 31
0.0
  0
LINE
  5
130
  8
HATCH
 10
22.5
 20
-7.5000000000002274
 30
0.0
 11
49.017298404438627
 21
-34.017298404438861
 31
0.0
  0
LINE
  5
131
  8
HATCH
 10
30.0
 20
0.0
 30
0.0
 11
-4.0172984044386331
 21
-34.017298404438861
 31
0.0
  0
LINE
  5
132
  8
HATCH
 10
15.0
 20
-15.000000000000229
 30
0.0
 11
34.017298404438627
 21
-34.017298404438861
 31
0.0
  0
LINE
  5
133
  8
HATCH
 10
0.0
 20
0.0
 30
0.0
 11
-34.017298404438627
 21
-34.017298404438861
 31
0.0
  0
LINE
  5
134
  8
HATCH
 10
15.0
 20
0.0
 30
0.0
 11
-19.01729840443863
 21
-34.017298404438861
 31
0.0
  0
LINE
  5
135
  8
HATCH
 10
83.034596808877254
 20
0.0
 30
0.0
 11
56.517298404438861
 21
-26.51729840443863
 31
0.0
  0
LINE
  5
136
  8
HATCH
 10
98.034596808877254
 20
0.0
 30
0.0
 11
64.017298404438634
 21
-34.017298404438861
 31
0.0
  0
LINE
  5
137
  8
HATCH
 10
68.034596808877254
 20
0.0
 30
0.0
 11
49.017298404438861
 21
-19.01729840443863
 31
0.0
  0
LINE
  5
138
  8
HATCH
 10
30.0
 20
0.0
 30
0.0
 11
64.017298404438634
 21
-34.017298404438861
 31
0.0
  0
LINE
  5
139
  8
HATCH
 10
83.034596808877254
 20
-15.000000000000229
 30
0.0
 11
102.0518952133159
 21
-34.017298404438861
 31
0.0
  0
ENDBLK
  5
13A
  8
0
  0
BLOCK
  8
0
  2
*D5
 70
     1
 10
0.0
 20
0.0
 30
0.0
  3
*D5
  1

  0
LINE
  5
17AF
  8
SUNPOU
 10
1786.7125721558259
 20
2728.4226279959089
 30
0.0
 11
1786.7125721558259
 21
3198.0425213434009
 31
0.0
  0
LINE
  5
17B0
  8
SUNPOU
 10
3286.7125721558259
 20
2728.4226279959089
 30
0.0
 11
3286.7125721558259
 21
3198.0425213434009
 31
0.0
  0
LINE
  5
17B1
  8
SUNPOU
 10
1816.7125721558259
 20
3183.0425213434009
 30
0.0
 11
3256.7125721558259
 21
3183.0425213434009
 31
0.0
  0
SOLID
  5
17B2
  8
SUNPOU
 10
1816.7125721558259
 20
3188.0425213434009
 30
0.0
 11
1816.7125721558259
 21
3178.0425213434
 31
0.0
 12
1786.7125721558259
 22
3183.0425213434009
 32
0.0
 13
1786.7125721558259
 23
3183.0425213434009
 33
0.0
  0
SOLID
  5
17B3
  8
SUNPOU
 10
3256.7125721558259
 20
3188.0425213434009
 30
0.0
 11
3256.7125721558259
 21
3178.0425213434
 31
0.0
 12
3286.7125721558259
 22
3183.0425213434009
 32
0.0
 13
3286.7125721558259
 23
3183.0425213434009
 33
0.0
  0
TEXT
  8
SUNPOU
  40
45
  5
1956
  72
0
  71
0
 10
2446.71
 20
3143.89
 30
0.000000
  1
1500
  7
KANJI08
  0
POINT
  5
17B5
  8
DEFPOINTS
 62
     0
 10
1786.7125721558259
 20
2713.4226279959089
 30
0.0
  0
POINT
  5
17B6
  8
DEFPOINTS
 62
     0
 10
3286.7125721558259
 20
2713.4226279959089
 30
0.0
  0
POINT
  5
17B7
  8
DEFPOINTS
 62
     0
 10
3286.7125721558259
 20
3183.0425213434009
 30
0.0
  0
ENDBLK
  5
418
  8
0
  0
BLOCK
  8
0
  2
*D6
 70
     1
 10
0.0
 20
0.0
 30
0.0
  3
*D6
  1

  0
LINE
  5
17B8
  8
SUNPOU
 10
1706.312572155826
 20
1901.572627995909
 30
0.0
 11
1274.952722366379
 21
1901.572627995909
 31
0.0
  0
LINE
  5
17B9
  8
SUNPOU
 10
1361.1739062937299
 20
2151.572627995909
 30
0.0
 11
1274.952722366379
 21
2151.572627995909
 31
0.0
  0
LINE
  5
17BA
  8
SUNPOU
 10
1289.952722366379
 20
1931.572627995909
 30
0.0
 11
1289.952722366379
 21
2121.572627995909
 31
0.0
  0
SOLID
  5
17BB
  8
SUNPOU
 10
1284.952722366379
 20
1931.572627995909
 30
0.0
 11
1294.952722366379
 21
1931.572627995909
 31
0.0
 12
1289.952722366379
 22
1901.572627995909
 32
0.0
 13
1289.952722366379
 23
1901.572627995909
 33
0.0
  0
SOLID
  5
17BC
  8
SUNPOU
 10
1284.952722366379
 20
2121.572627995909
 30
0.0
 11
1294.952722366379
 21
2121.572627995909
 31
0.0
 12
1289.952722366379
 22
2151.572627995909
 32
0.0
 13
1289.952722366379
 23
2151.572627995909
 33
0.0
  0
TEXT
  8
SUNPOU
  40
45
  5
1957
  72
0
  71
0
 10
1159.45
 20
1946.92
 30
0.000000
  1
250
  7
KANJI08
  0
POINT
  5
17BE
  8
DEFPOINTS
 62
     0
 10
1721.312572155826
 20
1901.572627995909
 30
0.0
  0
POINT
  5
17BF
  8
DEFPOINTS
 62
     0
 10
1376.1739062937299
 20
2151.572627995909
 30
0.0
  0
POINT
  5
17C0
  8
DEFPOINTS
 62
     0
 10
1289.952722366379
 20
2151.572627995909
 30
0.0
  0
ENDBLK
  5
42D
  8
0
  0
BLOCK
  8
0
  2
*D7
 70
     1
 10
0.0
 20
0.0
 30
0.0
  3
*D7
  1

  0
LINE
  5
17C1
  8
SUNPOU
 10
3301.7125721558259
 20
2651.5726279959099
 30
0.0
 11
3798.4724219452728
 21
2651.5726279959099
 31
0.0
  0
LINE
  5
17C2
  8
SUNPOU
 10
3101.7125721558259
 20
2951.572627995909
 30
0.0
 11
3798.4724219452728
 21
2951.572627995909
 31
0.0
  0
LINE
  5
17C3
  8
SUNPOU
 10
3783.4724219452728
 20
2681.5726279959099
 30
0.0
 11
3783.4724219452728
 21
2921.572627995909
 31
0.0
  0
SOLID
  5
17C4
  8
SUNPOU
 10
3778.4724219452728
 20
2681.5726279959099
 30
0.0
 11
3788.4724219452728
 21
2681.5726279959099
 31
0.0
 12
3783.4724219452728
 22
2651.5726279959099
 32
0.0
 13
3783.4724219452728
 23
2651.5726279959099
 33
0.0
  0
SOLID
  5
17C5
  8
SUNPOU
 10
3778.4724219452728
 20
2921.572627995909
 30
0.0
 11
3788.4724219452728
 21
2921.572627995909
 31
0.0
 12
3783.4724219452728
 22
2951.572627995909
 32
0.0
 13
3783.4724219452728
 23
2951.572627995909
 33
0.0
  0
TEXT
  8
SUNPOU
  40
45
  5
1958
  72
0
  71
0
 10
3652.97
 20
2721.92
 30
0.000000
  1
300
  7
KANJI08
  0
POINT
  5
17C7
  8
DEFPOINTS
 62
     0
 10
3286.7125721558259
 20
2651.5726279959099
 30
0.0
  0
POINT
  5
17C8
  8
DEFPOINTS
 62
     0
 10
3086.7125721558259
 20
2951.572627995909
 30
0.0
  0
POINT
  5
17C9
  8
DEFPOINTS
 62
     0
 10
3783.4724219452728
 20
2951.572627995909
 30
0.0
  0
ENDBLK
  5
451
  8
0
  0
BLOCK
  8
0
  2
*D8
 70
     1
 10
0.0
 20
0.0
 30
0.0
  3
*D8
  1

  0
LINE
  5
17CA
  8
SUNPOU
 10
1706.312572155826
 20
1901.572627995909
 30
0.0
 11
1108.862839882589
 21
1901.572627995909
 31
0.0
  0
LINE
  5
17CB
  8
SUNPOU
 10
1931.7125721558259
 20
2951.572627995909
 30
0.0
 11
1108.862839882589
 21
2951.572627995909
 31
0.0
  0
LINE
  5
17CC
  8
SUNPOU
 10
1123.862839882589
 20
1931.572627995909
 30
0.0
 11
1123.862839882589
 21
2921.572627995909
 31
0.0
  0
SOLID
  5
17CD
  8
SUNPOU
 10
1118.862839882589
 20
1931.572627995909
 30
0.0
 11
1128.862839882589
 21
1931.572627995909
 31
0.0
 12
1123.862839882589
 22
1901.572627995909
 32
0.0
 13
1123.862839882589
 23
1901.572627995909
 33
0.0
  0
SOLID
  5
17CE
  8
SUNPOU
 10
1118.862839882589
 20
2921.572627995909
 30
0.0
 11
1128.862839882589
 21
2921.572627995909
 31
0.0
 12
1123.862839882589
 22
2951.572627995909
 32
0.0
 13
1123.862839882589
 23
2951.572627995909
 33
0.0
  0
TEXT
  8
SUNPOU
  40
45
  5
1959
  72
0
  71
0
 10
993.363
 20
2346.92
 30
0.000000
  1
1050
  7
KANJI08
  0
POINT
  5
17D0
  8
DEFPOINTS
 62
     0
 10
1721.312572155826
 20
1901.572627995909
 30
0.0
  0
POINT
  5
17D1
  8
DEFPOINTS
 62
     0
 10
1946.7125721558259
 20
2951.572627995909
 30
0.0
  0
POINT
  5
17D2
  8
DEFPOINTS
 62
     0
 10
1123.862839882589
 20
2951.572627995909
 30
0.0
  0
ENDBLK
  5
45D
  8
0
  0
BLOCK
  8
0
  2
*D9
 70
     1
 10
0.0
 20
0.0
 30
0.0
  3
*D9
  1

  0
LINE
  5
17D3
  8
SUNPOU
 62
     0
 10
1986.712572155828
 20
2713.4226279959112
 30
0.0
 11
1865.2139849325749
 21
2832.3263424154102
 31
0.0
  0
TEXT
  8
SUNPOU
  40
45
  5
195A
  62
0
  72
0
  71
0
 10
1883.17
 20
2711.04
 30
0.000000
  1
R200
  7
EXT08
  0
SOLID
  5
17D5
  8
SUNPOU
 62
     0
 10
1868.7111530037371
 20
2835.8998302749178
 30
0.0
 11
1861.7168168614139
 21
2828.752854555903
 31
0.0
 12
1843.773057775531
 22
2853.3093508423799
 32
0.0
 13
1843.773057775531
 23
2853.3093508423799
 33
0.0
  0
POINT
  5
17D6
  8
DEFPOINTS
 62
     0
 10
1843.773057775531
 20
2853.3093508423799
 30
0.0
  0
POINT
  5
17D7
  8
DEFPOINTS
 62
     0
 10
1986.712572155828
 20
2713.4226279959112
 30
0.0
  0
ENDBLK
  5
509
  8
0
  0
BLOCK
  8
0
  2
*D10
 70
     1
 10
0.0
 20
0.0
 30
0.0
  3
*D10
  1

  0
LINE
  5
17D8
  8
SUNPOU
 62
     0
 10
3301.7125721558259
 20
2651.5726279959099
 30
0.0
 11
3798.4724219452728
 21
2651.5726279959099
 31
0.0
  0
LINE
  5
17D9
  8
SUNPOU
 62
     0
 10
3301.7125721558259
 20
2401.5726279958958
 30
0.0
 11
3798.4724219452728
 21
2401.5726279958958
 31
0.0
  0
LINE
  5
17DA
  8
SUNPOU
 62
     0
 10
3783.4724219452728
 20
2621.5726279959099
 30
0.0
 11
3783.4724219452728
 21
2431.5726279958958
 31
0.0
  0
SOLID
  5
17DB
  8
SUNPOU
 62
     0
 10
3778.4724219452728
 20
2621.5726279959099
 30
0.0
 11
3788.4724219452728
 21
2621.5726279959099
 31
0.0
 12
3783.4724219452728
 22
2651.5726279959099
 32
0.0
 13
3783.4724219452728
 23
2651.5726279959099
 33
0.0
  0
SOLID
  5
17DC
  8
SUNPOU
 62
     0
 10
3778.4724219452728
 20
2431.5726279958958
 30
0.0
 11
3788.4724219452728
 21
2431.5726279958958
 31
0.0
 12
3783.4724219452728
 22
2401.5726279958958
 32
0.0
 13
3783.4724219452728
 23
2401.5726279958958
 33
0.0
  0
TEXT
  8
SUNPOU
  40
45
  5
195B
  62
0
  72
0
  71
0
 10
3652.97
 20
2446.92
 30
0.000000
  1
250
  7
EXT08
  0
POINT
  5
17DE
  8
DEFPOINTS
 62
     0
 10
3286.7125721558259
 20
2651.5726279959099
 30
0.0
  0
POINT
  5
17DF
  8
DEFPOINTS
 62
     0
 10
3286.7125721558259
 20
2401.5726279958958
 30
0.0
  0
POINT
  5
17E0
  8
DEFPOINTS
 62
     0
 10
3783.4724219452728
 20
2401.5726279958958
 30
0.0
  0
ENDBLK
  5
552
  8
0
  0
BLOCK
  8
0
  2
*D11
 70
     1
 10
0.0
 20
0.0
 30
0.0
  3
*D11
  1

  0
LINE
  5
17E1
  8
SUNPOU
 62
     0
 10
3301.7125721558259
 20
2401.5726279958958
 30
0.0
 11
3798.4724219452742
 21
2401.5726279958958
 31
0.0
  0
LINE
  5
17E2
  8
SUNPOU
 62
     0
 10
3712.2512380179219
 20
2151.572627995909
 30
0.0
 11
3798.4724219452742
 21
2151.572627995909
 31
0.0
  0
LINE
  5
17E3
  8
SUNPOU
 62
     0
 10
3783.4724219452728
 20
2371.5726279958958
 30
0.0
 11
3783.4724219452728
 21
2181.572627995909
 31
0.0
  0
SOLID
  5
17E4
  8
SUNPOU
 62
     0
 10
3778.4724219452742
 20
2371.5726279958958
 30
0.0
 11
3788.4724219452742
 21
2371.5726279958958
 31
0.0
 12
3783.4724219452728
 22
2401.5726279958958
 32
0.0
 13
3783.4724219452728
 23
2401.5726279958958
 33
0.0
  0
SOLID
  5
17E5
  8
SUNPOU
 62
     0
 10
3778.4724219452742
 20
2181.572627995909
 30
0.0
 11
3788.4724219452742
 21
2181.572627995909
 31
0.0
 12
3783.4724219452728
 22
2151.572627995909
 32
0.0
 13
3783.4724219452728
 23
2151.572627995909
 33
0.0
  0
TEXT
  8
SUNPOU
  40
45
  5
195C
  62
0
  72
0
  71
0
 10
3652.97
 20
2196.92
 30
0.000000
  1
250
  7
EXT08
  0
POINT
  5
17E7
  8
DEFPOINTS
 62
     0
 10
3286.7125721558259
 20
2401.5726279958958
 30
0.0
  0
POINT
  5
17E8
  8
DEFPOINTS
 62
     0
 10
3697.2512380179219
 20
2151.572627995909
 30
0.0
  0
POINT
  5
17E9
  8
DEFPOINTS
 62
     0
 10
3783.4724219452728
 20
2151.572627995909
 30
0.0
  0
ENDBLK
  5
55F
  8
0
  0
BLOCK
  8
0
  2
*D12
 70
     1
 10
0.0
 20
0.0
 30
0.0
  3
*D12
  1

  0
LINE
  5
17EA
  8
SUNPOU
 62
     0
 10
1871.6125721558251
 20
2151.572627995909
 30
0.0
 11
2095.3724670335691
 21
2151.572627995909
 31
0.0
  0
LINE
  5
17EB
  8
SUNPOU
 62
     0
 10
1871.612572155826
 20
951.57262799590865
 30
0.0
 11
2095.3724670335691
 21
951.57262799590865
 31
0.0
  0
LINE
  5
17EC
  8
SUNPOU
 62
     0
 10
2080.3724670335691
 20
2121.572627995909
 30
0.0
 11
2080.3724670335691
 21
981.57262799590876
 31
0.0
  0
SOLID
  5
17ED
  8
SUNPOU
 62
     0
 10
2075.3724670335691
 20
2121.572627995909
 30
0.0
 11
2085.3724670335691
 21
2121.572627995909
 31
0.0
 12
2080.3724670335691
 22
2151.572627995909
 32
0.0
 13
2080.3724670335691
 23
2151.572627995909
 33
0.0
  0
SOLID
  5
17EE
  8
SUNPOU
 62
     0
 10
2075.3724670335678
 20
981.57262799590876
 30
0.0
 11
2085.3724670335691
 21
981.57262799590876
 31
0.0
 12
2080.3724670335691
 22
951.57262799590865
 32
0.0
 13
2080.3724670335691
 23
951.57262799590865
 33
0.0
  0
TEXT
  8
SUNPOU
  40
45
  5
195D
  62
0
  72
0
  71
0
 10
1949.87
 20
1471.92
 30
0.000000
  1
1200
  7
EXT08
  0
POINT
  5
17F0
  8
DEFPOINTS
 62
     0
 10
1856.612572155826
 20
2151.572627995909
 30
0.0
  0
POINT
  5
17F1
  8
DEFPOINTS
 62
     0
 10
1856.612572155826
 20
951.57262799590865
 30
0.0
  0
POINT
  5
17F2
  8
DEFPOINTS
 62
     0
 10
2080.3724670335691
 20
951.57262799590865
 30
0.0
  0
ENDBLK
  5
1021
  8
0
  0
BLOCK
  8
0
  2
*D13
 70
     1
 10
0.0
 20
0.0
 30
0.0
  3
*D13
  1

  0
LINE
  5
180D
  8
SUNPOU
 62
     0
 10
1867.112572155826
 20
1851.572627995909
 30
0.0
 11
1996.6950409648889
 21
1851.572627995909
 31
0.0
  0
LINE
  5
180E
  8
SUNPOU
 62
     0
 10
1871.6125721558251
 20
2151.572627995909
 30
0.0
 11
1996.6950409648889
 21
2151.572627995909
 31
0.0
  0
LINE
  5
180F
  8
SUNPOU
 62
     0
 10
1981.6950409648889
 20
1881.572627995909
 30
0.0
 11
1981.6950409648889
 21
2121.572627995909
 31
0.0
  0
SOLID
  5
1810
  8
SUNPOU
 62
     0
 10
1976.6950409648889
 20
1881.572627995909
 30
0.0
 11
1986.6950409648889
 21
1881.572627995909
 31
0.0
 12
1981.6950409648889
 22
1851.572627995909
 32
0.0
 13
1981.6950409648889
 23
1851.572627995909
 33
0.0
  0
SOLID
  5
1811
  8
SUNPOU
 62
     0
 10
1976.6950409648889
 20
2121.572627995909
 30
0.0
 11
1986.6950409648889
 21
2121.572627995909
 31
0.0
 12
1981.6950409648889
 22
2151.572627995909
 32
0.0
 13
1981.6950409648889
 23
2151.572627995909
 33
0.0
  0
TEXT
  8
SUNPOU
  40
45
  5
195E
  62
0
  72
0
  71
0
 10
1851.20
 20
1921.92
 30
0.000000
  1
300
  7
EXT08
  0
POINT
  5
1813
  8
DEFPOINTS
 62
     0
 10
1852.112572155826
 20
1851.572627995909
 30
0.0
  0
POINT
  5
1814
  8
DEFPOINTS
 62
     0
 10
1856.612572155826
 20
2151.572627995909
 30
0.0
  0
POINT
  5
1815
  8
DEFPOINTS
 62
     0
 10
1981.6950409648889
 20
2151.572627995909
 30
0.0
  0
ENDBLK
  5
117C
  8
0
  0
BLOCK
  8
0
  2
*D14
 70
     1
 10
0.0
 20
0.0
 30
0.0
  3
*D14
  1

  0
LINE
  5
1934
  8
SUNPOU
 62
     0
 10
5262.9313612552514
 20
2609.8787900864718
 30
0.0
 11
5093.6357586247486
 21
2609.8787900864731
 31
0.0
  0
LINE
  5
1935
  8
SUNPOU
 62
     0
 10
5262.9313612552487
 20
1409.878790086472
 30
0.0
 11
5093.6357586247486
 21
1409.878790086472
 31
0.0
  0
LINE
  5
1936
  8
SUNPOU
 62
     0
 10
5108.6357586247505
 20
2579.8787900864731
 30
0.0
 11
5108.6357586247486
 21
1439.878790086472
 31
0.0
  0
SOLID
  5
1937
  8
SUNPOU
 62
     0
 10
5103.6357586247505
 20
2579.8787900864731
 30
0.0
 11
5113.6357586247505
 21
2579.8787900864731
 31
0.0
 12
5108.6357586247505
 22
2609.8787900864731
 32
0.0
 13
5108.6357586247505
 23
2609.8787900864731
 33
0.0
  0
SOLID
  5
1938
  8
SUNPOU
 62
     0
 10
5103.6357586247486
 20
1439.878790086472
 30
0.0
 11
5113.6357586247486
 21
1439.878790086472
 31
0.0
 12
5108.6357586247486
 22
1409.878790086472
 32
0.0
 13
5108.6357586247486
 23
1409.878790086472
 33
0.0
  0
TEXT
  8
SUNPOU
  40
45
  5
195F
  62
0
  72
0
  71
0
 10
4978.14
 20
1930.23
 30
0.000000
  1
1200
  7
EXT08
  0
POINT
  5
193A
  8
DEFPOINTS
 62
     0
 10
5277.9313612552514
 20
2609.8787900864718
 30
0.0
  0
POINT
  5
193B
  8
DEFPOINTS
 62
     0
 10
5277.9313612552496
 20
1409.878790086472
 30
0.0
  0
POINT
  5
193C
  8
DEFPOINTS
 62
     0
 10
5108.6357586247486
 20
1409.878790086472
 30
0.0
  0
ENDBLK
  5
161A
  8
0
  0
BLOCK
  8
0
  2
*D15
 70
     1
 10
0.0
 20
0.0
 30
0.0
  3
*D15
  1

  0
LINE
  5
193D
  8
SUNPOU
 62
     0
 10
5427.2117740655249
 20
2961.265538937067
 30
0.0
 11
5451.0497358704133
 21
2979.4795878276541
 31
0.0
  0
LINE
  5
193E
  8
SUNPOU
 62
     0
 10
5268.4509484449691
 20
2839.9599733257592
 30
0.0
 11
5244.6129866400806
 21
2821.7459244351721
 31
0.0
  0
TEXT
  8
SUNPOU
  40
45
  5
1960
  62
0
  72
0
  71
0
 10
5365.64
 20
2953.62
 30
0.000000
  1
?139.8
  7
EXT08
  0
LINE
  5
1940
  8
SUNPOU
 62
     0
 10
5403.3738122606364
 20
2943.05149004648
 30
0.0
 11
5292.2889102498566
 21
2858.1740222163462
 31
0.0
  0
SOLID
  5
1941
  8
SUNPOU
 62
     0
 10
5424.1760992504269
 20
2965.2385325712148
 30
0.0
 11
5430.247448880622
 21
2957.2925453029188
 31
0.0
 12
5403.3738122606364
 22
2943.05149004648
 32
0.0
 13
5403.3738122606364
 23
2943.05149004648
 33
0.0
  0
SOLID
  5
1942
  8
SUNPOU
 62
     0
 10
5265.4152736298711
 20
2843.9329669599069
 30
0.0
 11
5271.4866232600671
 21
2835.9869796916109
 31
0.0
 12
5292.2889102498566
 22
2858.1740222163462
 32
0.0
 13
5292.2889102498566
 23
2858.1740222163462
 33
0.0
  0
POINT
  5
1943
  8
DEFPOINTS
 62
     0
 10
5292.2889102498566
 20
2858.1740222163462
 30
0.0
  0
POINT
  5
1944
  8
DEFPOINTS
 62
     0
 10
5403.3738122606364
 20
2943.05149004648
 30
0.0
  0
ENDBLK
  5
1625
  8
0
  0
BLOCK
  8
0
  2
*D16
 70
     1
 10
0.0
 20
0.0
 30
0.0
  3
*D16
  1

  0
LINE
  5
194D
  8
SUNPOU
 62
     0
 10
1361.1739062937299
 20
2151.572627995909
 30
0.0
 11
1274.952722366379
 21
2151.572627995909
 31
0.0
  0
LINE
  5
194E
  8
SUNPOU
 62
     0
 10
1971.7125721558259
 20
2951.572627995909
 30
0.0
 11
1274.952722366379
 21
2951.572627995909
 31
0.0
  0
LINE
  5
194F
  8
SUNPOU
 62
     0
 10
1289.952722366379
 20
2181.572627995909
 30
0.0
 11
1289.952722366379
 21
2921.572627995909
 31
0.0
  0
SOLID
  5
1950
  8
SUNPOU
 62
     0
 10
1284.952722366379
 20
2181.572627995909
 30
0.0
 11
1294.952722366379
 21
2181.572627995909
 31
0.0
 12
1289.952722366379
 22
2151.572627995909
 32
0.0
 13
1289.952722366379
 23
2151.572627995909
 33
0.0
  0
SOLID
  5
1951
  8
SUNPOU
 62
     0
 10
1284.952722366379
 20
2921.572627995909
 30
0.0
 11
1294.952722366379
 21
2921.572627995909
 31
0.0
 12
1289.952722366379
 22
2951.572627995909
 32
0.0
 13
1289.952722366379
 23
2951.572627995909
 33
0.0
  0
TEXT
  8
SUNPOU
  40
45
  5
1961
  62
0
  72
0
  71
0
 10
1159.45
 20
2471.92
 30
0.000000
  1
800
  7
EXT08
  0
POINT
  5
1953
  8
DEFPOINTS
 62
     0
 10
1376.1739062937299
 20
2151.572627995909
 30
0.0
  0
POINT
  5
1954
  8
DEFPOINTS
 62
     0
 10
1986.7125721558259
 20
2951.572627995909
 30
0.0
  0
POINT
  5
1955
  8
DEFPOINTS
 62
     0
 10
1289.952722366379
 20
2951.572627995909
 30
0.0
  0
ENDBLK
  5
16A5
  8
0
  0
BLOCK
  8
0
  2
*U17
 70
     1
 10
0.0
 20
0.0
 30
0.0
  3
*U17
  1

  0
SOLID
  5
17F4
  8
MOJI
 10
3333.6618591205838
 20
2180.685727262593
 30
0.0
 11
3324.862572155826
 21
2151.572627995909
 31
0.0
 12
3323.7441357387002
 22
2181.9658690205329
 32
0.0
 13
3323.7441357387002
 23
2181.9658690205329
 33
0.0
  0
POLYLINE
  5
17F5
  8
MOJI
 66
     1
 10
0.0
 20
0.0
 30
0.0
  0
VERTEX
  5
17F6
  8
MOJI
 10
3328.7029974296429
 20
2181.3257981415632
 30
0.0
  0
VERTEX
  5
17F7
  8
MOJI
 10
3344.0244909170292
 20
2300.0269757751521
 30
0.0
  0
VERTEX
  5
17F8
  8
MOJI
 10
3689.6244909170291
 20
2300.0269757751521
 30
0.0
  0
SEQEND
  5
17F9
  8
MOJI
  0
ENDBLK
  5
17FB
  8
0
  0
BLOCK
  8
0
  2
*U18
 70
     1
 10
0.0
 20
0.0
 30
0.0
  3
*U18
  1

  0
TEXT
  5
17FD
  8
MOJI
 10
3392.0244909170292
 20
2318.0269757751521
 30
0.0
 40
45.0
  1
モルタル充テン
 41
0.8
  7
EXT08
  0
ENDBLK
  5
17FF
  8
0
  0
BLOCK
  8
0
  2
*U19
 70
     1
 10
0.0
 20
0.0
 30
0.0
  3
*U19
  1

  0
SOLID
  5
1801
  8
MOJI
 10
1870.8162428408659
 20
1624.679213577673
 30
0.0
 11
1856.612572155826
 21
1651.5726279959081
 31
0.0
 12
1878.7706653178591
 22
1630.7395075521849
 32
0.0
 13
1878.7706653178591
 23
1630.7395075521849
 33
0.0
  0
POLYLINE
  5
1802
  8
MOJI
 66
     1
 10
0.0
 20
0.0
 30
0.0
  0
VERTEX
  5
1803
  8
MOJI
 10
1874.7934540793619
 20
1627.7093605649291
 30
0.0
  0
VERTEX
  5
1804
  8
MOJI
 10
2111.0184347917061
 20
1317.652900579953
 30
0.0
  0
VERTEX
  5
1805
  8
MOJI
 10
2286.9041490774198
 20
1317.652900579953
 30
0.0
  0
SEQEND
  5
1806
  8
MOJI
  0
ENDBLK
  5
1808
  8
0
  0
BLOCK
  8
0
  2
*U20
 70
     1
 10
0.0
 20
0.0
 30
0.0
  3
*U20
  1

  0
TEXT
  5
180A
  8
MOJI
 10
2159.0184347917061
 20
1335.652900579953
 30
0.0
 40
45.0
  1
鋼管杭
 41
0.8
  7
EXT08
  0
ENDBLK
  5
180C
  8
0
  0
BLOCK
  8
0
  2
*X21
 70
     1
 10
0.0
 20
0.0
 30
0.0
  3
*X21
  1

  0
LINE
  5
1817
  8
0
 62
     0
 10
3259.81688807514
 20
1863.0999952319571
 30
0.0
 11
3259.81688807514
 21
1863.0999952319571
 31
0.0
  0
LINE
  5
1818
  8
0
 62
     0
 10
3333.8814787681508
 20
1875.8132407486239
 30
0.0
 11
3333.8814787681508
 21
1875.8132407486239
 31
0.0
  0
LINE
  5
1819
  8
0
 62
     0
 10
3339.1249164566188
 20
1951.5894541951741
 30
0.0
 11
3339.1249164566188
 21
1951.5894541951741
 31
0.0
  0
LINE
  5
181A
  8
0
 62
     0
 10
3334.255858193399
 20
2036.6320629293809
 30
0.0
 11
3334.255858193399
 21
2036.6320629293809
 31
0.0
  0
LINE
  5
181B
  8
0
 62
     0
 10
3339.4992958818671
 20
2112.408276375932
 30
0.0
 11
3339.4992958818671
 21
2112.408276375932
 31
0.0
  0
LINE
  5
181C
  8
0
 62
     0
 10
3274.199953495799
 20
1857.7295712417069
 30
0.0
 11
3274.199953495799
 21
1857.7295712417069
 31
0.0
  0
LINE
  5
181D
  8
0
 62
     0
 10
3341.9952510792359
 20
1854.8651992453699
 30
0.0
 11
3341.9952510792359
 21
1854.8651992453699
 31
0.0
  0
LINE
  5
181E
  8
0
 62
     0
 10
3231.671216052453
 20
1925.1493610132179
 30
0.0
 11
3231.671216052453
 21
1925.1493610132179
 31
0.0
  0
LINE
  5
181F
  8
0
 62
     0
 10
3326.2441920404472
 20
1905.2257264518701
 30
0.0
 11
3326.2441920404472
 21
1905.2257264518701
 31
0.0
  0
LINE
  5
1820
  8
0
 62
     0
 10
3240.65116358566
 20
2040.406491246192
 30
0.0
 11
3240.65116358566
 21
2040.406491246192
 31
0.0
  0
LINE
  5
1821
  8
0
 62
     0
 10
3349.464080347972
 20
2051.7370098185311
 30
0.0
 11
3349.464080347972
 21
2051.7370098185311
 31
0.0
  0
LINE
  5
1822
  8
0
 62
     0
 10
3238.6044917530962
 20
2122.3623568376802
 30
0.0
 11
3238.6044917530962
 21
2122.3623568376802
 31
0.0
  0
LINE
  5
1823
  8
0
 62
     0
 10
3333.4353289818569
 20
1895.244465301324
 30
0.0
 11
3333.4353289818569
 21
1895.244465301324
 31
0.0
  0
LINE
  5
1824
  8
0
 62
     0
 10
3301.6421708897528
 20
1891.0588166323071
 30
0.0
 11
3301.6421708897528
 21
1891.0588166323071
 31
0.0
  0
LINE
  5
1825
  8
0
 62
     0
 10
3221.4352730494729
 20
1880.4993782078971
 30
0.0
 11
3221.4352730494729
 21
1880.4993782078971
 31
0.0
  0
LINE
  5
1826
  8
0
 62
     0
 10
3335.0520021449061
 20
1941.1491040413671
 30
0.0
 11
3335.0520021449061
 21
1941.1491040413671
 31
0.0
  0
LINE
  5
1827
  8
0
 62
     0
 10
3240.1559795550902
 20
1974.347605336653
 30
0.0
 11
3240.1559795550902
 21
1974.347605336653
 31
0.0
  0
LINE
  5
1828
  8
0
 62
     0
 10
3241.772652718138
 20
2020.2522440766959
 30
0.0
 11
3241.772652718138
 21
2020.2522440766959
 31
0.0
  0
LINE
  5
1829
  8
0
 62
     0
 10
3340.385473320548
 20
2124.6184675638319
 30
0.0
 11
3340.385473320548
 21
2124.6184675638319
 31
0.0
  0
LINE
  5
182A
  8
0
 62
     0
 10
3228.3854173881641
 20
2109.8733804704061
 30
0.0
 11
3228.3854173881641
 21
2109.8733804704061
 31
0.0
  0
LINE
  5
182B
  8
0
 62
     0
 10
3345.776825832655
 20
1853.4045343778939
 30
0.0
 11
3345.776825832655
 21
1853.4045343778939
 31
0.0
  0
LINE
  5
182C
  8
0
 62
     0
 10
3347.3211274579512
 20
1895.6820538144709
 30
0.0
 11
3347.3211274579512
 21
1895.6820538144709
 31
0.0
  0
LINE
  5
182D
  8
0
 62
     0
 10
3348.8654290832469
 20
1937.959573251047
 30
0.0
 11
3348.8654290832469
 21
1937.959573251047
 31
0.0
  0
LINE
  5
182E
  8
0
 62
     0
 10
3282.1146624144931
 20
1886.7399085178261
 30
0.0
 11
3282.1146624144931
 21
1886.7399085178261
 31
0.0
  0
LINE
  5
182F
  8
0
 62
     0
 10
3350.4097307085422
 20
1980.237092687624
 30
0.0
 11
3350.4097307085422
 21
1980.237092687624
 31
0.0
  0
LINE
  5
1830
  8
0
 62
     0
 10
3351.9540323338392
 20
2022.514612124201
 30
0.0
 11
3351.9540323338392
 21
2022.514612124201
 31
0.0
  0
LINE
  5
1831
  8
0
 62
     0
 10
3222.329734815592
 20
2046.327995706358
 30
0.0
 11
3222.329734815592
 21
2046.327995706358
 31
0.0
  0
LINE
  5
1832
  8
0
 62
     0
 10
3223.8740364408882
 20
2088.6055151429332
 30
0.0
 11
3223.8740364408882
 21
2088.6055151429332
 31
0.0
  0
LINE
  5
1833
  8
0
 62
     0
 10
3225.418338066183
 20
2130.88303457951
 30
0.0
 11
3225.418338066183
 21
2130.88303457951
 31
0.0
  0
LINE
  5
1834
  8
0
 62
     0
 10
3337.6153034716408
 20
2072.7545842525751
 30
0.0
 11
3340.1903953308142
 21
2080.4290827323989
 31
0.0
  0
LINE
  5
1835
  8
0
 62
     0
 10
3275.8130988515072
 20
1888.5666207367931
 30
0.0
 11
3278.3881907106788
 21
1896.2411192166171
 31
0.0
  0
LINE
  5
1836
  8
0
 62
     0
 10
3230.9070580865791
 20
2031.7931553945471
 30
0.0
 11
3233.4821499457498
 21
2039.4676538743711
 31
0.0
  0
LINE
  5
1837
  8
0
 62
     0
 10
3269.4941969473548
 20
1892.8259239274671
 30
0.0
 11
3275.8114632502238
 21
1888.5648740030199
 31
0.0
  0
LINE
  5
1838
  8
0
 62
     0
 10
3224.5880154867459
 20
2036.0525060819921
 30
0.0
 11
3230.9052817896159
 21
2031.7914561575451
 31
0.0
  0
LINE
  5
1839
  8
0
 62
     0
 10
3331.2962252950019
 20
2077.0138900497868
 30
0.0
 11
3337.6134915978719
 21
2072.7528401253389
 31
0.0
  0
LINE
  5
183A
  8
0
 62
     0
 10
3269.4948475932711
 20
1892.8294563623119
 30
0.0
 11
3278.3872011556568
 21
1896.2429110817311
 31
0.0
  0
LINE
  5
183B
  8
0
 62
     0
 10
3331.2964532551482
 20
2077.0178881451302
 30
0.0
 11
3340.188806817534
 21
2080.4313428645501
 31
0.0
  0
LINE
  5
183C
  8
0
 62
     0
 10
3224.588210506517
 20
2036.056431512103
 30
0.0
 11
3233.4805640689028
 21
2039.469886231522
 31
0.0
  0
LINE
  5
183D
  8
0
 62
     0
 10
3323.9457291892231
 20
1877.572148974516
 30
0.0
 11
3322.4773401595489
 21
1885.53285614521
 31
0.0
  0
LINE
  5
183E
  8
0
 62
     0
 10
3232.8538100001579
 20
1885.5422911126941
 30
0.0
 11
3231.385420970485
 21
1893.502998283388
 31
0.0
  0
LINE
  5
183F
  8
0
 62
     0
 10
3316.343306258354
 20
1878.2646165101739
 30
0.0
 11
3323.9343098578138
 21
1877.600489750437
 31
0.0
  0
LINE
  5
1840
  8
0
 62
     0
 10
3225.2512630648439
 20
1886.2341376270199
 30
0.0
 11
3232.8422666643041
 21
1885.5700108672829
 31
0.0
  0
LINE
  5
1841
  8
0
 62
     0
 10
3316.3513087400502
 20
1878.265918819337
 30
0.0
 11
3322.4738607223139
 21
1885.5624921400461
 31
0.0
  0
LINE
  5
1842
  8
0
 62
     0
 10
3225.2589742420482
 20
1886.2354615887889
 30
0.0
 11
3231.381526224312
 21
1893.532034909497
 31
0.0
  0
ENDBLK
  5
1844
  8
0
  0
BLOCK
  8
0
  2
*X22
 70
     1
 10
0.0
 20
0.0
 30
0.0
  3
*X22
  1

  0
LINE
  5
1846
  8
0
 62
     0
 10
1759.8168880751409
 20
1863.0999952319571
 30
0.0
 11
1759.8168880751409
 21
1863.0999952319571
 31
0.0
  0
LINE
  5
1847
  8
0
 62
     0
 10
1833.8814787681499
 20
1875.8132407486239
 30
0.0
 11
1833.8814787681499
 21
1875.8132407486239
 31
0.0
  0
LINE
  5
1848
  8
0
 62
     0
 10
1839.124916456617
 20
1951.5894541951741
 30
0.0
 11
1839.124916456617
 21
1951.5894541951741
 31
0.0
  0
LINE
  5
1849
  8
0
 62
     0
 10
1834.2558581933979
 20
2036.6320629293809
 30
0.0
 11
1834.2558581933979
 21
2036.6320629293809
 31
0.0
  0
LINE
  5
184A
  8
0
 62
     0
 10
1839.4992958818659
 20
2112.408276375932
 30
0.0
 11
1839.4992958818659
 21
2112.408276375932
 31
0.0
  0
LINE
  5
184B
  8
0
 62
     0
 10
1774.199953495799
 20
1857.7295712417069
 30
0.0
 11
1774.199953495799
 21
1857.7295712417069
 31
0.0
  0
LINE
  5
184C
  8
0
 62
     0
 10
1841.995251079235
 20
1854.8651992453699
 30
0.0
 11
1841.995251079235
 21
1854.8651992453699
 31
0.0
  0
LINE
  5
184D
  8
0
 62
     0
 10
1731.6712160524521
 20
1925.1493610132179
 30
0.0
 11
1731.6712160524521
 21
1925.1493610132179
 31
0.0
  0
LINE
  5
184E
  8
0
 62
     0
 10
1826.244192040446
 20
1905.2257264518701
 30
0.0
 11
1826.244192040446
 21
1905.2257264518701
 31
0.0
  0
LINE
  5
184F
  8
0
 62
     0
 10
1740.6511635856591
 20
2040.406491246192
 30
0.0
 11
1740.6511635856591
 21
2040.406491246192
 31
0.0
  0
LINE
  5
1850
  8
0
 62
     0
 10
1849.464080347971
 20
2051.7370098185311
 30
0.0
 11
1849.464080347971
 21
2051.7370098185311
 31
0.0
  0
LINE
  5
1851
  8
0
 62
     0
 10
1738.604491753096
 20
2122.3623568376802
 30
0.0
 11
1738.604491753096
 21
2122.3623568376802
 31
0.0
  0
LINE
  5
1852
  8
0
 62
     0
 10
1833.4353289818571
 20
1895.244465301324
 30
0.0
 11
1833.4353289818571
 21
1895.244465301324
 31
0.0
  0
LINE
  5
1853
  8
0
 62
     0
 10
1801.6421708897531
 20
1891.0588166323071
 30
0.0
 11
1801.6421708897531
 21
1891.0588166323071
 31
0.0
  0
LINE
  5
1854
  8
0
 62
     0
 10
1721.4352730494729
 20
1880.4993782078971
 30
0.0
 11
1721.4352730494729
 21
1880.4993782078971
 31
0.0
  0
LINE
  5
1855
  8
0
 62
     0
 10
1835.0520021449049
 20
1941.1491040413671
 30
0.0
 11
1835.0520021449049
 21
1941.1491040413671
 31
0.0
  0
LINE
  5
1856
  8
0
 62
     0
 10
1740.15597955509
 20
1974.347605336653
 30
0.0
 11
1740.15597955509
 21
1974.347605336653
 31
0.0
  0
LINE
  5
1857
  8
0
 62
     0
 10
1741.7726527181369
 20
2020.2522440766959
 30
0.0
 11
1741.7726527181369
 21
2020.2522440766959
 31
0.0
  0
LINE
  5
1858
  8
0
 62
     0
 10
1840.385473320548
 20
2124.6184675638319
 30
0.0
 11
1840.385473320548
 21
2124.6184675638319
 31
0.0
  0
LINE
  5
1859
  8
0
 62
     0
 10
1728.385417388163
 20
2109.8733804704061
 30
0.0
 11
1728.385417388163
 21
2109.8733804704061
 31
0.0
  0
LINE
  5
185A
  8
0
 62
     0
 10
1845.776825832655
 20
1853.4045343778939
 30
0.0
 11
1845.776825832655
 21
1853.4045343778939
 31
0.0
  0
LINE
  5
185B
  8
0
 62
     0
 10
1847.321127457951
 20
1895.6820538144709
 30
0.0
 11
1847.321127457951
 21
1895.6820538144709
 31
0.0
  0
LINE
  5
185C
  8
0
 62
     0
 10
1848.8654290832469
 20
1937.959573251047
 30
0.0
 11
1848.8654290832469
 21
1937.959573251047
 31
0.0
  0
LINE
  5
185D
  8
0
 62
     0
 10
1782.114662414494
 20
1886.7399085178261
 30
0.0
 11
1782.114662414494
 21
1886.7399085178261
 31
0.0
  0
LINE
  5
185E
  8
0
 62
     0
 10
1850.4097307085419
 20
1980.237092687624
 30
0.0
 11
1850.4097307085419
 21
1980.237092687624
 31
0.0
  0
LINE
  5
185F
  8
0
 62
     0
 10
1851.9540323338381
 20
2022.514612124201
 30
0.0
 11
1851.9540323338381
 21
2022.514612124201
 31
0.0
  0
LINE
  5
1860
  8
0
 62
     0
 10
1722.3297348155911
 20
2046.327995706358
 30
0.0
 11
1722.3297348155911
 21
2046.327995706358
 31
0.0
  0
LINE
  5
1861
  8
0
 62
     0
 10
1723.874036440887
 20
2088.6055151429332
 30
0.0
 11
1723.874036440887
 21
2088.6055151429332
 31
0.0
  0
LINE
  5
1862
  8
0
 62
     0
 10
1725.418338066183
 20
2130.88303457951
 30
0.0
 11
1725.418338066183
 21
2130.88303457951
 31
0.0
  0
LINE
  5
1863
  8
0
 62
     0
 10
1837.615303471641
 20
2072.7545842525751
 30
0.0
 11
1840.1903953308131
 21
2080.4290827323989
 31
0.0
  0
LINE
  5
1864
  8
0
 62
     0
 10
1775.813098851507
 20
1888.5666207367931
 30
0.0
 11
1778.3881907106791
 21
1896.2411192166171
 31
0.0
  0
LINE
  5
1865
  8
0
 62
     0
 10
1730.907058086578
 20
2031.7931553945471
 30
0.0
 11
1733.482149945751
 21
2039.4676538743711
 31
0.0
  0
LINE
  5
1866
  8
0
 62
     0
 10
1769.494196947355
 20
1892.8259239274671
 30
0.0
 11
1775.8114632502241
 21
1888.5648740030199
 31
0.0
  0
LINE
  5
1867
  8
0
 62
     0
 10
1724.588015486745
 20
2036.0525060819921
 30
0.0
 11
1730.9052817896149
 21
2031.7914561575451
 31
0.0
  0
LINE
  5
1868
  8
0
 62
     0
 10
1831.2962252950019
 20
2077.0138900497868
 30
0.0
 11
1837.613491597871
 21
2072.7528401253389
 31
0.0
  0
LINE
  5
1869
  8
0
 62
     0
 10
1769.4948475932699
 20
1892.8294563623119
 30
0.0
 11
1778.3872011556559
 21
1896.2429110817311
 31
0.0
  0
LINE
  5
186A
  8
0
 62
     0
 10
1831.2964532551471
 20
2077.0178881451302
 30
0.0
 11
1840.1888068175331
 21
2080.4313428645501
 31
0.0
  0
LINE
  5
186B
  8
0
 62
     0
 10
1724.588210506517
 20
2036.056431512103
 30
0.0
 11
1733.480564068903
 21
2039.469886231522
 31
0.0
  0
LINE
  5
186C
  8
0
 62
     0
 10
1823.9457291892229
 20
1877.572148974516
 30
0.0
 11
1822.4773401595489
 21
1885.53285614521
 31
0.0
  0
LINE
  5
186D
  8
0
 62
     0
 10
1732.8538100001581
 20
1885.5422911126941
 30
0.0
 11
1731.3854209704839
 21
1893.502998283388
 31
0.0
  0
LINE
  5
186E
  8
0
 62
     0
 10
1816.343306258352
 20
1878.2646165101739
 30
0.0
 11
1823.9343098578111
 21
1877.600489750437
 31
0.0
  0
LINE
  5
186F
  8
0
 62
     0
 10
1725.251263064843
 20
1886.2341376270199
 30
0.0
 11
1732.8422666643021
 21
1885.5700108672829
 31
0.0
  0
LINE
  5
1870
  8
0
 62
     0
 10
1816.3513087400499
 20
1878.265918819337
 30
0.0
 11
1822.4738607223139
 21
1885.5624921400461
 31
0.0
  0
LINE
  5
1871
  8
0
 62
     0
 10
1725.2589742420471
 20
1886.2354615887889
 30
0.0
 11
1731.381526224312
 21
1893.532034909497
 31
0.0
  0
ENDBLK
  5
1873
  8
0
  0
BLOCK
  8
0
  2
*X23
 70
     1
 10
0.0
 20
0.0
 30
0.0
  3
*X23
  1

  0
LINE
  5
1875
  8
0
 62
     0
 10
3218.1299730965852
 20
2377.2726279959079
 30
0.0
 11
3226.7125721558268
 21
2385.8552270551509
 31
0.0
  0
LINE
  5
1876
  8
0
 62
     0
 10
3200.4523035669199
 20
2377.272627995907
 30
0.0
 11
3226.7125721558268
 21
2403.5328965848139
 31
0.0
  0
LINE
  5
1877
  8
0
 62
     0
 10
3182.7746340372569
 20
2377.2726279959079
 30
0.0
 11
3226.7125721558268
 21
2421.2105661144778
 31
0.0
  0
LINE
  5
1878
  8
0
 62
     0
 10
3165.0969645075929
 20
2377.2726279959079
 30
0.0
 11
3213.6969645075928
 21
2425.8726279959078
 31
0.0
  0
LINE
  5
1879
  8
0
 62
     0
 10
3147.4192949779299
 20
2377.2726279959079
 30
0.0
 11
3196.0192949779289
 21
2425.8726279959069
 31
0.0
  0
LINE
  5
187A
  8
0
 62
     0
 10
3129.7416254482659
 20
2377.2726279959079
 30
0.0
 11
3178.3416254482649
 21
2425.8726279959069
 31
0.0
  0
LINE
  5
187B
  8
0
 62
     0
 10
3112.063955918602
 20
2377.2726279959079
 30
0.0
 11
3160.663955918601
 21
2425.8726279959069
 31
0.0
  0
LINE
  5
187C
  8
0
 62
     0
 10
3094.386286388939
 20
2377.2726279959079
 30
0.0
 11
3142.986286388938
 21
2425.8726279959078
 31
0.0
  0
LINE
  5
187D
  8
0
 62
     0
 10
3076.708616859275
 20
2377.272627995907
 30
0.0
 11
3125.308616859274
 21
2425.8726279959069
 31
0.0
  0
LINE
  5
187E
  8
0
 62
     0
 10
3059.030947329612
 20
2377.2726279959079
 30
0.0
 11
3107.630947329611
 21
2425.8726279959069
 31
0.0
  0
LINE
  5
187F
  8
0
 62
     0
 10
3041.3532777999471
 20
2377.2726279959079
 30
0.0
 11
3089.953277799947
 21
2425.8726279959078
 31
0.0
  0
LINE
  5
1880
  8
0
 62
     0
 10
3023.6756082702841
 20
2377.2726279959079
 30
0.0
 11
3072.2756082702831
 21
2425.8726279959069
 31
0.0
  0
LINE
  5
1881
  8
0
 62
     0
 10
3005.9979387406202
 20
2377.2726279959079
 30
0.0
 11
3054.5979387406192
 21
2425.8726279959069
 31
0.0
  0
LINE
  5
1882
  8
0
 62
     0
 10
2988.3202692109571
 20
2377.2726279959079
 30
0.0
 11
3036.9202692109561
 21
2425.8726279959078
 31
0.0
  0
LINE
  5
1883
  8
0
 62
     0
 10
2970.6425996812932
 20
2377.2726279959079
 30
0.0
 11
3019.2425996812922
 21
2425.8726279959078
 31
0.0
  0
LINE
  5
1884
  8
0
 62
     0
 10
2952.9649301516301
 20
2377.2726279959079
 30
0.0
 11
3001.5649301516291
 21
2425.8726279959069
 31
0.0
  0
LINE
  5
1885
  8
0
 62
     0
 10
2935.2872606219648
 20
2377.2726279959079
 30
0.0
 11
2983.8872606219638
 21
2425.8726279959069
 31
0.0
  0
LINE
  5
1886
  8
0
 62
     0
 10
2917.6095910923009
 20
2377.2726279959079
 30
0.0
 11
2966.2095910923008
 21
2425.8726279959078
 31
0.0
  0
LINE
  5
1887
  8
0
 62
     0
 10
2899.9319215626379
 20
2377.2726279959079
 30
0.0
 11
2948.5319215626369
 21
2425.8726279959069
 31
0.0
  0
LINE
  5
1888
  8
0
 62
     0
 10
2882.2542520329748
 20
2377.2726279959079
 30
0.0
 11
2930.8542520329738
 21
2425.8726279959069
 31
0.0
  0
LINE
  5
1889
  8
0
 62
     0
 10
2864.5765825033109
 20
2377.2726279959079
 30
0.0
 11
2913.176582503309
 21
2425.8726279959078
 31
0.0
  0
LINE
  5
188A
  8
0
 62
     0
 10
2846.8989129736478
 20
2377.2726279959079
 30
0.0
 11
2895.4989129736459
 21
2425.8726279959078
 31
0.0
  0
LINE
  5
188B
  8
0
 62
     0
 10
2829.221243443983
 20
2377.2726279959088
 30
0.0
 11
2877.8212434439829
 21
2425.8726279959069
 31
0.0
  0
LINE
  5
188C
  8
0
 62
     0
 10
2811.543573914319
 20
2377.2726279959079
 30
0.0
 11
2860.1435739143189
 21
2425.8726279959069
 31
0.0
  0
LINE
  5
188D
  8
0
 62
     0
 10
2793.8659043846569
 20
2377.2726279959079
 30
0.0
 11
2842.465904384655
 21
2425.8726279959078
 31
0.0
  0
LINE
  5
188E
  8
0
 62
     0
 10
2776.188234854993
 20
2377.2726279959088
 30
0.0
 11
2824.788234854992
 21
2425.8726279959069
 31
0.0
  0
LINE
  5
188F
  8
0
 62
     0
 10
2758.510565325329
 20
2377.2726279959088
 30
0.0
 11
2807.110565325328
 21
2425.8726279959069
 31
0.0
  0
LINE
  5
1890
  8
0
 62
     0
 10
2740.8328957956651
 20
2377.2726279959088
 30
0.0
 11
2789.4328957956641
 21
2425.8726279959069
 31
0.0
  0
LINE
  5
1891
  8
0
 62
     0
 10
2723.155226266002
 20
2377.2726279959079
 30
0.0
 11
2771.7552262660001
 21
2425.8726279959078
 31
0.0
  0
LINE
  5
1892
  8
0
 62
     0
 10
2705.4775567363381
 20
2377.2726279959088
 30
0.0
 11
2754.0775567363371
 21
2425.8726279959069
 31
0.0
  0
LINE
  5
1893
  8
0
 62
     0
 10
2687.7998872066742
 20
2377.2726279959079
 30
0.0
 11
2736.3998872066732
 21
2425.8726279959069
 31
0.0
  0
LINE
  5
1894
  8
0
 62
     0
 10
2670.1222176770111
 20
2377.2726279959088
 30
0.0
 11
2718.7222176770092
 21
2425.8726279959078
 31
0.0
  0
LINE
  5
1895
  8
0
 62
     0
 10
2652.4445481473472
 20
2377.2726279959088
 30
0.0
 11
2701.0445481473462
 21
2425.8726279959069
 31
0.0
  0
LINE
  5
1896
  8
0
 62
     0
 10
2634.7668786176828
 20
2377.2726279959088
 30
0.0
 11
2683.3668786176818
 21
2425.8726279959078
 31
0.0
  0
LINE
  5
1897
  8
0
 62
     0
 10
2617.0892090880202
 20
2377.2726279959088
 30
0.0
 11
2665.6892090880178
 21
2425.8726279959069
 31
0.0
  0
LINE
  5
1898
  8
0
 62
     0
 10
2599.4115395583558
 20
2377.2726279959088
 30
0.0
 11
2648.0115395583548
 21
2425.8726279959069
 31
0.0
  0
LINE
  5
1899
  8
0
 62
     0
 10
2581.7338700286919
 20
2377.2726279959088
 30
0.0
 11
2630.3338700286909
 21
2425.8726279959069
 31
0.0
  0
LINE
  5
189A
  8
0
 62
     0
 10
2564.0562004990279
 20
2377.2726279959079
 30
0.0
 11
2612.6562004990269
 21
2425.8726279959069
 31
0.0
  0
LINE
  5
189B
  8
0
 62
     0
 10
2546.3785309693649
 20
2377.2726279959088
 30
0.0
 11
2594.9785309693639
 21
2425.8726279959078
 31
0.0
  0
LINE
  5
189C
  8
0
 62
     0
 10
2528.7008614397009
 20
2377.2726279959088
 30
0.0
 11
2577.3008614396999
 21
2425.8726279959069
 31
0.0
  0
LINE
  5
189D
  8
0
 62
     0
 10
2511.023191910037
 20
2377.2726279959088
 30
0.0
 11
2559.623191910036
 21
2425.8726279959078
 31
0.0
  0
LINE
  5
189E
  8
0
 62
     0
 10
2493.3455223803739
 20
2377.2726279959088
 30
0.0
 11
2541.9455223803729
 21
2425.8726279959078
 31
0.0
  0
LINE
  5
189F
  8
0
 62
     0
 10
2475.6678528507109
 20
2377.2726279959088
 30
0.0
 11
2524.267852850709
 21
2425.8726279959078
 31
0.0
  0
LINE
  5
18A0
  8
0
 62
     0
 10
2457.9901833210461
 20
2377.2726279959088
 30
0.0
 11
2506.5901833210451
 21
2425.8726279959069
 31
0.0
  0
LINE
  5
18A1
  8
0
 62
     0
 10
2440.312513791383
 20
2377.2726279959088
 30
0.0
 11
2488.9125137913811
 21
2425.8726279959069
 31
0.0
  0
LINE
  5
18A2
  8
0
 62
     0
 10
2422.6348442617191
 20
2377.2726279959088
 30
0.0
 11
2471.2348442617181
 21
2425.8726279959078
 31
0.0
  0
LINE
  5
18A3
  8
0
 62
     0
 10
2404.9571747320551
 20
2377.2726279959088
 30
0.0
 11
2453.5571747320541
 21
2425.8726279959069
 31
0.0
  0
LINE
  5
18A4
  8
0
 62
     0
 10
2387.2795052023912
 20
2377.2726279959088
 30
0.0
 11
2435.8795052023911
 21
2425.8726279959078
 31
0.0
  0
LINE
  5
18A5
  8
0
 62
     0
 10
2369.6018356727282
 20
2377.2726279959088
 30
0.0
 11
2418.2018356727272
 21
2425.8726279959078
 31
0.0
  0
LINE
  5
18A6
  8
0
 62
     0
 10
2351.9241661430642
 20
2377.2726279959088
 30
0.0
 11
2400.5241661430632
 21
2425.8726279959078
 31
0.0
  0
LINE
  5
18A7
  8
0
 62
     0
 10
2334.2464966133998
 20
2377.2726279959088
 30
0.0
 11
2382.8464966133988
 21
2425.8726279959069
 31
0.0
  0
LINE
  5
18A8
  8
0
 62
     0
 10
2316.5688270837368
 20
2377.2726279959088
 30
0.0
 11
2365.1688270837349
 21
2425.8726279959078
 31
0.0
  0
LINE
  5
18A9
  8
0
 62
     0
 10
2298.8911575540742
 20
2377.2726279959088
 30
0.0
 11
2347.4911575540718
 21
2425.8726279959078
 31
0.0
  0
LINE
  5
18AA
  8
0
 62
     0
 10
2281.2134880244089
 20
2377.2726279959088
 30
0.0
 11
2329.8134880244079
 21
2425.8726279959069
 31
0.0
  0
LINE
  5
18AB
  8
0
 62
     0
 10
2263.5358184947449
 20
2377.2726279959088
 30
0.0
 11
2312.1358184947449
 21
2425.8726279959078
 31
0.0
  0
LINE
  5
18AC
  8
0
 62
     0
 10
2245.8581489650828
 20
2377.2726279959088
 30
0.0
 11
2294.4581489650809
 21
2425.8726279959078
 31
0.0
  0
LINE
  5
18AD
  8
0
 62
     0
 10
2228.180479435418
 20
2377.2726279959088
 30
0.0
 11
2276.7804794354179
 21
2425.8726279959078
 31
0.0
  0
LINE
  5
18AE
  8
0
 62
     0
 10
2210.502809905754
 20
2377.2726279959079
 30
0.0
 11
2259.102809905753
 21
2425.8726279959078
 31
0.0
  0
LINE
  5
18AF
  8
0
 62
     0
 10
2192.825140376091
 20
2377.2726279959088
 30
0.0
 11
2241.42514037609
 21
2425.8726279959078
 31
0.0
  0
LINE
  5
18B0
  8
0
 62
     0
 10
2175.147470846428
 20
2377.2726279959088
 30
0.0
 11
2223.747470846426
 21
2425.8726279959078
 31
0.0
  0
LINE
  5
18B1
  8
0
 62
     0
 10
2157.469801316764
 20
2377.2726279959088
 30
0.0
 11
2206.0698013167621
 21
2425.8726279959069
 31
0.0
  0
LINE
  5
18B2
  8
0
 62
     0
 10
2139.7921317871001
 20
2377.2726279959088
 30
0.0
 11
2188.3921317870991
 21
2425.8726279959078
 31
0.0
  0
LINE
  5
18B3
  8
0
 62
     0
 10
2122.114462257437
 20
2377.2726279959088
 30
0.0
 11
2170.7144622574351
 21
2425.8726279959078
 31
0.0
  0
LINE
  5
18B4
  8
0
 62
     0
 10
2104.4367927277722
 20
2377.2726279959088
 30
0.0
 11
2153.0367927277721
 21
2425.8726279959078
 31
0.0
  0
LINE
  5
18B5
  8
0
 62
     0
 10
2086.7591231981091
 20
2377.2726279959088
 30
0.0
 11
2135.3591231981081
 21
2425.8726279959078
 31
0.0
  0
LINE
  5
18B6
  8
0
 62
     0
 10
2069.0814536684461
 20
2377.2726279959088
 30
0.0
 11
2117.6814536684442
 21
2425.8726279959078
 31
0.0
  0
LINE
  5
18B7
  8
0
 62
     0
 10
2051.4037841387822
 20
2377.2726279959088
 30
0.0
 11
2100.0037841387812
 21
2425.8726279959078
 31
0.0
  0
LINE
  5
18B8
  8
0
 62
     0
 10
2033.726114609118
 20
2377.2726279959088
 30
0.0
 11
2082.3261146091158
 21
2425.8726279959078
 31
0.0
  0
LINE
  5
18B9
  8
0
 62
     0
 10
2016.048445079454
 20
2377.2726279959088
 30
0.0
 11
2064.6484450794528
 21
2425.8726279959078
 31
0.0
  0
LINE
  5
18BA
  8
0
 62
     0
 10
1998.370775549791
 20
2377.2726279959088
 30
0.0
 11
2046.9707755497891
 21
2425.8726279959078
 31
0.0
  0
LINE
  5
18BB
  8
0
 62
     0
 10
1980.6931060201271
 20
2377.2726279959088
 30
0.0
 11
2029.2931060201261
 21
2425.8726279959078
 31
0.0
  0
LINE
  5
18BC
  8
0
 62
     0
 10
1963.0154364904629
 20
2377.2726279959088
 30
0.0
 11
2011.6154364904619
 21
2425.8726279959078
 31
0.0
  0
LINE
  5
18BD
  8
0
 62
     0
 10
1945.3377669607989
 20
2377.2726279959088
 30
0.0
 11
1993.9377669607979
 21
2425.8726279959078
 31
0.0
  0
LINE
  5
18BE
  8
0
 62
     0
 10
1927.6600974311359
 20
2377.2726279959088
 30
0.0
 11
1976.2600974311349
 21
2425.8726279959078
 31
0.0
  0
LINE
  5
18BF
  8
0
 62
     0
 10
1909.982427901472
 20
2377.2726279959088
 30
0.0
 11
1958.582427901471
 21
2425.8726279959078
 31
0.0
  0
LINE
  5
18C0
  8
0
 62
     0
 10
1892.304758371808
 20
2377.2726279959088
 30
0.0
 11
1940.904758371807
 21
2425.8726279959078
 31
0.0
  0
LINE
  5
18C1
  8
0
 62
     0
 10
1874.627088842145
 20
2377.2726279959088
 30
0.0
 11
1923.2270888421431
 21
2425.8726279959078
 31
0.0
  0
LINE
  5
18C2
  8
0
 62
     0
 10
1856.949419312481
 20
2377.2726279959088
 30
0.0
 11
1905.54941931248
 21
2425.8726279959078
 31
0.0
  0
LINE
  5
18C3
  8
0
 62
     0
 10
1846.712572155827
 20
2384.7134503689181
 30
0.0
 11
1887.8717497828161
 21
2425.8726279959078
 31
0.0
  0
LINE
  5
18C4
  8
0
 62
     0
 10
1846.7125721558259
 20
2402.3911198985811
 30
0.0
 11
1870.1940802531519
 21
2425.8726279959078
 31
0.0
  0
LINE
  5
18C5
  8
0
 62
     0
 10
1846.7125721558259
 20
2420.0687894282451
 30
0.0
 11
1852.5164107234889
 21
2425.8726279959078
 31
0.0
  0
ENDBLK
  5
18C7
  8
0
  0
BLOCK
  8
0
  2
*X24
 70
     1
 10
0.0
 20
0.0
 30
0.0
  3
*X24
  1

  0
LINE
  5
18C9
  8
0
 62
     0
 10
3218.1299730965852
 20
2627.2726279959079
 30
0.0
 11
3226.7125721558268
 21
2635.8552270551509
 31
0.0
  0
LINE
  5
18CA
  8
0
 62
     0
 10
3200.4523035669199
 20
2627.272627995907
 30
0.0
 11
3226.7125721558268
 21
2653.5328965848139
 31
0.0
  0
LINE
  5
18CB
  8
0
 62
     0
 10
3182.7746340372569
 20
2627.2726279959079
 30
0.0
 11
3226.7125721558268
 21
2671.2105661144778
 31
0.0
  0
LINE
  5
18CC
  8
0
 62
     0
 10
3165.0969645075929
 20
2627.2726279959079
 30
0.0
 11
3213.6969645075928
 21
2675.8726279959078
 31
0.0
  0
LINE
  5
18CD
  8
0
 62
     0
 10
3147.4192949779299
 20
2627.2726279959079
 30
0.0
 11
3196.0192949779289
 21
2675.8726279959069
 31
0.0
  0
LINE
  5
18CE
  8
0
 62
     0
 10
3129.7416254482659
 20
2627.2726279959079
 30
0.0
 11
3178.3416254482649
 21
2675.8726279959069
 31
0.0
  0
LINE
  5
18CF
  8
0
 62
     0
 10
3112.063955918602
 20
2627.2726279959079
 30
0.0
 11
3160.663955918601
 21
2675.8726279959069
 31
0.0
  0
LINE
  5
18D0
  8
0
 62
     0
 10
3094.386286388939
 20
2627.2726279959079
 30
0.0
 11
3142.986286388938
 21
2675.8726279959078
 31
0.0
  0
LINE
  5
18D1
  8
0
 62
     0
 10
3076.708616859275
 20
2627.272627995907
 30
0.0
 11
3125.308616859274
 21
2675.8726279959069
 31
0.0
  0
LINE
  5
18D2
  8
0
 62
     0
 10
3059.030947329612
 20
2627.2726279959079
 30
0.0
 11
3107.630947329611
 21
2675.8726279959069
 31
0.0
  0
LINE
  5
18D3
  8
0
 62
     0
 10
3041.3532777999471
 20
2627.2726279959079
 30
0.0
 11
3089.953277799947
 21
2675.8726279959078
 31
0.0
  0
LINE
  5
18D4
  8
0
 62
     0
 10
3023.6756082702841
 20
2627.2726279959079
 30
0.0
 11
3072.2756082702831
 21
2675.8726279959069
 31
0.0
  0
LINE
  5
18D5
  8
0
 62
     0
 10
3005.9979387406202
 20
2627.2726279959079
 30
0.0
 11
3054.5979387406192
 21
2675.8726279959069
 31
0.0
  0
LINE
  5
18D6
  8
0
 62
     0
 10
2988.3202692109571
 20
2627.2726279959079
 30
0.0
 11
3036.9202692109561
 21
2675.8726279959078
 31
0.0
  0
LINE
  5
18D7
  8
0
 62
     0
 10
2970.6425996812932
 20
2627.2726279959079
 30
0.0
 11
3019.2425996812922
 21
2675.8726279959078
 31
0.0
  0
LINE
  5
18D8
  8
0
 62
     0
 10
2952.9649301516301
 20
2627.2726279959079
 30
0.0
 11
3001.5649301516291
 21
2675.8726279959069
 31
0.0
  0
LINE
  5
18D9
  8
0
 62
     0
 10
2935.2872606219648
 20
2627.2726279959079
 30
0.0
 11
2983.8872606219638
 21
2675.8726279959069
 31
0.0
  0
LINE
  5
18DA
  8
0
 62
     0
 10
2917.6095910923009
 20
2627.2726279959079
 30
0.0
 11
2966.2095910923008
 21
2675.8726279959078
 31
0.0
  0
LINE
  5
18DB
  8
0
 62
     0
 10
2899.9319215626379
 20
2627.2726279959079
 30
0.0
 11
2948.5319215626369
 21
2675.8726279959069
 31
0.0
  0
LINE
  5
18DC
  8
0
 62
     0
 10
2882.2542520329748
 20
2627.2726279959079
 30
0.0
 11
2930.8542520329738
 21
2675.8726279959069
 31
0.0
  0
LINE
  5
18DD
  8
0
 62
     0
 10
2864.5765825033109
 20
2627.2726279959079
 30
0.0
 11
2913.176582503309
 21
2675.8726279959078
 31
0.0
  0
LINE
  5
18DE
  8
0
 62
     0
 10
2846.8989129736478
 20
2627.2726279959079
 30
0.0
 11
2895.4989129736459
 21
2675.8726279959078
 31
0.0
  0
LINE
  5
18DF
  8
0
 62
     0
 10
2829.221243443983
 20
2627.2726279959088
 30
0.0
 11
2877.8212434439829
 21
2675.8726279959069
 31
0.0
  0
LINE
  5
18E0
  8
0
 62
     0
 10
2811.543573914319
 20
2627.2726279959079
 30
0.0
 11
2860.1435739143189
 21
2675.8726279959069
 31
0.0
  0
LINE
  5
18E1
  8
0
 62
     0
 10
2793.8659043846569
 20
2627.2726279959079
 30
0.0
 11
2842.465904384655
 21
2675.8726279959078
 31
0.0
  0
LINE
  5
18E2
  8
0
 62
     0
 10
2776.188234854993
 20
2627.2726279959088
 30
0.0
 11
2824.788234854992
 21
2675.8726279959069
 31
0.0
  0
LINE
  5
18E3
  8
0
 62
     0
 10
2758.510565325329
 20
2627.2726279959088
 30
0.0
 11
2807.110565325328
 21
2675.8726279959069
 31
0.0
  0
LINE
  5
18E4
  8
0
 62
     0
 10
2740.8328957956651
 20
2627.2726279959088
 30
0.0
 11
2789.4328957956641
 21
2675.8726279959069
 31
0.0
  0
LINE
  5
18E5
  8
0
 62
     0
 10
2723.155226266002
 20
2627.2726279959079
 30
0.0
 11
2771.7552262660001
 21
2675.8726279959078
 31
0.0
  0
LINE
  5
18E6
  8
0
 62
     0
 10
2705.4775567363381
 20
2627.2726279959088
 30
0.0
 11
2754.0775567363371
 21
2675.8726279959069
 31
0.0
  0
LINE
  5
18E7
  8
0
 62
     0
 10
2687.7998872066742
 20
2627.2726279959079
 30
0.0
 11
2736.3998872066732
 21
2675.8726279959069
 31
0.0
  0
LINE
  5
18E8
  8
0
 62
     0
 10
2670.1222176770111
 20
2627.2726279959088
 30
0.0
 11
2718.7222176770092
 21
2675.8726279959078
 31
0.0
  0
LINE
  5
18E9
  8
0
 62
     0
 10
2652.4445481473472
 20
2627.2726279959088
 30
0.0
 11
2701.0445481473462
 21
2675.8726279959069
 31
0.0
  0
LINE
  5
18EA
  8
0
 62
     0
 10
2634.7668786176828
 20
2627.2726279959088
 30
0.0
 11
2683.3668786176818
 21
2675.8726279959078
 31
0.0
  0
LINE
  5
18EB
  8
0
 62
     0
 10
2617.0892090880202
 20
2627.2726279959079
 30
0.0
 11
2665.6892090880178
 21
2675.872627995906
 31
0.0
  0
LINE
  5
18EC
  8
0
 62
     0
 10
2599.4115395583558
 20
2627.2726279959088
 30
0.0
 11
2648.0115395583548
 21
2675.8726279959078
 31
0.0
  0
LINE
  5
18ED
  8
0
 62
     0
 10
2581.7338700286919
 20
2627.2726279959079
 30
0.0
 11
2630.3338700286909
 21
2675.8726279959069
 31
0.0
  0
LINE
  5
18EE
  8
0
 62
     0
 10
2564.0562004990279
 20
2627.2726279959079
 30
0.0
 11
2612.6562004990269
 21
2675.8726279959078
 31
0.0
  0
LINE
  5
18EF
  8
0
 62
     0
 10
2546.3785309693649
 20
2627.2726279959088
 30
0.0
 11
2594.9785309693639
 21
2675.8726279959078
 31
0.0
  0
LINE
  5
18F0
  8
0
 62
     0
 10
2528.7008614397009
 20
2627.2726279959088
 30
0.0
 11
2577.3008614396999
 21
2675.8726279959069
 31
0.0
  0
LINE
  5
18F1
  8
0
 62
     0
 10
2511.023191910037
 20
2627.2726279959088
 30
0.0
 11
2559.623191910036
 21
2675.8726279959078
 31
0.0
  0
LINE
  5
18F2
  8
0
 62
     0
 10
2493.3455223803739
 20
2627.2726279959088
 30
0.0
 11
2541.9455223803729
 21
2675.8726279959078
 31
0.0
  0
LINE
  5
18F3
  8
0
 62
     0
 10
2475.6678528507109
 20
2627.2726279959088
 30
0.0
 11
2524.267852850709
 21
2675.8726279959078
 31
0.0
  0
LINE
  5
18F4
  8
0
 62
     0
 10
2457.9901833210461
 20
2627.2726279959079
 30
0.0
 11
2506.5901833210451
 21
2675.8726279959069
 31
0.0
  0
LINE
  5
18F5
  8
0
 62
     0
 10
2440.312513791383
 20
2627.2726279959088
 30
0.0
 11
2488.9125137913811
 21
2675.8726279959078
 31
0.0
  0
LINE
  5
18F6
  8
0
 62
     0
 10
2422.6348442617191
 20
2627.2726279959088
 30
0.0
 11
2471.2348442617181
 21
2675.8726279959078
 31
0.0
  0
LINE
  5
18F7
  8
0
 62
     0
 10
2404.9571747320551
 20
2627.2726279959088
 30
0.0
 11
2453.5571747320541
 21
2675.8726279959069
 31
0.0
  0
LINE
  5
18F8
  8
0
 62
     0
 10
2387.2795052023912
 20
2627.2726279959088
 30
0.0
 11
2435.8795052023911
 21
2675.8726279959078
 31
0.0
  0
LINE
  5
18F9
  8
0
 62
     0
 10
2369.6018356727282
 20
2627.2726279959088
 30
0.0
 11
2418.2018356727272
 21
2675.8726279959078
 31
0.0
  0
LINE
  5
18FA
  8
0
 62
     0
 10
2351.9241661430642
 20
2627.2726279959088
 30
0.0
 11
2400.5241661430632
 21
2675.8726279959078
 31
0.0
  0
LINE
  5
18FB
  8
0
 62
     0
 10
2334.2464966133998
 20
2627.2726279959079
 30
0.0
 11
2382.8464966133988
 21
2675.8726279959078
 31
0.0
  0
LINE
  5
18FC
  8
0
 62
     0
 10
2316.5688270837368
 20
2627.2726279959088
 30
0.0
 11
2365.1688270837349
 21
2675.8726279959078
 31
0.0
  0
LINE
  5
18FD
  8
0
 62
     0
 10
2298.8911575540742
 20
2627.2726279959088
 30
0.0
 11
2347.4911575540718
 21
2675.8726279959078
 31
0.0
  0
LINE
  5
18FE
  8
0
 62
     0
 10
2281.2134880244089
 20
2627.2726279959088
 30
0.0
 11
2329.8134880244079
 21
2675.8726279959069
 31
0.0
  0
LINE
  5
18FF
  8
0
 62
     0
 10
2263.5358184947449
 20
2627.2726279959088
 30
0.0
 11
2312.1358184947449
 21
2675.8726279959078
 31
0.0
  0
LINE
  5
1900
  8
0
 62
     0
 10
2245.8581489650828
 20
2627.2726279959088
 30
0.0
 11
2294.4581489650809
 21
2675.8726279959078
 31
0.0
  0
LINE
  5
1901
  8
0
 62
     0
 10
2228.180479435418
 20
2627.2726279959088
 30
0.0
 11
2276.7804794354179
 21
2675.8726279959078
 31
0.0
  0
LINE
  5
1902
  8
0
 62
     0
 10
2210.502809905754
 20
2627.2726279959079
 30
0.0
 11
2259.102809905753
 21
2675.8726279959078
 31
0.0
  0
LINE
  5
1903
  8
0
 62
     0
 10
2192.825140376091
 20
2627.2726279959088
 30
0.0
 11
2241.42514037609
 21
2675.8726279959078
 31
0.0
  0
LINE
  5
1904
  8
0
 62
     0
 10
2175.147470846428
 20
2627.2726279959088
 30
0.0
 11
2223.747470846426
 21
2675.8726279959078
 31
0.0
  0
LINE
  5
1905
  8
0
 62
     0
 10
2157.469801316764
 20
2627.2726279959088
 30
0.0
 11
2206.069801316763
 21
2675.8726279959078
 31
0.0
  0
LINE
  5
1906
  8
0
 62
     0
 10
2139.7921317871001
 20
2627.2726279959088
 30
0.0
 11
2188.3921317870991
 21
2675.8726279959078
 31
0.0
  0
LINE
  5
1907
  8
0
 62
     0
 10
2122.114462257437
 20
2627.2726279959088
 30
0.0
 11
2170.7144622574351
 21
2675.8726279959078
 31
0.0
  0
LINE
  5
1908
  8
0
 62
     0
 10
2104.4367927277722
 20
2627.2726279959088
 30
0.0
 11
2153.0367927277721
 21
2675.8726279959078
 31
0.0
  0
LINE
  5
1909
  8
0
 62
     0
 10
2086.7591231981091
 20
2627.2726279959088
 30
0.0
 11
2135.3591231981081
 21
2675.8726279959078
 31
0.0
  0
LINE
  5
190A
  8
0
 62
     0
 10
2069.0814536684461
 20
2627.2726279959088
 30
0.0
 11
2117.6814536684442
 21
2675.8726279959078
 31
0.0
  0
LINE
  5
190B
  8
0
 62
     0
 10
2051.4037841387822
 20
2627.2726279959088
 30
0.0
 11
2100.0037841387812
 21
2675.8726279959078
 31
0.0
  0
LINE
  5
190C
  8
0
 62
     0
 10
2033.726114609118
 20
2627.2726279959088
 30
0.0
 11
2082.3261146091158
 21
2675.8726279959078
 31
0.0
  0
LINE
  5
190D
  8
0
 62
     0
 10
2016.048445079454
 20
2627.2726279959088
 30
0.0
 11
2064.6484450794528
 21
2675.8726279959078
 31
0.0
  0
LINE
  5
190E
  8
0
 62
     0
 10
1998.370775549791
 20
2627.2726279959088
 30
0.0
 11
2046.9707755497891
 21
2675.8726279959078
 31
0.0
  0
LINE
  5
190F
  8
0
 62
     0
 10
1980.6931060201271
 20
2627.2726279959088
 30
0.0
 11
2029.2931060201261
 21
2675.8726279959078
 31
0.0
  0
LINE
  5
1910
  8
0
 62
     0
 10
1963.0154364904629
 20
2627.2726279959088
 30
0.0
 11
2011.6154364904619
 21
2675.8726279959078
 31
0.0
  0
LINE
  5
1911
  8
0
 62
     0
 10
1945.3377669607989
 20
2627.2726279959088
 30
0.0
 11
1993.9377669607979
 21
2675.8726279959078
 31
0.0
  0
LINE
  5
1912
  8
0
 62
     0
 10
1927.6600974311359
 20
2627.2726279959088
 30
0.0
 11
1976.2600974311349
 21
2675.8726279959078
 31
0.0
  0
LINE
  5
1913
  8
0
 62
     0
 10
1909.982427901472
 20
2627.2726279959088
 30
0.0
 11
1958.582427901471
 21
2675.8726279959078
 31
0.0
  0
LINE
  5
1914
  8
0
 62
     0
 10
1892.304758371808
 20
2627.2726279959088
 30
0.0
 11
1940.904758371807
 21
2675.8726279959078
 31
0.0
  0
LINE
  5
1915
  8
0
 62
     0
 10
1874.627088842145
 20
2627.2726279959088
 30
0.0
 11
1923.2270888421431
 21
2675.8726279959078
 31
0.0
  0
LINE
  5
1916
  8
0
 62
     0
 10
1856.949419312481
 20
2627.2726279959088
 30
0.0
 11
1905.54941931248
 21
2675.8726279959078
 31
0.0
  0
LINE
  5
1917
  8
0
 62
     0
 10
1846.712572155827
 20
2634.7134503689181
 30
0.0
 11
1887.8717497828161
 21
2675.8726279959078
 31
0.0
  0
LINE
  5
1918
  8
0
 62
     0
 10
1846.7125721558259
 20
2652.3911198985811
 30
0.0
 11
1870.1940802531519
 21
2675.8726279959078
 31
0.0
  0
LINE
  5
1919
  8
0
 62
     0
 10
1846.7125721558259
 20
2670.0687894282451
 30
0.0
 11
1852.5164107234889
 21
2675.8726279959078
 31
0.0
  0
ENDBLK
  5
191B
  8
0
  0
BLOCK
  8
0
  2
*U25
 70
     1
 10
0.0
 20
0.0
 30
0.0
  3
*U25
  1

  0
SOLID
  5
191D
  8
MOJI
 10
-2715.0266672771472
 20
2354.7409820932671
 30
0.0
 11
-2695.906498225253
 21
2378.3930250373128
 31
0.0
 12
-2706.3222117789769
 22
2349.8183349923311
 32
0.0
 13
-2706.3222117789769
 23
2349.8183349923311
 33
0.0
210
0.0
220
0.0
230
-1.0
  0
POLYLINE
  5
191E
  8
MOJI
 66
     1
 10
0.0
 20
0.0
 30
0.0
210
0.0
220
0.0
230
-1.0
  0
VERTEX
  5
191F
  8
MOJI
 10
-2710.6744395280621
 20
2352.2796585427991
 30
0.0
  0
VERTEX
  5
1920
  8
MOJI
 10
-2793.2456461263928
 20
2206.273378074563
 30
0.0
  0
SEQEND
  5
1921
  8
MOJI
  0
ENDBLK
  5
1923
  8
0
  0
BLOCK
  8
0
  2
*U26
 70
     1
 10
0.0
 20
0.0
 30
0.0
  3
*U26
  1

  0
TEXT
  5
1925
  8
MOJI
 10
2814.7088784360149
 20
2221.9730268260291
 30
0.0
 40
45.0
  1
セイフティグリーン
 41
0.8
  7
EXT08
  0
ENDBLK
  5
1927
  8
0
  0
BLOCK
  8
0
  2
*U27
 70
     1
 10
0.0
 20
0.0
 30
0.0
  3
*U27
  1

  0
SOLID
  5
1929
  8
MOJI
 10
-2772.4663965867858
 20
2852.6921335309439
 30
0.0
 11
-2752.9567820040479
 21
2876.0239774107799
 31
0.0
 12
-2763.8447383239882
 22
2847.6258717138312
 32
0.0
 13
-2763.8447383239882
 23
2847.6258717138312
 33
0.0
210
0.0
220
0.0
230
-1.0
  0
POLYLINE
  5
192A
  8
MOJI
 66
     1
 10
0.0
 20
0.0
 30
0.0
210
0.0
220
0.0
230
-1.0
  0
VERTEX
  5
192B
  8
MOJI
 10
-2768.155567455387
 20
2850.1590026223871
 30
0.0
  0
VERTEX
  5
192C
  8
MOJI
 10
-2830.3415915507921
 20
2744.3321291154448
 30
0.0
  0
SEQEND
  5
192D
  8
MOJI
  0
ENDBLK
  5
192F
  8
0
  0
BLOCK
  8
0
  2
*U28
 70
     1
 10
0.0
 20
0.0
 30
0.0
  3
*U28
  1

  0
TEXT
  5
1931
  8
MOJI
 10
2851.8048238604129
 20
2760.0317778669119
 30
0.0
 40
45.0
  1
ホワイト１０
 41
0.8
  7
EXT08
  0
ENDBLK
  5
1933
  8
0
  0
BLOCK
  8
0
  2
*U29
 70
     1
 10
0.0
 20
0.0
 30
0.0
  3
*U29
  1

  0
SOLID
  5
1946
  8
MOJI
 10
5436.3206768736454
 20
2089.4930624690069
 30
0.0
 11
5415.7488388043384
 21
2067.0921812709339
 31
0.0
 12
5427.9435349678224
 22
2094.9541515078058
 32
0.0
 13
5427.9435349678224
 23
2094.9541515078058
 33
0.0
  0
POLYLINE
  5
1947
  8
MOJI
 66
     1
 10
0.0
 20
0.0
 30
0.0
  0
VERTEX
  5
1948
  8
MOJI
 10
5432.1321059207339
 20
2092.2236069884061
 30
0.0
  0
VERTEX
  5
1949
  8
MOJI
 10
5513.3480954818087
 20
2216.8064264116879
 30
0.0
  0
SEQEND
  5
194A
  8
MOJI
  0
ENDBLK
  5
194C
  8
0
  0
ENDSEC
  0
SECTION
  2
ENTITIES
  0
INSERT
  5
FD
  8
ZWAKU
  2
SEIKO_LS-1100A3
 10
0.0
 20
0.0
 30
0.0
 41
15.0
 42
15.0
 43
15.0
  0
TEXT
  5
FF
  8
INFORMATION
 10
1.0
 20
2.0
 30
0.0
 40
0.8
  1
PLOTTER=SEIKO_LS-1100
  0
TEXT
  5
100
  8
INFORMATION
 10
1.0
 20
3.0
 30
0.0
 40
0.8
  1
PAPER=A3
  0
TEXT
  5
2DB
  8
MOJI2
 10
1178.6697887628541
 20
3437.4066244678738
 30
0.0
 40
60.0
  1
設置図
 41
0.8
  7
KANJI08
  0
TEXT
  5
2DC
  8
MOJI
 10
2089.5958609534418
 20
2226.220229472814
 30
0.0
 40
45.0
  1
ビームパイプ %%C48.6×t3.2
 41
0.8
  7
KANJI08
  0
TEXT
  5
2DD
  8
MOJI
 10
2216.1537212062631
 20
2730.8822830162958
 30
0.0
 40
45.0
  1
主柱 %%C76.3×t3.2
 41
0.8
  7
KANJI08
  0
LINE
  5
2DE
  8
MOJI
 10
2174.7570120986529
 20
2710.8822830162958
 30
0.0
 11
2622.519704773395
 21
2710.8822830162958
 31
0.0
  0
TEXT
  5
2FB
  8
MOJI
 10
1394.7323953518239
 20
2171.897519440678
 30
0.0
 40
45.0
  1
GL
 41
0.8
  7
KANJI08
  0
LINE
  5
307
  8
MOJI2
 10
1158.3298452552949
 20
3423.4977258410381
 30
0.0
 11
1352.5525959271961
 21
3423.4977258410381
 31
0.0
  0
LINE
  5
308
  8
MOJI
 10
2071.7691845341001
 20
2204.9822830162939
 30
0.0
 11
2684.6071012612651
 21
2204.9822830162939
 31
0.0
  0
LINE
  5
30D
  8
SJC
 10
1376.1739062937299
 20
2151.572627995909
 30
0.0
 11
1748.562572155826
 21
2151.572627995909
 31
0.0
1001
ACAD
1000
ASC_BOUNDS
1002
{
1070
    19
1002
}
  0
LINE
  5
30E
  8
MOJI2
 10
1158.3298452552949
 20
3408.4977258410381
 30
0.0
 11
1352.5525959271961
 21
3408.4977258410381
 31
0.0
  0
LINE
  5
30F
  8
CENTER
 10
1786.7125721558259
 20
2713.4226279959089
 30
0.0
 11
1786.7125721558259
 21
901.57262799590887
 31
0.0
  0
LINE
  5
310
  8
CENTER
 10
1986.7125721558259
 20
2913.4226279959089
 30
0.0
 11
3086.7125721558259
 21
2913.4226279959089
 31
0.0
  0
LINE
  5
312
  8
CENTER
 10
3286.7125721558259
 20
2713.4226279959089
 30
0.0
 11
3286.7125721558259
 21
901.57262799590887
 31
0.0
  0
DIMENSION
  5
314
  8
SUNPOU
  2
*D5
 10
3286.7125721558259
 20
3183.0425213434009
 30
0.0
 11
2536.7125721558259
 21
3223.5425213434009
 31
0.0
 70
     0
 13
1786.7125721558259
 23
2713.4226279959089
 33
0.0
 14
3286.7125721558259
 24
2713.4226279959089
 34
0.0
1001
ACAD
1000
DSTYLE
1002
{
1070
   287
1070
     5
1070
    40
1040
15.0
1070
    41
1040
2.0
1070
    42
1040
1.0
1070
    43
1040
6.0
1070
    44
1040
1.0
1070
    73
1070
     0
1070
    74
1070
     0
1070
    77
1070
     1
1070
    78
1070
     8
1070
   140
1040
3.0
1070
   147
1040
1.1999999999999991
1070
   172
1070
     1
1070
   176
1070
   256
1070
   177
1070
   256
1070
   178
1070
   256
1070
   271
1070
     1
1070
   275
1070
     1
1070
   279
1070
     2
1070
   340
1005
11F
1002
}
  0
LINE
  5
318
  8
SJC
 10
1824.862572155826
 20
2151.572627995909
 30
0.0
 11
3248.5625721558258
 21
2151.572627995909
 31
0.0
1001
ACAD
1000
ASC_BOUNDS
1002
{
1070
    19
1002
}
  0
INSERT
  5
31B
  8
SUNPOU
  2
B0040021
 10
2231.8454199457701
 20
2151.572627995909
 30
0.0
  0
LINE
  5
3ED
  8
SJC
 10
3324.862572155826
 20
2151.572627995909
 30
0.0
 11
3697.2512380179219
 21
2151.572627995909
 31
0.0
1001
ACAD
1000
ASC_BOUNDS
1002
{
1070
    19
1005
0
1002
}
  0
DIMENSION
  5
3EF
  8
SUNPOU
  2
*D6
 10
1289.952722366379
 20
2151.572627995909
 30
0.0
 11
1249.4527223663781
 21
2026.572627995909
 31
0.0
 70
     0
 13
1721.312572155826
 23
1901.572627995909
 33
0.0
 14
1376.1739062937299
 24
2151.572627995909
 34
0.0
 50
90.0
1001
ACAD
1000
DSTYLE
1002
{
1070
   287
1070
     5
1070
    40
1040
15.0
1070
    41
1040
2.0
1070
    42
1040
1.0
1070
    43
1040
6.0
1070
    44
1040
1.0
1070
    73
1070
     0
1070
    74
1070
     0
1070
    77
1070
     1
1070
    78
1070
     8
1070
   140
1040
3.0
1070
   147
1040
1.1999999999999991
1070
   172
1070
     1
1070
   176
1070
   256
1070
   177
1070
   256
1070
   178
1070
   256
1070
   271
1070
     1
1070
   275
1070
     1
1070
   279
1070
     2
1070
   340
1005
11F
1002
}
  0
LINE
  5
3F2
  8
SJC
 10
1986.7125721558259
 20
2951.572627995909
 30
0.0
 11
3086.7125721558259
 21
2951.572627995909
 31
0.0
  0
LINE
  5
3F3
  8
SJC
 10
1986.7125721558259
 20
2875.2726279959088
 30
0.0
 11
3086.7125721558259
 21
2875.2726279959088
 31
0.0
  0
LINE
  5
3F6
  8
SJC
 10
3248.5625721558258
 20
2713.4226279959089
 30
0.0
 11
3248.5625721558258
 21
2675.8726279959092
 31
0.0
  0
LINE
  5
3F7
  8
SJC
 10
3324.862572155826
 20
2713.4226279959089
 30
0.0
 11
3324.862572155826
 21
1901.572627995909
 31
0.0
  0
LINE
  5
3F8
  8
SJC
 10
1824.862572155826
 20
2713.4226279959098
 30
0.0
 11
1824.862572155826
 21
2675.8726279959092
 31
0.0
1001
ACAD
1000
ASC_BOUNDS
1002
{
1070
    19
1002
}
  0
LINE
  5
3F9
  8
SJC
 10
1748.562572155826
 20
2713.4226279959089
 30
0.0
 11
1748.562572155826
 21
1901.5726279959081
 31
0.0
1001
ACAD
1000
ASC_BOUNDS
1002
{
1070
    19
1002
}
  0
DIMENSION
  5
3FC
  8
SUNPOU
  2
*D7
 10
3783.4724219452728
 20
2951.572627995909
 30
0.0
 11
3742.9724219452719
 21
2801.5726279959099
 31
0.0
 70
     0
 13
3286.7125721558259
 23
2651.5726279959099
 33
0.0
 14
3086.7125721558259
 24
2951.572627995909
 34
0.0
 50
90.0
1001
ACAD
1000
DSTYLE
1002
{
1070
   287
1070
     5
1070
    40
1040
15.0
1070
    41
1040
2.0
1070
    42
1040
1.0
1070
    43
1040
6.0
1070
    44
1040
1.0
1070
    73
1070
     0
1070
    74
1070
     0
1070
    77
1070
     1
1070
    78
1070
     8
1070
   140
1040
3.0
1070
   147
1040
1.1999999999999991
1070
   172
1070
     1
1070
   176
1070
   256
1070
   177
1070
   256
1070
   178
1070
   256
1070
   271
1070
     1
1070
   275
1070
     1
1070
   279
1070
     2
1070
   340
1005
11F
1002
}
  0
DIMENSION
  5
3FD
  8
SUNPOU
  2
*D8
 10
1123.862839882589
 20
2951.572627995909
 30
0.0
 11
1083.362839882589
 21
2426.5726279959099
 31
0.0
 70
     0
 13
1721.312572155826
 23
1901.572627995909
 33
0.0
 14
1946.7125721558259
 24
2951.572627995909
 34
0.0
 50
90.0
1001
ACAD
1000
DSTYLE
1002
{
1070
   287
1070
     5
1070
    40
1040
15.0
1070
    41
1040
2.0
1070
    42
1040
1.0
1070
    43
1040
6.0
1070
    44
1040
1.0
1070
    73
1070
     0
1070
    74
1070
     0
1070
    77
1070
     1
1070
    78
1070
     8
1070
   140
1040
3.0
1070
   147
1040
1.1999999999999991
1070
   172
1070
     1
1070
   176
1070
   256
1070
   177
1070
   256
1070
   178
1070
   256
1070
   271
1070
     1
1070
   275
1070
     1
1070
   279
1070
     2
1070
   340
1005
11F
1002
}
  0
SOLID
  5
400
  8
MOJI
  6
CONTINUOUS
 10
2124.5116669273439
 20
2845.2369777986692
 30
0.0
 11
2133.9945165229879
 21
2848.4111806192818
 31
0.0
 12
2119.7304832633272
 22
2875.2726279959088
 32
0.0
 13
2119.7304832633272
 23
2875.2726279959088
 33
0.0
  0
LINE
  5
401
  8
MOJI
  6
CONTINUOUS
 10
2129.2530917251661
 20
2846.8240792089759
 30
0.0
 11
2174.7570120986529
 21
2710.8822830162958
 31
0.0
  0
LINE
  5
402
  8
MOJI
  6
CONTINUOUS
 10
1931.3337999381331
 20
2627.2726279959088
 30
0.0
 11
2071.7691845341001
 21
2204.9822830162939
 31
0.0
  0
SOLID
  5
403
  8
MOJI
  6
CONTINUOUS
 10
2018.879465218718
 20
2347.2369777986678
 30
0.0
 11
2028.3623148143629
 21
2350.4111806192809
 31
0.0
 12
2014.098281554702
 22
2377.2726279959079
 32
0.0
 13
2014.098281554702
 23
2377.2726279959079
 33
0.0
  0
LINE
  5
405
  8
SJC
 10
1824.8625721558251
 20
2627.272627995882
 30
0.0
 11
1824.8625721558251
 21
2425.8726279959092
 31
0.0
1001
ACAD
1000
ASC_BOUNDS
1002
{
1070
    19
1005
3FE
1002
}
  0
LINE
  5
408
  8
SJC
 10
3248.5625721558258
 20
2627.272627995882
 30
0.0
 11
3248.5625721558258
 21
2425.8726279959092
 31
0.0
  0
TEXT
  5
4B6
  8
INFORMATION
 10
1.0
 20
1.0
 30
0.0
 40
0.8
  1
VERSION=3.0
  0
ARC
  5
4B7
  8
CENTER
 10
1986.7125721558259
 20
2713.4226279959089
 30
0.0
 40
200.0
 50
90.0
 51
180.0
  0
ARC
  5
4C0
  8
SJC
 10
1986.7125721558259
 20
2713.4226279959089
 30
0.0
 40
161.84999999999999
 50
90.0
 51
180.0
  0
ARC
  5
4C1
  8
SJC
 10
1986.7125721558259
 20
2713.4226279959089
 30
0.0
 40
238.15000000000001
 50
90.0
 51
180.0
  0
ARC
  5
4EF
  8
CENTER
 10
3086.7125721558259
 20
2713.4226279959089
 30
0.0
 40
200.0
 50
0.000000000000007
 51
90.0
  0
ARC
  5
4F0
  8
SJC
 10
3086.7125721558259
 20
2713.4226279959089
 30
0.0
 40
238.15000000000001
 50
0.000000000000007
 51
90.0
  0
ARC
  5
4F1
  8
SJC
 10
3086.7125721558259
 20
2713.4226279959089
 30
0.0
 40
161.84999999999999
 50
0.000000000000007
 51
90.0
  0
DIMENSION
  5
501
  8
SUNPOU
  2
*D9
 10
1986.712572155828
 20
2713.4226279959112
 30
0.0
 11
1973.170272333839
 21
2790.6945941200211
 31
0.0
 70
   132
 15
1843.773057775531
 25
2853.3093508423799
 35
0.0
 40
0.0
1001
ACAD
1000
DSTYLE
1002
{
1070
   287
1070
     5
1070
    40
1040
15.0
1070
    41
1040
2.0
1070
    42
1040
1.0
1070
    43
1040
6.0
1070
    44
1040
1.0
1070
    73
1070
     0
1070
    74
1070
     0
1070
    77
1070
     1
1070
    78
1070
     8
1070
   140
1040
3.0
1070
   147
1040
1.1999999999999991
1070
   172
1070
     1
1070
   179
1070
     2
1070
   271
1070
     2
1070
   279
1070
     2
1070
   288
1070
     1
1070
   340
1005
11D
1002
}
  0
LINE
  5
531
  8
SJC
 10
1824.862572155826
 20
2675.8726279959092
 30
0.0
 11
3248.5625721558258
 21
2675.8726279959092
 31
0.0
  0
LINE
  5
532
  8
SJC
 10
1824.8625721558039
 20
2627.2726279959088
 30
0.0
 11
3248.562572155849
 21
2627.2726279959088
 31
0.0
  0
ARC
  5
53C
  8
SJC
 10
1854.272306938713
 20
2651.5726279958958
 30
0.0
 40
38.150000000005512
 50
140.43454069638369
 51
219.56545930361631
  0
ARC
  5
53D
  8
SJC
 10
3219.1528373729388
 20
2651.5726279958958
 30
0.0
 40
38.150000000005512
 50
320.43454069638381
 51
39.565459303616258
  0
LINE
  5
53E
  8
SJC
 10
1824.8625721558039
 20
2377.2726279959088
 30
0.0
 11
3248.562572155849
 21
2377.2726279959088
 31
0.0
  0
LINE
  5
53F
  8
SJC
 10
1824.862572155826
 20
2425.8726279959092
 30
0.0
 11
3248.5625721558258
 21
2425.8726279959092
 31
0.0
  0
ARC
  5
540
  8
SJC
 10
1854.272306938713
 20
2401.5726279958958
 30
0.0
 40
38.150000000005512
 50
140.43454069638369
 51
219.56545930361631
  0
ARC
  5
541
  8
SJC
 10
3219.1528373729388
 20
2401.5726279958958
 30
0.0
 40
38.150000000005512
 50
320.43454069638381
 51
39.565459303616258
  0
LINE
  5
542
  8
SJC
 10
1824.8625721558251
 20
2377.272627995882
 30
0.0
 11
1824.862572155826
 21
1901.5726279959081
 31
0.0
1001
ACAD
1000
ASC_BOUNDS
1002
{
1070
    19
1002
}
  0
LINE
  5
543
  8
SJC
 10
3248.5625721558258
 20
2377.272627995882
 30
0.0
 11
3248.5625721558249
 21
1901.572627995909
 31
0.0
  0
SOLID
  5
544
  8
MOJI
  6
CONTINUOUS
 10
1936.1149836021491
 20
2597.2369777986728
 30
0.0
 11
1945.5978331977931
 21
2600.411180619285
 31
0.0
 12
1931.3337999381331
 22
2627.272627995912
 32
0.0
 13
1931.3337999381331
 23
2627.272627995912
 33
0.0
  0
DIMENSION
  5
546
  8
SUNPOU
  2
*D10
 10
3783.4724219452728
 20
2401.5726279958958
 30
0.0
 11
3742.9724219452719
 21
2526.5726279959031
 31
0.0
 70
     0
 13
3286.7125721558259
 23
2651.5726279959099
 33
0.0
 14
3286.7125721558259
 24
2401.5726279958958
 34
0.0
 50
90.0
1001
ACAD
1000
DSTYLE
1002
{
1070
   287
1070
     5
1070
    40
1040
15.0
1070
    41
1040
2.0
1070
    42
1040
1.0
1070
    43
1040
6.0
1070
    44
1040
1.0
1070
    73
1070
     0
1070
    74
1070
     0
1070
    77
1070
     1
1070
    78
1070
     8
1070
   140
1040
3.0
1070
   147
1040
1.1999999999999991
1070
   172
1070
     1
1070
   179
1070
     2
1070
   271
1070
     2
1070
   279
1070
     2
1070
   340
1005
11D
1002
}
  0
DIMENSION
  5
553
  8
SUNPOU
  2
*D11
 10
3783.4724219452728
 20
2151.572627995909
 30
0.0
 11
3742.9724219452728
 21
2276.5726279959031
 31
0.0
 70
     0
 13
3286.7125721558259
 23
2401.5726279958958
 33
0.0
 14
3697.2512380179219
 24
2151.572627995909
 34
0.0
 50
90.0
1001
ACAD
1000
DSTYLE
1002
{
1070
   287
1070
     5
1070
    40
1040
15.0
1070
    41
1040
2.0
1070
    42
1040
1.0
1070
    43
1040
6.0
1070
    44
1040
1.0
1070
    73
1070
     0
1070
    74
1070
     0
1070
    77
1070
     1
1070
    78
1070
     8
1070
   140
1040
3.0
1070
   147
1040
1.1999999999999991
1070
   172
1070
     1
1070
   179
1070
     2
1070
   271
1070
     2
1070
   279
1070
     2
1070
   340
1005
11D
1002
}
  0
LINE
  5
912
  8
SJC
 10
5051.4317998701472
 20
4165.2545027623164
 30
0.0
 11
5981.4317998701463
 21
4165.2545027623164
 31
0.0
  0
LINE
  5
913
  8
SJC
 10
5051.4317998701472
 20
3940.254502762316
 30
0.0
 11
5981.4317998701463
 21
3940.254502762316
 31
0.0
  0
LINE
  5
914
  8
SJC
 10
5028.9317998701472
 20
4015.254502762316
 30
0.0
 11
6003.9317998701463
 21
4015.254502762316
 31
0.0
  0
LINE
  5
915
  8
SJC
 10
5028.9317998701472
 20
4090.254502762316
 30
0.0
 11
6003.9317998701463
 21
4090.254502762316
 31
0.0
  0
TEXT
  5
916
  8
MOJI
 10
5287.795190993811
 20
3955.6695891817881
 30
0.0
 40
45.0
  1
KGSH00094
 41
0.8
  7
EXT08
  0
TEXT
  5
917
  8
MOJI
 10
5287.795190993811
 20
4030.6695891817872
 30
0.0
 40
45.0
  1
KSP-8-15WM-EH
 41
0.8
  7
EXT08
  0
TEXT
  5
918
  8
MOJI
 10
5287.795190993811
 20
4105.6695891817872
 30
0.0
 40
45.0
  1
高強度セイフティパイプ
 41
0.8
  7
EXT08
  0
TEXT
  5
919
  8
MOJI
 10
5078.0889427272896
 20
4104.3545027623159
 30
0.0
 40
45.0
  1
タイプ
 41
0.8
  7
EXT08
 72
     4
 11
5141.4317998701463
 21
4127.7545027623164
 31
0.0
  0
LINE
  5
91A
  8
SJC
 10
5253.9317998701463
 20
3940.254502762316
 30
0.0
 11
5253.9317998701463
 21
4165.2545027623164
 31
0.0
  0
ARC
  5
91B
  8
SJC
 10
5051.4317998701472
 20
4142.7545027623173
 30
0.0
 40
22.5
 50
90.0
 51
180.0
  0
ARC
  5
91C
  8
SJC
 10
5051.4317998701472
 20
3962.7545027623169
 30
0.0
 40
22.5
 50
180.0
 51
270.0
  0
LINE
  5
91D
  8
SJC
 10
5028.9317998701472
 20
3962.7545027623169
 30
0.0
 11
5028.9317998701472
 21
4142.7545027623173
 31
0.0
  0
TEXT
  5
91E
  8
MOJI
 10
5081.4317998701463
 20
4030.2545027623169
 30
0.0
 40
45.0
  1
品  番
 41
0.8
  7
EXT08
 72
     4
 11
5141.4317998701463
 21
4052.754502762316
 31
0.0
  0
TEXT
  5
91F
  8
MOJI
 10
5058.6317998701461
 20
3955.2545027623169
 30
0.0
 40
45.0
  1
図面番号
 41
0.8
  7
EXT08
 72
     4
 11
5141.4317998701463
 21
3977.754502762316
 31
0.0
  0
ARC
  5
920
  8
SJC
 10
5981.4317998701463
 20
4142.7545027623173
 30
0.0
 40
22.5
 50
0.0
 51
90.0
  0
ARC
  5
921
  8
SJC
 10
5981.4317998701463
 20
3962.7545027623169
 30
0.0
 40
22.5
 50
270.0
 51
0.0
  0
LINE
  5
922
  8
SJC
 10
6003.9317998701463
 20
3962.7545027623169
 30
0.0
 11
6003.9317998701463
 21
4142.7545027623173
 31
0.0
  0
LINE
  5
FD1
  8
SJC
 10
1856.612572155826
 20
2151.572627995909
 30
0.0
 11
1856.612572155826
 21
951.57262799590865
 31
0.0
  0
LINE
  5
FD2
  8
SJC
 10
1716.812572155826
 20
2151.572627995909
 30
0.0
 11
1716.8125721558249
 21
951.57262799590865
 31
0.0
  0
LINE
  5
FD5
  8
SJC
 10
1720.0125721558261
 20
951.57262799590933
 30
0.0
 11
1856.612572155826
 21
951.57262799590933
 31
0.0
1001
ACAD
1000
ASC_BOUNDS
1002
{
1070
    19
1002
}
  0
LINE
  5
FD7
  8
SJC
 10
1748.562572155826
 20
1901.5726279959081
 30
0.0
 11
1824.862572155826
 21
1901.5726279959081
 31
0.0
1001
ACAD
1000
ASC_BOUNDS
1002
{
1070
    19
1002
}
  0
LINE
  5
FD8
  8
SJC
 10
3216.8125721558258
 20
2151.572627995909
 30
0.0
 11
3216.8125721558258
 21
951.57262799590865
 31
0.0
  0
LINE
  5
FDA
  8
SJC
 10
3356.612572155826
 20
2151.572627995909
 30
0.0
 11
3356.612572155826
 21
951.57262799590865
 31
0.0
  0
LINE
  5
FDC
  8
SJC
 10
3248.5625721558249
 20
1901.572627995909
 30
0.0
 11
3324.862572155826
 21
1901.572627995909
 31
0.0
1001
ACAD
1000
ASC_BOUNDS
1002
{
1070
    19
1002
}
  0
LINE
  5
FDD
  8
SJC
 10
3220.0125721558261
 20
951.57262799590933
 30
0.0
 11
3356.612572155826
 21
951.57262799590933
 31
0.0
1001
ACAD
1000
ASC_BOUNDS
1002
{
1070
    19
1002
}
  0
DIMENSION
  5
1015
  8
SUNPOU
  2
*D12
 10
2080.3724670335691
 20
951.57262799590865
 30
0.0
 11
2039.8724670335689
 21
1551.572627995909
 31
0.0
 70
     0
 13
1856.612572155826
 23
2151.572627995909
 33
0.0
 14
1856.612572155826
 24
951.57262799590865
 34
0.0
 50
90.0
1001
ACAD
1000
DSTYLE
1002
{
1070
   287
1070
     5
1070
    40
1040
15.0
1070
    41
1040
2.0
1070
    42
1040
1.0
1070
    43
1040
6.0
1070
    44
1040
1.0
1070
    73
1070
     0
1070
    74
1070
     0
1070
    77
1070
     1
1070
    78
1070
     8
1070
   140
1040
3.0
1070
   147
1040
1.1999999999999991
1070
   172
1070
     1
1070
   179
1070
     2
1070
   271
1070
     2
1070
   279
1070
     2
1070
   340
1005
11D
1002
}
  0
INSERT
  5
10A7
  8
0
  2
*U17
 10
0.0
 20
0.0
 30
0.0
1001
ACAD
1000
DSTYLE
1002
{
1070
    40
1040
15.0
1070
    41
1040
2.0
1070
    42
1040
1.0
1070
    43
1040
6.0
1070
    44
1040
1.0
1070
    73
1070
     0
1070
    74
1070
     0
1070
    77
1070
     1
1070
    78
1070
     8
1070
   140
1040
3.0
1070
   147
1040
1.1999999999999991
1070
   172
1070
     1
1070
   179
1070
     2
1070
   271
1070
     2
1070
   279
1070
     2
1070
   340
1005
11D
1002
}
  0
INSERT
  5
10A8
  8
0
  2
*U18
 10
0.0
 20
0.0
 30
0.0
  0
INSERT
  5
10A9
  8
0
  2
*U19
 10
0.0
 20
0.0
 30
0.0
1001
ACAD
1000
DSTYLE
1002
{
1070
    40
1040
15.0
1070
    41
1040
2.0
1070
    42
1040
1.0
1070
    43
1040
6.0
1070
    44
1040
1.0
1070
    73
1070
     0
1070
    74
1070
     0
1070
    77
1070
     1
1070
    78
1070
     8
1070
   140
1040
3.0
1070
   147
1040
1.1999999999999991
1070
   172
1070
     1
1070
   179
1070
     2
1070
   271
1070
     2
1070
   279
1070
     2
1070
   340
1005
11D
1002
}
  0
INSERT
  5
10AA
  8
0
  2
*U20
 10
0.0
 20
0.0
 30
0.0
  0
TEXT
  5
10AB
  8
MOJI
 10
2149.4419722150492
 20
1251.7352231563
 30
0.0
 40
45.0
  1
φ139.8×t4.5×L1200
 41
0.8
  7
EXT08
  0
LINE
  5
10AC
  8
MOJI
 10
2286.9041490774198
 20
1317.652900579953
 30
0.0
 11
2509.3762910511109
 21
1317.652900579953
 31
0.0
  0
LINE
  5
10D9
  8
HASEN
 10
1721.312572155826
 20
2151.572627995909
 30
0.0
 11
1721.312572155826
 21
951.57262799590865
 31
0.0
  0
LINE
  5
10DA
  8
HASEN
 10
1852.112572155826
 20
2151.572627995909
 30
0.0
 11
1852.112572155826
 21
951.57262799590865
 31
0.0
  0
LINE
  5
10FD
  8
HASEN
 10
3221.3125721558258
 20
2151.572627995909
 30
0.0
 11
3221.3125721558258
 21
951.57262799590865
 31
0.0
  0
LINE
  5
10FE
  8
HASEN
 10
3352.1125721558269
 20
2151.572627995909
 30
0.0
 11
3352.112572155826
 21
951.57262799590865
 31
0.0
  0
LINE
  5
115A
  8
SJC
 10
3221.3125721558258
 20
1851.572627995909
 30
0.0
 11
3352.1125721558269
 21
1851.572627995909
 31
0.0
1001
ACAD
1000
ASC_BOUNDS
1002
{
1070
    19
1005
0
1002
}
  0
LINE
  5
115B
  8
SJC
 10
1721.312572155826
 20
1851.572627995909
 30
0.0
 11
1852.1125721558269
 21
1851.572627995909
 31
0.0
1001
ACAD
1000
ASC_BOUNDS
1002
{
1070
    19
1005
0
1002
}
  0
LINE
  5
115C
  8
MOJI
 10
2509.3762910511109
 20
1317.652900579953
 30
0.0
 11
2732.8154192512488
 21
1317.652900579953
 31
0.0
  0
DIMENSION
  5
1170
  8
SUNPOU
  2
*D13
 10
1981.6950409648889
 20
2151.572627995909
 30
0.0
 11
1941.195040964888
 21
2001.572627995909
 31
0.0
 70
     0
 13
1852.112572155826
 23
1851.572627995909
 33
0.0
 14
1856.612572155826
 24
2151.572627995909
 34
0.0
 50
90.0
1001
ACAD
1000
DSTYLE
1002
{
1070
   287
1070
     5
1070
    40
1040
15.0
1070
    41
1040
2.0
1070
    42
1040
1.0
1070
    43
1040
6.0
1070
    44
1040
1.0
1070
    73
1070
     0
1070
    74
1070
     0
1070
    77
1070
     1
1070
    78
1070
     8
1070
   140
1040
3.0
1070
   147
1040
1.1999999999999991
1070
   172
1070
     1
1070
   179
1070
     2
1070
   271
1070
     2
1070
   279
1070
     2
1070
   340
1005
11D
1002
}
  0
INSERT
  5
11AA
  8
HATCH
  6
CONTINUOUS
  2
*X21
 10
0.0
 20
0.0
 30
0.0
1001
ACAD
1000
HATCH
1002
{
1070
    19
1000
AR-CONC
1040
0.5
1040
0.0
1000
R14_HATCH_DATA
1000
11AA
1011
1.0
1021
0.0
1031
-1.0047202761911377E+289
1021
0.0
1031
0.0
1011
0.0
1021
0.0
1031
-1.0047202761911377E+289
1021
1.0
1031
0.0
1011
0.0
1021
0.0
1031
-1.0047202761911377E+289
1021
0.0
1031
1.0
1040
0.0
1010
0.0
1020
0.0
1030
1.0
1000
AR-CONC
1070
     0
1070
     0
1071
        1
1071
        1
1071
        8
1070
     1
1040
3324.8625721558251
1040
2151.572627995909
1040
3352.112572155826
1040
2151.572627995909
1070
     1
1040
3352.112572155826
1040
2151.572627995909
1040
3352.1125721558269
1040
1851.572627995909
1070
     1
1040
3352.1125721558269
1040
1851.572627995909
1040
3221.3125721558258
1040
1851.572627995909
1070
     1
1040
3221.3125721558258
1040
1851.572627995909
1040
3221.3125721558258
1040
2151.572627995909
1070
     1
1040
3221.3125721558258
1040
2151.572627995909
1040
3248.5625721558272
1040
2151.572627995909
1070
     1
1040
3248.5625721558258
1040
2151.572627995909
1040
3248.5625721558258
1040
1901.5726279959081
1070
     1
1040
3248.5625721558258
1040
1901.5726279959081
1040
3324.862572155826
1040
1901.5726279959081
1070
     1
1040
3324.862572155826
1040
1901.5726279959081
1040
3324.862572155826
1040
2151.572627995909
1071
        0
1070
     0
1070
     1
1040
0.0
1040
0.5
1070
     0
1070
    13
1040
0.8726646259971645
1040
-997.52902809612158
1040
0.0
1040
91.092334498002003
1040
-7.9695427694515431
1070
     2
1040
9.5250000000000004
1040
-104.77500000000001
1040
6.195918844579869
1040
-997.52902809612158
1040
0.0
1040
-17.621412987833491
1040
95.528321441089986
1070
     2
1040
7.6200000000000001
1040
-83.819999999999993
1040
1.753200686920823
1040
-989.93802809612168
1040
-0.664125
1040
73.471250832979621
1040
87.558343910145936
1070
     2
1040
8.0950000000000006
1040
-89.045000000000002
1040
0.8060663523995651
1040
-997.52902809612158
1040
25.399999999999999
1040
135.5395204460649
1040
-21.021163966363581
1070
     2
1040
14.2875
1040
-157.16249999999999
1040
1.6866093946402321
1040
-986.23407809612172
1040
23.648250000000001
1040
118.7021172331185
1040
123.7127779450246
1070
     2
1040
12.1425
1040
-133.56749999999991
1040
6.1293170803237658
1040
-997.52902809612158
1040
25.399999999999999
1040
118.70230290696691
1040
123.7125589302988
1070
     2
1040
11.43
1040
-125.73
1040
0.3665191429188092
1040
-984.82902809612165
1040
19.050000000000001
1040
75.807439917691639
1040
-51.132759258381249
1070
     2
1040
9.5250000000000004
1040
-104.77500000000001
1040
5.6897733615015138
1040
-984.82902809612165
1040
19.050000000000001
1040
30.90101417382354
1040
92.093983061159619
1070
     2
1040
7.6200000000000001
1040
-83.819999999999993
1040
1.2470621851594761
1040
-978.5117780961217
1040
14.78895
1040
106.7082453850622
1040
40.961428858028718
1070
     2
1040
8.0950000000000006
1040
-89.045000000000002
1040
0.6544984694978737
1040
-997.52902809612158
1040
0.0
1040
1.5443016252959081
1040
42.277519436576547
1070
     6
1040
0.0
1040
-82.804000000000002
1040
0.0
1040
-85.090000000000003
1040
0.0
1040
-84.137500000000003
1040
0.1308996938995747
1040
-997.52902809612158
1040
0.0
1040
33.409831255152874
1040
50.090287409059748
1070
     6
1040
0.0
1040
-48.513999999999989
1040
0.0
1040
-80.899000000000001
1040
0.0
1040
-32.067500000000003
1040
5.715953300281428
1040
-1025.8500280961221
1040
0.0
1040
67.795297583435698
1040
-2.864371996336728
1070
     6
1040
0.0
1040
-31.75
1040
0.0
1040
-99.060000000000002
1040
0.0
1040
-131.44499999999999
1040
5.5414203750819961
1040
-1038.550028096121
1040
0.0
1040
74.064590693009023
1040
12.713245516666509
1070
     6
1040
0.0
1040
-41.274999999999999
1040
0.0
1040
-65.786000000000001
1040
0.0
1040
-93.344999999999999
1071
        1
1040
-997.52902809612158
1040
0.0
1040
0.0
1002
}
  0
INSERT
  5
11AB
  8
HATCH
  6
CONTINUOUS
  2
*X22
 10
0.0
 20
0.0
 30
0.0
1001
ACAD
1000
HATCH
1002
{
1070
    19
1000
AR-CONC
1040
0.5
1040
0.0
1000
R14_HATCH_DATA
1000
11AB
1011
1.0
1021
0.0
1031
-1.0047202761911377E+289
1021
0.0
1031
0.0
1011
0.0
1021
0.0
1031
-1.0047202761911377E+289
1021
1.0
1031
0.0
1011
0.0
1021
0.0
1031
-1.0047202761911377E+289
1021
0.0
1031
1.0
1040
0.0
1010
0.0
1020
0.0
1030
1.0
1000
AR-CONC
1070
     0
1070
     0
1071
        1
1071
        1
1071
        8
1070
     1
1040
1824.8625721558251
1040
2151.572627995909
1040
1852.1125721558251
1040
2151.572627995909
1070
     1
1040
1852.1125721558251
1040
2151.572627995909
1040
1852.112572155826
1040
1851.572627995909
1070
     1
1040
1852.112572155826
1040
1851.572627995909
1040
1721.312572155826
1040
1851.572627995909
1070
     1
1040
1721.3125721558249
1040
1851.572627995909
1040
1721.3125721558249
1040
2151.572627995909
1070
     1
1040
1721.3125721558249
1040
2151.572627995909
1040
1748.562572155827
1040
2151.572627995909
1070
     1
1040
1748.562572155826
1040
2151.572627995909
1040
1748.562572155826
1040
1901.5726279959081
1070
     1
1040
1748.562572155826
1040
1901.5726279959081
1040
1824.8625721558251
1040
1901.5726279959081
1070
     1
1040
1824.8625721558251
1040
1901.5726279959081
1040
1824.8625721558251
1040
2151.572627995909
1071
        0
1070
     0
1070
     1
1040
0.0
1040
0.5
1070
     0
1070
    13
1040
0.8726646259971645
1040
-2497.5290280961221
1040
0.0
1040
91.092334498002003
1040
-7.9695427694515431
1070
     2
1040
9.5250000000000004
1040
-104.77500000000001
1040
6.195918844579869
1040
-2497.5290280961221
1040
0.0
1040
-17.621412987833491
1040
95.528321441089986
1070
     2
1040
7.6200000000000001
1040
-83.819999999999993
1040
1.753200686920823
1040
-2489.9380280961218
1040
-0.664125
1040
73.471250832979621
1040
87.558343910145936
1070
     2
1040
8.0950000000000006
1040
-89.045000000000002
1040
0.8060663523995651
1040
-2497.5290280961221
1040
25.399999999999999
1040
135.5395204460649
1040
-21.021163966363581
1070
     2
1040
14.2875
1040
-157.16249999999999
1040
1.6866093946402321
1040
-2486.2340780961222
1040
23.648250000000001
1040
118.7021172331185
1040
123.7127779450246
1070
     2
1040
12.1425
1040
-133.56749999999991
1040
6.1293170803237658
1040
-2497.5290280961221
1040
25.399999999999999
1040
118.70230290696691
1040
123.7125589302988
1070
     2
1040
11.43
1040
-125.73
1040
0.3665191429188092
1040
-2484.8290280961219
1040
19.050000000000001
1040
75.807439917691639
1040
-51.132759258381249
1070
     2
1040
9.5250000000000004
1040
-104.77500000000001
1040
5.6897733615015138
1040
-2484.8290280961219
1040
19.050000000000001
1040
30.90101417382354
1040
92.093983061159619
1070
     2
1040
7.6200000000000001
1040
-83.819999999999993
1040
1.2470621851594761
1040
-2478.5117780961218
1040
14.78895
1040
106.7082453850622
1040
40.961428858028718
1070
     2
1040
8.0950000000000006
1040
-89.045000000000002
1040
0.6544984694978737
1040
-2497.5290280961221
1040
0.0
1040
1.5443016252959081
1040
42.277519436576547
1070
     6
1040
0.0
1040
-82.804000000000002
1040
0.0
1040
-85.090000000000003
1040
0.0
1040
-84.137500000000003
1040
0.1308996938995747
1040
-2497.5290280961221
1040
0.0
1040
33.409831255152874
1040
50.090287409059748
1070
     6
1040
0.0
1040
-48.513999999999989
1040
0.0
1040
-80.899000000000001
1040
0.0
1040
-32.067500000000003
1040
5.715953300281428
1040
-2525.8500280961221
1040
0.0
1040
67.795297583435698
1040
-2.864371996336728
1070
     6
1040
0.0
1040
-31.75
1040
0.0
1040
-99.060000000000002
1040
0.0
1040
-131.44499999999999
1040
5.5414203750819961
1040
-2538.5500280961219
1040
0.0
1040
74.064590693009023
1040
12.713245516666509
1070
     6
1040
0.0
1040
-41.274999999999999
1040
0.0
1040
-65.786000000000001
1040
0.0
1040
-93.344999999999999
1071
        1
1040
-2497.5290280961221
1040
0.0
1040
0.0
1002
}
  0
TEXT
  5
1253
  8
MOJI
 10
1472.8579877583641
 20
729.79765837784885
 30
0.0
 40
60.0
  1
※基礎寸法は参考値です。
 41
0.8
  7
EXT08
 72
     1
 11
1801.8865591869351
 21
729.79765837784885
 31
0.0
  0
TEXT
  5
150A
  8
MOJI
 10
4085.4336669548052
 20
199.65727514146391
 30
0.0
 40
60.0
  1
※本製品は車両用防護柵の強度を保有するものではありません。
 41
0.8
  7
EXT08
 72
     1
 11
4904.062238383377
 21
199.65727514146391
 31
0.0
  0
LINE
  5
1575
  8
SJC
 10
1846.712572155827
 20
2675.8726279959092
 30
0.0
 11
1846.712572155827
 21
2627.2726279959088
 31
0.0
  0
LINE
  5
1576
  8
SJC
 10
1846.712572155827
 20
2425.8726279959092
 30
0.0
 11
1846.712572155827
 21
2377.2726279959088
 31
0.0
  0
LINE
  5
1577
  8
SJC
 10
3226.7125721558268
 20
2675.8726279959092
 30
0.0
 11
3226.7125721558268
 21
2627.2726279959079
 31
0.0
  0
LINE
  5
1578
  8
SJC
 10
3226.7125721558268
 20
2425.8726279959092
 30
0.0
 11
3226.7125721558268
 21
2377.2726279959079
 31
0.0
  0
INSERT
  5
1579
  8
KASOU
  6
CONTINUOUS
  2
*X23
 10
0.0
 20
0.0
 30
0.0
1001
ACAD
1000
HATCH
1002
{
1070
    19
1000
ANSI31
1040
100.0
1040
0.0
1000
R14_HATCH_DATA
1000
1579
1011
1.0
1021
0.0
1031
-1.0047202761911377E+289
1021
0.0
1031
0.0
1011
0.0
1021
0.0
1031
-1.0047202761911377E+289
1021
1.0
1031
0.0
1011
0.0
1021
0.0
1031
-1.0047202761911377E+289
1021
0.0
1031
1.0
1040
0.0
1010
0.0
1020
0.0
1030
1.0
1000
ANSI31
1070
     0
1070
     0
1071
        1
1071
        1
1071
        4
1070
     1
1040
3226.7125721558268
1040
2425.8726279959078
1040
3226.7125721558268
1040
2377.2726279959079
1070
     1
1040
3226.7125721558268
1040
2377.2726279959079
1040
1846.712572155827
1040
2377.2726279959088
1070
     1
1040
1846.712572155827
1040
2377.2726279959088
1040
1846.7125721558259
1040
2425.8726279959078
1070
     1
1040
1846.7125721558259
1040
2425.8726279959078
1040
3226.7125721558268
1040
2425.8726279959078
1071
        0
1070
     0
1070
     1
1040
0.0
1040
100.0
1070
     0
1070
     1
1040
0.7853981633974483
1040
116.3712356098272
1040
848.8264786492191
1040
-8.8388347648318426
1040
8.8388347648318444
1070
     0
1071
        1
1040
116.3712356098272
1040
848.8264786492191
1040
0.0
1002
}
  0
INSERT
  5
157A
  8
KASOU
  6
CONTINUOUS
  2
*X24
 10
0.0
 20
0.0
 30
0.0
1001
ACAD
1000
HATCH
1002
{
1070
    19
1000
ANSI31
1040
100.0
1040
0.0
1000
R14_HATCH_DATA
1000
157A
1011
1.0
1021
0.0
1031
-1.0047202761911377E+289
1021
0.0
1031
0.0
1011
0.0
1021
0.0
1031
-1.0047202761911377E+289
1021
1.0
1031
0.0
1011
0.0
1021
0.0
1031
-1.0047202761911377E+289
1021
0.0
1031
1.0
1040
0.0
1010
0.0
1020
0.0
1030
1.0
1000
ANSI31
1070
     0
1070
     0
1071
        1
1071
        1
1071
        4
1070
     1
1040
3226.7125721558268
1040
2675.8726279959078
1040
3226.7125721558268
1040
2627.272627995907
1070
     1
1040
3226.7125721558268
1040
2627.2726279959079
1040
1846.712572155827
1040
2627.2726279959088
1070
     1
1040
1846.712572155827
1040
2627.2726279959088
1040
1846.7125721558259
1040
2675.8726279959078
1070
     1
1040
1846.7125721558259
1040
2675.8726279959078
1040
3226.7125721558268
1040
2675.8726279959078
1071
        0
1070
     0
1070
     1
1040
0.0
1040
100.0
1070
     0
1070
     1
1040
0.7853981633974483
1040
116.3712356098272
1040
1098.8264786492191
1040
-8.8388347648318426
1040
8.8388347648318444
1070
     0
1071
        1
1040
116.3712356098272
1040
1098.8264786492191
1040
0.0
1002
}
  0
INSERT
  5
157B
  8
0
  2
*U25
 10
0.0
 20
0.0
 30
0.0
1001
ACAD
1000
DSTYLE
1002
{
1070
     5
1000

1070
    40
1040
15.0
1070
    41
1040
2.0
1070
    42
1040
1.0
1070
    43
1040
6.0
1070
    44
1040
1.0
1070
    73
1070
     0
1070
    74
1070
     0
1070
    77
1070
     1
1070
    78
1070
     8
1070
   140
1040
3.0
1070
   147
1040
1.1999999999999991
1070
   172
1070
     1
1070
   179
1070
     2
1070
   271
1070
     2
1070
   279
1070
     2
1070
   340
1005
11D
1070
   342
1005
0
1002
}
  0
INSERT
  5
157C
  8
0
  2
*U26
 10
0.0
 20
0.0
 30
0.0
  0
LINE
  5
157D
  8
MOJI
  6
CONTINUOUS
 10
2793.2456461263928
 20
2206.273378074563
 30
0.0
 11
3210.5207584356481
 21
2206.273378074563
 31
0.0
  0
INSERT
  5
157E
  8
0
  2
*U27
 10
0.0
 20
0.0
 30
0.0
1001
ACAD
1000
DSTYLE
1002
{
1070
     5
1000

1070
    40
1040
15.0
1070
    41
1040
2.0
1070
    42
1040
1.0
1070
    43
1040
6.0
1070
    44
1040
1.0
1070
    73
1070
     0
1070
    74
1070
     0
1070
    77
1070
     1
1070
    78
1070
     8
1070
   140
1040
3.0
1070
   147
1040
1.1999999999999991
1070
   172
1070
     1
1070
   179
1070
     2
1070
   271
1070
     2
1070
   279
1070
     2
1070
   340
1005
11D
1070
   342
1005
0
1002
}
  0
INSERT
  5
157F
  8
0
  2
*U28
 10
0.0
 20
0.0
 30
0.0
  0
LINE
  5
1580
  8
MOJI
  6
CONTINUOUS
 10
2830.3415915507921
 20
2744.3321291154448
 30
0.0
 11
3124.586624326068
 21
2744.3321291154448
 31
0.0
  0
LINE
  5
15FD
  8
CENTER
 10
5347.8313612552502
 20
2659.8787900864718
 30
0.0
 11
5347.8313612552502
 21
1359.878790086472
 31
0.0
  0
LINE
  5
15FE
  8
SJC
 10
5277.9313612552514
 20
2609.8787900864718
 30
0.0
 11
5277.9313612552496
 21
1409.878790086472
 31
0.0
  0
LINE
  5
15FF
  8
SJC
 10
5417.7313612552489
 20
2609.8787900864718
 30
0.0
 11
5417.7313612552489
 21
1409.878790086472
 31
0.0
  0
LINE
  5
1600
  8
SJC
 10
5277.9313612552496
 20
1409.878790086472
 30
0.0
 11
5417.7313612552489
 21
1409.878790086472
 31
0.0
1001
ACAD
1000
ASC_BOUNDS
1002
{
1070
    19
1002
}
  0
LINE
  5
1601
  8
HASEN
 10
5282.4313612552514
 20
2609.8787900864718
 30
0.0
 11
5282.4313612552514
 21
1409.878790086472
 31
0.0
  0
LINE
  5
1602
  8
HASEN
 10
5413.2313612552498
 20
2609.8787900864718
 30
0.0
 11
5413.2313612552498
 21
1409.878790086472
 31
0.0
  0
LINE
  5
1603
  8
SJC
 10
5277.9313612552514
 20
2609.8787900864718
 30
0.0
 11
5417.7313612552507
 21
2609.8787900864718
 31
0.0
1001
ACAD
1000
ASC_BOUNDS
1002
{
1070
    19
1002
}
  0
CIRCLE
  5
1604
  8
SJC
 10
5347.8313612552502
 20
2900.6127561314152
 30
0.0
 40
69.900000000000006
  0
CIRCLE
  5
1605
  8
SJC
 10
5347.8313612552502
 20
2900.6127561314152
 30
0.0
 40
65.400000000000006
  0
LINE
  5
1606
  8
CENTER
 10
5347.8313612552502
 20
2780.7127561314151
 30
0.0
 11
5347.8313612552502
 21
3020.5127561314148
 31
0.0
  0
LINE
  5
1607
  8
CENTER
 10
5227.9313612552514
 20
2900.6127561314152
 30
0.0
 11
5467.7313612552498
 21
2900.6127561314152
 31
0.0
  0
DIMENSION
  5
1608
  8
SUNPOU
  2
*D14
 10
5108.6357586247486
 20
1409.878790086472
 30
0.0
 11
5068.1357586247477
 21
2009.8787900864741
 31
0.0
 70
     0
 13
5277.9313612552514
 23
2609.8787900864718
 33
0.0
 14
5277.9313612552496
 24
1409.878790086472
 34
0.0
 50
90.0
1001
ACAD
1000
DSTYLE
1002
{
1070
   287
1070
     5
1070
    40
1040
15.0
1070
    41
1040
2.0
1070
    42
1040
1.0
1070
    43
1040
6.0
1070
    44
1040
1.0
1070
    73
1070
     0
1070
    74
1070
     0
1070
    77
1070
     1
1070
    78
1070
     8
1070
   140
1040
3.0
1070
   147
1040
1.1999999999999991
1070
   172
1070
     1
1070
   179
1070
     2
1070
   271
1070
     2
1070
   279
1070
     2
1070
   340
1005
11D
1002
}
  0
DIMENSION
  5
1609
  8
SUNPOU
  2
*D15
 10
5403.3738122606364
 20
2943.05149004648
 30
0.0
 11
5455.6415849968043
 21
3033.27216810648
 31
0.0
 70
   131
 15
5292.2889102498566
 25
2858.1740222163462
 35
0.0
 40
0.0
1001
ACAD
1000
DSTYLE
1002
{
1070
   287
1070
     5
1070
    40
1040
15.0
1070
    41
1040
2.0
1070
    42
1040
1.0
1070
    43
1040
6.0
1070
    44
1040
1.0
1070
    73
1070
     0
1070
    74
1070
     0
1070
    77
1070
     1
1070
    78
1070
     8
1070
   140
1040
3.0
1070
   147
1040
1.1999999999999991
1070
   172
1070
     1
1070
   179
1070
     2
1070
   271
1070
     2
1070
   279
1070
     2
1070
   288
1070
     1
1070
   340
1005
11D
1002
}
  0
INSERT
  5
160A
  8
0
  2
*U29
 10
0.0
 20
0.0
 30
0.0
1001
ACAD
1000
DSTYLE
1002
{
1070
    40
1040
15.0
1070
    41
1040
2.0
1070
    42
1040
1.0
1070
    43
1040
6.0
1070
    44
1040
1.0
1070
    73
1070
     0
1070
    74
1070
     0
1070
    77
1070
     1
1070
    78
1070
     8
1070
   140
1040
3.0
1070
   147
1040
1.1999999999999991
1070
   172
1070
     1
1070
   179
1070
     2
1070
   271
1070
     2
1070
   279
1070
     2
1070
   340
1005
11D
1002
}
  0
TEXT
  5
160B
  8
MOJI
 10
5514.0946494021173
 20
2240.4330935524022
 30
0.0
 40
45.0
  1
φ139.8×t4.5
 41
0.8
  7
EXT08
  0
LINE
  5
160C
  8
MOJI
 10
5513.3480954818087
 20
2216.8064264116879
 30
0.0
 11
5889.8138157122303
 21
2216.8064264116879
 31
0.0
  0
TEXT
  5
160D
  8
MOJI2
 10
5185.5570590778652
 20
1245.05647770207
 30
0.0
 40
60.0
  1
鋼管杭詳細図
 41
0.8
  7
KANJI08
  0
LINE
  5
160E
  8
MOJI2
 10
5162.5058509568316
 20
1231.147579075234
 30
0.0
 11
5550.5839328769043
 21
1231.147579075234
 31
0.0
  0
DIMENSION
  5
1699
  8
SUNPOU
  2
*D16
 10
1289.952722366379
 20
2951.572627995909
 30
0.0
 11
1249.4527223663781
 21
2551.5726279959099
 31
0.0
 70
     0
 13
1376.1739062937299
 23
2151.572627995909
 33
0.0
 14
1986.7125721558259
 24
2951.572627995909
 34
0.0
 50
90.0
1001
ACAD
1000
DSTYLE
1002
{
1070
   287
1070
     5
1070
    40
1040
15.0
1070
    41
1040
2.0
1070
    42
1040
1.0
1070
    43
1040
6.0
1070
    44
1040
1.0
1070
    73
1070
     0
1070
    74
1070
     0
1070
    77
1070
     1
1070
    78
1070
     8
1070
   140
1040
3.0
1070
   147
1040
1.1999999999999991
1070
   172
1070
     1
1070
   179
1070
     2
1070
   271
1070
     2
1070
   279
1070
     2
1070
   340
1005
11D
1002
}
  0
LINE
  5
1760
  8
MOJI
 10
4528.2035786553051
 20
606.98140002950731
 30
0.0
 11
5691.0795432150417
 21
606.98140002950731
 31
0.0
  0
LINE
  5
1761
  8
MOJI
 10
5691.0795432150417
 20
606.98140002950731
 30
0.0
 11
5691.0795432150417
 21
303.45559279947298
 31
0.0
  0
LINE
  5
1762
  8
MOJI
 10
4818.9652661473556
 20
303.45559279947298
 30
0.0
 11
4818.9652661473556
 21
606.98140002950731
 31
0.0
  0
LINE
  5
1763
  8
MOJI
 10
4528.2035786553042
 20
303.45559279947298
 30
0.0
 11
4528.2035786553051
 21
606.98140002950731
 31
0.0
  0
LINE
  5
1764
  8
MOJI
 10
5148.1779996400865
 20
303.45559279947298
 30
0.0
 11
5148.1779996400865
 21
606.98140002950731
 31
0.0
  0
TEXT
  5
1765
  8
MOJI
 10
4620.9511115145051
 20
547.64697883541544
 30
0.0
 40
45.0
  1
品  名
 41
0.8
  7
EXT08
 72
     1
 11
4679.7511115145053
 21
547.64697883541544
 31
0.0
  0
TEXT
  5
1766
  8
MOJI
 10
4924.089531650653
 20
550.01827420440009
 30
0.0
 40
45.0
  1
材  質
 41
0.8
  7
EXT08
 72
     1
 11
4984.089531650653
 21
550.01827420440009
 31
0.0
  0
TEXT
  5
1767
  8
MOJI
 10
5356.1241430000864
 20
546.03142712751298
 30
0.0
 40
45.0
  1
摘  要
 41
0.8
  7
EXT08
 72
     1
 11
5416.467000142944
 21
546.03142712751298
 31
0.0
  0
TEXT
  5
1768
  8
MOJI
 10
4552.9873673879329
 20
400.46383898699582
 30
0.0
 40
45.0
  1
ビームパイプ
 41
0.8
  7
EXT08
 72
     1
 11
4681.1302245307888
 21
400.46383898699582
 31
0.0
  0
TEXT
  5
1769
  8
MOJI
 10
4617.7873673879321
 20
476.2168553221851
 30
0.0
 40
45.0
  1
主  柱
 41
0.8
  7
EXT08
 72
     1
 11
4677.7873673879312
 21
476.2168553221851
 31
0.0
  0
TEXT
  5
176A
  8
MOJI
 10
4886.6704570057318
 20
476.2168553221851
 30
0.0
 40
45.0
  1
STK400
 41
0.8
  7
EXT08
 72
     1
 11
4986.9561712914456
 21
476.2168553221851
 31
0.0
  0
TEXT
  5
176B
  8
MOJI
 10
5173.2560201200868
 20
476.2168553221851
 30
0.0
 40
45.0
  1
亜鉛めっき＋静電粉体塗装
 41
0.8
  7
EXT08
 72
     1
 11
5427.6560201200864
 21
476.2168553221851
 31
0.0
  0
LINE
  5
176C
  8
MOJI
 10
4528.2035786553051
 20
531.09994822199883
 30
0.0
 11
5691.0795432150417
 21
531.09994822199883
 31
0.0
  0
LINE
  5
176D
  8
MOJI
 10
4528.2035786553051
 20
455.21849641449018
 30
0.0
 11
5691.0795432150417
 21
455.21849641449018
 31
0.0
  0
LINE
  5
176E
  8
MOJI
 10
4528.2035786553051
 20
379.33704460698158
 30
0.0
 11
5691.0795432150417
 21
379.33704460698158
 31
0.0
  0
TEXT
  5
176F
  8
MOJI
 10
5173.2560201200868
 20
400.3354035146765
 30
0.0
 40
45.0
  1
亜鉛めっき＋静電粉体塗装
 41
0.8
  7
EXT08
 72
     1
 11
5427.6560201200864
 21
400.3354035146765
 31
0.0
  0
TEXT
  5
1770
  8
MOJI
 10
4886.6704570057318
 20
400.3354035146765
 30
0.0
 40
45.0
  1
STK400
 41
0.8
  7
EXT08
 72
     1
 11
4986.9561712914456
 21
400.3354035146765
 31
0.0
  0
TEXT
  5
1771
  8
MOJI
 10
4621.1302245307897
 20
324.58238717948723
 30
0.0
 40
45.0
  1
鋼管杭
 41
0.8
  7
EXT08
 72
     1
 11
4681.1302245307888
 21
324.58238717948723
 31
0.0
  0
LINE
  5
1772
  8
MOJI
 10
4528.2035786553051
 20
303.45559279947298
 30
0.0
 11
5691.0795432150417
 21
303.45559279947298
 31
0.0
  0
TEXT
  5
1773
  8
MOJI
 10
5216.4560201200857
 20
324.4539517071679
 30
0.0
 40
45.0
  1
高耐食溶融めっき鋼管
 41
0.8
  7
EXT08
 72
     1
 11
5427.6560201200864
 21
324.4539517071679
 31
0.0
  0
TEXT
  5
1774
  8
MOJI
 10
4846.8990284343035
 20
324.4539517071679
 30
0.0
 40
45.0
  1
STK400相当
 41
0.8
  7
EXT08
 72
     1
 11
4986.9561712914456
 21
324.4539517071679
 31
0.0
  0
ENDSEC
  0
EOF
