  0
SECTION
  2
HEADER
  9
$ACADVER
  1
AC1009
  9
$INSBASE
 10
0.0
 20
0.0
 30
0.0
  9
$EXTMIN
 10
0.0
 20
0.0
 30
0.0
  9
$EXTMAX
 10
6150.0
 20
4305.0
 30
0.0
  9
$LIMMIN
 10
0.0
 20
0.0
  9
$LIMMAX
 10
6300.0
 20
4455.0
  9
$ORTHOMODE
 70
     1
  9
$REGENMODE
 70
     1
  9
$FILLMODE
 70
     1
  9
$QTEXTMODE
 70
     0
  9
$MIRRTEXT
 70
     0
  9
$DRAGMODE
 70
     2
  9
$LTSCALE
 40
150.0
  9
$OSMODE
 70
    37
  9
$ATTMODE
 70
     1
  9
$TEXTSIZE
 40
45.0
  9
$TRACEWID
 40
1.0
  9
$TEXTSTYLE
  7
EXT08
  9
$CLAYER
  8
0
  9
$CELTYPE
  6
BYLAYER
  9
$CECOLOR
 62
   256
  9
$DIMSCALE
 40
15.0
  9
$DIMASZ
 40
2.0
  9
$DIMEXO
 40
1.0
  9
$DIMDLI
 40
6.0
  9
$DIMRND
 40
0.0
  9
$DIMDLE
 40
0.0
  9
$DIMEXE
 40
1.0
  9
$DIMTP
 40
0.0
  9
$DIMTM
 40
0.0
  9
$DIMTXT
 40
3.0
  9
$DIMCEN
 40
0.09
  9
$DIMTSZ
 40
0.0
  9
$DIMTOL
 70
     0
  9
$DIMLIM
 70
     0
  9
$DIMTIH
 70
     0
  9
$DIMTOH
 70
     0
  9
$DIMSE1
 70
     0
  9
$DIMSE2
 70
     0
  9
$DIMTAD
 70
     1
  9
$DIMZIN
 70
     8
  9
$DIMBLK
  1

  9
$DIMASO
 70
     1
  9
$DIMSHO
 70
     1
  9
$DIMPOST
  1

  9
$DIMAPOST
  1

  9
$DIMALT
 70
     0
  9
$DIMALTD
 70
     2
  9
$DIMALTF
 40
25.399999999999999
  9
$DIMLFAC
 40
1.0
  9
$DIMTOFL
 70
     1
  9
$DIMTVP
 40
0.0
  9
$DIMTIX
 70
     0
  9
$DIMSOXD
 70
     0
  9
$DIMSAH
 70
     0
  9
$DIMBLK1
  1

  9
$DIMBLK2
  1

  9
$DIMSTYLE
  2
SJC
  9
$DIMCLRD
 70
     0
  9
$DIMCLRE
 70
     0
  9
$DIMCLRT
 70
     0
  9
$DIMTFAC
 40
1.0
  9
$DIMGAP
 40
1.1999999999999991
  9
$LUNITS
 70
     2
  9
$LUPREC
 70
     2
  9
$SKETCHINC
 40
1.0
  9
$FILLETRAD
 40
200.0
  9
$AUNITS
 70
     0
  9
$AUPREC
 70
     0
  9
$MENU
  1
.
  9
$ELEVATION
 40
0.0
  9
$PELEVATION
 40
0.0
  9
$THICKNESS
 40
0.0
  9
$LIMCHECK
 70
     0
  9
$BLIPMODE
 70
     0
  9
$CHAMFERA
 40
0.0
  9
$CHAMFERB
 40
0.0
  9
$SKPOLY
 70
     0
  9
$TDCREATE
 40
2456287.4708731128
  9
$TDUPDATE
 40
2456554.4491861919
  9
$TDINDWG
 40
0.2829619097
  9
$TDUSRTIMER
 40
0.2829617245
  9
$USRTIMER
 70
     1
  9
$ANGBASE
 50
0.0
  9
$ANGDIR
 70
     0
  9
$PDMODE
 70
    33
  9
$PDSIZE
 40
5.0
  9
$PLINEWID
 40
0.0
  9
$COORDS
 70
     1
  9
$SPLFRAME
 70
     0
  9
$SPLINETYPE
 70
     6
  9
$SPLINESEGS
 70
     8
  9
$ATTDIA
 70
     0
  9
$ATTREQ
 70
     1
  9
$HANDLING
 70
     1
  9
$HANDSEED
  5
18F7
  9
$SURFTAB1
 70
     6
  9
$SURFTAB2
 70
     6
  9
$SURFTYPE
 70
     6
  9
$SURFU
 70
     6
  9
$SURFV
 70
     6
  9
$UCSNAME
  2

  9
$UCSORG
 10
0.0
 20
0.0
 30
0.0
  9
$UCSXDIR
 10
1.0
 20
0.0
 30
0.0
  9
$UCSYDIR
 10
0.0
 20
1.0
 30
0.0
  9
$PUCSNAME
  2

  9
$PUCSORG
 10
0.0
 20
0.0
 30
0.0
  9
$PUCSXDIR
 10
1.0
 20
0.0
 30
0.0
  9
$PUCSYDIR
 10
0.0
 20
1.0
 30
0.0
  9
$USERI1
 70
     3
  9
$USERI2
 70
    15
  9
$USERI3
 70
     0
  9
$USERI4
 70
     0
  9
$USERI5
 70
     0
  9
$USERR1
 40
0.0
  9
$USERR2
 40
0.0
  9
$USERR3
 40
0.0
  9
$USERR4
 40
0.0
  9
$USERR5
 40
0.0
  9
$WORLDVIEW
 70
     1
  9
$SHADEDGE
 70
     3
  9
$SHADEDIF
 70
    70
  9
$TILEMODE
 70
     1
  9
$MAXACTVP
 70
    64
  9
$PLIMCHECK
 70
     0
  9
$PEXTMIN
 10
0.0
 20
0.0
 30
0.0
  9
$PEXTMAX
 10
0.0
 20
0.0
 30
0.0
  9
$PLIMMIN
 10
0.0
 20
0.0
  9
$PLIMMAX
 10
12.0
 20
9.0
  9
$UNITMODE
 70
     0
  9
$VISRETAIN
 70
     1
  9
$PLINEGEN
 70
     0
  9
$PSLTSCALE
 70
     1
  0
ENDSEC
  0
SECTION
  2
TABLES
  0
TABLE
  2
VPORT
 70
     2
  0
VPORT
  2
*ACTIVE
 70
     0
 10
0.0
 20
0.0
 11
1.0
 21
1.0
 12
6819.0073096639626
 22
3253.7901155969589
 13
0.0
 23
0.0
 14
10.0
 24
10.0
 15
10.0
 25
10.0
 16
0.0
 26
0.0
 36
1.0
 17
0.0
 27
0.0
 37
0.0
 40
8153.7856398380181
 41
1.9010526315789471
 42
50.0
 43
0.0
 44
0.0
 50
0.0
 51
0.0
 71
     0
 72
  1000
 73
     1
 74
     3
 75
     0
 76
     0
 77
     0
 78
     0
  0
ENDTAB
  0
TABLE
  2
LTYPE
 70
     4
  0
LTYPE
  2
CONTINUOUS
 70
     0
  3
Solid line
 72
    65
 73
     0
 40
0.0
  0
LTYPE
  2
PHANTOM
 70
     0
  3
Phantom ______  __  __  ______  __  __  ______
 72
    65
 73
     6
 40
2.5
 49
1.25
 49
-0.25
 49
0.25
 49
-0.25
 49
0.25
 49
-0.25
  0
LTYPE
  2
CENTER
 70
     0
  3
Center ____ _ ____ _ ____ _ ____ _ ____ _ ____
 72
    65
 73
     4
 40
2.0
 49
1.25
 49
-0.25
 49
0.25
 49
-0.25
  0
LTYPE
  2
HIDDEN
 70
     0
  3
Hidden __ __ __ __ __ __ __ __ __ __ __ __ __ _
 72
    65
 73
     2
 40
0.375
 49
0.25
 49
-0.125
  0
ENDTAB
  0
TABLE
  2
LAYER
 70
    15
  0
LAYER
  2
0
 70
     0
 62
     7
  6
CONTINUOUS
  0
LAYER
  2
ZWAKU
 70
     1
 62
    -7
  6
CONTINUOUS
  0
LAYER
  2
SJC
 70
     0
 62
     1
  6
CONTINUOUS
  0
LAYER
  2
INFORMATION
 70
     1
 62
     7
  6
CONTINUOUS
  0
LAYER
  2
SJC2
 70
     0
 62
     7
  6
CONTINUOUS
  0
LAYER
  2
KASOU
 70
     0
 62
     2
  6
PHANTOM
  0
LAYER
  2
CENTER
 70
     0
 62
     3
  6
CENTER
  0
LAYER
  2
SUNPOU
 70
     0
 62
     4
  6
CONTINUOUS
  0
LAYER
  2
WAKU
 70
     0
 62
     5
  6
CONTINUOUS
  0
LAYER
  2
MOJI
 70
     0
 62
     6
  6
CONTINUOUS
  0
LAYER
  2
MOJI2
 70
     0
 62
     1
  6
CONTINUOUS
  0
LAYER
  2
HASEN
 70
     0
 62
     7
  6
HIDDEN
  0
LAYER
  2
HATCH
 70
     0
 62
     2
  6
CONTINUOUS
  0
LAYER
  2
HOJO
 70
     0
 62
    -8
  6
CONTINUOUS
  0
LAYER
  2
DEFPOINTS
 70
     0
 62
     7
  6
CONTINUOUS
  0
ENDTAB
  0
TABLE
  2
STYLE
 70
     8
  0
STYLE
  2
STANDARD
 70
     0
 40
0.0
 41
1.0
 50
0.0
 71
     0
 42
3.0
  3
txt.shx
  4
extfont2.shx
  0
STYLE
  2
KANJI
 70
     0
 40
0.0
 41
1.0
 50
0.0
 71
     0
 42
0.0
  3
ROMANS.SHX
  4
BIGFONT.SHX
  0
STYLE
  2
SIMPLEX
 70
     0
 40
0.0
 41
1.0
 50
0.0
 71
     0
 42
0.0
  3
SCRIPTS.shx
  4

  0
STYLE
  2
TATEEXT
 70
     4
 40
0.0
 41
1.0
 50
0.0
 71
     0
 42
0.0
  3
ROMANS.shx
  4
EXTFONT.shx
  0
STYLE
  2
TATEBIG
 70
     4
 40
0.0
 41
1.0
 50
0.0
 71
     0
 42
0.0
  3
ROMANS.shx
  4
BIGFONT.shx
  0
STYLE
  2
EXT08
 70
     0
 40
0.0
 41
0.8
 50
0.0
 71
     0
 42
45.0
  3
ROMANS.shx
  4
EXTFONT.shx
  0
STYLE
  2
EXT
 70
     0
 40
0.0
 41
1.0
 50
0.0
 71
     0
 42
0.0
  3
ROMANS.shx
  4
EXTFONT.shx
  0
STYLE
  2
KANJI08
 70
     0
 40
0.0
 41
0.8
 50
0.0
 71
     0
 42
0.0
  3
ROMANS.shx
  4
BIGFONT.shx
  0
ENDTAB
  0
TABLE
  2
VIEW
 70
     0
  0
ENDTAB
  0
TABLE
  2
UCS
 70
     0
  0
ENDTAB
  0
TABLE
  2
APPID
 70
     2
  0
APPID
  2
ACAD
 70
     0
  0
APPID
  2
ACAD_PSEXT
 70
     0
  0
ENDTAB
  0
TABLE
  2
DIMSTYLE
 70
     5
  0
DIMSTYLE
  2
ISO-25
 70
     0
  3

  4

  5

  6

  7

 40
1.0
 41
2.5
 42
0.625
 43
3.75
 44
1.25
 45
0.0
 46
0.0
 47
0.0
 48
0.0
140
2.5
141
2.5
142
0.0
143
0.03937007874016
144
1.0
145
0.0
146
1.0
147
0.625
 71
     0
 72
     0
 73
     0
 74
     0
 75
     0
 76
     0
 77
     1
 78
     8
170
     0
171
     3
172
     1
173
     0
174
     0
175
     0
176
     0
177
     0
178
     0
  0
DIMSTYLE
  2
STANDARD
 70
     0
  3

  4

  5

  6

  7

 40
1.0
 41
0.18
 42
0.0625
 43
0.38
 44
0.18
 45
0.0
 46
0.0
 47
0.0
 48
0.0
140
0.18
141
0.09
142
0.0
143
25.399999999999999
144
1.0
145
0.0
146
1.0
147
0.09
 71
     0
 72
     0
 73
     1
 74
     1
 75
     0
 76
     0
 77
     0
 78
     0
170
     0
171
     2
172
     0
173
     0
174
     0
175
     0
176
     0
177
     0
178
     0
  0
DIMSTYLE
  2
RUISEKI1
 70
     0
  3

  4

  5

  6
DOT
  7

 40
15.0
 41
2.0
 42
1.0
 43
6.0
 44
30.0
 45
0.0
 46
0.0
 47
0.0
 48
0.0
140
0.18
141
0.09
142
0.0
143
25.399999999999999
144
1.0
145
0.0
146
1.0
147
1.5
 71
     0
 72
     0
 73
     1
 74
     1
 75
     0
 76
     0
 77
     1
 78
     0
170
     0
171
     2
172
     0
173
     1
174
     0
175
     0
176
     0
177
     0
178
     0
  0
DIMSTYLE
  2
RUISEKI2
 70
     0
  3

  4

  5

  6
NONE
  7

 40
15.0
 41
2.0
 42
1.0
 43
6.0
 44
30.0
 45
0.0
 46
0.0
 47
0.0
 48
0.0
140
0.18
141
0.09
142
0.0
143
25.399999999999999
144
1.0
145
0.0
146
1.0
147
1.5
 71
     0
 72
     0
 73
     1
 74
     1
 75
     0
 76
     0
 77
     1
 78
     0
170
     0
171
     2
172
     0
173
     1
174
     0
175
     0
176
     0
177
     0
178
     0
  0
DIMSTYLE
  2
SJC
 70
     0
  3

  4

  5

  6

  7

 40
1.0
 41
0.18
 42
0.0625
 43
0.38
 44
0.18
 45
0.0
 46
0.0
 47
0.0
 48
0.0
140
0.18
141
0.09
142
0.0
143
25.399999999999999
144
1.0
145
0.0
146
1.0
147
0.09
 71
     0
 72
     0
 73
     1
 74
     1
 75
     0
 76
     0
 77
     0
 78
     0
170
     0
171
     2
172
     0
173
     0
174
     0
175
     0
176
     0
177
     0
178
     0
  0
ENDTAB
  0
ENDSEC
  0
SECTION
  2
BLOCKS
  0
BLOCK
  8
0
  2
$MODEL_SPACE
 70
     0
 10
0.0
 20
0.0
 30
0.0
  3
$MODEL_SPACE
  1

  0
ENDBLK
  5
21
  8
0
  0
BLOCK
 67
     1
  8
0
  2
$PAPER_SPACE
 70
     0
 10
0.0
 20
0.0
 30
0.0
  3
$PAPER_SPACE
  1

  0
ENDBLK
  5
D5
 67
     1
  8
0
  0
BLOCK
  8
0
  2
SEIKO_LS-1100A3
 70
     0
 10
0.0
 20
0.0
 30
0.0
  3
SEIKO_LS-1100A3
  1

  0
POLYLINE
  5
F8
  8
ZWAKU
 66
     1
 10
0.0
 20
0.0
 30
0.0
 70
     1
  0
VERTEX
  5
1704
  8
ZWAKU
 10
0.0
 20
0.0
 30
0.0
  0
VERTEX
  5
1705
  8
ZWAKU
 10
0.0
 20
287.0
 30
0.0
  0
VERTEX
  5
1706
  8
ZWAKU
 10
410.0
 20
287.0
 30
0.0
  0
VERTEX
  5
1707
  8
ZWAKU
 10
410.0
 20
0.0
 30
0.0
  0
SEQEND
  5
1708
  8
ZWAKU
  0
ENDBLK
  5
FA
  8
0
  0
BLOCK
  8
0
  2
_DOT
 70
     0
 10
0.0
 20
0.0
 30
0.0
  3
_DOT
  1

  0
POLYLINE
  5
10F
  8
0
  6
BYBLOCK
 62
     0
 66
     1
 10
0.0
 20
0.0
 30
0.0
 70
     1
 40
0.5
 41
0.5
  0
VERTEX
  5
1709
  8
0
  6
BYBLOCK
 62
     0
 10
-0.25
 20
0.0
 30
0.0
 42
1.0
  0
VERTEX
  5
170A
  8
0
  6
BYBLOCK
 62
     0
 10
0.25
 20
0.0
 30
0.0
 42
1.0
  0
SEQEND
  5
170B
  8
0
  6
BYBLOCK
 62
     0
  0
LINE
  5
110
  8
0
  6
BYBLOCK
 62
     0
 10
-0.5
 20
0.0
 30
0.0
 11
-1.0
 21
0.0
 31
0.0
  0
ENDBLK
  5
112
  8
0
  0
BLOCK
  8
0
  2
_NONE
 70
     0
 10
0.0
 20
0.0
 30
0.0
  3
_NONE
  1

  0
ENDBLK
  5
116
  8
0
  0
BLOCK
  8
0
  2
B0040021
 70
     0
 10
0.0
 20
0.0
 30
0.0
  3
B0040021
  1

  0
LINE
  5
12E
  8
HATCH
 10
90.534596808877254
 20
-7.5000000000002274
 30
0.0
 11
117.0518952133159
 21
-34.017298404438861
 31
0.0
  0
LINE
  5
12F
  8
HATCH
 10
98.034596808877254
 20
0.0
 30
0.0
 11
132.0518952133159
 21
-34.017298404438861
 31
0.0
  0
LINE
  5
130
  8
HATCH
 10
22.5
 20
-7.5000000000002274
 30
0.0
 11
49.017298404438627
 21
-34.017298404438861
 31
0.0
  0
LINE
  5
131
  8
HATCH
 10
30.0
 20
0.0
 30
0.0
 11
-4.0172984044386331
 21
-34.017298404438861
 31
0.0
  0
LINE
  5
132
  8
HATCH
 10
15.0
 20
-15.000000000000229
 30
0.0
 11
34.017298404438627
 21
-34.017298404438861
 31
0.0
  0
LINE
  5
133
  8
HATCH
 10
0.0
 20
0.0
 30
0.0
 11
-34.017298404438627
 21
-34.017298404438861
 31
0.0
  0
LINE
  5
134
  8
HATCH
 10
15.0
 20
0.0
 30
0.0
 11
-19.01729840443863
 21
-34.017298404438861
 31
0.0
  0
LINE
  5
135
  8
HATCH
 10
83.034596808877254
 20
0.0
 30
0.0
 11
56.517298404438861
 21
-26.51729840443863
 31
0.0
  0
LINE
  5
136
  8
HATCH
 10
98.034596808877254
 20
0.0
 30
0.0
 11
64.017298404438634
 21
-34.017298404438861
 31
0.0
  0
LINE
  5
137
  8
HATCH
 10
68.034596808877254
 20
0.0
 30
0.0
 11
49.017298404438861
 21
-19.01729840443863
 31
0.0
  0
LINE
  5
138
  8
HATCH
 10
30.0
 20
0.0
 30
0.0
 11
64.017298404438634
 21
-34.017298404438861
 31
0.0
  0
LINE
  5
139
  8
HATCH
 10
83.034596808877254
 20
-15.000000000000229
 30
0.0
 11
102.0518952133159
 21
-34.017298404438861
 31
0.0
  0
ENDBLK
  5
13A
  8
0
  0
BLOCK
  8
0
  2
*D5
 70
     1
 10
0.0
 20
0.0
 30
0.0
  3
*D5
  1

  0
LINE
  5
170C
  8
SUNPOU
 10
1536.7125721558259
 20
2728.4226279959089
 30
0.0
 11
1536.7125721558259
 21
3198.0425213434009
 31
0.0
  0
LINE
  5
170D
  8
SUNPOU
 10
3536.7125721558259
 20
2728.4226279959089
 30
0.0
 11
3536.7125721558259
 21
3198.0425213434009
 31
0.0
  0
LINE
  5
170E
  8
SUNPOU
 10
1566.7125721558259
 20
3183.0425213434009
 30
0.0
 11
3506.7125721558259
 21
3183.0425213434009
 31
0.0
  0
SOLID
  5
170F
  8
SUNPOU
 10
1566.7125721558259
 20
3188.0425213434009
 30
0.0
 11
1566.7125721558259
 21
3178.0425213434
 31
0.0
 12
1536.7125721558259
 22
3183.0425213434009
 32
0.0
 13
1536.7125721558259
 23
3183.0425213434009
 33
0.0
  0
SOLID
  5
1710
  8
SUNPOU
 10
3506.7125721558259
 20
3188.0425213434009
 30
0.0
 11
3506.7125721558259
 21
3178.0425213434
 31
0.0
 12
3536.7125721558259
 22
3183.0425213434009
 32
0.0
 13
3536.7125721558259
 23
3183.0425213434009
 33
0.0
  0
TEXT
  8
SUNPOU
  40
45
  5
18EB
  72
0
  71
0
 10
2446.71
 20
3143.89
 30
0.000000
  1
2000
  7
KANJI08
  0
POINT
  5
1712
  8
DEFPOINTS
 62
     0
 10
1536.7125721558259
 20
2713.4226279959089
 30
0.0
  0
POINT
  5
1713
  8
DEFPOINTS
 62
     0
 10
3536.7125721558259
 20
2713.4226279959089
 30
0.0
  0
POINT
  5
1714
  8
DEFPOINTS
 62
     0
 10
3536.7125721558259
 20
3183.0425213434009
 30
0.0
  0
ENDBLK
  5
418
  8
0
  0
BLOCK
  8
0
  2
*D6
 70
     1
 10
0.0
 20
0.0
 30
0.0
  3
*D6
  1

  0
LINE
  5
1715
  8
SUNPOU
 10
1456.312572155826
 20
1901.572627995909
 30
0.0
 11
1024.952722366379
 21
1901.572627995909
 31
0.0
  0
LINE
  5
1716
  8
SUNPOU
 10
1111.1739062937299
 20
2151.572627995909
 30
0.0
 11
1024.952722366379
 21
2151.572627995909
 31
0.0
  0
LINE
  5
1717
  8
SUNPOU
 10
1039.952722366379
 20
1931.572627995909
 30
0.0
 11
1039.952722366379
 21
2121.572627995909
 31
0.0
  0
SOLID
  5
1718
  8
SUNPOU
 10
1034.952722366379
 20
1931.572627995909
 30
0.0
 11
1044.952722366379
 21
1931.572627995909
 31
0.0
 12
1039.952722366379
 22
1901.572627995909
 32
0.0
 13
1039.952722366379
 23
1901.572627995909
 33
0.0
  0
SOLID
  5
1719
  8
SUNPOU
 10
1034.952722366379
 20
2121.572627995909
 30
0.0
 11
1044.952722366379
 21
2121.572627995909
 31
0.0
 12
1039.952722366379
 22
2151.572627995909
 32
0.0
 13
1039.952722366379
 23
2151.572627995909
 33
0.0
  0
TEXT
  8
SUNPOU
  40
45
  5
18EC
  72
0
  71
0
 10
909.453
 20
1946.92
 30
0.000000
  1
250
  7
KANJI08
  0
POINT
  5
171B
  8
DEFPOINTS
 62
     0
 10
1471.312572155826
 20
1901.572627995909
 30
0.0
  0
POINT
  5
171C
  8
DEFPOINTS
 62
     0
 10
1126.1739062937299
 20
2151.572627995909
 30
0.0
  0
POINT
  5
171D
  8
DEFPOINTS
 62
     0
 10
1039.952722366379
 20
2151.572627995909
 30
0.0
  0
ENDBLK
  5
42D
  8
0
  0
BLOCK
  8
0
  2
*D7
 70
     1
 10
0.0
 20
0.0
 30
0.0
  3
*D7
  1

  0
LINE
  5
171E
  8
SUNPOU
 10
3551.7125721558259
 20
2651.5726279959099
 30
0.0
 11
4048.4724219452719
 21
2651.5726279959099
 31
0.0
  0
LINE
  5
171F
  8
SUNPOU
 10
3351.7125721558259
 20
2951.572627995909
 30
0.0
 11
4048.4724219452719
 21
2951.572627995909
 31
0.0
  0
LINE
  5
1720
  8
SUNPOU
 10
4033.4724219452728
 20
2681.5726279959099
 30
0.0
 11
4033.4724219452728
 21
2921.572627995909
 31
0.0
  0
SOLID
  5
1721
  8
SUNPOU
 10
4028.4724219452728
 20
2681.5726279959099
 30
0.0
 11
4038.4724219452728
 21
2681.5726279959099
 31
0.0
 12
4033.4724219452728
 22
2651.5726279959099
 32
0.0
 13
4033.4724219452728
 23
2651.5726279959099
 33
0.0
  0
SOLID
  5
1722
  8
SUNPOU
 10
4028.4724219452728
 20
2921.572627995909
 30
0.0
 11
4038.4724219452728
 21
2921.572627995909
 31
0.0
 12
4033.4724219452728
 22
2951.572627995909
 32
0.0
 13
4033.4724219452728
 23
2951.572627995909
 33
0.0
  0
TEXT
  8
SUNPOU
  40
45
  5
18ED
  72
0
  71
0
 10
3902.97
 20
2721.92
 30
0.000000
  1
300
  7
KANJI08
  0
POINT
  5
1724
  8
DEFPOINTS
 62
     0
 10
3536.7125721558259
 20
2651.5726279959099
 30
0.0
  0
POINT
  5
1725
  8
DEFPOINTS
 62
     0
 10
3336.7125721558259
 20
2951.572627995909
 30
0.0
  0
POINT
  5
1726
  8
DEFPOINTS
 62
     0
 10
4033.4724219452728
 20
2951.572627995909
 30
0.0
  0
ENDBLK
  5
451
  8
0
  0
BLOCK
  8
0
  2
*D8
 70
     1
 10
0.0
 20
0.0
 30
0.0
  3
*D8
  1

  0
LINE
  5
1727
  8
SUNPOU
 10
1456.312572155826
 20
1901.572627995909
 30
0.0
 11
858.86283988258936
 21
1901.572627995909
 31
0.0
  0
LINE
  5
1728
  8
SUNPOU
 10
1681.7125721558259
 20
2951.572627995909
 30
0.0
 11
858.86283988258936
 21
2951.5726279959099
 31
0.0
  0
LINE
  5
1729
  8
SUNPOU
 10
873.86283988258936
 20
1931.5726279959081
 30
0.0
 11
873.86283988258947
 21
2921.5726279959099
 31
0.0
  0
SOLID
  5
172A
  8
SUNPOU
 10
868.86283988258924
 20
1931.5726279959081
 30
0.0
 11
878.86283988258924
 21
1931.5726279959081
 31
0.0
 12
873.86283988258936
 22
1901.572627995909
 32
0.0
 13
873.86283988258936
 23
1901.572627995909
 33
0.0
  0
SOLID
  5
172B
  8
SUNPOU
 10
868.86283988258936
 20
2921.5726279959099
 30
0.0
 11
878.86283988258936
 21
2921.5726279959099
 31
0.0
 12
873.86283988258947
 22
2951.5726279959099
 32
0.0
 13
873.86283988258947
 23
2951.5726279959099
 33
0.0
  0
TEXT
  8
SUNPOU
  40
45
  5
18EE
  72
0
  71
0
 10
743.363
 20
2346.92
 30
0.000000
  1
1050
  7
KANJI08
  0
POINT
  5
172D
  8
DEFPOINTS
 62
     0
 10
1471.312572155826
 20
1901.572627995909
 30
0.0
  0
POINT
  5
172E
  8
DEFPOINTS
 62
     0
 10
1696.7125721558259
 20
2951.572627995909
 30
0.0
  0
POINT
  5
172F
  8
DEFPOINTS
 62
     0
 10
873.86283988258947
 20
2951.5726279959099
 30
0.0
  0
ENDBLK
  5
45D
  8
0
  0
BLOCK
  8
0
  2
*D9
 70
     1
 10
0.0
 20
0.0
 30
0.0
  3
*D9
  1

  0
LINE
  5
1730
  8
SUNPOU
 62
     0
 10
1736.712572155827
 20
2713.4226279959098
 30
0.0
 11
1615.2139849325749
 21
2832.3263424154088
 31
0.0
  0
TEXT
  8
SUNPOU
  40
45
  5
18EF
  62
0
  72
0
  71
0
 10
1633.17
 20
2711.04
 30
0.000000
  1
R200
  7
EXT08
  0
SOLID
  5
1732
  8
SUNPOU
 62
     0
 10
1618.7111530037371
 20
2835.8998302749169
 30
0.0
 11
1611.716816861413
 21
2828.7528545559021
 31
0.0
 12
1593.7730577755301
 22
2853.3093508423799
 32
0.0
 13
1593.7730577755301
 23
2853.3093508423799
 33
0.0
  0
POINT
  5
1733
  8
DEFPOINTS
 62
     0
 10
1593.7730577755301
 20
2853.3093508423799
 30
0.0
  0
POINT
  5
1734
  8
DEFPOINTS
 62
     0
 10
1736.712572155827
 20
2713.4226279959098
 30
0.0
  0
ENDBLK
  5
509
  8
0
  0
BLOCK
  8
0
  2
*D10
 70
     1
 10
0.0
 20
0.0
 30
0.0
  3
*D10
  1

  0
LINE
  5
1735
  8
SUNPOU
 62
     0
 10
3551.7125721558259
 20
2651.5726279959099
 30
0.0
 11
4048.4724219452719
 21
2651.5726279959099
 31
0.0
  0
LINE
  5
1736
  8
SUNPOU
 62
     0
 10
3551.7125721558259
 20
2401.5726279958958
 30
0.0
 11
4048.4724219452719
 21
2401.5726279958958
 31
0.0
  0
LINE
  5
1737
  8
SUNPOU
 62
     0
 10
4033.4724219452728
 20
2621.5726279959099
 30
0.0
 11
4033.4724219452728
 21
2431.5726279958958
 31
0.0
  0
SOLID
  5
1738
  8
SUNPOU
 62
     0
 10
4028.4724219452728
 20
2621.5726279959099
 30
0.0
 11
4038.4724219452728
 21
2621.5726279959099
 31
0.0
 12
4033.4724219452728
 22
2651.5726279959099
 32
0.0
 13
4033.4724219452728
 23
2651.5726279959099
 33
0.0
  0
SOLID
  5
1739
  8
SUNPOU
 62
     0
 10
4028.4724219452728
 20
2431.5726279958958
 30
0.0
 11
4038.4724219452728
 21
2431.5726279958958
 31
0.0
 12
4033.4724219452728
 22
2401.5726279958958
 32
0.0
 13
4033.4724219452728
 23
2401.5726279958958
 33
0.0
  0
TEXT
  8
SUNPOU
  40
45
  5
18F0
  62
0
  72
0
  71
0
 10
3902.97
 20
2446.92
 30
0.000000
  1
250
  7
EXT08
  0
POINT
  5
173B
  8
DEFPOINTS
 62
     0
 10
3536.7125721558259
 20
2651.5726279959099
 30
0.0
  0
POINT
  5
173C
  8
DEFPOINTS
 62
     0
 10
3536.7125721558259
 20
2401.5726279958958
 30
0.0
  0
POINT
  5
173D
  8
DEFPOINTS
 62
     0
 10
4033.4724219452728
 20
2401.5726279958958
 30
0.0
  0
ENDBLK
  5
552
  8
0
  0
BLOCK
  8
0
  2
*D11
 70
     1
 10
0.0
 20
0.0
 30
0.0
  3
*D11
  1

  0
LINE
  5
173E
  8
SUNPOU
 62
     0
 10
3551.7125721558259
 20
2401.5726279958958
 30
0.0
 11
4048.4724219452719
 21
2401.5726279958958
 31
0.0
  0
LINE
  5
173F
  8
SUNPOU
 62
     0
 10
3962.2512380179219
 20
2151.572627995909
 30
0.0
 11
4048.4724219452719
 21
2151.572627995909
 31
0.0
  0
LINE
  5
1740
  8
SUNPOU
 62
     0
 10
4033.4724219452728
 20
2371.5726279958958
 30
0.0
 11
4033.4724219452728
 21
2181.572627995909
 31
0.0
  0
SOLID
  5
1741
  8
SUNPOU
 62
     0
 10
4028.4724219452728
 20
2371.5726279958958
 30
0.0
 11
4038.4724219452728
 21
2371.5726279958958
 31
0.0
 12
4033.4724219452728
 22
2401.5726279958958
 32
0.0
 13
4033.4724219452728
 23
2401.5726279958958
 33
0.0
  0
SOLID
  5
1742
  8
SUNPOU
 62
     0
 10
4028.4724219452728
 20
2181.572627995909
 30
0.0
 11
4038.4724219452728
 21
2181.572627995909
 31
0.0
 12
4033.4724219452728
 22
2151.572627995909
 32
0.0
 13
4033.4724219452728
 23
2151.572627995909
 33
0.0
  0
TEXT
  8
SUNPOU
  40
45
  5
18F1
  62
0
  72
0
  71
0
 10
3902.97
 20
2196.92
 30
0.000000
  1
250
  7
EXT08
  0
POINT
  5
1744
  8
DEFPOINTS
 62
     0
 10
3536.7125721558259
 20
2401.5726279958958
 30
0.0
  0
POINT
  5
1745
  8
DEFPOINTS
 62
     0
 10
3947.2512380179219
 20
2151.572627995909
 30
0.0
  0
POINT
  5
1746
  8
DEFPOINTS
 62
     0
 10
4033.4724219452728
 20
2151.572627995909
 30
0.0
  0
ENDBLK
  5
55F
  8
0
  0
BLOCK
  8
0
  2
*D12
 70
     1
 10
0.0
 20
0.0
 30
0.0
  3
*D12
  1

  0
LINE
  5
1747
  8
SUNPOU
 62
     0
 10
1621.6125721558251
 20
2151.572627995909
 30
0.0
 11
1845.3724670335689
 21
2151.572627995909
 31
0.0
  0
LINE
  5
1748
  8
SUNPOU
 62
     0
 10
1621.612572155826
 20
951.57262799590865
 30
0.0
 11
1845.3724670335689
 21
951.57262799590865
 31
0.0
  0
LINE
  5
1749
  8
SUNPOU
 62
     0
 10
1830.3724670335689
 20
2121.572627995909
 30
0.0
 11
1830.372467033568
 21
981.57262799590865
 31
0.0
  0
SOLID
  5
174A
  8
SUNPOU
 62
     0
 10
1825.3724670335689
 20
2121.572627995909
 30
0.0
 11
1835.3724670335689
 21
2121.572627995909
 31
0.0
 12
1830.3724670335689
 22
2151.572627995909
 32
0.0
 13
1830.3724670335689
 23
2151.572627995909
 33
0.0
  0
SOLID
  5
174B
  8
SUNPOU
 62
     0
 10
1825.372467033568
 20
981.57262799590865
 30
0.0
 11
1835.372467033568
 21
981.57262799590865
 31
0.0
 12
1830.372467033568
 22
951.57262799590865
 32
0.0
 13
1830.372467033568
 23
951.57262799590865
 33
0.0
  0
TEXT
  8
SUNPOU
  40
45
  5
18F2
  62
0
  72
0
  71
0
 10
1699.87
 20
1471.92
 30
0.000000
  1
1200
  7
EXT08
  0
POINT
  5
174D
  8
DEFPOINTS
 62
     0
 10
1606.612572155826
 20
2151.572627995909
 30
0.0
  0
POINT
  5
174E
  8
DEFPOINTS
 62
     0
 10
1606.612572155826
 20
951.57262799590865
 30
0.0
  0
POINT
  5
174F
  8
DEFPOINTS
 62
     0
 10
1830.372467033568
 20
951.57262799590865
 30
0.0
  0
ENDBLK
  5
1021
  8
0
  0
BLOCK
  8
0
  2
*D13
 70
     1
 10
0.0
 20
0.0
 30
0.0
  3
*D13
  1

  0
LINE
  5
176A
  8
SUNPOU
 62
     0
 10
1617.112572155826
 20
1851.572627995909
 30
0.0
 11
1746.6950409648889
 21
1851.572627995909
 31
0.0
  0
LINE
  5
176B
  8
SUNPOU
 62
     0
 10
1621.6125721558251
 20
2151.572627995909
 30
0.0
 11
1746.6950409648889
 21
2151.572627995909
 31
0.0
  0
LINE
  5
176C
  8
SUNPOU
 62
     0
 10
1731.6950409648889
 20
1881.572627995909
 30
0.0
 11
1731.6950409648889
 21
2121.572627995909
 31
0.0
  0
SOLID
  5
176D
  8
SUNPOU
 62
     0
 10
1726.6950409648889
 20
1881.572627995909
 30
0.0
 11
1736.6950409648889
 21
1881.572627995909
 31
0.0
 12
1731.6950409648889
 22
1851.572627995909
 32
0.0
 13
1731.6950409648889
 23
1851.572627995909
 33
0.0
  0
SOLID
  5
176E
  8
SUNPOU
 62
     0
 10
1726.6950409648889
 20
2121.572627995909
 30
0.0
 11
1736.6950409648889
 21
2121.572627995909
 31
0.0
 12
1731.6950409648889
 22
2151.572627995909
 32
0.0
 13
1731.6950409648889
 23
2151.572627995909
 33
0.0
  0
TEXT
  8
SUNPOU
  40
45
  5
18F3
  62
0
  72
0
  71
0
 10
1601.20
 20
1921.92
 30
0.000000
  1
300
  7
EXT08
  0
POINT
  5
1770
  8
DEFPOINTS
 62
     0
 10
1602.112572155826
 20
1851.572627995909
 30
0.0
  0
POINT
  5
1771
  8
DEFPOINTS
 62
     0
 10
1606.612572155826
 20
2151.572627995909
 30
0.0
  0
POINT
  5
1772
  8
DEFPOINTS
 62
     0
 10
1731.6950409648889
 20
2151.572627995909
 30
0.0
  0
ENDBLK
  5
117C
  8
0
  0
BLOCK
  8
0
  2
*D14
 70
     1
 10
0.0
 20
0.0
 30
0.0
  3
*D14
  1

  0
LINE
  5
18C9
  8
SUNPOU
 62
     0
 10
5262.9313612552514
 20
2609.8787900864718
 30
0.0
 11
5093.6357586247486
 21
2609.8787900864731
 31
0.0
  0
LINE
  5
18CA
  8
SUNPOU
 62
     0
 10
5262.9313612552487
 20
1409.878790086472
 30
0.0
 11
5093.6357586247486
 21
1409.878790086472
 31
0.0
  0
LINE
  5
18CB
  8
SUNPOU
 62
     0
 10
5108.6357586247505
 20
2579.8787900864731
 30
0.0
 11
5108.6357586247486
 21
1439.878790086472
 31
0.0
  0
SOLID
  5
18CC
  8
SUNPOU
 62
     0
 10
5103.6357586247505
 20
2579.8787900864731
 30
0.0
 11
5113.6357586247505
 21
2579.8787900864731
 31
0.0
 12
5108.6357586247505
 22
2609.8787900864731
 32
0.0
 13
5108.6357586247505
 23
2609.8787900864731
 33
0.0
  0
SOLID
  5
18CD
  8
SUNPOU
 62
     0
 10
5103.6357586247486
 20
1439.878790086472
 30
0.0
 11
5113.6357586247486
 21
1439.878790086472
 31
0.0
 12
5108.6357586247486
 22
1409.878790086472
 32
0.0
 13
5108.6357586247486
 23
1409.878790086472
 33
0.0
  0
TEXT
  8
SUNPOU
  40
45
  5
18F4
  62
0
  72
0
  71
0
 10
4978.14
 20
1930.23
 30
0.000000
  1
1200
  7
EXT08
  0
POINT
  5
18CF
  8
DEFPOINTS
 62
     0
 10
5277.9313612552514
 20
2609.8787900864718
 30
0.0
  0
POINT
  5
18D0
  8
DEFPOINTS
 62
     0
 10
5277.9313612552496
 20
1409.878790086472
 30
0.0
  0
POINT
  5
18D1
  8
DEFPOINTS
 62
     0
 10
5108.6357586247486
 20
1409.878790086472
 30
0.0
  0
ENDBLK
  5
1580
  8
0
  0
BLOCK
  8
0
  2
*D15
 70
     1
 10
0.0
 20
0.0
 30
0.0
  3
*D15
  1

  0
LINE
  5
18D2
  8
SUNPOU
 62
     0
 10
5427.2117740655258
 20
2961.265538937068
 30
0.0
 11
5451.0497358704142
 21
2979.4795878276541
 31
0.0
  0
LINE
  5
18D3
  8
SUNPOU
 62
     0
 10
5268.4509484449709
 20
2839.9599733257592
 30
0.0
 11
5244.6129866400825
 21
2821.7459244351721
 31
0.0
  0
TEXT
  8
SUNPOU
  40
45
  5
18F5
  62
0
  72
0
  71
0
 10
5365.64
 20
2953.62
 30
0.000000
  1
%%c139.8
  7
EXT08
  0
LINE
  5
18D5
  8
SUNPOU
 62
     0
 10
5403.3738122606374
 20
2943.05149004648
 30
0.0
 11
5292.2889102498593
 21
2858.1740222163462
 31
0.0
  0
SOLID
  5
18D6
  8
SUNPOU
 62
     0
 10
5424.1760992504278
 20
2965.2385325712162
 30
0.0
 11
5430.2474488806238
 21
2957.2925453029202
 31
0.0
 12
5403.3738122606374
 22
2943.05149004648
 32
0.0
 13
5403.3738122606374
 23
2943.05149004648
 33
0.0
  0
SOLID
  5
18D7
  8
SUNPOU
 62
     0
 10
5265.4152736298729
 20
2843.9329669599069
 30
0.0
 11
5271.4866232600689
 21
2835.9869796916109
 31
0.0
 12
5292.2889102498593
 22
2858.1740222163462
 32
0.0
 13
5292.2889102498593
 23
2858.1740222163462
 33
0.0
  0
POINT
  5
18D8
  8
DEFPOINTS
 62
     0
 10
5292.2889102498593
 20
2858.1740222163462
 30
0.0
  0
POINT
  5
18D9
  8
DEFPOINTS
 62
     0
 10
5403.3738122606374
 20
2943.05149004648
 30
0.0
  0
ENDBLK
  5
158B
  8
0
  0
BLOCK
  8
0
  2
*D16
 70
     1
 10
0.0
 20
0.0
 30
0.0
  3
*D16
  1

  0
LINE
  5
18E2
  8
SUNPOU
 62
     0
 10
1721.7125721558259
 20
2951.572627995909
 30
0.0
 11
1024.952722366379
 21
2951.572627995909
 31
0.0
  0
LINE
  5
18E3
  8
SUNPOU
 62
     0
 10
1111.1739062937299
 20
2151.572627995909
 30
0.0
 11
1024.952722366379
 21
2151.572627995909
 31
0.0
  0
LINE
  5
18E4
  8
SUNPOU
 62
     0
 10
1039.952722366379
 20
2921.572627995909
 30
0.0
 11
1039.952722366379
 21
2181.572627995909
 31
0.0
  0
SOLID
  5
18E5
  8
SUNPOU
 62
     0
 10
1034.952722366379
 20
2921.572627995909
 30
0.0
 11
1044.952722366379
 21
2921.572627995909
 31
0.0
 12
1039.952722366379
 22
2951.572627995909
 32
0.0
 13
1039.952722366379
 23
2951.572627995909
 33
0.0
  0
SOLID
  5
18E6
  8
SUNPOU
 62
     0
 10
1034.952722366379
 20
2181.572627995909
 30
0.0
 11
1044.952722366379
 21
2181.572627995909
 31
0.0
 12
1039.952722366379
 22
2151.572627995909
 32
0.0
 13
1039.952722366379
 23
2151.572627995909
 33
0.0
  0
TEXT
  8
SUNPOU
  40
45
  5
18F6
  62
0
  72
0
  71
0
 10
909.453
 20
2471.92
 30
0.000000
  1
800
  7
EXT08
  0
POINT
  5
18E8
  8
DEFPOINTS
 62
     0
 10
1736.7125721558259
 20
2951.572627995909
 30
0.0
  0
POINT
  5
18E9
  8
DEFPOINTS
 62
     0
 10
1126.1739062937299
 20
2151.572627995909
 30
0.0
  0
POINT
  5
18EA
  8
DEFPOINTS
 62
     0
 10
1039.952722366379
 20
2151.572627995909
 30
0.0
  0
ENDBLK
  5
161D
  8
0
  0
BLOCK
  8
0
  2
*U17
 70
     1
 10
0.0
 20
0.0
 30
0.0
  3
*U17
  1

  0
SOLID
  5
1751
  8
MOJI
 10
3585.0256966507482
 20
2180.238128174708
 30
0.0
 11
3574.862572155826
 21
2151.572627995909
 31
0.0
 12
3575.1794195930329
 22
2181.9847901633962
 32
0.0
 13
3575.1794195930329
 23
2181.9847901633962
 33
0.0
  0
POLYLINE
  5
1752
  8
MOJI
 66
     1
 10
0.0
 20
0.0
 30
0.0
  0
VERTEX
  5
1753
  8
MOJI
 10
3580.1025581218901
 20
2181.1114591690521
 30
0.0
  0
VERTEX
  5
1754
  8
MOJI
 10
3601.1973548154642
 20
2300.0269757751521
 30
0.0
  0
VERTEX
  5
1755
  8
MOJI
 10
3946.7973548154641
 20
2300.0269757751521
 30
0.0
  0
SEQEND
  5
1756
  8
MOJI
  0
ENDBLK
  5
1758
  8
0
  0
BLOCK
  8
0
  2
*U18
 70
     1
 10
0.0
 20
0.0
 30
0.0
  3
*U18
  1

  0
TEXT
  5
175A
  8
MOJI
 10
3649.1973548154642
 20
2318.0269757751521
 30
0.0
 40
45.0
  1
モルタル充テン
 41
0.8
  7
EXT08
  0
ENDBLK
  5
175C
  8
0
  0
BLOCK
  8
0
  2
*U19
 70
     1
 10
0.0
 20
0.0
 30
0.0
  3
*U19
  1

  0
SOLID
  5
175E
  8
MOJI
 10
1620.8162428408659
 20
1624.679213577673
 30
0.0
 11
1606.612572155826
 21
1651.5726279959081
 31
0.0
 12
1628.7706653178591
 22
1630.7395075521849
 32
0.0
 13
1628.7706653178591
 23
1630.7395075521849
 33
0.0
  0
POLYLINE
  5
175F
  8
MOJI
 66
     1
 10
0.0
 20
0.0
 30
0.0
  0
VERTEX
  5
1760
  8
MOJI
 10
1624.7934540793619
 20
1627.7093605649291
 30
0.0
  0
VERTEX
  5
1761
  8
MOJI
 10
1861.018434791705
 20
1317.652900579953
 30
0.0
  0
VERTEX
  5
1762
  8
MOJI
 10
2036.90414907742
 20
1317.652900579953
 30
0.0
  0
SEQEND
  5
1763
  8
MOJI
  0
ENDBLK
  5
1765
  8
0
  0
BLOCK
  8
0
  2
*U20
 70
     1
 10
0.0
 20
0.0
 30
0.0
  3
*U20
  1

  0
TEXT
  5
1767
  8
MOJI
 10
1909.018434791705
 20
1335.652900579953
 30
0.0
 40
45.0
  1
鋼管杭
 41
0.8
  7
EXT08
  0
ENDBLK
  5
1769
  8
0
  0
BLOCK
  8
0
  2
*X21
 70
     1
 10
0.0
 20
0.0
 30
0.0
  3
*X21
  1

  0
LINE
  5
1774
  8
0
 62
     0
 10
3509.8168880751409
 20
1863.0999952319571
 30
0.0
 11
3509.8168880751409
 21
1863.0999952319571
 31
0.0
  0
LINE
  5
1775
  8
0
 62
     0
 10
3583.8814787681508
 20
1875.813240748623
 30
0.0
 11
3583.8814787681508
 21
1875.813240748623
 31
0.0
  0
LINE
  5
1776
  8
0
 62
     0
 10
3589.1249164566179
 20
1951.5894541951741
 30
0.0
 11
3589.1249164566179
 21
1951.5894541951741
 31
0.0
  0
LINE
  5
1777
  8
0
 62
     0
 10
3584.255858193399
 20
2036.6320629293809
 30
0.0
 11
3584.255858193399
 21
2036.6320629293809
 31
0.0
  0
LINE
  5
1778
  8
0
 62
     0
 10
3589.4992958818671
 20
2112.408276375932
 30
0.0
 11
3589.4992958818671
 21
2112.408276375932
 31
0.0
  0
LINE
  5
1779
  8
0
 62
     0
 10
3524.199953495799
 20
1857.7295712417069
 30
0.0
 11
3524.199953495799
 21
1857.7295712417069
 31
0.0
  0
LINE
  5
177A
  8
0
 62
     0
 10
3591.9952510792359
 20
1854.8651992453699
 30
0.0
 11
3591.9952510792359
 21
1854.8651992453699
 31
0.0
  0
LINE
  5
177B
  8
0
 62
     0
 10
3481.671216052453
 20
1925.1493610132179
 30
0.0
 11
3481.671216052453
 21
1925.1493610132179
 31
0.0
  0
LINE
  5
177C
  8
0
 62
     0
 10
3576.2441920404472
 20
1905.2257264518701
 30
0.0
 11
3576.2441920404472
 21
1905.2257264518701
 31
0.0
  0
LINE
  5
177D
  8
0
 62
     0
 10
3490.65116358566
 20
2040.406491246192
 30
0.0
 11
3490.65116358566
 21
2040.406491246192
 31
0.0
  0
LINE
  5
177E
  8
0
 62
     0
 10
3599.464080347971
 20
2051.737009818532
 30
0.0
 11
3599.464080347971
 21
2051.737009818532
 31
0.0
  0
LINE
  5
177F
  8
0
 62
     0
 10
3488.6044917530962
 20
2122.3623568376802
 30
0.0
 11
3488.6044917530962
 21
2122.3623568376802
 31
0.0
  0
LINE
  5
1780
  8
0
 62
     0
 10
3583.4353289818569
 20
1895.244465301324
 30
0.0
 11
3583.4353289818569
 21
1895.244465301324
 31
0.0
  0
LINE
  5
1781
  8
0
 62
     0
 10
3551.6421708897528
 20
1891.0588166323071
 30
0.0
 11
3551.6421708897528
 21
1891.0588166323071
 31
0.0
  0
LINE
  5
1782
  8
0
 62
     0
 10
3471.4352730494729
 20
1880.4993782078971
 30
0.0
 11
3471.4352730494729
 21
1880.4993782078971
 31
0.0
  0
LINE
  5
1783
  8
0
 62
     0
 10
3585.0520021449061
 20
1941.1491040413671
 30
0.0
 11
3585.0520021449061
 21
1941.1491040413671
 31
0.0
  0
LINE
  5
1784
  8
0
 62
     0
 10
3490.1559795550902
 20
1974.347605336653
 30
0.0
 11
3490.1559795550902
 21
1974.347605336653
 31
0.0
  0
LINE
  5
1785
  8
0
 62
     0
 10
3491.772652718138
 20
2020.2522440766959
 30
0.0
 11
3491.772652718138
 21
2020.2522440766959
 31
0.0
  0
LINE
  5
1786
  8
0
 62
     0
 10
3590.385473320548
 20
2124.6184675638319
 30
0.0
 11
3590.385473320548
 21
2124.6184675638319
 31
0.0
  0
LINE
  5
1787
  8
0
 62
     0
 10
3478.3854173881641
 20
2109.8733804704061
 30
0.0
 11
3478.3854173881641
 21
2109.8733804704061
 31
0.0
  0
LINE
  5
1788
  8
0
 62
     0
 10
3595.776825832655
 20
1853.4045343778939
 30
0.0
 11
3595.776825832655
 21
1853.4045343778939
 31
0.0
  0
LINE
  5
1789
  8
0
 62
     0
 10
3597.3211274579512
 20
1895.6820538144709
 30
0.0
 11
3597.3211274579512
 21
1895.6820538144709
 31
0.0
  0
LINE
  5
178A
  8
0
 62
     0
 10
3598.8654290832469
 20
1937.959573251047
 30
0.0
 11
3598.8654290832469
 21
1937.959573251047
 31
0.0
  0
LINE
  5
178B
  8
0
 62
     0
 10
3532.1146624144931
 20
1886.7399085178261
 30
0.0
 11
3532.1146624144931
 21
1886.7399085178261
 31
0.0
  0
LINE
  5
178C
  8
0
 62
     0
 10
3600.4097307085422
 20
1980.237092687624
 30
0.0
 11
3600.4097307085422
 21
1980.237092687624
 31
0.0
  0
LINE
  5
178D
  8
0
 62
     0
 10
3601.9540323338392
 20
2022.514612124201
 30
0.0
 11
3601.9540323338392
 21
2022.514612124201
 31
0.0
  0
LINE
  5
178E
  8
0
 62
     0
 10
3472.329734815592
 20
2046.327995706358
 30
0.0
 11
3472.329734815592
 21
2046.327995706358
 31
0.0
  0
LINE
  5
178F
  8
0
 62
     0
 10
3473.8740364408882
 20
2088.6055151429332
 30
0.0
 11
3473.8740364408882
 21
2088.6055151429332
 31
0.0
  0
LINE
  5
1790
  8
0
 62
     0
 10
3475.418338066183
 20
2130.88303457951
 30
0.0
 11
3475.418338066183
 21
2130.88303457951
 31
0.0
  0
LINE
  5
1791
  8
0
 62
     0
 10
3587.6153034716422
 20
2072.754584252576
 30
0.0
 11
3590.1903953308142
 21
2080.4290827323998
 31
0.0
  0
LINE
  5
1792
  8
0
 62
     0
 10
3525.8130988515072
 20
1888.566620736794
 30
0.0
 11
3528.3881907106788
 21
1896.241119216618
 31
0.0
  0
LINE
  5
1793
  8
0
 62
     0
 10
3480.9070580865791
 20
2031.7931553945459
 30
0.0
 11
3483.4821499457512
 21
2039.4676538743711
 31
0.0
  0
LINE
  5
1794
  8
0
 62
     0
 10
3519.4941969473548
 20
1892.8259239274671
 30
0.0
 11
3525.8114632502238
 21
1888.5648740030199
 31
0.0
  0
LINE
  5
1795
  8
0
 62
     0
 10
3474.5880154867459
 20
2036.0525060819921
 30
0.0
 11
3480.9052817896159
 21
2031.7914561575451
 31
0.0
  0
LINE
  5
1796
  8
0
 62
     0
 10
3581.2962252950019
 20
2077.0138900497868
 30
0.0
 11
3587.6134915978719
 21
2072.7528401253389
 31
0.0
  0
LINE
  5
1797
  8
0
 62
     0
 10
3519.4948475932711
 20
1892.8294563623119
 30
0.0
 11
3528.3872011556568
 21
1896.2429110817311
 31
0.0
  0
LINE
  5
1798
  8
0
 62
     0
 10
3581.2964532551482
 20
2077.0178881451302
 30
0.0
 11
3590.188806817534
 21
2080.4313428645501
 31
0.0
  0
LINE
  5
1799
  8
0
 62
     0
 10
3474.588210506517
 20
2036.056431512103
 30
0.0
 11
3483.4805640689028
 21
2039.469886231522
 31
0.0
  0
LINE
  5
179A
  8
0
 62
     0
 10
3573.9457291892231
 20
1877.572148974516
 30
0.0
 11
3572.4773401595489
 21
1885.53285614521
 31
0.0
  0
LINE
  5
179B
  8
0
 62
     0
 10
3482.8538100001579
 20
1885.5422911126941
 30
0.0
 11
3481.385420970485
 21
1893.502998283388
 31
0.0
  0
LINE
  5
179C
  8
0
 62
     0
 10
3566.343306258354
 20
1878.2646165101739
 30
0.0
 11
3573.9343098578138
 21
1877.600489750437
 31
0.0
  0
LINE
  5
179D
  8
0
 62
     0
 10
3475.2512630648439
 20
1886.2341376270199
 30
0.0
 11
3482.8422666643041
 21
1885.5700108672829
 31
0.0
  0
LINE
  5
179E
  8
0
 62
     0
 10
3566.3513087400502
 20
1878.265918819337
 30
0.0
 11
3572.4738607223139
 21
1885.5624921400461
 31
0.0
  0
LINE
  5
179F
  8
0
 62
     0
 10
3475.2589742420482
 20
1886.2354615887889
 30
0.0
 11
3481.381526224312
 21
1893.532034909497
 31
0.0
  0
ENDBLK
  5
17A1
  8
0
  0
BLOCK
  8
0
  2
*X22
 70
     1
 10
0.0
 20
0.0
 30
0.0
  3
*X22
  1

  0
LINE
  5
17A3
  8
0
 62
     0
 10
1509.81688807514
 20
1863.0999952319571
 30
0.0
 11
1509.81688807514
 21
1863.0999952319571
 31
0.0
  0
LINE
  5
17A4
  8
0
 62
     0
 10
1583.8814787681499
 20
1875.8132407486239
 30
0.0
 11
1583.8814787681499
 21
1875.8132407486239
 31
0.0
  0
LINE
  5
17A5
  8
0
 62
     0
 10
1589.1249164566179
 20
1951.5894541951741
 30
0.0
 11
1589.1249164566179
 21
1951.5894541951741
 31
0.0
  0
LINE
  5
17A6
  8
0
 62
     0
 10
1584.2558581933979
 20
2036.6320629293809
 30
0.0
 11
1584.2558581933979
 21
2036.6320629293809
 31
0.0
  0
LINE
  5
17A7
  8
0
 62
     0
 10
1589.4992958818659
 20
2112.408276375932
 30
0.0
 11
1589.4992958818659
 21
2112.408276375932
 31
0.0
  0
LINE
  5
17A8
  8
0
 62
     0
 10
1524.1999534957999
 20
1857.7295712417069
 30
0.0
 11
1524.1999534957999
 21
1857.7295712417069
 31
0.0
  0
LINE
  5
17A9
  8
0
 62
     0
 10
1591.995251079235
 20
1854.8651992453699
 30
0.0
 11
1591.995251079235
 21
1854.8651992453699
 31
0.0
  0
LINE
  5
17AA
  8
0
 62
     0
 10
1481.671216052451
 20
1925.149361013219
 30
0.0
 11
1481.671216052451
 21
1925.149361013219
 31
0.0
  0
LINE
  5
17AB
  8
0
 62
     0
 10
1576.244192040446
 20
1905.2257264518701
 30
0.0
 11
1576.244192040446
 21
1905.2257264518701
 31
0.0
  0
LINE
  5
17AC
  8
0
 62
     0
 10
1490.6511635856591
 20
2040.406491246192
 30
0.0
 11
1490.6511635856591
 21
2040.406491246192
 31
0.0
  0
LINE
  5
17AD
  8
0
 62
     0
 10
1599.464080347971
 20
2051.7370098185311
 30
0.0
 11
1599.464080347971
 21
2051.7370098185311
 31
0.0
  0
LINE
  5
17AE
  8
0
 62
     0
 10
1488.6044917530969
 20
2122.3623568376802
 30
0.0
 11
1488.6044917530969
 21
2122.3623568376802
 31
0.0
  0
LINE
  5
17AF
  8
0
 62
     0
 10
1583.4353289818571
 20
1895.244465301324
 30
0.0
 11
1583.4353289818571
 21
1895.244465301324
 31
0.0
  0
LINE
  5
17B0
  8
0
 62
     0
 10
1551.6421708897531
 20
1891.0588166323071
 30
0.0
 11
1551.6421708897531
 21
1891.0588166323071
 31
0.0
  0
LINE
  5
17B1
  8
0
 62
     0
 10
1471.4352730494729
 20
1880.4993782078971
 30
0.0
 11
1471.4352730494729
 21
1880.4993782078971
 31
0.0
  0
LINE
  5
17B2
  8
0
 62
     0
 10
1585.0520021449049
 20
1941.1491040413671
 30
0.0
 11
1585.0520021449049
 21
1941.1491040413671
 31
0.0
  0
LINE
  5
17B3
  8
0
 62
     0
 10
1490.15597955509
 20
1974.347605336653
 30
0.0
 11
1490.15597955509
 21
1974.347605336653
 31
0.0
  0
LINE
  5
17B4
  8
0
 62
     0
 10
1491.7726527181369
 20
2020.2522440766959
 30
0.0
 11
1491.7726527181369
 21
2020.2522440766959
 31
0.0
  0
LINE
  5
17B5
  8
0
 62
     0
 10
1590.385473320548
 20
2124.6184675638319
 30
0.0
 11
1590.385473320548
 21
2124.6184675638319
 31
0.0
  0
LINE
  5
17B6
  8
0
 62
     0
 10
1478.385417388163
 20
2109.8733804704061
 30
0.0
 11
1478.385417388163
 21
2109.8733804704061
 31
0.0
  0
LINE
  5
17B7
  8
0
 62
     0
 10
1595.7768258326539
 20
1853.4045343778939
 30
0.0
 11
1595.7768258326539
 21
1853.4045343778939
 31
0.0
  0
LINE
  5
17B8
  8
0
 62
     0
 10
1597.3211274579501
 20
1895.68205381447
 30
0.0
 11
1597.3211274579501
 21
1895.68205381447
 31
0.0
  0
LINE
  5
17B9
  8
0
 62
     0
 10
1598.865429083246
 20
1937.959573251047
 30
0.0
 11
1598.865429083246
 21
1937.959573251047
 31
0.0
  0
LINE
  5
17BA
  8
0
 62
     0
 10
1532.1146624144931
 20
1886.7399085178261
 30
0.0
 11
1532.1146624144931
 21
1886.7399085178261
 31
0.0
  0
LINE
  5
17BB
  8
0
 62
     0
 10
1600.4097307085431
 20
1980.237092687624
 30
0.0
 11
1600.4097307085431
 21
1980.237092687624
 31
0.0
  0
LINE
  5
17BC
  8
0
 62
     0
 10
1601.954032333839
 20
2022.514612124201
 30
0.0
 11
1601.954032333839
 21
2022.514612124201
 31
0.0
  0
LINE
  5
17BD
  8
0
 62
     0
 10
1472.329734815592
 20
2046.3279957063569
 30
0.0
 11
1472.329734815592
 21
2046.3279957063569
 31
0.0
  0
LINE
  5
17BE
  8
0
 62
     0
 10
1473.874036440887
 20
2088.6055151429332
 30
0.0
 11
1473.874036440887
 21
2088.6055151429332
 31
0.0
  0
LINE
  5
17BF
  8
0
 62
     0
 10
1475.418338066183
 20
2130.88303457951
 30
0.0
 11
1475.418338066183
 21
2130.88303457951
 31
0.0
  0
LINE
  5
17C0
  8
0
 62
     0
 10
1587.615303471641
 20
2072.754584252576
 30
0.0
 11
1590.1903953308131
 21
2080.4290827323998
 31
0.0
  0
LINE
  5
17C1
  8
0
 62
     0
 10
1525.8130988515061
 20
1888.5666207367931
 30
0.0
 11
1528.3881907106791
 21
1896.2411192166171
 31
0.0
  0
LINE
  5
17C2
  8
0
 62
     0
 10
1480.907058086578
 20
2031.7931553945459
 30
0.0
 11
1483.482149945751
 21
2039.4676538743711
 31
0.0
  0
LINE
  5
17C3
  8
0
 62
     0
 10
1519.494196947355
 20
1892.8259239274671
 30
0.0
 11
1525.8114632502241
 21
1888.5648740030199
 31
0.0
  0
LINE
  5
17C4
  8
0
 62
     0
 10
1474.588015486745
 20
2036.0525060819921
 30
0.0
 11
1480.905281789614
 21
2031.7914561575451
 31
0.0
  0
LINE
  5
17C5
  8
0
 62
     0
 10
1581.2962252950019
 20
2077.0138900497868
 30
0.0
 11
1587.613491597871
 21
2072.7528401253389
 31
0.0
  0
LINE
  5
17C6
  8
0
 62
     0
 10
1519.4948475932699
 20
1892.8294563623119
 30
0.0
 11
1528.3872011556559
 21
1896.2429110817311
 31
0.0
  0
LINE
  5
17C7
  8
0
 62
     0
 10
1581.2964532551471
 20
2077.0178881451302
 30
0.0
 11
1590.1888068175331
 21
2080.4313428645501
 31
0.0
  0
LINE
  5
17C8
  8
0
 62
     0
 10
1474.588210506517
 20
2036.056431512103
 30
0.0
 11
1483.480564068903
 21
2039.469886231522
 31
0.0
  0
LINE
  5
17C9
  8
0
 62
     0
 10
1573.9457291892229
 20
1877.5721489745169
 30
0.0
 11
1572.4773401595489
 21
1885.5328561452111
 31
0.0
  0
LINE
  5
17CA
  8
0
 62
     0
 10
1482.8538100001581
 20
1885.542291112695
 30
0.0
 11
1481.3854209704839
 21
1893.502998283388
 31
0.0
  0
LINE
  5
17CB
  8
0
 62
     0
 10
1566.343306258352
 20
1878.2646165101739
 30
0.0
 11
1573.9343098578111
 21
1877.600489750437
 31
0.0
  0
LINE
  5
17CC
  8
0
 62
     0
 10
1475.251263064843
 20
1886.2341376270199
 30
0.0
 11
1482.8422666643021
 21
1885.5700108672829
 31
0.0
  0
LINE
  5
17CD
  8
0
 62
     0
 10
1566.3513087400499
 20
1878.265918819337
 30
0.0
 11
1572.4738607223139
 21
1885.5624921400461
 31
0.0
  0
LINE
  5
17CE
  8
0
 62
     0
 10
1475.258974242048
 20
1886.2354615887889
 30
0.0
 11
1481.381526224312
 21
1893.532034909497
 31
0.0
  0
ENDBLK
  5
17D0
  8
0
  0
BLOCK
  8
0
  2
*X23
 70
     1
 10
0.0
 20
0.0
 30
0.0
  3
*X23
  1

  0
LINE
  5
17D2
  8
0
 62
     0
 10
3460.1986284556401
 20
2377.2726279959088
 30
0.0
 11
3476.712572155825
 21
2393.7865716960941
 31
0.0
  0
LINE
  5
17D3
  8
0
 62
     0
 10
3442.5209589259748
 20
2377.2726279959079
 30
0.0
 11
3476.712572155825
 21
2411.4642412257581
 31
0.0
  0
LINE
  5
17D4
  8
0
 62
     0
 10
3424.8432893963118
 20
2377.2726279959079
 30
0.0
 11
3473.443289396313
 21
2425.8726279959092
 31
0.0
  0
LINE
  5
17D5
  8
0
 62
     0
 10
3407.1656198666478
 20
2377.2726279959088
 30
0.0
 11
3455.76561986665
 21
2425.8726279959092
 31
0.0
  0
LINE
  5
17D6
  8
0
 62
     0
 10
3389.4879503369848
 20
2377.2726279959079
 30
0.0
 11
3438.0879503369852
 21
2425.8726279959101
 31
0.0
  0
LINE
  5
17D7
  8
0
 62
     0
 10
3371.8102808073209
 20
2377.2726279959088
 30
0.0
 11
3420.410280807323
 21
2425.8726279959092
 31
0.0
  0
LINE
  5
17D8
  8
0
 62
     0
 10
3354.1326112776569
 20
2377.2726279959088
 30
0.0
 11
3402.7326112776591
 21
2425.8726279959092
 31
0.0
  0
LINE
  5
17D9
  8
0
 62
     0
 10
3336.4549417479939
 20
2377.2726279959088
 30
0.0
 11
3385.0549417479951
 21
2425.8726279959092
 31
0.0
  0
LINE
  5
17DA
  8
0
 62
     0
 10
3318.7772722183299
 20
2377.2726279959088
 30
0.0
 11
3367.3772722183321
 21
2425.8726279959101
 31
0.0
  0
LINE
  5
17DB
  8
0
 62
     0
 10
3301.099602688666
 20
2377.2726279959088
 30
0.0
 11
3349.6996026886668
 21
2425.8726279959092
 31
0.0
  0
LINE
  5
17DC
  8
0
 62
     0
 10
3283.4219331590029
 20
2377.2726279959088
 30
0.0
 11
3332.0219331590042
 21
2425.8726279959092
 31
0.0
  0
LINE
  5
17DD
  8
0
 62
     0
 10
3265.744263629339
 20
2377.2726279959088
 30
0.0
 11
3314.3442636293398
 21
2425.8726279959101
 31
0.0
  0
LINE
  5
17DE
  8
0
 62
     0
 10
3248.0665940996751
 20
2377.2726279959088
 30
0.0
 11
3296.6665940996759
 21
2425.8726279959092
 31
0.0
  0
LINE
  5
17DF
  8
0
 62
     0
 10
3230.388924570012
 20
2377.2726279959088
 30
0.0
 11
3278.9889245700128
 21
2425.8726279959092
 31
0.0
  0
LINE
  5
17E0
  8
0
 62
     0
 10
3212.7112550403481
 20
2377.2726279959088
 30
0.0
 11
3261.3112550403489
 21
2425.8726279959092
 31
0.0
  0
LINE
  5
17E1
  8
0
 62
     0
 10
3195.0335855106841
 20
2377.2726279959088
 30
0.0
 11
3243.633585510685
 21
2425.8726279959101
 31
0.0
  0
LINE
  5
17E2
  8
0
 62
     0
 10
3177.3559159810202
 20
2377.2726279959088
 30
0.0
 11
3225.9559159810219
 21
2425.8726279959092
 31
0.0
  0
LINE
  5
17E3
  8
0
 62
     0
 10
3159.6782464513572
 20
2377.2726279959088
 30
0.0
 11
3208.278246451358
 21
2425.8726279959092
 31
0.0
  0
LINE
  5
17E4
  8
0
 62
     0
 10
3142.0005769216941
 20
2377.2726279959088
 30
0.0
 11
3190.600576921694
 21
2425.8726279959101
 31
0.0
  0
LINE
  5
17E5
  8
0
 62
     0
 10
3124.3229073920288
 20
2377.2726279959088
 30
0.0
 11
3172.922907392031
 21
2425.8726279959092
 31
0.0
  0
LINE
  5
17E6
  8
0
 62
     0
 10
3106.6452378623671
 20
2377.2726279959088
 30
0.0
 11
3155.245237862367
 21
2425.8726279959092
 31
0.0
  0
LINE
  5
17E7
  8
0
 62
     0
 10
3088.9675683327032
 20
2377.2726279959088
 30
0.0
 11
3137.5675683327031
 21
2425.8726279959092
 31
0.0
  0
LINE
  5
17E8
  8
0
 62
     0
 10
3071.2898988030388
 20
2377.2726279959088
 30
0.0
 11
3119.8898988030401
 21
2425.8726279959101
 31
0.0
  0
LINE
  5
17E9
  8
0
 62
     0
 10
3053.6122292733762
 20
2377.2726279959088
 30
0.0
 11
3102.2122292733761
 21
2425.8726279959092
 31
0.0
  0
LINE
  5
17EA
  8
0
 62
     0
 10
3035.9345597437109
 20
2377.2726279959088
 30
0.0
 11
3084.5345597437122
 21
2425.8726279959092
 31
0.0
  0
LINE
  5
17EB
  8
0
 62
     0
 10
3018.2568902140479
 20
2377.2726279959088
 30
0.0
 11
3066.8568902140478
 21
2425.8726279959101
 31
0.0
  0
LINE
  5
17EC
  8
0
 62
     0
 10
3000.5792206843848
 20
2377.2726279959088
 30
0.0
 11
3049.1792206843852
 21
2425.8726279959092
 31
0.0
  0
LINE
  5
17ED
  8
0
 62
     0
 10
2982.90155115472
 20
2377.2726279959088
 30
0.0
 11
3031.5015511547208
 21
2425.8726279959092
 31
0.0
  0
LINE
  5
17EE
  8
0
 62
     0
 10
2965.2238816250569
 20
2377.2726279959102
 30
0.0
 11
3013.8238816250569
 21
2425.8726279959092
 31
0.0
  0
LINE
  5
17EF
  8
0
 62
     0
 10
2947.5462120953939
 20
2377.2726279959102
 30
0.0
 11
2996.1462120953938
 21
2425.8726279959101
 31
0.0
  0
LINE
  5
17F0
  8
0
 62
     0
 10
2929.86854256573
 20
2377.2726279959088
 30
0.0
 11
2978.4685425657299
 21
2425.8726279959092
 31
0.0
  0
LINE
  5
17F1
  8
0
 62
     0
 10
2912.1908730360669
 20
2377.2726279959102
 30
0.0
 11
2960.7908730360659
 21
2425.8726279959092
 31
0.0
  0
LINE
  5
17F2
  8
0
 62
     0
 10
2894.5132035064021
 20
2377.2726279959102
 30
0.0
 11
2943.1132035064029
 21
2425.8726279959101
 31
0.0
  0
LINE
  5
17F3
  8
0
 62
     0
 10
2876.835533976739
 20
2377.2726279959102
 30
0.0
 11
2925.435533976738
 21
2425.8726279959092
 31
0.0
  0
LINE
  5
17F4
  8
0
 62
     0
 10
2859.157864447076
 20
2377.2726279959102
 30
0.0
 11
2907.757864447075
 21
2425.8726279959092
 31
0.0
  0
LINE
  5
17F5
  8
0
 62
     0
 10
2841.4801949174121
 20
2377.2726279959102
 30
0.0
 11
2890.0801949174111
 21
2425.8726279959092
 31
0.0
  0
LINE
  5
17F6
  8
0
 62
     0
 10
2823.8025253877481
 20
2377.2726279959102
 30
0.0
 11
2872.402525387748
 21
2425.8726279959101
 31
0.0
  0
LINE
  5
17F7
  8
0
 62
     0
 10
2806.1248558580851
 20
2377.2726279959102
 30
0.0
 11
2854.7248558580841
 21
2425.8726279959092
 31
0.0
  0
LINE
  5
17F8
  8
0
 62
     0
 10
2788.4471863284211
 20
2377.2726279959102
 30
0.0
 11
2837.047186328421
 21
2425.8726279959092
 31
0.0
  0
LINE
  5
17F9
  8
0
 62
     0
 10
2770.7695167987581
 20
2377.2726279959102
 30
0.0
 11
2819.3695167987571
 21
2425.8726279959092
 31
0.0
  0
LINE
  5
17FA
  8
0
 62
     0
 10
2753.0918472690928
 20
2377.2726279959102
 30
0.0
 11
2801.6918472690932
 21
2425.8726279959092
 31
0.0
  0
LINE
  5
17FB
  8
0
 62
     0
 10
2735.4141777394302
 20
2377.2726279959102
 30
0.0
 11
2784.0141777394292
 21
2425.8726279959092
 31
0.0
  0
LINE
  5
17FC
  8
0
 62
     0
 10
2717.7365082097658
 20
2377.2726279959102
 30
0.0
 11
2766.3365082097648
 21
2425.8726279959092
 31
0.0
  0
LINE
  5
17FD
  8
0
 62
     0
 10
2700.0588386801019
 20
2377.2726279959102
 30
0.0
 11
2748.6588386801018
 21
2425.8726279959092
 31
0.0
  0
LINE
  5
17FE
  8
0
 62
     0
 10
2682.3811691504388
 20
2377.2726279959102
 30
0.0
 11
2730.9811691504378
 21
2425.8726279959092
 31
0.0
  0
LINE
  5
17FF
  8
0
 62
     0
 10
2664.7034996207749
 20
2377.2726279959102
 30
0.0
 11
2713.3034996207748
 21
2425.8726279959092
 31
0.0
  0
LINE
  5
1800
  8
0
 62
     0
 10
2647.0258300911109
 20
2377.2726279959102
 30
0.0
 11
2695.6258300911109
 21
2425.8726279959092
 31
0.0
  0
LINE
  5
1801
  8
0
 62
     0
 10
2629.3481605614479
 20
2377.2726279959102
 30
0.0
 11
2677.9481605614469
 21
2425.8726279959092
 31
0.0
  0
LINE
  5
1802
  8
0
 62
     0
 10
2611.670491031784
 20
2377.2726279959102
 30
0.0
 11
2660.2704910317839
 21
2425.8726279959092
 31
0.0
  0
LINE
  5
1803
  8
0
 62
     0
 10
2593.9928215021209
 20
2377.2726279959102
 30
0.0
 11
2642.5928215021199
 21
2425.8726279959092
 31
0.0
  0
LINE
  5
1804
  8
0
 62
     0
 10
2576.315151972457
 20
2377.2726279959102
 30
0.0
 11
2624.915151972456
 21
2425.8726279959092
 31
0.0
  0
LINE
  5
1805
  8
0
 62
     0
 10
2558.637482442793
 20
2377.2726279959102
 30
0.0
 11
2607.237482442792
 21
2425.8726279959092
 31
0.0
  0
LINE
  5
1806
  8
0
 62
     0
 10
2540.95981291313
 20
2377.2726279959102
 30
0.0
 11
2589.559812913129
 21
2425.8726279959092
 31
0.0
  0
LINE
  5
1807
  8
0
 62
     0
 10
2523.2821433834661
 20
2377.2726279959102
 30
0.0
 11
2571.8821433834651
 21
2425.8726279959092
 31
0.0
  0
LINE
  5
1808
  8
0
 62
     0
 10
2505.604473853803
 20
2377.2726279959102
 30
0.0
 11
2554.2044738538011
 21
2425.8726279959092
 31
0.0
  0
LINE
  5
1809
  8
0
 62
     0
 10
2487.9268043241382
 20
2377.2726279959102
 30
0.0
 11
2536.5268043241381
 21
2425.8726279959092
 31
0.0
  0
LINE
  5
180A
  8
0
 62
     0
 10
2470.2491347944751
 20
2377.2726279959102
 30
0.0
 11
2518.8491347944741
 21
2425.8726279959092
 31
0.0
  0
LINE
  5
180B
  8
0
 62
     0
 10
2452.5714652648112
 20
2377.2726279959102
 30
0.0
 11
2501.1714652648111
 21
2425.8726279959092
 31
0.0
  0
LINE
  5
180C
  8
0
 62
     0
 10
2434.8937957351482
 20
2377.2726279959102
 30
0.0
 11
2483.4937957351472
 21
2425.8726279959092
 31
0.0
  0
LINE
  5
180D
  8
0
 62
     0
 10
2417.2161262054842
 20
2377.2726279959102
 30
0.0
 11
2465.8161262054841
 21
2425.8726279959092
 31
0.0
  0
LINE
  5
180E
  8
0
 62
     0
 10
2399.5384566758198
 20
2377.2726279959102
 30
0.0
 11
2448.1384566758188
 21
2425.8726279959092
 31
0.0
  0
LINE
  5
180F
  8
0
 62
     0
 10
2381.8607871461559
 20
2377.2726279959102
 30
0.0
 11
2430.4607871461558
 21
2425.8726279959092
 31
0.0
  0
LINE
  5
1810
  8
0
 62
     0
 10
2364.1831176164928
 20
2377.2726279959102
 30
0.0
 11
2412.7831176164918
 21
2425.8726279959092
 31
0.0
  0
LINE
  5
1811
  8
0
 62
     0
 10
2346.5054480868289
 20
2377.2726279959102
 30
0.0
 11
2395.1054480868288
 21
2425.8726279959101
 31
0.0
  0
LINE
  5
1812
  8
0
 62
     0
 10
2328.8277785571649
 20
2377.2726279959102
 30
0.0
 11
2377.4277785571639
 21
2425.8726279959092
 31
0.0
  0
LINE
  5
1813
  8
0
 62
     0
 10
2311.1501090275019
 20
2377.2726279959102
 30
0.0
 11
2359.7501090275009
 21
2425.8726279959101
 31
0.0
  0
LINE
  5
1814
  8
0
 62
     0
 10
2293.472439497838
 20
2377.2726279959102
 30
0.0
 11
2342.0724394978379
 21
2425.8726279959101
 31
0.0
  0
LINE
  5
1815
  8
0
 62
     0
 10
2275.7947699681749
 20
2377.2726279959102
 30
0.0
 11
2324.3947699681739
 21
2425.8726279959101
 31
0.0
  0
LINE
  5
1816
  8
0
 62
     0
 10
2258.117100438511
 20
2377.2726279959102
 30
0.0
 11
2306.71710043851
 21
2425.8726279959101
 31
0.0
  0
LINE
  5
1817
  8
0
 62
     0
 10
2240.439430908847
 20
2377.2726279959102
 30
0.0
 11
2289.039430908847
 21
2425.8726279959101
 31
0.0
  0
LINE
  5
1818
  8
0
 62
     0
 10
2222.7617613791831
 20
2377.2726279959102
 30
0.0
 11
2271.3617613791821
 21
2425.8726279959101
 31
0.0
  0
LINE
  5
1819
  8
0
 62
     0
 10
2205.0840918495201
 20
2377.2726279959102
 30
0.0
 11
2253.6840918495191
 21
2425.8726279959101
 31
0.0
  0
LINE
  5
181A
  8
0
 62
     0
 10
2187.4064223198561
 20
2377.2726279959102
 30
0.0
 11
2236.0064223198551
 21
2425.8726279959101
 31
0.0
  0
LINE
  5
181B
  8
0
 62
     0
 10
2169.7287527901922
 20
2377.2726279959102
 30
0.0
 11
2218.3287527901921
 21
2425.8726279959101
 31
0.0
  0
LINE
  5
181C
  8
0
 62
     0
 10
2152.0510832605278
 20
2377.2726279959102
 30
0.0
 11
2200.6510832605281
 21
2425.8726279959101
 31
0.0
  0
LINE
  5
181D
  8
0
 62
     0
 10
2134.3734137308652
 20
2377.2726279959102
 30
0.0
 11
2182.9734137308651
 21
2425.8726279959101
 31
0.0
  0
LINE
  5
181E
  8
0
 62
     0
 10
2116.6957442012008
 20
2377.2726279959102
 30
0.0
 11
2165.2957442012012
 21
2425.872627995911
 31
0.0
  0
LINE
  5
181F
  8
0
 62
     0
 10
2099.0180746715369
 20
2377.2726279959102
 30
0.0
 11
2147.6180746715372
 21
2425.8726279959101
 31
0.0
  0
LINE
  5
1820
  8
0
 62
     0
 10
2081.3404051418729
 20
2377.2726279959102
 30
0.0
 11
2129.9404051418751
 21
2425.872627995911
 31
0.0
  0
LINE
  5
1821
  8
0
 62
     0
 10
2063.6627356122099
 20
2377.2726279959102
 30
0.0
 11
2112.2627356122098
 21
2425.872627995911
 31
0.0
  0
LINE
  5
1822
  8
0
 62
     0
 10
2045.9850660825459
 20
2377.2726279959102
 30
0.0
 11
2094.5850660825472
 21
2425.872627995911
 31
0.0
  0
LINE
  5
1823
  8
0
 62
     0
 10
2028.3073965528829
 20
2377.2726279959102
 30
0.0
 11
2076.9073965528828
 21
2425.872627995911
 31
0.0
  0
LINE
  5
1824
  8
0
 62
     0
 10
2010.6297270232189
 20
2377.2726279959102
 30
0.0
 11
2059.2297270232202
 21
2425.872627995911
 31
0.0
  0
LINE
  5
1825
  8
0
 62
     0
 10
1992.952057493555
 20
2377.2726279959102
 30
0.0
 11
2041.5520574935549
 21
2425.872627995911
 31
0.0
  0
LINE
  5
1826
  8
0
 62
     0
 10
1975.274387963892
 20
2377.2726279959102
 30
0.0
 11
2023.8743879638921
 21
2425.872627995911
 31
0.0
  0
LINE
  5
1827
  8
0
 62
     0
 10
1957.5967184342269
 20
2377.2726279959102
 30
0.0
 11
2006.1967184342279
 21
2425.872627995911
 31
0.0
  0
LINE
  5
1828
  8
0
 62
     0
 10
1939.9190489045641
 20
2377.2726279959102
 30
0.0
 11
1988.5190489045649
 21
2425.872627995911
 31
0.0
  0
LINE
  5
1829
  8
0
 62
     0
 10
1922.2413793748999
 20
2377.2726279959102
 30
0.0
 11
1970.841379374901
 21
2425.872627995911
 31
0.0
  0
LINE
  5
182A
  8
0
 62
     0
 10
1904.5637098452371
 20
2377.2726279959102
 30
0.0
 11
1953.163709845237
 21
2425.872627995911
 31
0.0
  0
LINE
  5
182B
  8
0
 62
     0
 10
1886.8860403155729
 20
2377.2726279959102
 30
0.0
 11
1935.486040315574
 21
2425.872627995911
 31
0.0
  0
LINE
  5
182C
  8
0
 62
     0
 10
1869.208370785909
 20
2377.2726279959102
 30
0.0
 11
1917.80837078591
 21
2425.872627995911
 31
0.0
  0
LINE
  5
182D
  8
0
 62
     0
 10
1851.530701256245
 20
2377.2726279959102
 30
0.0
 11
1900.1307012562461
 21
2425.872627995911
 31
0.0
  0
LINE
  5
182E
  8
0
 62
     0
 10
1833.8530317265811
 20
2377.2726279959102
 30
0.0
 11
1882.4530317265819
 21
2425.872627995911
 31
0.0
  0
LINE
  5
182F
  8
0
 62
     0
 10
1816.1753621969181
 20
2377.2726279959102
 30
0.0
 11
1864.7753621969191
 21
2425.8726279959119
 31
0.0
  0
LINE
  5
1830
  8
0
 62
     0
 10
1798.4976926672539
 20
2377.2726279959102
 30
0.0
 11
1847.0976926672549
 21
2425.872627995911
 31
0.0
  0
LINE
  5
1831
  8
0
 62
     0
 10
1780.8200231375911
 20
2377.2726279959102
 30
0.0
 11
1829.4200231375919
 21
2425.872627995911
 31
0.0
  0
LINE
  5
1832
  8
0
 62
     0
 10
1763.1423536079269
 20
2377.2726279959102
 30
0.0
 11
1811.742353607928
 21
2425.872627995911
 31
0.0
  0
LINE
  5
1833
  8
0
 62
     0
 10
1745.464684078263
 20
2377.2726279959102
 30
0.0
 11
1794.064684078264
 21
2425.872627995911
 31
0.0
  0
LINE
  5
1834
  8
0
 62
     0
 10
1727.7870145485999
 20
2377.2726279959102
 30
0.0
 11
1776.387014548601
 21
2425.8726279959119
 31
0.0
  0
LINE
  5
1835
  8
0
 62
     0
 10
1710.109345018936
 20
2377.2726279959102
 30
0.0
 11
1758.709345018937
 21
2425.8726279959119
 31
0.0
  0
LINE
  5
1836
  8
0
 62
     0
 10
1692.431675489272
 20
2377.2726279959102
 30
0.0
 11
1741.031675489274
 21
2425.8726279959119
 31
0.0
  0
LINE
  5
1837
  8
0
 62
     0
 10
1674.754005959609
 20
2377.2726279959102
 30
0.0
 11
1723.35400595961
 21
2425.8726279959119
 31
0.0
  0
LINE
  5
1838
  8
0
 62
     0
 10
1657.0763364299451
 20
2377.2726279959102
 30
0.0
 11
1705.6763364299461
 21
2425.8726279959119
 31
0.0
  0
LINE
  5
1839
  8
0
 62
     0
 10
1639.3986669002809
 20
2377.2726279959102
 30
0.0
 11
1687.9986669002819
 21
2425.8726279959119
 31
0.0
  0
LINE
  5
183A
  8
0
 62
     0
 10
1621.7209973706169
 20
2377.2726279959102
 30
0.0
 11
1670.3209973706189
 21
2425.8726279959119
 31
0.0
  0
LINE
  5
183B
  8
0
 62
     0
 10
1604.0433278409539
 20
2377.2726279959102
 30
0.0
 11
1652.643327840955
 21
2425.8726279959119
 31
0.0
  0
LINE
  5
183C
  8
0
 62
     0
 10
1596.7125721558241
 20
2387.619541840445
 30
0.0
 11
1634.9656583112919
 21
2425.8726279959119
 31
0.0
  0
LINE
  5
183D
  8
0
 62
     0
 10
1596.712572155825
 20
2405.297211370108
 30
0.0
 11
1617.287988781628
 21
2425.8726279959119
 31
0.0
  0
LINE
  5
183E
  8
0
 62
     0
 10
1596.7125721558241
 20
2422.974880899772
 30
0.0
 11
1599.610319251964
 21
2425.8726279959119
 31
0.0
  0
ENDBLK
  5
1840
  8
0
  0
BLOCK
  8
0
  2
*X24
 70
     1
 10
0.0
 20
0.0
 30
0.0
  3
*X24
  1

  0
LINE
  5
1842
  8
0
 62
     0
 10
3460.1986284556401
 20
2627.2726279959088
 30
0.0
 11
3476.712572155825
 21
2643.7865716960941
 31
0.0
  0
LINE
  5
1843
  8
0
 62
     0
 10
3442.5209589259748
 20
2627.2726279959079
 30
0.0
 11
3476.712572155825
 21
2661.4642412257581
 31
0.0
  0
LINE
  5
1844
  8
0
 62
     0
 10
3424.8432893963118
 20
2627.2726279959079
 30
0.0
 11
3473.443289396313
 21
2675.8726279959092
 31
0.0
  0
LINE
  5
1845
  8
0
 62
     0
 10
3407.1656198666478
 20
2627.2726279959088
 30
0.0
 11
3455.7656198666491
 21
2675.8726279959092
 31
0.0
  0
LINE
  5
1846
  8
0
 62
     0
 10
3389.4879503369848
 20
2627.2726279959079
 30
0.0
 11
3438.0879503369852
 21
2675.8726279959101
 31
0.0
  0
LINE
  5
1847
  8
0
 62
     0
 10
3371.8102808073209
 20
2627.2726279959088
 30
0.0
 11
3420.4102808073221
 21
2675.8726279959092
 31
0.0
  0
LINE
  5
1848
  8
0
 62
     0
 10
3354.1326112776569
 20
2627.2726279959088
 30
0.0
 11
3402.7326112776591
 21
2675.8726279959092
 31
0.0
  0
LINE
  5
1849
  8
0
 62
     0
 10
3336.4549417479939
 20
2627.2726279959088
 30
0.0
 11
3385.0549417479951
 21
2675.8726279959092
 31
0.0
  0
LINE
  5
184A
  8
0
 62
     0
 10
3318.7772722183299
 20
2627.2726279959088
 30
0.0
 11
3367.3772722183321
 21
2675.8726279959101
 31
0.0
  0
LINE
  5
184B
  8
0
 62
     0
 10
3301.099602688666
 20
2627.2726279959088
 30
0.0
 11
3349.6996026886668
 21
2675.8726279959092
 31
0.0
  0
LINE
  5
184C
  8
0
 62
     0
 10
3283.4219331590029
 20
2627.2726279959088
 30
0.0
 11
3332.0219331590029
 21
2675.8726279959092
 31
0.0
  0
LINE
  5
184D
  8
0
 62
     0
 10
3265.744263629339
 20
2627.2726279959088
 30
0.0
 11
3314.3442636293398
 21
2675.8726279959101
 31
0.0
  0
LINE
  5
184E
  8
0
 62
     0
 10
3248.0665940996751
 20
2627.2726279959088
 30
0.0
 11
3296.6665940996759
 21
2675.8726279959092
 31
0.0
  0
LINE
  5
184F
  8
0
 62
     0
 10
3230.388924570012
 20
2627.2726279959088
 30
0.0
 11
3278.9889245700128
 21
2675.8726279959092
 31
0.0
  0
LINE
  5
1850
  8
0
 62
     0
 10
3212.7112550403481
 20
2627.2726279959088
 30
0.0
 11
3261.3112550403489
 21
2675.8726279959092
 31
0.0
  0
LINE
  5
1851
  8
0
 62
     0
 10
3195.0335855106841
 20
2627.2726279959088
 30
0.0
 11
3243.633585510685
 21
2675.8726279959101
 31
0.0
  0
LINE
  5
1852
  8
0
 62
     0
 10
3177.3559159810202
 20
2627.2726279959088
 30
0.0
 11
3225.9559159810219
 21
2675.8726279959092
 31
0.0
  0
LINE
  5
1853
  8
0
 62
     0
 10
3159.6782464513572
 20
2627.2726279959088
 30
0.0
 11
3208.278246451358
 21
2675.8726279959092
 31
0.0
  0
LINE
  5
1854
  8
0
 62
     0
 10
3142.0005769216941
 20
2627.2726279959088
 30
0.0
 11
3190.600576921694
 21
2675.8726279959101
 31
0.0
  0
LINE
  5
1855
  8
0
 62
     0
 10
3124.3229073920288
 20
2627.2726279959088
 30
0.0
 11
3172.9229073920301
 21
2675.8726279959092
 31
0.0
  0
LINE
  5
1856
  8
0
 62
     0
 10
3106.6452378623671
 20
2627.2726279959088
 30
0.0
 11
3155.245237862367
 21
2675.8726279959092
 31
0.0
  0
LINE
  5
1857
  8
0
 62
     0
 10
3088.9675683327032
 20
2627.2726279959088
 30
0.0
 11
3137.5675683327031
 21
2675.8726279959092
 31
0.0
  0
LINE
  5
1858
  8
0
 62
     0
 10
3071.2898988030388
 20
2627.2726279959088
 30
0.0
 11
3119.8898988030401
 21
2675.8726279959101
 31
0.0
  0
LINE
  5
1859
  8
0
 62
     0
 10
3053.6122292733762
 20
2627.2726279959088
 30
0.0
 11
3102.2122292733761
 21
2675.8726279959092
 31
0.0
  0
LINE
  5
185A
  8
0
 62
     0
 10
3035.9345597437109
 20
2627.2726279959088
 30
0.0
 11
3084.5345597437122
 21
2675.8726279959092
 31
0.0
  0
LINE
  5
185B
  8
0
 62
     0
 10
3018.2568902140479
 20
2627.2726279959088
 30
0.0
 11
3066.8568902140478
 21
2675.8726279959101
 31
0.0
  0
LINE
  5
185C
  8
0
 62
     0
 10
3000.5792206843848
 20
2627.2726279959088
 30
0.0
 11
3049.1792206843852
 21
2675.8726279959092
 31
0.0
  0
LINE
  5
185D
  8
0
 62
     0
 10
2982.90155115472
 20
2627.2726279959088
 30
0.0
 11
3031.5015511547208
 21
2675.8726279959092
 31
0.0
  0
LINE
  5
185E
  8
0
 62
     0
 10
2965.2238816250569
 20
2627.2726279959102
 30
0.0
 11
3013.8238816250569
 21
2675.8726279959092
 31
0.0
  0
LINE
  5
185F
  8
0
 62
     0
 10
2947.5462120953939
 20
2627.2726279959102
 30
0.0
 11
2996.1462120953938
 21
2675.8726279959101
 31
0.0
  0
LINE
  5
1860
  8
0
 62
     0
 10
2929.86854256573
 20
2627.2726279959088
 30
0.0
 11
2978.4685425657299
 21
2675.8726279959092
 31
0.0
  0
LINE
  5
1861
  8
0
 62
     0
 10
2912.1908730360669
 20
2627.2726279959102
 30
0.0
 11
2960.7908730360659
 21
2675.8726279959092
 31
0.0
  0
LINE
  5
1862
  8
0
 62
     0
 10
2894.5132035064021
 20
2627.2726279959102
 30
0.0
 11
2943.1132035064029
 21
2675.8726279959092
 31
0.0
  0
LINE
  5
1863
  8
0
 62
     0
 10
2876.835533976739
 20
2627.2726279959102
 30
0.0
 11
2925.435533976738
 21
2675.8726279959092
 31
0.0
  0
LINE
  5
1864
  8
0
 62
     0
 10
2859.157864447076
 20
2627.2726279959102
 30
0.0
 11
2907.757864447075
 21
2675.8726279959092
 31
0.0
  0
LINE
  5
1865
  8
0
 62
     0
 10
2841.4801949174121
 20
2627.2726279959102
 30
0.0
 11
2890.0801949174111
 21
2675.8726279959092
 31
0.0
  0
LINE
  5
1866
  8
0
 62
     0
 10
2823.8025253877481
 20
2627.2726279959102
 30
0.0
 11
2872.402525387748
 21
2675.8726279959092
 31
0.0
  0
LINE
  5
1867
  8
0
 62
     0
 10
2806.1248558580851
 20
2627.2726279959102
 30
0.0
 11
2854.7248558580841
 21
2675.8726279959092
 31
0.0
  0
LINE
  5
1868
  8
0
 62
     0
 10
2788.4471863284211
 20
2627.2726279959102
 30
0.0
 11
2837.047186328421
 21
2675.8726279959092
 31
0.0
  0
LINE
  5
1869
  8
0
 62
     0
 10
2770.7695167987581
 20
2627.2726279959102
 30
0.0
 11
2819.3695167987571
 21
2675.8726279959092
 31
0.0
  0
LINE
  5
186A
  8
0
 62
     0
 10
2753.0918472690928
 20
2627.2726279959102
 30
0.0
 11
2801.6918472690932
 21
2675.8726279959092
 31
0.0
  0
LINE
  5
186B
  8
0
 62
     0
 10
2735.4141777394302
 20
2627.2726279959102
 30
0.0
 11
2784.0141777394292
 21
2675.8726279959092
 31
0.0
  0
LINE
  5
186C
  8
0
 62
     0
 10
2717.7365082097658
 20
2627.2726279959102
 30
0.0
 11
2766.3365082097648
 21
2675.8726279959092
 31
0.0
  0
LINE
  5
186D
  8
0
 62
     0
 10
2700.0588386801019
 20
2627.2726279959102
 30
0.0
 11
2748.6588386801018
 21
2675.8726279959092
 31
0.0
  0
LINE
  5
186E
  8
0
 62
     0
 10
2682.3811691504388
 20
2627.2726279959102
 30
0.0
 11
2730.9811691504378
 21
2675.8726279959092
 31
0.0
  0
LINE
  5
186F
  8
0
 62
     0
 10
2664.7034996207749
 20
2627.2726279959102
 30
0.0
 11
2713.3034996207748
 21
2675.8726279959092
 31
0.0
  0
LINE
  5
1870
  8
0
 62
     0
 10
2647.0258300911109
 20
2627.2726279959102
 30
0.0
 11
2695.6258300911109
 21
2675.8726279959092
 31
0.0
  0
LINE
  5
1871
  8
0
 62
     0
 10
2629.3481605614479
 20
2627.2726279959102
 30
0.0
 11
2677.9481605614469
 21
2675.8726279959092
 31
0.0
  0
LINE
  5
1872
  8
0
 62
     0
 10
2611.670491031784
 20
2627.2726279959102
 30
0.0
 11
2660.2704910317839
 21
2675.8726279959092
 31
0.0
  0
LINE
  5
1873
  8
0
 62
     0
 10
2593.9928215021209
 20
2627.2726279959102
 30
0.0
 11
2642.5928215021199
 21
2675.8726279959092
 31
0.0
  0
LINE
  5
1874
  8
0
 62
     0
 10
2576.315151972457
 20
2627.2726279959111
 30
0.0
 11
2624.915151972456
 21
2675.8726279959092
 31
0.0
  0
LINE
  5
1875
  8
0
 62
     0
 10
2558.637482442793
 20
2627.2726279959102
 30
0.0
 11
2607.237482442792
 21
2675.8726279959092
 31
0.0
  0
LINE
  5
1876
  8
0
 62
     0
 10
2540.95981291313
 20
2627.2726279959111
 30
0.0
 11
2589.559812913129
 21
2675.8726279959092
 31
0.0
  0
LINE
  5
1877
  8
0
 62
     0
 10
2523.2821433834661
 20
2627.2726279959102
 30
0.0
 11
2571.8821433834651
 21
2675.8726279959092
 31
0.0
  0
LINE
  5
1878
  8
0
 62
     0
 10
2505.604473853803
 20
2627.2726279959111
 30
0.0
 11
2554.2044738538011
 21
2675.8726279959092
 31
0.0
  0
LINE
  5
1879
  8
0
 62
     0
 10
2487.9268043241382
 20
2627.2726279959111
 30
0.0
 11
2536.5268043241381
 21
2675.8726279959092
 31
0.0
  0
LINE
  5
187A
  8
0
 62
     0
 10
2470.2491347944751
 20
2627.2726279959102
 30
0.0
 11
2518.8491347944741
 21
2675.8726279959092
 31
0.0
  0
LINE
  5
187B
  8
0
 62
     0
 10
2452.5714652648112
 20
2627.2726279959111
 30
0.0
 11
2501.1714652648102
 21
2675.8726279959092
 31
0.0
  0
LINE
  5
187C
  8
0
 62
     0
 10
2434.8937957351482
 20
2627.2726279959102
 30
0.0
 11
2483.4937957351458
 21
2675.8726279959092
 31
0.0
  0
LINE
  5
187D
  8
0
 62
     0
 10
2417.2161262054842
 20
2627.2726279959111
 30
0.0
 11
2465.8161262054841
 21
2675.8726279959092
 31
0.0
  0
LINE
  5
187E
  8
0
 62
     0
 10
2399.5384566758198
 20
2627.2726279959102
 30
0.0
 11
2448.1384566758188
 21
2675.8726279959092
 31
0.0
  0
LINE
  5
187F
  8
0
 62
     0
 10
2381.8607871461559
 20
2627.2726279959102
 30
0.0
 11
2430.4607871461558
 21
2675.8726279959092
 31
0.0
  0
LINE
  5
1880
  8
0
 62
     0
 10
2364.1831176164928
 20
2627.2726279959111
 30
0.0
 11
2412.7831176164918
 21
2675.8726279959092
 31
0.0
  0
LINE
  5
1881
  8
0
 62
     0
 10
2346.5054480868289
 20
2627.2726279959102
 30
0.0
 11
2395.1054480868288
 21
2675.8726279959092
 31
0.0
  0
LINE
  5
1882
  8
0
 62
     0
 10
2328.8277785571649
 20
2627.2726279959111
 30
0.0
 11
2377.4277785571639
 21
2675.8726279959092
 31
0.0
  0
LINE
  5
1883
  8
0
 62
     0
 10
2311.1501090275019
 20
2627.2726279959102
 30
0.0
 11
2359.7501090275009
 21
2675.8726279959092
 31
0.0
  0
LINE
  5
1884
  8
0
 62
     0
 10
2293.472439497838
 20
2627.2726279959111
 30
0.0
 11
2342.0724394978379
 21
2675.8726279959092
 31
0.0
  0
LINE
  5
1885
  8
0
 62
     0
 10
2275.7947699681749
 20
2627.2726279959102
 30
0.0
 11
2324.3947699681739
 21
2675.8726279959101
 31
0.0
  0
LINE
  5
1886
  8
0
 62
     0
 10
2258.117100438511
 20
2627.2726279959102
 30
0.0
 11
2306.71710043851
 21
2675.8726279959101
 31
0.0
  0
LINE
  5
1887
  8
0
 62
     0
 10
2240.439430908847
 20
2627.2726279959111
 30
0.0
 11
2289.039430908847
 21
2675.8726279959101
 31
0.0
  0
LINE
  5
1888
  8
0
 62
     0
 10
2222.7617613791831
 20
2627.2726279959102
 30
0.0
 11
2271.3617613791821
 21
2675.8726279959101
 31
0.0
  0
LINE
  5
1889
  8
0
 62
     0
 10
2205.0840918495201
 20
2627.2726279959111
 30
0.0
 11
2253.6840918495191
 21
2675.8726279959101
 31
0.0
  0
LINE
  5
188A
  8
0
 62
     0
 10
2187.4064223198561
 20
2627.2726279959102
 30
0.0
 11
2236.0064223198551
 21
2675.8726279959101
 31
0.0
  0
LINE
  5
188B
  8
0
 62
     0
 10
2169.7287527901922
 20
2627.2726279959111
 30
0.0
 11
2218.3287527901921
 21
2675.8726279959101
 31
0.0
  0
LINE
  5
188C
  8
0
 62
     0
 10
2152.0510832605278
 20
2627.2726279959102
 30
0.0
 11
2200.6510832605281
 21
2675.8726279959101
 31
0.0
  0
LINE
  5
188D
  8
0
 62
     0
 10
2134.3734137308652
 20
2627.2726279959102
 30
0.0
 11
2182.9734137308651
 21
2675.8726279959101
 31
0.0
  0
LINE
  5
188E
  8
0
 62
     0
 10
2116.6957442012008
 20
2627.2726279959102
 30
0.0
 11
2165.2957442012012
 21
2675.8726279959101
 31
0.0
  0
LINE
  5
188F
  8
0
 62
     0
 10
2099.0180746715369
 20
2627.2726279959102
 30
0.0
 11
2147.6180746715372
 21
2675.8726279959101
 31
0.0
  0
LINE
  5
1890
  8
0
 62
     0
 10
2081.3404051418729
 20
2627.2726279959102
 30
0.0
 11
2129.9404051418742
 21
2675.8726279959101
 31
0.0
  0
LINE
  5
1891
  8
0
 62
     0
 10
2063.6627356122099
 20
2627.2726279959102
 30
0.0
 11
2112.2627356122098
 21
2675.8726279959101
 31
0.0
  0
LINE
  5
1892
  8
0
 62
     0
 10
2045.9850660825459
 20
2627.2726279959111
 30
0.0
 11
2094.5850660825472
 21
2675.872627995911
 31
0.0
  0
LINE
  5
1893
  8
0
 62
     0
 10
2028.3073965528829
 20
2627.2726279959102
 30
0.0
 11
2076.9073965528828
 21
2675.8726279959101
 31
0.0
  0
LINE
  5
1894
  8
0
 62
     0
 10
2010.6297270232189
 20
2627.2726279959102
 30
0.0
 11
2059.2297270232202
 21
2675.872627995911
 31
0.0
  0
LINE
  5
1895
  8
0
 62
     0
 10
1992.952057493555
 20
2627.2726279959102
 30
0.0
 11
2041.5520574935549
 21
2675.872627995911
 31
0.0
  0
LINE
  5
1896
  8
0
 62
     0
 10
1975.2743879638911
 20
2627.2726279959102
 30
0.0
 11
2023.8743879638921
 21
2675.872627995911
 31
0.0
  0
LINE
  5
1897
  8
0
 62
     0
 10
1957.5967184342269
 20
2627.2726279959102
 30
0.0
 11
2006.1967184342279
 21
2675.872627995911
 31
0.0
  0
LINE
  5
1898
  8
0
 62
     0
 10
1939.9190489045641
 20
2627.2726279959102
 30
0.0
 11
1988.519048904564
 21
2675.872627995911
 31
0.0
  0
LINE
  5
1899
  8
0
 62
     0
 10
1922.2413793748999
 20
2627.2726279959102
 30
0.0
 11
1970.841379374901
 21
2675.872627995911
 31
0.0
  0
LINE
  5
189A
  8
0
 62
     0
 10
1904.5637098452371
 20
2627.2726279959102
 30
0.0
 11
1953.163709845237
 21
2675.872627995911
 31
0.0
  0
LINE
  5
189B
  8
0
 62
     0
 10
1886.8860403155729
 20
2627.2726279959102
 30
0.0
 11
1935.486040315574
 21
2675.872627995911
 31
0.0
  0
LINE
  5
189C
  8
0
 62
     0
 10
1869.208370785909
 20
2627.2726279959102
 30
0.0
 11
1917.80837078591
 21
2675.872627995911
 31
0.0
  0
LINE
  5
189D
  8
0
 62
     0
 10
1851.530701256245
 20
2627.2726279959102
 30
0.0
 11
1900.1307012562461
 21
2675.872627995911
 31
0.0
  0
LINE
  5
189E
  8
0
 62
     0
 10
1833.8530317265811
 20
2627.2726279959102
 30
0.0
 11
1882.4530317265819
 21
2675.872627995911
 31
0.0
  0
LINE
  5
189F
  8
0
 62
     0
 10
1816.1753621969181
 20
2627.2726279959102
 30
0.0
 11
1864.7753621969191
 21
2675.872627995911
 31
0.0
  0
LINE
  5
18A0
  8
0
 62
     0
 10
1798.4976926672539
 20
2627.2726279959102
 30
0.0
 11
1847.0976926672549
 21
2675.872627995911
 31
0.0
  0
LINE
  5
18A1
  8
0
 62
     0
 10
1780.8200231375899
 20
2627.2726279959102
 30
0.0
 11
1829.4200231375919
 21
2675.872627995911
 31
0.0
  0
LINE
  5
18A2
  8
0
 62
     0
 10
1763.1423536079269
 20
2627.2726279959102
 30
0.0
 11
1811.742353607928
 21
2675.872627995911
 31
0.0
  0
LINE
  5
18A3
  8
0
 62
     0
 10
1745.464684078263
 20
2627.2726279959102
 30
0.0
 11
1794.064684078264
 21
2675.872627995911
 31
0.0
  0
LINE
  5
18A4
  8
0
 62
     0
 10
1727.7870145485999
 20
2627.2726279959102
 30
0.0
 11
1776.387014548601
 21
2675.872627995911
 31
0.0
  0
LINE
  5
18A5
  8
0
 62
     0
 10
1710.109345018936
 20
2627.2726279959102
 30
0.0
 11
1758.709345018937
 21
2675.872627995911
 31
0.0
  0
LINE
  5
18A6
  8
0
 62
     0
 10
1692.431675489272
 20
2627.2726279959102
 30
0.0
 11
1741.031675489274
 21
2675.872627995911
 31
0.0
  0
LINE
  5
18A7
  8
0
 62
     0
 10
1674.7540059596081
 20
2627.2726279959102
 30
0.0
 11
1723.3540059596089
 21
2675.872627995911
 31
0.0
  0
LINE
  5
18A8
  8
0
 62
     0
 10
1657.0763364299451
 20
2627.2726279959102
 30
0.0
 11
1705.6763364299461
 21
2675.8726279959119
 31
0.0
  0
LINE
  5
18A9
  8
0
 62
     0
 10
1639.3986669002809
 20
2627.2726279959102
 30
0.0
 11
1687.9986669002819
 21
2675.8726279959119
 31
0.0
  0
LINE
  5
18AA
  8
0
 62
     0
 10
1621.7209973706169
 20
2627.2726279959102
 30
0.0
 11
1670.3209973706189
 21
2675.8726279959119
 31
0.0
  0
LINE
  5
18AB
  8
0
 62
     0
 10
1604.0433278409539
 20
2627.2726279959102
 30
0.0
 11
1652.643327840955
 21
2675.8726279959119
 31
0.0
  0
LINE
  5
18AC
  8
0
 62
     0
 10
1596.712572155825
 20
2637.619541840445
 30
0.0
 11
1634.9656583112919
 21
2675.8726279959119
 31
0.0
  0
LINE
  5
18AD
  8
0
 62
     0
 10
1596.712572155825
 20
2655.297211370108
 30
0.0
 11
1617.287988781628
 21
2675.8726279959119
 31
0.0
  0
LINE
  5
18AE
  8
0
 62
     0
 10
1596.7125721558241
 20
2672.974880899772
 30
0.0
 11
1599.610319251964
 21
2675.8726279959119
 31
0.0
  0
ENDBLK
  5
18B0
  8
0
  0
BLOCK
  8
0
  2
*U25
 70
     1
 10
0.0
 20
0.0
 30
0.0
  3
*U25
  1

  0
SOLID
  5
18B2
  8
MOJI
 10
-2982.3734758463938
 20
2347.7542752295608
 30
0.0
 11
-2962.9668612894502
 21
2371.1718607463949
 31
0.0
 12
-2973.7295770540718
 22
2342.726053509301
 32
0.0
 13
-2973.7295770540718
 23
2342.726053509301
 33
0.0
210
0.0
220
0.0
230
-1.0
  0
POLYLINE
  5
18B3
  8
MOJI
 66
     1
 10
0.0
 20
0.0
 30
0.0
210
0.0
220
0.0
230
-1.0
  0
VERTEX
  5
18B4
  8
MOJI
 10
-2978.0515264502342
 20
2345.2401643694311
 30
0.0
  0
VERTEX
  5
18B5
  8
MOJI
 10
-3062.645347168339
 20
2199.816898367329
 30
0.0
  0
SEQEND
  5
18B6
  8
MOJI
  0
ENDBLK
  5
18B8
  8
0
  0
BLOCK
  8
0
  2
*U26
 70
     1
 10
0.0
 20
0.0
 30
0.0
  3
*U26
  1

  0
TEXT
  5
18BA
  8
MOJI
 10
3084.1085794779601
 20
2215.5165471187952
 30
0.0
 40
45.0
  1
セイフティグリーン
 41
0.8
  7
EXT08
  0
ENDBLK
  5
18BC
  8
0
  0
BLOCK
  8
0
  2
*U27
 70
     1
 10
0.0
 20
0.0
 30
0.0
  3
*U27
  1

  0
SOLID
  5
18BE
  8
MOJI
 10
-2891.245318429897
 20
2852.269810180162
 30
0.0
 11
-2871.7357038471591
 21
2875.6016540599981
 31
0.0
 12
-2882.6236601670998
 22
2847.2035483630489
 32
0.0
 13
-2882.6236601670998
 23
2847.2035483630489
 33
0.0
210
0.0
220
0.0
230
-1.0
  0
POLYLINE
  5
18BF
  8
MOJI
 66
     1
 10
0.0
 20
0.0
 30
0.0
210
0.0
220
0.0
230
-1.0
  0
VERTEX
  5
18C0
  8
MOJI
 10
-2886.9344892984991
 20
2849.7366792716061
 30
0.0
  0
VERTEX
  5
18C1
  8
MOJI
 10
-2949.1205133939029
 20
2743.9098057646638
 30
0.0
  0
SEQEND
  5
18C2
  8
MOJI
  0
ENDBLK
  5
18C4
  8
0
  0
BLOCK
  8
0
  2
*U28
 70
     1
 10
0.0
 20
0.0
 30
0.0
  3
*U28
  1

  0
TEXT
  5
18C6
  8
MOJI
 10
2970.5837457035241
 20
2759.60945451613
 30
0.0
 40
45.0
  1
ホワイト１０
 41
0.8
  7
EXT08
  0
ENDBLK
  5
18C8
  8
0
  0
BLOCK
  8
0
  2
*U29
 70
     1
 10
0.0
 20
0.0
 30
0.0
  3
*U29
  1

  0
SOLID
  5
18DB
  8
MOJI
 10
5436.3206768736454
 20
2089.4930624690069
 30
0.0
 11
5415.7488388043384
 21
2067.0921812709339
 31
0.0
 12
5427.9435349678224
 22
2094.9541515078058
 32
0.0
 13
5427.9435349678224
 23
2094.9541515078058
 33
0.0
  0
POLYLINE
  5
18DC
  8
MOJI
 66
     1
 10
0.0
 20
0.0
 30
0.0
  0
VERTEX
  5
18DD
  8
MOJI
 10
5432.1321059207339
 20
2092.2236069884061
 30
0.0
  0
VERTEX
  5
18DE
  8
MOJI
 10
5513.3480954818087
 20
2216.8064264116879
 30
0.0
  0
SEQEND
  5
18DF
  8
MOJI
  0
ENDBLK
  5
18E1
  8
0
  0
ENDSEC
  0
SECTION
  2
ENTITIES
  0
INSERT
  5
FD
  8
ZWAKU
  2
SEIKO_LS-1100A3
 10
0.0
 20
0.0
 30
0.0
 41
15.0
 42
15.0
 43
15.0
  0
TEXT
  5
FF
  8
INFORMATION
 10
1.0
 20
2.0
 30
0.0
 40
0.8
  1
PLOTTER=SEIKO_LS-1100
  0
TEXT
  5
100
  8
INFORMATION
 10
1.0
 20
3.0
 30
0.0
 40
0.8
  1
PAPER=A3
  0
TEXT
  5
2DB
  8
MOJI2
 10
1178.6697887628541
 20
3437.4066244678738
 30
0.0
 40
60.0
  1
設置図
 41
0.8
  7
KANJI08
  0
TEXT
  5
2DC
  8
MOJI
 10
2387.0284306776011
 20
2226.220229472814
 30
0.0
 40
45.0
  1
ビームパイプ %%C48.6×t3.2
 41
0.8
  7
KANJI08
  0
TEXT
  5
2DD
  8
MOJI
 10
2398.9317716861019
 20
2730.8822830162958
 30
0.0
 40
45.0
  1
主柱 %%C76.3×t3.2
 41
0.8
  7
KANJI08
  0
LINE
  5
2DE
  8
MOJI
 10
2357.5350625784922
 20
2710.8822830162958
 30
0.0
 11
2805.2977552532338
 21
2710.8822830162958
 31
0.0
  0
TEXT
  5
2FB
  8
MOJI
 10
1144.7323953518239
 20
2171.897519440678
 30
0.0
 40
45.0
  1
GL
 41
0.8
  7
KANJI08
  0
LINE
  5
307
  8
MOJI2
 10
1158.3298452552949
 20
3423.4977258410381
 30
0.0
 11
1352.5525959271961
 21
3423.4977258410381
 31
0.0
  0
LINE
  5
308
  8
MOJI
 10
2357.5350625784922
 20
2204.9822830162939
 30
0.0
 11
2970.3729793056582
 21
2204.9822830162939
 31
0.0
  0
LINE
  5
30D
  8
SJC
 10
1126.1739062937299
 20
2151.572627995909
 30
0.0
 11
1498.562572155826
 21
2151.572627995909
 31
0.0
1001
ACAD
1000
ASC_BOUNDS
1002
{
1070
    19
1002
}
  0
LINE
  5
30E
  8
MOJI2
 10
1158.3298452552949
 20
3408.4977258410381
 30
0.0
 11
1352.5525959271961
 21
3408.4977258410381
 31
0.0
  0
LINE
  5
30F
  8
CENTER
 10
1536.7125721558259
 20
2713.4226279959089
 30
0.0
 11
1536.7125721558259
 21
901.57262799590887
 31
0.0
  0
LINE
  5
310
  8
CENTER
 10
1736.7125721558259
 20
2913.4226279959089
 30
0.0
 11
3336.7125721558259
 21
2913.4226279959089
 31
0.0
  0
LINE
  5
312
  8
CENTER
 10
3536.7125721558259
 20
2713.4226279959089
 30
0.0
 11
3536.7125721558259
 21
901.57262799590887
 31
0.0
  0
DIMENSION
  5
314
  8
SUNPOU
  2
*D5
 10
3536.7125721558259
 20
3183.0425213434009
 30
0.0
 11
2536.7125721558259
 21
3223.5425213434009
 31
0.0
 70
     0
 13
1536.7125721558259
 23
2713.4226279959089
 33
0.0
 14
3536.7125721558259
 24
2713.4226279959089
 34
0.0
1001
ACAD
1000
DSTYLE
1002
{
1070
   287
1070
     5
1070
    40
1040
15.0
1070
    41
1040
2.0
1070
    42
1040
1.0
1070
    43
1040
6.0
1070
    44
1040
1.0
1070
    73
1070
     0
1070
    74
1070
     0
1070
    77
1070
     1
1070
    78
1070
     8
1070
   140
1040
3.0
1070
   147
1040
1.1999999999999991
1070
   172
1070
     1
1070
   176
1070
   256
1070
   177
1070
   256
1070
   178
1070
   256
1070
   271
1070
     1
1070
   275
1070
     1
1070
   279
1070
     2
1070
   340
1005
11F
1002
}
  0
LINE
  5
318
  8
SJC
 10
1574.862572155826
 20
2151.572627995909
 30
0.0
 11
3498.5625721558258
 21
2151.572627995909
 31
0.0
1001
ACAD
1000
ASC_BOUNDS
1002
{
1070
    19
1002
}
  0
INSERT
  5
31B
  8
SUNPOU
  2
B0040021
 10
2231.8454199457701
 20
2151.572627995909
 30
0.0
  0
LINE
  5
3ED
  8
SJC
 10
3574.862572155826
 20
2151.572627995909
 30
0.0
 11
3947.2512380179219
 21
2151.572627995909
 31
0.0
1001
ACAD
1000
ASC_BOUNDS
1002
{
1070
    19
1005
0
1002
}
  0
DIMENSION
  5
3EF
  8
SUNPOU
  2
*D6
 10
1039.952722366379
 20
2151.572627995909
 30
0.0
 11
999.45272236637845
 21
2026.572627995909
 31
0.0
 70
     0
 13
1471.312572155826
 23
1901.572627995909
 33
0.0
 14
1126.1739062937299
 24
2151.572627995909
 34
0.0
 50
90.0
1001
ACAD
1000
DSTYLE
1002
{
1070
   287
1070
     5
1070
    40
1040
15.0
1070
    41
1040
2.0
1070
    42
1040
1.0
1070
    43
1040
6.0
1070
    44
1040
1.0
1070
    73
1070
     0
1070
    74
1070
     0
1070
    77
1070
     1
1070
    78
1070
     8
1070
   140
1040
3.0
1070
   147
1040
1.1999999999999991
1070
   172
1070
     1
1070
   176
1070
   256
1070
   177
1070
   256
1070
   178
1070
   256
1070
   271
1070
     1
1070
   275
1070
     1
1070
   279
1070
     2
1070
   340
1005
11F
1002
}
  0
LINE
  5
3F2
  8
SJC
 10
1736.7125721558259
 20
2951.572627995909
 30
0.0
 11
3336.7125721558259
 21
2951.572627995909
 31
0.0
  0
LINE
  5
3F3
  8
SJC
 10
1736.7125721558259
 20
2875.2726279959088
 30
0.0
 11
3336.7125721558259
 21
2875.2726279959088
 31
0.0
  0
LINE
  5
3F6
  8
SJC
 10
3498.5625721558258
 20
2713.4226279959089
 30
0.0
 11
3498.5625721558258
 21
2675.8726279959092
 31
0.0
  0
LINE
  5
3F7
  8
SJC
 10
3574.862572155826
 20
2713.4226279959089
 30
0.0
 11
3574.862572155826
 21
1901.572627995909
 31
0.0
  0
LINE
  5
3F8
  8
SJC
 10
1574.862572155826
 20
2713.4226279959098
 30
0.0
 11
1574.862572155826
 21
2675.8726279959092
 31
0.0
1001
ACAD
1000
ASC_BOUNDS
1002
{
1070
    19
1002
}
  0
LINE
  5
3F9
  8
SJC
 10
1498.562572155826
 20
2713.4226279959089
 30
0.0
 11
1498.562572155826
 21
1901.5726279959081
 31
0.0
1001
ACAD
1000
ASC_BOUNDS
1002
{
1070
    19
1002
}
  0
DIMENSION
  5
3FC
  8
SUNPOU
  2
*D7
 10
4033.4724219452728
 20
2951.572627995909
 30
0.0
 11
3992.9724219452719
 21
2801.5726279959099
 31
0.0
 70
     0
 13
3536.7125721558259
 23
2651.5726279959099
 33
0.0
 14
3336.7125721558259
 24
2951.572627995909
 34
0.0
 50
90.0
1001
ACAD
1000
DSTYLE
1002
{
1070
   287
1070
     5
1070
    40
1040
15.0
1070
    41
1040
2.0
1070
    42
1040
1.0
1070
    43
1040
6.0
1070
    44
1040
1.0
1070
    73
1070
     0
1070
    74
1070
     0
1070
    77
1070
     1
1070
    78
1070
     8
1070
   140
1040
3.0
1070
   147
1040
1.1999999999999991
1070
   172
1070
     1
1070
   176
1070
   256
1070
   177
1070
   256
1070
   178
1070
   256
1070
   271
1070
     1
1070
   275
1070
     1
1070
   279
1070
     2
1070
   340
1005
11F
1002
}
  0
DIMENSION
  5
3FD
  8
SUNPOU
  2
*D8
 10
873.86283988258947
 20
2951.5726279959099
 30
0.0
 11
833.36283988258879
 21
2426.572627995909
 31
0.0
 70
     0
 13
1471.312572155826
 23
1901.572627995909
 33
0.0
 14
1696.7125721558259
 24
2951.572627995909
 34
0.0
 50
90.0
1001
ACAD
1000
DSTYLE
1002
{
1070
   287
1070
     5
1070
    40
1040
15.0
1070
    41
1040
2.0
1070
    42
1040
1.0
1070
    43
1040
6.0
1070
    44
1040
1.0
1070
    73
1070
     0
1070
    74
1070
     0
1070
    77
1070
     1
1070
    78
1070
     8
1070
   140
1040
3.0
1070
   147
1040
1.1999999999999991
1070
   172
1070
     1
1070
   176
1070
   256
1070
   177
1070
   256
1070
   178
1070
   256
1070
   271
1070
     1
1070
   275
1070
     1
1070
   279
1070
     2
1070
   340
1005
11F
1002
}
  0
SOLID
  5
400
  8
MOJI
  6
CONTINUOUS
 10
2307.2897174071832
 20
2845.2369777986692
 30
0.0
 11
2316.7725670028271
 21
2848.4111806192818
 31
0.0
 12
2302.508533743166
 22
2875.2726279959088
 32
0.0
 13
2302.508533743166
 23
2875.2726279959088
 33
0.0
  0
LINE
  5
401
  8
MOJI
  6
CONTINUOUS
 10
2312.0311422050049
 20
2846.8240792089759
 30
0.0
 11
2357.5350625784922
 21
2710.8822830162958
 31
0.0
  0
LINE
  5
402
  8
MOJI
  6
CONTINUOUS
 10
2217.0996779825259
 20
2627.2726279959088
 30
0.0
 11
2357.5350625784922
 21
2204.9822830162939
 31
0.0
  0
SOLID
  5
403
  8
MOJI
  6
CONTINUOUS
 10
2304.645343263111
 20
2347.2369777986678
 30
0.0
 11
2314.1281928587559
 21
2350.4111806192809
 31
0.0
 12
2299.8641595990948
 22
2377.2726279959079
 32
0.0
 13
2299.8641595990948
 23
2377.2726279959079
 33
0.0
  0
LINE
  5
405
  8
SJC
 10
1574.8625721558251
 20
2627.272627995882
 30
0.0
 11
1574.8625721558251
 21
2425.8726279959092
 31
0.0
1001
ACAD
1000
ASC_BOUNDS
1002
{
1070
    19
1005
3FE
1002
}
  0
LINE
  5
408
  8
SJC
 10
3498.5625721558258
 20
2627.272627995882
 30
0.0
 11
3498.5625721558258
 21
2425.8726279959092
 31
0.0
  0
TEXT
  5
4B6
  8
INFORMATION
 10
1.0
 20
1.0
 30
0.0
 40
0.8
  1
VERSION=3.0
  0
ARC
  5
4B7
  8
CENTER
 10
1736.7125721558259
 20
2713.4226279959089
 30
0.0
 40
200.0
 50
90.0
 51
180.0
  0
ARC
  5
4C0
  8
SJC
 10
1736.7125721558259
 20
2713.4226279959089
 30
0.0
 40
161.84999999999999
 50
90.0
 51
180.0
  0
ARC
  5
4C1
  8
SJC
 10
1736.7125721558259
 20
2713.4226279959089
 30
0.0
 40
238.15000000000001
 50
90.0
 51
180.0
  0
ARC
  5
4EF
  8
CENTER
 10
3336.7125721558259
 20
2713.4226279959089
 30
0.0
 40
200.0
 50
0.000000000000007
 51
90.0
  0
ARC
  5
4F0
  8
SJC
 10
3336.7125721558259
 20
2713.4226279959089
 30
0.0
 40
238.15000000000001
 50
0.000000000000007
 51
90.0
  0
ARC
  5
4F1
  8
SJC
 10
3336.7125721558259
 20
2713.4226279959089
 30
0.0
 40
161.84999999999999
 50
0.000000000000007
 51
90.0
  0
DIMENSION
  5
501
  8
SUNPOU
  2
*D9
 10
1736.712572155827
 20
2713.4226279959098
 30
0.0
 11
1723.170272333839
 21
2790.6945941200211
 31
0.0
 70
   132
 15
1593.7730577755301
 25
2853.3093508423799
 35
0.0
 40
0.0
1001
ACAD
1000
DSTYLE
1002
{
1070
   287
1070
     5
1070
    40
1040
15.0
1070
    41
1040
2.0
1070
    42
1040
1.0
1070
    43
1040
6.0
1070
    44
1040
1.0
1070
    73
1070
     0
1070
    74
1070
     0
1070
    77
1070
     1
1070
    78
1070
     8
1070
   140
1040
3.0
1070
   147
1040
1.1999999999999991
1070
   172
1070
     1
1070
   179
1070
     2
1070
   271
1070
     2
1070
   279
1070
     2
1070
   288
1070
     1
1070
   340
1005
11D
1002
}
  0
LINE
  5
531
  8
SJC
 10
1574.862572155826
 20
2675.8726279959092
 30
0.0
 11
3498.5625721558258
 21
2675.8726279959092
 31
0.0
  0
LINE
  5
532
  8
SJC
 10
1574.8625721558039
 20
2627.2726279959088
 30
0.0
 11
3498.562572155849
 21
2627.2726279959088
 31
0.0
  0
ARC
  5
53C
  8
SJC
 10
1604.272306938713
 20
2651.5726279958958
 30
0.0
 40
38.150000000005512
 50
140.43454069638369
 51
219.56545930361631
  0
ARC
  5
53D
  8
SJC
 10
3469.1528373729388
 20
2651.5726279958958
 30
0.0
 40
38.150000000005512
 50
320.43454069638381
 51
39.565459303616258
  0
LINE
  5
53E
  8
SJC
 10
1574.8625721558039
 20
2377.2726279959088
 30
0.0
 11
3498.562572155849
 21
2377.2726279959088
 31
0.0
  0
LINE
  5
53F
  8
SJC
 10
1574.862572155826
 20
2425.8726279959092
 30
0.0
 11
3498.5625721558258
 21
2425.8726279959092
 31
0.0
  0
ARC
  5
540
  8
SJC
 10
1604.272306938713
 20
2401.5726279958958
 30
0.0
 40
38.150000000005512
 50
140.43454069638369
 51
219.56545930361631
  0
ARC
  5
541
  8
SJC
 10
3469.1528373729388
 20
2401.5726279958958
 30
0.0
 40
38.150000000005512
 50
320.43454069638381
 51
39.565459303616258
  0
LINE
  5
542
  8
SJC
 10
1574.8625721558251
 20
2377.272627995882
 30
0.0
 11
1574.862572155826
 21
1901.5726279959081
 31
0.0
1001
ACAD
1000
ASC_BOUNDS
1002
{
1070
    19
1002
}
  0
LINE
  5
543
  8
SJC
 10
3498.5625721558258
 20
2377.272627995882
 30
0.0
 11
3498.5625721558249
 21
1901.572627995909
 31
0.0
  0
SOLID
  5
544
  8
MOJI
  6
CONTINUOUS
 10
2221.8808616465421
 20
2597.2369777986728
 30
0.0
 11
2231.3637112421861
 21
2600.411180619285
 31
0.0
 12
2217.0996779825259
 22
2627.272627995912
 32
0.0
 13
2217.0996779825259
 23
2627.272627995912
 33
0.0
  0
DIMENSION
  5
546
  8
SUNPOU
  2
*D10
 10
4033.4724219452728
 20
2401.5726279958958
 30
0.0
 11
3992.9724219452719
 21
2526.5726279959031
 31
0.0
 70
     0
 13
3536.7125721558259
 23
2651.5726279959099
 33
0.0
 14
3536.7125721558259
 24
2401.5726279958958
 34
0.0
 50
90.0
1001
ACAD
1000
DSTYLE
1002
{
1070
   287
1070
     5
1070
    40
1040
15.0
1070
    41
1040
2.0
1070
    42
1040
1.0
1070
    43
1040
6.0
1070
    44
1040
1.0
1070
    73
1070
     0
1070
    74
1070
     0
1070
    77
1070
     1
1070
    78
1070
     8
1070
   140
1040
3.0
1070
   147
1040
1.1999999999999991
1070
   172
1070
     1
1070
   179
1070
     2
1070
   271
1070
     2
1070
   279
1070
     2
1070
   340
1005
11D
1002
}
  0
DIMENSION
  5
553
  8
SUNPOU
  2
*D11
 10
4033.4724219452728
 20
2151.572627995909
 30
0.0
 11
3992.9724219452719
 21
2276.5726279959031
 31
0.0
 70
     0
 13
3536.7125721558259
 23
2401.5726279958958
 33
0.0
 14
3947.2512380179219
 24
2151.572627995909
 34
0.0
 50
90.0
1001
ACAD
1000
DSTYLE
1002
{
1070
   287
1070
     5
1070
    40
1040
15.0
1070
    41
1040
2.0
1070
    42
1040
1.0
1070
    43
1040
6.0
1070
    44
1040
1.0
1070
    73
1070
     0
1070
    74
1070
     0
1070
    77
1070
     1
1070
    78
1070
     8
1070
   140
1040
3.0
1070
   147
1040
1.1999999999999991
1070
   172
1070
     1
1070
   179
1070
     2
1070
   271
1070
     2
1070
   279
1070
     2
1070
   340
1005
11D
1002
}
  0
LINE
  5
912
  8
SJC
 10
5051.4317998701472
 20
4165.2545027623164
 30
0.0
 11
5981.4317998701463
 21
4165.2545027623164
 31
0.0
  0
LINE
  5
913
  8
SJC
 10
5051.4317998701472
 20
3940.254502762316
 30
0.0
 11
5981.4317998701463
 21
3940.254502762316
 31
0.0
  0
LINE
  5
914
  8
SJC
 10
5028.9317998701472
 20
4015.254502762316
 30
0.0
 11
6003.9317998701463
 21
4015.254502762316
 31
0.0
  0
LINE
  5
915
  8
SJC
 10
5028.9317998701472
 20
4090.254502762316
 30
0.0
 11
6003.9317998701463
 21
4090.254502762316
 31
0.0
  0
TEXT
  5
916
  8
MOJI
 10
5287.795190993811
 20
3955.6695891817881
 30
0.0
 40
45.0
  1
KGSH00093
 41
0.8
  7
EXT08
  0
TEXT
  5
917
  8
MOJI
 10
5287.795190993811
 20
4030.6695891817872
 30
0.0
 40
45.0
  1
KSP-8-20WM-EH
 41
0.8
  7
EXT08
  0
TEXT
  5
918
  8
MOJI
 10
5287.795190993811
 20
4105.6695891817872
 30
0.0
 40
45.0
  1
高強度セイフティパイプ
 41
0.8
  7
EXT08
  0
TEXT
  5
919
  8
MOJI
 10
5078.0889427272896
 20
4104.3545027623159
 30
0.0
 40
45.0
  1
タイプ
 41
0.8
  7
EXT08
 72
     4
 11
5141.4317998701463
 21
4127.7545027623164
 31
0.0
  0
LINE
  5
91A
  8
SJC
 10
5253.9317998701463
 20
3940.254502762316
 30
0.0
 11
5253.9317998701463
 21
4165.2545027623164
 31
0.0
  0
ARC
  5
91B
  8
SJC
 10
5051.4317998701472
 20
4142.7545027623173
 30
0.0
 40
22.5
 50
90.0
 51
180.0
  0
ARC
  5
91C
  8
SJC
 10
5051.4317998701472
 20
3962.7545027623169
 30
0.0
 40
22.5
 50
180.0
 51
270.0
  0
LINE
  5
91D
  8
SJC
 10
5028.9317998701472
 20
3962.7545027623169
 30
0.0
 11
5028.9317998701472
 21
4142.7545027623173
 31
0.0
  0
TEXT
  5
91E
  8
MOJI
 10
5081.4317998701463
 20
4030.2545027623169
 30
0.0
 40
45.0
  1
品  番
 41
0.8
  7
EXT08
 72
     4
 11
5141.4317998701463
 21
4052.754502762316
 31
0.0
  0
TEXT
  5
91F
  8
MOJI
 10
5058.6317998701461
 20
3955.2545027623169
 30
0.0
 40
45.0
  1
図面番号
 41
0.8
  7
EXT08
 72
     4
 11
5141.4317998701463
 21
3977.754502762316
 31
0.0
  0
ARC
  5
920
  8
SJC
 10
5981.4317998701463
 20
4142.7545027623173
 30
0.0
 40
22.5
 50
0.0
 51
90.0
  0
ARC
  5
921
  8
SJC
 10
5981.4317998701463
 20
3962.7545027623169
 30
0.0
 40
22.5
 50
270.0
 51
0.0
  0
LINE
  5
922
  8
SJC
 10
6003.9317998701463
 20
3962.7545027623169
 30
0.0
 11
6003.9317998701463
 21
4142.7545027623173
 31
0.0
  0
LINE
  5
FD1
  8
SJC
 10
1606.612572155826
 20
2151.572627995909
 30
0.0
 11
1606.612572155826
 21
951.57262799590865
 31
0.0
  0
LINE
  5
FD2
  8
SJC
 10
1466.812572155826
 20
2151.572627995909
 30
0.0
 11
1466.812572155826
 21
951.57262799590865
 31
0.0
  0
LINE
  5
FD5
  8
SJC
 10
1470.0125721558261
 20
951.57262799590933
 30
0.0
 11
1606.612572155826
 21
951.57262799590933
 31
0.0
1001
ACAD
1000
ASC_BOUNDS
1002
{
1070
    19
1002
}
  0
LINE
  5
FD7
  8
SJC
 10
1498.562572155826
 20
1901.5726279959081
 30
0.0
 11
1574.862572155826
 21
1901.5726279959081
 31
0.0
1001
ACAD
1000
ASC_BOUNDS
1002
{
1070
    19
1002
}
  0
LINE
  5
FD8
  8
SJC
 10
3466.8125721558258
 20
2151.572627995909
 30
0.0
 11
3466.8125721558258
 21
951.57262799590865
 31
0.0
  0
LINE
  5
FDA
  8
SJC
 10
3606.612572155826
 20
2151.572627995909
 30
0.0
 11
3606.612572155826
 21
951.57262799590865
 31
0.0
  0
LINE
  5
FDC
  8
SJC
 10
3498.5625721558249
 20
1901.572627995909
 30
0.0
 11
3574.862572155826
 21
1901.572627995909
 31
0.0
1001
ACAD
1000
ASC_BOUNDS
1002
{
1070
    19
1002
}
  0
LINE
  5
FDD
  8
SJC
 10
3470.0125721558261
 20
951.57262799590933
 30
0.0
 11
3606.612572155826
 21
951.57262799590933
 31
0.0
1001
ACAD
1000
ASC_BOUNDS
1002
{
1070
    19
1002
}
  0
DIMENSION
  5
1015
  8
SUNPOU
  2
*D12
 10
1830.372467033568
 20
951.57262799590865
 30
0.0
 11
1789.872467033568
 21
1551.572627995909
 31
0.0
 70
     0
 13
1606.612572155826
 23
2151.572627995909
 33
0.0
 14
1606.612572155826
 24
951.57262799590865
 34
0.0
 50
90.0
1001
ACAD
1000
DSTYLE
1002
{
1070
   287
1070
     5
1070
    40
1040
15.0
1070
    41
1040
2.0
1070
    42
1040
1.0
1070
    43
1040
6.0
1070
    44
1040
1.0
1070
    73
1070
     0
1070
    74
1070
     0
1070
    77
1070
     1
1070
    78
1070
     8
1070
   140
1040
3.0
1070
   147
1040
1.1999999999999991
1070
   172
1070
     1
1070
   179
1070
     2
1070
   271
1070
     2
1070
   279
1070
     2
1070
   340
1005
11D
1002
}
  0
INSERT
  5
10A7
  8
0
  2
*U17
 10
0.0
 20
0.0
 30
0.0
1001
ACAD
1000
DSTYLE
1002
{
1070
    40
1040
15.0
1070
    41
1040
2.0
1070
    42
1040
1.0
1070
    43
1040
6.0
1070
    44
1040
1.0
1070
    73
1070
     0
1070
    74
1070
     0
1070
    77
1070
     1
1070
    78
1070
     8
1070
   140
1040
3.0
1070
   147
1040
1.1999999999999991
1070
   172
1070
     1
1070
   179
1070
     2
1070
   271
1070
     2
1070
   279
1070
     2
1070
   340
1005
11D
1002
}
  0
INSERT
  5
10A8
  8
0
  2
*U18
 10
0.0
 20
0.0
 30
0.0
  0
INSERT
  5
10A9
  8
0
  2
*U19
 10
0.0
 20
0.0
 30
0.0
1001
ACAD
1000
DSTYLE
1002
{
1070
    40
1040
15.0
1070
    41
1040
2.0
1070
    42
1040
1.0
1070
    43
1040
6.0
1070
    44
1040
1.0
1070
    73
1070
     0
1070
    74
1070
     0
1070
    77
1070
     1
1070
    78
1070
     8
1070
   140
1040
3.0
1070
   147
1040
1.1999999999999991
1070
   172
1070
     1
1070
   179
1070
     2
1070
   271
1070
     2
1070
   279
1070
     2
1070
   340
1005
11D
1002
}
  0
INSERT
  5
10AA
  8
0
  2
*U20
 10
0.0
 20
0.0
 30
0.0
  0
TEXT
  5
10AB
  8
MOJI
 10
1899.441972215049
 20
1251.7352231563
 30
0.0
 40
45.0
  1
φ139.8×t4.5×L1200
 41
0.8
  7
EXT08
  0
LINE
  5
10AC
  8
MOJI
 10
2036.90414907742
 20
1317.652900579953
 30
0.0
 11
2259.3762910511109
 21
1317.652900579953
 31
0.0
  0
LINE
  5
10D9
  8
HASEN
 10
1471.312572155826
 20
2151.572627995909
 30
0.0
 11
1471.312572155826
 21
951.57262799590865
 31
0.0
  0
LINE
  5
10DA
  8
HASEN
 10
1602.112572155826
 20
2151.572627995909
 30
0.0
 11
1602.1125721558251
 21
951.57262799590865
 31
0.0
  0
LINE
  5
10FD
  8
HASEN
 10
3471.3125721558258
 20
2151.572627995909
 30
0.0
 11
3471.3125721558258
 21
951.57262799590865
 31
0.0
  0
LINE
  5
10FE
  8
HASEN
 10
3602.1125721558269
 20
2151.572627995909
 30
0.0
 11
3602.112572155826
 21
951.57262799590865
 31
0.0
  0
LINE
  5
115A
  8
SJC
 10
3471.3125721558258
 20
1851.572627995909
 30
0.0
 11
3602.1125721558269
 21
1851.572627995909
 31
0.0
1001
ACAD
1000
ASC_BOUNDS
1002
{
1070
    19
1005
0
1002
}
  0
LINE
  5
115B
  8
SJC
 10
1471.312572155826
 20
1851.572627995909
 30
0.0
 11
1602.1125721558269
 21
1851.572627995909
 31
0.0
1001
ACAD
1000
ASC_BOUNDS
1002
{
1070
    19
1005
0
1002
}
  0
LINE
  5
115C
  8
MOJI
 10
2259.3762910511109
 20
1317.652900579953
 30
0.0
 11
2482.8154192512488
 21
1317.652900579953
 31
0.0
  0
DIMENSION
  5
1170
  8
SUNPOU
  2
*D13
 10
1731.6950409648889
 20
2151.572627995909
 30
0.0
 11
1691.195040964888
 21
2001.572627995909
 31
0.0
 70
     0
 13
1602.112572155826
 23
1851.572627995909
 33
0.0
 14
1606.612572155826
 24
2151.572627995909
 34
0.0
 50
90.0
1001
ACAD
1000
DSTYLE
1002
{
1070
   287
1070
     5
1070
    40
1040
15.0
1070
    41
1040
2.0
1070
    42
1040
1.0
1070
    43
1040
6.0
1070
    44
1040
1.0
1070
    73
1070
     0
1070
    74
1070
     0
1070
    77
1070
     1
1070
    78
1070
     8
1070
   140
1040
3.0
1070
   147
1040
1.1999999999999991
1070
   172
1070
     1
1070
   179
1070
     2
1070
   271
1070
     2
1070
   279
1070
     2
1070
   340
1005
11D
1002
}
  0
INSERT
  5
11AA
  8
HATCH
  6
CONTINUOUS
  2
*X21
 10
0.0
 20
0.0
 30
0.0
1001
ACAD
1000
HATCH
1002
{
1070
    19
1000
AR-CONC
1040
0.5
1040
0.0
1000
ASC_BOUNDS
1070
     1
1070
     2
1070
     0
1000
ASC_SEEDPOINT
1011
-747.52902809612169
1021
0.0
1031
-1.3750456889399414E+057
1021
0.0
1031
0.0
1000
R14_HATCH_DATA
1000
11AA
1011
1.0
1021
0.0
1031
-1.3750456889399414E+057
1021
0.0
1031
0.0
1011
0.0
1021
0.0
1031
-1.3750456889399414E+057
1021
1.0
1031
0.0
1011
0.0
1021
0.0
1031
-1.3750456889399414E+057
1021
0.0
1031
1.0
1040
0.0
1010
0.0
1020
0.0
1030
1.0
1000
AR-CONC
1070
     0
1070
     1
1071
        1
1071
        1
1071
        8
1070
     1
1040
3574.8625721558251
1040
2151.572627995909
1040
3602.112572155826
1040
2151.572627995909
1070
     1
1040
3602.112572155826
1040
2151.572627995909
1040
3602.1125721558269
1040
1851.572627995909
1070
     1
1040
3602.1125721558269
1040
1851.572627995909
1040
3471.3125721558258
1040
1851.572627995909
1070
     1
1040
3471.3125721558258
1040
1851.572627995909
1040
3471.3125721558258
1040
2151.572627995909
1070
     1
1040
3471.3125721558258
1040
2151.572627995909
1040
3498.5625721558272
1040
2151.572627995909
1070
     1
1040
3498.5625721558258
1040
2151.572627995909
1040
3498.5625721558258
1040
1901.5726279959081
1070
     1
1040
3498.5625721558258
1040
1901.5726279959081
1040
3574.862572155826
1040
1901.5726279959081
1070
     1
1040
3574.862572155826
1040
1901.5726279959081
1040
3574.862572155826
1040
2151.572627995909
1071
        0
1070
     0
1070
     1
1040
0.0
1040
0.5
1070
     0
1070
    13
1040
0.8726646259971645
1040
-747.52902809612169
1040
0.0
1040
91.092334498002003
1040
-7.9695427694515431
1070
     2
1040
9.5250000000000004
1040
-104.77500000000001
1040
6.195918844579869
1040
-747.52902809612169
1040
0.0
1040
-17.621412987833491
1040
95.528321441089986
1070
     2
1040
7.6200000000000001
1040
-83.819999999999993
1040
1.753200686920823
1040
-739.93802809612157
1040
-0.664125
1040
73.471250832979621
1040
87.558343910145936
1070
     2
1040
8.0950000000000006
1040
-89.045000000000002
1040
0.8060663523995651
1040
-747.52902809612169
1040
25.399999999999999
1040
135.5395204460649
1040
-21.021163966363581
1070
     2
1040
14.2875
1040
-157.16249999999999
1040
1.6866093946402321
1040
-736.23407809612172
1040
23.648250000000001
1040
118.7021172331185
1040
123.7127779450246
1070
     2
1040
12.1425
1040
-133.5675
1040
6.1293170803237658
1040
-747.52902809612169
1040
25.399999999999999
1040
118.70230290696691
1040
123.7125589302988
1070
     2
1040
11.43
1040
-125.73
1040
0.3665191429188092
1040
-734.82902809612165
1040
19.050000000000001
1040
75.807439917691639
1040
-51.132759258381249
1070
     2
1040
9.5250000000000004
1040
-104.77500000000001
1040
5.6897733615015138
1040
-734.82902809612165
1040
19.050000000000001
1040
30.90101417382354
1040
92.093983061159619
1070
     2
1040
7.6200000000000001
1040
-83.819999999999993
1040
1.2470621851594761
1040
-728.5117780961217
1040
14.78895
1040
106.7082453850622
1040
40.961428858028718
1070
     2
1040
8.0950000000000006
1040
-89.045000000000002
1040
0.6544984694978737
1040
-747.52902809612169
1040
0.0
1040
1.5443016252959081
1040
42.277519436576547
1070
     6
1040
0.0
1040
-82.804000000000002
1040
0.0
1040
-85.090000000000003
1040
0.0
1040
-84.137500000000003
1040
0.1308996938995747
1040
-747.52902809612169
1040
0.0
1040
33.409831255152874
1040
50.090287409059748
1070
     6
1040
0.0
1040
-48.513999999999989
1040
0.0
1040
-80.899000000000001
1040
0.0
1040
-32.067500000000003
1040
5.715953300281428
1040
-775.85002809612172
1040
0.0
1040
67.795297583435698
1040
-2.864371996336728
1070
     6
1040
0.0
1040
-31.75
1040
0.0
1040
-99.060000000000002
1040
0.0
1040
-131.44499999999999
1040
5.5414203750819961
1040
-788.55002809612165
1040
0.0
1040
74.064590693009023
1040
12.713245516666509
1070
     6
1040
0.0
1040
-41.274999999999999
1040
0.0
1040
-65.786000000000001
1040
0.0
1040
-93.344999999999999
1071
        1
1040
-747.52902809612169
1040
0.0
1040
0.0
1002
}
  0
INSERT
  5
11AB
  8
HATCH
  6
CONTINUOUS
  2
*X22
 10
0.0
 20
0.0
 30
0.0
1001
ACAD
1000
HATCH
1002
{
1070
    19
1000
AR-CONC
1040
0.5
1040
0.0
1000
ASC_BOUNDS
1070
     1
1070
     2
1070
     0
1000
ASC_SEEDPOINT
1011
-2747.5290280961221
1021
0.0
1031
-1.3750456889399414E+057
1021
0.0
1031
0.0
1000
R14_HATCH_DATA
1000
11AB
1011
1.0
1021
0.0
1031
-1.3750456889399414E+057
1021
0.0
1031
0.0
1011
0.0
1021
0.0
1031
-1.3750456889399414E+057
1021
1.0
1031
0.0
1011
0.0
1021
0.0
1031
-1.3750456889399414E+057
1021
0.0
1031
1.0
1040
0.0
1010
0.0
1020
0.0
1030
1.0
1000
AR-CONC
1070
     0
1070
     1
1071
        1
1071
        1
1071
        8
1070
     1
1040
1574.862572155824
1040
2151.572627995909
1040
1602.1125721558251
1040
2151.572627995909
1070
     1
1040
1602.1125721558251
1040
2151.572627995909
1040
1602.112572155826
1040
1851.572627995909
1070
     1
1040
1602.112572155826
1040
1851.572627995909
1040
1471.312572155826
1040
1851.572627995909
1070
     1
1040
1471.3125721558249
1040
1851.572627995909
1040
1471.3125721558249
1040
2151.572627995909
1070
     1
1040
1471.3125721558249
1040
2151.572627995909
1040
1498.562572155827
1040
2151.572627995909
1070
     1
1040
1498.562572155826
1040
2151.572627995909
1040
1498.562572155826
1040
1901.5726279959081
1070
     1
1040
1498.562572155826
1040
1901.5726279959081
1040
1574.8625721558251
1040
1901.5726279959081
1070
     1
1040
1574.8625721558251
1040
1901.5726279959081
1040
1574.8625721558251
1040
2151.572627995909
1071
        0
1070
     0
1070
     1
1040
0.0
1040
0.5
1070
     0
1070
    13
1040
0.8726646259971645
1040
-2747.5290280961221
1040
0.0
1040
91.092334498002003
1040
-7.9695427694515431
1070
     2
1040
9.5250000000000004
1040
-104.77500000000001
1040
6.195918844579869
1040
-2747.5290280961221
1040
0.0
1040
-17.621412987833491
1040
95.528321441089986
1070
     2
1040
7.6200000000000001
1040
-83.819999999999993
1040
1.753200686920823
1040
-2739.9380280961218
1040
-0.664125
1040
73.471250832979621
1040
87.558343910145936
1070
     2
1040
8.0950000000000006
1040
-89.045000000000002
1040
0.8060663523995651
1040
-2747.5290280961221
1040
25.399999999999999
1040
135.5395204460649
1040
-21.021163966363581
1070
     2
1040
14.2875
1040
-157.16249999999999
1040
1.6866093946402321
1040
-2736.2340780961222
1040
23.648250000000001
1040
118.7021172331185
1040
123.7127779450246
1070
     2
1040
12.1425
1040
-133.5675
1040
6.1293170803237658
1040
-2747.5290280961221
1040
25.399999999999999
1040
118.70230290696691
1040
123.7125589302988
1070
     2
1040
11.43
1040
-125.73
1040
0.3665191429188092
1040
-2734.8290280961219
1040
19.050000000000001
1040
75.807439917691639
1040
-51.132759258381249
1070
     2
1040
9.5250000000000004
1040
-104.77500000000001
1040
5.6897733615015138
1040
-2734.8290280961219
1040
19.050000000000001
1040
30.90101417382354
1040
92.093983061159619
1070
     2
1040
7.6200000000000001
1040
-83.819999999999993
1040
1.2470621851594761
1040
-2728.5117780961218
1040
14.78895
1040
106.7082453850622
1040
40.961428858028718
1070
     2
1040
8.0950000000000006
1040
-89.045000000000002
1040
0.6544984694978737
1040
-2747.5290280961221
1040
0.0
1040
1.5443016252959081
1040
42.277519436576547
1070
     6
1040
0.0
1040
-82.804000000000002
1040
0.0
1040
-85.090000000000003
1040
0.0
1040
-84.137500000000003
1040
0.1308996938995747
1040
-2747.5290280961221
1040
0.0
1040
33.409831255152874
1040
50.090287409059748
1070
     6
1040
0.0
1040
-48.513999999999989
1040
0.0
1040
-80.899000000000001
1040
0.0
1040
-32.067500000000003
1040
5.715953300281428
1040
-2775.8500280961221
1040
0.0
1040
67.795297583435698
1040
-2.864371996336728
1070
     6
1040
0.0
1040
-31.75
1040
0.0
1040
-99.060000000000002
1040
0.0
1040
-131.44499999999999
1040
5.5414203750819961
1040
-2788.5500280961219
1040
0.0
1040
74.064590693009023
1040
12.713245516666509
1070
     6
1040
0.0
1040
-41.274999999999999
1040
0.0
1040
-65.786000000000001
1040
0.0
1040
-93.344999999999999
1071
        1
1040
-2747.5290280961221
1040
0.0
1040
0.0
1002
}
  0
TEXT
  5
1253
  8
MOJI
 10
1222.8579877583641
 20
729.79765837784885
 30
0.0
 40
60.0
  1
※基礎寸法は参考値です。
 41
0.8
  7
EXT08
 72
     1
 11
1551.8865591869351
 21
729.79765837784885
 31
0.0
  0
TEXT
  5
1475
  8
MOJI
 10
4085.4336669548052
 20
199.65727514146391
 30
0.0
 40
60.0
  1
※本製品は車両用防護柵の強度を保有するものではありません。
 41
0.8
  7
EXT08
 72
     1
 11
4904.062238383377
 21
199.65727514146391
 31
0.0
  0
LINE
  5
14C8
  8
SJC
 10
1596.712572155825
 20
2377.2726279959102
 30
0.0
 11
1596.712572155825
 21
2425.8726279959092
 31
0.0
  0
LINE
  5
14CB
  8
SJC
 10
3476.712572155825
 20
2377.2726279959102
 30
0.0
 11
3476.712572155825
 21
2425.8726279959101
 31
0.0
  0
LINE
  5
14CC
  8
SJC
 10
1596.712572155825
 20
2627.2726279959102
 30
0.0
 11
1596.712572155825
 21
2675.8726279959092
 31
0.0
  0
LINE
  5
14CD
  8
SJC
 10
3476.712572155825
 20
2627.2726279959111
 30
0.0
 11
3476.712572155825
 21
2675.8726279959101
 31
0.0
  0
INSERT
  5
14CE
  8
KASOU
  6
CONTINUOUS
  2
*X23
 10
0.0
 20
0.0
 30
0.0
1001
ACAD
1000
HATCH
1002
{
1070
    19
1000
ANSI31
1040
100.0
1040
0.0
1000
R14_HATCH_DATA
1000
14CE
1011
1.0
1021
0.0
1031
-1.3750456889399414E+057
1021
0.0
1031
0.0
1011
0.0
1021
0.0
1031
-1.3750456889399414E+057
1021
1.0
1031
0.0
1011
0.0
1021
0.0
1031
-1.3750456889399414E+057
1021
0.0
1031
1.0
1040
0.0
1010
0.0
1020
0.0
1030
1.0
1000
ANSI31
1070
     0
1070
     0
1071
        1
1071
        1
1071
        4
1070
     1
1040
1596.712572155825
1040
2377.2726279959102
1040
3476.712572155825
1040
2377.2726279959102
1070
     1
1040
3476.712572155825
1040
2377.2726279959102
1040
3476.712572155825
1040
2425.8726279959092
1070
     1
1040
3476.712572155825
1040
2425.8726279959092
1040
1596.712572155825
1040
2425.8726279959092
1070
     1
1040
1596.712572155825
1040
2425.8726279959092
1040
1596.712572155825
1040
2377.2726279959102
1071
        0
1070
     0
1070
     1
1040
0.0
1040
100.0
1070
     0
1070
     1
1040
0.7853981633974483
1040
172.72188575514079
1040
804.52982967278786
1040
-8.8388347648318426
1040
8.8388347648318444
1070
     0
1071
        1
1040
172.72188575514079
1040
804.52982967278786
1040
0.0
1002
}
  0
INSERT
  5
14CF
  8
KASOU
  6
CONTINUOUS
  2
*X24
 10
0.0
 20
0.0
 30
0.0
1001
ACAD
1000
HATCH
1002
{
1070
    19
1000
ANSI31
1040
100.0
1040
0.0
1000
R14_HATCH_DATA
1000
14CF
1011
1.0
1021
0.0
1031
-1.3750456889399414E+057
1021
0.0
1031
0.0
1011
0.0
1021
0.0
1031
-1.3750456889399414E+057
1021
1.0
1031
0.0
1011
0.0
1021
0.0
1031
-1.3750456889399414E+057
1021
0.0
1031
1.0
1040
0.0
1010
0.0
1020
0.0
1030
1.0
1000
ANSI31
1070
     0
1070
     0
1071
        1
1071
        1
1071
        4
1070
     1
1040
1596.712572155825
1040
2627.2726279959102
1040
3476.712572155825
1040
2627.2726279959102
1070
     1
1040
3476.712572155825
1040
2627.2726279959102
1040
3476.712572155825
1040
2675.8726279959092
1070
     1
1040
3476.712572155825
1040
2675.8726279959092
1040
1596.712572155825
1040
2675.8726279959092
1070
     1
1040
1596.712572155825
1040
2675.8726279959092
1040
1596.712572155825
1040
2627.2726279959102
1071
        0
1070
     0
1070
     1
1040
0.0
1040
100.0
1070
     0
1070
     1
1040
0.7853981633974483
1040
172.72188575514079
1040
1054.5298296727881
1040
-8.8388347648318426
1040
8.8388347648318444
1070
     0
1071
        1
1040
172.72188575514079
1040
1054.5298296727881
1040
0.0
1002
}
  0
INSERT
  5
14D0
  8
0
  2
*U25
 10
0.0
 20
0.0
 30
0.0
1001
ACAD
1000
DSTYLE
1002
{
1070
     5
1000

1070
    40
1040
15.0
1070
    41
1040
2.0
1070
    42
1040
1.0
1070
    43
1040
6.0
1070
    44
1040
1.0
1070
    73
1070
     0
1070
    74
1070
     0
1070
    77
1070
     1
1070
    78
1070
     8
1070
   140
1040
3.0
1070
   147
1040
1.1999999999999991
1070
   172
1070
     1
1070
   179
1070
     2
1070
   271
1070
     2
1070
   279
1070
     2
1070
   340
1005
11D
1070
   342
1005
0
1002
}
  0
INSERT
  5
14D1
  8
0
  2
*U26
 10
0.0
 20
0.0
 30
0.0
  0
LINE
  5
14D2
  8
MOJI
  6
CONTINUOUS
 10
3062.645347168339
 20
2199.816898367329
 30
0.0
 11
3461.6923724990302
 21
2199.816898367329
 31
0.0
  0
INSERT
  5
14D3
  8
0
  2
*U27
 10
0.0
 20
0.0
 30
0.0
1001
ACAD
1000
DSTYLE
1002
{
1070
     5
1000

1070
    40
1040
15.0
1070
    41
1040
2.0
1070
    42
1040
1.0
1070
    43
1040
6.0
1070
    44
1040
1.0
1070
    73
1070
     0
1070
    74
1070
     0
1070
    77
1070
     1
1070
    78
1070
     8
1070
   140
1040
3.0
1070
   147
1040
1.1999999999999991
1070
   172
1070
     1
1070
   179
1070
     2
1070
   271
1070
     2
1070
   279
1070
     2
1070
   340
1005
11D
1070
   342
1005
0
1002
}
  0
INSERT
  5
14D4
  8
0
  2
*U28
 10
0.0
 20
0.0
 30
0.0
  0
LINE
  5
14D5
  8
MOJI
  6
CONTINUOUS
 10
2949.1205133939029
 20
2743.9098057646638
 30
0.0
 11
3243.3655461691792
 21
2743.9098057646638
 31
0.0
  0
LINE
  5
1563
  8
CENTER
 10
5347.8313612552502
 20
2659.8787900864718
 30
0.0
 11
5347.8313612552502
 21
1359.878790086472
 31
0.0
  0
LINE
  5
1564
  8
SJC
 10
5277.9313612552514
 20
2609.8787900864718
 30
0.0
 11
5277.9313612552496
 21
1409.878790086472
 31
0.0
  0
LINE
  5
1565
  8
SJC
 10
5417.7313612552489
 20
2609.8787900864718
 30
0.0
 11
5417.7313612552489
 21
1409.878790086472
 31
0.0
  0
LINE
  5
1566
  8
SJC
 10
5277.9313612552496
 20
1409.878790086472
 30
0.0
 11
5417.7313612552489
 21
1409.878790086472
 31
0.0
1001
ACAD
1000
ASC_BOUNDS
1002
{
1070
    19
1002
}
  0
LINE
  5
1567
  8
HASEN
 10
5282.4313612552514
 20
2609.8787900864718
 30
0.0
 11
5282.4313612552514
 21
1409.878790086472
 31
0.0
  0
LINE
  5
1568
  8
HASEN
 10
5413.2313612552498
 20
2609.8787900864718
 30
0.0
 11
5413.2313612552498
 21
1409.878790086472
 31
0.0
  0
LINE
  5
1569
  8
SJC
 10
5277.9313612552514
 20
2609.8787900864718
 30
0.0
 11
5417.7313612552507
 21
2609.8787900864718
 31
0.0
1001
ACAD
1000
ASC_BOUNDS
1002
{
1070
    19
1002
}
  0
CIRCLE
  5
156A
  8
SJC
 10
5347.8313612552502
 20
2900.6127561314152
 30
0.0
 40
69.900000000000006
  0
CIRCLE
  5
156B
  8
SJC
 10
5347.8313612552502
 20
2900.6127561314152
 30
0.0
 40
65.400000000000006
  0
LINE
  5
156C
  8
CENTER
 10
5347.8313612552502
 20
2780.7127561314151
 30
0.0
 11
5347.8313612552502
 21
3020.5127561314148
 31
0.0
  0
LINE
  5
156D
  8
CENTER
 10
5227.9313612552514
 20
2900.6127561314152
 30
0.0
 11
5467.7313612552498
 21
2900.6127561314152
 31
0.0
  0
DIMENSION
  5
156E
  8
SUNPOU
  2
*D14
 10
5108.6357586247486
 20
1409.878790086472
 30
0.0
 11
5068.1357586247477
 21
2009.8787900864741
 31
0.0
 70
     0
 13
5277.9313612552514
 23
2609.8787900864718
 33
0.0
 14
5277.9313612552496
 24
1409.878790086472
 34
0.0
 50
90.0
1001
ACAD
1000
DSTYLE
1002
{
1070
   287
1070
     5
1070
    40
1040
15.0
1070
    41
1040
2.0
1070
    42
1040
1.0
1070
    43
1040
6.0
1070
    44
1040
1.0
1070
    73
1070
     0
1070
    74
1070
     0
1070
    77
1070
     1
1070
    78
1070
     8
1070
   140
1040
3.0
1070
   147
1040
1.1999999999999991
1070
   172
1070
     1
1070
   179
1070
     2
1070
   271
1070
     2
1070
   279
1070
     2
1070
   340
1005
11D
1002
}
  0
DIMENSION
  5
156F
  8
SUNPOU
  2
*D15
 10
5403.3738122606374
 20
2943.05149004648
 30
0.0
 11
5455.6415849968052
 21
3033.27216810648
 31
0.0
 70
   131
 15
5292.2889102498593
 25
2858.1740222163462
 35
0.0
 40
0.0
1001
ACAD
1000
DSTYLE
1002
{
1070
   287
1070
     5
1070
    40
1040
15.0
1070
    41
1040
2.0
1070
    42
1040
1.0
1070
    43
1040
6.0
1070
    44
1040
1.0
1070
    73
1070
     0
1070
    74
1070
     0
1070
    77
1070
     1
1070
    78
1070
     8
1070
   140
1040
3.0
1070
   147
1040
1.1999999999999991
1070
   172
1070
     1
1070
   179
1070
     2
1070
   271
1070
     2
1070
   279
1070
     2
1070
   288
1070
     1
1070
   340
1005
11D
1002
}
  0
INSERT
  5
1570
  8
0
  2
*U29
 10
0.0
 20
0.0
 30
0.0
1001
ACAD
1000
DSTYLE
1002
{
1070
    40
1040
15.0
1070
    41
1040
2.0
1070
    42
1040
1.0
1070
    43
1040
6.0
1070
    44
1040
1.0
1070
    73
1070
     0
1070
    74
1070
     0
1070
    77
1070
     1
1070
    78
1070
     8
1070
   140
1040
3.0
1070
   147
1040
1.1999999999999991
1070
   172
1070
     1
1070
   179
1070
     2
1070
   271
1070
     2
1070
   279
1070
     2
1070
   340
1005
11D
1002
}
  0
TEXT
  5
1571
  8
MOJI
 10
5514.0946494021173
 20
2240.4330935524022
 30
0.0
 40
45.0
  1
φ139.8×t4.5
 41
0.8
  7
EXT08
  0
LINE
  5
1572
  8
MOJI
 10
5513.3480954818087
 20
2216.8064264116879
 30
0.0
 11
5889.8138157122303
 21
2216.8064264116879
 31
0.0
  0
TEXT
  5
1573
  8
MOJI2
 10
5185.5570590778652
 20
1245.05647770207
 30
0.0
 40
60.0
  1
鋼管杭詳細図
 41
0.8
  7
KANJI08
  0
LINE
  5
1574
  8
MOJI2
 10
5162.5058509568316
 20
1231.147579075234
 30
0.0
 11
5550.5839328769043
 21
1231.147579075234
 31
0.0
  0
DIMENSION
  5
1611
  8
SUNPOU
  2
*D16
 10
1039.952722366379
 20
2151.572627995909
 30
0.0
 11
999.45272236637845
 21
2551.5726279959099
 31
0.0
 70
     0
 13
1736.7125721558259
 23
2951.572627995909
 33
0.0
 14
1126.1739062937299
 24
2151.572627995909
 34
0.0
 50
90.0
1001
ACAD
1000
DSTYLE
1002
{
1070
   287
1070
     5
1070
    40
1040
15.0
1070
    41
1040
2.0
1070
    42
1040
1.0
1070
    43
1040
6.0
1070
    44
1040
1.0
1070
    73
1070
     0
1070
    74
1070
     0
1070
    77
1070
     1
1070
    78
1070
     8
1070
   140
1040
3.0
1070
   147
1040
1.1999999999999991
1070
   172
1070
     1
1070
   179
1070
     2
1070
   271
1070
     2
1070
   279
1070
     2
1070
   340
1005
11D
1002
}
  0
LINE
  5
16D0
  8
MOJI
 10
4528.2035786553051
 20
606.98140002950743
 30
0.0
 11
5691.0795432150417
 21
606.98140002950743
 31
0.0
  0
LINE
  5
16D1
  8
MOJI
 10
5691.0795432150417
 20
606.98140002950743
 30
0.0
 11
5691.0795432150417
 21
303.45559279947298
 31
0.0
  0
LINE
  5
16D2
  8
MOJI
 10
4818.9652661473556
 20
303.45559279947298
 30
0.0
 11
4818.9652661473556
 21
606.98140002950743
 31
0.0
  0
LINE
  5
16D3
  8
MOJI
 10
4528.2035786553042
 20
303.45559279947298
 30
0.0
 11
4528.2035786553051
 21
606.98140002950743
 31
0.0
  0
LINE
  5
16D4
  8
MOJI
 10
5148.1779996400865
 20
303.45559279947298
 30
0.0
 11
5148.1779996400865
 21
606.98140002950743
 31
0.0
  0
TEXT
  5
16D5
  8
MOJI
 10
4620.9511115145051
 20
547.64697883541544
 30
0.0
 40
45.0
  1
品  名
 41
0.8
  7
EXT08
 72
     1
 11
4679.7511115145053
 21
547.64697883541544
 31
0.0
  0
TEXT
  5
16D6
  8
MOJI
 10
4924.089531650653
 20
550.01827420440009
 30
0.0
 40
45.0
  1
材  質
 41
0.8
  7
EXT08
 72
     1
 11
4984.089531650653
 21
550.01827420440009
 31
0.0
  0
TEXT
  5
16D7
  8
MOJI
 10
5356.1241430000864
 20
546.03142712751298
 30
0.0
 40
45.0
  1
摘  要
 41
0.8
  7
EXT08
 72
     1
 11
5416.467000142944
 21
546.03142712751298
 31
0.0
  0
TEXT
  5
16D8
  8
MOJI
 10
4552.9873673879329
 20
400.46383898699582
 30
0.0
 40
45.0
  1
ビームパイプ
 41
0.8
  7
EXT08
 72
     1
 11
4681.1302245307888
 21
400.46383898699582
 31
0.0
  0
TEXT
  5
16D9
  8
MOJI
 10
4617.7873673879321
 20
476.2168553221851
 30
0.0
 40
45.0
  1
主  柱
 41
0.8
  7
EXT08
 72
     1
 11
4677.7873673879312
 21
476.2168553221851
 31
0.0
  0
TEXT
  5
16DA
  8
MOJI
 10
4886.6704570057318
 20
476.2168553221851
 30
0.0
 40
45.0
  1
STK400
 41
0.8
  7
EXT08
 72
     1
 11
4986.9561712914456
 21
476.2168553221851
 31
0.0
  0
TEXT
  5
16DB
  8
MOJI
 10
5173.2560201200868
 20
476.2168553221851
 30
0.0
 40
45.0
  1
亜鉛めっき＋静電粉体塗装
 41
0.8
  7
EXT08
 72
     1
 11
5427.6560201200864
 21
476.2168553221851
 31
0.0
  0
LINE
  5
16DC
  8
MOJI
 10
4528.2035786553051
 20
531.09994822199883
 30
0.0
 11
5691.0795432150417
 21
531.09994822199883
 31
0.0
  0
LINE
  5
16DD
  8
MOJI
 10
4528.2035786553051
 20
455.21849641449018
 30
0.0
 11
5691.0795432150417
 21
455.21849641449018
 31
0.0
  0
LINE
  5
16DE
  8
MOJI
 10
4528.2035786553051
 20
379.33704460698158
 30
0.0
 11
5691.0795432150417
 21
379.33704460698158
 31
0.0
  0
TEXT
  5
16DF
  8
MOJI
 10
5173.2560201200868
 20
400.3354035146765
 30
0.0
 40
45.0
  1
亜鉛めっき＋静電粉体塗装
 41
0.8
  7
EXT08
 72
     1
 11
5427.6560201200864
 21
400.3354035146765
 31
0.0
  0
TEXT
  5
16E0
  8
MOJI
 10
4886.6704570057318
 20
400.3354035146765
 30
0.0
 40
45.0
  1
STK400
 41
0.8
  7
EXT08
 72
     1
 11
4986.9561712914456
 21
400.3354035146765
 31
0.0
  0
TEXT
  5
16E1
  8
MOJI
 10
4621.1302245307897
 20
324.58238717948723
 30
0.0
 40
45.0
  1
鋼管杭
 41
0.8
  7
EXT08
 72
     1
 11
4681.1302245307888
 21
324.58238717948723
 31
0.0
  0
LINE
  5
16E2
  8
MOJI
 10
4528.2035786553051
 20
303.45559279947298
 30
0.0
 11
5691.0795432150417
 21
303.45559279947298
 31
0.0
  0
TEXT
  5
16E3
  8
MOJI
 10
5216.4560201200857
 20
324.4539517071679
 30
0.0
 40
45.0
  1
高耐食溶融めっき鋼管
 41
0.8
  7
EXT08
 72
     1
 11
5427.6560201200864
 21
324.4539517071679
 31
0.0
  0
TEXT
  5
16E4
  8
MOJI
 10
4846.8990284343035
 20
324.4539517071679
 30
0.0
 40
45.0
  1
STK400相当
 41
0.8
  7
EXT08
 72
     1
 11
4986.9561712914456
 21
324.4539517071679
 31
0.0
  0
ENDSEC
  0
EOF
