  0
SECTION
  2
HEADER
  9
$ACADVER
  1
AC1009
  9
$INSBASE
 10
0.0
 20
0.0
 30
0.0
  9
$EXTMIN
 10
0.0
 20
0.0
 30
0.0
  9
$EXTMAX
 10
6150.0
 20
4305.0
 30
0.0
  9
$LIMMIN
 10
0.0
 20
0.0
  9
$LIMMAX
 10
6300.0
 20
4455.0
  9
$ORTHOMODE
 70
     1
  9
$REGENMODE
 70
     1
  9
$FILLMODE
 70
     1
  9
$QTEXTMODE
 70
     0
  9
$MIRRTEXT
 70
     0
  9
$DRAGMODE
 70
     2
  9
$LTSCALE
 40
150.0
  9
$OSMODE
 70
    37
  9
$ATTMODE
 70
     1
  9
$TEXTSIZE
 40
45.0
  9
$TRACEWID
 40
1.0
  9
$TEXTSTYLE
  7
EXT08
  9
$CLAYER
  8
0
  9
$CELTYPE
  6
BYLAYER
  9
$CECOLOR
 62
   256
  9
$DIMSCALE
 40
15.0
  9
$DIMASZ
 40
2.0
  9
$DIMEXO
 40
1.0
  9
$DIMDLI
 40
6.0
  9
$DIMRND
 40
0.0
  9
$DIMDLE
 40
0.0
  9
$DIMEXE
 40
1.0
  9
$DIMTP
 40
0.0
  9
$DIMTM
 40
0.0
  9
$DIMTXT
 40
3.0
  9
$DIMCEN
 40
0.09
  9
$DIMTSZ
 40
0.0
  9
$DIMTOL
 70
     0
  9
$DIMLIM
 70
     0
  9
$DIMTIH
 70
     0
  9
$DIMTOH
 70
     0
  9
$DIMSE1
 70
     0
  9
$DIMSE2
 70
     0
  9
$DIMTAD
 70
     1
  9
$DIMZIN
 70
     8
  9
$DIMBLK
  1

  9
$DIMASO
 70
     1
  9
$DIMSHO
 70
     1
  9
$DIMPOST
  1

  9
$DIMAPOST
  1

  9
$DIMALT
 70
     0
  9
$DIMALTD
 70
     2
  9
$DIMALTF
 40
25.399999999999999
  9
$DIMLFAC
 40
1.0
  9
$DIMTOFL
 70
     1
  9
$DIMTVP
 40
0.0
  9
$DIMTIX
 70
     0
  9
$DIMSOXD
 70
     0
  9
$DIMSAH
 70
     0
  9
$DIMBLK1
  1

  9
$DIMBLK2
  1

  9
$DIMSTYLE
  2
SJC
  9
$DIMCLRD
 70
     0
  9
$DIMCLRE
 70
     0
  9
$DIMCLRT
 70
     0
  9
$DIMTFAC
 40
1.0
  9
$DIMGAP
 40
1.1999999999999991
  9
$LUNITS
 70
     2
  9
$LUPREC
 70
     2
  9
$SKETCHINC
 40
1.0
  9
$FILLETRAD
 40
200.0
  9
$AUNITS
 70
     0
  9
$AUPREC
 70
     0
  9
$MENU
  1
.
  9
$ELEVATION
 40
0.0
  9
$PELEVATION
 40
0.0
  9
$THICKNESS
 40
0.0
  9
$LIMCHECK
 70
     0
  9
$BLIPMODE
 70
     0
  9
$CHAMFERA
 40
0.0
  9
$CHAMFERB
 40
0.0
  9
$SKPOLY
 70
     0
  9
$TDCREATE
 40
2456287.4708731128
  9
$TDUPDATE
 40
2456554.448418322
  9
$TDINDWG
 40
0.2795891435
  9
$TDUSRTIMER
 40
0.2795889583
  9
$USRTIMER
 70
     1
  9
$ANGBASE
 50
0.0
  9
$ANGDIR
 70
     0
  9
$PDMODE
 70
    33
  9
$PDSIZE
 40
5.0
  9
$PLINEWID
 40
0.0
  9
$COORDS
 70
     1
  9
$SPLFRAME
 70
     0
  9
$SPLINETYPE
 70
     6
  9
$SPLINESEGS
 70
     8
  9
$ATTDIA
 70
     0
  9
$ATTREQ
 70
     1
  9
$HANDLING
 70
     1
  9
$HANDSEED
  5
17FF
  9
$SURFTAB1
 70
     6
  9
$SURFTAB2
 70
     6
  9
$SURFTYPE
 70
     6
  9
$SURFU
 70
     6
  9
$SURFV
 70
     6
  9
$UCSNAME
  2

  9
$UCSORG
 10
0.0
 20
0.0
 30
0.0
  9
$UCSXDIR
 10
1.0
 20
0.0
 30
0.0
  9
$UCSYDIR
 10
0.0
 20
1.0
 30
0.0
  9
$PUCSNAME
  2

  9
$PUCSORG
 10
0.0
 20
0.0
 30
0.0
  9
$PUCSXDIR
 10
1.0
 20
0.0
 30
0.0
  9
$PUCSYDIR
 10
0.0
 20
1.0
 30
0.0
  9
$USERI1
 70
     3
  9
$USERI2
 70
    15
  9
$USERI3
 70
     0
  9
$USERI4
 70
     0
  9
$USERI5
 70
     0
  9
$USERR1
 40
0.0
  9
$USERR2
 40
0.0
  9
$USERR3
 40
0.0
  9
$USERR4
 40
0.0
  9
$USERR5
 40
0.0
  9
$WORLDVIEW
 70
     1
  9
$SHADEDGE
 70
     3
  9
$SHADEDIF
 70
    70
  9
$TILEMODE
 70
     1
  9
$MAXACTVP
 70
    64
  9
$PLIMCHECK
 70
     0
  9
$PEXTMIN
 10
0.0
 20
0.0
 30
0.0
  9
$PEXTMAX
 10
0.0
 20
0.0
 30
0.0
  9
$PLIMMIN
 10
0.0
 20
0.0
  9
$PLIMMAX
 10
12.0
 20
9.0
  9
$UNITMODE
 70
     0
  9
$VISRETAIN
 70
     1
  9
$PLINEGEN
 70
     0
  9
$PSLTSCALE
 70
     1
  0
ENDSEC
  0
SECTION
  2
TABLES
  0
TABLE
  2
VPORT
 70
     2
  0
VPORT
  2
*ACTIVE
 70
     0
 10
0.0
 20
0.0
 11
1.0
 21
1.0
 12
5342.0773792054561
 22
2516.671319913451
 13
0.0
 23
0.0
 14
10.0
 24
10.0
 15
10.0
 25
10.0
 16
0.0
 26
0.0
 36
1.0
 17
0.0
 27
0.0
 37
0.0
 40
5882.6873490575081
 41
1.9010526315789471
 42
50.0
 43
0.0
 44
0.0
 50
0.0
 51
0.0
 71
     0
 72
  1000
 73
     1
 74
     3
 75
     0
 76
     0
 77
     0
 78
     0
  0
ENDTAB
  0
TABLE
  2
LTYPE
 70
     4
  0
LTYPE
  2
CONTINUOUS
 70
     0
  3
Solid line
 72
    65
 73
     0
 40
0.0
  0
LTYPE
  2
PHANTOM
 70
     0
  3
Phantom ______  __  __  ______  __  __  ______
 72
    65
 73
     6
 40
2.5
 49
1.25
 49
-0.25
 49
0.25
 49
-0.25
 49
0.25
 49
-0.25
  0
LTYPE
  2
CENTER
 70
     0
  3
Center ____ _ ____ _ ____ _ ____ _ ____ _ ____
 72
    65
 73
     4
 40
2.0
 49
1.25
 49
-0.25
 49
0.25
 49
-0.25
  0
LTYPE
  2
HIDDEN
 70
     0
  3
Hidden __ __ __ __ __ __ __ __ __ __ __ __ __ _
 72
    65
 73
     2
 40
0.375
 49
0.25
 49
-0.125
  0
ENDTAB
  0
TABLE
  2
LAYER
 70
    15
  0
LAYER
  2
0
 70
     0
 62
     7
  6
CONTINUOUS
  0
LAYER
  2
ZWAKU
 70
     1
 62
    -7
  6
CONTINUOUS
  0
LAYER
  2
SJC
 70
     0
 62
     1
  6
CONTINUOUS
  0
LAYER
  2
INFORMATION
 70
     1
 62
     7
  6
CONTINUOUS
  0
LAYER
  2
SJC2
 70
     0
 62
     7
  6
CONTINUOUS
  0
LAYER
  2
KASOU
 70
     0
 62
     2
  6
PHANTOM
  0
LAYER
  2
CENTER
 70
     0
 62
     3
  6
CENTER
  0
LAYER
  2
SUNPOU
 70
     0
 62
     4
  6
CONTINUOUS
  0
LAYER
  2
WAKU
 70
     0
 62
     5
  6
CONTINUOUS
  0
LAYER
  2
MOJI
 70
     0
 62
     6
  6
CONTINUOUS
  0
LAYER
  2
MOJI2
 70
     0
 62
     1
  6
CONTINUOUS
  0
LAYER
  2
HASEN
 70
     0
 62
     7
  6
HIDDEN
  0
LAYER
  2
HATCH
 70
     0
 62
     2
  6
CONTINUOUS
  0
LAYER
  2
HOJO
 70
     0
 62
    -8
  6
CONTINUOUS
  0
LAYER
  2
DEFPOINTS
 70
     0
 62
     7
  6
CONTINUOUS
  0
ENDTAB
  0
TABLE
  2
STYLE
 70
     8
  0
STYLE
  2
STANDARD
 70
     0
 40
0.0
 41
1.0
 50
0.0
 71
     0
 42
3.0
  3
txt.shx
  4
extfont2.shx
  0
STYLE
  2
KANJI
 70
     0
 40
0.0
 41
1.0
 50
0.0
 71
     0
 42
0.0
  3
ROMANS.SHX
  4
BIGFONT.SHX
  0
STYLE
  2
SIMPLEX
 70
     0
 40
0.0
 41
1.0
 50
0.0
 71
     0
 42
0.0
  3
SCRIPTS.shx
  4

  0
STYLE
  2
TATEEXT
 70
     4
 40
0.0
 41
1.0
 50
0.0
 71
     0
 42
0.0
  3
ROMANS.shx
  4
EXTFONT.shx
  0
STYLE
  2
TATEBIG
 70
     4
 40
0.0
 41
1.0
 50
0.0
 71
     0
 42
0.0
  3
ROMANS.shx
  4
BIGFONT.shx
  0
STYLE
  2
EXT08
 70
     0
 40
0.0
 41
0.8
 50
0.0
 71
     0
 42
45.0
  3
ROMANS.shx
  4
EXTFONT.shx
  0
STYLE
  2
EXT
 70
     0
 40
0.0
 41
1.0
 50
0.0
 71
     0
 42
0.0
  3
ROMANS.shx
  4
EXTFONT.shx
  0
STYLE
  2
KANJI08
 70
     0
 40
0.0
 41
0.8
 50
0.0
 71
     0
 42
0.0
  3
ROMANS.shx
  4
BIGFONT.shx
  0
ENDTAB
  0
TABLE
  2
VIEW
 70
     0
  0
ENDTAB
  0
TABLE
  2
UCS
 70
     0
  0
ENDTAB
  0
TABLE
  2
APPID
 70
     2
  0
APPID
  2
ACAD
 70
     0
  0
APPID
  2
ACAD_PSEXT
 70
     0
  0
ENDTAB
  0
TABLE
  2
DIMSTYLE
 70
     5
  0
DIMSTYLE
  2
ISO-25
 70
     0
  3

  4

  5

  6

  7

 40
1.0
 41
2.5
 42
0.625
 43
3.75
 44
1.25
 45
0.0
 46
0.0
 47
0.0
 48
0.0
140
2.5
141
2.5
142
0.0
143
0.03937007874016
144
1.0
145
0.0
146
1.0
147
0.625
 71
     0
 72
     0
 73
     0
 74
     0
 75
     0
 76
     0
 77
     1
 78
     8
170
     0
171
     3
172
     1
173
     0
174
     0
175
     0
176
     0
177
     0
178
     0
  0
DIMSTYLE
  2
STANDARD
 70
     0
  3

  4

  5

  6

  7

 40
1.0
 41
0.18
 42
0.0625
 43
0.38
 44
0.18
 45
0.0
 46
0.0
 47
0.0
 48
0.0
140
0.18
141
0.09
142
0.0
143
25.399999999999999
144
1.0
145
0.0
146
1.0
147
0.09
 71
     0
 72
     0
 73
     1
 74
     1
 75
     0
 76
     0
 77
     0
 78
     0
170
     0
171
     2
172
     0
173
     0
174
     0
175
     0
176
     0
177
     0
178
     0
  0
DIMSTYLE
  2
RUISEKI1
 70
     0
  3

  4

  5

  6
DOT
  7

 40
15.0
 41
2.0
 42
1.0
 43
6.0
 44
30.0
 45
0.0
 46
0.0
 47
0.0
 48
0.0
140
0.18
141
0.09
142
0.0
143
25.399999999999999
144
1.0
145
0.0
146
1.0
147
1.5
 71
     0
 72
     0
 73
     1
 74
     1
 75
     0
 76
     0
 77
     1
 78
     0
170
     0
171
     2
172
     0
173
     1
174
     0
175
     0
176
     0
177
     0
178
     0
  0
DIMSTYLE
  2
RUISEKI2
 70
     0
  3

  4

  5

  6
NONE
  7

 40
15.0
 41
2.0
 42
1.0
 43
6.0
 44
30.0
 45
0.0
 46
0.0
 47
0.0
 48
0.0
140
0.18
141
0.09
142
0.0
143
25.399999999999999
144
1.0
145
0.0
146
1.0
147
1.5
 71
     0
 72
     0
 73
     1
 74
     1
 75
     0
 76
     0
 77
     1
 78
     0
170
     0
171
     2
172
     0
173
     1
174
     0
175
     0
176
     0
177
     0
178
     0
  0
DIMSTYLE
  2
SJC
 70
     0
  3

  4

  5

  6

  7

 40
1.0
 41
0.18
 42
0.0625
 43
0.38
 44
0.18
 45
0.0
 46
0.0
 47
0.0
 48
0.0
140
0.18
141
0.09
142
0.0
143
25.399999999999999
144
1.0
145
0.0
146
1.0
147
0.09
 71
     0
 72
     0
 73
     1
 74
     1
 75
     0
 76
     0
 77
     0
 78
     0
170
     0
171
     2
172
     0
173
     0
174
     0
175
     0
176
     0
177
     0
178
     0
  0
ENDTAB
  0
ENDSEC
  0
SECTION
  2
BLOCKS
  0
BLOCK
  8
0
  2
$MODEL_SPACE
 70
     0
 10
0.0
 20
0.0
 30
0.0
  3
$MODEL_SPACE
  1

  0
ENDBLK
  5
21
  8
0
  0
BLOCK
 67
     1
  8
0
  2
$PAPER_SPACE
 70
     0
 10
0.0
 20
0.0
 30
0.0
  3
$PAPER_SPACE
  1

  0
ENDBLK
  5
D5
 67
     1
  8
0
  0
BLOCK
  8
0
  2
SEIKO_LS-1100A3
 70
     0
 10
0.0
 20
0.0
 30
0.0
  3
SEIKO_LS-1100A3
  1

  0
POLYLINE
  5
F8
  8
ZWAKU
 66
     1
 10
0.0
 20
0.0
 30
0.0
 70
     1
  0
VERTEX
  5
1704
  8
ZWAKU
 10
0.0
 20
0.0
 30
0.0
  0
VERTEX
  5
1705
  8
ZWAKU
 10
0.0
 20
287.0
 30
0.0
  0
VERTEX
  5
1706
  8
ZWAKU
 10
410.0
 20
287.0
 30
0.0
  0
VERTEX
  5
1707
  8
ZWAKU
 10
410.0
 20
0.0
 30
0.0
  0
SEQEND
  5
1708
  8
ZWAKU
  0
ENDBLK
  5
FA
  8
0
  0
BLOCK
  8
0
  2
_DOT
 70
     0
 10
0.0
 20
0.0
 30
0.0
  3
_DOT
  1

  0
POLYLINE
  5
10F
  8
0
  6
BYBLOCK
 62
     0
 66
     1
 10
0.0
 20
0.0
 30
0.0
 70
     1
 40
0.5
 41
0.5
  0
VERTEX
  5
1709
  8
0
  6
BYBLOCK
 62
     0
 10
-0.25
 20
0.0
 30
0.0
 42
1.0
  0
VERTEX
  5
170A
  8
0
  6
BYBLOCK
 62
     0
 10
0.25
 20
0.0
 30
0.0
 42
1.0
  0
SEQEND
  5
170B
  8
0
  6
BYBLOCK
 62
     0
  0
LINE
  5
110
  8
0
  6
BYBLOCK
 62
     0
 10
-0.5
 20
0.0
 30
0.0
 11
-1.0
 21
0.0
 31
0.0
  0
ENDBLK
  5
112
  8
0
  0
BLOCK
  8
0
  2
_NONE
 70
     0
 10
0.0
 20
0.0
 30
0.0
  3
_NONE
  1

  0
ENDBLK
  5
116
  8
0
  0
BLOCK
  8
0
  2
B0040021
 70
     0
 10
0.0
 20
0.0
 30
0.0
  3
B0040021
  1

  0
LINE
  5
12E
  8
HATCH
 10
90.534596808877254
 20
-7.5000000000002274
 30
0.0
 11
117.0518952133159
 21
-34.017298404438861
 31
0.0
  0
LINE
  5
12F
  8
HATCH
 10
98.034596808877254
 20
0.0
 30
0.0
 11
132.0518952133159
 21
-34.017298404438861
 31
0.0
  0
LINE
  5
130
  8
HATCH
 10
22.5
 20
-7.5000000000002274
 30
0.0
 11
49.017298404438627
 21
-34.017298404438861
 31
0.0
  0
LINE
  5
131
  8
HATCH
 10
30.0
 20
0.0
 30
0.0
 11
-4.0172984044386331
 21
-34.017298404438861
 31
0.0
  0
LINE
  5
132
  8
HATCH
 10
15.0
 20
-15.000000000000229
 30
0.0
 11
34.017298404438627
 21
-34.017298404438861
 31
0.0
  0
LINE
  5
133
  8
HATCH
 10
0.0
 20
0.0
 30
0.0
 11
-34.017298404438627
 21
-34.017298404438861
 31
0.0
  0
LINE
  5
134
  8
HATCH
 10
15.0
 20
0.0
 30
0.0
 11
-19.01729840443863
 21
-34.017298404438861
 31
0.0
  0
LINE
  5
135
  8
HATCH
 10
83.034596808877254
 20
0.0
 30
0.0
 11
56.517298404438861
 21
-26.51729840443863
 31
0.0
  0
LINE
  5
136
  8
HATCH
 10
98.034596808877254
 20
0.0
 30
0.0
 11
64.017298404438634
 21
-34.017298404438861
 31
0.0
  0
LINE
  5
137
  8
HATCH
 10
68.034596808877254
 20
0.0
 30
0.0
 11
49.017298404438861
 21
-19.01729840443863
 31
0.0
  0
LINE
  5
138
  8
HATCH
 10
30.0
 20
0.0
 30
0.0
 11
64.017298404438634
 21
-34.017298404438861
 31
0.0
  0
LINE
  5
139
  8
HATCH
 10
83.034596808877254
 20
-15.000000000000229
 30
0.0
 11
102.0518952133159
 21
-34.017298404438861
 31
0.0
  0
ENDBLK
  5
13A
  8
0
  0
BLOCK
  8
0
  2
*D5
 70
     1
 10
0.0
 20
0.0
 30
0.0
  3
*D5
  1

  0
LINE
  5
170C
  8
SUNPOU
 10
1786.7125721558259
 20
2728.4226279959089
 30
0.0
 11
1786.7125721558259
 21
3198.0425213434009
 31
0.0
  0
LINE
  5
170D
  8
SUNPOU
 10
3286.7125721558259
 20
2728.4226279959089
 30
0.0
 11
3286.7125721558259
 21
3198.0425213434009
 31
0.0
  0
LINE
  5
170E
  8
SUNPOU
 10
1816.7125721558259
 20
3183.0425213434009
 30
0.0
 11
3256.7125721558259
 21
3183.0425213434009
 31
0.0
  0
SOLID
  5
170F
  8
SUNPOU
 10
1816.7125721558259
 20
3188.0425213434009
 30
0.0
 11
1816.7125721558259
 21
3178.0425213434
 31
0.0
 12
1786.7125721558259
 22
3183.0425213434009
 32
0.0
 13
1786.7125721558259
 23
3183.0425213434009
 33
0.0
  0
SOLID
  5
1710
  8
SUNPOU
 10
3256.7125721558259
 20
3188.0425213434009
 30
0.0
 11
3256.7125721558259
 21
3178.0425213434
 31
0.0
 12
3286.7125721558259
 22
3183.0425213434009
 32
0.0
 13
3286.7125721558259
 23
3183.0425213434009
 33
0.0
  0
TEXT
  8
SUNPOU
  40
45
  5
17F3
  72
0
  71
0
 10
2446.71
 20
3143.89
 30
0.000000
  1
1500
  7
KANJI08
  0
POINT
  5
1712
  8
DEFPOINTS
 62
     0
 10
1786.7125721558259
 20
2713.4226279959089
 30
0.0
  0
POINT
  5
1713
  8
DEFPOINTS
 62
     0
 10
3286.7125721558259
 20
2713.4226279959089
 30
0.0
  0
POINT
  5
1714
  8
DEFPOINTS
 62
     0
 10
3286.7125721558259
 20
3183.0425213434009
 30
0.0
  0
ENDBLK
  5
418
  8
0
  0
BLOCK
  8
0
  2
*D6
 70
     1
 10
0.0
 20
0.0
 30
0.0
  3
*D6
  1

  0
LINE
  5
1715
  8
SUNPOU
 10
1706.312572155826
 20
1901.572627995909
 30
0.0
 11
1274.952722366379
 21
1901.572627995909
 31
0.0
  0
LINE
  5
1716
  8
SUNPOU
 10
1361.1739062937299
 20
2151.572627995909
 30
0.0
 11
1274.952722366379
 21
2151.572627995909
 31
0.0
  0
LINE
  5
1717
  8
SUNPOU
 10
1289.952722366379
 20
1931.572627995909
 30
0.0
 11
1289.952722366379
 21
2121.572627995909
 31
0.0
  0
SOLID
  5
1718
  8
SUNPOU
 10
1284.952722366379
 20
1931.572627995909
 30
0.0
 11
1294.952722366379
 21
1931.572627995909
 31
0.0
 12
1289.952722366379
 22
1901.572627995909
 32
0.0
 13
1289.952722366379
 23
1901.572627995909
 33
0.0
  0
SOLID
  5
1719
  8
SUNPOU
 10
1284.952722366379
 20
2121.572627995909
 30
0.0
 11
1294.952722366379
 21
2121.572627995909
 31
0.0
 12
1289.952722366379
 22
2151.572627995909
 32
0.0
 13
1289.952722366379
 23
2151.572627995909
 33
0.0
  0
TEXT
  8
SUNPOU
  40
45
  5
17F4
  72
0
  71
0
 10
1159.45
 20
1946.92
 30
0.000000
  1
250
  7
KANJI08
  0
POINT
  5
171B
  8
DEFPOINTS
 62
     0
 10
1721.312572155826
 20
1901.572627995909
 30
0.0
  0
POINT
  5
171C
  8
DEFPOINTS
 62
     0
 10
1376.1739062937299
 20
2151.572627995909
 30
0.0
  0
POINT
  5
171D
  8
DEFPOINTS
 62
     0
 10
1289.952722366379
 20
2151.572627995909
 30
0.0
  0
ENDBLK
  5
42D
  8
0
  0
BLOCK
  8
0
  2
*D7
 70
     1
 10
0.0
 20
0.0
 30
0.0
  3
*D7
  1

  0
LINE
  5
171E
  8
SUNPOU
 10
1706.312572155826
 20
1901.572627995909
 30
0.0
 11
1108.862839882589
 21
1901.572627995909
 31
0.0
  0
LINE
  5
171F
  8
SUNPOU
 10
1931.7125721558259
 20
2951.572627995909
 30
0.0
 11
1108.862839882589
 21
2951.572627995909
 31
0.0
  0
LINE
  5
1720
  8
SUNPOU
 10
1123.862839882589
 20
1931.572627995909
 30
0.0
 11
1123.862839882589
 21
2921.572627995909
 31
0.0
  0
SOLID
  5
1721
  8
SUNPOU
 10
1118.862839882589
 20
1931.572627995909
 30
0.0
 11
1128.862839882589
 21
1931.572627995909
 31
0.0
 12
1123.862839882589
 22
1901.572627995909
 32
0.0
 13
1123.862839882589
 23
1901.572627995909
 33
0.0
  0
SOLID
  5
1722
  8
SUNPOU
 10
1118.862839882589
 20
2921.572627995909
 30
0.0
 11
1128.862839882589
 21
2921.572627995909
 31
0.0
 12
1123.862839882589
 22
2951.572627995909
 32
0.0
 13
1123.862839882589
 23
2951.572627995909
 33
0.0
  0
TEXT
  8
SUNPOU
  40
45
  5
17F5
  72
0
  71
0
 10
993.363
 20
2346.92
 30
0.000000
  1
1050
  7
KANJI08
  0
POINT
  5
1724
  8
DEFPOINTS
 62
     0
 10
1721.312572155826
 20
1901.572627995909
 30
0.0
  0
POINT
  5
1725
  8
DEFPOINTS
 62
     0
 10
1946.7125721558259
 20
2951.572627995909
 30
0.0
  0
POINT
  5
1726
  8
DEFPOINTS
 62
     0
 10
1123.862839882589
 20
2951.572627995909
 30
0.0
  0
ENDBLK
  5
45D
  8
0
  0
BLOCK
  8
0
  2
*D8
 70
     1
 10
0.0
 20
0.0
 30
0.0
  3
*D8
  1

  0
LINE
  5
1727
  8
SUNPOU
 62
     0
 10
1986.712572155828
 20
2713.4226279959112
 30
0.0
 11
1865.2139849325749
 21
2832.3263424154102
 31
0.0
  0
TEXT
  8
SUNPOU
  40
45
  5
17F6
  62
0
  72
0
  71
0
 10
1883.17
 20
2711.04
 30
0.000000
  1
R200
  7
EXT08
  0
SOLID
  5
1729
  8
SUNPOU
 62
     0
 10
1868.7111530037371
 20
2835.8998302749178
 30
0.0
 11
1861.7168168614139
 21
2828.752854555903
 31
0.0
 12
1843.773057775531
 22
2853.3093508423799
 32
0.0
 13
1843.773057775531
 23
2853.3093508423799
 33
0.0
  0
POINT
  5
172A
  8
DEFPOINTS
 62
     0
 10
1843.773057775531
 20
2853.3093508423799
 30
0.0
  0
POINT
  5
172B
  8
DEFPOINTS
 62
     0
 10
1986.712572155828
 20
2713.4226279959112
 30
0.0
  0
ENDBLK
  5
509
  8
0
  0
BLOCK
  8
0
  2
*D9
 70
     1
 10
0.0
 20
0.0
 30
0.0
  3
*D9
  1

  0
LINE
  5
172C
  8
SUNPOU
 62
     0
 10
1871.6125721558251
 20
2151.572627995909
 30
0.0
 11
2095.3724670335691
 21
2151.572627995909
 31
0.0
  0
LINE
  5
172D
  8
SUNPOU
 62
     0
 10
1871.612572155826
 20
951.57262799590865
 30
0.0
 11
2095.3724670335691
 21
951.57262799590865
 31
0.0
  0
LINE
  5
172E
  8
SUNPOU
 62
     0
 10
2080.3724670335691
 20
2121.572627995909
 30
0.0
 11
2080.3724670335691
 21
981.57262799590876
 31
0.0
  0
SOLID
  5
172F
  8
SUNPOU
 62
     0
 10
2075.3724670335691
 20
2121.572627995909
 30
0.0
 11
2085.3724670335691
 21
2121.572627995909
 31
0.0
 12
2080.3724670335691
 22
2151.572627995909
 32
0.0
 13
2080.3724670335691
 23
2151.572627995909
 33
0.0
  0
SOLID
  5
1730
  8
SUNPOU
 62
     0
 10
2075.3724670335678
 20
981.57262799590876
 30
0.0
 11
2085.3724670335691
 21
981.57262799590876
 31
0.0
 12
2080.3724670335691
 22
951.57262799590865
 32
0.0
 13
2080.3724670335691
 23
951.57262799590865
 33
0.0
  0
TEXT
  8
SUNPOU
  40
45
  5
17F7
  62
0
  72
0
  71
0
 10
1949.87
 20
1471.92
 30
0.000000
  1
1200
  7
EXT08
  0
POINT
  5
1732
  8
DEFPOINTS
 62
     0
 10
1856.612572155826
 20
2151.572627995909
 30
0.0
  0
POINT
  5
1733
  8
DEFPOINTS
 62
     0
 10
1856.612572155826
 20
951.57262799590865
 30
0.0
  0
POINT
  5
1734
  8
DEFPOINTS
 62
     0
 10
2080.3724670335691
 20
951.57262799590865
 30
0.0
  0
ENDBLK
  5
1021
  8
0
  0
BLOCK
  8
0
  2
*D10
 70
     1
 10
0.0
 20
0.0
 30
0.0
  3
*D10
  1

  0
LINE
  5
174F
  8
SUNPOU
 62
     0
 10
1867.112572155826
 20
1851.572627995909
 30
0.0
 11
1996.6950409648889
 21
1851.572627995909
 31
0.0
  0
LINE
  5
1750
  8
SUNPOU
 62
     0
 10
1871.6125721558251
 20
2151.572627995909
 30
0.0
 11
1996.6950409648889
 21
2151.572627995909
 31
0.0
  0
LINE
  5
1751
  8
SUNPOU
 62
     0
 10
1981.6950409648889
 20
1881.572627995909
 30
0.0
 11
1981.6950409648889
 21
2121.572627995909
 31
0.0
  0
SOLID
  5
1752
  8
SUNPOU
 62
     0
 10
1976.6950409648889
 20
1881.572627995909
 30
0.0
 11
1986.6950409648889
 21
1881.572627995909
 31
0.0
 12
1981.6950409648889
 22
1851.572627995909
 32
0.0
 13
1981.6950409648889
 23
1851.572627995909
 33
0.0
  0
SOLID
  5
1753
  8
SUNPOU
 62
     0
 10
1976.6950409648889
 20
2121.572627995909
 30
0.0
 11
1986.6950409648889
 21
2121.572627995909
 31
0.0
 12
1981.6950409648889
 22
2151.572627995909
 32
0.0
 13
1981.6950409648889
 23
2151.572627995909
 33
0.0
  0
TEXT
  8
SUNPOU
  40
45
  5
17F8
  62
0
  72
0
  71
0
 10
1851.20
 20
1921.92
 30
0.000000
  1
300
  7
EXT08
  0
POINT
  5
1755
  8
DEFPOINTS
 62
     0
 10
1852.112572155826
 20
1851.572627995909
 30
0.0
  0
POINT
  5
1756
  8
DEFPOINTS
 62
     0
 10
1856.612572155826
 20
2151.572627995909
 30
0.0
  0
POINT
  5
1757
  8
DEFPOINTS
 62
     0
 10
1981.6950409648889
 20
2151.572627995909
 30
0.0
  0
ENDBLK
  5
117C
  8
0
  0
BLOCK
  8
0
  2
*D11
 70
     1
 10
0.0
 20
0.0
 30
0.0
  3
*D11
  1

  0
LINE
  5
17B6
  8
SUNPOU
 62
     0
 10
4991.773543537568
 20
2902.8668766680948
 30
0.0
 11
4822.477940907067
 21
2902.8668766680948
 31
0.0
  0
LINE
  5
17B7
  8
SUNPOU
 62
     0
 10
4991.7735435375662
 20
1702.8668766680939
 30
0.0
 11
4822.4779409070661
 21
1702.8668766680939
 31
0.0
  0
LINE
  5
17B8
  8
SUNPOU
 62
     0
 10
4837.4779409070661
 20
2872.8668766680948
 30
0.0
 11
4837.4779409070652
 21
1732.8668766680951
 31
0.0
  0
SOLID
  5
17B9
  8
SUNPOU
 62
     0
 10
4832.4779409070661
 20
2872.8668766680948
 30
0.0
 11
4842.4779409070661
 21
2872.8668766680948
 31
0.0
 12
4837.4779409070661
 22
2902.8668766680948
 32
0.0
 13
4837.4779409070661
 23
2902.8668766680948
 33
0.0
  0
SOLID
  5
17BA
  8
SUNPOU
 62
     0
 10
4832.4779409070652
 20
1732.8668766680951
 30
0.0
 11
4842.4779409070652
 21
1732.8668766680951
 31
0.0
 12
4837.4779409070652
 22
1702.8668766680939
 32
0.0
 13
4837.4779409070652
 23
1702.8668766680939
 33
0.0
  0
TEXT
  8
SUNPOU
  40
45
  5
17F9
  62
0
  72
0
  71
0
 10
4706.98
 20
2223.22
 30
0.000000
  1
1200
  7
EXT08
  0
POINT
  5
17BC
  8
DEFPOINTS
 62
     0
 10
5006.7735435375671
 20
2902.8668766680948
 30
0.0
  0
POINT
  5
17BD
  8
DEFPOINTS
 62
     0
 10
5006.7735435375653
 20
1702.8668766680939
 30
0.0
  0
POINT
  5
17BE
  8
DEFPOINTS
 62
     0
 10
4837.4779409070652
 20
1702.8668766680939
 30
0.0
  0
ENDBLK
  5
1575
  8
0
  0
BLOCK
  8
0
  2
*D12
 70
     1
 10
0.0
 20
0.0
 30
0.0
  3
*D12
  1

  0
LINE
  5
17BF
  8
SUNPOU
 62
     0
 10
5156.0539563478396
 20
3254.2536255186901
 30
0.0
 11
5179.891918152729
 21
3272.4676744092772
 31
0.0
  0
LINE
  5
17C0
  8
SUNPOU
 62
     0
 10
4997.2931307272856
 20
3132.9480599073831
 30
0.0
 11
4973.455168922399
 21
3114.7340110167961
 31
0.0
  0
TEXT
  8
SUNPOU
  40
45
  5
17FA
  62
0
  72
0
  71
0
 10
5094.48
 20
3246.61
 30
0.000000
  1
?139.8
  7
EXT08
  0
LINE
  5
17C2
  8
SUNPOU
 62
     0
 10
5132.2159945429521
 20
3236.0395766281031
 30
0.0
 11
5021.1310925321759
 21
3151.1621087979688
 31
0.0
  0
SOLID
  5
17C3
  8
SUNPOU
 62
     0
 10
5153.0182815327425
 20
3258.2266191528379
 30
0.0
 11
5159.0896311629376
 21
3250.2806318845419
 31
0.0
 12
5132.2159945429521
 22
3236.0395766281031
 32
0.0
 13
5132.2159945429521
 23
3236.0395766281031
 33
0.0
  0
SOLID
  5
17C4
  8
SUNPOU
 62
     0
 10
4994.2574559121886
 20
3136.9210535415309
 30
0.0
 11
5000.3288055423836
 21
3128.975066273234
 31
0.0
 12
5021.1310925321759
 22
3151.1621087979688
 32
0.0
 13
5021.1310925321759
 23
3151.1621087979688
 33
0.0
  0
POINT
  5
17C5
  8
DEFPOINTS
 62
     0
 10
5021.1310925321759
 20
3151.1621087979688
 30
0.0
  0
POINT
  5
17C6
  8
DEFPOINTS
 62
     0
 10
5132.2159945429521
 20
3236.0395766281031
 30
0.0
  0
ENDBLK
  5
1580
  8
0
  0
BLOCK
  8
0
  2
*D13
 70
     1
 10
0.0
 20
0.0
 30
0.0
  3
*D13
  1

  0
LINE
  5
17CF
  8
SUNPOU
 10
3301.7125721558259
 20
2651.5726279959099
 30
0.0
 11
3798.4724219452728
 21
2651.5726279959099
 31
0.0
  0
LINE
  5
17D0
  8
SUNPOU
 10
3101.7125721558259
 20
2951.572627995909
 30
0.0
 11
3798.4724219452728
 21
2951.572627995909
 31
0.0
  0
LINE
  5
17D1
  8
SUNPOU
 10
3783.4724219452728
 20
2681.5726279959099
 30
0.0
 11
3783.4724219452728
 21
2921.572627995909
 31
0.0
  0
SOLID
  5
17D2
  8
SUNPOU
 10
3778.4724219452728
 20
2681.5726279959099
 30
0.0
 11
3788.4724219452728
 21
2681.5726279959099
 31
0.0
 12
3783.4724219452728
 22
2651.5726279959099
 32
0.0
 13
3783.4724219452728
 23
2651.5726279959099
 33
0.0
  0
SOLID
  5
17D3
  8
SUNPOU
 10
3778.4724219452728
 20
2921.572627995909
 30
0.0
 11
3788.4724219452728
 21
2921.572627995909
 31
0.0
 12
3783.4724219452728
 22
2951.572627995909
 32
0.0
 13
3783.4724219452728
 23
2951.572627995909
 33
0.0
  0
TEXT
  8
SUNPOU
  40
45
  5
17FB
  72
0
  71
0
 10
3652.97
 20
2721.92
 30
0.000000
  1
300
  7
KANJI08
  0
POINT
  5
17D5
  8
DEFPOINTS
 62
     0
 10
3286.7125721558259
 20
2651.5726279959099
 30
0.0
  0
POINT
  5
17D6
  8
DEFPOINTS
 62
     0
 10
3086.7125721558259
 20
2951.572627995909
 30
0.0
  0
POINT
  5
17D7
  8
DEFPOINTS
 62
     0
 10
3783.4724219452728
 20
2951.572627995909
 30
0.0
  0
ENDBLK
  5
15CB
  8
0
  0
BLOCK
  8
0
  2
*D14
 70
     1
 10
0.0
 20
0.0
 30
0.0
  3
*D14
  1

  0
LINE
  5
17D8
  8
SUNPOU
 62
     0
 10
3301.7125721558259
 20
2651.5726279959099
 30
0.0
 11
3798.4724219452728
 21
2651.5726279959099
 31
0.0
  0
LINE
  5
17D9
  8
SUNPOU
 62
     0
 10
3301.7125721558259
 20
2401.5726279958958
 30
0.0
 11
3798.4724219452728
 21
2401.5726279958958
 31
0.0
  0
LINE
  5
17DA
  8
SUNPOU
 62
     0
 10
3783.4724219452728
 20
2621.5726279959099
 30
0.0
 11
3783.4724219452728
 21
2431.5726279958958
 31
0.0
  0
SOLID
  5
17DB
  8
SUNPOU
 62
     0
 10
3778.4724219452728
 20
2621.5726279959099
 30
0.0
 11
3788.4724219452728
 21
2621.5726279959099
 31
0.0
 12
3783.4724219452728
 22
2651.5726279959099
 32
0.0
 13
3783.4724219452728
 23
2651.5726279959099
 33
0.0
  0
SOLID
  5
17DC
  8
SUNPOU
 62
     0
 10
3778.4724219452728
 20
2431.5726279958958
 30
0.0
 11
3788.4724219452728
 21
2431.5726279958958
 31
0.0
 12
3783.4724219452728
 22
2401.5726279958958
 32
0.0
 13
3783.4724219452728
 23
2401.5726279958958
 33
0.0
  0
TEXT
  8
SUNPOU
  40
45
  5
17FC
  62
0
  72
0
  71
0
 10
3652.97
 20
2446.92
 30
0.000000
  1
250
  7
EXT08
  0
POINT
  5
17DE
  8
DEFPOINTS
 62
     0
 10
3286.7125721558259
 20
2651.5726279959099
 30
0.0
  0
POINT
  5
17DF
  8
DEFPOINTS
 62
     0
 10
3286.7125721558259
 20
2401.5726279958958
 30
0.0
  0
POINT
  5
17E0
  8
DEFPOINTS
 62
     0
 10
3783.4724219452728
 20
2401.5726279958958
 30
0.0
  0
ENDBLK
  5
15D7
  8
0
  0
BLOCK
  8
0
  2
*D15
 70
     1
 10
0.0
 20
0.0
 30
0.0
  3
*D15
  1

  0
LINE
  5
17E1
  8
SUNPOU
 62
     0
 10
3301.7125721558259
 20
2401.5726279958958
 30
0.0
 11
3798.4724219452728
 21
2401.5726279958958
 31
0.0
  0
LINE
  5
17E2
  8
SUNPOU
 62
     0
 10
3712.2512380179219
 20
2151.572627995909
 30
0.0
 11
3798.4724219452728
 21
2151.572627995909
 31
0.0
  0
LINE
  5
17E3
  8
SUNPOU
 62
     0
 10
3783.4724219452728
 20
2371.5726279958958
 30
0.0
 11
3783.4724219452728
 21
2181.572627995909
 31
0.0
  0
SOLID
  5
17E4
  8
SUNPOU
 62
     0
 10
3778.4724219452728
 20
2371.5726279958958
 30
0.0
 11
3788.4724219452728
 21
2371.5726279958958
 31
0.0
 12
3783.4724219452728
 22
2401.5726279958958
 32
0.0
 13
3783.4724219452728
 23
2401.5726279958958
 33
0.0
  0
SOLID
  5
17E5
  8
SUNPOU
 62
     0
 10
3778.4724219452728
 20
2181.572627995909
 30
0.0
 11
3788.4724219452728
 21
2181.572627995909
 31
0.0
 12
3783.4724219452728
 22
2151.572627995909
 32
0.0
 13
3783.4724219452728
 23
2151.572627995909
 33
0.0
  0
TEXT
  8
SUNPOU
  40
45
  5
17FD
  62
0
  72
0
  71
0
 10
3652.97
 20
2196.92
 30
0.000000
  1
250
  7
EXT08
  0
POINT
  5
17E7
  8
DEFPOINTS
 62
     0
 10
3286.7125721558259
 20
2401.5726279958958
 30
0.0
  0
POINT
  5
17E8
  8
DEFPOINTS
 62
     0
 10
3697.2512380179219
 20
2151.572627995909
 30
0.0
  0
POINT
  5
17E9
  8
DEFPOINTS
 62
     0
 10
3783.4724219452728
 20
2151.572627995909
 30
0.0
  0
ENDBLK
  5
15E3
  8
0
  0
BLOCK
  8
0
  2
*D16
 70
     1
 10
0.0
 20
0.0
 30
0.0
  3
*D16
  1

  0
LINE
  5
17EA
  8
SUNPOU
 62
     0
 10
1361.1739062937299
 20
2151.572627995909
 30
0.0
 11
1274.952722366379
 21
2151.572627995909
 31
0.0
  0
LINE
  5
17EB
  8
SUNPOU
 62
     0
 10
1971.7125721558259
 20
2951.572627995909
 30
0.0
 11
1274.952722366379
 21
2951.572627995909
 31
0.0
  0
LINE
  5
17EC
  8
SUNPOU
 62
     0
 10
1289.952722366379
 20
2181.572627995909
 30
0.0
 11
1289.952722366379
 21
2921.572627995909
 31
0.0
  0
SOLID
  5
17ED
  8
SUNPOU
 62
     0
 10
1284.952722366379
 20
2181.572627995909
 30
0.0
 11
1294.952722366379
 21
2181.572627995909
 31
0.0
 12
1289.952722366379
 22
2151.572627995909
 32
0.0
 13
1289.952722366379
 23
2151.572627995909
 33
0.0
  0
SOLID
  5
17EE
  8
SUNPOU
 62
     0
 10
1284.952722366379
 20
2921.572627995909
 30
0.0
 11
1294.952722366379
 21
2921.572627995909
 31
0.0
 12
1289.952722366379
 22
2951.572627995909
 32
0.0
 13
1289.952722366379
 23
2951.572627995909
 33
0.0
  0
TEXT
  8
SUNPOU
  40
45
  5
17FE
  62
0
  72
0
  71
0
 10
1159.45
 20
2471.92
 30
0.000000
  1
800
  7
EXT08
  0
POINT
  5
17F0
  8
DEFPOINTS
 62
     0
 10
1376.1739062937299
 20
2151.572627995909
 30
0.0
  0
POINT
  5
17F1
  8
DEFPOINTS
 62
     0
 10
1986.7125721558259
 20
2951.572627995909
 30
0.0
  0
POINT
  5
17F2
  8
DEFPOINTS
 62
     0
 10
1289.952722366379
 20
2951.572627995909
 30
0.0
  0
ENDBLK
  5
160B
  8
0
  0
BLOCK
  8
0
  2
*U17
 70
     1
 10
0.0
 20
0.0
 30
0.0
  3
*U17
  1

  0
SOLID
  5
1736
  8
MOJI
 10
3336.6596751726388
 20
2179.6052582758289
 30
0.0
 11
3324.862572155826
 21
2151.572627995909
 31
0.0
 12
3326.9303300539191
 22
2181.9160684283129
 32
0.0
 13
3326.9303300539191
 23
2181.9160684283129
 33
0.0
  0
POLYLINE
  5
1737
  8
MOJI
 66
     1
 10
0.0
 20
0.0
 30
0.0
  0
VERTEX
  5
1738
  8
MOJI
 10
3331.795002613278
 20
2180.7606633520709
 30
0.0
  0
VERTEX
  5
1739
  8
MOJI
 10
3360.12186348969
 20
2300.0269757751521
 30
0.0
  0
VERTEX
  5
173A
  8
MOJI
 10
3705.7218634896908
 20
2300.0269757751521
 30
0.0
  0
SEQEND
  5
173B
  8
MOJI
  0
ENDBLK
  5
173D
  8
0
  0
BLOCK
  8
0
  2
*U18
 70
     1
 10
0.0
 20
0.0
 30
0.0
  3
*U18
  1

  0
TEXT
  5
173F
  8
MOJI
 10
3408.1218634896909
 20
2318.0269757751521
 30
0.0
 40
45.0
  1
モルタル充テン
 41
0.8
  7
EXT08
  0
ENDBLK
  5
1741
  8
0
  0
BLOCK
  8
0
  2
*U19
 70
     1
 10
0.0
 20
0.0
 30
0.0
  3
*U19
  1

  0
SOLID
  5
1743
  8
MOJI
 10
1870.8162428408659
 20
1624.679213577673
 30
0.0
 11
1856.612572155826
 21
1651.5726279959081
 31
0.0
 12
1878.7706653178591
 22
1630.7395075521849
 32
0.0
 13
1878.7706653178591
 23
1630.7395075521849
 33
0.0
  0
POLYLINE
  5
1744
  8
MOJI
 66
     1
 10
0.0
 20
0.0
 30
0.0
  0
VERTEX
  5
1745
  8
MOJI
 10
1874.7934540793619
 20
1627.7093605649291
 30
0.0
  0
VERTEX
  5
1746
  8
MOJI
 10
2111.0184347917061
 20
1317.652900579953
 30
0.0
  0
VERTEX
  5
1747
  8
MOJI
 10
2286.9041490774198
 20
1317.652900579953
 30
0.0
  0
SEQEND
  5
1748
  8
MOJI
  0
ENDBLK
  5
174A
  8
0
  0
BLOCK
  8
0
  2
*U20
 70
     1
 10
0.0
 20
0.0
 30
0.0
  3
*U20
  1

  0
TEXT
  5
174C
  8
MOJI
 10
2159.0184347917061
 20
1335.652900579953
 30
0.0
 40
45.0
  1
鋼管杭
 41
0.8
  7
EXT08
  0
ENDBLK
  5
174E
  8
0
  0
BLOCK
  8
0
  2
*X21
 70
     1
 10
0.0
 20
0.0
 30
0.0
  3
*X21
  1

  0
LINE
  5
1759
  8
0
 62
     0
 10
3259.81688807514
 20
1863.0999952319571
 30
0.0
 11
3259.81688807514
 21
1863.0999952319571
 31
0.0
  0
LINE
  5
175A
  8
0
 62
     0
 10
3333.8814787681508
 20
1875.8132407486239
 30
0.0
 11
3333.8814787681508
 21
1875.8132407486239
 31
0.0
  0
LINE
  5
175B
  8
0
 62
     0
 10
3339.1249164566188
 20
1951.5894541951741
 30
0.0
 11
3339.1249164566188
 21
1951.5894541951741
 31
0.0
  0
LINE
  5
175C
  8
0
 62
     0
 10
3334.255858193399
 20
2036.6320629293809
 30
0.0
 11
3334.255858193399
 21
2036.6320629293809
 31
0.0
  0
LINE
  5
175D
  8
0
 62
     0
 10
3339.4992958818671
 20
2112.408276375932
 30
0.0
 11
3339.4992958818671
 21
2112.408276375932
 31
0.0
  0
LINE
  5
175E
  8
0
 62
     0
 10
3274.199953495799
 20
1857.7295712417069
 30
0.0
 11
3274.199953495799
 21
1857.7295712417069
 31
0.0
  0
LINE
  5
175F
  8
0
 62
     0
 10
3341.9952510792359
 20
1854.8651992453699
 30
0.0
 11
3341.9952510792359
 21
1854.8651992453699
 31
0.0
  0
LINE
  5
1760
  8
0
 62
     0
 10
3231.671216052453
 20
1925.1493610132179
 30
0.0
 11
3231.671216052453
 21
1925.1493610132179
 31
0.0
  0
LINE
  5
1761
  8
0
 62
     0
 10
3326.2441920404472
 20
1905.2257264518701
 30
0.0
 11
3326.2441920404472
 21
1905.2257264518701
 31
0.0
  0
LINE
  5
1762
  8
0
 62
     0
 10
3240.65116358566
 20
2040.406491246192
 30
0.0
 11
3240.65116358566
 21
2040.406491246192
 31
0.0
  0
LINE
  5
1763
  8
0
 62
     0
 10
3349.464080347972
 20
2051.7370098185311
 30
0.0
 11
3349.464080347972
 21
2051.7370098185311
 31
0.0
  0
LINE
  5
1764
  8
0
 62
     0
 10
3238.6044917530962
 20
2122.3623568376802
 30
0.0
 11
3238.6044917530962
 21
2122.3623568376802
 31
0.0
  0
LINE
  5
1765
  8
0
 62
     0
 10
3333.4353289818569
 20
1895.244465301324
 30
0.0
 11
3333.4353289818569
 21
1895.244465301324
 31
0.0
  0
LINE
  5
1766
  8
0
 62
     0
 10
3301.6421708897528
 20
1891.0588166323071
 30
0.0
 11
3301.6421708897528
 21
1891.0588166323071
 31
0.0
  0
LINE
  5
1767
  8
0
 62
     0
 10
3221.4352730494729
 20
1880.4993782078971
 30
0.0
 11
3221.4352730494729
 21
1880.4993782078971
 31
0.0
  0
LINE
  5
1768
  8
0
 62
     0
 10
3335.0520021449061
 20
1941.1491040413671
 30
0.0
 11
3335.0520021449061
 21
1941.1491040413671
 31
0.0
  0
LINE
  5
1769
  8
0
 62
     0
 10
3240.1559795550902
 20
1974.347605336653
 30
0.0
 11
3240.1559795550902
 21
1974.347605336653
 31
0.0
  0
LINE
  5
176A
  8
0
 62
     0
 10
3241.772652718138
 20
2020.2522440766959
 30
0.0
 11
3241.772652718138
 21
2020.2522440766959
 31
0.0
  0
LINE
  5
176B
  8
0
 62
     0
 10
3340.385473320548
 20
2124.6184675638319
 30
0.0
 11
3340.385473320548
 21
2124.6184675638319
 31
0.0
  0
LINE
  5
176C
  8
0
 62
     0
 10
3228.3854173881641
 20
2109.8733804704061
 30
0.0
 11
3228.3854173881641
 21
2109.8733804704061
 31
0.0
  0
LINE
  5
176D
  8
0
 62
     0
 10
3345.776825832655
 20
1853.4045343778939
 30
0.0
 11
3345.776825832655
 21
1853.4045343778939
 31
0.0
  0
LINE
  5
176E
  8
0
 62
     0
 10
3347.3211274579512
 20
1895.6820538144709
 30
0.0
 11
3347.3211274579512
 21
1895.6820538144709
 31
0.0
  0
LINE
  5
176F
  8
0
 62
     0
 10
3348.8654290832469
 20
1937.959573251047
 30
0.0
 11
3348.8654290832469
 21
1937.959573251047
 31
0.0
  0
LINE
  5
1770
  8
0
 62
     0
 10
3282.1146624144931
 20
1886.7399085178261
 30
0.0
 11
3282.1146624144931
 21
1886.7399085178261
 31
0.0
  0
LINE
  5
1771
  8
0
 62
     0
 10
3350.4097307085422
 20
1980.237092687624
 30
0.0
 11
3350.4097307085422
 21
1980.237092687624
 31
0.0
  0
LINE
  5
1772
  8
0
 62
     0
 10
3351.9540323338392
 20
2022.514612124201
 30
0.0
 11
3351.9540323338392
 21
2022.514612124201
 31
0.0
  0
LINE
  5
1773
  8
0
 62
     0
 10
3222.329734815592
 20
2046.327995706358
 30
0.0
 11
3222.329734815592
 21
2046.327995706358
 31
0.0
  0
LINE
  5
1774
  8
0
 62
     0
 10
3223.8740364408882
 20
2088.6055151429332
 30
0.0
 11
3223.8740364408882
 21
2088.6055151429332
 31
0.0
  0
LINE
  5
1775
  8
0
 62
     0
 10
3225.418338066183
 20
2130.88303457951
 30
0.0
 11
3225.418338066183
 21
2130.88303457951
 31
0.0
  0
LINE
  5
1776
  8
0
 62
     0
 10
3337.6153034716408
 20
2072.7545842525751
 30
0.0
 11
3340.1903953308142
 21
2080.4290827323989
 31
0.0
  0
LINE
  5
1777
  8
0
 62
     0
 10
3275.8130988515072
 20
1888.5666207367931
 30
0.0
 11
3278.3881907106788
 21
1896.2411192166171
 31
0.0
  0
LINE
  5
1778
  8
0
 62
     0
 10
3230.9070580865791
 20
2031.7931553945471
 30
0.0
 11
3233.4821499457498
 21
2039.4676538743711
 31
0.0
  0
LINE
  5
1779
  8
0
 62
     0
 10
3269.4941969473548
 20
1892.8259239274671
 30
0.0
 11
3275.8114632502238
 21
1888.5648740030199
 31
0.0
  0
LINE
  5
177A
  8
0
 62
     0
 10
3224.5880154867459
 20
2036.0525060819921
 30
0.0
 11
3230.9052817896159
 21
2031.7914561575451
 31
0.0
  0
LINE
  5
177B
  8
0
 62
     0
 10
3331.2962252950019
 20
2077.0138900497868
 30
0.0
 11
3337.6134915978719
 21
2072.7528401253389
 31
0.0
  0
LINE
  5
177C
  8
0
 62
     0
 10
3269.4948475932711
 20
1892.8294563623119
 30
0.0
 11
3278.3872011556568
 21
1896.2429110817311
 31
0.0
  0
LINE
  5
177D
  8
0
 62
     0
 10
3331.2964532551482
 20
2077.0178881451302
 30
0.0
 11
3340.188806817534
 21
2080.4313428645501
 31
0.0
  0
LINE
  5
177E
  8
0
 62
     0
 10
3224.588210506517
 20
2036.056431512103
 30
0.0
 11
3233.4805640689028
 21
2039.469886231522
 31
0.0
  0
LINE
  5
177F
  8
0
 62
     0
 10
3323.9457291892231
 20
1877.572148974516
 30
0.0
 11
3322.4773401595489
 21
1885.53285614521
 31
0.0
  0
LINE
  5
1780
  8
0
 62
     0
 10
3232.8538100001579
 20
1885.5422911126941
 30
0.0
 11
3231.385420970485
 21
1893.502998283388
 31
0.0
  0
LINE
  5
1781
  8
0
 62
     0
 10
3316.343306258354
 20
1878.2646165101739
 30
0.0
 11
3323.9343098578138
 21
1877.600489750437
 31
0.0
  0
LINE
  5
1782
  8
0
 62
     0
 10
3225.2512630648439
 20
1886.2341376270199
 30
0.0
 11
3232.8422666643041
 21
1885.5700108672829
 31
0.0
  0
LINE
  5
1783
  8
0
 62
     0
 10
3316.3513087400502
 20
1878.265918819337
 30
0.0
 11
3322.4738607223139
 21
1885.5624921400461
 31
0.0
  0
LINE
  5
1784
  8
0
 62
     0
 10
3225.2589742420482
 20
1886.2354615887889
 30
0.0
 11
3231.381526224312
 21
1893.532034909497
 31
0.0
  0
ENDBLK
  5
1786
  8
0
  0
BLOCK
  8
0
  2
*X22
 70
     1
 10
0.0
 20
0.0
 30
0.0
  3
*X22
  1

  0
LINE
  5
1788
  8
0
 62
     0
 10
1759.8168880751409
 20
1863.0999952319571
 30
0.0
 11
1759.8168880751409
 21
1863.0999952319571
 31
0.0
  0
LINE
  5
1789
  8
0
 62
     0
 10
1833.8814787681499
 20
1875.8132407486239
 30
0.0
 11
1833.8814787681499
 21
1875.8132407486239
 31
0.0
  0
LINE
  5
178A
  8
0
 62
     0
 10
1839.124916456617
 20
1951.5894541951741
 30
0.0
 11
1839.124916456617
 21
1951.5894541951741
 31
0.0
  0
LINE
  5
178B
  8
0
 62
     0
 10
1834.2558581933979
 20
2036.6320629293809
 30
0.0
 11
1834.2558581933979
 21
2036.6320629293809
 31
0.0
  0
LINE
  5
178C
  8
0
 62
     0
 10
1839.4992958818659
 20
2112.408276375932
 30
0.0
 11
1839.4992958818659
 21
2112.408276375932
 31
0.0
  0
LINE
  5
178D
  8
0
 62
     0
 10
1774.199953495799
 20
1857.7295712417069
 30
0.0
 11
1774.199953495799
 21
1857.7295712417069
 31
0.0
  0
LINE
  5
178E
  8
0
 62
     0
 10
1841.995251079235
 20
1854.8651992453699
 30
0.0
 11
1841.995251079235
 21
1854.8651992453699
 31
0.0
  0
LINE
  5
178F
  8
0
 62
     0
 10
1731.6712160524521
 20
1925.1493610132179
 30
0.0
 11
1731.6712160524521
 21
1925.1493610132179
 31
0.0
  0
LINE
  5
1790
  8
0
 62
     0
 10
1826.244192040446
 20
1905.2257264518701
 30
0.0
 11
1826.244192040446
 21
1905.2257264518701
 31
0.0
  0
LINE
  5
1791
  8
0
 62
     0
 10
1740.6511635856591
 20
2040.406491246192
 30
0.0
 11
1740.6511635856591
 21
2040.406491246192
 31
0.0
  0
LINE
  5
1792
  8
0
 62
     0
 10
1849.464080347971
 20
2051.7370098185311
 30
0.0
 11
1849.464080347971
 21
2051.7370098185311
 31
0.0
  0
LINE
  5
1793
  8
0
 62
     0
 10
1738.604491753096
 20
2122.3623568376802
 30
0.0
 11
1738.604491753096
 21
2122.3623568376802
 31
0.0
  0
LINE
  5
1794
  8
0
 62
     0
 10
1833.4353289818571
 20
1895.244465301324
 30
0.0
 11
1833.4353289818571
 21
1895.244465301324
 31
0.0
  0
LINE
  5
1795
  8
0
 62
     0
 10
1801.6421708897531
 20
1891.0588166323071
 30
0.0
 11
1801.6421708897531
 21
1891.0588166323071
 31
0.0
  0
LINE
  5
1796
  8
0
 62
     0
 10
1721.4352730494729
 20
1880.4993782078971
 30
0.0
 11
1721.4352730494729
 21
1880.4993782078971
 31
0.0
  0
LINE
  5
1797
  8
0
 62
     0
 10
1835.0520021449049
 20
1941.1491040413671
 30
0.0
 11
1835.0520021449049
 21
1941.1491040413671
 31
0.0
  0
LINE
  5
1798
  8
0
 62
     0
 10
1740.15597955509
 20
1974.347605336653
 30
0.0
 11
1740.15597955509
 21
1974.347605336653
 31
0.0
  0
LINE
  5
1799
  8
0
 62
     0
 10
1741.7726527181369
 20
2020.2522440766959
 30
0.0
 11
1741.7726527181369
 21
2020.2522440766959
 31
0.0
  0
LINE
  5
179A
  8
0
 62
     0
 10
1840.385473320548
 20
2124.6184675638319
 30
0.0
 11
1840.385473320548
 21
2124.6184675638319
 31
0.0
  0
LINE
  5
179B
  8
0
 62
     0
 10
1728.385417388163
 20
2109.8733804704061
 30
0.0
 11
1728.385417388163
 21
2109.8733804704061
 31
0.0
  0
LINE
  5
179C
  8
0
 62
     0
 10
1845.776825832655
 20
1853.4045343778939
 30
0.0
 11
1845.776825832655
 21
1853.4045343778939
 31
0.0
  0
LINE
  5
179D
  8
0
 62
     0
 10
1847.321127457951
 20
1895.6820538144709
 30
0.0
 11
1847.321127457951
 21
1895.6820538144709
 31
0.0
  0
LINE
  5
179E
  8
0
 62
     0
 10
1848.8654290832469
 20
1937.959573251047
 30
0.0
 11
1848.8654290832469
 21
1937.959573251047
 31
0.0
  0
LINE
  5
179F
  8
0
 62
     0
 10
1782.114662414494
 20
1886.7399085178261
 30
0.0
 11
1782.114662414494
 21
1886.7399085178261
 31
0.0
  0
LINE
  5
17A0
  8
0
 62
     0
 10
1850.4097307085419
 20
1980.237092687624
 30
0.0
 11
1850.4097307085419
 21
1980.237092687624
 31
0.0
  0
LINE
  5
17A1
  8
0
 62
     0
 10
1851.9540323338381
 20
2022.514612124201
 30
0.0
 11
1851.9540323338381
 21
2022.514612124201
 31
0.0
  0
LINE
  5
17A2
  8
0
 62
     0
 10
1722.3297348155911
 20
2046.327995706358
 30
0.0
 11
1722.3297348155911
 21
2046.327995706358
 31
0.0
  0
LINE
  5
17A3
  8
0
 62
     0
 10
1723.874036440887
 20
2088.6055151429332
 30
0.0
 11
1723.874036440887
 21
2088.6055151429332
 31
0.0
  0
LINE
  5
17A4
  8
0
 62
     0
 10
1725.418338066183
 20
2130.88303457951
 30
0.0
 11
1725.418338066183
 21
2130.88303457951
 31
0.0
  0
LINE
  5
17A5
  8
0
 62
     0
 10
1837.615303471641
 20
2072.7545842525751
 30
0.0
 11
1840.1903953308131
 21
2080.4290827323989
 31
0.0
  0
LINE
  5
17A6
  8
0
 62
     0
 10
1775.813098851507
 20
1888.5666207367931
 30
0.0
 11
1778.3881907106791
 21
1896.2411192166171
 31
0.0
  0
LINE
  5
17A7
  8
0
 62
     0
 10
1730.907058086578
 20
2031.7931553945471
 30
0.0
 11
1733.482149945751
 21
2039.4676538743711
 31
0.0
  0
LINE
  5
17A8
  8
0
 62
     0
 10
1769.494196947355
 20
1892.8259239274671
 30
0.0
 11
1775.8114632502241
 21
1888.5648740030199
 31
0.0
  0
LINE
  5
17A9
  8
0
 62
     0
 10
1724.588015486745
 20
2036.0525060819921
 30
0.0
 11
1730.9052817896149
 21
2031.7914561575451
 31
0.0
  0
LINE
  5
17AA
  8
0
 62
     0
 10
1831.2962252950019
 20
2077.0138900497868
 30
0.0
 11
1837.613491597871
 21
2072.7528401253389
 31
0.0
  0
LINE
  5
17AB
  8
0
 62
     0
 10
1769.4948475932699
 20
1892.8294563623119
 30
0.0
 11
1778.3872011556559
 21
1896.2429110817311
 31
0.0
  0
LINE
  5
17AC
  8
0
 62
     0
 10
1831.2964532551471
 20
2077.0178881451302
 30
0.0
 11
1840.1888068175331
 21
2080.4313428645501
 31
0.0
  0
LINE
  5
17AD
  8
0
 62
     0
 10
1724.588210506517
 20
2036.056431512103
 30
0.0
 11
1733.480564068903
 21
2039.469886231522
 31
0.0
  0
LINE
  5
17AE
  8
0
 62
     0
 10
1823.9457291892229
 20
1877.572148974516
 30
0.0
 11
1822.4773401595489
 21
1885.53285614521
 31
0.0
  0
LINE
  5
17AF
  8
0
 62
     0
 10
1732.8538100001581
 20
1885.5422911126941
 30
0.0
 11
1731.3854209704839
 21
1893.502998283388
 31
0.0
  0
LINE
  5
17B0
  8
0
 62
     0
 10
1816.343306258352
 20
1878.2646165101739
 30
0.0
 11
1823.9343098578111
 21
1877.600489750437
 31
0.0
  0
LINE
  5
17B1
  8
0
 62
     0
 10
1725.251263064843
 20
1886.2341376270199
 30
0.0
 11
1732.8422666643021
 21
1885.5700108672829
 31
0.0
  0
LINE
  5
17B2
  8
0
 62
     0
 10
1816.3513087400499
 20
1878.265918819337
 30
0.0
 11
1822.4738607223139
 21
1885.5624921400461
 31
0.0
  0
LINE
  5
17B3
  8
0
 62
     0
 10
1725.2589742420471
 20
1886.2354615887889
 30
0.0
 11
1731.381526224312
 21
1893.532034909497
 31
0.0
  0
ENDBLK
  5
17B5
  8
0
  0
BLOCK
  8
0
  2
*U23
 70
     1
 10
0.0
 20
0.0
 30
0.0
  3
*U23
  1

  0
SOLID
  5
17C8
  8
MOJI
 10
5165.162859155962
 20
2382.4811490506299
 30
0.0
 11
5144.591021086655
 21
2360.0802678525561
 31
0.0
 12
5156.7857172501381
 22
2387.942238089428
 32
0.0
 13
5156.7857172501381
 23
2387.942238089428
 33
0.0
  0
POLYLINE
  5
17C9
  8
MOJI
 66
     1
 10
0.0
 20
0.0
 30
0.0
  0
VERTEX
  5
17CA
  8
MOJI
 10
5160.9742882030496
 20
2385.2116935700292
 30
0.0
  0
VERTEX
  5
17CB
  8
MOJI
 10
5242.1902777641271
 20
2509.7945129933109
 30
0.0
  0
SEQEND
  5
17CC
  8
MOJI
  0
ENDBLK
  5
17CE
  8
0
  0
ENDSEC
  0
SECTION
  2
ENTITIES
  0
INSERT
  5
FD
  8
ZWAKU
  2
SEIKO_LS-1100A3
 10
0.0
 20
0.0
 30
0.0
 41
15.0
 42
15.0
 43
15.0
  0
TEXT
  5
FF
  8
INFORMATION
 10
1.0
 20
2.0
 30
0.0
 40
0.8
  1
PLOTTER=SEIKO_LS-1100
  0
TEXT
  5
100
  8
INFORMATION
 10
1.0
 20
3.0
 30
0.0
 40
0.8
  1
PAPER=A3
  0
TEXT
  5
2DB
  8
MOJI2
 10
1178.6697887628541
 20
3437.4066244678738
 30
0.0
 40
60.0
  1
設置図
 41
0.8
  7
KANJI08
  0
TEXT
  5
2DC
  8
MOJI
 10
2387.0284306776011
 20
2226.220229472814
 30
0.0
 40
45.0
  1
ビームパイプ %%C48.6×t3.2
 41
0.8
  7
KANJI08
  0
TEXT
  5
2DD
  8
MOJI
 10
2398.9317716861019
 20
2730.8822830162958
 30
0.0
 40
45.0
  1
主柱 %%C76.3×t3.2
 41
0.8
  7
KANJI08
  0
LINE
  5
2DE
  8
MOJI
 10
2357.5350625784922
 20
2710.8822830162958
 30
0.0
 11
2805.2977552532338
 21
2710.8822830162958
 31
0.0
  0
TEXT
  5
2FB
  8
MOJI
 10
1394.7323953518239
 20
2171.897519440678
 30
0.0
 40
45.0
  1
GL
 41
0.8
  7
KANJI08
  0
LINE
  5
307
  8
MOJI2
 10
1158.3298452552949
 20
3423.4977258410381
 30
0.0
 11
1352.5525959271961
 21
3423.4977258410381
 31
0.0
  0
LINE
  5
308
  8
MOJI
 10
2357.5350625784922
 20
2204.9822830162939
 30
0.0
 11
2970.3729793056582
 21
2204.9822830162939
 31
0.0
  0
LINE
  5
30D
  8
SJC
 10
1376.1739062937299
 20
2151.572627995909
 30
0.0
 11
1748.562572155826
 21
2151.572627995909
 31
0.0
1001
ACAD
1000
ASC_BOUNDS
1002
{
1070
    19
1002
}
  0
LINE
  5
30E
  8
MOJI2
 10
1158.3298452552949
 20
3408.4977258410381
 30
0.0
 11
1352.5525959271961
 21
3408.4977258410381
 31
0.0
  0
LINE
  5
30F
  8
CENTER
 10
1786.7125721558259
 20
2713.4226279959089
 30
0.0
 11
1786.7125721558259
 21
901.57262799590887
 31
0.0
  0
LINE
  5
310
  8
CENTER
 10
1986.7125721558259
 20
2913.4226279959089
 30
0.0
 11
3086.7125721558259
 21
2913.4226279959089
 31
0.0
  0
LINE
  5
312
  8
CENTER
 10
3286.7125721558259
 20
2713.4226279959089
 30
0.0
 11
3286.7125721558259
 21
901.57262799590887
 31
0.0
  0
DIMENSION
  5
314
  8
SUNPOU
  2
*D5
 10
3286.7125721558259
 20
3183.0425213434009
 30
0.0
 11
2536.7125721558259
 21
3223.5425213434009
 31
0.0
 70
     0
 13
1786.7125721558259
 23
2713.4226279959089
 33
0.0
 14
3286.7125721558259
 24
2713.4226279959089
 34
0.0
1001
ACAD
1000
DSTYLE
1002
{
1070
   287
1070
     5
1070
    40
1040
15.0
1070
    41
1040
2.0
1070
    42
1040
1.0
1070
    43
1040
6.0
1070
    44
1040
1.0
1070
    73
1070
     0
1070
    74
1070
     0
1070
    77
1070
     1
1070
    78
1070
     8
1070
   140
1040
3.0
1070
   147
1040
1.1999999999999991
1070
   172
1070
     1
1070
   176
1070
   256
1070
   177
1070
   256
1070
   178
1070
   256
1070
   271
1070
     1
1070
   275
1070
     1
1070
   279
1070
     2
1070
   340
1005
11F
1002
}
  0
LINE
  5
318
  8
SJC
 10
1824.862572155826
 20
2151.572627995909
 30
0.0
 11
3248.5625721558258
 21
2151.572627995909
 31
0.0
1001
ACAD
1000
ASC_BOUNDS
1002
{
1070
    19
1002
}
  0
INSERT
  5
31B
  8
SUNPOU
  2
B0040021
 10
2231.8454199457701
 20
2151.572627995909
 30
0.0
  0
LINE
  5
3ED
  8
SJC
 10
3324.862572155826
 20
2151.572627995909
 30
0.0
 11
3687.2227064758449
 21
2151.572627995909
 31
0.0
1001
ACAD
1000
ASC_BOUNDS
1002
{
1070
    19
1005
0
1002
}
  0
DIMENSION
  5
3EF
  8
SUNPOU
  2
*D6
 10
1289.952722366379
 20
2151.572627995909
 30
0.0
 11
1249.4527223663781
 21
2026.572627995909
 31
0.0
 70
     0
 13
1721.312572155826
 23
1901.572627995909
 33
0.0
 14
1376.1739062937299
 24
2151.572627995909
 34
0.0
 50
90.0
1001
ACAD
1000
DSTYLE
1002
{
1070
   287
1070
     5
1070
    40
1040
15.0
1070
    41
1040
2.0
1070
    42
1040
1.0
1070
    43
1040
6.0
1070
    44
1040
1.0
1070
    73
1070
     0
1070
    74
1070
     0
1070
    77
1070
     1
1070
    78
1070
     8
1070
   140
1040
3.0
1070
   147
1040
1.1999999999999991
1070
   172
1070
     1
1070
   176
1070
   256
1070
   177
1070
   256
1070
   178
1070
   256
1070
   271
1070
     1
1070
   275
1070
     1
1070
   279
1070
     2
1070
   340
1005
11F
1002
}
  0
LINE
  5
3F2
  8
SJC
 10
1986.7125721558259
 20
2951.572627995909
 30
0.0
 11
3086.7125721558259
 21
2951.572627995909
 31
0.0
  0
LINE
  5
3F3
  8
SJC
 10
1986.7125721558259
 20
2875.2726279959088
 30
0.0
 11
3086.7125721558259
 21
2875.2726279959088
 31
0.0
  0
LINE
  5
3F6
  8
SJC
 10
3248.5625721558258
 20
2713.4226279959089
 30
0.0
 11
3248.5625721558258
 21
2675.8726279959092
 31
0.0
  0
LINE
  5
3F7
  8
SJC
 10
3324.862572155826
 20
2713.4226279959089
 30
0.0
 11
3324.862572155826
 21
1901.572627995909
 31
0.0
  0
LINE
  5
3F8
  8
SJC
 10
1824.862572155826
 20
2713.4226279959098
 30
0.0
 11
1824.862572155826
 21
2675.8726279959092
 31
0.0
1001
ACAD
1000
ASC_BOUNDS
1002
{
1070
    19
1002
}
  0
LINE
  5
3F9
  8
SJC
 10
1748.562572155826
 20
2713.4226279959089
 30
0.0
 11
1748.562572155826
 21
1901.5726279959081
 31
0.0
1001
ACAD
1000
ASC_BOUNDS
1002
{
1070
    19
1002
}
  0
DIMENSION
  5
3FD
  8
SUNPOU
  2
*D7
 10
1123.862839882589
 20
2951.572627995909
 30
0.0
 11
1083.362839882589
 21
2426.5726279959099
 31
0.0
 70
     0
 13
1721.312572155826
 23
1901.572627995909
 33
0.0
 14
1946.7125721558259
 24
2951.572627995909
 34
0.0
 50
90.0
1001
ACAD
1000
DSTYLE
1002
{
1070
   287
1070
     5
1070
    40
1040
15.0
1070
    41
1040
2.0
1070
    42
1040
1.0
1070
    43
1040
6.0
1070
    44
1040
1.0
1070
    73
1070
     0
1070
    74
1070
     0
1070
    77
1070
     1
1070
    78
1070
     8
1070
   140
1040
3.0
1070
   147
1040
1.1999999999999991
1070
   172
1070
     1
1070
   176
1070
   256
1070
   177
1070
   256
1070
   178
1070
   256
1070
   271
1070
     1
1070
   275
1070
     1
1070
   279
1070
     2
1070
   340
1005
11F
1002
}
  0
SOLID
  5
400
  8
MOJI
  6
CONTINUOUS
 10
2307.2897174071832
 20
2845.2369777986692
 30
0.0
 11
2316.7725670028271
 21
2848.4111806192818
 31
0.0
 12
2302.508533743166
 22
2875.2726279959088
 32
0.0
 13
2302.508533743166
 23
2875.2726279959088
 33
0.0
  0
LINE
  5
401
  8
MOJI
  6
CONTINUOUS
 10
2312.0311422050049
 20
2846.8240792089759
 30
0.0
 11
2357.5350625784922
 21
2710.8822830162958
 31
0.0
  0
LINE
  5
402
  8
MOJI
  6
CONTINUOUS
 10
2217.0996779825259
 20
2627.2726279959088
 30
0.0
 11
2357.5350625784922
 21
2204.9822830162939
 31
0.0
  0
SOLID
  5
403
  8
MOJI
  6
CONTINUOUS
 10
2304.645343263111
 20
2347.2369777986678
 30
0.0
 11
2314.1281928587559
 21
2350.4111806192809
 31
0.0
 12
2299.8641595990948
 22
2377.2726279959079
 32
0.0
 13
2299.8641595990948
 23
2377.2726279959079
 33
0.0
  0
LINE
  5
405
  8
SJC
 10
1824.8625721558251
 20
2627.272627995882
 30
0.0
 11
1824.8625721558251
 21
2425.8726279959092
 31
0.0
1001
ACAD
1000
ASC_BOUNDS
1002
{
1070
    19
1005
3FE
1002
}
  0
LINE
  5
408
  8
SJC
 10
3248.5625721558258
 20
2627.272627995882
 30
0.0
 11
3248.5625721558258
 21
2425.8726279959092
 31
0.0
  0
TEXT
  5
4B6
  8
INFORMATION
 10
1.0
 20
1.0
 30
0.0
 40
0.8
  1
VERSION=3.0
  0
ARC
  5
4B7
  8
CENTER
 10
1986.7125721558259
 20
2713.4226279959089
 30
0.0
 40
200.0
 50
90.0
 51
180.0
  0
ARC
  5
4C0
  8
SJC
 10
1986.7125721558259
 20
2713.4226279959089
 30
0.0
 40
161.84999999999999
 50
90.0
 51
180.0
  0
ARC
  5
4C1
  8
SJC
 10
1986.7125721558259
 20
2713.4226279959089
 30
0.0
 40
238.15000000000001
 50
90.0
 51
180.0
  0
ARC
  5
4EF
  8
CENTER
 10
3086.7125721558259
 20
2713.4226279959089
 30
0.0
 40
200.0
 50
0.000000000000007
 51
90.0
  0
ARC
  5
4F0
  8
SJC
 10
3086.7125721558259
 20
2713.4226279959089
 30
0.0
 40
238.15000000000001
 50
0.000000000000007
 51
90.0
  0
ARC
  5
4F1
  8
SJC
 10
3086.7125721558259
 20
2713.4226279959089
 30
0.0
 40
161.84999999999999
 50
0.000000000000007
 51
90.0
  0
DIMENSION
  5
501
  8
SUNPOU
  2
*D8
 10
1986.712572155828
 20
2713.4226279959112
 30
0.0
 11
1973.170272333839
 21
2790.6945941200211
 31
0.0
 70
   132
 15
1843.773057775531
 25
2853.3093508423799
 35
0.0
 40
0.0
1001
ACAD
1000
DSTYLE
1002
{
1070
   287
1070
     5
1070
    40
1040
15.0
1070
    41
1040
2.0
1070
    42
1040
1.0
1070
    43
1040
6.0
1070
    44
1040
1.0
1070
    73
1070
     0
1070
    74
1070
     0
1070
    77
1070
     1
1070
    78
1070
     8
1070
   140
1040
3.0
1070
   147
1040
1.1999999999999991
1070
   172
1070
     1
1070
   179
1070
     2
1070
   271
1070
     2
1070
   279
1070
     2
1070
   288
1070
     1
1070
   340
1005
11D
1002
}
  0
LINE
  5
531
  8
SJC
 10
1824.862572155826
 20
2675.8726279959092
 30
0.0
 11
3248.5625721558258
 21
2675.8726279959092
 31
0.0
  0
LINE
  5
532
  8
SJC
 10
1824.8625721558039
 20
2627.2726279959088
 30
0.0
 11
3248.562572155849
 21
2627.2726279959088
 31
0.0
  0
ARC
  5
53C
  8
SJC
 10
1854.272306938713
 20
2651.5726279958958
 30
0.0
 40
38.150000000005512
 50
140.43454069638369
 51
219.56545930361631
  0
ARC
  5
53D
  8
SJC
 10
3219.1528373729388
 20
2651.5726279958958
 30
0.0
 40
38.150000000005512
 50
320.43454069638381
 51
39.565459303616258
  0
LINE
  5
53E
  8
SJC
 10
1824.8625721558039
 20
2377.2726279959088
 30
0.0
 11
3248.562572155849
 21
2377.2726279959088
 31
0.0
  0
LINE
  5
53F
  8
SJC
 10
1824.862572155826
 20
2425.8726279959092
 30
0.0
 11
3248.5625721558258
 21
2425.8726279959092
 31
0.0
  0
ARC
  5
540
  8
SJC
 10
1854.272306938713
 20
2401.5726279958958
 30
0.0
 40
38.150000000005512
 50
140.43454069638369
 51
219.56545930361631
  0
ARC
  5
541
  8
SJC
 10
3219.1528373729388
 20
2401.5726279958958
 30
0.0
 40
38.150000000005512
 50
320.43454069638381
 51
39.565459303616258
  0
LINE
  5
542
  8
SJC
 10
1824.8625721558251
 20
2377.272627995882
 30
0.0
 11
1824.862572155826
 21
1901.5726279959081
 31
0.0
1001
ACAD
1000
ASC_BOUNDS
1002
{
1070
    19
1002
}
  0
LINE
  5
543
  8
SJC
 10
3248.5625721558258
 20
2377.272627995882
 30
0.0
 11
3248.5625721558249
 21
1901.572627995909
 31
0.0
  0
SOLID
  5
544
  8
MOJI
  6
CONTINUOUS
 10
2221.8808616465421
 20
2597.2369777986728
 30
0.0
 11
2231.3637112421861
 21
2600.411180619285
 31
0.0
 12
2217.0996779825259
 22
2627.272627995912
 32
0.0
 13
2217.0996779825259
 23
2627.272627995912
 33
0.0
  0
LINE
  5
912
  8
SJC
 10
5051.4317998701472
 20
4165.2545027623164
 30
0.0
 11
5981.4317998701463
 21
4165.2545027623164
 31
0.0
  0
LINE
  5
913
  8
SJC
 10
5051.4317998701472
 20
3940.254502762316
 30
0.0
 11
5981.4317998701463
 21
3940.254502762316
 31
0.0
  0
LINE
  5
914
  8
SJC
 10
5028.9317998701472
 20
4015.254502762316
 30
0.0
 11
6003.9317998701463
 21
4015.254502762316
 31
0.0
  0
LINE
  5
915
  8
SJC
 10
5028.9317998701472
 20
4090.254502762316
 30
0.0
 11
6003.9317998701463
 21
4090.254502762316
 31
0.0
  0
TEXT
  5
916
  8
MOJI
 10
5287.795190993811
 20
3955.6695891817881
 30
0.0
 40
45.0
  1
KGSH00091
 41
0.8
  7
EXT08
  0
TEXT
  5
917
  8
MOJI
 10
5287.795190993811
 20
4030.6695891817872
 30
0.0
 40
45.0
  1
KSP-8-15W(C)-EH
 41
0.8
  7
EXT08
  0
TEXT
  5
918
  8
MOJI
 10
5287.795190993811
 20
4105.6695891817872
 30
0.0
 40
45.0
  1
高強度セイフティパイプ
 41
0.8
  7
EXT08
  0
TEXT
  5
919
  8
MOJI
 10
5078.0889427272896
 20
4104.3545027623159
 30
0.0
 40
45.0
  1
タイプ
 41
0.8
  7
EXT08
 72
     4
 11
5141.4317998701463
 21
4127.7545027623164
 31
0.0
  0
LINE
  5
91A
  8
SJC
 10
5253.9317998701463
 20
3940.254502762316
 30
0.0
 11
5253.9317998701463
 21
4165.2545027623164
 31
0.0
  0
ARC
  5
91B
  8
SJC
 10
5051.4317998701472
 20
4142.7545027623173
 30
0.0
 40
22.5
 50
90.0
 51
180.0
  0
ARC
  5
91C
  8
SJC
 10
5051.4317998701472
 20
3962.7545027623169
 30
0.0
 40
22.5
 50
180.0
 51
270.0
  0
LINE
  5
91D
  8
SJC
 10
5028.9317998701472
 20
3962.7545027623169
 30
0.0
 11
5028.9317998701472
 21
4142.7545027623173
 31
0.0
  0
TEXT
  5
91E
  8
MOJI
 10
5081.4317998701463
 20
4030.2545027623169
 30
0.0
 40
45.0
  1
品  番
 41
0.8
  7
EXT08
 72
     4
 11
5141.4317998701463
 21
4052.754502762316
 31
0.0
  0
TEXT
  5
91F
  8
MOJI
 10
5058.6317998701461
 20
3955.2545027623169
 30
0.0
 40
45.0
  1
図面番号
 41
0.8
  7
EXT08
 72
     4
 11
5141.4317998701463
 21
3977.754502762316
 31
0.0
  0
ARC
  5
920
  8
SJC
 10
5981.4317998701463
 20
4142.7545027623173
 30
0.0
 40
22.5
 50
0.0
 51
90.0
  0
ARC
  5
921
  8
SJC
 10
5981.4317998701463
 20
3962.7545027623169
 30
0.0
 40
22.5
 50
270.0
 51
0.0
  0
LINE
  5
922
  8
SJC
 10
6003.9317998701463
 20
3962.7545027623169
 30
0.0
 11
6003.9317998701463
 21
4142.7545027623173
 31
0.0
  0
LINE
  5
FD1
  8
SJC
 10
1856.612572155826
 20
2151.572627995909
 30
0.0
 11
1856.612572155826
 21
951.57262799590865
 31
0.0
  0
LINE
  5
FD2
  8
SJC
 10
1716.812572155826
 20
2151.572627995909
 30
0.0
 11
1716.8125721558249
 21
951.57262799590865
 31
0.0
  0
LINE
  5
FD5
  8
SJC
 10
1720.0125721558261
 20
951.57262799590933
 30
0.0
 11
1856.612572155826
 21
951.57262799590933
 31
0.0
1001
ACAD
1000
ASC_BOUNDS
1002
{
1070
    19
1002
}
  0
LINE
  5
FD7
  8
SJC
 10
1748.562572155826
 20
1901.5726279959081
 30
0.0
 11
1824.862572155826
 21
1901.5726279959081
 31
0.0
1001
ACAD
1000
ASC_BOUNDS
1002
{
1070
    19
1002
}
  0
LINE
  5
FD8
  8
SJC
 10
3216.8125721558258
 20
2151.572627995909
 30
0.0
 11
3216.8125721558258
 21
951.57262799590865
 31
0.0
  0
LINE
  5
FDA
  8
SJC
 10
3356.612572155826
 20
2151.572627995909
 30
0.0
 11
3356.612572155826
 21
951.57262799590865
 31
0.0
  0
LINE
  5
FDC
  8
SJC
 10
3248.5625721558249
 20
1901.572627995909
 30
0.0
 11
3324.862572155826
 21
1901.572627995909
 31
0.0
1001
ACAD
1000
ASC_BOUNDS
1002
{
1070
    19
1002
}
  0
LINE
  5
FDD
  8
SJC
 10
3220.0125721558261
 20
951.57262799590933
 30
0.0
 11
3356.612572155826
 21
951.57262799590933
 31
0.0
1001
ACAD
1000
ASC_BOUNDS
1002
{
1070
    19
1002
}
  0
DIMENSION
  5
1015
  8
SUNPOU
  2
*D9
 10
2080.3724670335691
 20
951.57262799590865
 30
0.0
 11
2039.8724670335689
 21
1551.572627995909
 31
0.0
 70
     0
 13
1856.612572155826
 23
2151.572627995909
 33
0.0
 14
1856.612572155826
 24
951.57262799590865
 34
0.0
 50
90.0
1001
ACAD
1000
DSTYLE
1002
{
1070
   287
1070
     5
1070
    40
1040
15.0
1070
    41
1040
2.0
1070
    42
1040
1.0
1070
    43
1040
6.0
1070
    44
1040
1.0
1070
    73
1070
     0
1070
    74
1070
     0
1070
    77
1070
     1
1070
    78
1070
     8
1070
   140
1040
3.0
1070
   147
1040
1.1999999999999991
1070
   172
1070
     1
1070
   179
1070
     2
1070
   271
1070
     2
1070
   279
1070
     2
1070
   340
1005
11D
1002
}
  0
INSERT
  5
10A7
  8
0
  2
*U17
 10
0.0
 20
0.0
 30
0.0
1001
ACAD
1000
DSTYLE
1002
{
1070
    40
1040
15.0
1070
    41
1040
2.0
1070
    42
1040
1.0
1070
    43
1040
6.0
1070
    44
1040
1.0
1070
    73
1070
     0
1070
    74
1070
     0
1070
    77
1070
     1
1070
    78
1070
     8
1070
   140
1040
3.0
1070
   147
1040
1.1999999999999991
1070
   172
1070
     1
1070
   179
1070
     2
1070
   271
1070
     2
1070
   279
1070
     2
1070
   340
1005
11D
1002
}
  0
INSERT
  5
10A8
  8
0
  2
*U18
 10
0.0
 20
0.0
 30
0.0
  0
INSERT
  5
10A9
  8
0
  2
*U19
 10
0.0
 20
0.0
 30
0.0
1001
ACAD
1000
DSTYLE
1002
{
1070
    40
1040
15.0
1070
    41
1040
2.0
1070
    42
1040
1.0
1070
    43
1040
6.0
1070
    44
1040
1.0
1070
    73
1070
     0
1070
    74
1070
     0
1070
    77
1070
     1
1070
    78
1070
     8
1070
   140
1040
3.0
1070
   147
1040
1.1999999999999991
1070
   172
1070
     1
1070
   179
1070
     2
1070
   271
1070
     2
1070
   279
1070
     2
1070
   340
1005
11D
1002
}
  0
INSERT
  5
10AA
  8
0
  2
*U20
 10
0.0
 20
0.0
 30
0.0
  0
TEXT
  5
10AB
  8
MOJI
 10
2149.4419722150492
 20
1251.7352231563
 30
0.0
 40
45.0
  1
φ139.8×t4.5×L1200
 41
0.8
  7
EXT08
  0
LINE
  5
10AC
  8
MOJI
 10
2286.9041490774198
 20
1317.652900579953
 30
0.0
 11
2509.3762910511109
 21
1317.652900579953
 31
0.0
  0
LINE
  5
10D9
  8
HASEN
 10
1721.312572155826
 20
2151.572627995909
 30
0.0
 11
1721.312572155826
 21
951.57262799590865
 31
0.0
  0
LINE
  5
10DA
  8
HASEN
 10
1852.112572155826
 20
2151.572627995909
 30
0.0
 11
1852.112572155826
 21
951.57262799590865
 31
0.0
  0
LINE
  5
10FD
  8
HASEN
 10
3221.3125721558258
 20
2151.572627995909
 30
0.0
 11
3221.3125721558258
 21
951.57262799590865
 31
0.0
  0
LINE
  5
10FE
  8
HASEN
 10
3352.1125721558269
 20
2151.572627995909
 30
0.0
 11
3352.112572155826
 21
951.57262799590865
 31
0.0
  0
LINE
  5
115A
  8
SJC
 10
3221.3125721558258
 20
1851.572627995909
 30
0.0
 11
3352.1125721558269
 21
1851.572627995909
 31
0.0
1001
ACAD
1000
ASC_BOUNDS
1002
{
1070
    19
1005
0
1002
}
  0
LINE
  5
115B
  8
SJC
 10
1721.312572155826
 20
1851.572627995909
 30
0.0
 11
1852.1125721558269
 21
1851.572627995909
 31
0.0
1001
ACAD
1000
ASC_BOUNDS
1002
{
1070
    19
1005
0
1002
}
  0
LINE
  5
115C
  8
MOJI
 10
2509.3762910511109
 20
1317.652900579953
 30
0.0
 11
2732.8154192512488
 21
1317.652900579953
 31
0.0
  0
DIMENSION
  5
1170
  8
SUNPOU
  2
*D10
 10
1981.6950409648889
 20
2151.572627995909
 30
0.0
 11
1941.195040964888
 21
2001.572627995909
 31
0.0
 70
     0
 13
1852.112572155826
 23
1851.572627995909
 33
0.0
 14
1856.612572155826
 24
2151.572627995909
 34
0.0
 50
90.0
1001
ACAD
1000
DSTYLE
1002
{
1070
   287
1070
     5
1070
    40
1040
15.0
1070
    41
1040
2.0
1070
    42
1040
1.0
1070
    43
1040
6.0
1070
    44
1040
1.0
1070
    73
1070
     0
1070
    74
1070
     0
1070
    77
1070
     1
1070
    78
1070
     8
1070
   140
1040
3.0
1070
   147
1040
1.1999999999999991
1070
   172
1070
     1
1070
   179
1070
     2
1070
   271
1070
     2
1070
   279
1070
     2
1070
   340
1005
11D
1002
}
  0
INSERT
  5
11AA
  8
HATCH
  6
CONTINUOUS
  2
*X21
 10
0.0
 20
0.0
 30
0.0
1001
ACAD
1000
HATCH
1002
{
1070
    19
1000
AR-CONC
1040
0.5
1040
0.0
1000
R14_HATCH_DATA
1000
11AA
1011
1.0
1021
0.0
1031
0.0
1021
0.0
1031
0.0
1011
0.0
1021
0.0
1031
0.0
1021
1.0
1031
0.0
1011
0.0
1021
0.0
1031
0.0
1021
0.0
1031
1.0
1040
0.0
1010
0.0
1020
0.0
1030
1.0
1000
AR-CONC
1070
     0
1070
     0
1071
        1
1071
        1
1071
        8
1070
     1
1040
3324.8625721558251
1040
2151.572627995909
1040
3352.112572155826
1040
2151.572627995909
1070
     1
1040
3352.112572155826
1040
2151.572627995909
1040
3352.1125721558269
1040
1851.572627995909
1070
     1
1040
3352.1125721558269
1040
1851.572627995909
1040
3221.3125721558258
1040
1851.572627995909
1070
     1
1040
3221.3125721558258
1040
1851.572627995909
1040
3221.3125721558258
1040
2151.572627995909
1070
     1
1040
3221.3125721558258
1040
2151.572627995909
1040
3248.5625721558272
1040
2151.572627995909
1070
     1
1040
3248.5625721558258
1040
2151.572627995909
1040
3248.5625721558258
1040
1901.5726279959081
1070
     1
1040
3248.5625721558258
1040
1901.5726279959081
1040
3324.862572155826
1040
1901.5726279959081
1070
     1
1040
3324.862572155826
1040
1901.5726279959081
1040
3324.862572155826
1040
2151.572627995909
1071
        0
1070
     0
1070
     1
1040
0.0
1040
0.5
1070
     0
1070
    13
1040
0.8726646259971645
1040
-997.52902809612158
1040
0.0
1040
91.092334498002003
1040
-7.9695427694515431
1070
     2
1040
9.5250000000000004
1040
-104.77500000000001
1040
6.195918844579869
1040
-997.52902809612158
1040
0.0
1040
-17.621412987833491
1040
95.528321441089986
1070
     2
1040
7.6200000000000001
1040
-83.819999999999993
1040
1.753200686920823
1040
-989.93802809612168
1040
-0.664125
1040
73.471250832979621
1040
87.558343910145936
1070
     2
1040
8.0950000000000006
1040
-89.045000000000002
1040
0.8060663523995651
1040
-997.52902809612158
1040
25.399999999999999
1040
135.5395204460649
1040
-21.021163966363581
1070
     2
1040
14.2875
1040
-157.16249999999999
1040
1.6866093946402321
1040
-986.23407809612172
1040
23.648250000000001
1040
118.7021172331185
1040
123.7127779450246
1070
     2
1040
12.1425
1040
-133.56749999999991
1040
6.1293170803237658
1040
-997.52902809612158
1040
25.399999999999999
1040
118.70230290696691
1040
123.7125589302988
1070
     2
1040
11.43
1040
-125.73
1040
0.3665191429188092
1040
-984.82902809612165
1040
19.050000000000001
1040
75.807439917691639
1040
-51.132759258381249
1070
     2
1040
9.5250000000000004
1040
-104.77500000000001
1040
5.6897733615015138
1040
-984.82902809612165
1040
19.050000000000001
1040
30.90101417382354
1040
92.093983061159619
1070
     2
1040
7.6200000000000001
1040
-83.819999999999993
1040
1.2470621851594761
1040
-978.5117780961217
1040
14.78895
1040
106.7082453850622
1040
40.961428858028718
1070
     2
1040
8.0950000000000006
1040
-89.045000000000002
1040
0.6544984694978737
1040
-997.52902809612158
1040
0.0
1040
1.5443016252959081
1040
42.277519436576547
1070
     6
1040
0.0
1040
-82.804000000000002
1040
0.0
1040
-85.090000000000003
1040
0.0
1040
-84.137500000000003
1040
0.1308996938995747
1040
-997.52902809612158
1040
0.0
1040
33.409831255152874
1040
50.090287409059748
1070
     6
1040
0.0
1040
-48.513999999999989
1040
0.0
1040
-80.899000000000001
1040
0.0
1040
-32.067500000000003
1040
5.715953300281428
1040
-1025.8500280961221
1040
0.0
1040
67.795297583435698
1040
-2.864371996336728
1070
     6
1040
0.0
1040
-31.75
1040
0.0
1040
-99.060000000000002
1040
0.0
1040
-131.44499999999999
1040
5.5414203750819961
1040
-1038.550028096121
1040
0.0
1040
74.064590693009023
1040
12.713245516666509
1070
     6
1040
0.0
1040
-41.274999999999999
1040
0.0
1040
-65.786000000000001
1040
0.0
1040
-93.344999999999999
1071
        1
1040
-997.52902809612158
1040
0.0
1040
0.0
1002
}
  0
INSERT
  5
11AB
  8
HATCH
  6
CONTINUOUS
  2
*X22
 10
0.0
 20
0.0
 30
0.0
1001
ACAD
1000
HATCH
1002
{
1070
    19
1000
AR-CONC
1040
0.5
1040
0.0
1000
R14_HATCH_DATA
1000
11AB
1011
1.0
1021
0.0
1031
0.0
1021
0.0
1031
0.0
1011
0.0
1021
0.0
1031
0.0
1021
1.0
1031
0.0
1011
0.0
1021
0.0
1031
0.0
1021
0.0
1031
1.0
1040
0.0
1010
0.0
1020
0.0
1030
1.0
1000
AR-CONC
1070
     0
1070
     0
1071
        1
1071
        1
1071
        8
1070
     1
1040
1824.8625721558251
1040
2151.572627995909
1040
1852.1125721558251
1040
2151.572627995909
1070
     1
1040
1852.1125721558251
1040
2151.572627995909
1040
1852.112572155826
1040
1851.572627995909
1070
     1
1040
1852.112572155826
1040
1851.572627995909
1040
1721.312572155826
1040
1851.572627995909
1070
     1
1040
1721.3125721558249
1040
1851.572627995909
1040
1721.3125721558249
1040
2151.572627995909
1070
     1
1040
1721.3125721558249
1040
2151.572627995909
1040
1748.562572155827
1040
2151.572627995909
1070
     1
1040
1748.562572155826
1040
2151.572627995909
1040
1748.562572155826
1040
1901.5726279959081
1070
     1
1040
1748.562572155826
1040
1901.5726279959081
1040
1824.8625721558251
1040
1901.5726279959081
1070
     1
1040
1824.8625721558251
1040
1901.5726279959081
1040
1824.8625721558251
1040
2151.572627995909
1071
        0
1070
     0
1070
     1
1040
0.0
1040
0.5
1070
     0
1070
    13
1040
0.8726646259971645
1040
-2497.5290280961221
1040
0.0
1040
91.092334498002003
1040
-7.9695427694515431
1070
     2
1040
9.5250000000000004
1040
-104.77500000000001
1040
6.195918844579869
1040
-2497.5290280961221
1040
0.0
1040
-17.621412987833491
1040
95.528321441089986
1070
     2
1040
7.6200000000000001
1040
-83.819999999999993
1040
1.753200686920823
1040
-2489.9380280961218
1040
-0.664125
1040
73.471250832979621
1040
87.558343910145936
1070
     2
1040
8.0950000000000006
1040
-89.045000000000002
1040
0.8060663523995651
1040
-2497.5290280961221
1040
25.399999999999999
1040
135.5395204460649
1040
-21.021163966363581
1070
     2
1040
14.2875
1040
-157.16249999999999
1040
1.6866093946402321
1040
-2486.2340780961222
1040
23.648250000000001
1040
118.7021172331185
1040
123.7127779450246
1070
     2
1040
12.1425
1040
-133.56749999999991
1040
6.1293170803237658
1040
-2497.5290280961221
1040
25.399999999999999
1040
118.70230290696691
1040
123.7125589302988
1070
     2
1040
11.43
1040
-125.73
1040
0.3665191429188092
1040
-2484.8290280961219
1040
19.050000000000001
1040
75.807439917691639
1040
-51.132759258381249
1070
     2
1040
9.5250000000000004
1040
-104.77500000000001
1040
5.6897733615015138
1040
-2484.8290280961219
1040
19.050000000000001
1040
30.90101417382354
1040
92.093983061159619
1070
     2
1040
7.6200000000000001
1040
-83.819999999999993
1040
1.2470621851594761
1040
-2478.5117780961218
1040
14.78895
1040
106.7082453850622
1040
40.961428858028718
1070
     2
1040
8.0950000000000006
1040
-89.045000000000002
1040
0.6544984694978737
1040
-2497.5290280961221
1040
0.0
1040
1.5443016252959081
1040
42.277519436576547
1070
     6
1040
0.0
1040
-82.804000000000002
1040
0.0
1040
-85.090000000000003
1040
0.0
1040
-84.137500000000003
1040
0.1308996938995747
1040
-2497.5290280961221
1040
0.0
1040
33.409831255152874
1040
50.090287409059748
1070
     6
1040
0.0
1040
-48.513999999999989
1040
0.0
1040
-80.899000000000001
1040
0.0
1040
-32.067500000000003
1040
5.715953300281428
1040
-2525.8500280961221
1040
0.0
1040
67.795297583435698
1040
-2.864371996336728
1070
     6
1040
0.0
1040
-31.75
1040
0.0
1040
-99.060000000000002
1040
0.0
1040
-131.44499999999999
1040
5.5414203750819961
1040
-2538.5500280961219
1040
0.0
1040
74.064590693009023
1040
12.713245516666509
1070
     6
1040
0.0
1040
-41.274999999999999
1040
0.0
1040
-65.786000000000001
1040
0.0
1040
-93.344999999999999
1071
        1
1040
-2497.5290280961221
1040
0.0
1040
0.0
1002
}
  0
TEXT
  5
1253
  8
MOJI
 10
1472.8579877583641
 20
729.79765837784885
 30
0.0
 40
60.0
  1
※基礎寸法は参考値です。
 41
0.8
  7
EXT08
 72
     1
 11
1801.8865591869351
 21
729.79765837784885
 31
0.0
  0
TEXT
  5
150A
  8
MOJI
 10
4085.4336669548052
 20
199.65727514146391
 30
0.0
 40
60.0
  1
※本製品は車両用防護柵の強度を保有するものではありません。
 41
0.8
  7
EXT08
 72
     1
 11
4904.062238383377
 21
199.65727514146391
 31
0.0
  0
LINE
  5
1558
  8
CENTER
 10
5076.6735435375658
 20
2952.8668766680948
 30
0.0
 11
5076.6735435375658
 21
1652.8668766680951
 31
0.0
  0
LINE
  5
1559
  8
SJC
 10
5006.7735435375671
 20
2902.8668766680948
 30
0.0
 11
5006.7735435375653
 21
1702.8668766680939
 31
0.0
  0
LINE
  5
155A
  8
SJC
 10
5146.5735435375673
 20
2902.8668766680939
 30
0.0
 11
5146.5735435375673
 21
1702.8668766680939
 31
0.0
  0
LINE
  5
155B
  8
SJC
 10
5006.7735435375653
 20
1702.8668766680939
 30
0.0
 11
5146.5735435375673
 21
1702.8668766680939
 31
0.0
1001
ACAD
1000
ASC_BOUNDS
1002
{
1070
    19
1002
}
  0
LINE
  5
155C
  8
HASEN
 10
5011.2735435375671
 20
2902.8668766680939
 30
0.0
 11
5011.2735435375671
 21
1702.8668766680939
 31
0.0
  0
LINE
  5
155D
  8
HASEN
 10
5142.0735435375664
 20
2902.8668766680939
 30
0.0
 11
5142.0735435375664
 21
1702.8668766680939
 31
0.0
  0
LINE
  5
155E
  8
SJC
 10
5006.7735435375671
 20
2902.8668766680948
 30
0.0
 11
5146.5735435375673
 21
2902.8668766680948
 31
0.0
1001
ACAD
1000
ASC_BOUNDS
1002
{
1070
    19
1002
}
  0
CIRCLE
  5
155F
  8
SJC
 10
5076.6735435375658
 20
3193.6008427130382
 30
0.0
 40
69.900000000000006
  0
CIRCLE
  5
1560
  8
SJC
 10
5076.6735435375658
 20
3193.6008427130382
 30
0.0
 40
65.400000000000006
  0
LINE
  5
1561
  8
CENTER
 10
5076.6735435375658
 20
3073.7008427130381
 30
0.0
 11
5076.6735435375658
 21
3313.5008427130379
 31
0.0
  0
LINE
  5
1562
  8
CENTER
 10
4956.7735435375671
 20
3193.6008427130382
 30
0.0
 11
5196.5735435375664
 21
3193.6008427130382
 31
0.0
  0
DIMENSION
  5
1563
  8
SUNPOU
  2
*D11
 10
4837.4779409070652
 20
1702.8668766680939
 30
0.0
 11
4796.9779409070652
 21
2302.8668766680962
 31
0.0
 70
     0
 13
5006.7735435375671
 23
2902.8668766680948
 33
0.0
 14
5006.7735435375653
 24
1702.8668766680939
 34
0.0
 50
90.0
1001
ACAD
1000
DSTYLE
1002
{
1070
   287
1070
     5
1070
    40
1040
15.0
1070
    41
1040
2.0
1070
    42
1040
1.0
1070
    43
1040
6.0
1070
    44
1040
1.0
1070
    73
1070
     0
1070
    74
1070
     0
1070
    77
1070
     1
1070
    78
1070
     8
1070
   140
1040
3.0
1070
   147
1040
1.1999999999999991
1070
   172
1070
     1
1070
   179
1070
     2
1070
   271
1070
     2
1070
   279
1070
     2
1070
   340
1005
11D
1002
}
  0
DIMENSION
  5
1564
  8
SUNPOU
  2
*D12
 10
5132.2159945429521
 20
3236.0395766281031
 30
0.0
 11
5184.4837672791227
 21
3326.260254688103
 31
0.0
 70
   131
 15
5021.1310925321759
 25
3151.1621087979688
 35
0.0
 40
0.0
1001
ACAD
1000
DSTYLE
1002
{
1070
   287
1070
     5
1070
    40
1040
15.0
1070
    41
1040
2.0
1070
    42
1040
1.0
1070
    43
1040
6.0
1070
    44
1040
1.0
1070
    73
1070
     0
1070
    74
1070
     0
1070
    77
1070
     1
1070
    78
1070
     8
1070
   140
1040
3.0
1070
   147
1040
1.1999999999999991
1070
   172
1070
     1
1070
   179
1070
     2
1070
   271
1070
     2
1070
   279
1070
     2
1070
   288
1070
     1
1070
   340
1005
11D
1002
}
  0
INSERT
  5
1565
  8
0
  2
*U23
 10
0.0
 20
0.0
 30
0.0
1001
ACAD
1000
DSTYLE
1002
{
1070
    40
1040
15.0
1070
    41
1040
2.0
1070
    42
1040
1.0
1070
    43
1040
6.0
1070
    44
1040
1.0
1070
    73
1070
     0
1070
    74
1070
     0
1070
    77
1070
     1
1070
    78
1070
     8
1070
   140
1040
3.0
1070
   147
1040
1.1999999999999991
1070
   172
1070
     1
1070
   179
1070
     2
1070
   271
1070
     2
1070
   279
1070
     2
1070
   340
1005
11D
1002
}
  0
TEXT
  5
1566
  8
MOJI
 10
5242.9368316844339
 20
2533.4211801340248
 30
0.0
 40
45.0
  1
φ139.8×t4.5
 41
0.8
  7
EXT08
  0
LINE
  5
1567
  8
MOJI
 10
5242.1902777641271
 20
2509.7945129933109
 30
0.0
 11
5618.6559979945469
 21
2509.7945129933109
 31
0.0
  0
TEXT
  5
1568
  8
MOJI2
 10
4914.3992413601809
 20
1538.044564283693
 30
0.0
 40
60.0
  1
鋼管杭詳細図
 41
0.8
  7
KANJI08
  0
LINE
  5
1569
  8
MOJI2
 10
4891.3480332391491
 20
1524.1356656568571
 30
0.0
 11
5279.42611515922
 21
1524.1356656568571
 31
0.0
  0
DIMENSION
  5
15BD
  8
SUNPOU
  2
*D13
 10
3783.4724219452728
 20
2951.572627995909
 30
0.0
 11
3742.9724219452719
 21
2801.5726279959099
 31
0.0
 70
     0
 13
3286.7125721558259
 23
2651.5726279959099
 33
0.0
 14
3086.7125721558259
 24
2951.572627995909
 34
0.0
 50
90.0
1001
ACAD
1000
DSTYLE
1002
{
1070
   287
1070
     5
1070
    40
1040
15.0
1070
    41
1040
2.0
1070
    42
1040
1.0
1070
    43
1040
6.0
1070
    44
1040
1.0
1070
    73
1070
     0
1070
    74
1070
     0
1070
    77
1070
     1
1070
    78
1070
     8
1070
   140
1040
3.0
1070
   147
1040
1.1999999999999991
1070
   172
1070
     1
1070
   176
1070
   256
1070
   177
1070
   256
1070
   178
1070
   256
1070
   271
1070
     1
1070
   275
1070
     1
1070
   279
1070
     2
1070
   340
1005
11F
1002
}
  0
DIMENSION
  5
15BE
  8
SUNPOU
  2
*D14
 10
3783.4724219452728
 20
2401.5726279958958
 30
0.0
 11
3742.9724219452719
 21
2526.5726279959031
 31
0.0
 70
     0
 13
3286.7125721558259
 23
2651.5726279959099
 33
0.0
 14
3286.7125721558259
 24
2401.5726279958958
 34
0.0
 50
90.0
1001
ACAD
1000
DSTYLE
1002
{
1070
   287
1070
     5
1070
    40
1040
15.0
1070
    41
1040
2.0
1070
    42
1040
1.0
1070
    43
1040
6.0
1070
    44
1040
1.0
1070
    73
1070
     0
1070
    74
1070
     0
1070
    77
1070
     1
1070
    78
1070
     8
1070
   140
1040
3.0
1070
   147
1040
1.1999999999999991
1070
   172
1070
     1
1070
   179
1070
     2
1070
   271
1070
     2
1070
   279
1070
     2
1070
   340
1005
11D
1002
}
  0
DIMENSION
  5
15BF
  8
SUNPOU
  2
*D15
 10
3783.4724219452728
 20
2151.572627995909
 30
0.0
 11
3742.9724219452719
 21
2276.5726279959031
 31
0.0
 70
     0
 13
3286.7125721558259
 23
2401.5726279958958
 33
0.0
 14
3697.2512380179219
 24
2151.572627995909
 34
0.0
 50
90.0
1001
ACAD
1000
DSTYLE
1002
{
1070
   287
1070
     5
1070
    40
1040
15.0
1070
    41
1040
2.0
1070
    42
1040
1.0
1070
    43
1040
6.0
1070
    44
1040
1.0
1070
    73
1070
     0
1070
    74
1070
     0
1070
    77
1070
     1
1070
    78
1070
     8
1070
   140
1040
3.0
1070
   147
1040
1.1999999999999991
1070
   172
1070
     1
1070
   179
1070
     2
1070
   271
1070
     2
1070
   279
1070
     2
1070
   340
1005
11D
1002
}
  0
DIMENSION
  5
15FF
  8
SUNPOU
  2
*D16
 10
1289.952722366379
 20
2951.572627995909
 30
0.0
 11
1249.4527223663781
 21
2551.5726279959099
 31
0.0
 70
     0
 13
1376.1739062937299
 23
2151.572627995909
 33
0.0
 14
1986.7125721558259
 24
2951.572627995909
 34
0.0
 50
90.0
1001
ACAD
1000
DSTYLE
1002
{
1070
   287
1070
     5
1070
    40
1040
15.0
1070
    41
1040
2.0
1070
    42
1040
1.0
1070
    43
1040
6.0
1070
    44
1040
1.0
1070
    73
1070
     0
1070
    74
1070
     0
1070
    77
1070
     1
1070
    78
1070
     8
1070
   140
1040
3.0
1070
   147
1040
1.1999999999999991
1070
   172
1070
     1
1070
   179
1070
     2
1070
   271
1070
     2
1070
   279
1070
     2
1070
   340
1005
11D
1002
}
  0
LINE
  5
16C6
  8
MOJI
 10
4528.2035786553051
 20
606.98140002950731
 30
0.0
 11
5691.0795432150417
 21
606.98140002950731
 31
0.0
  0
LINE
  5
16C7
  8
MOJI
 10
5691.0795432150417
 20
606.98140002950731
 30
0.0
 11
5691.0795432150417
 21
303.45559279947298
 31
0.0
  0
LINE
  5
16C8
  8
MOJI
 10
4818.9652661473556
 20
303.45559279947298
 30
0.0
 11
4818.9652661473556
 21
606.98140002950731
 31
0.0
  0
LINE
  5
16C9
  8
MOJI
 10
4528.2035786553042
 20
303.45559279947298
 30
0.0
 11
4528.2035786553051
 21
606.98140002950731
 31
0.0
  0
LINE
  5
16CA
  8
MOJI
 10
5148.1779996400865
 20
303.45559279947298
 30
0.0
 11
5148.1779996400865
 21
606.98140002950731
 31
0.0
  0
TEXT
  5
16CB
  8
MOJI
 10
4620.9511115145051
 20
547.64697883541544
 30
0.0
 40
45.0
  1
品  名
 41
0.8
  7
EXT08
 72
     1
 11
4679.7511115145053
 21
547.64697883541544
 31
0.0
  0
TEXT
  5
16CC
  8
MOJI
 10
4924.089531650653
 20
550.01827420440009
 30
0.0
 40
45.0
  1
材  質
 41
0.8
  7
EXT08
 72
     1
 11
4984.089531650653
 21
550.01827420440009
 31
0.0
  0
TEXT
  5
16CD
  8
MOJI
 10
5356.1241430000864
 20
546.03142712751298
 30
0.0
 40
45.0
  1
摘  要
 41
0.8
  7
EXT08
 72
     1
 11
5416.467000142944
 21
546.03142712751298
 31
0.0
  0
TEXT
  5
16CE
  8
MOJI
 10
4552.9873673879329
 20
400.46383898699582
 30
0.0
 40
45.0
  1
ビームパイプ
 41
0.8
  7
EXT08
 72
     1
 11
4681.1302245307888
 21
400.46383898699582
 31
0.0
  0
TEXT
  5
16CF
  8
MOJI
 10
4617.7873673879321
 20
476.2168553221851
 30
0.0
 40
45.0
  1
主  柱
 41
0.8
  7
EXT08
 72
     1
 11
4677.7873673879312
 21
476.2168553221851
 31
0.0
  0
TEXT
  5
16D0
  8
MOJI
 10
4886.6704570057318
 20
476.2168553221851
 30
0.0
 40
45.0
  1
STK400
 41
0.8
  7
EXT08
 72
     1
 11
4986.9561712914456
 21
476.2168553221851
 31
0.0
  0
TEXT
  5
16D1
  8
MOJI
 10
5173.2560201200868
 20
476.2168553221851
 30
0.0
 40
45.0
  1
亜鉛めっき＋静電粉体塗装
 41
0.8
  7
EXT08
 72
     1
 11
5427.6560201200864
 21
476.2168553221851
 31
0.0
  0
LINE
  5
16D2
  8
MOJI
 10
4528.2035786553051
 20
531.09994822199883
 30
0.0
 11
5691.0795432150417
 21
531.09994822199883
 31
0.0
  0
LINE
  5
16D3
  8
MOJI
 10
4528.2035786553051
 20
455.21849641449018
 30
0.0
 11
5691.0795432150417
 21
455.21849641449018
 31
0.0
  0
LINE
  5
16D4
  8
MOJI
 10
4528.2035786553051
 20
379.33704460698158
 30
0.0
 11
5691.0795432150417
 21
379.33704460698158
 31
0.0
  0
TEXT
  5
16D5
  8
MOJI
 10
5173.2560201200868
 20
400.3354035146765
 30
0.0
 40
45.0
  1
亜鉛めっき＋静電粉体塗装
 41
0.8
  7
EXT08
 72
     1
 11
5427.6560201200864
 21
400.3354035146765
 31
0.0
  0
TEXT
  5
16D6
  8
MOJI
 10
4886.6704570057318
 20
400.3354035146765
 30
0.0
 40
45.0
  1
STK400
 41
0.8
  7
EXT08
 72
     1
 11
4986.9561712914456
 21
400.3354035146765
 31
0.0
  0
TEXT
  5
16D7
  8
MOJI
 10
4621.1302245307897
 20
324.58238717948723
 30
0.0
 40
45.0
  1
鋼管杭
 41
0.8
  7
EXT08
 72
     1
 11
4681.1302245307888
 21
324.58238717948723
 31
0.0
  0
LINE
  5
16D8
  8
MOJI
 10
4528.2035786553051
 20
303.45559279947298
 30
0.0
 11
5691.0795432150417
 21
303.45559279947298
 31
0.0
  0
TEXT
  5
16D9
  8
MOJI
 10
5216.4560201200857
 20
324.4539517071679
 30
0.0
 40
45.0
  1
高耐食溶融めっき鋼管
 41
0.8
  7
EXT08
 72
     1
 11
5427.6560201200864
 21
324.4539517071679
 31
0.0
  0
TEXT
  5
16DA
  8
MOJI
 10
4846.8990284343035
 20
324.4539517071679
 30
0.0
 40
45.0
  1
STK400相当
 41
0.8
  7
EXT08
 72
     1
 11
4986.9561712914456
 21
324.4539517071679
 31
0.0
  0
ENDSEC
  0
EOF
