  0
SECTION
  2
HEADER
  9
$ACADVER
  1
AC1009
  9
$INSBASE
 10
0.0
 20
0.0
 30
0.0
  9
$EXTMIN
 10
0.0
 20
0.0
 30
0.0
  9
$EXTMAX
 10
6150.0
 20
4305.0
 30
0.0
  9
$LIMMIN
 10
0.0
 20
0.0
  9
$LIMMAX
 10
6300.0
 20
4455.0
  9
$ORTHOMODE
 70
     0
  9
$REGENMODE
 70
     1
  9
$FILLMODE
 70
     1
  9
$QTEXTMODE
 70
     0
  9
$MIRRTEXT
 70
     0
  9
$DRAGMODE
 70
     2
  9
$LTSCALE
 40
150.0
  9
$OSMODE
 70
    37
  9
$ATTMODE
 70
     1
  9
$TEXTSIZE
 40
45.0
  9
$TRACEWID
 40
1.0
  9
$TEXTSTYLE
  7
EXT08
  9
$CLAYER
  8
0
  9
$CELTYPE
  6
BYLAYER
  9
$CECOLOR
 62
   256
  9
$DIMSCALE
 40
15.0
  9
$DIMASZ
 40
2.0
  9
$DIMEXO
 40
1.0
  9
$DIMDLI
 40
6.0
  9
$DIMRND
 40
0.0
  9
$DIMDLE
 40
0.0
  9
$DIMEXE
 40
1.0
  9
$DIMTP
 40
0.0
  9
$DIMTM
 40
0.0
  9
$DIMTXT
 40
3.0
  9
$DIMCEN
 40
0.09
  9
$DIMTSZ
 40
0.0
  9
$DIMTOL
 70
     0
  9
$DIMLIM
 70
     0
  9
$DIMTIH
 70
     0
  9
$DIMTOH
 70
     0
  9
$DIMSE1
 70
     0
  9
$DIMSE2
 70
     0
  9
$DIMTAD
 70
     1
  9
$DIMZIN
 70
     8
  9
$DIMBLK
  1

  9
$DIMASO
 70
     1
  9
$DIMSHO
 70
     1
  9
$DIMPOST
  1

  9
$DIMAPOST
  1

  9
$DIMALT
 70
     0
  9
$DIMALTD
 70
     2
  9
$DIMALTF
 40
25.399999999999999
  9
$DIMLFAC
 40
1.0
  9
$DIMTOFL
 70
     1
  9
$DIMTVP
 40
0.0
  9
$DIMTIX
 70
     0
  9
$DIMSOXD
 70
     0
  9
$DIMSAH
 70
     0
  9
$DIMBLK1
  1

  9
$DIMBLK2
  1

  9
$DIMSTYLE
  2
SJC
  9
$DIMCLRD
 70
     0
  9
$DIMCLRE
 70
     0
  9
$DIMCLRT
 70
     0
  9
$DIMTFAC
 40
1.0
  9
$DIMGAP
 40
1.1999999999999991
  9
$LUNITS
 70
     2
  9
$LUPREC
 70
     2
  9
$SKETCHINC
 40
1.0
  9
$FILLETRAD
 40
200.0
  9
$AUNITS
 70
     0
  9
$AUPREC
 70
     0
  9
$MENU
  1
.
  9
$ELEVATION
 40
0.0
  9
$PELEVATION
 40
0.0
  9
$THICKNESS
 40
0.0
  9
$LIMCHECK
 70
     0
  9
$BLIPMODE
 70
     0
  9
$CHAMFERA
 40
0.0
  9
$CHAMFERB
 40
0.0
  9
$SKPOLY
 70
     0
  9
$TDCREATE
 40
2456287.4708731128
  9
$TDUPDATE
 40
2456545.7110065739
  9
$TDINDWG
 40
0.1197669444
  9
$TDUSRTIMER
 40
0.1197667593
  9
$USRTIMER
 70
     1
  9
$ANGBASE
 50
0.0
  9
$ANGDIR
 70
     0
  9
$PDMODE
 70
    33
  9
$PDSIZE
 40
5.0
  9
$PLINEWID
 40
0.0
  9
$COORDS
 70
     1
  9
$SPLFRAME
 70
     0
  9
$SPLINETYPE
 70
     6
  9
$SPLINESEGS
 70
     8
  9
$ATTDIA
 70
     0
  9
$ATTREQ
 70
     1
  9
$HANDLING
 70
     1
  9
$HANDSEED
  5
1C12
  9
$SURFTAB1
 70
     6
  9
$SURFTAB2
 70
     6
  9
$SURFTYPE
 70
     6
  9
$SURFU
 70
     6
  9
$SURFV
 70
     6
  9
$UCSNAME
  2

  9
$UCSORG
 10
0.0
 20
0.0
 30
0.0
  9
$UCSXDIR
 10
1.0
 20
0.0
 30
0.0
  9
$UCSYDIR
 10
0.0
 20
1.0
 30
0.0
  9
$PUCSNAME
  2

  9
$PUCSORG
 10
0.0
 20
0.0
 30
0.0
  9
$PUCSXDIR
 10
1.0
 20
0.0
 30
0.0
  9
$PUCSYDIR
 10
0.0
 20
1.0
 30
0.0
  9
$USERI1
 70
     3
  9
$USERI2
 70
    15
  9
$USERI3
 70
     0
  9
$USERI4
 70
     0
  9
$USERI5
 70
     0
  9
$USERR1
 40
0.0
  9
$USERR2
 40
0.0
  9
$USERR3
 40
0.0
  9
$USERR4
 40
0.0
  9
$USERR5
 40
0.0
  9
$WORLDVIEW
 70
     1
  9
$SHADEDGE
 70
     3
  9
$SHADEDIF
 70
    70
  9
$TILEMODE
 70
     1
  9
$MAXACTVP
 70
    64
  9
$PLIMCHECK
 70
     0
  9
$PEXTMIN
 10
0.0
 20
0.0
 30
0.0
  9
$PEXTMAX
 10
0.0
 20
0.0
 30
0.0
  9
$PLIMMIN
 10
0.0
 20
0.0
  9
$PLIMMAX
 10
12.0
 20
9.0
  9
$UNITMODE
 70
     0
  9
$VISRETAIN
 70
     1
  9
$PLINEGEN
 70
     0
  9
$PSLTSCALE
 70
     1
  0
ENDSEC
  0
SECTION
  2
TABLES
  0
TABLE
  2
VPORT
 70
     2
  0
VPORT
  2
*ACTIVE
 70
     0
 10
0.0
 20
0.0
 11
1.0
 21
1.0
 12
5754.52578347483
 22
3074.9754629490549
 13
0.0
 23
0.0
 14
10.0
 24
10.0
 15
10.0
 25
10.0
 16
0.0
 26
0.0
 36
1.0
 17
0.0
 27
0.0
 37
0.0
 40
7572.7042698937312
 41
1.9010526315789471
 42
50.0
 43
0.0
 44
0.0
 50
0.0
 51
0.0
 71
     0
 72
  1000
 73
     1
 74
     3
 75
     0
 76
     0
 77
     0
 78
     0
  0
ENDTAB
  0
TABLE
  2
LTYPE
 70
     4
  0
LTYPE
  2
CONTINUOUS
 70
     0
  3
Solid line
 72
    65
 73
     0
 40
0.0
  0
LTYPE
  2
PHANTOM
 70
     0
  3
Phantom ______  __  __  ______  __  __  ______
 72
    65
 73
     6
 40
2.5
 49
1.25
 49
-0.25
 49
0.25
 49
-0.25
 49
0.25
 49
-0.25
  0
LTYPE
  2
CENTER
 70
     0
  3
Center ____ _ ____ _ ____ _ ____ _ ____ _ ____
 72
    65
 73
     4
 40
2.0
 49
1.25
 49
-0.25
 49
0.25
 49
-0.25
  0
LTYPE
  2
HIDDEN
 70
     0
  3
Hidden __ __ __ __ __ __ __ __ __ __ __ __ __ _
 72
    65
 73
     2
 40
0.375
 49
0.25
 49
-0.125
  0
ENDTAB
  0
TABLE
  2
LAYER
 70
    15
  0
LAYER
  2
0
 70
     0
 62
     7
  6
CONTINUOUS
  0
LAYER
  2
ZWAKU
 70
     1
 62
    -7
  6
CONTINUOUS
  0
LAYER
  2
SJC
 70
     0
 62
     1
  6
CONTINUOUS
  0
LAYER
  2
INFORMATION
 70
     1
 62
     7
  6
CONTINUOUS
  0
LAYER
  2
SJC2
 70
     0
 62
     7
  6
CONTINUOUS
  0
LAYER
  2
KASOU
 70
     0
 62
     2
  6
PHANTOM
  0
LAYER
  2
CENTER
 70
     0
 62
     3
  6
CENTER
  0
LAYER
  2
SUNPOU
 70
     0
 62
     4
  6
CONTINUOUS
  0
LAYER
  2
WAKU
 70
     0
 62
     5
  6
CONTINUOUS
  0
LAYER
  2
MOJI
 70
     0
 62
     6
  6
CONTINUOUS
  0
LAYER
  2
MOJI2
 70
     0
 62
     1
  6
CONTINUOUS
  0
LAYER
  2
HASEN
 70
     0
 62
     7
  6
HIDDEN
  0
LAYER
  2
HATCH
 70
     0
 62
     2
  6
CONTINUOUS
  0
LAYER
  2
HOJO
 70
     0
 62
    -8
  6
CONTINUOUS
  0
LAYER
  2
DEFPOINTS
 70
     0
 62
     7
  6
CONTINUOUS
  0
ENDTAB
  0
TABLE
  2
STYLE
 70
     8
  0
STYLE
  2
STANDARD
 70
     0
 40
0.0
 41
1.0
 50
0.0
 71
     0
 42
3.0
  3
txt.shx
  4
extfont2.shx
  0
STYLE
  2
KANJI
 70
     0
 40
0.0
 41
1.0
 50
0.0
 71
     0
 42
0.0
  3
ROMANS.SHX
  4
BIGFONT.SHX
  0
STYLE
  2
SIMPLEX
 70
     0
 40
0.0
 41
1.0
 50
0.0
 71
     0
 42
0.0
  3
SCRIPTS.shx
  4

  0
STYLE
  2
TATEEXT
 70
     4
 40
0.0
 41
1.0
 50
0.0
 71
     0
 42
0.0
  3
ROMANS.shx
  4
EXTFONT.shx
  0
STYLE
  2
TATEBIG
 70
     4
 40
0.0
 41
1.0
 50
0.0
 71
     0
 42
0.0
  3
ROMANS.shx
  4
BIGFONT.shx
  0
STYLE
  2
EXT08
 70
     0
 40
0.0
 41
0.8
 50
0.0
 71
     0
 42
45.0
  3
ROMANS.shx
  4
EXTFONT.shx
  0
STYLE
  2
EXT
 70
     0
 40
0.0
 41
1.0
 50
0.0
 71
     0
 42
0.0
  3
ROMANS.shx
  4
EXTFONT.shx
  0
STYLE
  2
KANJI08
 70
     0
 40
0.0
 41
0.8
 50
0.0
 71
     0
 42
0.0
  3
ROMANS.shx
  4
BIGFONT.shx
  0
ENDTAB
  0
TABLE
  2
VIEW
 70
     0
  0
ENDTAB
  0
TABLE
  2
UCS
 70
     0
  0
ENDTAB
  0
TABLE
  2
APPID
 70
     2
  0
APPID
  2
ACAD
 70
     0
  0
APPID
  2
ACAD_PSEXT
 70
     0
  0
ENDTAB
  0
TABLE
  2
DIMSTYLE
 70
     5
  0
DIMSTYLE
  2
ISO-25
 70
     0
  3

  4

  5

  6

  7

 40
1.0
 41
2.5
 42
0.625
 43
3.75
 44
1.25
 45
0.0
 46
0.0
 47
0.0
 48
0.0
140
2.5
141
2.5
142
0.0
143
0.03937007874016
144
1.0
145
0.0
146
1.0
147
0.625
 71
     0
 72
     0
 73
     0
 74
     0
 75
     0
 76
     0
 77
     1
 78
     8
170
     0
171
     3
172
     1
173
     0
174
     0
175
     0
176
     0
177
     0
178
     0
  0
DIMSTYLE
  2
STANDARD
 70
     0
  3

  4

  5

  6

  7

 40
1.0
 41
0.18
 42
0.0625
 43
0.38
 44
0.18
 45
0.0
 46
0.0
 47
0.0
 48
0.0
140
0.18
141
0.09
142
0.0
143
25.399999999999999
144
1.0
145
0.0
146
1.0
147
0.09
 71
     0
 72
     0
 73
     1
 74
     1
 75
     0
 76
     0
 77
     0
 78
     0
170
     0
171
     2
172
     0
173
     0
174
     0
175
     0
176
     0
177
     0
178
     0
  0
DIMSTYLE
  2
RUISEKI1
 70
     0
  3

  4

  5

  6
DOT
  7

 40
15.0
 41
2.0
 42
1.0
 43
6.0
 44
30.0
 45
0.0
 46
0.0
 47
0.0
 48
0.0
140
0.18
141
0.09
142
0.0
143
25.399999999999999
144
1.0
145
0.0
146
1.0
147
1.5
 71
     0
 72
     0
 73
     1
 74
     1
 75
     0
 76
     0
 77
     1
 78
     0
170
     0
171
     2
172
     0
173
     1
174
     0
175
     0
176
     0
177
     0
178
     0
  0
DIMSTYLE
  2
RUISEKI2
 70
     0
  3

  4

  5

  6
NONE
  7

 40
15.0
 41
2.0
 42
1.0
 43
6.0
 44
30.0
 45
0.0
 46
0.0
 47
0.0
 48
0.0
140
0.18
141
0.09
142
0.0
143
25.399999999999999
144
1.0
145
0.0
146
1.0
147
1.5
 71
     0
 72
     0
 73
     1
 74
     1
 75
     0
 76
     0
 77
     1
 78
     0
170
     0
171
     2
172
     0
173
     1
174
     0
175
     0
176
     0
177
     0
178
     0
  0
DIMSTYLE
  2
SJC
 70
     0
  3

  4

  5

  6

  7

 40
1.0
 41
0.18
 42
0.0625
 43
0.38
 44
0.18
 45
0.0
 46
0.0
 47
0.0
 48
0.0
140
0.18
141
0.09
142
0.0
143
25.399999999999999
144
1.0
145
0.0
146
1.0
147
0.09
 71
     0
 72
     0
 73
     1
 74
     1
 75
     0
 76
     0
 77
     0
 78
     0
170
     0
171
     2
172
     0
173
     0
174
     0
175
     0
176
     0
177
     0
178
     0
  0
ENDTAB
  0
ENDSEC
  0
SECTION
  2
BLOCKS
  0
BLOCK
  8
0
  2
$MODEL_SPACE
 70
     0
 10
0.0
 20
0.0
 30
0.0
  3
$MODEL_SPACE
  1

  0
ENDBLK
  5
21
  8
0
  0
BLOCK
 67
     1
  8
0
  2
$PAPER_SPACE
 70
     0
 10
0.0
 20
0.0
 30
0.0
  3
$PAPER_SPACE
  1

  0
ENDBLK
  5
D5
 67
     1
  8
0
  0
BLOCK
  8
0
  2
SEIKO_LS-1100A3
 70
     0
 10
0.0
 20
0.0
 30
0.0
  3
SEIKO_LS-1100A3
  1

  0
POLYLINE
  5
F8
  8
ZWAKU
 66
     1
 10
0.0
 20
0.0
 30
0.0
 70
     1
  0
VERTEX
  5
1AEA
  8
ZWAKU
 10
0.0
 20
0.0
 30
0.0
  0
VERTEX
  5
1AEB
  8
ZWAKU
 10
0.0
 20
287.0
 30
0.0
  0
VERTEX
  5
1AEC
  8
ZWAKU
 10
410.0
 20
287.0
 30
0.0
  0
VERTEX
  5
1AED
  8
ZWAKU
 10
410.0
 20
0.0
 30
0.0
  0
SEQEND
  5
1AEE
  8
ZWAKU
  0
ENDBLK
  5
FA
  8
0
  0
BLOCK
  8
0
  2
_DOT
 70
     0
 10
0.0
 20
0.0
 30
0.0
  3
_DOT
  1

  0
POLYLINE
  5
10F
  8
0
  6
BYBLOCK
 62
     0
 66
     1
 10
0.0
 20
0.0
 30
0.0
 70
     1
 40
0.5
 41
0.5
  0
VERTEX
  5
1AEF
  8
0
  6
BYBLOCK
 62
     0
 10
-0.25
 20
0.0
 30
0.0
 42
1.0
  0
VERTEX
  5
1AF0
  8
0
  6
BYBLOCK
 62
     0
 10
0.25
 20
0.0
 30
0.0
 42
1.0
  0
SEQEND
  5
1AF1
  8
0
  6
BYBLOCK
 62
     0
  0
LINE
  5
110
  8
0
  6
BYBLOCK
 62
     0
 10
-0.5
 20
0.0
 30
0.0
 11
-1.0
 21
0.0
 31
0.0
  0
ENDBLK
  5
112
  8
0
  0
BLOCK
  8
0
  2
_NONE
 70
     0
 10
0.0
 20
0.0
 30
0.0
  3
_NONE
  1

  0
ENDBLK
  5
116
  8
0
  0
BLOCK
  8
0
  2
B0040021
 70
     0
 10
0.0
 20
0.0
 30
0.0
  3
B0040021
  1

  0
LINE
  5
12E
  8
HATCH
 10
90.534596808877254
 20
-7.5000000000002274
 30
0.0
 11
117.0518952133159
 21
-34.017298404438861
 31
0.0
  0
LINE
  5
12F
  8
HATCH
 10
98.034596808877254
 20
0.0
 30
0.0
 11
132.0518952133159
 21
-34.017298404438861
 31
0.0
  0
LINE
  5
130
  8
HATCH
 10
22.5
 20
-7.5000000000002274
 30
0.0
 11
49.017298404438627
 21
-34.017298404438861
 31
0.0
  0
LINE
  5
131
  8
HATCH
 10
30.0
 20
0.0
 30
0.0
 11
-4.0172984044386331
 21
-34.017298404438861
 31
0.0
  0
LINE
  5
132
  8
HATCH
 10
15.0
 20
-15.000000000000229
 30
0.0
 11
34.017298404438627
 21
-34.017298404438861
 31
0.0
  0
LINE
  5
133
  8
HATCH
 10
0.0
 20
0.0
 30
0.0
 11
-34.017298404438627
 21
-34.017298404438861
 31
0.0
  0
LINE
  5
134
  8
HATCH
 10
15.0
 20
0.0
 30
0.0
 11
-19.01729840443863
 21
-34.017298404438861
 31
0.0
  0
LINE
  5
135
  8
HATCH
 10
83.034596808877254
 20
0.0
 30
0.0
 11
56.517298404438861
 21
-26.51729840443863
 31
0.0
  0
LINE
  5
136
  8
HATCH
 10
98.034596808877254
 20
0.0
 30
0.0
 11
64.017298404438634
 21
-34.017298404438861
 31
0.0
  0
LINE
  5
137
  8
HATCH
 10
68.034596808877254
 20
0.0
 30
0.0
 11
49.017298404438861
 21
-19.01729840443863
 31
0.0
  0
LINE
  5
138
  8
HATCH
 10
30.0
 20
0.0
 30
0.0
 11
64.017298404438634
 21
-34.017298404438861
 31
0.0
  0
LINE
  5
139
  8
HATCH
 10
83.034596808877254
 20
-15.000000000000229
 30
0.0
 11
102.0518952133159
 21
-34.017298404438861
 31
0.0
  0
ENDBLK
  5
13A
  8
0
  0
BLOCK
  8
0
  2
*D5
 70
     1
 10
0.0
 20
0.0
 30
0.0
  3
*D5
  1

  0
LINE
  5
1AF2
  8
SUNPOU
 10
1786.7125721558259
 20
2728.4226279959089
 30
0.0
 11
1786.7125721558259
 21
3198.0425213434009
 31
0.0
  0
LINE
  5
1AF3
  8
SUNPOU
 10
3286.7125721558259
 20
2728.4226279959089
 30
0.0
 11
3286.7125721558259
 21
3198.0425213434009
 31
0.0
  0
LINE
  5
1AF4
  8
SUNPOU
 10
1816.7125721558259
 20
3183.0425213434009
 30
0.0
 11
3256.7125721558259
 21
3183.0425213434009
 31
0.0
  0
SOLID
  5
1AF5
  8
SUNPOU
 10
1816.7125721558259
 20
3188.0425213434009
 30
0.0
 11
1816.7125721558259
 21
3178.0425213434
 31
0.0
 12
1786.7125721558259
 22
3183.0425213434009
 32
0.0
 13
1786.7125721558259
 23
3183.0425213434009
 33
0.0
  0
SOLID
  5
1AF6
  8
SUNPOU
 10
3256.7125721558259
 20
3188.0425213434009
 30
0.0
 11
3256.7125721558259
 21
3178.0425213434
 31
0.0
 12
3286.7125721558259
 22
3183.0425213434009
 32
0.0
 13
3286.7125721558259
 23
3183.0425213434009
 33
0.0
  0
TEXT
  8
SUNPOU
  40
45
  5
1C08
  72
0
  71
0
 10
2446.71
 20
3143.89
 30
0.000000
  1
1500
  7
KANJI08
  0
POINT
  5
1AF8
  8
DEFPOINTS
 62
     0
 10
1786.7125721558259
 20
2713.4226279959089
 30
0.0
  0
POINT
  5
1AF9
  8
DEFPOINTS
 62
     0
 10
3286.7125721558259
 20
2713.4226279959089
 30
0.0
  0
POINT
  5
1AFA
  8
DEFPOINTS
 62
     0
 10
3286.7125721558259
 20
3183.0425213434009
 30
0.0
  0
ENDBLK
  5
418
  8
0
  0
BLOCK
  8
0
  2
*D6
 70
     1
 10
0.0
 20
0.0
 30
0.0
  3
*D6
  1

  0
LINE
  5
1AFB
  8
SUNPOU
 10
1521.5766120342739
 20
1551.572627995909
 30
0.0
 11
1274.952722366379
 21
1551.572627995909
 31
0.0
  0
LINE
  5
1AFC
  8
SUNPOU
 10
1361.1739062937299
 20
2151.572627995909
 30
0.0
 11
1274.952722366379
 21
2151.572627995909
 31
0.0
  0
LINE
  5
1AFD
  8
SUNPOU
 10
1289.952722366379
 20
1581.572627995909
 30
0.0
 11
1289.952722366379
 21
2121.572627995909
 31
0.0
  0
SOLID
  5
1AFE
  8
SUNPOU
 10
1284.952722366379
 20
1581.572627995909
 30
0.0
 11
1294.952722366379
 21
1581.572627995909
 31
0.0
 12
1289.952722366379
 22
1551.572627995909
 32
0.0
 13
1289.952722366379
 23
1551.572627995909
 33
0.0
  0
SOLID
  5
1AFF
  8
SUNPOU
 10
1284.952722366379
 20
2121.572627995909
 30
0.0
 11
1294.952722366379
 21
2121.572627995909
 31
0.0
 12
1289.952722366379
 22
2151.572627995909
 32
0.0
 13
1289.952722366379
 23
2151.572627995909
 33
0.0
  0
TEXT
  8
SUNPOU
  40
45
  5
1C09
  72
0
  71
0
 10
1159.45
 20
1771.92
 30
0.000000
  1
600
  7
KANJI08
  0
POINT
  5
1B01
  8
DEFPOINTS
 62
     0
 10
1536.5766120342739
 20
1551.572627995909
 30
0.0
  0
POINT
  5
1B02
  8
DEFPOINTS
 62
     0
 10
1376.1739062937299
 20
2151.572627995909
 30
0.0
  0
POINT
  5
1B03
  8
DEFPOINTS
 62
     0
 10
1289.952722366379
 20
2151.572627995909
 30
0.0
  0
ENDBLK
  5
42D
  8
0
  0
BLOCK
  8
0
  2
*D7
 70
     1
 10
0.0
 20
0.0
 30
0.0
  3
*D7
  1

  0
LINE
  5
1B04
  8
SUNPOU
 10
3301.7125721558268
 20
2651.5726279959099
 30
0.0
 11
3798.4724219452728
 21
2651.5726279959099
 31
0.0
  0
LINE
  5
1B05
  8
SUNPOU
 10
3101.7125721558259
 20
2951.572627995909
 30
0.0
 11
3798.4724219452728
 21
2951.572627995909
 31
0.0
  0
LINE
  5
1B06
  8
SUNPOU
 10
3783.4724219452728
 20
2681.5726279959099
 30
0.0
 11
3783.4724219452728
 21
2921.572627995909
 31
0.0
  0
SOLID
  5
1B07
  8
SUNPOU
 10
3778.4724219452728
 20
2681.5726279959099
 30
0.0
 11
3788.4724219452728
 21
2681.5726279959099
 31
0.0
 12
3783.4724219452728
 22
2651.5726279959099
 32
0.0
 13
3783.4724219452728
 23
2651.5726279959099
 33
0.0
  0
SOLID
  5
1B08
  8
SUNPOU
 10
3778.4724219452728
 20
2921.572627995909
 30
0.0
 11
3788.4724219452728
 21
2921.572627995909
 31
0.0
 12
3783.4724219452728
 22
2951.572627995909
 32
0.0
 13
3783.4724219452728
 23
2951.572627995909
 33
0.0
  0
TEXT
  8
SUNPOU
  40
45
  5
1C0A
  72
0
  71
0
 10
3652.97
 20
2721.92
 30
0.000000
  1
300
  7
KANJI08
  0
POINT
  5
1B0A
  8
DEFPOINTS
 62
     0
 10
3286.7125721558268
 20
2651.5726279959099
 30
0.0
  0
POINT
  5
1B0B
  8
DEFPOINTS
 62
     0
 10
3086.7125721558259
 20
2951.572627995909
 30
0.0
  0
POINT
  5
1B0C
  8
DEFPOINTS
 62
     0
 10
3783.4724219452728
 20
2951.572627995909
 30
0.0
  0
ENDBLK
  5
451
  8
0
  0
BLOCK
  8
0
  2
*D8
 70
     1
 10
0.0
 20
0.0
 30
0.0
  3
*D8
  1

  0
LINE
  5
1B0D
  8
SUNPOU
 10
1521.5766120342739
 20
1551.5726279959081
 30
0.0
 11
1108.862839882589
 21
1551.5726279959081
 31
0.0
  0
LINE
  5
1B0E
  8
SUNPOU
 10
1931.7125721558259
 20
2951.572627995909
 30
0.0
 11
1108.862839882589
 21
2951.572627995909
 31
0.0
  0
LINE
  5
1B0F
  8
SUNPOU
 10
1123.862839882589
 20
1581.572627995909
 30
0.0
 11
1123.862839882589
 21
2921.572627995909
 31
0.0
  0
SOLID
  5
1B10
  8
SUNPOU
 10
1118.862839882589
 20
1581.572627995909
 30
0.0
 11
1128.862839882589
 21
1581.572627995909
 31
0.0
 12
1123.862839882589
 22
1551.5726279959081
 32
0.0
 13
1123.862839882589
 23
1551.5726279959081
 33
0.0
  0
SOLID
  5
1B11
  8
SUNPOU
 10
1118.862839882589
 20
2921.572627995909
 30
0.0
 11
1128.862839882589
 21
2921.572627995909
 31
0.0
 12
1123.862839882589
 22
2951.572627995909
 32
0.0
 13
1123.862839882589
 23
2951.572627995909
 33
0.0
  0
TEXT
  8
SUNPOU
  40
45
  5
1C0B
  72
0
  71
0
 10
993.363
 20
2171.92
 30
0.000000
  1
1400
  7
KANJI08
  0
POINT
  5
1B13
  8
DEFPOINTS
 62
     0
 10
1536.5766120342739
 20
1551.5726279959081
 30
0.0
  0
POINT
  5
1B14
  8
DEFPOINTS
 62
     0
 10
1946.7125721558259
 20
2951.572627995909
 30
0.0
  0
POINT
  5
1B15
  8
DEFPOINTS
 62
     0
 10
1123.862839882589
 20
2951.572627995909
 30
0.0
  0
ENDBLK
  5
45D
  8
0
  0
BLOCK
  8
0
  2
*D9
 70
     1
 10
0.0
 20
0.0
 30
0.0
  3
*D9
  1

  0
LINE
  5
1B16
  8
SUNPOU
 62
     0
 10
1986.712572155828
 20
2713.4226279959112
 30
0.0
 11
1865.2139849325749
 21
2832.3263424154102
 31
0.0
  0
TEXT
  8
SUNPOU
  40
45
  5
1C0C
  62
0
  72
0
  71
0
 10
1883.17
 20
2711.04
 30
0.000000
  1
R200
  7
EXT08
  0
SOLID
  5
1B18
  8
SUNPOU
 62
     0
 10
1868.7111530037371
 20
2835.8998302749178
 30
0.0
 11
1861.7168168614139
 21
2828.752854555903
 31
0.0
 12
1843.773057775531
 22
2853.3093508423799
 32
0.0
 13
1843.773057775531
 23
2853.3093508423799
 33
0.0
  0
POINT
  5
1B19
  8
DEFPOINTS
 62
     0
 10
1843.773057775531
 20
2853.3093508423799
 30
0.0
  0
POINT
  5
1B1A
  8
DEFPOINTS
 62
     0
 10
1986.712572155828
 20
2713.4226279959112
 30
0.0
  0
ENDBLK
  5
509
  8
0
  0
BLOCK
  8
0
  2
*D10
 70
     1
 10
0.0
 20
0.0
 30
0.0
  3
*D10
  1

  0
LINE
  5
1B1B
  8
SUNPOU
 62
     0
 10
3301.7125721558268
 20
2651.5726279959099
 30
0.0
 11
3798.4724219452728
 21
2651.5726279959099
 31
0.0
  0
LINE
  5
1B1C
  8
SUNPOU
 62
     0
 10
3301.7125721558259
 20
2401.5726279958958
 30
0.0
 11
3798.4724219452728
 21
2401.5726279958958
 31
0.0
  0
LINE
  5
1B1D
  8
SUNPOU
 62
     0
 10
3783.4724219452728
 20
2621.5726279959099
 30
0.0
 11
3783.4724219452728
 21
2431.5726279958958
 31
0.0
  0
SOLID
  5
1B1E
  8
SUNPOU
 62
     0
 10
3778.4724219452728
 20
2621.5726279959099
 30
0.0
 11
3788.4724219452728
 21
2621.5726279959099
 31
0.0
 12
3783.4724219452728
 22
2651.5726279959099
 32
0.0
 13
3783.4724219452728
 23
2651.5726279959099
 33
0.0
  0
SOLID
  5
1B1F
  8
SUNPOU
 62
     0
 10
3778.4724219452728
 20
2431.5726279958958
 30
0.0
 11
3788.4724219452728
 21
2431.5726279958958
 31
0.0
 12
3783.4724219452728
 22
2401.5726279958958
 32
0.0
 13
3783.4724219452728
 23
2401.5726279958958
 33
0.0
  0
TEXT
  8
SUNPOU
  40
45
  5
1C0D
  62
0
  72
0
  71
0
 10
3652.97
 20
2446.92
 30
0.000000
  1
250
  7
EXT08
  0
POINT
  5
1B21
  8
DEFPOINTS
 62
     0
 10
3286.7125721558268
 20
2651.5726279959099
 30
0.0
  0
POINT
  5
1B22
  8
DEFPOINTS
 62
     0
 10
3286.7125721558259
 20
2401.5726279958958
 30
0.0
  0
POINT
  5
1B23
  8
DEFPOINTS
 62
     0
 10
3783.4724219452728
 20
2401.5726279958958
 30
0.0
  0
ENDBLK
  5
552
  8
0
  0
BLOCK
  8
0
  2
*D11
 70
     1
 10
0.0
 20
0.0
 30
0.0
  3
*D11
  1

  0
LINE
  5
1B24
  8
SUNPOU
 62
     0
 10
3301.7125721558259
 20
2401.5726279958958
 30
0.0
 11
3798.4724219452742
 21
2401.5726279958958
 31
0.0
  0
LINE
  5
1B25
  8
SUNPOU
 62
     0
 10
3712.2512380179219
 20
2151.572627995909
 30
0.0
 11
3798.4724219452742
 21
2151.572627995909
 31
0.0
  0
LINE
  5
1B26
  8
SUNPOU
 62
     0
 10
3783.4724219452728
 20
2371.5726279958958
 30
0.0
 11
3783.4724219452728
 21
2181.572627995909
 31
0.0
  0
SOLID
  5
1B27
  8
SUNPOU
 62
     0
 10
3778.4724219452742
 20
2371.5726279958958
 30
0.0
 11
3788.4724219452742
 21
2371.5726279958958
 31
0.0
 12
3783.4724219452728
 22
2401.5726279958958
 32
0.0
 13
3783.4724219452728
 23
2401.5726279958958
 33
0.0
  0
SOLID
  5
1B28
  8
SUNPOU
 62
     0
 10
3778.4724219452742
 20
2181.572627995909
 30
0.0
 11
3788.4724219452742
 21
2181.572627995909
 31
0.0
 12
3783.4724219452728
 22
2151.572627995909
 32
0.0
 13
3783.4724219452728
 23
2151.572627995909
 33
0.0
  0
TEXT
  8
SUNPOU
  40
45
  5
1C0E
  62
0
  72
0
  71
0
 10
3652.97
 20
2196.92
 30
0.000000
  1
250
  7
EXT08
  0
POINT
  5
1B2A
  8
DEFPOINTS
 62
     0
 10
3286.7125721558259
 20
2401.5726279958958
 30
0.0
  0
POINT
  5
1B2B
  8
DEFPOINTS
 62
     0
 10
3697.2512380179219
 20
2151.572627995909
 30
0.0
  0
POINT
  5
1B2C
  8
DEFPOINTS
 62
     0
 10
3783.4724219452728
 20
2151.572627995909
 30
0.0
  0
ENDBLK
  5
55F
  8
0
  0
BLOCK
  8
0
  2
*D12
 70
     1
 10
0.0
 20
0.0
 30
0.0
  3
*D12
  1

  0
LINE
  5
1B2D
  8
SUNPOU
 62
     0
 10
1586.7125721558259
 20
1536.572627995909
 30
0.0
 11
1586.7125721558259
 21
1335.385379250705
 31
0.0
  0
LINE
  5
1B2E
  8
SUNPOU
 62
     0
 10
1986.7125721558259
 20
1536.572627995909
 30
0.0
 11
1986.7125721558259
 21
1335.385379250705
 31
0.0
  0
LINE
  5
1B2F
  8
SUNPOU
 62
     0
 10
1616.7125721558259
 20
1350.385379250705
 30
0.0
 11
1956.7125721558259
 21
1350.385379250705
 31
0.0
  0
SOLID
  5
1B30
  8
SUNPOU
 62
     0
 10
1616.7125721558259
 20
1355.385379250705
 30
0.0
 11
1616.7125721558259
 21
1345.385379250705
 31
0.0
 12
1586.7125721558259
 22
1350.385379250705
 32
0.0
 13
1586.7125721558259
 23
1350.385379250705
 33
0.0
  0
SOLID
  5
1B31
  8
SUNPOU
 62
     0
 10
1956.7125721558259
 20
1355.385379250705
 30
0.0
 11
1956.7125721558259
 21
1345.385379250705
 31
0.0
 12
1986.7125721558259
 22
1350.385379250705
 32
0.0
 13
1986.7125721558259
 23
1350.385379250705
 33
0.0
  0
TEXT
  8
SUNPOU
  40
45
  5
1C0F
  62
0
  72
0
  71
0
 10
1696.71
 20
1311.24
 30
0.000000
  1
400
  7
EXT08
  0
POINT
  5
1B33
  8
DEFPOINTS
 62
     0
 10
1586.7125721558259
 20
1551.572627995909
 30
0.0
  0
POINT
  5
1B34
  8
DEFPOINTS
 62
     0
 10
1986.7125721558259
 20
1551.572627995909
 30
0.0
  0
POINT
  5
1B35
  8
DEFPOINTS
 62
     0
 10
1986.7125721558259
 20
1350.385379250705
 30
0.0
  0
ENDBLK
  5
67B
  8
0
  0
BLOCK
  8
0
  2
*D13
 70
     1
 10
0.0
 20
0.0
 30
0.0
  3
*D13
  1

  0
LINE
  5
1B36
  8
SUNPOU
 62
     0
 10
4168.6329784022528
 20
1536.572627995909
 30
0.0
 11
4168.6329784022528
 21
1335.385379250705
 31
0.0
  0
LINE
  5
1B37
  8
SUNPOU
 62
     0
 10
4568.6329784022537
 20
1536.572627995909
 30
0.0
 11
4568.6329784022537
 21
1335.385379250705
 31
0.0
  0
LINE
  5
1B38
  8
SUNPOU
 62
     0
 10
4198.6329784022537
 20
1350.385379250705
 30
0.0
 11
4538.6329784022537
 21
1350.385379250705
 31
0.0
  0
SOLID
  5
1B39
  8
SUNPOU
 62
     0
 10
4198.6329784022537
 20
1355.385379250705
 30
0.0
 11
4198.6329784022537
 21
1345.385379250705
 31
0.0
 12
4168.6329784022528
 22
1350.385379250705
 32
0.0
 13
4168.6329784022528
 23
1350.385379250705
 33
0.0
  0
SOLID
  5
1B3A
  8
SUNPOU
 62
     0
 10
4538.6329784022537
 20
1355.385379250705
 30
0.0
 11
4538.6329784022537
 21
1345.385379250705
 31
0.0
 12
4568.6329784022537
 22
1350.385379250705
 32
0.0
 13
4568.6329784022537
 23
1350.385379250705
 33
0.0
  0
TEXT
  8
SUNPOU
  40
45
  5
1C10
  62
0
  72
0
  71
0
 10
4278.63
 20
1311.24
 30
0.000000
  1
400
  7
EXT08
  0
POINT
  5
1B3C
  8
DEFPOINTS
 62
     0
 10
4168.6329784022528
 20
1551.572627995909
 30
0.0
  0
POINT
  5
1B3D
  8
DEFPOINTS
 62
     0
 10
4568.6329784022537
 20
1551.572627995909
 30
0.0
  0
POINT
  5
1B3E
  8
DEFPOINTS
 62
     0
 10
4568.6329784022537
 20
1350.385379250705
 30
0.0
  0
ENDBLK
  5
1347
  8
0
  0
BLOCK
  8
0
  2
*D14
 70
     1
 10
0.0
 20
0.0
 30
0.0
  3
*D14
  1

  0
LINE
  5
1BFF
  8
SUNPOU
 62
     0
 10
1361.1739062937299
 20
2151.572627995909
 30
0.0
 11
1274.952722366379
 21
2151.572627995909
 31
0.0
  0
LINE
  5
1C00
  8
SUNPOU
 62
     0
 10
1971.7125721558259
 20
2951.572627995909
 30
0.0
 11
1274.952722366379
 21
2951.572627995909
 31
0.0
  0
LINE
  5
1C01
  8
SUNPOU
 62
     0
 10
1289.952722366379
 20
2181.572627995909
 30
0.0
 11
1289.952722366379
 21
2921.572627995909
 31
0.0
  0
SOLID
  5
1C02
  8
SUNPOU
 62
     0
 10
1284.952722366379
 20
2181.572627995909
 30
0.0
 11
1294.952722366379
 21
2181.572627995909
 31
0.0
 12
1289.952722366379
 22
2151.572627995909
 32
0.0
 13
1289.952722366379
 23
2151.572627995909
 33
0.0
  0
SOLID
  5
1C03
  8
SUNPOU
 62
     0
 10
1284.952722366379
 20
2921.572627995909
 30
0.0
 11
1294.952722366379
 21
2921.572627995909
 31
0.0
 12
1289.952722366379
 22
2951.572627995909
 32
0.0
 13
1289.952722366379
 23
2951.572627995909
 33
0.0
  0
TEXT
  8
SUNPOU
  40
45
  5
1C11
  62
0
  72
0
  71
0
 10
1159.45
 20
2471.92
 30
0.000000
  1
800
  7
EXT08
  0
POINT
  5
1C05
  8
DEFPOINTS
 62
     0
 10
1376.1739062937299
 20
2151.572627995909
 30
0.0
  0
POINT
  5
1C06
  8
DEFPOINTS
 62
     0
 10
1986.7125721558259
 20
2951.572627995909
 30
0.0
  0
POINT
  5
1C07
  8
DEFPOINTS
 62
     0
 10
1289.952722366379
 20
2951.572627995909
 30
0.0
  0
ENDBLK
  5
1A69
  8
0
  0
BLOCK
  8
0
  2
*X15
 70
     1
 10
0.0
 20
0.0
 30
0.0
  3
*X15
  1

  0
LINE
  5
1B40
  8
0
 62
     0
 10
3218.1299730965852
 20
2377.2726279959088
 30
0.0
 11
3226.7125721558282
 21
2385.8552270551522
 31
0.0
  0
LINE
  5
1B41
  8
0
 62
     0
 10
3200.4523035669208
 20
2377.2726279959088
 30
0.0
 11
3226.7125721558282
 21
2403.5328965848148
 31
0.0
  0
LINE
  5
1B42
  8
0
 62
     0
 10
3182.7746340372578
 20
2377.2726279959088
 30
0.0
 11
3226.7125721558268
 21
2421.2105661144778
 31
0.0
  0
LINE
  5
1B43
  8
0
 62
     0
 10
3165.0969645075938
 20
2377.2726279959088
 30
0.0
 11
3213.6969645075928
 21
2425.8726279959092
 31
0.0
  0
LINE
  5
1B44
  8
0
 62
     0
 10
3147.4192949779308
 20
2377.2726279959088
 30
0.0
 11
3196.0192949779298
 21
2425.8726279959078
 31
0.0
  0
LINE
  5
1B45
  8
0
 62
     0
 10
3129.7416254482659
 20
2377.2726279959088
 30
0.0
 11
3178.3416254482659
 21
2425.8726279959078
 31
0.0
  0
LINE
  5
1B46
  8
0
 62
     0
 10
3112.063955918602
 20
2377.2726279959088
 30
0.0
 11
3160.6639559186019
 21
2425.8726279959092
 31
0.0
  0
LINE
  5
1B47
  8
0
 62
     0
 10
3094.386286388939
 20
2377.2726279959088
 30
0.0
 11
3142.9862863889389
 21
2425.8726279959092
 31
0.0
  0
LINE
  5
1B48
  8
0
 62
     0
 10
3076.708616859275
 20
2377.2726279959088
 30
0.0
 11
3125.3086168592749
 21
2425.8726279959078
 31
0.0
  0
LINE
  5
1B49
  8
0
 62
     0
 10
3059.030947329612
 20
2377.2726279959088
 30
0.0
 11
3107.630947329611
 21
2425.8726279959078
 31
0.0
  0
LINE
  5
1B4A
  8
0
 62
     0
 10
3041.353277799948
 20
2377.2726279959088
 30
0.0
 11
3089.953277799947
 21
2425.8726279959092
 31
0.0
  0
LINE
  5
1B4B
  8
0
 62
     0
 10
3023.675608270285
 20
2377.2726279959088
 30
0.0
 11
3072.275608270284
 21
2425.8726279959078
 31
0.0
  0
LINE
  5
1B4C
  8
0
 62
     0
 10
3005.9979387406211
 20
2377.2726279959088
 30
0.0
 11
3054.597938740621
 21
2425.8726279959092
 31
0.0
  0
LINE
  5
1B4D
  8
0
 62
     0
 10
2988.3202692109571
 20
2377.2726279959088
 30
0.0
 11
3036.9202692109561
 21
2425.8726279959092
 31
0.0
  0
LINE
  5
1B4E
  8
0
 62
     0
 10
2970.6425996812932
 20
2377.2726279959088
 30
0.0
 11
3019.2425996812931
 21
2425.8726279959092
 31
0.0
  0
LINE
  5
1B4F
  8
0
 62
     0
 10
2952.9649301516301
 20
2377.2726279959088
 30
0.0
 11
3001.5649301516291
 21
2425.8726279959078
 31
0.0
  0
LINE
  5
1B50
  8
0
 62
     0
 10
2935.2872606219662
 20
2377.2726279959088
 30
0.0
 11
2983.8872606219652
 21
2425.8726279959078
 31
0.0
  0
LINE
  5
1B51
  8
0
 62
     0
 10
2917.6095910923032
 20
2377.2726279959088
 30
0.0
 11
2966.2095910923008
 21
2425.8726279959092
 31
0.0
  0
LINE
  5
1B52
  8
0
 62
     0
 10
2899.9319215626392
 20
2377.2726279959088
 30
0.0
 11
2948.5319215626382
 21
2425.8726279959078
 31
0.0
  0
LINE
  5
1B53
  8
0
 62
     0
 10
2882.2542520329748
 20
2377.2726279959088
 30
0.0
 11
2930.8542520329752
 21
2425.8726279959092
 31
0.0
  0
LINE
  5
1B54
  8
0
 62
     0
 10
2864.5765825033109
 20
2377.2726279959088
 30
0.0
 11
2913.1765825033099
 21
2425.8726279959092
 31
0.0
  0
LINE
  5
1B55
  8
0
 62
     0
 10
2846.8989129736478
 20
2377.2726279959088
 30
0.0
 11
2895.4989129736468
 21
2425.8726279959092
 31
0.0
  0
LINE
  5
1B56
  8
0
 62
     0
 10
2829.2212434439839
 20
2377.2726279959088
 30
0.0
 11
2877.8212434439829
 21
2425.8726279959078
 31
0.0
  0
LINE
  5
1B57
  8
0
 62
     0
 10
2811.5435739143199
 20
2377.2726279959088
 30
0.0
 11
2860.1435739143189
 21
2425.8726279959078
 31
0.0
  0
LINE
  5
1B58
  8
0
 62
     0
 10
2793.8659043846569
 20
2377.2726279959088
 30
0.0
 11
2842.465904384655
 21
2425.8726279959092
 31
0.0
  0
LINE
  5
1B59
  8
0
 62
     0
 10
2776.188234854993
 20
2377.2726279959088
 30
0.0
 11
2824.788234854992
 21
2425.8726279959078
 31
0.0
  0
LINE
  5
1B5A
  8
0
 62
     0
 10
2758.510565325329
 20
2377.2726279959088
 30
0.0
 11
2807.1105653253289
 21
2425.8726279959092
 31
0.0
  0
LINE
  5
1B5B
  8
0
 62
     0
 10
2740.832895795666
 20
2377.2726279959088
 30
0.0
 11
2789.4328957956641
 21
2425.8726279959078
 31
0.0
  0
LINE
  5
1B5C
  8
0
 62
     0
 10
2723.155226266002
 20
2377.2726279959088
 30
0.0
 11
2771.755226266001
 21
2425.8726279959092
 31
0.0
  0
LINE
  5
1B5D
  8
0
 62
     0
 10
2705.4775567363381
 20
2377.2726279959088
 30
0.0
 11
2754.077556736338
 21
2425.8726279959078
 31
0.0
  0
LINE
  5
1B5E
  8
0
 62
     0
 10
2687.7998872066751
 20
2377.2726279959088
 30
0.0
 11
2736.3998872066732
 21
2425.8726279959078
 31
0.0
  0
LINE
  5
1B5F
  8
0
 62
     0
 10
2670.1222176770111
 20
2377.2726279959088
 30
0.0
 11
2718.7222176770092
 21
2425.8726279959092
 31
0.0
  0
LINE
  5
1B60
  8
0
 62
     0
 10
2652.4445481473472
 20
2377.2726279959088
 30
0.0
 11
2701.0445481473462
 21
2425.8726279959078
 31
0.0
  0
LINE
  5
1B61
  8
0
 62
     0
 10
2634.7668786176841
 20
2377.2726279959088
 30
0.0
 11
2683.3668786176831
 21
2425.8726279959092
 31
0.0
  0
LINE
  5
1B62
  8
0
 62
     0
 10
2617.0892090880202
 20
2377.2726279959088
 30
0.0
 11
2665.6892090880178
 21
2425.8726279959078
 31
0.0
  0
LINE
  5
1B63
  8
0
 62
     0
 10
2599.4115395583572
 20
2377.2726279959088
 30
0.0
 11
2648.0115395583562
 21
2425.8726279959078
 31
0.0
  0
LINE
  5
1B64
  8
0
 62
     0
 10
2581.7338700286919
 20
2377.2726279959088
 30
0.0
 11
2630.3338700286922
 21
2425.8726279959092
 31
0.0
  0
LINE
  5
1B65
  8
0
 62
     0
 10
2564.0562004990288
 20
2377.2726279959088
 30
0.0
 11
2612.6562004990269
 21
2425.8726279959078
 31
0.0
  0
LINE
  5
1B66
  8
0
 62
     0
 10
2546.3785309693649
 20
2377.2726279959088
 30
0.0
 11
2594.9785309693648
 21
2425.8726279959092
 31
0.0
  0
LINE
  5
1B67
  8
0
 62
     0
 10
2528.7008614397009
 20
2377.2726279959088
 30
0.0
 11
2577.3008614396999
 21
2425.8726279959078
 31
0.0
  0
LINE
  5
1B68
  8
0
 62
     0
 10
2511.0231919100379
 20
2377.2726279959088
 30
0.0
 11
2559.623191910036
 21
2425.8726279959092
 31
0.0
  0
LINE
  5
1B69
  8
0
 62
     0
 10
2493.3455223803739
 20
2377.2726279959088
 30
0.0
 11
2541.9455223803729
 21
2425.8726279959078
 31
0.0
  0
LINE
  5
1B6A
  8
0
 62
     0
 10
2475.6678528507109
 20
2377.2726279959088
 30
0.0
 11
2524.2678528507099
 21
2425.8726279959092
 31
0.0
  0
LINE
  5
1B6B
  8
0
 62
     0
 10
2457.990183321047
 20
2377.2726279959088
 30
0.0
 11
2506.590183321046
 21
2425.8726279959092
 31
0.0
  0
LINE
  5
1B6C
  8
0
 62
     0
 10
2440.312513791383
 20
2377.2726279959088
 30
0.0
 11
2488.912513791382
 21
2425.8726279959078
 31
0.0
  0
LINE
  5
1B6D
  8
0
 62
     0
 10
2422.6348442617191
 20
2377.2726279959088
 30
0.0
 11
2471.234844261719
 21
2425.8726279959092
 31
0.0
  0
LINE
  5
1B6E
  8
0
 62
     0
 10
2404.957174732056
 20
2377.2726279959088
 30
0.0
 11
2453.557174732055
 21
2425.8726279959092
 31
0.0
  0
LINE
  5
1B6F
  8
0
 62
     0
 10
2387.2795052023921
 20
2377.2726279959088
 30
0.0
 11
2435.8795052023911
 21
2425.8726279959092
 31
0.0
  0
LINE
  5
1B70
  8
0
 62
     0
 10
2369.6018356727282
 20
2377.2726279959088
 30
0.0
 11
2418.2018356727272
 21
2425.8726279959078
 31
0.0
  0
LINE
  5
1B71
  8
0
 62
     0
 10
2351.9241661430651
 20
2377.2726279959088
 30
0.0
 11
2400.5241661430641
 21
2425.8726279959092
 31
0.0
  0
LINE
  5
1B72
  8
0
 62
     0
 10
2334.2464966134012
 20
2377.2726279959102
 30
0.0
 11
2382.8464966133988
 21
2425.8726279959092
 31
0.0
  0
LINE
  5
1B73
  8
0
 62
     0
 10
2316.5688270837368
 20
2377.2726279959088
 30
0.0
 11
2365.1688270837358
 21
2425.8726279959092
 31
0.0
  0
LINE
  5
1B74
  8
0
 62
     0
 10
2298.8911575540742
 20
2377.2726279959088
 30
0.0
 11
2347.4911575540732
 21
2425.8726279959092
 31
0.0
  0
LINE
  5
1B75
  8
0
 62
     0
 10
2281.2134880244098
 20
2377.2726279959088
 30
0.0
 11
2329.8134880244088
 21
2425.8726279959092
 31
0.0
  0
LINE
  5
1B76
  8
0
 62
     0
 10
2263.5358184947459
 20
2377.2726279959088
 30
0.0
 11
2312.1358184947449
 21
2425.8726279959092
 31
0.0
  0
LINE
  5
1B77
  8
0
 62
     0
 10
2245.8581489650828
 20
2377.2726279959088
 30
0.0
 11
2294.4581489650818
 21
2425.8726279959092
 31
0.0
  0
LINE
  5
1B78
  8
0
 62
     0
 10
2228.1804794354189
 20
2377.2726279959088
 30
0.0
 11
2276.7804794354179
 21
2425.8726279959092
 31
0.0
  0
LINE
  5
1B79
  8
0
 62
     0
 10
2210.5028099057558
 20
2377.2726279959102
 30
0.0
 11
2259.1028099057539
 21
2425.8726279959092
 31
0.0
  0
LINE
  5
1B7A
  8
0
 62
     0
 10
2192.8251403760919
 20
2377.2726279959088
 30
0.0
 11
2241.42514037609
 21
2425.8726279959092
 31
0.0
  0
LINE
  5
1B7B
  8
0
 62
     0
 10
2175.147470846428
 20
2377.2726279959102
 30
0.0
 11
2223.7474708464269
 21
2425.8726279959092
 31
0.0
  0
LINE
  5
1B7C
  8
0
 62
     0
 10
2157.469801316764
 20
2377.2726279959102
 30
0.0
 11
2206.069801316763
 21
2425.8726279959092
 31
0.0
  0
LINE
  5
1B7D
  8
0
 62
     0
 10
2139.792131787101
 20
2377.2726279959102
 30
0.0
 11
2188.3921317870991
 21
2425.8726279959092
 31
0.0
  0
LINE
  5
1B7E
  8
0
 62
     0
 10
2122.114462257437
 20
2377.2726279959102
 30
0.0
 11
2170.714462257436
 21
2425.8726279959092
 31
0.0
  0
LINE
  5
1B7F
  8
0
 62
     0
 10
2104.4367927277731
 20
2377.2726279959102
 30
0.0
 11
2153.0367927277721
 21
2425.8726279959092
 31
0.0
  0
LINE
  5
1B80
  8
0
 62
     0
 10
2086.75912319811
 20
2377.2726279959102
 30
0.0
 11
2135.3591231981081
 21
2425.8726279959092
 31
0.0
  0
LINE
  5
1B81
  8
0
 62
     0
 10
2069.0814536684461
 20
2377.2726279959102
 30
0.0
 11
2117.6814536684451
 21
2425.8726279959092
 31
0.0
  0
LINE
  5
1B82
  8
0
 62
     0
 10
2051.4037841387822
 20
2377.2726279959102
 30
0.0
 11
2100.0037841387812
 21
2425.8726279959092
 31
0.0
  0
LINE
  5
1B83
  8
0
 62
     0
 10
2033.7261146091189
 20
2377.2726279959088
 30
0.0
 11
2082.3261146091172
 21
2425.8726279959092
 31
0.0
  0
LINE
  5
1B84
  8
0
 62
     0
 10
2016.048445079455
 20
2377.2726279959102
 30
0.0
 11
2064.6484450794528
 21
2425.8726279959092
 31
0.0
  0
LINE
  5
1B85
  8
0
 62
     0
 10
1998.370775549791
 20
2377.2726279959102
 30
0.0
 11
2046.97077554979
 21
2425.8726279959092
 31
0.0
  0
LINE
  5
1B86
  8
0
 62
     0
 10
1980.6931060201271
 20
2377.2726279959102
 30
0.0
 11
2029.2931060201261
 21
2425.8726279959092
 31
0.0
  0
LINE
  5
1B87
  8
0
 62
     0
 10
1963.0154364904629
 20
2377.2726279959102
 30
0.0
 11
2011.615436490463
 21
2425.8726279959092
 31
0.0
  0
LINE
  5
1B88
  8
0
 62
     0
 10
1945.3377669608001
 20
2377.2726279959102
 30
0.0
 11
1993.9377669607979
 21
2425.8726279959092
 31
0.0
  0
LINE
  5
1B89
  8
0
 62
     0
 10
1927.6600974311359
 20
2377.2726279959102
 30
0.0
 11
1976.2600974311349
 21
2425.8726279959092
 31
0.0
  0
LINE
  5
1B8A
  8
0
 62
     0
 10
1909.9824279014731
 20
2377.2726279959088
 30
0.0
 11
1958.582427901471
 21
2425.8726279959092
 31
0.0
  0
LINE
  5
1B8B
  8
0
 62
     0
 10
1892.3047583718089
 20
2377.2726279959102
 30
0.0
 11
1940.904758371807
 21
2425.8726279959092
 31
0.0
  0
LINE
  5
1B8C
  8
0
 62
     0
 10
1874.627088842145
 20
2377.2726279959102
 30
0.0
 11
1923.227088842144
 21
2425.8726279959092
 31
0.0
  0
LINE
  5
1B8D
  8
0
 62
     0
 10
1856.949419312481
 20
2377.2726279959102
 30
0.0
 11
1905.54941931248
 21
2425.8726279959092
 31
0.0
  0
LINE
  5
1B8E
  8
0
 62
     0
 10
1846.712572155827
 20
2384.713450368919
 30
0.0
 11
1887.8717497828161
 21
2425.8726279959092
 31
0.0
  0
LINE
  5
1B8F
  8
0
 62
     0
 10
1846.712572155827
 20
2402.391119898582
 30
0.0
 11
1870.1940802531531
 21
2425.8726279959092
 31
0.0
  0
LINE
  5
1B90
  8
0
 62
     0
 10
1846.712572155827
 20
2420.068789428246
 30
0.0
 11
1852.5164107234889
 21
2425.8726279959092
 31
0.0
  0
ENDBLK
  5
1B92
  8
0
  0
BLOCK
  8
0
  2
*X16
 70
     1
 10
0.0
 20
0.0
 30
0.0
  3
*X16
  1

  0
LINE
  5
1B94
  8
0
 62
     0
 10
3218.1299730965852
 20
2627.2726279959088
 30
0.0
 11
3226.7125721558282
 21
2635.8552270551522
 31
0.0
  0
LINE
  5
1B95
  8
0
 62
     0
 10
3200.4523035669208
 20
2627.2726279959088
 30
0.0
 11
3226.7125721558282
 21
2653.5328965848148
 31
0.0
  0
LINE
  5
1B96
  8
0
 62
     0
 10
3182.7746340372578
 20
2627.2726279959088
 30
0.0
 11
3226.7125721558268
 21
2671.2105661144778
 31
0.0
  0
LINE
  5
1B97
  8
0
 62
     0
 10
3165.0969645075938
 20
2627.2726279959088
 30
0.0
 11
3213.6969645075928
 21
2675.8726279959092
 31
0.0
  0
LINE
  5
1B98
  8
0
 62
     0
 10
3147.4192949779308
 20
2627.2726279959088
 30
0.0
 11
3196.0192949779298
 21
2675.8726279959078
 31
0.0
  0
LINE
  5
1B99
  8
0
 62
     0
 10
3129.7416254482659
 20
2627.2726279959088
 30
0.0
 11
3178.3416254482659
 21
2675.8726279959078
 31
0.0
  0
LINE
  5
1B9A
  8
0
 62
     0
 10
3112.063955918602
 20
2627.2726279959088
 30
0.0
 11
3160.6639559186019
 21
2675.8726279959092
 31
0.0
  0
LINE
  5
1B9B
  8
0
 62
     0
 10
3094.386286388939
 20
2627.2726279959088
 30
0.0
 11
3142.9862863889389
 21
2675.8726279959092
 31
0.0
  0
LINE
  5
1B9C
  8
0
 62
     0
 10
3076.708616859275
 20
2627.2726279959088
 30
0.0
 11
3125.3086168592749
 21
2675.8726279959078
 31
0.0
  0
LINE
  5
1B9D
  8
0
 62
     0
 10
3059.030947329612
 20
2627.2726279959088
 30
0.0
 11
3107.630947329611
 21
2675.8726279959078
 31
0.0
  0
LINE
  5
1B9E
  8
0
 62
     0
 10
3041.353277799948
 20
2627.2726279959088
 30
0.0
 11
3089.953277799947
 21
2675.8726279959092
 31
0.0
  0
LINE
  5
1B9F
  8
0
 62
     0
 10
3023.675608270285
 20
2627.2726279959088
 30
0.0
 11
3072.275608270284
 21
2675.8726279959078
 31
0.0
  0
LINE
  5
1BA0
  8
0
 62
     0
 10
3005.9979387406211
 20
2627.2726279959088
 30
0.0
 11
3054.597938740621
 21
2675.8726279959092
 31
0.0
  0
LINE
  5
1BA1
  8
0
 62
     0
 10
2988.3202692109571
 20
2627.2726279959088
 30
0.0
 11
3036.9202692109561
 21
2675.8726279959092
 31
0.0
  0
LINE
  5
1BA2
  8
0
 62
     0
 10
2970.6425996812932
 20
2627.2726279959088
 30
0.0
 11
3019.2425996812931
 21
2675.8726279959092
 31
0.0
  0
LINE
  5
1BA3
  8
0
 62
     0
 10
2952.9649301516301
 20
2627.2726279959088
 30
0.0
 11
3001.5649301516291
 21
2675.8726279959078
 31
0.0
  0
LINE
  5
1BA4
  8
0
 62
     0
 10
2935.2872606219662
 20
2627.2726279959088
 30
0.0
 11
2983.8872606219652
 21
2675.8726279959078
 31
0.0
  0
LINE
  5
1BA5
  8
0
 62
     0
 10
2917.6095910923032
 20
2627.2726279959088
 30
0.0
 11
2966.2095910923008
 21
2675.8726279959092
 31
0.0
  0
LINE
  5
1BA6
  8
0
 62
     0
 10
2899.9319215626392
 20
2627.2726279959088
 30
0.0
 11
2948.5319215626382
 21
2675.8726279959078
 31
0.0
  0
LINE
  5
1BA7
  8
0
 62
     0
 10
2882.2542520329748
 20
2627.2726279959088
 30
0.0
 11
2930.8542520329752
 21
2675.8726279959092
 31
0.0
  0
LINE
  5
1BA8
  8
0
 62
     0
 10
2864.5765825033109
 20
2627.2726279959088
 30
0.0
 11
2913.1765825033099
 21
2675.8726279959092
 31
0.0
  0
LINE
  5
1BA9
  8
0
 62
     0
 10
2846.8989129736478
 20
2627.2726279959088
 30
0.0
 11
2895.4989129736468
 21
2675.8726279959092
 31
0.0
  0
LINE
  5
1BAA
  8
0
 62
     0
 10
2829.2212434439839
 20
2627.2726279959088
 30
0.0
 11
2877.8212434439829
 21
2675.8726279959078
 31
0.0
  0
LINE
  5
1BAB
  8
0
 62
     0
 10
2811.5435739143199
 20
2627.2726279959088
 30
0.0
 11
2860.1435739143189
 21
2675.8726279959078
 31
0.0
  0
LINE
  5
1BAC
  8
0
 62
     0
 10
2793.8659043846569
 20
2627.2726279959088
 30
0.0
 11
2842.465904384655
 21
2675.8726279959092
 31
0.0
  0
LINE
  5
1BAD
  8
0
 62
     0
 10
2776.188234854993
 20
2627.2726279959088
 30
0.0
 11
2824.788234854992
 21
2675.8726279959078
 31
0.0
  0
LINE
  5
1BAE
  8
0
 62
     0
 10
2758.510565325329
 20
2627.2726279959088
 30
0.0
 11
2807.1105653253289
 21
2675.8726279959092
 31
0.0
  0
LINE
  5
1BAF
  8
0
 62
     0
 10
2740.832895795666
 20
2627.2726279959088
 30
0.0
 11
2789.4328957956641
 21
2675.8726279959078
 31
0.0
  0
LINE
  5
1BB0
  8
0
 62
     0
 10
2723.155226266002
 20
2627.2726279959088
 30
0.0
 11
2771.755226266001
 21
2675.8726279959092
 31
0.0
  0
LINE
  5
1BB1
  8
0
 62
     0
 10
2705.4775567363381
 20
2627.2726279959088
 30
0.0
 11
2754.077556736338
 21
2675.8726279959078
 31
0.0
  0
LINE
  5
1BB2
  8
0
 62
     0
 10
2687.7998872066751
 20
2627.2726279959088
 30
0.0
 11
2736.3998872066732
 21
2675.8726279959078
 31
0.0
  0
LINE
  5
1BB3
  8
0
 62
     0
 10
2670.1222176770111
 20
2627.2726279959088
 30
0.0
 11
2718.7222176770092
 21
2675.8726279959092
 31
0.0
  0
LINE
  5
1BB4
  8
0
 62
     0
 10
2652.4445481473472
 20
2627.2726279959088
 30
0.0
 11
2701.0445481473462
 21
2675.8726279959078
 31
0.0
  0
LINE
  5
1BB5
  8
0
 62
     0
 10
2634.7668786176841
 20
2627.2726279959088
 30
0.0
 11
2683.3668786176831
 21
2675.8726279959092
 31
0.0
  0
LINE
  5
1BB6
  8
0
 62
     0
 10
2617.0892090880202
 20
2627.2726279959088
 30
0.0
 11
2665.6892090880178
 21
2675.8726279959078
 31
0.0
  0
LINE
  5
1BB7
  8
0
 62
     0
 10
2599.4115395583572
 20
2627.2726279959088
 30
0.0
 11
2648.0115395583562
 21
2675.8726279959092
 31
0.0
  0
LINE
  5
1BB8
  8
0
 62
     0
 10
2581.7338700286919
 20
2627.2726279959088
 30
0.0
 11
2630.3338700286922
 21
2675.8726279959092
 31
0.0
  0
LINE
  5
1BB9
  8
0
 62
     0
 10
2564.0562004990288
 20
2627.2726279959088
 30
0.0
 11
2612.6562004990269
 21
2675.8726279959092
 31
0.0
  0
LINE
  5
1BBA
  8
0
 62
     0
 10
2546.3785309693649
 20
2627.2726279959088
 30
0.0
 11
2594.9785309693648
 21
2675.8726279959092
 31
0.0
  0
LINE
  5
1BBB
  8
0
 62
     0
 10
2528.7008614397009
 20
2627.2726279959088
 30
0.0
 11
2577.3008614396999
 21
2675.8726279959078
 31
0.0
  0
LINE
  5
1BBC
  8
0
 62
     0
 10
2511.0231919100379
 20
2627.2726279959088
 30
0.0
 11
2559.623191910036
 21
2675.8726279959092
 31
0.0
  0
LINE
  5
1BBD
  8
0
 62
     0
 10
2493.3455223803739
 20
2627.2726279959088
 30
0.0
 11
2541.9455223803729
 21
2675.8726279959078
 31
0.0
  0
LINE
  5
1BBE
  8
0
 62
     0
 10
2475.6678528507109
 20
2627.2726279959088
 30
0.0
 11
2524.2678528507099
 21
2675.8726279959092
 31
0.0
  0
LINE
  5
1BBF
  8
0
 62
     0
 10
2457.990183321047
 20
2627.2726279959088
 30
0.0
 11
2506.590183321046
 21
2675.8726279959092
 31
0.0
  0
LINE
  5
1BC0
  8
0
 62
     0
 10
2440.312513791383
 20
2627.2726279959088
 30
0.0
 11
2488.912513791382
 21
2675.8726279959092
 31
0.0
  0
LINE
  5
1BC1
  8
0
 62
     0
 10
2422.6348442617191
 20
2627.2726279959088
 30
0.0
 11
2471.2348442617181
 21
2675.8726279959078
 31
0.0
  0
LINE
  5
1BC2
  8
0
 62
     0
 10
2404.957174732056
 20
2627.2726279959088
 30
0.0
 11
2453.557174732055
 21
2675.8726279959078
 31
0.0
  0
LINE
  5
1BC3
  8
0
 62
     0
 10
2387.2795052023921
 20
2627.2726279959088
 30
0.0
 11
2435.8795052023911
 21
2675.8726279959092
 31
0.0
  0
LINE
  5
1BC4
  8
0
 62
     0
 10
2369.6018356727282
 20
2627.2726279959088
 30
0.0
 11
2418.2018356727272
 21
2675.8726279959078
 31
0.0
  0
LINE
  5
1BC5
  8
0
 62
     0
 10
2351.9241661430651
 20
2627.2726279959088
 30
0.0
 11
2400.5241661430641
 21
2675.8726279959092
 31
0.0
  0
LINE
  5
1BC6
  8
0
 62
     0
 10
2334.2464966134012
 20
2627.2726279959102
 30
0.0
 11
2382.8464966133988
 21
2675.8726279959092
 31
0.0
  0
LINE
  5
1BC7
  8
0
 62
     0
 10
2316.5688270837368
 20
2627.2726279959088
 30
0.0
 11
2365.1688270837358
 21
2675.8726279959092
 31
0.0
  0
LINE
  5
1BC8
  8
0
 62
     0
 10
2298.8911575540742
 20
2627.2726279959088
 30
0.0
 11
2347.4911575540732
 21
2675.8726279959092
 31
0.0
  0
LINE
  5
1BC9
  8
0
 62
     0
 10
2281.2134880244098
 20
2627.2726279959088
 30
0.0
 11
2329.8134880244088
 21
2675.8726279959078
 31
0.0
  0
LINE
  5
1BCA
  8
0
 62
     0
 10
2263.5358184947459
 20
2627.2726279959088
 30
0.0
 11
2312.1358184947449
 21
2675.8726279959092
 31
0.0
  0
LINE
  5
1BCB
  8
0
 62
     0
 10
2245.8581489650828
 20
2627.2726279959088
 30
0.0
 11
2294.4581489650809
 21
2675.8726279959078
 31
0.0
  0
LINE
  5
1BCC
  8
0
 62
     0
 10
2228.1804794354189
 20
2627.2726279959088
 30
0.0
 11
2276.7804794354179
 21
2675.8726279959092
 31
0.0
  0
LINE
  5
1BCD
  8
0
 62
     0
 10
2210.5028099057558
 20
2627.2726279959102
 30
0.0
 11
2259.1028099057539
 21
2675.8726279959092
 31
0.0
  0
LINE
  5
1BCE
  8
0
 62
     0
 10
2192.8251403760919
 20
2627.2726279959088
 30
0.0
 11
2241.42514037609
 21
2675.8726279959092
 31
0.0
  0
LINE
  5
1BCF
  8
0
 62
     0
 10
2175.147470846428
 20
2627.2726279959102
 30
0.0
 11
2223.7474708464269
 21
2675.8726279959092
 31
0.0
  0
LINE
  5
1BD0
  8
0
 62
     0
 10
2157.469801316764
 20
2627.2726279959102
 30
0.0
 11
2206.069801316763
 21
2675.8726279959092
 31
0.0
  0
LINE
  5
1BD1
  8
0
 62
     0
 10
2139.792131787101
 20
2627.2726279959102
 30
0.0
 11
2188.3921317870991
 21
2675.8726279959092
 31
0.0
  0
LINE
  5
1BD2
  8
0
 62
     0
 10
2122.114462257437
 20
2627.2726279959102
 30
0.0
 11
2170.714462257436
 21
2675.8726279959092
 31
0.0
  0
LINE
  5
1BD3
  8
0
 62
     0
 10
2104.4367927277731
 20
2627.2726279959102
 30
0.0
 11
2153.0367927277721
 21
2675.8726279959092
 31
0.0
  0
LINE
  5
1BD4
  8
0
 62
     0
 10
2086.75912319811
 20
2627.2726279959102
 30
0.0
 11
2135.3591231981081
 21
2675.8726279959092
 31
0.0
  0
LINE
  5
1BD5
  8
0
 62
     0
 10
2069.0814536684461
 20
2627.2726279959102
 30
0.0
 11
2117.6814536684451
 21
2675.8726279959092
 31
0.0
  0
LINE
  5
1BD6
  8
0
 62
     0
 10
2051.4037841387822
 20
2627.2726279959102
 30
0.0
 11
2100.0037841387812
 21
2675.8726279959092
 31
0.0
  0
LINE
  5
1BD7
  8
0
 62
     0
 10
2033.7261146091189
 20
2627.2726279959088
 30
0.0
 11
2082.3261146091172
 21
2675.8726279959092
 31
0.0
  0
LINE
  5
1BD8
  8
0
 62
     0
 10
2016.048445079455
 20
2627.2726279959102
 30
0.0
 11
2064.6484450794528
 21
2675.8726279959092
 31
0.0
  0
LINE
  5
1BD9
  8
0
 62
     0
 10
1998.370775549791
 20
2627.2726279959102
 30
0.0
 11
2046.97077554979
 21
2675.8726279959092
 31
0.0
  0
LINE
  5
1BDA
  8
0
 62
     0
 10
1980.6931060201271
 20
2627.2726279959102
 30
0.0
 11
2029.2931060201261
 21
2675.8726279959092
 31
0.0
  0
LINE
  5
1BDB
  8
0
 62
     0
 10
1963.0154364904629
 20
2627.2726279959102
 30
0.0
 11
2011.615436490463
 21
2675.8726279959092
 31
0.0
  0
LINE
  5
1BDC
  8
0
 62
     0
 10
1945.3377669608001
 20
2627.2726279959102
 30
0.0
 11
1993.9377669607979
 21
2675.8726279959092
 31
0.0
  0
LINE
  5
1BDD
  8
0
 62
     0
 10
1927.6600974311359
 20
2627.2726279959102
 30
0.0
 11
1976.2600974311349
 21
2675.8726279959092
 31
0.0
  0
LINE
  5
1BDE
  8
0
 62
     0
 10
1909.9824279014731
 20
2627.2726279959088
 30
0.0
 11
1958.582427901471
 21
2675.8726279959092
 31
0.0
  0
LINE
  5
1BDF
  8
0
 62
     0
 10
1892.3047583718089
 20
2627.2726279959102
 30
0.0
 11
1940.904758371807
 21
2675.8726279959092
 31
0.0
  0
LINE
  5
1BE0
  8
0
 62
     0
 10
1874.627088842145
 20
2627.2726279959102
 30
0.0
 11
1923.227088842144
 21
2675.8726279959092
 31
0.0
  0
LINE
  5
1BE1
  8
0
 62
     0
 10
1856.949419312481
 20
2627.2726279959102
 30
0.0
 11
1905.54941931248
 21
2675.8726279959092
 31
0.0
  0
LINE
  5
1BE2
  8
0
 62
     0
 10
1846.712572155827
 20
2634.713450368919
 30
0.0
 11
1887.8717497828161
 21
2675.8726279959092
 31
0.0
  0
LINE
  5
1BE3
  8
0
 62
     0
 10
1846.712572155827
 20
2652.391119898582
 30
0.0
 11
1870.1940802531531
 21
2675.8726279959092
 31
0.0
  0
LINE
  5
1BE4
  8
0
 62
     0
 10
1846.712572155827
 20
2670.068789428246
 30
0.0
 11
1852.5164107234889
 21
2675.8726279959092
 31
0.0
  0
ENDBLK
  5
1BE6
  8
0
  0
BLOCK
  8
0
  2
*U17
 70
     1
 10
0.0
 20
0.0
 30
0.0
  3
*U17
  1

  0
SOLID
  5
1BE8
  8
MOJI
 10
-2701.3386039724719
 20
2354.9680533273022
 30
0.0
 11
-2681.9409056454751
 21
2378.3930250373128
 31
0.0
 12
-2692.692791616415
 22
2349.94312261098
 32
0.0
 13
-2692.692791616415
 23
2349.94312261098
 33
0.0
210
0.0
220
0.0
230
-1.0
  0
POLYLINE
  5
1BE9
  8
MOJI
 66
     1
 10
0.0
 20
0.0
 30
0.0
210
0.0
220
0.0
230
-1.0
  0
VERTEX
  5
1BEA
  8
MOJI
 10
-2697.015697794443
 20
2352.4555879691402
 30
0.0
  0
VERTEX
  5
1BEB
  8
MOJI
 10
-2782.9559580690302
 20
2204.5882031012829
 30
0.0
  0
SEQEND
  5
1BEC
  8
MOJI
  0
ENDBLK
  5
1BEE
  8
0
  0
BLOCK
  8
0
  2
*U18
 70
     1
 10
0.0
 20
0.0
 30
0.0
  3
*U18
  1

  0
TEXT
  5
1BF0
  8
MOJI
 10
2804.4191903786509
 20
2220.2878518527491
 30
0.0
 40
45.0
  1
セイフティグリーン
 41
0.8
  7
EXT08
  0
ENDBLK
  5
1BF2
  8
0
  0
BLOCK
  8
0
  2
*U19
 70
     1
 10
0.0
 20
0.0
 30
0.0
  3
*U19
  1

  0
SOLID
  5
1BF4
  8
MOJI
 10
-2772.4663965867858
 20
2852.6921335309448
 30
0.0
 11
-2752.9567820040479
 21
2876.0239774107808
 31
0.0
 12
-2763.8447383239891
 22
2847.6258717138321
 32
0.0
 13
-2763.8447383239891
 23
2847.6258717138321
 33
0.0
210
0.0
220
0.0
230
-1.0
  0
POLYLINE
  5
1BF5
  8
MOJI
 66
     1
 10
0.0
 20
0.0
 30
0.0
210
0.0
220
0.0
230
-1.0
  0
VERTEX
  5
1BF6
  8
MOJI
 10
-2768.1555674553879
 20
2850.159002622388
 30
0.0
  0
VERTEX
  5
1BF7
  8
MOJI
 10
-2830.3415915507931
 20
2744.3321291154462
 30
0.0
  0
SEQEND
  5
1BF8
  8
MOJI
  0
ENDBLK
  5
1BFA
  8
0
  0
BLOCK
  8
0
  2
*U20
 70
     1
 10
0.0
 20
0.0
 30
0.0
  3
*U20
  1

  0
TEXT
  5
1BFC
  8
MOJI
 10
2851.8048238604142
 20
2760.0317778669119
 30
0.0
 40
45.0
  1
ホワイト１０
 41
0.8
  7
EXT08
  0
ENDBLK
  5
1BFE
  8
0
  0
ENDSEC
  0
SECTION
  2
ENTITIES
  0
INSERT
  5
FD
  8
ZWAKU
  2
SEIKO_LS-1100A3
 10
0.0
 20
0.0
 30
0.0
 41
15.0
 42
15.0
 43
15.0
  0
TEXT
  5
FF
  8
INFORMATION
 10
1.0
 20
2.0
 30
0.0
 40
0.8
  1
PLOTTER=SEIKO_LS-1100
  0
TEXT
  5
100
  8
INFORMATION
 10
1.0
 20
3.0
 30
0.0
 40
0.8
  1
PAPER=A3
  0
TEXT
  5
2DB
  8
MOJI2
 10
1178.6697887628541
 20
3437.4066244678738
 30
0.0
 40
60.0
  1
設置図
 41
0.8
  7
KANJI08
  0
TEXT
  5
2DC
  8
MOJI
 10
2109.4357362936739
 20
2226.220229472814
 30
0.0
 40
45.0
  1
ビームパイプ %%C48.6×t3.2
 41
0.8
  7
KANJI08
  0
TEXT
  5
2DD
  8
MOJI
 10
2238.2924974465082
 20
2730.8822830162958
 30
0.0
 40
45.0
  1
主柱 %%C76.3×t3.2
 41
0.8
  7
KANJI08
  0
LINE
  5
2DE
  8
MOJI
 10
2196.895788338898
 20
2710.8822830162958
 30
0.0
 11
2644.6584810136392
 21
2710.8822830162958
 31
0.0
  0
TEXT
  5
2FB
  8
MOJI
 10
1394.7323953518239
 20
2171.897519440678
 30
0.0
 40
45.0
  1
GL
 41
0.8
  7
KANJI08
  0
LINE
  5
307
  8
MOJI2
 10
1158.3298452552949
 20
3423.4977258410381
 30
0.0
 11
1352.5525959271961
 21
3423.4977258410381
 31
0.0
  0
LINE
  5
308
  8
MOJI
 10
2079.9423681945668
 20
2204.9822830162939
 30
0.0
 11
2692.780284921731
 21
2204.9822830162939
 31
0.0
  0
LINE
  5
30D
  8
SJC
 10
1376.1739062937299
 20
2151.572627995909
 30
0.0
 11
1748.562572155826
 21
2151.572627995909
 31
0.0
1001
ACAD
1000
ASC_BOUNDS
1002
{
1070
    19
1002
}
  0
LINE
  5
30E
  8
MOJI2
 10
1158.3298452552949
 20
3408.4977258410381
 30
0.0
 11
1352.5525959271961
 21
3408.4977258410381
 31
0.0
  0
LINE
  5
30F
  8
CENTER
 10
1786.7125721558259
 20
2713.4226279959089
 30
0.0
 11
1786.7125721558259
 21
1451.5726279959081
 31
0.0
  0
LINE
  5
310
  8
CENTER
 10
1986.7125721558259
 20
2913.4226279959089
 30
0.0
 11
3086.7125721558259
 21
2913.4226279959089
 31
0.0
  0
LINE
  5
312
  8
CENTER
 10
3286.7125721558259
 20
2713.4226279959089
 30
0.0
 11
3286.7125721558259
 21
1451.5726279959081
 31
0.0
  0
DIMENSION
  5
314
  8
SUNPOU
  2
*D5
 10
3286.7125721558259
 20
3183.0425213434009
 30
0.0
 11
2536.7125721558259
 21
3223.5425213434009
 31
0.0
 70
     0
 13
1786.7125721558259
 23
2713.4226279959089
 33
0.0
 14
3286.7125721558259
 24
2713.4226279959089
 34
0.0
1001
ACAD
1000
DSTYLE
1002
{
1070
   287
1070
     5
1070
    40
1040
15.0
1070
    41
1040
2.0
1070
    42
1040
1.0
1070
    43
1040
6.0
1070
    44
1040
1.0
1070
    73
1070
     0
1070
    74
1070
     0
1070
    77
1070
     1
1070
    78
1070
     8
1070
   140
1040
3.0
1070
   147
1040
1.1999999999999991
1070
   172
1070
     1
1070
   176
1070
   256
1070
   177
1070
   256
1070
   178
1070
   256
1070
   271
1070
     1
1070
   275
1070
     1
1070
   279
1070
     2
1070
   340
1005
11F
1002
}
  0
LINE
  5
317
  8
SJC
 10
1536.5766120342739
 20
1551.572627995909
 30
0.0
 11
2036.8485322773779
 21
1551.572627995909
 31
0.0
1001
ACAD
1000
ASC_BOUNDS
1002
{
1070
    19
1005
0
1002
}
  0
LINE
  5
318
  8
SJC
 10
1824.862572155826
 20
2151.572627995909
 30
0.0
 11
3248.5625721558258
 21
2151.572627995909
 31
0.0
1001
ACAD
1000
ASC_BOUNDS
1002
{
1070
    19
1002
}
  0
INSERT
  5
31B
  8
SUNPOU
  2
B0040021
 10
2231.8454199457701
 20
2151.572627995909
 30
0.0
  0
LINE
  5
31C
  8
SJC
 10
1536.5766120342739
 20
1501.5726279959081
 30
0.0
 11
2036.8485322773779
 21
1501.5726279959081
 31
0.0
  0
POLYLINE
  5
31D
  8
HATCH
 66
     1
 10
0.0
 20
0.0
 30
0.0
 70
     3
  0
VERTEX
  5
31E
  8
HATCH
 10
1616.5766120342739
 20
1526.5726279959081
 30
0.0
 42
-0.1703036214138359
  0
VERTEX
  5
31F
  8
HATCH
 10
1623.0688014406919
 20
1545.080438589491
 30
0.0
 42
-0.2278377915826702
 70
     1
  0
VERTEX
  5
320
  8
HATCH
 10
1636.5766120342739
 20
1551.5726279959081
 30
0.0
 42
-0.2278377915826684
  0
VERTEX
  5
321
  8
HATCH
 10
1650.0844226278559
 20
1545.080438589491
 30
0.0
 42
-0.1703036214138354
 70
     1
  0
VERTEX
  5
322
  8
HATCH
 10
1656.5766120342739
 20
1526.5726279959081
 30
0.0
 42
-0.1703036214138303
  0
VERTEX
  5
323
  8
HATCH
 10
1650.0844226278571
 20
1508.0648174023261
 30
0.0
 42
-0.2278377915826667
 70
     1
  0
VERTEX
  5
324
  8
HATCH
 10
1636.5766120342739
 20
1501.5726279959081
 30
0.0
 42
-0.2278377915826721
  0
VERTEX
  5
325
  8
HATCH
 10
1623.068801440691
 20
1508.064817402327
 30
0.0
 42
-0.1703036214138317
 70
     1
  0
SEQEND
  5
326
  8
HATCH
  0
POLYLINE
  5
327
  8
HATCH
 66
     1
 10
0.0
 20
0.0
 30
0.0
 70
     3
  0
VERTEX
  5
328
  8
HATCH
 10
1576.5766120342739
 20
1526.5726279959081
 30
0.0
 42
-0.1703036214138359
  0
VERTEX
  5
329
  8
HATCH
 10
1583.0688014406919
 20
1545.080438589491
 30
0.0
 42
-0.2278377915826702
 70
     1
  0
VERTEX
  5
32A
  8
HATCH
 10
1596.5766120342739
 20
1551.5726279959081
 30
0.0
 42
-0.2278377915826684
  0
VERTEX
  5
32B
  8
HATCH
 10
1610.0844226278559
 20
1545.080438589491
 30
0.0
 42
-0.1703036214138354
 70
     1
  0
VERTEX
  5
32C
  8
HATCH
 10
1616.5766120342739
 20
1526.5726279959081
 30
0.0
 42
-0.1703036214138303
  0
VERTEX
  5
32D
  8
HATCH
 10
1610.0844226278559
 20
1508.0648174023261
 30
0.0
 42
-0.2278377915826667
 70
     1
  0
VERTEX
  5
32E
  8
HATCH
 10
1596.5766120342739
 20
1501.5726279959081
 30
0.0
 42
-0.2278377915826721
  0
VERTEX
  5
32F
  8
HATCH
 10
1583.068801440691
 20
1508.064817402327
 30
0.0
 42
-0.1703036214138317
 70
     1
  0
SEQEND
  5
330
  8
HATCH
  0
POLYLINE
  5
331
  8
HATCH
 66
     1
 10
0.0
 20
0.0
 30
0.0
 70
     3
  0
VERTEX
  5
332
  8
HATCH
 10
1536.5766120342739
 20
1526.5726279959081
 30
0.0
 42
-0.1703036214138359
  0
VERTEX
  5
333
  8
HATCH
 10
1543.0688014406919
 20
1545.080438589491
 30
0.0
 42
-0.2278377915826702
 70
     1
  0
VERTEX
  5
334
  8
HATCH
 10
1556.5766120342739
 20
1551.5726279959081
 30
0.0
 42
-0.2278377915826684
  0
VERTEX
  5
335
  8
HATCH
 10
1570.0844226278559
 20
1545.080438589491
 30
0.0
 42
-0.1703036214138354
 70
     1
  0
VERTEX
  5
336
  8
HATCH
 10
1576.5766120342739
 20
1526.5726279959081
 30
0.0
 42
-0.1703036214138303
  0
VERTEX
  5
337
  8
HATCH
 10
1570.0844226278571
 20
1508.0648174023261
 30
0.0
 42
-0.2278377915826667
 70
     1
  0
VERTEX
  5
338
  8
HATCH
 10
1556.5766120342739
 20
1501.5726279959081
 30
0.0
 42
-0.2278377915826721
  0
VERTEX
  5
339
  8
HATCH
 10
1543.068801440691
 20
1508.064817402327
 30
0.0
 42
-0.1703036214138317
 70
     1
  0
SEQEND
  5
33A
  8
HATCH
  0
LINE
  5
33B
  8
SJC
 10
1536.5766120342739
 20
1501.5726279959081
 30
0.0
 11
1536.5766120342739
 21
1551.5726279959081
 31
0.0
  0
POLYLINE
  5
346
  8
HATCH
 66
     1
 10
0.0
 20
0.0
 30
0.0
 70
     3
  0
VERTEX
  5
347
  8
HATCH
 10
1956.8485322773779
 20
1526.5726279959081
 30
0.0
 42
-0.1703036214138359
  0
VERTEX
  5
348
  8
HATCH
 10
1963.3407216837959
 20
1545.080438589491
 30
0.0
 42
-0.2278377915826702
 70
     1
  0
VERTEX
  5
349
  8
HATCH
 10
1976.8485322773779
 20
1551.5726279959081
 30
0.0
 42
-0.2278377915826684
  0
VERTEX
  5
34A
  8
HATCH
 10
1990.3563428709599
 20
1545.080438589491
 30
0.0
 42
-0.1703036214138354
 70
     1
  0
VERTEX
  5
34B
  8
HATCH
 10
1996.8485322773779
 20
1526.5726279959081
 30
0.0
 42
-0.1703036214138303
  0
VERTEX
  5
34C
  8
HATCH
 10
1990.356342870961
 20
1508.0648174023261
 30
0.0
 42
-0.2278377915826667
 70
     1
  0
VERTEX
  5
34D
  8
HATCH
 10
1976.8485322773779
 20
1501.5726279959081
 30
0.0
 42
-0.2278377915826721
  0
VERTEX
  5
34E
  8
HATCH
 10
1963.340721683795
 20
1508.064817402327
 30
0.0
 42
-0.1703036214138317
 70
     1
  0
SEQEND
  5
34F
  8
HATCH
  0
POLYLINE
  5
350
  8
HATCH
 66
     1
 10
0.0
 20
0.0
 30
0.0
 70
     3
  0
VERTEX
  5
351
  8
HATCH
 10
1656.5766120342739
 20
1526.5726279959081
 30
0.0
 42
-0.1703036214138359
  0
VERTEX
  5
352
  8
HATCH
 10
1663.0688014406919
 20
1545.080438589491
 30
0.0
 42
-0.2278377915826702
 70
     1
  0
VERTEX
  5
353
  8
HATCH
 10
1676.5766120342739
 20
1551.5726279959081
 30
0.0
 42
-0.2278377915826684
  0
VERTEX
  5
354
  8
HATCH
 10
1690.0844226278559
 20
1545.080438589491
 30
0.0
 42
-0.1703036214138354
 70
     1
  0
VERTEX
  5
355
  8
HATCH
 10
1696.5766120342739
 20
1526.5726279959081
 30
0.0
 42
-0.1703036214138303
  0
VERTEX
  5
356
  8
HATCH
 10
1690.0844226278571
 20
1508.0648174023261
 30
0.0
 42
-0.2278377915826667
 70
     1
  0
VERTEX
  5
357
  8
HATCH
 10
1676.5766120342739
 20
1501.5726279959081
 30
0.0
 42
-0.2278377915826721
  0
VERTEX
  5
358
  8
HATCH
 10
1663.068801440691
 20
1508.064817402327
 30
0.0
 42
-0.1703036214138317
 70
     1
  0
SEQEND
  5
359
  8
HATCH
  0
POLYLINE
  5
35A
  8
HATCH
 66
     1
 10
0.0
 20
0.0
 30
0.0
 70
     3
  0
VERTEX
  5
35B
  8
HATCH
 10
1876.8485322773779
 20
1526.5726279959081
 30
0.0
 42
-0.1703036214138359
  0
VERTEX
  5
35C
  8
HATCH
 10
1883.3407216837959
 20
1545.080438589491
 30
0.0
 42
-0.2278377915826702
 70
     1
  0
VERTEX
  5
35D
  8
HATCH
 10
1896.8485322773779
 20
1551.5726279959081
 30
0.0
 42
-0.2278377915826684
  0
VERTEX
  5
35E
  8
HATCH
 10
1910.3563428709599
 20
1545.080438589491
 30
0.0
 42
-0.1703036214138354
 70
     1
  0
VERTEX
  5
35F
  8
HATCH
 10
1916.8485322773779
 20
1526.5726279959081
 30
0.0
 42
-0.1703036214138303
  0
VERTEX
  5
360
  8
HATCH
 10
1910.356342870961
 20
1508.0648174023261
 30
0.0
 42
-0.2278377915826667
 70
     1
  0
VERTEX
  5
361
  8
HATCH
 10
1896.8485322773779
 20
1501.5726279959081
 30
0.0
 42
-0.2278377915826721
  0
VERTEX
  5
362
  8
HATCH
 10
1883.340721683795
 20
1508.064817402327
 30
0.0
 42
-0.1703036214138317
 70
     1
  0
SEQEND
  5
363
  8
HATCH
  0
POLYLINE
  5
364
  8
HATCH
 66
     1
 10
0.0
 20
0.0
 30
0.0
 70
     3
  0
VERTEX
  5
365
  8
HATCH
 10
1916.8485322773779
 20
1526.5726279959081
 30
0.0
 42
-0.1703036214138359
  0
VERTEX
  5
366
  8
HATCH
 10
1923.3407216837959
 20
1545.080438589491
 30
0.0
 42
-0.2278377915826702
 70
     1
  0
VERTEX
  5
367
  8
HATCH
 10
1936.8485322773779
 20
1551.5726279959081
 30
0.0
 42
-0.2278377915826684
  0
VERTEX
  5
368
  8
HATCH
 10
1950.3563428709599
 20
1545.080438589491
 30
0.0
 42
-0.1703036214138354
 70
     1
  0
VERTEX
  5
369
  8
HATCH
 10
1956.8485322773779
 20
1526.5726279959081
 30
0.0
 42
-0.1703036214138303
  0
VERTEX
  5
36A
  8
HATCH
 10
1950.356342870961
 20
1508.0648174023261
 30
0.0
 42
-0.2278377915826667
 70
     1
  0
VERTEX
  5
36B
  8
HATCH
 10
1936.8485322773779
 20
1501.5726279959081
 30
0.0
 42
-0.2278377915826721
  0
VERTEX
  5
36C
  8
HATCH
 10
1923.340721683795
 20
1508.064817402327
 30
0.0
 42
-0.1703036214138317
 70
     1
  0
SEQEND
  5
36D
  8
HATCH
  0
LINE
  5
36E
  8
SJC
 10
2036.8485322773779
 20
1501.5726279959081
 30
0.0
 11
2036.8485322773779
 21
1551.5726279959081
 31
0.0
  0
POLYLINE
  5
379
  8
HATCH
 66
     1
 10
0.0
 20
0.0
 30
0.0
 70
     3
  0
VERTEX
  5
37A
  8
HATCH
 10
1996.848532277377
 20
1526.5726279959081
 30
0.0
 42
-0.1703036214138359
  0
VERTEX
  5
37B
  8
HATCH
 10
2003.3407216837959
 20
1545.080438589491
 30
0.0
 42
-0.2278377915826702
 70
     1
  0
VERTEX
  5
37C
  8
HATCH
 10
2016.8485322773779
 20
1551.5726279959081
 30
0.0
 42
-0.2278377915826684
  0
VERTEX
  5
37D
  8
HATCH
 10
2030.356342870959
 20
1545.080438589491
 30
0.0
 42
-0.1703036214138354
 70
     1
  0
VERTEX
  5
37E
  8
HATCH
 10
2036.8485322773779
 20
1526.5726279959081
 30
0.0
 42
-0.1703036214138303
  0
VERTEX
  5
37F
  8
HATCH
 10
2030.356342870961
 20
1508.0648174023261
 30
0.0
 42
-0.2278377915826667
 70
     1
  0
VERTEX
  5
380
  8
HATCH
 10
2016.8485322773779
 20
1501.5726279959081
 30
0.0
 42
-0.2278377915826721
  0
VERTEX
  5
381
  8
HATCH
 10
2003.340721683795
 20
1508.064817402327
 30
0.0
 42
-0.1703036214138317
 70
     1
  0
SEQEND
  5
382
  8
HATCH
  0
LINE
  5
3ED
  8
SJC
 10
3324.862572155826
 20
2151.572627995909
 30
0.0
 11
3697.2512380179219
 21
2151.572627995909
 31
0.0
1001
ACAD
1000
ASC_BOUNDS
1002
{
1070
    19
1005
0
1002
}
  0
DIMENSION
  5
3EF
  8
SUNPOU
  2
*D6
 10
1289.952722366379
 20
2151.572627995909
 30
0.0
 11
1249.4527223663781
 21
1851.572627995909
 31
0.0
 70
     0
 13
1536.5766120342739
 23
1551.572627995909
 33
0.0
 14
1376.1739062937299
 24
2151.572627995909
 34
0.0
 50
90.0
1001
ACAD
1000
DSTYLE
1002
{
1070
   287
1070
     5
1070
    40
1040
15.0
1070
    41
1040
2.0
1070
    42
1040
1.0
1070
    43
1040
6.0
1070
    44
1040
1.0
1070
    73
1070
     0
1070
    74
1070
     0
1070
    77
1070
     1
1070
    78
1070
     8
1070
   140
1040
3.0
1070
   147
1040
1.1999999999999991
1070
   172
1070
     1
1070
   176
1070
   256
1070
   177
1070
   256
1070
   178
1070
   256
1070
   271
1070
     1
1070
   275
1070
     1
1070
   279
1070
     2
1070
   340
1005
11F
1002
}
  0
LINE
  5
3F2
  8
SJC
 10
1986.7125721558259
 20
2951.572627995909
 30
0.0
 11
3086.7125721558259
 21
2951.572627995909
 31
0.0
  0
LINE
  5
3F3
  8
SJC
 10
1986.7125721558259
 20
2875.2726279959088
 30
0.0
 11
3086.7125721558259
 21
2875.2726279959088
 31
0.0
  0
LINE
  5
3F6
  8
SJC
 10
3248.5625721558258
 20
2713.4226279959089
 30
0.0
 11
3248.5625721558258
 21
2675.8726279959092
 31
0.0
  0
LINE
  5
3F7
  8
SJC
 10
3324.862572155826
 20
2713.4226279959089
 30
0.0
 11
3324.862572155826
 21
1551.572627995909
 31
0.0
  0
LINE
  5
3F8
  8
SJC
 10
1824.862572155826
 20
2713.4226279959098
 30
0.0
 11
1824.862572155826
 21
2675.8726279959092
 31
0.0
1001
ACAD
1000
ASC_BOUNDS
1002
{
1070
    19
1002
}
  0
LINE
  5
3F9
  8
SJC
 10
1748.562572155826
 20
2713.4226279959089
 30
0.0
 11
1748.562572155826
 21
1551.572627995909
 31
0.0
1001
ACAD
1000
ASC_BOUNDS
1002
{
1070
    19
1002
}
  0
DIMENSION
  5
3FC
  8
SUNPOU
  2
*D7
 10
3783.4724219452728
 20
2951.572627995909
 30
0.0
 11
3742.9724219452719
 21
2801.5726279959099
 31
0.0
 70
     0
 13
3286.7125721558268
 23
2651.5726279959099
 33
0.0
 14
3086.7125721558259
 24
2951.572627995909
 34
0.0
 50
90.0
1001
ACAD
1000
DSTYLE
1002
{
1070
   287
1070
     5
1070
    40
1040
15.0
1070
    41
1040
2.0
1070
    42
1040
1.0
1070
    43
1040
6.0
1070
    44
1040
1.0
1070
    73
1070
     0
1070
    74
1070
     0
1070
    77
1070
     1
1070
    78
1070
     8
1070
   140
1040
3.0
1070
   147
1040
1.1999999999999991
1070
   172
1070
     1
1070
   176
1070
   256
1070
   177
1070
   256
1070
   178
1070
   256
1070
   271
1070
     1
1070
   275
1070
     1
1070
   279
1070
     2
1070
   340
1005
11F
1002
}
  0
DIMENSION
  5
3FD
  8
SUNPOU
  2
*D8
 10
1123.862839882589
 20
2951.572627995909
 30
0.0
 11
1083.362839882589
 21
2251.572627995909
 31
0.0
 70
     0
 13
1536.5766120342739
 23
1551.5726279959081
 33
0.0
 14
1946.7125721558259
 24
2951.572627995909
 34
0.0
 50
90.0
1001
ACAD
1000
DSTYLE
1002
{
1070
   287
1070
     5
1070
    40
1040
15.0
1070
    41
1040
2.0
1070
    42
1040
1.0
1070
    43
1040
6.0
1070
    44
1040
1.0
1070
    73
1070
     0
1070
    74
1070
     0
1070
    77
1070
     1
1070
    78
1070
     8
1070
   140
1040
3.0
1070
   147
1040
1.1999999999999991
1070
   172
1070
     1
1070
   176
1070
   256
1070
   177
1070
   256
1070
   178
1070
   256
1070
   271
1070
     1
1070
   275
1070
     1
1070
   279
1070
     2
1070
   340
1005
11F
1002
}
  0
SOLID
  5
400
  8
MOJI
  6
CONTINUOUS
 10
2146.650443167588
 20
2845.2369777986692
 30
0.0
 11
2156.133292763232
 21
2848.4111806192818
 31
0.0
 12
2141.8692595035718
 22
2875.2726279959088
 32
0.0
 13
2141.8692595035718
 23
2875.2726279959088
 33
0.0
  0
LINE
  5
401
  8
MOJI
  6
CONTINUOUS
 10
2151.3918679654098
 20
2846.8240792089759
 30
0.0
 11
2196.895788338898
 21
2710.8822830162958
 31
0.0
  0
LINE
  5
402
  8
MOJI
  6
CONTINUOUS
 10
1939.5069835986001
 20
2627.2726279959088
 30
0.0
 11
2079.9423681945668
 21
2204.9822830162939
 31
0.0
  0
SOLID
  5
403
  8
MOJI
  6
CONTINUOUS
 10
2027.052648879185
 20
2347.2369777986678
 30
0.0
 11
2036.5354984748301
 21
2350.4111806192809
 31
0.0
 12
2022.271465215169
 22
2377.2726279959079
 32
0.0
 13
2022.271465215169
 23
2377.2726279959079
 33
0.0
  0
LINE
  5
405
  8
SJC
 10
1824.8625721558251
 20
2627.272627995882
 30
0.0
 11
1824.8625721558251
 21
2425.8726279959092
 31
0.0
1001
ACAD
1000
ASC_BOUNDS
1002
{
1070
    19
1005
3FE
1002
}
  0
LINE
  5
408
  8
SJC
 10
3248.5625721558258
 20
2627.272627995882
 30
0.0
 11
3248.5625721558258
 21
2425.8726279959092
 31
0.0
  0
TEXT
  5
4B6
  8
INFORMATION
 10
1.0
 20
1.0
 30
0.0
 40
0.8
  1
VERSION=3.0
  0
ARC
  5
4B7
  8
CENTER
 10
1986.7125721558259
 20
2713.4226279959089
 30
0.0
 40
200.0
 50
90.0
 51
180.0
  0
ARC
  5
4C0
  8
SJC
 10
1986.7125721558259
 20
2713.4226279959089
 30
0.0
 40
161.84999999999999
 50
90.0
 51
180.0
  0
ARC
  5
4C1
  8
SJC
 10
1986.7125721558259
 20
2713.4226279959089
 30
0.0
 40
238.15000000000001
 50
90.0
 51
180.0
  0
ARC
  5
4EF
  8
CENTER
 10
3086.7125721558259
 20
2713.4226279959089
 30
0.0
 40
200.0
 50
0.000000000000007
 51
90.0
  0
ARC
  5
4F0
  8
SJC
 10
3086.7125721558259
 20
2713.4226279959089
 30
0.0
 40
238.15000000000001
 50
0.000000000000007
 51
90.0
  0
ARC
  5
4F1
  8
SJC
 10
3086.7125721558259
 20
2713.4226279959089
 30
0.0
 40
161.84999999999999
 50
0.000000000000007
 51
90.0
  0
DIMENSION
  5
501
  8
SUNPOU
  2
*D9
 10
1986.712572155828
 20
2713.4226279959112
 30
0.0
 11
1973.170272333839
 21
2790.6945941200211
 31
0.0
 70
   132
 15
1843.773057775531
 25
2853.3093508423799
 35
0.0
 40
0.0
1001
ACAD
1000
DSTYLE
1002
{
1070
   287
1070
     5
1070
    40
1040
15.0
1070
    41
1040
2.0
1070
    42
1040
1.0
1070
    43
1040
6.0
1070
    44
1040
1.0
1070
    73
1070
     0
1070
    74
1070
     0
1070
    77
1070
     1
1070
    78
1070
     8
1070
   140
1040
3.0
1070
   147
1040
1.1999999999999991
1070
   172
1070
     1
1070
   179
1070
     2
1070
   271
1070
     2
1070
   279
1070
     2
1070
   288
1070
     1
1070
   340
1005
11D
1002
}
  0
LINE
  5
531
  8
SJC
 10
1824.862572155826
 20
2675.8726279959092
 30
0.0
 11
3248.5625721558258
 21
2675.8726279959092
 31
0.0
  0
LINE
  5
532
  8
SJC
 10
1824.8625721558039
 20
2627.2726279959088
 30
0.0
 11
3248.562572155849
 21
2627.2726279959088
 31
0.0
  0
ARC
  5
53C
  8
SJC
 10
1854.272306938713
 20
2651.5726279958958
 30
0.0
 40
38.150000000005512
 50
140.43454069638369
 51
219.56545930361631
  0
ARC
  5
53D
  8
SJC
 10
3219.1528373729388
 20
2651.5726279958958
 30
0.0
 40
38.150000000005512
 50
320.43454069638381
 51
39.565459303616258
  0
LINE
  5
53E
  8
SJC
 10
1824.8625721558039
 20
2377.2726279959088
 30
0.0
 11
3248.562572155849
 21
2377.2726279959088
 31
0.0
  0
LINE
  5
53F
  8
SJC
 10
1824.862572155826
 20
2425.8726279959092
 30
0.0
 11
3248.5625721558258
 21
2425.8726279959092
 31
0.0
  0
ARC
  5
540
  8
SJC
 10
1854.272306938713
 20
2401.5726279958958
 30
0.0
 40
38.150000000005512
 50
140.43454069638369
 51
219.56545930361631
  0
ARC
  5
541
  8
SJC
 10
3219.1528373729388
 20
2401.5726279958958
 30
0.0
 40
38.150000000005512
 50
320.43454069638381
 51
39.565459303616258
  0
LINE
  5
542
  8
SJC
 10
1824.8625721558251
 20
2377.272627995882
 30
0.0
 11
1824.862572155826
 21
1551.572627995909
 31
0.0
1001
ACAD
1000
ASC_BOUNDS
1002
{
1070
    19
1002
}
  0
LINE
  5
543
  8
SJC
 10
3248.5625721558258
 20
2377.272627995882
 30
0.0
 11
3248.5625721558258
 21
1551.572627995909
 31
0.0
  0
SOLID
  5
544
  8
MOJI
  6
CONTINUOUS
 10
1944.2881672626161
 20
2597.2369777986728
 30
0.0
 11
1953.7710168582601
 21
2600.411180619285
 31
0.0
 12
1939.5069835985989
 22
2627.272627995912
 32
0.0
 13
1939.5069835985989
 23
2627.272627995912
 33
0.0
  0
DIMENSION
  5
546
  8
SUNPOU
  2
*D10
 10
3783.4724219452728
 20
2401.5726279958958
 30
0.0
 11
3742.9724219452719
 21
2526.5726279959031
 31
0.0
 70
     0
 13
3286.7125721558268
 23
2651.5726279959099
 33
0.0
 14
3286.7125721558259
 24
2401.5726279958958
 34
0.0
 50
90.0
1001
ACAD
1000
DSTYLE
1002
{
1070
   287
1070
     5
1070
    40
1040
15.0
1070
    41
1040
2.0
1070
    42
1040
1.0
1070
    43
1040
6.0
1070
    44
1040
1.0
1070
    73
1070
     0
1070
    74
1070
     0
1070
    77
1070
     1
1070
    78
1070
     8
1070
   140
1040
3.0
1070
   147
1040
1.1999999999999991
1070
   172
1070
     1
1070
   179
1070
     2
1070
   271
1070
     2
1070
   279
1070
     2
1070
   340
1005
11D
1002
}
  0
DIMENSION
  5
553
  8
SUNPOU
  2
*D11
 10
3783.4724219452728
 20
2151.572627995909
 30
0.0
 11
3742.9724219452728
 21
2276.5726279959031
 31
0.0
 70
     0
 13
3286.7125721558259
 23
2401.5726279958958
 33
0.0
 14
3697.2512380179219
 24
2151.572627995909
 34
0.0
 50
90.0
1001
ACAD
1000
DSTYLE
1002
{
1070
   287
1070
     5
1070
    40
1040
15.0
1070
    41
1040
2.0
1070
    42
1040
1.0
1070
    43
1040
6.0
1070
    44
1040
1.0
1070
    73
1070
     0
1070
    74
1070
     0
1070
    77
1070
     1
1070
    78
1070
     8
1070
   140
1040
3.0
1070
   147
1040
1.1999999999999991
1070
   172
1070
     1
1070
   179
1070
     2
1070
   271
1070
     2
1070
   279
1070
     2
1070
   340
1005
11D
1002
}
  0
LINE
  5
650
  8
HATCH
 10
1586.712572155825
 20
1602.6186780887519
 30
0.0
 11
1748.562572155826
 21
1764.468678088753
 31
0.0
  0
LINE
  5
651
  8
HATCH
 10
1824.862572155826
 20
1840.7686780887529
 30
0.0
 11
1986.712572155825
 21
2002.6186780887531
 31
0.0
  0
LINE
  5
652
  8
HATCH
 10
1586.712572155825
 20
1779.39537338539
 30
0.0
 11
1748.562572155826
 21
1941.2453733853899
 31
0.0
  0
LINE
  5
653
  8
HATCH
 10
1824.862572155826
 20
2017.5453733853899
 30
0.0
 11
1958.8898267663451
 21
2151.572627995909
 31
0.0
  0
LINE
  5
654
  8
HATCH
 10
1586.712572155825
 20
1956.1720686820261
 30
0.0
 11
1748.562572155826
 21
2118.0220686820271
 31
0.0
  0
LINE
  5
657
  8
HATCH
 10
1586.7125721558259
 20
1624.7157650008321
 30
0.0
 11
1748.562572155826
 21
1786.5657650008329
 31
0.0
  0
LINE
  5
658
  8
HATCH
 10
1824.862572155826
 20
1862.8657650008331
 30
0.0
 11
1986.712572155825
 21
2024.7157650008321
 31
0.0
  0
LINE
  5
659
  8
HATCH
 10
1586.712572155825
 20
1801.4924602974691
 30
0.0
 11
1748.562572155826
 21
1963.3424602974701
 31
0.0
  0
LINE
  5
65A
  8
HATCH
 10
1824.862572155826
 20
2039.6424602974701
 30
0.0
 11
1936.7927398542661
 21
2151.572627995909
 31
0.0
  0
LINE
  5
65B
  8
HATCH
 10
1586.712572155825
 20
1978.269155594106
 30
0.0
 11
1748.562572155826
 21
2140.1191555941068
 31
0.0
  0
LINE
  5
65D
  8
HATCH
 10
1867.122825744174
 20
1551.5726279959081
 30
0.0
 11
1986.7125721558259
 21
1671.1623744075589
 31
0.0
  0
LINE
  5
65E
  8
HATCH
 10
1591.472348238822
 20
1651.572627995909
 30
0.0
 11
1748.562572155826
 21
1808.6628519129131
 31
0.0
  0
LINE
  5
65F
  8
HATCH
 10
1824.862572155826
 20
1884.9628519129119
 30
0.0
 11
1986.712572155825
 21
2046.812851912912
 31
0.0
  0
LINE
  5
660
  8
HATCH
 10
1586.712572155825
 20
1823.589547209549
 30
0.0
 11
1748.562572155826
 21
1985.4395472095489
 31
0.0
  0
LINE
  5
661
  8
HATCH
 10
1824.862572155826
 20
2061.7395472095491
 30
0.0
 11
1914.6956529421871
 21
2151.5726279959099
 31
0.0
  0
LINE
  5
662
  8
HATCH
 10
1586.7125721558259
 20
2000.3662425061859
 30
0.0
 11
1737.918957645549
 21
2151.572627995909
 31
0.0
  0
LINE
  5
664
  8
HATCH
 10
1845.025738832097
 20
1551.572627995909
 30
0.0
 11
1986.7125721558259
 21
1693.2594613196379
 31
0.0
  0
LINE
  5
665
  8
HATCH
 10
1586.7125721558259
 20
2132.9487639786639
 30
0.0
 11
1605.3364361730719
 21
2151.572627995909
 31
0.0
  0
LINE
  5
668
  8
HATCH
 10
1668.24904353546
 20
1551.572627995909
 30
0.0
 11
1748.562572155826
 21
1631.886156616275
 31
0.0
  0
LINE
  5
669
  8
HATCH
 10
1690.3461304475391
 20
1551.572627995909
 30
0.0
 11
1748.562572155826
 21
1609.789069704196
 31
0.0
  0
LINE
  5
66A
  8
HATCH
 10
1712.443217359619
 20
1551.572627995909
 30
0.0
 11
1748.562572155826
 21
1587.6919827921161
 31
0.0
  0
LINE
  5
66B
  8
HATCH
 10
1889.2199126562559
 20
1551.572627995909
 30
0.0
 11
1986.7125721558259
 21
1649.0652874954769
 31
0.0
  0
DIMENSION
  5
66F
  8
SUNPOU
  2
*D12
 10
1986.7125721558259
 20
1350.385379250705
 30
0.0
 11
1786.7125721558259
 21
1390.885379250705
 31
0.0
 70
     0
 13
1586.7125721558259
 23
1551.572627995909
 33
0.0
 14
1986.7125721558259
 24
1551.572627995909
 34
0.0
1001
ACAD
1000
DSTYLE
1002
{
1070
   287
1070
     5
1070
    40
1040
15.0
1070
    41
1040
2.0
1070
    42
1040
1.0
1070
    43
1040
6.0
1070
    44
1040
1.0
1070
    73
1070
     0
1070
    74
1070
     0
1070
    77
1070
     1
1070
    78
1070
     8
1070
   140
1040
3.0
1070
   147
1040
1.1999999999999991
1070
   172
1070
     1
1070
   179
1070
     2
1070
   271
1070
     2
1070
   279
1070
     2
1070
   340
1005
11D
1002
}
  0
LINE
  5
912
  8
SJC
 10
5051.4317998701472
 20
4165.2545027623164
 30
0.0
 11
5981.4317998701463
 21
4165.2545027623164
 31
0.0
  0
LINE
  5
913
  8
SJC
 10
5051.4317998701472
 20
3940.254502762316
 30
0.0
 11
5981.4317998701463
 21
3940.254502762316
 31
0.0
  0
LINE
  5
914
  8
SJC
 10
5028.9317998701472
 20
4015.254502762316
 30
0.0
 11
6003.9317998701463
 21
4015.254502762316
 31
0.0
  0
LINE
  5
915
  8
SJC
 10
5028.9317998701472
 20
4090.254502762316
 30
0.0
 11
6003.9317998701463
 21
4090.254502762316
 31
0.0
  0
TEXT
  5
916
  8
MOJI
 10
5287.795190993811
 20
3955.6695891817881
 30
0.0
 40
45.0
  1
KGSH00088
 41
0.8
  7
EXT08
  0
TEXT
  5
917
  8
MOJI
 10
5287.795190993811
 20
4030.6695891817872
 30
0.0
 40
45.0
  1
KSP-8-15WM
 41
0.8
  7
EXT08
  0
TEXT
  5
918
  8
MOJI
 10
5287.795190993811
 20
4105.6695891817872
 30
0.0
 40
45.0
  1
高強度セイフティパイプ
 41
0.8
  7
EXT08
  0
TEXT
  5
919
  8
MOJI
 10
5078.0889427272896
 20
4104.3545027623159
 30
0.0
 40
45.0
  1
タイプ
 41
0.8
  7
EXT08
 72
     4
 11
5141.4317998701463
 21
4127.7545027623164
 31
0.0
  0
LINE
  5
91A
  8
SJC
 10
5253.9317998701463
 20
3940.254502762316
 30
0.0
 11
5253.9317998701463
 21
4165.2545027623164
 31
0.0
  0
ARC
  5
91B
  8
SJC
 10
5051.4317998701472
 20
4142.7545027623173
 30
0.0
 40
22.5
 50
90.0
 51
180.0
  0
ARC
  5
91C
  8
SJC
 10
5051.4317998701472
 20
3962.7545027623169
 30
0.0
 40
22.5
 50
180.0
 51
270.0
  0
LINE
  5
91D
  8
SJC
 10
5028.9317998701472
 20
3962.7545027623169
 30
0.0
 11
5028.9317998701472
 21
4142.7545027623173
 31
0.0
  0
TEXT
  5
91E
  8
MOJI
 10
5081.4317998701463
 20
4030.2545027623169
 30
0.0
 40
45.0
  1
品  番
 41
0.8
  7
EXT08
 72
     4
 11
5141.4317998701463
 21
4052.754502762316
 31
0.0
  0
TEXT
  5
91F
  8
MOJI
 10
5058.6317998701461
 20
3955.2545027623169
 30
0.0
 40
45.0
  1
図面番号
 41
0.8
  7
EXT08
 72
     4
 11
5141.4317998701463
 21
3977.754502762316
 31
0.0
  0
ARC
  5
920
  8
SJC
 10
5981.4317998701463
 20
4142.7545027623173
 30
0.0
 40
22.5
 50
0.0
 51
90.0
  0
ARC
  5
921
  8
SJC
 10
5981.4317998701463
 20
3962.7545027623169
 30
0.0
 40
22.5
 50
270.0
 51
0.0
  0
LINE
  5
922
  8
SJC
 10
6003.9317998701463
 20
3962.7545027623169
 30
0.0
 11
6003.9317998701463
 21
4142.7545027623173
 31
0.0
  0
LINE
  5
EA7
  8
MOJI
 10
4628.2035786553051
 20
606.98140002950743
 30
0.0
 11
5691.0795432150417
 21
606.98140002950743
 31
0.0
  0
LINE
  5
EA8
  8
MOJI
 10
5691.0795432150417
 20
606.98140002950743
 30
0.0
 11
5691.0795432150408
 21
379.33704460698158
 31
0.0
  0
LINE
  5
EA9
  8
MOJI
 10
4918.9652661473556
 20
379.33704460698158
 30
0.0
 11
4918.9652661473556
 21
606.98140002950743
 31
0.0
  0
LINE
  5
EAA
  8
MOJI
 10
4628.2035786553051
 20
379.33704460698158
 30
0.0
 11
4628.2035786553051
 21
606.98140002950743
 31
0.0
  0
LINE
  5
EAB
  8
MOJI
 10
5148.1779996400837
 20
379.33704460698158
 30
0.0
 11
5148.1779996400865
 21
606.98140002950743
 31
0.0
  0
TEXT
  5
EAC
  8
MOJI
 10
4720.9511115145051
 20
547.64697883541544
 30
0.0
 40
45.0
  1
品  名
 41
0.8
  7
EXT08
 72
     1
 11
4779.7511115145062
 21
547.64697883541544
 31
0.0
  0
TEXT
  5
EAD
  8
MOJI
 10
4974.089531650653
 20
550.01827420440009
 30
0.0
 40
45.0
  1
材  質
 41
0.8
  7
EXT08
 72
     1
 11
5034.089531650653
 21
550.01827420440009
 31
0.0
  0
TEXT
  5
EAE
  8
MOJI
 10
5356.1241430000864
 20
546.03142712751298
 30
0.0
 40
45.0
  1
摘  要
 41
0.8
  7
EXT08
 72
     1
 11
5416.467000142944
 21
546.03142712751298
 31
0.0
  0
TEXT
  5
EAF
  8
MOJI
 10
4652.987367387932
 20
400.46383898699582
 30
0.0
 40
45.0
  1
ビームパイプ
 41
0.8
  7
EXT08
 72
     1
 11
4781.1302245307897
 21
400.46383898699582
 31
0.0
  0
TEXT
  5
EB0
  8
MOJI
 10
4717.7873673879321
 20
476.2168553221851
 30
0.0
 40
45.0
  1
主  柱
 41
0.8
  7
EXT08
 72
     1
 11
4777.7873673879321
 21
476.2168553221851
 31
0.0
  0
TEXT
  5
EB1
  8
MOJI
 10
4936.6704570057318
 20
476.2168553221851
 30
0.0
 40
45.0
  1
STK400
 41
0.8
  7
EXT08
 72
     1
 11
5036.9561712914456
 21
476.2168553221851
 31
0.0
  0
TEXT
  5
EB2
  8
MOJI
 10
5173.2560201200868
 20
476.2168553221851
 30
0.0
 40
45.0
  1
亜鉛めっき＋静電粉体塗装
 41
0.8
  7
EXT08
 72
     1
 11
5427.6560201200864
 21
476.2168553221851
 31
0.0
  0
LINE
  5
EC3
  8
MOJI
 10
4628.2035786553051
 20
531.09994822199883
 30
0.0
 11
5691.0795432150417
 21
531.09994822199883
 31
0.0
  0
LINE
  5
EC4
  8
MOJI
 10
4628.2035786553051
 20
455.21849641449018
 30
0.0
 11
5691.0795432150417
 21
455.21849641449018
 31
0.0
  0
LINE
  5
EC5
  8
MOJI
 10
4628.2035786553051
 20
379.33704460698158
 30
0.0
 11
5691.0795432150417
 21
379.33704460698158
 31
0.0
  0
TEXT
  5
ECC
  8
MOJI
 10
5173.2560201200868
 20
400.3354035146765
 30
0.0
 40
45.0
  1
亜鉛めっき＋静電粉体塗装
 41
0.8
  7
EXT08
 72
     1
 11
5427.6560201200864
 21
400.3354035146765
 31
0.0
  0
TEXT
  5
ECD
  8
MOJI
 10
4936.6704570057318
 20
400.3354035146765
 30
0.0
 40
45.0
  1
STK400
 41
0.8
  7
EXT08
 72
     1
 11
5036.9561712914456
 21
400.3354035146765
 31
0.0
  0
LINE
  5
1007
  8
SJC
 10
1586.7125721558259
 20
2151.572627995909
 30
0.0
 11
1586.712572155825
 21
1551.572627995909
 31
0.0
1001
ACAD
1000
ASC_BOUNDS
1002
{
1070
    19
1002
}
  0
LINE
  5
1008
  8
SJC
 10
1986.7125721558259
 20
2151.572627995909
 30
0.0
 11
1986.7125721558259
 21
1551.572627995909
 31
0.0
1001
ACAD
1000
ASC_BOUNDS
1002
{
1070
    19
1002
}
  0
LINE
  5
1048
  8
HATCH
 10
1824.862572155826
 20
1708.186156616275
 30
0.0
 11
1986.7125721558259
 21
1870.0361566162751
 31
0.0
  0
LINE
  5
1049
  8
HATCH
 10
1824.862572155826
 20
1686.089069704195
 30
0.0
 11
1986.712572155825
 21
1847.9390697041949
 31
0.0
  0
LINE
  5
104A
  8
HATCH
 10
1824.862572155826
 20
1663.991982792116
 30
0.0
 11
1986.712572155825
 21
1825.8419827921159
 31
0.0
  0
LINE
  5
104F
  8
SJC
 10
3036.5766120342741
 20
1551.572627995909
 30
0.0
 11
3536.8485322773781
 21
1551.572627995909
 31
0.0
1001
ACAD
1000
ASC_BOUNDS
1002
{
1070
    19
1005
0
1002
}
  0
LINE
  5
1050
  8
SJC
 10
3086.7125721558259
 20
2151.572627995909
 30
0.0
 11
3086.7125721558259
 21
1551.572627995909
 31
0.0
1001
ACAD
1000
ASC_BOUNDS
1002
{
1070
    19
1002
}
  0
LINE
  5
1051
  8
SJC
 10
3486.7125721558259
 20
2151.572627995909
 30
0.0
 11
3486.7125721558259
 21
1551.572627995909
 31
0.0
1001
ACAD
1000
ASC_BOUNDS
1002
{
1070
    19
1002
}
  0
LINE
  5
1052
  8
SJC
 10
3036.5766120342741
 20
1501.5726279959081
 30
0.0
 11
3536.8485322773781
 21
1501.5726279959081
 31
0.0
  0
POLYLINE
  5
1053
  8
HATCH
 66
     1
 10
0.0
 20
0.0
 30
0.0
 70
     3
  0
VERTEX
  5
1054
  8
HATCH
 10
3116.5766120342741
 20
1526.5726279959081
 30
0.0
 42
-0.1703036214138359
  0
VERTEX
  5
1055
  8
HATCH
 10
3123.0688014406928
 20
1545.080438589491
 30
0.0
 42
-0.2278377915826702
 70
     1
  0
VERTEX
  5
1056
  8
HATCH
 10
3136.5766120342741
 20
1551.5726279959081
 30
0.0
 42
-0.2278377915826684
  0
VERTEX
  5
1057
  8
HATCH
 10
3150.0844226278559
 20
1545.080438589491
 30
0.0
 42
-0.1703036214138354
 70
     1
  0
VERTEX
  5
1058
  8
HATCH
 10
3156.5766120342751
 20
1526.5726279959081
 30
0.0
 42
-0.1703036214138303
  0
VERTEX
  5
1059
  8
HATCH
 10
3150.0844226278568
 20
1508.0648174023261
 30
0.0
 42
-0.2278377915826667
 70
     1
  0
VERTEX
  5
105A
  8
HATCH
 10
3136.5766120342741
 20
1501.5726279959081
 30
0.0
 42
-0.2278377915826721
  0
VERTEX
  5
105B
  8
HATCH
 10
3123.068801440691
 20
1508.064817402327
 30
0.0
 42
-0.1703036214138317
 70
     1
  0
SEQEND
  5
105C
  8
HATCH
  0
POLYLINE
  5
105D
  8
HATCH
 66
     1
 10
0.0
 20
0.0
 30
0.0
 70
     3
  0
VERTEX
  5
105E
  8
HATCH
 10
3076.5766120342751
 20
1526.5726279959081
 30
0.0
 42
-0.1703036214138359
  0
VERTEX
  5
105F
  8
HATCH
 10
3083.0688014406919
 20
1545.080438589491
 30
0.0
 42
-0.2278377915826702
 70
     1
  0
VERTEX
  5
1060
  8
HATCH
 10
3096.5766120342751
 20
1551.5726279959081
 30
0.0
 42
-0.2278377915826684
  0
VERTEX
  5
1061
  8
HATCH
 10
3110.0844226278559
 20
1545.080438589491
 30
0.0
 42
-0.1703036214138354
 70
     1
  0
VERTEX
  5
1062
  8
HATCH
 10
3116.5766120342741
 20
1526.5726279959081
 30
0.0
 42
-0.1703036214138303
  0
VERTEX
  5
1063
  8
HATCH
 10
3110.0844226278568
 20
1508.0648174023261
 30
0.0
 42
-0.2278377915826667
 70
     1
  0
VERTEX
  5
1064
  8
HATCH
 10
3096.5766120342751
 20
1501.5726279959081
 30
0.0
 42
-0.2278377915826721
  0
VERTEX
  5
1065
  8
HATCH
 10
3083.0688014406919
 20
1508.064817402327
 30
0.0
 42
-0.1703036214138317
 70
     1
  0
SEQEND
  5
1066
  8
HATCH
  0
POLYLINE
  5
1067
  8
HATCH
 66
     1
 10
0.0
 20
0.0
 30
0.0
 70
     3
  0
VERTEX
  5
1068
  8
HATCH
 10
3036.5766120342741
 20
1526.5726279959081
 30
0.0
 42
-0.1703036214138359
  0
VERTEX
  5
1069
  8
HATCH
 10
3043.0688014406928
 20
1545.080438589491
 30
0.0
 42
-0.2278377915826702
 70
     1
  0
VERTEX
  5
106A
  8
HATCH
 10
3056.5766120342741
 20
1551.5726279959081
 30
0.0
 42
-0.2278377915826684
  0
VERTEX
  5
106B
  8
HATCH
 10
3070.0844226278559
 20
1545.080438589491
 30
0.0
 42
-0.1703036214138354
 70
     1
  0
VERTEX
  5
106C
  8
HATCH
 10
3076.5766120342751
 20
1526.5726279959081
 30
0.0
 42
-0.1703036214138303
  0
VERTEX
  5
106D
  8
HATCH
 10
3070.0844226278568
 20
1508.0648174023261
 30
0.0
 42
-0.2278377915826667
 70
     1
  0
VERTEX
  5
106E
  8
HATCH
 10
3056.5766120342741
 20
1501.5726279959081
 30
0.0
 42
-0.2278377915826721
  0
VERTEX
  5
106F
  8
HATCH
 10
3043.068801440691
 20
1508.064817402327
 30
0.0
 42
-0.1703036214138317
 70
     1
  0
SEQEND
  5
1070
  8
HATCH
  0
LINE
  5
1071
  8
SJC
 10
3036.5766120342741
 20
1501.5726279959081
 30
0.0
 11
3036.5766120342741
 21
1551.5726279959081
 31
0.0
  0
POLYLINE
  5
1072
  8
HATCH
 66
     1
 10
0.0
 20
0.0
 30
0.0
 70
     3
  0
VERTEX
  5
1073
  8
HATCH
 10
3456.8485322773781
 20
1526.5726279959081
 30
0.0
 42
-0.1703036214138359
  0
VERTEX
  5
1074
  8
HATCH
 10
3463.3407216837959
 20
1545.080438589491
 30
0.0
 42
-0.2278377915826702
 70
     1
  0
VERTEX
  5
1075
  8
HATCH
 10
3476.8485322773781
 20
1551.5726279959081
 30
0.0
 42
-0.2278377915826684
  0
VERTEX
  5
1076
  8
HATCH
 10
3490.3563428709599
 20
1545.080438589491
 30
0.0
 42
-0.1703036214138354
 70
     1
  0
VERTEX
  5
1077
  8
HATCH
 10
3496.8485322773781
 20
1526.5726279959081
 30
0.0
 42
-0.1703036214138303
  0
VERTEX
  5
1078
  8
HATCH
 10
3490.3563428709599
 20
1508.0648174023261
 30
0.0
 42
-0.2278377915826667
 70
     1
  0
VERTEX
  5
1079
  8
HATCH
 10
3476.8485322773781
 20
1501.5726279959081
 30
0.0
 42
-0.2278377915826721
  0
VERTEX
  5
107A
  8
HATCH
 10
3463.340721683795
 20
1508.064817402327
 30
0.0
 42
-0.1703036214138317
 70
     1
  0
SEQEND
  5
107B
  8
HATCH
  0
POLYLINE
  5
107C
  8
HATCH
 66
     1
 10
0.0
 20
0.0
 30
0.0
 70
     3
  0
VERTEX
  5
107D
  8
HATCH
 10
3156.5766120342751
 20
1526.5726279959081
 30
0.0
 42
-0.1703036214138359
  0
VERTEX
  5
107E
  8
HATCH
 10
3163.0688014406919
 20
1545.080438589491
 30
0.0
 42
-0.2278377915826702
 70
     1
  0
VERTEX
  5
107F
  8
HATCH
 10
3176.5766120342751
 20
1551.5726279959081
 30
0.0
 42
-0.2278377915826684
  0
VERTEX
  5
1080
  8
HATCH
 10
3190.0844226278559
 20
1545.080438589491
 30
0.0
 42
-0.1703036214138354
 70
     1
  0
VERTEX
  5
1081
  8
HATCH
 10
3196.5766120342741
 20
1526.5726279959081
 30
0.0
 42
-0.1703036214138303
  0
VERTEX
  5
1082
  8
HATCH
 10
3190.0844226278568
 20
1508.0648174023261
 30
0.0
 42
-0.2278377915826667
 70
     1
  0
VERTEX
  5
1083
  8
HATCH
 10
3176.5766120342751
 20
1501.5726279959081
 30
0.0
 42
-0.2278377915826721
  0
VERTEX
  5
1084
  8
HATCH
 10
3163.0688014406919
 20
1508.064817402327
 30
0.0
 42
-0.1703036214138317
 70
     1
  0
SEQEND
  5
1085
  8
HATCH
  0
POLYLINE
  5
1086
  8
HATCH
 66
     1
 10
0.0
 20
0.0
 30
0.0
 70
     3
  0
VERTEX
  5
1087
  8
HATCH
 10
3376.8485322773781
 20
1526.5726279959081
 30
0.0
 42
-0.1703036214138359
  0
VERTEX
  5
1088
  8
HATCH
 10
3383.3407216837959
 20
1545.080438589491
 30
0.0
 42
-0.2278377915826702
 70
     1
  0
VERTEX
  5
1089
  8
HATCH
 10
3396.8485322773781
 20
1551.5726279959081
 30
0.0
 42
-0.2278377915826684
  0
VERTEX
  5
108A
  8
HATCH
 10
3410.356342870959
 20
1545.080438589491
 30
0.0
 42
-0.1703036214138354
 70
     1
  0
VERTEX
  5
108B
  8
HATCH
 10
3416.8485322773781
 20
1526.5726279959081
 30
0.0
 42
-0.1703036214138303
  0
VERTEX
  5
108C
  8
HATCH
 10
3410.3563428709608
 20
1508.0648174023261
 30
0.0
 42
-0.2278377915826667
 70
     1
  0
VERTEX
  5
108D
  8
HATCH
 10
3396.8485322773781
 20
1501.5726279959081
 30
0.0
 42
-0.2278377915826721
  0
VERTEX
  5
108E
  8
HATCH
 10
3383.340721683795
 20
1508.064817402327
 30
0.0
 42
-0.1703036214138317
 70
     1
  0
SEQEND
  5
108F
  8
HATCH
  0
POLYLINE
  5
1090
  8
HATCH
 66
     1
 10
0.0
 20
0.0
 30
0.0
 70
     3
  0
VERTEX
  5
1091
  8
HATCH
 10
3416.8485322773781
 20
1526.5726279959081
 30
0.0
 42
-0.1703036214138359
  0
VERTEX
  5
1092
  8
HATCH
 10
3423.3407216837959
 20
1545.080438589491
 30
0.0
 42
-0.2278377915826702
 70
     1
  0
VERTEX
  5
1093
  8
HATCH
 10
3436.8485322773781
 20
1551.5726279959081
 30
0.0
 42
-0.2278377915826684
  0
VERTEX
  5
1094
  8
HATCH
 10
3450.3563428709599
 20
1545.080438589491
 30
0.0
 42
-0.1703036214138354
 70
     1
  0
VERTEX
  5
1095
  8
HATCH
 10
3456.8485322773781
 20
1526.5726279959081
 30
0.0
 42
-0.1703036214138303
  0
VERTEX
  5
1096
  8
HATCH
 10
3450.3563428709608
 20
1508.0648174023261
 30
0.0
 42
-0.2278377915826667
 70
     1
  0
VERTEX
  5
1097
  8
HATCH
 10
3436.8485322773781
 20
1501.5726279959081
 30
0.0
 42
-0.2278377915826721
  0
VERTEX
  5
1098
  8
HATCH
 10
3423.340721683795
 20
1508.064817402327
 30
0.0
 42
-0.1703036214138317
 70
     1
  0
SEQEND
  5
1099
  8
HATCH
  0
LINE
  5
109A
  8
SJC
 10
3536.8485322773781
 20
1501.5726279959081
 30
0.0
 11
3536.8485322773781
 21
1551.5726279959081
 31
0.0
  0
POLYLINE
  5
109B
  8
HATCH
 66
     1
 10
0.0
 20
0.0
 30
0.0
 70
     3
  0
VERTEX
  5
109C
  8
HATCH
 10
3496.8485322773781
 20
1526.5726279959081
 30
0.0
 42
-0.1703036214138359
  0
VERTEX
  5
109D
  8
HATCH
 10
3503.3407216837959
 20
1545.080438589491
 30
0.0
 42
-0.2278377915826702
 70
     1
  0
VERTEX
  5
109E
  8
HATCH
 10
3516.8485322773781
 20
1551.5726279959081
 30
0.0
 42
-0.2278377915826684
  0
VERTEX
  5
109F
  8
HATCH
 10
3530.356342870959
 20
1545.080438589491
 30
0.0
 42
-0.1703036214138354
 70
     1
  0
VERTEX
  5
10A0
  8
HATCH
 10
3536.8485322773781
 20
1526.5726279959081
 30
0.0
 42
-0.1703036214138303
  0
VERTEX
  5
10A1
  8
HATCH
 10
3530.3563428709599
 20
1508.0648174023261
 30
0.0
 42
-0.2278377915826667
 70
     1
  0
VERTEX
  5
10A2
  8
HATCH
 10
3516.8485322773781
 20
1501.5726279959081
 30
0.0
 42
-0.2278377915826721
  0
VERTEX
  5
10A3
  8
HATCH
 10
3503.340721683795
 20
1508.064817402327
 30
0.0
 42
-0.1703036214138317
 70
     1
  0
SEQEND
  5
10A4
  8
HATCH
  0
LINE
  5
10A5
  8
HATCH
 10
3086.7125721558259
 20
1602.6186780887519
 30
0.0
 11
3248.5625721558258
 21
1764.468678088753
 31
0.0
  0
LINE
  5
10A6
  8
HATCH
 10
3324.862572155826
 20
1840.7686780887529
 30
0.0
 11
3486.7125721558259
 21
2002.6186780887531
 31
0.0
  0
LINE
  5
10A7
  8
HATCH
 10
3086.7125721558259
 20
1779.39537338539
 30
0.0
 11
3248.5625721558258
 21
1941.2453733853899
 31
0.0
  0
LINE
  5
10A8
  8
HATCH
 10
3324.862572155826
 20
2017.5453733853899
 30
0.0
 11
3458.8898267663449
 21
2151.572627995909
 31
0.0
  0
LINE
  5
10A9
  8
HATCH
 10
3086.7125721558259
 20
1956.1720686820261
 30
0.0
 11
3248.5625721558258
 21
2118.0220686820271
 31
0.0
  0
LINE
  5
10AA
  8
HATCH
 10
3212.4432173596192
 20
1551.572627995909
 30
0.0
 11
3248.5625721558258
 21
1587.6919827921161
 31
0.0
  0
LINE
  5
10AB
  8
HATCH
 10
3324.862572155826
 20
1663.991982792116
 30
0.0
 11
3486.7125721558259
 21
1825.8419827921159
 31
0.0
  0
LINE
  5
10AC
  8
HATCH
 10
3086.7125721558259
 20
1624.7157650008321
 30
0.0
 11
3248.5625721558258
 21
1786.5657650008329
 31
0.0
  0
LINE
  5
10AD
  8
HATCH
 10
3324.862572155826
 20
1862.8657650008331
 30
0.0
 11
3486.7125721558259
 21
2024.7157650008321
 31
0.0
  0
LINE
  5
10AE
  8
HATCH
 10
3086.7125721558259
 20
1801.4924602974691
 30
0.0
 11
3248.5625721558258
 21
1963.3424602974701
 31
0.0
  0
LINE
  5
10AF
  8
HATCH
 10
3324.862572155826
 20
2039.6424602974701
 30
0.0
 11
3436.7927398542661
 21
2151.572627995909
 31
0.0
  0
LINE
  5
10B0
  8
HATCH
 10
3086.7125721558259
 20
1978.269155594106
 30
0.0
 11
3248.5625721558258
 21
2140.1191555941068
 31
0.0
  0
LINE
  5
10B1
  8
HATCH
 10
3190.34613044754
 20
1551.572627995909
 30
0.0
 11
3248.5625721558258
 21
1609.789069704196
 31
0.0
  0
LINE
  5
10B2
  8
HATCH
 10
3324.862572155826
 20
1686.089069704195
 30
0.0
 11
3486.7125721558259
 21
1847.9390697041949
 31
0.0
  0
LINE
  5
10B3
  8
HATCH
 10
3367.122825744174
 20
1551.5726279959081
 30
0.0
 11
3486.7125721558259
 21
1671.1623744075589
 31
0.0
  0
LINE
  5
10B4
  8
HATCH
 10
3091.4723482388222
 20
1651.572627995909
 30
0.0
 11
3248.5625721558258
 21
1808.6628519129131
 31
0.0
  0
LINE
  5
10B5
  8
HATCH
 10
3324.862572155826
 20
1884.9628519129119
 30
0.0
 11
3486.7125721558259
 21
2046.812851912912
 31
0.0
  0
LINE
  5
10B6
  8
HATCH
 10
3086.7125721558259
 20
1823.589547209549
 30
0.0
 11
3248.5625721558258
 21
1985.4395472095489
 31
0.0
  0
LINE
  5
10B7
  8
HATCH
 10
3324.862572155826
 20
2061.7395472095491
 30
0.0
 11
3414.6956529421868
 21
2151.5726279959099
 31
0.0
  0
LINE
  5
10B8
  8
HATCH
 10
3086.7125721558259
 20
2000.3662425061859
 30
0.0
 11
3237.9189576455501
 21
2151.572627995909
 31
0.0
  0
LINE
  5
10B9
  8
HATCH
 10
3168.2490435354598
 20
1551.572627995909
 30
0.0
 11
3248.5625721558258
 21
1631.886156616275
 31
0.0
  0
LINE
  5
10BA
  8
HATCH
 10
3324.862572155826
 20
1708.186156616275
 30
0.0
 11
3486.7125721558259
 21
1870.0361566162751
 31
0.0
  0
LINE
  5
10BB
  8
HATCH
 10
3345.025738832097
 20
1551.572627995909
 30
0.0
 11
3486.7125721558259
 21
1693.2594613196379
 31
0.0
  0
LINE
  5
10BC
  8
HATCH
 10
3086.7125721558259
 20
2132.9487639786639
 30
0.0
 11
3105.3364361730719
 21
2151.572627995909
 31
0.0
  0
LINE
  5
10BD
  8
HATCH
 10
3389.2199126562568
 20
1551.572627995909
 30
0.0
 11
3486.7125721558259
 21
1649.0652874954769
 31
0.0
  0
TEXT
  5
110F
  8
MOJI
 10
1452.758314621522
 20
1123.648607357065
 30
0.0
 40
60.0
  1
※基礎寸法は参考値です。
 41
0.8
  7
EXT08
 72
     1
 11
1781.7868860500939
 21
1123.648607357065
 31
0.0
  0
LINE
  5
12BA
  8
CENTER
 10
4368.6329784022519
 20
3001.572627995909
 30
0.0
 11
4368.6329784022519
 21
1451.5726279959081
 31
0.0
  0
LINE
  5
12BB
  8
SJC
 10
4406.7829784022533
 20
2151.572627995909
 30
0.0
 11
4668.6329784022528
 21
2151.572627995909
 31
0.0
1001
ACAD
1000
ASC_BOUNDS
1002
{
1070
    19
1005
0
1002
}
  0
LINE
  5
12BC
  8
SJC
 10
4406.7829784022533
 20
2913.4226279959089
 30
0.0
 11
4406.7829784022542
 21
1551.572627995909
 31
0.0
  0
LINE
  5
12BD
  8
SJC
 10
4330.4829784022531
 20
2913.4226279959098
 30
0.0
 11
4330.482978402254
 21
1551.572627995909
 31
0.0
  0
LINE
  5
12BE
  8
SJC
 10
4118.497018280701
 20
1551.572627995909
 30
0.0
 11
4618.7689385238036
 21
1551.572627995909
 31
0.0
1001
ACAD
1000
ASC_BOUNDS
1002
{
1070
    19
1005
0
1002
}
  0
LINE
  5
12BF
  8
SJC
 10
4168.6329784022528
 20
2151.572627995909
 30
0.0
 11
4168.6329784022528
 21
1551.572627995909
 31
0.0
1001
ACAD
1000
ASC_BOUNDS
1002
{
1070
    19
1002
}
  0
LINE
  5
12C0
  8
SJC
 10
4568.6329784022519
 20
2151.572627995909
 30
0.0
 11
4568.6329784022537
 21
1551.572627995909
 31
0.0
1001
ACAD
1000
ASC_BOUNDS
1002
{
1070
    19
1002
}
  0
LINE
  5
12C1
  8
SJC
 10
4118.497018280701
 20
1501.5726279959081
 30
0.0
 11
4618.7689385238036
 21
1501.572627995909
 31
0.0
  0
POLYLINE
  5
12C2
  8
HATCH
 66
     1
 10
0.0
 20
0.0
 30
0.0
 70
     3
  0
VERTEX
  5
12C3
  8
HATCH
 10
4198.497018280701
 20
1526.5726279959081
 30
0.0
 42
-0.1703036214138359
  0
VERTEX
  5
12C4
  8
HATCH
 10
4204.9892076871192
 20
1545.080438589491
 30
0.0
 42
-0.2278377915826702
 70
     1
  0
VERTEX
  5
12C5
  8
HATCH
 10
4218.497018280701
 20
1551.5726279959081
 30
0.0
 42
-0.2278377915826684
  0
VERTEX
  5
12C6
  8
HATCH
 10
4232.0048288742828
 20
1545.080438589491
 30
0.0
 42
-0.1703036214138354
 70
     1
  0
VERTEX
  5
12C7
  8
HATCH
 10
4238.497018280701
 20
1526.5726279959081
 30
0.0
 42
-0.1703036214138303
  0
VERTEX
  5
12C8
  8
HATCH
 10
4232.0048288742828
 20
1508.0648174023261
 30
0.0
 42
-0.2278377915826667
 70
     1
  0
VERTEX
  5
12C9
  8
HATCH
 10
4218.497018280701
 20
1501.5726279959081
 30
0.0
 42
-0.2278377915826721
  0
VERTEX
  5
12CA
  8
HATCH
 10
4204.9892076871183
 20
1508.064817402327
 30
0.0
 42
-0.1703036214138317
 70
     1
  0
SEQEND
  5
12CB
  8
HATCH
  0
POLYLINE
  5
12CC
  8
HATCH
 66
     1
 10
0.0
 20
0.0
 30
0.0
 70
     3
  0
VERTEX
  5
12CD
  8
HATCH
 10
4158.497018280701
 20
1526.5726279959081
 30
0.0
 42
-0.1703036214138359
  0
VERTEX
  5
12CE
  8
HATCH
 10
4164.9892076871192
 20
1545.080438589491
 30
0.0
 42
-0.2278377915826702
 70
     1
  0
VERTEX
  5
12CF
  8
HATCH
 10
4178.4970182807001
 20
1551.5726279959081
 30
0.0
 42
-0.2278377915826684
  0
VERTEX
  5
12D0
  8
HATCH
 10
4192.0048288742819
 20
1545.080438589491
 30
0.0
 42
-0.1703036214138354
 70
     1
  0
VERTEX
  5
12D1
  8
HATCH
 10
4198.497018280701
 20
1526.5726279959081
 30
0.0
 42
-0.1703036214138303
  0
VERTEX
  5
12D2
  8
HATCH
 10
4192.0048288742837
 20
1508.0648174023261
 30
0.0
 42
-0.2278377915826667
 70
     1
  0
VERTEX
  5
12D3
  8
HATCH
 10
4178.4970182807001
 20
1501.5726279959081
 30
0.0
 42
-0.2278377915826721
  0
VERTEX
  5
12D4
  8
HATCH
 10
4164.9892076871183
 20
1508.064817402327
 30
0.0
 42
-0.1703036214138317
 70
     1
  0
SEQEND
  5
12D5
  8
HATCH
  0
LINE
  5
12D6
  8
SJC
 10
4118.497018280701
 20
1501.5726279959081
 30
0.0
 11
4118.497018280701
 21
1551.5726279959081
 31
0.0
  0
POLYLINE
  5
12D7
  8
HATCH
 66
     1
 10
0.0
 20
0.0
 30
0.0
 70
     3
  0
VERTEX
  5
12D8
  8
HATCH
 10
4118.497018280701
 20
1526.5726279959081
 30
0.0
 42
-0.1703036214138359
  0
VERTEX
  5
12D9
  8
HATCH
 10
4124.9892076871192
 20
1545.080438589491
 30
0.0
 42
-0.2278377915826702
 70
     1
  0
VERTEX
  5
12DA
  8
HATCH
 10
4138.497018280701
 20
1551.5726279959081
 30
0.0
 42
-0.2278377915826684
  0
VERTEX
  5
12DB
  8
HATCH
 10
4152.0048288742819
 20
1545.080438589491
 30
0.0
 42
-0.1703036214138354
 70
     1
  0
VERTEX
  5
12DC
  8
HATCH
 10
4158.497018280701
 20
1526.5726279959081
 30
0.0
 42
-0.1703036214138303
  0
VERTEX
  5
12DD
  8
HATCH
 10
4152.0048288742828
 20
1508.0648174023261
 30
0.0
 42
-0.2278377915826667
 70
     1
  0
VERTEX
  5
12DE
  8
HATCH
 10
4138.497018280701
 20
1501.5726279959081
 30
0.0
 42
-0.2278377915826721
  0
VERTEX
  5
12DF
  8
HATCH
 10
4124.9892076871183
 20
1508.064817402327
 30
0.0
 42
-0.1703036214138317
 70
     1
  0
SEQEND
  5
12E0
  8
HATCH
  0
POLYLINE
  5
12E1
  8
HATCH
 66
     1
 10
0.0
 20
0.0
 30
0.0
 70
     3
  0
VERTEX
  5
12E2
  8
HATCH
 10
4497.5515020145931
 20
1526.5726279959081
 30
0.0
 42
-0.1703036214138359
  0
VERTEX
  5
12E3
  8
HATCH
 10
4504.0436914210131
 20
1545.080438589491
 30
0.0
 42
-0.2278377915826702
 70
     1
  0
VERTEX
  5
12E4
  8
HATCH
 10
4517.551502014594
 20
1551.5726279959081
 30
0.0
 42
-0.2278377915826684
  0
VERTEX
  5
12E5
  8
HATCH
 10
4531.0593126081749
 20
1545.080438589491
 30
0.0
 42
-0.1703036214138354
 70
     1
  0
VERTEX
  5
12E6
  8
HATCH
 10
4537.551502014594
 20
1526.5726279959081
 30
0.0
 42
-0.1703036214138303
  0
VERTEX
  5
12E7
  8
HATCH
 10
4531.0593126081767
 20
1508.0648174023261
 30
0.0
 42
-0.2278377915826667
 70
     1
  0
VERTEX
  5
12E8
  8
HATCH
 10
4517.551502014594
 20
1501.5726279959081
 30
0.0
 42
-0.2278377915826721
  0
VERTEX
  5
12E9
  8
HATCH
 10
4504.0436914210113
 20
1508.064817402327
 30
0.0
 42
-0.1703036214138317
 70
     1
  0
SEQEND
  5
12EA
  8
HATCH
  0
LINE
  5
12EB
  8
SJC
 10
4618.7689385238036
 20
1501.5726279959081
 30
0.0
 11
4618.7689385238036
 21
1551.5726279959081
 31
0.0
  0
POLYLINE
  5
12EC
  8
HATCH
 66
     1
 10
0.0
 20
0.0
 30
0.0
 70
     3
  0
VERTEX
  5
12ED
  8
HATCH
 10
4577.5515020145931
 20
1526.5726279959081
 30
0.0
 42
-0.1703036214138359
  0
VERTEX
  5
12EE
  8
HATCH
 10
4584.0436914210113
 20
1545.080438589491
 30
0.0
 42
-0.2278377915826702
 70
     1
  0
VERTEX
  5
12EF
  8
HATCH
 10
4597.5515020145931
 20
1551.5726279959081
 30
0.0
 42
-0.2278377915826684
  0
VERTEX
  5
12F0
  8
HATCH
 10
4611.0593126081749
 20
1545.080438589491
 30
0.0
 42
-0.1703036214138354
 70
     1
  0
VERTEX
  5
12F1
  8
HATCH
 10
4617.5515020145931
 20
1526.5726279959081
 30
0.0
 42
-0.1703036214138303
  0
VERTEX
  5
12F2
  8
HATCH
 10
4611.0593126081749
 20
1508.0648174023261
 30
0.0
 42
-0.2278377915826667
 70
     1
  0
VERTEX
  5
12F3
  8
HATCH
 10
4597.5515020145931
 20
1501.5726279959081
 30
0.0
 42
-0.2278377915826721
  0
VERTEX
  5
12F4
  8
HATCH
 10
4584.0436914210104
 20
1508.064817402327
 30
0.0
 42
-0.1703036214138317
 70
     1
  0
SEQEND
  5
12F5
  8
HATCH
  0
POLYLINE
  5
12F6
  8
HATCH
 66
     1
 10
0.0
 20
0.0
 30
0.0
 70
     3
  0
VERTEX
  5
12F7
  8
HATCH
 10
4537.5515020145931
 20
1526.5726279959081
 30
0.0
 42
-0.1703036214138359
  0
VERTEX
  5
12F8
  8
HATCH
 10
4544.0436914210122
 20
1545.080438589491
 30
0.0
 42
-0.2278377915826702
 70
     1
  0
VERTEX
  5
12F9
  8
HATCH
 10
4557.5515020145922
 20
1551.5726279959081
 30
0.0
 42
-0.2278377915826684
  0
VERTEX
  5
12FA
  8
HATCH
 10
4571.059312608174
 20
1545.080438589491
 30
0.0
 42
-0.1703036214138354
 70
     1
  0
VERTEX
  5
12FB
  8
HATCH
 10
4577.5515020145931
 20
1526.5726279959081
 30
0.0
 42
-0.1703036214138303
  0
VERTEX
  5
12FC
  8
HATCH
 10
4571.0593126081758
 20
1508.0648174023261
 30
0.0
 42
-0.2278377915826667
 70
     1
  0
VERTEX
  5
12FD
  8
HATCH
 10
4557.5515020145922
 20
1501.5726279959081
 30
0.0
 42
-0.2278377915826721
  0
VERTEX
  5
12FE
  8
HATCH
 10
4544.0436914210104
 20
1508.064817402327
 30
0.0
 42
-0.1703036214138317
 70
     1
  0
SEQEND
  5
12FF
  8
HATCH
  0
LINE
  5
1300
  8
HATCH
 10
4168.6329784022528
 20
1602.618678088754
 30
0.0
 11
4330.4829784022531
 21
1764.468678088753
 31
0.0
  0
LINE
  5
1301
  8
HATCH
 10
4406.7829784022533
 20
1840.7686780887529
 30
0.0
 11
4568.6329784022519
 21
2002.6186780887531
 31
0.0
  0
LINE
  5
1302
  8
HATCH
 10
4168.6329784022528
 20
1779.3953733853921
 30
0.0
 11
4330.4829784022531
 21
1941.2453733853899
 31
0.0
  0
LINE
  5
1303
  8
HATCH
 10
4406.7829784022533
 20
2017.5453733853899
 30
0.0
 11
4540.8102330127731
 21
2151.572627995909
 31
0.0
  0
LINE
  5
1304
  8
HATCH
 10
4168.6329784022528
 20
1956.1720686820281
 30
0.0
 11
4330.4829784022531
 21
2118.0220686820271
 31
0.0
  0
LINE
  5
1305
  8
HATCH
 10
4406.7829784022533
 20
1663.991982792116
 30
0.0
 11
4568.6329784022537
 21
1825.841982792115
 31
0.0
  0
LINE
  5
1306
  8
HATCH
 10
4168.6329784022528
 20
1624.7157650008321
 30
0.0
 11
4330.4829784022531
 21
1786.5657650008329
 31
0.0
  0
LINE
  5
1307
  8
HATCH
 10
4406.7829784022533
 20
1862.8657650008331
 30
0.0
 11
4568.6329784022519
 21
2024.7157650008321
 31
0.0
  0
LINE
  5
1308
  8
HATCH
 10
4168.6329784022528
 20
1801.49246029747
 30
0.0
 11
4330.4829784022531
 21
1963.3424602974701
 31
0.0
  0
LINE
  5
1309
  8
HATCH
 10
4406.7829784022542
 20
2039.6424602974701
 30
0.0
 11
4518.6329784022519
 21
2151.4924602974688
 31
0.0
  0
LINE
  5
130A
  8
HATCH
 10
4168.6329784022528
 20
1978.269155594108
 30
0.0
 11
4330.4829784022531
 21
2140.1191555941068
 31
0.0
  0
LINE
  5
130B
  8
HATCH
 10
4406.7829784022533
 20
1686.089069704195
 30
0.0
 11
4568.6329784022537
 21
1847.9390697041949
 31
0.0
  0
LINE
  5
130C
  8
HATCH
 10
4168.6329784022528
 20
1646.8128519129129
 30
0.0
 11
4330.4829784022531
 21
1808.6628519129131
 31
0.0
  0
LINE
  5
130D
  8
HATCH
 10
4406.7829784022533
 20
1884.9628519129119
 30
0.0
 11
4568.6329784022519
 21
2046.812851912912
 31
0.0
  0
LINE
  5
130E
  8
HATCH
 10
4168.6329784022528
 20
1823.5895472095499
 30
0.0
 11
4330.4829784022531
 21
1985.4395472095489
 31
0.0
  0
LINE
  5
130F
  8
HATCH
 10
4406.7829784022542
 20
2061.7395472095491
 30
0.0
 11
4496.6160591886128
 21
2151.5726279959099
 31
0.0
  0
LINE
  5
1310
  8
HATCH
 10
4168.6329784022528
 20
2000.3662425061871
 30
0.0
 11
4319.8393638919752
 21
2151.572627995909
 31
0.0
  0
LINE
  5
1311
  8
HATCH
 10
4406.7829784022533
 20
1708.186156616275
 30
0.0
 11
4568.6329784022537
 21
1870.0361566162769
 31
0.0
  0
ARC
  5
1312
  8
SJC
 10
4368.6329784022519
 20
2913.4226279959089
 30
0.0
 40
38.149999999999643
 50
0.0
 51
180.0
  0
LINE
  5
1313
  8
SJC
 10
4330.4829784022531
 20
2151.572627995909
 30
0.0
 11
4068.6329784022519
 21
2151.572627995909
 31
0.0
1001
ACAD
1000
ASC_BOUNDS
1002
{
1070
    19
1005
0
1002
}
  0
LINE
  5
1314
  8
HATCH
 10
4294.3636236060447
 20
1551.572627995909
 30
0.0
 11
4330.4829784022531
 21
1587.6919827921161
 31
0.0
  0
LINE
  5
1315
  8
HATCH
 10
4471.1403189026832
 20
1551.572627995909
 30
0.0
 11
4568.6329784022537
 21
1649.065287495479
 31
0.0
  0
LINE
  5
1316
  8
HATCH
 10
4272.2665366939664
 20
1551.572627995909
 30
0.0
 11
4330.4829784022531
 21
1609.789069704196
 31
0.0
  0
LINE
  5
1317
  8
HATCH
 10
4449.0432319906031
 20
1551.572627995909
 30
0.0
 11
4568.6329784022519
 21
1671.1623744075589
 31
0.0
  0
LINE
  5
1318
  8
HATCH
 10
4250.1694497818862
 20
1551.572627995909
 30
0.0
 11
4330.4829784022531
 21
1631.886156616275
 31
0.0
  0
LINE
  5
1319
  8
HATCH
 10
4426.9461450785229
 20
1551.572627995909
 30
0.0
 11
4568.6329784022537
 21
1693.2594613196391
 31
0.0
  0
POLYLINE
  5
131E
  8
HATCH
 66
     1
 10
0.0
 20
0.0
 30
0.0
 70
     3
  0
VERTEX
  5
131F
  8
HATCH
 10
4238.497018280701
 20
1526.5726279959081
 30
0.0
 42
-0.1703036214138359
  0
VERTEX
  5
1320
  8
HATCH
 10
4244.9892076871192
 20
1545.080438589491
 30
0.0
 42
-0.2278377915826702
 70
     1
  0
VERTEX
  5
1321
  8
HATCH
 10
4258.497018280701
 20
1551.5726279959081
 30
0.0
 42
-0.2278377915826684
  0
VERTEX
  5
1322
  8
HATCH
 10
4272.0048288742819
 20
1545.080438589491
 30
0.0
 42
-0.1703036214138354
 70
     1
  0
VERTEX
  5
1323
  8
HATCH
 10
4278.497018280701
 20
1526.5726279959081
 30
0.0
 42
-0.1703036214138303
  0
VERTEX
  5
1324
  8
HATCH
 10
4272.0048288742828
 20
1508.0648174023261
 30
0.0
 42
-0.2278377915826667
 70
     1
  0
VERTEX
  5
1325
  8
HATCH
 10
4258.497018280701
 20
1501.5726279959081
 30
0.0
 42
-0.2278377915826721
  0
VERTEX
  5
1326
  8
HATCH
 10
4244.9892076871183
 20
1508.064817402327
 30
0.0
 42
-0.1703036214138317
 70
     1
  0
SEQEND
  5
1327
  8
HATCH
  0
POLYLINE
  5
1328
  8
HATCH
 66
     1
 10
0.0
 20
0.0
 30
0.0
 70
     3
  0
VERTEX
  5
1329
  8
HATCH
 10
4457.551502014594
 20
1526.5726279959081
 30
0.0
 42
-0.1703036214138359
  0
VERTEX
  5
132A
  8
HATCH
 10
4464.0436914210131
 20
1545.0804385894901
 30
0.0
 42
-0.2278377915826702
 70
     1
  0
VERTEX
  5
132B
  8
HATCH
 10
4477.5515020145949
 20
1551.5726279959081
 30
0.0
 42
-0.2278377915826684
  0
VERTEX
  5
132C
  8
HATCH
 10
4491.0593126081767
 20
1545.0804385894901
 30
0.0
 42
-0.1703036214138354
 70
     1
  0
VERTEX
  5
132D
  8
HATCH
 10
4497.551502014594
 20
1526.5726279959081
 30
0.0
 42
-0.1703036214138303
  0
VERTEX
  5
132E
  8
HATCH
 10
4491.0593126081776
 20
1508.0648174023261
 30
0.0
 42
-0.2278377915826667
 70
     1
  0
VERTEX
  5
132F
  8
HATCH
 10
4477.5515020145949
 20
1501.5726279959081
 30
0.0
 42
-0.2278377915826721
  0
VERTEX
  5
1330
  8
HATCH
 10
4464.0436914210122
 20
1508.0648174023261
 30
0.0
 42
-0.1703036214138317
 70
     1
  0
SEQEND
  5
1331
  8
HATCH
  0
DIMENSION
  5
1332
  8
SUNPOU
  2
*D13
 10
4568.6329784022537
 20
1350.385379250705
 30
0.0
 11
4368.6329784022537
 21
1390.885379250705
 31
0.0
 70
     0
 13
4168.6329784022528
 23
1551.572627995909
 33
0.0
 14
4568.6329784022537
 24
1551.572627995909
 34
0.0
1001
ACAD
1000
DSTYLE
1002
{
1070
   287
1070
     5
1070
    40
1040
15.0
1070
    41
1040
2.0
1070
    42
1040
1.0
1070
    43
1040
6.0
1070
    44
1040
1.0
1070
    73
1070
     0
1070
    74
1070
     0
1070
    77
1070
     1
1070
    78
1070
     8
1070
   140
1040
3.0
1070
   147
1040
1.1999999999999991
1070
   172
1070
     1
1070
   179
1070
     2
1070
   271
1070
     2
1070
   279
1070
     2
1070
   340
1005
11D
1002
}
  0
TEXT
  5
18E3
  8
MOJI
 10
4085.4336669548052
 20
275.53872694897262
 30
0.0
 40
60.0
  1
※本製品は車両用防護柵の強度を保有するものではありません。
 41
0.8
  7
EXT08
 72
     1
 11
4904.062238383377
 21
275.53872694897262
 31
0.0
  0
LINE
  5
195E
  8
SJC
 10
1846.712572155827
 20
2675.8726279959092
 30
0.0
 11
1846.712572155827
 21
2627.2726279959102
 31
0.0
  0
LINE
  5
195F
  8
SJC
 10
1846.712572155827
 20
2425.8726279959092
 30
0.0
 11
1846.712572155827
 21
2377.2726279959088
 31
0.0
  0
LINE
  5
1960
  8
SJC
 10
3226.7125721558282
 20
2675.8726279959092
 30
0.0
 11
3226.7125721558268
 21
2627.2726279959088
 31
0.0
  0
LINE
  5
1961
  8
SJC
 10
3226.7125721558268
 20
2425.8726279959092
 30
0.0
 11
3226.7125721558282
 21
2377.2726279959088
 31
0.0
  0
INSERT
  5
1962
  8
KASOU
  6
CONTINUOUS
  2
*X15
 10
0.0
 20
0.0
 30
0.0
1001
ACAD
1000
HATCH
1002
{
1070
    19
1000
ANSI31
1040
100.0
1040
0.0
1000
R14_HATCH_DATA
1000
1962
1011
1.0
1021
0.0
1031
-9.7387614330770176E+083
1021
0.0
1031
0.0
1011
0.0
1021
0.0
1031
-9.7387614330770176E+083
1021
1.0
1031
0.0
1011
0.0
1021
0.0
1031
-9.7387614330770176E+083
1021
0.0
1031
1.0
1040
0.0
1010
0.0
1020
0.0
1030
1.0
1000
ANSI31
1070
     0
1070
     0
1071
        1
1071
        1
1071
        4
1070
     1
1040
3226.7125721558268
1040
2425.8726279959092
1040
3226.7125721558282
1040
2377.2726279959088
1070
     1
1040
3226.7125721558282
1040
2377.2726279959088
1040
1846.712572155827
1040
2377.2726279959102
1070
     1
1040
1846.712572155827
1040
2377.2726279959088
1040
1846.712572155827
1040
2425.8726279959092
1070
     1
1040
1846.712572155827
1040
2425.8726279959092
1040
3226.7125721558268
1040
2425.8726279959092
1071
        0
1070
     0
1070
     1
1040
0.0
1040
100.0
1070
     0
1070
     1
1040
0.7853981633974483
1040
116.37123560982759
1040
848.82647864922001
1040
-8.8388347648318426
1040
8.8388347648318444
1070
     0
1071
        1
1040
116.37123560982759
1040
848.82647864922001
1040
0.0
1002
}
  0
INSERT
  5
1963
  8
KASOU
  6
CONTINUOUS
  2
*X16
 10
0.0
 20
0.0
 30
0.0
1001
ACAD
1000
HATCH
1002
{
1070
    19
1000
ANSI31
1040
100.0
1040
0.0
1000
R14_HATCH_DATA
1000
1963
1011
1.0
1021
0.0
1031
-9.7387614330770176E+083
1021
0.0
1031
0.0
1011
0.0
1021
0.0
1031
-9.7387614330770176E+083
1021
1.0
1031
0.0
1011
0.0
1021
0.0
1031
-9.7387614330770176E+083
1021
0.0
1031
1.0
1040
0.0
1010
0.0
1020
0.0
1030
1.0
1000
ANSI31
1070
     0
1070
     0
1071
        1
1071
        1
1071
        4
1070
     1
1040
3226.7125721558268
1040
2675.8726279959092
1040
3226.7125721558282
1040
2627.2726279959088
1070
     1
1040
3226.7125721558282
1040
2627.2726279959088
1040
1846.712572155827
1040
2627.2726279959102
1070
     1
1040
1846.712572155827
1040
2627.2726279959102
1040
1846.712572155827
1040
2675.8726279959092
1070
     1
1040
1846.712572155827
1040
2675.8726279959092
1040
3226.7125721558268
1040
2675.8726279959092
1071
        0
1070
     0
1070
     1
1040
0.0
1040
100.0
1070
     0
1070
     1
1040
0.7853981633974483
1040
116.37123560982759
1040
1098.82647864922
1040
-8.8388347648318426
1040
8.8388347648318444
1070
     0
1071
        1
1040
116.37123560982759
1040
1098.82647864922
1040
0.0
1002
}
  0
INSERT
  5
1965
  8
0
  2
*U17
 10
0.0
 20
0.0
 30
0.0
1001
ACAD
1000
DSTYLE
1002
{
1070
     5
1000

1070
    40
1040
15.0
1070
    41
1040
2.0
1070
    42
1040
1.0
1070
    43
1040
6.0
1070
    44
1040
1.0
1070
    73
1070
     0
1070
    74
1070
     0
1070
    77
1070
     1
1070
    78
1070
     8
1070
   140
1040
3.0
1070
   147
1040
1.1999999999999991
1070
   172
1070
     1
1070
   179
1070
     2
1070
   271
1070
     2
1070
   279
1070
     2
1070
   340
1005
11D
1070
   342
1005
0
1002
}
  0
INSERT
  5
1966
  8
0
  2
*U18
 10
0.0
 20
0.0
 30
0.0
  0
LINE
  5
1967
  8
MOJI
  6
CONTINUOUS
 10
2782.9559580690302
 20
2204.5882031012829
 30
0.0
 11
3201.0414521399421
 21
2204.5882031012829
 31
0.0
  0
INSERT
  5
1968
  8
0
  2
*U19
 10
0.0
 20
0.0
 30
0.0
1001
ACAD
1000
DSTYLE
1002
{
1070
     5
1000

1070
    40
1040
15.0
1070
    41
1040
2.0
1070
    42
1040
1.0
1070
    43
1040
6.0
1070
    44
1040
1.0
1070
    73
1070
     0
1070
    74
1070
     0
1070
    77
1070
     1
1070
    78
1070
     8
1070
   140
1040
3.0
1070
   147
1040
1.1999999999999991
1070
   172
1070
     1
1070
   179
1070
     2
1070
   271
1070
     2
1070
   279
1070
     2
1070
   340
1005
11D
1070
   342
1005
0
1002
}
  0
INSERT
  5
1969
  8
0
  2
*U20
 10
0.0
 20
0.0
 30
0.0
  0
LINE
  5
196A
  8
MOJI
  6
CONTINUOUS
 10
2830.3415915507931
 20
2744.3321291154462
 30
0.0
 11
3124.586624326068
 21
2744.3321291154462
 31
0.0
  0
DIMENSION
  5
1A5D
  8
SUNPOU
  2
*D14
 10
1289.952722366379
 20
2951.572627995909
 30
0.0
 11
1249.4527223663781
 21
2551.5726279959099
 31
0.0
 70
     0
 13
1376.1739062937299
 23
2151.572627995909
 33
0.0
 14
1986.7125721558259
 24
2951.572627995909
 34
0.0
 50
90.0
1001
ACAD
1000
DSTYLE
1002
{
1070
   287
1070
     5
1070
    40
1040
15.0
1070
    41
1040
2.0
1070
    42
1040
1.0
1070
    43
1040
6.0
1070
    44
1040
1.0
1070
    73
1070
     0
1070
    74
1070
     0
1070
    77
1070
     1
1070
    78
1070
     8
1070
   140
1040
3.0
1070
   147
1040
1.1999999999999991
1070
   172
1070
     1
1070
   179
1070
     2
1070
   271
1070
     2
1070
   279
1070
     2
1070
   340
1005
11D
1002
}
  0
ENDSEC
  0
EOF
