  0
SECTION
  2
HEADER
  9
$ACADVER
  1
AC1009
  9
$INSBASE
 10
0.0
 20
0.0
 30
0.0
  9
$EXTMIN
 10
0.0
 20
0.0
 30
0.0
  9
$EXTMAX
 10
6150.0
 20
4305.0
 30
0.0
  9
$LIMMIN
 10
0.0
 20
0.0
  9
$LIMMAX
 10
6300.0
 20
4455.0
  9
$ORTHOMODE
 70
     0
  9
$REGENMODE
 70
     1
  9
$FILLMODE
 70
     1
  9
$QTEXTMODE
 70
     0
  9
$MIRRTEXT
 70
     0
  9
$DRAGMODE
 70
     2
  9
$LTSCALE
 40
150.0
  9
$OSMODE
 70
    37
  9
$ATTMODE
 70
     1
  9
$TEXTSIZE
 40
45.0
  9
$TRACEWID
 40
1.0
  9
$TEXTSTYLE
  7
EXT08
  9
$CLAYER
  8
0
  9
$CELTYPE
  6
BYLAYER
  9
$CECOLOR
 62
   256
  9
$DIMSCALE
 40
15.0
  9
$DIMASZ
 40
2.0
  9
$DIMEXO
 40
1.0
  9
$DIMDLI
 40
6.0
  9
$DIMRND
 40
0.0
  9
$DIMDLE
 40
0.0
  9
$DIMEXE
 40
1.0
  9
$DIMTP
 40
0.0
  9
$DIMTM
 40
0.0
  9
$DIMTXT
 40
3.0
  9
$DIMCEN
 40
0.09
  9
$DIMTSZ
 40
0.0
  9
$DIMTOL
 70
     0
  9
$DIMLIM
 70
     0
  9
$DIMTIH
 70
     0
  9
$DIMTOH
 70
     0
  9
$DIMSE1
 70
     0
  9
$DIMSE2
 70
     0
  9
$DIMTAD
 70
     1
  9
$DIMZIN
 70
     8
  9
$DIMBLK
  1

  9
$DIMASO
 70
     1
  9
$DIMSHO
 70
     1
  9
$DIMPOST
  1

  9
$DIMAPOST
  1

  9
$DIMALT
 70
     0
  9
$DIMALTD
 70
     2
  9
$DIMALTF
 40
25.399999999999999
  9
$DIMLFAC
 40
1.0
  9
$DIMTOFL
 70
     1
  9
$DIMTVP
 40
0.0
  9
$DIMTIX
 70
     0
  9
$DIMSOXD
 70
     0
  9
$DIMSAH
 70
     0
  9
$DIMBLK1
  1

  9
$DIMBLK2
  1

  9
$DIMSTYLE
  2
SJC
  9
$DIMCLRD
 70
     0
  9
$DIMCLRE
 70
     0
  9
$DIMCLRT
 70
     0
  9
$DIMTFAC
 40
1.0
  9
$DIMGAP
 40
1.1999999999999991
  9
$LUNITS
 70
     2
  9
$LUPREC
 70
     2
  9
$SKETCHINC
 40
1.0
  9
$FILLETRAD
 40
200.0
  9
$AUNITS
 70
     0
  9
$AUPREC
 70
     0
  9
$MENU
  1
.
  9
$ELEVATION
 40
0.0
  9
$PELEVATION
 40
0.0
  9
$THICKNESS
 40
0.0
  9
$LIMCHECK
 70
     0
  9
$BLIPMODE
 70
     0
  9
$CHAMFERA
 40
0.0
  9
$CHAMFERB
 40
0.0
  9
$SKPOLY
 70
     0
  9
$TDCREATE
 40
2456287.4708731128
  9
$TDUPDATE
 40
2456545.7105931719
  9
$TDINDWG
 40
0.1512703009
  9
$TDUSRTIMER
 40
0.1512701157
  9
$USRTIMER
 70
     1
  9
$ANGBASE
 50
0.0
  9
$ANGDIR
 70
     0
  9
$PDMODE
 70
    33
  9
$PDSIZE
 40
5.0
  9
$PLINEWID
 40
0.0
  9
$COORDS
 70
     1
  9
$SPLFRAME
 70
     0
  9
$SPLINETYPE
 70
     6
  9
$SPLINESEGS
 70
     8
  9
$ATTDIA
 70
     0
  9
$ATTREQ
 70
     1
  9
$HANDLING
 70
     1
  9
$HANDSEED
  5
1C0B
  9
$SURFTAB1
 70
     6
  9
$SURFTAB2
 70
     6
  9
$SURFTYPE
 70
     6
  9
$SURFU
 70
     6
  9
$SURFV
 70
     6
  9
$UCSNAME
  2

  9
$UCSORG
 10
0.0
 20
0.0
 30
0.0
  9
$UCSXDIR
 10
1.0
 20
0.0
 30
0.0
  9
$UCSYDIR
 10
0.0
 20
1.0
 30
0.0
  9
$PUCSNAME
  2

  9
$PUCSORG
 10
0.0
 20
0.0
 30
0.0
  9
$PUCSXDIR
 10
1.0
 20
0.0
 30
0.0
  9
$PUCSYDIR
 10
0.0
 20
1.0
 30
0.0
  9
$USERI1
 70
     3
  9
$USERI2
 70
    15
  9
$USERI3
 70
     0
  9
$USERI4
 70
     0
  9
$USERI5
 70
     0
  9
$USERR1
 40
0.0
  9
$USERR2
 40
0.0
  9
$USERR3
 40
0.0
  9
$USERR4
 40
0.0
  9
$USERR5
 40
0.0
  9
$WORLDVIEW
 70
     1
  9
$SHADEDGE
 70
     3
  9
$SHADEDIF
 70
    70
  9
$TILEMODE
 70
     1
  9
$MAXACTVP
 70
    64
  9
$PLIMCHECK
 70
     0
  9
$PEXTMIN
 10
0.0
 20
0.0
 30
0.0
  9
$PEXTMAX
 10
0.0
 20
0.0
 30
0.0
  9
$PLIMMIN
 10
0.0
 20
0.0
  9
$PLIMMAX
 10
12.0
 20
9.0
  9
$UNITMODE
 70
     0
  9
$VISRETAIN
 70
     1
  9
$PLINEGEN
 70
     0
  9
$PSLTSCALE
 70
     1
  0
ENDSEC
  0
SECTION
  2
TABLES
  0
TABLE
  2
VPORT
 70
     2
  0
VPORT
  2
*ACTIVE
 70
     0
 10
0.0
 20
0.0
 11
1.0
 21
1.0
 12
5359.3060459280159
 22
1859.4454584777341
 13
0.0
 23
0.0
 14
10.0
 24
10.0
 15
10.0
 25
10.0
 16
0.0
 26
0.0
 36
1.0
 17
0.0
 27
0.0
 37
0.0
 40
5562.4024707464132
 41
1.9010526315789471
 42
50.0
 43
0.0
 44
0.0
 50
0.0
 51
0.0
 71
     0
 72
  1000
 73
     1
 74
     3
 75
     0
 76
     0
 77
     0
 78
     0
  0
ENDTAB
  0
TABLE
  2
LTYPE
 70
     4
  0
LTYPE
  2
CONTINUOUS
 70
     0
  3
Solid line
 72
    65
 73
     0
 40
0.0
  0
LTYPE
  2
PHANTOM
 70
     0
  3
Phantom ______  __  __  ______  __  __  ______
 72
    65
 73
     6
 40
2.5
 49
1.25
 49
-0.25
 49
0.25
 49
-0.25
 49
0.25
 49
-0.25
  0
LTYPE
  2
CENTER
 70
     0
  3
Center ____ _ ____ _ ____ _ ____ _ ____ _ ____
 72
    65
 73
     4
 40
2.0
 49
1.25
 49
-0.25
 49
0.25
 49
-0.25
  0
LTYPE
  2
HIDDEN
 70
     0
  3
Hidden __ __ __ __ __ __ __ __ __ __ __ __ __ _
 72
    65
 73
     2
 40
0.375
 49
0.25
 49
-0.125
  0
ENDTAB
  0
TABLE
  2
LAYER
 70
    15
  0
LAYER
  2
0
 70
     0
 62
     7
  6
CONTINUOUS
  0
LAYER
  2
ZWAKU
 70
     1
 62
    -7
  6
CONTINUOUS
  0
LAYER
  2
SJC
 70
     0
 62
     1
  6
CONTINUOUS
  0
LAYER
  2
INFORMATION
 70
     1
 62
     7
  6
CONTINUOUS
  0
LAYER
  2
SJC2
 70
     0
 62
     7
  6
CONTINUOUS
  0
LAYER
  2
KASOU
 70
     0
 62
     2
  6
PHANTOM
  0
LAYER
  2
CENTER
 70
     0
 62
     3
  6
CENTER
  0
LAYER
  2
SUNPOU
 70
     0
 62
     4
  6
CONTINUOUS
  0
LAYER
  2
WAKU
 70
     0
 62
     5
  6
CONTINUOUS
  0
LAYER
  2
MOJI
 70
     0
 62
     6
  6
CONTINUOUS
  0
LAYER
  2
MOJI2
 70
     0
 62
     1
  6
CONTINUOUS
  0
LAYER
  2
HASEN
 70
     0
 62
     7
  6
HIDDEN
  0
LAYER
  2
HATCH
 70
     0
 62
     2
  6
CONTINUOUS
  0
LAYER
  2
HOJO
 70
     0
 62
    -8
  6
CONTINUOUS
  0
LAYER
  2
DEFPOINTS
 70
     0
 62
     7
  6
CONTINUOUS
  0
ENDTAB
  0
TABLE
  2
STYLE
 70
     8
  0
STYLE
  2
STANDARD
 70
     0
 40
0.0
 41
1.0
 50
0.0
 71
     0
 42
3.0
  3
txt.shx
  4
extfont2.shx
  0
STYLE
  2
KANJI
 70
     0
 40
0.0
 41
1.0
 50
0.0
 71
     0
 42
0.0
  3
ROMANS.SHX
  4
BIGFONT.SHX
  0
STYLE
  2
SIMPLEX
 70
     0
 40
0.0
 41
1.0
 50
0.0
 71
     0
 42
0.0
  3
SCRIPTS.shx
  4

  0
STYLE
  2
TATEEXT
 70
     4
 40
0.0
 41
1.0
 50
0.0
 71
     0
 42
0.0
  3
ROMANS.shx
  4
EXTFONT.shx
  0
STYLE
  2
TATEBIG
 70
     4
 40
0.0
 41
1.0
 50
0.0
 71
     0
 42
0.0
  3
ROMANS.shx
  4
BIGFONT.shx
  0
STYLE
  2
EXT08
 70
     0
 40
0.0
 41
0.8
 50
0.0
 71
     0
 42
45.0
  3
ROMANS.shx
  4
EXTFONT.shx
  0
STYLE
  2
EXT
 70
     0
 40
0.0
 41
1.0
 50
0.0
 71
     0
 42
0.0
  3
ROMANS.shx
  4
EXTFONT.shx
  0
STYLE
  2
KANJI08
 70
     0
 40
0.0
 41
0.8
 50
0.0
 71
     0
 42
0.0
  3
ROMANS.shx
  4
BIGFONT.shx
  0
ENDTAB
  0
TABLE
  2
VIEW
 70
     0
  0
ENDTAB
  0
TABLE
  2
UCS
 70
     0
  0
ENDTAB
  0
TABLE
  2
APPID
 70
     2
  0
APPID
  2
ACAD
 70
     0
  0
APPID
  2
ACAD_PSEXT
 70
     0
  0
ENDTAB
  0
TABLE
  2
DIMSTYLE
 70
     5
  0
DIMSTYLE
  2
ISO-25
 70
     0
  3

  4

  5

  6

  7

 40
1.0
 41
2.5
 42
0.625
 43
3.75
 44
1.25
 45
0.0
 46
0.0
 47
0.0
 48
0.0
140
2.5
141
2.5
142
0.0
143
0.03937007874016
144
1.0
145
0.0
146
1.0
147
0.625
 71
     0
 72
     0
 73
     0
 74
     0
 75
     0
 76
     0
 77
     1
 78
     8
170
     0
171
     3
172
     1
173
     0
174
     0
175
     0
176
     0
177
     0
178
     0
  0
DIMSTYLE
  2
STANDARD
 70
     0
  3

  4

  5

  6

  7

 40
1.0
 41
0.18
 42
0.0625
 43
0.38
 44
0.18
 45
0.0
 46
0.0
 47
0.0
 48
0.0
140
0.18
141
0.09
142
0.0
143
25.399999999999999
144
1.0
145
0.0
146
1.0
147
0.09
 71
     0
 72
     0
 73
     1
 74
     1
 75
     0
 76
     0
 77
     0
 78
     0
170
     0
171
     2
172
     0
173
     0
174
     0
175
     0
176
     0
177
     0
178
     0
  0
DIMSTYLE
  2
RUISEKI1
 70
     0
  3

  4

  5

  6
DOT
  7

 40
15.0
 41
2.0
 42
1.0
 43
6.0
 44
30.0
 45
0.0
 46
0.0
 47
0.0
 48
0.0
140
0.18
141
0.09
142
0.0
143
25.399999999999999
144
1.0
145
0.0
146
1.0
147
1.5
 71
     0
 72
     0
 73
     1
 74
     1
 75
     0
 76
     0
 77
     1
 78
     0
170
     0
171
     2
172
     0
173
     1
174
     0
175
     0
176
     0
177
     0
178
     0
  0
DIMSTYLE
  2
RUISEKI2
 70
     0
  3

  4

  5

  6
NONE
  7

 40
15.0
 41
2.0
 42
1.0
 43
6.0
 44
30.0
 45
0.0
 46
0.0
 47
0.0
 48
0.0
140
0.18
141
0.09
142
0.0
143
25.399999999999999
144
1.0
145
0.0
146
1.0
147
1.5
 71
     0
 72
     0
 73
     1
 74
     1
 75
     0
 76
     0
 77
     1
 78
     0
170
     0
171
     2
172
     0
173
     1
174
     0
175
     0
176
     0
177
     0
178
     0
  0
DIMSTYLE
  2
SJC
 70
     0
  3

  4

  5

  6

  7

 40
1.0
 41
0.18
 42
0.0625
 43
0.38
 44
0.18
 45
0.0
 46
0.0
 47
0.0
 48
0.0
140
0.18
141
0.09
142
0.0
143
25.399999999999999
144
1.0
145
0.0
146
1.0
147
0.09
 71
     0
 72
     0
 73
     1
 74
     1
 75
     0
 76
     0
 77
     0
 78
     0
170
     0
171
     2
172
     0
173
     0
174
     0
175
     0
176
     0
177
     0
178
     0
  0
ENDTAB
  0
ENDSEC
  0
SECTION
  2
BLOCKS
  0
BLOCK
  8
0
  2
$MODEL_SPACE
 70
     0
 10
0.0
 20
0.0
 30
0.0
  3
$MODEL_SPACE
  1

  0
ENDBLK
  5
21
  8
0
  0
BLOCK
 67
     1
  8
0
  2
$PAPER_SPACE
 70
     0
 10
0.0
 20
0.0
 30
0.0
  3
$PAPER_SPACE
  1

  0
ENDBLK
  5
D5
 67
     1
  8
0
  0
BLOCK
  8
0
  2
SEIKO_LS-1100A3
 70
     0
 10
0.0
 20
0.0
 30
0.0
  3
SEIKO_LS-1100A3
  1

  0
POLYLINE
  5
F8
  8
ZWAKU
 66
     1
 10
0.0
 20
0.0
 30
0.0
 70
     1
  0
VERTEX
  5
1AA8
  8
ZWAKU
 10
0.0
 20
0.0
 30
0.0
  0
VERTEX
  5
1AA9
  8
ZWAKU
 10
0.0
 20
287.0
 30
0.0
  0
VERTEX
  5
1AAA
  8
ZWAKU
 10
410.0
 20
287.0
 30
0.0
  0
VERTEX
  5
1AAB
  8
ZWAKU
 10
410.0
 20
0.0
 30
0.0
  0
SEQEND
  5
1AAC
  8
ZWAKU
  0
ENDBLK
  5
FA
  8
0
  0
BLOCK
  8
0
  2
_DOT
 70
     0
 10
0.0
 20
0.0
 30
0.0
  3
_DOT
  1

  0
POLYLINE
  5
10F
  8
0
  6
BYBLOCK
 62
     0
 66
     1
 10
0.0
 20
0.0
 30
0.0
 70
     1
 40
0.5
 41
0.5
  0
VERTEX
  5
1AAD
  8
0
  6
BYBLOCK
 62
     0
 10
-0.25
 20
0.0
 30
0.0
 42
1.0
  0
VERTEX
  5
1AAE
  8
0
  6
BYBLOCK
 62
     0
 10
0.25
 20
0.0
 30
0.0
 42
1.0
  0
SEQEND
  5
1AAF
  8
0
  6
BYBLOCK
 62
     0
  0
LINE
  5
110
  8
0
  6
BYBLOCK
 62
     0
 10
-0.5
 20
0.0
 30
0.0
 11
-1.0
 21
0.0
 31
0.0
  0
ENDBLK
  5
112
  8
0
  0
BLOCK
  8
0
  2
_NONE
 70
     0
 10
0.0
 20
0.0
 30
0.0
  3
_NONE
  1

  0
ENDBLK
  5
116
  8
0
  0
BLOCK
  8
0
  2
B0040021
 70
     0
 10
0.0
 20
0.0
 30
0.0
  3
B0040021
  1

  0
LINE
  5
12E
  8
HATCH
 10
90.534596808877254
 20
-7.5000000000002274
 30
0.0
 11
117.0518952133159
 21
-34.017298404438861
 31
0.0
  0
LINE
  5
12F
  8
HATCH
 10
98.034596808877254
 20
0.0
 30
0.0
 11
132.0518952133159
 21
-34.017298404438861
 31
0.0
  0
LINE
  5
130
  8
HATCH
 10
22.5
 20
-7.5000000000002274
 30
0.0
 11
49.017298404438627
 21
-34.017298404438861
 31
0.0
  0
LINE
  5
131
  8
HATCH
 10
30.0
 20
0.0
 30
0.0
 11
-4.0172984044386331
 21
-34.017298404438861
 31
0.0
  0
LINE
  5
132
  8
HATCH
 10
15.0
 20
-15.000000000000229
 30
0.0
 11
34.017298404438627
 21
-34.017298404438861
 31
0.0
  0
LINE
  5
133
  8
HATCH
 10
0.0
 20
0.0
 30
0.0
 11
-34.017298404438627
 21
-34.017298404438861
 31
0.0
  0
LINE
  5
134
  8
HATCH
 10
15.0
 20
0.0
 30
0.0
 11
-19.01729840443863
 21
-34.017298404438861
 31
0.0
  0
LINE
  5
135
  8
HATCH
 10
83.034596808877254
 20
0.0
 30
0.0
 11
56.517298404438861
 21
-26.51729840443863
 31
0.0
  0
LINE
  5
136
  8
HATCH
 10
98.034596808877254
 20
0.0
 30
0.0
 11
64.017298404438634
 21
-34.017298404438861
 31
0.0
  0
LINE
  5
137
  8
HATCH
 10
68.034596808877254
 20
0.0
 30
0.0
 11
49.017298404438861
 21
-19.01729840443863
 31
0.0
  0
LINE
  5
138
  8
HATCH
 10
30.0
 20
0.0
 30
0.0
 11
64.017298404438634
 21
-34.017298404438861
 31
0.0
  0
LINE
  5
139
  8
HATCH
 10
83.034596808877254
 20
-15.000000000000229
 30
0.0
 11
102.0518952133159
 21
-34.017298404438861
 31
0.0
  0
ENDBLK
  5
13A
  8
0
  0
BLOCK
  8
0
  2
*D5
 70
     1
 10
0.0
 20
0.0
 30
0.0
  3
*D5
  1

  0
LINE
  5
1AB0
  8
SUNPOU
 10
1536.7125721558259
 20
2728.4226279959089
 30
0.0
 11
1536.7125721558259
 21
3198.0425213434009
 31
0.0
  0
LINE
  5
1AB1
  8
SUNPOU
 10
3536.7125721558259
 20
2728.4226279959089
 30
0.0
 11
3536.7125721558259
 21
3198.0425213434009
 31
0.0
  0
LINE
  5
1AB2
  8
SUNPOU
 10
1566.7125721558259
 20
3183.0425213434009
 30
0.0
 11
3506.7125721558259
 21
3183.0425213434009
 31
0.0
  0
SOLID
  5
1AB3
  8
SUNPOU
 10
1566.7125721558259
 20
3188.0425213434009
 30
0.0
 11
1566.7125721558259
 21
3178.0425213434
 31
0.0
 12
1536.7125721558259
 22
3183.0425213434009
 32
0.0
 13
1536.7125721558259
 23
3183.0425213434009
 33
0.0
  0
SOLID
  5
1AB4
  8
SUNPOU
 10
3506.7125721558259
 20
3188.0425213434009
 30
0.0
 11
3506.7125721558259
 21
3178.0425213434
 31
0.0
 12
3536.7125721558259
 22
3183.0425213434009
 32
0.0
 13
3536.7125721558259
 23
3183.0425213434009
 33
0.0
  0
TEXT
  8
SUNPOU
  40
45
  5
1C01
  72
0
  71
0
 10
2446.71
 20
3143.89
 30
0.000000
  1
2000
  7
KANJI08
  0
POINT
  5
1AB6
  8
DEFPOINTS
 62
     0
 10
1536.7125721558259
 20
2713.4226279959089
 30
0.0
  0
POINT
  5
1AB7
  8
DEFPOINTS
 62
     0
 10
3536.7125721558259
 20
2713.4226279959089
 30
0.0
  0
POINT
  5
1AB8
  8
DEFPOINTS
 62
     0
 10
3536.7125721558259
 20
3183.0425213434009
 30
0.0
  0
ENDBLK
  5
418
  8
0
  0
BLOCK
  8
0
  2
*D6
 70
     1
 10
0.0
 20
0.0
 30
0.0
  3
*D6
  1

  0
LINE
  5
1AB9
  8
SUNPOU
 10
1271.5766120342739
 20
1551.572627995909
 30
0.0
 11
1024.952722366379
 21
1551.572627995909
 31
0.0
  0
LINE
  5
1ABA
  8
SUNPOU
 10
1111.1739062937299
 20
2151.572627995909
 30
0.0
 11
1024.952722366379
 21
2151.572627995909
 31
0.0
  0
LINE
  5
1ABB
  8
SUNPOU
 10
1039.952722366379
 20
1581.572627995909
 30
0.0
 11
1039.952722366379
 21
2121.572627995909
 31
0.0
  0
SOLID
  5
1ABC
  8
SUNPOU
 10
1034.952722366379
 20
1581.572627995909
 30
0.0
 11
1044.952722366379
 21
1581.572627995909
 31
0.0
 12
1039.952722366379
 22
1551.572627995909
 32
0.0
 13
1039.952722366379
 23
1551.572627995909
 33
0.0
  0
SOLID
  5
1ABD
  8
SUNPOU
 10
1034.952722366379
 20
2121.572627995909
 30
0.0
 11
1044.952722366379
 21
2121.572627995909
 31
0.0
 12
1039.952722366379
 22
2151.572627995909
 32
0.0
 13
1039.952722366379
 23
2151.572627995909
 33
0.0
  0
TEXT
  8
SUNPOU
  40
45
  5
1C02
  72
0
  71
0
 10
909.453
 20
1771.92
 30
0.000000
  1
600
  7
KANJI08
  0
POINT
  5
1ABF
  8
DEFPOINTS
 62
     0
 10
1286.5766120342739
 20
1551.572627995909
 30
0.0
  0
POINT
  5
1AC0
  8
DEFPOINTS
 62
     0
 10
1126.1739062937299
 20
2151.572627995909
 30
0.0
  0
POINT
  5
1AC1
  8
DEFPOINTS
 62
     0
 10
1039.952722366379
 20
2151.572627995909
 30
0.0
  0
ENDBLK
  5
42D
  8
0
  0
BLOCK
  8
0
  2
*D7
 70
     1
 10
0.0
 20
0.0
 30
0.0
  3
*D7
  1

  0
LINE
  5
1AC2
  8
SUNPOU
 10
3551.7125721558259
 20
2651.5726279959099
 30
0.0
 11
4048.4724219452719
 21
2651.5726279959099
 31
0.0
  0
LINE
  5
1AC3
  8
SUNPOU
 10
3351.7125721558259
 20
2951.572627995909
 30
0.0
 11
4048.4724219452719
 21
2951.572627995909
 31
0.0
  0
LINE
  5
1AC4
  8
SUNPOU
 10
4033.4724219452728
 20
2681.5726279959099
 30
0.0
 11
4033.4724219452728
 21
2921.572627995909
 31
0.0
  0
SOLID
  5
1AC5
  8
SUNPOU
 10
4028.4724219452728
 20
2681.5726279959099
 30
0.0
 11
4038.4724219452728
 21
2681.5726279959099
 31
0.0
 12
4033.4724219452728
 22
2651.5726279959099
 32
0.0
 13
4033.4724219452728
 23
2651.5726279959099
 33
0.0
  0
SOLID
  5
1AC6
  8
SUNPOU
 10
4028.4724219452728
 20
2921.572627995909
 30
0.0
 11
4038.4724219452728
 21
2921.572627995909
 31
0.0
 12
4033.4724219452728
 22
2951.572627995909
 32
0.0
 13
4033.4724219452728
 23
2951.572627995909
 33
0.0
  0
TEXT
  8
SUNPOU
  40
45
  5
1C03
  72
0
  71
0
 10
3902.97
 20
2721.92
 30
0.000000
  1
300
  7
KANJI08
  0
POINT
  5
1AC8
  8
DEFPOINTS
 62
     0
 10
3536.7125721558259
 20
2651.5726279959099
 30
0.0
  0
POINT
  5
1AC9
  8
DEFPOINTS
 62
     0
 10
3336.7125721558259
 20
2951.572627995909
 30
0.0
  0
POINT
  5
1ACA
  8
DEFPOINTS
 62
     0
 10
4033.4724219452728
 20
2951.572627995909
 30
0.0
  0
ENDBLK
  5
451
  8
0
  0
BLOCK
  8
0
  2
*D8
 70
     1
 10
0.0
 20
0.0
 30
0.0
  3
*D8
  1

  0
LINE
  5
1ACB
  8
SUNPOU
 10
1271.5766120342739
 20
1551.5726279959081
 30
0.0
 11
858.86283988258913
 21
1551.5726279959081
 31
0.0
  0
LINE
  5
1ACC
  8
SUNPOU
 10
1681.7125721558259
 20
2951.572627995909
 30
0.0
 11
858.86283988258936
 21
2951.5726279959099
 31
0.0
  0
LINE
  5
1ACD
  8
SUNPOU
 10
873.86283988258913
 20
1581.5726279959081
 30
0.0
 11
873.86283988258947
 21
2921.5726279959099
 31
0.0
  0
SOLID
  5
1ACE
  8
SUNPOU
 10
868.86283988258901
 20
1581.5726279959081
 30
0.0
 11
878.86283988258901
 21
1581.5726279959081
 31
0.0
 12
873.86283988258913
 22
1551.5726279959081
 32
0.0
 13
873.86283988258913
 23
1551.5726279959081
 33
0.0
  0
SOLID
  5
1ACF
  8
SUNPOU
 10
868.86283988258936
 20
2921.5726279959099
 30
0.0
 11
878.86283988258936
 21
2921.5726279959099
 31
0.0
 12
873.86283988258947
 22
2951.5726279959099
 32
0.0
 13
873.86283988258947
 23
2951.5726279959099
 33
0.0
  0
TEXT
  8
SUNPOU
  40
45
  5
1C04
  72
0
  71
0
 10
743.363
 20
2171.92
 30
0.000000
  1
1400
  7
KANJI08
  0
POINT
  5
1AD1
  8
DEFPOINTS
 62
     0
 10
1286.5766120342739
 20
1551.5726279959081
 30
0.0
  0
POINT
  5
1AD2
  8
DEFPOINTS
 62
     0
 10
1696.7125721558259
 20
2951.572627995909
 30
0.0
  0
POINT
  5
1AD3
  8
DEFPOINTS
 62
     0
 10
873.86283988258947
 20
2951.5726279959099
 30
0.0
  0
ENDBLK
  5
45D
  8
0
  0
BLOCK
  8
0
  2
*D9
 70
     1
 10
0.0
 20
0.0
 30
0.0
  3
*D9
  1

  0
LINE
  5
1AD4
  8
SUNPOU
 62
     0
 10
1736.712572155827
 20
2713.4226279959098
 30
0.0
 11
1615.2139849325749
 21
2832.3263424154088
 31
0.0
  0
TEXT
  8
SUNPOU
  40
45
  5
1C05
  62
0
  72
0
  71
0
 10
1633.17
 20
2711.04
 30
0.000000
  1
R200
  7
EXT08
  0
SOLID
  5
1AD6
  8
SUNPOU
 62
     0
 10
1618.7111530037371
 20
2835.8998302749169
 30
0.0
 11
1611.716816861413
 21
2828.7528545559021
 31
0.0
 12
1593.7730577755301
 22
2853.3093508423799
 32
0.0
 13
1593.7730577755301
 23
2853.3093508423799
 33
0.0
  0
POINT
  5
1AD7
  8
DEFPOINTS
 62
     0
 10
1593.7730577755301
 20
2853.3093508423799
 30
0.0
  0
POINT
  5
1AD8
  8
DEFPOINTS
 62
     0
 10
1736.712572155827
 20
2713.4226279959098
 30
0.0
  0
ENDBLK
  5
509
  8
0
  0
BLOCK
  8
0
  2
*D10
 70
     1
 10
0.0
 20
0.0
 30
0.0
  3
*D10
  1

  0
LINE
  5
1AD9
  8
SUNPOU
 62
     0
 10
3551.7125721558259
 20
2651.5726279959099
 30
0.0
 11
4048.4724219452719
 21
2651.5726279959099
 31
0.0
  0
LINE
  5
1ADA
  8
SUNPOU
 62
     0
 10
3551.7125721558259
 20
2401.5726279958958
 30
0.0
 11
4048.4724219452719
 21
2401.5726279958958
 31
0.0
  0
LINE
  5
1ADB
  8
SUNPOU
 62
     0
 10
4033.4724219452728
 20
2621.5726279959099
 30
0.0
 11
4033.4724219452728
 21
2431.5726279958958
 31
0.0
  0
SOLID
  5
1ADC
  8
SUNPOU
 62
     0
 10
4028.4724219452728
 20
2621.5726279959099
 30
0.0
 11
4038.4724219452728
 21
2621.5726279959099
 31
0.0
 12
4033.4724219452728
 22
2651.5726279959099
 32
0.0
 13
4033.4724219452728
 23
2651.5726279959099
 33
0.0
  0
SOLID
  5
1ADD
  8
SUNPOU
 62
     0
 10
4028.4724219452728
 20
2431.5726279958958
 30
0.0
 11
4038.4724219452728
 21
2431.5726279958958
 31
0.0
 12
4033.4724219452728
 22
2401.5726279958958
 32
0.0
 13
4033.4724219452728
 23
2401.5726279958958
 33
0.0
  0
TEXT
  8
SUNPOU
  40
45
  5
1C06
  62
0
  72
0
  71
0
 10
3902.97
 20
2446.92
 30
0.000000
  1
250
  7
EXT08
  0
POINT
  5
1ADF
  8
DEFPOINTS
 62
     0
 10
3536.7125721558259
 20
2651.5726279959099
 30
0.0
  0
POINT
  5
1AE0
  8
DEFPOINTS
 62
     0
 10
3536.7125721558259
 20
2401.5726279958958
 30
0.0
  0
POINT
  5
1AE1
  8
DEFPOINTS
 62
     0
 10
4033.4724219452728
 20
2401.5726279958958
 30
0.0
  0
ENDBLK
  5
552
  8
0
  0
BLOCK
  8
0
  2
*D11
 70
     1
 10
0.0
 20
0.0
 30
0.0
  3
*D11
  1

  0
LINE
  5
1AE2
  8
SUNPOU
 62
     0
 10
3551.7125721558259
 20
2401.5726279958958
 30
0.0
 11
4048.4724219452719
 21
2401.5726279958958
 31
0.0
  0
LINE
  5
1AE3
  8
SUNPOU
 62
     0
 10
3962.2512380179219
 20
2151.572627995909
 30
0.0
 11
4048.4724219452719
 21
2151.572627995909
 31
0.0
  0
LINE
  5
1AE4
  8
SUNPOU
 62
     0
 10
4033.4724219452728
 20
2371.5726279958958
 30
0.0
 11
4033.4724219452728
 21
2181.572627995909
 31
0.0
  0
SOLID
  5
1AE5
  8
SUNPOU
 62
     0
 10
4028.4724219452728
 20
2371.5726279958958
 30
0.0
 11
4038.4724219452728
 21
2371.5726279958958
 31
0.0
 12
4033.4724219452728
 22
2401.5726279958958
 32
0.0
 13
4033.4724219452728
 23
2401.5726279958958
 33
0.0
  0
SOLID
  5
1AE6
  8
SUNPOU
 62
     0
 10
4028.4724219452728
 20
2181.572627995909
 30
0.0
 11
4038.4724219452728
 21
2181.572627995909
 31
0.0
 12
4033.4724219452728
 22
2151.572627995909
 32
0.0
 13
4033.4724219452728
 23
2151.572627995909
 33
0.0
  0
TEXT
  8
SUNPOU
  40
45
  5
1C07
  62
0
  72
0
  71
0
 10
3902.97
 20
2196.92
 30
0.000000
  1
250
  7
EXT08
  0
POINT
  5
1AE8
  8
DEFPOINTS
 62
     0
 10
3536.7125721558259
 20
2401.5726279958958
 30
0.0
  0
POINT
  5
1AE9
  8
DEFPOINTS
 62
     0
 10
3947.2512380179219
 20
2151.572627995909
 30
0.0
  0
POINT
  5
1AEA
  8
DEFPOINTS
 62
     0
 10
4033.4724219452728
 20
2151.572627995909
 30
0.0
  0
ENDBLK
  5
55F
  8
0
  0
BLOCK
  8
0
  2
*D12
 70
     1
 10
0.0
 20
0.0
 30
0.0
  3
*D12
  1

  0
LINE
  5
1AEB
  8
SUNPOU
 62
     0
 10
1336.7125721558259
 20
1536.572627995909
 30
0.0
 11
1336.7125721558259
 21
1335.385379250705
 31
0.0
  0
LINE
  5
1AEC
  8
SUNPOU
 62
     0
 10
1736.7125721558259
 20
1536.572627995909
 30
0.0
 11
1736.7125721558259
 21
1335.385379250705
 31
0.0
  0
LINE
  5
1AED
  8
SUNPOU
 62
     0
 10
1366.7125721558259
 20
1350.385379250705
 30
0.0
 11
1706.7125721558259
 21
1350.385379250705
 31
0.0
  0
SOLID
  5
1AEE
  8
SUNPOU
 62
     0
 10
1366.7125721558259
 20
1355.385379250705
 30
0.0
 11
1366.7125721558259
 21
1345.385379250705
 31
0.0
 12
1336.7125721558259
 22
1350.385379250705
 32
0.0
 13
1336.7125721558259
 23
1350.385379250705
 33
0.0
  0
SOLID
  5
1AEF
  8
SUNPOU
 62
     0
 10
1706.7125721558259
 20
1355.385379250705
 30
0.0
 11
1706.7125721558259
 21
1345.385379250705
 31
0.0
 12
1736.7125721558259
 22
1350.385379250705
 32
0.0
 13
1736.7125721558259
 23
1350.385379250705
 33
0.0
  0
TEXT
  8
SUNPOU
  40
45
  5
1C08
  62
0
  72
0
  71
0
 10
1446.71
 20
1311.24
 30
0.000000
  1
400
  7
EXT08
  0
POINT
  5
1AF1
  8
DEFPOINTS
 62
     0
 10
1336.7125721558259
 20
1551.572627995909
 30
0.0
  0
POINT
  5
1AF2
  8
DEFPOINTS
 62
     0
 10
1736.7125721558259
 20
1551.572627995909
 30
0.0
  0
POINT
  5
1AF3
  8
DEFPOINTS
 62
     0
 10
1736.7125721558259
 20
1350.385379250705
 30
0.0
  0
ENDBLK
  5
67B
  8
0
  0
BLOCK
  8
0
  2
*D13
 70
     1
 10
0.0
 20
0.0
 30
0.0
  3
*D13
  1

  0
LINE
  5
1AF4
  8
SUNPOU
 62
     0
 10
4418.6329784022528
 20
1536.572627995909
 30
0.0
 11
4418.6329784022528
 21
1335.385379250705
 31
0.0
  0
LINE
  5
1AF5
  8
SUNPOU
 62
     0
 10
4818.6329784022537
 20
1536.572627995909
 30
0.0
 11
4818.6329784022537
 21
1335.385379250705
 31
0.0
  0
LINE
  5
1AF6
  8
SUNPOU
 62
     0
 10
4448.6329784022537
 20
1350.385379250705
 30
0.0
 11
4788.6329784022537
 21
1350.385379250705
 31
0.0
  0
SOLID
  5
1AF7
  8
SUNPOU
 62
     0
 10
4448.6329784022537
 20
1355.385379250705
 30
0.0
 11
4448.6329784022537
 21
1345.385379250705
 31
0.0
 12
4418.6329784022528
 22
1350.385379250705
 32
0.0
 13
4418.6329784022528
 23
1350.385379250705
 33
0.0
  0
SOLID
  5
1AF8
  8
SUNPOU
 62
     0
 10
4788.6329784022537
 20
1355.385379250705
 30
0.0
 11
4788.6329784022537
 21
1345.385379250705
 31
0.0
 12
4818.6329784022537
 22
1350.385379250705
 32
0.0
 13
4818.6329784022537
 23
1350.385379250705
 33
0.0
  0
TEXT
  8
SUNPOU
  40
45
  5
1C09
  62
0
  72
0
  71
0
 10
4528.63
 20
1311.24
 30
0.000000
  1
400
  7
EXT08
  0
POINT
  5
1AFA
  8
DEFPOINTS
 62
     0
 10
4418.6329784022528
 20
1551.572627995909
 30
0.0
  0
POINT
  5
1AFB
  8
DEFPOINTS
 62
     0
 10
4818.6329784022537
 20
1551.572627995909
 30
0.0
  0
POINT
  5
1AFC
  8
DEFPOINTS
 62
     0
 10
4818.6329784022537
 20
1350.385379250705
 30
0.0
  0
ENDBLK
  5
1347
  8
0
  0
BLOCK
  8
0
  2
B0060025
 70
     0
 10
0.0
 20
0.0
 30
0.0
  3
B0060025
  1

  0
CIRCLE
  5
18B3
  8
SJC
 10
-3.420201433256806
 20
9.3969262078589963
 30
0.0
 40
1.0
  0
LINE
  5
18B4
  8
SJC
 10
-9.4202014332568051
 20
9.3969262078589963
 30
0.0
 11
-9.4202014332568051
 21
6.3969262078589963
 31
0.0
  0
LINE
  5
18B5
  8
SUNPOU
 10
-3.420201433256806
 20
9.3969262078589963
 30
0.0
 11
-11.4202014332568
 21
9.3969262078589963
 31
0.0
  0
LINE
  5
18B6
  8
SJC
 10
-6.420201433256806
 20
9.3969262078589963
 30
0.0
 11
-9.4202014332568051
 21
6.3969262078589963
 31
0.0
  0
LINE
  5
18B7
  8
SJC
 10
-6.420201433256806
 20
9.3969262078589963
 30
0.0
 11
-9.4202014332568051
 21
9.3969262078589963
 31
0.0
  0
POLYLINE
  5
18B8
  8
SUNPOU
 66
     1
 10
0.0
 20
0.0
 30
0.0
1001
ACAD
1000
DSTYLE
1002
{
1070
    78
1070
     8
1070
   140
1040
3.0
1070
   340
1005
11D
1070
    74
1070
     0
1070
   172
1070
     1
1070
    73
1070
     0
1070
    77
1070
     1
1070
   147
1040
1.1999999999999991
1070
   287
1070
     5
1070
    42
1040
1.0
1070
    44
1040
1.0
1070
    43
1040
6.0
1070
   271
1070
     2
1070
    41
1040
2.0
1002
}
  0
VERTEX
  5
1AFD
  8
SUNPOU
 10
-0.04560268577643
 20
0.1252923494380411
 30
0.0
  0
VERTEX
  5
1AFE
  8
SUNPOU
 10
-3.4202014332563522
 20
9.3969262078589963
 30
0.0
  0
SEQEND
  5
1AFF
  8
SUNPOU
  0
SOLID
  5
18B9
  8
SUNPOU
 10
-0.3708094130561221
 20
1.9933919560137381
 30
0.0
 11
0.0
 21
0.0
 31
0.0
 12
-0.9972711602467825
 22
1.765378527129996
 32
0.0
 13
-0.9972711602467825
 23
1.765378527129996
 33
0.0
1001
ACAD
1000
DSTYLE
1002
{
1070
    78
1070
     8
1070
   140
1040
3.0
1070
   340
1005
11D
1070
    74
1070
     0
1070
   172
1070
     1
1070
    73
1070
     0
1070
    77
1070
     1
1070
   147
1040
1.1999999999999991
1070
   287
1070
     5
1070
    42
1040
1.0
1070
    44
1040
1.0
1070
    43
1040
6.0
1070
   271
1070
     2
1070
    41
1040
2.0
1002
}
  0
ENDBLK
  5
18BA
  8
0
  0
BLOCK
  8
0
  2
*D15
 70
     1
 10
0.0
 20
0.0
 30
0.0
  3
*D15
  1

  0
LINE
  5
1BF8
  8
SUNPOU
 62
     0
 10
1111.1739062937299
 20
2151.572627995909
 30
0.0
 11
1024.952722366379
 21
2151.572627995909
 31
0.0
  0
LINE
  5
1BF9
  8
SUNPOU
 62
     0
 10
1721.7125721558259
 20
2951.572627995909
 30
0.0
 11
1024.952722366379
 21
2951.572627995909
 31
0.0
  0
LINE
  5
1BFA
  8
SUNPOU
 62
     0
 10
1039.952722366379
 20
2181.572627995909
 30
0.0
 11
1039.952722366379
 21
2921.572627995909
 31
0.0
  0
SOLID
  5
1BFB
  8
SUNPOU
 62
     0
 10
1034.952722366379
 20
2181.572627995909
 30
0.0
 11
1044.952722366379
 21
2181.572627995909
 31
0.0
 12
1039.952722366379
 22
2151.572627995909
 32
0.0
 13
1039.952722366379
 23
2151.572627995909
 33
0.0
  0
SOLID
  5
1BFC
  8
SUNPOU
 62
     0
 10
1034.952722366379
 20
2921.572627995909
 30
0.0
 11
1044.952722366379
 21
2921.572627995909
 31
0.0
 12
1039.952722366379
 22
2951.572627995909
 32
0.0
 13
1039.952722366379
 23
2951.572627995909
 33
0.0
  0
TEXT
  8
SUNPOU
  40
45
  5
1C0A
  62
0
  72
0
  71
0
 10
909.453
 20
2471.92
 30
0.000000
  1
800
  7
EXT08
  0
POINT
  5
1BFE
  8
DEFPOINTS
 62
     0
 10
1126.1739062937299
 20
2151.572627995909
 30
0.0
  0
POINT
  5
1BFF
  8
DEFPOINTS
 62
     0
 10
1736.7125721558259
 20
2951.572627995909
 30
0.0
  0
POINT
  5
1C00
  8
DEFPOINTS
 62
     0
 10
1039.952722366379
 20
2951.572627995909
 30
0.0
  0
ENDBLK
  5
1A2F
  8
0
  0
BLOCK
  8
0
  2
*X16
 70
     1
 10
0.0
 20
0.0
 30
0.0
  3
*X16
  1

  0
LINE
  5
1B01
  8
0
 62
     0
 10
3460.1986284556392
 20
2377.2726279959079
 30
0.0
 11
3476.712572155825
 21
2393.7865716960941
 31
0.0
  0
LINE
  5
1B02
  8
0
 62
     0
 10
3442.5209589259762
 20
2377.2726279959079
 30
0.0
 11
3476.712572155825
 21
2411.4642412257581
 31
0.0
  0
LINE
  5
1B03
  8
0
 62
     0
 10
3424.8432893963118
 20
2377.2726279959079
 30
0.0
 11
3473.443289396313
 21
2425.8726279959092
 31
0.0
  0
LINE
  5
1B04
  8
0
 62
     0
 10
3407.1656198666478
 20
2377.2726279959079
 30
0.0
 11
3455.7656198666491
 21
2425.8726279959092
 31
0.0
  0
LINE
  5
1B05
  8
0
 62
     0
 10
3389.4879503369839
 20
2377.2726279959079
 30
0.0
 11
3438.0879503369852
 21
2425.8726279959092
 31
0.0
  0
LINE
  5
1B06
  8
0
 62
     0
 10
3371.8102808073209
 20
2377.2726279959079
 30
0.0
 11
3420.410280807323
 21
2425.8726279959092
 31
0.0
  0
LINE
  5
1B07
  8
0
 62
     0
 10
3354.1326112776569
 20
2377.2726279959079
 30
0.0
 11
3402.7326112776591
 21
2425.8726279959092
 31
0.0
  0
LINE
  5
1B08
  8
0
 62
     0
 10
3336.4549417479939
 20
2377.2726279959088
 30
0.0
 11
3385.0549417479938
 21
2425.8726279959092
 31
0.0
  0
LINE
  5
1B09
  8
0
 62
     0
 10
3318.7772722183299
 20
2377.2726279959079
 30
0.0
 11
3367.3772722183321
 21
2425.8726279959092
 31
0.0
  0
LINE
  5
1B0A
  8
0
 62
     0
 10
3301.0996026886669
 20
2377.2726279959088
 30
0.0
 11
3349.6996026886668
 21
2425.8726279959092
 31
0.0
  0
LINE
  5
1B0B
  8
0
 62
     0
 10
3283.4219331590029
 20
2377.2726279959088
 30
0.0
 11
3332.0219331590029
 21
2425.8726279959092
 31
0.0
  0
LINE
  5
1B0C
  8
0
 62
     0
 10
3265.744263629339
 20
2377.2726279959079
 30
0.0
 11
3314.3442636293389
 21
2425.8726279959092
 31
0.0
  0
LINE
  5
1B0D
  8
0
 62
     0
 10
3248.0665940996751
 20
2377.2726279959088
 30
0.0
 11
3296.6665940996759
 21
2425.8726279959092
 31
0.0
  0
LINE
  5
1B0E
  8
0
 62
     0
 10
3230.388924570012
 20
2377.2726279959088
 30
0.0
 11
3278.9889245700128
 21
2425.8726279959092
 31
0.0
  0
LINE
  5
1B0F
  8
0
 62
     0
 10
3212.7112550403481
 20
2377.2726279959088
 30
0.0
 11
3261.3112550403489
 21
2425.8726279959092
 31
0.0
  0
LINE
  5
1B10
  8
0
 62
     0
 10
3195.0335855106841
 20
2377.2726279959088
 30
0.0
 11
3243.633585510685
 21
2425.8726279959092
 31
0.0
  0
LINE
  5
1B11
  8
0
 62
     0
 10
3177.3559159810211
 20
2377.2726279959088
 30
0.0
 11
3225.9559159810219
 21
2425.8726279959092
 31
0.0
  0
LINE
  5
1B12
  8
0
 62
     0
 10
3159.6782464513572
 20
2377.2726279959088
 30
0.0
 11
3208.278246451358
 21
2425.8726279959092
 31
0.0
  0
LINE
  5
1B13
  8
0
 62
     0
 10
3142.0005769216932
 20
2377.2726279959088
 30
0.0
 11
3190.600576921694
 21
2425.8726279959092
 31
0.0
  0
LINE
  5
1B14
  8
0
 62
     0
 10
3124.3229073920302
 20
2377.2726279959088
 30
0.0
 11
3172.922907392031
 21
2425.8726279959092
 31
0.0
  0
LINE
  5
1B15
  8
0
 62
     0
 10
3106.6452378623671
 20
2377.2726279959088
 30
0.0
 11
3155.245237862367
 21
2425.8726279959092
 31
0.0
  0
LINE
  5
1B16
  8
0
 62
     0
 10
3088.9675683327018
 20
2377.2726279959088
 30
0.0
 11
3137.5675683327031
 21
2425.8726279959092
 31
0.0
  0
LINE
  5
1B17
  8
0
 62
     0
 10
3071.2898988030388
 20
2377.2726279959088
 30
0.0
 11
3119.8898988030392
 21
2425.8726279959092
 31
0.0
  0
LINE
  5
1B18
  8
0
 62
     0
 10
3053.6122292733762
 20
2377.2726279959088
 30
0.0
 11
3102.2122292733761
 21
2425.8726279959092
 31
0.0
  0
LINE
  5
1B19
  8
0
 62
     0
 10
3035.9345597437109
 20
2377.2726279959088
 30
0.0
 11
3084.5345597437122
 21
2425.8726279959092
 31
0.0
  0
LINE
  5
1B1A
  8
0
 62
     0
 10
3018.256890214047
 20
2377.2726279959088
 30
0.0
 11
3066.8568902140478
 21
2425.8726279959092
 31
0.0
  0
LINE
  5
1B1B
  8
0
 62
     0
 10
3000.5792206843848
 20
2377.2726279959088
 30
0.0
 11
3049.1792206843852
 21
2425.8726279959092
 31
0.0
  0
LINE
  5
1B1C
  8
0
 62
     0
 10
2982.90155115472
 20
2377.2726279959088
 30
0.0
 11
3031.5015511547199
 21
2425.8726279959092
 31
0.0
  0
LINE
  5
1B1D
  8
0
 62
     0
 10
2965.2238816250569
 20
2377.2726279959088
 30
0.0
 11
3013.8238816250569
 21
2425.8726279959092
 31
0.0
  0
LINE
  5
1B1E
  8
0
 62
     0
 10
2947.5462120953939
 20
2377.2726279959088
 30
0.0
 11
2996.1462120953929
 21
2425.8726279959092
 31
0.0
  0
LINE
  5
1B1F
  8
0
 62
     0
 10
2929.86854256573
 20
2377.2726279959088
 30
0.0
 11
2978.4685425657299
 21
2425.8726279959092
 31
0.0
  0
LINE
  5
1B20
  8
0
 62
     0
 10
2912.190873036066
 20
2377.2726279959088
 30
0.0
 11
2960.7908730360659
 21
2425.8726279959092
 31
0.0
  0
LINE
  5
1B21
  8
0
 62
     0
 10
2894.513203506403
 20
2377.2726279959088
 30
0.0
 11
2943.113203506402
 21
2425.8726279959092
 31
0.0
  0
LINE
  5
1B22
  8
0
 62
     0
 10
2876.835533976739
 20
2377.2726279959088
 30
0.0
 11
2925.435533976738
 21
2425.8726279959092
 31
0.0
  0
LINE
  5
1B23
  8
0
 62
     0
 10
2859.1578644470751
 20
2377.2726279959088
 30
0.0
 11
2907.757864447075
 21
2425.8726279959092
 31
0.0
  0
LINE
  5
1B24
  8
0
 62
     0
 10
2841.4801949174112
 20
2377.2726279959088
 30
0.0
 11
2890.0801949174111
 21
2425.8726279959092
 31
0.0
  0
LINE
  5
1B25
  8
0
 62
     0
 10
2823.8025253877481
 20
2377.2726279959102
 30
0.0
 11
2872.4025253877471
 21
2425.8726279959092
 31
0.0
  0
LINE
  5
1B26
  8
0
 62
     0
 10
2806.1248558580842
 20
2377.2726279959088
 30
0.0
 11
2854.7248558580841
 21
2425.8726279959092
 31
0.0
  0
LINE
  5
1B27
  8
0
 62
     0
 10
2788.4471863284211
 20
2377.2726279959102
 30
0.0
 11
2837.0471863284201
 21
2425.8726279959092
 31
0.0
  0
LINE
  5
1B28
  8
0
 62
     0
 10
2770.7695167987572
 20
2377.2726279959102
 30
0.0
 11
2819.3695167987571
 21
2425.8726279959092
 31
0.0
  0
LINE
  5
1B29
  8
0
 62
     0
 10
2753.0918472690928
 20
2377.2726279959088
 30
0.0
 11
2801.6918472690932
 21
2425.8726279959092
 31
0.0
  0
LINE
  5
1B2A
  8
0
 62
     0
 10
2735.4141777394289
 20
2377.2726279959102
 30
0.0
 11
2784.0141777394292
 21
2425.8726279959092
 31
0.0
  0
LINE
  5
1B2B
  8
0
 62
     0
 10
2717.7365082097658
 20
2377.2726279959102
 30
0.0
 11
2766.3365082097648
 21
2425.8726279959092
 31
0.0
  0
LINE
  5
1B2C
  8
0
 62
     0
 10
2700.0588386801019
 20
2377.2726279959088
 30
0.0
 11
2748.6588386801018
 21
2425.8726279959092
 31
0.0
  0
LINE
  5
1B2D
  8
0
 62
     0
 10
2682.3811691504388
 20
2377.2726279959102
 30
0.0
 11
2730.9811691504378
 21
2425.8726279959092
 31
0.0
  0
LINE
  5
1B2E
  8
0
 62
     0
 10
2664.7034996207749
 20
2377.2726279959102
 30
0.0
 11
2713.3034996207739
 21
2425.8726279959092
 31
0.0
  0
LINE
  5
1B2F
  8
0
 62
     0
 10
2647.0258300911119
 20
2377.2726279959102
 30
0.0
 11
2695.6258300911109
 21
2425.8726279959092
 31
0.0
  0
LINE
  5
1B30
  8
0
 62
     0
 10
2629.348160561447
 20
2377.2726279959102
 30
0.0
 11
2677.9481605614469
 21
2425.8726279959092
 31
0.0
  0
LINE
  5
1B31
  8
0
 62
     0
 10
2611.670491031784
 20
2377.2726279959102
 30
0.0
 11
2660.270491031783
 21
2425.8726279959092
 31
0.0
  0
LINE
  5
1B32
  8
0
 62
     0
 10
2593.9928215021209
 20
2377.2726279959102
 30
0.0
 11
2642.5928215021199
 21
2425.8726279959092
 31
0.0
  0
LINE
  5
1B33
  8
0
 62
     0
 10
2576.315151972457
 20
2377.2726279959102
 30
0.0
 11
2624.915151972456
 21
2425.8726279959092
 31
0.0
  0
LINE
  5
1B34
  8
0
 62
     0
 10
2558.637482442793
 20
2377.2726279959102
 30
0.0
 11
2607.237482442792
 21
2425.8726279959092
 31
0.0
  0
LINE
  5
1B35
  8
0
 62
     0
 10
2540.95981291313
 20
2377.2726279959102
 30
0.0
 11
2589.5598129131281
 21
2425.8726279959092
 31
0.0
  0
LINE
  5
1B36
  8
0
 62
     0
 10
2523.2821433834661
 20
2377.2726279959102
 30
0.0
 11
2571.8821433834651
 21
2425.8726279959092
 31
0.0
  0
LINE
  5
1B37
  8
0
 62
     0
 10
2505.6044738538021
 20
2377.2726279959102
 30
0.0
 11
2554.2044738538011
 21
2425.8726279959092
 31
0.0
  0
LINE
  5
1B38
  8
0
 62
     0
 10
2487.9268043241382
 20
2377.2726279959102
 30
0.0
 11
2536.5268043241372
 21
2425.8726279959092
 31
0.0
  0
LINE
  5
1B39
  8
0
 62
     0
 10
2470.2491347944751
 20
2377.2726279959102
 30
0.0
 11
2518.8491347944741
 21
2425.8726279959092
 31
0.0
  0
LINE
  5
1B3A
  8
0
 62
     0
 10
2452.5714652648112
 20
2377.2726279959102
 30
0.0
 11
2501.1714652648102
 21
2425.8726279959092
 31
0.0
  0
LINE
  5
1B3B
  8
0
 62
     0
 10
2434.8937957351482
 20
2377.2726279959102
 30
0.0
 11
2483.4937957351458
 21
2425.8726279959092
 31
0.0
  0
LINE
  5
1B3C
  8
0
 62
     0
 10
2417.2161262054829
 20
2377.2726279959102
 30
0.0
 11
2465.8161262054832
 21
2425.8726279959092
 31
0.0
  0
LINE
  5
1B3D
  8
0
 62
     0
 10
2399.5384566758198
 20
2377.2726279959102
 30
0.0
 11
2448.1384566758188
 21
2425.8726279959092
 31
0.0
  0
LINE
  5
1B3E
  8
0
 62
     0
 10
2381.8607871461559
 20
2377.2726279959102
 30
0.0
 11
2430.4607871461549
 21
2425.8726279959092
 31
0.0
  0
LINE
  5
1B3F
  8
0
 62
     0
 10
2364.1831176164928
 20
2377.2726279959102
 30
0.0
 11
2412.7831176164918
 21
2425.8726279959092
 31
0.0
  0
LINE
  5
1B40
  8
0
 62
     0
 10
2346.5054480868289
 20
2377.2726279959102
 30
0.0
 11
2395.1054480868279
 21
2425.8726279959092
 31
0.0
  0
LINE
  5
1B41
  8
0
 62
     0
 10
2328.8277785571649
 20
2377.2726279959102
 30
0.0
 11
2377.4277785571639
 21
2425.8726279959092
 31
0.0
  0
LINE
  5
1B42
  8
0
 62
     0
 10
2311.1501090275019
 20
2377.2726279959102
 30
0.0
 11
2359.7501090275009
 21
2425.8726279959092
 31
0.0
  0
LINE
  5
1B43
  8
0
 62
     0
 10
2293.472439497838
 20
2377.2726279959102
 30
0.0
 11
2342.0724394978379
 21
2425.8726279959092
 31
0.0
  0
LINE
  5
1B44
  8
0
 62
     0
 10
2275.7947699681749
 20
2377.2726279959102
 30
0.0
 11
2324.3947699681739
 21
2425.8726279959092
 31
0.0
  0
LINE
  5
1B45
  8
0
 62
     0
 10
2258.1171004385101
 20
2377.2726279959102
 30
0.0
 11
2306.71710043851
 21
2425.8726279959092
 31
0.0
  0
LINE
  5
1B46
  8
0
 62
     0
 10
2240.439430908847
 20
2377.2726279959102
 30
0.0
 11
2289.039430908846
 21
2425.8726279959092
 31
0.0
  0
LINE
  5
1B47
  8
0
 62
     0
 10
2222.7617613791831
 20
2377.2726279959102
 30
0.0
 11
2271.3617613791821
 21
2425.8726279959092
 31
0.0
  0
LINE
  5
1B48
  8
0
 62
     0
 10
2205.0840918495192
 20
2377.2726279959102
 30
0.0
 11
2253.6840918495191
 21
2425.8726279959092
 31
0.0
  0
LINE
  5
1B49
  8
0
 62
     0
 10
2187.4064223198552
 20
2377.2726279959102
 30
0.0
 11
2236.006422319856
 21
2425.8726279959101
 31
0.0
  0
LINE
  5
1B4A
  8
0
 62
     0
 10
2169.7287527901922
 20
2377.2726279959102
 30
0.0
 11
2218.3287527901921
 21
2425.8726279959092
 31
0.0
  0
LINE
  5
1B4B
  8
0
 62
     0
 10
2152.0510832605278
 20
2377.2726279959102
 30
0.0
 11
2200.6510832605281
 21
2425.8726279959101
 31
0.0
  0
LINE
  5
1B4C
  8
0
 62
     0
 10
2134.3734137308638
 20
2377.2726279959102
 30
0.0
 11
2182.9734137308642
 21
2425.8726279959092
 31
0.0
  0
LINE
  5
1B4D
  8
0
 62
     0
 10
2116.6957442012008
 20
2377.2726279959102
 30
0.0
 11
2165.2957442012012
 21
2425.8726279959101
 31
0.0
  0
LINE
  5
1B4E
  8
0
 62
     0
 10
2099.0180746715369
 20
2377.2726279959102
 30
0.0
 11
2147.6180746715372
 21
2425.8726279959092
 31
0.0
  0
LINE
  5
1B4F
  8
0
 62
     0
 10
2081.3404051418729
 20
2377.2726279959102
 30
0.0
 11
2129.9404051418728
 21
2425.8726279959101
 31
0.0
  0
LINE
  5
1B50
  8
0
 62
     0
 10
2063.6627356122099
 20
2377.2726279959102
 30
0.0
 11
2112.2627356122098
 21
2425.8726279959092
 31
0.0
  0
LINE
  5
1B51
  8
0
 62
     0
 10
2045.9850660825459
 20
2377.2726279959102
 30
0.0
 11
2094.5850660825458
 21
2425.8726279959101
 31
0.0
  0
LINE
  5
1B52
  8
0
 62
     0
 10
2028.307396552882
 20
2377.2726279959102
 30
0.0
 11
2076.9073965528828
 21
2425.8726279959101
 31
0.0
  0
LINE
  5
1B53
  8
0
 62
     0
 10
2010.6297270232189
 20
2377.2726279959102
 30
0.0
 11
2059.2297270232189
 21
2425.8726279959101
 31
0.0
  0
LINE
  5
1B54
  8
0
 62
     0
 10
1992.952057493555
 20
2377.2726279959102
 30
0.0
 11
2041.5520574935549
 21
2425.8726279959101
 31
0.0
  0
LINE
  5
1B55
  8
0
 62
     0
 10
1975.2743879638911
 20
2377.2726279959102
 30
0.0
 11
2023.8743879638921
 21
2425.8726279959101
 31
0.0
  0
LINE
  5
1B56
  8
0
 62
     0
 10
1957.5967184342269
 20
2377.2726279959102
 30
0.0
 11
2006.1967184342279
 21
2425.8726279959101
 31
0.0
  0
LINE
  5
1B57
  8
0
 62
     0
 10
1939.9190489045641
 20
2377.2726279959102
 30
0.0
 11
1988.519048904564
 21
2425.8726279959101
 31
0.0
  0
LINE
  5
1B58
  8
0
 62
     0
 10
1922.2413793748999
 20
2377.2726279959102
 30
0.0
 11
1970.8413793749
 21
2425.872627995911
 31
0.0
  0
LINE
  5
1B59
  8
0
 62
     0
 10
1904.563709845236
 20
2377.2726279959102
 30
0.0
 11
1953.163709845237
 21
2425.8726279959101
 31
0.0
  0
LINE
  5
1B5A
  8
0
 62
     0
 10
1886.8860403155729
 20
2377.2726279959102
 30
0.0
 11
1935.4860403155731
 21
2425.872627995911
 31
0.0
  0
LINE
  5
1B5B
  8
0
 62
     0
 10
1869.208370785909
 20
2377.2726279959102
 30
0.0
 11
1917.80837078591
 21
2425.872627995911
 31
0.0
  0
LINE
  5
1B5C
  8
0
 62
     0
 10
1851.530701256245
 20
2377.2726279959102
 30
0.0
 11
1900.1307012562461
 21
2425.872627995911
 31
0.0
  0
LINE
  5
1B5D
  8
0
 62
     0
 10
1833.8530317265811
 20
2377.2726279959102
 30
0.0
 11
1882.4530317265819
 21
2425.872627995911
 31
0.0
  0
LINE
  5
1B5E
  8
0
 62
     0
 10
1816.1753621969181
 20
2377.2726279959102
 30
0.0
 11
1864.7753621969191
 21
2425.872627995911
 31
0.0
  0
LINE
  5
1B5F
  8
0
 62
     0
 10
1798.4976926672539
 20
2377.2726279959102
 30
0.0
 11
1847.0976926672549
 21
2425.872627995911
 31
0.0
  0
LINE
  5
1B60
  8
0
 62
     0
 10
1780.8200231375899
 20
2377.2726279959102
 30
0.0
 11
1829.4200231375919
 21
2425.872627995911
 31
0.0
  0
LINE
  5
1B61
  8
0
 62
     0
 10
1763.1423536079269
 20
2377.2726279959102
 30
0.0
 11
1811.742353607928
 21
2425.872627995911
 31
0.0
  0
LINE
  5
1B62
  8
0
 62
     0
 10
1745.464684078263
 20
2377.2726279959102
 30
0.0
 11
1794.064684078264
 21
2425.872627995911
 31
0.0
  0
LINE
  5
1B63
  8
0
 62
     0
 10
1727.7870145485999
 20
2377.2726279959102
 30
0.0
 11
1776.3870145486001
 21
2425.872627995911
 31
0.0
  0
LINE
  5
1B64
  8
0
 62
     0
 10
1710.109345018936
 20
2377.2726279959102
 30
0.0
 11
1758.709345018937
 21
2425.872627995911
 31
0.0
  0
LINE
  5
1B65
  8
0
 62
     0
 10
1692.431675489272
 20
2377.2726279959102
 30
0.0
 11
1741.0316754892731
 21
2425.872627995911
 31
0.0
  0
LINE
  5
1B66
  8
0
 62
     0
 10
1674.754005959609
 20
2377.2726279959102
 30
0.0
 11
1723.3540059596089
 21
2425.872627995911
 31
0.0
  0
LINE
  5
1B67
  8
0
 62
     0
 10
1657.0763364299451
 20
2377.2726279959102
 30
0.0
 11
1705.6763364299461
 21
2425.872627995911
 31
0.0
  0
LINE
  5
1B68
  8
0
 62
     0
 10
1639.3986669002809
 20
2377.2726279959102
 30
0.0
 11
1687.9986669002819
 21
2425.872627995911
 31
0.0
  0
LINE
  5
1B69
  8
0
 62
     0
 10
1621.7209973706169
 20
2377.2726279959102
 30
0.0
 11
1670.3209973706189
 21
2425.872627995911
 31
0.0
  0
LINE
  5
1B6A
  8
0
 62
     0
 10
1604.0433278409539
 20
2377.2726279959102
 30
0.0
 11
1652.643327840955
 21
2425.872627995911
 31
0.0
  0
LINE
  5
1B6B
  8
0
 62
     0
 10
1596.7125721558241
 20
2387.6195418404441
 30
0.0
 11
1634.965658311291
 21
2425.872627995911
 31
0.0
  0
LINE
  5
1B6C
  8
0
 62
     0
 10
1596.712572155825
 20
2405.297211370108
 30
0.0
 11
1617.287988781628
 21
2425.872627995911
 31
0.0
  0
LINE
  5
1B6D
  8
0
 62
     0
 10
1596.7125721558241
 20
2422.974880899772
 30
0.0
 11
1599.610319251964
 21
2425.872627995911
 31
0.0
  0
ENDBLK
  5
1B6F
  8
0
  0
BLOCK
  8
0
  2
*X17
 70
     1
 10
0.0
 20
0.0
 30
0.0
  3
*X17
  1

  0
LINE
  5
1B71
  8
0
 62
     0
 10
3460.1986284556392
 20
2627.2726279959079
 30
0.0
 11
3476.712572155825
 21
2643.7865716960941
 31
0.0
  0
LINE
  5
1B72
  8
0
 62
     0
 10
3442.5209589259748
 20
2627.2726279959079
 30
0.0
 11
3476.712572155825
 21
2661.4642412257581
 31
0.0
  0
LINE
  5
1B73
  8
0
 62
     0
 10
3424.8432893963109
 20
2627.272627995907
 30
0.0
 11
3473.443289396313
 21
2675.8726279959092
 31
0.0
  0
LINE
  5
1B74
  8
0
 62
     0
 10
3407.1656198666478
 20
2627.2726279959079
 30
0.0
 11
3455.7656198666491
 21
2675.8726279959092
 31
0.0
  0
LINE
  5
1B75
  8
0
 62
     0
 10
3389.4879503369839
 20
2627.2726279959079
 30
0.0
 11
3438.0879503369852
 21
2675.8726279959092
 31
0.0
  0
LINE
  5
1B76
  8
0
 62
     0
 10
3371.8102808073209
 20
2627.2726279959079
 30
0.0
 11
3420.410280807323
 21
2675.8726279959092
 31
0.0
  0
LINE
  5
1B77
  8
0
 62
     0
 10
3354.1326112776569
 20
2627.2726279959079
 30
0.0
 11
3402.7326112776582
 21
2675.8726279959092
 31
0.0
  0
LINE
  5
1B78
  8
0
 62
     0
 10
3336.454941747993
 20
2627.2726279959079
 30
0.0
 11
3385.0549417479938
 21
2675.8726279959092
 31
0.0
  0
LINE
  5
1B79
  8
0
 62
     0
 10
3318.7772722183299
 20
2627.2726279959079
 30
0.0
 11
3367.3772722183298
 21
2675.8726279959092
 31
0.0
  0
LINE
  5
1B7A
  8
0
 62
     0
 10
3301.099602688666
 20
2627.2726279959079
 30
0.0
 11
3349.6996026886668
 21
2675.8726279959092
 31
0.0
  0
LINE
  5
1B7B
  8
0
 62
     0
 10
3283.421933159002
 20
2627.2726279959079
 30
0.0
 11
3332.0219331590029
 21
2675.8726279959092
 31
0.0
  0
LINE
  5
1B7C
  8
0
 62
     0
 10
3265.744263629339
 20
2627.2726279959079
 30
0.0
 11
3314.3442636293389
 21
2675.8726279959092
 31
0.0
  0
LINE
  5
1B7D
  8
0
 62
     0
 10
3248.0665940996751
 20
2627.2726279959088
 30
0.0
 11
3296.6665940996759
 21
2675.8726279959092
 31
0.0
  0
LINE
  5
1B7E
  8
0
 62
     0
 10
3230.388924570012
 20
2627.2726279959088
 30
0.0
 11
3278.9889245700119
 21
2675.8726279959092
 31
0.0
  0
LINE
  5
1B7F
  8
0
 62
     0
 10
3212.7112550403481
 20
2627.2726279959088
 30
0.0
 11
3261.3112550403489
 21
2675.8726279959092
 31
0.0
  0
LINE
  5
1B80
  8
0
 62
     0
 10
3195.0335855106841
 20
2627.2726279959079
 30
0.0
 11
3243.633585510685
 21
2675.8726279959092
 31
0.0
  0
LINE
  5
1B81
  8
0
 62
     0
 10
3177.3559159810211
 20
2627.2726279959088
 30
0.0
 11
3225.9559159810219
 21
2675.8726279959092
 31
0.0
  0
LINE
  5
1B82
  8
0
 62
     0
 10
3159.6782464513572
 20
2627.2726279959088
 30
0.0
 11
3208.278246451358
 21
2675.8726279959092
 31
0.0
  0
LINE
  5
1B83
  8
0
 62
     0
 10
3142.0005769216932
 20
2627.2726279959088
 30
0.0
 11
3190.600576921694
 21
2675.8726279959092
 31
0.0
  0
LINE
  5
1B84
  8
0
 62
     0
 10
3124.3229073920302
 20
2627.2726279959088
 30
0.0
 11
3172.922907392031
 21
2675.8726279959092
 31
0.0
  0
LINE
  5
1B85
  8
0
 62
     0
 10
3106.6452378623658
 20
2627.2726279959088
 30
0.0
 11
3155.2452378623661
 21
2675.8726279959092
 31
0.0
  0
LINE
  5
1B86
  8
0
 62
     0
 10
3088.9675683327018
 20
2627.2726279959088
 30
0.0
 11
3137.5675683327031
 21
2675.8726279959092
 31
0.0
  0
LINE
  5
1B87
  8
0
 62
     0
 10
3071.2898988030388
 20
2627.2726279959088
 30
0.0
 11
3119.8898988030392
 21
2675.8726279959092
 31
0.0
  0
LINE
  5
1B88
  8
0
 62
     0
 10
3053.6122292733749
 20
2627.2726279959088
 30
0.0
 11
3102.2122292733761
 21
2675.8726279959092
 31
0.0
  0
LINE
  5
1B89
  8
0
 62
     0
 10
3035.9345597437109
 20
2627.2726279959088
 30
0.0
 11
3084.5345597437122
 21
2675.8726279959092
 31
0.0
  0
LINE
  5
1B8A
  8
0
 62
     0
 10
3018.256890214047
 20
2627.2726279959088
 30
0.0
 11
3066.8568902140478
 21
2675.8726279959092
 31
0.0
  0
LINE
  5
1B8B
  8
0
 62
     0
 10
3000.5792206843848
 20
2627.2726279959088
 30
0.0
 11
3049.1792206843852
 21
2675.8726279959092
 31
0.0
  0
LINE
  5
1B8C
  8
0
 62
     0
 10
2982.90155115472
 20
2627.2726279959088
 30
0.0
 11
3031.5015511547199
 21
2675.8726279959092
 31
0.0
  0
LINE
  5
1B8D
  8
0
 62
     0
 10
2965.2238816250569
 20
2627.2726279959088
 30
0.0
 11
3013.8238816250569
 21
2675.8726279959092
 31
0.0
  0
LINE
  5
1B8E
  8
0
 62
     0
 10
2947.5462120953939
 20
2627.2726279959088
 30
0.0
 11
2996.1462120953929
 21
2675.8726279959092
 31
0.0
  0
LINE
  5
1B8F
  8
0
 62
     0
 10
2929.86854256573
 20
2627.2726279959088
 30
0.0
 11
2978.4685425657299
 21
2675.8726279959092
 31
0.0
  0
LINE
  5
1B90
  8
0
 62
     0
 10
2912.1908730360651
 20
2627.2726279959088
 30
0.0
 11
2960.7908730360659
 21
2675.8726279959092
 31
0.0
  0
LINE
  5
1B91
  8
0
 62
     0
 10
2894.513203506403
 20
2627.2726279959088
 30
0.0
 11
2943.113203506402
 21
2675.8726279959092
 31
0.0
  0
LINE
  5
1B92
  8
0
 62
     0
 10
2876.835533976739
 20
2627.2726279959088
 30
0.0
 11
2925.435533976738
 21
2675.8726279959092
 31
0.0
  0
LINE
  5
1B93
  8
0
 62
     0
 10
2859.1578644470751
 20
2627.2726279959088
 30
0.0
 11
2907.757864447075
 21
2675.8726279959092
 31
0.0
  0
LINE
  5
1B94
  8
0
 62
     0
 10
2841.4801949174112
 20
2627.2726279959088
 30
0.0
 11
2890.0801949174111
 21
2675.8726279959092
 31
0.0
  0
LINE
  5
1B95
  8
0
 62
     0
 10
2823.8025253877481
 20
2627.2726279959102
 30
0.0
 11
2872.4025253877471
 21
2675.8726279959092
 31
0.0
  0
LINE
  5
1B96
  8
0
 62
     0
 10
2806.1248558580842
 20
2627.2726279959088
 30
0.0
 11
2854.7248558580841
 21
2675.8726279959092
 31
0.0
  0
LINE
  5
1B97
  8
0
 62
     0
 10
2788.4471863284211
 20
2627.2726279959088
 30
0.0
 11
2837.0471863284201
 21
2675.8726279959092
 31
0.0
  0
LINE
  5
1B98
  8
0
 62
     0
 10
2770.7695167987572
 20
2627.2726279959088
 30
0.0
 11
2819.3695167987571
 21
2675.8726279959092
 31
0.0
  0
LINE
  5
1B99
  8
0
 62
     0
 10
2753.0918472690928
 20
2627.2726279959088
 30
0.0
 11
2801.6918472690932
 21
2675.8726279959092
 31
0.0
  0
LINE
  5
1B9A
  8
0
 62
     0
 10
2735.4141777394289
 20
2627.2726279959088
 30
0.0
 11
2784.0141777394292
 21
2675.8726279959092
 31
0.0
  0
LINE
  5
1B9B
  8
0
 62
     0
 10
2717.7365082097658
 20
2627.2726279959102
 30
0.0
 11
2766.3365082097648
 21
2675.8726279959092
 31
0.0
  0
LINE
  5
1B9C
  8
0
 62
     0
 10
2700.0588386801019
 20
2627.2726279959102
 30
0.0
 11
2748.6588386801018
 21
2675.8726279959092
 31
0.0
  0
LINE
  5
1B9D
  8
0
 62
     0
 10
2682.3811691504388
 20
2627.2726279959102
 30
0.0
 11
2730.9811691504378
 21
2675.8726279959092
 31
0.0
  0
LINE
  5
1B9E
  8
0
 62
     0
 10
2664.7034996207749
 20
2627.2726279959102
 30
0.0
 11
2713.3034996207739
 21
2675.8726279959092
 31
0.0
  0
LINE
  5
1B9F
  8
0
 62
     0
 10
2647.0258300911109
 20
2627.2726279959102
 30
0.0
 11
2695.6258300911109
 21
2675.8726279959092
 31
0.0
  0
LINE
  5
1BA0
  8
0
 62
     0
 10
2629.348160561447
 20
2627.2726279959102
 30
0.0
 11
2677.9481605614469
 21
2675.8726279959092
 31
0.0
  0
LINE
  5
1BA1
  8
0
 62
     0
 10
2611.670491031784
 20
2627.2726279959102
 30
0.0
 11
2660.270491031783
 21
2675.8726279959092
 31
0.0
  0
LINE
  5
1BA2
  8
0
 62
     0
 10
2593.9928215021209
 20
2627.2726279959102
 30
0.0
 11
2642.5928215021199
 21
2675.8726279959092
 31
0.0
  0
LINE
  5
1BA3
  8
0
 62
     0
 10
2576.315151972457
 20
2627.2726279959102
 30
0.0
 11
2624.915151972456
 21
2675.8726279959092
 31
0.0
  0
LINE
  5
1BA4
  8
0
 62
     0
 10
2558.637482442793
 20
2627.2726279959102
 30
0.0
 11
2607.237482442792
 21
2675.8726279959092
 31
0.0
  0
LINE
  5
1BA5
  8
0
 62
     0
 10
2540.95981291313
 20
2627.2726279959102
 30
0.0
 11
2589.5598129131281
 21
2675.8726279959092
 31
0.0
  0
LINE
  5
1BA6
  8
0
 62
     0
 10
2523.2821433834661
 20
2627.2726279959102
 30
0.0
 11
2571.8821433834651
 21
2675.8726279959092
 31
0.0
  0
LINE
  5
1BA7
  8
0
 62
     0
 10
2505.6044738538021
 20
2627.2726279959102
 30
0.0
 11
2554.2044738538011
 21
2675.8726279959092
 31
0.0
  0
LINE
  5
1BA8
  8
0
 62
     0
 10
2487.9268043241382
 20
2627.2726279959102
 30
0.0
 11
2536.5268043241372
 21
2675.8726279959092
 31
0.0
  0
LINE
  5
1BA9
  8
0
 62
     0
 10
2470.2491347944751
 20
2627.2726279959102
 30
0.0
 11
2518.8491347944741
 21
2675.8726279959092
 31
0.0
  0
LINE
  5
1BAA
  8
0
 62
     0
 10
2452.5714652648112
 20
2627.2726279959102
 30
0.0
 11
2501.1714652648102
 21
2675.8726279959092
 31
0.0
  0
LINE
  5
1BAB
  8
0
 62
     0
 10
2434.8937957351482
 20
2627.2726279959102
 30
0.0
 11
2483.4937957351458
 21
2675.8726279959092
 31
0.0
  0
LINE
  5
1BAC
  8
0
 62
     0
 10
2417.2161262054829
 20
2627.2726279959102
 30
0.0
 11
2465.8161262054832
 21
2675.8726279959092
 31
0.0
  0
LINE
  5
1BAD
  8
0
 62
     0
 10
2399.5384566758198
 20
2627.2726279959102
 30
0.0
 11
2448.1384566758188
 21
2675.8726279959092
 31
0.0
  0
LINE
  5
1BAE
  8
0
 62
     0
 10
2381.8607871461559
 20
2627.2726279959102
 30
0.0
 11
2430.4607871461549
 21
2675.8726279959092
 31
0.0
  0
LINE
  5
1BAF
  8
0
 62
     0
 10
2364.1831176164928
 20
2627.2726279959102
 30
0.0
 11
2412.7831176164918
 21
2675.8726279959092
 31
0.0
  0
LINE
  5
1BB0
  8
0
 62
     0
 10
2346.5054480868289
 20
2627.2726279959102
 30
0.0
 11
2395.1054480868279
 21
2675.8726279959092
 31
0.0
  0
LINE
  5
1BB1
  8
0
 62
     0
 10
2328.8277785571649
 20
2627.2726279959102
 30
0.0
 11
2377.4277785571639
 21
2675.8726279959092
 31
0.0
  0
LINE
  5
1BB2
  8
0
 62
     0
 10
2311.1501090275019
 20
2627.2726279959102
 30
0.0
 11
2359.7501090275009
 21
2675.8726279959092
 31
0.0
  0
LINE
  5
1BB3
  8
0
 62
     0
 10
2293.472439497838
 20
2627.2726279959102
 30
0.0
 11
2342.0724394978379
 21
2675.8726279959092
 31
0.0
  0
LINE
  5
1BB4
  8
0
 62
     0
 10
2275.794769968174
 20
2627.2726279959102
 30
0.0
 11
2324.3947699681739
 21
2675.8726279959092
 31
0.0
  0
LINE
  5
1BB5
  8
0
 62
     0
 10
2258.1171004385101
 20
2627.2726279959102
 30
0.0
 11
2306.71710043851
 21
2675.8726279959092
 31
0.0
  0
LINE
  5
1BB6
  8
0
 62
     0
 10
2240.439430908847
 20
2627.2726279959102
 30
0.0
 11
2289.039430908846
 21
2675.8726279959092
 31
0.0
  0
LINE
  5
1BB7
  8
0
 62
     0
 10
2222.7617613791831
 20
2627.2726279959102
 30
0.0
 11
2271.3617613791821
 21
2675.8726279959092
 31
0.0
  0
LINE
  5
1BB8
  8
0
 62
     0
 10
2205.0840918495192
 20
2627.2726279959102
 30
0.0
 11
2253.6840918495191
 21
2675.8726279959092
 31
0.0
  0
LINE
  5
1BB9
  8
0
 62
     0
 10
2187.4064223198552
 20
2627.2726279959102
 30
0.0
 11
2236.006422319856
 21
2675.8726279959101
 31
0.0
  0
LINE
  5
1BBA
  8
0
 62
     0
 10
2169.7287527901922
 20
2627.2726279959102
 30
0.0
 11
2218.3287527901921
 21
2675.8726279959092
 31
0.0
  0
LINE
  5
1BBB
  8
0
 62
     0
 10
2152.0510832605278
 20
2627.2726279959102
 30
0.0
 11
2200.6510832605281
 21
2675.8726279959101
 31
0.0
  0
LINE
  5
1BBC
  8
0
 62
     0
 10
2134.3734137308638
 20
2627.2726279959102
 30
0.0
 11
2182.9734137308642
 21
2675.8726279959092
 31
0.0
  0
LINE
  5
1BBD
  8
0
 62
     0
 10
2116.6957442012008
 20
2627.2726279959102
 30
0.0
 11
2165.2957442012012
 21
2675.8726279959101
 31
0.0
  0
LINE
  5
1BBE
  8
0
 62
     0
 10
2099.0180746715369
 20
2627.2726279959102
 30
0.0
 11
2147.6180746715372
 21
2675.8726279959092
 31
0.0
  0
LINE
  5
1BBF
  8
0
 62
     0
 10
2081.3404051418729
 20
2627.2726279959102
 30
0.0
 11
2129.9404051418728
 21
2675.8726279959101
 31
0.0
  0
LINE
  5
1BC0
  8
0
 62
     0
 10
2063.6627356122099
 20
2627.2726279959102
 30
0.0
 11
2112.2627356122098
 21
2675.8726279959092
 31
0.0
  0
LINE
  5
1BC1
  8
0
 62
     0
 10
2045.9850660825459
 20
2627.2726279959102
 30
0.0
 11
2094.5850660825458
 21
2675.8726279959101
 31
0.0
  0
LINE
  5
1BC2
  8
0
 62
     0
 10
2028.307396552882
 20
2627.2726279959102
 30
0.0
 11
2076.9073965528828
 21
2675.8726279959101
 31
0.0
  0
LINE
  5
1BC3
  8
0
 62
     0
 10
2010.6297270232189
 20
2627.2726279959102
 30
0.0
 11
2059.2297270232189
 21
2675.8726279959101
 31
0.0
  0
LINE
  5
1BC4
  8
0
 62
     0
 10
1992.952057493555
 20
2627.2726279959102
 30
0.0
 11
2041.5520574935549
 21
2675.8726279959101
 31
0.0
  0
LINE
  5
1BC5
  8
0
 62
     0
 10
1975.2743879638911
 20
2627.2726279959102
 30
0.0
 11
2023.8743879638921
 21
2675.8726279959101
 31
0.0
  0
LINE
  5
1BC6
  8
0
 62
     0
 10
1957.5967184342269
 20
2627.2726279959102
 30
0.0
 11
2006.1967184342279
 21
2675.8726279959101
 31
0.0
  0
LINE
  5
1BC7
  8
0
 62
     0
 10
1939.9190489045629
 20
2627.2726279959102
 30
0.0
 11
1988.519048904564
 21
2675.8726279959101
 31
0.0
  0
LINE
  5
1BC8
  8
0
 62
     0
 10
1922.2413793748999
 20
2627.2726279959102
 30
0.0
 11
1970.8413793749
 21
2675.872627995911
 31
0.0
  0
LINE
  5
1BC9
  8
0
 62
     0
 10
1904.563709845236
 20
2627.2726279959102
 30
0.0
 11
1953.163709845237
 21
2675.8726279959101
 31
0.0
  0
LINE
  5
1BCA
  8
0
 62
     0
 10
1886.8860403155729
 20
2627.2726279959102
 30
0.0
 11
1935.4860403155731
 21
2675.872627995911
 31
0.0
  0
LINE
  5
1BCB
  8
0
 62
     0
 10
1869.208370785909
 20
2627.2726279959102
 30
0.0
 11
1917.80837078591
 21
2675.872627995911
 31
0.0
  0
LINE
  5
1BCC
  8
0
 62
     0
 10
1851.530701256245
 20
2627.2726279959102
 30
0.0
 11
1900.1307012562461
 21
2675.872627995911
 31
0.0
  0
LINE
  5
1BCD
  8
0
 62
     0
 10
1833.8530317265811
 20
2627.2726279959102
 30
0.0
 11
1882.4530317265819
 21
2675.872627995911
 31
0.0
  0
LINE
  5
1BCE
  8
0
 62
     0
 10
1816.1753621969181
 20
2627.2726279959102
 30
0.0
 11
1864.7753621969191
 21
2675.872627995911
 31
0.0
  0
LINE
  5
1BCF
  8
0
 62
     0
 10
1798.4976926672539
 20
2627.2726279959102
 30
0.0
 11
1847.0976926672549
 21
2675.872627995911
 31
0.0
  0
LINE
  5
1BD0
  8
0
 62
     0
 10
1780.8200231375899
 20
2627.2726279959102
 30
0.0
 11
1829.4200231375919
 21
2675.872627995911
 31
0.0
  0
LINE
  5
1BD1
  8
0
 62
     0
 10
1763.1423536079269
 20
2627.2726279959102
 30
0.0
 11
1811.742353607928
 21
2675.872627995911
 31
0.0
  0
LINE
  5
1BD2
  8
0
 62
     0
 10
1745.464684078263
 20
2627.2726279959102
 30
0.0
 11
1794.064684078264
 21
2675.872627995911
 31
0.0
  0
LINE
  5
1BD3
  8
0
 62
     0
 10
1727.7870145485999
 20
2627.2726279959102
 30
0.0
 11
1776.3870145486001
 21
2675.872627995911
 31
0.0
  0
LINE
  5
1BD4
  8
0
 62
     0
 10
1710.109345018936
 20
2627.2726279959102
 30
0.0
 11
1758.709345018937
 21
2675.872627995911
 31
0.0
  0
LINE
  5
1BD5
  8
0
 62
     0
 10
1692.431675489272
 20
2627.2726279959102
 30
0.0
 11
1741.0316754892731
 21
2675.872627995911
 31
0.0
  0
LINE
  5
1BD6
  8
0
 62
     0
 10
1674.7540059596081
 20
2627.2726279959102
 30
0.0
 11
1723.3540059596089
 21
2675.872627995911
 31
0.0
  0
LINE
  5
1BD7
  8
0
 62
     0
 10
1657.0763364299439
 20
2627.2726279959102
 30
0.0
 11
1705.6763364299461
 21
2675.872627995911
 31
0.0
  0
LINE
  5
1BD8
  8
0
 62
     0
 10
1639.3986669002809
 20
2627.2726279959102
 30
0.0
 11
1687.9986669002819
 21
2675.872627995911
 31
0.0
  0
LINE
  5
1BD9
  8
0
 62
     0
 10
1621.7209973706169
 20
2627.2726279959102
 30
0.0
 11
1670.3209973706189
 21
2675.872627995911
 31
0.0
  0
LINE
  5
1BDA
  8
0
 62
     0
 10
1604.0433278409539
 20
2627.2726279959102
 30
0.0
 11
1652.643327840955
 21
2675.872627995911
 31
0.0
  0
LINE
  5
1BDB
  8
0
 62
     0
 10
1596.7125721558241
 20
2637.6195418404441
 30
0.0
 11
1634.965658311291
 21
2675.872627995911
 31
0.0
  0
LINE
  5
1BDC
  8
0
 62
     0
 10
1596.712572155825
 20
2655.297211370108
 30
0.0
 11
1617.287988781628
 21
2675.872627995911
 31
0.0
  0
LINE
  5
1BDD
  8
0
 62
     0
 10
1596.7125721558241
 20
2672.974880899772
 30
0.0
 11
1599.610319251964
 21
2675.872627995911
 31
0.0
  0
ENDBLK
  5
1BDF
  8
0
  0
BLOCK
  8
0
  2
*U18
 70
     1
 10
0.0
 20
0.0
 30
0.0
  3
*U18
  1

  0
SOLID
  5
1BE1
  8
MOJI
 10
-2982.3141231634099
 20
2347.7052150981472
 30
0.0
 11
-2962.9668612894502
 21
2371.1718607463949
 31
0.0
 12
-2973.6575212302509
 22
2342.698894795687
 32
0.0
 13
-2973.6575212302509
 23
2342.698894795687
 33
0.0
210
0.0
220
0.0
230
-1.0
  0
POLYLINE
  5
1BE2
  8
MOJI
 66
     1
 10
0.0
 20
0.0
 30
0.0
210
0.0
220
0.0
230
-1.0
  0
VERTEX
  5
1BE3
  8
MOJI
 10
-2977.9858221968302
 20
2345.2020549469171
 30
0.0
  0
VERTEX
  5
1BE4
  8
MOJI
 10
-3059.4358496801551
 20
2204.363989707354
 30
0.0
  0
SEQEND
  5
1BE5
  8
MOJI
  0
ENDBLK
  5
1BE7
  8
0
  0
BLOCK
  8
0
  2
*U19
 70
     1
 10
0.0
 20
0.0
 30
0.0
  3
*U19
  1

  0
TEXT
  5
1BE9
  8
MOJI
 10
3080.8990819897758
 20
2220.0636384588202
 30
0.0
 40
45.0
  1
セイフティグリーン
 41
0.8
  7
EXT08
  0
ENDBLK
  5
1BEB
  8
0
  0
BLOCK
  8
0
  2
*U20
 70
     1
 10
0.0
 20
0.0
 30
0.0
  3
*U20
  1

  0
SOLID
  5
1BED
  8
MOJI
 10
-2891.245318429897
 20
2852.269810180162
 30
0.0
 11
-2871.7357038471591
 21
2875.6016540599971
 31
0.0
 12
-2882.6236601670998
 22
2847.2035483630489
 32
0.0
 13
-2882.6236601670998
 23
2847.2035483630489
 33
0.0
210
0.0
220
0.0
230
-1.0
  0
POLYLINE
  5
1BEE
  8
MOJI
 66
     1
 10
0.0
 20
0.0
 30
0.0
210
0.0
220
0.0
230
-1.0
  0
VERTEX
  5
1BEF
  8
MOJI
 10
-2886.9344892984991
 20
2849.7366792716052
 30
0.0
  0
VERTEX
  5
1BF0
  8
MOJI
 10
-2949.1205133939029
 20
2743.9098057646629
 30
0.0
  0
SEQEND
  5
1BF1
  8
MOJI
  0
ENDBLK
  5
1BF3
  8
0
  0
BLOCK
  8
0
  2
*U21
 70
     1
 10
0.0
 20
0.0
 30
0.0
  3
*U21
  1

  0
TEXT
  5
1BF5
  8
MOJI
 10
2970.5837457035241
 20
2759.6094545161291
 30
0.0
 40
45.0
  1
ホワイト１０
 41
0.8
  7
EXT08
  0
ENDBLK
  5
1BF7
  8
0
  0
ENDSEC
  0
SECTION
  2
ENTITIES
  0
INSERT
  5
FD
  8
ZWAKU
  2
SEIKO_LS-1100A3
 10
0.0
 20
0.0
 30
0.0
 41
15.0
 42
15.0
 43
15.0
  0
TEXT
  5
FF
  8
INFORMATION
 10
1.0
 20
2.0
 30
0.0
 40
0.8
  1
PLOTTER=SEIKO_LS-1100
  0
TEXT
  5
100
  8
INFORMATION
 10
1.0
 20
3.0
 30
0.0
 40
0.8
  1
PAPER=A3
  0
TEXT
  5
2DB
  8
MOJI2
 10
1178.6697887628541
 20
3437.4066244678738
 30
0.0
 40
60.0
  1
設置図
 41
0.8
  7
KANJI08
  0
TEXT
  5
2DC
  8
MOJI
 10
2387.0284306776011
 20
2226.220229472814
 30
0.0
 40
45.0
  1
ビームパイプ %%C48.6×t3.2
 41
0.8
  7
EXT08
  0
TEXT
  5
2DD
  8
MOJI
 10
2398.9317716861019
 20
2730.8822830162958
 30
0.0
 40
45.0
  1
主柱 %%C76.3×t3.2
 41
0.8
  7
EXT08
  0
LINE
  5
2DE
  8
MOJI
 10
2357.5350625784922
 20
2710.8822830162958
 30
0.0
 11
2805.2977552532338
 21
2710.8822830162958
 31
0.0
  0
TEXT
  5
2FB
  8
MOJI
 10
1144.7323953518239
 20
2171.897519440678
 30
0.0
 40
45.0
  1
GL
 41
0.8
  7
KANJI08
  0
LINE
  5
307
  8
MOJI2
 10
1158.3298452552949
 20
3423.4977258410381
 30
0.0
 11
1352.5525959271961
 21
3423.4977258410381
 31
0.0
  0
LINE
  5
308
  8
MOJI
 10
2357.5350625784922
 20
2204.9822830162939
 30
0.0
 11
2970.3729793056582
 21
2204.9822830162939
 31
0.0
  0
LINE
  5
30D
  8
SJC
 10
1126.1739062937299
 20
2151.572627995909
 30
0.0
 11
1498.562572155826
 21
2151.572627995909
 31
0.0
1001
ACAD
1000
ASC_BOUNDS
1002
{
1070
    19
1002
}
  0
LINE
  5
30E
  8
MOJI2
 10
1158.3298452552949
 20
3408.4977258410381
 30
0.0
 11
1352.5525959271961
 21
3408.4977258410381
 31
0.0
  0
LINE
  5
30F
  8
CENTER
 10
1536.7125721558259
 20
2713.4226279959089
 30
0.0
 11
1536.7125721558259
 21
1451.5726279959081
 31
0.0
  0
LINE
  5
310
  8
CENTER
 10
1736.7125721558259
 20
2913.4226279959089
 30
0.0
 11
3336.7125721558259
 21
2913.4226279959089
 31
0.0
  0
LINE
  5
312
  8
CENTER
 10
3536.7125721558259
 20
2713.4226279959089
 30
0.0
 11
3536.7125721558259
 21
1451.5726279959081
 31
0.0
  0
DIMENSION
  5
314
  8
SUNPOU
  2
*D5
 10
3536.7125721558259
 20
3183.0425213434009
 30
0.0
 11
2536.7125721558259
 21
3223.5425213434009
 31
0.0
 70
     0
 13
1536.7125721558259
 23
2713.4226279959089
 33
0.0
 14
3536.7125721558259
 24
2713.4226279959089
 34
0.0
1001
ACAD
1000
DSTYLE
1002
{
1070
   287
1070
     5
1070
    40
1040
15.0
1070
    41
1040
2.0
1070
    42
1040
1.0
1070
    43
1040
6.0
1070
    44
1040
1.0
1070
    73
1070
     0
1070
    74
1070
     0
1070
    77
1070
     1
1070
    78
1070
     8
1070
   140
1040
3.0
1070
   147
1040
1.1999999999999991
1070
   172
1070
     1
1070
   176
1070
   256
1070
   177
1070
   256
1070
   178
1070
   256
1070
   271
1070
     1
1070
   275
1070
     1
1070
   279
1070
     2
1070
   340
1005
11F
1002
}
  0
LINE
  5
317
  8
SJC
 10
1286.5766120342739
 20
1551.572627995909
 30
0.0
 11
1786.8485322773779
 21
1551.572627995909
 31
0.0
1001
ACAD
1000
ASC_BOUNDS
1002
{
1070
    19
1005
0
1002
}
  0
LINE
  5
318
  8
SJC
 10
1574.862572155826
 20
2151.572627995909
 30
0.0
 11
3498.5625721558258
 21
2151.572627995909
 31
0.0
1001
ACAD
1000
ASC_BOUNDS
1002
{
1070
    19
1002
}
  0
INSERT
  5
31B
  8
SUNPOU
  2
B0040021
 10
2231.8454199457701
 20
2151.572627995909
 30
0.0
  0
LINE
  5
31C
  8
SJC
 10
1286.5766120342739
 20
1501.5726279959081
 30
0.0
 11
1786.8485322773779
 21
1501.5726279959081
 31
0.0
  0
POLYLINE
  5
31D
  8
HATCH
 66
     1
 10
0.0
 20
0.0
 30
0.0
 70
     3
  0
VERTEX
  5
31E
  8
HATCH
 10
1366.5766120342739
 20
1526.5726279959081
 30
0.0
 42
-0.1703036214138359
  0
VERTEX
  5
31F
  8
HATCH
 10
1373.0688014406919
 20
1545.080438589491
 30
0.0
 42
-0.2278377915826702
 70
     1
  0
VERTEX
  5
320
  8
HATCH
 10
1386.5766120342739
 20
1551.5726279959081
 30
0.0
 42
-0.2278377915826684
  0
VERTEX
  5
321
  8
HATCH
 10
1400.0844226278559
 20
1545.080438589491
 30
0.0
 42
-0.1703036214138354
 70
     1
  0
VERTEX
  5
322
  8
HATCH
 10
1406.5766120342739
 20
1526.5726279959081
 30
0.0
 42
-0.1703036214138303
  0
VERTEX
  5
323
  8
HATCH
 10
1400.0844226278559
 20
1508.0648174023261
 30
0.0
 42
-0.2278377915826667
 70
     1
  0
VERTEX
  5
324
  8
HATCH
 10
1386.5766120342739
 20
1501.5726279959081
 30
0.0
 42
-0.2278377915826721
  0
VERTEX
  5
325
  8
HATCH
 10
1373.068801440691
 20
1508.064817402327
 30
0.0
 42
-0.1703036214138317
 70
     1
  0
SEQEND
  5
326
  8
HATCH
  0
POLYLINE
  5
327
  8
HATCH
 66
     1
 10
0.0
 20
0.0
 30
0.0
 70
     3
  0
VERTEX
  5
328
  8
HATCH
 10
1326.5766120342739
 20
1526.5726279959081
 30
0.0
 42
-0.1703036214138359
  0
VERTEX
  5
329
  8
HATCH
 10
1333.0688014406919
 20
1545.080438589491
 30
0.0
 42
-0.2278377915826702
 70
     1
  0
VERTEX
  5
32A
  8
HATCH
 10
1346.5766120342739
 20
1551.5726279959081
 30
0.0
 42
-0.2278377915826684
  0
VERTEX
  5
32B
  8
HATCH
 10
1360.0844226278559
 20
1545.080438589491
 30
0.0
 42
-0.1703036214138354
 70
     1
  0
VERTEX
  5
32C
  8
HATCH
 10
1366.5766120342739
 20
1526.5726279959081
 30
0.0
 42
-0.1703036214138303
  0
VERTEX
  5
32D
  8
HATCH
 10
1360.0844226278571
 20
1508.0648174023261
 30
0.0
 42
-0.2278377915826667
 70
     1
  0
VERTEX
  5
32E
  8
HATCH
 10
1346.5766120342739
 20
1501.5726279959081
 30
0.0
 42
-0.2278377915826721
  0
VERTEX
  5
32F
  8
HATCH
 10
1333.068801440691
 20
1508.064817402327
 30
0.0
 42
-0.1703036214138317
 70
     1
  0
SEQEND
  5
330
  8
HATCH
  0
POLYLINE
  5
331
  8
HATCH
 66
     1
 10
0.0
 20
0.0
 30
0.0
 70
     3
  0
VERTEX
  5
332
  8
HATCH
 10
1286.5766120342739
 20
1526.5726279959081
 30
0.0
 42
-0.1703036214138359
  0
VERTEX
  5
333
  8
HATCH
 10
1293.0688014406919
 20
1545.080438589491
 30
0.0
 42
-0.2278377915826702
 70
     1
  0
VERTEX
  5
334
  8
HATCH
 10
1306.5766120342739
 20
1551.5726279959081
 30
0.0
 42
-0.2278377915826684
  0
VERTEX
  5
335
  8
HATCH
 10
1320.0844226278559
 20
1545.080438589491
 30
0.0
 42
-0.1703036214138354
 70
     1
  0
VERTEX
  5
336
  8
HATCH
 10
1326.5766120342739
 20
1526.5726279959081
 30
0.0
 42
-0.1703036214138303
  0
VERTEX
  5
337
  8
HATCH
 10
1320.0844226278571
 20
1508.0648174023261
 30
0.0
 42
-0.2278377915826667
 70
     1
  0
VERTEX
  5
338
  8
HATCH
 10
1306.5766120342739
 20
1501.5726279959081
 30
0.0
 42
-0.2278377915826721
  0
VERTEX
  5
339
  8
HATCH
 10
1293.068801440691
 20
1508.064817402327
 30
0.0
 42
-0.1703036214138317
 70
     1
  0
SEQEND
  5
33A
  8
HATCH
  0
LINE
  5
33B
  8
SJC
 10
1286.5766120342739
 20
1501.5726279959081
 30
0.0
 11
1286.5766120342739
 21
1551.5726279959081
 31
0.0
  0
POLYLINE
  5
346
  8
HATCH
 66
     1
 10
0.0
 20
0.0
 30
0.0
 70
     3
  0
VERTEX
  5
347
  8
HATCH
 10
1706.8485322773779
 20
1526.5726279959081
 30
0.0
 42
-0.1703036214138359
  0
VERTEX
  5
348
  8
HATCH
 10
1713.3407216837959
 20
1545.080438589491
 30
0.0
 42
-0.2278377915826702
 70
     1
  0
VERTEX
  5
349
  8
HATCH
 10
1726.8485322773779
 20
1551.5726279959081
 30
0.0
 42
-0.2278377915826684
  0
VERTEX
  5
34A
  8
HATCH
 10
1740.3563428709599
 20
1545.080438589491
 30
0.0
 42
-0.1703036214138354
 70
     1
  0
VERTEX
  5
34B
  8
HATCH
 10
1746.8485322773779
 20
1526.5726279959081
 30
0.0
 42
-0.1703036214138303
  0
VERTEX
  5
34C
  8
HATCH
 10
1740.356342870961
 20
1508.0648174023261
 30
0.0
 42
-0.2278377915826667
 70
     1
  0
VERTEX
  5
34D
  8
HATCH
 10
1726.8485322773779
 20
1501.5726279959081
 30
0.0
 42
-0.2278377915826721
  0
VERTEX
  5
34E
  8
HATCH
 10
1713.340721683795
 20
1508.064817402327
 30
0.0
 42
-0.1703036214138317
 70
     1
  0
SEQEND
  5
34F
  8
HATCH
  0
POLYLINE
  5
350
  8
HATCH
 66
     1
 10
0.0
 20
0.0
 30
0.0
 70
     3
  0
VERTEX
  5
351
  8
HATCH
 10
1406.5766120342739
 20
1526.5726279959081
 30
0.0
 42
-0.1703036214138359
  0
VERTEX
  5
352
  8
HATCH
 10
1413.0688014406919
 20
1545.080438589491
 30
0.0
 42
-0.2278377915826702
 70
     1
  0
VERTEX
  5
353
  8
HATCH
 10
1426.5766120342739
 20
1551.5726279959081
 30
0.0
 42
-0.2278377915826684
  0
VERTEX
  5
354
  8
HATCH
 10
1440.0844226278559
 20
1545.080438589491
 30
0.0
 42
-0.1703036214138354
 70
     1
  0
VERTEX
  5
355
  8
HATCH
 10
1446.5766120342739
 20
1526.5726279959081
 30
0.0
 42
-0.1703036214138303
  0
VERTEX
  5
356
  8
HATCH
 10
1440.0844226278571
 20
1508.0648174023261
 30
0.0
 42
-0.2278377915826667
 70
     1
  0
VERTEX
  5
357
  8
HATCH
 10
1426.5766120342739
 20
1501.5726279959081
 30
0.0
 42
-0.2278377915826721
  0
VERTEX
  5
358
  8
HATCH
 10
1413.068801440691
 20
1508.064817402327
 30
0.0
 42
-0.1703036214138317
 70
     1
  0
SEQEND
  5
359
  8
HATCH
  0
POLYLINE
  5
35A
  8
HATCH
 66
     1
 10
0.0
 20
0.0
 30
0.0
 70
     3
  0
VERTEX
  5
35B
  8
HATCH
 10
1626.8485322773779
 20
1526.5726279959081
 30
0.0
 42
-0.1703036214138359
  0
VERTEX
  5
35C
  8
HATCH
 10
1633.3407216837959
 20
1545.080438589491
 30
0.0
 42
-0.2278377915826702
 70
     1
  0
VERTEX
  5
35D
  8
HATCH
 10
1646.8485322773779
 20
1551.5726279959081
 30
0.0
 42
-0.2278377915826684
  0
VERTEX
  5
35E
  8
HATCH
 10
1660.3563428709599
 20
1545.080438589491
 30
0.0
 42
-0.1703036214138354
 70
     1
  0
VERTEX
  5
35F
  8
HATCH
 10
1666.8485322773779
 20
1526.5726279959081
 30
0.0
 42
-0.1703036214138303
  0
VERTEX
  5
360
  8
HATCH
 10
1660.356342870961
 20
1508.0648174023261
 30
0.0
 42
-0.2278377915826667
 70
     1
  0
VERTEX
  5
361
  8
HATCH
 10
1646.8485322773779
 20
1501.5726279959081
 30
0.0
 42
-0.2278377915826721
  0
VERTEX
  5
362
  8
HATCH
 10
1633.340721683795
 20
1508.064817402327
 30
0.0
 42
-0.1703036214138317
 70
     1
  0
SEQEND
  5
363
  8
HATCH
  0
POLYLINE
  5
364
  8
HATCH
 66
     1
 10
0.0
 20
0.0
 30
0.0
 70
     3
  0
VERTEX
  5
365
  8
HATCH
 10
1666.8485322773779
 20
1526.5726279959081
 30
0.0
 42
-0.1703036214138359
  0
VERTEX
  5
366
  8
HATCH
 10
1673.3407216837959
 20
1545.080438589491
 30
0.0
 42
-0.2278377915826702
 70
     1
  0
VERTEX
  5
367
  8
HATCH
 10
1686.8485322773779
 20
1551.5726279959081
 30
0.0
 42
-0.2278377915826684
  0
VERTEX
  5
368
  8
HATCH
 10
1700.3563428709599
 20
1545.080438589491
 30
0.0
 42
-0.1703036214138354
 70
     1
  0
VERTEX
  5
369
  8
HATCH
 10
1706.8485322773779
 20
1526.5726279959081
 30
0.0
 42
-0.1703036214138303
  0
VERTEX
  5
36A
  8
HATCH
 10
1700.356342870961
 20
1508.0648174023261
 30
0.0
 42
-0.2278377915826667
 70
     1
  0
VERTEX
  5
36B
  8
HATCH
 10
1686.8485322773779
 20
1501.5726279959081
 30
0.0
 42
-0.2278377915826721
  0
VERTEX
  5
36C
  8
HATCH
 10
1673.340721683795
 20
1508.064817402327
 30
0.0
 42
-0.1703036214138317
 70
     1
  0
SEQEND
  5
36D
  8
HATCH
  0
LINE
  5
36E
  8
SJC
 10
1786.848532277377
 20
1501.5726279959081
 30
0.0
 11
1786.848532277377
 21
1551.5726279959081
 31
0.0
  0
POLYLINE
  5
379
  8
HATCH
 66
     1
 10
0.0
 20
0.0
 30
0.0
 70
     3
  0
VERTEX
  5
37A
  8
HATCH
 10
1746.848532277377
 20
1526.5726279959081
 30
0.0
 42
-0.1703036214138359
  0
VERTEX
  5
37B
  8
HATCH
 10
1753.3407216837959
 20
1545.080438589491
 30
0.0
 42
-0.2278377915826702
 70
     1
  0
VERTEX
  5
37C
  8
HATCH
 10
1766.848532277377
 20
1551.5726279959081
 30
0.0
 42
-0.2278377915826684
  0
VERTEX
  5
37D
  8
HATCH
 10
1780.356342870959
 20
1545.080438589491
 30
0.0
 42
-0.1703036214138354
 70
     1
  0
VERTEX
  5
37E
  8
HATCH
 10
1786.848532277377
 20
1526.5726279959081
 30
0.0
 42
-0.1703036214138303
  0
VERTEX
  5
37F
  8
HATCH
 10
1780.3563428709599
 20
1508.0648174023261
 30
0.0
 42
-0.2278377915826667
 70
     1
  0
VERTEX
  5
380
  8
HATCH
 10
1766.848532277377
 20
1501.5726279959081
 30
0.0
 42
-0.2278377915826721
  0
VERTEX
  5
381
  8
HATCH
 10
1753.340721683795
 20
1508.064817402327
 30
0.0
 42
-0.1703036214138317
 70
     1
  0
SEQEND
  5
382
  8
HATCH
  0
LINE
  5
3ED
  8
SJC
 10
3574.862572155826
 20
2151.572627995909
 30
0.0
 11
3947.270948427632
 21
2151.572627995909
 31
0.0
1001
ACAD
1000
ASC_BOUNDS
1002
{
1070
    19
1005
0
1002
}
  0
DIMENSION
  5
3EF
  8
SUNPOU
  2
*D6
 10
1039.952722366379
 20
2151.572627995909
 30
0.0
 11
999.45272236637845
 21
1851.572627995909
 31
0.0
 70
     0
 13
1286.5766120342739
 23
1551.572627995909
 33
0.0
 14
1126.1739062937299
 24
2151.572627995909
 34
0.0
 50
90.0
1001
ACAD
1000
DSTYLE
1002
{
1070
   287
1070
     5
1070
    40
1040
15.0
1070
    41
1040
2.0
1070
    42
1040
1.0
1070
    43
1040
6.0
1070
    44
1040
1.0
1070
    73
1070
     0
1070
    74
1070
     0
1070
    77
1070
     1
1070
    78
1070
     8
1070
   140
1040
3.0
1070
   147
1040
1.1999999999999991
1070
   172
1070
     1
1070
   176
1070
   256
1070
   177
1070
   256
1070
   178
1070
   256
1070
   271
1070
     1
1070
   275
1070
     1
1070
   279
1070
     2
1070
   340
1005
11F
1002
}
  0
LINE
  5
3F2
  8
SJC
 10
1736.7125721558259
 20
2951.572627995909
 30
0.0
 11
3336.7125721558259
 21
2951.572627995909
 31
0.0
  0
LINE
  5
3F3
  8
SJC
 10
1736.7125721558259
 20
2875.2726279959088
 30
0.0
 11
3336.7125721558259
 21
2875.2726279959088
 31
0.0
  0
LINE
  5
3F6
  8
SJC
 10
3498.5625721558258
 20
2713.4226279959089
 30
0.0
 11
3498.5625721558258
 21
2675.8726279959092
 31
0.0
  0
LINE
  5
3F7
  8
SJC
 10
3574.862572155826
 20
2713.4226279959089
 30
0.0
 11
3574.862572155826
 21
1551.572627995909
 31
0.0
  0
LINE
  5
3F8
  8
SJC
 10
1574.862572155826
 20
2713.4226279959098
 30
0.0
 11
1574.862572155826
 21
2675.8726279959092
 31
0.0
1001
ACAD
1000
ASC_BOUNDS
1002
{
1070
    19
1002
}
  0
LINE
  5
3F9
  8
SJC
 10
1498.562572155826
 20
2713.4226279959089
 30
0.0
 11
1498.562572155826
 21
1551.572627995909
 31
0.0
1001
ACAD
1000
ASC_BOUNDS
1002
{
1070
    19
1002
}
  0
DIMENSION
  5
3FC
  8
SUNPOU
  2
*D7
 10
4033.4724219452728
 20
2951.572627995909
 30
0.0
 11
3992.9724219452719
 21
2801.5726279959099
 31
0.0
 70
     0
 13
3536.7125721558259
 23
2651.5726279959099
 33
0.0
 14
3336.7125721558259
 24
2951.572627995909
 34
0.0
 50
90.0
1001
ACAD
1000
DSTYLE
1002
{
1070
   287
1070
     5
1070
    40
1040
15.0
1070
    41
1040
2.0
1070
    42
1040
1.0
1070
    43
1040
6.0
1070
    44
1040
1.0
1070
    73
1070
     0
1070
    74
1070
     0
1070
    77
1070
     1
1070
    78
1070
     8
1070
   140
1040
3.0
1070
   147
1040
1.1999999999999991
1070
   172
1070
     1
1070
   176
1070
   256
1070
   177
1070
   256
1070
   178
1070
   256
1070
   271
1070
     1
1070
   275
1070
     1
1070
   279
1070
     2
1070
   340
1005
11F
1002
}
  0
DIMENSION
  5
3FD
  8
SUNPOU
  2
*D8
 10
873.86283988258947
 20
2951.5726279959099
 30
0.0
 11
833.36283988258879
 21
2251.572627995909
 31
0.0
 70
     0
 13
1286.5766120342739
 23
1551.5726279959081
 33
0.0
 14
1696.7125721558259
 24
2951.572627995909
 34
0.0
 50
90.0
1001
ACAD
1000
DSTYLE
1002
{
1070
   287
1070
     5
1070
    40
1040
15.0
1070
    41
1040
2.0
1070
    42
1040
1.0
1070
    43
1040
6.0
1070
    44
1040
1.0
1070
    73
1070
     0
1070
    74
1070
     0
1070
    77
1070
     1
1070
    78
1070
     8
1070
   140
1040
3.0
1070
   147
1040
1.1999999999999991
1070
   172
1070
     1
1070
   176
1070
   256
1070
   177
1070
   256
1070
   178
1070
   256
1070
   271
1070
     1
1070
   275
1070
     1
1070
   279
1070
     2
1070
   340
1005
11F
1002
}
  0
SOLID
  5
400
  8
MOJI
  6
CONTINUOUS
 10
2307.2897174071832
 20
2845.2369777986692
 30
0.0
 11
2316.7725670028271
 21
2848.4111806192818
 31
0.0
 12
2302.508533743166
 22
2875.2726279959088
 32
0.0
 13
2302.508533743166
 23
2875.2726279959088
 33
0.0
  0
LINE
  5
401
  8
MOJI
  6
CONTINUOUS
 10
2312.0311422050049
 20
2846.8240792089759
 30
0.0
 11
2357.5350625784922
 21
2710.8822830162958
 31
0.0
  0
LINE
  5
402
  8
MOJI
  6
CONTINUOUS
 10
2217.0996779825259
 20
2627.2726279959088
 30
0.0
 11
2357.5350625784922
 21
2204.9822830162939
 31
0.0
  0
SOLID
  5
403
  8
MOJI
  6
CONTINUOUS
 10
2304.645343263111
 20
2347.2369777986678
 30
0.0
 11
2314.1281928587559
 21
2350.4111806192809
 31
0.0
 12
2299.8641595990948
 22
2377.2726279959079
 32
0.0
 13
2299.8641595990948
 23
2377.2726279959079
 33
0.0
  0
LINE
  5
405
  8
SJC
 10
1574.8625721558251
 20
2627.272627995882
 30
0.0
 11
1574.8625721558251
 21
2425.8726279959092
 31
0.0
1001
ACAD
1000
ASC_BOUNDS
1002
{
1070
    19
1005
3FE
1002
}
  0
LINE
  5
408
  8
SJC
 10
3498.5625721558258
 20
2627.272627995882
 30
0.0
 11
3498.5625721558258
 21
2425.8726279959092
 31
0.0
  0
TEXT
  5
4B6
  8
INFORMATION
 10
1.0
 20
1.0
 30
0.0
 40
0.8
  1
VERSION=3.0
  0
ARC
  5
4B7
  8
CENTER
 10
1736.7125721558259
 20
2713.4226279959089
 30
0.0
 40
200.0
 50
90.0
 51
180.0
  0
ARC
  5
4C0
  8
SJC
 10
1736.7125721558259
 20
2713.4226279959089
 30
0.0
 40
161.84999999999999
 50
90.0
 51
180.0
  0
ARC
  5
4C1
  8
SJC
 10
1736.7125721558259
 20
2713.4226279959089
 30
0.0
 40
238.15000000000001
 50
90.0
 51
180.0
  0
ARC
  5
4EF
  8
CENTER
 10
3336.7125721558259
 20
2713.4226279959089
 30
0.0
 40
200.0
 50
0.000000000000007
 51
90.0
  0
ARC
  5
4F0
  8
SJC
 10
3336.7125721558259
 20
2713.4226279959089
 30
0.0
 40
238.15000000000001
 50
0.000000000000007
 51
90.0
  0
ARC
  5
4F1
  8
SJC
 10
3336.7125721558259
 20
2713.4226279959089
 30
0.0
 40
161.84999999999999
 50
0.000000000000007
 51
90.0
  0
DIMENSION
  5
501
  8
SUNPOU
  2
*D9
 10
1736.712572155827
 20
2713.4226279959098
 30
0.0
 11
1723.170272333839
 21
2790.6945941200211
 31
0.0
 70
   132
 15
1593.7730577755301
 25
2853.3093508423799
 35
0.0
 40
0.0
1001
ACAD
1000
DSTYLE
1002
{
1070
   287
1070
     5
1070
    40
1040
15.0
1070
    41
1040
2.0
1070
    42
1040
1.0
1070
    43
1040
6.0
1070
    44
1040
1.0
1070
    73
1070
     0
1070
    74
1070
     0
1070
    77
1070
     1
1070
    78
1070
     8
1070
   140
1040
3.0
1070
   147
1040
1.1999999999999991
1070
   172
1070
     1
1070
   179
1070
     2
1070
   271
1070
     2
1070
   279
1070
     2
1070
   288
1070
     1
1070
   340
1005
11D
1002
}
  0
LINE
  5
531
  8
SJC
 10
1574.862572155826
 20
2675.8726279959092
 30
0.0
 11
3498.5625721558258
 21
2675.8726279959092
 31
0.0
  0
LINE
  5
532
  8
SJC
 10
1574.8625721558039
 20
2627.2726279959088
 30
0.0
 11
3498.562572155849
 21
2627.2726279959088
 31
0.0
  0
ARC
  5
53C
  8
SJC
 10
1604.272306938713
 20
2651.5726279958958
 30
0.0
 40
38.150000000005512
 50
140.43454069638369
 51
219.56545930361631
  0
ARC
  5
53D
  8
SJC
 10
3469.1528373729388
 20
2651.5726279958958
 30
0.0
 40
38.150000000005512
 50
320.43454069638381
 51
39.565459303616258
  0
LINE
  5
53E
  8
SJC
 10
1574.8625721558039
 20
2377.2726279959088
 30
0.0
 11
3498.562572155849
 21
2377.2726279959088
 31
0.0
  0
LINE
  5
53F
  8
SJC
 10
1574.862572155826
 20
2425.8726279959092
 30
0.0
 11
3498.5625721558258
 21
2425.8726279959092
 31
0.0
  0
ARC
  5
540
  8
SJC
 10
1604.272306938713
 20
2401.5726279958958
 30
0.0
 40
38.150000000005512
 50
140.43454069638369
 51
219.56545930361631
  0
ARC
  5
541
  8
SJC
 10
3469.1528373729388
 20
2401.5726279958958
 30
0.0
 40
38.150000000005512
 50
320.43454069638381
 51
39.565459303616258
  0
LINE
  5
542
  8
SJC
 10
1574.8625721558251
 20
2377.272627995882
 30
0.0
 11
1574.862572155826
 21
1551.572627995909
 31
0.0
1001
ACAD
1000
ASC_BOUNDS
1002
{
1070
    19
1002
}
  0
LINE
  5
543
  8
SJC
 10
3498.5625721558258
 20
2377.272627995882
 30
0.0
 11
3498.5625721558258
 21
1551.572627995909
 31
0.0
  0
SOLID
  5
544
  8
MOJI
  6
CONTINUOUS
 10
2221.8808616465421
 20
2597.2369777986728
 30
0.0
 11
2231.3637112421861
 21
2600.411180619285
 31
0.0
 12
2217.0996779825259
 22
2627.272627995912
 32
0.0
 13
2217.0996779825259
 23
2627.272627995912
 33
0.0
  0
DIMENSION
  5
546
  8
SUNPOU
  2
*D10
 10
4033.4724219452728
 20
2401.5726279958958
 30
0.0
 11
3992.9724219452719
 21
2526.5726279959031
 31
0.0
 70
     0
 13
3536.7125721558259
 23
2651.5726279959099
 33
0.0
 14
3536.7125721558259
 24
2401.5726279958958
 34
0.0
 50
90.0
1001
ACAD
1000
DSTYLE
1002
{
1070
   287
1070
     5
1070
    40
1040
15.0
1070
    41
1040
2.0
1070
    42
1040
1.0
1070
    43
1040
6.0
1070
    44
1040
1.0
1070
    73
1070
     0
1070
    74
1070
     0
1070
    77
1070
     1
1070
    78
1070
     8
1070
   140
1040
3.0
1070
   147
1040
1.1999999999999991
1070
   172
1070
     1
1070
   179
1070
     2
1070
   271
1070
     2
1070
   279
1070
     2
1070
   340
1005
11D
1002
}
  0
DIMENSION
  5
553
  8
SUNPOU
  2
*D11
 10
4033.4724219452728
 20
2151.572627995909
 30
0.0
 11
3992.9724219452719
 21
2276.5726279959031
 31
0.0
 70
     0
 13
3536.7125721558259
 23
2401.5726279958958
 33
0.0
 14
3947.2512380179219
 24
2151.572627995909
 34
0.0
 50
90.0
1001
ACAD
1000
DSTYLE
1002
{
1070
   287
1070
     5
1070
    40
1040
15.0
1070
    41
1040
2.0
1070
    42
1040
1.0
1070
    43
1040
6.0
1070
    44
1040
1.0
1070
    73
1070
     0
1070
    74
1070
     0
1070
    77
1070
     1
1070
    78
1070
     8
1070
   140
1040
3.0
1070
   147
1040
1.1999999999999991
1070
   172
1070
     1
1070
   179
1070
     2
1070
   271
1070
     2
1070
   279
1070
     2
1070
   340
1005
11D
1002
}
  0
LINE
  5
650
  8
HATCH
 10
1336.712572155825
 20
1602.6186780887519
 30
0.0
 11
1498.562572155826
 21
1764.468678088753
 31
0.0
  0
LINE
  5
651
  8
HATCH
 10
1574.862572155826
 20
1840.7686780887529
 30
0.0
 11
1736.712572155825
 21
2002.6186780887531
 31
0.0
  0
LINE
  5
652
  8
HATCH
 10
1336.712572155825
 20
1779.39537338539
 30
0.0
 11
1498.562572155826
 21
1941.2453733853899
 31
0.0
  0
LINE
  5
653
  8
HATCH
 10
1574.862572155826
 20
2017.5453733853899
 30
0.0
 11
1708.8898267663451
 21
2151.572627995909
 31
0.0
  0
LINE
  5
654
  8
HATCH
 10
1336.712572155825
 20
1956.1720686820261
 30
0.0
 11
1498.562572155826
 21
2118.0220686820271
 31
0.0
  0
LINE
  5
657
  8
HATCH
 10
1336.7125721558259
 20
1624.7157650008321
 30
0.0
 11
1498.562572155826
 21
1786.5657650008329
 31
0.0
  0
LINE
  5
658
  8
HATCH
 10
1574.862572155826
 20
1862.8657650008331
 30
0.0
 11
1736.712572155825
 21
2024.7157650008321
 31
0.0
  0
LINE
  5
659
  8
HATCH
 10
1336.712572155825
 20
1801.4924602974691
 30
0.0
 11
1498.562572155826
 21
1963.3424602974701
 31
0.0
  0
LINE
  5
65A
  8
HATCH
 10
1574.862572155826
 20
2039.6424602974701
 30
0.0
 11
1686.7927398542661
 21
2151.572627995909
 31
0.0
  0
LINE
  5
65B
  8
HATCH
 10
1336.712572155825
 20
1978.269155594106
 30
0.0
 11
1498.562572155826
 21
2140.1191555941068
 31
0.0
  0
LINE
  5
65D
  8
HATCH
 10
1617.122825744174
 20
1551.5726279959081
 30
0.0
 11
1736.7125721558259
 21
1671.1623744075589
 31
0.0
  0
LINE
  5
65E
  8
HATCH
 10
1341.472348238822
 20
1651.572627995909
 30
0.0
 11
1498.562572155826
 21
1808.6628519129131
 31
0.0
  0
LINE
  5
65F
  8
HATCH
 10
1574.862572155826
 20
1884.9628519129119
 30
0.0
 11
1736.712572155825
 21
2046.812851912912
 31
0.0
  0
LINE
  5
660
  8
HATCH
 10
1336.712572155825
 20
1823.589547209549
 30
0.0
 11
1498.562572155826
 21
1985.4395472095489
 31
0.0
  0
LINE
  5
661
  8
HATCH
 10
1574.862572155826
 20
2061.7395472095491
 30
0.0
 11
1664.6956529421871
 21
2151.5726279959099
 31
0.0
  0
LINE
  5
662
  8
HATCH
 10
1336.7125721558259
 20
2000.3662425061859
 30
0.0
 11
1487.918957645549
 21
2151.572627995909
 31
0.0
  0
LINE
  5
664
  8
HATCH
 10
1595.025738832097
 20
1551.572627995909
 30
0.0
 11
1736.7125721558259
 21
1693.2594613196379
 31
0.0
  0
LINE
  5
665
  8
HATCH
 10
1336.7125721558259
 20
2132.9487639786639
 30
0.0
 11
1355.3364361730719
 21
2151.572627995909
 31
0.0
  0
LINE
  5
668
  8
HATCH
 10
1418.24904353546
 20
1551.572627995909
 30
0.0
 11
1498.562572155826
 21
1631.886156616275
 31
0.0
  0
LINE
  5
669
  8
HATCH
 10
1440.3461304475391
 20
1551.572627995909
 30
0.0
 11
1498.562572155826
 21
1609.789069704196
 31
0.0
  0
LINE
  5
66A
  8
HATCH
 10
1462.443217359619
 20
1551.572627995909
 30
0.0
 11
1498.562572155826
 21
1587.6919827921161
 31
0.0
  0
LINE
  5
66B
  8
HATCH
 10
1639.2199126562559
 20
1551.572627995909
 30
0.0
 11
1736.7125721558259
 21
1649.0652874954769
 31
0.0
  0
DIMENSION
  5
66F
  8
SUNPOU
  2
*D12
 10
1736.7125721558259
 20
1350.385379250705
 30
0.0
 11
1536.7125721558259
 21
1390.885379250705
 31
0.0
 70
     0
 13
1336.7125721558259
 23
1551.572627995909
 33
0.0
 14
1736.7125721558259
 24
1551.572627995909
 34
0.0
1001
ACAD
1000
DSTYLE
1002
{
1070
   287
1070
     5
1070
    40
1040
15.0
1070
    41
1040
2.0
1070
    42
1040
1.0
1070
    43
1040
6.0
1070
    44
1040
1.0
1070
    73
1070
     0
1070
    74
1070
     0
1070
    77
1070
     1
1070
    78
1070
     8
1070
   140
1040
3.0
1070
   147
1040
1.1999999999999991
1070
   172
1070
     1
1070
   179
1070
     2
1070
   271
1070
     2
1070
   279
1070
     2
1070
   340
1005
11D
1002
}
  0
LINE
  5
912
  8
SJC
 10
5051.4317998701472
 20
4165.2545027623164
 30
0.0
 11
5981.4317998701463
 21
4165.2545027623164
 31
0.0
  0
LINE
  5
913
  8
SJC
 10
5051.4317998701472
 20
3940.254502762316
 30
0.0
 11
5981.4317998701463
 21
3940.254502762316
 31
0.0
  0
LINE
  5
914
  8
SJC
 10
5028.9317998701472
 20
4015.254502762316
 30
0.0
 11
6003.9317998701463
 21
4015.254502762316
 31
0.0
  0
LINE
  5
915
  8
SJC
 10
5028.9317998701472
 20
4090.254502762316
 30
0.0
 11
6003.9317998701463
 21
4090.254502762316
 31
0.0
  0
TEXT
  5
916
  8
MOJI
 10
5287.795190993811
 20
3955.6695891817881
 30
0.0
 40
45.0
  1
KGSH00087
 41
0.8
  7
EXT08
  0
TEXT
  5
917
  8
MOJI
 10
5287.795190993811
 20
4030.6695891817872
 30
0.0
 40
45.0
  1
KSP-8-20WM
 41
0.8
  7
EXT08
  0
TEXT
  5
918
  8
MOJI
 10
5287.795190993811
 20
4105.6695891817872
 30
0.0
 40
45.0
  1
高強度セイフティパイプ
 41
0.8
  7
EXT08
  0
TEXT
  5
919
  8
MOJI
 10
5078.0889427272896
 20
4104.3545027623159
 30
0.0
 40
45.0
  1
タイプ
 41
0.8
  7
EXT08
 72
     4
 11
5141.4317998701463
 21
4127.7545027623164
 31
0.0
  0
LINE
  5
91A
  8
SJC
 10
5253.9317998701463
 20
3940.254502762316
 30
0.0
 11
5253.9317998701463
 21
4165.2545027623164
 31
0.0
  0
ARC
  5
91B
  8
SJC
 10
5051.4317998701472
 20
4142.7545027623173
 30
0.0
 40
22.5
 50
90.0
 51
180.0
  0
ARC
  5
91C
  8
SJC
 10
5051.4317998701472
 20
3962.7545027623169
 30
0.0
 40
22.5
 50
180.0
 51
270.0
  0
LINE
  5
91D
  8
SJC
 10
5028.9317998701472
 20
3962.7545027623169
 30
0.0
 11
5028.9317998701472
 21
4142.7545027623173
 31
0.0
  0
TEXT
  5
91E
  8
MOJI
 10
5081.4317998701463
 20
4030.2545027623169
 30
0.0
 40
45.0
  1
品  番
 41
0.8
  7
EXT08
 72
     4
 11
5141.4317998701463
 21
4052.754502762316
 31
0.0
  0
TEXT
  5
91F
  8
MOJI
 10
5058.6317998701461
 20
3955.2545027623169
 30
0.0
 40
45.0
  1
図面番号
 41
0.8
  7
EXT08
 72
     4
 11
5141.4317998701463
 21
3977.754502762316
 31
0.0
  0
ARC
  5
920
  8
SJC
 10
5981.4317998701463
 20
4142.7545027623173
 30
0.0
 40
22.5
 50
0.0
 51
90.0
  0
ARC
  5
921
  8
SJC
 10
5981.4317998701463
 20
3962.7545027623169
 30
0.0
 40
22.5
 50
270.0
 51
0.0
  0
LINE
  5
922
  8
SJC
 10
6003.9317998701463
 20
3962.7545027623169
 30
0.0
 11
6003.9317998701463
 21
4142.7545027623173
 31
0.0
  0
LINE
  5
EA7
  8
MOJI
 10
4628.2035786553051
 20
606.98140002950743
 30
0.0
 11
5691.0795432150417
 21
606.98140002950743
 31
0.0
  0
LINE
  5
EA8
  8
MOJI
 10
5691.0795432150417
 20
606.98140002950743
 30
0.0
 11
5691.0795432150408
 21
379.33704460698158
 31
0.0
  0
LINE
  5
EA9
  8
MOJI
 10
4918.9652661473556
 20
379.33704460698158
 30
0.0
 11
4918.9652661473556
 21
606.98140002950743
 31
0.0
  0
LINE
  5
EAA
  8
MOJI
 10
4628.2035786553051
 20
379.33704460698158
 30
0.0
 11
4628.2035786553051
 21
606.98140002950743
 31
0.0
  0
LINE
  5
EAB
  8
MOJI
 10
5148.1779996400837
 20
379.33704460698158
 30
0.0
 11
5148.1779996400865
 21
606.98140002950743
 31
0.0
  0
TEXT
  5
EAC
  8
MOJI
 10
4720.9511115145051
 20
547.64697883541544
 30
0.0
 40
45.0
  1
品  名
 41
0.8
  7
EXT08
 72
     1
 11
4779.7511115145062
 21
547.64697883541544
 31
0.0
  0
TEXT
  5
EAD
  8
MOJI
 10
4974.089531650653
 20
550.01827420440009
 30
0.0
 40
45.0
  1
材  質
 41
0.8
  7
EXT08
 72
     1
 11
5034.089531650653
 21
550.01827420440009
 31
0.0
  0
TEXT
  5
EAE
  8
MOJI
 10
5356.1241430000864
 20
546.03142712751298
 30
0.0
 40
45.0
  1
摘  要
 41
0.8
  7
EXT08
 72
     1
 11
5416.467000142944
 21
546.03142712751298
 31
0.0
  0
TEXT
  5
EAF
  8
MOJI
 10
4652.987367387932
 20
400.46383898699582
 30
0.0
 40
45.0
  1
ビームパイプ
 41
0.8
  7
EXT08
 72
     1
 11
4781.1302245307897
 21
400.46383898699582
 31
0.0
  0
TEXT
  5
EB0
  8
MOJI
 10
4717.7873673879321
 20
476.2168553221851
 30
0.0
 40
45.0
  1
主  柱
 41
0.8
  7
EXT08
 72
     1
 11
4777.7873673879321
 21
476.2168553221851
 31
0.0
  0
TEXT
  5
EB1
  8
MOJI
 10
4936.6704570057318
 20
476.2168553221851
 30
0.0
 40
45.0
  1
STK400
 41
0.8
  7
EXT08
 72
     1
 11
5036.9561712914456
 21
476.2168553221851
 31
0.0
  0
TEXT
  5
EB2
  8
MOJI
 10
5173.2560201200868
 20
476.2168553221851
 30
0.0
 40
45.0
  1
亜鉛めっき＋静電粉体塗装
 41
0.8
  7
EXT08
 72
     1
 11
5427.6560201200864
 21
476.2168553221851
 31
0.0
  0
LINE
  5
EC3
  8
MOJI
 10
4628.2035786553051
 20
531.09994822199883
 30
0.0
 11
5691.0795432150417
 21
531.09994822199883
 31
0.0
  0
LINE
  5
EC4
  8
MOJI
 10
4628.2035786553051
 20
455.21849641449018
 30
0.0
 11
5691.0795432150417
 21
455.21849641449018
 31
0.0
  0
LINE
  5
EC5
  8
MOJI
 10
4628.2035786553051
 20
379.33704460698158
 30
0.0
 11
5691.0795432150417
 21
379.33704460698158
 31
0.0
  0
TEXT
  5
ECC
  8
MOJI
 10
5173.2560201200868
 20
400.3354035146765
 30
0.0
 40
45.0
  1
亜鉛めっき＋静電粉体塗装
 41
0.8
  7
EXT08
 72
     1
 11
5427.6560201200864
 21
400.3354035146765
 31
0.0
  0
TEXT
  5
ECD
  8
MOJI
 10
4936.6704570057318
 20
400.3354035146765
 30
0.0
 40
45.0
  1
STK400
 41
0.8
  7
EXT08
 72
     1
 11
5036.9561712914456
 21
400.3354035146765
 31
0.0
  0
LINE
  5
1007
  8
SJC
 10
1336.7125721558259
 20
2151.572627995909
 30
0.0
 11
1336.712572155825
 21
1551.572627995909
 31
0.0
1001
ACAD
1000
ASC_BOUNDS
1002
{
1070
    19
1002
}
  0
LINE
  5
1008
  8
SJC
 10
1736.7125721558259
 20
2151.572627995909
 30
0.0
 11
1736.7125721558259
 21
1551.572627995909
 31
0.0
1001
ACAD
1000
ASC_BOUNDS
1002
{
1070
    19
1002
}
  0
LINE
  5
1048
  8
HATCH
 10
1574.862572155826
 20
1708.186156616275
 30
0.0
 11
1736.7125721558259
 21
1870.0361566162751
 31
0.0
  0
LINE
  5
1049
  8
HATCH
 10
1574.862572155826
 20
1686.089069704195
 30
0.0
 11
1736.712572155825
 21
1847.9390697041949
 31
0.0
  0
LINE
  5
104A
  8
HATCH
 10
1574.862572155826
 20
1663.991982792116
 30
0.0
 11
1736.712572155825
 21
1825.8419827921159
 31
0.0
  0
LINE
  5
104F
  8
SJC
 10
3286.5766120342741
 20
1551.572627995909
 30
0.0
 11
3786.8485322773781
 21
1551.572627995909
 31
0.0
1001
ACAD
1000
ASC_BOUNDS
1002
{
1070
    19
1005
0
1002
}
  0
LINE
  5
1050
  8
SJC
 10
3336.7125721558259
 20
2151.572627995909
 30
0.0
 11
3336.712572155825
 21
1551.572627995909
 31
0.0
1001
ACAD
1000
ASC_BOUNDS
1002
{
1070
    19
1002
}
  0
LINE
  5
1051
  8
SJC
 10
3736.7125721558259
 20
2151.572627995909
 30
0.0
 11
3736.7125721558259
 21
1551.572627995909
 31
0.0
1001
ACAD
1000
ASC_BOUNDS
1002
{
1070
    19
1002
}
  0
LINE
  5
1052
  8
SJC
 10
3286.5766120342741
 20
1501.5726279959081
 30
0.0
 11
3786.8485322773781
 21
1501.5726279959081
 31
0.0
  0
POLYLINE
  5
1053
  8
HATCH
 66
     1
 10
0.0
 20
0.0
 30
0.0
 70
     3
  0
VERTEX
  5
1054
  8
HATCH
 10
3366.5766120342751
 20
1526.5726279959081
 30
0.0
 42
-0.1703036214138359
  0
VERTEX
  5
1055
  8
HATCH
 10
3373.0688014406919
 20
1545.080438589491
 30
0.0
 42
-0.2278377915826702
 70
     1
  0
VERTEX
  5
1056
  8
HATCH
 10
3386.5766120342741
 20
1551.5726279959081
 30
0.0
 42
-0.2278377915826684
  0
VERTEX
  5
1057
  8
HATCH
 10
3400.0844226278559
 20
1545.080438589491
 30
0.0
 42
-0.1703036214138354
 70
     1
  0
VERTEX
  5
1058
  8
HATCH
 10
3406.5766120342751
 20
1526.5726279959081
 30
0.0
 42
-0.1703036214138303
  0
VERTEX
  5
1059
  8
HATCH
 10
3400.0844226278568
 20
1508.0648174023261
 30
0.0
 42
-0.2278377915826667
 70
     1
  0
VERTEX
  5
105A
  8
HATCH
 10
3386.5766120342741
 20
1501.5726279959081
 30
0.0
 42
-0.2278377915826721
  0
VERTEX
  5
105B
  8
HATCH
 10
3373.068801440691
 20
1508.064817402327
 30
0.0
 42
-0.1703036214138317
 70
     1
  0
SEQEND
  5
105C
  8
HATCH
  0
POLYLINE
  5
105D
  8
HATCH
 66
     1
 10
0.0
 20
0.0
 30
0.0
 70
     3
  0
VERTEX
  5
105E
  8
HATCH
 10
3326.5766120342741
 20
1526.5726279959081
 30
0.0
 42
-0.1703036214138359
  0
VERTEX
  5
105F
  8
HATCH
 10
3333.0688014406919
 20
1545.080438589491
 30
0.0
 42
-0.2278377915826702
 70
     1
  0
VERTEX
  5
1060
  8
HATCH
 10
3346.5766120342751
 20
1551.5726279959081
 30
0.0
 42
-0.2278377915826684
  0
VERTEX
  5
1061
  8
HATCH
 10
3360.0844226278559
 20
1545.080438589491
 30
0.0
 42
-0.1703036214138354
 70
     1
  0
VERTEX
  5
1062
  8
HATCH
 10
3366.5766120342751
 20
1526.5726279959081
 30
0.0
 42
-0.1703036214138303
  0
VERTEX
  5
1063
  8
HATCH
 10
3360.0844226278568
 20
1508.0648174023261
 30
0.0
 42
-0.2278377915826667
 70
     1
  0
VERTEX
  5
1064
  8
HATCH
 10
3346.5766120342751
 20
1501.5726279959081
 30
0.0
 42
-0.2278377915826721
  0
VERTEX
  5
1065
  8
HATCH
 10
3333.0688014406919
 20
1508.064817402327
 30
0.0
 42
-0.1703036214138317
 70
     1
  0
SEQEND
  5
1066
  8
HATCH
  0
POLYLINE
  5
1067
  8
HATCH
 66
     1
 10
0.0
 20
0.0
 30
0.0
 70
     3
  0
VERTEX
  5
1068
  8
HATCH
 10
3286.5766120342741
 20
1526.5726279959081
 30
0.0
 42
-0.1703036214138359
  0
VERTEX
  5
1069
  8
HATCH
 10
3293.0688014406928
 20
1545.080438589491
 30
0.0
 42
-0.2278377915826702
 70
     1
  0
VERTEX
  5
106A
  8
HATCH
 10
3306.5766120342741
 20
1551.5726279959081
 30
0.0
 42
-0.2278377915826684
  0
VERTEX
  5
106B
  8
HATCH
 10
3320.0844226278559
 20
1545.080438589491
 30
0.0
 42
-0.1703036214138354
 70
     1
  0
VERTEX
  5
106C
  8
HATCH
 10
3326.5766120342741
 20
1526.5726279959081
 30
0.0
 42
-0.1703036214138303
  0
VERTEX
  5
106D
  8
HATCH
 10
3320.0844226278568
 20
1508.0648174023261
 30
0.0
 42
-0.2278377915826667
 70
     1
  0
VERTEX
  5
106E
  8
HATCH
 10
3306.5766120342741
 20
1501.5726279959081
 30
0.0
 42
-0.2278377915826721
  0
VERTEX
  5
106F
  8
HATCH
 10
3293.0688014406919
 20
1508.064817402327
 30
0.0
 42
-0.1703036214138317
 70
     1
  0
SEQEND
  5
1070
  8
HATCH
  0
LINE
  5
1071
  8
SJC
 10
3286.5766120342741
 20
1501.5726279959081
 30
0.0
 11
3286.5766120342741
 21
1551.5726279959081
 31
0.0
  0
POLYLINE
  5
1072
  8
HATCH
 66
     1
 10
0.0
 20
0.0
 30
0.0
 70
     3
  0
VERTEX
  5
1073
  8
HATCH
 10
3706.8485322773781
 20
1526.5726279959081
 30
0.0
 42
-0.1703036214138359
  0
VERTEX
  5
1074
  8
HATCH
 10
3713.3407216837959
 20
1545.080438589491
 30
0.0
 42
-0.2278377915826702
 70
     1
  0
VERTEX
  5
1075
  8
HATCH
 10
3726.8485322773781
 20
1551.5726279959081
 30
0.0
 42
-0.2278377915826684
  0
VERTEX
  5
1076
  8
HATCH
 10
3740.3563428709599
 20
1545.080438589491
 30
0.0
 42
-0.1703036214138354
 70
     1
  0
VERTEX
  5
1077
  8
HATCH
 10
3746.8485322773781
 20
1526.5726279959081
 30
0.0
 42
-0.1703036214138303
  0
VERTEX
  5
1078
  8
HATCH
 10
3740.3563428709599
 20
1508.0648174023261
 30
0.0
 42
-0.2278377915826667
 70
     1
  0
VERTEX
  5
1079
  8
HATCH
 10
3726.8485322773781
 20
1501.5726279959081
 30
0.0
 42
-0.2278377915826721
  0
VERTEX
  5
107A
  8
HATCH
 10
3713.340721683795
 20
1508.064817402327
 30
0.0
 42
-0.1703036214138317
 70
     1
  0
SEQEND
  5
107B
  8
HATCH
  0
POLYLINE
  5
107C
  8
HATCH
 66
     1
 10
0.0
 20
0.0
 30
0.0
 70
     3
  0
VERTEX
  5
107D
  8
HATCH
 10
3406.5766120342751
 20
1526.5726279959081
 30
0.0
 42
-0.1703036214138359
  0
VERTEX
  5
107E
  8
HATCH
 10
3413.0688014406919
 20
1545.080438589491
 30
0.0
 42
-0.2278377915826702
 70
     1
  0
VERTEX
  5
107F
  8
HATCH
 10
3426.5766120342741
 20
1551.5726279959081
 30
0.0
 42
-0.2278377915826684
  0
VERTEX
  5
1080
  8
HATCH
 10
3440.0844226278559
 20
1545.080438589491
 30
0.0
 42
-0.1703036214138354
 70
     1
  0
VERTEX
  5
1081
  8
HATCH
 10
3446.5766120342741
 20
1526.5726279959081
 30
0.0
 42
-0.1703036214138303
  0
VERTEX
  5
1082
  8
HATCH
 10
3440.0844226278568
 20
1508.0648174023261
 30
0.0
 42
-0.2278377915826667
 70
     1
  0
VERTEX
  5
1083
  8
HATCH
 10
3426.5766120342741
 20
1501.5726279959081
 30
0.0
 42
-0.2278377915826721
  0
VERTEX
  5
1084
  8
HATCH
 10
3413.0688014406919
 20
1508.064817402327
 30
0.0
 42
-0.1703036214138317
 70
     1
  0
SEQEND
  5
1085
  8
HATCH
  0
POLYLINE
  5
1086
  8
HATCH
 66
     1
 10
0.0
 20
0.0
 30
0.0
 70
     3
  0
VERTEX
  5
1087
  8
HATCH
 10
3626.8485322773781
 20
1526.5726279959081
 30
0.0
 42
-0.1703036214138359
  0
VERTEX
  5
1088
  8
HATCH
 10
3633.3407216837959
 20
1545.080438589491
 30
0.0
 42
-0.2278377915826702
 70
     1
  0
VERTEX
  5
1089
  8
HATCH
 10
3646.8485322773781
 20
1551.5726279959081
 30
0.0
 42
-0.2278377915826684
  0
VERTEX
  5
108A
  8
HATCH
 10
3660.3563428709599
 20
1545.080438589491
 30
0.0
 42
-0.1703036214138354
 70
     1
  0
VERTEX
  5
108B
  8
HATCH
 10
3666.8485322773781
 20
1526.5726279959081
 30
0.0
 42
-0.1703036214138303
  0
VERTEX
  5
108C
  8
HATCH
 10
3660.3563428709608
 20
1508.0648174023261
 30
0.0
 42
-0.2278377915826667
 70
     1
  0
VERTEX
  5
108D
  8
HATCH
 10
3646.8485322773781
 20
1501.5726279959081
 30
0.0
 42
-0.2278377915826721
  0
VERTEX
  5
108E
  8
HATCH
 10
3633.340721683795
 20
1508.064817402327
 30
0.0
 42
-0.1703036214138317
 70
     1
  0
SEQEND
  5
108F
  8
HATCH
  0
POLYLINE
  5
1090
  8
HATCH
 66
     1
 10
0.0
 20
0.0
 30
0.0
 70
     3
  0
VERTEX
  5
1091
  8
HATCH
 10
3666.8485322773781
 20
1526.5726279959081
 30
0.0
 42
-0.1703036214138359
  0
VERTEX
  5
1092
  8
HATCH
 10
3673.3407216837959
 20
1545.080438589491
 30
0.0
 42
-0.2278377915826702
 70
     1
  0
VERTEX
  5
1093
  8
HATCH
 10
3686.8485322773781
 20
1551.5726279959081
 30
0.0
 42
-0.2278377915826684
  0
VERTEX
  5
1094
  8
HATCH
 10
3700.3563428709599
 20
1545.080438589491
 30
0.0
 42
-0.1703036214138354
 70
     1
  0
VERTEX
  5
1095
  8
HATCH
 10
3706.8485322773781
 20
1526.5726279959081
 30
0.0
 42
-0.1703036214138303
  0
VERTEX
  5
1096
  8
HATCH
 10
3700.3563428709608
 20
1508.0648174023261
 30
0.0
 42
-0.2278377915826667
 70
     1
  0
VERTEX
  5
1097
  8
HATCH
 10
3686.8485322773781
 20
1501.5726279959081
 30
0.0
 42
-0.2278377915826721
  0
VERTEX
  5
1098
  8
HATCH
 10
3673.340721683795
 20
1508.064817402327
 30
0.0
 42
-0.1703036214138317
 70
     1
  0
SEQEND
  5
1099
  8
HATCH
  0
LINE
  5
109A
  8
SJC
 10
3786.8485322773781
 20
1501.5726279959081
 30
0.0
 11
3786.8485322773781
 21
1551.5726279959081
 31
0.0
  0
POLYLINE
  5
109B
  8
HATCH
 66
     1
 10
0.0
 20
0.0
 30
0.0
 70
     3
  0
VERTEX
  5
109C
  8
HATCH
 10
3746.8485322773781
 20
1526.5726279959081
 30
0.0
 42
-0.1703036214138359
  0
VERTEX
  5
109D
  8
HATCH
 10
3753.3407216837959
 20
1545.080438589491
 30
0.0
 42
-0.2278377915826702
 70
     1
  0
VERTEX
  5
109E
  8
HATCH
 10
3766.8485322773781
 20
1551.5726279959081
 30
0.0
 42
-0.2278377915826684
  0
VERTEX
  5
109F
  8
HATCH
 10
3780.356342870959
 20
1545.080438589491
 30
0.0
 42
-0.1703036214138354
 70
     1
  0
VERTEX
  5
10A0
  8
HATCH
 10
3786.8485322773781
 20
1526.5726279959081
 30
0.0
 42
-0.1703036214138303
  0
VERTEX
  5
10A1
  8
HATCH
 10
3780.3563428709599
 20
1508.0648174023261
 30
0.0
 42
-0.2278377915826667
 70
     1
  0
VERTEX
  5
10A2
  8
HATCH
 10
3766.8485322773781
 20
1501.5726279959081
 30
0.0
 42
-0.2278377915826721
  0
VERTEX
  5
10A3
  8
HATCH
 10
3753.340721683795
 20
1508.064817402327
 30
0.0
 42
-0.1703036214138317
 70
     1
  0
SEQEND
  5
10A4
  8
HATCH
  0
LINE
  5
10A5
  8
HATCH
 10
3336.712572155825
 20
1602.6186780887519
 30
0.0
 11
3498.5625721558258
 21
1764.468678088753
 31
0.0
  0
LINE
  5
10A6
  8
HATCH
 10
3574.862572155826
 20
1840.7686780887529
 30
0.0
 11
3736.7125721558259
 21
2002.6186780887531
 31
0.0
  0
LINE
  5
10A7
  8
HATCH
 10
3336.712572155825
 20
1779.39537338539
 30
0.0
 11
3498.5625721558258
 21
1941.2453733853899
 31
0.0
  0
LINE
  5
10A8
  8
HATCH
 10
3574.862572155826
 20
2017.5453733853899
 30
0.0
 11
3708.8898267663449
 21
2151.572627995909
 31
0.0
  0
LINE
  5
10A9
  8
HATCH
 10
3336.712572155825
 20
1956.1720686820261
 30
0.0
 11
3498.5625721558258
 21
2118.0220686820271
 31
0.0
  0
LINE
  5
10AA
  8
HATCH
 10
3462.4432173596192
 20
1551.572627995909
 30
0.0
 11
3498.5625721558258
 21
1587.6919827921161
 31
0.0
  0
LINE
  5
10AB
  8
HATCH
 10
3574.862572155826
 20
1663.991982792116
 30
0.0
 11
3736.7125721558259
 21
1825.8419827921159
 31
0.0
  0
LINE
  5
10AC
  8
HATCH
 10
3336.7125721558259
 20
1624.7157650008321
 30
0.0
 11
3498.5625721558258
 21
1786.5657650008329
 31
0.0
  0
LINE
  5
10AD
  8
HATCH
 10
3574.862572155826
 20
1862.8657650008331
 30
0.0
 11
3736.7125721558259
 21
2024.7157650008321
 31
0.0
  0
LINE
  5
10AE
  8
HATCH
 10
3336.712572155825
 20
1801.4924602974691
 30
0.0
 11
3498.5625721558258
 21
1963.3424602974701
 31
0.0
  0
LINE
  5
10AF
  8
HATCH
 10
3574.862572155826
 20
2039.6424602974701
 30
0.0
 11
3686.7927398542661
 21
2151.572627995909
 31
0.0
  0
LINE
  5
10B0
  8
HATCH
 10
3336.712572155825
 20
1978.269155594106
 30
0.0
 11
3498.5625721558258
 21
2140.1191555941068
 31
0.0
  0
LINE
  5
10B1
  8
HATCH
 10
3440.3461304475391
 20
1551.572627995909
 30
0.0
 11
3498.5625721558258
 21
1609.789069704196
 31
0.0
  0
LINE
  5
10B2
  8
HATCH
 10
3574.862572155826
 20
1686.089069704195
 30
0.0
 11
3736.7125721558259
 21
1847.9390697041949
 31
0.0
  0
LINE
  5
10B3
  8
HATCH
 10
3617.122825744174
 20
1551.5726279959081
 30
0.0
 11
3736.7125721558259
 21
1671.1623744075589
 31
0.0
  0
LINE
  5
10B4
  8
HATCH
 10
3341.4723482388231
 20
1651.572627995909
 30
0.0
 11
3498.5625721558258
 21
1808.6628519129131
 31
0.0
  0
LINE
  5
10B5
  8
HATCH
 10
3574.862572155826
 20
1884.9628519129119
 30
0.0
 11
3736.7125721558259
 21
2046.812851912912
 31
0.0
  0
LINE
  5
10B6
  8
HATCH
 10
3336.712572155825
 20
1823.589547209549
 30
0.0
 11
3498.5625721558258
 21
1985.4395472095489
 31
0.0
  0
LINE
  5
10B7
  8
HATCH
 10
3574.862572155826
 20
2061.7395472095491
 30
0.0
 11
3664.6956529421868
 21
2151.5726279959099
 31
0.0
  0
LINE
  5
10B8
  8
HATCH
 10
3336.7125721558259
 20
2000.3662425061859
 30
0.0
 11
3487.9189576455501
 21
2151.572627995909
 31
0.0
  0
LINE
  5
10B9
  8
HATCH
 10
3418.2490435354598
 20
1551.572627995909
 30
0.0
 11
3498.5625721558258
 21
1631.886156616275
 31
0.0
  0
LINE
  5
10BA
  8
HATCH
 10
3574.862572155826
 20
1708.186156616275
 30
0.0
 11
3736.7125721558259
 21
1870.0361566162751
 31
0.0
  0
LINE
  5
10BB
  8
HATCH
 10
3595.025738832097
 20
1551.572627995909
 30
0.0
 11
3736.7125721558259
 21
1693.2594613196379
 31
0.0
  0
LINE
  5
10BC
  8
HATCH
 10
3336.7125721558259
 20
2132.9487639786639
 30
0.0
 11
3355.3364361730719
 21
2151.572627995909
 31
0.0
  0
LINE
  5
10BD
  8
HATCH
 10
3639.2199126562568
 20
1551.572627995909
 30
0.0
 11
3736.7125721558259
 21
1649.0652874954769
 31
0.0
  0
TEXT
  5
110F
  8
MOJI
 10
1202.758314621522
 20
1123.648607357065
 30
0.0
 40
60.0
  1
※基礎寸法は参考値です。
 41
0.8
  7
EXT08
 72
     1
 11
1531.7868860500939
 21
1123.648607357065
 31
0.0
  0
LINE
  5
12BA
  8
CENTER
 10
4618.6329784022519
 20
3001.572627995909
 30
0.0
 11
4618.6329784022519
 21
1451.5726279959081
 31
0.0
  0
LINE
  5
12BB
  8
SJC
 10
4656.7829784022533
 20
2151.572627995909
 30
0.0
 11
4918.6329784022528
 21
2151.572627995909
 31
0.0
1001
ACAD
1000
ASC_BOUNDS
1002
{
1070
    19
1005
0
1002
}
  0
LINE
  5
12BC
  8
SJC
 10
4656.7829784022533
 20
2913.4226279959089
 30
0.0
 11
4656.7829784022542
 21
1551.572627995909
 31
0.0
  0
LINE
  5
12BD
  8
SJC
 10
4580.4829784022531
 20
2913.4226279959098
 30
0.0
 11
4580.482978402254
 21
1551.572627995909
 31
0.0
  0
LINE
  5
12BE
  8
SJC
 10
4368.497018280701
 20
1551.572627995909
 30
0.0
 11
4868.7689385238036
 21
1551.572627995909
 31
0.0
1001
ACAD
1000
ASC_BOUNDS
1002
{
1070
    19
1005
0
1002
}
  0
LINE
  5
12BF
  8
SJC
 10
4418.6329784022528
 20
2151.572627995909
 30
0.0
 11
4418.6329784022528
 21
1551.572627995909
 31
0.0
1001
ACAD
1000
ASC_BOUNDS
1002
{
1070
    19
1002
}
  0
LINE
  5
12C0
  8
SJC
 10
4818.6329784022519
 20
2151.572627995909
 30
0.0
 11
4818.6329784022537
 21
1551.572627995909
 31
0.0
1001
ACAD
1000
ASC_BOUNDS
1002
{
1070
    19
1002
}
  0
LINE
  5
12C1
  8
SJC
 10
4368.497018280701
 20
1501.5726279959081
 30
0.0
 11
4868.7689385238036
 21
1501.572627995909
 31
0.0
  0
POLYLINE
  5
12C2
  8
HATCH
 66
     1
 10
0.0
 20
0.0
 30
0.0
 70
     3
  0
VERTEX
  5
12C3
  8
HATCH
 10
4448.497018280701
 20
1526.5726279959081
 30
0.0
 42
-0.1703036214138359
  0
VERTEX
  5
12C4
  8
HATCH
 10
4454.9892076871192
 20
1545.080438589491
 30
0.0
 42
-0.2278377915826702
 70
     1
  0
VERTEX
  5
12C5
  8
HATCH
 10
4468.497018280701
 20
1551.5726279959081
 30
0.0
 42
-0.2278377915826684
  0
VERTEX
  5
12C6
  8
HATCH
 10
4482.0048288742828
 20
1545.080438589491
 30
0.0
 42
-0.1703036214138354
 70
     1
  0
VERTEX
  5
12C7
  8
HATCH
 10
4488.497018280701
 20
1526.5726279959081
 30
0.0
 42
-0.1703036214138303
  0
VERTEX
  5
12C8
  8
HATCH
 10
4482.0048288742828
 20
1508.0648174023261
 30
0.0
 42
-0.2278377915826667
 70
     1
  0
VERTEX
  5
12C9
  8
HATCH
 10
4468.497018280701
 20
1501.5726279959081
 30
0.0
 42
-0.2278377915826721
  0
VERTEX
  5
12CA
  8
HATCH
 10
4454.9892076871183
 20
1508.064817402327
 30
0.0
 42
-0.1703036214138317
 70
     1
  0
SEQEND
  5
12CB
  8
HATCH
  0
POLYLINE
  5
12CC
  8
HATCH
 66
     1
 10
0.0
 20
0.0
 30
0.0
 70
     3
  0
VERTEX
  5
12CD
  8
HATCH
 10
4408.497018280701
 20
1526.5726279959081
 30
0.0
 42
-0.1703036214138359
  0
VERTEX
  5
12CE
  8
HATCH
 10
4414.9892076871192
 20
1545.080438589491
 30
0.0
 42
-0.2278377915826702
 70
     1
  0
VERTEX
  5
12CF
  8
HATCH
 10
4428.4970182807001
 20
1551.5726279959081
 30
0.0
 42
-0.2278377915826684
  0
VERTEX
  5
12D0
  8
HATCH
 10
4442.0048288742819
 20
1545.080438589491
 30
0.0
 42
-0.1703036214138354
 70
     1
  0
VERTEX
  5
12D1
  8
HATCH
 10
4448.497018280701
 20
1526.5726279959081
 30
0.0
 42
-0.1703036214138303
  0
VERTEX
  5
12D2
  8
HATCH
 10
4442.0048288742837
 20
1508.0648174023261
 30
0.0
 42
-0.2278377915826667
 70
     1
  0
VERTEX
  5
12D3
  8
HATCH
 10
4428.4970182807001
 20
1501.5726279959081
 30
0.0
 42
-0.2278377915826721
  0
VERTEX
  5
12D4
  8
HATCH
 10
4414.9892076871183
 20
1508.064817402327
 30
0.0
 42
-0.1703036214138317
 70
     1
  0
SEQEND
  5
12D5
  8
HATCH
  0
LINE
  5
12D6
  8
SJC
 10
4368.497018280701
 20
1501.5726279959081
 30
0.0
 11
4368.497018280701
 21
1551.5726279959081
 31
0.0
  0
POLYLINE
  5
12D7
  8
HATCH
 66
     1
 10
0.0
 20
0.0
 30
0.0
 70
     3
  0
VERTEX
  5
12D8
  8
HATCH
 10
4368.497018280701
 20
1526.5726279959081
 30
0.0
 42
-0.1703036214138359
  0
VERTEX
  5
12D9
  8
HATCH
 10
4374.9892076871192
 20
1545.080438589491
 30
0.0
 42
-0.2278377915826702
 70
     1
  0
VERTEX
  5
12DA
  8
HATCH
 10
4388.497018280701
 20
1551.5726279959081
 30
0.0
 42
-0.2278377915826684
  0
VERTEX
  5
12DB
  8
HATCH
 10
4402.0048288742819
 20
1545.080438589491
 30
0.0
 42
-0.1703036214138354
 70
     1
  0
VERTEX
  5
12DC
  8
HATCH
 10
4408.497018280701
 20
1526.5726279959081
 30
0.0
 42
-0.1703036214138303
  0
VERTEX
  5
12DD
  8
HATCH
 10
4402.0048288742828
 20
1508.0648174023261
 30
0.0
 42
-0.2278377915826667
 70
     1
  0
VERTEX
  5
12DE
  8
HATCH
 10
4388.497018280701
 20
1501.5726279959081
 30
0.0
 42
-0.2278377915826721
  0
VERTEX
  5
12DF
  8
HATCH
 10
4374.9892076871183
 20
1508.064817402327
 30
0.0
 42
-0.1703036214138317
 70
     1
  0
SEQEND
  5
12E0
  8
HATCH
  0
POLYLINE
  5
12E1
  8
HATCH
 66
     1
 10
0.0
 20
0.0
 30
0.0
 70
     3
  0
VERTEX
  5
12E2
  8
HATCH
 10
4747.5515020145931
 20
1526.5726279959081
 30
0.0
 42
-0.1703036214138359
  0
VERTEX
  5
12E3
  8
HATCH
 10
4754.0436914210131
 20
1545.080438589491
 30
0.0
 42
-0.2278377915826702
 70
     1
  0
VERTEX
  5
12E4
  8
HATCH
 10
4767.551502014594
 20
1551.5726279959081
 30
0.0
 42
-0.2278377915826684
  0
VERTEX
  5
12E5
  8
HATCH
 10
4781.0593126081749
 20
1545.080438589491
 30
0.0
 42
-0.1703036214138354
 70
     1
  0
VERTEX
  5
12E6
  8
HATCH
 10
4787.551502014594
 20
1526.5726279959081
 30
0.0
 42
-0.1703036214138303
  0
VERTEX
  5
12E7
  8
HATCH
 10
4781.0593126081767
 20
1508.0648174023261
 30
0.0
 42
-0.2278377915826667
 70
     1
  0
VERTEX
  5
12E8
  8
HATCH
 10
4767.551502014594
 20
1501.5726279959081
 30
0.0
 42
-0.2278377915826721
  0
VERTEX
  5
12E9
  8
HATCH
 10
4754.0436914210113
 20
1508.064817402327
 30
0.0
 42
-0.1703036214138317
 70
     1
  0
SEQEND
  5
12EA
  8
HATCH
  0
LINE
  5
12EB
  8
SJC
 10
4868.7689385238036
 20
1501.5726279959081
 30
0.0
 11
4868.7689385238036
 21
1551.5726279959081
 31
0.0
  0
POLYLINE
  5
12EC
  8
HATCH
 66
     1
 10
0.0
 20
0.0
 30
0.0
 70
     3
  0
VERTEX
  5
12ED
  8
HATCH
 10
4827.5515020145931
 20
1526.5726279959081
 30
0.0
 42
-0.1703036214138359
  0
VERTEX
  5
12EE
  8
HATCH
 10
4834.0436914210122
 20
1545.080438589491
 30
0.0
 42
-0.2278377915826702
 70
     1
  0
VERTEX
  5
12EF
  8
HATCH
 10
4847.5515020145931
 20
1551.5726279959081
 30
0.0
 42
-0.2278377915826684
  0
VERTEX
  5
12F0
  8
HATCH
 10
4861.0593126081749
 20
1545.080438589491
 30
0.0
 42
-0.1703036214138354
 70
     1
  0
VERTEX
  5
12F1
  8
HATCH
 10
4867.5515020145931
 20
1526.5726279959081
 30
0.0
 42
-0.1703036214138303
  0
VERTEX
  5
12F2
  8
HATCH
 10
4861.0593126081758
 20
1508.0648174023261
 30
0.0
 42
-0.2278377915826667
 70
     1
  0
VERTEX
  5
12F3
  8
HATCH
 10
4847.5515020145931
 20
1501.5726279959081
 30
0.0
 42
-0.2278377915826721
  0
VERTEX
  5
12F4
  8
HATCH
 10
4834.0436914210104
 20
1508.064817402327
 30
0.0
 42
-0.1703036214138317
 70
     1
  0
SEQEND
  5
12F5
  8
HATCH
  0
POLYLINE
  5
12F6
  8
HATCH
 66
     1
 10
0.0
 20
0.0
 30
0.0
 70
     3
  0
VERTEX
  5
12F7
  8
HATCH
 10
4787.5515020145931
 20
1526.5726279959081
 30
0.0
 42
-0.1703036214138359
  0
VERTEX
  5
12F8
  8
HATCH
 10
4794.0436914210122
 20
1545.080438589491
 30
0.0
 42
-0.2278377915826702
 70
     1
  0
VERTEX
  5
12F9
  8
HATCH
 10
4807.5515020145931
 20
1551.5726279959081
 30
0.0
 42
-0.2278377915826684
  0
VERTEX
  5
12FA
  8
HATCH
 10
4821.059312608174
 20
1545.080438589491
 30
0.0
 42
-0.1703036214138354
 70
     1
  0
VERTEX
  5
12FB
  8
HATCH
 10
4827.5515020145931
 20
1526.5726279959081
 30
0.0
 42
-0.1703036214138303
  0
VERTEX
  5
12FC
  8
HATCH
 10
4821.0593126081758
 20
1508.0648174023261
 30
0.0
 42
-0.2278377915826667
 70
     1
  0
VERTEX
  5
12FD
  8
HATCH
 10
4807.5515020145931
 20
1501.5726279959081
 30
0.0
 42
-0.2278377915826721
  0
VERTEX
  5
12FE
  8
HATCH
 10
4794.0436914210104
 20
1508.064817402327
 30
0.0
 42
-0.1703036214138317
 70
     1
  0
SEQEND
  5
12FF
  8
HATCH
  0
LINE
  5
1300
  8
HATCH
 10
4418.6329784022528
 20
1602.618678088754
 30
0.0
 11
4580.4829784022531
 21
1764.468678088753
 31
0.0
  0
LINE
  5
1301
  8
HATCH
 10
4656.7829784022533
 20
1840.7686780887529
 30
0.0
 11
4818.6329784022519
 21
2002.6186780887531
 31
0.0
  0
LINE
  5
1302
  8
HATCH
 10
4418.6329784022528
 20
1779.3953733853921
 30
0.0
 11
4580.4829784022531
 21
1941.2453733853899
 31
0.0
  0
LINE
  5
1303
  8
HATCH
 10
4656.7829784022533
 20
2017.5453733853899
 30
0.0
 11
4790.8102330127731
 21
2151.572627995909
 31
0.0
  0
LINE
  5
1304
  8
HATCH
 10
4418.6329784022528
 20
1956.1720686820281
 30
0.0
 11
4580.4829784022531
 21
2118.0220686820271
 31
0.0
  0
LINE
  5
1305
  8
HATCH
 10
4656.7829784022533
 20
1663.991982792116
 30
0.0
 11
4818.6329784022537
 21
1825.841982792115
 31
0.0
  0
LINE
  5
1306
  8
HATCH
 10
4418.6329784022528
 20
1624.7157650008321
 30
0.0
 11
4580.4829784022531
 21
1786.5657650008329
 31
0.0
  0
LINE
  5
1307
  8
HATCH
 10
4656.7829784022533
 20
1862.8657650008331
 30
0.0
 11
4818.6329784022519
 21
2024.7157650008321
 31
0.0
  0
LINE
  5
1308
  8
HATCH
 10
4418.6329784022528
 20
1801.49246029747
 30
0.0
 11
4580.4829784022531
 21
1963.3424602974701
 31
0.0
  0
LINE
  5
1309
  8
HATCH
 10
4656.7829784022542
 20
2039.6424602974701
 30
0.0
 11
4768.6329784022519
 21
2151.4924602974688
 31
0.0
  0
LINE
  5
130A
  8
HATCH
 10
4418.6329784022528
 20
1978.269155594108
 30
0.0
 11
4580.4829784022531
 21
2140.1191555941068
 31
0.0
  0
LINE
  5
130B
  8
HATCH
 10
4656.7829784022533
 20
1686.089069704195
 30
0.0
 11
4818.6329784022537
 21
1847.9390697041949
 31
0.0
  0
LINE
  5
130C
  8
HATCH
 10
4418.6329784022528
 20
1646.8128519129129
 30
0.0
 11
4580.4829784022531
 21
1808.6628519129131
 31
0.0
  0
LINE
  5
130D
  8
HATCH
 10
4656.7829784022533
 20
1884.9628519129119
 30
0.0
 11
4818.6329784022519
 21
2046.812851912912
 31
0.0
  0
LINE
  5
130E
  8
HATCH
 10
4418.6329784022528
 20
1823.5895472095499
 30
0.0
 11
4580.4829784022531
 21
1985.4395472095489
 31
0.0
  0
LINE
  5
130F
  8
HATCH
 10
4656.7829784022542
 20
2061.7395472095491
 30
0.0
 11
4746.6160591886128
 21
2151.5726279959099
 31
0.0
  0
LINE
  5
1310
  8
HATCH
 10
4418.6329784022528
 20
2000.3662425061871
 30
0.0
 11
4569.8393638919752
 21
2151.572627995909
 31
0.0
  0
LINE
  5
1311
  8
HATCH
 10
4656.7829784022533
 20
1708.186156616275
 30
0.0
 11
4818.6329784022537
 21
1870.0361566162769
 31
0.0
  0
ARC
  5
1312
  8
SJC
 10
4618.6329784022519
 20
2913.4226279959089
 30
0.0
 40
38.149999999999643
 50
0.0
 51
180.0
  0
LINE
  5
1313
  8
SJC
 10
4580.4829784022531
 20
2151.572627995909
 30
0.0
 11
4318.6329784022519
 21
2151.572627995909
 31
0.0
1001
ACAD
1000
ASC_BOUNDS
1002
{
1070
    19
1005
0
1002
}
  0
LINE
  5
1314
  8
HATCH
 10
4544.3636236060447
 20
1551.572627995909
 30
0.0
 11
4580.4829784022531
 21
1587.6919827921161
 31
0.0
  0
LINE
  5
1315
  8
HATCH
 10
4721.1403189026832
 20
1551.572627995909
 30
0.0
 11
4818.6329784022537
 21
1649.065287495479
 31
0.0
  0
LINE
  5
1316
  8
HATCH
 10
4522.2665366939664
 20
1551.572627995909
 30
0.0
 11
4580.4829784022531
 21
1609.789069704196
 31
0.0
  0
LINE
  5
1317
  8
HATCH
 10
4699.0432319906031
 20
1551.572627995909
 30
0.0
 11
4818.6329784022519
 21
1671.1623744075589
 31
0.0
  0
LINE
  5
1318
  8
HATCH
 10
4500.1694497818862
 20
1551.572627995909
 30
0.0
 11
4580.4829784022531
 21
1631.886156616275
 31
0.0
  0
LINE
  5
1319
  8
HATCH
 10
4676.9461450785229
 20
1551.572627995909
 30
0.0
 11
4818.6329784022537
 21
1693.2594613196391
 31
0.0
  0
POLYLINE
  5
131E
  8
HATCH
 66
     1
 10
0.0
 20
0.0
 30
0.0
 70
     3
  0
VERTEX
  5
131F
  8
HATCH
 10
4488.497018280701
 20
1526.5726279959081
 30
0.0
 42
-0.1703036214138359
  0
VERTEX
  5
1320
  8
HATCH
 10
4494.9892076871192
 20
1545.080438589491
 30
0.0
 42
-0.2278377915826702
 70
     1
  0
VERTEX
  5
1321
  8
HATCH
 10
4508.497018280701
 20
1551.5726279959081
 30
0.0
 42
-0.2278377915826684
  0
VERTEX
  5
1322
  8
HATCH
 10
4522.0048288742819
 20
1545.080438589491
 30
0.0
 42
-0.1703036214138354
 70
     1
  0
VERTEX
  5
1323
  8
HATCH
 10
4528.497018280701
 20
1526.5726279959081
 30
0.0
 42
-0.1703036214138303
  0
VERTEX
  5
1324
  8
HATCH
 10
4522.0048288742828
 20
1508.0648174023261
 30
0.0
 42
-0.2278377915826667
 70
     1
  0
VERTEX
  5
1325
  8
HATCH
 10
4508.497018280701
 20
1501.5726279959081
 30
0.0
 42
-0.2278377915826721
  0
VERTEX
  5
1326
  8
HATCH
 10
4494.9892076871183
 20
1508.064817402327
 30
0.0
 42
-0.1703036214138317
 70
     1
  0
SEQEND
  5
1327
  8
HATCH
  0
POLYLINE
  5
1328
  8
HATCH
 66
     1
 10
0.0
 20
0.0
 30
0.0
 70
     3
  0
VERTEX
  5
1329
  8
HATCH
 10
4707.551502014594
 20
1526.5726279959081
 30
0.0
 42
-0.1703036214138359
  0
VERTEX
  5
132A
  8
HATCH
 10
4714.0436914210131
 20
1545.0804385894901
 30
0.0
 42
-0.2278377915826702
 70
     1
  0
VERTEX
  5
132B
  8
HATCH
 10
4727.5515020145949
 20
1551.5726279959081
 30
0.0
 42
-0.2278377915826684
  0
VERTEX
  5
132C
  8
HATCH
 10
4741.0593126081767
 20
1545.0804385894901
 30
0.0
 42
-0.1703036214138354
 70
     1
  0
VERTEX
  5
132D
  8
HATCH
 10
4747.551502014594
 20
1526.5726279959081
 30
0.0
 42
-0.1703036214138303
  0
VERTEX
  5
132E
  8
HATCH
 10
4741.0593126081776
 20
1508.0648174023261
 30
0.0
 42
-0.2278377915826667
 70
     1
  0
VERTEX
  5
132F
  8
HATCH
 10
4727.5515020145949
 20
1501.5726279959081
 30
0.0
 42
-0.2278377915826721
  0
VERTEX
  5
1330
  8
HATCH
 10
4714.0436914210122
 20
1508.0648174023261
 30
0.0
 42
-0.1703036214138317
 70
     1
  0
SEQEND
  5
1331
  8
HATCH
  0
DIMENSION
  5
1332
  8
SUNPOU
  2
*D13
 10
4818.6329784022537
 20
1350.385379250705
 30
0.0
 11
4618.6329784022537
 21
1390.885379250705
 31
0.0
 70
     0
 13
4418.6329784022528
 23
1551.572627995909
 33
0.0
 14
4818.6329784022537
 24
1551.572627995909
 34
0.0
1001
ACAD
1000
DSTYLE
1002
{
1070
   287
1070
     5
1070
    40
1040
15.0
1070
    41
1040
2.0
1070
    42
1040
1.0
1070
    43
1040
6.0
1070
    44
1040
1.0
1070
    73
1070
     0
1070
    74
1070
     0
1070
    77
1070
     1
1070
    78
1070
     8
1070
   140
1040
3.0
1070
   147
1040
1.1999999999999991
1070
   172
1070
     1
1070
   179
1070
     2
1070
   271
1070
     2
1070
   279
1070
     2
1070
   340
1005
11D
1002
}
  0
TEXT
  5
1845
  8
MOJI
 10
4085.4336669548052
 20
275.53872694897262
 30
0.0
 40
60.0
  1
※本製品は車両用防護柵の強度を保有するものではありません。
 41
0.8
  7
EXT08
 72
     1
 11
4904.062238383377
 21
275.53872694897262
 31
0.0
  0
LINE
  5
191E
  8
SJC
 10
1596.7125721558241
 20
2377.2726279959102
 30
0.0
 11
1596.7125721558241
 21
2425.8726279959092
 31
0.0
  0
ARC
  5
1920
  8
SJC
 10
1604.272306938715
 20
2401.5726279959099
 30
0.0
 40
38.149999999999942
 50
140.43454069640379
 51
219.56545930359621
  0
LINE
  5
1921
  8
SJC
 10
3476.712572155825
 20
2377.2726279959102
 30
0.0
 11
3476.712572155825
 21
2425.8726279959092
 31
0.0
  0
LINE
  5
1922
  8
SJC
 10
1596.7125721558241
 20
2627.2726279959102
 30
0.0
 11
1596.7125721558241
 21
2675.8726279959092
 31
0.0
  0
LINE
  5
1923
  8
SJC
 10
3476.712572155825
 20
2627.2726279959102
 30
0.0
 11
3476.712572155825
 21
2675.8726279959092
 31
0.0
  0
INSERT
  5
1924
  8
KASOU
  6
CONTINUOUS
  2
*X16
 10
0.0
 20
0.0
 30
0.0
1001
ACAD
1000
HATCH
1002
{
1070
    19
1000
ANSI31
1040
100.0
1040
0.0
1000
R14_HATCH_DATA
1000
1924
1011
1.0
1021
0.0
1031
2.0332422256469727
1021
0.0
1031
0.0
1011
0.0
1021
0.0
1031
2.0332422256469727
1021
1.0
1031
0.0
1011
0.0
1021
0.0
1031
2.0332422256469727
1021
0.0
1031
1.0
1040
0.0
1010
0.0
1020
0.0
1030
1.0
1000
ANSI31
1070
     0
1070
     0
1071
        1
1071
        1
1071
        4
1070
     1
1040
1596.7125721558241
1040
2377.2726279959102
1040
3476.712572155825
1040
2377.2726279959102
1070
     1
1040
3476.712572155825
1040
2377.2726279959102
1040
3476.712572155825
1040
2425.8726279959092
1070
     1
1040
3476.712572155825
1040
2425.8726279959092
1040
1596.712572155825
1040
2425.8726279959092
1070
     1
1040
1596.7125721558241
1040
2425.8726279959092
1040
1596.7125721558241
1040
2377.2726279959102
1071
        0
1070
     0
1070
     1
1040
0.0
1040
100.0
1070
     0
1070
     1
1040
0.7853981633974483
1040
172.72188575514059
1040
804.5298296727874
1040
-8.8388347648318426
1040
8.8388347648318444
1070
     0
1071
        1
1040
172.72188575514059
1040
804.5298296727874
1040
0.0
1002
}
  0
INSERT
  5
1925
  8
KASOU
  6
CONTINUOUS
  2
*X17
 10
0.0
 20
0.0
 30
0.0
1001
ACAD
1000
HATCH
1002
{
1070
    19
1000
ANSI31
1040
100.0
1040
0.0
1000
R14_HATCH_DATA
1000
1925
1011
1.0
1021
0.0
1031
2.0332422256469727
1021
0.0
1031
0.0
1011
0.0
1021
0.0
1031
2.0332422256469727
1021
1.0
1031
0.0
1011
0.0
1021
0.0
1031
2.0332422256469727
1021
0.0
1031
1.0
1040
0.0
1010
0.0
1020
0.0
1030
1.0
1000
ANSI31
1070
     0
1070
     0
1071
        1
1071
        1
1071
        4
1070
     1
1040
1596.7125721558241
1040
2627.2726279959102
1040
3476.712572155825
1040
2627.2726279959102
1070
     1
1040
3476.712572155825
1040
2627.2726279959102
1040
3476.712572155825
1040
2675.8726279959092
1070
     1
1040
3476.712572155825
1040
2675.8726279959092
1040
1596.712572155825
1040
2675.8726279959092
1070
     1
1040
1596.7125721558241
1040
2675.8726279959092
1040
1596.7125721558241
1040
2627.2726279959102
1071
        0
1070
     0
1070
     1
1040
0.0
1040
100.0
1070
     0
1070
     1
1040
0.7853981633974483
1040
172.72188575514059
1040
1054.5298296727869
1040
-8.8388347648318426
1040
8.8388347648318444
1070
     0
1071
        1
1040
172.72188575514059
1040
1054.5298296727869
1040
0.0
1002
}
  0
INSERT
  5
1926
  8
0
  2
*U18
 10
0.0
 20
0.0
 30
0.0
1001
ACAD
1000
DSTYLE
1002
{
1070
     5
1000

1070
    40
1040
15.0
1070
    41
1040
2.0
1070
    42
1040
1.0
1070
    43
1040
6.0
1070
    44
1040
1.0
1070
    73
1070
     0
1070
    74
1070
     0
1070
    77
1070
     1
1070
    78
1070
     8
1070
   140
1040
3.0
1070
   147
1040
1.1999999999999991
1070
   172
1070
     1
1070
   179
1070
     2
1070
   271
1070
     2
1070
   279
1070
     2
1070
   340
1005
11D
1070
   342
1005
0
1002
}
  0
INSERT
  5
1927
  8
0
  2
*U19
 10
0.0
 20
0.0
 30
0.0
  0
LINE
  5
1928
  8
MOJI
  6
CONTINUOUS
 10
3059.4358496801551
 20
2204.363989707354
 30
0.0
 11
3466.8536548926891
 21
2204.363989707354
 31
0.0
  0
INSERT
  5
1929
  8
0
  2
*U20
 10
0.0
 20
0.0
 30
0.0
1001
ACAD
1000
DSTYLE
1002
{
1070
     5
1000

1070
    40
1040
15.0
1070
    41
1040
2.0
1070
    42
1040
1.0
1070
    43
1040
6.0
1070
    44
1040
1.0
1070
    73
1070
     0
1070
    74
1070
     0
1070
    77
1070
     1
1070
    78
1070
     8
1070
   140
1040
3.0
1070
   147
1040
1.1999999999999991
1070
   172
1070
     1
1070
   179
1070
     2
1070
   271
1070
     2
1070
   279
1070
     2
1070
   340
1005
11D
1070
   342
1005
0
1002
}
  0
INSERT
  5
192A
  8
0
  2
*U21
 10
0.0
 20
0.0
 30
0.0
  0
LINE
  5
192B
  8
MOJI
  6
CONTINUOUS
 10
2949.1205133939029
 20
2743.9098057646629
 30
0.0
 11
3243.3655461691792
 21
2743.9098057646629
 31
0.0
  0
DIMENSION
  5
1A23
  8
SUNPOU
  2
*D15
 10
1039.952722366379
 20
2951.572627995909
 30
0.0
 11
999.45272236637845
 21
2551.5726279959099
 31
0.0
 70
     0
 13
1126.1739062937299
 23
2151.572627995909
 33
0.0
 14
1736.7125721558259
 24
2951.572627995909
 34
0.0
 50
90.0
1001
ACAD
1000
DSTYLE
1002
{
1070
   287
1070
     5
1070
    40
1040
15.0
1070
    41
1040
2.0
1070
    42
1040
1.0
1070
    43
1040
6.0
1070
    44
1040
1.0
1070
    73
1070
     0
1070
    74
1070
     0
1070
    77
1070
     1
1070
    78
1070
     8
1070
   140
1040
3.0
1070
   147
1040
1.1999999999999991
1070
   172
1070
     1
1070
   179
1070
     2
1070
   271
1070
     2
1070
   279
1070
     2
1070
   340
1005
11D
1002
}
  0
ENDSEC
  0
EOF
