  0
SECTION
  2
HEADER
  9
$ACADVER
  1
AC1009
  9
$INSBASE
 10
0.0
 20
0.0
 30
0.0
  9
$EXTMIN
 10
0.0
 20
0.0
 30
0.0
  9
$EXTMAX
 10
3700.0
 20
2670.0
 30
0.0
  9
$LIMMIN
 10
0.0
 20
0.0
  9
$LIMMAX
 10
4200.0
 20
2970.0
  9
$ORTHOMODE
 70
     1
  9
$REGENMODE
 70
     1
  9
$FILLMODE
 70
     1
  9
$QTEXTMODE
 70
     0
  9
$MIRRTEXT
 70
     0
  9
$DRAGMODE
 70
     2
  9
$LTSCALE
 40
100.0
  9
$OSMODE
 70
    37
  9
$ATTMODE
 70
     1
  9
$TEXTSIZE
 40
30.0
  9
$TRACEWID
 40
0.05
  9
$TEXTSTYLE
  7
EXT08
  9
$CLAYER
  8
0
  9
$CELTYPE
  6
BYLAYER
  9
$CECOLOR
 62
   256
  9
$DIMSCALE
 40
10.0
  9
$DIMASZ
 40
2.0
  9
$DIMEXO
 40
1.0
  9
$DIMDLI
 40
6.0
  9
$DIMRND
 40
0.0
  9
$DIMDLE
 40
0.0
  9
$DIMEXE
 40
1.0
  9
$DIMTP
 40
0.0
  9
$DIMTM
 40
0.0
  9
$DIMTXT
 40
3.0
  9
$DIMCEN
 40
0.1
  9
$DIMTSZ
 40
0.0
  9
$DIMTOL
 70
     0
  9
$DIMLIM
 70
     0
  9
$DIMTIH
 70
     0
  9
$DIMTOH
 70
     0
  9
$DIMSE1
 70
     0
  9
$DIMSE2
 70
     0
  9
$DIMTAD
 70
     1
  9
$DIMZIN
 70
     8
  9
$DIMBLK
  1

  9
$DIMASO
 70
     1
  9
$DIMSHO
 70
     1
  9
$DIMPOST
  1

  9
$DIMAPOST
  1

  9
$DIMALT
 70
     0
  9
$DIMALTD
 70
     2
  9
$DIMALTF
 40
25.399999999999999
  9
$DIMLFAC
 40
1.0
  9
$DIMTOFL
 70
     1
  9
$DIMTVP
 40
0.0
  9
$DIMTIX
 70
     0
  9
$DIMSOXD
 70
     0
  9
$DIMSAH
 70
     0
  9
$DIMBLK1
  1

  9
$DIMBLK2
  1

  9
$DIMSTYLE
  2
SJC
  9
$DIMCLRD
 70
   256
  9
$DIMCLRE
 70
   256
  9
$DIMCLRT
 70
   256
  9
$DIMTFAC
 40
1.0
  9
$DIMGAP
 40
1.1999999999999991
  9
$LUNITS
 70
     2
  9
$LUPREC
 70
     2
  9
$SKETCHINC
 40
0.1
  9
$FILLETRAD
 40
0.25
  9
$AUNITS
 70
     1
  9
$AUPREC
 70
     2
  9
$MENU
  1
C:\r13\win\SUPPORT\sjc
  9
$ELEVATION
 40
0.0
  9
$PELEVATION
 40
0.0
  9
$THICKNESS
 40
0.0
  9
$LIMCHECK
 70
     0
  9
$BLIPMODE
 70
     0
  9
$CHAMFERA
 40
0.0
  9
$CHAMFERB
 40
0.0
  9
$SKPOLY
 70
     0
  9
$TDCREATE
 40
2450469.5475357641
  9
$TDUPDATE
 40
2454478.470812893
  9
$TDINDWG
 40
0.4120085185
  9
$TDUSRTIMER
 40
0.4120085185
  9
$USRTIMER
 70
     1
  9
$ANGBASE
 50
0.0
  9
$ANGDIR
 70
     0
  9
$PDMODE
 70
     0
  9
$PDSIZE
 40
0.0
  9
$PLINEWID
 40
0.0
  9
$COORDS
 70
     1
  9
$SPLFRAME
 70
     0
  9
$SPLINETYPE
 70
     6
  9
$SPLINESEGS
 70
     8
  9
$ATTDIA
 70
     0
  9
$ATTREQ
 70
     1
  9
$HANDLING
 70
     1
  9
$HANDSEED
  5
1C8CDE6AA263
  9
$SURFTAB1
 70
     6
  9
$SURFTAB2
 70
     6
  9
$SURFTYPE
 70
     6
  9
$SURFU
 70
     6
  9
$SURFV
 70
     6
  9
$UCSNAME
  2

  9
$UCSORG
 10
0.0
 20
0.0
 30
0.0
  9
$UCSXDIR
 10
1.0
 20
0.0
 30
0.0
  9
$UCSYDIR
 10
0.0
 20
1.0
 30
0.0
  9
$PUCSNAME
  2

  9
$PUCSORG
 10
0.0
 20
0.0
 30
0.0
  9
$PUCSXDIR
 10
1.0
 20
0.0
 30
0.0
  9
$PUCSYDIR
 10
0.0
 20
1.0
 30
0.0
  9
$USERI1
 70
     3
  9
$USERI2
 70
    10
  9
$USERI3
 70
     0
  9
$USERI4
 70
     0
  9
$USERI5
 70
     0
  9
$USERR1
 40
0.1
  9
$USERR2
 40
0.0
  9
$USERR3
 40
0.0
  9
$USERR4
 40
0.0
  9
$USERR5
 40
0.0
  9
$WORLDVIEW
 70
     1
  9
$SHADEDGE
 70
     3
  9
$SHADEDIF
 70
    70
  9
$TILEMODE
 70
     1
  9
$MAXACTVP
 70
    16
  9
$PLIMCHECK
 70
     0
  9
$PEXTMIN
 10
1.0000000000000000E+020
 20
1.0000000000000000E+020
 30
1.0000000000000000E+020
  9
$PEXTMAX
 10
-1.0000000000000000E+020
 20
-1.0000000000000000E+020
 30
-1.0000000000000000E+020
  9
$PLIMMIN
 10
0.0
 20
0.0
  9
$PLIMMAX
 10
12.0
 20
9.0
  9
$UNITMODE
 70
     0
  9
$VISRETAIN
 70
     0
  9
$PLINEGEN
 70
     0
  9
$PSLTSCALE
 70
     0
  0
ENDSEC
  0
SECTION
  2
TABLES
  0
TABLE
  2
VPORT
 70
     2
  0
VPORT
  2
*ACTIVE
 70
     0
 10
0.0
 20
0.0
 11
1.0
 21
1.0
 12
2099.9679751230551
 22
1577.518289118796
 13
0.0
 23
0.0
 14
5.0
 24
5.0
 15
0.0
 25
0.0
 16
0.0
 26
0.0
 36
1.0
 17
0.0
 27
0.0
 37
0.0
 40
3190.9108411103171
 41
1.9010526315789471
 42
50.0
 43
0.0
 44
0.0
 50
0.0
 51
0.0
 71
     0
 72
   500
 73
     1
 74
     0
 75
     0
 76
     0
 77
     0
 78
     2
  0
ENDTAB
  0
TABLE
  2
LTYPE
 70
     7
  0
LTYPE
  2
CONTINUOUS
 70
     0
  3
実線
 72
    65
 73
     0
 40
0.0
  0
LTYPE
  2
DIVIDE2
 70
     0
  3
__..__..__..__..__..__..__..__..__..__..__..__.
 72
    65
 73
     6
 40
0.625
 49
0.25
 49
-0.125
 49
0.0
 49
-0.125
 49
0.0
 49
-0.125
  0
LTYPE
  2
HIDDEN2
 70
     0
  3
_ _ _ _ _ _ _ _ _ _ _ _ _ _ _ _ _ _ _ _ _ _ _ _
 72
    65
 73
     2
 40
0.1875
 49
0.125
 49
-0.0625
  0
LTYPE
  2
CENTER2
 70
     0
  3
___ _ ___ _ ___ _ ___ _ ___ _ ___ _ ___ _ ___ _
 72
    65
 73
     4
 40
1.125
 49
0.75
 49
-0.125
 49
0.125
 49
-0.125
  0
LTYPE
  2
CENTER
 70
     0
  3
____ _ ____ _ ____ _ ____ _ ____ _ ____ _ ____ 
 72
    65
 73
     4
 40
2.0
 49
1.25
 49
-0.25
 49
0.25
 49
-0.25
  0
LTYPE
  2
HIDDEN
 70
     0
  3
__ __ __ __ __ __ __ __ __ __ __ __ __ __ __ __
 72
    65
 73
     2
 40
0.375
 49
0.25
 49
-0.125
  0
LTYPE
  2
PHANTOM
 70
     0
  3
______  __  __  ______  __  __  ______  __  __ 
 72
    65
 73
     6
 40
2.5
 49
1.25
 49
-0.25
 49
0.25
 49
-0.25
 49
0.25
 49
-0.25
  0
ENDTAB
  0
TABLE
  2
LAYER
 70
    16
  0
LAYER
  2
0
 70
     0
 62
    41
  6
DIVIDE2
  0
LAYER
  2
CENTER
 70
     0
 62
     3
  6
CENTER
  0
LAYER
  2
SUNPOU
 70
     0
 62
     4
  6
CONTINUOUS
  0
LAYER
  2
WAKU
 70
     0
 62
     5
  6
CONTINUOUS
  0
LAYER
  2
MOJI
 70
     0
 62
     6
  6
CONTINUOUS
  0
LAYER
  2
HASEN
 70
     0
 62
     7
  6
HIDDEN
  0
LAYER
  2
SAISEN
 70
     0
 62
     9
  6
CONTINUOUS
  0
LAYER
  2
SJC
 70
     0
 62
     1
  6
CONTINUOUS
  0
LAYER
  2
KASOU
 70
     0
 62
     2
  6
PHANTOM
  0
LAYER
  2
ZWAKU
 70
     1
 62
    -7
  6
CONTINUOUS
  0
LAYER
  2
HOJO
 70
     0
 62
    -8
  6
CONTINUOUS
  0
LAYER
  2
DEFPOINTS
 70
     0
 62
     7
  6
CONTINUOUS
  0
LAYER
  2
INFORMATION
 70
     1
 62
     7
  6
CONTINUOUS
  0
LAYER
  2
SJC2
 70
     0
 62
     7
  6
CONTINUOUS
  0
LAYER
  2
MOJI2
 70
     0
 62
     1
  6
CONTINUOUS
  0
LAYER
  2
HATCH
 70
     0
 62
     2
  6
CONTINUOUS
  0
ENDTAB
  0
TABLE
  2
STYLE
 70
     9
  0
STYLE
  2
STANDARD
 70
     0
 40
2.5
 41
0.8
 50
0.0
 71
     0
 42
25.0
  3
ROMANS.SHX
  4
BIGFONT
  0
STYLE
  2
NOBO
 70
     0
 40
3.0
 41
0.85
 50
15.0
 71
     0
 42
25.0
  3
ROMANS
  4
BIGFONT
  0
STYLE
  2
SIMPLEX
 70
     0
 40
0.0
 41
1.0
 50
0.0
 71
     0
 42
25.0
  3
SCRIPTS.SHX
  4

  0
STYLE
  2
KANJI
 70
     0
 40
0.0
 41
1.0
 50
0.0
 71
     0
 42
25.0
  3
ROMANS.SHX
  4
BIGFONT.SHX
  0
STYLE
  2
TATEEXT
 70
     4
 40
0.0
 41
1.0
 50
0.0
 71
     0
 42
25.0
  3
ROMANS
  4
EXTFONT
  0
STYLE
  2
TATEBIG
 70
     4
 40
0.0
 41
5.0
 50
0.0
 71
     0
 42
25.0
  3
ROMANS
  4
BIGFONT
  0
STYLE
  2
EXT08
 70
     0
 40
0.0
 41
0.8
 50
0.0
 71
     0
 42
30.0
  3
ROMANS
  4
EXTFONT
  0
STYLE
  2
EXT
 70
     0
 40
0.0
 41
1.0
 50
0.0
 71
     0
 42
25.0
  3
ROMANS
  4
EXTFONT
  0
STYLE
  2
KANJI08
 70
     0
 40
0.0
 41
0.8
 50
0.0
 71
     0
 42
25.0
  3
ROMANS
  4
BIGFONT
  0
ENDTAB
  0
TABLE
  2
VIEW
 70
     0
  0
ENDTAB
  0
TABLE
  2
UCS
 70
     0
  0
ENDTAB
  0
TABLE
  2
APPID
 70
     2
  0
APPID
  2
ACAD
 70
     0
  0
APPID
  2
ACAD_PSEXT
 70
     0
  0
ENDTAB
  0
TABLE
  2
DIMSTYLE
 70
     4
  0
DIMSTYLE
  2
STANDARD
 70
     0
  3

  4

  5

  6

  7

 40
1.0
 41
20.0
 42
10.0
 43
0.4
 44
10.0
 45
0.0
 46
0.0
 47
0.0
 48
0.0
140
25.0
141
0.1
142
0.0
143
25.399999999999999
144
1.0
145
0.0
146
1.0
147
15.0
 71
     0
 72
     0
 73
     0
 74
     0
 75
     0
 76
     0
 77
     1
 78
     8
170
     0
171
     2
172
     1
173
     0
174
     0
175
     0
176
   256
177
   256
178
   256
  0
DIMSTYLE
  2
SJC
 70
     0
  3

  4

  5

  6

  7

 40
1.0
 41
20.0
 42
10.0
 43
0.4
 44
10.0
 45
0.0
 46
0.0
 47
0.0
 48
0.0
140
25.0
141
0.1
142
0.0
143
25.399999999999999
144
1.0
145
0.0
146
1.0
147
15.0
 71
     0
 72
     0
 73
     0
 74
     0
 75
     0
 76
     0
 77
     1
 78
     8
170
     0
171
     2
172
     1
173
     0
174
     0
175
     0
176
   256
177
   256
178
   256
  0
DIMSTYLE
  2
RUISEKI1
 70
     0
  3

  4

  5

  6

  7

 40
10.0
 41
2.0
 42
1.0
 43
6.0
 44
30.0
 45
0.0
 46
0.0
 47
0.0
 48
0.0
140
25.0
141
0.1
142
0.0
143
25.399999999999999
144
1.0
145
0.0
146
1.0
147
1.5
 71
     0
 72
     0
 73
     0
 74
     0
 75
     0
 76
     0
 77
     1
 78
     8
170
     0
171
     2
172
     1
173
     1
174
     0
175
     0
176
   256
177
   256
178
   256
  0
DIMSTYLE
  2
RUISEKI2
 70
     0
  3

  4

  5

  6

  7

 40
10.0
 41
2.0
 42
1.0
 43
6.0
 44
30.0
 45
0.0
 46
0.0
 47
0.0
 48
0.0
140
25.0
141
0.1
142
0.0
143
25.399999999999999
144
1.0
145
0.0
146
1.0
147
1.5
 71
     0
 72
     0
 73
     0
 74
     0
 75
     0
 76
     0
 77
     1
 78
     8
170
     0
171
     2
172
     1
173
     1
174
     0
175
     0
176
   256
177
   256
178
   256
  0
ENDTAB
  0
ENDSEC
  0
SECTION
  2
BLOCKS
  0
BLOCK
  8
0
  2
$MODEL_SPACE
 70
     0
 10
0.0
 20
0.0
 30
0.0
  3
$MODEL_SPACE
  1

  0
ENDBLK
  5
1C8CDE699D7F
  8
0
  0
BLOCK
 67
     1
  8
0
  2
$PAPER_SPACE
 70
     0
 10
0.0
 20
0.0
 30
0.0
  3
$PAPER_SPACE
  1

  0
ENDBLK
  5
1C8CDE699D7D
 67
     1
  8
0
  0
BLOCK
  8
0
  2
CALCOMP_TECHJET720A3
 70
     0
 10
0.0
 20
0.0
 30
0.0
  3
CALCOMP_TECHJET720A3
  1

  0
POLYLINE
  5
1C8CDE699D86
  8
ZWAKU
 62
     2
 66
     1
 10
0.0
 20
0.0
 30
0.0
 70
     1
  0
VERTEX
  5
1C8CDE6AA130
  8
ZWAKU
 62
     2
 10
0.0
 20
0.0
 30
0.0
  0
VERTEX
  5
1C8CDE6AA131
  8
ZWAKU
 62
     2
 10
0.0
 20
267.0
 30
0.0
  0
VERTEX
  5
1C8CDE6AA132
  8
ZWAKU
 62
     2
 10
370.0
 20
267.0
 30
0.0
  0
VERTEX
  5
1C8CDE6AA133
  8
ZWAKU
 62
     2
 10
370.0
 20
0.0
 30
0.0
  0
SEQEND
  5
1C8CDE6AA134
  8
ZWAKU
 62
     2
  0
ENDBLK
  5
1C8CDE699D8D
  8
0
  0
BLOCK
  8
0
  2
*D1
 70
     1
 10
0.0
 20
0.0
 30
0.0
  3
*D1
  1

  0
LINE
  5
1C8CDE6A9C7E
  8
0
  6
BYBLOCK
 10
1511.283380814742
 20
1763.407711124524
 30
0.0
 11
1104.1331109826419
 21
1763.407711124524
 31
0.0
  0
LINE
  5
1C8CDE6A9C7F
  8
0
  6
BYBLOCK
 10
1211.922123549366
 20
963.40771112452376
 30
0.0
 11
1104.1331109826419
 21
963.40771112452376
 31
0.0
  0
LINE
  5
1C8CDE6A9C80
  8
0
  6
BYBLOCK
 10
1114.1331109826419
 20
1743.407711124524
 30
0.0
 11
1114.1331109826419
 21
983.40771112452364
 31
0.0
  0
SOLID
  5
1C8CDE6A9C81
  8
0
  6
BYBLOCK
 10
1110.7997776493089
 20
1743.407711124524
 30
0.0
 11
1117.466444315975
 21
1743.407711124524
 31
0.0
 12
1114.1331109826419
 22
1763.407711124524
 32
0.0
 13
1114.1331109826419
 23
1763.407711124524
 33
0.0
  0
SOLID
  5
1C8CDE6A9C82
  8
0
  6
BYBLOCK
 10
1110.7997776493089
 20
983.40771112452364
 30
0.0
 11
1117.466444315975
 21
983.40771112452364
 31
0.0
 12
1114.1331109826419
 22
963.40771112452376
 32
0.0
 13
1114.1331109826419
 23
963.40771112452376
 33
0.0
  0
INSERT
  5
1C8CDE6A9C83
  8
0
  2
*U11
 10
0.0
 20
0.0
 30
0.0
  0
POINT
  5
1C8CDE6A9C84
  8
DEFPOINTS
  6
BYBLOCK
 62
     0
 10
1521.283380814742
 20
1763.407711124524
 30
0.0
  0
POINT
  5
1C8CDE6A9C85
  8
DEFPOINTS
  6
BYBLOCK
 62
     0
 10
1221.922123549366
 20
963.40771112452376
 30
0.0
  0
POINT
  5
1C8CDE6A9C86
  8
DEFPOINTS
  6
BYBLOCK
 62
     0
 10
1114.1331109826419
 20
963.40771112452376
 30
0.0
  0
ENDBLK
  5
1C8CDE6A9C87
  8
0
  0
BLOCK
  8
0
  2
*D2
 70
     1
 10
0.0
 20
0.0
 30
0.0
  3
*D2
  1

  0
LINE
  5
1C8CDE6A9C89
  8
0
  6
BYBLOCK
 10
1511.283380814742
 20
1763.407711124524
 30
0.0
 11
1004.1331109826421
 21
1763.407711124524
 31
0.0
  0
LINE
  5
1C8CDE6A9C8A
  8
0
  6
BYBLOCK
 10
1125.584672242542
 20
563.40770218382329
 30
0.0
 11
1004.1331109826421
 21
563.40770218382329
 31
0.0
  0
LINE
  5
1C8CDE6A9C8B
  8
0
  6
BYBLOCK
 10
1014.1331109826421
 20
1743.407711124524
 30
0.0
 11
1014.1331109826421
 21
583.4077021838234
 31
0.0
  0
SOLID
  5
1C8CDE6A9C8C
  8
0
  6
BYBLOCK
 10
1010.799777649309
 20
1743.407711124524
 30
0.0
 11
1017.466444315975
 21
1743.407711124524
 31
0.0
 12
1014.1331109826421
 22
1763.407711124524
 32
0.0
 13
1014.1331109826421
 23
1763.407711124524
 33
0.0
  0
SOLID
  5
1C8CDE6A9C8D
  8
0
  6
BYBLOCK
 10
1010.799777649309
 20
583.4077021838234
 30
0.0
 11
1017.466444315975
 21
583.4077021838234
 31
0.0
 12
1014.1331109826421
 22
563.40770218382329
 32
0.0
 13
1014.1331109826421
 23
563.40770218382329
 33
0.0
  0
INSERT
  5
1C8CDE6A9C8E
  8
0
  2
*U12
 10
0.0
 20
0.0
 30
0.0
  0
POINT
  5
1C8CDE6A9C8F
  8
DEFPOINTS
  6
BYBLOCK
 62
     0
 10
1521.283380814742
 20
1763.407711124524
 30
0.0
  0
POINT
  5
1C8CDE6A9C90
  8
DEFPOINTS
  6
BYBLOCK
 62
     0
 10
1135.584672242542
 20
563.40770218382329
 30
0.0
  0
POINT
  5
1C8CDE6A9C91
  8
DEFPOINTS
  6
BYBLOCK
 62
     0
 10
1014.1331109826421
 20
563.40770218382329
 30
0.0
  0
ENDBLK
  5
1C8CDE6A9C92
  8
0
  0
BLOCK
  8
0
  2
*D3
 70
     1
 10
0.0
 20
0.0
 30
0.0
  3
*D3
  1

  0
LINE
  5
1C8CDE6A9C4D
  8
0
  6
BYBLOCK
 10
5375.3905471676217
 20
695.95992925180303
 30
0.0
 11
5075.7402798500216
 21
695.95992925180303
 31
0.0
  0
LINE
  5
1C8CDE6A9C4E
  8
0
  6
BYBLOCK
 10
5382.891420711504
 20
645.95993819250293
 30
0.0
 11
5075.7402798500216
 21
645.95993819250293
 31
0.0
  0
LINE
  5
1C8CDE6A9C4F
  8
0
  6
BYBLOCK
 10
5085.7402798500216
 20
715.95992925180303
 30
0.0
 11
5085.7402798500216
 21
735.95992925180303
 31
0.0
  0
LINE
  5
1C8CDE6A9C50
  8
0
  6
BYBLOCK
 10
5085.7402798500216
 20
625.95993819250293
 30
0.0
 11
5085.7402798500216
 21
605.95993819250293
 31
0.0
  0
INSERT
  5
1C8CDE6A9C51
  8
0
  2
*U7
 10
0.0
 20
0.0
 30
0.0
  0
LINE
  5
1C8CDE6A9C52
  8
0
  6
BYBLOCK
 10
5085.7402798500216
 20
695.95992925180303
 30
0.0
 11
5085.7402798500216
 21
645.95993819250293
 31
0.0
  0
SOLID
  5
1C8CDE6A9C53
  8
0
  6
BYBLOCK
 10
5082.4069465166885
 20
715.95992925180303
 30
0.0
 11
5089.0736131833546
 21
715.95992925180303
 31
0.0
 12
5085.7402798500216
 22
695.95992925180303
 32
0.0
 13
5085.7402798500216
 23
695.95992925180303
 33
0.0
  0
SOLID
  5
1C8CDE6A9C54
  8
0
  6
BYBLOCK
 10
5082.4069465166885
 20
625.95993819250293
 30
0.0
 11
5089.0736131833546
 21
625.95993819250293
 31
0.0
 12
5085.7402798500216
 22
645.95993819250293
 32
0.0
 13
5085.7402798500216
 23
645.95993819250293
 33
0.0
  0
POINT
  5
1C8CDE6A9C55
  8
DEFPOINTS
  6
BYBLOCK
 62
     0
 10
5385.3905471676217
 20
695.95992925180303
 30
0.0
  0
POINT
  5
1C8CDE6A9C56
  8
DEFPOINTS
  6
BYBLOCK
 62
     0
 10
5392.891420711504
 20
645.95993819250293
 30
0.0
  0
POINT
  5
1C8CDE6A9C57
  8
DEFPOINTS
  6
BYBLOCK
 62
     0
 10
5085.7402798500216
 20
645.95993819250293
 30
0.0
  0
ENDBLK
  5
1C8CDE6A9C58
  8
0
  0
BLOCK
  8
0
  2
*D4
 70
     1
 10
0.0
 20
0.0
 30
0.0
  3
*D4
  1

  0
LINE
  5
1C8CDE6A9C5B
  8
0
  6
BYBLOCK
 10
5303.0595925469443
 20
1095.9599381925029
 30
0.0
 11
5175.7402798500216
 21
1095.9599381925029
 31
0.0
  0
LINE
  5
1C8CDE6A9C5C
  8
0
  6
BYBLOCK
 10
5385.3905471676217
 20
695.95992925180303
 30
0.0
 11
5175.7402798500216
 21
695.95992925180303
 31
0.0
  0
LINE
  5
1C8CDE6A9C5D
  8
0
  6
BYBLOCK
 10
5185.7402798500234
 20
1075.9599381925029
 30
0.0
 11
5185.7402798500234
 21
715.95992925180303
 31
0.0
  0
SOLID
  5
1C8CDE6A9C5E
  8
0
  6
BYBLOCK
 10
5182.4069465166885
 20
1075.9599381925029
 30
0.0
 11
5189.0736131833564
 21
1075.9599381925029
 31
0.0
 12
5185.7402798500234
 22
1095.9599381925029
 32
0.0
 13
5185.7402798500234
 23
1095.9599381925029
 33
0.0
  0
SOLID
  5
1C8CDE6A9C5F
  8
0
  6
BYBLOCK
 10
5182.4069465166885
 20
715.95992925180303
 30
0.0
 11
5189.0736131833564
 21
715.95992925180303
 31
0.0
 12
5185.7402798500234
 22
695.95992925180303
 32
0.0
 13
5185.7402798500234
 23
695.95992925180303
 33
0.0
  0
INSERT
  5
1C8CDE6A9C60
  8
0
  2
*U8
 10
0.0
 20
0.0
 30
0.0
  0
POINT
  5
1C8CDE6A9C61
  8
DEFPOINTS
  6
BYBLOCK
 62
     0
 10
5313.0595925469433
 20
1095.9599381925029
 30
0.0
  0
POINT
  5
1C8CDE6A9C62
  8
DEFPOINTS
  6
BYBLOCK
 62
     0
 10
5395.3905471676217
 20
695.95992925180303
 30
0.0
  0
POINT
  5
1C8CDE6A9C63
  8
DEFPOINTS
  6
BYBLOCK
 62
     0
 10
5185.7402798500234
 20
695.95992925180303
 30
0.0
  0
ENDBLK
  5
1C8CDE6A9C64
  8
0
  0
BLOCK
  8
0
  2
*D5
 70
     1
 10
0.0
 20
0.0
 30
0.0
  3
*D5
  1

  0
LINE
  5
1C8CDE6A9C67
  8
0
  6
BYBLOCK
 10
5442.891420711504
 20
635.95993819250293
 30
0.0
 11
5442.891420711504
 21
485.95993819250339
 31
0.0
  0
LINE
  5
1C8CDE6A9C68
  8
0
  6
BYBLOCK
 10
5742.891420711504
 20
635.95993819250293
 30
0.0
 11
5742.891420711504
 21
485.95993819250339
 31
0.0
  0
LINE
  5
1C8CDE6A9C69
  8
0
  6
BYBLOCK
 10
5462.8914207115031
 20
495.95993819250327
 30
0.0
 11
5722.891420711504
 21
495.95993819250327
 31
0.0
  0
SOLID
  5
1C8CDE6A9C6A
  8
0
  6
BYBLOCK
 10
5462.8914207115031
 20
499.29327152583659
 30
0.0
 11
5462.8914207115031
 21
492.62660485917002
 31
0.0
 12
5442.891420711504
 22
495.95993819250327
 32
0.0
 13
5442.891420711504
 23
495.95993819250327
 33
0.0
  0
SOLID
  5
1C8CDE6A9C6B
  8
0
  6
BYBLOCK
 10
5722.891420711504
 20
499.29327152583659
 30
0.0
 11
5722.891420711504
 21
492.62660485917002
 31
0.0
 12
5742.891420711504
 22
495.95993819250327
 32
0.0
 13
5742.891420711504
 23
495.95993819250327
 33
0.0
  0
INSERT
  5
1C8CDE6A9C6C
  8
0
  2
*U9
 10
0.0
 20
0.0
 30
0.0
  0
POINT
  5
1C8CDE6A9C6D
  8
DEFPOINTS
  6
BYBLOCK
 62
     0
 10
5442.891420711504
 20
645.95993819250293
 30
0.0
  0
POINT
  5
1C8CDE6A9C6E
  8
DEFPOINTS
  6
BYBLOCK
 62
     0
 10
5742.891420711504
 20
645.95993819250293
 30
0.0
  0
POINT
  5
1C8CDE6A9C6F
  8
DEFPOINTS
  6
BYBLOCK
 62
     0
 10
5742.891420711504
 20
495.95993819250327
 30
0.0
  0
ENDBLK
  5
1C8CDE6A9C70
  8
0
  0
BLOCK
  8
0
  2
*D6
 70
     1
 10
0.0
 20
0.0
 30
0.0
  3
*D6
  1

  0
LINE
  5
1C8CDE6A9C73
  8
0
  6
BYBLOCK
 10
5392.891420711504
 20
635.95993819250339
 30
0.0
 11
5392.891420711504
 21
385.95993819250339
 31
0.0
  0
LINE
  5
1C8CDE6A9C74
  8
0
  6
BYBLOCK
 10
5792.891420711504
 20
635.95993819250339
 30
0.0
 11
5792.891420711504
 21
385.95993819250339
 31
0.0
  0
LINE
  5
1C8CDE6A9C75
  8
0
  6
BYBLOCK
 10
5412.8914207115031
 20
395.95993819250339
 30
0.0
 11
5772.891420711504
 21
395.95993819250339
 31
0.0
  0
SOLID
  5
1C8CDE6A9C76
  8
0
  6
BYBLOCK
 10
5412.8914207115031
 20
399.2932715258367
 30
0.0
 11
5412.8914207115031
 21
392.62660485917007
 31
0.0
 12
5392.891420711504
 22
395.95993819250339
 32
0.0
 13
5392.891420711504
 23
395.95993819250339
 33
0.0
  0
SOLID
  5
1C8CDE6A9C77
  8
0
  6
BYBLOCK
 10
5772.891420711504
 20
399.2932715258367
 30
0.0
 11
5772.891420711504
 21
392.62660485917007
 31
0.0
 12
5792.891420711504
 22
395.95993819250339
 32
0.0
 13
5792.891420711504
 23
395.95993819250339
 33
0.0
  0
INSERT
  5
1C8CDE6A9C78
  8
0
  2
*U10
 10
0.0
 20
0.0
 30
0.0
  0
POINT
  5
1C8CDE6A9C79
  8
DEFPOINTS
  6
BYBLOCK
 62
     0
 10
5392.891420711504
 20
645.95993819250327
 30
0.0
  0
POINT
  5
1C8CDE6A9C7A
  8
DEFPOINTS
  6
BYBLOCK
 62
     0
 10
5792.891420711504
 20
645.95993819250327
 30
0.0
  0
POINT
  5
1C8CDE6A9C7B
  8
DEFPOINTS
  6
BYBLOCK
 62
     0
 10
5792.891420711504
 20
395.95993819250339
 30
0.0
  0
ENDBLK
  5
1C8CDE6A9C7C
  8
0
  0
BLOCK
  8
0
  2
*U7
 70
     1
 10
0.0
 20
0.0
 30
0.0
  3
*U7
  1

  0
TEXT
  5
1C8CDE6AA248
  8
0
 10
5057.7402798500234
 20
648.10279086501009
 30
0.0
 40
30.0
  1
50
 50
90.0
 41
0.8
  7
EXT08
  0
ENDBLK
  5
1C8CDE6AA24A
  8
0
  0
BLOCK
  8
0
  2
*U8
 70
     1
 10
0.0
 20
0.0
 30
0.0
  3
*U8
  1

  0
TEXT
  5
1C8CDE6AA24C
  8
0
 10
5173.7402798500216
 20
861.67421943643888
 30
0.0
 40
30.0
  1
400
 50
90.0
 41
0.8
  7
EXT08
  0
ENDBLK
  5
1C8CDE6AA24E
  8
0
  0
BLOCK
  8
0
  2
*U9
 70
     1
 10
0.0
 20
0.0
 30
0.0
  3
*U9
  1

  0
TEXT
  5
1C8CDE6AA250
  8
0
 10
5547.5199921400763
 20
507.95993819250327
 30
0.0
 40
30.0
  1
□300
 41
0.8
  7
EXT08
  0
ENDBLK
  5
1C8CDE6AA252
  8
0
  0
BLOCK
  8
0
  2
*U10
 70
     1
 10
0.0
 20
0.0
 30
0.0
  3
*U10
  1

  0
TEXT
  5
1C8CDE6AA254
  8
0
 10
5547.5199921400763
 20
407.95993819250327
 30
0.0
 40
30.0
  1
□400
 41
0.8
  7
EXT08
  0
ENDBLK
  5
1C8CDE6AA256
  8
0
  0
BLOCK
  8
0
  2
*U11
 70
     1
 10
0.0
 20
0.0
 30
0.0
  3
*U11
  1

  0
TEXT
  5
1C8CDE6AA258
  8
0
 10
1102.1331109826419
 20
1329.12199683881
 30
0.0
 40
30.0
  1
800
 50
90.0
 41
0.8
  7
EXT08
  0
ENDBLK
  5
1C8CDE6AA25A
  8
0
  0
BLOCK
  8
0
  2
*U12
 70
     1
 10
0.0
 20
0.0
 30
0.0
  3
*U12
  1

  0
TEXT
  5
1C8CDE6AA25C
  8
0
 10
1002.1331109826421
 20
1115.979135225602
 30
0.0
 40
30.0
  1
1200
 50
90.0
 41
0.8
  7
EXT08
  0
ENDBLK
  5
1C8CDE6AA25E
  8
0
  0
ENDSEC
  0
SECTION
  2
ENTITIES
  0
TEXT
  5
1C8CDE699D90
  8
INFORMATION
 10
1.0
 20
2.0
 30
0.0
 40
0.8
  1
PLOTTER=CANON_LBP-830
  7
EXT08
  0
TEXT
  5
1C8CDE699D91
  8
INFORMATION
 10
1.0
 20
3.0
 30
0.0
 40
0.8
  1
PAPER=A3
  7
EXT08
  0
INSERT
  5
1C8CDE6A928E
  8
ZWAKU
  2
CALCOMP_TECHJET720A3
 10
0.0
 20
0.0
 30
0.0
 41
10.0
 42
10.0
 43
10.0
  0
LINE
  5
1C8CDE6A94C4
  8
SJC
 10
1444.691257389823
 20
1090.7348932574009
 30
0.0
 11
1667.371944692901
 21
1090.7348932574009
 31
0.0
1001
ACAD
1000
ASC_BOUNDS
1002
{
1070
    19
1005
0
1002
}
  0
LINE
  5
1C8CDE6A94C5
  8
HATCH
 10
1500.6106889504549
 20
1090.7348932574009
 30
0.0
 11
1466.593390546017
 21
1056.717594852963
 31
0.0
  0
LINE
  5
1C8CDE6A94C6
  8
HATCH
 10
1515.6106889504549
 20
1090.7348932574009
 30
0.0
 11
1481.593390546017
 21
1056.717594852963
 31
0.0
  0
LINE
  5
1C8CDE6A94C7
  8
HATCH
 10
1530.6106889504549
 20
1090.7348932574009
 30
0.0
 11
1496.593390546017
 21
1056.717594852963
 31
0.0
  0
LINE
  5
1C8CDE6A94C8
  8
HATCH
 10
1523.1106889504549
 20
1083.2348932574009
 30
0.0
 11
1549.627987354894
 21
1056.717594852963
 31
0.0
  0
LINE
  5
1C8CDE6A94C9
  8
HATCH
 10
1530.6106889504549
 20
1090.7348932574009
 30
0.0
 11
1564.627987354894
 21
1056.717594852963
 31
0.0
  0
LINE
  5
1C8CDE6A94CA
  8
HATCH
 10
1515.6106889504549
 20
1075.7348932574009
 30
0.0
 11
1534.627987354894
 21
1056.717594852963
 31
0.0
  0
TEXT
  5
1C8CDE6A94CB
  8
MOJI
 10
1479.426024038137
 20
1101.409464330394
 30
0.0
 40
30.0
  1
GL
 41
0.8
  7
EXT08
  0
POLYLINE
  5
1C8CDE6A94CC
  8
HATCH
  6
CONTINUOUS
 66
     1
 10
0.0
 20
0.0
 30
0.0
 70
     1
  0
VERTEX
  5
1C8CDE6AA135
  8
HATCH
  6
CONTINUOUS
 10
1830.6589469311641
 20
641.13949325740191
 30
0.0
 42
0.138281
  0
VERTEX
  5
1C8CDE6AA136
  8
HATCH
  6
CONTINUOUS
 10
1837.1030219311631
 20
641.22339825740141
 30
0.0
 42
0.107061
  0
VERTEX
  5
1C8CDE6AA137
  8
HATCH
  6
CONTINUOUS
 10
1844.348484931164
 20
645.19242925740195
 30
0.0
 42
0.08054
  0
VERTEX
  5
1C8CDE6AA138
  8
HATCH
  6
CONTINUOUS
 10
1849.9166759311629
 20
651.8624942574022
 30
0.0
 42
0.068375
  0
VERTEX
  5
1C8CDE6AA139
  8
HATCH
  6
CONTINUOUS
 10
1853.879395931162
 20
661.27886225740235
 30
0.0
 42
0.068375
  0
VERTEX
  5
1C8CDE6AA13A
  8
HATCH
  6
CONTINUOUS
 10
1855.1557639311629
 20
671.41503625740165
 30
0.0
 42
0.08054
  0
VERTEX
  5
1C8CDE6AA13B
  8
HATCH
  6
CONTINUOUS
 10
1853.6686019311639
 20
679.97557725740228
 30
0.0
 42
0.107061
  0
VERTEX
  5
1C8CDE6AA13C
  8
HATCH
  6
CONTINUOUS
 10
1849.378361931163
 20
687.03559125740196
 30
0.0
 42
0.138281
  0
VERTEX
  5
1C8CDE6AA13D
  8
HATCH
  6
CONTINUOUS
 10
1843.839581931162
 20
690.33029225740188
 30
0.0
 42
0.138281
  0
VERTEX
  5
1C8CDE6AA13E
  8
HATCH
  6
CONTINUOUS
 10
1837.395506931163
 20
690.24638725740226
 30
0.0
 42
0.107061
  0
VERTEX
  5
1C8CDE6AA13F
  8
HATCH
  6
CONTINUOUS
 10
1830.1500429311641
 20
686.27735625740183
 30
0.0
 42
0.08054
  0
VERTEX
  5
1C8CDE6AA140
  8
HATCH
  6
CONTINUOUS
 10
1824.5818519311631
 20
679.60729125740158
 30
0.0
 42
0.068375
  0
VERTEX
  5
1C8CDE6AA141
  8
HATCH
  6
CONTINUOUS
 10
1820.619131931164
 20
670.19092325740144
 30
0.0
 42
0.068375
  0
VERTEX
  5
1C8CDE6AA142
  8
HATCH
  6
CONTINUOUS
 10
1819.3427649311629
 20
660.05474925740214
 30
0.0
 42
0.08054
  0
VERTEX
  5
1C8CDE6AA143
  8
HATCH
  6
CONTINUOUS
 10
1820.8299269311649
 20
651.49420825740128
 30
0.0
 42
0.107061
  0
VERTEX
  5
1C8CDE6AA144
  8
HATCH
  6
CONTINUOUS
 10
1825.1201669311631
 20
644.43419525740114
 30
0.0
 42
0.138281
  0
SEQEND
  5
1C8CDE6AA145
  8
HATCH
  6
CONTINUOUS
  0
LINE
  5
1C8CDE6A94DE
  8
SJC
  6
CONTINUOUS
 10
1924.5230855543839
 20
690.73489325740195
 30
0.0
 11
1924.5230855543839
 21
640.73489325740195
 31
0.0
  0
POLYLINE
  5
1C8CDE6A94DF
  8
HATCH
  6
CONTINUOUS
 66
     1
 10
0.0
 20
0.0
 30
0.0
 70
     1
  0
VERTEX
  5
1C8CDE6AA146
  8
HATCH
  6
CONTINUOUS
 10
1900.814648931165
 20
641.13949325740191
 30
0.0
 42
0.138281
  0
VERTEX
  5
1C8CDE6AA147
  8
HATCH
  6
CONTINUOUS
 10
1907.258723931164
 20
641.22339825740141
 30
0.0
 42
0.107061
  0
VERTEX
  5
1C8CDE6AA148
  8
HATCH
  6
CONTINUOUS
 10
1914.5041879311641
 20
645.19242925740195
 30
0.0
 42
0.08054
  0
VERTEX
  5
1C8CDE6AA149
  8
HATCH
  6
CONTINUOUS
 10
1920.0723789311639
 20
651.8624942574022
 30
0.0
 42
0.068375
  0
VERTEX
  5
1C8CDE6AA14A
  8
HATCH
  6
CONTINUOUS
 10
1924.035098931163
 20
661.27886225740235
 30
0.0
 42
0.068375
  0
VERTEX
  5
1C8CDE6AA14B
  8
HATCH
  6
CONTINUOUS
 10
1925.3114659311641
 20
671.41503625740165
 30
0.0
 42
0.08054
  0
VERTEX
  5
1C8CDE6AA14C
  8
HATCH
  6
CONTINUOUS
 10
1923.8243039311631
 20
679.97557725740228
 30
0.0
 42
0.107061
  0
VERTEX
  5
1C8CDE6AA14D
  8
HATCH
  6
CONTINUOUS
 10
1919.5340639311639
 20
687.03559125740196
 30
0.0
 42
0.138281
  0
VERTEX
  5
1C8CDE6AA14E
  8
HATCH
  6
CONTINUOUS
 10
1913.9952839311629
 20
690.33029225740188
 30
0.0
 42
0.138281
  0
VERTEX
  5
1C8CDE6AA14F
  8
HATCH
  6
CONTINUOUS
 10
1907.551208931164
 20
690.24638725740226
 30
0.0
 42
0.107061
  0
VERTEX
  5
1C8CDE6AA150
  8
HATCH
  6
CONTINUOUS
 10
1900.3057459311631
 20
686.27735625740183
 30
0.0
 42
0.08054
  0
VERTEX
  5
1C8CDE6AA151
  8
HATCH
  6
CONTINUOUS
 10
1894.7375549311651
 20
679.60729125740158
 30
0.0
 42
0.068375
  0
VERTEX
  5
1C8CDE6AA152
  8
HATCH
  6
CONTINUOUS
 10
1890.7748349311651
 20
670.19092325740144
 30
0.0
 42
0.068375
  0
VERTEX
  5
1C8CDE6AA153
  8
HATCH
  6
CONTINUOUS
 10
1889.4984669311641
 20
660.05474925740214
 30
0.0
 42
0.08054
  0
VERTEX
  5
1C8CDE6AA154
  8
HATCH
  6
CONTINUOUS
 10
1890.9856289311631
 20
651.49420825740128
 30
0.0
 42
0.107061
  0
VERTEX
  5
1C8CDE6AA155
  8
HATCH
  6
CONTINUOUS
 10
1895.275868931164
 20
644.43419525740114
 30
0.0
 42
0.138281
  0
SEQEND
  5
1C8CDE6AA156
  8
HATCH
  6
CONTINUOUS
  0
POLYLINE
  5
1C8CDE6A94F1
  8
HATCH
  6
CONTINUOUS
 66
     1
 10
0.0
 20
0.0
 30
0.0
 70
     1
  0
VERTEX
  5
1C8CDE6AA157
  8
HATCH
  6
CONTINUOUS
 10
1607.123473969865
 20
641.13949325740191
 30
0.0
 42
0.138281
  0
VERTEX
  5
1C8CDE6AA158
  8
HATCH
  6
CONTINUOUS
 10
1613.5675479698641
 20
641.22339825740141
 30
0.0
 42
0.107061
  0
VERTEX
  5
1C8CDE6AA159
  8
HATCH
  6
CONTINUOUS
 10
1620.813011969864
 20
645.19242925740195
 30
0.0
 42
0.08054
  0
VERTEX
  5
1C8CDE6AA15A
  8
HATCH
  6
CONTINUOUS
 10
1626.3812029698649
 20
651.8624942574022
 30
0.0
 42
0.068375
  0
VERTEX
  5
1C8CDE6AA15B
  8
HATCH
  6
CONTINUOUS
 10
1630.3439229698661
 20
661.27886225740235
 30
0.0
 42
0.068375
  0
VERTEX
  5
1C8CDE6AA15C
  8
HATCH
  6
CONTINUOUS
 10
1631.620290969865
 20
671.41503625740165
 30
0.0
 42
0.08054
  0
VERTEX
  5
1C8CDE6AA15D
  8
HATCH
  6
CONTINUOUS
 10
1630.133127969865
 20
679.97557725740228
 30
0.0
 42
0.107061
  0
VERTEX
  5
1C8CDE6AA15E
  8
HATCH
  6
CONTINUOUS
 10
1625.8428879698649
 20
687.03559125740196
 30
0.0
 42
0.138281
  0
VERTEX
  5
1C8CDE6AA15F
  8
HATCH
  6
CONTINUOUS
 10
1620.304108969864
 20
690.33029225740188
 30
0.0
 42
0.138281
  0
VERTEX
  5
1C8CDE6AA160
  8
HATCH
  6
CONTINUOUS
 10
1613.8600339698651
 20
690.24638725740226
 30
0.0
 42
0.107061
  0
VERTEX
  5
1C8CDE6AA161
  8
HATCH
  6
CONTINUOUS
 10
1606.614569969865
 20
686.27735625740183
 30
0.0
 42
0.08054
  0
VERTEX
  5
1C8CDE6AA162
  8
HATCH
  6
CONTINUOUS
 10
1601.0463789698649
 20
679.60729125740158
 30
0.0
 42
0.068375
  0
VERTEX
  5
1C8CDE6AA163
  8
HATCH
  6
CONTINUOUS
 10
1597.0836589698649
 20
670.19092325740144
 30
0.0
 42
0.068375
  0
VERTEX
  5
1C8CDE6AA164
  8
HATCH
  6
CONTINUOUS
 10
1595.8072909698651
 20
660.05474925740214
 30
0.0
 42
0.08054
  0
VERTEX
  5
1C8CDE6AA165
  8
HATCH
  6
CONTINUOUS
 10
1597.2944539698649
 20
651.49420825740128
 30
0.0
 42
0.107061
  0
VERTEX
  5
1C8CDE6AA166
  8
HATCH
  6
CONTINUOUS
 10
1601.5846939698649
 20
644.43419525740114
 30
0.0
 42
0.138281
  0
SEQEND
  5
1C8CDE6AA167
  8
HATCH
  6
CONTINUOUS
  0
POLYLINE
  5
1C8CDE6A9503
  8
HATCH
  6
CONTINUOUS
 66
     1
 10
0.0
 20
0.0
 30
0.0
 70
     1
  0
VERTEX
  5
1C8CDE6AA168
  8
HATCH
  6
CONTINUOUS
 10
1572.0457709698651
 20
641.13949325740191
 30
0.0
 42
0.138281
  0
VERTEX
  5
1C8CDE6AA169
  8
HATCH
  6
CONTINUOUS
 10
1578.4898459698661
 20
641.22339825740141
 30
0.0
 42
0.107061
  0
VERTEX
  5
1C8CDE6AA16A
  8
HATCH
  6
CONTINUOUS
 10
1585.735309969866
 20
645.19242925740195
 30
0.0
 42
0.08054
  0
VERTEX
  5
1C8CDE6AA16B
  8
HATCH
  6
CONTINUOUS
 10
1591.3034999698641
 20
651.8624942574022
 30
0.0
 42
0.068375
  0
VERTEX
  5
1C8CDE6AA16C
  8
HATCH
  6
CONTINUOUS
 10
1595.266220969864
 20
661.27886225740235
 30
0.0
 42
0.068375
  0
VERTEX
  5
1C8CDE6AA16D
  8
HATCH
  6
CONTINUOUS
 10
1596.542587969866
 20
671.41503625740165
 30
0.0
 42
0.08054
  0
VERTEX
  5
1C8CDE6AA16E
  8
HATCH
  6
CONTINUOUS
 10
1595.0554259698649
 20
679.97557725740228
 30
0.0
 42
0.107061
  0
VERTEX
  5
1C8CDE6AA16F
  8
HATCH
  6
CONTINUOUS
 10
1590.765185969864
 20
687.03559125740196
 30
0.0
 42
0.138281
  0
VERTEX
  5
1C8CDE6AA170
  8
HATCH
  6
CONTINUOUS
 10
1585.226405969863
 20
690.33029225740188
 30
0.0
 42
0.138281
  0
VERTEX
  5
1C8CDE6AA171
  8
HATCH
  6
CONTINUOUS
 10
1578.782330969864
 20
690.24638725740226
 30
0.0
 42
0.107061
  0
VERTEX
  5
1C8CDE6AA172
  8
HATCH
  6
CONTINUOUS
 10
1571.5368669698651
 20
686.27735625740183
 30
0.0
 42
0.08054
  0
VERTEX
  5
1C8CDE6AA173
  8
HATCH
  6
CONTINUOUS
 10
1565.9686769698651
 20
679.60729125740158
 30
0.0
 42
0.068375
  0
VERTEX
  5
1C8CDE6AA174
  8
HATCH
  6
CONTINUOUS
 10
1562.005955969865
 20
670.19092325740144
 30
0.0
 42
0.068375
  0
VERTEX
  5
1C8CDE6AA175
  8
HATCH
  6
CONTINUOUS
 10
1560.7295889698639
 20
660.05474925740214
 30
0.0
 42
0.08054
  0
VERTEX
  5
1C8CDE6AA176
  8
HATCH
  6
CONTINUOUS
 10
1562.2167509698661
 20
651.49420825740128
 30
0.0
 42
0.107061
  0
VERTEX
  5
1C8CDE6AA177
  8
HATCH
  6
CONTINUOUS
 10
1566.5069909698641
 20
644.43419525740114
 30
0.0
 42
0.138281
  0
SEQEND
  5
1C8CDE6AA178
  8
HATCH
  6
CONTINUOUS
  0
LINE
  5
1C8CDE6A9515
  8
SJC
  6
CONTINUOUS
 10
1524.5230855543839
 20
690.73489325740195
 30
0.0
 11
1524.5230855543839
 21
640.73489325740195
 31
0.0
  0
POLYLINE
  5
1C8CDE6A9516
  8
HATCH
  6
CONTINUOUS
 66
     1
 10
0.0
 20
0.0
 30
0.0
 70
     1
  0
VERTEX
  5
1C8CDE6AA179
  8
HATCH
  6
CONTINUOUS
 10
1536.968067969864
 20
641.13949325740191
 30
0.0
 42
0.138281
  0
VERTEX
  5
1C8CDE6AA17A
  8
HATCH
  6
CONTINUOUS
 10
1543.412142969865
 20
641.22339825740141
 30
0.0
 42
0.107061
  0
VERTEX
  5
1C8CDE6AA17B
  8
HATCH
  6
CONTINUOUS
 10
1550.6576069698649
 20
645.19242925740195
 30
0.0
 42
0.08054
  0
VERTEX
  5
1C8CDE6AA17C
  8
HATCH
  6
CONTINUOUS
 10
1556.225797969865
 20
651.8624942574022
 30
0.0
 42
0.068375
  0
VERTEX
  5
1C8CDE6AA17D
  8
HATCH
  6
CONTINUOUS
 10
1560.188517969865
 20
661.27886225740235
 30
0.0
 42
0.068375
  0
VERTEX
  5
1C8CDE6AA17E
  8
HATCH
  6
CONTINUOUS
 10
1561.4648849698649
 20
671.41503625740165
 30
0.0
 42
0.08054
  0
VERTEX
  5
1C8CDE6AA17F
  8
HATCH
  6
CONTINUOUS
 10
1559.9777229698659
 20
679.97557725740228
 30
0.0
 42
0.107061
  0
VERTEX
  5
1C8CDE6AA180
  8
HATCH
  6
CONTINUOUS
 10
1555.687482969865
 20
687.03559125740196
 30
0.0
 42
0.138281
  0
VERTEX
  5
1C8CDE6AA181
  8
HATCH
  6
CONTINUOUS
 10
1550.148702969864
 20
690.33029225740188
 30
0.0
 42
0.138281
  0
VERTEX
  5
1C8CDE6AA182
  8
HATCH
  6
CONTINUOUS
 10
1543.704627969865
 20
690.24638725740226
 30
0.0
 42
0.107061
  0
VERTEX
  5
1C8CDE6AA183
  8
HATCH
  6
CONTINUOUS
 10
1536.4591649698659
 20
686.27735625740183
 30
0.0
 42
0.08054
  0
VERTEX
  5
1C8CDE6AA184
  8
HATCH
  6
CONTINUOUS
 10
1530.890973969864
 20
679.60729125740158
 30
0.0
 42
0.068375
  0
VERTEX
  5
1C8CDE6AA185
  8
HATCH
  6
CONTINUOUS
 10
1526.928253969864
 20
670.19092325740144
 30
0.0
 42
0.068375
  0
VERTEX
  5
1C8CDE6AA186
  8
HATCH
  6
CONTINUOUS
 10
1525.6518859698649
 20
660.05474925740214
 30
0.0
 42
0.08054
  0
VERTEX
  5
1C8CDE6AA187
  8
HATCH
  6
CONTINUOUS
 10
1527.139047969865
 20
651.49420825740128
 30
0.0
 42
0.107061
  0
VERTEX
  5
1C8CDE6AA188
  8
HATCH
  6
CONTINUOUS
 10
1531.429288969865
 20
644.43419525740114
 30
0.0
 42
0.138281
  0
SEQEND
  5
1C8CDE6AA189
  8
HATCH
  6
CONTINUOUS
  0
LINE
  5
1C8CDE6A9528
  8
SJC
  6
CONTINUOUS
 10
1924.5230855543839
 20
690.73489325740195
 30
0.0
 11
1524.5230855543839
 21
690.73489325740195
 31
0.0
1001
ACAD
1000
ASC_BOUNDS
1002
{
1070
    19
1005
0
1005
0
1005
0
1005
0
1005
0
1005
0
1005
0
1005
0
1002
}
  0
LINE
  5
1C8CDE6A9529
  8
SJC
  6
CONTINUOUS
 10
1924.5230855543839
 20
640.73489325740195
 30
0.0
 11
1524.5230855543839
 21
640.73489325740195
 31
0.0
  0
POLYLINE
  5
1C8CDE6A952A
  8
HATCH
  6
CONTINUOUS
 66
     1
 10
0.0
 20
0.0
 30
0.0
 70
     1
  0
VERTEX
  5
1C8CDE6AA18A
  8
HATCH
  6
CONTINUOUS
 10
1865.7369469311641
 20
641.13949325740191
 30
0.0
 42
0.138281
  0
VERTEX
  5
1C8CDE6AA18B
  8
HATCH
  6
CONTINUOUS
 10
1872.181021931164
 20
641.22339825740141
 30
0.0
 42
0.107061
  0
VERTEX
  5
1C8CDE6AA18C
  8
HATCH
  6
CONTINUOUS
 10
1879.4264849311651
 20
645.19242925740195
 30
0.0
 42
0.08054
  0
VERTEX
  5
1C8CDE6AA18D
  8
HATCH
  6
CONTINUOUS
 10
1884.9946759311631
 20
651.8624942574022
 30
0.0
 42
0.068375
  0
VERTEX
  5
1C8CDE6AA18E
  8
HATCH
  6
CONTINUOUS
 10
1888.9573959311631
 20
661.27886225740235
 30
0.0
 42
0.068375
  0
VERTEX
  5
1C8CDE6AA18F
  8
HATCH
  6
CONTINUOUS
 10
1890.2337639311629
 20
671.41503625740165
 30
0.0
 42
0.08054
  0
VERTEX
  5
1C8CDE6AA190
  8
HATCH
  6
CONTINUOUS
 10
1888.7466019311639
 20
679.97557725740228
 30
0.0
 42
0.107061
  0
VERTEX
  5
1C8CDE6AA191
  8
HATCH
  6
CONTINUOUS
 10
1884.4563619311641
 20
687.03559125740196
 30
0.0
 42
0.138281
  0
VERTEX
  5
1C8CDE6AA192
  8
HATCH
  6
CONTINUOUS
 10
1878.9175819311631
 20
690.33029225740188
 30
0.0
 42
0.138281
  0
VERTEX
  5
1C8CDE6AA193
  8
HATCH
  6
CONTINUOUS
 10
1872.4735069311639
 20
690.24638725740226
 30
0.0
 42
0.107061
  0
VERTEX
  5
1C8CDE6AA194
  8
HATCH
  6
CONTINUOUS
 10
1865.2280429311641
 20
686.27735625740183
 30
0.0
 42
0.08054
  0
VERTEX
  5
1C8CDE6AA195
  8
HATCH
  6
CONTINUOUS
 10
1859.659851931164
 20
679.60729125740158
 30
0.0
 42
0.068375
  0
VERTEX
  5
1C8CDE6AA196
  8
HATCH
  6
CONTINUOUS
 10
1855.697131931164
 20
670.19092325740144
 30
0.0
 42
0.068375
  0
VERTEX
  5
1C8CDE6AA197
  8
HATCH
  6
CONTINUOUS
 10
1854.4207649311641
 20
660.05474925740214
 30
0.0
 42
0.08054
  0
VERTEX
  5
1C8CDE6AA198
  8
HATCH
  6
CONTINUOUS
 10
1855.9079269311651
 20
651.49420825740128
 30
0.0
 42
0.107061
  0
VERTEX
  5
1C8CDE6AA199
  8
HATCH
  6
CONTINUOUS
 10
1860.198166931164
 20
644.43419525740114
 30
0.0
 42
0.138281
  0
SEQEND
  5
1C8CDE6AA19A
  8
HATCH
  6
CONTINUOUS
  0
LINE
  5
1C8CDE6A953C
  8
SJC
  6
CONTINUOUS
 10
1874.5230855543839
 20
690.73489325740195
 30
0.0
 11
1874.5230855543839
 21
1090.7348932574021
 31
0.0
1001
ACAD
1000
ASC_BOUNDS
1002
{
1070
    19
1002
}
  0
LINE
  5
1C8CDE6A953D
  8
SJC
  6
CONTINUOUS
 10
1574.5230855543839
 20
1090.7348932574021
 30
0.0
 11
1574.5230855543839
 21
690.73489325740195
 31
0.0
1001
ACAD
1000
ASC_BOUNDS
1002
{
1070
    19
1002
}
  0
ARC
  5
1C8CDE6A9548
  8
SJC2
 10
1773.3946431940619
 20
1843.34119326158
 30
0.0
 40
2.0
 50
270.0000000000004
 51
89.999999999999588
  0
POLYLINE
  5
1C8CDE6A9549
  8
SJC2
 66
     1
 10
0.0
 20
0.0
 30
0.0
  0
VERTEX
  5
1C8CDE6AA19B
  8
SJC2
 10
1773.3946431940619
 20
1841.34119326158
 30
0.0
 42
-0.150911399745959
  0
VERTEX
  5
1C8CDE6AA19C
  8
SJC2
 10
1772.966562887422
 20
1841.473408767192
 30
0.0
 42
-0.1070103012881034
  0
VERTEX
  5
1C8CDE6AA19D
  8
SJC2
 10
1772.536791221115
 20
1841.9269796992071
 30
0.0
 42
-0.0749121317509504
  0
VERTEX
  5
1C8CDE6AA19E
  8
SJC2
 10
1772.280513442349
 20
1842.5404610419321
 30
0.0
 42
-0.0616186277240593
  0
VERTEX
  5
1C8CDE6AA19F
  8
SJC2
 10
1772.1814572994101
 20
1843.34119326158
 30
0.0
 42
-0.0616186277240571
  0
VERTEX
  5
1C8CDE6AA1A0
  8
SJC2
 10
1772.280513442349
 20
1844.1419254812281
 30
0.0
 42
-0.0749121317509533
  0
VERTEX
  5
1C8CDE6AA1A1
  8
SJC2
 10
1772.536791221115
 20
1844.755406823954
 30
0.0
 42
-0.107010301288108
  0
VERTEX
  5
1C8CDE6AA1A2
  8
SJC2
 10
1772.966562887422
 20
1845.208977755969
 30
0.0
 42
-0.1509113997459668
  0
VERTEX
  5
1C8CDE6AA1A3
  8
SJC2
 10
1773.3946431940619
 20
1845.34119326158
 30
0.0
 42
-0.1509113997459639
  0
SEQEND
  5
1C8CDE6AA1A4
  8
SJC2
  0
ARC
  5
1C8CDE6A9554
  8
SJC2
 10
1768.25004726832
 20
1843.34119326158
 30
0.0
 40
2.0
 50
270.0
 51
90.0
  0
ARC
  5
1C8CDE6A9555
  8
SJC2
 10
1762.3402954014821
 20
1843.34119326158
 30
0.0
 40
2.0
 50
270.0
 51
90.0
  0
POLYLINE
  5
1C8CDE6A9556
  8
SJC2
 66
     1
 10
0.0
 20
0.0
 30
0.0
  0
VERTEX
  5
1C8CDE6AA1A5
  8
SJC2
 10
1768.25004726832
 20
1841.34119326158
 30
0.0
 42
-0.1332500875588102
  0
VERTEX
  5
1C8CDE6AA1A6
  8
SJC2
 10
1767.7363696456921
 20
1841.480563029847
 30
0.0
 42
-0.106755782220821
  0
VERTEX
  5
1C8CDE6AA1A7
  8
SJC2
 10
1767.2499926243231
 20
1841.9269796992071
 30
0.0
 42
-0.0828303032114395
  0
VERTEX
  5
1C8CDE6AA1A8
  8
SJC2
 10
1766.949405450008
 20
1842.54888964063
 30
0.0
 42
-0.0713554525830378
  0
VERTEX
  5
1C8CDE6AA1A9
  8
SJC2
 10
1766.835756427665
 20
1843.34119326158
 30
0.0
 42
-0.0713554525830371
  0
VERTEX
  5
1C8CDE6AA1AA
  8
SJC2
 10
1766.949405450008
 20
1844.1334968825299
 30
0.0
 42
-0.0828303032114262
  0
VERTEX
  5
1C8CDE6AA1AB
  8
SJC2
 10
1767.2499926243231
 20
1844.755406823954
 30
0.0
 42
-0.1067557822208174
  0
VERTEX
  5
1C8CDE6AA1AC
  8
SJC2
 10
1767.7363696456921
 20
1845.201823493313
 30
0.0
 42
-0.1332500875588086
  0
VERTEX
  5
1C8CDE6AA1AD
  8
SJC2
 10
1768.25004726832
 20
1845.34119326158
 30
0.0
 42
-0.1332500875588559
  0
SEQEND
  5
1C8CDE6AA1AE
  8
SJC2
  0
POLYLINE
  5
1C8CDE6A9561
  8
SJC2
 66
     1
 10
0.0
 20
0.0
 30
0.0
  0
VERTEX
  5
1C8CDE6AA1AF
  8
SJC2
 10
1762.3402954014821
 20
1841.34119326158
 30
0.0
 42
-0.120651329253439
  0
VERTEX
  5
1C8CDE6AA1B0
  8
SJC2
 10
1761.751224984662
 20
1841.4854372417919
 30
0.0
 42
-0.1050790673246372
  0
VERTEX
  5
1C8CDE6AA1B1
  8
SJC2
 10
1761.215884085246
 20
1841.9269796992071
 30
0.0
 42
-0.0886278647047429
  0
VERTEX
  5
1C8CDE6AA1B2
  8
SJC2
 10
1760.8759923150631
 20
1842.5567011054679
 30
0.0
 42
-0.079704503934722
  0
VERTEX
  5
1C8CDE6AA1B3
  8
SJC2
 10
1760.7501376683761
 20
1843.34119326158
 30
0.0
 42
-0.0797045039347204
  0
VERTEX
  5
1C8CDE6AA1B4
  8
SJC2
 10
1760.8759923150631
 20
1844.125685417692
 30
0.0
 42
-0.0886278647047481
  0
VERTEX
  5
1C8CDE6AA1B5
  8
SJC2
 10
1761.215884085246
 20
1844.755406823954
 30
0.0
 42
-0.1050790673246424
  0
VERTEX
  5
1C8CDE6AA1B6
  8
SJC2
 10
1761.751224984662
 20
1845.196949281368
 30
0.0
 42
-0.120651329253433
  0
VERTEX
  5
1C8CDE6AA1B7
  8
SJC2
 10
1762.3402954014821
 20
1845.34119326158
 30
0.0
 42
-0.1206513292534549
  0
SEQEND
  5
1C8CDE6AA1B8
  8
SJC2
  0
ARC
  5
1C8CDE6A956C
  8
SJC
 10
1771.6722145250019
 20
1857.84119326158
 30
0.0
 40
10.0
 50
0.000000000014656
 51
38.202182775739431
  0
ARC
  5
1C8CDE6A956D
  8
SJC2
 10
1783.397268818587
 20
1843.34119326158
 30
0.0
 40
2.0
 50
270.0
 51
90.0
  0
ARC
  5
1C8CDE6A956E
  8
SJC2
 10
1785.3722145250031
 20
1843.34119326158
 30
0.0
 40
2.0
 50
259.92134189221252
 51
100.0786581077875
  0
POLYLINE
  5
1C8CDE6A956F
  8
SJC2
 66
     1
 10
0.0
 20
0.0
 30
0.0
  0
VERTEX
  5
1C8CDE6AA1B9
  8
SJC2
 10
1782.927450023175
 20
1843.9924024664399
 30
0.0
 42
-0.0053639511144539
  0
VERTEX
  5
1C8CDE6AA1BA
  8
SJC2
 10
1782.943268564715
 20
1844.164464908001
 30
0.0
 42
-0.0352096047277708
  0
VERTEX
  5
1C8CDE6AA1BB
  8
SJC2
 10
1783.046409017124
 20
1844.755406823954
 30
0.0
 42
-0.0742524186368184
  0
VERTEX
  5
1C8CDE6AA1BC
  8
SJC2
 10
1783.2548650624969
 20
1845.2604933372149
 30
0.0
 42
-0.2636526432947964
  0
VERTEX
  5
1C8CDE6AA1BD
  8
SJC2
 10
1783.397268818587
 20
1845.34119326158
 30
0.0
 42
-0.2636526432948179
  0
SEQEND
  5
1C8CDE6AA1BE
  8
SJC2
  0
ARC
  5
1C8CDE6A9576
  8
SJC2
 10
1777.6822777425309
 20
1843.34119326158
 30
0.0
 40
2.0
 50
270.0
 51
90.0
  0
ARC
  5
1C8CDE6A9577
  8
SJC2
 10
1781.036437973635
 20
1843.34119326158
 30
0.0
 40
2.0
 50
270.00000000000023
 51
89.999999999999801
  0
POLYLINE
  5
1C8CDE6A9578
  8
SJC2
 66
     1
 10
0.0
 20
0.0
 30
0.0
  0
VERTEX
  5
1C8CDE6AA1BF
  8
SJC2
 10
1781.036437973635
 20
1841.34119326158
 30
0.0
 42
-0.2118470242964341
  0
VERTEX
  5
1C8CDE6AA1C0
  8
SJC2
 10
1780.798823197294
 20
1841.446599784563
 30
0.0
 42
-0.0945255633777528
  0
VERTEX
  5
1C8CDE6AA1C1
  8
SJC2
 10
1780.506105720533
 20
1841.9269796992071
 30
0.0
 42
-0.0512128948144839
  0
VERTEX
  5
1C8CDE6AA1C2
  8
SJC2
 10
1780.3495085179979
 20
1842.524203607154
 30
0.0
 42
-0.0385438816909012
  0
VERTEX
  5
1C8CDE6AA1C3
  8
SJC2
 10
1780.2864349087361
 20
1843.34119326158
 30
0.0
 42
-0.0385438816909032
  0
VERTEX
  5
1C8CDE6AA1C4
  8
SJC2
 10
1780.3495085179979
 20
1844.1581829160059
 30
0.0
 42
-0.0512128948144929
  0
VERTEX
  5
1C8CDE6AA1C5
  8
SJC2
 10
1780.506105720533
 20
1844.755406823954
 30
0.0
 42
-0.0945255633777525
  0
VERTEX
  5
1C8CDE6AA1C6
  8
SJC2
 10
1780.798823197294
 20
1845.235786738597
 30
0.0
 42
-0.2118470242964467
  0
VERTEX
  5
1C8CDE6AA1C7
  8
SJC2
 10
1781.036437973635
 20
1845.34119326158
 30
0.0
 42
-0.2118470242964307
  0
SEQEND
  5
1C8CDE6AA1C8
  8
SJC2
  0
POLYLINE
  5
1C8CDE6A9583
  8
SJC2
 66
     1
 10
0.0
 20
0.0
 30
0.0
  0
VERTEX
  5
1C8CDE6AA1C9
  8
SJC2
 10
1783.397268818587
 20
1841.34119326158
 30
0.0
 42
-0.2636526432947845
  0
VERTEX
  5
1C8CDE6AA1CA
  8
SJC2
 10
1783.2548650624969
 20
1841.421893185945
 30
0.0
 42
-0.0742524186368126
  0
VERTEX
  5
1C8CDE6AA1CB
  8
SJC2
 10
1783.046409017124
 20
1841.9269796992071
 30
0.0
 42
-0.0352096047277726
  0
VERTEX
  5
1C8CDE6AA1CC
  8
SJC2
 10
1782.943268564715
 20
1842.5179216151589
 30
0.0
 42
-0.0053639511144543
  0
VERTEX
  5
1C8CDE6AA1CD
  8
SJC2
 10
1782.927450023175
 20
1842.68998405672
 30
0.0
 42
-0.0256068403005276
  0
SEQEND
  5
1C8CDE6AA1CE
  8
SJC2
  0
POLYLINE
  5
1C8CDE6A958A
  8
SJC2
 66
     1
 10
0.0
 20
0.0
 30
0.0
  0
VERTEX
  5
1C8CDE6AA1CF
  8
SJC2
 10
1777.6822777425309
 20
1841.34119326158
 30
0.0
 42
-0.1759227118509986
  0
VERTEX
  5
1C8CDE6AA1D0
  8
SJC2
 10
1777.347478127813
 20
1841.4627531052311
 30
0.0
 42
-0.1039773255587434
  0
VERTEX
  5
1C8CDE6AA1D1
  8
SJC2
 10
1776.9819368294141
 20
1841.9269796992071
 30
0.0
 42
-0.0644626389992414
  0
VERTEX
  5
1C8CDE6AA1D2
  8
SJC2
 10
1776.7739849251279
 20
1842.531990288104
 30
0.0
 42
-0.0506228400655258
  0
VERTEX
  5
1C8CDE6AA1D3
  8
SJC2
 10
1776.6918461249149
 20
1843.34119326158
 30
0.0
 42
-0.0506228400655232
  0
VERTEX
  5
1C8CDE6AA1D4
  8
SJC2
 10
1776.7739849251279
 20
1844.150396235056
 30
0.0
 42
-0.0644626389992436
  0
VERTEX
  5
1C8CDE6AA1D5
  8
SJC2
 10
1776.9819368294141
 20
1844.755406823954
 30
0.0
 42
-0.1039773255587384
  0
VERTEX
  5
1C8CDE6AA1D6
  8
SJC2
 10
1777.347478127813
 20
1845.2196334179289
 30
0.0
 42
-0.1759227118509958
  0
VERTEX
  5
1C8CDE6AA1D7
  8
SJC2
 10
1777.6822777425309
 20
1845.34119326158
 30
0.0
 42
-0.1759227118510255
  0
SEQEND
  5
1C8CDE6AA1D8
  8
SJC2
  0
LINE
  5
1C8CDE6A9595
  8
SJC2
 10
1787.0222145250029
 20
1853.341193261582
 30
0.0
 11
1787.0222145250029
 21
1846.84119326158
 31
0.0
  0
LINE
  5
1C8CDE6A9596
  8
SJC2
 10
1785.022214525002
 20
1846.84119326158
 30
0.0
 11
1785.022214525002
 21
1845.31862994071
 31
0.0
  0
LINE
  5
1C8CDE6A9597
  8
SJC2
 10
1787.0222145250029
 20
1839.84119326158
 30
0.0
 11
1787.0222145250029
 21
1835.84119326158
 31
0.0
  0
LINE
  5
1C8CDE6A9598
  8
SJC2
 10
1787.0222145250029
 20
1839.84119326158
 30
0.0
 11
1787.0222145250029
 21
1837.84119326158
 31
0.0
  0
LINE
  5
1C8CDE6A9599
  8
SJC2
 10
1785.022214525002
 20
1841.3637565824499
 30
0.0
 11
1785.022214525002
 21
1839.84119326158
 31
0.0
  0
ARC
  5
1C8CDE6A959A
  8
SJC2
 10
1784.7226411950321
 20
1843.34119326158
 30
0.0
 40
2.0
 50
270.0
 51
90.0
  0
LINE
  5
1C8CDE6A959B
  8
SJC2
 10
1787.0222145250029
 20
1839.84119326158
 30
0.0
 11
1787.0222145250029
 21
1835.84119326158
 31
0.0
  0
ARC
  5
1C8CDE6A959C
  8
SJC2
 10
1781.7878682800981
 20
1852.5484149481949
 30
0.0
 40
5.2940417514156257
 50
8.6123903872397864
 51
91.251784469286633
  0
POLYLINE
  5
1C8CDE6A959D
  8
SJC2
 66
     1
 10
0.0
 20
0.0
 30
0.0
  0
VERTEX
  5
1C8CDE6AA1D9
  8
SJC2
 10
1755.770847255611
 20
1841.34119326158
 30
0.0
 42
-0.1116800569950346
  0
VERTEX
  5
1C8CDE6AA1DA
  8
SJC2
 10
1755.11836861915
 20
1841.488771625769
 30
0.0
 42
-0.1030115942786991
  0
VERTEX
  5
1C8CDE6AA1DB
  8
SJC2
 10
1754.5421444137151
 20
1841.9269796992071
 30
0.0
 42
-0.0927327528650624
  0
VERTEX
  5
1C8CDE6AA1DC
  8
SJC2
 10
1754.1688816488261
 20
1842.5634754091641
 30
0.0
 42
-0.0865774052393461
  0
VERTEX
  5
1C8CDE6AA1DD
  8
SJC2
 10
1754.033199032476
 20
1843.34119326158
 30
0.0
 42
-0.0865774052393477
  0
VERTEX
  5
1C8CDE6AA1DE
  8
SJC2
 10
1754.1688816488261
 20
1844.1189111139961
 30
0.0
 42
-0.0927327528650677
  0
VERTEX
  5
1C8CDE6AA1DF
  8
SJC2
 10
1754.5421444137151
 20
1844.755406823954
 30
0.0
 42
-0.103011594278703
  0
VERTEX
  5
1C8CDE6AA1E0
  8
SJC2
 10
1755.11836861915
 20
1845.1936148973909
 30
0.0
 42
-0.1116800569950293
  0
VERTEX
  5
1C8CDE6AA1E1
  8
SJC2
 10
1755.770847255611
 20
1845.34119326158
 30
0.0
 42
-0.1116800569949558
  0
SEQEND
  5
1C8CDE6AA1E2
  8
SJC2
  0
ARC
  5
1C8CDE6A95A8
  8
SJC2
 10
1755.770847255611
 20
1843.34119326158
 30
0.0
 40
2.0
 50
270.0
 51
90.0
  0
ARC
  5
1C8CDE6A95A9
  8
SJC2
 10
1748.6589347885049
 20
1843.34119326158
 30
0.0
 40
2.0
 50
270.0
 51
90.0
  0
POLYLINE
  5
1C8CDE6A95AA
  8
SJC2
 66
     1
 10
0.0
 20
0.0
 30
0.0
  0
VERTEX
  5
1C8CDE6AA1E3
  8
SJC2
 10
1748.6589347885049
 20
1841.34119326158
 30
0.0
 42
-0.1054357078480557
  0
VERTEX
  5
1C8CDE6AA1E4
  8
SJC2
 10
1747.9563346417251
 20
1841.4910170940741
 30
0.0
 42
-0.101101712149107
  0
VERTEX
  5
1C8CDE6AA1E5
  8
SJC2
 10
1747.347866652271
 20
1841.9269796992071
 30
0.0
 42
-0.0955210329656216
  0
VERTEX
  5
1C8CDE6AA1E6
  8
SJC2
 10
1746.947984344122
 20
1842.5689246111069
 30
0.0
 42
-0.0919176181383292
  0
VERTEX
  5
1C8CDE6AA1E7
  8
SJC2
 10
1746.8048044490481
 20
1843.34119326158
 30
0.0
 42
-0.0919176181383349
  0
VERTEX
  5
1C8CDE6AA1E8
  8
SJC2
 10
1746.947984344122
 20
1844.113461912053
 30
0.0
 42
-0.0955210329656196
  0
VERTEX
  5
1C8CDE6AA1E9
  8
SJC2
 10
1747.347866652271
 20
1844.755406823954
 30
0.0
 42
-0.1011017121491036
  0
VERTEX
  5
1C8CDE6AA1EA
  8
SJC2
 10
1747.9563346417251
 20
1845.1913694290861
 30
0.0
 42
-0.1054357078480609
  0
VERTEX
  5
1C8CDE6AA1EB
  8
SJC2
 10
1748.6589347885049
 20
1845.34119326158
 30
0.0
 42
-0.1054357078480126
  0
SEQEND
  5
1C8CDE6AA1EC
  8
SJC2
  0
CIRCLE
  5
1C8CDE6A95B5
  8
SJC2
 10
1740.281470246626
 20
1843.34119326158
 30
0.0
 40
2.0
  0
POLYLINE
  5
1C8CDE6A95B6
  8
SJC2
 66
     1
 10
0.0
 20
0.0
 30
0.0
  0
VERTEX
  5
1C8CDE6AA1ED
  8
SJC2
 10
1680.7943817816849
 20
1841.34119326158
 30
0.0
 42
0.1332500875588102
  0
VERTEX
  5
1C8CDE6AA1EE
  8
SJC2
 10
1681.3080594043131
 20
1841.480563029847
 30
0.0
 42
0.106755782220821
  0
VERTEX
  5
1C8CDE6AA1EF
  8
SJC2
 10
1681.7944364256839
 20
1841.9269796992071
 30
0.0
 42
0.0828303032114395
  0
VERTEX
  5
1C8CDE6AA1F0
  8
SJC2
 10
1682.0950235999969
 20
1842.54888964063
 30
0.0
 42
0.0713554525830378
  0
VERTEX
  5
1C8CDE6AA1F1
  8
SJC2
 10
1682.2086726223411
 20
1843.34119326158
 30
0.0
 42
0.0713554525830371
  0
VERTEX
  5
1C8CDE6AA1F2
  8
SJC2
 10
1682.0950235999969
 20
1844.1334968825299
 30
0.0
 42
0.0828303032114262
  0
VERTEX
  5
1C8CDE6AA1F3
  8
SJC2
 10
1681.7944364256839
 20
1844.755406823954
 30
0.0
 42
0.1067557822208174
  0
VERTEX
  5
1C8CDE6AA1F4
  8
SJC2
 10
1681.3080594043131
 20
1845.201823493313
 30
0.0
 42
0.1332500875588086
  0
VERTEX
  5
1C8CDE6AA1F5
  8
SJC2
 10
1680.7943817816849
 20
1845.34119326158
 30
0.0
 42
0.1332500875588559
  0
SEQEND
  5
1C8CDE6AA1F6
  8
SJC2
  0
ARC
  5
1C8CDE6A95C1
  8
SJC
 10
1677.3722145250031
 20
1857.84119326158
 30
0.0
 40
10.0
 50
141.79781722426071
 51
179.99999999998531
  0
POLYLINE
  5
1C8CDE6A95C2
  8
SJC2
 66
     1
 10
0.0
 20
0.0
 30
0.0
  0
VERTEX
  5
1C8CDE6AA1F7
  8
SJC2
 10
1675.649785855943
 20
1841.34119326158
 30
0.0
 42
0.150911399745959
  0
VERTEX
  5
1C8CDE6AA1F8
  8
SJC2
 10
1676.077866162582
 20
1841.473408767192
 30
0.0
 42
0.1070103012881034
  0
VERTEX
  5
1C8CDE6AA1F9
  8
SJC2
 10
1676.507637828892
 20
1841.9269796992071
 30
0.0
 42
0.0749121317509504
  0
VERTEX
  5
1C8CDE6AA1FA
  8
SJC2
 10
1676.7639156076559
 20
1842.5404610419321
 30
0.0
 42
0.0616186277240593
  0
VERTEX
  5
1C8CDE6AA1FB
  8
SJC2
 10
1676.8629717505951
 20
1843.34119326158
 30
0.0
 42
0.0616186277240571
  0
VERTEX
  5
1C8CDE6AA1FC
  8
SJC2
 10
1676.7639156076559
 20
1844.1419254812281
 30
0.0
 42
0.0749121317509533
  0
VERTEX
  5
1C8CDE6AA1FD
  8
SJC2
 10
1676.507637828892
 20
1844.755406823954
 30
0.0
 42
0.107010301288108
  0
VERTEX
  5
1C8CDE6AA1FE
  8
SJC2
 10
1676.077866162582
 20
1845.208977755969
 30
0.0
 42
0.1509113997459668
  0
VERTEX
  5
1C8CDE6AA1FF
  8
SJC2
 10
1675.649785855943
 20
1845.34119326158
 30
0.0
 42
0.1509113997459639
  0
SEQEND
  5
1C8CDE6AA200
  8
SJC2
  0
POLYLINE
  5
1C8CDE6A95CD
  8
SJC2
 66
     1
 10
0.0
 20
0.0
 30
0.0
  0
VERTEX
  5
1C8CDE6AA201
  8
SJC2
 10
1668.00799107637
 20
1841.34119326158
 30
0.0
 42
0.2118470242964341
  0
VERTEX
  5
1C8CDE6AA202
  8
SJC2
 10
1668.2456058527109
 20
1841.446599784563
 30
0.0
 42
0.0945255633777528
  0
VERTEX
  5
1C8CDE6AA203
  8
SJC2
 10
1668.538323329472
 20
1841.9269796992071
 30
0.0
 42
0.0512128948144839
  0
VERTEX
  5
1C8CDE6AA204
  8
SJC2
 10
1668.694920532007
 20
1842.524203607154
 30
0.0
 42
0.0385438816909012
  0
VERTEX
  5
1C8CDE6AA205
  8
SJC2
 10
1668.75799414127
 20
1843.34119326158
 30
0.0
 42
0.0385438816909032
  0
VERTEX
  5
1C8CDE6AA206
  8
SJC2
 10
1668.694920532007
 20
1844.1581829160059
 30
0.0
 42
0.0512128948144929
  0
VERTEX
  5
1C8CDE6AA207
  8
SJC2
 10
1668.538323329472
 20
1844.755406823954
 30
0.0
 42
0.0945255633777525
  0
VERTEX
  5
1C8CDE6AA208
  8
SJC2
 10
1668.2456058527109
 20
1845.235786738597
 30
0.0
 42
0.2118470242964467
  0
VERTEX
  5
1C8CDE6AA209
  8
SJC2
 10
1668.00799107637
 20
1845.34119326158
 30
0.0
 42
0.2118470242964307
  0
SEQEND
  5
1C8CDE6AA20A
  8
SJC2
  0
POLYLINE
  5
1C8CDE6A95D8
  8
SJC2
 66
     1
 10
0.0
 20
0.0
 30
0.0
  0
VERTEX
  5
1C8CDE6AA20B
  8
SJC2
 10
1671.3621513074761
 20
1841.34119326158
 30
0.0
 42
0.1759227118509986
  0
VERTEX
  5
1C8CDE6AA20C
  8
SJC2
 10
1671.6969509221919
 20
1841.4627531052311
 30
0.0
 42
0.1039773255587434
  0
VERTEX
  5
1C8CDE6AA20D
  8
SJC2
 10
1672.0624922205909
 20
1841.9269796992071
 30
0.0
 42
0.0644626389992414
  0
VERTEX
  5
1C8CDE6AA20E
  8
SJC2
 10
1672.2704441248791
 20
1842.531990288104
 30
0.0
 42
0.0506228400655258
  0
VERTEX
  5
1C8CDE6AA20F
  8
SJC2
 10
1672.35258292509
 20
1843.34119326158
 30
0.0
 42
0.0506228400655232
  0
VERTEX
  5
1C8CDE6AA210
  8
SJC2
 10
1672.2704441248791
 20
1844.150396235056
 30
0.0
 42
0.0644626389992436
  0
VERTEX
  5
1C8CDE6AA211
  8
SJC2
 10
1672.0624922205909
 20
1844.755406823954
 30
0.0
 42
0.1039773255587384
  0
VERTEX
  5
1C8CDE6AA212
  8
SJC2
 10
1671.6969509221919
 20
1845.2196334179289
 30
0.0
 42
0.1759227118509958
  0
VERTEX
  5
1C8CDE6AA213
  8
SJC2
 10
1671.3621513074761
 20
1845.34119326158
 30
0.0
 42
0.1759227118510255
  0
SEQEND
  5
1C8CDE6AA214
  8
SJC2
  0
ARC
  5
1C8CDE6A95E3
  8
SJC2
 10
1675.649785855943
 20
1843.34119326158
 30
0.0
 40
2.0
 50
90.000000000000398
 51
269.9999999999996
  0
ARC
  5
1C8CDE6A95E4
  8
SJC2
 10
1671.3621513074761
 20
1843.34119326158
 30
0.0
 40
2.0
 50
90.0
 51
270.0
  0
ARC
  5
1C8CDE6A95E5
  8
SJC2
 10
1680.7943817816849
 20
1843.34119326158
 30
0.0
 40
2.0
 50
90.0
 51
270.0
  0
POLYLINE
  5
1C8CDE6A95E6
  8
SJC2
 66
     1
 10
0.0
 20
0.0
 30
0.0
  0
VERTEX
  5
1C8CDE6AA215
  8
SJC2
 10
1686.704133648524
 20
1841.34119326158
 30
0.0
 42
0.120651329253439
  0
VERTEX
  5
1C8CDE6AA216
  8
SJC2
 10
1687.2932040653429
 20
1841.4854372417919
 30
0.0
 42
0.1050790673246372
  0
VERTEX
  5
1C8CDE6AA217
  8
SJC2
 10
1687.828544964759
 20
1841.9269796992071
 30
0.0
 42
0.0886278647047429
  0
VERTEX
  5
1C8CDE6AA218
  8
SJC2
 10
1688.1684367349419
 20
1842.5567011054679
 30
0.0
 42
0.079704503934722
  0
VERTEX
  5
1C8CDE6AA219
  8
SJC2
 10
1688.29429138163
 20
1843.34119326158
 30
0.0
 42
0.0797045039347204
  0
VERTEX
  5
1C8CDE6AA21A
  8
SJC2
 10
1688.1684367349419
 20
1844.125685417692
 30
0.0
 42
0.0886278647047481
  0
VERTEX
  5
1C8CDE6AA21B
  8
SJC2
 10
1687.828544964759
 20
1844.755406823954
 30
0.0
 42
0.1050790673246424
  0
VERTEX
  5
1C8CDE6AA21C
  8
SJC2
 10
1687.2932040653429
 20
1845.196949281368
 30
0.0
 42
0.120651329253433
  0
VERTEX
  5
1C8CDE6AA21D
  8
SJC2
 10
1686.704133648524
 20
1845.34119326158
 30
0.0
 42
0.1206513292534549
  0
SEQEND
  5
1C8CDE6AA21E
  8
SJC2
  0
ARC
  5
1C8CDE6A95F1
  8
SJC2
 10
1686.704133648524
 20
1843.34119326158
 30
0.0
 40
2.0
 50
90.0
 51
270.0
  0
CIRCLE
  5
1C8CDE6A95F2
  8
SJC2
 10
1716.571647636958
 20
1843.34119326158
 30
0.0
 40
2.0
  0
CIRCLE
  5
1C8CDE6A95F3
  8
SJC2
 10
1708.762958803381
 20
1843.34119326158
 30
0.0
 40
2.0
  0
ARC
  5
1C8CDE6A95F4
  8
SJC2
 10
1701.2354942615
 20
1843.34119326158
 30
0.0
 40
2.0
 50
90.0
 51
270.0
  0
POLYLINE
  5
1C8CDE6A95F5
  8
SJC2
 66
     1
 10
0.0
 20
0.0
 30
0.0
  0
VERTEX
  5
1C8CDE6AA21F
  8
SJC2
 10
1693.273581794396
 20
1841.34119326158
 30
0.0
 42
0.1116800569950346
  0
VERTEX
  5
1C8CDE6AA220
  8
SJC2
 10
1693.9260604308549
 20
1841.488771625769
 30
0.0
 42
0.1030115942786991
  0
VERTEX
  5
1C8CDE6AA221
  8
SJC2
 10
1694.5022846362899
 20
1841.9269796992071
 30
0.0
 42
0.0927327528650624
  0
VERTEX
  5
1C8CDE6AA222
  8
SJC2
 10
1694.87554740118
 20
1842.5634754091641
 30
0.0
 42
0.0865774052393461
  0
VERTEX
  5
1C8CDE6AA223
  8
SJC2
 10
1695.0112300175299
 20
1843.34119326158
 30
0.0
 42
0.0865774052393477
  0
VERTEX
  5
1C8CDE6AA224
  8
SJC2
 10
1694.87554740118
 20
1844.1189111139961
 30
0.0
 42
0.0927327528650677
  0
VERTEX
  5
1C8CDE6AA225
  8
SJC2
 10
1694.5022846362899
 20
1844.755406823954
 30
0.0
 42
0.103011594278703
  0
VERTEX
  5
1C8CDE6AA226
  8
SJC2
 10
1693.9260604308549
 20
1845.1936148973909
 30
0.0
 42
0.1116800569950293
  0
VERTEX
  5
1C8CDE6AA227
  8
SJC2
 10
1693.273581794396
 20
1845.34119326158
 30
0.0
 42
0.1116800569949558
  0
SEQEND
  5
1C8CDE6AA228
  8
SJC2
  0
ARC
  5
1C8CDE6A9600
  8
SJC2
 10
1693.273581794396
 20
1843.34119326158
 30
0.0
 40
2.0
 50
90.0
 51
270.0
  0
POLYLINE
  5
1C8CDE6A9601
  8
SJC2
 66
     1
 10
0.0
 20
0.0
 30
0.0
  0
VERTEX
  5
1C8CDE6AA229
  8
SJC2
 10
1701.2354942615
 20
1841.34119326158
 30
0.0
 42
0.1054357078480557
  0
VERTEX
  5
1C8CDE6AA22A
  8
SJC2
 10
1701.93809440828
 20
1841.4910170940741
 30
0.0
 42
0.101101712149107
  0
VERTEX
  5
1C8CDE6AA22B
  8
SJC2
 10
1702.5465623977341
 20
1841.9269796992071
 30
0.0
 42
0.0955210329656216
  0
VERTEX
  5
1C8CDE6AA22C
  8
SJC2
 10
1702.9464447058831
 20
1842.5689246111069
 30
0.0
 42
0.0919176181383292
  0
VERTEX
  5
1C8CDE6AA22D
  8
SJC2
 10
1703.0896246009579
 20
1843.34119326158
 30
0.0
 42
0.0919176181383349
  0
VERTEX
  5
1C8CDE6AA22E
  8
SJC2
 10
1702.9464447058831
 20
1844.113461912053
 30
0.0
 42
0.0955210329656196
  0
VERTEX
  5
1C8CDE6AA22F
  8
SJC2
 10
1702.5465623977341
 20
1844.755406823954
 30
0.0
 42
0.1011017121491036
  0
VERTEX
  5
1C8CDE6AA230
  8
SJC2
 10
1701.93809440828
 20
1845.1913694290861
 30
0.0
 42
0.1054357078480609
  0
VERTEX
  5
1C8CDE6AA231
  8
SJC2
 10
1701.2354942615
 20
1845.34119326158
 30
0.0
 42
0.1054357078480126
  0
SEQEND
  5
1C8CDE6AA232
  8
SJC2
  0
ARC
  5
1C8CDE6A960C
  8
SJC2
 10
1724.5222145250029
 20
1843.34119326158
 30
0.0
 40
2.0
 50
90.0
 51
270.0
  0
ARC
  5
1C8CDE6A960D
  8
SJC2
 10
1724.5222145250029
 20
1843.34119326158
 30
0.0
 40
2.0
 50
270.0
 51
90.0
  0
CIRCLE
  5
1C8CDE6A960E
  8
SJC2
 10
1732.472781413049
 20
1843.34119326158
 30
0.0
 40
2.0
  0
ARC
  5
1C8CDE6A960F
  8
SJC
 10
1724.5222145250029
 20
1820.7348932574021
 30
0.0
 40
70.0
 50
38.202182775739203
 51
141.7978172242608
  0
LINE
  5
1C8CDE6A9610
  8
SJC2
 10
1667.3722145250031
 20
1857.8411932615829
 30
0.0
 11
1781.6722145250019
 21
1857.8411932615829
 31
0.0
  0
LINE
  5
1C8CDE6A9611
  8
SJC2
 10
1662.0222145250029
 20
1853.3411932615829
 30
0.0
 11
1662.0222145250029
 21
1846.84119326158
 31
0.0
  0
POLYLINE
  5
1C8CDE6A9612
  8
SJC2
 66
     1
 10
0.0
 20
0.0
 30
0.0
  0
VERTEX
  5
1C8CDE6AA233
  8
SJC2
 10
1664.4586577844291
 20
1844.9497522233521
 30
0.0
 42
0.0255638409195304
  0
VERTEX
  5
1C8CDE6AA234
  8
SJC2
 10
1664.37957678356
 20
1845.297442249044
 30
0.0
 42
0.3358450609580102
  0
VERTEX
  5
1C8CDE6AA235
  8
SJC2
 10
1664.3217878549731
 20
1845.34119326158
 30
0.0
 42
0.3358450609581582
  0
SEQEND
  5
1C8CDE6AA236
  8
SJC2
  0
POLYLINE
  5
1C8CDE6A9617
  8
SJC2
 66
     1
 10
0.0
 20
0.0
 30
0.0
  0
VERTEX
  5
1C8CDE6AA237
  8
SJC2
 10
1666.11697902683
 20
1843.9924024664399
 30
0.0
 42
0.0053639511144539
  0
VERTEX
  5
1C8CDE6AA238
  8
SJC2
 10
1666.1011604852899
 20
1844.164464908001
 30
0.0
 42
0.0352096047277708
  0
VERTEX
  5
1C8CDE6AA239
  8
SJC2
 10
1665.998020032881
 20
1844.755406823954
 30
0.0
 42
0.0742524186368184
  0
VERTEX
  5
1C8CDE6AA23A
  8
SJC2
 10
1665.789563987508
 20
1845.2604933372149
 30
0.0
 42
0.2636526432947964
  0
VERTEX
  5
1C8CDE6AA23B
  8
SJC2
 10
1665.647160231418
 20
1845.34119326158
 30
0.0
 42
0.2636526432948179
  0
SEQEND
  5
1C8CDE6AA23C
  8
SJC2
  0
LINE
  5
1C8CDE6A961E
  8
SJC2
 10
1664.0222145250029
 20
1846.84119326158
 30
0.0
 11
1664.0222145250029
 21
1845.31862994071
 31
0.0
  0
POLYLINE
  5
1C8CDE6A961F
  8
SJC2
 66
     1
 10
0.0
 20
0.0
 30
0.0
  0
VERTEX
  5
1C8CDE6AA23D
  8
SJC2
 10
1664.3217878549731
 20
1841.34119326158
 30
0.0
 42
0.3358450609579918
  0
VERTEX
  5
1C8CDE6AA23E
  8
SJC2
 10
1664.37957678356
 20
1841.3849442741159
 30
0.0
 42
0.0255638409195304
  0
VERTEX
  5
1C8CDE6AA23F
  8
SJC2
 10
1664.4586577844291
 20
1841.7326342998069
 30
0.0
 42
0.0169788485543967
  0
SEQEND
  5
1C8CDE6AA240
  8
SJC2
  0
LINE
  5
1C8CDE6A9624
  8
SJC2
 10
1664.0222145250029
 20
1841.3637565824499
 30
0.0
 11
1664.0222145250029
 21
1839.84119326158
 31
0.0
  0
POLYLINE
  5
1C8CDE6A9625
  8
SJC2
 66
     1
 10
0.0
 20
0.0
 30
0.0
  0
VERTEX
  5
1C8CDE6AA241
  8
SJC2
 10
1665.647160231418
 20
1841.34119326158
 30
0.0
 42
0.2636526432947845
  0
VERTEX
  5
1C8CDE6AA242
  8
SJC2
 10
1665.789563987508
 20
1841.421893185945
 30
0.0
 42
0.0742524186368126
  0
VERTEX
  5
1C8CDE6AA243
  8
SJC2
 10
1665.998020032881
 20
1841.9269796992071
 30
0.0
 42
0.0352096047277726
  0
VERTEX
  5
1C8CDE6AA244
  8
SJC2
 10
1666.1011604852899
 20
1842.5179216151589
 30
0.0
 42
0.0053639511144543
  0
VERTEX
  5
1C8CDE6AA245
  8
SJC2
 10
1666.11697902683
 20
1842.68998405672
 30
0.0
 42
0.0256068403005276
  0
SEQEND
  5
1C8CDE6AA246
  8
SJC2
  0
ARC
  5
1C8CDE6A962C
  8
SJC2
 10
1663.6722145250019
 20
1843.34119326158
 30
0.0
 40
2.0
 50
79.921341892212453
 51
280.07865810778759
  0
ARC
  5
1C8CDE6A962D
  8
SJC2
 10
1665.647160231418
 20
1843.34119326158
 30
0.0
 40
2.0
 50
90.0
 51
270.0
  0
ARC
  5
1C8CDE6A962E
  8
SJC2
 10
1664.3217878549731
 20
1843.34119326158
 30
0.0
 40
2.0
 50
90.0
 51
270.0
  0
LINE
  5
1C8CDE6A962F
  8
SJC2
 10
1662.0222145250029
 20
1839.84119326158
 30
0.0
 11
1662.0222145250029
 21
1835.84119326158
 31
0.0
  0
ARC
  5
1C8CDE6A9630
  8
SJC2
 10
1668.00799107637
 20
1843.34119326158
 30
0.0
 40
2.0
 50
90.000000000000185
 51
269.99999999999977
  0
ARC
  5
1C8CDE6A9631
  8
SJC2
 10
1667.256560769908
 20
1852.5484149481949
 30
0.0
 40
5.294041751415774
 50
88.748215530713239
 51
171.38760961275659
  0
LINE
  5
1C8CDE6A9632
  8
SJC2
 10
1662.0222145250029
 20
1839.84119326158
 30
0.0
 11
1787.0222145250029
 21
1839.84119326158
 31
0.0
  0
LINE
  5
1C8CDE6A9633
  8
SJC2
 10
1662.0222145250029
 20
1846.84119326158
 30
0.0
 11
1787.0222145250029
 21
1846.84119326158
 31
0.0
  0
LINE
  5
1C8CDE6A9634
  8
SJC2
 10
1662.0222145250029
 20
1839.84119326158
 30
0.0
 11
1780.1722145250019
 21
1839.84119326158
 31
0.0
  0
LINE
  5
1C8CDE6A9635
  8
SJC2
 10
1665.022214525002
 20
1824.84119326158
 30
0.0
 11
1784.0222145250029
 21
1824.84119326158
 31
0.0
  0
ARC
  5
1C8CDE6A9636
  8
SJC2
 10
1683.864507482032
 20
1835.8890913407699
 30
0.0
 40
21.842345474941219
 50
180.1256440150639
 51
210.38459339105179
  0
ARC
  5
1C8CDE6A9637
  8
SJC2
 10
1765.179921567973
 20
1835.8890913407699
 30
0.0
 40
21.842345474941219
 50
329.61540660894809
 51
359.87435598493619
  0
LINE
  5
1C8CDE6A9639
  8
SJC
 10
1781.672484357103
 20
1090.7348932574021
 30
0.0
 11
2009.6438919219599
 21
1090.7348932574021
 31
0.0
1001
ACAD
1000
ASC_BOUNDS
1002
{
1070
    19
1002
}
  0
LINE
  5
1C8CDE6A963A
  8
SJC
 10
1781.6724843571051
 20
1824.84119326158
 30
0.0
 11
1781.6724843571039
 21
690.73488431670205
 31
0.0
1001
ACAD
1000
ASC_BOUNDS
1002
{
1070
    19
1002
}
  0
LINE
  5
1C8CDE6A963B
  8
CENTER
 10
1724.5222145250029
 20
1935.89686139338
 30
0.0
 11
1724.5222145250029
 21
595.57292512982599
 31
0.0
  0
LINE
  5
1C8CDE6A963C
  8
SJC
 10
1667.3719446929019
 20
1824.84119326158
 30
0.0
 11
1667.3719446929019
 21
690.73488431670205
 31
0.0
1001
ACAD
1000
ASC_BOUNDS
1002
{
1070
    19
1002
}
  0
LINE
  5
1C8CDE6A9752
  8
HATCH
 10
1574.5230855543839
 20
815.15520020040947
 30
0.0
 11
1624.523085554383
 21
865.15520020040788
 31
0.0
  0
LINE
  5
1C8CDE6A9753
  8
HATCH
 10
1781.671944692901
 20
1022.304059338927
 30
0.0
 11
1850.1027786113759
 21
1090.7348932574009
 31
0.0
  0
LINE
  5
1C8CDE6A9754
  8
HATCH
 10
1624.5701825231779
 20
865.20229716920346
 30
0.0
 11
1667.371944692901
 21
908.0040593389266
 31
0.0
  0
LINE
  5
1C8CDE6A9755
  8
HATCH
 10
1574.5230855543839
 20
991.93189549704653
 30
0.0
 11
1667.371944692901
 21
1084.780754635563
 31
0.0
  0
LINE
  5
1C8CDE6A9756
  8
HATCH
 10
1626.8794739080131
 20
690.73489325740184
 30
0.0
 11
1667.3719446929019
 21
731.22736404229022
 31
0.0
  0
LINE
  5
1C8CDE6A9757
  8
HATCH
 10
1781.6724843571039
 20
845.52790370649257
 30
0.0
 11
1874.5230855543839
 21
938.37850490377275
 31
0.0
  0
LINE
  5
1C8CDE6A9759
  8
HATCH
 10
1803.65616920465
 20
690.73489325740184
 30
0.0
 11
1874.5230855543839
 21
761.60180960713592
 31
0.0
  0
LINE
  5
1C8CDE6A975A
  8
HATCH
 10
1574.5230855543839
 20
837.25228711248928
 30
0.0
 11
1667.371944692901
 21
930.10114625100641
 31
0.0
  0
LINE
  5
1C8CDE6A975B
  8
HATCH
 10
1781.671944692901
 20
1044.4011462510059
 30
0.0
 11
1828.005691699296
 21
1090.7348932574009
 31
0.0
  0
LINE
  5
1C8CDE6A975C
  8
HATCH
 10
1574.5230855543839
 20
1014.028982409126
 30
0.0
 11
1651.228996402659
 21
1090.7348932574009
 31
0.0
  0
LINE
  5
1C8CDE6A975D
  8
HATCH
 10
1604.7823869959341
 20
690.73489325740184
 30
0.0
 11
1667.3719446929019
 21
753.32445095436992
 31
0.0
  0
LINE
  5
1C8CDE6A975E
  8
HATCH
 10
1781.671944692901
 20
867.62445095436976
 30
0.0
 11
1874.5230855543839
 21
960.47559181585245
 31
0.0
  0
LINE
  5
1C8CDE6A975F
  8
HATCH
 10
1781.671944692901
 20
690.84775565773293
 30
0.0
 11
1874.5230855543839
 21
783.6988965192154
 31
0.0
  0
LINE
  5
1C8CDE6A9760
  8
HATCH
 10
1574.5230855543839
 20
859.34937402456865
 30
0.0
 11
1667.371944692901
 21
952.19823316308589
 31
0.0
  0
LINE
  5
1C8CDE6A9761
  8
HATCH
 10
1781.671944692901
 20
1066.4982331630861
 30
0.0
 11
1805.908604787217
 21
1090.7348932574009
 31
0.0
  0
LINE
  5
1C8CDE6A9762
  8
HATCH
 10
1574.5230855543839
 20
1036.126069321205
 30
0.0
 11
1629.13190949058
 21
1090.7348932574009
 31
0.0
  0
LINE
  5
1C8CDE6A9763
  8
HATCH
 10
1582.6853000838539
 20
690.73489325740184
 30
0.0
 11
1667.3719446929019
 21
775.42153786644963
 31
0.0
  0
LINE
  5
1C8CDE6A9764
  8
HATCH
 10
1781.671944692901
 20
889.72153786644935
 30
0.0
 11
1874.5230855543839
 21
982.57267872793204
 31
0.0
  0
LINE
  5
1C8CDE6A9765
  8
HATCH
 10
1781.671944692901
 20
712.94484256981229
 30
0.0
 11
1874.5230855543839
 21
805.7959834312951
 31
0.0
  0
TEXT
  5
1C8CDE6A97BD
  8
INFORMATION
 10
1.0
 20
1.0
 30
0.0
 40
0.8
  1
VERSION=3.0
  7
EXT08
  0
LINE
  5
1C8CDE6A9C05
  8
MOJI
 10
2963.932180788705
 20
395.63071456848968
 30
0.0
 11
3336.429626755993
 21
395.63071456848968
 31
0.0
  0
LINE
  5
1C8CDE6A9C06
  8
MOJI
 10
2435.1111332769469
 20
455.63071456848962
 30
0.0
 11
3336.429626755993
 21
455.63071456848962
 31
0.0
  0
LINE
  5
1C8CDE6A9C07
  8
MOJI
 10
2963.932180788705
 20
455.63071456848962
 30
0.0
 11
2963.9321807887068
 21
155.63071456848971
 31
0.0
  0
LINE
  5
1C8CDE6A9C08
  8
MOJI
 10
2435.1111332769469
 20
455.63071456848962
 30
0.0
 11
2435.1111332769469
 21
155.63071456848971
 31
0.0
  0
LINE
  5
1C8CDE6A9C09
  8
MOJI
 10
2509.9093712534418
 20
455.63071456848962
 30
0.0
 11
2509.9093712534391
 21
155.63071456848971
 31
0.0
  0
LINE
  5
1C8CDE6A9C0A
  8
MOJI
 10
2684.3041113354052
 20
455.63071456848962
 30
0.0
 11
2684.3041113354038
 21
155.63071456848971
 31
0.0
  0
TEXT
  5
1C8CDE6A9C0B
  8
MOJI
 10
2529.106741294423
 20
410.66660747046541
 30
0.0
 40
30.0
  1
品      名
 41
0.8
  7
EXT08
 72
     1
 11
2597.106741294423
 21
410.66660747046541
 31
0.0
  0
LINE
  5
1C8CDE6A9C0C
  8
MOJI
 10
2435.1111332769469
 20
395.63071456848968
 30
0.0
 11
3231.1963104608972
 21
395.63071456848968
 31
0.0
  0
TEXT
  5
1C8CDE6A9C0D
  8
MOJI
 10
2448.1703442892422
 20
410.66660747046541
 30
0.0
 40
30.0
  1
部番
 41
0.8
  7
EXT08
 72
     1
 11
2473.7703442892421
 21
410.66660747046541
 31
0.0
  0
TEXT
  5
1C8CDE6A9C0E
  8
MOJI
 10
2755.3181460620549
 20
410.66660747046541
 30
0.0
 40
30.0
  1
材      質
 41
0.8
  7
EXT08
 72
     1
 11
2824.1181460620551
 21
410.66660747046541
 31
0.0
  0
TEXT
  5
1C8CDE6A9C0F
  8
MOJI
 10
3036.6922468578509
 20
410.66660747046541
 30
0.0
 40
30.0
  1
摘            要
 41
0.8
  7
EXT08
 72
     1
 11
3148.9208182864222
 21
410.66660747046541
 31
0.0
  0
LINE
  5
1C8CDE6A9C10
  8
MOJI
 10
3336.429626755993
 20
455.63071456848962
 30
0.0
 11
3336.4296267559889
 21
155.63071456848971
 31
0.0
  0
TEXT
  5
1C8CDE6A9C11
  8
MOJI
 10
2464.0560585749558
 20
350.66660747046558
 30
0.0
 40
30.0
  1
1
 41
0.8
  7
EXT08
 72
     1
 11
2473.7703442892421
 21
350.66660747046558
 31
0.0
  0
TEXT
  5
1C8CDE6A9C12
  8
MOJI
 10
2514.078169865852
 20
350.66660747046558
 30
0.0
 40
30.0
  1
頭部キャップ
 41
0.8
  7
EXT08
 72
     1
 11
2597.106741294423
 21
350.66660747046558
 31
0.0
  0
TEXT
  5
1C8CDE6A9C13
  8
MOJI
 10
2799.5467174906262
 20
350.66660747046558
 30
0.0
 40
30.0
  1
PC
 41
0.8
  7
EXT08
 72
     1
 11
2824.1181460620551
 21
350.66660747046558
 31
0.0
  0
TEXT
  5
1C8CDE6A9C15
  8
MOJI
 10
2462.3417728606701
 20
290.66660747046558
 30
0.0
 40
30.0
  1
2
 41
0.8
  7
EXT08
 72
     1
 11
2473.7703442892421
 21
290.66660747046558
 31
0.0
  0
TEXT
  5
1C8CDE6A9C16
  8
MOJI
 10
2528.306741294422
 20
290.66660747046558
 30
0.0
 40
30.0
  1
支      柱
 41
0.8
  7
EXT08
 72
     1
 11
2597.1067412944221
 21
290.66660747046558
 31
0.0
  0
TEXT
  5
1C8CDE6A9C17
  8
MOJI
 10
2757.261003204912
 20
290.66660747046558
 30
0.0
 40
30.0
  1
STK400
 41
0.8
  7
EXT08
 72
     1
 11
2824.1181460620551
 21
290.66660747046558
 31
0.0
  0
TEXT
  5
1C8CDE6A9C18
  8
MOJI
 10
2979.3208182864232
 20
290.66660747046558
 30
0.0
 40
30.0
  1
亜鉛めっき＋静電粉体塗装
 41
0.8
  7
EXT08
 72
     1
 11
3148.9208182864222
 21
290.66660747046558
 31
0.0
  0
LINE
  5
1C8CDE6A9C19
  8
MOJI
 10
2435.1111332769469
 20
335.63071456848979
 30
0.0
 11
3336.4296267559921
 21
335.63071456848979
 31
0.0
  0
TEXT
  5
1C8CDE6A9C1A
  8
MOJI
 10
2992.1208182864229
 20
230.66660747046561
 30
0.0
 40
30.0
  1
ベース　黒・反射体　黄
 41
0.8
  7
EXT08
 72
     1
 11
3148.9208182864231
 21
230.66660747046561
 31
0.0
  0
TEXT
  5
1C8CDE6A9C1B
  8
MOJI
 10
2739.3181460620549
 20
230.66660747046561
 30
0.0
 40
30.0
  1
ガラスビーズ
 41
0.8
  7
EXT08
 72
     1
 11
2824.1181460620551
 21
230.66660747046561
 31
0.0
  0
TEXT
  5
1C8CDE6A9C1C
  8
MOJI
 10
2542.706741294423
 20
230.66660747046561
 30
0.0
 40
30.0
  1
反 射 体
 41
0.8
  7
EXT08
 72
     1
 11
2597.106741294423
 21
230.66660747046561
 31
0.0
  0
TEXT
  5
1C8CDE6A9C1D
  8
MOJI
 10
2462.3417728606701
 20
230.66660747046561
 30
0.0
 40
30.0
  1
3
 41
0.8
  7
EXT08
 72
     1
 11
2473.7703442892421
 21
230.66660747046561
 31
0.0
  0
LINE
  5
1C8CDE6A9C1E
  8
MOJI
 10
2435.1111332769469
 20
215.63071456848979
 30
0.0
 11
3336.4296267559898
 21
215.63071456848979
 31
0.0
  0
LINE
  5
1C8CDE6A9C1F
  8
MOJI
 10
2435.1111332769469
 20
275.63071456848979
 30
0.0
 11
3336.4296267559921
 21
275.63071456848979
 31
0.0
  0
DIMENSION
  5
1C8CDE6A9C20
  8
SUNPOU
  2
*D2
 10
1217.3719446929019
 20
690.7348843167016
 30
0.0
 11
1190.3719446929019
 21
1290.7348887870519
 31
0.0
 12
203.2388337102602
 22
127.32718213287831
 32
0.0
 70
     0
  1
1200
 13
1724.5222145250029
 23
1890.7348932574021
 33
0.0
 14
1338.823505952802
 24
690.7348843167016
 34
0.0
 50
270.0
1001
ACAD
1000
DSTYLE
1002
{
1070
   340
1005
1C8CDE699DA6
1070
   140
1040
3.0
1070
    40
1040
10.0
1070
   147
1040
1.1999999999999991
1070
    42
1040
1.0
1070
    44
1040
1.0
1070
    43
1040
6.0
1070
   271
1070
     4
1070
    41
1040
2.0
1002
}
  0
DIMENSION
  5
1C8CDE6A9C22
  8
SUNPOU
  2
*D1
 10
1317.3719446929031
 20
1090.7348932574021
 30
0.0
 11
1290.3719446929019
 21
1490.7348932574021
 31
0.0
 12
203.2388337102602
 22
127.32718213287831
 32
0.0
 70
     0
  1
800
 13
1724.5222145250029
 23
1890.7348932574021
 33
0.0
 14
1425.160957259626
 24
1090.7348932574021
 34
0.0
 50
270.0
1001
ACAD
1000
DSTYLE
1002
{
1070
   340
1005
1C8CDE699DA6
1070
   140
1040
3.0
1070
    40
1040
10.0
1070
   147
1040
1.1999999999999991
1070
    42
1040
1.0
1070
    44
1040
1.0
1070
    43
1040
6.0
1070
   271
1070
     4
1070
    41
1040
2.0
1002
}
  0
DIMENSION
  5
1C8CDE6A9C23
  8
SUNPOU
  2
*D4
 10
1317.3719446929031
 20
690.7348843167016
 30
0.0
 11
1290.3719446929019
 21
890.73488878705189
 31
0.0
 12
-3868.3683351571199
 22
-5.2250449351013231
 32
0.0
 70
     0
 13
1444.691257389823
 23
1090.7348932574021
 33
0.0
 14
1527.022212010502
 24
690.7348843167016
 34
0.0
 50
270.0
1001
ACAD
1000
DSTYLE
1002
{
1070
   340
1005
1C8CDE699DA6
1070
   140
1040
3.0
1070
    40
1040
10.0
1070
   147
1040
1.1999999999999991
1070
    42
1040
1.0
1070
    44
1040
1.0
1070
    43
1040
6.0
1070
   271
1070
     4
1070
    41
1040
2.0
1002
}
  0
DIMENSION
  5
1C8CDE6A9C24
  8
SUNPOU
  2
*D3
 10
1217.3719446929019
 20
640.73489325740161
 30
0.0
 11
1174.3719446929019
 21
665.73488878705155
 31
0.0
 12
-3868.3683351571199
 22
-5.2250449351013231
 32
0.0
 70
     0
 13
1517.022212010502
 23
690.7348843167016
 33
0.0
 14
1524.5230855543839
 24
640.73489325740161
 34
0.0
 50
90.0
1001
ACAD
1000
DSTYLE
1002
{
1070
   340
1005
1C8CDE699DA6
1070
   140
1040
3.0
1070
    40
1040
10.0
1070
   147
1040
1.1999999999999991
1070
    42
1040
1.0
1070
    44
1040
1.0
1070
    43
1040
6.0
1070
   271
1070
     4
1070
    41
1040
2.0
1002
}
  0
DIMENSION
  5
1C8CDE6A9C25
  8
SUNPOU
  2
*D6
 10
1924.5230855543839
 20
390.73489325740212
 30
0.0
 11
1724.5230855543839
 21
417.73489325740201
 31
0.0
 12
-3868.3683351571199
 22
-5.2250449351013231
 32
0.0
 70
     0
  1
□<>
 13
1524.5230855543839
 23
640.73489325740195
 33
0.0
 14
1924.5230855543839
 24
640.73489325740195
 34
0.0
1001
ACAD
1000
DSTYLE
1002
{
1070
   340
1005
1C8CDE699DA6
1070
   140
1040
3.0
1070
    40
1040
10.0
1070
   147
1040
1.1999999999999991
1070
    42
1040
1.0
1070
    44
1040
1.0
1070
    43
1040
6.0
1070
   271
1070
     4
1070
    41
1040
2.0
1002
}
  0
DIMENSION
  5
1C8CDE6A9C26
  8
SUNPOU
  2
*D5
 10
1874.5230855543839
 20
490.73489325740201
 30
0.0
 11
1724.5230855543839
 21
517.73489325740195
 31
0.0
 12
-3868.3683351571199
 22
-5.2250449351013231
 32
0.0
 70
     0
  1
□300
 13
1574.5230855543839
 23
640.73489325740161
 33
0.0
 14
1874.5230855543839
 24
640.73489325740161
 34
0.0
1001
ACAD
1000
DSTYLE
1002
{
1070
   340
1005
1C8CDE699DA6
1070
   140
1040
3.0
1070
    40
1040
10.0
1070
   147
1040
1.1999999999999991
1070
    42
1040
1.0
1070
    44
1040
1.0
1070
    43
1040
6.0
1070
   271
1070
     4
1070
    41
1040
2.0
1002
}
  0
CIRCLE
  5
1C8CDE6A9E73
  8
SJC
 10
1724.5222145250029
 20
2196.4485725356899
 30
0.0
 40
62.5
  0
LINE
  5
1C8CDE6A9E74
  8
CENTER
 10
1724.5222145250029
 20
2068.4347199074259
 30
0.0
 11
1724.5222145250029
 21
2324.4624251639539
 31
0.0
  0
LINE
  5
1C8CDE6A9E76
  8
CENTER
 10
1596.5083618967381
 20
2196.4485725356899
 30
0.0
 11
1852.5360671532669
 21
2196.4485725356899
 31
0.0
  0
POINT
  5
1C8CDE6A9E80
  8
DEFPOINTS
  6
BYBLOCK
 62
     0
 10
1724.5222145250029
 20
2196.4485725356899
 30
0.0
  0
TEXT
  5
1C8CDE6A9FBD
  8
MOJI
 10
1946.135163144749
 20
2043.1553290634961
 30
0.0
 40
30.0
  1
頭部キャップ
 41
0.8
  7
EXT08
  0
LINE
  5
1C8CDE6A9FBE
  8
MOJI
 10
1891.3024699162711
 20
2031.2929097927449
 30
0.0
 11
2120.978463525611
 21
2031.2929097927449
 31
0.0
  0
LINE
  5
1C8CDE6A9FBF
  8
MOJI
  6
CONTINUOUS
 10
1753.936063507376
 20
1884.2551694536071
 30
0.0
 11
1891.3024699162711
 21
2031.2929097927449
 31
0.0
  0
CIRCLE
  5
1C8CDE6A9FC0
  8
MOJI
 10
1914.408461208983
 20
2061.7105024238299
 30
0.0
 40
24.0
  0
TEXT
  5
1C8CDE6A9FC1
  8
MOJI
 10
1903.652404847255
 20
2045.7738015536061
 30
0.0
 40
30.0
  1
1
 41
0.8
  7
EXT08
 72
     2
 11
1916.2238334186841
 21
2060.7738015536061
 31
0.0
 73
     2
  0
SOLID
  5
1C8CDE6A9FC2
  8
MOJI
  6
CONTINUOUS
 10
1770.0251620089409
 20
1896.5942140081081
 30
0.0
 11
1765.153628720909
 21
1901.1453246272929
 31
0.0
 12
1753.9360635073749
 22
1884.255169453605
 32
0.0
 13
1753.9360635073749
 23
1884.255169453605
 33
0.0
  0
LINE
  5
1C8CDE6A9FC3
  8
MOJI
 10
1784.3724843571031
 20
1818.7348932574041
 30
0.0
 11
1887.0977625183821
 21
1722.799388992391
 31
0.0
  0
TEXT
  5
1C8CDE6A9FC4
  8
MOJI
 10
1940.6770239253931
 20
1733.3551446463271
 30
0.0
 40
30.0
  1
取付ビス
 41
0.8
  7
EXT08
  0
LINE
  5
1C8CDE6A9FC5
  8
MOJI
 10
1887.0977625183821
 20
1722.799388992391
 30
0.0
 11
2065.4226428718889
 21
1722.799388992391
 31
0.0
  0
CIRCLE
  5
1C8CDE6A9FC6
  8
MOJI
 10
1910.2037538110931
 20
1753.2169816234759
 30
0.0
 40
24.0
  0
LINE
  5
1C8CDE6A9FC7
  8
MOJI
  6
CONTINUOUS
 10
1796.7685760615479
 20
1466.594134036161
 30
0.0
 11
1891.768950428391
 21
1384.0357203749591
 31
0.0
  0
TEXT
  5
1C8CDE6A9FC8
  8
MOJI
 10
1947.4232193310611
 20
1395.478202374806
 30
0.0
 40
30.0
  1
支柱φ114.3×t2.3
 41
0.8
  7
EXT08
  0
LINE
  5
1C8CDE6A9FC9
  8
MOJI
  6
CONTINUOUS
 10
2243.9341462128691
 20
1384.0357203749591
 30
0.0
 11
1891.768950428391
 21
1384.0357203749591
 31
0.0
  0
TEXT
  5
1C8CDE6A9FCA
  8
MOJI
 10
1903.1474953439131
 20
1398.51661213582
 30
0.0
 40
30.0
  1
2
 41
0.8
  7
EXT08
 72
     2
 11
1922.576066772484
 21
1413.51661213582
 31
0.0
 73
     2
  0
CIRCLE
  5
1C8CDE6A9FCB
  8
MOJI
 10
1914.874941721102
 20
1414.453313006044
 30
0.0
 40
24.0
  0
SOLID
  5
1C8CDE6A9FCC
  8
MOJI
  6
CONTINUOUS
 10
1794.582076987361
 20
1464.0781187520879
 30
0.0
 11
1798.955075135734
 21
1469.110149320235
 31
0.0
 12
1781.6724843571051
 22
1479.7131284812799
 32
0.0
 13
1781.6724843571051
 23
1479.7131284812799
 33
0.0
  0
SOLID
  5
1C8CDE6A9FCD
  8
MOJI
 10
1801.26456786942
 20
1807.520232062164
 30
0.0
 11
1796.7142948594881
 21
1802.6479163930469
 31
0.0
 12
1784.3724843571019
 22
1818.7348932574041
 32
0.0
 13
1784.3724843571019
 23
1818.7348932574041
 33
0.0
  0
TEXT
  5
1C8CDE6A9FCE
  8
MOJI
 10
1897.3334684171709
 20
1737.2802807532521
 30
0.0
 40
30.0
  1
4
 41
0.8
  7
EXT08
 72
     2
 11
1917.9048969885989
 21
1752.2802807532521
 31
0.0
 73
     2
  0
TEXT
  5
1C8CDE6A9FE3
  8
MOJI
 10
3006.5208182864221
 20
350.66660747046558
 30
0.0
 40
30.0
  1
ポリカーボネート樹脂
 41
0.8
  7
EXT08
 72
     1
 11
3148.9208182864222
 21
350.66660747046558
 31
0.0
  0
LINE
  5
1C8CDE6AA048
  8
MOJI2
 10
1525.2918347660529
 20
2446.4485725356899
 30
0.0
 11
1923.752594283952
 21
2446.4485725356899
 31
0.0
  0
LINE
  5
1C8CDE6AA049
  8
MOJI2
 10
1525.2918347660529
 20
2456.4485725356899
 30
0.0
 11
1923.752594283952
 21
2456.4485725356899
 31
0.0
  0
TEXT
  5
1C8CDE6AA04A
  8
MOJI2
 10
1546.270467727938
 20
2467.2843086541488
 30
0.0
 40
40.0
  1
HKB-114-80K
 41
0.8
  7
EXT08
  0
LINE
  5
1C8CDE6AA0BC
  8
CENTER
 10
1662.3719446929031
 20
1818.7348932574021
 30
0.0
 11
1677.3719446929019
 21
1818.7348932574021
 31
0.0
  0
ARC
  5
1C8CDE6AA0C9
  8
SJC2
 10
1669.3668521003101
 20
1818.7348932574021
 30
0.0
 40
4.6949074074074391
 50
115.1448900084545
 51
244.8551099915455
  0
LINE
  5
1C8CDE6AA0F7
  8
CENTER
 10
1786.672484357103
 20
1818.7348932574021
 30
0.0
 11
1771.672484357103
 21
1818.7348932574021
 31
0.0
  0
ARC
  5
1C8CDE6AA0F8
  8
SJC2
 10
1779.6775769496969
 20
1818.7348932574021
 30
0.0
 40
4.6949074074072943
 50
295.14489000845452
 51
64.855109991545504
  0
LINE
  5
1C8CDE6AA104
  8
MOJI
 10
2435.1111332769469
 20
155.63071456848979
 30
0.0
 11
3336.4296267559898
 21
155.63071456848979
 31
0.0
  0
TEXT
  5
1C8CDE6AA105
  8
MOJI
 10
2461.7703442892421
 20
170.66660747046561
 30
0.0
 40
30.0
  1
4
 41
0.8
  7
EXT08
 72
     1
 11
2473.7703442892421
 21
170.66660747046561
 31
0.0
  0
TEXT
  5
1C8CDE6AA106
  8
MOJI
 10
2544.3067412944229
 20
170.66660747046561
 30
0.0
 40
30.0
  1
取付ビス
 41
0.8
  7
EXT08
 72
     1
 11
2597.106741294423
 21
170.66660747046561
 31
0.0
  0
TEXT
  5
1C8CDE6AA107
  8
MOJI
 10
2788.6895746334831
 20
170.66660747046561
 30
0.0
 40
30.0
  1
SUS
 41
0.8
  7
EXT08
 72
     1
 11
2824.1181460620551
 21
170.66660747046561
 31
0.0
  0
TEXT
  5
1C8CDE6AA108
  8
MOJI
 10
2994.6351040007089
 20
170.66660747046561
 30
0.0
 40
30.0
  1
φ4×40 タッピンねじ
 41
0.8
  7
EXT08
 72
     1
 11
3148.9208182864231
 21
170.66660747046561
 31
0.0
  0
LINE
  5
1C8CDE6AA10A
  8
MOJI
 10
1559.7647511659679
 20
1745.792481583303
 30
0.0
 11
1419.2026006808569
 21
1745.792481583303
 31
0.0
  0
TEXT
  5
1C8CDE6AA10B
  8
MOJI
 10
1473.6895165649901
 20
1756.3482372372389
 30
0.0
 40
30.0
  1
反射体
 41
0.8
  7
EXT08
  0
CIRCLE
  5
1C8CDE6AA10C
  8
MOJI
 10
1441.4837769817841
 20
1776.210074214388
 30
0.0
 40
24.0
  0
LINE
  5
1C8CDE6AA10D
  8
MOJI
 10
1662.4900293272469
 20
1841.7279858483159
 30
0.0
 11
1559.7647511659679
 21
1745.792481583303
 31
0.0
  0
TEXT
  5
1C8CDE6AA10E
  8
MOJI
 10
1430.2589404390219
 20
1760.2733733441639
 30
0.0
 40
30.0
  1
3
 41
0.8
  7
EXT08
 72
     2
 11
1449.6875118675939
 21
1775.2733733441639
 31
0.0
 73
     2
  0
SOLID
  5
1C8CDE6AA10F
  8
MOJI
 10
1645.5979458149291
 20
1830.513324653077
 30
0.0
 11
1650.148218824861
 21
1825.6410089839601
 31
0.0
 12
1662.4900293272469
 22
1841.7279858483159
 32
0.0
 13
1662.4900293272469
 23
1841.7279858483159
 33
0.0
  0
TEXT
  5
1C8CDE6AA110
  8
MOJI
 10
1464.3698549983301
 20
1710.999703157293
 30
0.0
 40
30.0
  1
（全周）
 41
0.8
  7
EXT08
  0
TEXT
  5
1C8CDE6AA111
  8
MOJI
 10
1932.0582046865229
 20
1682.637751798183
 30
0.0
 40
30.0
  1
φ4×40
 41
0.8
  7
EXT08
  0
ENDSEC
  0
EOF
