  0
SECTION
  2
HEADER
  9
$ACADVER
  1
AC1009
  9
$INSBASE
 10
0.0
 20
0.0
 30
0.0
  9
$EXTMIN
 10
0.0
 20
0.0
 30
0.0
  9
$EXTMAX
 10
3700.0
 20
2670.0
 30
0.0
  9
$LIMMIN
 10
0.0
 20
0.0
  9
$LIMMAX
 10
4200.0
 20
2970.0
  9
$ORTHOMODE
 70
     0
  9
$REGENMODE
 70
     1
  9
$FILLMODE
 70
     1
  9
$QTEXTMODE
 70
     0
  9
$MIRRTEXT
 70
     0
  9
$DRAGMODE
 70
     2
  9
$LTSCALE
 40
100.0
  9
$OSMODE
 70
    37
  9
$ATTMODE
 70
     1
  9
$TEXTSIZE
 40
30.0
  9
$TRACEWID
 40
0.05
  9
$TEXTSTYLE
  7
EXT08
  9
$CLAYER
  8
0
  9
$CELTYPE
  6
BYLAYER
  9
$CECOLOR
 62
   256
  9
$DIMSCALE
 40
10.0
  9
$DIMASZ
 40
2.0
  9
$DIMEXO
 40
1.0
  9
$DIMDLI
 40
6.0
  9
$DIMRND
 40
0.0
  9
$DIMDLE
 40
0.0
  9
$DIMEXE
 40
1.0
  9
$DIMTP
 40
0.0
  9
$DIMTM
 40
0.0
  9
$DIMTXT
 40
3.0
  9
$DIMCEN
 40
0.1
  9
$DIMTSZ
 40
0.0
  9
$DIMTOL
 70
     0
  9
$DIMLIM
 70
     0
  9
$DIMTIH
 70
     0
  9
$DIMTOH
 70
     0
  9
$DIMSE1
 70
     0
  9
$DIMSE2
 70
     0
  9
$DIMTAD
 70
     1
  9
$DIMZIN
 70
     8
  9
$DIMBLK
  1

  9
$DIMASO
 70
     1
  9
$DIMSHO
 70
     1
  9
$DIMPOST
  1

  9
$DIMAPOST
  1

  9
$DIMALT
 70
     0
  9
$DIMALTD
 70
     2
  9
$DIMALTF
 40
25.399999999999999
  9
$DIMLFAC
 40
1.0
  9
$DIMTOFL
 70
     1
  9
$DIMTVP
 40
0.0
  9
$DIMTIX
 70
     0
  9
$DIMSOXD
 70
     0
  9
$DIMSAH
 70
     0
  9
$DIMBLK1
  1

  9
$DIMBLK2
  1

  9
$DIMSTYLE
  2
SJC
  9
$DIMCLRD
 70
     0
  9
$DIMCLRE
 70
     0
  9
$DIMCLRT
 70
     0
  9
$DIMTFAC
 40
1.0
  9
$DIMGAP
 40
1.1999999999999991
  9
$LUNITS
 70
     2
  9
$LUPREC
 70
     2
  9
$SKETCHINC
 40
0.1
  9
$FILLETRAD
 40
0.25
  9
$AUNITS
 70
     1
  9
$AUPREC
 70
     2
  9
$MENU
  1
C:\r13\win\SUPPORT\sjc
  9
$ELEVATION
 40
0.0
  9
$PELEVATION
 40
0.0
  9
$THICKNESS
 40
0.0
  9
$LIMCHECK
 70
     0
  9
$BLIPMODE
 70
     0
  9
$CHAMFERA
 40
0.0
  9
$CHAMFERB
 40
0.0
  9
$SKPOLY
 70
     0
  9
$TDCREATE
 40
2450469.5475357641
  9
$TDUPDATE
 40
2454595.5849829982
  9
$TDINDWG
 40
0.4705656713
  9
$TDUSRTIMER
 40
0.4705656713
  9
$USRTIMER
 70
     1
  9
$ANGBASE
 50
0.0
  9
$ANGDIR
 70
     0
  9
$PDMODE
 70
    33
  9
$PDSIZE
 40
5.0
  9
$PLINEWID
 40
0.0
  9
$COORDS
 70
     1
  9
$SPLFRAME
 70
     0
  9
$SPLINETYPE
 70
     6
  9
$SPLINESEGS
 70
     8
  9
$ATTDIA
 70
     0
  9
$ATTREQ
 70
     1
  9
$HANDLING
 70
     1
  9
$HANDSEED
  5
1C8CDE6ACD29
  9
$SURFTAB1
 70
     6
  9
$SURFTAB2
 70
     6
  9
$SURFTYPE
 70
     6
  9
$SURFU
 70
     6
  9
$SURFV
 70
     6
  9
$UCSNAME
  2

  9
$UCSORG
 10
0.0
 20
0.0
 30
0.0
  9
$UCSXDIR
 10
1.0
 20
0.0
 30
0.0
  9
$UCSYDIR
 10
0.0
 20
1.0
 30
0.0
  9
$PUCSNAME
  2

  9
$PUCSORG
 10
0.0
 20
0.0
 30
0.0
  9
$PUCSXDIR
 10
1.0
 20
0.0
 30
0.0
  9
$PUCSYDIR
 10
0.0
 20
1.0
 30
0.0
  9
$USERI1
 70
     3
  9
$USERI2
 70
    10
  9
$USERI3
 70
     0
  9
$USERI4
 70
     0
  9
$USERI5
 70
     0
  9
$USERR1
 40
0.1
  9
$USERR2
 40
0.0
  9
$USERR3
 40
0.0
  9
$USERR4
 40
0.0
  9
$USERR5
 40
0.0
  9
$WORLDVIEW
 70
     1
  9
$SHADEDGE
 70
     3
  9
$SHADEDIF
 70
    70
  9
$TILEMODE
 70
     1
  9
$MAXACTVP
 70
    16
  9
$PLIMCHECK
 70
     0
  9
$PEXTMIN
 10
1.0000000000000000E+020
 20
1.0000000000000000E+020
 30
1.0000000000000000E+020
  9
$PEXTMAX
 10
-1.0000000000000000E+020
 20
-1.0000000000000000E+020
 30
-1.0000000000000000E+020
  9
$PLIMMIN
 10
0.0
 20
0.0
  9
$PLIMMAX
 10
12.0
 20
9.0
  9
$UNITMODE
 70
     0
  9
$VISRETAIN
 70
     0
  9
$PLINEGEN
 70
     0
  9
$PSLTSCALE
 70
     0
  0
ENDSEC
  0
SECTION
  2
TABLES
  0
TABLE
  2
VPORT
 70
     2
  0
VPORT
  2
*ACTIVE
 70
     0
 10
0.0
 20
0.0
 11
1.0
 21
1.0
 12
2403.4888664897298
 22
1484.954684853966
 13
0.0
 23
0.0
 14
5.0
 24
5.0
 15
0.0
 25
0.0
 16
0.0
 26
0.0
 36
1.0
 17
0.0
 27
0.0
 37
0.0
 40
2997.0506057561411
 41
1.9010526315789471
 42
50.0
 43
0.0
 44
0.0
 50
0.0
 51
0.0
 71
     0
 72
   500
 73
     1
 74
     0
 75
     0
 76
     0
 77
     0
 78
     2
  0
ENDTAB
  0
TABLE
  2
LTYPE
 70
     7
  0
LTYPE
  2
CONTINUOUS
 70
     0
  3
実線
 72
    65
 73
     0
 40
0.0
  0
LTYPE
  2
DIVIDE2
 70
     0
  3
__..__..__..__..__..__..__..__..__..__..__..__.
 72
    65
 73
     6
 40
0.625
 49
0.25
 49
-0.125
 49
0.0
 49
-0.125
 49
0.0
 49
-0.125
  0
LTYPE
  2
HIDDEN2
 70
     0
  3
_ _ _ _ _ _ _ _ _ _ _ _ _ _ _ _ _ _ _ _ _ _ _ _
 72
    65
 73
     2
 40
0.1875
 49
0.125
 49
-0.0625
  0
LTYPE
  2
CENTER2
 70
     0
  3
___ _ ___ _ ___ _ ___ _ ___ _ ___ _ ___ _ ___ _
 72
    65
 73
     4
 40
1.125
 49
0.75
 49
-0.125
 49
0.125
 49
-0.125
  0
LTYPE
  2
CENTER
 70
     0
  3
____ _ ____ _ ____ _ ____ _ ____ _ ____ _ ____ 
 72
    65
 73
     4
 40
2.0
 49
1.25
 49
-0.25
 49
0.25
 49
-0.25
  0
LTYPE
  2
HIDDEN
 70
     0
  3
__ __ __ __ __ __ __ __ __ __ __ __ __ __ __ __
 72
    65
 73
     2
 40
0.375
 49
0.25
 49
-0.125
  0
LTYPE
  2
PHANTOM
 70
     0
  3
______  __  __  ______  __  __  ______  __  __ 
 72
    65
 73
     6
 40
2.5
 49
1.25
 49
-0.25
 49
0.25
 49
-0.25
 49
0.25
 49
-0.25
  0
ENDTAB
  0
TABLE
  2
LAYER
 70
    15
  0
LAYER
  2
0
 70
     0
 62
    41
  6
DIVIDE2
  0
LAYER
  2
CENTER
 70
     0
 62
     3
  6
CENTER
  0
LAYER
  2
SUNPOU
 70
     0
 62
     4
  6
CONTINUOUS
  0
LAYER
  2
WAKU
 70
     0
 62
     5
  6
CONTINUOUS
  0
LAYER
  2
MOJI
 70
     0
 62
     6
  6
CONTINUOUS
  0
LAYER
  2
HASEN
 70
     0
 62
     7
  6
HIDDEN
  0
LAYER
  2
SJC
 70
     0
 62
     1
  6
CONTINUOUS
  0
LAYER
  2
KASOU
 70
     0
 62
     2
  6
PHANTOM
  0
LAYER
  2
ZWAKU
 70
     1
 62
     7
  6
CONTINUOUS
  0
LAYER
  2
HOJO
 70
     0
 62
    -8
  6
CONTINUOUS
  0
LAYER
  2
DEFPOINTS
 70
     0
 62
     7
  6
CONTINUOUS
  0
LAYER
  2
INFORMATION
 70
     1
 62
     7
  6
CONTINUOUS
  0
LAYER
  2
SJC2
 70
     0
 62
     7
  6
CONTINUOUS
  0
LAYER
  2
MOJI2
 70
     0
 62
     1
  6
CONTINUOUS
  0
LAYER
  2
HATCH
 70
     0
 62
     2
  6
CONTINUOUS
  0
ENDTAB
  0
TABLE
  2
STYLE
 70
    11
  0
STYLE
  2
STANDARD
 70
     0
 40
2.5
 41
0.8
 50
0.0
 71
     0
 42
3.0
  3
ROMANS.SHX
  4
BIGFONT
  0
STYLE
  2
NOBO
 70
     0
 40
3.0
 41
0.85
 50
15.0
 71
     0
 42
25.0
  3
ROMANS
  4
BIGFONT
  0
STYLE
  2
SIMPLEX
 70
     0
 40
0.0
 41
1.0
 50
0.0
 71
     0
 42
0.0
  3
SCRIPTS.SHX
  4

  0
STYLE
  2
KANJI
 70
     0
 40
0.0
 41
1.0
 50
0.0
 71
     0
 42
0.0
  3
ROMANS.SHX
  4
BIGFONT.SHX
  0
STYLE
  2
TATEEXT
 70
     4
 40
0.0
 41
1.0
 50
0.0
 71
     0
 42
0.0
  3
ROMANS
  4
EXTFONT
  0
STYLE
  2
TATEBIG
 70
     4
 40
0.0
 41
5.0
 50
0.0
 71
     0
 42
0.0
  3
ROMANS
  4
BIGFONT
  0
STYLE
  2
EXT08
 70
     0
 40
0.0
 41
0.8
 50
0.0
 71
     0
 42
30.0
  3
ROMANS
  4
EXTFONT
  0
STYLE
  2
EXT
 70
     0
 40
0.0
 41
1.0
 50
0.0
 71
     0
 42
0.0
  3
ROMANS
  4
EXTFONT
  0
STYLE
  2
KANJI08
 70
     0
 40
0.0
 41
0.8
 50
0.0
 71
     0
 42
0.0
  3
ROMANS
  4
BIGFONT
  0
STYLE
  2
A
 70
     0
 40
2.5
 41
0.6
 50
0.0
 71
     0
 42
30.0
  3
TXT
  4
BIGFONT
  0
STYLE
  2
TATE
 70
     4
 40
0.0
 41
1.0
 50
0.0
 71
     0
 42
30.0
  3
SIMPLEX
  4
BIGFONT
  0
ENDTAB
  0
TABLE
  2
VIEW
 70
     0
  0
ENDTAB
  0
TABLE
  2
UCS
 70
     0
  0
ENDTAB
  0
TABLE
  2
APPID
 70
     2
  0
APPID
  2
ACAD
 70
     0
  0
APPID
  2
ACAD_PSEXT
 70
     0
  0
ENDTAB
  0
TABLE
  2
DIMSTYLE
 70
     4
  0
DIMSTYLE
  2
STANDARD
 70
     0
  3

  4

  5

  6

  7

 40
1.0
 41
20.0
 42
10.0
 43
0.4
 44
10.0
 45
0.0
 46
0.0
 47
0.0
 48
0.0
140
25.0
141
0.1
142
0.0
143
25.399999999999999
144
1.0
145
0.0
146
1.0
147
15.0
 71
     0
 72
     0
 73
     0
 74
     0
 75
     0
 76
     0
 77
     1
 78
     8
170
     0
171
     2
172
     1
173
     0
174
     0
175
     0
176
   256
177
   256
178
   256
  0
DIMSTYLE
  2
SJC
 70
     0
  3

  4

  5

  6

  7

 40
1.0
 41
20.0
 42
10.0
 43
0.4
 44
10.0
 45
0.0
 46
0.0
 47
0.0
 48
0.0
140
25.0
141
0.1
142
0.0
143
25.399999999999999
144
1.0
145
0.0
146
1.0
147
15.0
 71
     0
 72
     0
 73
     0
 74
     0
 75
     0
 76
     0
 77
     1
 78
     8
170
     0
171
     2
172
     1
173
     0
174
     0
175
     0
176
   256
177
   256
178
   256
  0
DIMSTYLE
  2
RUISEKI1
 70
     0
  3

  4

  5

  6

  7

 40
10.0
 41
2.0
 42
1.0
 43
6.0
 44
30.0
 45
0.0
 46
0.0
 47
0.0
 48
0.0
140
25.0
141
0.1
142
0.0
143
25.399999999999999
144
1.0
145
0.0
146
1.0
147
1.5
 71
     0
 72
     0
 73
     0
 74
     0
 75
     0
 76
     0
 77
     1
 78
     8
170
     0
171
     2
172
     1
173
     1
174
     0
175
     0
176
   256
177
   256
178
   256
  0
DIMSTYLE
  2
RUISEKI2
 70
     0
  3

  4

  5

  6

  7

 40
10.0
 41
2.0
 42
1.0
 43
6.0
 44
30.0
 45
0.0
 46
0.0
 47
0.0
 48
0.0
140
25.0
141
0.1
142
0.0
143
25.399999999999999
144
1.0
145
0.0
146
1.0
147
1.5
 71
     0
 72
     0
 73
     0
 74
     0
 75
     0
 76
     0
 77
     1
 78
     8
170
     0
171
     2
172
     1
173
     1
174
     0
175
     0
176
   256
177
   256
178
   256
  0
ENDTAB
  0
ENDSEC
  0
SECTION
  2
BLOCKS
  0
BLOCK
  8
0
  2
$MODEL_SPACE
 70
     0
 10
0.0
 20
0.0
 30
0.0
  3
$MODEL_SPACE
  1

  0
ENDBLK
  5
1C8CDE699D7F
  8
0
  0
BLOCK
 67
     1
  8
0
  2
$PAPER_SPACE
 70
     0
 10
0.0
 20
0.0
 30
0.0
  3
$PAPER_SPACE
  1

  0
ENDBLK
  5
1C8CDE699D7D
 67
     1
  8
0
  0
BLOCK
  8
0
  2
CALCOMP_TECHJET720A3
 70
     0
 10
0.0
 20
0.0
 30
0.0
  3
CALCOMP_TECHJET720A3
  1

  0
POLYLINE
  5
1C8CDE699D86
  8
ZWAKU
 62
     2
 66
     1
 10
0.0
 20
0.0
 30
0.0
 70
     1
  0
VERTEX
  5
1C8CDE6ACACC
  8
ZWAKU
 62
     2
 10
0.0
 20
0.0
 30
0.0
  0
VERTEX
  5
1C8CDE6ACACD
  8
ZWAKU
 62
     2
 10
0.0
 20
267.0
 30
0.0
  0
VERTEX
  5
1C8CDE6ACACE
  8
ZWAKU
 62
     2
 10
370.0
 20
267.0
 30
0.0
  0
VERTEX
  5
1C8CDE6ACACF
  8
ZWAKU
 62
     2
 10
370.0
 20
0.0
 30
0.0
  0
SEQEND
  5
1C8CDE6ACAD0
  8
ZWAKU
 62
     2
  0
ENDBLK
  5
1C8CDE699D8D
  8
0
  0
BLOCK
  8
0
  2
*D1
 70
     1
 10
0.0
 20
0.0
 30
0.0
  3
*D1
  1

  0
LINE
  5
1C8CDE6A9C67
  8
0
  6
BYBLOCK
 10
5442.891420711504
 20
635.95993819250293
 30
0.0
 11
5442.891420711504
 21
485.95993819250339
 31
0.0
  0
LINE
  5
1C8CDE6A9C68
  8
0
  6
BYBLOCK
 10
5742.891420711504
 20
635.95993819250293
 30
0.0
 11
5742.891420711504
 21
485.95993819250339
 31
0.0
  0
LINE
  5
1C8CDE6A9C69
  8
0
  6
BYBLOCK
 10
5462.8914207115031
 20
495.95993819250327
 30
0.0
 11
5722.891420711504
 21
495.95993819250327
 31
0.0
  0
SOLID
  5
1C8CDE6A9C6A
  8
0
  6
BYBLOCK
 10
5462.8914207115031
 20
499.29327152583659
 30
0.0
 11
5462.8914207115031
 21
492.62660485917002
 31
0.0
 12
5442.891420711504
 22
495.95993819250327
 32
0.0
 13
5442.891420711504
 23
495.95993819250327
 33
0.0
  0
SOLID
  5
1C8CDE6A9C6B
  8
0
  6
BYBLOCK
 10
5722.891420711504
 20
499.29327152583659
 30
0.0
 11
5722.891420711504
 21
492.62660485917002
 31
0.0
 12
5742.891420711504
 22
495.95993819250327
 32
0.0
 13
5742.891420711504
 23
495.95993819250327
 33
0.0
  0
INSERT
  5
1C8CDE6A9C6C
  8
0
  2
*U13
 10
0.0
 20
0.0
 30
0.0
  0
POINT
  5
1C8CDE6A9C6D
  8
DEFPOINTS
  6
BYBLOCK
 62
     0
 10
5442.891420711504
 20
645.95993819250293
 30
0.0
  0
POINT
  5
1C8CDE6A9C6E
  8
DEFPOINTS
  6
BYBLOCK
 62
     0
 10
5742.891420711504
 20
645.95993819250293
 30
0.0
  0
POINT
  5
1C8CDE6A9C6F
  8
DEFPOINTS
  6
BYBLOCK
 62
     0
 10
5742.891420711504
 20
495.95993819250327
 30
0.0
  0
ENDBLK
  5
1C8CDE6A9C70
  8
0
  0
BLOCK
  8
0
  2
*D2
 70
     1
 10
0.0
 20
0.0
 30
0.0
  3
*D2
  1

  0
LINE
  5
1C8CDE6A9C73
  8
0
  6
BYBLOCK
 10
5392.891420711504
 20
635.95993819250339
 30
0.0
 11
5392.891420711504
 21
385.95993819250339
 31
0.0
  0
LINE
  5
1C8CDE6A9C74
  8
0
  6
BYBLOCK
 10
5792.891420711504
 20
635.95993819250339
 30
0.0
 11
5792.891420711504
 21
385.95993819250339
 31
0.0
  0
LINE
  5
1C8CDE6A9C75
  8
0
  6
BYBLOCK
 10
5412.8914207115031
 20
395.95993819250339
 30
0.0
 11
5772.891420711504
 21
395.95993819250339
 31
0.0
  0
SOLID
  5
1C8CDE6A9C76
  8
0
  6
BYBLOCK
 10
5412.8914207115031
 20
399.2932715258367
 30
0.0
 11
5412.8914207115031
 21
392.62660485917007
 31
0.0
 12
5392.891420711504
 22
395.95993819250339
 32
0.0
 13
5392.891420711504
 23
395.95993819250339
 33
0.0
  0
SOLID
  5
1C8CDE6A9C77
  8
0
  6
BYBLOCK
 10
5772.891420711504
 20
399.2932715258367
 30
0.0
 11
5772.891420711504
 21
392.62660485917007
 31
0.0
 12
5792.891420711504
 22
395.95993819250339
 32
0.0
 13
5792.891420711504
 23
395.95993819250339
 33
0.0
  0
INSERT
  5
1C8CDE6A9C78
  8
0
  2
*U14
 10
0.0
 20
0.0
 30
0.0
  0
POINT
  5
1C8CDE6A9C79
  8
DEFPOINTS
  6
BYBLOCK
 62
     0
 10
5392.891420711504
 20
645.95993819250327
 30
0.0
  0
POINT
  5
1C8CDE6A9C7A
  8
DEFPOINTS
  6
BYBLOCK
 62
     0
 10
5792.891420711504
 20
645.95993819250327
 30
0.0
  0
POINT
  5
1C8CDE6A9C7B
  8
DEFPOINTS
  6
BYBLOCK
 62
     0
 10
5792.891420711504
 20
395.95993819250339
 30
0.0
  0
ENDBLK
  5
1C8CDE6A9C7C
  8
0
  0
BLOCK
  8
0
  2
*D3
 70
     1
 10
0.0
 20
0.0
 30
0.0
  3
*D3
  1

  0
LINE
  5
1C8CDE6AAB4B
  8
0
  6
BYBLOCK
 10
4631.5843656374254
 20
1063.407711124524
 30
0.0
 11
4802.7993990967516
 21
1063.407711124524
 31
0.0
  0
LINE
  5
1C8CDE6AAB4C
  8
0
  6
BYBLOCK
 10
4743.5434526170393
 20
963.4077111245241
 30
0.0
 11
4802.7993990967516
 21
963.4077111245241
 31
0.0
  0
LINE
  5
1C8CDE6AAB4D
  8
0
  6
BYBLOCK
 10
4792.7993990967507
 20
1043.4077111245231
 30
0.0
 11
4792.7993990967507
 21
983.40771112452421
 31
0.0
  0
INSERT
  5
1C8CDE6AAB4E
  8
0
  2
*U15
 10
0.0
 20
0.0
 30
0.0
  0
SOLID
  5
1C8CDE6AAB4F
  8
0
  6
BYBLOCK
 10
4789.4660657634176
 20
1043.4077111245231
 30
0.0
 11
4796.1327324300837
 21
1043.4077111245231
 31
0.0
 12
4792.7993990967507
 22
1063.407711124524
 32
0.0
 13
4792.7993990967507
 23
1063.407711124524
 33
0.0
  0
SOLID
  5
1C8CDE6AAB50
  8
0
  6
BYBLOCK
 10
4789.4660657634176
 20
983.40771112452421
 30
0.0
 11
4796.1327324300837
 21
983.40771112452421
 31
0.0
 12
4792.7993990967507
 22
963.4077111245241
 32
0.0
 13
4792.7993990967507
 23
963.4077111245241
 33
0.0
  0
POINT
  5
1C8CDE6AAB51
  8
DEFPOINTS
  6
BYBLOCK
 62
     0
 10
4621.5843656374236
 20
1063.407711124524
 30
0.0
  0
POINT
  5
1C8CDE6AAB52
  8
DEFPOINTS
  6
BYBLOCK
 62
     0
 10
4733.5434526170393
 20
963.4077111245241
 30
0.0
  0
POINT
  5
1C8CDE6AAB53
  8
DEFPOINTS
  6
BYBLOCK
 62
     0
 10
4792.7993990967507
 20
963.4077111245241
 30
0.0
  0
ENDBLK
  5
1C8CDE6AAB54
  8
0
  0
BLOCK
  8
0
  2
*D4
 70
     1
 10
0.0
 20
0.0
 30
0.0
  3
*D4
  1

  0
LINE
  5
1C8CDE6AABDF
  8
0
  6
BYBLOCK
 10
852.79852806736926
 20
1763.407711124524
 30
0.0
 11
1177.7993990967509
 21
1763.407711124524
 31
0.0
  0
LINE
  5
1C8CDE6AABE0
  8
0
  6
BYBLOCK
 10
1152.159785332746
 20
963.40771112452398
 30
0.0
 11
1177.7993990967509
 21
963.40771112452398
 31
0.0
  0
LINE
  5
1C8CDE6AABE1
  8
0
  6
BYBLOCK
 10
1167.79939909675
 20
1743.407711124524
 30
0.0
 11
1167.79939909675
 21
983.40771112452387
 31
0.0
  0
INSERT
  5
1C8CDE6AABE2
  8
0
  2
*U17
 10
0.0
 20
0.0
 30
0.0
  0
SOLID
  5
1C8CDE6AABE3
  8
0
  6
BYBLOCK
 10
1164.466065763417
 20
1743.407711124524
 30
0.0
 11
1171.1327324300839
 21
1743.407711124524
 31
0.0
 12
1167.79939909675
 22
1763.407711124524
 32
0.0
 13
1167.79939909675
 23
1763.407711124524
 33
0.0
  0
SOLID
  5
1C8CDE6AABE4
  8
0
  6
BYBLOCK
 10
1164.466065763417
 20
983.40771112452387
 30
0.0
 11
1171.1327324300839
 21
983.40771112452387
 31
0.0
 12
1167.79939909675
 22
963.40771112452398
 32
0.0
 13
1167.79939909675
 23
963.40771112452398
 33
0.0
  0
POINT
  5
1C8CDE6AABE5
  8
DEFPOINTS
  6
BYBLOCK
 62
     0
 10
842.79852806736915
 20
1763.407711124524
 30
0.0
  0
POINT
  5
1C8CDE6AABE6
  8
DEFPOINTS
  6
BYBLOCK
 62
     0
 10
1142.1597853327451
 20
963.40771112452398
 30
0.0
  0
POINT
  5
1C8CDE6AABE7
  8
DEFPOINTS
  6
BYBLOCK
 62
     0
 10
1167.79939909675
 20
963.40771112452398
 30
0.0
  0
ENDBLK
  5
1C8CDE6AABE8
  8
0
  0
BLOCK
  8
0
  2
*D5
 70
     1
 10
0.0
 20
0.0
 30
0.0
  3
*D5
  1

  0
LINE
  5
1C8CDE6AABD4
  8
0
  6
BYBLOCK
 10
1132.629485202548
 20
963.40771112452398
 30
0.0
 11
1177.7993990967509
 21
963.40771112452398
 31
0.0
  0
LINE
  5
1C8CDE6AABD5
  8
0
  6
BYBLOCK
 10
1050.29853058187
 20
563.40770218382363
 30
0.0
 11
1177.7993990967509
 21
563.40770218382363
 31
0.0
  0
LINE
  5
1C8CDE6AABD6
  8
0
  6
BYBLOCK
 10
1167.79939909675
 20
943.40771112452398
 30
0.0
 11
1167.79939909675
 21
583.40770218382363
 31
0.0
  0
INSERT
  5
1C8CDE6AABD7
  8
0
  2
*U16
 10
0.0
 20
0.0
 30
0.0
  0
SOLID
  5
1C8CDE6AABD8
  8
0
  6
BYBLOCK
 10
1164.466065763417
 20
943.40771112452398
 30
0.0
 11
1171.1327324300839
 21
943.40771112452398
 31
0.0
 12
1167.79939909675
 22
963.40771112452398
 32
0.0
 13
1167.79939909675
 23
963.40771112452398
 33
0.0
  0
SOLID
  5
1C8CDE6AABD9
  8
0
  6
BYBLOCK
 10
1164.466065763417
 20
583.40770218382363
 30
0.0
 11
1171.1327324300839
 21
583.40770218382363
 31
0.0
 12
1167.79939909675
 22
563.40770218382363
 32
0.0
 13
1167.79939909675
 23
563.40770218382363
 33
0.0
  0
POINT
  5
1C8CDE6AABDA
  8
DEFPOINTS
  6
BYBLOCK
 62
     0
 10
1122.629485202548
 20
963.40771112452398
 30
0.0
  0
POINT
  5
1C8CDE6AABDB
  8
DEFPOINTS
  6
BYBLOCK
 62
     0
 10
1040.29853058187
 20
563.40770218382363
 30
0.0
  0
POINT
  5
1C8CDE6AABDC
  8
DEFPOINTS
  6
BYBLOCK
 62
     0
 10
1167.79939909675
 20
563.40770218382363
 30
0.0
  0
ENDBLK
  5
1C8CDE6AABDD
  8
0
  0
BLOCK
  8
0
  2
*D6
 70
     1
 10
0.0
 20
0.0
 30
0.0
  3
*D6
  1

  0
LINE
  5
1C8CDE6AAC0F
  8
0
  6
BYBLOCK
 10
1060.29853058187
 20
563.40770218382363
 30
0.0
 11
1252.79939909675
 21
563.40770218382363
 31
0.0
  0
LINE
  5
1C8CDE6AAC10
  8
0
  6
BYBLOCK
 10
1052.7976570379881
 20
513.40771112452353
 30
0.0
 11
1252.79939909675
 21
513.40771112452353
 31
0.0
  0
LINE
  5
1C8CDE6AAC11
  8
0
  6
BYBLOCK
 10
1242.7993990967509
 20
583.40770218382363
 30
0.0
 11
1242.7993990967509
 21
603.40770218382363
 31
0.0
  0
LINE
  5
1C8CDE6AAC12
  8
0
  6
BYBLOCK
 10
1242.7993990967509
 20
493.40771112452347
 30
0.0
 11
1242.7993990967509
 21
473.40771112452347
 31
0.0
  0
INSERT
  5
1C8CDE6AAC13
  8
0
  2
*U18
 10
0.0
 20
0.0
 30
0.0
  0
LINE
  5
1C8CDE6AAC14
  8
0
  6
BYBLOCK
 10
1242.7993990967509
 20
563.40770218382363
 30
0.0
 11
1242.7993990967509
 21
513.40771112452353
 31
0.0
  0
SOLID
  5
1C8CDE6AAC15
  8
0
  6
BYBLOCK
 10
1239.466065763417
 20
583.40770218382363
 30
0.0
 11
1246.1327324300839
 21
583.40770218382363
 31
0.0
 12
1242.7993990967509
 22
563.40770218382363
 32
0.0
 13
1242.7993990967509
 23
563.40770218382363
 33
0.0
  0
SOLID
  5
1C8CDE6AAC16
  8
0
  6
BYBLOCK
 10
1239.466065763417
 20
493.40771112452347
 30
0.0
 11
1246.1327324300839
 21
493.40771112452347
 31
0.0
 12
1242.7993990967509
 22
513.40771112452353
 32
0.0
 13
1242.7993990967509
 23
513.40771112452353
 33
0.0
  0
POINT
  5
1C8CDE6AAC17
  8
DEFPOINTS
  6
BYBLOCK
 62
     0
 10
1050.29853058187
 20
563.40770218382363
 30
0.0
  0
POINT
  5
1C8CDE6AAC18
  8
DEFPOINTS
  6
BYBLOCK
 62
     0
 10
1042.7976570379881
 20
513.40771112452353
 30
0.0
  0
POINT
  5
1C8CDE6AAC19
  8
DEFPOINTS
  6
BYBLOCK
 62
     0
 10
1242.7993990967509
 20
513.40771112452353
 30
0.0
  0
ENDBLK
  5
1C8CDE6AAC1A
  8
0
  0
BLOCK
  8
0
  2
*D7
 70
     1
 10
0.0
 20
0.0
 30
0.0
  3
*D7
  1

  0
LINE
  5
1C8CDE6ABBD5
  8
0
  6
BYBLOCK
 10
852.79852806736926
 20
1763.407711124524
 30
0.0
 11
1252.79939909675
 21
1763.407711124524
 31
0.0
  0
LINE
  5
1C8CDE6ABBD6
  8
0
  6
BYBLOCK
 10
1052.7993990967509
 20
563.40771112452398
 30
0.0
 11
1252.79939909675
 21
563.40771112452398
 31
0.0
  0
LINE
  5
1C8CDE6ABBD7
  8
0
  6
BYBLOCK
 10
1242.7993990967509
 20
1743.407711124524
 30
0.0
 11
1242.7993990967509
 21
583.40771112452398
 31
0.0
  0
SOLID
  5
1C8CDE6ABBD8
  8
0
  6
BYBLOCK
 10
1239.466065763417
 20
1743.407711124524
 30
0.0
 11
1246.1327324300839
 21
1743.407711124524
 31
0.0
 12
1242.7993990967509
 22
1763.407711124524
 32
0.0
 13
1242.7993990967509
 23
1763.407711124524
 33
0.0
  0
SOLID
  5
1C8CDE6ABBD9
  8
0
  6
BYBLOCK
 10
1239.466065763417
 20
583.40771112452398
 30
0.0
 11
1246.1327324300839
 21
583.40771112452398
 31
0.0
 12
1242.7993990967509
 22
563.40771112452398
 32
0.0
 13
1242.7993990967509
 23
563.40771112452398
 33
0.0
  0
INSERT
  5
1C8CDE6ABBDA
  8
0
  2
*U19
 10
0.0
 20
0.0
 30
0.0
  0
POINT
  5
1C8CDE6ABBDB
  8
DEFPOINTS
  6
BYBLOCK
 62
     0
 10
842.79852806736915
 20
1763.407711124524
 30
0.0
  0
POINT
  5
1C8CDE6ABBDC
  8
DEFPOINTS
  6
BYBLOCK
 62
     0
 10
1042.79939909675
 20
563.40771112452398
 30
0.0
  0
POINT
  5
1C8CDE6ABBDD
  8
DEFPOINTS
  6
BYBLOCK
 62
     0
 10
1242.7993990967509
 20
563.40771112452398
 30
0.0
  0
ENDBLK
  5
1C8CDE6ABBDE
  8
0
  0
BLOCK
  8
0
  2
*D8
 70
     1
 10
0.0
 20
0.0
 30
0.0
  3
*D8
  1

  0
LINE
  5
1C8CDE6AC9E9
  8
0
  6
BYBLOCK
 10
6936.8669458470022
 20
1819.161428383514
 30
0.0
 11
6936.8669458470022
 21
1935.6884217645179
 31
0.0
  0
LINE
  5
1C8CDE6AC9EA
  8
0
  6
BYBLOCK
 10
7069.839941504516
 20
1821.0563817644941
 30
0.0
 11
7069.839941504516
 21
1935.6884217645179
 31
0.0
  0
LINE
  5
1C8CDE6AC9EB
  8
0
  6
BYBLOCK
 10
6956.8669458470031
 20
1925.6884217645179
 30
0.0
 11
7049.8399415045151
 21
1925.6884217645179
 31
0.0
  0
INSERT
  5
1C8CDE6AC9EC
  8
0
  2
*U20
 10
0.0
 20
0.0
 30
0.0
  0
SOLID
  5
1C8CDE6AC9ED
  8
0
  6
BYBLOCK
 10
6956.8669458470031
 20
1929.0217550978509
 30
0.0
 11
6956.8669458470031
 21
1922.3550884311851
 31
0.0
 12
6936.8669458470022
 22
1925.6884217645179
 32
0.0
 13
6936.8669458470022
 23
1925.6884217645179
 33
0.0
  0
SOLID
  5
1C8CDE6AC9EE
  8
0
  6
BYBLOCK
 10
7049.8399415045151
 20
1929.0217550978509
 30
0.0
 11
7049.8399415045151
 21
1922.3550884311851
 31
0.0
 12
7069.839941504516
 22
1925.6884217645179
 32
0.0
 13
7069.839941504516
 23
1925.6884217645179
 33
0.0
  0
POINT
  5
1C8CDE6AC9EF
  8
DEFPOINTS
  6
BYBLOCK
 62
     0
 10
6936.8669458470022
 20
1809.161428383514
 30
0.0
  0
POINT
  5
1C8CDE6AC9F0
  8
DEFPOINTS
  6
BYBLOCK
 62
     0
 10
7069.839941504516
 20
1811.0563817644941
 30
0.0
  0
POINT
  5
1C8CDE6AC9F1
  8
DEFPOINTS
  6
BYBLOCK
 62
     0
 10
7069.839941504516
 20
1925.6884217645179
 30
0.0
  0
ENDBLK
  5
1C8CDE6AC9F2
  8
0
  0
BLOCK
  8
0
  2
*D9
 70
     1
 10
0.0
 20
0.0
 30
0.0
  3
*D9
  1

  0
LINE
  5
1C8CDE6AC9F5
  8
0
  6
BYBLOCK
 10
7078.339941504516
 20
1752.55638176452
 30
0.0
 11
7078.339941504516
 21
2035.6884217645179
 31
0.0
  0
LINE
  5
1C8CDE6AC9F6
  8
0
  6
BYBLOCK
 10
6928.3399415045169
 20
1752.5563817645179
 30
0.0
 11
6928.3399415045169
 21
2035.6884217645179
 31
0.0
  0
LINE
  5
1C8CDE6AC9F7
  8
0
  6
BYBLOCK
 10
7058.3399415045169
 20
2025.6884217645179
 30
0.0
 11
6948.3399415045151
 21
2025.6884217645179
 31
0.0
  0
INSERT
  5
1C8CDE6AC9F8
  8
0
  2
*U21
 10
0.0
 20
0.0
 30
0.0
  0
SOLID
  5
1C8CDE6AC9F9
  8
0
  6
BYBLOCK
 10
7058.3399415045169
 20
2029.0217550978509
 30
0.0
 11
7058.3399415045169
 21
2022.3550884311851
 31
0.0
 12
7078.339941504516
 22
2025.6884217645179
 32
0.0
 13
7078.339941504516
 23
2025.6884217645179
 33
0.0
  0
SOLID
  5
1C8CDE6AC9FA
  8
0
  6
BYBLOCK
 10
6948.3399415045151
 20
2029.0217550978509
 30
0.0
 11
6948.3399415045151
 21
2022.3550884311851
 31
0.0
 12
6928.3399415045169
 22
2025.6884217645179
 32
0.0
 13
6928.3399415045169
 23
2025.6884217645179
 33
0.0
  0
POINT
  5
1C8CDE6AC9FB
  8
DEFPOINTS
  6
BYBLOCK
 62
     0
 10
7078.339941504516
 20
1742.55638176452
 30
0.0
  0
POINT
  5
1C8CDE6AC9FC
  8
DEFPOINTS
  6
BYBLOCK
 62
     0
 10
6928.3399415045169
 20
1742.5563817645179
 30
0.0
  0
POINT
  5
1C8CDE6AC9FD
  8
DEFPOINTS
  6
BYBLOCK
 62
     0
 10
6928.3399415045169
 20
2025.6884217645179
 30
0.0
  0
ENDBLK
  5
1C8CDE6AC9FE
  8
0
  0
BLOCK
  8
0
  2
*D10
 70
     1
 10
0.0
 20
0.0
 30
0.0
  3
*D10
  1

  0
LINE
  5
1C8CDE6ACA01
  8
0
  6
BYBLOCK
 10
7336.9018467311407
 20
1752.556401764519
 30
0.0
 11
7336.9018467311407
 21
1935.6884417645169
 31
0.0
  0
LINE
  5
1C8CDE6ACA02
  8
0
  6
BYBLOCK
 10
7161.9018467311398
 20
1752.556401764519
 30
0.0
 11
7161.9018467311398
 21
1935.6884417645169
 31
0.0
  0
LINE
  5
1C8CDE6ACA03
  8
0
  6
BYBLOCK
 10
7316.9018467311398
 20
1925.6884417645169
 30
0.0
 11
7181.9018467311398
 21
1925.6884417645169
 31
0.0
  0
SOLID
  5
1C8CDE6ACA04
  8
0
  6
BYBLOCK
 10
7316.9018467311398
 20
1929.02177509785
 30
0.0
 11
7316.9018467311398
 21
1922.3551084311839
 31
0.0
 12
7336.9018467311407
 22
1925.6884417645169
 32
0.0
 13
7336.9018467311407
 23
1925.6884417645169
 33
0.0
  0
SOLID
  5
1C8CDE6ACA05
  8
0
  6
BYBLOCK
 10
7181.9018467311398
 20
1929.02177509785
 30
0.0
 11
7181.9018467311398
 21
1922.3551084311839
 31
0.0
 12
7161.9018467311398
 22
1925.6884417645169
 32
0.0
 13
7161.9018467311398
 23
1925.6884417645169
 33
0.0
  0
INSERT
  5
1C8CDE6ACA06
  8
0
  2
*U22
 10
0.0
 20
0.0
 30
0.0
  0
POINT
  5
1C8CDE6ACA07
  8
DEFPOINTS
  6
BYBLOCK
 62
     0
 10
7336.9018467311407
 20
1742.556401764519
 30
0.0
  0
POINT
  5
1C8CDE6ACA08
  8
DEFPOINTS
  6
BYBLOCK
 62
     0
 10
7161.9018467311398
 20
1742.556401764519
 30
0.0
  0
POINT
  5
1C8CDE6ACA09
  8
DEFPOINTS
  6
BYBLOCK
 62
     0
 10
7161.9018467311398
 20
1925.6884417645169
 30
0.0
  0
ENDBLK
  5
1C8CDE6ACA0A
  8
0
  0
BLOCK
  8
0
  2
*D11
 70
     1
 10
0.0
 20
0.0
 30
0.0
  3
*D11
  1

  0
LINE
  5
1C8CDE6ACA0D
  8
0
  6
BYBLOCK
 10
7346.9018467311398
 20
1742.556401764519
 30
0.0
 11
7419.5018467311402
 21
1742.556401764519
 31
0.0
  0
LINE
  5
1C8CDE6ACA0E
  8
0
  6
BYBLOCK
 10
7321.9018467311398
 20
1340.9564017645189
 30
0.0
 11
7419.5018467311402
 21
1340.9564017645189
 31
0.0
  0
LINE
  5
1C8CDE6ACA0F
  8
0
  6
BYBLOCK
 10
7409.5018467311402
 20
1722.556401764519
 30
0.0
 11
7409.5018467311402
 21
1360.9564017645189
 31
0.0
  0
SOLID
  5
1C8CDE6ACA10
  8
0
  6
BYBLOCK
 10
7406.1685133978071
 20
1722.556401764519
 30
0.0
 11
7412.8351800644732
 21
1722.556401764519
 31
0.0
 12
7409.5018467311402
 22
1742.556401764519
 32
0.0
 13
7409.5018467311402
 23
1742.556401764519
 33
0.0
  0
SOLID
  5
1C8CDE6ACA11
  8
0
  6
BYBLOCK
 10
7406.1685133978071
 20
1360.9564017645189
 30
0.0
 11
7412.8351800644732
 21
1360.9564017645189
 31
0.0
 12
7409.5018467311402
 22
1340.9564017645189
 32
0.0
 13
7409.5018467311402
 23
1340.9564017645189
 33
0.0
  0
INSERT
  5
1C8CDE6ACA12
  8
0
  2
*U23
 10
0.0
 20
0.0
 30
0.0
  0
POINT
  5
1C8CDE6ACA13
  8
DEFPOINTS
  6
BYBLOCK
 62
     0
 10
7336.9018467311407
 20
1742.556401764519
 30
0.0
  0
POINT
  5
1C8CDE6ACA14
  8
DEFPOINTS
  6
BYBLOCK
 62
     0
 10
7311.9018467311398
 20
1340.9564017645189
 30
0.0
  0
POINT
  5
1C8CDE6ACA15
  8
DEFPOINTS
  6
BYBLOCK
 62
     0
 10
7409.5018467311402
 20
1340.9564017645189
 30
0.0
  0
ENDBLK
  5
1C8CDE6ACA16
  8
0
  0
BLOCK
  8
0
  2
*D12
 70
     1
 10
0.0
 20
0.0
 30
0.0
  3
*D12
  1

  0
LINE
  5
1C8CDE6ACA19
  8
0
  6
BYBLOCK
 10
6940.8399415045169
 20
1330.9564017645189
 30
0.0
 11
6940.8399415045169
 21
1282.692321764519
 31
0.0
  0
LINE
  5
1C8CDE6ACA1A
  8
0
  6
BYBLOCK
 10
7065.8399415045169
 20
1330.9564017645189
 30
0.0
 11
7065.8399415045169
 21
1282.692321764519
 31
0.0
  0
LINE
  5
1C8CDE6ACA1B
  8
0
  6
BYBLOCK
 10
6960.839941504516
 20
1292.692321764519
 30
0.0
 11
7045.839941504516
 21
1292.692321764519
 31
0.0
  0
INSERT
  5
1C8CDE6ACA1C
  8
0
  2
*U24
 10
0.0
 20
0.0
 30
0.0
  0
SOLID
  5
1C8CDE6ACA1D
  8
0
  6
BYBLOCK
 10
6960.839941504516
 20
1296.025655097852
 30
0.0
 11
6960.839941504516
 21
1289.3589884311859
 31
0.0
 12
6940.8399415045169
 22
1292.692321764519
 32
0.0
 13
6940.8399415045169
 23
1292.692321764519
 33
0.0
  0
SOLID
  5
1C8CDE6ACA1E
  8
0
  6
BYBLOCK
 10
7045.839941504516
 20
1296.025655097852
 30
0.0
 11
7045.839941504516
 21
1289.3589884311859
 31
0.0
 12
7065.8399415045169
 22
1292.692321764519
 32
0.0
 13
7065.8399415045169
 23
1292.692321764519
 33
0.0
  0
POINT
  5
1C8CDE6ACA1F
  8
DEFPOINTS
  6
BYBLOCK
 62
     0
 10
6940.8399415045169
 20
1340.9564017645189
 30
0.0
  0
POINT
  5
1C8CDE6ACA20
  8
DEFPOINTS
  6
BYBLOCK
 62
     0
 10
7065.8399415045169
 20
1340.9564017645189
 30
0.0
  0
POINT
  5
1C8CDE6ACA21
  8
DEFPOINTS
  6
BYBLOCK
 62
     0
 10
7065.8399415045169
 20
1292.692321764519
 30
0.0
  0
ENDBLK
  5
1C8CDE6ACA22
  8
0
  0
BLOCK
  8
0
  2
*U13
 70
     1
 10
0.0
 20
0.0
 30
0.0
  3
*U13
  1

  0
TEXT
  5
1C8CDE6ACBE4
  8
0
 10
5547.5199921400763
 20
507.95993819250327
 30
0.0
 40
30.0
  1
□300
 41
0.8
  7
EXT08
  0
ENDBLK
  5
1C8CDE6ACBE6
  8
0
  0
BLOCK
  8
0
  2
*U14
 70
     1
 10
0.0
 20
0.0
 30
0.0
  3
*U14
  1

  0
TEXT
  5
1C8CDE6ACBE8
  8
0
 10
5547.5199921400763
 20
407.95993819250327
 30
0.0
 40
30.0
  1
□400
 41
0.8
  7
EXT08
  0
ENDBLK
  5
1C8CDE6ACBEA
  8
0
  0
BLOCK
  8
0
  2
*U15
 70
     1
 10
0.0
 20
0.0
 30
0.0
  3
*U15
  1

  0
TEXT
  5
1C8CDE6ACC52
  8
0
 10
4784.7563647394363
 20
977.40771112452398
 30
0.0
 40
30.0
  1
100
 50
90.0
 41
0.8
  7
EXT08
  0
ENDBLK
  5
1C8CDE6ACC54
  8
0
  0
BLOCK
  8
0
  2
*U16
 70
     1
 10
0.0
 20
0.0
 30
0.0
  3
*U16
  1

  0
TEXT
  5
1C8CDE6ACC56
  8
0
 10
1155.7993990967509
 20
729.12199683880965
 30
0.0
 40
30.0
  1
400
 50
90.0
 41
0.8
  7
EXT08
  0
ENDBLK
  5
1C8CDE6ACC58
  8
0
  0
BLOCK
  8
0
  2
*U17
 70
     1
 10
0.0
 20
0.0
 30
0.0
  3
*U17
  1

  0
TEXT
  5
1C8CDE6ACC5A
  8
0
 10
1155.7993990967509
 20
1329.12199683881
 30
0.0
 40
30.0
  1
800
 50
90.0
 41
0.8
  7
EXT08
  0
ENDBLK
  5
1C8CDE6ACC5C
  8
0
  0
BLOCK
  8
0
  2
*U18
 70
     1
 10
0.0
 20
0.0
 30
0.0
  3
*U18
  1

  0
TEXT
  5
1C8CDE6ACC5E
  8
0
 10
1232.4438212475959
 20
516.24727630874361
 30
0.0
 40
30.0
  1
50
 50
90.0
 41
0.8
  7
EXT08
  0
ENDBLK
  5
1C8CDE6ACC60
  8
0
  0
BLOCK
  8
0
  2
*U19
 70
     1
 10
0.0
 20
0.0
 30
0.0
  3
*U19
  1

  0
TEXT
  5
1C8CDE6ACD0E
  8
0
 10
1230.79939909675
 20
1115.979139695952
 30
0.0
 40
30.0
  1
1200
 50
90.0
 41
0.8
  7
EXT08
  0
ENDBLK
  5
1C8CDE6ACD10
  8
0
  0
BLOCK
  8
0
  2
*U20
 70
     1
 10
0.0
 20
0.0
 30
0.0
  3
*U20
  1

  0
TEXT
  5
1C8CDE6ACD12
  8
0
 10
6958.7820151043297
 20
1953.6884217645179
 30
0.0
 40
30.0
  1
φ133
 41
0.8
  7
EXT08
  0
ENDBLK
  5
1C8CDE6ACD14
  8
0
  0
BLOCK
  8
0
  2
*U21
 70
     1
 10
0.0
 20
0.0
 30
0.0
  3
*U21
  1

  0
TEXT
  5
1C8CDE6ACD16
  8
0
 10
6958.7685129330875
 20
2053.688421764517
 30
0.0
 40
30.0
  1
φ150
 41
0.8
  7
EXT08
  0
ENDBLK
  5
1C8CDE6ACD18
  8
0
  0
BLOCK
  8
0
  2
*U22
 70
     1
 10
0.0
 20
0.0
 30
0.0
  3
*U22
  1

  0
TEXT
  5
1C8CDE6ACD1A
  8
0
 10
7213.4018467311407
 20
1937.6884417645169
 30
0.0
 40
30.0
  1
175
 41
0.8
  7
EXT08
  0
ENDBLK
  5
1C8CDE6ACD1C
  8
0
  0
BLOCK
  8
0
  2
*U23
 70
     1
 10
0.0
 20
0.0
 30
0.0
  3
*U23
  1

  0
TEXT
  5
1C8CDE6ACD1E
  8
0
 10
7397.5018467311402
 20
1507.4706874788051
 30
0.0
 40
30.0
  1
400
 50
90.0
 41
0.8
  7
EXT08
  0
ENDBLK
  5
1C8CDE6ACD20
  8
0
  0
BLOCK
  8
0
  2
*U24
 70
     1
 10
0.0
 20
0.0
 30
0.0
  3
*U24
  1

  0
TEXT
  5
1C8CDE6ACD22
  8
0
 10
6886.7685129330875
 20
1229.692321764519
 30
0.0
 40
30.0
  1
φ125（底板径）
 41
0.8
  7
EXT08
  0
ENDBLK
  5
1C8CDE6ACD24
  8
0
  0
ENDSEC
  0
SECTION
  2
ENTITIES
  0
TEXT
  5
1C8CDE699D90
  8
INFORMATION
 10
1.0
 20
2.0
 30
0.0
 40
0.8
  1
PLOTTER=CANON_LBP-830
  7
EXT08
  0
TEXT
  5
1C8CDE699D91
  8
INFORMATION
 10
1.0
 20
3.0
 30
0.0
 40
0.8
  1
PAPER=A3
  7
EXT08
  0
INSERT
  5
1C8CDE6A928E
  8
ZWAKU
  2
CALCOMP_TECHJET720A3
 10
0.0
 20
0.0
 30
0.0
 41
10.0
 42
10.0
 43
10.0
  0
LINE
  5
1C8CDE6A94C4
  8
SJC
 10
562.96757093219003
 20
963.40771112452342
 30
0.0
 11
785.64825823526735
 21
963.40771112452342
 31
0.0
1001
ACAD
1000
ASC_BOUNDS
1002
{
1070
    19
1005
0
1002
}
  0
LINE
  5
1C8CDE6A94C5
  8
HATCH
 10
618.88700249282192
 20
963.40771112452342
 30
0.0
 11
584.86970408838351
 21
929.39041272008456
 31
0.0
  0
LINE
  5
1C8CDE6A94C6
  8
HATCH
 10
633.88700249282192
 20
963.40771112452342
 30
0.0
 11
599.8697040883834
 21
929.39041272008456
 31
0.0
  0
LINE
  5
1C8CDE6A94C7
  8
HATCH
 10
648.88700249282181
 20
963.40771112452342
 30
0.0
 11
614.86970408838351
 21
929.39041272008456
 31
0.0
  0
LINE
  5
1C8CDE6A94C8
  8
HATCH
 10
641.38700249282192
 20
955.90771112452296
 30
0.0
 11
667.90430089726033
 21
929.39041272008456
 31
0.0
  0
LINE
  5
1C8CDE6A94C9
  8
HATCH
 10
648.88700249282181
 20
963.40771112452342
 30
0.0
 11
682.90430089726033
 21
929.39041272008456
 31
0.0
  0
LINE
  5
1C8CDE6A94CA
  8
HATCH
 10
633.88700249282192
 20
948.40771112452296
 30
0.0
 11
652.90430089726033
 21
929.39041272008456
 31
0.0
  0
TEXT
  5
1C8CDE6A94CB
  8
MOJI
 10
597.70233758050381
 20
974.08228219751641
 30
0.0
 40
30.0
  1
GL
 41
0.8
  7
EXT08
  0
POLYLINE
  5
1C8CDE6A94CC
  8
HATCH
  6
CONTINUOUS
 66
     1
 10
0.0
 20
0.0
 30
0.0
 70
     1
  0
VERTEX
  5
1C8CDE6ACAD1
  8
HATCH
  6
CONTINUOUS
 10
948.93526047353032
 20
513.81231112452383
 30
0.0
 42
0.138281
  0
VERTEX
  5
1C8CDE6ACAD2
  8
HATCH
  6
CONTINUOUS
 10
955.37933547352986
 20
513.89621612452333
 30
0.0
 42
0.107061
  0
VERTEX
  5
1C8CDE6ACAD3
  8
HATCH
  6
CONTINUOUS
 10
962.62479847353086
 20
517.86524712452376
 30
0.0
 42
0.08054
  0
VERTEX
  5
1C8CDE6ACAD4
  8
HATCH
  6
CONTINUOUS
 10
968.19298947352945
 20
524.53531212452413
 30
0.0
 42
0.068375
  0
VERTEX
  5
1C8CDE6ACAD5
  8
HATCH
  6
CONTINUOUS
 10
972.15570947352899
 20
533.95168012452427
 30
0.0
 42
0.068375
  0
VERTEX
  5
1C8CDE6ACAD6
  8
HATCH
  6
CONTINUOUS
 10
973.4320774735296
 20
544.08785412452346
 30
0.0
 42
0.08054
  0
VERTEX
  5
1C8CDE6ACAD7
  8
HATCH
  6
CONTINUOUS
 10
971.94491547353016
 20
552.64839512452431
 30
0.0
 42
0.107061
  0
VERTEX
  5
1C8CDE6ACAD8
  8
HATCH
  6
CONTINUOUS
 10
967.65467547353001
 20
559.708409124524
 30
0.0
 42
0.138281
  0
VERTEX
  5
1C8CDE6ACAD9
  8
HATCH
  6
CONTINUOUS
 10
962.11589547352924
 20
563.00311012452369
 30
0.0
 42
0.138281
  0
VERTEX
  5
1C8CDE6ACADA
  8
HATCH
  6
CONTINUOUS
 10
955.67182047352981
 20
562.9192051245243
 30
0.0
 42
0.107061
  0
VERTEX
  5
1C8CDE6ACADB
  8
HATCH
  6
CONTINUOUS
 10
948.42635647353018
 20
558.95017412452376
 30
0.0
 42
0.08054
  0
VERTEX
  5
1C8CDE6ACADC
  8
HATCH
  6
CONTINUOUS
 10
942.85816547352977
 20
552.28010912452339
 30
0.0
 42
0.068375
  0
VERTEX
  5
1C8CDE6ACADD
  8
HATCH
  6
CONTINUOUS
 10
938.89544547353034
 20
542.86374112452324
 30
0.0
 42
0.068375
  0
VERTEX
  5
1C8CDE6ACADE
  8
HATCH
  6
CONTINUOUS
 10
937.61907847352995
 20
532.72756712452394
 30
0.0
 42
0.08054
  0
VERTEX
  5
1C8CDE6ACADF
  8
HATCH
  6
CONTINUOUS
 10
939.1062404735311
 20
524.16702612452332
 30
0.0
 42
0.107061
  0
VERTEX
  5
1C8CDE6ACAE0
  8
HATCH
  6
CONTINUOUS
 10
943.39648047352955
 20
517.10701312452295
 30
0.0
 42
0.138281
  0
SEQEND
  5
1C8CDE6ACAE1
  8
HATCH
  6
CONTINUOUS
  0
LINE
  5
1C8CDE6A94DE
  8
SJC
  6
CONTINUOUS
 10
1042.79939909675
 20
563.40771112452398
 30
0.0
 11
1042.79939909675
 21
513.40771112452398
 31
0.0
  0
POLYLINE
  5
1C8CDE6A94DF
  8
HATCH
  6
CONTINUOUS
 66
     1
 10
0.0
 20
0.0
 30
0.0
 70
     1
  0
VERTEX
  5
1C8CDE6ACAE2
  8
HATCH
  6
CONTINUOUS
 10
1019.090962473531
 20
513.81231112452383
 30
0.0
 42
0.138281
  0
VERTEX
  5
1C8CDE6ACAE3
  8
HATCH
  6
CONTINUOUS
 10
1025.535037473531
 20
513.89621612452333
 30
0.0
 42
0.107061
  0
VERTEX
  5
1C8CDE6ACAE4
  8
HATCH
  6
CONTINUOUS
 10
1032.78050147353
 20
517.86524712452376
 30
0.0
 42
0.08054
  0
VERTEX
  5
1C8CDE6ACAE5
  8
HATCH
  6
CONTINUOUS
 10
1038.3486924735309
 20
524.53531212452413
 30
0.0
 42
0.068375
  0
VERTEX
  5
1C8CDE6ACAE6
  8
HATCH
  6
CONTINUOUS
 10
1042.31141247353
 20
533.95168012452427
 30
0.0
 42
0.068375
  0
VERTEX
  5
1C8CDE6ACAE7
  8
HATCH
  6
CONTINUOUS
 10
1043.58777947353
 20
544.08785412452346
 30
0.0
 42
0.08054
  0
VERTEX
  5
1C8CDE6ACAE8
  8
HATCH
  6
CONTINUOUS
 10
1042.1006174735289
 20
552.64839512452431
 30
0.0
 42
0.107061
  0
VERTEX
  5
1C8CDE6ACAE9
  8
HATCH
  6
CONTINUOUS
 10
1037.8103774735309
 20
559.708409124524
 30
0.0
 42
0.138281
  0
VERTEX
  5
1C8CDE6ACAEA
  8
HATCH
  6
CONTINUOUS
 10
1032.2715974735299
 20
563.00311012452369
 30
0.0
 42
0.138281
  0
VERTEX
  5
1C8CDE6ACAEB
  8
HATCH
  6
CONTINUOUS
 10
1025.8275224735301
 20
562.9192051245243
 30
0.0
 42
0.107061
  0
VERTEX
  5
1C8CDE6ACAEC
  8
HATCH
  6
CONTINUOUS
 10
1018.5820594735289
 20
558.95017412452376
 30
0.0
 42
0.08054
  0
VERTEX
  5
1C8CDE6ACAED
  8
HATCH
  6
CONTINUOUS
 10
1013.013868473531
 20
552.28010912452339
 30
0.0
 42
0.068375
  0
VERTEX
  5
1C8CDE6ACAEE
  8
HATCH
  6
CONTINUOUS
 10
1009.051148473531
 20
542.86374112452324
 30
0.0
 42
0.068375
  0
VERTEX
  5
1C8CDE6ACAEF
  8
HATCH
  6
CONTINUOUS
 10
1007.774780473531
 20
532.72756712452394
 30
0.0
 42
0.08054
  0
VERTEX
  5
1C8CDE6ACAF0
  8
HATCH
  6
CONTINUOUS
 10
1009.26194247353
 20
524.16702612452332
 30
0.0
 42
0.107061
  0
VERTEX
  5
1C8CDE6ACAF1
  8
HATCH
  6
CONTINUOUS
 10
1013.55218247353
 20
517.10701312452295
 30
0.0
 42
0.138281
  0
SEQEND
  5
1C8CDE6ACAF2
  8
HATCH
  6
CONTINUOUS
  0
POLYLINE
  5
1C8CDE6A94F1
  8
HATCH
  6
CONTINUOUS
 66
     1
 10
0.0
 20
0.0
 30
0.0
 70
     1
  0
VERTEX
  5
1C8CDE6ACAF3
  8
HATCH
  6
CONTINUOUS
 10
725.39978751223225
 20
513.81231112452383
 30
0.0
 42
0.138281
  0
VERTEX
  5
1C8CDE6ACAF4
  8
HATCH
  6
CONTINUOUS
 10
731.84386151223134
 20
513.89621612452333
 30
0.0
 42
0.107061
  0
VERTEX
  5
1C8CDE6ACAF5
  8
HATCH
  6
CONTINUOUS
 10
739.08932551223097
 20
517.86524712452376
 30
0.0
 42
0.08054
  0
VERTEX
  5
1C8CDE6ACAF6
  8
HATCH
  6
CONTINUOUS
 10
744.65751651223115
 20
524.53531212452413
 30
0.0
 42
0.068375
  0
VERTEX
  5
1C8CDE6ACAF7
  8
HATCH
  6
CONTINUOUS
 10
748.62023651223262
 20
533.95168012452427
 30
0.0
 42
0.068375
  0
VERTEX
  5
1C8CDE6ACAF8
  8
HATCH
  6
CONTINUOUS
 10
749.89660451223153
 20
544.08785412452346
 30
0.0
 42
0.08054
  0
VERTEX
  5
1C8CDE6ACAF9
  8
HATCH
  6
CONTINUOUS
 10
748.40944151223175
 20
552.64839512452431
 30
0.0
 42
0.107061
  0
VERTEX
  5
1C8CDE6ACAFA
  8
HATCH
  6
CONTINUOUS
 10
744.11920151223137
 20
559.708409124524
 30
0.0
 42
0.138281
  0
VERTEX
  5
1C8CDE6ACAFB
  8
HATCH
  6
CONTINUOUS
 10
738.58042251223105
 20
563.00311012452369
 30
0.0
 42
0.138281
  0
VERTEX
  5
1C8CDE6ACAFC
  8
HATCH
  6
CONTINUOUS
 10
732.13634751223162
 20
562.9192051245243
 30
0.0
 42
0.107061
  0
VERTEX
  5
1C8CDE6ACAFD
  8
HATCH
  6
CONTINUOUS
 10
724.89088351223188
 20
558.95017412452376
 30
0.0
 42
0.08054
  0
VERTEX
  5
1C8CDE6ACAFE
  8
HATCH
  6
CONTINUOUS
 10
719.3226925122317
 20
552.28010912452339
 30
0.0
 42
0.068375
  0
VERTEX
  5
1C8CDE6ACAFF
  8
HATCH
  6
CONTINUOUS
 10
715.35997251223216
 20
542.86374112452324
 30
0.0
 42
0.068375
  0
VERTEX
  5
1C8CDE6ACB00
  8
HATCH
  6
CONTINUOUS
 10
714.08360451223143
 20
532.72756712452394
 30
0.0
 42
0.08054
  0
VERTEX
  5
1C8CDE6ACB01
  8
HATCH
  6
CONTINUOUS
 10
715.57076751223121
 20
524.16702612452332
 30
0.0
 42
0.107061
  0
VERTEX
  5
1C8CDE6ACB02
  8
HATCH
  6
CONTINUOUS
 10
719.86100751223137
 20
517.10701312452295
 30
0.0
 42
0.138281
  0
SEQEND
  5
1C8CDE6ACB03
  8
HATCH
  6
CONTINUOUS
  0
POLYLINE
  5
1C8CDE6A9503
  8
HATCH
  6
CONTINUOUS
 66
     1
 10
0.0
 20
0.0
 30
0.0
 70
     1
  0
VERTEX
  5
1C8CDE6ACB04
  8
HATCH
  6
CONTINUOUS
 10
690.32208451223141
 20
513.81231112452383
 30
0.0
 42
0.138281
  0
VERTEX
  5
1C8CDE6ACB05
  8
HATCH
  6
CONTINUOUS
 10
696.76615951223266
 20
513.89621612452333
 30
0.0
 42
0.107061
  0
VERTEX
  5
1C8CDE6ACB06
  8
HATCH
  6
CONTINUOUS
 10
704.01162351223218
 20
517.86524712452376
 30
0.0
 42
0.08054
  0
VERTEX
  5
1C8CDE6ACB07
  8
HATCH
  6
CONTINUOUS
 10
709.57981351223043
 20
524.53531212452413
 30
0.0
 42
0.068375
  0
VERTEX
  5
1C8CDE6ACB08
  8
HATCH
  6
CONTINUOUS
 10
713.54253451223019
 20
533.95168012452427
 30
0.0
 42
0.068375
  0
VERTEX
  5
1C8CDE6ACB09
  8
HATCH
  6
CONTINUOUS
 10
714.81890151223251
 20
544.08785412452346
 30
0.0
 42
0.08054
  0
VERTEX
  5
1C8CDE6ACB0A
  8
HATCH
  6
CONTINUOUS
 10
713.33173951223125
 20
552.64839512452431
 30
0.0
 42
0.107061
  0
VERTEX
  5
1C8CDE6ACB0B
  8
HATCH
  6
CONTINUOUS
 10
709.04149951223087
 20
559.708409124524
 30
0.0
 42
0.138281
  0
VERTEX
  5
1C8CDE6ACB0C
  8
HATCH
  6
CONTINUOUS
 10
703.50271951223021
 20
563.00311012452369
 30
0.0
 42
0.138281
  0
VERTEX
  5
1C8CDE6ACB0D
  8
HATCH
  6
CONTINUOUS
 10
697.05864451223067
 20
562.9192051245243
 30
0.0
 42
0.107061
  0
VERTEX
  5
1C8CDE6ACB0E
  8
HATCH
  6
CONTINUOUS
 10
689.81318051223116
 20
558.95017412452376
 30
0.0
 42
0.08054
  0
VERTEX
  5
1C8CDE6ACB0F
  8
HATCH
  6
CONTINUOUS
 10
684.2449905122312
 20
552.28010912452339
 30
0.0
 42
0.068375
  0
VERTEX
  5
1C8CDE6ACB10
  8
HATCH
  6
CONTINUOUS
 10
680.28226951223132
 20
542.86374112452324
 30
0.0
 42
0.068375
  0
VERTEX
  5
1C8CDE6ACB11
  8
HATCH
  6
CONTINUOUS
 10
679.00590251223093
 20
532.72756712452394
 30
0.0
 42
0.08054
  0
VERTEX
  5
1C8CDE6ACB12
  8
HATCH
  6
CONTINUOUS
 10
680.49306451223219
 20
524.16702612452332
 30
0.0
 42
0.107061
  0
VERTEX
  5
1C8CDE6ACB13
  8
HATCH
  6
CONTINUOUS
 10
684.78330451223064
 20
517.10701312452295
 30
0.0
 42
0.138281
  0
SEQEND
  5
1C8CDE6ACB14
  8
HATCH
  6
CONTINUOUS
  0
LINE
  5
1C8CDE6A9515
  8
SJC
  6
CONTINUOUS
 10
642.79939909675068
 20
563.40771112452398
 30
0.0
 11
642.79939909675068
 21
513.40771112452398
 31
0.0
  0
POLYLINE
  5
1C8CDE6A9516
  8
HATCH
  6
CONTINUOUS
 66
     1
 10
0.0
 20
0.0
 30
0.0
 70
     1
  0
VERTEX
  5
1C8CDE6ACB15
  8
HATCH
  6
CONTINUOUS
 10
655.24438151223046
 20
513.81231112452383
 30
0.0
 42
0.138281
  0
VERTEX
  5
1C8CDE6ACB16
  8
HATCH
  6
CONTINUOUS
 10
661.68845651223182
 20
513.89621612452333
 30
0.0
 42
0.107061
  0
VERTEX
  5
1C8CDE6ACB17
  8
HATCH
  6
CONTINUOUS
 10
668.93392051223145
 20
517.86524712452376
 30
0.0
 42
0.08054
  0
VERTEX
  5
1C8CDE6ACB18
  8
HATCH
  6
CONTINUOUS
 10
674.50211151223175
 20
524.53531212452413
 30
0.0
 42
0.068375
  0
VERTEX
  5
1C8CDE6ACB19
  8
HATCH
  6
CONTINUOUS
 10
678.46483151223117
 20
533.95168012452427
 30
0.0
 42
0.068375
  0
VERTEX
  5
1C8CDE6ACB1A
  8
HATCH
  6
CONTINUOUS
 10
679.74119851223156
 20
544.08785412452346
 30
0.0
 42
0.08054
  0
VERTEX
  5
1C8CDE6ACB1B
  8
HATCH
  6
CONTINUOUS
 10
678.25403651223223
 20
552.64839512452431
 30
0.0
 42
0.107061
  0
VERTEX
  5
1C8CDE6ACB1C
  8
HATCH
  6
CONTINUOUS
 10
673.96379651223185
 20
559.708409124524
 30
0.0
 42
0.138281
  0
VERTEX
  5
1C8CDE6ACB1D
  8
HATCH
  6
CONTINUOUS
 10
668.42501651223108
 20
563.00311012452369
 30
0.0
 42
0.138281
  0
VERTEX
  5
1C8CDE6ACB1E
  8
HATCH
  6
CONTINUOUS
 10
661.98094151223165
 20
562.9192051245243
 30
0.0
 42
0.107061
  0
VERTEX
  5
1C8CDE6ACB1F
  8
HATCH
  6
CONTINUOUS
 10
654.73547851223236
 20
558.95017412452376
 30
0.0
 42
0.08054
  0
VERTEX
  5
1C8CDE6ACB20
  8
HATCH
  6
CONTINUOUS
 10
649.16728751223025
 20
552.28010912452339
 30
0.0
 42
0.068375
  0
VERTEX
  5
1C8CDE6ACB21
  8
HATCH
  6
CONTINUOUS
 10
645.20456751223082
 20
542.86374112452324
 30
0.0
 42
0.068375
  0
VERTEX
  5
1C8CDE6ACB22
  8
HATCH
  6
CONTINUOUS
 10
643.92819951223191
 20
532.72756712452394
 30
0.0
 42
0.08054
  0
VERTEX
  5
1C8CDE6ACB23
  8
HATCH
  6
CONTINUOUS
 10
645.41536151223136
 20
524.16702612452332
 30
0.0
 42
0.107061
  0
VERTEX
  5
1C8CDE6ACB24
  8
HATCH
  6
CONTINUOUS
 10
649.70560251223185
 20
517.10701312452295
 30
0.0
 42
0.138281
  0
SEQEND
  5
1C8CDE6ACB25
  8
HATCH
  6
CONTINUOUS
  0
LINE
  5
1C8CDE6A9528
  8
SJC
  6
CONTINUOUS
 10
1042.79939909675
 20
563.40771112452398
 30
0.0
 11
642.79939909675068
 21
563.40771112452398
 31
0.0
1001
ACAD
1000
ASC_BOUNDS
1002
{
1070
    19
1005
0
1005
0
1005
0
1005
0
1005
0
1005
0
1005
0
1005
0
1002
}
  0
LINE
  5
1C8CDE6A9529
  8
SJC
  6
CONTINUOUS
 10
1042.79939909675
 20
513.40771112452398
 30
0.0
 11
642.79939909675068
 21
513.40771112452398
 31
0.0
  0
POLYLINE
  5
1C8CDE6A952A
  8
HATCH
  6
CONTINUOUS
 66
     1
 10
0.0
 20
0.0
 30
0.0
 70
     1
  0
VERTEX
  5
1C8CDE6ACB26
  8
HATCH
  6
CONTINUOUS
 10
984.01326047353086
 20
513.81231112452383
 30
0.0
 42
0.138281
  0
VERTEX
  5
1C8CDE6ACB27
  8
HATCH
  6
CONTINUOUS
 10
990.45733547353029
 20
513.89621612452333
 30
0.0
 42
0.107061
  0
VERTEX
  5
1C8CDE6ACB28
  8
HATCH
  6
CONTINUOUS
 10
997.70279847353129
 20
517.86524712452376
 30
0.0
 42
0.08054
  0
VERTEX
  5
1C8CDE6ACB29
  8
HATCH
  6
CONTINUOUS
 10
1003.27098947353
 20
524.53531212452413
 30
0.0
 42
0.068375
  0
VERTEX
  5
1C8CDE6ACB2A
  8
HATCH
  6
CONTINUOUS
 10
1007.233709473529
 20
533.95168012452427
 30
0.0
 42
0.068375
  0
VERTEX
  5
1C8CDE6ACB2B
  8
HATCH
  6
CONTINUOUS
 10
1008.51007747353
 20
544.08785412452346
 30
0.0
 42
0.08054
  0
VERTEX
  5
1C8CDE6ACB2C
  8
HATCH
  6
CONTINUOUS
 10
1007.02291547353
 20
552.64839512452431
 30
0.0
 42
0.107061
  0
VERTEX
  5
1C8CDE6ACB2D
  8
HATCH
  6
CONTINUOUS
 10
1002.73267547353
 20
559.708409124524
 30
0.0
 42
0.138281
  0
VERTEX
  5
1C8CDE6ACB2E
  8
HATCH
  6
CONTINUOUS
 10
997.19389547352955
 20
563.00311012452369
 30
0.0
 42
0.138281
  0
VERTEX
  5
1C8CDE6ACB2F
  8
HATCH
  6
CONTINUOUS
 10
990.74982047353024
 20
562.9192051245243
 30
0.0
 42
0.107061
  0
VERTEX
  5
1C8CDE6ACB30
  8
HATCH
  6
CONTINUOUS
 10
983.50435647353061
 20
558.95017412452376
 30
0.0
 42
0.08054
  0
VERTEX
  5
1C8CDE6ACB31
  8
HATCH
  6
CONTINUOUS
 10
977.93616547353031
 20
552.28010912452339
 30
0.0
 42
0.068375
  0
VERTEX
  5
1C8CDE6ACB32
  8
HATCH
  6
CONTINUOUS
 10
973.97344547353066
 20
542.86374112452324
 30
0.0
 42
0.068375
  0
VERTEX
  5
1C8CDE6ACB33
  8
HATCH
  6
CONTINUOUS
 10
972.69707847353027
 20
532.72756712452394
 30
0.0
 42
0.08054
  0
VERTEX
  5
1C8CDE6ACB34
  8
HATCH
  6
CONTINUOUS
 10
974.18424047353164
 20
524.16702612452332
 30
0.0
 42
0.107061
  0
VERTEX
  5
1C8CDE6ACB35
  8
HATCH
  6
CONTINUOUS
 10
978.47448047352998
 20
517.10701312452295
 30
0.0
 42
0.138281
  0
SEQEND
  5
1C8CDE6ACB36
  8
HATCH
  6
CONTINUOUS
  0
LINE
  5
1C8CDE6A953C
  8
SJC
  6
CONTINUOUS
 10
992.79939909675056
 20
563.40771112452398
 30
0.0
 11
992.79939909675056
 21
963.40771112452398
 31
0.0
1001
ACAD
1000
ASC_BOUNDS
1002
{
1070
    19
1002
}
  0
LINE
  5
1C8CDE6A953D
  8
SJC
  6
CONTINUOUS
 10
692.79939909675068
 20
963.40771112452398
 30
0.0
 11
692.79939909675068
 21
563.40771112452398
 31
0.0
1001
ACAD
1000
ASC_BOUNDS
1002
{
1070
    19
1002
}
  0
ARC
  5
1C8CDE6A9548
  8
SJC2
 10
891.67095673642871
 20
1716.0140111287019
 30
0.0
 40
2.0
 50
270.0000000000004
 51
89.999999999999588
  0
POLYLINE
  5
1C8CDE6A9549
  8
SJC2
 66
     1
 10
0.0
 20
0.0
 30
0.0
  0
VERTEX
  5
1C8CDE6ACB37
  8
SJC2
 10
891.67095673642871
 20
1714.0140111287019
 30
0.0
 42
-0.150911399745959
  0
VERTEX
  5
1C8CDE6ACB38
  8
SJC2
 10
891.24287642978925
 20
1714.1462266343131
 30
0.0
 42
-0.1070103012881034
  0
VERTEX
  5
1C8CDE6ACB39
  8
SJC2
 10
890.81310476348165
 20
1714.599797566329
 30
0.0
 42
-0.0749121317509504
  0
VERTEX
  5
1C8CDE6ACB3A
  8
SJC2
 10
890.55682698471526
 20
1715.213278909054
 30
0.0
 42
-0.0616186277240593
  0
VERTEX
  5
1C8CDE6ACB3B
  8
SJC2
 10
890.45777084177655
 20
1716.0140111287019
 30
0.0
 42
-0.0616186277240571
  0
VERTEX
  5
1C8CDE6ACB3C
  8
SJC2
 10
890.55682698471526
 20
1716.81474334835
 30
0.0
 42
-0.0749121317509533
  0
VERTEX
  5
1C8CDE6ACB3D
  8
SJC2
 10
890.81310476348165
 20
1717.428224691075
 30
0.0
 42
-0.107010301288108
  0
VERTEX
  5
1C8CDE6ACB3E
  8
SJC2
 10
891.24287642978925
 20
1717.881795623091
 30
0.0
 42
-0.1509113997459668
  0
VERTEX
  5
1C8CDE6ACB3F
  8
SJC2
 10
891.67095673642871
 20
1718.0140111287019
 30
0.0
 42
-0.1509113997459639
  0
SEQEND
  5
1C8CDE6ACB40
  8
SJC2
  0
ARC
  5
1C8CDE6A9554
  8
SJC2
 10
886.52636081068704
 20
1716.0140111287019
 30
0.0
 40
2.0
 50
270.0
 51
90.0
  0
ARC
  5
1C8CDE6A9555
  8
SJC2
 10
880.61660894384841
 20
1716.0140111287019
 30
0.0
 40
2.0
 50
270.0
 51
90.0
  0
POLYLINE
  5
1C8CDE6A9556
  8
SJC2
 66
     1
 10
0.0
 20
0.0
 30
0.0
  0
VERTEX
  5
1C8CDE6ACB41
  8
SJC2
 10
886.52636081068704
 20
1714.0140111287019
 30
0.0
 42
-0.1332500875588102
  0
VERTEX
  5
1C8CDE6ACB42
  8
SJC2
 10
886.01268318805876
 20
1714.1533808969691
 30
0.0
 42
-0.106755782220821
  0
VERTEX
  5
1C8CDE6ACB43
  8
SJC2
 10
885.52630616669012
 20
1714.599797566329
 30
0.0
 42
-0.0828303032114395
  0
VERTEX
  5
1C8CDE6ACB44
  8
SJC2
 10
885.22571899237471
 20
1715.221707507751
 30
0.0
 42
-0.0713554525830378
  0
VERTEX
  5
1C8CDE6ACB45
  8
SJC2
 10
885.11206997003126
 20
1716.0140111287019
 30
0.0
 42
-0.0713554525830371
  0
VERTEX
  5
1C8CDE6ACB46
  8
SJC2
 10
885.22571899237471
 20
1716.8063147496521
 30
0.0
 42
-0.0828303032114262
  0
VERTEX
  5
1C8CDE6ACB47
  8
SJC2
 10
885.52630616669012
 20
1717.428224691075
 30
0.0
 42
-0.1067557822208174
  0
VERTEX
  5
1C8CDE6ACB48
  8
SJC2
 10
886.01268318805876
 20
1717.8746413604349
 30
0.0
 42
-0.1332500875588086
  0
VERTEX
  5
1C8CDE6ACB49
  8
SJC2
 10
886.52636081068704
 20
1718.0140111287019
 30
0.0
 42
-0.1332500875588559
  0
SEQEND
  5
1C8CDE6ACB4A
  8
SJC2
  0
POLYLINE
  5
1C8CDE6A9561
  8
SJC2
 66
     1
 10
0.0
 20
0.0
 30
0.0
  0
VERTEX
  5
1C8CDE6ACB4B
  8
SJC2
 10
880.61660894384841
 20
1714.0140111287019
 30
0.0
 42
-0.120651329253439
  0
VERTEX
  5
1C8CDE6ACB4C
  8
SJC2
 10
880.0275385270287
 20
1714.1582551089141
 30
0.0
 42
-0.1050790673246372
  0
VERTEX
  5
1C8CDE6ACB4D
  8
SJC2
 10
879.49219762761265
 20
1714.599797566329
 30
0.0
 42
-0.0886278647047429
  0
VERTEX
  5
1C8CDE6ACB4E
  8
SJC2
 10
879.15230585742927
 20
1715.2295189725901
 30
0.0
 42
-0.079704503934722
  0
VERTEX
  5
1C8CDE6ACB4F
  8
SJC2
 10
879.02645121074227
 20
1716.0140111287019
 30
0.0
 42
-0.0797045039347204
  0
VERTEX
  5
1C8CDE6ACB50
  8
SJC2
 10
879.15230585742927
 20
1716.7985032848139
 30
0.0
 42
-0.0886278647047481
  0
VERTEX
  5
1C8CDE6ACB51
  8
SJC2
 10
879.49219762761265
 20
1717.428224691075
 30
0.0
 42
-0.1050790673246424
  0
VERTEX
  5
1C8CDE6ACB52
  8
SJC2
 10
880.0275385270287
 20
1717.8697671484899
 30
0.0
 42
-0.120651329253433
  0
VERTEX
  5
1C8CDE6ACB53
  8
SJC2
 10
880.61660894384841
 20
1718.0140111287019
 30
0.0
 42
-0.1206513292534549
  0
SEQEND
  5
1C8CDE6ACB54
  8
SJC2
  0
ARC
  5
1C8CDE6A956C
  8
SJC
 10
889.9485280673689
 20
1730.5140111287019
 30
0.0
 40
10.0
 50
0.000000000014656
 51
38.202182775739431
  0
ARC
  5
1C8CDE6A956D
  8
SJC2
 10
901.67358236095424
 20
1716.0140111287019
 30
0.0
 40
2.0
 50
270.0
 51
90.0
  0
ARC
  5
1C8CDE6A956E
  8
SJC2
 10
903.64852806736963
 20
1716.0140111287019
 30
0.0
 40
2.0
 50
259.92134189221252
 51
100.0786581077875
  0
POLYLINE
  5
1C8CDE6A956F
  8
SJC2
 66
     1
 10
0.0
 20
0.0
 30
0.0
  0
VERTEX
  5
1C8CDE6ACB55
  8
SJC2
 10
901.20376356554152
 20
1716.665220333562
 30
0.0
 42
-0.0053639511144539
  0
VERTEX
  5
1C8CDE6ACB56
  8
SJC2
 10
901.21958210708181
 20
1716.837282775123
 30
0.0
 42
-0.0352096047277708
  0
VERTEX
  5
1C8CDE6ACB57
  8
SJC2
 10
901.32272255949101
 20
1717.428224691075
 30
0.0
 42
-0.0742524186368184
  0
VERTEX
  5
1C8CDE6ACB58
  8
SJC2
 10
901.53117860486407
 20
1717.9333112043371
 30
0.0
 42
-0.2636526432947964
  0
VERTEX
  5
1C8CDE6ACB59
  8
SJC2
 10
901.67358236095424
 20
1718.0140111287019
 30
0.0
 42
-0.2636526432948179
  0
SEQEND
  5
1C8CDE6ACB5A
  8
SJC2
  0
ARC
  5
1C8CDE6A9576
  8
SJC2
 10
895.95859128489792
 20
1716.0140111287019
 30
0.0
 40
2.0
 50
270.0
 51
90.0
  0
ARC
  5
1C8CDE6A9577
  8
SJC2
 10
899.3127515160013
 20
1716.0140111287019
 30
0.0
 40
2.0
 50
270.00000000000023
 51
89.999999999999801
  0
POLYLINE
  5
1C8CDE6A9578
  8
SJC2
 66
     1
 10
0.0
 20
0.0
 30
0.0
  0
VERTEX
  5
1C8CDE6ACB5B
  8
SJC2
 10
899.3127515160013
 20
1714.0140111287019
 30
0.0
 42
-0.2118470242964341
  0
VERTEX
  5
1C8CDE6ACB5C
  8
SJC2
 10
899.07513673966059
 20
1714.1194176516849
 30
0.0
 42
-0.0945255633777528
  0
VERTEX
  5
1C8CDE6ACB5D
  8
SJC2
 10
898.78241926289945
 20
1714.599797566329
 30
0.0
 42
-0.0512128948144839
  0
VERTEX
  5
1C8CDE6ACB5E
  8
SJC2
 10
898.62582206036495
 20
1715.197021474276
 30
0.0
 42
-0.0385438816909012
  0
VERTEX
  5
1C8CDE6ACB5F
  8
SJC2
 10
898.56274845110238
 20
1716.0140111287019
 30
0.0
 42
-0.0385438816909032
  0
VERTEX
  5
1C8CDE6ACB60
  8
SJC2
 10
898.62582206036495
 20
1716.831000783128
 30
0.0
 42
-0.0512128948144929
  0
VERTEX
  5
1C8CDE6ACB61
  8
SJC2
 10
898.78241926289945
 20
1717.428224691075
 30
0.0
 42
-0.0945255633777525
  0
VERTEX
  5
1C8CDE6ACB62
  8
SJC2
 10
899.07513673966059
 20
1717.9086046057189
 30
0.0
 42
-0.2118470242964467
  0
VERTEX
  5
1C8CDE6ACB63
  8
SJC2
 10
899.3127515160013
 20
1718.0140111287019
 30
0.0
 42
-0.2118470242964307
  0
SEQEND
  5
1C8CDE6ACB64
  8
SJC2
  0
POLYLINE
  5
1C8CDE6A9583
  8
SJC2
 66
     1
 10
0.0
 20
0.0
 30
0.0
  0
VERTEX
  5
1C8CDE6ACB65
  8
SJC2
 10
901.67358236095424
 20
1714.0140111287019
 30
0.0
 42
-0.2636526432947845
  0
VERTEX
  5
1C8CDE6ACB66
  8
SJC2
 10
901.53117860486407
 20
1714.0947110530669
 30
0.0
 42
-0.0742524186368126
  0
VERTEX
  5
1C8CDE6ACB67
  8
SJC2
 10
901.32272255949101
 20
1714.599797566329
 30
0.0
 42
-0.0352096047277726
  0
VERTEX
  5
1C8CDE6ACB68
  8
SJC2
 10
901.21958210708181
 20
1715.1907394822811
 30
0.0
 42
-0.0053639511144543
  0
VERTEX
  5
1C8CDE6ACB69
  8
SJC2
 10
901.20376356554152
 20
1715.362801923842
 30
0.0
 42
-0.0256068403005276
  0
SEQEND
  5
1C8CDE6ACB6A
  8
SJC2
  0
POLYLINE
  5
1C8CDE6A958A
  8
SJC2
 66
     1
 10
0.0
 20
0.0
 30
0.0
  0
VERTEX
  5
1C8CDE6ACB6B
  8
SJC2
 10
895.95859128489792
 20
1714.0140111287019
 30
0.0
 42
-0.1759227118509986
  0
VERTEX
  5
1C8CDE6ACB6C
  8
SJC2
 10
895.62379167017934
 20
1714.135570972353
 30
0.0
 42
-0.1039773255587434
  0
VERTEX
  5
1C8CDE6ACB6D
  8
SJC2
 10
895.25825037178038
 20
1714.599797566329
 30
0.0
 42
-0.0644626389992414
  0
VERTEX
  5
1C8CDE6ACB6E
  8
SJC2
 10
895.05029846749494
 20
1715.2048081552259
 30
0.0
 42
-0.0506228400655258
  0
VERTEX
  5
1C8CDE6ACB6F
  8
SJC2
 10
894.96815966728172
 20
1716.0140111287019
 30
0.0
 42
-0.0506228400655232
  0
VERTEX
  5
1C8CDE6ACB70
  8
SJC2
 10
895.05029846749494
 20
1716.8232141021781
 30
0.0
 42
-0.0644626389992436
  0
VERTEX
  5
1C8CDE6ACB71
  8
SJC2
 10
895.25825037178038
 20
1717.428224691075
 30
0.0
 42
-0.1039773255587384
  0
VERTEX
  5
1C8CDE6ACB72
  8
SJC2
 10
895.62379167017934
 20
1717.892451285051
 30
0.0
 42
-0.1759227118509958
  0
VERTEX
  5
1C8CDE6ACB73
  8
SJC2
 10
895.95859128489792
 20
1718.0140111287019
 30
0.0
 42
-0.1759227118510255
  0
SEQEND
  5
1C8CDE6ACB74
  8
SJC2
  0
LINE
  5
1C8CDE6A9595
  8
SJC2
 10
905.29852806736926
 20
1726.0140111287039
 30
0.0
 11
905.29852806736926
 21
1719.5140111287019
 31
0.0
  0
LINE
  5
1C8CDE6A9596
  8
SJC2
 10
903.29852806736915
 20
1719.5140111287019
 30
0.0
 11
903.29852806736915
 21
1717.9914478078319
 31
0.0
  0
LINE
  5
1C8CDE6A9597
  8
SJC2
 10
905.29852806736926
 20
1712.5140111287019
 30
0.0
 11
905.29852806736926
 21
1708.5140111287019
 31
0.0
  0
LINE
  5
1C8CDE6A9598
  8
SJC2
 10
905.29852806736926
 20
1712.5140111287019
 30
0.0
 11
905.29852806736926
 21
1710.5140111287019
 31
0.0
  0
LINE
  5
1C8CDE6A9599
  8
SJC2
 10
903.29852806736915
 20
1714.0365744495721
 30
0.0
 11
903.29852806736915
 21
1712.5140111287019
 31
0.0
  0
ARC
  5
1C8CDE6A959A
  8
SJC2
 10
902.99895473739878
 20
1716.0140111287019
 30
0.0
 40
2.0
 50
270.0
 51
90.0
  0
LINE
  5
1C8CDE6A959B
  8
SJC2
 10
905.29852806736926
 20
1712.5140111287019
 30
0.0
 11
905.29852806736926
 21
1708.5140111287019
 31
0.0
  0
ARC
  5
1C8CDE6A959C
  8
SJC2
 10
900.06418182246477
 20
1725.2212328153159
 30
0.0
 40
5.2940417514156257
 50
8.6123903872397864
 51
91.251784469286633
  0
POLYLINE
  5
1C8CDE6A959D
  8
SJC2
 66
     1
 10
0.0
 20
0.0
 30
0.0
  0
VERTEX
  5
1C8CDE6ACB75
  8
SJC2
 10
874.04716079797788
 20
1714.0140111287019
 30
0.0
 42
-0.1116800569950346
  0
VERTEX
  5
1C8CDE6ACB76
  8
SJC2
 10
873.39468216151727
 20
1714.1615894928909
 30
0.0
 42
-0.1030115942786991
  0
VERTEX
  5
1C8CDE6ACB77
  8
SJC2
 10
872.81845795608206
 20
1714.599797566329
 30
0.0
 42
-0.0927327528650624
  0
VERTEX
  5
1C8CDE6ACB78
  8
SJC2
 10
872.44519519119228
 20
1715.236293276286
 30
0.0
 42
-0.0865774052393461
  0
VERTEX
  5
1C8CDE6ACB79
  8
SJC2
 10
872.3095125748423
 20
1716.0140111287019
 30
0.0
 42
-0.0865774052393477
  0
VERTEX
  5
1C8CDE6ACB7A
  8
SJC2
 10
872.44519519119228
 20
1716.791728981118
 30
0.0
 42
-0.0927327528650677
  0
VERTEX
  5
1C8CDE6ACB7B
  8
SJC2
 10
872.81845795608206
 20
1717.428224691075
 30
0.0
 42
-0.103011594278703
  0
VERTEX
  5
1C8CDE6ACB7C
  8
SJC2
 10
873.39468216151727
 20
1717.8664327645131
 30
0.0
 42
-0.1116800569950293
  0
VERTEX
  5
1C8CDE6ACB7D
  8
SJC2
 10
874.04716079797788
 20
1718.0140111287019
 30
0.0
 42
-0.1116800569949558
  0
SEQEND
  5
1C8CDE6ACB7E
  8
SJC2
  0
ARC
  5
1C8CDE6A95A8
  8
SJC2
 10
874.04716079797788
 20
1716.0140111287019
 30
0.0
 40
2.0
 50
270.0
 51
90.0
  0
ARC
  5
1C8CDE6A95A9
  8
SJC2
 10
866.93524833087201
 20
1716.0140111287019
 30
0.0
 40
2.0
 50
270.0
 51
90.0
  0
POLYLINE
  5
1C8CDE6A95AA
  8
SJC2
 66
     1
 10
0.0
 20
0.0
 30
0.0
  0
VERTEX
  5
1C8CDE6ACB7F
  8
SJC2
 10
866.93524833087201
 20
1714.0140111287019
 30
0.0
 42
-0.1054357078480557
  0
VERTEX
  5
1C8CDE6ACB80
  8
SJC2
 10
866.23264818409189
 20
1714.163834961196
 30
0.0
 42
-0.101101712149107
  0
VERTEX
  5
1C8CDE6ACB81
  8
SJC2
 10
865.62418019463803
 20
1714.599797566329
 30
0.0
 42
-0.0955210329656216
  0
VERTEX
  5
1C8CDE6ACB82
  8
SJC2
 10
865.22429788648878
 20
1715.2417424782291
 30
0.0
 42
-0.0919176181383292
  0
VERTEX
  5
1C8CDE6ACB83
  8
SJC2
 10
865.08111799141443
 20
1716.0140111287019
 30
0.0
 42
-0.0919176181383349
  0
VERTEX
  5
1C8CDE6ACB84
  8
SJC2
 10
865.22429788648878
 20
1716.7862797791749
 30
0.0
 42
-0.0955210329656196
  0
VERTEX
  5
1C8CDE6ACB85
  8
SJC2
 10
865.62418019463803
 20
1717.428224691075
 30
0.0
 42
-0.1011017121491036
  0
VERTEX
  5
1C8CDE6ACB86
  8
SJC2
 10
866.23264818409189
 20
1717.864187296208
 30
0.0
 42
-0.1054357078480609
  0
VERTEX
  5
1C8CDE6ACB87
  8
SJC2
 10
866.93524833087201
 20
1718.0140111287019
 30
0.0
 42
-0.1054357078480126
  0
SEQEND
  5
1C8CDE6ACB88
  8
SJC2
  0
CIRCLE
  5
1C8CDE6A95B5
  8
SJC2
 10
858.55778378899231
 20
1716.0140111287019
 30
0.0
 40
2.0
  0
POLYLINE
  5
1C8CDE6A95B6
  8
SJC2
 66
     1
 10
0.0
 20
0.0
 30
0.0
  0
VERTEX
  5
1C8CDE6ACB89
  8
SJC2
 10
799.07069532405148
 20
1714.0140111287019
 30
0.0
 42
0.1332500875588102
  0
VERTEX
  5
1C8CDE6ACB8A
  8
SJC2
 10
799.58437294667965
 20
1714.1533808969691
 30
0.0
 42
0.106755782220821
  0
VERTEX
  5
1C8CDE6ACB8B
  8
SJC2
 10
800.07074996805011
 20
1714.599797566329
 30
0.0
 42
0.0828303032114395
  0
VERTEX
  5
1C8CDE6ACB8C
  8
SJC2
 10
800.3713371423637
 20
1715.221707507751
 30
0.0
 42
0.0713554525830378
  0
VERTEX
  5
1C8CDE6ACB8D
  8
SJC2
 10
800.48498616470715
 20
1716.0140111287019
 30
0.0
 42
0.0713554525830371
  0
VERTEX
  5
1C8CDE6ACB8E
  8
SJC2
 10
800.3713371423637
 20
1716.8063147496521
 30
0.0
 42
0.0828303032114262
  0
VERTEX
  5
1C8CDE6ACB8F
  8
SJC2
 10
800.07074996805011
 20
1717.428224691075
 30
0.0
 42
0.1067557822208174
  0
VERTEX
  5
1C8CDE6ACB90
  8
SJC2
 10
799.58437294667965
 20
1717.8746413604349
 30
0.0
 42
0.1332500875588086
  0
VERTEX
  5
1C8CDE6ACB91
  8
SJC2
 10
799.07069532405148
 20
1718.0140111287019
 30
0.0
 42
0.1332500875588559
  0
SEQEND
  5
1C8CDE6ACB92
  8
SJC2
  0
ARC
  5
1C8CDE6A95C1
  8
SJC
 10
795.64852806736963
 20
1730.5140111287019
 30
0.0
 40
10.0
 50
141.79781722426071
 51
179.99999999998531
  0
POLYLINE
  5
1C8CDE6A95C2
  8
SJC2
 66
     1
 10
0.0
 20
0.0
 30
0.0
  0
VERTEX
  5
1C8CDE6ACB93
  8
SJC2
 10
793.92609939830982
 20
1714.0140111287019
 30
0.0
 42
0.150911399745959
  0
VERTEX
  5
1C8CDE6ACB94
  8
SJC2
 10
794.35417970494916
 20
1714.1462266343131
 30
0.0
 42
0.1070103012881034
  0
VERTEX
  5
1C8CDE6ACB95
  8
SJC2
 10
794.78395137125881
 20
1714.599797566329
 30
0.0
 42
0.0749121317509504
  0
VERTEX
  5
1C8CDE6ACB96
  8
SJC2
 10
795.04022915002315
 20
1715.213278909054
 30
0.0
 42
0.0616186277240593
  0
VERTEX
  5
1C8CDE6ACB97
  8
SJC2
 10
795.13928529296209
 20
1716.0140111287019
 30
0.0
 42
0.0616186277240571
  0
VERTEX
  5
1C8CDE6ACB98
  8
SJC2
 10
795.04022915002315
 20
1716.81474334835
 30
0.0
 42
0.0749121317509533
  0
VERTEX
  5
1C8CDE6ACB99
  8
SJC2
 10
794.78395137125881
 20
1717.428224691075
 30
0.0
 42
0.107010301288108
  0
VERTEX
  5
1C8CDE6ACB9A
  8
SJC2
 10
794.35417970494916
 20
1717.881795623091
 30
0.0
 42
0.1509113997459668
  0
VERTEX
  5
1C8CDE6ACB9B
  8
SJC2
 10
793.92609939830982
 20
1718.0140111287019
 30
0.0
 42
0.1509113997459639
  0
SEQEND
  5
1C8CDE6ACB9C
  8
SJC2
  0
POLYLINE
  5
1C8CDE6A95CD
  8
SJC2
 66
     1
 10
0.0
 20
0.0
 30
0.0
  0
VERTEX
  5
1C8CDE6ACB9D
  8
SJC2
 10
786.28430461873722
 20
1714.0140111287019
 30
0.0
 42
0.2118470242964341
  0
VERTEX
  5
1C8CDE6ACB9E
  8
SJC2
 10
786.52191939507793
 20
1714.1194176516849
 30
0.0
 42
0.0945255633777528
  0
VERTEX
  5
1C8CDE6ACB9F
  8
SJC2
 10
786.81463687183896
 20
1714.599797566329
 30
0.0
 42
0.0512128948144839
  0
VERTEX
  5
1C8CDE6ACBA0
  8
SJC2
 10
786.97123407437357
 20
1715.197021474276
 30
0.0
 42
0.0385438816909012
  0
VERTEX
  5
1C8CDE6ACBA1
  8
SJC2
 10
787.03430768363614
 20
1716.0140111287019
 30
0.0
 42
0.0385438816909032
  0
VERTEX
  5
1C8CDE6ACBA2
  8
SJC2
 10
786.97123407437357
 20
1716.831000783128
 30
0.0
 42
0.0512128948144929
  0
VERTEX
  5
1C8CDE6ACBA3
  8
SJC2
 10
786.81463687183896
 20
1717.428224691075
 30
0.0
 42
0.0945255633777525
  0
VERTEX
  5
1C8CDE6ACBA4
  8
SJC2
 10
786.52191939507793
 20
1717.9086046057189
 30
0.0
 42
0.2118470242964467
  0
VERTEX
  5
1C8CDE6ACBA5
  8
SJC2
 10
786.28430461873722
 20
1718.0140111287019
 30
0.0
 42
0.2118470242964307
  0
SEQEND
  5
1C8CDE6ACBA6
  8
SJC2
  0
POLYLINE
  5
1C8CDE6A95D8
  8
SJC2
 66
     1
 10
0.0
 20
0.0
 30
0.0
  0
VERTEX
  5
1C8CDE6ACBA7
  8
SJC2
 10
789.63846484984242
 20
1714.0140111287019
 30
0.0
 42
0.1759227118509986
  0
VERTEX
  5
1C8CDE6ACBA8
  8
SJC2
 10
789.97326446455918
 20
1714.135570972353
 30
0.0
 42
0.1039773255587434
  0
VERTEX
  5
1C8CDE6ACBA9
  8
SJC2
 10
790.33880576295815
 20
1714.599797566329
 30
0.0
 42
0.0644626389992414
  0
VERTEX
  5
1C8CDE6ACBAA
  8
SJC2
 10
790.5467576672454
 20
1715.2048081552259
 30
0.0
 42
0.0506228400655258
  0
VERTEX
  5
1C8CDE6ACBAB
  8
SJC2
 10
790.62889646745668
 20
1716.0140111287019
 30
0.0
 42
0.0506228400655232
  0
VERTEX
  5
1C8CDE6ACBAC
  8
SJC2
 10
790.5467576672454
 20
1716.8232141021781
 30
0.0
 42
0.0644626389992436
  0
VERTEX
  5
1C8CDE6ACBAD
  8
SJC2
 10
790.33880576295815
 20
1717.428224691075
 30
0.0
 42
0.1039773255587384
  0
VERTEX
  5
1C8CDE6ACBAE
  8
SJC2
 10
789.97326446455918
 20
1717.892451285051
 30
0.0
 42
0.1759227118509958
  0
VERTEX
  5
1C8CDE6ACBAF
  8
SJC2
 10
789.63846484984242
 20
1718.0140111287019
 30
0.0
 42
0.1759227118510255
  0
SEQEND
  5
1C8CDE6ACBB0
  8
SJC2
  0
ARC
  5
1C8CDE6A95E3
  8
SJC2
 10
793.92609939830982
 20
1716.0140111287019
 30
0.0
 40
2.0
 50
90.000000000000398
 51
269.9999999999996
  0
ARC
  5
1C8CDE6A95E4
  8
SJC2
 10
789.63846484984242
 20
1716.0140111287019
 30
0.0
 40
2.0
 50
90.0
 51
270.0
  0
ARC
  5
1C8CDE6A95E5
  8
SJC2
 10
799.07069532405148
 20
1716.0140111287019
 30
0.0
 40
2.0
 50
90.0
 51
270.0
  0
POLYLINE
  5
1C8CDE6A95E6
  8
SJC2
 66
     1
 10
0.0
 20
0.0
 30
0.0
  0
VERTEX
  5
1C8CDE6ACBB1
  8
SJC2
 10
804.98044719089012
 20
1714.0140111287019
 30
0.0
 42
0.120651329253439
  0
VERTEX
  5
1C8CDE6ACBB2
  8
SJC2
 10
805.56951760770971
 20
1714.1582551089141
 30
0.0
 42
0.1050790673246372
  0
VERTEX
  5
1C8CDE6ACBB3
  8
SJC2
 10
806.10485850712575
 20
1714.599797566329
 30
0.0
 42
0.0886278647047429
  0
VERTEX
  5
1C8CDE6ACBB4
  8
SJC2
 10
806.44475027730914
 20
1715.2295189725901
 30
0.0
 42
0.079704503934722
  0
VERTEX
  5
1C8CDE6ACBB5
  8
SJC2
 10
806.57060492399614
 20
1716.0140111287019
 30
0.0
 42
0.0797045039347204
  0
VERTEX
  5
1C8CDE6ACBB6
  8
SJC2
 10
806.44475027730914
 20
1716.7985032848139
 30
0.0
 42
0.0886278647047481
  0
VERTEX
  5
1C8CDE6ACBB7
  8
SJC2
 10
806.10485850712575
 20
1717.428224691075
 30
0.0
 42
0.1050790673246424
  0
VERTEX
  5
1C8CDE6ACBB8
  8
SJC2
 10
805.56951760770971
 20
1717.8697671484899
 30
0.0
 42
0.120651329253433
  0
VERTEX
  5
1C8CDE6ACBB9
  8
SJC2
 10
804.98044719089012
 20
1718.0140111287019
 30
0.0
 42
0.1206513292534549
  0
SEQEND
  5
1C8CDE6ACBBA
  8
SJC2
  0
ARC
  5
1C8CDE6A95F1
  8
SJC2
 10
804.98044719089012
 20
1716.0140111287019
 30
0.0
 40
2.0
 50
90.0
 51
270.0
  0
CIRCLE
  5
1C8CDE6A95F2
  8
SJC2
 10
834.84796117932456
 20
1716.0140111287019
 30
0.0
 40
2.0
  0
CIRCLE
  5
1C8CDE6A95F3
  8
SJC2
 10
827.03927234574792
 20
1716.0140111287019
 30
0.0
 40
2.0
  0
ARC
  5
1C8CDE6A95F4
  8
SJC2
 10
819.51180780386665
 20
1716.0140111287019
 30
0.0
 40
2.0
 50
90.0
 51
270.0
  0
POLYLINE
  5
1C8CDE6A95F5
  8
SJC2
 66
     1
 10
0.0
 20
0.0
 30
0.0
  0
VERTEX
  5
1C8CDE6ACBBB
  8
SJC2
 10
811.54989533676235
 20
1714.0140111287019
 30
0.0
 42
0.1116800569950346
  0
VERTEX
  5
1C8CDE6ACBBC
  8
SJC2
 10
812.20237397322114
 20
1714.1615894928909
 30
0.0
 42
0.1030115942786991
  0
VERTEX
  5
1C8CDE6ACBBD
  8
SJC2
 10
812.77859817865635
 20
1714.599797566329
 30
0.0
 42
0.0927327528650624
  0
VERTEX
  5
1C8CDE6ACBBE
  8
SJC2
 10
813.15186094354613
 20
1715.236293276286
 30
0.0
 42
0.0865774052393461
  0
VERTEX
  5
1C8CDE6ACBBF
  8
SJC2
 10
813.28754355989611
 20
1716.0140111287019
 30
0.0
 42
0.0865774052393477
  0
VERTEX
  5
1C8CDE6ACBC0
  8
SJC2
 10
813.15186094354613
 20
1716.791728981118
 30
0.0
 42
0.0927327528650677
  0
VERTEX
  5
1C8CDE6ACBC1
  8
SJC2
 10
812.77859817865635
 20
1717.428224691075
 30
0.0
 42
0.103011594278703
  0
VERTEX
  5
1C8CDE6ACBC2
  8
SJC2
 10
812.20237397322114
 20
1717.8664327645131
 30
0.0
 42
0.1116800569950293
  0
VERTEX
  5
1C8CDE6ACBC3
  8
SJC2
 10
811.54989533676235
 20
1718.0140111287019
 30
0.0
 42
0.1116800569949558
  0
SEQEND
  5
1C8CDE6ACBC4
  8
SJC2
  0
ARC
  5
1C8CDE6A9600
  8
SJC2
 10
811.54989533676235
 20
1716.0140111287019
 30
0.0
 40
2.0
 50
90.0
 51
270.0
  0
POLYLINE
  5
1C8CDE6A9601
  8
SJC2
 66
     1
 10
0.0
 20
0.0
 30
0.0
  0
VERTEX
  5
1C8CDE6ACBC5
  8
SJC2
 10
819.51180780386665
 20
1714.0140111287019
 30
0.0
 42
0.1054357078480557
  0
VERTEX
  5
1C8CDE6ACBC6
  8
SJC2
 10
820.21440795064689
 20
1714.163834961196
 30
0.0
 42
0.101101712149107
  0
VERTEX
  5
1C8CDE6ACBC7
  8
SJC2
 10
820.82287594010074
 20
1714.599797566329
 30
0.0
 42
0.0955210329656216
  0
VERTEX
  5
1C8CDE6ACBC8
  8
SJC2
 10
821.2227582482501
 20
1715.2417424782291
 30
0.0
 42
0.0919176181383292
  0
VERTEX
  5
1C8CDE6ACBC9
  8
SJC2
 10
821.36593814332434
 20
1716.0140111287019
 30
0.0
 42
0.0919176181383349
  0
VERTEX
  5
1C8CDE6ACBCA
  8
SJC2
 10
821.2227582482501
 20
1716.7862797791749
 30
0.0
 42
0.0955210329656196
  0
VERTEX
  5
1C8CDE6ACBCB
  8
SJC2
 10
820.82287594010074
 20
1717.428224691075
 30
0.0
 42
0.1011017121491036
  0
VERTEX
  5
1C8CDE6ACBCC
  8
SJC2
 10
820.21440795064689
 20
1717.864187296208
 30
0.0
 42
0.1054357078480609
  0
VERTEX
  5
1C8CDE6ACBCD
  8
SJC2
 10
819.51180780386665
 20
1718.0140111287019
 30
0.0
 42
0.1054357078480126
  0
SEQEND
  5
1C8CDE6ACBCE
  8
SJC2
  0
ARC
  5
1C8CDE6A960C
  8
SJC2
 10
842.79852806736915
 20
1716.0140111287019
 30
0.0
 40
2.0
 50
90.0
 51
270.0
  0
ARC
  5
1C8CDE6A960D
  8
SJC2
 10
842.79852806736915
 20
1716.0140111287019
 30
0.0
 40
2.0
 50
270.0
 51
90.0
  0
CIRCLE
  5
1C8CDE6A960E
  8
SJC2
 10
850.74909495541579
 20
1716.0140111287019
 30
0.0
 40
2.0
  0
ARC
  5
1C8CDE6A960F
  8
SJC
 10
842.79852806736915
 20
1693.407711124524
 30
0.0
 40
70.0
 50
38.202182775739203
 51
141.7978172242608
  0
LINE
  5
1C8CDE6A9610
  8
SJC2
 10
785.64852806736963
 20
1730.5140111287051
 30
0.0
 11
899.94852806736878
 21
1730.5140111287051
 31
0.0
  0
LINE
  5
1C8CDE6A9611
  8
SJC2
 10
780.29852806736915
 20
1726.0140111287051
 30
0.0
 11
780.29852806736915
 21
1719.5140111287019
 31
0.0
  0
POLYLINE
  5
1C8CDE6A9612
  8
SJC2
 66
     1
 10
0.0
 20
0.0
 30
0.0
  0
VERTEX
  5
1C8CDE6ACBCF
  8
SJC2
 10
782.73497132679574
 20
1717.622570090474
 30
0.0
 42
0.0255638409195304
  0
VERTEX
  5
1C8CDE6ACBD0
  8
SJC2
 10
782.65589032592652
 20
1717.9702601161659
 30
0.0
 42
0.3358450609580102
  0
VERTEX
  5
1C8CDE6ACBD1
  8
SJC2
 10
782.59810139733963
 20
1718.0140111287019
 30
0.0
 42
0.3358450609581582
  0
SEQEND
  5
1C8CDE6ACBD2
  8
SJC2
  0
POLYLINE
  5
1C8CDE6A9617
  8
SJC2
 66
     1
 10
0.0
 20
0.0
 30
0.0
  0
VERTEX
  5
1C8CDE6ACBD3
  8
SJC2
 10
784.39329256919689
 20
1716.665220333562
 30
0.0
 42
0.0053639511144539
  0
VERTEX
  5
1C8CDE6ACBD4
  8
SJC2
 10
784.3774740276566
 20
1716.837282775123
 30
0.0
 42
0.0352096047277708
  0
VERTEX
  5
1C8CDE6ACBD5
  8
SJC2
 10
784.27433357524751
 20
1717.428224691075
 30
0.0
 42
0.0742524186368184
  0
VERTEX
  5
1C8CDE6ACBD6
  8
SJC2
 10
784.06587752987434
 20
1717.9333112043371
 30
0.0
 42
0.2636526432947964
  0
VERTEX
  5
1C8CDE6ACBD7
  8
SJC2
 10
783.92347377378417
 20
1718.0140111287019
 30
0.0
 42
0.2636526432948179
  0
SEQEND
  5
1C8CDE6ACBD8
  8
SJC2
  0
LINE
  5
1C8CDE6A961E
  8
SJC2
 10
782.29852806736915
 20
1719.5140111287019
 30
0.0
 11
782.29852806736915
 21
1717.9914478078319
 31
0.0
  0
POLYLINE
  5
1C8CDE6A961F
  8
SJC2
 66
     1
 10
0.0
 20
0.0
 30
0.0
  0
VERTEX
  5
1C8CDE6ACBD9
  8
SJC2
 10
782.59810139733963
 20
1714.0140111287019
 30
0.0
 42
0.3358450609579918
  0
VERTEX
  5
1C8CDE6ACBDA
  8
SJC2
 10
782.65589032592652
 20
1714.0577621412381
 30
0.0
 42
0.0255638409195304
  0
VERTEX
  5
1C8CDE6ACBDB
  8
SJC2
 10
782.73497132679574
 20
1714.40545216693
 30
0.0
 42
0.0169788485543967
  0
SEQEND
  5
1C8CDE6ACBDC
  8
SJC2
  0
LINE
  5
1C8CDE6A9624
  8
SJC2
 10
782.29852806736915
 20
1714.0365744495721
 30
0.0
 11
782.29852806736915
 21
1712.5140111287019
 31
0.0
  0
POLYLINE
  5
1C8CDE6A9625
  8
SJC2
 66
     1
 10
0.0
 20
0.0
 30
0.0
  0
VERTEX
  5
1C8CDE6ACBDD
  8
SJC2
 10
783.92347377378417
 20
1714.0140111287019
 30
0.0
 42
0.2636526432947845
  0
VERTEX
  5
1C8CDE6ACBDE
  8
SJC2
 10
784.06587752987434
 20
1714.0947110530669
 30
0.0
 42
0.0742524186368126
  0
VERTEX
  5
1C8CDE6ACBDF
  8
SJC2
 10
784.27433357524751
 20
1714.599797566329
 30
0.0
 42
0.0352096047277726
  0
VERTEX
  5
1C8CDE6ACBE0
  8
SJC2
 10
784.3774740276566
 20
1715.1907394822811
 30
0.0
 42
0.0053639511144543
  0
VERTEX
  5
1C8CDE6ACBE1
  8
SJC2
 10
784.39329256919689
 20
1715.362801923842
 30
0.0
 42
0.0256068403005276
  0
SEQEND
  5
1C8CDE6ACBE2
  8
SJC2
  0
ARC
  5
1C8CDE6A962C
  8
SJC2
 10
781.94852806736878
 20
1716.0140111287019
 30
0.0
 40
2.0
 50
79.921341892212453
 51
280.07865810778759
  0
ARC
  5
1C8CDE6A962D
  8
SJC2
 10
783.92347377378417
 20
1716.0140111287019
 30
0.0
 40
2.0
 50
90.0
 51
270.0
  0
ARC
  5
1C8CDE6A962E
  8
SJC2
 10
782.59810139733963
 20
1716.0140111287019
 30
0.0
 40
2.0
 50
90.0
 51
270.0
  0
LINE
  5
1C8CDE6A962F
  8
SJC2
 10
780.29852806736915
 20
1712.5140111287019
 30
0.0
 11
780.29852806736915
 21
1708.5140111287019
 31
0.0
  0
ARC
  5
1C8CDE6A9630
  8
SJC2
 10
786.28430461873722
 20
1716.0140111287019
 30
0.0
 40
2.0
 50
90.000000000000185
 51
269.99999999999977
  0
ARC
  5
1C8CDE6A9631
  8
SJC2
 10
785.53287431227545
 20
1725.2212328153159
 30
0.0
 40
5.294041751415774
 50
88.748215530713239
 51
171.38760961275659
  0
LINE
  5
1C8CDE6A9632
  8
SJC2
 10
780.29852806736915
 20
1712.5140111287019
 30
0.0
 11
905.29852806736926
 21
1712.5140111287019
 31
0.0
  0
LINE
  5
1C8CDE6A9633
  8
SJC2
 10
780.29852806736915
 20
1719.5140111287019
 30
0.0
 11
905.29852806736926
 21
1719.5140111287019
 31
0.0
  0
LINE
  5
1C8CDE6A9634
  8
SJC2
 10
780.29852806736915
 20
1712.5140111287019
 30
0.0
 11
898.4485280673689
 21
1712.5140111287019
 31
0.0
  0
LINE
  5
1C8CDE6A9635
  8
SJC2
 10
783.29852806736926
 20
1697.5140111287019
 30
0.0
 11
902.29852806736915
 21
1697.5140111287019
 31
0.0
  0
ARC
  5
1C8CDE6A9636
  8
SJC2
 10
802.14082102439897
 20
1708.5619092078921
 30
0.0
 40
21.842345474941219
 50
180.1256440150639
 51
210.38459339105179
  0
ARC
  5
1C8CDE6A9637
  8
SJC2
 10
883.45623511033955
 20
1708.5619092078921
 30
0.0
 40
21.842345474941219
 50
329.61540660894809
 51
359.87435598493619
  0
LINE
  5
1C8CDE6A9639
  8
SJC
 10
899.94879789946935
 20
963.40771112452455
 30
0.0
 11
1127.920205464326
 21
963.40771112452455
 31
0.0
1001
ACAD
1000
ASC_BOUNDS
1002
{
1070
    19
1002
}
  0
LINE
  5
1C8CDE6A963A
  8
SJC
 10
899.94879789947106
 20
1697.5140111287019
 30
0.0
 11
899.94879789947072
 21
963.40771112452455
 31
0.0
1001
ACAD
1000
ASC_BOUNDS
1002
{
1070
    19
1002
}
  0
LINE
  5
1C8CDE6A963B
  8
CENTER
 10
842.79852806736915
 20
1808.569679260502
 30
0.0
 11
842.79852806736915
 21
468.24574299694791
 31
0.0
  0
LINE
  5
1C8CDE6A963C
  8
SJC
 10
785.64825823526917
 20
1697.5140111287019
 30
0.0
 11
785.64825823526917
 21
963.40771112452342
 31
0.0
1001
ACAD
1000
ASC_BOUNDS
1002
{
1070
    19
1002
}
  0
LINE
  5
1C8CDE6A9752
  8
HATCH
 10
692.79939909675068
 20
687.82801806753139
 30
0.0
 11
742.79939909674908
 21
737.8280180675298
 31
0.0
  0
LINE
  5
1C8CDE6A9753
  8
HATCH
 10
903.39850806736911
 20
898.42712703815027
 30
0.0
 11
968.3790921537427
 21
963.40771112452342
 31
0.0
  0
LINE
  5
1C8CDE6A9754
  8
HATCH
 10
742.84649606554444
 20
737.8751150363255
 30
0.0
 11
782.19856806736868
 21
777.22718703814974
 31
0.0
  0
LINE
  5
1C8CDE6A9755
  8
HATCH
 10
692.79939909675068
 20
864.60471336416845
 30
0.0
 11
782.19856806736891
 21
954.00388233478668
 31
0.0
  0
LINE
  5
1C8CDE6A9756
  8
HATCH
 10
745.15578745037976
 20
563.40771112452364
 30
0.0
 11
782.19856806736857
 21
600.45049174151291
 31
0.0
  0
LINE
  5
1C8CDE6A9757
  8
HATCH
 10
903.39850806736922
 20
721.65043174151333
 30
0.0
 11
992.79939909675045
 21
811.05132277089467
 31
0.0
  0
LINE
  5
1C8CDE6A9759
  8
HATCH
 10
921.93248274701648
 20
563.40771112452364
 30
0.0
 11
992.79939909675045
 21
634.27462747425784
 31
0.0
  0
LINE
  5
1C8CDE6A975A
  8
HATCH
 10
692.79939909675068
 20
709.92510497961109
 30
0.0
 11
782.19856806736891
 21
799.32427395022955
 31
0.0
  0
LINE
  5
1C8CDE6A975C
  8
HATCH
 10
692.79939909675068
 20
886.70180027624792
 30
0.0
 11
767.79852806736915
 21
961.70092924686628
 31
0.0
  0
LINE
  5
1C8CDE6A975D
  8
HATCH
 10
723.05870053830006
 20
563.40771112452364
 30
0.0
 11
782.19856806736868
 21
622.54757865359238
 31
0.0
  0
LINE
  5
1C8CDE6A975E
  8
HATCH
 10
903.39850806736922
 20
743.74751865359315
 30
0.0
 11
992.79939909675045
 21
833.14840968297415
 31
0.0
  0
LINE
  5
1C8CDE6A975F
  8
HATCH
 10
903.39850806736922
 20
566.97082335695609
 30
0.0
 11
992.79939909675045
 21
656.37171438633732
 31
0.0
  0
LINE
  5
1C8CDE6A9760
  8
HATCH
 10
692.79939909675068
 20
732.02219189169068
 30
0.0
 11
782.19856806736891
 21
821.4213608623088
 31
0.0
  0
LINE
  5
1C8CDE6A9762
  8
HATCH
 10
692.79939909675068
 20
908.79888718832751
 30
0.0
 11
747.40822303294635
 21
963.4077111245233
 31
0.0
  0
LINE
  5
1C8CDE6A9763
  8
HATCH
 10
700.96161362622036
 20
563.40771112452364
 30
0.0
 11
782.19856806736857
 21
644.64466556567231
 31
0.0
  0
LINE
  5
1C8CDE6A9764
  8
HATCH
 10
903.39850806736922
 20
765.84460556567251
 30
0.0
 11
992.79939909675045
 21
855.24549659505396
 31
0.0
  0
LINE
  5
1C8CDE6A9765
  8
HATCH
 10
903.39850806736922
 20
589.06791026903545
 30
0.0
 11
992.79939909675045
 21
678.46880129841702
 31
0.0
  0
TEXT
  5
1C8CDE6A97BD
  8
INFORMATION
 10
1.0
 20
1.0
 30
0.0
 40
0.8
  1
VERSION=3.0
  7
EXT08
  0
DIMENSION
  5
1C8CDE6A9C25
  8
SUNPOU
  2
*D2
 10
1042.79939909675
 20
263.40771112452398
 30
0.0
 11
842.79939909675056
 21
290.40771112452398
 31
0.0
 12
-4750.0920216147533
 22
-132.5522270679794
 32
0.0
 70
     0
  1
□<>
 13
642.79939909675068
 23
513.40771112452398
 33
0.0
 14
1042.79939909675
 24
513.40771112452398
 34
0.0
1001
ACAD
1000
DSTYLE
1002
{
1070
   340
1005
1C8CDE699DA6
1070
   140
1040
3.0
1070
    40
1040
10.0
1070
   147
1040
1.1999999999999991
1070
    42
1040
1.0
1070
    44
1040
1.0
1070
    43
1040
6.0
1070
   271
1070
     4
1070
    41
1040
2.0
1002
}
  0
DIMENSION
  5
1C8CDE6A9C26
  8
SUNPOU
  2
*D1
 10
992.79939909675056
 20
363.40771112452398
 30
0.0
 11
842.79939909675056
 21
390.40771112452398
 31
0.0
 12
-4750.0920216147533
 22
-132.5522270679794
 32
0.0
 70
     0
  1
□300
 13
692.79939909675068
 23
513.40771112452353
 33
0.0
 14
992.79939909675056
 24
513.40771112452353
 34
0.0
1001
ACAD
1000
DSTYLE
1002
{
1070
   340
1005
1C8CDE699DA6
1070
   140
1040
3.0
1070
    40
1040
10.0
1070
   147
1040
1.1999999999999991
1070
    42
1040
1.0
1070
    44
1040
1.0
1070
    43
1040
6.0
1070
   271
1070
     4
1070
    41
1040
2.0
1002
}
  0
CIRCLE
  5
1C8CDE6A9E73
  8
SJC
 10
842.79852806736915
 20
2069.1213904028118
 30
0.0
 40
62.5
  0
LINE
  5
1C8CDE6A9E74
  8
CENTER
 10
842.79852806736915
 20
1941.1075377745469
 30
0.0
 11
842.79852806736915
 21
2197.1352430310758
 31
0.0
  0
LINE
  5
1C8CDE6A9E76
  8
CENTER
 10
714.78467543910483
 20
2069.1213904028118
 30
0.0
 11
970.81238069563358
 21
2069.1213904028118
 31
0.0
  0
POINT
  5
1C8CDE6A9E80
  8
DEFPOINTS
  6
BYBLOCK
 62
     0
 10
842.79852806737017
 20
2069.1213904028118
 30
0.0
  0
TEXT
  5
1C8CDE6AA412
  8
INFORMATION
 10
3701.0
 20
2.0
 30
0.0
 40
0.8
  1
PLOTTER=CANON_LBP-830
  7
EXT08
  0
TEXT
  5
1C8CDE6AA413
  8
INFORMATION
 10
3701.0
 20
3.0
 30
0.0
 40
0.8
  1
PAPER=A3
  7
EXT08
  0
TEXT
  5
1C8CDE6AA50A
  8
INFORMATION
 10
3701.0
 20
1.0
 30
0.0
 40
0.8
  1
VERSION=3.0
  7
EXT08
  0
TEXT
  5
1C8CDE6AA73B
  8
MOJI
 10
2719.7038327948821
 20
474.4331832792775
 30
0.0
 40
30.0
  1
反 射 体
 41
0.8
  7
EXT08
 72
     1
 11
2774.1038327948818
 21
474.4331832792775
 31
0.0
  0
TEXT
  5
1C8CDE6AA73C
  8
MOJI
 10
2639.3388643611288
 20
474.4331832792775
 30
0.0
 40
30.0
  1
3
 41
0.8
  7
EXT08
 72
     1
 11
2650.7674357896999
 21
474.4331832792775
 31
0.0
  0
LINE
  5
1C8CDE6AA73D
  8
MOJI
 10
2861.3012028358639
 20
699.39729037730172
 30
0.0
 11
2861.3012028358639
 21
219.39729037730169
 31
0.0
  0
LINE
  5
1C8CDE6AA73E
  8
MOJI
 10
2686.9064627539001
 20
699.39729037730172
 30
0.0
 11
2686.9064627539001
 21
219.39729037730169
 31
0.0
  0
LINE
  5
1C8CDE6AA73F
  8
MOJI
 10
2612.1082247774061
 20
699.39729037730172
 30
0.0
 11
2612.1082247774052
 21
219.39729037730169
 31
0.0
  0
LINE
  5
1C8CDE6AA740
  8
MOJI
 10
3513.4267182564522
 20
699.39729037730172
 30
0.0
 11
3513.4267182564472
 21
219.39729037730169
 31
0.0
  0
LINE
  5
1C8CDE6AA741
  8
MOJI
 10
3140.9292722891628
 20
699.39729037730172
 30
0.0
 11
3140.9292722891691
 21
219.39729037730169
 31
0.0
  0
TEXT
  5
1C8CDE6AA742
  8
MOJI
 10
3169.1179097868821
 20
474.4331832792775
 30
0.0
 40
30.0
  1
ベース　黒・反射体　黄
 41
0.8
  7
EXT08
 72
     1
 11
3325.9179097868819
 21
474.4331832792775
 31
0.0
  0
LINE
  5
1C8CDE6AA743
  8
MOJI
 10
2612.1082247774061
 20
459.39729037730172
 30
0.0
 11
3513.426718256449
 21
459.39729037730172
 31
0.0
  0
LINE
  5
1C8CDE6AA744
  8
MOJI
 10
2612.1082247774061
 20
339.39729037730172
 30
0.0
 11
3513.426718256449
 21
339.39729037730177
 31
0.0
  0
LINE
  5
1C8CDE6AA745
  8
MOJI
 10
2612.1082247774052
 20
279.39729037730172
 30
0.0
 11
3513.426718256449
 21
279.3972903773016
 31
0.0
  0
LINE
  5
1C8CDE6AA746
  8
MOJI
 10
2612.1082247774052
 20
219.39729037730169
 30
0.0
 11
3513.4267182564481
 21
219.39729037730169
 31
0.0
  0
TEXT
  5
1C8CDE6AA747
  8
MOJI
 10
3152.5845764535488
 20
234.4331832792775
 30
0.0
 40
25.0
  1
φ12×140・南京錠 25mm
 41
0.8
  7
EXT08
 72
     1
 11
3325.9179097868819
 21
234.4331832792775
 31
0.0
  0
LINE
  5
1C8CDE6AA748
  8
MOJI
 10
2612.1082247774061
 20
459.39729037730172
 30
0.0
 11
3408.1934019613559
 21
459.39729037730172
 31
0.0
  0
TEXT
  5
1C8CDE6AA749
  8
MOJI
 10
2705.3038327948811
 20
294.4331832792775
 30
0.0
 40
30.0
  1
サヤ管フタ
 41
0.8
  7
EXT08
 72
     1
 11
2774.1038327948818
 21
294.4331832792775
 31
0.0
  0
TEXT
  5
1C8CDE6AA74A
  8
MOJI
 10
2639.3388643611288
 20
354.4331832792775
 30
0.0
 40
30.0
  1
5
 41
0.8
  7
EXT08
 72
     1
 11
2650.7674357896999
 21
354.4331832792775
 31
0.0
  0
TEXT
  5
1C8CDE6AA74B
  8
MOJI
 10
2705.3038327948811
 20
234.4331832792775
 30
0.0
 40
30.0
  1
ロックピン
 41
0.8
  7
EXT08
 72
     1
 11
2774.1038327948818
 21
234.4331832792775
 31
0.0
  0
TEXT
  5
1C8CDE6AA74C
  8
MOJI
 10
2638.7674357897008
 20
294.4331832792775
 30
0.0
 40
30.0
  1
6
 41
0.8
  7
EXT08
 72
     1
 11
2650.7674357896999
 21
294.4331832792775
 31
0.0
  0
TEXT
  5
1C8CDE6AA74D
  8
MOJI
 10
2718.1038327948818
 20
354.4331832792775
 30
0.0
 40
30.0
  1
サ ヤ 管
 41
0.8
  7
EXT08
 72
     1
 11
2774.1038327948818
 21
354.4331832792775
 31
0.0
  0
TEXT
  5
1C8CDE6AA74E
  8
MOJI
 10
2638.7674357897008
 20
414.4331832792775
 30
0.0
 40
30.0
  1
4
 41
0.8
  7
EXT08
 72
     1
 11
2650.7674357896999
 21
414.4331832792775
 31
0.0
  0
TEXT
  5
1C8CDE6AA750
  8
MOJI
 10
2965.6866661339418
 20
294.4331832792775
 30
0.0
 40
30.0
  1
SUS
 41
0.8
  7
EXT08
 72
     1
 11
3001.1152375625138
 21
294.4331832792775
 31
0.0
  0
TEXT
  5
1C8CDE6AA751
  8
MOJI
 10
2953.6866661339418
 20
354.4331832792775
 30
0.0
 40
30.0
  1
SPCC
 41
0.8
  7
EXT08
 72
     1
 11
3001.1152375625138
 21
354.4331832792775
 31
0.0
  0
TEXT
  5
1C8CDE6AA752
  8
MOJI
 10
3229.917909786881
 20
354.4331832792775
 30
0.0
 40
30.0
  1
溶融亜鉛めっき
 41
0.8
  7
EXT08
 72
     1
 11
3325.917909786881
 21
354.4331832792775
 31
0.0
  0
LINE
  5
1C8CDE6AA753
  8
MOJI
 10
2612.1082247774061
 20
519.3972903773016
 30
0.0
 11
3513.4267182564508
 21
519.3972903773016
 31
0.0
  0
LINE
  5
1C8CDE6AA754
  8
MOJI
 10
2612.1082247774061
 20
579.39729037730172
 30
0.0
 11
3513.4267182564508
 21
579.39729037730172
 31
0.0
  0
LINE
  5
1C8CDE6AA755
  8
MOJI
 10
2612.1082247774061
 20
699.39729037730172
 30
0.0
 11
3513.4267182564522
 21
699.39729037730172
 31
0.0
  0
LINE
  5
1C8CDE6AA756
  8
MOJI
 10
3140.9292722891628
 20
639.39729037730172
 30
0.0
 11
3513.4267182564522
 21
639.39729037730172
 31
0.0
  0
LINE
  5
1C8CDE6AA757
  8
MOJI
 10
2612.1082247774061
 20
639.39729037730172
 30
0.0
 11
3408.1934019613559
 21
639.39729037730172
 31
0.0
  0
TEXT
  5
1C8CDE6AA758
  8
MOJI
 10
2641.053150075415
 20
594.4331832792775
 30
0.0
 40
30.0
  1
1
 41
0.8
  7
EXT08
 72
     1
 11
2650.7674357896999
 21
594.4331832792775
 31
0.0
  0
TEXT
  5
1C8CDE6AA759
  8
MOJI
 10
2705.3038327948811
 20
534.43318327927739
 30
0.0
 40
30.0
  1
支      柱
 41
0.8
  7
EXT08
 72
     1
 11
2774.1038327948809
 21
534.43318327927739
 31
0.0
  0
TEXT
  5
1C8CDE6AA75A
  8
MOJI
 10
2639.3388643611288
 20
534.43318327927739
 30
0.0
 40
30.0
  1
2
 41
0.8
  7
EXT08
 72
     1
 11
2650.7674357896999
 21
534.43318327927739
 31
0.0
  0
TEXT
  5
1C8CDE6AA75B
  8
MOJI
 10
2706.1038327948818
 20
654.43318327927739
 30
0.0
 40
30.0
  1
品      名
 41
0.8
  7
EXT08
 72
     1
 11
2774.1038327948818
 21
654.43318327927739
 31
0.0
  0
TEXT
  5
1C8CDE6AA75C
  8
MOJI
 10
2625.1674357897009
 20
654.43318327927739
 30
0.0
 40
30.0
  1
部番
 41
0.8
  7
EXT08
 72
     1
 11
2650.7674357896999
 21
654.43318327927739
 31
0.0
  0
TEXT
  5
1C8CDE6AA75D
  8
MOJI
 10
3156.317909786881
 20
534.43318327927739
 30
0.0
 40
30.0
  1
亜鉛めっき＋静電粉体塗装
 41
0.8
  7
EXT08
 72
     1
 11
3325.917909786881
 21
534.43318327927739
 31
0.0
  0
TEXT
  5
1C8CDE6AA75F
  8
MOJI
 10
2934.2580947053711
 20
534.43318327927739
 30
0.0
 40
30.0
  1
STK400
 41
0.8
  7
EXT08
 72
     1
 11
3001.1152375625138
 21
534.43318327927739
 31
0.0
  0
TEXT
  5
1C8CDE6AA760
  8
MOJI
 10
2932.3152375625132
 20
654.43318327927739
 30
0.0
 40
30.0
  1
材      質
 41
0.8
  7
EXT08
 72
     1
 11
3001.1152375625138
 21
654.43318327927739
 31
0.0
  0
TEXT
  5
1C8CDE6AA762
  8
MOJI
 10
3213.6893383583101
 20
654.43318327927739
 30
0.0
 40
30.0
  1
摘            要
 41
0.8
  7
EXT08
 72
     1
 11
3325.917909786881
 21
654.43318327927739
 31
0.0
  0
TEXT
  5
1C8CDE6AA763
  8
MOJI
 10
2691.0752613663099
 20
594.4331832792775
 30
0.0
 40
30.0
  1
頭部キャップ
 41
0.8
  7
EXT08
 72
     1
 11
2774.1038327948818
 21
594.4331832792775
 31
0.0
  0
LINE
  5
1C8CDE6AA8D8
  8
CENTER
 10
842.79852806736915
 20
1941.1075377745469
 30
0.0
 11
842.79852806736915
 21
2197.1352430310758
 31
0.0
  0
LINE
  5
1C8CDE6AA8D9
  8
CENTER
 10
714.78467543910483
 20
2069.1213904028118
 30
0.0
 11
970.81238069563358
 21
2069.1213904028118
 31
0.0
  0
CIRCLE
  5
1C8CDE6AA8E3
  8
MOJI
 10
2529.1608503401262
 20
1758.829175757691
 30
0.0
 40
24.0
  0
SOLID
  5
1C8CDE6AA9A7
  8
MOJI
  6
CONTINUOUS
 10
1774.9645074279699
 20
1769.2670318752309
 30
0.0
 11
1770.092974139938
 21
1773.818142494416
 31
0.0
 12
1758.875408926403
 22
1756.9279873207281
 32
0.0
 13
1758.875408926403
 23
1756.9279873207281
 33
0.0
  0
LINE
  5
1C8CDE6AA9A8
  8
MOJI
  6
CONTINUOUS
 10
1758.875408926403
 20
1756.9279873207299
 30
0.0
 11
1896.241815335299
 21
1903.9657276598671
 31
0.0
  0
TEXT
  5
1C8CDE6AA9A9
  8
MOJI
 10
1908.591750266283
 20
1918.446619420728
 30
0.0
 40
30.0
  1
1
 41
0.8
  7
EXT08
 72
     2
 11
1921.1631788377119
 21
1933.446619420728
 31
0.0
 73
     2
  0
CIRCLE
  5
1C8CDE6AA9AA
  8
MOJI
 10
1919.3478066280099
 20
1934.383320290952
 30
0.0
 40
24.0
  0
LINE
  5
1C8CDE6AA9AB
  8
MOJI
 10
1896.241815335299
 20
1903.9657276598671
 30
0.0
 11
2125.9178089446391
 21
1903.9657276598671
 31
0.0
  0
TEXT
  5
1C8CDE6AA9AC
  8
MOJI
 10
1951.0745085637759
 20
1915.828146930618
 30
0.0
 40
30.0
  1
頭部キャップ
 41
0.8
  7
EXT08
  0
LINE
  5
1C8CDE6AA9AD
  8
SJC2
 10
1715.882522223224
 20
943.07145084106037
 30
0.0
 11
1743.040597664836
 21
943.07145084106037
 31
0.0
  0
LINE
  5
1C8CDE6AA9AE
  8
HASEN
 10
1788.4615399440299
 20
955.4077111245241
 30
0.0
 11
1788.4615399440299
 21
563.4077111245241
 31
0.0
  0
LINE
  5
1C8CDE6AA9AF
  8
HASEN
 10
1670.46159994403
 20
955.4077111245241
 30
0.0
 11
1670.46159994403
 21
563.4077111245241
 31
0.0
  0
LINE
  5
1C8CDE6AA9B0
  8
SJC
 10
1786.611829776132
 20
997.90628971132526
 30
0.0
 11
1786.611829776132
 21
963.4077111245241
 31
0.0
1001
ACAD
1000
ASC_BOUNDS
1002
{
1070
    19
1002
}
  0
LINE
  5
1C8CDE6AA9B1
  8
SJC
 10
1672.31129011193
 20
997.90628971132207
 30
0.0
 11
1672.31129011193
 21
963.4077111245241
 31
0.0
1001
ACAD
1000
ASC_BOUNDS
1002
{
1070
    19
1002
}
  0
LINE
  5
1C8CDE6AA9B2
  8
SJC
 10
1786.6118297761309
 20
963.4077111245241
 30
0.0
 11
2014.5832373409889
 21
963.4077111245241
 31
0.0
1001
ACAD
1000
ASC_BOUNDS
1002
{
1070
    19
1002
}
  0
LINE
  5
1C8CDE6AA9B3
  8
HASEN
 10
1736.901478295182
 20
1055.0825135401719
 30
0.0
 11
1736.906900830083
 21
1065.841535825718
 31
0.0
  0
LINE
  5
1C8CDE6AA9B4
  8
SJC2
 10
1736.901478295182
 20
1055.0825135401719
 30
0.0
 11
1736.8983957738219
 21
1048.96638582332
 31
0.0
  0
LINE
  5
1C8CDE6AA9B5
  8
HASEN
 10
1722.021641592881
 20
1055.0825135401731
 30
0.0
 11
1722.016219057979
 21
1065.841535825718
 31
0.0
  0
LINE
  5
1C8CDE6AA9B6
  8
SJC2
 10
1722.024724114242
 20
1048.966385823318
 30
0.0
 11
1722.021641592883
 21
1055.0825135401701
 31
0.0
  0
CIRCLE
  5
1C8CDE6AA9B7
  8
SJC2
 10
1729.461559944031
 20
1063.521122129757
 30
0.0
 40
11.25
  0
ARC
  5
1C8CDE6AA9B8
  8
SJC2
 10
1729.461559944031
 20
1049.937711124524
 30
0.0
 40
7.5
 50
187.4412803380886
 51
352.55871966193251
  0
ARC
  5
1C8CDE6AA9B9
  8
SJC2
 10
1729.461559944031
 20
1064.937711124524
 30
0.0
 40
7.5
 50
6.9215347325336296
 51
173.07846526744521
  0
CIRCLE
  5
1C8CDE6AA9BA
  8
SJC2
 10
1729.461559944031
 20
1063.521122129757
 30
0.0
 40
9.2499999999997726
  0
ARC
  5
1C8CDE6AA9BB
  8
SJC2
 10
1746.09442994403
 20
972.18042912452404
 30
0.0
 40
10.0
 50
105.56144999999999
 51
164.99999
  0
LINE
  5
1C8CDE6AA9BC
  8
SJC2
 10
1736.43512994403
 20
974.76862512452408
 30
0.0
 11
1733.52967994403
 21
963.92534912452402
 31
0.0
  0
ARC
  5
1C8CDE6AA9BD
  8
SJC2
 10
1739.4615599440299
 20
965.15256112452425
 30
0.0
 40
1.0
 50
98.519618000000008
 51
179.99999
  0
LINE
  5
1C8CDE6AA9BE
  8
SJC2
 10
1734.09082994403
 20
966.01955012452379
 30
0.0
 11
1738.9632099440289
 21
966.01955012452379
 31
0.0
  0
ARC
  5
1C8CDE6AA9BF
  8
SJC2
 10
1719.4615599440299
 20
965.15256112452425
 30
0.0
 40
1.0
 50
0.0000025044777
 51
81.480380000000011
  0
ARC
  5
1C8CDE6AA9C0
  8
SJC2
 10
1712.82868994403
 20
972.18042912452404
 30
0.0
 40
10.0
 50
15.0
 51
74.43854300000001
  0
LINE
  5
1C8CDE6AA9C1
  8
SJC2
 10
1722.48798994403
 20
974.7686271245243
 30
0.0
 11
1725.39343994403
 21
963.92535212452401
 31
0.0
  0
LINE
  5
1C8CDE6AA9C2
  8
SJC2
 10
1719.95990994403
 20
966.01955012452379
 30
0.0
 11
1724.83228994403
 21
966.01955012452379
 31
0.0
  0
ARC
  5
1C8CDE6AA9C3
  8
SJC2
 10
1729.4615599440299
 20
1031.907711124524
 30
0.0
 40
55.0
 50
278.55011000000002
 51
0.0
  0
ARC
  5
1C8CDE6AA9C4
  8
SJC2
 10
1729.4615599440299
 20
1031.907711124524
 30
0.0
 40
52.0
 50
180.0
 51
0.0
  0
ARC
  5
1C8CDE6AA9C5
  8
SJC2
 10
1729.4615599440299
 20
1031.907711124524
 30
0.0
 40
55.0
 50
180.0
 51
261.44988999999998
  0
ARC
  5
1C8CDE6AA9C6
  8
SJC2
 10
1729.4615599440269
 20
1029.3892066058249
 30
0.0
 40
66.547673625836737
 50
2.1688834420140779
 51
177.83111655798581
  0
ARC
  5
1C8CDE6AA9C7
  8
SJC2
 10
1729.4615599440269
 20
1029.3796404982179
 30
0.0
 40
55.058070626311341
 50
2.631743565752763
 51
177.368256434247
  0
ARC
  5
1C8CDE6AA9C8
  8
SJC2
 10
1729.4615599440269
 20
1029.350344585632
 30
0.0
 40
52.062847824668779
 50
2.8155451314765951
 51
177.18445486852301
  0
TEXT
  5
1C8CDE6AA9C9
  8
MOJI
 10
1484.365369457166
 20
974.08228219751607
 30
0.0
 40
30.0
  1
GL
 41
0.8
  7
EXT08
  0
LINE
  5
1C8CDE6AA9CA
  8
SJC2
 10
1804.4615599440299
 20
963.40771112452455
 30
0.0
 11
1804.4615599440299
 21
961.40771112452444
 31
0.0
  0
LINE
  5
1C8CDE6AA9CB
  8
SJC2
 10
1799.9052799440301
 20
960.66657112452435
 30
0.0
 11
1798.9926799440309
 21
957.26065112452432
 31
0.0
  0
ARC
  5
1C8CDE6AA9CC
  8
SJC2
 10
1796.57787994403
 20
957.90771112452421
 30
0.0
 40
2.5
 50
270.00000000000011
 51
344.99999000000008
  0
ARC
  5
1C8CDE6AA9CD
  8
SJC2
 10
1800.8712199440311
 20
960.40771112452444
 30
0.0
 40
1.0
 50
89.999997000000079
 51
165.00000000000011
  0
LINE
  5
1C8CDE6AA9CE
  8
SJC2
 10
1744.7615599440301
 20
961.40771112452421
 30
0.0
 11
1744.7615599440301
 21
921.54105112452453
 31
0.0
  0
LINE
  5
1C8CDE6AA9CF
  8
SJC2
 10
1654.4615599440299
 20
963.4077111245241
 30
0.0
 11
1654.4615599440299
 21
961.40771112452421
 31
0.0
  0
ARC
  5
1C8CDE6AA9D0
  8
SJC2
 10
1658.0518999440301
 20
960.40771112452421
 30
0.0
 40
1.0
 50
15.0
 51
90.000003000000007
  0
ARC
  5
1C8CDE6AA9D1
  8
SJC2
 10
1662.34523994403
 20
957.90771112452421
 30
0.0
 40
2.5
 50
195.00001
 51
270.0
  0
LINE
  5
1C8CDE6AA9D2
  8
SJC2
 10
1659.0178399440299
 20
960.66657112452413
 30
0.0
 11
1659.93043994403
 21
957.2606511245242
 31
0.0
  0
LINE
  5
1C8CDE6AA9D3
  8
SJC2
 10
1714.1615599440299
 20
961.40771112452421
 30
0.0
 11
1714.1615599440299
 21
921.54105112452453
 31
0.0
  0
LINE
  5
1C8CDE6AA9D4
  8
SJC2
 10
1744.7615599440301
 20
921.54105112452476
 30
0.0
 11
1714.1615599440299
 21
921.54105112452453
 31
0.0
  0
LINE
  5
1C8CDE6AA9D5
  8
SJC2
 10
1662.34523994403
 20
955.4077111245241
 30
0.0
 11
1796.57787994403
 21
955.4077111245241
 31
0.0
  0
LINE
  5
1C8CDE6AA9D6
  8
SJC2
 10
1654.4615599440299
 20
961.40771112452421
 30
0.0
 11
1804.4615599440299
 21
961.40771112452421
 31
0.0
  0
LINE
  5
1C8CDE6AA9D7
  8
SJC2
 10
1654.4615599440299
 20
963.4077111245241
 30
0.0
 11
1804.4615599440299
 21
963.4077111245241
 31
0.0
  0
LINE
  5
1C8CDE6AA9D8
  8
HATCH
 10
1790.0615399440301
 20
942.621300862309
 30
0.0
 11
1810.8479502062451
 21
963.4077111245233
 31
0.0
  0
LINE
  5
1C8CDE6AA9D9
  8
HATCH
 10
1790.0615399440301
 20
920.52421395023009
 30
0.0
 11
1832.945037118325
 21
963.4077111245241
 31
0.0
  0
LINE
  5
1C8CDE6AA9DA
  8
HATCH
 10
1790.0615399440301
 20
898.42712703814993
 30
0.0
 11
1855.0421240304049
 21
963.4077111245241
 31
0.0
  0
LINE
  5
1C8CDE6AA9DB
  8
HATCH
 10
1790.0615399440301
 20
743.74751865359269
 30
0.0
 11
1879.4624309734129
 21
833.14840968297449
 31
0.0
  0
LINE
  5
1C8CDE6AA9DC
  8
HATCH
 10
1790.0615399440301
 20
765.84460556567228
 30
0.0
 11
1879.4624309734129
 21
855.24549659505408
 31
0.0
  0
LINE
  5
1C8CDE6AA9DD
  8
HATCH
 10
1579.4624309734129
 20
908.79888718832808
 30
0.0
 11
1634.071254909609
 21
963.4077111245233
 31
0.0
  0
LINE
  5
1C8CDE6AA9DE
  8
HATCH
 10
1535.5500343694839
 20
963.4077111245241
 30
0.0
 11
1569.5673327739221
 21
929.39041272008478
 31
0.0
  0
LINE
  5
1C8CDE6AA9DF
  8
HATCH
 10
1520.5500343694839
 20
948.40771112452319
 30
0.0
 11
1539.5673327739221
 21
929.39041272008478
 31
0.0
  0
LINE
  5
1C8CDE6AA9E0
  8
HATCH
 10
1528.0500343694839
 20
955.9077111245233
 30
0.0
 11
1554.5673327739221
 21
929.39041272008478
 31
0.0
  0
LINE
  5
1C8CDE6AA9E1
  8
HATCH
 10
1520.5500343694839
 20
963.4077111245241
 30
0.0
 11
1486.532735965045
 21
929.39041272008478
 31
0.0
  0
LINE
  5
1C8CDE6AA9E2
  8
HATCH
 10
1505.5500343694839
 20
963.4077111245241
 30
0.0
 11
1471.532735965045
 21
929.39041272008478
 31
0.0
  0
LINE
  5
1C8CDE6AA9E3
  8
HATCH
 10
1535.5500343694839
 20
963.4077111245241
 30
0.0
 11
1501.532735965045
 21
929.39041272008478
 31
0.0
  0
LINE
  5
1C8CDE6AA9E4
  8
HATCH
 10
1579.4624309734129
 20
732.0221918916908
 30
0.0
 11
1668.8615999440301
 21
821.42136086230846
 31
0.0
  0
LINE
  5
1C8CDE6AA9E5
  8
HATCH
 10
1629.5095279422069
 20
737.87511503632595
 30
0.0
 11
1668.8615999440301
 21
777.22718703814894
 31
0.0
  0
LINE
  5
1C8CDE6AA9E6
  8
HATCH
 10
1579.4624309734129
 20
864.60471336416867
 30
0.0
 11
1668.8615999440301
 21
954.00388233478577
 31
0.0
  0
LINE
  5
1C8CDE6AA9E7
  8
HATCH
 10
1579.4624309734129
 20
886.70180027624792
 30
0.0
 11
1654.4615599440299
 21
961.7009292468656
 31
0.0
  0
LINE
  5
1C8CDE6AA9E8
  8
SJC
 10
1449.630602808852
 20
963.4077111245241
 30
0.0
 11
1672.3112901119291
 21
963.4077111245241
 31
0.0
1001
ACAD
1000
ASC_BOUNDS
1002
{
1070
    19
1005
0
1002
}
  0
LINE
  5
1C8CDE6AA9E9
  8
HATCH
 10
1790.0615399440301
 20
721.65043174151288
 30
0.0
 11
1797.2862232388429
 21
728.87511503632595
 31
0.0
  0
POLYLINE
  5
1C8CDE6AA9EA
  8
HATCH
  6
CONTINUOUS
 66
     1
 10
0.0
 20
0.0
 30
0.0
 70
     1
  0
VERTEX
  5
1C8CDE6ACBEB
  8
HATCH
  6
CONTINUOUS
 10
1905.7539943501929
 20
513.81231112452394
 30
0.0
 42
0.138281
  0
VERTEX
  5
1C8CDE6ACBEC
  8
HATCH
  6
CONTINUOUS
 10
1912.198069350193
 20
513.89621612452356
 30
0.0
 42
0.107061
  0
VERTEX
  5
1C8CDE6ACBED
  8
HATCH
  6
CONTINUOUS
 10
1919.443533350192
 20
517.8652471245241
 30
0.0
 42
0.08054
  0
VERTEX
  5
1C8CDE6ACBEE
  8
HATCH
  6
CONTINUOUS
 10
1925.0117243501929
 20
524.53531212452435
 30
0.0
 42
0.068375
  0
VERTEX
  5
1C8CDE6ACBEF
  8
HATCH
  6
CONTINUOUS
 10
1928.974444350192
 20
533.95168012452439
 30
0.0
 42
0.068375
  0
VERTEX
  5
1C8CDE6ACBF0
  8
HATCH
  6
CONTINUOUS
 10
1930.250811350192
 20
544.0878541245238
 30
0.0
 42
0.08054
  0
VERTEX
  5
1C8CDE6ACBF1
  8
HATCH
  6
CONTINUOUS
 10
1928.7636493501909
 20
552.64839512452454
 30
0.0
 42
0.107061
  0
VERTEX
  5
1C8CDE6ACBF2
  8
HATCH
  6
CONTINUOUS
 10
1924.4734093501929
 20
559.70840912452422
 30
0.0
 42
0.138281
  0
VERTEX
  5
1C8CDE6ACBF3
  8
HATCH
  6
CONTINUOUS
 10
1918.9346293501919
 20
563.00311012452403
 30
0.0
 42
0.138281
  0
VERTEX
  5
1C8CDE6ACBF4
  8
HATCH
  6
CONTINUOUS
 10
1912.490554350193
 20
562.91920512452452
 30
0.0
 42
0.107061
  0
VERTEX
  5
1C8CDE6ACBF5
  8
HATCH
  6
CONTINUOUS
 10
1905.2450913501921
 20
558.95017412452387
 30
0.0
 42
0.08054
  0
VERTEX
  5
1C8CDE6ACBF6
  8
HATCH
  6
CONTINUOUS
 10
1899.6769003501929
 20
552.28010912452373
 30
0.0
 42
0.068375
  0
VERTEX
  5
1C8CDE6ACBF7
  8
HATCH
  6
CONTINUOUS
 10
1895.7141803501941
 20
542.86374112452359
 30
0.0
 42
0.068375
  0
VERTEX
  5
1C8CDE6ACBF8
  8
HATCH
  6
CONTINUOUS
 10
1894.4378123501931
 20
532.72756712452417
 30
0.0
 42
0.08054
  0
VERTEX
  5
1C8CDE6ACBF9
  8
HATCH
  6
CONTINUOUS
 10
1895.9249743501921
 20
524.16702612452355
 30
0.0
 42
0.107061
  0
VERTEX
  5
1C8CDE6ACBFA
  8
HATCH
  6
CONTINUOUS
 10
1900.215214350193
 20
517.10701312452318
 30
0.0
 42
0.138281
  0
SEQEND
  5
1C8CDE6ACBFB
  8
HATCH
  6
CONTINUOUS
  0
POLYLINE
  5
1C8CDE6AA9FC
  8
HATCH
  6
CONTINUOUS
 66
     1
 10
0.0
 20
0.0
 30
0.0
 70
     1
  0
VERTEX
  5
1C8CDE6ACBFC
  8
HATCH
  6
CONTINUOUS
 10
1870.6762923501931
 20
513.81231112452394
 30
0.0
 42
0.138281
  0
VERTEX
  5
1C8CDE6ACBFD
  8
HATCH
  6
CONTINUOUS
 10
1877.1203673501921
 20
513.89621612452356
 30
0.0
 42
0.107061
  0
VERTEX
  5
1C8CDE6ACBFE
  8
HATCH
  6
CONTINUOUS
 10
1884.3658303501929
 20
517.8652471245241
 30
0.0
 42
0.08054
  0
VERTEX
  5
1C8CDE6ACBFF
  8
HATCH
  6
CONTINUOUS
 10
1889.9340213501921
 20
524.53531212452435
 30
0.0
 42
0.068375
  0
VERTEX
  5
1C8CDE6ACC00
  8
HATCH
  6
CONTINUOUS
 10
1893.896741350191
 20
533.95168012452439
 30
0.0
 42
0.068375
  0
VERTEX
  5
1C8CDE6ACC01
  8
HATCH
  6
CONTINUOUS
 10
1895.1731093501919
 20
544.0878541245238
 30
0.0
 42
0.08054
  0
VERTEX
  5
1C8CDE6ACC02
  8
HATCH
  6
CONTINUOUS
 10
1893.685947350192
 20
552.64839512452454
 30
0.0
 42
0.107061
  0
VERTEX
  5
1C8CDE6ACC03
  8
HATCH
  6
CONTINUOUS
 10
1889.395707350192
 20
559.70840912452422
 30
0.0
 42
0.138281
  0
VERTEX
  5
1C8CDE6ACC04
  8
HATCH
  6
CONTINUOUS
 10
1883.8569273501921
 20
563.00311012452403
 30
0.0
 42
0.138281
  0
VERTEX
  5
1C8CDE6ACC05
  8
HATCH
  6
CONTINUOUS
 10
1877.412852350192
 20
562.91920512452452
 30
0.0
 42
0.107061
  0
VERTEX
  5
1C8CDE6ACC06
  8
HATCH
  6
CONTINUOUS
 10
1870.1673883501919
 20
558.95017412452387
 30
0.0
 42
0.08054
  0
VERTEX
  5
1C8CDE6ACC07
  8
HATCH
  6
CONTINUOUS
 10
1864.5991973501921
 20
552.28010912452373
 30
0.0
 42
0.068375
  0
VERTEX
  5
1C8CDE6ACC08
  8
HATCH
  6
CONTINUOUS
 10
1860.6364773501921
 20
542.86374112452359
 30
0.0
 42
0.068375
  0
VERTEX
  5
1C8CDE6ACC09
  8
HATCH
  6
CONTINUOUS
 10
1859.3601103501919
 20
532.72756712452417
 30
0.0
 42
0.08054
  0
VERTEX
  5
1C8CDE6ACC0A
  8
HATCH
  6
CONTINUOUS
 10
1860.847272350193
 20
524.16702612452355
 30
0.0
 42
0.107061
  0
VERTEX
  5
1C8CDE6ACC0B
  8
HATCH
  6
CONTINUOUS
 10
1865.1375123501921
 20
517.10701312452318
 30
0.0
 42
0.138281
  0
SEQEND
  5
1C8CDE6ACC0C
  8
HATCH
  6
CONTINUOUS
  0
POLYLINE
  5
1C8CDE6AAA0E
  8
HATCH
  6
CONTINUOUS
 66
     1
 10
0.0
 20
0.0
 30
0.0
 70
     1
  0
VERTEX
  5
1C8CDE6ACC0D
  8
HATCH
  6
CONTINUOUS
 10
1835.598292350192
 20
513.81231112452394
 30
0.0
 42
0.138281
  0
VERTEX
  5
1C8CDE6ACC0E
  8
HATCH
  6
CONTINUOUS
 10
1842.0423673501921
 20
513.89621612452356
 30
0.0
 42
0.107061
  0
VERTEX
  5
1C8CDE6ACC0F
  8
HATCH
  6
CONTINUOUS
 10
1849.287830350193
 20
517.8652471245241
 30
0.0
 42
0.08054
  0
VERTEX
  5
1C8CDE6ACC10
  8
HATCH
  6
CONTINUOUS
 10
1854.856021350191
 20
524.53531212452435
 30
0.0
 42
0.068375
  0
VERTEX
  5
1C8CDE6ACC11
  8
HATCH
  6
CONTINUOUS
 10
1858.818741350191
 20
533.95168012452439
 30
0.0
 42
0.068375
  0
VERTEX
  5
1C8CDE6ACC12
  8
HATCH
  6
CONTINUOUS
 10
1860.095109350191
 20
544.0878541245238
 30
0.0
 42
0.08054
  0
VERTEX
  5
1C8CDE6ACC13
  8
HATCH
  6
CONTINUOUS
 10
1858.607947350192
 20
552.64839512452454
 30
0.0
 42
0.107061
  0
VERTEX
  5
1C8CDE6ACC14
  8
HATCH
  6
CONTINUOUS
 10
1854.317707350192
 20
559.70840912452422
 30
0.0
 42
0.138281
  0
VERTEX
  5
1C8CDE6ACC15
  8
HATCH
  6
CONTINUOUS
 10
1848.778927350191
 20
563.00311012452403
 30
0.0
 42
0.138281
  0
VERTEX
  5
1C8CDE6ACC16
  8
HATCH
  6
CONTINUOUS
 10
1842.334852350192
 20
562.91920512452452
 30
0.0
 42
0.107061
  0
VERTEX
  5
1C8CDE6ACC17
  8
HATCH
  6
CONTINUOUS
 10
1835.0893883501919
 20
558.95017412452387
 30
0.0
 42
0.08054
  0
VERTEX
  5
1C8CDE6ACC18
  8
HATCH
  6
CONTINUOUS
 10
1829.5211973501921
 20
552.28010912452373
 30
0.0
 42
0.068375
  0
VERTEX
  5
1C8CDE6ACC19
  8
HATCH
  6
CONTINUOUS
 10
1825.5584773501921
 20
542.86374112452359
 30
0.0
 42
0.068375
  0
VERTEX
  5
1C8CDE6ACC1A
  8
HATCH
  6
CONTINUOUS
 10
1824.2821103501919
 20
532.72756712452417
 30
0.0
 42
0.08054
  0
VERTEX
  5
1C8CDE6ACC1B
  8
HATCH
  6
CONTINUOUS
 10
1825.769272350193
 20
524.16702612452355
 30
0.0
 42
0.107061
  0
VERTEX
  5
1C8CDE6ACC1C
  8
HATCH
  6
CONTINUOUS
 10
1830.0595123501921
 20
517.10701312452318
 30
0.0
 42
0.138281
  0
SEQEND
  5
1C8CDE6ACC1D
  8
HATCH
  6
CONTINUOUS
  0
LINE
  5
1C8CDE6AAA20
  8
SJC
  6
CONTINUOUS
 10
1929.4624309734129
 20
563.4077111245241
 30
0.0
 11
1929.4624309734129
 21
513.4077111245241
 31
0.0
  0
LINE
  5
1C8CDE6AAA21
  8
SJC2
 10
1791.9615599440299
 20
563.4077111245241
 30
0.0
 11
1791.9615599440299
 21
561.80773112452425
 31
0.0
  0
LINE
  5
1C8CDE6AAA22
  8
SJC2
 10
1666.9615599440299
 20
563.4077111245241
 30
0.0
 11
1666.9615599440299
 21
561.80773112452425
 31
0.0
  0
LINE
  5
1C8CDE6AAA23
  8
SJC2
 10
1666.9615599440299
 20
563.4077111245241
 30
0.0
 11
1791.9615599440299
 21
563.4077111245241
 31
0.0
  0
LINE
  5
1C8CDE6AAA24
  8
SJC2
 10
1666.9615599440299
 20
561.80773112452425
 30
0.0
 11
1791.9615599440299
 21
561.80773112452425
 31
0.0
  0
LINE
  5
1C8CDE6AAA25
  8
HATCH
 10
1790.0615399440301
 20
566.97082335695563
 30
0.0
 11
1879.4624309734129
 21
656.37171438633766
 31
0.0
  0
LINE
  5
1C8CDE6AAA26
  8
HATCH
 10
1808.5955146236779
 20
563.4077111245241
 30
0.0
 11
1879.4624309734129
 21
634.27462747425795
 31
0.0
  0
LINE
  5
1C8CDE6AAA27
  8
HATCH
 10
1790.0615399440301
 20
589.06791026903568
 30
0.0
 11
1879.4624309734129
 21
678.46880129841702
 31
0.0
  0
POLYLINE
  5
1C8CDE6AAA28
  8
HATCH
  6
CONTINUOUS
 66
     1
 10
0.0
 20
0.0
 30
0.0
 70
     1
  0
VERTEX
  5
1C8CDE6ACC1E
  8
HATCH
  6
CONTINUOUS
 10
1576.9851163888929
 20
513.81231112452394
 30
0.0
 42
0.138281
  0
VERTEX
  5
1C8CDE6ACC1F
  8
HATCH
  6
CONTINUOUS
 10
1583.429191388894
 20
513.89621612452356
 30
0.0
 42
0.107061
  0
VERTEX
  5
1C8CDE6ACC20
  8
HATCH
  6
CONTINUOUS
 10
1590.6746553888941
 20
517.8652471245241
 30
0.0
 42
0.08054
  0
VERTEX
  5
1C8CDE6ACC21
  8
HATCH
  6
CONTINUOUS
 10
1596.242845388892
 20
524.53531212452435
 30
0.0
 42
0.068375
  0
VERTEX
  5
1C8CDE6ACC22
  8
HATCH
  6
CONTINUOUS
 10
1600.2055663888921
 20
533.95168012452439
 30
0.0
 42
0.068375
  0
VERTEX
  5
1C8CDE6ACC23
  8
HATCH
  6
CONTINUOUS
 10
1601.481933388894
 20
544.0878541245238
 30
0.0
 42
0.08054
  0
VERTEX
  5
1C8CDE6ACC24
  8
HATCH
  6
CONTINUOUS
 10
1599.994771388893
 20
552.64839512452454
 30
0.0
 42
0.107061
  0
VERTEX
  5
1C8CDE6ACC25
  8
HATCH
  6
CONTINUOUS
 10
1595.704531388893
 20
559.70840912452422
 30
0.0
 42
0.138281
  0
VERTEX
  5
1C8CDE6ACC26
  8
HATCH
  6
CONTINUOUS
 10
1590.165751388892
 20
563.00311012452403
 30
0.0
 42
0.138281
  0
VERTEX
  5
1C8CDE6ACC27
  8
HATCH
  6
CONTINUOUS
 10
1583.721676388893
 20
562.91920512452452
 30
0.0
 42
0.107061
  0
VERTEX
  5
1C8CDE6ACC28
  8
HATCH
  6
CONTINUOUS
 10
1576.4762123888929
 20
558.95017412452387
 30
0.0
 42
0.08054
  0
VERTEX
  5
1C8CDE6ACC29
  8
HATCH
  6
CONTINUOUS
 10
1570.908022388893
 20
552.28010912452373
 30
0.0
 42
0.068375
  0
VERTEX
  5
1C8CDE6ACC2A
  8
HATCH
  6
CONTINUOUS
 10
1566.9453013888931
 20
542.86374112452359
 30
0.0
 42
0.068375
  0
VERTEX
  5
1C8CDE6ACC2B
  8
HATCH
  6
CONTINUOUS
 10
1565.6689343888929
 20
532.72756712452417
 30
0.0
 42
0.08054
  0
VERTEX
  5
1C8CDE6ACC2C
  8
HATCH
  6
CONTINUOUS
 10
1567.156096388894
 20
524.16702612452355
 30
0.0
 42
0.107061
  0
VERTEX
  5
1C8CDE6ACC2D
  8
HATCH
  6
CONTINUOUS
 10
1571.446336388892
 20
517.10701312452318
 30
0.0
 42
0.138281
  0
SEQEND
  5
1C8CDE6ACC2E
  8
HATCH
  6
CONTINUOUS
  0
LINE
  5
1C8CDE6AAA3A
  8
SJC
  6
CONTINUOUS
 10
1529.4624309734129
 20
563.4077111245241
 30
0.0
 11
1529.4624309734129
 21
513.4077111245241
 31
0.0
  0
POLYLINE
  5
1C8CDE6AAA3B
  8
HATCH
  6
CONTINUOUS
 66
     1
 10
0.0
 20
0.0
 30
0.0
 70
     1
  0
VERTEX
  5
1C8CDE6ACC2F
  8
HATCH
  6
CONTINUOUS
 10
1541.907413388893
 20
513.81231112452394
 30
0.0
 42
0.138281
  0
VERTEX
  5
1C8CDE6ACC30
  8
HATCH
  6
CONTINUOUS
 10
1548.351488388894
 20
513.89621612452356
 30
0.0
 42
0.107061
  0
VERTEX
  5
1C8CDE6ACC31
  8
HATCH
  6
CONTINUOUS
 10
1555.596952388893
 20
517.8652471245241
 30
0.0
 42
0.08054
  0
VERTEX
  5
1C8CDE6ACC32
  8
HATCH
  6
CONTINUOUS
 10
1561.165143388894
 20
524.53531212452435
 30
0.0
 42
0.068375
  0
VERTEX
  5
1C8CDE6ACC33
  8
HATCH
  6
CONTINUOUS
 10
1565.127863388893
 20
533.95168012452439
 30
0.0
 42
0.068375
  0
VERTEX
  5
1C8CDE6ACC34
  8
HATCH
  6
CONTINUOUS
 10
1566.4042303888939
 20
544.0878541245238
 30
0.0
 42
0.08054
  0
VERTEX
  5
1C8CDE6ACC35
  8
HATCH
  6
CONTINUOUS
 10
1564.917068388894
 20
552.64839512452454
 30
0.0
 42
0.107061
  0
VERTEX
  5
1C8CDE6ACC36
  8
HATCH
  6
CONTINUOUS
 10
1560.626828388894
 20
559.70840912452422
 30
0.0
 42
0.138281
  0
VERTEX
  5
1C8CDE6ACC37
  8
HATCH
  6
CONTINUOUS
 10
1555.088048388893
 20
563.00311012452403
 30
0.0
 42
0.138281
  0
VERTEX
  5
1C8CDE6ACC38
  8
HATCH
  6
CONTINUOUS
 10
1548.643973388894
 20
562.91920512452452
 30
0.0
 42
0.107061
  0
VERTEX
  5
1C8CDE6ACC39
  8
HATCH
  6
CONTINUOUS
 10
1541.398510388894
 20
558.95017412452387
 30
0.0
 42
0.08054
  0
VERTEX
  5
1C8CDE6ACC3A
  8
HATCH
  6
CONTINUOUS
 10
1535.8303193888919
 20
552.28010912452373
 30
0.0
 42
0.068375
  0
VERTEX
  5
1C8CDE6ACC3B
  8
HATCH
  6
CONTINUOUS
 10
1531.867599388893
 20
542.86374112452359
 30
0.0
 42
0.068375
  0
VERTEX
  5
1C8CDE6ACC3C
  8
HATCH
  6
CONTINUOUS
 10
1530.5912313888939
 20
532.72756712452417
 30
0.0
 42
0.08054
  0
VERTEX
  5
1C8CDE6ACC3D
  8
HATCH
  6
CONTINUOUS
 10
1532.0783933888929
 20
524.16702612452355
 30
0.0
 42
0.107061
  0
VERTEX
  5
1C8CDE6ACC3E
  8
HATCH
  6
CONTINUOUS
 10
1536.368634388894
 20
517.10701312452318
 30
0.0
 42
0.138281
  0
SEQEND
  5
1C8CDE6ACC3F
  8
HATCH
  6
CONTINUOUS
  0
POLYLINE
  5
1C8CDE6AAA4D
  8
HATCH
  6
CONTINUOUS
 66
     1
 10
0.0
 20
0.0
 30
0.0
 70
     1
  0
VERTEX
  5
1C8CDE6ACC40
  8
HATCH
  6
CONTINUOUS
 10
1612.062819388894
 20
513.81231112452394
 30
0.0
 42
0.138281
  0
VERTEX
  5
1C8CDE6ACC41
  8
HATCH
  6
CONTINUOUS
 10
1618.5068933888931
 20
513.89621612452356
 30
0.0
 42
0.107061
  0
VERTEX
  5
1C8CDE6ACC42
  8
HATCH
  6
CONTINUOUS
 10
1625.752357388893
 20
517.8652471245241
 30
0.0
 42
0.08054
  0
VERTEX
  5
1C8CDE6ACC43
  8
HATCH
  6
CONTINUOUS
 10
1631.320548388893
 20
524.53531212452435
 30
0.0
 42
0.068375
  0
VERTEX
  5
1C8CDE6ACC44
  8
HATCH
  6
CONTINUOUS
 10
1635.2832683888939
 20
533.95168012452439
 30
0.0
 42
0.068375
  0
VERTEX
  5
1C8CDE6ACC45
  8
HATCH
  6
CONTINUOUS
 10
1636.5596363888931
 20
544.0878541245238
 30
0.0
 42
0.08054
  0
VERTEX
  5
1C8CDE6ACC46
  8
HATCH
  6
CONTINUOUS
 10
1635.072473388894
 20
552.64839512452454
 30
0.0
 42
0.107061
  0
VERTEX
  5
1C8CDE6ACC47
  8
HATCH
  6
CONTINUOUS
 10
1630.782233388893
 20
559.70840912452422
 30
0.0
 42
0.138281
  0
VERTEX
  5
1C8CDE6ACC48
  8
HATCH
  6
CONTINUOUS
 10
1625.243454388893
 20
563.00311012452403
 30
0.0
 42
0.138281
  0
VERTEX
  5
1C8CDE6ACC49
  8
HATCH
  6
CONTINUOUS
 10
1618.7993793888929
 20
562.91920512452452
 30
0.0
 42
0.107061
  0
VERTEX
  5
1C8CDE6ACC4A
  8
HATCH
  6
CONTINUOUS
 10
1611.553915388894
 20
558.95017412452387
 30
0.0
 42
0.08054
  0
VERTEX
  5
1C8CDE6ACC4B
  8
HATCH
  6
CONTINUOUS
 10
1605.9857243888939
 20
552.28010912452373
 30
0.0
 42
0.068375
  0
VERTEX
  5
1C8CDE6ACC4C
  8
HATCH
  6
CONTINUOUS
 10
1602.0230043888939
 20
542.86374112452359
 30
0.0
 42
0.068375
  0
VERTEX
  5
1C8CDE6ACC4D
  8
HATCH
  6
CONTINUOUS
 10
1600.746636388893
 20
532.72756712452417
 30
0.0
 42
0.08054
  0
VERTEX
  5
1C8CDE6ACC4E
  8
HATCH
  6
CONTINUOUS
 10
1602.233799388893
 20
524.16702612452355
 30
0.0
 42
0.107061
  0
VERTEX
  5
1C8CDE6ACC4F
  8
HATCH
  6
CONTINUOUS
 10
1606.524039388893
 20
517.10701312452318
 30
0.0
 42
0.138281
  0
SEQEND
  5
1C8CDE6ACC50
  8
HATCH
  6
CONTINUOUS
  0
LINE
  5
1C8CDE6AAA5F
  8
SJC
  6
CONTINUOUS
 10
1929.4624309734129
 20
563.4077111245241
 30
0.0
 11
1529.4624309734129
 21
563.4077111245241
 31
0.0
1001
ACAD
1000
ASC_BOUNDS
1002
{
1070
    19
1005
0
1005
0
1005
0
1005
0
1005
0
1005
0
1005
0
1005
0
1002
}
  0
LINE
  5
1C8CDE6AAA60
  8
SJC
  6
CONTINUOUS
 10
1929.4624309734129
 20
513.4077111245241
 30
0.0
 11
1529.4624309734129
 21
513.4077111245241
 31
0.0
  0
LINE
  5
1C8CDE6AAA61
  8
HATCH
 10
1587.624645502882
 20
563.40771112452364
 30
0.0
 11
1668.8615999440301
 21
644.6446655656714
 31
0.0
  0
LINE
  5
1C8CDE6AAA62
  8
HATCH
 10
1609.721732414961
 20
563.4077111245241
 30
0.0
 11
1668.8615999440301
 21
622.54757865359215
 31
0.0
  0
LINE
  5
1C8CDE6AAA63
  8
HATCH
 10
1631.81881932704
 20
563.4077111245241
 30
0.0
 11
1668.8615999440301
 21
600.45049174151427
 31
0.0
  0
LINE
  5
1C8CDE6AAA64
  8
SJC2
 10
1672.3112901119291
 20
963.4077111245241
 30
0.0
 11
1672.3112901119291
 21
563.40771112452433
 31
0.0
  0
LINE
  5
1C8CDE6AAA65
  8
SJC
  6
CONTINUOUS
 10
1579.4624309734129
 20
963.4077111245241
 30
0.0
 11
1579.4624309734129
 21
563.4077111245241
 31
0.0
1001
ACAD
1000
ASC_BOUNDS
1002
{
1070
    19
1002
}
  0
LINE
  5
1C8CDE6AAA66
  8
SJC2
 10
1668.8615999440301
 20
955.4077111245241
 30
0.0
 11
1668.8615999440301
 21
563.4077111245241
 31
0.0
  0
LINE
  5
1C8CDE6AAA67
  8
HATCH
 10
1579.4624309734129
 20
687.82801806753184
 30
0.0
 11
1629.4624309734111
 21
737.82801806753014
 31
0.0
  0
LINE
  5
1C8CDE6AAA68
  8
HATCH
 10
1579.4624309734129
 20
709.92510497961109
 30
0.0
 11
1668.8615999440301
 21
799.32427395022887
 31
0.0
  0
LINE
  5
1C8CDE6AAA69
  8
SJC2
 10
1786.6118297761359
 20
963.40771112452398
 30
0.0
 11
1786.611829776132
 21
563.40771112452433
 31
0.0
  0
LINE
  5
1C8CDE6AAA6A
  8
SJC
  6
CONTINUOUS
 10
1879.4624309734129
 20
563.4077111245241
 30
0.0
 11
1879.4624309734129
 21
963.4077111245241
 31
0.0
1001
ACAD
1000
ASC_BOUNDS
1002
{
1070
    19
1002
}
  0
LINE
  5
1C8CDE6AAA6B
  8
SJC2
 10
1790.0615399440301
 20
955.4077111245241
 30
0.0
 11
1790.0615399440301
 21
563.4077111245241
 31
0.0
  0
LINE
  5
1C8CDE6AAA6C
  8
HATCH
 10
1790.0615399440301
 20
721.65043174151344
 30
0.0
 11
1879.4624309734129
 21
811.05132277089467
 31
0.0
  0
ARC
  5
1C8CDE6AAA6D
  8
SJC2
 10
1729.4615599440299
 20
1031.907711124524
 30
0.0
 40
66.5
 50
278.51961999999997
 51
0.0
  0
ARC
  5
1C8CDE6AAA6E
  8
SJC2
 10
1729.4615599440299
 20
1031.907711124524
 30
0.0
 40
66.5
 50
180.0
 51
261.48038000000003
  0
LINE
  5
1C8CDE6AAA6F
  8
SJC2
 10
1738.4615599440299
 20
965.15256112452425
 30
0.0
 11
1738.4615599440299
 21
963.4077111245241
 31
0.0
  0
ARC
  5
1C8CDE6AAA70
  8
SJC2
 10
1723.4615599440299
 20
963.4077111245241
 30
0.0
 40
2.0
 50
0.0
 51
15.0
  0
LINE
  5
1C8CDE6AAA71
  8
SJC2
 10
1720.4615599440299
 20
965.15256112452425
 30
0.0
 11
1720.4615599440299
 21
963.4077111245241
 31
0.0
  0
ARC
  5
1C8CDE6AAA72
  8
SJC2
 10
1735.4615599440299
 20
963.4077111245241
 30
0.0
 40
2.0
 50
164.99999
 51
180.0
  0
LINE
  5
1C8CDE6AAA73
  8
SJC
 10
1672.31129011193
 20
997.90628971132276
 30
0.0
 11
1672.31129011193
 21
963.4077111245241
 31
0.0
1001
ACAD
1000
ASC_BOUNDS
1002
{
1070
    19
1002
}
  0
LINE
  5
1C8CDE6AAA74
  8
SJC
 10
1786.611829776132
 20
997.90628971132503
 30
0.0
 11
1786.611829776132
 21
963.4077111245241
 31
0.0
1001
ACAD
1000
ASC_BOUNDS
1002
{
1070
    19
1002
}
  0
LINE
  5
1C8CDE6AAAE1
  8
SJC
 10
1672.31129011193
 20
1697.5140111287019
 30
0.0
 11
1672.31129011193
 21
1063.483773960894
 31
0.0
1001
ACAD
1000
ASC_BOUNDS
1002
{
1070
    19
1002
}
  0
LINE
  5
1C8CDE6AAAE2
  8
CENTER
 10
1729.4615599440299
 20
1808.5696792605031
 30
0.0
 11
1729.4615599440299
 21
468.24574299694541
 31
0.0
  0
LINE
  5
1C8CDE6AAAE3
  8
SJC
 10
1786.611829776132
 20
1697.5140111287019
 30
0.0
 11
1786.611829776132
 21
1063.4837739608829
 31
0.0
1001
ACAD
1000
ASC_BOUNDS
1002
{
1070
    19
1002
}
  0
LINE
  5
1C8CDE6AAAE4
  8
SJC
 10
1786.61182977613
 20
963.4077111245241
 30
0.0
 11
2014.583237340988
 21
963.4077111245241
 31
0.0
1001
ACAD
1000
ASC_BOUNDS
1002
{
1070
    19
1002
}
  0
TEXT
  5
1C8CDE6AAAE7
  8
MOJI
 10
2976.5438089910858
 20
594.4331832792775
 30
0.0
 40
30.0
  1
PC
 41
0.8
  7
EXT08
 72
     1
 11
3001.1152375625138
 21
594.4331832792775
 31
0.0
  0
LINE
  5
1C8CDE6AAAF9
  8
HASEN
 10
901.79850806736886
 20
921.81481112452411
 30
0.0
 11
901.79850806736886
 21
563.40771112452398
 31
0.0
  0
LINE
  5
1C8CDE6AAAFA
  8
SJC2
 10
899.94879789947197
 20
963.4077111245241
 30
0.0
 11
899.94879789947197
 21
563.40771112452398
 31
0.0
  0
LINE
  5
1C8CDE6AAAFB
  8
SJC2
 10
903.39850806736922
 20
921.81481112452411
 30
0.0
 11
903.39850806736922
 21
563.40771112452398
 31
0.0
  0
LINE
  5
1C8CDE6AAAFC
  8
HASEN
 10
783.79856806736905
 20
955.40771112452398
 30
0.0
 11
783.79856806736825
 21
563.40771112452398
 31
0.0
  0
ARC
  5
1C8CDE6AAAFD
  8
SJC2
 10
912.7082080673689
 20
960.40771112452398
 30
0.0
 40
1.0
 50
90.000003000000007
 51
164.99999
  0
ARC
  5
1C8CDE6AAAFE
  8
SJC2
 10
908.41486806736884
 20
957.90771112452398
 30
0.0
 40
2.5
 50
270.0
 51
345.0
  0
LINE
  5
1C8CDE6AAAFF
  8
SJC2
 10
901.39850806736911
 20
921.54105112452396
 30
0.0
 11
903.39850806736922
 21
921.54105112452396
 31
0.0
  0
LINE
  5
1C8CDE6AAB00
  8
SJC2
 10
901.39850806736911
 20
955.40771112452398
 30
0.0
 11
901.39850806736911
 21
921.54105112452396
 31
0.0
  0
LINE
  5
1C8CDE6AAB01
  8
SJC2
 10
911.74238806736867
 20
960.66649112452387
 30
0.0
 11
910.82978806736901
 21
957.26065112452397
 31
0.0
  0
ARC
  5
1C8CDE6AAB02
  8
SJC2
 10
912.70812806737013
 20
960.40771112452398
 30
0.0
 40
1.0
 50
90.000003000000007
 51
164.99999
  0
ARC
  5
1C8CDE6AAB03
  8
SJC2
 10
775.68220806736917
 20
957.90771112452398
 30
0.0
 40
2.5
 50
195.00001
 51
270.0
  0
LINE
  5
1C8CDE6AAB04
  8
SJC2
 10
772.35480806736905
 20
960.66657112452401
 30
0.0
 11
773.26740806736871
 21
957.26065112452397
 31
0.0
  0
LINE
  5
1C8CDE6AAB05
  8
SJC2
 10
775.68220806736917
 20
955.40771112452398
 30
0.0
 11
908.41486806736884
 21
955.40771112452398
 31
0.0
  0
LINE
  5
1C8CDE6AAB06
  8
SJC
 10
785.64825823526826
 20
963.40771112452398
 30
0.0
 11
899.94879789947015
 21
963.40771112452398
 31
0.0
  0
LINE
  5
1C8CDE6AAB07
  8
HATCH
 10
903.39850806736922
 20
721.65043174151265
 30
0.0
 11
910.62319136218218
 21
728.87511503632572
 31
0.0
  0
LINE
  5
1C8CDE6AAB0A
  8
SJC2
 10
782.19856806736868
 20
563.40769112452369
 30
0.0
 11
903.39850806736922
 21
563.40769112452404
 31
0.0
  0
LINE
  5
1C8CDE6AAB0C
  8
SJC2
 10
785.64825823526826
 20
963.4077111245241
 30
0.0
 11
785.64825823526826
 21
563.40771112452398
 31
0.0
  0
LINE
  5
1C8CDE6AAB0D
  8
SJC2
 10
782.19856806736868
 20
955.40771112452398
 30
0.0
 11
782.19856806736868
 21
563.40771112452398
 31
0.0
  0
LINE
  5
1C8CDE6AAB0E
  8
SJC2
 10
923.45260958339986
 20
976.10914753538896
 30
0.0
 11
925.89579798635248
 21
979.57733211900768
 31
0.0
  0
ARC
  5
1C8CDE6AAB0F
  8
SJC2
 10
926.44006161142079
 20
966.19526978103715
 30
0.0
 40
1.25
 50
189.8358034297691
 51
241.9705543628765
  0
LINE
  5
1C8CDE6AAB10
  8
SJC2
 10
925.85265502626396
 20
965.09188702618042
 30
0.0
 11
928.11549508975986
 21
963.887221511333
 31
0.0
  0
LINE
  5
1C8CDE6AAB11
  8
SJC2
 10
942.79852806736926
 20
963.40771112452398
 30
0.0
 11
942.79852806736926
 21
961.40771112452398
 31
0.0
  0
LINE
  5
1C8CDE6AAB12
  8
HATCH
 10
940.79852806736915
 20
957.92423395022911
 30
0.0
 11
946.28200524166368
 21
963.40771112452398
 31
0.0
  0
CIRCLE
  5
1C8CDE6AAB13
  8
HASEN
 10
921.29852806736915
 20
953.40771112452398
 30
0.0
 40
2.6000000000000001
  0
ARC
  5
1C8CDE6AAB14
  8
SJC2
 10
936.49848806736907
 20
945.89031112452392
 30
0.0
 40
4.3000002000000004
 50
300.0
 51
0.0
  0
LINE
  5
1C8CDE6AAB15
  8
SJC2
 10
940.79852806736915
 20
961.40771112452398
 30
0.0
 11
940.79852806736915
 21
945.89031112452392
 31
0.0
  0
LINE
  5
1C8CDE6AAB16
  8
SJC2
 10
902.92438806736925
 20
921.54105112452396
 30
0.0
 11
938.64862806736903
 21
942.16643112452402
 31
0.0
  0
LINE
  5
1C8CDE6AAB17
  8
SJC2
 10
767.79852806736915
 20
963.40771112452398
 30
0.0
 11
767.79852806736915
 21
961.40771112452398
 31
0.0
  0
ARC
  5
1C8CDE6AAB18
  8
SJC2
 10
771.388868067369
 20
960.40771112452398
 30
0.0
 40
1.0
 50
15.0
 51
90.000003000000007
  0
LINE
  5
1C8CDE6AAB19
  8
SJC2
 10
767.79852806736915
 20
961.40771112452398
 30
0.0
 11
942.79852806736926
 21
961.40771112452398
 31
0.0
  0
LINE
  5
1C8CDE6AAB1A
  8
SJC
 10
767.79852806736915
 20
963.40771112452398
 30
0.0
 11
942.79852806736926
 21
963.40771112452398
 31
0.0
  0
ARC
  5
1C8CDE6AAB1B
  8
SJC2
 10
925.76342525775635
 20
965.70578074034108
 30
0.0
 40
2.5
 50
189.83578384149621
 51
235.90303072877799
  0
LINE
  5
1C8CDE6AAB1C
  8
HASEN
 10
929.01578720739235
 20
963.40771112452376
 30
0.0
 11
928.11549508975986
 21
963.887221511333
 31
0.0
  0
LINE
  5
1C8CDE6AAB1D
  8
SJC2
 10
925.89573875802489
 20
979.57758459364481
 30
0.0
 11
929.68904875429507
 21
963.40771112452398
 31
0.0
  0
DIMENSION
  5
1C8CDE6AAB1E
  8
SUNPOU
  2
*D3
 10
1092.7993990967509
 20
963.40771112452398
 30
0.0
 11
1069.7563647394361
 21
1013.407711124524
 31
0.0
 12
-3700.0
 22
-0.0000000000002274
 32
0.0
 70
   128
 13
921.58436563742453
 23
1063.4077111245231
 33
0.0
 14
1033.5434526170391
 24
963.40771112452398
 34
0.0
 50
90.0
1001
ACAD
1000
DSTYLE
1002
{
1070
   140
1040
3.0
1070
   340
1005
1C8CDE699DA6
1070
    40
1040
10.0
1070
   147
1040
1.1999999999999991
1070
    42
1040
1.0
1070
    44
1040
1.0
1070
    43
1040
6.0
1070
   271
1070
     2
1070
    41
1040
2.0
1002
}
  0
LINE
  5
1C8CDE6AAB1F
  8
SJC2
 10
905.00018774383261
 20
1084.2539710536089
 30
0.0
 11
907.28330406605153
 21
1082.6455016634079
 31
0.0
  0
ARC
  5
1C8CDE6AAB20
  8
SJC2
 10
905.57599389442464
 20
1085.0714019334639
 30
0.0
 40
1.0
 50
189.83578384149621
 51
234.8357938414963
  0
LINE
  5
1C8CDE6AAB21
  8
SJC2
 10
902.69726350740075
 20
1095.8234692264271
 30
0.0
 11
904.59081488583524
 21
1084.9005736786701
 31
0.0
  0
LINE
  5
1C8CDE6AAB22
  8
SJC2
 10
900.72670460030429
 20
1095.4818192926259
 30
0.0
 11
902.69726350740075
 21
1095.8234692264271
 31
0.0
  0
ARC
  5
1C8CDE6AAB23
  8
SJC2
 10
905.84340697885352
 20
1080.601638287377
 30
0.0
 40
2.5
 50
9.8357840414962592
 51
54.83578484149627
  0
LINE
  5
1C8CDE6AAB24
  8
SJC2
 10
920.08436563742441
 20
1074.657711124524
 30
0.0
 11
921.58436563742453
 21
1072.657711124524
 31
0.0
  0
LINE
  5
1C8CDE6AAB25
  8
SJC2
 10
920.08436563742441
 20
1052.157711124524
 30
0.0
 11
921.58436563742453
 21
1054.157711124524
 31
0.0
  0
LINE
  5
1C8CDE6AAB26
  8
SJC2
 10
921.58436563742453
 20
1054.1577111245231
 30
0.0
 11
921.58436563742453
 21
1072.6577111245231
 31
0.0
  0
LINE
  5
1C8CDE6AAB27
  8
SJC2
 10
920.08436563742441
 20
1052.157711124524
 30
0.0
 11
920.08436563742441
 21
1074.657711124524
 31
0.0
  0
LINE
  5
1C8CDE6AAB28
  8
HASEN
 10
899.94879789947197
 20
1057.407711124524
 30
0.0
 11
912.57962498847064
 21
1057.407711124524
 31
0.0
  0
LINE
  5
1C8CDE6AAB29
  8
HASEN
 10
899.94879789947197
 20
1069.4077111245231
 30
0.0
 11
911.31838957518448
 21
1069.407711124524
 31
0.0
  0
LINE
  5
1C8CDE6AAB2A
  8
SJC2
 10
913.58436563742453
 20
1057.407711124524
 30
0.0
 11
912.57962498847064
 21
1057.407711124524
 31
0.0
  0
LINE
  5
1C8CDE6AAB2B
  8
SJC2
 10
913.58436563742453
 20
1069.407711124524
 30
0.0
 11
911.31838957518448
 21
1069.407711124524
 31
0.0
  0
LINE
  5
1C8CDE6AAB2C
  8
SJC2
 10
913.58436563742453
 20
1052.157711124524
 30
0.0
 11
913.58436563742453
 21
1074.657711124524
 31
0.0
  0
LINE
  5
1C8CDE6AAB2D
  8
SJC2
 10
920.08436563742441
 20
1074.657711124524
 30
0.0
 11
913.58436563742453
 21
1074.657711124524
 31
0.0
  0
LINE
  5
1C8CDE6AAB2E
  8
SJC2
 10
920.08436563742441
 20
1052.157711124524
 30
0.0
 11
913.58436563742453
 21
1052.157711124524
 31
0.0
  0
LINE
  5
1C8CDE6AAB2F
  8
SJC2
 10
773.58436563742453
 20
1057.407711124524
 30
0.0
 11
784.63789280571564
 21
1057.407711124524
 31
0.0
  0
LINE
  5
1C8CDE6AAB30
  8
SJC2
 10
773.58436563742453
 20
1069.407711124524
 30
0.0
 11
784.63789280571564
 21
1069.407711124524
 31
0.0
  0
LINE
  5
1C8CDE6AAB31
  8
SJC2
 10
783.03519137972671
 20
1045.7508504003899
 30
0.0
 11
778.03519137972671
 21
1045.7508504003899
 31
0.0
  0
LINE
  5
1C8CDE6AAB32
  8
SJC2
 10
779.03519137972671
 20
1045.7508504003899
 30
0.0
 11
779.03519137972671
 21
1062.4163634003889
 31
0.0
  0
ARC
  5
1C8CDE6AAB33
  8
SJC2
 10
780.53519137972671
 20
1062.240586400389
 30
0.0
 40
1.5102640000000001
 50
6.6837330000000001
 51
173.31626700000001
  0
LINE
  5
1C8CDE6AAB34
  8
SJC2
 10
782.03519137972671
 20
1045.7508504003899
 30
0.0
 11
782.03519137972671
 21
1062.4163634003889
 31
0.0
  0
CIRCLE
  5
1C8CDE6AAB35
  8
SJC2
 10
780.58436563742453
 20
1063.407711124524
 30
0.0
 40
4.0
  0
LINE
  5
1C8CDE6AAB36
  8
SJC2
 10
773.58436563742453
 20
1057.407711124524
 30
0.0
 11
773.58436563742453
 21
1069.407711124524
 31
0.0
  0
LINE
  5
1C8CDE6AAB37
  8
HASEN
 10
785.64825823526826
 20
1057.407711124524
 30
0.0
 11
784.63789280571564
 21
1057.407711124524
 31
0.0
  0
LINE
  5
1C8CDE6AAB38
  8
HASEN
 10
784.63789280571564
 20
1069.407711124524
 30
0.0
 11
785.64825823526826
 21
1069.407711124524
 31
0.0
  0
LINE
  5
1C8CDE6AAB39
  8
SJC2
 10
783.03519137972671
 20
1020.750850400389
 30
0.0
 11
783.03519137972671
 21
1045.7508504003899
 31
0.0
  0
LINE
  5
1C8CDE6AAB3A
  8
SJC2
 10
778.03519137972671
 20
1020.750850400389
 30
0.0
 11
778.03519137972671
 21
1045.7508504003899
 31
0.0
  0
LINE
  5
1C8CDE6AAB3B
  8
HASEN
 10
899.94879789947197
 20
1057.407711124524
 30
0.0
 11
785.64825823526826
 21
1057.407711124524
 31
0.0
  0
LINE
  5
1C8CDE6AAB3C
  8
HASEN
 10
899.94879789947197
 20
1069.4077111245231
 30
0.0
 11
785.64825823526826
 21
1069.407711124524
 31
0.0
  0
SOLID
  5
1C8CDE6AAB3D
  8
MOJI
 10
758.793073099563
 20
1080.6731800130251
 30
0.0
 11
755.09478672616717
 21
1075.126368104839
 31
0.0
 12
773.5843656374243
 22
1066.804914938745
 32
0.0
 13
773.5843656374243
 23
1066.804914938745
 33
0.0
  0
LINE
  5
1C8CDE6AAB3E
  8
SJC2
 10
902.69730728884224
 20
1095.8234697630289
 30
0.0
 11
925.20843493108339
 21
965.98173823703542
 31
0.0
  0
LINE
  5
1C8CDE6AAB3F
  8
SJC2
 10
900.72670460030429
 20
1095.4818192926259
 30
0.0
 11
923.30047278590155
 21
965.27878393758863
 31
0.0
  0
LINE
  5
1C8CDE6AAB40
  8
SJC2
 10
908.30695248728523
 20
1081.028759040197
 30
0.0
 11
925.89573875802489
 21
979.57758459364481
 31
0.0
  0
LINE
  5
1C8CDE6AAB41
  8
SJC2
 10
778.03519137972671
 20
1020.750850400389
 30
0.0
 11
783.03519137972671
 21
1020.750850400389
 31
0.0
  0
LINE
  5
1C8CDE6AAB48
  8
MOJI
 10
773.58436563742453
 20
1066.804914938745
 30
0.0
 11
690.87038243736515
 21
1121.760784786368
 31
0.0
  0
DIMENSION
  5
1C8CDE6AAB56
  8
SUNPOU
  2
*D6
 10
1242.7993990967509
 20
513.40771112452353
 30
0.0
 11
1217.4438212475959
 21
539.10441916588661
 31
0.0
 70
   128
 13
1050.29853058187
 23
563.40770218382363
 33
0.0
 14
1042.7976570379881
 24
513.40771112452353
 34
0.0
 50
270.0
1001
ACAD
1000
DSTYLE
1002
{
1070
   340
1005
1C8CDE699DA6
1070
   140
1040
3.0
1070
    40
1040
10.0
1070
   147
1040
1.1999999999999991
1070
    42
1040
1.0
1070
    44
1040
1.0
1070
    43
1040
6.0
1070
   271
1070
     4
1070
    41
1040
2.0
1002
}
  0
DIMENSION
  5
1C8CDE6AAB57
  8
SUNPOU
  2
*D5
 10
1167.79939909675
 20
563.40770218382363
 30
0.0
 11
1167.79939909675
 21
763.40771112452398
 31
0.0
 70
   128
 13
1122.629485202548
 23
963.40771112452398
 33
0.0
 14
1040.29853058187
 24
563.40770218382363
 34
0.0
 50
90.0
1001
ACAD
1000
DSTYLE
1002
{
1070
   340
1005
1C8CDE699DA6
1070
   140
1040
3.0
1070
    40
1040
10.0
1070
   147
1040
1.1999999999999991
1070
    42
1040
1.0
1070
    44
1040
1.0
1070
    43
1040
6.0
1070
   271
1070
     4
1070
    41
1040
2.0
1002
}
  0
DIMENSION
  5
1C8CDE6AAB58
  8
SUNPOU
  2
*D4
 10
1167.79939909675
 20
963.40771112452398
 30
0.0
 11
1167.79939909675
 21
1363.407711124524
 31
0.0
 70
   128
  1
800
 13
842.79852806736915
 23
1763.407711124524
 33
0.0
 14
1142.1597853327451
 24
963.40771112452398
 34
0.0
 50
90.0
1001
ACAD
1000
DSTYLE
1002
{
1070
   340
1005
1C8CDE699DA6
1070
   140
1040
3.0
1070
    40
1040
10.0
1070
   147
1040
1.1999999999999991
1070
    42
1040
1.0
1070
    44
1040
1.0
1070
    43
1040
6.0
1070
   271
1070
     4
1070
    41
1040
2.0
1002
}
  0
SOLID
  5
1C8CDE6AAC1B
  8
MOJI
  6
CONTINUOUS
 10
772.7386656050129
 20
1334.4209407159831
 30
0.0
 11
768.36566745664015
 21
1339.4529712841299
 31
0.0
 12
785.64825823526917
 22
1350.0559504451751
 32
0.0
 13
785.64825823526917
 23
1350.0559504451751
 33
0.0
  0
LINE
  5
1C8CDE6AAC1C
  8
MOJI
  6
CONTINUOUS
 10
771.15332450261212
 20
1336.9369560000559
 30
0.0
 11
676.15295013576895
 21
1254.378542338854
 31
0.0
  0
TEXT
  5
1C8CDE6AAC1D
  8
MOJI
 10
373.69647055653331
 20
1265.8210243387009
 30
0.0
 40
30.0
  1
支柱φ114.3×t2.3
 41
0.8
  7
EXT08
  0
TEXT
  5
1C8CDE6AAC1E
  8
MOJI
 10
330.35430617198438
 20
1268.8594340997149
 30
0.0
 40
30.0
  1
2
 41
0.8
  7
EXT08
 72
     2
 11
349.78287760055582
 21
1283.8594340997149
 31
0.0
 73
     2
  0
CIRCLE
  5
1C8CDE6AAC1F
  8
MOJI
 10
343.79328189212629
 20
1284.796134969939
 30
0.0
 40
24.0
  0
LINE
  5
1C8CDE6AAC20
  8
MOJI
  6
CONTINUOUS
 10
323.38659637950599
 20
1254.378542338854
 30
0.0
 11
675.55179216398392
 21
1254.378542338854
 31
0.0
  0
POINT
  5
1C8CDE6AAC27
  8
SUNPOU
 10
714.78467543910483
 20
2069.1213904028118
 30
0.0
  0
ARC
  5
1C8CDE6AAC45
  8
SJC2
 10
1770.1192669869999
 20
1708.561909207893
 30
0.0
 40
21.842345474941219
 50
329.61540660894809
 51
359.87435598493619
  0
ARC
  5
1C8CDE6AAC46
  8
SJC2
 10
1688.8038529010601
 20
1708.561909207893
 30
0.0
 40
21.842345474941219
 50
180.1256440150639
 51
210.38459339105179
  0
LINE
  5
1C8CDE6AAC47
  8
SJC2
 10
1669.9615599440299
 20
1697.5140111287019
 30
0.0
 11
1788.9615599440299
 21
1697.5140111287019
 31
0.0
  0
LINE
  5
1C8CDE6AAC48
  8
SJC2
 10
1666.9615599440299
 20
1712.5140111287019
 30
0.0
 11
1785.11155994403
 21
1712.5140111287019
 31
0.0
  0
LINE
  5
1C8CDE6AAC49
  8
SJC2
 10
1666.9615599440299
 20
1719.5140111287019
 30
0.0
 11
1791.9615599440299
 21
1719.5140111287019
 31
0.0
  0
LINE
  5
1C8CDE6AAC4A
  8
SJC2
 10
1666.9615599440299
 20
1712.5140111287019
 30
0.0
 11
1791.9615599440299
 21
1712.5140111287019
 31
0.0
  0
ARC
  5
1C8CDE6AAC4B
  8
SJC2
 10
1672.1959061889361
 20
1725.2212328153171
 30
0.0
 40
5.294041751415774
 50
88.748215530713239
 51
171.38760961275659
  0
ARC
  5
1C8CDE6AAC4C
  8
SJC2
 10
1672.9473364953981
 20
1716.0140111287019
 30
0.0
 40
2.0
 50
90.000000000000185
 51
269.99999999999977
  0
LINE
  5
1C8CDE6AAC4D
  8
SJC2
 10
1666.9615599440299
 20
1712.5140111287019
 30
0.0
 11
1666.9615599440299
 21
1708.5140111287019
 31
0.0
  0
ARC
  5
1C8CDE6AAC4E
  8
SJC2
 10
1669.2611332740009
 20
1716.0140111287019
 30
0.0
 40
2.0
 50
90.0
 51
270.0
  0
ARC
  5
1C8CDE6AAC4F
  8
SJC2
 10
1670.5865056504449
 20
1716.0140111287019
 30
0.0
 40
2.0
 50
90.0
 51
270.0
  0
ARC
  5
1C8CDE6AAC50
  8
SJC2
 10
1668.61155994403
 20
1716.0140111287019
 30
0.0
 40
2.0
 50
79.921341892212453
 51
280.07865810778759
  0
POLYLINE
  5
1C8CDE6AAC51
  8
SJC2
 66
     1
 10
0.0
 20
0.0
 30
0.0
  0
VERTEX
  5
1C8CDE6ACC61
  8
SJC2
 10
1670.5865056504449
 20
1714.0140111287019
 30
0.0
 42
0.2636526432947845
  0
VERTEX
  5
1C8CDE6ACC62
  8
SJC2
 10
1670.728909406535
 20
1714.0947110530669
 30
0.0
 42
0.0742524186368126
  0
VERTEX
  5
1C8CDE6ACC63
  8
SJC2
 10
1670.937365451909
 20
1714.599797566329
 30
0.0
 42
0.0352096047277726
  0
VERTEX
  5
1C8CDE6ACC64
  8
SJC2
 10
1671.040505904318
 20
1715.1907394822811
 30
0.0
 42
0.0053639511144543
  0
VERTEX
  5
1C8CDE6ACC65
  8
SJC2
 10
1671.0563244458581
 20
1715.362801923842
 30
0.0
 42
0.0256068403005276
  0
SEQEND
  5
1C8CDE6ACC66
  8
SJC2
  0
LINE
  5
1C8CDE6AAC58
  8
SJC2
 10
1668.9615599440299
 20
1714.0365744495721
 30
0.0
 11
1668.9615599440299
 21
1712.5140111287019
 31
0.0
  0
POLYLINE
  5
1C8CDE6AAC59
  8
SJC2
 66
     1
 10
0.0
 20
0.0
 30
0.0
  0
VERTEX
  5
1C8CDE6ACC67
  8
SJC2
 10
1669.2611332740009
 20
1714.0140111287019
 30
0.0
 42
0.3358450609579918
  0
VERTEX
  5
1C8CDE6ACC68
  8
SJC2
 10
1669.3189222025869
 20
1714.0577621412381
 30
0.0
 42
0.0255638409195304
  0
VERTEX
  5
1C8CDE6ACC69
  8
SJC2
 10
1669.3980032034569
 20
1714.40545216693
 30
0.0
 42
0.0169788485543967
  0
SEQEND
  5
1C8CDE6ACC6A
  8
SJC2
  0
LINE
  5
1C8CDE6AAC5E
  8
SJC2
 10
1668.9615599440299
 20
1719.5140111287019
 30
0.0
 11
1668.9615599440299
 21
1717.9914478078319
 31
0.0
  0
POLYLINE
  5
1C8CDE6AAC5F
  8
SJC2
 66
     1
 10
0.0
 20
0.0
 30
0.0
  0
VERTEX
  5
1C8CDE6ACC6B
  8
SJC2
 10
1671.0563244458581
 20
1716.665220333562
 30
0.0
 42
0.0053639511144539
  0
VERTEX
  5
1C8CDE6ACC6C
  8
SJC2
 10
1671.040505904318
 20
1716.837282775123
 30
0.0
 42
0.0352096047277708
  0
VERTEX
  5
1C8CDE6ACC6D
  8
SJC2
 10
1670.937365451909
 20
1717.428224691075
 30
0.0
 42
0.0742524186368184
  0
VERTEX
  5
1C8CDE6ACC6E
  8
SJC2
 10
1670.728909406535
 20
1717.9333112043371
 30
0.0
 42
0.2636526432947964
  0
VERTEX
  5
1C8CDE6ACC6F
  8
SJC2
 10
1670.5865056504449
 20
1718.0140111287019
 30
0.0
 42
0.2636526432948179
  0
SEQEND
  5
1C8CDE6ACC70
  8
SJC2
  0
POLYLINE
  5
1C8CDE6AAC66
  8
SJC2
 66
     1
 10
0.0
 20
0.0
 30
0.0
  0
VERTEX
  5
1C8CDE6ACC71
  8
SJC2
 10
1669.3980032034569
 20
1717.622570090474
 30
0.0
 42
0.0255638409195304
  0
VERTEX
  5
1C8CDE6ACC72
  8
SJC2
 10
1669.3189222025869
 20
1717.9702601161659
 30
0.0
 42
0.3358450609580102
  0
VERTEX
  5
1C8CDE6ACC73
  8
SJC2
 10
1669.2611332740009
 20
1718.0140111287019
 30
0.0
 42
0.3358450609581582
  0
SEQEND
  5
1C8CDE6ACC74
  8
SJC2
  0
LINE
  5
1C8CDE6AAC6B
  8
SJC2
 10
1666.9615599440299
 20
1726.0140111287051
 30
0.0
 11
1666.9615599440299
 21
1719.5140111287019
 31
0.0
  0
LINE
  5
1C8CDE6AAC6C
  8
SJC2
 10
1672.3115599440309
 20
1730.5140111287051
 30
0.0
 11
1786.61155994403
 21
1730.5140111287051
 31
0.0
  0
ARC
  5
1C8CDE6AAC6D
  8
SJC
 10
1729.4615599440299
 20
1693.4077111245249
 30
0.0
 40
70.0
 50
38.202182775739203
 51
141.7978172242608
  0
CIRCLE
  5
1C8CDE6AAC6E
  8
SJC2
 10
1737.4121268320771
 20
1716.0140111287019
 30
0.0
 40
2.0
  0
ARC
  5
1C8CDE6AAC6F
  8
SJC2
 10
1729.4615599440299
 20
1716.0140111287019
 30
0.0
 40
2.0
 50
270.0
 51
90.0
  0
ARC
  5
1C8CDE6AAC70
  8
SJC2
 10
1729.4615599440299
 20
1716.0140111287019
 30
0.0
 40
2.0
 50
90.0
 51
270.0
  0
POLYLINE
  5
1C8CDE6AAC71
  8
SJC2
 66
     1
 10
0.0
 20
0.0
 30
0.0
  0
VERTEX
  5
1C8CDE6ACC75
  8
SJC2
 10
1706.1748396805281
 20
1714.0140111287019
 30
0.0
 42
0.1054357078480557
  0
VERTEX
  5
1C8CDE6ACC76
  8
SJC2
 10
1706.8774398273081
 20
1714.163834961196
 30
0.0
 42
0.101101712149107
  0
VERTEX
  5
1C8CDE6ACC77
  8
SJC2
 10
1707.4859078167619
 20
1714.599797566329
 30
0.0
 42
0.0955210329656216
  0
VERTEX
  5
1C8CDE6ACC78
  8
SJC2
 10
1707.885790124911
 20
1715.2417424782291
 30
0.0
 42
0.0919176181383292
  0
VERTEX
  5
1C8CDE6ACC79
  8
SJC2
 10
1708.0289700199851
 20
1716.0140111287019
 30
0.0
 42
0.0919176181383349
  0
VERTEX
  5
1C8CDE6ACC7A
  8
SJC2
 10
1707.885790124911
 20
1716.7862797791749
 30
0.0
 42
0.0955210329656196
  0
VERTEX
  5
1C8CDE6ACC7B
  8
SJC2
 10
1707.4859078167619
 20
1717.428224691075
 30
0.0
 42
0.1011017121491036
  0
VERTEX
  5
1C8CDE6ACC7C
  8
SJC2
 10
1706.8774398273081
 20
1717.864187296208
 30
0.0
 42
0.1054357078480609
  0
VERTEX
  5
1C8CDE6ACC7D
  8
SJC2
 10
1706.1748396805281
 20
1718.0140111287019
 30
0.0
 42
0.1054357078480126
  0
SEQEND
  5
1C8CDE6ACC7E
  8
SJC2
  0
ARC
  5
1C8CDE6AAC7C
  8
SJC2
 10
1698.212927213423
 20
1716.0140111287019
 30
0.0
 40
2.0
 50
90.0
 51
270.0
  0
POLYLINE
  5
1C8CDE6AAC7D
  8
SJC2
 66
     1
 10
0.0
 20
0.0
 30
0.0
  0
VERTEX
  5
1C8CDE6ACC7F
  8
SJC2
 10
1698.212927213423
 20
1714.0140111287019
 30
0.0
 42
0.1116800569950346
  0
VERTEX
  5
1C8CDE6ACC80
  8
SJC2
 10
1698.8654058498821
 20
1714.1615894928909
 30
0.0
 42
0.1030115942786991
  0
VERTEX
  5
1C8CDE6ACC81
  8
SJC2
 10
1699.4416300553171
 20
1714.599797566329
 30
0.0
 42
0.0927327528650624
  0
VERTEX
  5
1C8CDE6ACC82
  8
SJC2
 10
1699.814892820207
 20
1715.236293276286
 30
0.0
 42
0.0865774052393461
  0
VERTEX
  5
1C8CDE6ACC83
  8
SJC2
 10
1699.9505754365571
 20
1716.0140111287019
 30
0.0
 42
0.0865774052393477
  0
VERTEX
  5
1C8CDE6ACC84
  8
SJC2
 10
1699.814892820207
 20
1716.791728981118
 30
0.0
 42
0.0927327528650677
  0
VERTEX
  5
1C8CDE6ACC85
  8
SJC2
 10
1699.4416300553171
 20
1717.428224691075
 30
0.0
 42
0.103011594278703
  0
VERTEX
  5
1C8CDE6ACC86
  8
SJC2
 10
1698.8654058498821
 20
1717.8664327645131
 30
0.0
 42
0.1116800569950293
  0
VERTEX
  5
1C8CDE6ACC87
  8
SJC2
 10
1698.212927213423
 20
1718.0140111287019
 30
0.0
 42
0.1116800569949558
  0
SEQEND
  5
1C8CDE6ACC88
  8
SJC2
  0
ARC
  5
1C8CDE6AAC88
  8
SJC2
 10
1706.1748396805281
 20
1716.0140111287019
 30
0.0
 40
2.0
 50
90.0
 51
270.0
  0
CIRCLE
  5
1C8CDE6AAC89
  8
SJC2
 10
1713.7023042224091
 20
1716.0140111287019
 30
0.0
 40
2.0
  0
CIRCLE
  5
1C8CDE6AAC8A
  8
SJC2
 10
1721.5109930559861
 20
1716.0140111287019
 30
0.0
 40
2.0
  0
ARC
  5
1C8CDE6AAC8B
  8
SJC2
 10
1691.643479067551
 20
1716.0140111287019
 30
0.0
 40
2.0
 50
90.0
 51
270.0
  0
POLYLINE
  5
1C8CDE6AAC8C
  8
SJC2
 66
     1
 10
0.0
 20
0.0
 30
0.0
  0
VERTEX
  5
1C8CDE6ACC89
  8
SJC2
 10
1691.643479067551
 20
1714.0140111287019
 30
0.0
 42
0.120651329253439
  0
VERTEX
  5
1C8CDE6ACC8A
  8
SJC2
 10
1692.232549484371
 20
1714.1582551089141
 30
0.0
 42
0.1050790673246372
  0
VERTEX
  5
1C8CDE6ACC8B
  8
SJC2
 10
1692.7678903837871
 20
1714.599797566329
 30
0.0
 42
0.0886278647047429
  0
VERTEX
  5
1C8CDE6ACC8C
  8
SJC2
 10
1693.10778215397
 20
1715.2295189725901
 30
0.0
 42
0.079704503934722
  0
VERTEX
  5
1C8CDE6ACC8D
  8
SJC2
 10
1693.233636800657
 20
1716.0140111287019
 30
0.0
 42
0.0797045039347204
  0
VERTEX
  5
1C8CDE6ACC8E
  8
SJC2
 10
1693.10778215397
 20
1716.7985032848139
 30
0.0
 42
0.0886278647047481
  0
VERTEX
  5
1C8CDE6ACC8F
  8
SJC2
 10
1692.7678903837871
 20
1717.428224691075
 30
0.0
 42
0.1050790673246424
  0
VERTEX
  5
1C8CDE6ACC90
  8
SJC2
 10
1692.232549484371
 20
1717.8697671484899
 30
0.0
 42
0.120651329253433
  0
VERTEX
  5
1C8CDE6ACC91
  8
SJC2
 10
1691.643479067551
 20
1718.0140111287019
 30
0.0
 42
0.1206513292534549
  0
SEQEND
  5
1C8CDE6ACC92
  8
SJC2
  0
ARC
  5
1C8CDE6AAC97
  8
SJC2
 10
1685.7337272007121
 20
1716.0140111287019
 30
0.0
 40
2.0
 50
90.0
 51
270.0
  0
ARC
  5
1C8CDE6AAC98
  8
SJC2
 10
1676.301496726503
 20
1716.0140111287019
 30
0.0
 40
2.0
 50
90.0
 51
270.0
  0
ARC
  5
1C8CDE6AAC99
  8
SJC2
 10
1680.58913127497
 20
1716.0140111287019
 30
0.0
 40
2.0
 50
90.000000000000398
 51
269.9999999999996
  0
POLYLINE
  5
1C8CDE6AAC9A
  8
SJC2
 66
     1
 10
0.0
 20
0.0
 30
0.0
  0
VERTEX
  5
1C8CDE6ACC93
  8
SJC2
 10
1676.301496726503
 20
1714.0140111287019
 30
0.0
 42
0.1759227118509986
  0
VERTEX
  5
1C8CDE6ACC94
  8
SJC2
 10
1676.63629634122
 20
1714.135570972353
 30
0.0
 42
0.1039773255587434
  0
VERTEX
  5
1C8CDE6ACC95
  8
SJC2
 10
1677.001837639619
 20
1714.599797566329
 30
0.0
 42
0.0644626389992414
  0
VERTEX
  5
1C8CDE6ACC96
  8
SJC2
 10
1677.209789543906
 20
1715.2048081552259
 30
0.0
 42
0.0506228400655258
  0
VERTEX
  5
1C8CDE6ACC97
  8
SJC2
 10
1677.2919283441181
 20
1716.0140111287019
 30
0.0
 42
0.0506228400655232
  0
VERTEX
  5
1C8CDE6ACC98
  8
SJC2
 10
1677.209789543906
 20
1716.8232141021781
 30
0.0
 42
0.0644626389992436
  0
VERTEX
  5
1C8CDE6ACC99
  8
SJC2
 10
1677.001837639619
 20
1717.428224691075
 30
0.0
 42
0.1039773255587384
  0
VERTEX
  5
1C8CDE6ACC9A
  8
SJC2
 10
1676.63629634122
 20
1717.892451285051
 30
0.0
 42
0.1759227118509958
  0
VERTEX
  5
1C8CDE6ACC9B
  8
SJC2
 10
1676.301496726503
 20
1718.0140111287019
 30
0.0
 42
0.1759227118510255
  0
SEQEND
  5
1C8CDE6ACC9C
  8
SJC2
  0
POLYLINE
  5
1C8CDE6AACA5
  8
SJC2
 66
     1
 10
0.0
 20
0.0
 30
0.0
  0
VERTEX
  5
1C8CDE6ACC9D
  8
SJC2
 10
1672.9473364953981
 20
1714.0140111287019
 30
0.0
 42
0.2118470242964341
  0
VERTEX
  5
1C8CDE6ACC9E
  8
SJC2
 10
1673.184951271739
 20
1714.1194176516849
 30
0.0
 42
0.0945255633777528
  0
VERTEX
  5
1C8CDE6ACC9F
  8
SJC2
 10
1673.4776687485
 20
1714.599797566329
 30
0.0
 42
0.0512128948144839
  0
VERTEX
  5
1C8CDE6ACCA0
  8
SJC2
 10
1673.634265951034
 20
1715.197021474276
 30
0.0
 42
0.0385438816909012
  0
VERTEX
  5
1C8CDE6ACCA1
  8
SJC2
 10
1673.697339560297
 20
1716.0140111287019
 30
0.0
 42
0.0385438816909032
  0
VERTEX
  5
1C8CDE6ACCA2
  8
SJC2
 10
1673.634265951034
 20
1716.831000783128
 30
0.0
 42
0.0512128948144929
  0
VERTEX
  5
1C8CDE6ACCA3
  8
SJC2
 10
1673.4776687485
 20
1717.428224691075
 30
0.0
 42
0.0945255633777525
  0
VERTEX
  5
1C8CDE6ACCA4
  8
SJC2
 10
1673.184951271739
 20
1717.9086046057189
 30
0.0
 42
0.2118470242964467
  0
VERTEX
  5
1C8CDE6ACCA5
  8
SJC2
 10
1672.9473364953981
 20
1718.0140111287019
 30
0.0
 42
0.2118470242964307
  0
SEQEND
  5
1C8CDE6ACCA6
  8
SJC2
  0
POLYLINE
  5
1C8CDE6AACB0
  8
SJC2
 66
     1
 10
0.0
 20
0.0
 30
0.0
  0
VERTEX
  5
1C8CDE6ACCA7
  8
SJC2
 10
1680.58913127497
 20
1714.0140111287019
 30
0.0
 42
0.150911399745959
  0
VERTEX
  5
1C8CDE6ACCA8
  8
SJC2
 10
1681.0172115816099
 20
1714.1462266343131
 30
0.0
 42
0.1070103012881034
  0
VERTEX
  5
1C8CDE6ACCA9
  8
SJC2
 10
1681.446983247919
 20
1714.599797566329
 30
0.0
 42
0.0749121317509504
  0
VERTEX
  5
1C8CDE6ACCAA
  8
SJC2
 10
1681.703261026684
 20
1715.213278909054
 30
0.0
 42
0.0616186277240593
  0
VERTEX
  5
1C8CDE6ACCAB
  8
SJC2
 10
1681.8023171696229
 20
1716.0140111287019
 30
0.0
 42
0.0616186277240571
  0
VERTEX
  5
1C8CDE6ACCAC
  8
SJC2
 10
1681.703261026684
 20
1716.81474334835
 30
0.0
 42
0.0749121317509533
  0
VERTEX
  5
1C8CDE6ACCAD
  8
SJC2
 10
1681.446983247919
 20
1717.428224691075
 30
0.0
 42
0.107010301288108
  0
VERTEX
  5
1C8CDE6ACCAE
  8
SJC2
 10
1681.0172115816099
 20
1717.881795623091
 30
0.0
 42
0.1509113997459668
  0
VERTEX
  5
1C8CDE6ACCAF
  8
SJC2
 10
1680.58913127497
 20
1718.0140111287019
 30
0.0
 42
0.1509113997459639
  0
SEQEND
  5
1C8CDE6ACCB0
  8
SJC2
  0
ARC
  5
1C8CDE6AACBB
  8
SJC
 10
1682.3115599440309
 20
1730.5140111287019
 30
0.0
 40
10.0
 50
141.79781722426071
 51
179.99999999998531
  0
POLYLINE
  5
1C8CDE6AACBC
  8
SJC2
 66
     1
 10
0.0
 20
0.0
 30
0.0
  0
VERTEX
  5
1C8CDE6ACCB1
  8
SJC2
 10
1685.7337272007121
 20
1714.0140111287019
 30
0.0
 42
0.1332500875588102
  0
VERTEX
  5
1C8CDE6ACCB2
  8
SJC2
 10
1686.247404823341
 20
1714.1533808969691
 30
0.0
 42
0.106755782220821
  0
VERTEX
  5
1C8CDE6ACCB3
  8
SJC2
 10
1686.7337818447111
 20
1714.599797566329
 30
0.0
 42
0.0828303032114395
  0
VERTEX
  5
1C8CDE6ACCB4
  8
SJC2
 10
1687.0343690190241
 20
1715.2217075077519
 30
0.0
 42
0.0713554525830378
  0
VERTEX
  5
1C8CDE6ACCB5
  8
SJC2
 10
1687.148018041368
 20
1716.0140111287019
 30
0.0
 42
0.0713554525830371
  0
VERTEX
  5
1C8CDE6ACCB6
  8
SJC2
 10
1687.0343690190241
 20
1716.806314749653
 30
0.0
 42
0.0828303032114262
  0
VERTEX
  5
1C8CDE6ACCB7
  8
SJC2
 10
1686.7337818447111
 20
1717.428224691075
 30
0.0
 42
0.1067557822208174
  0
VERTEX
  5
1C8CDE6ACCB8
  8
SJC2
 10
1686.247404823341
 20
1717.8746413604349
 30
0.0
 42
0.1332500875588086
  0
VERTEX
  5
1C8CDE6ACCB9
  8
SJC2
 10
1685.7337272007121
 20
1718.0140111287019
 30
0.0
 42
0.1332500875588559
  0
SEQEND
  5
1C8CDE6ACCBA
  8
SJC2
  0
CIRCLE
  5
1C8CDE6AACC7
  8
SJC2
 10
1745.2208156656529
 20
1716.0140111287019
 30
0.0
 40
2.0
  0
POLYLINE
  5
1C8CDE6AACC8
  8
SJC2
 66
     1
 10
0.0
 20
0.0
 30
0.0
  0
VERTEX
  5
1C8CDE6ACCBB
  8
SJC2
 10
1753.598280207533
 20
1714.0140111287019
 30
0.0
 42
-0.1054357078480557
  0
VERTEX
  5
1C8CDE6ACCBC
  8
SJC2
 10
1752.895680060753
 20
1714.163834961196
 30
0.0
 42
-0.101101712149107
  0
VERTEX
  5
1C8CDE6ACCBD
  8
SJC2
 10
1752.2872120712991
 20
1714.599797566329
 30
0.0
 42
-0.0955210329656216
  0
VERTEX
  5
1C8CDE6ACCBE
  8
SJC2
 10
1751.8873297631501
 20
1715.2417424782291
 30
0.0
 42
-0.0919176181383292
  0
VERTEX
  5
1C8CDE6ACCBF
  8
SJC2
 10
1751.7441498680751
 20
1716.0140111287019
 30
0.0
 42
-0.0919176181383349
  0
VERTEX
  5
1C8CDE6ACCC0
  8
SJC2
 10
1751.8873297631501
 20
1716.7862797791749
 30
0.0
 42
-0.0955210329656196
  0
VERTEX
  5
1C8CDE6ACCC1
  8
SJC2
 10
1752.2872120712991
 20
1717.428224691075
 30
0.0
 42
-0.1011017121491036
  0
VERTEX
  5
1C8CDE6ACCC2
  8
SJC2
 10
1752.895680060753
 20
1717.864187296208
 30
0.0
 42
-0.1054357078480609
  0
VERTEX
  5
1C8CDE6ACCC3
  8
SJC2
 10
1753.598280207533
 20
1718.0140111287019
 30
0.0
 42
-0.1054357078480126
  0
SEQEND
  5
1C8CDE6ACCC4
  8
SJC2
  0
ARC
  5
1C8CDE6AACD3
  8
SJC2
 10
1753.598280207533
 20
1716.0140111287019
 30
0.0
 40
2.0
 50
270.0
 51
90.0
  0
ARC
  5
1C8CDE6AACD4
  8
SJC2
 10
1760.7101926746391
 20
1716.0140111287019
 30
0.0
 40
2.0
 50
270.0
 51
90.0
  0
POLYLINE
  5
1C8CDE6AACD5
  8
SJC2
 66
     1
 10
0.0
 20
0.0
 30
0.0
  0
VERTEX
  5
1C8CDE6ACCC5
  8
SJC2
 10
1760.7101926746391
 20
1714.0140111287019
 30
0.0
 42
-0.1116800569950346
  0
VERTEX
  5
1C8CDE6ACCC6
  8
SJC2
 10
1760.0577140381779
 20
1714.1615894928909
 30
0.0
 42
-0.1030115942786991
  0
VERTEX
  5
1C8CDE6ACCC7
  8
SJC2
 10
1759.4814898327429
 20
1714.599797566329
 30
0.0
 42
-0.0927327528650624
  0
VERTEX
  5
1C8CDE6ACCC8
  8
SJC2
 10
1759.108227067853
 20
1715.236293276286
 30
0.0
 42
-0.0865774052393461
  0
VERTEX
  5
1C8CDE6ACCC9
  8
SJC2
 10
1758.9725444515029
 20
1716.0140111287019
 30
0.0
 42
-0.0865774052393477
  0
VERTEX
  5
1C8CDE6ACCCA
  8
SJC2
 10
1759.108227067853
 20
1716.791728981118
 30
0.0
 42
-0.0927327528650677
  0
VERTEX
  5
1C8CDE6ACCCB
  8
SJC2
 10
1759.4814898327429
 20
1717.428224691075
 30
0.0
 42
-0.103011594278703
  0
VERTEX
  5
1C8CDE6ACCCC
  8
SJC2
 10
1760.0577140381779
 20
1717.8664327645131
 30
0.0
 42
-0.1116800569950293
  0
VERTEX
  5
1C8CDE6ACCCD
  8
SJC2
 10
1760.7101926746391
 20
1718.0140111287019
 30
0.0
 42
-0.1116800569949558
  0
SEQEND
  5
1C8CDE6ACCCE
  8
SJC2
  0
ARC
  5
1C8CDE6AACE0
  8
SJC2
 10
1786.727213699126
 20
1725.2212328153171
 30
0.0
 40
5.2940417514156257
 50
8.6123903872397864
 51
91.251784469286633
  0
LINE
  5
1C8CDE6AACE1
  8
SJC2
 10
1791.9615599440299
 20
1712.5140111287019
 30
0.0
 11
1791.9615599440299
 21
1708.5140111287019
 31
0.0
  0
ARC
  5
1C8CDE6AACE2
  8
SJC2
 10
1789.66198661406
 20
1716.0140111287019
 30
0.0
 40
2.0
 50
270.0
 51
90.0
  0
LINE
  5
1C8CDE6AACE3
  8
SJC2
 10
1789.9615599440299
 20
1714.0365744495721
 30
0.0
 11
1789.9615599440299
 21
1712.5140111287019
 31
0.0
  0
LINE
  5
1C8CDE6AACE4
  8
SJC2
 10
1791.9615599440299
 20
1712.5140111287019
 30
0.0
 11
1791.9615599440299
 21
1710.5140111287019
 31
0.0
  0
LINE
  5
1C8CDE6AACE5
  8
SJC2
 10
1791.9615599440299
 20
1712.5140111287019
 30
0.0
 11
1791.9615599440299
 21
1708.5140111287019
 31
0.0
  0
LINE
  5
1C8CDE6AACE6
  8
SJC2
 10
1789.9615599440299
 20
1719.5140111287019
 30
0.0
 11
1789.9615599440299
 21
1717.9914478078319
 31
0.0
  0
LINE
  5
1C8CDE6AACE7
  8
SJC2
 10
1791.9615599440299
 20
1726.0140111287039
 30
0.0
 11
1791.9615599440299
 21
1719.5140111287019
 31
0.0
  0
POLYLINE
  5
1C8CDE6AACE8
  8
SJC2
 66
     1
 10
0.0
 20
0.0
 30
0.0
  0
VERTEX
  5
1C8CDE6ACCCF
  8
SJC2
 10
1782.621623161559
 20
1714.0140111287019
 30
0.0
 42
-0.1759227118509986
  0
VERTEX
  5
1C8CDE6ACCD0
  8
SJC2
 10
1782.28682354684
 20
1714.135570972353
 30
0.0
 42
-0.1039773255587434
  0
VERTEX
  5
1C8CDE6ACCD1
  8
SJC2
 10
1781.921282248441
 20
1714.599797566329
 30
0.0
 42
-0.0644626389992414
  0
VERTEX
  5
1C8CDE6ACCD2
  8
SJC2
 10
1781.713330344156
 20
1715.2048081552259
 30
0.0
 42
-0.0506228400655258
  0
VERTEX
  5
1C8CDE6ACCD3
  8
SJC2
 10
1781.631191543943
 20
1716.0140111287019
 30
0.0
 42
-0.0506228400655232
  0
VERTEX
  5
1C8CDE6ACCD4
  8
SJC2
 10
1781.713330344156
 20
1716.8232141021781
 30
0.0
 42
-0.0644626389992436
  0
VERTEX
  5
1C8CDE6ACCD5
  8
SJC2
 10
1781.921282248441
 20
1717.428224691075
 30
0.0
 42
-0.1039773255587384
  0
VERTEX
  5
1C8CDE6ACCD6
  8
SJC2
 10
1782.28682354684
 20
1717.892451285051
 30
0.0
 42
-0.1759227118509958
  0
VERTEX
  5
1C8CDE6ACCD7
  8
SJC2
 10
1782.621623161559
 20
1718.0140111287019
 30
0.0
 42
-0.1759227118510255
  0
SEQEND
  5
1C8CDE6ACCD8
  8
SJC2
  0
POLYLINE
  5
1C8CDE6AACF3
  8
SJC2
 66
     1
 10
0.0
 20
0.0
 30
0.0
  0
VERTEX
  5
1C8CDE6ACCD9
  8
SJC2
 10
1788.3366142376151
 20
1714.0140111287019
 30
0.0
 42
-0.2636526432947845
  0
VERTEX
  5
1C8CDE6ACCDA
  8
SJC2
 10
1788.194210481525
 20
1714.0947110530669
 30
0.0
 42
-0.0742524186368126
  0
VERTEX
  5
1C8CDE6ACCDB
  8
SJC2
 10
1787.9857544361521
 20
1714.599797566329
 30
0.0
 42
-0.0352096047277726
  0
VERTEX
  5
1C8CDE6ACCDC
  8
SJC2
 10
1787.8826139837431
 20
1715.1907394822811
 30
0.0
 42
-0.0053639511144543
  0
VERTEX
  5
1C8CDE6ACCDD
  8
SJC2
 10
1787.8667954422031
 20
1715.362801923842
 30
0.0
 42
-0.0256068403005276
  0
SEQEND
  5
1C8CDE6ACCDE
  8
SJC2
  0
POLYLINE
  5
1C8CDE6AACFA
  8
SJC2
 66
     1
 10
0.0
 20
0.0
 30
0.0
  0
VERTEX
  5
1C8CDE6ACCDF
  8
SJC2
 10
1785.9757833926619
 20
1714.0140111287019
 30
0.0
 42
-0.2118470242964341
  0
VERTEX
  5
1C8CDE6ACCE0
  8
SJC2
 10
1785.7381686163219
 20
1714.1194176516849
 30
0.0
 42
-0.0945255633777528
  0
VERTEX
  5
1C8CDE6ACCE1
  8
SJC2
 10
1785.44545113956
 20
1714.599797566329
 30
0.0
 42
-0.0512128948144839
  0
VERTEX
  5
1C8CDE6ACCE2
  8
SJC2
 10
1785.288853937026
 20
1715.197021474276
 30
0.0
 42
-0.0385438816909012
  0
VERTEX
  5
1C8CDE6ACCE3
  8
SJC2
 10
1785.225780327763
 20
1716.0140111287019
 30
0.0
 42
-0.0385438816909032
  0
VERTEX
  5
1C8CDE6ACCE4
  8
SJC2
 10
1785.288853937026
 20
1716.831000783128
 30
0.0
 42
-0.0512128948144929
  0
VERTEX
  5
1C8CDE6ACCE5
  8
SJC2
 10
1785.44545113956
 20
1717.428224691075
 30
0.0
 42
-0.0945255633777525
  0
VERTEX
  5
1C8CDE6ACCE6
  8
SJC2
 10
1785.7381686163219
 20
1717.9086046057189
 30
0.0
 42
-0.2118470242964467
  0
VERTEX
  5
1C8CDE6ACCE7
  8
SJC2
 10
1785.9757833926619
 20
1718.0140111287019
 30
0.0
 42
-0.2118470242964307
  0
SEQEND
  5
1C8CDE6ACCE8
  8
SJC2
  0
ARC
  5
1C8CDE6AAD05
  8
SJC2
 10
1785.9757833926619
 20
1716.0140111287019
 30
0.0
 40
2.0
 50
270.00000000000023
 51
89.999999999999801
  0
ARC
  5
1C8CDE6AAD06
  8
SJC2
 10
1782.621623161559
 20
1716.0140111287019
 30
0.0
 40
2.0
 50
270.0
 51
90.0
  0
POLYLINE
  5
1C8CDE6AAD07
  8
SJC2
 66
     1
 10
0.0
 20
0.0
 30
0.0
  0
VERTEX
  5
1C8CDE6ACCE9
  8
SJC2
 10
1787.8667954422031
 20
1716.665220333562
 30
0.0
 42
-0.0053639511144539
  0
VERTEX
  5
1C8CDE6ACCEA
  8
SJC2
 10
1787.8826139837431
 20
1716.837282775123
 30
0.0
 42
-0.0352096047277708
  0
VERTEX
  5
1C8CDE6ACCEB
  8
SJC2
 10
1787.9857544361521
 20
1717.428224691075
 30
0.0
 42
-0.0742524186368184
  0
VERTEX
  5
1C8CDE6ACCEC
  8
SJC2
 10
1788.194210481525
 20
1717.9333112043371
 30
0.0
 42
-0.2636526432947964
  0
VERTEX
  5
1C8CDE6ACCED
  8
SJC2
 10
1788.3366142376151
 20
1718.0140111287019
 30
0.0
 42
-0.2636526432948179
  0
SEQEND
  5
1C8CDE6ACCEE
  8
SJC2
  0
ARC
  5
1C8CDE6AAD0E
  8
SJC2
 10
1790.3115599440309
 20
1716.0140111287019
 30
0.0
 40
2.0
 50
259.92134189221252
 51
100.0786581077875
  0
ARC
  5
1C8CDE6AAD0F
  8
SJC2
 10
1788.3366142376151
 20
1716.0140111287019
 30
0.0
 40
2.0
 50
270.0
 51
90.0
  0
ARC
  5
1C8CDE6AAD10
  8
SJC
 10
1776.61155994403
 20
1730.5140111287019
 30
0.0
 40
10.0
 50
0.000000000014656
 51
38.202182775739431
  0
POLYLINE
  5
1C8CDE6AAD11
  8
SJC2
 66
     1
 10
0.0
 20
0.0
 30
0.0
  0
VERTEX
  5
1C8CDE6ACCEF
  8
SJC2
 10
1767.279640820509
 20
1714.0140111287019
 30
0.0
 42
-0.120651329253439
  0
VERTEX
  5
1C8CDE6ACCF0
  8
SJC2
 10
1766.6905704036899
 20
1714.1582551089141
 30
0.0
 42
-0.1050790673246372
  0
VERTEX
  5
1C8CDE6ACCF1
  8
SJC2
 10
1766.1552295042741
 20
1714.599797566329
 30
0.0
 42
-0.0886278647047429
  0
VERTEX
  5
1C8CDE6ACCF2
  8
SJC2
 10
1765.81533773409
 20
1715.2295189725901
 30
0.0
 42
-0.079704503934722
  0
VERTEX
  5
1C8CDE6ACCF3
  8
SJC2
 10
1765.689483087403
 20
1716.0140111287019
 30
0.0
 42
-0.0797045039347204
  0
VERTEX
  5
1C8CDE6ACCF4
  8
SJC2
 10
1765.81533773409
 20
1716.7985032848139
 30
0.0
 42
-0.0886278647047481
  0
VERTEX
  5
1C8CDE6ACCF5
  8
SJC2
 10
1766.1552295042741
 20
1717.428224691075
 30
0.0
 42
-0.1050790673246424
  0
VERTEX
  5
1C8CDE6ACCF6
  8
SJC2
 10
1766.6905704036899
 20
1717.8697671484899
 30
0.0
 42
-0.120651329253433
  0
VERTEX
  5
1C8CDE6ACCF7
  8
SJC2
 10
1767.279640820509
 20
1718.0140111287019
 30
0.0
 42
-0.1206513292534549
  0
SEQEND
  5
1C8CDE6ACCF8
  8
SJC2
  0
POLYLINE
  5
1C8CDE6AAD1C
  8
SJC2
 66
     1
 10
0.0
 20
0.0
 30
0.0
  0
VERTEX
  5
1C8CDE6ACCF9
  8
SJC2
 10
1773.1893926873479
 20
1714.0140111287019
 30
0.0
 42
-0.1332500875588102
  0
VERTEX
  5
1C8CDE6ACCFA
  8
SJC2
 10
1772.67571506472
 20
1714.1533808969691
 30
0.0
 42
-0.106755782220821
  0
VERTEX
  5
1C8CDE6ACCFB
  8
SJC2
 10
1772.189338043351
 20
1714.599797566329
 30
0.0
 42
-0.0828303032114395
  0
VERTEX
  5
1C8CDE6ACCFC
  8
SJC2
 10
1771.8887508690359
 20
1715.2217075077519
 30
0.0
 42
-0.0713554525830378
  0
VERTEX
  5
1C8CDE6ACCFD
  8
SJC2
 10
1771.775101846692
 20
1716.0140111287019
 30
0.0
 42
-0.0713554525830371
  0
VERTEX
  5
1C8CDE6ACCFE
  8
SJC2
 10
1771.8887508690359
 20
1716.806314749653
 30
0.0
 42
-0.0828303032114262
  0
VERTEX
  5
1C8CDE6ACCFF
  8
SJC2
 10
1772.189338043351
 20
1717.428224691075
 30
0.0
 42
-0.1067557822208174
  0
VERTEX
  5
1C8CDE6ACD00
  8
SJC2
 10
1772.67571506472
 20
1717.8746413604349
 30
0.0
 42
-0.1332500875588086
  0
VERTEX
  5
1C8CDE6ACD01
  8
SJC2
 10
1773.1893926873479
 20
1718.0140111287019
 30
0.0
 42
-0.1332500875588559
  0
SEQEND
  5
1C8CDE6ACD02
  8
SJC2
  0
ARC
  5
1C8CDE6AAD27
  8
SJC2
 10
1767.279640820509
 20
1716.0140111287019
 30
0.0
 40
2.0
 50
270.0
 51
90.0
  0
ARC
  5
1C8CDE6AAD28
  8
SJC2
 10
1773.1893926873479
 20
1716.0140111287019
 30
0.0
 40
2.0
 50
270.0
 51
90.0
  0
POLYLINE
  5
1C8CDE6AAD29
  8
SJC2
 66
     1
 10
0.0
 20
0.0
 30
0.0
  0
VERTEX
  5
1C8CDE6ACD03
  8
SJC2
 10
1778.33398861309
 20
1714.0140111287019
 30
0.0
 42
-0.150911399745959
  0
VERTEX
  5
1C8CDE6ACD04
  8
SJC2
 10
1777.9059083064501
 20
1714.1462266343131
 30
0.0
 42
-0.1070103012881034
  0
VERTEX
  5
1C8CDE6ACD05
  8
SJC2
 10
1777.4761366401419
 20
1714.599797566329
 30
0.0
 42
-0.0749121317509504
  0
VERTEX
  5
1C8CDE6ACD06
  8
SJC2
 10
1777.219858861376
 20
1715.213278909054
 30
0.0
 42
-0.0616186277240593
  0
VERTEX
  5
1C8CDE6ACD07
  8
SJC2
 10
1777.1208027184371
 20
1716.0140111287019
 30
0.0
 42
-0.0616186277240571
  0
VERTEX
  5
1C8CDE6ACD08
  8
SJC2
 10
1777.219858861376
 20
1716.81474334835
 30
0.0
 42
-0.0749121317509533
  0
VERTEX
  5
1C8CDE6ACD09
  8
SJC2
 10
1777.4761366401419
 20
1717.428224691075
 30
0.0
 42
-0.107010301288108
  0
VERTEX
  5
1C8CDE6ACD0A
  8
SJC2
 10
1777.9059083064501
 20
1717.881795623091
 30
0.0
 42
-0.1509113997459668
  0
VERTEX
  5
1C8CDE6ACD0B
  8
SJC2
 10
1778.33398861309
 20
1718.0140111287019
 30
0.0
 42
-0.1509113997459639
  0
SEQEND
  5
1C8CDE6ACD0C
  8
SJC2
  0
ARC
  5
1C8CDE6AAD34
  8
SJC2
 10
1778.33398861309
 20
1716.0140111287019
 30
0.0
 40
2.0
 50
270.0000000000004
 51
89.999999999999588
  0
TEXT
  5
1C8CDE6AB34D
  8
INFORMATION
 10
3701.0
 20
2.0
 30
0.0
 40
0.8
  1
PLOTTER=CANON_LBP-830
  7
EXT08
  0
TEXT
  5
1C8CDE6AB34E
  8
INFORMATION
 10
3701.0
 20
3.0
 30
0.0
 40
0.8
  1
PAPER=A3
  7
EXT08
  0
TEXT
  5
1C8CDE6AB361
  8
INFORMATION
 10
3701.0
 20
1.0
 30
0.0
 40
0.8
  1
VERSION=3.0
  7
EXT08
  0
TEXT
  5
1C8CDE6AB560
  8
INFORMATION
 10
7401.0
 20
2.0
 30
0.0
 40
0.8
  1
PLOTTER=CANON_LBP-830
  7
EXT08
  0
TEXT
  5
1C8CDE6AB561
  8
INFORMATION
 10
7401.0
 20
3.0
 30
0.0
 40
0.8
  1
PAPER=A3
  7
EXT08
  0
TEXT
  5
1C8CDE6AB562
  8
INFORMATION
 10
7401.0
 20
1.0
 30
0.0
 40
0.8
  1
VERSION=3.0
  7
EXT08
  0
TEXT
  5
1C8CDE6AB89C
  8
INFORMATION
 10
7401.0
 20
2.0
 30
0.0
 40
0.8
  1
PLOTTER=CANON_LBP-830
  7
EXT08
  0
TEXT
  5
1C8CDE6AB89D
  8
INFORMATION
 10
7401.0
 20
3.0
 30
0.0
 40
0.8
  1
PAPER=A3
  7
EXT08
  0
TEXT
  5
1C8CDE6AB89E
  8
INFORMATION
 10
7401.0
 20
1.0
 30
0.0
 40
0.8
  1
VERSION=3.0
  7
EXT08
  0
SOLID
  5
1C8CDE6AB9FF
  8
MOJI
 10
1804.4821706676969
 20
1703.6186622687251
 30
0.0
 11
1799.9318976577649
 21
1698.7463465996079
 31
0.0
 12
1787.590087155379
 22
1714.8333234639649
 32
0.0
 13
1787.590087155379
 23
1714.8333234639649
 33
0.0
  0
TEXT
  5
1C8CDE6ABA00
  8
MOJI
 10
1902.157059415134
 20
1632.9461912112861
 30
0.0
 40
30.0
  1
3
 41
0.8
  7
EXT08
 72
     2
 11
1921.5856308437051
 21
1647.9461912112861
 31
0.0
 73
     2
  0
CIRCLE
  5
1C8CDE6ABA01
  8
MOJI
 10
1913.884487666199
 20
1648.8828920815099
 30
0.0
 40
24.0
  0
LINE
  5
1C8CDE6ABA02
  8
MOJI
 10
1890.7784963734871
 20
1618.4652994504249
 30
0.0
 11
2138.953036033397
 21
1618.4652994504249
 31
0.0
  0
TEXT
  5
1C8CDE6ABA03
  8
MOJI
 10
1944.357757780499
 20
1629.021055104361
 30
0.0
 40
30.0
  1
反射体（全周）
 41
0.8
  7
EXT08
  0
LINE
  5
1C8CDE6ABA04
  8
MOJI
 10
1787.590087155382
 20
1714.8333234639631
 30
0.0
 11
1890.7784963734871
 21
1618.4652994504249
 31
0.0
  0
TEXT
  5
1C8CDE6ABA05
  8
MOJI
 10
2916.3152375625132
 20
474.4331832792775
 30
0.0
 40
30.0
  1
ガラスビーズ
 41
0.8
  7
EXT08
 72
     1
 11
3001.1152375625138
 21
474.4331832792775
 31
0.0
  0
DIMENSION
  5
1C8CDE6ABBDF
  8
SUNPOU
  2
*D7
 10
1242.7993990967509
 20
563.40771112452398
 30
0.0
 11
1215.7993990967509
 21
1163.407711124524
 31
0.0
 70
     0
 13
842.79852806736915
 23
1763.407711124524
 33
0.0
 14
1042.79939909675
 24
563.40771112452398
 34
0.0
 50
90.0
1001
ACAD
1000
DSTYLE
1002
{
1070
   140
1040
3.0
1070
   340
1005
1C8CDE699DA6
1070
    40
1040
10.0
1070
   147
1040
1.1999999999999991
1070
    42
1040
1.0
1070
    44
1040
1.0
1070
    43
1040
6.0
1070
   271
1070
     2
1070
    41
1040
2.0
1002
}
  0
CIRCLE
  5
1C8CDE6ABBE2
  8
MOJI
 10
2477.9016535040569
 20
1414.0479433100959
 30
0.0
 40
24.0
  0
TEXT
  5
1C8CDE6ABC28
  8
MOJI
 10
3183.5179097868809
 20
594.4331832792775
 30
0.0
 40
30.0
  1
ポリカーボネート樹脂
 41
0.8
  7
EXT08
 72
     1
 11
3325.91790978688
 21
594.4331832792775
 31
0.0
  0
TEXT
  5
1C8CDE6AC488
  8
INFORMATION
 10
4155.9954217617478
 20
219.2203347410223
 30
0.0
 40
0.8
  1
PLOTTER=CANON_LBP-830
  7
EXT08
  0
TEXT
  5
1C8CDE6AC489
  8
INFORMATION
 10
4155.9954217617478
 20
220.2203347410223
 30
0.0
 40
0.8
  1
PAPER=A3
  7
EXT08
  0
LINE
  5
1C8CDE6AC951
  8
MOJI2
 10
648.41425023912461
 20
2319.1213904028109
 30
0.0
 11
1037.1828058956139
 21
2319.12139040281
 31
0.0
  0
LINE
  5
1C8CDE6AC952
  8
MOJI2
 10
648.41425023912461
 20
2329.1213904028109
 30
0.0
 11
1037.1828058956139
 21
2329.1213904028109
 31
0.0
  0
TEXT
  5
1C8CDE6AC953
  8
MOJI2
 10
661.85769243947595
 20
2339.9571265212699
 30
0.0
 40
40.0
  1
HKB-114-80D
 41
0.8
  7
EXT08
  0
TEXT
  5
1C8CDE6AC954
  8
MOJI
 10
338.87837944894289
 20
1135.0030329697111
 30
0.0
 40
30.0
  1
7
 41
0.8
  7
EXT08
 72
     2
 11
358.30695087751428
 21
1150.0030329697111
 31
0.0
 73
     2
  0
CIRCLE
  5
1C8CDE6AC955
  8
MOJI
 10
351.60887563612499
 20
1148.880971870972
 30
0.0
 40
24.0
  0
TEXT
  5
1C8CDE6AC956
  8
MOJI
 10
380.67524568882891
 20
1131.760784786368
 30
0.0
 40
30.0
  1
ロックピン（南京錠付）
 41
0.8
  7
EXT08
 72
     2
 11
676.67524568882891
 21
1146.760784786368
 31
0.0
 73
     2
  0
LINE
  5
1C8CDE6AC957
  8
MOJI
 10
690.87038243736515
 20
1121.760784786368
 30
0.0
 11
319.29565547002773
 21
1121.760784786368
 31
0.0
  0
LINE
  5
1C8CDE6AC958
  8
MOJI
 10
690.87038243736515
 20
1121.760784786368
 30
0.0
 11
670.87038243736515
 21
1121.760784786368
 31
0.0
  0
TEXT
  5
1C8CDE6AC959
  8
MOJI
 10
394.39610232184441
 20
1083.9491186573871
 30
0.0
 40
30.0
  1
（φ14貫通穴）
 41
0.8
  7
EXT08
 72
     2
 11
592.11038803613064
 21
1098.9491186573871
 31
0.0
 73
     2
  0
LINE
  5
1C8CDE6AC95C
  8
SJC
 10
3056.9064249693911
 20
1123.7360670234971
 30
0.0
 11
3056.9064249693911
 21
1125.3360470234959
 31
0.0
1001
ACAD
1000
ASC_BOUNDS
1002
{
1070
    19
1002
}
  0
LINE
  5
1C8CDE6AC95D
  8
SJC
 10
3156.9064249693911
 20
1123.7360670234971
 30
0.0
 11
3156.9064249693911
 21
1125.3360470234959
 31
0.0
1001
ACAD
1000
ASC_BOUNDS
1002
{
1070
    19
1002
}
  0
ARC
  5
1C8CDE6AC95E
  8
KASOU
 10
3028.5605083250612
 20
1515.403493325678
 30
0.0
 40
143.4670059833463
 50
3.9699034382988398
 51
81.818078385086068
  0
LINE
  5
1C8CDE6AC95F
  8
SJC2
 10
2834.7654820219609
 20
1504.999786740033
 30
0.0
 11
2861.9235574635732
 21
1504.999786740033
 31
0.0
  0
DIMENSION
  5
1C8CDE6AC960
  8
SUNPOU
  2
*D12
 10
2910.8445197427668
 20
1075.4719870234969
 30
0.0
 11
2848.3445197427668
 21
1027.471987023496
 31
0.0
 12
-4154.9954217617487
 22
-217.2203347410223
 32
0.0
 70
     0
  1
φ<>（底板径）
 13
2785.8445197427668
 23
1123.7360670234971
 33
0.0
 14
2910.8445197427668
 24
1123.7360670234971
 34
0.0
1001
ACAD
1000
DSTYLE
1002
{
1070
   140
1040
3.0
1070
   340
1005
1C8CDE699DA6
1070
    40
1040
10.0
1070
   147
1040
1.1999999999999991
1070
    42
1040
1.0
1070
    44
1040
1.0
1070
    43
1040
6.0
1070
   271
1070
     2
1070
    41
1040
2.0
1002
}
  0
DIMENSION
  5
1C8CDE6AC961
  8
SUNPOU
  2
*D11
 10
3254.5064249693919
 20
1123.7360670234971
 30
0.0
 11
3227.506424969391
 21
1324.536067023497
 31
0.0
 12
-4154.9954217617487
 22
-217.2203347410223
 32
0.0
 70
     0
  1
400
 13
3181.9064249693911
 23
1525.336067023497
 33
0.0
 14
3156.9064249693911
 24
1123.7360670234971
 34
0.0
 50
270.0
1001
ACAD
1000
DSTYLE
1002
{
1070
   140
1040
3.0
1070
   340
1005
1C8CDE699DA6
1070
    40
1040
10.0
1070
   147
1040
1.1999999999999991
1070
    42
1040
1.0
1070
    44
1040
1.0
1070
    43
1040
6.0
1070
   271
1070
     2
1070
    41
1040
2.0
1002
}
  0
DIMENSION
  5
1C8CDE6AC962
  8
SUNPOU
  2
*D10
 10
3006.9064249693911
 20
1708.4681070234949
 30
0.0
 11
3094.4064249693911
 21
1735.4681070234949
 31
0.0
 12
-4154.9954217617487
 22
-217.2203347410223
 32
0.0
 70
     0
 13
3181.9064249693911
 23
1525.336067023497
 33
0.0
 14
3006.9064249693911
 24
1525.336067023497
 34
0.0
1001
ACAD
1000
DSTYLE
1002
{
1070
   140
1040
3.0
1070
   340
1005
1C8CDE699DA6
1070
    40
1040
10.0
1070
   147
1040
1.1999999999999991
1070
    42
1040
1.0
1070
    44
1040
1.0
1070
    43
1040
6.0
1070
   271
1070
     2
1070
    41
1040
2.0
1002
}
  0
SOLID
  5
1C8CDE6AC963
  8
MOJI
 10
2783.9350567337119
 20
1647.5092302739949
 30
0.0
 11
2778.8236558945218
 21
1643.229273976837
 31
0.0
 12
2794.2192252055888
 22
1630.0350496078479
 32
0.0
 13
2794.2192252055888
 23
1630.0350496078479
 33
0.0
  0
LINE
  5
1C8CDE6AC964
  8
MOJI
 10
2794.2192252055888
 20
1630.0350496078479
 30
0.0
 11
2710.4085596351752
 21
1730.127171252677
 31
0.0
  0
LINE
  5
1C8CDE6AC965
  8
MOJI
 10
2710.4085596351752
 20
1730.127171252677
 30
0.0
 11
2690.4085596351738
 21
1730.127171252677
 31
0.0
  0
TEXT
  5
1C8CDE6AC966
  8
MOJI
 10
2517.2330558806111
 20
1742.892474887467
 30
0.0
 40
30.0
  1
6
 41
0.8
  7
EXT08
 72
     2
 11
2536.6616273091822
 21
1757.892474887467
 31
0.0
 73
     2
  0
TEXT
  5
1C8CDE6AC967
  8
MOJI
 10
2558.1765867410231
 20
1740.127171252677
 30
0.0
 40
30.0
  1
サヤ管フタ
 41
0.8
  7
EXT08
 72
     2
 11
2692.5765867410232
 21
1755.127171252677
 31
0.0
 73
     2
  0
SOLID
  5
1C8CDE6AC968
  8
MOJI
 10
2777.4603912708881
 20
1310.4859625792731
 30
0.0
 11
2772.3489904316998
 21
1306.2060062821149
 31
0.0
 12
2787.7445597427668
 22
1293.011781913126
 32
0.0
 13
2787.7445597427668
 23
1293.011781913126
 33
0.0
  0
LINE
  5
1C8CDE6AC969
  8
MOJI
 10
2710.4299118281378
 20
1385.3459388050831
 30
0.0
 11
2678.7558440557818
 21
1385.3459388050831
 31
0.0
  0
LINE
  5
1C8CDE6AC96A
  8
MOJI
 10
2774.9046908512942
 20
1308.345984430694
 30
0.0
 11
2710.4299118281392
 21
1385.3459388050831
 31
0.0
  0
LINE
  5
1C8CDE6AC96B
  8
CENTER
 10
3028.406424969392
 20
1525.3665009207571
 30
0.0
 11
3028.406424969392
 21
1505.305633126236
 31
0.0
  0
LINE
  5
1C8CDE6AC96C
  8
CENTER
 10
3018.375991072131
 20
1515.3360670234961
 30
0.0
 11
3038.4368588666512
 21
1515.3360670234961
 31
0.0
  0
DIMENSION
  5
1C8CDE6AC96D
  8
SUNPOU
  2
*D9
 10
2773.3445197427682
 20
1808.4680870234949
 30
0.0
 11
2848.3445197427668
 21
1851.4680870234949
 31
0.0
 12
-4154.9954217617487
 22
-217.2203347410223
 32
0.0
 70
     0
  1
φ<>
 13
2923.3445197427682
 23
1525.3360470234979
 33
0.0
 14
2773.3445197427682
 24
1525.3360470234959
 34
0.0
1001
ACAD
1000
DSTYLE
1002
{
1070
   140
1040
3.0
1070
   340
1005
1C8CDE699DA6
1070
    40
1040
10.0
1070
   147
1040
1.1999999999999991
1070
    42
1040
1.0
1070
    44
1040
1.0
1070
    43
1040
6.0
1070
   271
1070
     2
1070
    41
1040
2.0
1002
}
  0
DIMENSION
  5
1C8CDE6AC96E
  8
SUNPOU
  2
*D8
 10
2914.8445197427682
 20
1708.4680870234961
 30
0.0
 11
2848.3580219140108
 21
1751.4680870234961
 31
0.0
 12
-4154.9954217617487
 22
-217.2203347410223
 32
0.0
 70
     0
  1
φ133
 13
2781.8715240852539
 23
1591.941093642492
 33
0.0
 14
2914.8445197427682
 24
1593.8360470234711
 34
0.0
1001
ACAD
1000
DSTYLE
1002
{
1070
   140
1040
3.0
1070
   340
1005
1C8CDE699DA6
1070
    40
1040
10.0
1070
   147
1040
1.1999999999999991
1070
    42
1040
1.0
1070
    44
1040
1.0
1070
    43
1040
6.0
1070
   271
1070
     2
1070
    41
1040
2.0
1002
}
  0
LINE
  5
1C8CDE6AC96F
  8
CENTER
 10
3028.406424969392
 20
1517.9360730234971
 30
0.0
 11
3028.406424969392
 21
1512.7360610234959
 31
0.0
  0
LINE
  5
1C8CDE6AC970
  8
CENTER
 10
3031.0064249693919
 20
1515.3360670234961
 30
0.0
 11
3025.8064249693912
 21
1515.3360670234961
 31
0.0
  0
POINT
  5
1C8CDE6AC971
  8
HASEN
 10
3028.406424969392
 20
1515.3360670234961
 30
0.0
  0
LINE
  5
1C8CDE6AC972
  8
CENTER
 10
3018.375991072131
 20
1515.3360670234961
 30
0.0
 11
3038.4368588666512
 21
1515.3360670234961
 31
0.0
  0
CIRCLE
  5
1C8CDE6AC973
  8
SJC
  6
CONTINUOUS
 10
3028.406424969392
 20
1515.3360670234961
 30
0.0
 40
4.75
  0
LINE
  5
1C8CDE6AC974
  8
SJC
  6
CONTINUOUS
 10
3030.1774249693922
 20
1512.914597023497
 30
0.0
 11
3029.1134249693919
 21
1513.978455023497
 31
0.0
  0
LINE
  5
1C8CDE6AC975
  8
SJC
  6
CONTINUOUS
 10
3030.8280249693912
 20
1513.5651710234961
 30
0.0
 11
3029.7640249693909
 21
1514.629021023497
 31
0.0
  0
LINE
  5
1C8CDE6AC976
  8
SJC
  6
CONTINUOUS
 10
3030.1774249693922
 20
1517.7575750234971
 30
0.0
 11
3029.11362496939
 21
1516.6937170234969
 31
0.0
  0
LINE
  5
1C8CDE6AC977
  8
SJC
  6
CONTINUOUS
 10
3030.8280249693912
 20
1517.1070930234971
 30
0.0
 11
3029.7640249693909
 21
1516.0432350234969
 31
0.0
  0
LINE
  5
1C8CDE6AC978
  8
SJC
  6
CONTINUOUS
 10
3027.0488249693922
 20
1516.0431510234971
 30
0.0
 11
3025.98502496939
 21
1517.1070030234971
 31
0.0
  0
LINE
  5
1C8CDE6AC979
  8
SJC
  6
CONTINUOUS
 10
3027.6994249693912
 20
1516.6937170234969
 30
0.0
 11
3026.63542496939
 21
1517.7575750234971
 31
0.0
  0
LINE
  5
1C8CDE6AC97A
  8
SJC
  6
CONTINUOUS
 10
3027.6994249693912
 20
1513.978455023497
 30
0.0
 11
3026.63542496939
 21
1512.914597023497
 31
0.0
  0
LINE
  5
1C8CDE6AC97B
  8
SJC
  6
CONTINUOUS
 10
3027.0488249693922
 20
1514.628937023497
 30
0.0
 11
3025.98502496939
 21
1513.565087023497
 31
0.0
  0
ARC
  5
1C8CDE6AC97C
  8
SJC
  6
CONTINUOUS
 10
3028.406424969392
 20
1515.3360670234961
 30
0.0
 40
3.0
 50
126.179851
 51
143.82014599999999
  0
ARC
  5
1C8CDE6AC97D
  8
SJC
  6
CONTINUOUS
 10
3028.406424969392
 20
1515.3360670234961
 30
0.0
 40
3.0
 50
36.179849999999973
 51
53.820149999999991
  0
ARC
  5
1C8CDE6AC97E
  8
SJC
  6
CONTINUOUS
 10
3028.406424969392
 20
1515.3360670234961
 30
0.0
 40
3.0
 50
306.17984999999999
 51
323.82015000000013
  0
ARC
  5
1C8CDE6AC97F
  8
SJC
  6
CONTINUOUS
 10
3028.406424969392
 20
1515.3360670234961
 30
0.0
 40
3.0
 50
216.17984999999999
 51
233.82015000000001
  0
ARC
  5
1C8CDE6AC980
  8
SJC
  6
CONTINUOUS
 10
3028.406424969392
 20
1517.400817023497
 30
0.0
 40
1.0
 50
225.0
 51
315.0
  0
ARC
  5
1C8CDE6AC981
  8
SJC
  6
CONTINUOUS
 10
3026.3418249693909
 20
1515.3360670234961
 30
0.0
 40
1.0
 50
315.0
 51
45.0
  0
ARC
  5
1C8CDE6AC982
  8
SJC
  6
CONTINUOUS
 10
3028.406424969392
 20
1513.2713170234961
 30
0.0
 40
1.0
 50
45.0
 51
134.999999
  0
ARC
  5
1C8CDE6AC983
  8
SJC
  6
CONTINUOUS
 10
3030.4710249693908
 20
1515.3360670234961
 30
0.0
 40
1.0
 50
134.999999
 51
225.0
  0
LINE
  5
1C8CDE6AC984
  8
CENTER
 10
3028.406424969392
 20
1525.3665009207571
 30
0.0
 11
3028.406424969392
 21
1505.305633126236
 31
0.0
  0
LINE
  5
1C8CDE6AC985
  8
CENTER
 10
3106.906424969392
 20
1094.3608773093811
 30
0.0
 11
3106.906424969392
 21
1688.9763258447499
 31
0.0
1001
ACAD
1000
ASC_BOUNDS
1002
{
1070
    19
1002
}
  0
LINE
  5
1C8CDE6AC986
  8
HASEN
 10
3047.906444969391
 20
1483.7431670234971
 30
0.0
 11
3047.906444969391
 21
1125.3360670234961
 31
0.0
  0
LINE
  5
1C8CDE6AC987
  8
HASEN
 10
3165.9063849693912
 20
1517.336067023497
 30
0.0
 11
3165.9063849693921
 21
1125.3360670234961
 31
0.0
  0
LINE
  5
1C8CDE6AC988
  8
HASEN
 10
2907.3444997427669
 20
1517.3360470234959
 30
0.0
 11
2907.3444997427669
 21
1125.3360470234959
 31
0.0
  0
LINE
  5
1C8CDE6AC989
  8
HASEN
 10
2789.3445597427672
 20
1517.3360470234959
 30
0.0
 11
2789.3445597427672
 21
1125.3360470234959
 31
0.0
  0
ARC
  5
1C8CDE6AC98A
  8
SJC2
 10
3043.8615460579058
 20
1642.52999418635
 30
0.0
 40
2.5
 50
125.16421515850369
 51
170.16421595850369
  0
LINE
  5
1C8CDE6AC98B
  8
SJC2
 10
3048.978248436455
 20
1657.4101751915989
 30
0.0
 11
3047.0076895293591
 21
1657.7518251254
 31
0.0
  0
LINE
  5
1C8CDE6AC98C
  8
SJC2
 10
3047.0076895293591
 20
1657.7518251254
 30
0.0
 11
3045.1141381509242
 21
1646.8289295776431
 31
0.0
  0
ARC
  5
1C8CDE6AC98D
  8
SJC2
 10
3044.128959142336
 20
1646.9997578324369
 30
0.0
 40
1.0
 50
305.1642061585037
 51
350.16421615850368
  0
LINE
  5
1C8CDE6AC98E
  8
SJC2
 10
3044.7047652929268
 20
1646.1823269525819
 30
0.0
 11
3042.4216489707092
 21
1644.57385756238
 31
0.0
  0
LINE
  5
1C8CDE6AC98F
  8
SJC
 10
3006.9064249693911
 20
1525.336067023497
 30
0.0
 11
3006.9064249693911
 21
1523.3360670234961
 31
0.0
  0
LINE
  5
1C8CDE6AC990
  8
SJC2
 10
3023.8092142787359
 20
1541.5059404926169
 30
0.0
 11
3020.0159042824648
 21
1525.336067023497
 31
0.0
  0
LINE
  5
1C8CDE6AC991
  8
HASEN
 10
3020.6891658293671
 20
1525.3360670234961
 30
0.0
 11
3021.5894579470009
 21
1525.8155774103061
 31
0.0
  0
ARC
  5
1C8CDE6AC992
  8
SJC2
 10
3023.9415277790031
 20
1527.634136639314
 30
0.0
 40
2.5
 50
304.09696927122201
 51
350.16421615850368
  0
ARC
  5
1C8CDE6AC993
  8
SJC
 10
3036.9968249693902
 20
1522.336067023497
 30
0.0
 40
1.0
 50
15.000009999999991
 51
89.999996999999993
  0
ARC
  5
1C8CDE6AC994
  8
SJC
 10
3036.9967449693909
 20
1522.336067023497
 30
0.0
 40
1.0
 50
15.000009999999991
 51
89.999996999999993
  0
LINE
  5
1C8CDE6AC995
  8
SJC2
 10
3023.8522980104958
 20
1527.0202429251531
 30
0.0
 11
3021.5894579470009
 21
1525.8155774103061
 31
0.0
  0
ARC
  5
1C8CDE6AC996
  8
SJC2
 10
3023.2648914253391
 20
1528.12362568001
 30
0.0
 40
1.25
 50
298.0294456371235
 51
350.16419657023079
  0
LINE
  5
1C8CDE6AC997
  8
SJC2
 10
3026.2523434533591
 20
1538.037503434362
 30
0.0
 11
3023.8091550504068
 21
1541.50568801798
 31
0.0
  0
LINE
  5
1C8CDE6AC998
  8
SJC
 10
3046.780564969391
 20
1483.4694070234971
 30
0.0
 11
3011.0563249693919
 21
1504.094787023497
 31
0.0
  0
LINE
  5
1C8CDE6AC999
  8
SJC
 10
3048.3064449693902
 20
1517.336067023497
 30
0.0
 11
3048.3064449693902
 21
1483.4694070234971
 31
0.0
  0
LINE
  5
1C8CDE6AC99A
  8
SJC
 10
3048.3064449693902
 20
1483.4694070234971
 30
0.0
 11
3046.3064449693911
 21
1483.4694070234971
 31
0.0
  0
ARC
  5
1C8CDE6AC99B
  8
SJC
 10
3041.290084969391
 20
1519.8360670234961
 30
0.0
 40
2.5
 50
195.0
 51
270.0
  0
POINT
  5
1C8CDE6AC99C
  8
HASEN
 10
3028.406424969392
 20
1515.3360670234961
 30
0.0
  0
ARC
  5
1C8CDE6AC99D
  8
SJC
 10
3013.2064649693912
 20
1507.818667023497
 30
0.0
 40
4.3000002000000004
 50
180.0
 51
240.0
  0
LINE
  5
1C8CDE6AC99E
  8
SJC
 10
3037.9625649693921
 20
1522.594847023496
 30
0.0
 11
3038.8751649693918
 21
1519.189007023497
 31
0.0
  0
LINE
  5
1C8CDE6AC99F
  8
SJC
 10
3008.9064249693911
 20
1523.3360670234961
 30
0.0
 11
3008.9064249693911
 21
1507.818667023497
 31
0.0
  0
ARC
  5
1C8CDE6AC9A0
  8
SJC
 10
3178.31608496939
 20
1522.336067023497
 30
0.0
 40
1.0
 50
89.999996999999993
 51
165.0
  0
LINE
  5
1C8CDE6AC9A1
  8
SJC
 10
3181.9064249693911
 20
1525.336067023497
 30
0.0
 11
3181.9064249693911
 21
1523.3360670234961
 31
0.0
  0
ARC
  5
1C8CDE6AC9A2
  8
SJC
 10
3174.0227449693898
 20
1519.8360670234961
 30
0.0
 40
2.5
 50
270.0
 51
344.99999000000003
  0
LINE
  5
1C8CDE6AC9A3
  8
SJC
 10
3177.3501449693899
 20
1522.5949270234969
 30
0.0
 11
3176.4375449693912
 21
1519.189007023497
 31
0.0
  0
LINE
  5
1C8CDE6AC9A4
  8
SJC
 10
3164.0566948014912
 20
1525.336067023497
 30
0.0
 11
3049.7561551372901
 21
1525.336067023497
 31
0.0
  0
LINE
  5
1C8CDE6AC9A5
  8
SJC
 10
3181.9064249693911
 20
1525.336067023497
 30
0.0
 11
3006.9064249693911
 21
1525.336067023497
 31
0.0
  0
LINE
  5
1C8CDE6AC9A6
  8
SJC
 10
3181.9064249693911
 20
1523.3360670234961
 30
0.0
 11
3006.9064249693911
 21
1523.3360670234961
 31
0.0
  0
LINE
  5
1C8CDE6AC9A7
  8
SJC
 10
3174.0227449693898
 20
1517.336067023497
 30
0.0
 11
3041.290084969391
 21
1517.336067023497
 31
0.0
  0
LINE
  5
1C8CDE6AC9A8
  8
SJC
 10
3156.9064249693911
 20
1123.7360670234971
 30
0.0
 11
3056.9064249693911
 21
1123.7360670234971
 31
0.0
  0
LINE
  5
1C8CDE6AC9A9
  8
SJC
 10
3167.506384969392
 20
1125.3360470234959
 30
0.0
 11
3046.3064449693911
 21
1125.3360470234959
 31
0.0
  0
LINE
  5
1C8CDE6AC9AA
  8
SJC
 10
3167.5063849693911
 20
1517.336067023497
 30
0.0
 11
3167.506384969392
 21
1125.3360670234961
 31
0.0
  0
LINE
  5
1C8CDE6AC9AB
  8
SJC
 10
3046.3064449693911
 20
1483.7431670234971
 30
0.0
 11
3046.3064449693911
 21
1125.3360670234961
 31
0.0
  0
LINE
  5
1C8CDE6AC9AC
  8
SJC2
 10
3041.3980005494741
 20
1642.95711493917
 30
0.0
 11
3023.8092142787359
 21
1541.5059404926169
 31
0.0
  0
LINE
  5
1C8CDE6AC9AD
  8
SJC2
 10
3048.978248436455
 20
1657.4101751915989
 30
0.0
 11
3026.4044802508579
 21
1527.2071398365611
 31
0.0
  0
LINE
  5
1C8CDE6AC9AE
  8
SJC2
 10
3047.0076457479181
 20
1657.7518256620019
 30
0.0
 11
3024.4965181056759
 21
1527.910094136008
 31
0.0
  0
LINE
  5
1C8CDE6AC9AF
  8
CENTER
 10
2848.3445197427668
 20
1094.3608773093811
 30
0.0
 11
2848.3445197427668
 21
1688.9763258447499
 31
0.0
1001
ACAD
1000
ASC_BOUNDS
1002
{
1070
    19
1002
}
  0
ARC
  5
1C8CDE6AC9B0
  8
SJC2
 10
2848.3445197427682
 20
1626.866047023497
 30
0.0
 40
7.5
 50
6.9215347325336296
 51
173.07846526744521
  0
ARC
  5
1C8CDE6AC9B1
  8
SJC2
 10
2848.3445197427682
 20
1611.866047023497
 30
0.0
 40
7.5
 50
187.4412803380886
 51
352.55871966193251
  0
LINE
  5
1C8CDE6AC9B2
  8
SJC2
 10
2840.9076839129798
 20
1610.8947217222899
 30
0.0
 11
2840.90460139162
 21
1617.0108494391429
 31
0.0
  0
LINE
  5
1C8CDE6AC9B3
  8
HASEN
 10
2840.9046013916181
 20
1617.010849439145
 30
0.0
 11
2840.8991788567159
 21
1627.7698717246899
 31
0.0
  0
LINE
  5
1C8CDE6AC9B4
  8
SJC2
 10
2855.7844380939191
 20
1617.010849439145
 30
0.0
 11
2855.7813555725588
 21
1610.8947217222931
 31
0.0
  0
LINE
  5
1C8CDE6AC9B5
  8
HASEN
 10
2855.7844380939191
 20
1617.010849439145
 30
0.0
 11
2855.78986062882
 21
1627.7698717246899
 31
0.0
  0
ARC
  5
1C8CDE6AC9B6
  8
SJC2
 10
2848.3445197427641
 20
1591.278680484605
 30
0.0
 40
52.062847824668779
 50
2.8155451314765951
 51
177.18445486852301
  0
ARC
  5
1C8CDE6AC9B7
  8
SJC2
 10
2848.344519742765
 20
1591.3079763971909
 30
0.0
 40
55.058070626311341
 50
2.631743565752763
 51
177.368256434247
  0
ARC
  5
1C8CDE6AC9B8
  8
SJC2
 10
2848.344519742765
 20
1591.317542504798
 30
0.0
 40
66.547673625836737
 50
2.1688834420140779
 51
177.83111655798581
  0
ARC
  5
1C8CDE6AC9B9
  8
SJC
 10
2919.7541797427671
 20
1522.336047023497
 30
0.0
 40
1.0
 50
89.999997000000079
 51
165.00000000000011
  0
LINE
  5
1C8CDE6AC9BA
  8
SJC
 10
2923.3445197427682
 20
1525.336047023497
 30
0.0
 11
2923.3445197427682
 21
1523.336047023497
 31
0.0
  0
ARC
  5
1C8CDE6AC9BB
  8
SJC
 10
2915.4608397427669
 20
1519.836047023497
 30
0.0
 40
2.5
 50
270.00000000000011
 51
344.99999000000008
  0
LINE
  5
1C8CDE6AC9BC
  8
SJC
 10
2918.7882397427679
 20
1522.5949070234969
 30
0.0
 11
2917.8756397427678
 21
1519.188987023497
 31
0.0
  0
ARC
  5
1C8CDE6AC9BD
  8
SJC2
 10
2854.3445197427668
 20
1525.3360470234959
 30
0.0
 40
2.0
 50
164.99999
 51
180.0
  0
LINE
  5
1C8CDE6AC9BE
  8
SJC2
 10
2839.3445197427682
 20
1527.0808970234971
 30
0.0
 11
2839.3445197427682
 21
1525.3360470234959
 31
0.0
  0
ARC
  5
1C8CDE6AC9BF
  8
SJC2
 10
2842.3445197427668
 20
1525.3360470234959
 30
0.0
 40
2.0
 50
0.0
 51
15.0
  0
LINE
  5
1C8CDE6AC9C0
  8
SJC2
 10
2857.3445197427668
 20
1527.0808970234971
 30
0.0
 11
2857.3445197427668
 21
1525.3360470234959
 31
0.0
  0
LINE
  5
1C8CDE6AC9C1
  8
SJC2
 10
2838.8428697427671
 20
1527.947886023496
 30
0.0
 11
2843.7152497427669
 21
1527.947886023496
 31
0.0
  0
LINE
  5
1C8CDE6AC9C2
  8
SJC2
 10
2841.3709497427672
 20
1536.6969630234969
 30
0.0
 11
2844.2763997427669
 21
1525.853688023496
 31
0.0
  0
ARC
  5
1C8CDE6AC9C3
  8
SJC2
 10
2831.7116497427669
 20
1534.1087650234961
 30
0.0
 40
10.0
 50
15.0
 51
74.43854300000001
  0
ARC
  5
1C8CDE6AC9C4
  8
SJC2
 10
2838.3445197427668
 20
1527.0808970234971
 30
0.0
 40
1.0
 50
0.0000025044777
 51
81.480380000000011
  0
LINE
  5
1C8CDE6AC9C5
  8
SJC2
 10
2852.9737897427672
 20
1527.947886023496
 30
0.0
 11
2857.846169742767
 21
1527.947886023496
 31
0.0
  0
ARC
  5
1C8CDE6AC9C6
  8
SJC2
 10
2858.3445197427668
 20
1527.0808970234971
 30
0.0
 40
1.0
 50
98.519618000000008
 51
179.99999
  0
LINE
  5
1C8CDE6AC9C7
  8
SJC2
 10
2855.318089742766
 20
1536.696961023496
 30
0.0
 11
2852.4126397427672
 21
1525.8536850234959
 31
0.0
  0
ARC
  5
1C8CDE6AC9C8
  8
SJC2
 10
2864.9773897427672
 20
1534.1087650234961
 30
0.0
 40
10.0
 50
105.56144999999999
 51
164.99999
  0
ARC
  5
1C8CDE6AC9C9
  8
SJC
 10
2776.934859742767
 20
1522.3360470234959
 30
0.0
 40
1.0
 50
15.0
 51
90.000003000000007
  0
LINE
  5
1C8CDE6AC9CA
  8
SJC
 10
2773.3445197427682
 20
1525.3360470234959
 30
0.0
 11
2773.3445197427682
 21
1523.3360470234959
 31
0.0
  0
LINE
  5
1C8CDE6AC9CB
  8
SJC
 10
2863.6445197427679
 20
1483.4693870234969
 30
0.0
 11
2833.0445197427671
 21
1483.4693870234969
 31
0.0
  0
ARC
  5
1C8CDE6AC9CC
  8
SJC
 10
2781.2281997427672
 20
1519.836047023497
 30
0.0
 40
2.5
 50
195.00001
 51
270.0
  0
LINE
  5
1C8CDE6AC9CD
  8
SJC
 10
2833.0445197427671
 20
1523.3360470234959
 30
0.0
 11
2833.0445197427671
 21
1483.4693870234969
 31
0.0
  0
LINE
  5
1C8CDE6AC9CE
  8
SJC
 10
2777.900799742767
 20
1522.594907023496
 30
0.0
 11
2778.8133997427672
 21
1519.1889870234961
 31
0.0
  0
LINE
  5
1C8CDE6AC9CF
  8
SJC
 10
2863.6445197427679
 20
1523.3360470234959
 30
0.0
 11
2863.6445197427679
 21
1483.4693870234969
 31
0.0
  0
LINE
  5
1C8CDE6AC9D0
  8
SJC
 10
2773.3445197427682
 20
1525.3360470234959
 30
0.0
 11
2923.3445197427682
 21
1525.3360470234959
 31
0.0
  0
LINE
  5
1C8CDE6AC9D1
  8
SJC
 10
2773.3445197427682
 20
1523.3360470234959
 30
0.0
 11
2923.3445197427682
 21
1523.3360470234959
 31
0.0
  0
LINE
  5
1C8CDE6AC9D2
  8
SJC
 10
2781.2281997427672
 20
1517.3360470234959
 30
0.0
 11
2915.4608397427669
 21
1517.3360470234959
 31
0.0
  0
LINE
  5
1C8CDE6AC9D3
  8
SJC
 10
2910.8445197427668
 20
1125.3360470234959
 30
0.0
 11
2910.8445197427668
 21
1123.7360670234971
 31
0.0
  0
LINE
  5
1C8CDE6AC9D4
  8
SJC
 10
2785.8445197427668
 20
1125.3360470234959
 30
0.0
 11
2785.8445197427668
 21
1123.7360670234971
 31
0.0
  0
LINE
  5
1C8CDE6AC9D5
  8
SJC
 10
2785.8445197427668
 20
1123.7360670234971
 30
0.0
 11
2910.8445197427668
 21
1123.7360670234971
 31
0.0
  0
LINE
  5
1C8CDE6AC9D6
  8
SJC
 10
2785.8445197427668
 20
1125.3360470234959
 30
0.0
 11
2910.8445197427668
 21
1125.3360470234959
 31
0.0
  0
LINE
  5
1C8CDE6AC9D7
  8
SJC
 10
2908.9444997427681
 20
1517.3360470234959
 30
0.0
 11
2908.9444997427681
 21
1125.3360470234959
 31
0.0
  0
LINE
  5
1C8CDE6AC9D8
  8
SJC
 10
2787.7445597427668
 20
1517.3360470234959
 30
0.0
 11
2787.7445597427668
 21
1125.3360470234959
 31
0.0
  0
ARC
  5
1C8CDE6AC9D9
  8
SJC2
 10
2848.3445197427668
 20
1593.8360470234959
 30
0.0
 40
66.5
 50
180.0
 51
261.48038000000003
  0
ARC
  5
1C8CDE6AC9DA
  8
SJC2
 10
2848.3445197427668
 20
1593.8360470234959
 30
0.0
 40
66.5
 50
278.51961999999997
 51
0.0
  0
ARC
  5
1C8CDE6AC9DB
  8
SJC2
 10
2848.3445197427668
 20
1593.8360470234959
 30
0.0
 40
55.0
 50
180.0
 51
261.44988999999998
  0
ARC
  5
1C8CDE6AC9DC
  8
SJC2
 10
2848.3445197427668
 20
1593.8360470234959
 30
0.0
 40
52.0
 50
180.0
 51
0.0
  0
ARC
  5
1C8CDE6AC9DD
  8
SJC2
 10
2848.3445197427668
 20
1593.8360470234959
 30
0.0
 40
55.0
 50
278.55011000000002
 51
0.0
  0
LINE
  5
1C8CDE6AC9DE
  8
MOJI2
 10
2916.2640115524032
 20
1979.9923951831499
 30
0.0
 11
3042.4932821253619
 21
1979.9923951831499
 31
0.0
  0
LINE
  5
1C8CDE6AC9DF
  8
MOJI2
 10
2916.2640115524032
 20
1969.9923951831511
 30
0.0
 11
3042.4932821253619
 21
1969.9923951831511
 31
0.0
  0
TEXT
  5
1C8CDE6AC9E0
  8
MOJI2
 10
2919.541568568734
 20
1990.82813130161
 30
0.0
 40
40.0
  1
サヤ管
 41
0.8
  7
EXT08
  0
CIRCLE
  5
1C8CDE6AC9E1
  8
MOJI
 10
2529.1608503401262
 20
1758.829175757691
 30
0.0
 40
24.0
  0
LINE
  5
1C8CDE6AC9E2
  8
MOJI
 10
2690.4085596351738
 20
1730.127171252677
 30
0.0
 11
2494.8971273080192
 21
1730.127171252677
 31
0.0
  0
TEXT
  5
1C8CDE6AC9E3
  8
MOJI
 10
2465.9738590445422
 20
1398.111242439873
 30
0.0
 40
30.0
  1
5
 41
0.8
  7
EXT08
 72
     2
 11
2485.4024304731138
 21
1413.111242439873
 31
0.0
 73
     2
  0
CIRCLE
  5
1C8CDE6AC9E4
  8
MOJI
 10
2477.9016535040569
 20
1414.047943310097
 30
0.0
 40
24.0
  0
LINE
  5
1C8CDE6AC9E5
  8
MOJI
 10
2678.7558440557818
 20
1385.3459388050831
 30
0.0
 11
2456.861152117343
 21
1385.3459388050831
 31
0.0
  0
TEXT
  5
1C8CDE6AC9E6
  8
MOJI
 10
2508.8882753460971
 20
1395.3459388050831
 30
0.0
 40
30.0
  1
サヤ管 φ121
 41
0.8
  7
EXT08
 72
     2
 11
2696.7739896318112
 21
1410.3459388050831
 31
0.0
 73
     2
  0
CIRCLE
  5
1C8CDE6ACA3E
  8
SJC2
 10
1729.4615599440299
 20
1691.407711124524
 30
0.0
 40
4.25
  0
ARC
  5
1C8CDE6ACA43
  8
SJC2
 10
897.95389049206415
 20
1691.407711124524
 30
0.0
 40
4.6949074074072943
 50
295.14489000845208
 51
64.855109991547891
  0
ARC
  5
1C8CDE6ACA44
  8
SJC2
 10
787.64316564267665
 20
1691.407711124524
 30
0.0
 40
4.6949074074074391
 50
115.1448900084559
 51
244.85510999154411
  0
LINE
  5
1C8CDE6ACA47
  8
CENTER
 10
780.64825823526917
 20
1691.407711124524
 30
0.0
 11
795.64825823526905
 21
1691.407711124524
 31
0.0
  0
LINE
  5
1C8CDE6ACA48
  8
CENTER
 10
904.94879789946935
 20
1691.407711124524
 30
0.0
 11
889.94879789946935
 21
1691.407711124524
 31
0.0
  0
LINE
  5
1C8CDE6ACA4A
  8
CENTER
 10
1723.4615599440299
 20
1691.407711124524
 30
0.0
 11
1735.4615599440299
 21
1691.407711124524
 31
0.0
  0
LINE
  5
1C8CDE6ACA59
  8
SJC2
 10
1725.9615599440299
 20
1691.907711124524
 30
0.0
 11
1725.9615599440299
 21
1690.907711124524
 31
0.0
  0
LINE
  5
1C8CDE6ACA5A
  8
SJC2
 10
1725.9615599440299
 20
1690.907711124524
 30
0.0
 11
1728.9615599440299
 21
1690.907711124524
 31
0.0
  0
LINE
  5
1C8CDE6ACA5B
  8
SJC2
 10
1728.9615599440299
 20
1690.907711124524
 30
0.0
 11
1728.9615599440299
 21
1687.907711124524
 31
0.0
  0
LINE
  5
1C8CDE6ACA5C
  8
SJC2
 10
1728.9615599440299
 20
1687.907711124524
 30
0.0
 11
1729.9615599440299
 21
1687.907711124524
 31
0.0
  0
LINE
  5
1C8CDE6ACA5D
  8
SJC2
 10
1729.9615599440299
 20
1687.907711124524
 30
0.0
 11
1729.9615599440299
 21
1690.907711124524
 31
0.0
  0
LINE
  5
1C8CDE6ACA5E
  8
SJC2
 10
1729.9615599440299
 20
1690.907711124524
 30
0.0
 11
1732.9615599440299
 21
1690.907711124524
 31
0.0
  0
LINE
  5
1C8CDE6ACA5F
  8
SJC2
 10
1732.9615599440299
 20
1690.907711124524
 30
0.0
 11
1732.9615599440299
 21
1691.907711124524
 31
0.0
  0
LINE
  5
1C8CDE6ACA60
  8
SJC2
 10
1732.9615599440299
 20
1691.907711124524
 30
0.0
 11
1729.9615599440299
 21
1691.907711124524
 31
0.0
  0
LINE
  5
1C8CDE6ACA61
  8
SJC2
 10
1729.9615599440299
 20
1691.907711124524
 30
0.0
 11
1729.9615599440299
 21
1694.907711124524
 31
0.0
  0
LINE
  5
1C8CDE6ACA62
  8
SJC2
 10
1729.9615599440299
 20
1694.907711124524
 30
0.0
 11
1728.9615599440299
 21
1694.907711124524
 31
0.0
  0
LINE
  5
1C8CDE6ACA63
  8
SJC2
 10
1728.9615599440299
 20
1694.907711124524
 30
0.0
 11
1728.9615599440299
 21
1691.907711124524
 31
0.0
  0
LINE
  5
1C8CDE6ACA64
  8
SJC2
 10
1728.9615599440299
 20
1691.907711124524
 30
0.0
 11
1725.9615599440299
 21
1691.907711124524
 31
0.0
  0
TEXT
  5
1C8CDE6ACA77
  8
MOJI
 10
1500.1703158266621
 20
1578.3036622562181
 30
0.0
 40
30.0
  1
φ4×40
 41
0.8
  7
EXT08
  0
LINE
  5
1C8CDE6ACA78
  8
MOJI
 10
1455.209873658521
 20
1618.4652994504249
 30
0.0
 11
1633.5347540120281
 21
1618.4652994504249
 31
0.0
  0
CIRCLE
  5
1C8CDE6ACA7A
  8
MOJI
 10
1478.315864951232
 20
1648.8828920815099
 30
0.0
 40
24.0
  0
TEXT
  5
1C8CDE6ACA7B
  8
MOJI
 10
1465.4455795573101
 20
1632.9461912112861
 30
0.0
 40
30.0
  1
4
 41
0.8
  7
EXT08
 72
     2
 11
1486.0170081287381
 21
1647.9461912112861
 31
0.0
 73
     2
  0
TEXT
  5
1C8CDE6ACA7C
  8
MOJI
 10
1508.789135065532
 20
1629.021055104361
 30
0.0
 40
30.0
  1
取付ビス
 41
0.8
  7
EXT08
  0
SOLID
  5
1C8CDE6ACA7D
  8
MOJI
 10
1712.1759260056649
 20
1674.0762232928321
 30
0.0
 11
1708.1407037885031
 21
1679.3829573263561
 31
0.0
 12
1726.0785169976571
 22
1688.835256961082
 32
0.0
 13
1726.0785169976571
 23
1688.835256961082
 33
0.0
  0
LINE
  5
1C8CDE6ACA7E
  8
MOJI
 10
2612.1082247774061
 20
399.39729037730172
 30
0.0
 11
3513.4267182564481
 21
399.39729037730172
 31
0.0
  0
TEXT
  5
1C8CDE6ACA7F
  8
MOJI
 10
2721.3038327948821
 20
414.4331832792775
 30
0.0
 40
30.0
  1
取付ビス
 41
0.8
  7
EXT08
 72
     1
 11
2774.1038327948818
 21
414.4331832792775
 31
0.0
  0
TEXT
  5
1C8CDE6ACA80
  8
MOJI
 10
2639.3388643611288
 20
234.4331832792775
 30
0.0
 40
30.0
  1
7
 41
0.8
  7
EXT08
 72
     1
 11
2650.7674357896999
 21
234.4331832792775
 31
0.0
  0
TEXT
  5
1C8CDE6ACA81
  8
MOJI
 10
2965.6866661339418
 20
234.4331832792775
 30
0.0
 40
30.0
  1
SUS
 41
0.8
  7
EXT08
 72
     1
 11
3001.1152375625138
 21
234.4331832792775
 31
0.0
  0
TEXT
  5
1C8CDE6ACA82
  8
MOJI
 10
3171.6321955011681
 20
414.4331832792775
 30
0.0
 40
30.0
  1
φ4×40 タッピンねじ
 41
0.8
  7
EXT08
 72
     1
 11
3325.9179097868819
 21
414.4331832792775
 31
0.0
  0
LINE
  5
1C8CDE6ACA86
  8
MOJI
 10
1726.0785169976591
 20
1688.8352569610829
 30
0.0
 11
1633.5347540120281
 21
1618.4652994504249
 31
0.0
  0
TEXT
  5
1C8CDE6ACA87
  8
MOJI
 10
2965.6866661339418
 20
414.4331832792775
 30
0.0
 40
30.0
  1
SUS
 41
0.8
  7
EXT08
 72
     1
 11
3001.1152375625138
 21
414.4331832792775
 31
0.0
  0
TEXT
  5
1C8CDE6ACAA7
  8
INFORMATION
 10
1.0
 20
1.0
 30
0.0
 40
0.8
  1
VERSION=3.0
  0
LINE
  5
1C8CDE6ACAA8
  8
SJC2
 10
792.79852806736915
 20
561.80773112452403
 30
0.0
 11
792.79852806736915
 21
563.4077111245241
 31
0.0
1001
ACAD
1000
ASC_BOUNDS
1002
{
1070
    19
1002
}
  0
LINE
  5
1C8CDE6ACAA9
  8
SJC2
 10
892.79852806736926
 20
561.80773112452403
 30
0.0
 11
892.79852806736926
 21
563.40771112452398
 31
0.0
1001
ACAD
1000
ASC_BOUNDS
1002
{
1070
    19
1002
}
  0
LINE
  5
1C8CDE6ACAAA
  8
SJC2
 10
892.79852806736926
 20
561.80773112452425
 30
0.0
 11
792.79852806736915
 21
561.80773112452403
 31
0.0
  0
ENDSEC
  0
EOF
