  0
SECTION
  2
HEADER
  9
$ACADVER
  1
AC1009
  9
$INSBASE
 10
0.0
 20
0.0
 30
0.0
  9
$EXTMIN
 10
0.0
 20
0.0
 30
0.0
  9
$EXTMAX
 10
7400.0
 20
5340.0
 30
0.0
  9
$LIMMIN
 10
0.0
 20
0.0
  9
$LIMMAX
 10
8400.0
 20
5940.0
  9
$ORTHOMODE
 70
     0
  9
$REGENMODE
 70
     1
  9
$FILLMODE
 70
     1
  9
$QTEXTMODE
 70
     0
  9
$MIRRTEXT
 70
     0
  9
$DRAGMODE
 70
     2
  9
$LTSCALE
 40
200.0
  9
$OSMODE
 70
    37
  9
$ATTMODE
 70
     1
  9
$TEXTSIZE
 40
60.0
  9
$TRACEWID
 40
0.05
  9
$TEXTSTYLE
  7
EXT08
  9
$CLAYER
  8
0
  9
$CELTYPE
  6
BYLAYER
  9
$CECOLOR
 62
   256
  9
$DIMSCALE
 40
20.0
  9
$DIMASZ
 40
2.0
  9
$DIMEXO
 40
1.0
  9
$DIMDLI
 40
6.0
  9
$DIMRND
 40
0.0
  9
$DIMDLE
 40
0.0
  9
$DIMEXE
 40
1.0
  9
$DIMTP
 40
0.0
  9
$DIMTM
 40
0.0
  9
$DIMTXT
 40
3.0
  9
$DIMCEN
 40
0.09
  9
$DIMTSZ
 40
0.0
  9
$DIMTOL
 70
     0
  9
$DIMLIM
 70
     0
  9
$DIMTIH
 70
     0
  9
$DIMTOH
 70
     0
  9
$DIMSE1
 70
     0
  9
$DIMSE2
 70
     0
  9
$DIMTAD
 70
     1
  9
$DIMZIN
 70
     8
  9
$DIMBLK
  1

  9
$DIMASO
 70
     1
  9
$DIMSHO
 70
     1
  9
$DIMPOST
  1

  9
$DIMAPOST
  1

  9
$DIMALT
 70
     0
  9
$DIMALTD
 70
     2
  9
$DIMALTF
 40
25.399999999999999
  9
$DIMLFAC
 40
1.0
  9
$DIMTOFL
 70
     1
  9
$DIMTVP
 40
0.0
  9
$DIMTIX
 70
     0
  9
$DIMSOXD
 70
     0
  9
$DIMSAH
 70
     0
  9
$DIMBLK1
  1

  9
$DIMBLK2
  1

  9
$DIMSTYLE
  2
SJC
  9
$DIMCLRD
 70
     0
  9
$DIMCLRE
 70
     0
  9
$DIMCLRT
 70
     0
  9
$DIMTFAC
 40
1.0
  9
$DIMGAP
 40
1.1999999999999991
  9
$LUNITS
 70
     2
  9
$LUPREC
 70
     2
  9
$SKETCHINC
 40
0.1
  9
$FILLETRAD
 40
0.0
  9
$AUNITS
 70
     1
  9
$AUPREC
 70
     2
  9
$MENU
  1
sjc
  9
$ELEVATION
 40
0.0
  9
$PELEVATION
 40
0.0
  9
$THICKNESS
 40
0.0
  9
$LIMCHECK
 70
     0
  9
$BLIPMODE
 70
     0
  9
$CHAMFERA
 40
0.0
  9
$CHAMFERB
 40
0.0
  9
$SKPOLY
 70
     0
  9
$TDCREATE
 40
2450042.5805643522
  9
$TDUPDATE
 40
2455296.7055978701
  9
$TDINDWG
 40
0.6643763773
  9
$TDUSRTIMER
 40
0.6643763773
  9
$USRTIMER
 70
     1
  9
$ANGBASE
 50
0.0
  9
$ANGDIR
 70
     0
  9
$PDMODE
 70
    33
  9
$PDSIZE
 40
5.0
  9
$PLINEWID
 40
0.0
  9
$COORDS
 70
     1
  9
$SPLFRAME
 70
     0
  9
$SPLINETYPE
 70
     6
  9
$SPLINESEGS
 70
     8
  9
$ATTDIA
 70
     0
  9
$ATTREQ
 70
     1
  9
$HANDLING
 70
     1
  9
$HANDSEED
  5
101E4
  9
$SURFTAB1
 70
     6
  9
$SURFTAB2
 70
     6
  9
$SURFTYPE
 70
     6
  9
$SURFU
 70
     6
  9
$SURFV
 70
     6
  9
$UCSNAME
  2

  9
$UCSORG
 10
0.0
 20
0.0
 30
0.0
  9
$UCSXDIR
 10
1.0
 20
0.0
 30
0.0
  9
$UCSYDIR
 10
0.0
 20
1.0
 30
0.0
  9
$PUCSNAME
  2

  9
$PUCSORG
 10
0.0
 20
0.0
 30
0.0
  9
$PUCSXDIR
 10
1.0
 20
0.0
 30
0.0
  9
$PUCSYDIR
 10
0.0
 20
1.0
 30
0.0
  9
$USERI1
 70
     3
  9
$USERI2
 70
    20
  9
$USERI3
 70
     0
  9
$USERI4
 70
     0
  9
$USERI5
 70
     0
  9
$USERR1
 40
0.05
  9
$USERR2
 40
0.0
  9
$USERR3
 40
0.0
  9
$USERR4
 40
0.0
  9
$USERR5
 40
0.0
  9
$WORLDVIEW
 70
     1
  9
$SHADEDGE
 70
     3
  9
$SHADEDIF
 70
    70
  9
$TILEMODE
 70
     1
  9
$MAXACTVP
 70
    16
  9
$PLIMCHECK
 70
     0
  9
$PEXTMIN
 10
1.0000000000000000E+020
 20
1.0000000000000000E+020
 30
1.0000000000000000E+020
  9
$PEXTMAX
 10
-1.0000000000000000E+020
 20
-1.0000000000000000E+020
 30
-1.0000000000000000E+020
  9
$PLIMMIN
 10
0.0
 20
0.0
  9
$PLIMMAX
 10
12.0
 20
9.0
  9
$UNITMODE
 70
     0
  9
$VISRETAIN
 70
     0
  9
$PLINEGEN
 70
     0
  9
$PSLTSCALE
 70
     0
  0
ENDSEC
  0
SECTION
  2
TABLES
  0
TABLE
  2
VPORT
 70
     2
  0
VPORT
  2
*ACTIVE
 70
     0
 10
0.0
 20
0.0
 11
1.0
 21
1.0
 12
5011.2186861098098
 22
2969.8187366502589
 13
0.0
 23
0.0
 14
10.0
 24
10.0
 15
0.0
 25
0.0
 16
0.0
 26
0.0
 36
1.0
 17
0.0
 27
0.0
 37
0.0
 40
5994.2841230084032
 41
1.9010526315789471
 42
50.0
 43
0.0
 44
0.0
 50
0.0
 51
0.0
 71
     0
 72
   100
 73
     1
 74
     0
 75
     0
 76
     0
 77
     0
 78
     2
  0
ENDTAB
  0
TABLE
  2
LTYPE
 70
     4
  0
LTYPE
  2
CONTINUOUS
 70
     0
  3
Solid line
 72
    65
 73
     0
 40
0.0
  0
LTYPE
  2
CENTER
 70
     0
  3
____ _ ____ _ ____ _ ____ _ ____ _ ____ _ ____ 
 72
    65
 73
     4
 40
2.0
 49
1.25
 49
-0.25
 49
0.25
 49
-0.25
  0
LTYPE
  2
HIDDEN
 70
     0
  3
__ __ __ __ __ __ __ __ __ __ __ __ __ __ __ __
 72
    65
 73
     2
 40
0.375
 49
0.25
 49
-0.125
  0
LTYPE
  2
PHANTOM
 70
     0
  3
______  __  __  ______  __  __  ______  __  __ 
 72
    65
 73
     6
 40
2.5
 49
1.25
 49
-0.25
 49
0.25
 49
-0.25
 49
0.25
 49
-0.25
  0
ENDTAB
  0
TABLE
  2
LAYER
 70
    17
  0
LAYER
  2
0
 70
     0
 62
     7
  6
CONTINUOUS
  0
LAYER
  2
CENTER
 70
     0
 62
     3
  6
CENTER
  0
LAYER
  2
MOJI
 70
     0
 62
     6
  6
CONTINUOUS
  0
LAYER
  2
SJC
 70
     0
 62
     1
  6
CONTINUOUS
  0
LAYER
  2
SUNPOU
 70
     0
 62
     4
  6
CONTINUOUS
  0
LAYER
  2
DEFPOINTS
 70
     0
 62
     7
  6
CONTINUOUS
  0
LAYER
  2
SJC2
 70
     0
 62
     7
  6
CONTINUOUS
  0
LAYER
  2
SAISEN
 70
     0
 62
     8
  6
CONTINUOUS
  0
LAYER
  2
WAKU
 70
     0
 62
     5
  6
CONTINUOUS
  0
LAYER
  2
HASEN
 70
     0
 62
     7
  6
HIDDEN
  0
LAYER
  2
KEN
 70
     0
 62
     1
  6
CONTINUOUS
  0
LAYER
  2
ZWAKU
 70
     1
 62
     7
  6
CONTINUOUS
  0
LAYER
  2
INFORMATION
 70
     1
 62
     7
  6
CONTINUOUS
  0
LAYER
  2
KASOU
 70
     0
 62
     2
  6
PHANTOM
  0
LAYER
  2
HOJO
 70
     0
 62
     8
  6
CONTINUOUS
  0
LAYER
  2
MOJI2
 70
     0
 62
     1
  6
CONTINUOUS
  0
LAYER
  2
HATCH
 70
     0
 62
     2
  6
CONTINUOUS
  0
ENDTAB
  0
TABLE
  2
STYLE
 70
     9
  0
STYLE
  2
STANDARD
 70
     0
 40
0.0
 41
1.0
 50
0.0
 71
     0
 42
3.0
  3
ROMANS.SHX
  4
BIGFONT.SHX
  0
STYLE
  2
KANJI08
 70
     0
 40
0.0
 41
0.8
 50
0.0
 71
     0
 42
0.0
  3
ROMANS
  4
BIGFONT
  0
STYLE
  2
KANJI
 70
     0
 40
0.0
 41
1.0
 50
0.0
 71
     0
 42
0.0
  3
ROMANS.SHX
  4
BIGFONT.SHX
  0
STYLE
  2
SIMPLEX
 70
     0
 40
0.0
 41
1.0
 50
0.0
 71
     0
 42
0.0
  3
SCRIPTS.SHX
  4

  0
STYLE
  2
TATEEXT
 70
     4
 40
0.0
 41
1.0
 50
0.0
 71
     0
 42
0.0
  3
ROMANS
  4
EXTFONT
  0
STYLE
  2
TATEBIG
 70
     4
 40
0.0
 41
1.0
 50
0.0
 71
     0
 42
0.0
  3
ROMANS
  4
BIGFONT
  0
STYLE
  2
EXT08
 70
     0
 40
0.0
 41
0.8
 50
0.0
 71
     0
 42
60.0
  3
ROMANS
  4
EXTFONT
  0
STYLE
  2
Y-MOJI
 70
     0
 40
0.0
 41
0.8
 50
0.0
 71
     0
 42
3.5
  3
TXT
  4
BIGFONT
  0
STYLE
  2
EXT
 70
     0
 40
0.0
 41
1.0
 50
0.0
 71
     0
 42
3.0
  3
ROMANS.shx
  4
EXTFONT.shx
  0
ENDTAB
  0
TABLE
  2
VIEW
 70
     0
  0
ENDTAB
  0
TABLE
  2
UCS
 70
     0
  0
ENDTAB
  0
TABLE
  2
APPID
 70
     5
  0
APPID
  2
ACAD
 70
     0
  0
APPID
  2
AVE_RENDER
 70
     0
  0
APPID
  2
AME_SOL
 70
     0
  0
APPID
  2
ACAD_PSEXT
 70
     0
  0
APPID
  2
CONTENTBLOCKICON
 70
     0
  0
ENDTAB
  0
TABLE
  2
DIMSTYLE
 70
     5
  0
DIMSTYLE
  2
SJC
 70
     0
  3

  4

  5

  6

  7

 40
1.0
 41
0.18
 42
0.0625
 43
0.38
 44
0.18
 45
0.0
 46
0.0
 47
0.0
 48
0.0
140
0.18
141
0.09
142
0.0
143
25.399999999999999
144
1.0
145
0.0
146
1.0
147
0.09
 71
     0
 72
     0
 73
     1
 74
     1
 75
     0
 76
     0
 77
     0
 78
     0
170
     0
171
     2
172
     0
173
     0
174
     0
175
     0
176
     0
177
     0
178
     0
  0
DIMSTYLE
  2
STANDARD
 70
     0
  3

  4

  5

  6

  7

 40
20.0
 41
2.0
 42
1.0
 43
6.0
 44
1.0
 45
0.0
 46
0.0
 47
0.0
 48
0.0
140
3.0
141
0.09
142
0.0
143
25.399999999999999
144
1.0
145
0.0
146
1.0
147
1.1999999999999991
 71
     0
 72
     0
 73
     0
 74
     0
 75
     0
 76
     0
 77
     1
 78
     8
170
     0
171
     2
172
     1
173
     0
174
     0
175
     0
176
   256
177
   256
178
   256
  0
DIMSTYLE
  2
RUISEKI1
 70
     0
  3

  4

  5

  6
DOT
  7

 40
20.0
 41
2.0
 42
1.0
 43
6.0
 44
30.0
 45
0.0
 46
0.0
 47
0.0
 48
0.0
140
3.0
141
0.09
142
0.0
143
25.399999999999999
144
1.0
145
0.0
146
1.0
147
1.5
 71
     0
 72
     0
 73
     0
 74
     0
 75
     0
 76
     0
 77
     1
 78
     8
170
     0
171
     2
172
     1
173
     1
174
     0
175
     0
176
   256
177
   256
178
   256
  0
DIMSTYLE
  2
RUISEKI2
 70
     0
  3

  4

  5

  6
NONE
  7

 40
20.0
 41
2.0
 42
1.0
 43
6.0
 44
30.0
 45
0.0
 46
0.0
 47
0.0
 48
0.0
140
3.0
141
0.09
142
0.0
143
25.399999999999999
144
1.0
145
0.0
146
1.0
147
1.5
 71
     0
 72
     0
 73
     0
 74
     0
 75
     0
 76
     0
 77
     1
 78
     8
170
     0
171
     2
172
     1
173
     1
174
     0
175
     0
176
   256
177
   256
178
   256
  0
DIMSTYLE
  2
SJC$0
 70
     0
  3

  4

  5

  6

  7

 40
1.0
 41
20.0
 42
10.0
 43
60.0
 44
10.0
 45
0.0
 46
0.0
 47
0.0
 48
0.0
140
20.0
141
0.1
142
0.0
143
25.399999999999999
144
1.0
145
0.0
146
1.0
147
0.0
 71
     0
 72
     0
 73
     0
 74
     0
 75
     0
 76
     0
 77
     1
 78
    12
170
     0
171
     2
172
     1
173
     0
174
     0
175
     0
176
   256
177
   256
178
   256
  0
ENDTAB
  0
ENDSEC
  0
SECTION
  2
BLOCKS
  0
BLOCK
  8
0
  2
$MODEL_SPACE
 70
     0
 10
0.0
 20
0.0
 30
0.0
  3
$MODEL_SPACE
  1

  0
ENDBLK
  5
7
  8
0
  0
BLOCK
 67
     1
  8
0
  2
$PAPER_SPACE
 70
     0
 10
0.0
 20
0.0
 30
0.0
  3
$PAPER_SPACE
  1

  0
ENDBLK
  5
A
 67
     1
  8
0
  0
BLOCK
  8
0
  2
*D0
 70
     1
 10
0.0
 20
0.0
 30
0.0
  3
*D0
  1

  0
LINE
  5
F925
  8
SUNPOU
 10
928.66921052743783
 20
4472.8757406948198
 30
0.0
 11
928.66921052743783
 21
4680.1407587824451
 31
0.0
  0
LINE
  5
F926
  8
SUNPOU
 10
2928.6692105274378
 20
4472.8757406948216
 30
0.0
 11
2928.6692105274378
 21
4680.1407587824451
 31
0.0
  0
LINE
  5
F927
  8
SUNPOU
 10
968.66921052743783
 20
4660.1407587824451
 30
0.0
 11
2888.6692105274392
 21
4660.1407587824451
 31
0.0
  0
SOLID
  5
F928
  8
SUNPOU
 10
968.66921052743783
 20
4666.8074254491121
 30
0.0
 11
968.66921052743783
 21
4653.4740921157781
 31
0.0
 12
928.66921052743783
 22
4660.1407587824451
 32
0.0
 13
928.66921052743783
 23
4660.1407587824451
 33
0.0
  0
SOLID
  5
F929
  8
SUNPOU
 10
2888.6692105274392
 20
4666.8074254491121
 30
0.0
 11
2888.6692105274392
 21
4653.4740921157781
 31
0.0
 12
2928.6692105274378
 22
4660.1407587824451
 32
0.0
 13
2928.6692105274378
 23
4660.1407587824451
 33
0.0
  0
TEXT
  8
SUNPOU
  40
60
  5
FABA
  72
0
  71
0
 10
1808.67
 20
4607.94
 30
0.000000
  1
2000
  7
EXT08
  0
POINT
  5
F92B
  8
DEFPOINTS
 62
     0
 10
928.66921052743783
 20
4452.8757406948198
 30
0.0
  0
POINT
  5
F92C
  8
DEFPOINTS
 62
     0
 10
2928.6692105274378
 20
4452.8757406948207
 30
0.0
  0
POINT
  5
F92D
  8
DEFPOINTS
 62
     0
 10
2928.6692105274378
 20
4660.1407587824451
 30
0.0
  0
ENDBLK
  5
1550
  8
0
  0
BLOCK
  8
0
  2
*D1
 70
     1
 10
0.0
 20
0.0
 30
0.0
  3
*D1
  1

  0
LINE
  5
F91A
  8
SUNPOU
 10
928.66921052743783
 20
4472.8757406948198
 30
0.0
 11
928.66921052743783
 21
4680.1407587824451
 31
0.0
  0
LINE
  5
F91B
  8
SUNPOU
 10
818.66921052743805
 20
4178.2742279625254
 30
0.0
 11
818.66921052743805
 21
4680.1407587824451
 31
0.0
  0
LINE
  5
F91C
  8
SUNPOU
 10
968.66921052743783
 20
4660.1407587824451
 30
0.0
 11
1008.6692105274381
 21
4660.1407587824451
 31
0.0
  0
LINE
  5
F91D
  8
SUNPOU
 10
778.66921052743805
 20
4660.1407587824451
 30
0.0
 11
738.66921052743805
 21
4660.1407587824451
 31
0.0
  0
TEXT
  8
SUNPOU
  40
60
  5
FABB
  72
0
  71
0
 10
753.669
 20
4620.19
 30
0.000000
  1
(110)
  7
EXT08
  0
LINE
  5
F91F
  8
SUNPOU
 10
928.66921052743783
 20
4660.1407587824451
 30
0.0
 11
818.66921052743805
 21
4660.1407587824451
 31
0.0
  0
SOLID
  5
F920
  8
SUNPOU
 10
968.66921052743783
 20
4666.8074254491121
 30
0.0
 11
968.66921052743783
 21
4653.4740921157781
 31
0.0
 12
928.66921052743783
 22
4660.1407587824451
 32
0.0
 13
928.66921052743783
 23
4660.1407587824451
 33
0.0
  0
SOLID
  5
F921
  8
SUNPOU
 10
778.66921052743805
 20
4666.8074254491121
 30
0.0
 11
778.66921052743805
 21
4653.4740921157781
 31
0.0
 12
818.66921052743805
 22
4660.1407587824451
 32
0.0
 13
818.66921052743805
 23
4660.1407587824451
 33
0.0
  0
POINT
  5
F922
  8
DEFPOINTS
 62
     0
 10
928.66921052743783
 20
4452.8757406948198
 30
0.0
  0
POINT
  5
F923
  8
DEFPOINTS
 62
     0
 10
818.66921052743805
 20
4158.2742279625254
 30
0.0
  0
POINT
  5
F924
  8
DEFPOINTS
 62
     0
 10
818.66921052743805
 20
4660.1407587824451
 30
0.0
  0
ENDBLK
  5
67A4
  8
0
  0
BLOCK
  8
0
  2
*D2
 70
     1
 10
0.0
 20
0.0
 30
0.0
  3
*D2
  1

  0
LINE
  5
F942
  8
SUNPOU
 62
     0
 10
6239.7666286695767
 20
4210.3408308165153
 30
0.0
 11
6239.7666286695767
 21
4521.4081948615931
 31
0.0
  0
LINE
  5
F943
  8
SUNPOU
 62
     0
 10
6289.7666286695767
 20
4422.3759010851081
 30
0.0
 11
6289.7666286695767
 21
4521.4081948615931
 31
0.0
  0
LINE
  5
F944
  8
SUNPOU
 62
     0
 10
6199.7666286695767
 20
4501.4081948615931
 30
0.0
 11
6159.7666286695767
 21
4501.4081948615931
 31
0.0
  0
LINE
  5
F945
  8
SUNPOU
 62
     0
 10
6329.7666286695767
 20
4501.4081948615931
 30
0.0
 11
6369.7666286695767
 21
4501.4081948615931
 31
0.0
  0
TEXT
  8
SUNPOU
  40
60
  5
FABC
  62
0
  72
0
  71
0
 10
6138.31
 20
4472.23
 30
0.000000
  1
(50)
  7
EXT08
  0
LINE
  5
F947
  8
SUNPOU
 62
     0
 10
6239.7666286695767
 20
4501.4081948615931
 30
0.0
 11
6289.7666286695767
 21
4501.4081948615931
 31
0.0
  0
SOLID
  5
F948
  8
SUNPOU
 62
     0
 10
6199.7666286695767
 20
4508.0748615282591
 30
0.0
 11
6199.7666286695767
 21
4494.7415281949261
 31
0.0
 12
6239.7666286695767
 22
4501.4081948615931
 32
0.0
 13
6239.7666286695767
 23
4501.4081948615931
 33
0.0
  0
SOLID
  5
F949
  8
SUNPOU
 62
     0
 10
6329.7666286695767
 20
4508.0748615282591
 30
0.0
 11
6329.7666286695767
 21
4494.7415281949261
 31
0.0
 12
6289.7666286695767
 22
4501.4081948615931
 32
0.0
 13
6289.7666286695767
 23
4501.4081948615931
 33
0.0
  0
POINT
  5
F94A
  8
DEFPOINTS
 62
     0
 10
6239.7666286695767
 20
4190.3408308165153
 30
0.0
  0
POINT
  5
F94B
  8
DEFPOINTS
 62
     0
 10
6289.7666286695767
 20
4402.3759010851081
 30
0.0
  0
POINT
  5
F94C
  8
DEFPOINTS
 62
     0
 10
6289.7666286695767
 20
4501.4081948615931
 30
0.0
  0
ENDBLK
  5
308D
  8
0
  0
BLOCK
  8
0
  2
*D3
 70
     1
 10
0.0
 20
0.0
 30
0.0
  3
*D3
  1

  0
LINE
  5
F94D
  8
SUNPOU
 10
2928.6692105274378
 20
4472.8757406948216
 30
0.0
 11
2928.6692105274378
 21
4680.1407587824451
 31
0.0
  0
LINE
  5
F94E
  8
SUNPOU
 10
4928.6692105274378
 20
4472.8757406948216
 30
0.0
 11
4928.6692105274378
 21
4680.1407587824451
 31
0.0
  0
LINE
  5
F94F
  8
SUNPOU
 10
2968.6692105274378
 20
4660.1407587824451
 30
0.0
 11
4888.6692105274378
 21
4660.1407587824451
 31
0.0
  0
SOLID
  5
F950
  8
SUNPOU
 10
2968.6692105274378
 20
4666.8074254491121
 30
0.0
 11
2968.6692105274378
 21
4653.4740921157781
 31
0.0
 12
2928.6692105274378
 22
4660.1407587824451
 32
0.0
 13
2928.6692105274378
 23
4660.1407587824451
 33
0.0
  0
SOLID
  5
F951
  8
SUNPOU
 10
4888.6692105274378
 20
4666.8074254491121
 30
0.0
 11
4888.6692105274378
 21
4653.4740921157781
 31
0.0
 12
4928.6692105274378
 22
4660.1407587824451
 32
0.0
 13
4928.6692105274378
 23
4660.1407587824451
 33
0.0
  0
TEXT
  8
SUNPOU
  40
60
  5
FABD
  72
0
  71
0
 10
3808.67
 20
4607.94
 30
0.000000
  1
2000
  7
EXT08
  0
POINT
  5
F953
  8
DEFPOINTS
 62
     0
 10
2928.6692105274378
 20
4452.8757406948207
 30
0.0
  0
POINT
  5
F954
  8
DEFPOINTS
 62
     0
 10
4928.6692105274378
 20
4452.8757406948207
 30
0.0
  0
POINT
  5
F955
  8
DEFPOINTS
 62
     0
 10
4928.6692105274378
 20
4660.1407587824451
 30
0.0
  0
ENDBLK
  5
69E0
  8
0
  0
BLOCK
  8
0
  2
_DOT
 70
     0
 10
0.0
 20
0.0
 30
0.0
  3
_DOT
  1

  0
POLYLINE
  5
724B
  8
0
  6
BYBLOCK
 62
     0
 66
     1
 10
0.0
 20
0.0
 30
0.0
 70
     1
 40
0.5
 41
0.5
  0
VERTEX
  5
F95A
  8
0
  6
BYBLOCK
 62
     0
 10
-0.25
 20
0.0
 30
0.0
 42
1.0
  0
VERTEX
  5
F95B
  8
0
  6
BYBLOCK
 62
     0
 10
0.25
 20
0.0
 30
0.0
 42
1.0
  0
SEQEND
  5
F95C
  8
0
  6
BYBLOCK
 62
     0
  0
LINE
  5
724C
  8
0
  6
BYBLOCK
 62
     0
 10
-0.5
 20
0.0
 30
0.0
 11
-1.0
 21
0.0
 31
0.0
  0
ENDBLK
  5
724E
  8
0
  0
BLOCK
  8
0
  2
_NONE
 70
     0
 10
0.0
 20
0.0
 30
0.0
  3
_NONE
  1

  0
ENDBLK
  5
7252
  8
0
  0
BLOCK
  8
0
  2
*D6
 70
     1
 10
0.0
 20
0.0
 30
0.0
  3
*D6
  1

  0
LINE
  5
F98B
  8
SUNPOU
 62
     0
 10
5316.9125209443428
 20
4214.6242279628059
 30
0.0
 11
5497.1321743185044
 21
4214.6242279628059
 31
0.0
  0
LINE
  5
F98C
  8
SUNPOU
 62
     0
 10
5316.9125209443137
 20
3414.6242279628059
 30
0.0
 11
5497.1321743185044
 21
3414.6242279628059
 31
0.0
  0
LINE
  5
F98D
  8
SUNPOU
 62
     0
 10
5477.1321743185026
 20
4174.624227962805
 30
0.0
 11
5477.1321743185026
 21
3454.6242279628059
 31
0.0
  0
SOLID
  5
F98E
  8
SUNPOU
 62
     0
 10
5470.4655076518357
 20
4174.624227962805
 30
0.0
 11
5483.7988409851696
 21
4174.624227962805
 31
0.0
 12
5477.1321743185026
 22
4214.6242279628059
 32
0.0
 13
5477.1321743185026
 23
4214.6242279628059
 33
0.0
  0
SOLID
  5
F98F
  8
SUNPOU
 62
     0
 10
5470.4655076518357
 20
3454.6242279628059
 30
0.0
 11
5483.7988409851696
 21
3454.6242279628059
 31
0.0
 12
5477.1321743185026
 22
3414.6242279628059
 32
0.0
 13
5477.1321743185026
 23
3414.6242279628059
 33
0.0
  0
TEXT
  8
SUNPOU
  40
60
  5
FABE
  62
0
  72
0
  71
0
 10
5303.13
 20
3708.42
 30
0.000000
  1
H
  7
EXT08
  0
POINT
  5
F991
  8
DEFPOINTS
 62
     0
 10
5296.9125209443418
 20
4214.6242279628059
 30
0.0
  0
POINT
  5
F992
  8
DEFPOINTS
 62
     0
 10
5296.9125209443146
 20
3414.6242279628059
 30
0.0
  0
POINT
  5
F993
  8
DEFPOINTS
 62
     0
 10
5477.1321743185026
 20
3414.6242279628059
 30
0.0
  0
ENDBLK
  5
A7F3
  8
0
  0
BLOCK
  8
0
  2
*D7
 70
     1
 10
0.0
 20
0.0
 30
0.0
  3
*D7
  1

  0
LINE
  5
F994
  8
SUNPOU
 62
     0
 10
6199.7666286680051
 20
4214.6242279628059
 30
0.0
 11
6009.5362275769648
 21
4214.6242279628068
 31
0.0
  0
LINE
  5
F995
  8
SUNPOU
 62
     0
 10
6134.7450368780592
 20
3414.6242279628059
 30
0.0
 11
6009.5362275769648
 21
3414.6242279628059
 31
0.0
  0
LINE
  5
F996
  8
SUNPOU
 62
     0
 10
6029.5362275769658
 20
4174.6242279628068
 30
0.0
 11
6029.5362275769658
 21
3454.6242279628059
 31
0.0
  0
SOLID
  5
F997
  8
SUNPOU
 62
     0
 10
6022.8695609102988
 20
4174.6242279628068
 30
0.0
 11
6036.2028942436327
 21
4174.6242279628068
 31
0.0
 12
6029.5362275769658
 22
4214.6242279628068
 32
0.0
 13
6029.5362275769658
 23
4214.6242279628068
 33
0.0
  0
SOLID
  5
F998
  8
SUNPOU
 62
     0
 10
6022.8695609102988
 20
3454.6242279628059
 30
0.0
 11
6036.2028942436327
 21
3454.6242279628059
 31
0.0
 12
6029.5362275769658
 22
3414.6242279628059
 32
0.0
 13
6029.5362275769658
 23
3414.6242279628059
 33
0.0
  0
TEXT
  8
SUNPOU
  40
60
  5
FABF
  62
0
  72
0
  71
0
 10
5855.54
 20
3708.42
 30
0.000000
  1
H
  7
EXT08
  0
POINT
  5
F99A
  8
DEFPOINTS
 62
     0
 10
6219.7666286680051
 20
4214.6242279628059
 30
0.0
  0
POINT
  5
F99B
  8
DEFPOINTS
 62
     0
 10
6154.7450368780592
 20
3414.6242279628059
 30
0.0
  0
POINT
  5
F99C
  8
DEFPOINTS
 62
     0
 10
6029.5362275769658
 20
3414.6242279628059
 30
0.0
  0
ENDBLK
  5
A81D
  8
0
  0
BLOCK
  8
0
  2
*D8
 70
     1
 10
0.0
 20
0.0
 30
0.0
  3
*D8
  1

  0
LINE
  5
F9B8
  8
SUNPOU
 10
870.43834190527775
 20
2085.1694143644359
 30
0.0
 11
870.43834190527775
 21
2339.587315376451
 31
0.0
  0
LINE
  5
F9B9
  8
SUNPOU
 10
768.43834190444511
 20
2213.8993663538909
 30
0.0
 11
768.43834190444511
 21
2339.587315376451
 31
0.0
  0
LINE
  5
F9BA
  8
SUNPOU
 10
910.43834190527775
 20
2319.5873153764519
 30
0.0
 11
950.43834190527775
 21
2319.5873153764519
 31
0.0
  0
LINE
  5
F9BB
  8
SUNPOU
 10
728.43834190444522
 20
2319.5873153764519
 30
0.0
 11
688.43834190444522
 21
2319.5873153764519
 31
0.0
  0
TEXT
  8
SUNPOU
  40
60
  5
FAC0
  72
0
  71
0
 10
703.453
 20
2299.70
 30
0.000000
  1
(50)
  7
EXT08
  0
LINE
  5
F9BD
  8
SUNPOU
 10
870.43834190527775
 20
2319.5873153764519
 30
0.0
 11
768.43834190444511
 21
2319.5873153764519
 31
0.0
  0
SOLID
  5
F9BE
  8
SUNPOU
 10
910.43834190527775
 20
2326.253982043118
 30
0.0
 11
910.43834190527775
 21
2312.9206487097849
 31
0.0
 12
870.43834190527775
 22
2319.5873153764519
 32
0.0
 13
870.43834190527775
 23
2319.5873153764519
 33
0.0
  0
SOLID
  5
F9BF
  8
SUNPOU
 10
728.43834190444522
 20
2326.253982043118
 30
0.0
 11
728.43834190444522
 21
2312.9206487097849
 31
0.0
 12
768.43834190444511
 22
2319.5873153764519
 32
0.0
 13
768.43834190444511
 23
2319.5873153764519
 33
0.0
  0
POINT
  5
F9C0
  8
DEFPOINTS
 62
     0
 10
870.43834190527775
 20
2065.1694143644359
 30
0.0
  0
POINT
  5
F9C1
  8
DEFPOINTS
 62
     0
 10
768.43834190444511
 20
2193.8993663538909
 30
0.0
  0
POINT
  5
F9C2
  8
DEFPOINTS
 62
     0
 10
768.43834190444511
 20
2319.5873153764519
 30
0.0
  0
ENDBLK
  5
AC55
  8
0
  0
BLOCK
  8
0
  2
*D9
 70
     1
 10
0.0
 20
0.0
 30
0.0
  3
*D9
  1

  0
LINE
  5
F99D
  8
SUNPOU
 10
952.13834190450416
 20
2105.1482008775411
 30
0.0
 11
1318.6848202771801
 21
2105.1482008775411
 31
0.0
  0
LINE
  5
F99E
  8
SUNPOU
 10
1164.226619020614
 20
505.14820087754202
 30
0.0
 11
1318.6848202771801
 21
505.14820087754202
 31
0.0
  0
LINE
  5
F99F
  8
SUNPOU
 10
1298.6848202771801
 20
2065.1482008775411
 30
0.0
 11
1298.6848202771801
 21
545.14820087754185
 31
0.0
  0
SOLID
  5
F9A0
  8
SUNPOU
 10
1292.0181536105131
 20
2065.1482008775411
 30
0.0
 11
1305.351486943847
 21
2065.1482008775411
 31
0.0
 12
1298.6848202771801
 22
2105.1482008775411
 32
0.0
 13
1298.6848202771801
 23
2105.1482008775411
 33
0.0
  0
SOLID
  5
F9A1
  8
SUNPOU
 10
1292.0181536105131
 20
545.14820087754185
 30
0.0
 11
1305.351486943847
 21
545.14820087754185
 31
0.0
 12
1298.6848202771801
 22
505.14820087754202
 32
0.0
 13
1298.6848202771801
 23
505.14820087754202
 33
0.0
  0
TEXT
  8
SUNPOU
  40
60
  5
FAC1
  72
0
  71
0
 10
1124.68
 20
1198.95
 30
0.000000
  1
H
  7
EXT08
  0
POINT
  5
F9A3
  8
DEFPOINTS
 62
     0
 10
932.13834190450405
 20
2105.1482008775411
 30
0.0
  0
POINT
  5
F9A4
  8
DEFPOINTS
 62
     0
 10
1144.226619020614
 20
505.14820087754208
 30
0.0
  0
POINT
  5
F9A5
  8
DEFPOINTS
 62
     0
 10
1298.6848202771801
 20
505.14820087754202
 30
0.0
  0
ENDBLK
  5
AC61
  8
0
  0
BLOCK
  8
0
  2
*D10
 70
     1
 10
0.0
 20
0.0
 30
0.0
  3
*D10
  1

  0
LINE
  5
F9AF
  8
SUNPOU
 10
952.1383419045037
 20
2105.1482008775411
 30
0.0
 11
1183.705465149827
 21
2105.1482008775411
 31
0.0
  0
LINE
  5
F9B0
  8
SUNPOU
 10
908.39066778437564
 20
1885.1482008775431
 30
0.0
 11
1183.705465149827
 21
1885.1482008775431
 31
0.0
  0
LINE
  5
F9B1
  8
SUNPOU
 10
1163.705465149827
 20
2065.1482008775411
 30
0.0
 11
1163.705465149827
 21
1925.1482008775431
 31
0.0
  0
TEXT
  8
SUNPOU
  40
60
  5
FAC2
  72
0
  71
0
 10
967.861
 20
1890.95
 30
0.000000
  1
(110)
  7
EXT08
  0
SOLID
  5
F9B3
  8
SUNPOU
 10
1157.03879848316
 20
2065.1482008775411
 30
0.0
 11
1170.3721318164939
 21
2065.1482008775411
 31
0.0
 12
1163.705465149827
 22
2105.1482008775411
 32
0.0
 13
1163.705465149827
 23
2105.1482008775411
 33
0.0
  0
SOLID
  5
F9B4
  8
SUNPOU
 10
1157.03879848316
 20
1925.1482008775431
 30
0.0
 11
1170.3721318164939
 21
1925.1482008775431
 31
0.0
 12
1163.705465149827
 22
1885.1482008775431
 32
0.0
 13
1163.705465149827
 23
1885.1482008775431
 33
0.0
  0
POINT
  5
F9B5
  8
DEFPOINTS
 62
     0
 10
932.1383419045037
 20
2105.1482008775411
 30
0.0
  0
POINT
  5
F9B6
  8
DEFPOINTS
 62
     0
 10
888.39066778437552
 20
1885.1482008775431
 30
0.0
  0
POINT
  5
F9B7
  8
DEFPOINTS
 62
     0
 10
1163.705465149827
 20
1885.1482008775431
 30
0.0
  0
ENDBLK
  5
AC6D
  8
0
  0
BLOCK
  8
0
  2
*D11
 70
     1
 10
0.0
 20
0.0
 30
0.0
  3
*D11
  1

  0
LINE
  5
F9A6
  8
SUNPOU
 62
     0
 10
568.4383419044425
 20
485.14820087754219
 30
0.0
 11
568.4383419044425
 21
312.34502699664711
 31
0.0
  0
LINE
  5
F9A7
  8
SUNPOU
 62
     0
 10
768.4383419044425
 20
485.14820087754208
 30
0.0
 11
768.4383419044425
 21
312.34502699664711
 31
0.0
  0
LINE
  5
F9A8
  8
SUNPOU
 62
     0
 10
608.43834190444238
 20
332.34502699664711
 30
0.0
 11
728.43834190444238
 21
332.34502699664711
 31
0.0
  0
TEXT
  8
SUNPOU
  40
60
  5
FAC3
  62
0
  72
0
  71
0
 10
541.884
 20
285.561
 30
0.000000
  1
100
  7
EXT08
  0
SOLID
  5
F9AA
  8
SUNPOU
 62
     0
 10
608.43834190444238
 20
339.01169366331379
 30
0.0
 11
608.43834190444238
 21
325.67836032998042
 31
0.0
 12
568.4383419044425
 22
332.34502699664711
 32
0.0
 13
568.4383419044425
 23
332.34502699664711
 33
0.0
  0
SOLID
  5
F9AB
  8
SUNPOU
 62
     0
 10
728.43834190444238
 20
339.01169366331379
 30
0.0
 11
728.43834190444238
 21
325.67836032998042
 31
0.0
 12
768.4383419044425
 22
332.34502699664711
 32
0.0
 13
768.4383419044425
 23
332.34502699664711
 33
0.0
  0
POINT
  5
F9AC
  8
DEFPOINTS
 62
     0
 10
568.4383419044425
 20
505.14820087754231
 30
0.0
  0
POINT
  5
F9AD
  8
DEFPOINTS
 62
     0
 10
768.4383419044425
 20
505.14820087754208
 30
0.0
  0
POINT
  5
F9AE
  8
DEFPOINTS
 62
     0
 10
768.4383419044425
 20
332.34502699664711
 30
0.0
  0
ENDBLK
  5
AC91
  8
0
  0
BLOCK
  8
0
  2
*D12
 70
     1
 10
0.0
 20
0.0
 30
0.0
  3
*D12
  1

  0
LINE
  5
F9D3
  8
SUNPOU
 62
     0
 10
878.66921052743783
 20
3394.6242279628059
 30
0.0
 11
878.66921052743783
 21
3201.4506248888069
 31
0.0
  0
LINE
  5
F9D4
  8
SUNPOU
 62
     0
 10
978.66921052743783
 20
3394.6242279628059
 30
0.0
 11
978.66921052743783
 21
3201.4506248888069
 31
0.0
  0
LINE
  5
F9D5
  8
SUNPOU
 62
     0
 10
838.66921052743771
 20
3221.450624888806
 30
0.0
 11
798.66921052743783
 21
3221.450624888806
 31
0.0
  0
LINE
  5
F9D6
  8
SUNPOU
 62
     0
 10
1018.669210527437
 20
3221.450624888806
 30
0.0
 11
1058.6692105274381
 21
3221.450624888806
 31
0.0
  0
TEXT
  8
SUNPOU
  40
60
  5
FAC4
  62
0
  72
0
  71
0
 10
792.082
 20
3168.19
 30
0.000000
  1
100
  7
EXT08
  0
LINE
  5
F9D8
  8
SUNPOU
 62
     0
 10
878.66921052743783
 20
3221.450624888806
 30
0.0
 11
978.66921052743783
 21
3221.450624888806
 31
0.0
  0
SOLID
  5
F9D9
  8
SUNPOU
 62
     0
 10
838.66921052743771
 20
3228.1172915554739
 30
0.0
 11
838.66921052743771
 21
3214.78395822214
 31
0.0
 12
878.66921052743783
 22
3221.450624888806
 32
0.0
 13
878.66921052743783
 23
3221.450624888806
 33
0.0
  0
SOLID
  5
F9DA
  8
SUNPOU
 62
     0
 10
1018.669210527437
 20
3228.1172915554739
 30
0.0
 11
1018.669210527437
 21
3214.78395822214
 31
0.0
 12
978.66921052743783
 22
3221.450624888806
 32
0.0
 13
978.66921052743783
 23
3221.450624888806
 33
0.0
  0
POINT
  5
F9DB
  8
DEFPOINTS
 62
     0
 10
878.66921052743783
 20
3414.6242279628059
 30
0.0
  0
POINT
  5
F9DC
  8
DEFPOINTS
 62
     0
 10
978.66921052743783
 20
3414.6242279628059
 30
0.0
  0
POINT
  5
F9DD
  8
DEFPOINTS
 62
     0
 10
978.66921052743783
 20
3221.450624888806
 30
0.0
  0
ENDBLK
  5
C9EA
  8
0
  0
BLOCK
  8
0
  2
*D13
 70
     1
 10
0.0
 20
0.0
 30
0.0
  3
*D13
  1

  0
LINE
  5
F9DE
  8
SUNPOU
 62
     0
 10
6289.7666286695767
 20
3394.6242279628059
 30
0.0
 11
6289.7666286695767
 21
3252.5787594560188
 31
0.0
  0
LINE
  5
F9DF
  8
SUNPOU
 62
     0
 10
6389.7666286695794
 20
3394.6242279628059
 30
0.0
 11
6389.7666286695794
 21
3252.5787594560188
 31
0.0
  0
LINE
  5
F9E0
  8
SUNPOU
 62
     0
 10
6249.7666286695767
 20
3272.5787594560188
 30
0.0
 11
6209.7666286695767
 21
3272.5787594560188
 31
0.0
  0
LINE
  5
F9E1
  8
SUNPOU
 62
     0
 10
6429.7666286695794
 20
3272.5787594560188
 30
0.0
 11
6469.7666286695794
 21
3272.5787594560188
 31
0.0
  0
TEXT
  8
SUNPOU
  40
60
  5
FAC5
  62
0
  72
0
  71
0
 10
6222.08
 20
3097.55
 30
0.000000
  1
100
  7
EXT08
  0
LINE
  5
F9E3
  8
SUNPOU
 62
     0
 10
6289.7666286695767
 20
3272.5787594560188
 30
0.0
 11
6389.7666286695794
 21
3272.5787594560188
 31
0.0
  0
SOLID
  5
F9E4
  8
SUNPOU
 62
     0
 10
6249.7666286695767
 20
3279.2454261226849
 30
0.0
 11
6249.7666286695767
 21
3265.9120927893532
 31
0.0
 12
6289.7666286695767
 22
3272.5787594560188
 32
0.0
 13
6289.7666286695767
 23
3272.5787594560188
 33
0.0
  0
SOLID
  5
F9E5
  8
SUNPOU
 62
     0
 10
6429.7666286695794
 20
3279.2454261226849
 30
0.0
 11
6429.7666286695794
 21
3265.9120927893532
 31
0.0
 12
6389.7666286695794
 22
3272.5787594560188
 32
0.0
 13
6389.7666286695794
 23
3272.5787594560188
 33
0.0
  0
POINT
  5
F9E6
  8
DEFPOINTS
 62
     0
 10
6289.7666286695767
 20
3414.6242279628059
 30
0.0
  0
POINT
  5
F9E7
  8
DEFPOINTS
 62
     0
 10
6389.7666286695794
 20
3414.6242279628059
 30
0.0
  0
POINT
  5
F9E8
  8
DEFPOINTS
 62
     0
 10
6389.7666286695794
 20
3272.5787594560188
 30
0.0
  0
ENDBLK
  5
CA0F
  8
0
  0
BLOCK
  8
0
  2
*D14
 70
     1
 10
0.0
 20
0.0
 30
0.0
  3
*D14
  1

  0
LINE
  5
F9E9
  8
SUNPOU
 62
     0
 10
2541.0082660499052
 20
485.14820087754208
 30
0.0
 11
2541.0082660499052
 21
312.34502699664711
 31
0.0
  0
LINE
  5
F9EA
  8
SUNPOU
 62
     0
 10
2741.0082660499052
 20
485.14820087754208
 30
0.0
 11
2741.0082660499052
 21
312.34502699664711
 31
0.0
  0
LINE
  5
F9EB
  8
SUNPOU
 62
     0
 10
2581.0082660499052
 20
332.34502699664711
 30
0.0
 11
2701.0082660499052
 21
332.34502699664711
 31
0.0
  0
TEXT
  8
SUNPOU
  40
60
  5
FAC6
  62
0
  72
0
  71
0
 10
2521.01
 20
287.143
 30
0.000000
  1
100
  7
EXT08
  0
SOLID
  5
F9ED
  8
SUNPOU
 62
     0
 10
2581.0082660499052
 20
339.01169366331379
 30
0.0
 11
2581.0082660499052
 21
325.67836032998042
 31
0.0
 12
2541.0082660499052
 22
332.34502699664711
 32
0.0
 13
2541.0082660499052
 23
332.34502699664711
 33
0.0
  0
SOLID
  5
F9EE
  8
SUNPOU
 62
     0
 10
2701.0082660499052
 20
339.01169366331379
 30
0.0
 11
2701.0082660499052
 21
325.67836032998042
 31
0.0
 12
2741.0082660499052
 22
332.34502699664711
 32
0.0
 13
2741.0082660499052
 23
332.34502699664711
 33
0.0
  0
POINT
  5
F9EF
  8
DEFPOINTS
 62
     0
 10
2541.0082660499052
 20
505.14820087754208
 30
0.0
  0
POINT
  5
F9F0
  8
DEFPOINTS
 62
     0
 10
2741.0082660499052
 20
505.14820087754208
 30
0.0
  0
POINT
  5
F9F1
  8
DEFPOINTS
 62
     0
 10
2741.0082660499052
 20
332.34502699664711
 30
0.0
  0
ENDBLK
  5
CBD3
  8
0
  0
BLOCK
  8
0
  2
N40テスリ受-U
 70
     0
 10
0.0
 20
0.0
 30
0.0
  3
N40テスリ受-U
  1

  0
ARC
  5
CFBF
  8
SJC2
 10
0.0
 20
0.0000000000027285
 30
0.0
 40
11.7500000000011
 50
101.9996595419377
 51
166.62771193802291
  0
ARC
  5
CFC0
  8
SJC2
 10
0.0
 20
0.0000000000027285
 30
0.0
 40
11.7500000000011
 50
13.372288061977031
 51
78.000340458062254
  0
ARC
  5
CFC1
  8
SJC2
 10
-12.40432012156452
 20
2.948786584654044
 30
0.0
 40
1.0
 50
242.26663744971981
 51
346.62771193802303
  0
ARC
  5
CFC2
  8
SJC2
 10
12.40432012156089
 20
2.948786584654044
 30
0.0
 40
1.0
 50
193.372288061977
 51
297.73336255028028
  0
POLYLINE
  5
CFC3
  8
SJC2
 10
-11.00000000000006
 20
0.0000000000022736
 30
0.0
 66
     1
 70
     8
  0
VERTEX
  8
SJC2
  5
FAC7
 10
-11.0000
 20
2.27358e-012
 30
0.000000
  70
    32
  0
VERTEX
  8
SJC2
  5
FAC8
 10
-11.0016
 20
0.0613577
 30
0.000000
  70
    32
  0
VERTEX
  8
SJC2
  5
FAC9
 10
-11.0063
 20
0.122706
 30
0.000000
  70
    32
  0
VERTEX
  8
SJC2
  5
FACA
 10
-11.0142
 20
0.184036
 30
0.000000
  70
    32
  0
VERTEX
  8
SJC2
  5
FACB
 10
-11.0253
 20
0.245338
 30
0.000000
  70
    32
  0
VERTEX
  8
SJC2
  5
FACC
 10
-11.0395
 20
0.306604
 30
0.000000
  70
    32
  0
VERTEX
  8
SJC2
  5
FACD
 10
-11.0569
 20
0.367823
 30
0.000000
  70
    32
  0
VERTEX
  8
SJC2
  5
FACE
 10
-11.0774
 20
0.428987
 30
0.000000
  70
    32
  0
VERTEX
  8
SJC2
  5
FACF
 10
-11.1011
 20
0.490086
 30
0.000000
  70
    32
  0
VERTEX
  8
SJC2
  5
FAD0
 10
-11.1280
 20
0.551111
 30
0.000000
  70
    32
  0
VERTEX
  8
SJC2
  5
FAD1
 10
-11.1579
 20
0.612053
 30
0.000000
  70
    32
  0
VERTEX
  8
SJC2
  5
FAD2
 10
-11.1910
 20
0.672904
 30
0.000000
  70
    32
  0
VERTEX
  8
SJC2
  5
FAD3
 10
-11.2273
 20
0.733652
 30
0.000000
  70
    32
  0
VERTEX
  8
SJC2
  5
FAD4
 10
-11.2667
 20
0.794291
 30
0.000000
  70
    32
  0
VERTEX
  8
SJC2
  5
FAD5
 10
-11.3092
 20
0.854809
 30
0.000000
  70
    32
  0
VERTEX
  8
SJC2
  5
FAD6
 10
-11.3548
 20
0.915199
 30
0.000000
  70
    32
  0
VERTEX
  8
SJC2
  5
FAD7
 10
-11.4035
 20
0.975452
 30
0.000000
  70
    32
  0
VERTEX
  8
SJC2
  5
FAD8
 10
-11.4553
 20
1.03556
 30
0.000000
  70
    32
  0
VERTEX
  8
SJC2
  5
FAD9
 10
-11.5103
 20
1.09551
 30
0.000000
  70
    32
  0
VERTEX
  8
SJC2
  5
FADA
 10
-11.5683
 20
1.15529
 30
0.000000
  70
    32
  0
VERTEX
  8
SJC2
  5
FADB
 10
-11.6293
 20
1.21490
 30
0.000000
  70
    32
  0
VERTEX
  8
SJC2
  5
FADC
 10
-11.6935
 20
1.27433
 30
0.000000
  70
    32
  0
VERTEX
  8
SJC2
  5
FADD
 10
-11.7607
 20
1.33356
 30
0.000000
  70
    32
  0
VERTEX
  8
SJC2
  5
FADE
 10
-11.8310
 20
1.39260
 30
0.000000
  70
    32
  0
VERTEX
  8
SJC2
  5
FADF
 10
-11.9043
 20
1.45142
 30
0.000000
  70
    32
  0
VERTEX
  8
SJC2
  5
FAE0
 10
-11.9806
 20
1.51003
 30
0.000000
  70
    32
  0
VERTEX
  8
SJC2
  5
FAE1
 10
-12.0599
 20
1.56841
 30
0.000000
  70
    32
  0
VERTEX
  8
SJC2
  5
FAE2
 10
-12.1422
 20
1.62655
 30
0.000000
  70
    32
  0
VERTEX
  8
SJC2
  5
FAE3
 10
-12.2276
 20
1.68445
 30
0.000000
  70
    32
  0
VERTEX
  8
SJC2
  5
FAE4
 10
-12.3159
 20
1.74209
 30
0.000000
  70
    32
  0
VERTEX
  8
SJC2
  5
FAE5
 10
-12.4072
 20
1.79948
 30
0.000000
  70
    32
  0
VERTEX
  8
SJC2
  5
FAE6
 10
-12.5014
 20
1.85659
 30
0.000000
  70
    32
  0
VERTEX
  8
SJC2
  5
FAE7
 10
-12.5985
 20
1.91342
 30
0.000000
  70
    32
  0
VERTEX
  8
SJC2
  5
FAE8
 10
-12.6986
 20
1.96996
 30
0.000000
  70
    32
  0
VERTEX
  8
SJC2
  5
FAE9
 10
-12.8016
 20
2.02621
 30
0.000000
  70
    32
  0
VERTEX
  8
SJC2
  5
FAEA
 10
-12.9075
 20
2.08215
 30
0.000000
  70
    32
  0
VERTEX
  8
SJC2
  5
FAEB
 10
-13.0162
 20
2.13778
 30
0.000000
  70
    32
  0
VERTEX
  8
SJC2
  5
FAEC
 10
-13.1278
 20
2.19308
 30
0.000000
  70
    32
  0
VERTEX
  8
SJC2
  5
FAED
 10
-13.2423
 20
2.24806
 30
0.000000
  70
    32
  0
VERTEX
  8
SJC2
  5
FAEE
 10
-13.3596
 20
2.30269
 30
0.000000
  70
    32
  0
VERTEX
  8
SJC2
  5
FAEF
 10
-13.4797
 20
2.35698
 30
0.000000
  70
    32
  0
VERTEX
  8
SJC2
  5
FAF0
 10
-13.6025
 20
2.41092
 30
0.000000
  70
    32
  0
VERTEX
  8
SJC2
  5
FAF1
 10
-13.7282
 20
2.46449
 30
0.000000
  70
    32
  0
VERTEX
  8
SJC2
  5
FAF2
 10
-13.8566
 20
2.51769
 30
0.000000
  70
    32
  0
VERTEX
  8
SJC2
  5
FAF3
 10
-13.9877
 20
2.57051
 30
0.000000
  70
    32
  0
VERTEX
  8
SJC2
  5
FAF4
 10
-14.1215
 20
2.62295
 30
0.000000
  70
    32
  0
VERTEX
  8
SJC2
  5
FAF5
 10
-14.2581
 20
2.67499
 30
0.000000
  70
    32
  0
VERTEX
  8
SJC2
  5
FAF6
 10
-14.3973
 20
2.72662
 30
0.000000
  70
    32
  0
VERTEX
  8
SJC2
  5
FAF7
 10
-14.5391
 20
2.77785
 30
0.000000
  70
    32
  0
VERTEX
  8
SJC2
  5
FAF8
 10
-14.6836
 20
2.82866
 30
0.000000
  70
    32
  0
VERTEX
  8
SJC2
  5
FAF9
 10
-14.8307
 20
2.87904
 30
0.000000
  70
    32
  0
VERTEX
  8
SJC2
  5
FAFA
 10
-14.9804
 20
2.92899
 30
0.000000
  70
    32
  0
VERTEX
  8
SJC2
  5
FAFB
 10
-15.1326
 20
2.97850
 30
0.000000
  70
    32
  0
VERTEX
  8
SJC2
  5
FAFC
 10
-15.2874
 20
3.02756
 30
0.000000
  70
    32
  0
VERTEX
  8
SJC2
  5
FAFD
 10
-15.4447
 20
3.07616
 30
0.000000
  70
    32
  0
VERTEX
  8
SJC2
  5
FAFE
 10
-15.6045
 20
3.12430
 30
0.000000
  70
    32
  0
VERTEX
  8
SJC2
  5
FAFF
 10
-15.7668
 20
3.17197
 30
0.000000
  70
    32
  0
VERTEX
  8
SJC2
  5
FB00
 10
-15.9315
 20
3.21916
 30
0.000000
  70
    32
  0
VERTEX
  8
SJC2
  5
FB01
 10
-16.0986
 20
3.26586
 30
0.000000
  70
    32
  0
VERTEX
  8
SJC2
  5
FB02
 10
-16.2681
 20
3.31208
 30
0.000000
  70
    32
  0
VERTEX
  8
SJC2
  5
FB03
 10
-16.4400
 20
3.35779
 30
0.000000
  70
    32
  0
VERTEX
  8
SJC2
  5
FB04
 10
-16.6143
 20
3.40300
 30
0.000000
  70
    32
  0
VERTEX
  8
SJC2
  5
FB05
 10
-16.7908
 20
3.44770
 30
0.000000
  70
    32
  0
VERTEX
  8
SJC2
  5
FB06
 10
-16.9697
 20
3.49188
 30
0.000000
  70
    32
  0
VERTEX
  8
SJC2
  5
FB07
 10
-17.1508
 20
3.53553
 30
0.000000
  70
    32
  0
VERTEX
  8
SJC2
  5
FB08
 10
-17.3341
 20
3.57865
 30
0.000000
  70
    32
  0
VERTEX
  8
SJC2
  5
FB09
 10
-17.5196
 20
3.62124
 30
0.000000
  70
    32
  0
VERTEX
  8
SJC2
  5
FB0A
 10
-17.7074
 20
3.66327
 30
0.000000
  70
    32
  0
VERTEX
  8
SJC2
  5
FB0B
 10
-17.8973
 20
3.70476
 30
0.000000
  70
    32
  0
VERTEX
  8
SJC2
  5
FB0C
 10
-18.0893
 20
3.74568
 30
0.000000
  70
    32
  0
VERTEX
  8
SJC2
  5
FB0D
 10
-18.2834
 20
3.78604
 30
0.000000
  70
    32
  0
VERTEX
  8
SJC2
  5
FB0E
 10
-18.4795
 20
3.82584
 30
0.000000
  70
    32
  0
VERTEX
  8
SJC2
  5
FB0F
 10
-18.6777
 20
3.86505
 30
0.000000
  70
    32
  0
VERTEX
  8
SJC2
  5
FB10
 10
-18.8780
 20
3.90369
 30
0.000000
  70
    32
  0
VERTEX
  8
SJC2
  5
FB11
 10
-19.0801
 20
3.94173
 30
0.000000
  70
    32
  0
VERTEX
  8
SJC2
  5
FB12
 10
-19.2843
 20
3.97918
 30
0.000000
  70
    32
  0
VERTEX
  8
SJC2
  5
FB13
 10
-19.4903
 20
4.01604
 30
0.000000
  70
    32
  0
VERTEX
  8
SJC2
  5
FB14
 10
-19.6982
 20
4.05229
 30
0.000000
  70
    32
  0
VERTEX
  8
SJC2
  5
FB15
 10
-19.9080
 20
4.08792
 30
0.000000
  70
    32
  0
VERTEX
  8
SJC2
  5
FB16
 10
-20.1196
 20
4.12295
 30
0.000000
  70
    32
  0
VERTEX
  8
SJC2
  5
FB17
 10
-20.3330
 20
4.15735
 30
0.000000
  70
    32
  0
VERTEX
  8
SJC2
  5
FB18
 10
-20.5482
 20
4.19112
 30
0.000000
  70
    32
  0
VERTEX
  8
SJC2
  5
FB19
 10
-20.7650
 20
4.22427
 30
0.000000
  70
    32
  0
VERTEX
  8
SJC2
  5
FB1A
 10
-20.9836
 20
4.25678
 30
0.000000
  70
    32
  0
VERTEX
  8
SJC2
  5
FB1B
 10
-21.2038
 20
4.28864
 30
0.000000
  70
    32
  0
VERTEX
  8
SJC2
  5
FB1C
 10
-21.4257
 20
4.31986
 30
0.000000
  70
    32
  0
VERTEX
  8
SJC2
  5
FB1D
 10
-21.6491
 20
4.35043
 30
0.000000
  70
    32
  0
VERTEX
  8
SJC2
  5
FB1E
 10
-21.8741
 20
4.38035
 30
0.000000
  70
    32
  0
VERTEX
  8
SJC2
  5
FB1F
 10
-22.1007
 20
4.40961
 30
0.000000
  70
    32
  0
VERTEX
  8
SJC2
  5
FB20
 10
-22.3287
 20
4.43820
 30
0.000000
  70
    32
  0
VERTEX
  8
SJC2
  5
FB21
 10
-22.5582
 20
4.46612
 30
0.000000
  70
    32
  0
VERTEX
  8
SJC2
  5
FB22
 10
-22.7891
 20
4.49337
 30
0.000000
  70
    32
  0
VERTEX
  8
SJC2
  5
FB23
 10
-23.0213
 20
4.51995
 30
0.000000
  70
    32
  0
VERTEX
  8
SJC2
  5
FB24
 10
-23.2550
 20
4.54584
 30
0.000000
  70
    32
  0
VERTEX
  8
SJC2
  5
FB25
 10
-23.4899
 20
4.57105
 30
0.000000
  70
    32
  0
VERTEX
  8
SJC2
  5
FB26
 10
-23.7262
 20
4.59557
 30
0.000000
  70
    32
  0
VERTEX
  8
SJC2
  5
FB27
 10
-23.9636
 20
4.61940
 30
0.000000
  70
    32
  0
VERTEX
  8
SJC2
  5
FB28
 10
-24.2023
 20
4.64253
 30
0.000000
  70
    32
  0
VERTEX
  8
SJC2
  5
FB29
 10
-24.4422
 20
4.66496
 30
0.000000
  70
    32
  0
VERTEX
  8
SJC2
  5
FB2A
 10
-24.6832
 20
4.68670
 30
0.000000
  70
    32
  0
VERTEX
  8
SJC2
  5
FB2B
 10
-24.9253
 20
4.70772
 30
0.000000
  70
    32
  0
VERTEX
  8
SJC2
  5
FB2C
 10
-25.1685
 20
4.72804
 30
0.000000
  70
    32
  0
VERTEX
  8
SJC2
  5
FB2D
 10
-25.4127
 20
4.74764
 30
0.000000
  70
    32
  0
VERTEX
  8
SJC2
  5
FB2E
 10
-25.6579
 20
4.76653
 30
0.000000
  70
    32
  0
VERTEX
  8
SJC2
  5
FB2F
 10
-25.9040
 20
4.78470
 30
0.000000
  70
    32
  0
VERTEX
  8
SJC2
  5
FB30
 10
-26.1511
 20
4.80215
 30
0.000000
  70
    32
  0
VERTEX
  8
SJC2
  5
FB31
 10
-26.3990
 20
4.81888
 30
0.000000
  70
    32
  0
VERTEX
  8
SJC2
  5
FB32
 10
-26.6478
 20
4.83488
 30
0.000000
  70
    32
  0
VERTEX
  8
SJC2
  5
FB33
 10
-26.8974
 20
4.85016
 30
0.000000
  70
    32
  0
VERTEX
  8
SJC2
  5
FB34
 10
-27.1478
 20
4.86470
 30
0.000000
  70
    32
  0
VERTEX
  8
SJC2
  5
FB35
 10
-27.3989
 20
4.87851
 30
0.000000
  70
    32
  0
VERTEX
  8
SJC2
  5
FB36
 10
-27.6507
 20
4.89159
 30
0.000000
  70
    32
  0
VERTEX
  8
SJC2
  5
FB37
 10
-27.9031
 20
4.90393
 30
0.000000
  70
    32
  0
VERTEX
  8
SJC2
  5
FB38
 10
-28.1562
 20
4.91553
 30
0.000000
  70
    32
  0
VERTEX
  8
SJC2
  5
FB39
 10
-28.4098
 20
4.92639
 30
0.000000
  70
    32
  0
VERTEX
  8
SJC2
  5
FB3A
 10
-28.6640
 20
4.93651
 30
0.000000
  70
    32
  0
VERTEX
  8
SJC2
  5
FB3B
 10
-28.9187
 20
4.94588
 30
0.000000
  70
    32
  0
VERTEX
  8
SJC2
  5
FB3C
 10
-29.1738
 20
4.95451
 30
0.000000
  70
    32
  0
VERTEX
  8
SJC2
  5
FB3D
 10
-29.4294
 20
4.96240
 30
0.000000
  70
    32
  0
VERTEX
  8
SJC2
  5
FB3E
 10
-29.6853
 20
4.96953
 30
0.000000
  70
    32
  0
VERTEX
  8
SJC2
  5
FB3F
 10
-29.9416
 20
4.97592
 30
0.000000
  70
    32
  0
VERTEX
  8
SJC2
  5
FB40
 10
-30.1983
 20
4.98156
 30
0.000000
  70
    32
  0
VERTEX
  8
SJC2
  5
FB41
 10
-30.4551
 20
4.98645
 30
0.000000
  70
    32
  0
VERTEX
  8
SJC2
  5
FB42
 10
-30.7123
 20
4.99059
 30
0.000000
  70
    32
  0
VERTEX
  8
SJC2
  5
FB43
 10
-30.9696
 20
4.99398
 30
0.000000
  70
    32
  0
VERTEX
  8
SJC2
  5
FB44
 10
-31.2270
 20
4.99661
 30
0.000000
  70
    32
  0
VERTEX
  8
SJC2
  5
FB45
 10
-31.4846
 20
4.99849
 30
0.000000
  70
    32
  0
VERTEX
  8
SJC2
  5
FB46
 10
-31.7423
 20
4.99962
 30
0.000000
  70
    32
  0
VERTEX
  8
SJC2
  5
FB47
 10
-32.0000
 20
5.00000
 30
0.000000
  70
    32
  0
SEQEND
  8
SJC2
  5
FB48
  0
LINE
  5
CFC4
  8
SJC2
 10
-32.0
 20
22.347524157503361
 30
0.0
 11
-18.999999999998181
 21
22.347524157503361
 31
0.0
  0
LINE
  5
CFC5
  8
SJC2
 10
19.0
 20
22.34752415750518
 30
0.0
 11
31.999999999998181
 21
22.347524157504271
 31
0.0
  0
ARC
  5
CFC6
  8
SJC2
 10
-50.516539643011129
 20
36.831778249988929
 30
0.0
 40
19.331778249988101
 50
270.0
 51
299.49018157546612
  0
LINE
  5
CFC7
  8
SJC2
 10
-50.516539643011129
 20
17.500000000000909
 30
0.0
 11
-54.0
 21
17.500000000001819
 31
0.0
  0
POLYLINE
  5
CFC8
  8
SJC2
 10
-38.150000000001448
 20
5.0000000000018208
 30
0.0
 66
     1
 70
     8
  0
VERTEX
  8
SJC2
  5
FB49
 10
-38.1500
 20
5.00000
 30
0.000000
  70
    32
  0
VERTEX
  8
SJC2
  5
FB4A
 10
-38.3568
 20
5.00079
 30
0.000000
  70
    32
  0
VERTEX
  8
SJC2
  5
FB4B
 10
-38.5635
 20
5.00316
 30
0.000000
  70
    32
  0
VERTEX
  8
SJC2
  5
FB4C
 10
-38.7702
 20
5.00711
 30
0.000000
  70
    32
  0
VERTEX
  8
SJC2
  5
FB4D
 10
-38.9768
 20
5.01265
 30
0.000000
  70
    32
  0
VERTEX
  8
SJC2
  5
FB4E
 10
-39.1833
 20
5.01976
 30
0.000000
  70
    32
  0
VERTEX
  8
SJC2
  5
FB4F
 10
-39.3896
 20
5.02845
 30
0.000000
  70
    32
  0
VERTEX
  8
SJC2
  5
FB50
 10
-39.5957
 20
5.03872
 30
0.000000
  70
    32
  0
VERTEX
  8
SJC2
  5
FB51
 10
-39.8016
 20
5.05056
 30
0.000000
  70
    32
  0
VERTEX
  8
SJC2
  5
FB52
 10
-40.0072
 20
5.06398
 30
0.000000
  70
    32
  0
VERTEX
  8
SJC2
  5
FB53
 10
-40.2126
 20
5.07896
 30
0.000000
  70
    32
  0
VERTEX
  8
SJC2
  5
FB54
 10
-40.4177
 20
5.09552
 30
0.000000
  70
    32
  0
VERTEX
  8
SJC2
  5
FB55
 10
-40.6224
 20
5.11365
 30
0.000000
  70
    32
  0
VERTEX
  8
SJC2
  5
FB56
 10
-40.8268
 20
5.13334
 30
0.000000
  70
    32
  0
VERTEX
  8
SJC2
  5
FB57
 10
-41.0307
 20
5.15458
 30
0.000000
  70
    32
  0
VERTEX
  8
SJC2
  5
FB58
 10
-41.2342
 20
5.17739
 30
0.000000
  70
    32
  0
VERTEX
  8
SJC2
  5
FB59
 10
-41.4373
 20
5.20175
 30
0.000000
  70
    32
  0
VERTEX
  8
SJC2
  5
FB5A
 10
-41.6398
 20
5.22767
 30
0.000000
  70
    32
  0
VERTEX
  8
SJC2
  5
FB5B
 10
-41.8419
 20
5.25513
 30
0.000000
  70
    32
  0
VERTEX
  8
SJC2
  5
FB5C
 10
-42.0433
 20
5.28413
 30
0.000000
  70
    32
  0
VERTEX
  8
SJC2
  5
FB5D
 10
-42.2442
 20
5.31467
 30
0.000000
  70
    32
  0
VERTEX
  8
SJC2
  5
FB5E
 10
-42.4445
 20
5.34675
 30
0.000000
  70
    32
  0
VERTEX
  8
SJC2
  5
FB5F
 10
-42.6441
 20
5.38035
 30
0.000000
  70
    32
  0
VERTEX
  8
SJC2
  5
FB60
 10
-42.8431
 20
5.41548
 30
0.000000
  70
    32
  0
VERTEX
  8
SJC2
  5
FB61
 10
-43.0413
 20
5.45213
 30
0.000000
  70
    32
  0
VERTEX
  8
SJC2
  5
FB62
 10
-43.2388
 20
5.49029
 30
0.000000
  70
    32
  0
VERTEX
  8
SJC2
  5
FB63
 10
-43.4355
 20
5.52995
 30
0.000000
  70
    32
  0
VERTEX
  8
SJC2
  5
FB64
 10
-43.6315
 20
5.57112
 30
0.000000
  70
    32
  0
VERTEX
  8
SJC2
  5
FB65
 10
-43.8266
 20
5.61379
 30
0.000000
  70
    32
  0
VERTEX
  8
SJC2
  5
FB66
 10
-44.0209
 20
5.65794
 30
0.000000
  70
    32
  0
VERTEX
  8
SJC2
  5
FB67
 10
-44.2142
 20
5.70358
 30
0.000000
  70
    32
  0
VERTEX
  8
SJC2
  5
FB68
 10
-44.4067
 20
5.75069
 30
0.000000
  70
    32
  0
VERTEX
  8
SJC2
  5
FB69
 10
-44.5982
 20
5.79926
 30
0.000000
  70
    32
  0
VERTEX
  8
SJC2
  5
FB6A
 10
-44.7888
 20
5.84930
 30
0.000000
  70
    32
  0
VERTEX
  8
SJC2
  5
FB6B
 10
-44.9783
 20
5.90080
 30
0.000000
  70
    32
  0
VERTEX
  8
SJC2
  5
FB6C
 10
-45.1668
 20
5.95374
 30
0.000000
  70
    32
  0
VERTEX
  8
SJC2
  5
FB6D
 10
-45.3543
 20
6.00811
 30
0.000000
  70
    32
  0
VERTEX
  8
SJC2
  5
FB6E
 10
-45.5407
 20
6.06392
 30
0.000000
  70
    32
  0
VERTEX
  8
SJC2
  5
FB6F
 10
-45.7260
 20
6.12114
 30
0.000000
  70
    32
  0
VERTEX
  8
SJC2
  5
FB70
 10
-45.9101
 20
6.17978
 30
0.000000
  70
    32
  0
VERTEX
  8
SJC2
  5
FB71
 10
-46.0930
 20
6.23983
 30
0.000000
  70
    32
  0
VERTEX
  8
SJC2
  5
FB72
 10
-46.2748
 20
6.30126
 30
0.000000
  70
    32
  0
VERTEX
  8
SJC2
  5
FB73
 10
-46.4553
 20
6.36409
 30
0.000000
  70
    32
  0
VERTEX
  8
SJC2
  5
FB74
 10
-46.6346
 20
6.42829
 30
0.000000
  70
    32
  0
VERTEX
  8
SJC2
  5
FB75
 10
-46.8126
 20
6.49385
 30
0.000000
  70
    32
  0
VERTEX
  8
SJC2
  5
FB76
 10
-46.9893
 20
6.56077
 30
0.000000
  70
    32
  0
VERTEX
  8
SJC2
  5
FB77
 10
-47.1647
 20
6.62904
 30
0.000000
  70
    32
  0
VERTEX
  8
SJC2
  5
FB78
 10
-47.3387
 20
6.69864
 30
0.000000
  70
    32
  0
VERTEX
  8
SJC2
  5
FB79
 10
-47.5114
 20
6.76957
 30
0.000000
  70
    32
  0
VERTEX
  8
SJC2
  5
FB7A
 10
-47.6826
 20
6.84181
 30
0.000000
  70
    32
  0
VERTEX
  8
SJC2
  5
FB7B
 10
-47.8524
 20
6.91536
 30
0.000000
  70
    32
  0
VERTEX
  8
SJC2
  5
FB7C
 10
-48.0207
 20
6.99020
 30
0.000000
  70
    32
  0
VERTEX
  8
SJC2
  5
FB7D
 10
-48.1875
 20
7.06632
 30
0.000000
  70
    32
  0
VERTEX
  8
SJC2
  5
FB7E
 10
-48.3529
 20
7.14371
 30
0.000000
  70
    32
  0
VERTEX
  8
SJC2
  5
FB7F
 10
-48.5167
 20
7.22236
 30
0.000000
  70
    32
  0
VERTEX
  8
SJC2
  5
FB80
 10
-48.6789
 20
7.30226
 30
0.000000
  70
    32
  0
VERTEX
  8
SJC2
  5
FB81
 10
-48.8395
 20
7.38339
 30
0.000000
  70
    32
  0
VERTEX
  8
SJC2
  5
FB82
 10
-48.9986
 20
7.46574
 30
0.000000
  70
    32
  0
VERTEX
  8
SJC2
  5
FB83
 10
-49.1560
 20
7.54931
 30
0.000000
  70
    32
  0
VERTEX
  8
SJC2
  5
FB84
 10
-49.3117
 20
7.63407
 30
0.000000
  70
    32
  0
VERTEX
  8
SJC2
  5
FB85
 10
-49.4658
 20
7.72001
 30
0.000000
  70
    32
  0
VERTEX
  8
SJC2
  5
FB86
 10
-49.6181
 20
7.80713
 30
0.000000
  70
    32
  0
VERTEX
  8
SJC2
  5
FB87
 10
-49.7688
 20
7.89541
 30
0.000000
  70
    32
  0
VERTEX
  8
SJC2
  5
FB88
 10
-49.9176
 20
7.98483
 30
0.000000
  70
    32
  0
VERTEX
  8
SJC2
  5
FB89
 10
-50.0647
 20
8.07538
 30
0.000000
  70
    32
  0
VERTEX
  8
SJC2
  5
FB8A
 10
-50.2101
 20
8.16705
 30
0.000000
  70
    32
  0
VERTEX
  8
SJC2
  5
FB8B
 10
-50.3536
 20
8.25982
 30
0.000000
  70
    32
  0
VERTEX
  8
SJC2
  5
FB8C
 10
-50.4952
 20
8.35369
 30
0.000000
  70
    32
  0
VERTEX
  8
SJC2
  5
FB8D
 10
-50.6350
 20
8.44863
 30
0.000000
  70
    32
  0
VERTEX
  8
SJC2
  5
FB8E
 10
-50.7729
 20
8.54463
 30
0.000000
  70
    32
  0
VERTEX
  8
SJC2
  5
FB8F
 10
-50.9090
 20
8.64169
 30
0.000000
  70
    32
  0
VERTEX
  8
SJC2
  5
FB90
 10
-51.0431
 20
8.73977
 30
0.000000
  70
    32
  0
VERTEX
  8
SJC2
  5
FB91
 10
-51.1752
 20
8.83887
 30
0.000000
  70
    32
  0
VERTEX
  8
SJC2
  5
FB92
 10
-51.3054
 20
8.93898
 30
0.000000
  70
    32
  0
VERTEX
  8
SJC2
  5
FB93
 10
-51.4336
 20
9.04007
 30
0.000000
  70
    32
  0
VERTEX
  8
SJC2
  5
FB94
 10
-51.5599
 20
9.14213
 30
0.000000
  70
    32
  0
VERTEX
  8
SJC2
  5
FB95
 10
-51.6840
 20
9.24516
 30
0.000000
  70
    32
  0
VERTEX
  8
SJC2
  5
FB96
 10
-51.8062
 20
9.34912
 30
0.000000
  70
    32
  0
VERTEX
  8
SJC2
  5
FB97
 10
-51.9263
 20
9.45401
 30
0.000000
  70
    32
  0
VERTEX
  8
SJC2
  5
FB98
 10
-52.0443
 20
9.55982
 30
0.000000
  70
    32
  0
VERTEX
  8
SJC2
  5
FB99
 10
-52.1603
 20
9.66651
 30
0.000000
  70
    32
  0
VERTEX
  8
SJC2
  5
FB9A
 10
-52.2741
 20
9.77409
 30
0.000000
  70
    32
  0
VERTEX
  8
SJC2
  5
FB9B
 10
-52.3858
 20
9.88252
 30
0.000000
  70
    32
  0
VERTEX
  8
SJC2
  5
FB9C
 10
-52.4953
 20
9.99181
 30
0.000000
  70
    32
  0
VERTEX
  8
SJC2
  5
FB9D
 10
-52.6027
 20
10.1019
 30
0.000000
  70
    32
  0
VERTEX
  8
SJC2
  5
FB9E
 10
-52.7079
 20
10.2128
 30
0.000000
  70
    32
  0
VERTEX
  8
SJC2
  5
FB9F
 10
-52.8110
 20
10.3246
 30
0.000000
  70
    32
  0
VERTEX
  8
SJC2
  5
FBA0
 10
-52.9118
 20
10.4371
 30
0.000000
  70
    32
  0
VERTEX
  8
SJC2
  5
FBA1
 10
-53.0104
 20
10.5503
 30
0.000000
  70
    32
  0
VERTEX
  8
SJC2
  5
FBA2
 10
-53.1067
 20
10.6643
 30
0.000000
  70
    32
  0
VERTEX
  8
SJC2
  5
FBA3
 10
-53.2008
 20
10.7791
 30
0.000000
  70
    32
  0
VERTEX
  8
SJC2
  5
FBA4
 10
-53.2927
 20
10.8945
 30
0.000000
  70
    32
  0
VERTEX
  8
SJC2
  5
FBA5
 10
-53.3822
 20
11.0107
 30
0.000000
  70
    32
  0
VERTEX
  8
SJC2
  5
FBA6
 10
-53.4695
 20
11.1275
 30
0.000000
  70
    32
  0
VERTEX
  8
SJC2
  5
FBA7
 10
-53.5544
 20
11.2450
 30
0.000000
  70
    32
  0
VERTEX
  8
SJC2
  5
FBA8
 10
-53.6371
 20
11.3631
 30
0.000000
  70
    32
  0
VERTEX
  8
SJC2
  5
FBA9
 10
-53.7174
 20
11.4818
 30
0.000000
  70
    32
  0
VERTEX
  8
SJC2
  5
FBAA
 10
-53.7953
 20
11.6012
 30
0.000000
  70
    32
  0
VERTEX
  8
SJC2
  5
FBAB
 10
-53.8709
 20
11.7211
 30
0.000000
  70
    32
  0
VERTEX
  8
SJC2
  5
FBAC
 10
-53.9442
 20
11.8416
 30
0.000000
  70
    32
  0
VERTEX
  8
SJC2
  5
FBAD
 10
-54.0150
 20
11.9627
 30
0.000000
  70
    32
  0
VERTEX
  8
SJC2
  5
FBAE
 10
-54.0835
 20
12.0842
 30
0.000000
  70
    32
  0
VERTEX
  8
SJC2
  5
FBAF
 10
-54.1495
 20
12.2063
 30
0.000000
  70
    32
  0
VERTEX
  8
SJC2
  5
FBB0
 10
-54.2132
 20
12.3289
 30
0.000000
  70
    32
  0
VERTEX
  8
SJC2
  5
FBB1
 10
-54.2744
 20
12.4520
 30
0.000000
  70
    32
  0
VERTEX
  8
SJC2
  5
FBB2
 10
-54.3333
 20
12.5755
 30
0.000000
  70
    32
  0
VERTEX
  8
SJC2
  5
FBB3
 10
-54.3896
 20
12.6995
 30
0.000000
  70
    32
  0
VERTEX
  8
SJC2
  5
FBB4
 10
-54.4436
 20
12.8239
 30
0.000000
  70
    32
  0
VERTEX
  8
SJC2
  5
FBB5
 10
-54.4950
 20
12.9487
 30
0.000000
  70
    32
  0
VERTEX
  8
SJC2
  5
FBB6
 10
-54.5440
 20
13.0739
 30
0.000000
  70
    32
  0
VERTEX
  8
SJC2
  5
FBB7
 10
-54.5906
 20
13.1994
 30
0.000000
  70
    32
  0
VERTEX
  8
SJC2
  5
FBB8
 10
-54.6346
 20
13.3253
 30
0.000000
  70
    32
  0
VERTEX
  8
SJC2
  5
FBB9
 10
-54.6762
 20
13.4516
 30
0.000000
  70
    32
  0
VERTEX
  8
SJC2
  5
FBBA
 10
-54.7153
 20
13.5781
 30
0.000000
  70
    32
  0
VERTEX
  8
SJC2
  5
FBBB
 10
-54.7519
 20
13.7049
 30
0.000000
  70
    32
  0
VERTEX
  8
SJC2
  5
FBBC
 10
-54.7860
 20
13.8320
 30
0.000000
  70
    32
  0
VERTEX
  8
SJC2
  5
FBBD
 10
-54.8176
 20
13.9593
 30
0.000000
  70
    32
  0
VERTEX
  8
SJC2
  5
FBBE
 10
-54.8467
 20
14.0869
 30
0.000000
  70
    32
  0
VERTEX
  8
SJC2
  5
FBBF
 10
-54.8733
 20
14.2147
 30
0.000000
  70
    32
  0
VERTEX
  8
SJC2
  5
FBC0
 10
-54.8973
 20
14.3427
 30
0.000000
  70
    32
  0
VERTEX
  8
SJC2
  5
FBC1
 10
-54.9189
 20
14.4708
 30
0.000000
  70
    32
  0
VERTEX
  8
SJC2
  5
FBC2
 10
-54.9379
 20
14.5991
 30
0.000000
  70
    32
  0
VERTEX
  8
SJC2
  5
FBC3
 10
-54.9543
 20
14.7276
 30
0.000000
  70
    32
  0
VERTEX
  8
SJC2
  5
FBC4
 10
-54.9683
 20
14.8561
 30
0.000000
  70
    32
  0
VERTEX
  8
SJC2
  5
FBC5
 10
-54.9797
 20
14.9848
 30
0.000000
  70
    32
  0
VERTEX
  8
SJC2
  5
FBC6
 10
-54.9886
 20
15.1135
 30
0.000000
  70
    32
  0
VERTEX
  8
SJC2
  5
FBC7
 10
-54.9949
 20
15.2423
 30
0.000000
  70
    32
  0
VERTEX
  8
SJC2
  5
FBC8
 10
-54.9987
 20
15.3711
 30
0.000000
  70
    32
  0
VERTEX
  8
SJC2
  5
FBC9
 10
-55.0000
 20
15.5000
 30
0.000000
  70
    32
  0
SEQEND
  8
SJC2
  5
FBCA
  0
LINE
  5
CFC9
  8
SJC2
 10
-55.0
 20
16.500000000001819
 30
0.0
 11
-55.0
 21
15.500000000001821
 31
0.0
  0
ARC
  5
CFCA
  8
SJC2
 10
-54.0
 20
16.500000000001819
 30
0.0
 40
1.0
 50
90.0
 51
180.0
  0
LINE
  5
CFCB
  8
SJC2
 10
-12.16363843592989
 20
5.0000000000018181
 30
0.0
 11
-38.150000000001462
 21
5.0000000000018181
 31
0.0
  0
ARC
  5
CFCC
  8
SJC2
 10
-32.0
 20
3.8898067773643561
 30
0.0
 40
18.457717380139108
 50
90.0
 51
119.1830186931647
  0
ARC
  5
CFCD
  8
SJC2
 10
50.51653964300931
 20
36.831778249988929
 30
0.0
 40
19.331778249988101
 50
240.5098184245339
 51
270.0
  0
POLYLINE
  5
CFCE
  8
SJC2
 10
38.14999999999965
 20
5.0000000000018172
 30
0.0
 66
     1
 70
     8
  0
VERTEX
  8
SJC2
  5
FBCB
 10
38.1500
 20
5.00000
 30
0.000000
  70
    32
  0
VERTEX
  8
SJC2
  5
FBCC
 10
38.3568
 20
5.00087
 30
0.000000
  70
    32
  0
VERTEX
  8
SJC2
  5
FBCD
 10
38.5635
 20
5.00346
 30
0.000000
  70
    32
  0
VERTEX
  8
SJC2
  5
FBCE
 10
38.7702
 20
5.00779
 30
0.000000
  70
    32
  0
VERTEX
  8
SJC2
  5
FBCF
 10
38.9768
 20
5.01385
 30
0.000000
  70
    32
  0
VERTEX
  8
SJC2
  5
FBD0
 10
39.1833
 20
5.02164
 30
0.000000
  70
    32
  0
VERTEX
  8
SJC2
  5
FBD1
 10
39.3896
 20
5.03116
 30
0.000000
  70
    32
  0
VERTEX
  8
SJC2
  5
FBD2
 10
39.5957
 20
5.04240
 30
0.000000
  70
    32
  0
VERTEX
  8
SJC2
  5
FBD3
 10
39.8016
 20
5.05538
 30
0.000000
  70
    32
  0
VERTEX
  8
SJC2
  5
FBD4
 10
40.0072
 20
5.07007
 30
0.000000
  70
    32
  0
VERTEX
  8
SJC2
  5
FBD5
 10
40.2126
 20
5.08649
 30
0.000000
  70
    32
  0
VERTEX
  8
SJC2
  5
FBD6
 10
40.4177
 20
5.10462
 30
0.000000
  70
    32
  0
VERTEX
  8
SJC2
  5
FBD7
 10
40.6224
 20
5.12447
 30
0.000000
  70
    32
  0
VERTEX
  8
SJC2
  5
FBD8
 10
40.8268
 20
5.14603
 30
0.000000
  70
    32
  0
VERTEX
  8
SJC2
  5
FBD9
 10
41.0307
 20
5.16931
 30
0.000000
  70
    32
  0
VERTEX
  8
SJC2
  5
FBDA
 10
41.2342
 20
5.19429
 30
0.000000
  70
    32
  0
VERTEX
  8
SJC2
  5
FBDB
 10
41.4373
 20
5.22097
 30
0.000000
  70
    32
  0
VERTEX
  8
SJC2
  5
FBDC
 10
41.6398
 20
5.24935
 30
0.000000
  70
    32
  0
VERTEX
  8
SJC2
  5
FBDD
 10
41.8419
 20
5.27943
 30
0.000000
  70
    32
  0
VERTEX
  8
SJC2
  5
FBDE
 10
42.0433
 20
5.31119
 30
0.000000
  70
    32
  0
VERTEX
  8
SJC2
  5
FBDF
 10
42.2442
 20
5.34464
 30
0.000000
  70
    32
  0
VERTEX
  8
SJC2
  5
FBE0
 10
42.4445
 20
5.37977
 30
0.000000
  70
    32
  0
VERTEX
  8
SJC2
  5
FBE1
 10
42.6441
 20
5.41658
 30
0.000000
  70
    32
  0
VERTEX
  8
SJC2
  5
FBE2
 10
42.8431
 20
5.45505
 30
0.000000
  70
    32
  0
VERTEX
  8
SJC2
  5
FBE3
 10
43.0413
 20
5.49519
 30
0.000000
  70
    32
  0
VERTEX
  8
SJC2
  5
FBE4
 10
43.2388
 20
5.53698
 30
0.000000
  70
    32
  0
VERTEX
  8
SJC2
  5
FBE5
 10
43.4355
 20
5.58043
 30
0.000000
  70
    32
  0
VERTEX
  8
SJC2
  5
FBE6
 10
43.6315
 20
5.62552
 30
0.000000
  70
    32
  0
VERTEX
  8
SJC2
  5
FBE7
 10
43.8266
 20
5.67224
 30
0.000000
  70
    32
  0
VERTEX
  8
SJC2
  5
FBE8
 10
44.0209
 20
5.72060
 30
0.000000
  70
    32
  0
VERTEX
  8
SJC2
  5
FBE9
 10
44.2142
 20
5.77058
 30
0.000000
  70
    32
  0
VERTEX
  8
SJC2
  5
FBEA
 10
44.4067
 20
5.82218
 30
0.000000
  70
    32
  0
VERTEX
  8
SJC2
  5
FBEB
 10
44.5982
 20
5.87539
 30
0.000000
  70
    32
  0
VERTEX
  8
SJC2
  5
FBEC
 10
44.7888
 20
5.93019
 30
0.000000
  70
    32
  0
VERTEX
  8
SJC2
  5
FBED
 10
44.9783
 20
5.98659
 30
0.000000
  70
    32
  0
VERTEX
  8
SJC2
  5
FBEE
 10
45.1668
 20
6.04457
 30
0.000000
  70
    32
  0
VERTEX
  8
SJC2
  5
FBEF
 10
45.3543
 20
6.10412
 30
0.000000
  70
    32
  0
VERTEX
  8
SJC2
  5
FBF0
 10
45.5407
 20
6.16524
 30
0.000000
  70
    32
  0
VERTEX
  8
SJC2
  5
FBF1
 10
45.7260
 20
6.22792
 30
0.000000
  70
    32
  0
VERTEX
  8
SJC2
  5
FBF2
 10
45.9101
 20
6.29214
 30
0.000000
  70
    32
  0
VERTEX
  8
SJC2
  5
FBF3
 10
46.0930
 20
6.35791
 30
0.000000
  70
    32
  0
VERTEX
  8
SJC2
  5
FBF4
 10
46.2748
 20
6.42519
 30
0.000000
  70
    32
  0
VERTEX
  8
SJC2
  5
FBF5
 10
46.4553
 20
6.49400
 30
0.000000
  70
    32
  0
VERTEX
  8
SJC2
  5
FBF6
 10
46.6346
 20
6.56431
 30
0.000000
  70
    32
  0
VERTEX
  8
SJC2
  5
FBF7
 10
46.8126
 20
6.63612
 30
0.000000
  70
    32
  0
VERTEX
  8
SJC2
  5
FBF8
 10
46.9893
 20
6.70942
 30
0.000000
  70
    32
  0
VERTEX
  8
SJC2
  5
FBF9
 10
47.1647
 20
6.78418
 30
0.000000
  70
    32
  0
VERTEX
  8
SJC2
  5
FBFA
 10
47.3387
 20
6.86042
 30
0.000000
  70
    32
  0
VERTEX
  8
SJC2
  5
FBFB
 10
47.5114
 20
6.93810
 30
0.000000
  70
    32
  0
VERTEX
  8
SJC2
  5
FBFC
 10
47.6826
 20
7.01722
 30
0.000000
  70
    32
  0
VERTEX
  8
SJC2
  5
FBFD
 10
47.8524
 20
7.09777
 30
0.000000
  70
    32
  0
VERTEX
  8
SJC2
  5
FBFE
 10
48.0207
 20
7.17974
 30
0.000000
  70
    32
  0
VERTEX
  8
SJC2
  5
FBFF
 10
48.1875
 20
7.26311
 30
0.000000
  70
    32
  0
VERTEX
  8
SJC2
  5
FC00
 10
48.3529
 20
7.34788
 30
0.000000
  70
    32
  0
VERTEX
  8
SJC2
  5
FC01
 10
48.5167
 20
7.43402
 30
0.000000
  70
    32
  0
VERTEX
  8
SJC2
  5
FC02
 10
48.6789
 20
7.52152
 30
0.000000
  70
    32
  0
VERTEX
  8
SJC2
  5
FC03
 10
48.8395
 20
7.61038
 30
0.000000
  70
    32
  0
VERTEX
  8
SJC2
  5
FC04
 10
48.9986
 20
7.70058
 30
0.000000
  70
    32
  0
VERTEX
  8
SJC2
  5
FC05
 10
49.1560
 20
7.79210
 30
0.000000
  70
    32
  0
VERTEX
  8
SJC2
  5
FC06
 10
49.3117
 20
7.88493
 30
0.000000
  70
    32
  0
VERTEX
  8
SJC2
  5
FC07
 10
49.4658
 20
7.97906
 30
0.000000
  70
    32
  0
VERTEX
  8
SJC2
  5
FC08
 10
49.6181
 20
8.07448
 30
0.000000
  70
    32
  0
VERTEX
  8
SJC2
  5
FC09
 10
49.7688
 20
8.17116
 30
0.000000
  70
    32
  0
VERTEX
  8
SJC2
  5
FC0A
 10
49.9176
 20
8.26910
 30
0.000000
  70
    32
  0
VERTEX
  8
SJC2
  5
FC0B
 10
50.0647
 20
8.36827
 30
0.000000
  70
    32
  0
VERTEX
  8
SJC2
  5
FC0C
 10
50.2101
 20
8.46867
 30
0.000000
  70
    32
  0
VERTEX
  8
SJC2
  5
FC0D
 10
50.3536
 20
8.57028
 30
0.000000
  70
    32
  0
VERTEX
  8
SJC2
  5
FC0E
 10
50.4952
 20
8.67309
 30
0.000000
  70
    32
  0
VERTEX
  8
SJC2
  5
FC0F
 10
50.6350
 20
8.77707
 30
0.000000
  70
    32
  0
VERTEX
  8
SJC2
  5
FC10
 10
50.7729
 20
8.88222
 30
0.000000
  70
    32
  0
VERTEX
  8
SJC2
  5
FC11
 10
50.9090
 20
8.98851
 30
0.000000
  70
    32
  0
VERTEX
  8
SJC2
  5
FC12
 10
51.0431
 20
9.09594
 30
0.000000
  70
    32
  0
VERTEX
  8
SJC2
  5
FC13
 10
51.1752
 20
9.20448
 30
0.000000
  70
    32
  0
VERTEX
  8
SJC2
  5
FC14
 10
51.3054
 20
9.31412
 30
0.000000
  70
    32
  0
VERTEX
  8
SJC2
  5
FC15
 10
51.4336
 20
9.42484
 30
0.000000
  70
    32
  0
VERTEX
  8
SJC2
  5
FC16
 10
51.5599
 20
9.53662
 30
0.000000
  70
    32
  0
VERTEX
  8
SJC2
  5
FC17
 10
51.6840
 20
9.64946
 30
0.000000
  70
    32
  0
VERTEX
  8
SJC2
  5
FC18
 10
51.8062
 20
9.76332
 30
0.000000
  70
    32
  0
VERTEX
  8
SJC2
  5
FC19
 10
51.9263
 20
9.87821
 30
0.000000
  70
    32
  0
VERTEX
  8
SJC2
  5
FC1A
 10
52.0443
 20
9.99408
 30
0.000000
  70
    32
  0
VERTEX
  8
SJC2
  5
FC1B
 10
52.1603
 20
10.1109
 30
0.000000
  70
    32
  0
VERTEX
  8
SJC2
  5
FC1C
 10
52.2741
 20
10.2288
 30
0.000000
  70
    32
  0
VERTEX
  8
SJC2
  5
FC1D
 10
52.3858
 20
10.3475
 30
0.000000
  70
    32
  0
VERTEX
  8
SJC2
  5
FC1E
 10
52.4953
 20
10.4672
 30
0.000000
  70
    32
  0
VERTEX
  8
SJC2
  5
FC1F
 10
52.6027
 20
10.5878
 30
0.000000
  70
    32
  0
VERTEX
  8
SJC2
  5
FC20
 10
52.7079
 20
10.7093
 30
0.000000
  70
    32
  0
VERTEX
  8
SJC2
  5
FC21
 10
52.8110
 20
10.8317
 30
0.000000
  70
    32
  0
VERTEX
  8
SJC2
  5
FC22
 10
52.9118
 20
10.9549
 30
0.000000
  70
    32
  0
VERTEX
  8
SJC2
  5
FC23
 10
53.0104
 20
11.0789
 30
0.000000
  70
    32
  0
VERTEX
  8
SJC2
  5
FC24
 10
53.1067
 20
11.2038
 30
0.000000
  70
    32
  0
VERTEX
  8
SJC2
  5
FC25
 10
53.2008
 20
11.3295
 30
0.000000
  70
    32
  0
VERTEX
  8
SJC2
  5
FC26
 10
53.2927
 20
11.4559
 30
0.000000
  70
    32
  0
VERTEX
  8
SJC2
  5
FC27
 10
53.3822
 20
11.5831
 30
0.000000
  70
    32
  0
VERTEX
  8
SJC2
  5
FC28
 10
53.4695
 20
11.7111
 30
0.000000
  70
    32
  0
VERTEX
  8
SJC2
  5
FC29
 10
53.5544
 20
11.8397
 30
0.000000
  70
    32
  0
VERTEX
  8
SJC2
  5
FC2A
 10
53.6371
 20
11.9691
 30
0.000000
  70
    32
  0
VERTEX
  8
SJC2
  5
FC2B
 10
53.7174
 20
12.0991
 30
0.000000
  70
    32
  0
VERTEX
  8
SJC2
  5
FC2C
 10
53.7953
 20
12.2299
 30
0.000000
  70
    32
  0
VERTEX
  8
SJC2
  5
FC2D
 10
53.8709
 20
12.3612
 30
0.000000
  70
    32
  0
VERTEX
  8
SJC2
  5
FC2E
 10
53.9442
 20
12.4932
 30
0.000000
  70
    32
  0
VERTEX
  8
SJC2
  5
FC2F
 10
54.0150
 20
12.6258
 30
0.000000
  70
    32
  0
VERTEX
  8
SJC2
  5
FC30
 10
54.0835
 20
12.7589
 30
0.000000
  70
    32
  0
VERTEX
  8
SJC2
  5
FC31
 10
54.1495
 20
12.8927
 30
0.000000
  70
    32
  0
VERTEX
  8
SJC2
  5
FC32
 10
54.2132
 20
13.0269
 30
0.000000
  70
    32
  0
VERTEX
  8
SJC2
  5
FC33
 10
54.2744
 20
13.1617
 30
0.000000
  70
    32
  0
VERTEX
  8
SJC2
  5
FC34
 10
54.3333
 20
13.2970
 30
0.000000
  70
    32
  0
VERTEX
  8
SJC2
  5
FC35
 10
54.3896
 20
13.4328
 30
0.000000
  70
    32
  0
VERTEX
  8
SJC2
  5
FC36
 10
54.4436
 20
13.5690
 30
0.000000
  70
    32
  0
VERTEX
  8
SJC2
  5
FC37
 10
54.4950
 20
13.7057
 30
0.000000
  70
    32
  0
VERTEX
  8
SJC2
  5
FC38
 10
54.5440
 20
13.8428
 30
0.000000
  70
    32
  0
VERTEX
  8
SJC2
  5
FC39
 10
54.5906
 20
13.9803
 30
0.000000
  70
    32
  0
VERTEX
  8
SJC2
  5
FC3A
 10
54.6346
 20
14.1182
 30
0.000000
  70
    32
  0
VERTEX
  8
SJC2
  5
FC3B
 10
54.6762
 20
14.2565
 30
0.000000
  70
    32
  0
VERTEX
  8
SJC2
  5
FC3C
 10
54.7153
 20
14.3950
 30
0.000000
  70
    32
  0
VERTEX
  8
SJC2
  5
FC3D
 10
54.7519
 20
14.5339
 30
0.000000
  70
    32
  0
VERTEX
  8
SJC2
  5
FC3E
 10
54.7860
 20
14.6731
 30
0.000000
  70
    32
  0
VERTEX
  8
SJC2
  5
FC3F
 10
54.8176
 20
14.8126
 30
0.000000
  70
    32
  0
VERTEX
  8
SJC2
  5
FC40
 10
54.8467
 20
14.9523
 30
0.000000
  70
    32
  0
VERTEX
  8
SJC2
  5
FC41
 10
54.8733
 20
15.0923
 30
0.000000
  70
    32
  0
VERTEX
  8
SJC2
  5
FC42
 10
54.8973
 20
15.2324
 30
0.000000
  70
    32
  0
VERTEX
  8
SJC2
  5
FC43
 10
54.9189
 20
15.3728
 30
0.000000
  70
    32
  0
VERTEX
  8
SJC2
  5
FC44
 10
54.9379
 20
15.5133
 30
0.000000
  70
    32
  0
VERTEX
  8
SJC2
  5
FC45
 10
54.9543
 20
15.6540
 30
0.000000
  70
    32
  0
VERTEX
  8
SJC2
  5
FC46
 10
54.9683
 20
15.7948
 30
0.000000
  70
    32
  0
VERTEX
  8
SJC2
  5
FC47
 10
54.9797
 20
15.9357
 30
0.000000
  70
    32
  0
VERTEX
  8
SJC2
  5
FC48
 10
54.9886
 20
16.0767
 30
0.000000
  70
    32
  0
VERTEX
  8
SJC2
  5
FC49
 10
54.9949
 20
16.2178
 30
0.000000
  70
    32
  0
VERTEX
  8
SJC2
  5
FC4A
 10
54.9987
 20
16.3589
 30
0.000000
  70
    32
  0
VERTEX
  8
SJC2
  5
FC4B
 10
55.0000
 20
16.5000
 30
0.000000
  70
    32
  0
SEQEND
  8
SJC2
  5
FC4C
  0
ARC
  5
CFCF
  8
SJC2
 10
38.543745668841439
 20
-36.423451398677571
 30
0.0
 40
49.705426827867157
 50
94.616964623907535
 51
121.4706540843424
  0
POLYLINE
  5
CFD0
  8
SJC2
 10
11.000000000000085
 20
0.0000002476401749
 30
0.0
 66
     1
 70
     8
  0
VERTEX
  8
SJC2
  5
FC4D
 10
11.0000
 20
2.47640e-007
 30
0.000000
  70
    32
  0
VERTEX
  8
SJC2
  5
FC4E
 10
11.0016
 20
0.0613579
 30
0.000000
  70
    32
  0
VERTEX
  8
SJC2
  5
FC4F
 10
11.0063
 20
0.122706
 30
0.000000
  70
    32
  0
VERTEX
  8
SJC2
  5
FC50
 10
11.0142
 20
0.184036
 30
0.000000
  70
    32
  0
VERTEX
  8
SJC2
  5
FC51
 10
11.0253
 20
0.245339
 30
0.000000
  70
    32
  0
VERTEX
  8
SJC2
  5
FC52
 10
11.0395
 20
0.306604
 30
0.000000
  70
    32
  0
VERTEX
  8
SJC2
  5
FC53
 10
11.0569
 20
0.367823
 30
0.000000
  70
    32
  0
VERTEX
  8
SJC2
  5
FC54
 10
11.0774
 20
0.428987
 30
0.000000
  70
    32
  0
VERTEX
  8
SJC2
  5
FC55
 10
11.1011
 20
0.490086
 30
0.000000
  70
    32
  0
VERTEX
  8
SJC2
  5
FC56
 10
11.1280
 20
0.551111
 30
0.000000
  70
    32
  0
VERTEX
  8
SJC2
  5
FC57
 10
11.1579
 20
0.612054
 30
0.000000
  70
    32
  0
VERTEX
  8
SJC2
  5
FC58
 10
11.1910
 20
0.672904
 30
0.000000
  70
    32
  0
VERTEX
  8
SJC2
  5
FC59
 10
11.2273
 20
0.733653
 30
0.000000
  70
    32
  0
VERTEX
  8
SJC2
  5
FC5A
 10
11.2667
 20
0.794291
 30
0.000000
  70
    32
  0
VERTEX
  8
SJC2
  5
FC5B
 10
11.3092
 20
0.854810
 30
0.000000
  70
    32
  0
VERTEX
  8
SJC2
  5
FC5C
 10
11.3548
 20
0.915200
 30
0.000000
  70
    32
  0
VERTEX
  8
SJC2
  5
FC5D
 10
11.4035
 20
0.975452
 30
0.000000
  70
    32
  0
VERTEX
  8
SJC2
  5
FC5E
 10
11.4553
 20
1.03556
 30
0.000000
  70
    32
  0
VERTEX
  8
SJC2
  5
FC5F
 10
11.5103
 20
1.09551
 30
0.000000
  70
    32
  0
VERTEX
  8
SJC2
  5
FC60
 10
11.5683
 20
1.15529
 30
0.000000
  70
    32
  0
VERTEX
  8
SJC2
  5
FC61
 10
11.6293
 20
1.21490
 30
0.000000
  70
    32
  0
VERTEX
  8
SJC2
  5
FC62
 10
11.6935
 20
1.27433
 30
0.000000
  70
    32
  0
VERTEX
  8
SJC2
  5
FC63
 10
11.7607
 20
1.33356
 30
0.000000
  70
    32
  0
VERTEX
  8
SJC2
  5
FC64
 10
11.8310
 20
1.39260
 30
0.000000
  70
    32
  0
VERTEX
  8
SJC2
  5
FC65
 10
11.9043
 20
1.45142
 30
0.000000
  70
    32
  0
VERTEX
  8
SJC2
  5
FC66
 10
11.9806
 20
1.51003
 30
0.000000
  70
    32
  0
VERTEX
  8
SJC2
  5
FC67
 10
12.0599
 20
1.56841
 30
0.000000
  70
    32
  0
VERTEX
  8
SJC2
  5
FC68
 10
12.1422
 20
1.62655
 30
0.000000
  70
    32
  0
VERTEX
  8
SJC2
  5
FC69
 10
12.2276
 20
1.68445
 30
0.000000
  70
    32
  0
VERTEX
  8
SJC2
  5
FC6A
 10
12.3159
 20
1.74209
 30
0.000000
  70
    32
  0
VERTEX
  8
SJC2
  5
FC6B
 10
12.4072
 20
1.79948
 30
0.000000
  70
    32
  0
VERTEX
  8
SJC2
  5
FC6C
 10
12.5014
 20
1.85659
 30
0.000000
  70
    32
  0
VERTEX
  8
SJC2
  5
FC6D
 10
12.5985
 20
1.91342
 30
0.000000
  70
    32
  0
VERTEX
  8
SJC2
  5
FC6E
 10
12.6986
 20
1.96996
 30
0.000000
  70
    32
  0
VERTEX
  8
SJC2
  5
FC6F
 10
12.8016
 20
2.02621
 30
0.000000
  70
    32
  0
VERTEX
  8
SJC2
  5
FC70
 10
12.9075
 20
2.08215
 30
0.000000
  70
    32
  0
VERTEX
  8
SJC2
  5
FC71
 10
13.0162
 20
2.13778
 30
0.000000
  70
    32
  0
VERTEX
  8
SJC2
  5
FC72
 10
13.1278
 20
2.19308
 30
0.000000
  70
    32
  0
VERTEX
  8
SJC2
  5
FC73
 10
13.2423
 20
2.24806
 30
0.000000
  70
    32
  0
VERTEX
  8
SJC2
  5
FC74
 10
13.3596
 20
2.30269
 30
0.000000
  70
    32
  0
VERTEX
  8
SJC2
  5
FC75
 10
13.4797
 20
2.35698
 30
0.000000
  70
    32
  0
VERTEX
  8
SJC2
  5
FC76
 10
13.6025
 20
2.41092
 30
0.000000
  70
    32
  0
VERTEX
  8
SJC2
  5
FC77
 10
13.7282
 20
2.46449
 30
0.000000
  70
    32
  0
VERTEX
  8
SJC2
  5
FC78
 10
13.8566
 20
2.51769
 30
0.000000
  70
    32
  0
VERTEX
  8
SJC2
  5
FC79
 10
13.9877
 20
2.57051
 30
0.000000
  70
    32
  0
VERTEX
  8
SJC2
  5
FC7A
 10
14.1215
 20
2.62295
 30
0.000000
  70
    32
  0
VERTEX
  8
SJC2
  5
FC7B
 10
14.2581
 20
2.67499
 30
0.000000
  70
    32
  0
VERTEX
  8
SJC2
  5
FC7C
 10
14.3973
 20
2.72663
 30
0.000000
  70
    32
  0
VERTEX
  8
SJC2
  5
FC7D
 10
14.5391
 20
2.77785
 30
0.000000
  70
    32
  0
VERTEX
  8
SJC2
  5
FC7E
 10
14.6836
 20
2.82866
 30
0.000000
  70
    32
  0
VERTEX
  8
SJC2
  5
FC7F
 10
14.8307
 20
2.87904
 30
0.000000
  70
    32
  0
VERTEX
  8
SJC2
  5
FC80
 10
14.9804
 20
2.92899
 30
0.000000
  70
    32
  0
VERTEX
  8
SJC2
  5
FC81
 10
15.1326
 20
2.97850
 30
0.000000
  70
    32
  0
VERTEX
  8
SJC2
  5
FC82
 10
15.2874
 20
3.02756
 30
0.000000
  70
    32
  0
VERTEX
  8
SJC2
  5
FC83
 10
15.4447
 20
3.07616
 30
0.000000
  70
    32
  0
VERTEX
  8
SJC2
  5
FC84
 10
15.6045
 20
3.12430
 30
0.000000
  70
    32
  0
VERTEX
  8
SJC2
  5
FC85
 10
15.7668
 20
3.17197
 30
0.000000
  70
    32
  0
VERTEX
  8
SJC2
  5
FC86
 10
15.9315
 20
3.21916
 30
0.000000
  70
    32
  0
VERTEX
  8
SJC2
  5
FC87
 10
16.0986
 20
3.26586
 30
0.000000
  70
    32
  0
VERTEX
  8
SJC2
  5
FC88
 10
16.2681
 20
3.31208
 30
0.000000
  70
    32
  0
VERTEX
  8
SJC2
  5
FC89
 10
16.4400
 20
3.35779
 30
0.000000
  70
    32
  0
VERTEX
  8
SJC2
  5
FC8A
 10
16.6143
 20
3.40301
 30
0.000000
  70
    32
  0
VERTEX
  8
SJC2
  5
FC8B
 10
16.7908
 20
3.44770
 30
0.000000
  70
    32
  0
VERTEX
  8
SJC2
  5
FC8C
 10
16.9697
 20
3.49188
 30
0.000000
  70
    32
  0
VERTEX
  8
SJC2
  5
FC8D
 10
17.1508
 20
3.53553
 30
0.000000
  70
    32
  0
VERTEX
  8
SJC2
  5
FC8E
 10
17.3341
 20
3.57865
 30
0.000000
  70
    32
  0
VERTEX
  8
SJC2
  5
FC8F
 10
17.5196
 20
3.62124
 30
0.000000
  70
    32
  0
VERTEX
  8
SJC2
  5
FC90
 10
17.7074
 20
3.66327
 30
0.000000
  70
    32
  0
VERTEX
  8
SJC2
  5
FC91
 10
17.8973
 20
3.70476
 30
0.000000
  70
    32
  0
VERTEX
  8
SJC2
  5
FC92
 10
18.0893
 20
3.74568
 30
0.000000
  70
    32
  0
VERTEX
  8
SJC2
  5
FC93
 10
18.2834
 20
3.78604
 30
0.000000
  70
    32
  0
VERTEX
  8
SJC2
  5
FC94
 10
18.4795
 20
3.82584
 30
0.000000
  70
    32
  0
VERTEX
  8
SJC2
  5
FC95
 10
18.6777
 20
3.86505
 30
0.000000
  70
    32
  0
VERTEX
  8
SJC2
  5
FC96
 10
18.8780
 20
3.90369
 30
0.000000
  70
    32
  0
VERTEX
  8
SJC2
  5
FC97
 10
19.0801
 20
3.94173
 30
0.000000
  70
    32
  0
VERTEX
  8
SJC2
  5
FC98
 10
19.2843
 20
3.97918
 30
0.000000
  70
    32
  0
VERTEX
  8
SJC2
  5
FC99
 10
19.4903
 20
4.01604
 30
0.000000
  70
    32
  0
VERTEX
  8
SJC2
  5
FC9A
 10
19.6982
 20
4.05229
 30
0.000000
  70
    32
  0
VERTEX
  8
SJC2
  5
FC9B
 10
19.9080
 20
4.08792
 30
0.000000
  70
    32
  0
VERTEX
  8
SJC2
  5
FC9C
 10
20.1196
 20
4.12295
 30
0.000000
  70
    32
  0
VERTEX
  8
SJC2
  5
FC9D
 10
20.3330
 20
4.15735
 30
0.000000
  70
    32
  0
VERTEX
  8
SJC2
  5
FC9E
 10
20.5482
 20
4.19112
 30
0.000000
  70
    32
  0
VERTEX
  8
SJC2
  5
FC9F
 10
20.7651
 20
4.22427
 30
0.000000
  70
    32
  0
VERTEX
  8
SJC2
  5
FCA0
 10
20.9836
 20
4.25678
 30
0.000000
  70
    32
  0
VERTEX
  8
SJC2
  5
FCA1
 10
21.2038
 20
4.28864
 30
0.000000
  70
    32
  0
VERTEX
  8
SJC2
  5
FCA2
 10
21.4257
 20
4.31986
 30
0.000000
  70
    32
  0
VERTEX
  8
SJC2
  5
FCA3
 10
21.6491
 20
4.35043
 30
0.000000
  70
    32
  0
VERTEX
  8
SJC2
  5
FCA4
 10
21.8741
 20
4.38035
 30
0.000000
  70
    32
  0
VERTEX
  8
SJC2
  5
FCA5
 10
22.1007
 20
4.40961
 30
0.000000
  70
    32
  0
VERTEX
  8
SJC2
  5
FCA6
 10
22.3287
 20
4.43820
 30
0.000000
  70
    32
  0
VERTEX
  8
SJC2
  5
FCA7
 10
22.5582
 20
4.46612
 30
0.000000
  70
    32
  0
VERTEX
  8
SJC2
  5
FCA8
 10
22.7891
 20
4.49337
 30
0.000000
  70
    32
  0
VERTEX
  8
SJC2
  5
FCA9
 10
23.0213
 20
4.51995
 30
0.000000
  70
    32
  0
VERTEX
  8
SJC2
  5
FCAA
 10
23.2550
 20
4.54584
 30
0.000000
  70
    32
  0
VERTEX
  8
SJC2
  5
FCAB
 10
23.4899
 20
4.57105
 30
0.000000
  70
    32
  0
VERTEX
  8
SJC2
  5
FCAC
 10
23.7262
 20
4.59557
 30
0.000000
  70
    32
  0
VERTEX
  8
SJC2
  5
FCAD
 10
23.9636
 20
4.61940
 30
0.000000
  70
    32
  0
VERTEX
  8
SJC2
  5
FCAE
 10
24.2023
 20
4.64253
 30
0.000000
  70
    32
  0
VERTEX
  8
SJC2
  5
FCAF
 10
24.4422
 20
4.66496
 30
0.000000
  70
    32
  0
VERTEX
  8
SJC2
  5
FCB0
 10
24.6832
 20
4.68670
 30
0.000000
  70
    32
  0
VERTEX
  8
SJC2
  5
FCB1
 10
24.9253
 20
4.70772
 30
0.000000
  70
    32
  0
VERTEX
  8
SJC2
  5
FCB2
 10
25.1685
 20
4.72804
 30
0.000000
  70
    32
  0
VERTEX
  8
SJC2
  5
FCB3
 10
25.4127
 20
4.74764
 30
0.000000
  70
    32
  0
VERTEX
  8
SJC2
  5
FCB4
 10
25.6579
 20
4.76653
 30
0.000000
  70
    32
  0
VERTEX
  8
SJC2
  5
FCB5
 10
25.9040
 20
4.78470
 30
0.000000
  70
    32
  0
VERTEX
  8
SJC2
  5
FCB6
 10
26.1511
 20
4.80215
 30
0.000000
  70
    32
  0
VERTEX
  8
SJC2
  5
FCB7
 10
26.3990
 20
4.81888
 30
0.000000
  70
    32
  0
VERTEX
  8
SJC2
  5
FCB8
 10
26.6478
 20
4.83488
 30
0.000000
  70
    32
  0
VERTEX
  8
SJC2
  5
FCB9
 10
26.8974
 20
4.85016
 30
0.000000
  70
    32
  0
VERTEX
  8
SJC2
  5
FCBA
 10
27.1478
 20
4.86470
 30
0.000000
  70
    32
  0
VERTEX
  8
SJC2
  5
FCBB
 10
27.3989
 20
4.87851
 30
0.000000
  70
    32
  0
VERTEX
  8
SJC2
  5
FCBC
 10
27.6507
 20
4.89159
 30
0.000000
  70
    32
  0
VERTEX
  8
SJC2
  5
FCBD
 10
27.9031
 20
4.90393
 30
0.000000
  70
    32
  0
VERTEX
  8
SJC2
  5
FCBE
 10
28.1562
 20
4.91553
 30
0.000000
  70
    32
  0
VERTEX
  8
SJC2
  5
FCBF
 10
28.4098
 20
4.92639
 30
0.000000
  70
    32
  0
VERTEX
  8
SJC2
  5
FCC0
 10
28.6640
 20
4.93651
 30
0.000000
  70
    32
  0
VERTEX
  8
SJC2
  5
FCC1
 10
28.9187
 20
4.94588
 30
0.000000
  70
    32
  0
VERTEX
  8
SJC2
  5
FCC2
 10
29.1738
 20
4.95451
 30
0.000000
  70
    32
  0
VERTEX
  8
SJC2
  5
FCC3
 10
29.4294
 20
4.96240
 30
0.000000
  70
    32
  0
VERTEX
  8
SJC2
  5
FCC4
 10
29.6853
 20
4.96953
 30
0.000000
  70
    32
  0
VERTEX
  8
SJC2
  5
FCC5
 10
29.9416
 20
4.97592
 30
0.000000
  70
    32
  0
VERTEX
  8
SJC2
  5
FCC6
 10
30.1983
 20
4.98156
 30
0.000000
  70
    32
  0
VERTEX
  8
SJC2
  5
FCC7
 10
30.4551
 20
4.98645
 30
0.000000
  70
    32
  0
VERTEX
  8
SJC2
  5
FCC8
 10
30.7123
 20
4.99059
 30
0.000000
  70
    32
  0
VERTEX
  8
SJC2
  5
FCC9
 10
30.9696
 20
4.99398
 30
0.000000
  70
    32
  0
VERTEX
  8
SJC2
  5
FCCA
 10
31.2270
 20
4.99661
 30
0.000000
  70
    32
  0
VERTEX
  8
SJC2
  5
FCCB
 10
31.4846
 20
4.99849
 30
0.000000
  70
    32
  0
VERTEX
  8
SJC2
  5
FCCC
 10
31.7423
 20
4.99962
 30
0.000000
  70
    32
  0
VERTEX
  8
SJC2
  5
FCCD
 10
32.0000
 20
5.00000
 30
0.000000
  70
    32
  0
SEQEND
  8
SJC2
  5
FCCE
  0
LINE
  5
CFD1
  8
SJC2
 10
38.149999999997817
 20
5.0000000000018181
 30
0.0
 11
12.163638435926259
 21
5.0000000000018181
 31
0.0
  0
LINE
  5
CFD2
  8
SJC2
 10
50.51653964300931
 20
17.500000000014548
 30
0.0
 11
54.000000000001819
 21
17.500000000005461
 31
0.0
  0
ARC
  5
CFD3
  8
SJC2
 10
53.999999999998181
 20
16.500000000003642
 30
0.0
 40
1.0
 50
359.99999999994787
 51
89.999999999791555
  0
ARC
  5
CFD4
  8
SJC2
 10
32.0
 20
3.8898067773643561
 30
0.0
 40
18.457717380139108
 50
60.816981306835267
 51
90.0
  0
ARC
  5
CFD5
  8
SJC2
 10
-12.16363843592989
 20
7.5000000000018181
 30
0.0
 40
2.5
 50
270.0
 51
328.34235578376462
  0
ARC
  5
CFD6
  8
SJC2
 10
12.163638435926259
 20
7.5000000000018181
 30
0.0
 40
2.5
 50
211.65764421623541
 51
270.0
  0
ARC
  5
CFD7
  8
SJC2
 10
-38.543745668843258
 20
-36.423451398677571
 30
0.0
 40
49.705426827867157
 50
58.529345915657508
 51
85.383035376092451
  0
ARC
  5
CFD8
  8
SJC2
 10
-115.93317425251
 20
40.184366203893653
 30
0.0
 40
98.469482421875014
 50
349.86573840863002
 51
10.134264152683309
  0
ARC
  5
CFD9
  8
SJC2
 10
115.93316650390619
 20
40.184366203893653
 30
0.0
 40
98.469482421874957
 50
169.8657391487296
 51
190.1342572088428
  0
ARC
  5
CFDA
  8
SJC2
 10
0.0
 20
81.450609184850705
 30
0.0
 40
70.0
 50
257.85894009487532
 51
269.99999749547919
  0
ARC
  5
CFDB
  8
SJC2
 10
-13.670753479003899
 20
17.904474236120219
 30
0.0
 40
5.0
 50
200.9088159651092
 51
257.85894009487532
  0
ARC
  5
CFDC
  8
SJC2
 10
-9.0
 20
19.68888280545616
 30
0.0
 40
9.9999999999999964
 50
180.00000500893739
 51
200.90882598300351
  0
LINE
  5
CFDD
  8
SJC2
 10
-19.0
 20
22.858129479040141
 30
0.0
 11
-19.0
 21
19.68888280545616
 31
0.0
  0
ARC
  5
CFDE
  8
SJC2
 10
13.67074584960937
 20
17.904474236120219
 30
0.0
 40
5.0
 50
282.14106172636667
 51
339.09117902597262
  0
ARC
  5
CFDF
  8
SJC2
 10
0.0
 20
81.450609184850705
 30
0.0
 40
70.0
 50
269.99999749547919
 51
282.14106172636667
  0
ARC
  5
CFE0
  8
SJC2
 10
9.0
 20
19.68888280545616
 30
0.0
 40
10.000000000000011
 50
339.09117902597262
 51
0.0
  0
LINE
  5
CFE1
  8
SJC2
 10
19.0
 20
22.858129479040141
 30
0.0
 11
19.0
 21
19.68888280545616
 31
0.0
  0
ARC
  5
CFE2
  8
SJC2
 10
0.0
 20
5.7606048360958084
 30
0.0
 40
57.0
 50
71.250661949698681
 51
108.74934305917481
  0
ARC
  5
CFE3
  8
SJC2
 10
-18.0
 20
58.788896538366309
 30
0.0
 40
0.9999999999999992
 50
108.74934305917481
 51
180.00000500893739
  0
LINE
  5
CFE4
  8
SJC2
 10
-19.0
 20
58.788896538366309
 30
0.0
 11
-19.0
 21
57.510606743444441
 31
0.0
  0
LINE
  5
CFE5
  8
SJC2
 10
19.0
 20
58.788896538366309
 30
0.0
 11
19.0
 21
57.510606743444441
 31
0.0
  0
ARC
  5
CFE6
  8
SJC2
 10
18.0
 20
58.788896538366309
 30
0.0
 40
1.0
 50
0.0
 51
71.250661949698681
  0
LINE
  5
CFE7
  8
CENTER
 10
0.0
 20
0.0
 30
0.0
 11
0.0
 21
69.424279763680715
 31
0.0
  0
ENDBLK
  5
CFE8
  8
0
  0
BLOCK
  8
0
  2
40手摺端末
 70
     0
 10
0.0
 20
0.0
 30
0.0
  3
40手摺端末
  1

  0
ARC
  5
D0C2
  8
SJC
 10
-56.22050137731275
 20
3.7342278797659669
 30
0.0
 40
53.779623234934661
 50
88.699589588898235
 51
179.87665850744131
  0
LINE
  5
D0C3
  8
SJC
 10
-55.0
 20
57.499999999949068
 30
0.0
 11
-19.0
 21
57.499999999949068
 31
0.0
  0
LINE
  5
D0C4
  8
SJC
 10
-110.0
 20
3.8499999999476131
 30
0.0
 11
-110.0
 21
-21.15000000005239
 31
0.0
  0
LINE
  5
D0C5
  8
SJC
 10
-70.0
 20
3.8499999999476131
 30
0.0
 11
-70.0
 21
-21.15000000005239
 31
0.0
  0
LINE
  5
D0C6
  8
SJC
 10
-105.0
 20
-26.15000000005239
 30
0.0
 11
-75.0
 21
-26.15000000005239
 31
0.0
  0
ARC
  5
D0C7
  8
SJC
 10
-105.0
 20
-21.15000000005239
 30
0.0
 40
5.0
 50
180.0
 51
270.0
  0
ARC
  5
D0C8
  8
SJC
 10
-75.0
 20
-21.15000000005239
 30
0.0
 40
5.0
 50
270.0
 51
0.0
  0
ARC
  5
D0C9
  8
SJC
 10
-56.243791002649232
 20
3.7438747584455991
 30
0.0
 40
13.756618354291049
 50
89.514872166713559
 51
179.55798811920971
  0
LINE
  5
D0CA
  8
SJC
 10
-54.0
 20
17.5
 30
0.0
 11
-56.127314034005387
 21
17.5
 31
0.0
  0
ENDBLK
  5
D0CB
  8
0
  0
BLOCK
  8
0
  2
40AF
 70
     0
 10
0.0
 20
0.0
 30
0.0
  3
40AF
  1

  0
LINE
  5
D119
  8
HOJO
 10
-5.0
 20
15.5
 30
0.0
 11
-5.0
 21
-15.5
 31
0.0
  0
LINE
  5
D11A
  8
SJC2
 10
-1.5
 20
20.549962908258749
 30
0.0
 11
-1.5
 21
-20.54996290825693
 31
0.0
  0
LINE
  5
D11B
  8
SJC2
 10
0.0
 20
20.549962908258749
 30
0.0
 11
0.0
 21
-20.54996290825693
 31
0.0
  0
LINE
  5
D11C
  8
SJC2
 10
-9.0
 20
16.21908141638778
 30
0.0
 11
-9.0
 21
-16.219081416385961
 31
0.0
  0
LINE
  5
D11D
  8
SJC2
 10
-9.0
 20
16.21908141638778
 30
0.0
 11
-9.0
 21
-16.219081416385961
 31
0.0
  0
LINE
  5
D11E
  8
CENTER
 10
-13.681775853001451
 20
0.0
 30
0.0
 11
5.294192529989231
 21
0.0
 31
0.0
  0
ARC
  5
D11F
  8
SJC2
 10
-7.0
 20
-16.219081416385961
 30
0.0
 40
2.0
 50
180.0
 51
245.27581587377131
  0
LINE
  5
D120
  8
SJC2
 10
-3.1392027061228869
 20
-20.19866329171418
 30
0.0
 11
-7.836501022342417
 21
-18.035744852364591
 31
0.0
  0
LINE
  5
D121
  8
SJC2
 10
-1.5
 20
-20.54996290825693
 30
0.0
 11
0.0
 21
-20.54996290825693
 31
0.0
  0
ARC
  5
D122
  8
SJC2
 10
-1.5
 20
-16.54996290825693
 30
0.0
 40
4.0
 50
244.74394597661339
 51
270.0
  0
LINE
  5
D123
  8
HOJO
 10
-1.5
 20
-16.0
 30
0.0
 11
-1.5
 21
-5.5
 31
0.0
  0
LINE
  5
D124
  8
HOJO
 10
-5.0
 20
-15.5
 30
0.0
 11
-5.0
 21
-5.5
 31
0.0
  0
LINE
  5
D125
  8
HOJO
 10
-9.0
 20
-16.0
 30
0.0
 11
-5.5
 21
-16.0
 31
0.0
  0
LINE
  5
D126
  8
HOJO
 10
-1.5
 20
-16.0
 30
0.0
 11
0.0
 21
-16.0
 31
0.0
  0
ARC
  5
D127
  8
HOJO
 10
-5.5
 20
-15.5
 30
0.0
 40
0.5
 50
270.0
 51
0.0
  0
LINE
  5
D128
  8
HOJO
 10
-5.0
 20
-5.5
 30
0.0
 11
-1.5
 21
-5.5
 31
0.0
  0
LINE
  5
D129
  8
HOJO
 10
-1.5
 20
5.5
 30
0.0
 11
-1.5
 21
16.0
 31
0.0
  0
LINE
  5
D12A
  8
HOJO
 10
-5.0
 20
5.5
 30
0.0
 11
-5.0
 21
15.5
 31
0.0
  0
LINE
  5
D12B
  8
HOJO
 10
-5.0
 20
5.5
 30
0.0
 11
-1.5
 21
5.5
 31
0.0
  0
LINE
  5
D12C
  8
HOJO
 10
-9.0
 20
16.0
 30
0.0
 11
-5.5
 21
16.0
 31
0.0
  0
LINE
  5
D12D
  8
SJC2
 10
-3.1392027061228869
 20
20.19866329171418
 30
0.0
 11
-7.836501022342417
 21
18.035744852366399
 31
0.0
  0
ARC
  5
D12E
  8
SJC2
 10
-7.0
 20
16.21908141638778
 30
0.0
 40
2.0
 50
114.72418412622871
 51
180.0
  0
LINE
  5
D12F
  8
HOJO
 10
-1.5
 20
16.0
 30
0.0
 11
0.0
 21
16.0
 31
0.0
  0
ARC
  5
D130
  8
HOJO
 10
-5.5
 20
15.5
 30
0.0
 40
0.5
 50
0.0
 51
90.0
  0
LINE
  5
D131
  8
SJC2
 10
-1.5
 20
20.549962908258749
 30
0.0
 11
0.0
 21
20.549962908258749
 31
0.0
  0
ARC
  5
D132
  8
SJC2
 10
-1.5
 20
16.549962908258749
 30
0.0
 40
4.0
 50
90.0
 51
115.2560540233866
  0
ENDBLK
  5
D133
  8
0
  0
BLOCK
  8
0
  2
N40テスリ受側
 70
     0
 10
0.0
 20
0.0
 30
0.0
  3
N40テスリ受側
  1

  0
ARC
  5
D136
  8
SJC2
 10
-66.000000000416549
 20
90.010606743446274
 30
0.0
 40
21.0
 50
40.131217015612783
 51
79.129189534687455
  0
LINE
  5
D137
  8
CENTER
 10
-34.621505737721243
 20
90.010606743446274
 30
0.0
 11
-97.378479004322799
 21
90.010606743446274
 31
0.0
  0
ARC
  5
D138
  8
SJC2
 10
-66.000000000416549
 20
90.010606743446274
 30
0.0
 40
25.25
 50
0.0
 51
180.00000500893739
  0
ARC
  5
D139
  8
SJC2
 10
-66.000000000416549
 20
90.010606743446274
 30
0.0
 40
21.990116119384769
 50
0.0
 51
225.72834006820369
  0
LINE
  5
D13A
  8
CENTER
 10
-66.000000000416549
 20
120.1930656763725
 30
0.0
 11
-66.000000000416549
 21
40.015023501531687
 31
0.0
  0
ARC
  5
D13B
  8
SJC2
 10
-66.000000000416549
 20
90.010606743446274
 30
0.0
 40
21.0
 50
79.129189534687455
 51
223.3417616667744
  0
LINE
  5
D13C
  8
SJC2
 10
-81.350448608814986
 20
74.26484487210837
 30
0.0
 11
-81.350448608814986
 21
64.018827416053682
 31
0.0
  0
LINE
  5
D13D
  8
SJC2
 10
-81.000000000416549
 20
64.150606133094698
 30
0.0
 11
-81.000000000416549
 21
74.91093633329001
 31
0.0
  0
ARC
  5
D13E
  8
SJC2
 10
-51.260910034596243
 20
90.374471642127915
 30
0.0
 40
40.0
 50
183.4363041436176
 51
221.21535085810569
  0
ARC
  5
D13F
  8
SJC2
 10
-51.260910034596243
 20
90.374471642127915
 30
0.0
 40
36.740119934082031
 50
183.4363041436176
 51
215.0168858844649
  0
ARC
  5
D140
  8
SJC2
 10
-81.199996948658736
 20
64.150606133094698
 30
0.0
 40
0.2000000029802406
 50
221.21535085810569
 51
0.0
  0
ARC
  5
D141
  8
SJC2
 10
-84.339233398854049
 20
83.383195854774385
 30
0.0
 40
1.50000000000001
 50
199.86878306020029
 51
272.4625678854195
  0
ARC
  5
D142
  8
SJC2
 10
-84.339233398854049
 20
96.638013817420884
 30
0.0
 40
1.4999999999999889
 50
87.537495749049043
 51
160.13121693979971
  0
ARC
  5
D143
  8
SJC2
 10
-57.320602417408743
 20
90.010606743446274
 30
0.0
 40
33.929389953613281
 50
180.00000500893739
 51
183.43630050113001
  0
ARC
  5
D144
  8
SJC2
 10
-80.909118652760299
 20
77.442068077674776
 30
0.0
 40
1.499999999999996
 50
147.5375220873625
 51
220.13121860949261
  0
ARC
  5
D145
  8
SJC2
 10
-82.000000000416534
 20
74.91093633329001
 30
0.0
 40
1.0
 50
0.0
 51
43.341757680307502
  0
ARC
  5
D146
  8
SJC2
 10
-80.909118652760299
 20
102.57914159452049
 30
0.0
 40
1.50000000000001
 50
139.86877774809139
 51
212.46238579396149
  0
ARC
  5
D147
  8
SJC2
 10
-62.416687012135299
 20
108.6696491018447
 30
0.0
 40
1.999999999999996
 50
79.129189534687455
 51
141.70809350165089
  0
ARC
  5
D148
  8
SJC2
 10
-69.583297729908736
 20
108.6696491018447
 30
0.0
 40
1.9999999999999889
 50
38.291958688433631
 51
100.8708086441066
  0
LINE
  5
D149
  8
SJC2
 10
-51.000000000416549
 20
71.01060674344626
 30
0.0
 11
-51.000000000416549
 21
74.91093633329001
 31
0.0
  0
LINE
  5
D14A
  8
SJC2
 10
-51.000000000416549
 20
74.358129479041963
 30
0.0
 11
-51.000000000416549
 21
54.680835701576143
 31
0.0
  0
ARC
  5
D14B
  8
SJC2
 10
-206.0128479008072
 20
96.39771840726462
 30
0.0
 40
162.1263427734375
 50
345.30725222728569
 51
357.01241442563838
  0
LINE
  5
D14C
  8
SJC2
 10
-49.188049316822799
 20
75.835851647010713
 30
0.0
 11
-49.188049316822799
 21
43.875458695045367
 31
0.0
  0
ARC
  5
D14D
  8
SJC2
 10
-206.0128479008072
 20
96.39771840726462
 30
0.0
 40
165.38621520996091
 50
341.48376355635338
 51
357.78672202256138
  0
LINE
  5
D14E
  8
SJC2
 10
-51.000000000416549
 20
42.510605312934779
 30
0.0
 11
-51.000000000416549
 21
66.010604836097627
 31
0.0
  0
ARC
  5
D14F
  8
SJC2
 10
-51.084518433033743
 20
44.510605789771937
 30
0.0
 40
1.9999999999999989
 50
272.4220713676396
 51
341.48376355635338
  0
ARC
  5
D150
  8
SJC2
 10
-66.000000000416549
 20
90.010606743446274
 30
0.0
 40
20.999999999999989
 50
316.65824231969248
 51
40.131217015612783
  0
ARC
  5
D151
  8
SJC2
 10
-66.000000000416549
 20
90.010606743446274
 30
0.0
 40
21.990116119384769
 50
319.86456534256331
 51
0.0
  0
ARC
  5
D152
  8
SJC2
 10
-51.090881348072791
 20
77.442068077674776
 30
0.0
 40
1.5000000000000031
 50
319.86878298438722
 51
32.462477912637461
  0
ARC
  5
D153
  8
SJC2
 10
-50.000000000416549
 20
74.91093633329001
 30
0.0
 40
1.0000000000000091
 50
136.65824732869879
 51
180.00000500893739
  0
ARC
  5
D154
  8
SJC2
 10
-47.660766601979049
 20
83.383195854774385
 30
0.0
 40
1.500000000000006
 50
267.53743211458061
 51
340.13121705349698
  0
ARC
  5
D155
  8
SJC2
 10
-51.090881348072791
 20
102.57914159452049
 30
0.0
 40
1.500000000000004
 50
327.53761420603848
 51
40.131217015612783
  0
ARC
  5
D156
  8
SJC2
 10
-47.660766601979049
 20
96.638013817420884
 30
0.0
 40
1.499999999999996
 50
19.868782946502971
 51
92.462504250950957
  0
ARC
  5
D157
  8
SJC2
 10
15.9016579551826
 20
66.67950790669147
 30
0.0
 40
100.119623116016
 50
194.56595087199659
 51
212.63403699031451
  0
ARC
  5
D158
  8
SJC2
 10
-20.869203174470378
 20
59.620638132472777
 30
0.0
 40
60.0
 50
189.7644626118053
 51
263.55358984600082
  0
ARC
  5
D159
  8
SJC2
 10
-66.000000000034561
 20
90.000000000005457
 30
0.0
 40
19.999999999999879
 50
224.98295782781301
 51
315.01704217218702
1001
ACAD
1000
ASC_BOUNDS
1002
{
1070
    19
1002
}
  0
LINE
  5
D15A
  8
CENTER
 10
-84.36824442447687
 20
52.50000000000454
 30
0.0
 11
-42.152454622308127
 21
52.50000000000454
 31
0.0
  0
LINE
  5
D15B
  8
SJC2
 10
-81.000000000034561
 20
41.628126944729956
 30
0.0
 11
-81.000000000034561
 21
75.125089049730377
 31
0.0
1001
ACAD
1000
ASC_BOUNDS
1002
{
1070
    19
1002
}
  0
LINE
  5
D15C
  8
SJC2
 10
-80.999999999998181
 20
44.810485335119658
 30
0.0
 11
-80.999999999998181
 21
75.508623253810583
 31
0.0
  0
LINE
  5
D15D
  8
SJC2
 10
-81.000000000034561
 20
42.501786745138823
 30
0.0
 11
-81.000000000034561
 21
41.50000000000545
 31
0.0
  0
LINE
  5
D15E
  8
SJC2
 10
-81.000000000034561
 20
65.000000000001819
 30
0.0
 11
-81.000000000034561
 21
75.50862325381604
 31
0.0
1001
ACAD
1000
ASC_BOUNDS
1002
{
1070
    19
1005
0
1002
}
  0
POLYLINE
  5
D15F
  8
SJC2
 66
     1
 10
0.0
 20
0.0
 30
0.0
 70
     8
  0
VERTEX
  5
D160
  8
SJC2
 10
-81.000000000034561
 20
65.014560546069333
 30
0.0
 70
    32
1001
ACAD
1000
R13OBJECT
1002
{
1005
0
1002
}
  0
VERTEX
  5
D161
  8
SJC2
 10
-81.000003935407236
 20
65.007280272193384
 30
0.0
 70
    32
1001
ACAD
1000
R13OBJECT
1002
{
1005
0
1002
}
  0
VERTEX
  5
D162
  8
SJC2
 10
-81.000000000034561
 20
65.000000000003638
 30
0.0
 70
    32
1001
ACAD
1000
R13OBJECT
1002
{
1005
0
1002
}
  0
SEQEND
  5
D163
  8
SJC2
  0
ARC
  5
D164
  8
SJC2
 10
-80.500000000034547
 20
75.50862325381604
 30
0.0
 40
0.5
 50
44.982957827813017
 51
180.0
1001
ACAD
1000
ASC_BOUNDS
1002
{
1070
    19
1005
0
1002
}
  0
LINE
  5
D165
  8
HOJO
 10
-0.999999999998181
 20
15.500000000005461
 30
0.0
 11
-3.999999999996362
 21
15.500000000005461
 31
0.0
  0
LINE
  5
D166
  8
SJC2
 10
-3.999999999996362
 20
15.500000000005461
 30
0.0
 11
-30.039003008154399
 21
15.500000000005461
 31
0.0
  0
LINE
  5
D167
  8
SJC2
 10
-28.000000000034561
 20
-15.49999999999272
 30
0.0
 11
-3.999999999998181
 21
-15.49999999999272
 31
0.0
  0
LINE
  5
D168
  8
HOJO
 10
-3.999999999998181
 20
-15.49999999999272
 30
0.0
 11
-0.999999999998181
 21
-15.49999999999272
 31
0.0
  0
POLYLINE
  8
SJC2
  5
FCCF
  66
     1
 10
0.000000
 20
0.000000
 30
0.000000
  70
     8
  0
VERTEX
  8
SJC2
  5
FCD0
 10
-46.5000
 20
-12.0599
 30
0.000000
  70
    32
  0
VERTEX
  8
SJC2
  5
FCD1
 10
-46.5016
 20
-11.9237
 30
0.000000
  70
    32
  0
VERTEX
  8
SJC2
  5
FCD2
 10
-46.5033
 20
-11.7874
 30
0.000000
  70
    32
  0
VERTEX
  8
SJC2
  5
FCD3
 10
-46.5050
 20
-11.6511
 30
0.000000
  70
    32
  0
VERTEX
  8
SJC2
  5
FCD4
 10
-46.5068
 20
-11.5149
 30
0.000000
  70
    32
  0
VERTEX
  8
SJC2
  5
FCD5
 10
-46.5087
 20
-11.3786
 30
0.000000
  70
    32
  0
VERTEX
  8
SJC2
  5
FCD6
 10
-46.5107
 20
-11.2424
 30
0.000000
  70
    32
  0
VERTEX
  8
SJC2
  5
FCD7
 10
-46.5128
 20
-11.1061
 30
0.000000
  70
    32
  0
VERTEX
  8
SJC2
  5
FCD8
 10
-46.5150
 20
-10.9699
 30
0.000000
  70
    32
  0
VERTEX
  8
SJC2
  5
FCD9
 10
-46.5175
 20
-10.8337
 30
0.000000
  70
    32
  0
VERTEX
  8
SJC2
  5
FCDA
 10
-46.5201
 20
-10.6974
 30
0.000000
  70
    32
  0
VERTEX
  8
SJC2
  5
FCDB
 10
-46.5230
 20
-10.5612
 30
0.000000
  70
    32
  0
VERTEX
  8
SJC2
  5
FCDC
 10
-46.5261
 20
-10.4250
 30
0.000000
  70
    32
  0
VERTEX
  8
SJC2
  5
FCDD
 10
-46.5295
 20
-10.2888
 30
0.000000
  70
    32
  0
VERTEX
  8
SJC2
  5
FCDE
 10
-46.5332
 20
-10.1526
 30
0.000000
  70
    32
  0
VERTEX
  8
SJC2
  5
FCDF
 10
-46.5372
 20
-10.0164
 30
0.000000
  70
    32
  0
VERTEX
  8
SJC2
  5
FCE0
 10
-46.5416
 20
-9.88020
 30
0.000000
  70
    32
  0
VERTEX
  8
SJC2
  5
FCE1
 10
-46.5463
 20
-9.74403
 30
0.000000
  70
    32
  0
VERTEX
  8
SJC2
  5
FCE2
 10
-46.5513
 20
-9.60786
 30
0.000000
  70
    32
  0
VERTEX
  8
SJC2
  5
FCE3
 10
-46.5568
 20
-9.47170
 30
0.000000
  70
    32
  0
VERTEX
  8
SJC2
  5
FCE4
 10
-46.5627
 20
-9.33556
 30
0.000000
  70
    32
  0
VERTEX
  8
SJC2
  5
FCE5
 10
-46.5691
 20
-9.19942
 30
0.000000
  70
    32
  0
VERTEX
  8
SJC2
  5
FCE6
 10
-46.5759
 20
-9.06330
 30
0.000000
  70
    32
  0
VERTEX
  8
SJC2
  5
FCE7
 10
-46.5832
 20
-8.92719
 30
0.000000
  70
    32
  0
VERTEX
  8
SJC2
  5
FCE8
 10
-46.5911
 20
-8.79110
 30
0.000000
  70
    32
  0
VERTEX
  8
SJC2
  5
FCE9
 10
-46.5994
 20
-8.65501
 30
0.000000
  70
    32
  0
VERTEX
  8
SJC2
  5
FCEA
 10
-46.6084
 20
-8.51895
 30
0.000000
  70
    32
  0
VERTEX
  8
SJC2
  5
FCEB
 10
-46.6179
 20
-8.38290
 30
0.000000
  70
    32
  0
VERTEX
  8
SJC2
  5
FCEC
 10
-46.6280
 20
-8.24686
 30
0.000000
  70
    32
  0
VERTEX
  8
SJC2
  5
FCED
 10
-46.6388
 20
-8.11084
 30
0.000000
  70
    32
  0
VERTEX
  8
SJC2
  5
FCEE
 10
-46.6502
 20
-7.97484
 30
0.000000
  70
    32
  0
VERTEX
  8
SJC2
  5
FCEF
 10
-46.6622
 20
-7.83885
 30
0.000000
  70
    32
  0
VERTEX
  8
SJC2
  5
FCF0
 10
-46.6750
 20
-7.70288
 30
0.000000
  70
    32
  0
VERTEX
  8
SJC2
  5
FCF1
 10
-46.6885
 20
-7.56693
 30
0.000000
  70
    32
  0
VERTEX
  8
SJC2
  5
FCF2
 10
-46.7027
 20
-7.43101
 30
0.000000
  70
    32
  0
VERTEX
  8
SJC2
  5
FCF3
 10
-46.7177
 20
-7.29511
 30
0.000000
  70
    32
  0
VERTEX
  8
SJC2
  5
FCF4
 10
-46.7335
 20
-7.15926
 30
0.000000
  70
    32
  0
VERTEX
  8
SJC2
  5
FCF5
 10
-46.7501
 20
-7.02348
 30
0.000000
  70
    32
  0
VERTEX
  8
SJC2
  5
FCF6
 10
-46.7676
 20
-6.88778
 30
0.000000
  70
    32
  0
VERTEX
  8
SJC2
  5
FCF7
 10
-46.7859
 20
-6.75218
 30
0.000000
  70
    32
  0
VERTEX
  8
SJC2
  5
FCF8
 10
-46.8051
 20
-6.61670
 30
0.000000
  70
    32
  0
VERTEX
  8
SJC2
  5
FCF9
 10
-46.8253
 20
-6.48135
 30
0.000000
  70
    32
  0
VERTEX
  8
SJC2
  5
FCFA
 10
-46.8464
 20
-6.34615
 30
0.000000
  70
    32
  0
VERTEX
  8
SJC2
  5
FCFB
 10
-46.8685
 20
-6.21112
 30
0.000000
  70
    32
  0
VERTEX
  8
SJC2
  5
FCFC
 10
-46.8915
 20
-6.07627
 30
0.000000
  70
    32
  0
VERTEX
  8
SJC2
  5
FCFD
 10
-46.9157
 20
-5.94162
 30
0.000000
  70
    32
  0
VERTEX
  8
SJC2
  5
FCFE
 10
-46.9408
 20
-5.80718
 30
0.000000
  70
    32
  0
VERTEX
  8
SJC2
  5
FCFF
 10
-46.9671
 20
-5.67298
 30
0.000000
  70
    32
  0
VERTEX
  8
SJC2
  5
FD00
 10
-46.9945
 20
-5.53903
 30
0.000000
  70
    32
  0
VERTEX
  8
SJC2
  5
FD01
 10
-47.0230
 20
-5.40535
 30
0.000000
  70
    32
  0
VERTEX
  8
SJC2
  5
FD02
 10
-47.0527
 20
-5.27195
 30
0.000000
  70
    32
  0
VERTEX
  8
SJC2
  5
FD03
 10
-47.0835
 20
-5.13885
 30
0.000000
  70
    32
  0
VERTEX
  8
SJC2
  5
FD04
 10
-47.1156
 20
-5.00607
 30
0.000000
  70
    32
  0
VERTEX
  8
SJC2
  5
FD05
 10
-47.1490
 20
-4.87363
 30
0.000000
  70
    32
  0
VERTEX
  8
SJC2
  5
FD06
 10
-47.1836
 20
-4.74153
 30
0.000000
  70
    32
  0
VERTEX
  8
SJC2
  5
FD07
 10
-47.2195
 20
-4.60980
 30
0.000000
  70
    32
  0
VERTEX
  8
SJC2
  5
FD08
 10
-47.2567
 20
-4.47846
 30
0.000000
  70
    32
  0
VERTEX
  8
SJC2
  5
FD09
 10
-47.2953
 20
-4.34752
 30
0.000000
  70
    32
  0
VERTEX
  8
SJC2
  5
FD0A
 10
-47.3353
 20
-4.21700
 30
0.000000
  70
    32
  0
VERTEX
  8
SJC2
  5
FD0B
 10
-47.3766
 20
-4.08691
 30
0.000000
  70
    32
  0
VERTEX
  8
SJC2
  5
FD0C
 10
-47.4194
 20
-3.95727
 30
0.000000
  70
    32
  0
VERTEX
  8
SJC2
  5
FD0D
 10
-47.4637
 20
-3.82810
 30
0.000000
  70
    32
  0
VERTEX
  8
SJC2
  5
FD0E
 10
-47.5094
 20
-3.69942
 30
0.000000
  70
    32
  0
VERTEX
  8
SJC2
  5
FD0F
 10
-47.5567
 20
-3.57124
 30
0.000000
  70
    32
  0
VERTEX
  8
SJC2
  5
FD10
 10
-47.6055
 20
-3.44357
 30
0.000000
  70
    32
  0
VERTEX
  8
SJC2
  5
FD11
 10
-47.6558
 20
-3.31645
 30
0.000000
  70
    32
  0
VERTEX
  8
SJC2
  5
FD12
 10
-47.7077
 20
-3.18992
 30
0.000000
  70
    32
  0
VERTEX
  8
SJC2
  5
FD13
 10
-47.7612
 20
-3.06403
 30
0.000000
  70
    32
  0
VERTEX
  8
SJC2
  5
FD14
 10
-47.8163
 20
-2.93881
 30
0.000000
  70
    32
  0
VERTEX
  8
SJC2
  5
FD15
 10
-47.8729
 20
-2.81433
 30
0.000000
  70
    32
  0
VERTEX
  8
SJC2
  5
FD16
 10
-47.9311
 20
-2.69062
 30
0.000000
  70
    32
  0
VERTEX
  8
SJC2
  5
FD17
 10
-47.9908
 20
-2.56774
 30
0.000000
  70
    32
  0
VERTEX
  8
SJC2
  5
FD18
 10
-48.0521
 20
-2.44573
 30
0.000000
  70
    32
  0
VERTEX
  8
SJC2
  5
FD19
 10
-48.1150
 20
-2.32464
 30
0.000000
  70
    32
  0
VERTEX
  8
SJC2
  5
FD1A
 10
-48.1795
 20
-2.20451
 30
0.000000
  70
    32
  0
VERTEX
  8
SJC2
  5
FD1B
 10
-48.2456
 20
-2.08540
 30
0.000000
  70
    32
  0
VERTEX
  8
SJC2
  5
FD1C
 10
-48.3132
 20
-1.96735
 30
0.000000
  70
    32
  0
VERTEX
  8
SJC2
  5
FD1D
 10
-48.3824
 20
-1.85041
 30
0.000000
  70
    32
  0
VERTEX
  8
SJC2
  5
FD1E
 10
-48.4532
 20
-1.73462
 30
0.000000
  70
    32
  0
VERTEX
  8
SJC2
  5
FD1F
 10
-48.5256
 20
-1.62002
 30
0.000000
  70
    32
  0
VERTEX
  8
SJC2
  5
FD20
 10
-48.5995
 20
-1.50660
 30
0.000000
  70
    32
  0
VERTEX
  8
SJC2
  5
FD21
 10
-48.6750
 20
-1.39433
 30
0.000000
  70
    32
  0
VERTEX
  8
SJC2
  5
FD22
 10
-48.7520
 20
-1.28319
 30
0.000000
  70
    32
  0
VERTEX
  8
SJC2
  5
FD23
 10
-48.8304
 20
-1.17317
 30
0.000000
  70
    32
  0
VERTEX
  8
SJC2
  5
FD24
 10
-48.9102
 20
-1.06425
 30
0.000000
  70
    32
  0
VERTEX
  8
SJC2
  5
FD25
 10
-48.9915
 20
-0.956402
 30
0.000000
  70
    32
  0
VERTEX
  8
SJC2
  5
FD26
 10
-49.0741
 20
-0.849613
 30
0.000000
  70
    32
  0
VERTEX
  8
SJC2
  5
FD27
 10
-49.1581
 20
-0.743862
 30
0.000000
  70
    32
  0
VERTEX
  8
SJC2
  5
FD28
 10
-49.2434
 20
-0.639129
 30
0.000000
  70
    32
  0
VERTEX
  8
SJC2
  5
FD29
 10
-49.3300
 20
-0.535394
 30
0.000000
  70
    32
  0
VERTEX
  8
SJC2
  5
FD2A
 10
-49.4179
 20
-0.432639
 30
0.000000
  70
    32
  0
VERTEX
  8
SJC2
  5
FD2B
 10
-49.5069
 20
-0.330843
 30
0.000000
  70
    32
  0
VERTEX
  8
SJC2
  5
FD2C
 10
-49.5972
 20
-0.229988
 30
0.000000
  70
    32
  0
VERTEX
  8
SJC2
  5
FD2D
 10
-49.6887
 20
-0.130052
 30
0.000000
  70
    32
  0
VERTEX
  8
SJC2
  5
FD2E
 10
-49.7813
 20
-0.0310180
 30
0.000000
  70
    32
  0
VERTEX
  8
SJC2
  5
FD2F
 10
-49.8750
 20
0.0671350
 30
0.000000
  70
    32
  0
VERTEX
  8
SJC2
  5
FD30
 10
-49.9698
 20
0.164426
 30
0.000000
  70
    32
  0
VERTEX
  8
SJC2
  5
FD31
 10
-50.0657
 20
0.260875
 30
0.000000
  70
    32
  0
VERTEX
  8
SJC2
  5
FD32
 10
-50.1626
 20
0.356501
 30
0.000000
  70
    32
  0
VERTEX
  8
SJC2
  5
FD33
 10
-50.2605
 20
0.451324
 30
0.000000
  70
    32
  0
VERTEX
  8
SJC2
  5
FD34
 10
-50.3594
 20
0.545363
 30
0.000000
  70
    32
  0
VERTEX
  8
SJC2
  5
FD35
 10
-50.4592
 20
0.638638
 30
0.000000
  70
    32
  0
VERTEX
  8
SJC2
  5
FD36
 10
-50.5599
 20
0.731168
 30
0.000000
  70
    32
  0
VERTEX
  8
SJC2
  5
FD37
 10
-50.6615
 20
0.822974
 30
0.000000
  70
    32
  0
VERTEX
  8
SJC2
  5
FD38
 10
-50.7639
 20
0.914073
 30
0.000000
  70
    32
  0
VERTEX
  8
SJC2
  5
FD39
 10
-50.8672
 20
1.00449
 30
0.000000
  70
    32
  0
VERTEX
  8
SJC2
  5
FD3A
 10
-50.9713
 20
1.09423
 30
0.000000
  70
    32
  0
VERTEX
  8
SJC2
  5
FD3B
 10
-51.0761
 20
1.18334
 30
0.000000
  70
    32
  0
VERTEX
  8
SJC2
  5
FD3C
 10
-51.1816
 20
1.27181
 30
0.000000
  70
    32
  0
VERTEX
  8
SJC2
  5
FD3D
 10
-51.2879
 20
1.35967
 30
0.000000
  70
    32
  0
VERTEX
  8
SJC2
  5
FD3E
 10
-51.3949
 20
1.44695
 30
0.000000
  70
    32
  0
VERTEX
  8
SJC2
  5
FD3F
 10
-51.5025
 20
1.53366
 30
0.000000
  70
    32
  0
VERTEX
  8
SJC2
  5
FD40
 10
-51.6107
 20
1.61982
 30
0.000000
  70
    32
  0
VERTEX
  8
SJC2
  5
FD41
 10
-51.7195
 20
1.70545
 30
0.000000
  70
    32
  0
VERTEX
  8
SJC2
  5
FD42
 10
-51.8289
 20
1.79057
 30
0.000000
  70
    32
  0
VERTEX
  8
SJC2
  5
FD43
 10
-51.9388
 20
1.87520
 30
0.000000
  70
    32
  0
VERTEX
  8
SJC2
  5
FD44
 10
-52.0492
 20
1.95936
 30
0.000000
  70
    32
  0
VERTEX
  8
SJC2
  5
FD45
 10
-52.1601
 20
2.04306
 30
0.000000
  70
    32
  0
VERTEX
  8
SJC2
  5
FD46
 10
-52.2714
 20
2.12634
 30
0.000000
  70
    32
  0
VERTEX
  8
SJC2
  5
FD47
 10
-52.3831
 20
2.20920
 30
0.000000
  70
    32
  0
VERTEX
  8
SJC2
  5
FD48
 10
-52.4952
 20
2.29167
 30
0.000000
  70
    32
  0
VERTEX
  8
SJC2
  5
FD49
 10
-52.6077
 20
2.37377
 30
0.000000
  70
    32
  0
VERTEX
  8
SJC2
  5
FD4A
 10
-52.7205
 20
2.45551
 30
0.000000
  70
    32
  0
VERTEX
  8
SJC2
  5
FD4B
 10
-52.8336
 20
2.53692
 30
0.000000
  70
    32
  0
VERTEX
  8
SJC2
  5
FD4C
 10
-52.9470
 20
2.61801
 30
0.000000
  70
    32
  0
VERTEX
  8
SJC2
  5
FD4D
 10
-53.0606
 20
2.69881
 30
0.000000
  70
    32
  0
VERTEX
  8
SJC2
  5
FD4E
 10
-53.1744
 20
2.77933
 30
0.000000
  70
    32
  0
VERTEX
  8
SJC2
  5
FD4F
 10
-53.2885
 20
2.85960
 30
0.000000
  70
    32
  0
VERTEX
  8
SJC2
  5
FD50
 10
-53.4026
 20
2.93963
 30
0.000000
  70
    32
  0
VERTEX
  8
SJC2
  5
FD51
 10
-53.5169
 20
3.01944
 30
0.000000
  70
    32
  0
VERTEX
  8
SJC2
  5
FD52
 10
-53.6313
 20
3.09906
 30
0.000000
  70
    32
  0
VERTEX
  8
SJC2
  5
FD53
 10
-53.7457
 20
3.17850
 30
0.000000
  70
    32
  0
VERTEX
  8
SJC2
  5
FD54
 10
-53.8602
 20
3.25778
 30
0.000000
  70
    32
  0
VERTEX
  8
SJC2
  5
FD55
 10
-53.9747
 20
3.33692
 30
0.000000
  70
    32
  0
VERTEX
  8
SJC2
  5
FD56
 10
-54.0892
 20
3.41592
 30
0.000000
  70
    32
  0
VERTEX
  8
SJC2
  5
FD57
 10
-54.2037
 20
3.49479
 30
0.000000
  70
    32
  0
VERTEX
  8
SJC2
  5
FD58
 10
-54.3182
 20
3.57352
 30
0.000000
  70
    32
  0
VERTEX
  8
SJC2
  5
FD59
 10
-54.4327
 20
3.65211
 30
0.000000
  70
    32
  0
VERTEX
  8
SJC2
  5
FD5A
 10
-54.5472
 20
3.73058
 30
0.000000
  70
    32
  0
VERTEX
  8
SJC2
  5
FD5B
 10
-54.6618
 20
3.80891
 30
0.000000
  70
    32
  0
VERTEX
  8
SJC2
  5
FD5C
 10
-54.7763
 20
3.88712
 30
0.000000
  70
    32
  0
VERTEX
  8
SJC2
  5
FD5D
 10
-54.8908
 20
3.96519
 30
0.000000
  70
    32
  0
VERTEX
  8
SJC2
  5
FD5E
 10
-55.0054
 20
4.04314
 30
0.000000
  70
    32
  0
VERTEX
  8
SJC2
  5
FD5F
 10
-55.1199
 20
4.12096
 30
0.000000
  70
    32
  0
VERTEX
  8
SJC2
  5
FD60
 10
-55.2345
 20
4.19865
 30
0.000000
  70
    32
  0
VERTEX
  8
SJC2
  5
FD61
 10
-55.3490
 20
4.27622
 30
0.000000
  70
    32
  0
VERTEX
  8
SJC2
  5
FD62
 10
-55.4636
 20
4.35367
 30
0.000000
  70
    32
  0
VERTEX
  8
SJC2
  5
FD63
 10
-55.5781
 20
4.43099
 30
0.000000
  70
    32
  0
VERTEX
  8
SJC2
  5
FD64
 10
-55.6927
 20
4.50819
 30
0.000000
  70
    32
  0
VERTEX
  8
SJC2
  5
FD65
 10
-55.8073
 20
4.58528
 30
0.000000
  70
    32
  0
VERTEX
  8
SJC2
  5
FD66
 10
-55.9219
 20
4.66224
 30
0.000000
  70
    32
  0
VERTEX
  8
SJC2
  5
FD67
 10
-56.0365
 20
4.73909
 30
0.000000
  70
    32
  0
VERTEX
  8
SJC2
  5
FD68
 10
-56.1510
 20
4.81581
 30
0.000000
  70
    32
  0
VERTEX
  8
SJC2
  5
FD69
 10
-56.2656
 20
4.89243
 30
0.000000
  70
    32
  0
VERTEX
  8
SJC2
  5
FD6A
 10
-56.3802
 20
4.96893
 30
0.000000
  70
    32
  0
VERTEX
  8
SJC2
  5
FD6B
 10
-56.4948
 20
5.04531
 30
0.000000
  70
    32
  0
VERTEX
  8
SJC2
  5
FD6C
 10
-56.6095
 20
5.12159
 30
0.000000
  70
    32
  0
VERTEX
  8
SJC2
  5
FD6D
 10
-56.7241
 20
5.19775
 30
0.000000
  70
    32
  0
VERTEX
  8
SJC2
  5
FD6E
 10
-56.8387
 20
5.27380
 30
0.000000
  70
    32
  0
VERTEX
  8
SJC2
  5
FD6F
 10
-56.9533
 20
5.34974
 30
0.000000
  70
    32
  0
VERTEX
  8
SJC2
  5
FD70
 10
-57.0679
 20
5.42558
 30
0.000000
  70
    32
  0
VERTEX
  8
SJC2
  5
FD71
 10
-57.1826
 20
5.50131
 30
0.000000
  70
    32
  0
VERTEX
  8
SJC2
  5
FD72
 10
-57.2972
 20
5.57693
 30
0.000000
  70
    32
  0
VERTEX
  8
SJC2
  5
FD73
 10
-57.4118
 20
5.65245
 30
0.000000
  70
    32
  0
VERTEX
  8
SJC2
  5
FD74
 10
-57.5265
 20
5.72787
 30
0.000000
  70
    32
  0
VERTEX
  8
SJC2
  5
FD75
 10
-57.6411
 20
5.80318
 30
0.000000
  70
    32
  0
VERTEX
  8
SJC2
  5
FD76
 10
-57.7558
 20
5.87839
 30
0.000000
  70
    32
  0
VERTEX
  8
SJC2
  5
FD77
 10
-57.8704
 20
5.95350
 30
0.000000
  70
    32
  0
VERTEX
  8
SJC2
  5
FD78
 10
-57.9851
 20
6.02852
 30
0.000000
  70
    32
  0
VERTEX
  8
SJC2
  5
FD79
 10
-58.0998
 20
6.10343
 30
0.000000
  70
    32
  0
VERTEX
  8
SJC2
  5
FD7A
 10
-58.2144
 20
6.17825
 30
0.000000
  70
    32
  0
VERTEX
  8
SJC2
  5
FD7B
 10
-58.3291
 20
6.25298
 30
0.000000
  70
    32
  0
VERTEX
  8
SJC2
  5
FD7C
 10
-58.4438
 20
6.32761
 30
0.000000
  70
    32
  0
VERTEX
  8
SJC2
  5
FD7D
 10
-58.5585
 20
6.40215
 30
0.000000
  70
    32
  0
VERTEX
  8
SJC2
  5
FD7E
 10
-58.6732
 20
6.47659
 30
0.000000
  70
    32
  0
VERTEX
  8
SJC2
  5
FD7F
 10
-58.7878
 20
6.55094
 30
0.000000
  70
    32
  0
VERTEX
  8
SJC2
  5
FD80
 10
-58.9025
 20
6.62521
 30
0.000000
  70
    32
  0
VERTEX
  8
SJC2
  5
FD81
 10
-59.0172
 20
6.69938
 30
0.000000
  70
    32
  0
VERTEX
  8
SJC2
  5
FD82
 10
-59.1319
 20
6.77347
 30
0.000000
  70
    32
  0
VERTEX
  8
SJC2
  5
FD83
 10
-59.2466
 20
6.84747
 30
0.000000
  70
    32
  0
VERTEX
  8
SJC2
  5
FD84
 10
-59.3613
 20
6.92139
 30
0.000000
  70
    32
  0
VERTEX
  8
SJC2
  5
FD85
 10
-59.4760
 20
6.99522
 30
0.000000
  70
    32
  0
VERTEX
  8
SJC2
  5
FD86
 10
-59.5908
 20
7.06897
 30
0.000000
  70
    32
  0
VERTEX
  8
SJC2
  5
FD87
 10
-59.7055
 20
7.14264
 30
0.000000
  70
    32
  0
VERTEX
  8
SJC2
  5
FD88
 10
-59.8202
 20
7.21622
 30
0.000000
  70
    32
  0
VERTEX
  8
SJC2
  5
FD89
 10
-59.9349
 20
7.28973
 30
0.000000
  70
    32
  0
VERTEX
  8
SJC2
  5
FD8A
 10
-60.0496
 20
7.36316
 30
0.000000
  70
    32
  0
VERTEX
  8
SJC2
  5
FD8B
 10
-60.1644
 20
7.43651
 30
0.000000
  70
    32
  0
VERTEX
  8
SJC2
  5
FD8C
 10
-60.2791
 20
7.50978
 30
0.000000
  70
    32
  0
VERTEX
  8
SJC2
  5
FD8D
 10
-60.3938
 20
7.58298
 30
0.000000
  70
    32
  0
VERTEX
  8
SJC2
  5
FD8E
 10
-60.5086
 20
7.65611
 30
0.000000
  70
    32
  0
VERTEX
  8
SJC2
  5
FD8F
 10
-60.6233
 20
7.72916
 30
0.000000
  70
    32
  0
VERTEX
  8
SJC2
  5
FD90
 10
-60.7381
 20
7.80214
 30
0.000000
  70
    32
  0
VERTEX
  8
SJC2
  5
FD91
 10
-60.8528
 20
7.87505
 30
0.000000
  70
    32
  0
VERTEX
  8
SJC2
  5
FD92
 10
-60.9676
 20
7.94789
 30
0.000000
  70
    32
  0
VERTEX
  8
SJC2
  5
FD93
 10
-61.0823
 20
8.02066
 30
0.000000
  70
    32
  0
VERTEX
  8
SJC2
  5
FD94
 10
-61.1971
 20
8.09336
 30
0.000000
  70
    32
  0
VERTEX
  8
SJC2
  5
FD95
 10
-61.3118
 20
8.16600
 30
0.000000
  70
    32
  0
VERTEX
  8
SJC2
  5
FD96
 10
-61.4266
 20
8.23857
 30
0.000000
  70
    32
  0
VERTEX
  8
SJC2
  5
FD97
 10
-61.5414
 20
8.31108
 30
0.000000
  70
    32
  0
VERTEX
  8
SJC2
  5
FD98
 10
-61.6561
 20
8.38353
 30
0.000000
  70
    32
  0
VERTEX
  8
SJC2
  5
FD99
 10
-61.7709
 20
8.45591
 30
0.000000
  70
    32
  0
VERTEX
  8
SJC2
  5
FD9A
 10
-61.8857
 20
8.52824
 30
0.000000
  70
    32
  0
VERTEX
  8
SJC2
  5
FD9B
 10
-62.0004
 20
8.60050
 30
0.000000
  70
    32
  0
VERTEX
  8
SJC2
  5
FD9C
 10
-62.1152
 20
8.67271
 30
0.000000
  70
    32
  0
VERTEX
  8
SJC2
  5
FD9D
 10
-62.2300
 20
8.74485
 30
0.000000
  70
    32
  0
VERTEX
  8
SJC2
  5
FD9E
 10
-62.3448
 20
8.81695
 30
0.000000
  70
    32
  0
VERTEX
  8
SJC2
  5
FD9F
 10
-62.4596
 20
8.88898
 30
0.000000
  70
    32
  0
VERTEX
  8
SJC2
  5
FDA0
 10
-62.5743
 20
8.96097
 30
0.000000
  70
    32
  0
VERTEX
  8
SJC2
  5
FDA1
 10
-62.6891
 20
9.03290
 30
0.000000
  70
    32
  0
VERTEX
  8
SJC2
  5
FDA2
 10
-62.8039
 20
9.10478
 30
0.000000
  70
    32
  0
VERTEX
  8
SJC2
  5
FDA3
 10
-62.9187
 20
9.17660
 30
0.000000
  70
    32
  0
VERTEX
  8
SJC2
  5
FDA4
 10
-63.0335
 20
9.24838
 30
0.000000
  70
    32
  0
VERTEX
  8
SJC2
  5
FDA5
 10
-63.1483
 20
9.32011
 30
0.000000
  70
    32
  0
VERTEX
  8
SJC2
  5
FDA6
 10
-63.2631
 20
9.39180
 30
0.000000
  70
    32
  0
VERTEX
  8
SJC2
  5
FDA7
 10
-63.3779
 20
9.46344
 30
0.000000
  70
    32
  0
VERTEX
  8
SJC2
  5
FDA8
 10
-63.4927
 20
9.53503
 30
0.000000
  70
    32
  0
VERTEX
  8
SJC2
  5
FDA9
 10
-63.6075
 20
9.60658
 30
0.000000
  70
    32
  0
VERTEX
  8
SJC2
  5
FDAA
 10
-63.7223
 20
9.67808
 30
0.000000
  70
    32
  0
VERTEX
  8
SJC2
  5
FDAB
 10
-63.8371
 20
9.74955
 30
0.000000
  70
    32
  0
VERTEX
  8
SJC2
  5
FDAC
 10
-63.9519
 20
9.82097
 30
0.000000
  70
    32
  0
VERTEX
  8
SJC2
  5
FDAD
 10
-64.0667
 20
9.89236
 30
0.000000
  70
    32
  0
VERTEX
  8
SJC2
  5
FDAE
 10
-64.1816
 20
9.96371
 30
0.000000
  70
    32
  0
VERTEX
  8
SJC2
  5
FDAF
 10
-64.2964
 20
10.0350
 30
0.000000
  70
    32
  0
VERTEX
  8
SJC2
  5
FDB0
 10
-64.4112
 20
10.1063
 30
0.000000
  70
    32
  0
VERTEX
  8
SJC2
  5
FDB1
 10
-64.5260
 20
10.1775
 30
0.000000
  70
    32
  0
VERTEX
  8
SJC2
  5
FDB2
 10
-64.6408
 20
10.2487
 30
0.000000
  70
    32
  0
VERTEX
  8
SJC2
  5
FDB3
 10
-64.7556
 20
10.3199
 30
0.000000
  70
    32
  0
VERTEX
  8
SJC2
  5
FDB4
 10
-64.8705
 20
10.3910
 30
0.000000
  70
    32
  0
VERTEX
  8
SJC2
  5
FDB5
 10
-64.9853
 20
10.4622
 30
0.000000
  70
    32
  0
VERTEX
  8
SJC2
  5
FDB6
 10
-65.1001
 20
10.5332
 30
0.000000
  70
    32
  0
VERTEX
  8
SJC2
  5
FDB7
 10
-65.2149
 20
10.6043
 30
0.000000
  70
    32
  0
VERTEX
  8
SJC2
  5
FDB8
 10
-65.3297
 20
10.6753
 30
0.000000
  70
    32
  0
VERTEX
  8
SJC2
  5
FDB9
 10
-65.4446
 20
10.7463
 30
0.000000
  70
    32
  0
VERTEX
  8
SJC2
  5
FDBA
 10
-65.5594
 20
10.8173
 30
0.000000
  70
    32
  0
VERTEX
  8
SJC2
  5
FDBB
 10
-65.6742
 20
10.8883
 30
0.000000
  70
    32
  0
VERTEX
  8
SJC2
  5
FDBC
 10
-65.7891
 20
10.9592
 30
0.000000
  70
    32
  0
VERTEX
  8
SJC2
  5
FDBD
 10
-65.9039
 20
11.0301
 30
0.000000
  70
    32
  0
VERTEX
  8
SJC2
  5
FDBE
 10
-66.0187
 20
11.1010
 30
0.000000
  70
    32
  0
VERTEX
  8
SJC2
  5
FDBF
 10
-66.1336
 20
11.1719
 30
0.000000
  70
    32
  0
VERTEX
  8
SJC2
  5
FDC0
 10
-66.2484
 20
11.2427
 30
0.000000
  70
    32
  0
VERTEX
  8
SJC2
  5
FDC1
 10
-66.3632
 20
11.3135
 30
0.000000
  70
    32
  0
VERTEX
  8
SJC2
  5
FDC2
 10
-66.4780
 20
11.3844
 30
0.000000
  70
    32
  0
VERTEX
  8
SJC2
  5
FDC3
 10
-66.5929
 20
11.4552
 30
0.000000
  70
    32
  0
VERTEX
  8
SJC2
  5
FDC4
 10
-66.7077
 20
11.5260
 30
0.000000
  70
    32
  0
VERTEX
  8
SJC2
  5
FDC5
 10
-66.8226
 20
11.5967
 30
0.000000
  70
    32
  0
VERTEX
  8
SJC2
  5
FDC6
 10
-66.9374
 20
11.6675
 30
0.000000
  70
    32
  0
VERTEX
  8
SJC2
  5
FDC7
 10
-67.0522
 20
11.7383
 30
0.000000
  70
    32
  0
VERTEX
  8
SJC2
  5
FDC8
 10
-67.1671
 20
11.8090
 30
0.000000
  70
    32
  0
VERTEX
  8
SJC2
  5
FDC9
 10
-67.2819
 20
11.8798
 30
0.000000
  70
    32
  0
VERTEX
  8
SJC2
  5
FDCA
 10
-67.3967
 20
11.9505
 30
0.000000
  70
    32
  0
VERTEX
  8
SJC2
  5
FDCB
 10
-67.5116
 20
12.0212
 30
0.000000
  70
    32
  0
VERTEX
  8
SJC2
  5
FDCC
 10
-67.6264
 20
12.0919
 30
0.000000
  70
    32
  0
VERTEX
  8
SJC2
  5
FDCD
 10
-67.7412
 20
12.1627
 30
0.000000
  70
    32
  0
VERTEX
  8
SJC2
  5
FDCE
 10
-67.8561
 20
12.2334
 30
0.000000
  70
    32
  0
VERTEX
  8
SJC2
  5
FDCF
 10
-67.9709
 20
12.3041
 30
0.000000
  70
    32
  0
SEQEND
  8
SJC2
  5
FDD0
  0
ARC
  5
D16A
  8
SJC2
 10
-67.564135689035524
 20
13.217617498869
 30
0.0
 40
1.0
 50
211.97133131922121
 51
245.9967458407753
  0
ARC
  5
D16B
  8
SJC2
 10
-27.288684280243618
 20
54.49638583489741
 30
0.0
 40
70.0
 50
254.6964916274095
 51
269.4177701418559
  0
LINE
  5
D16C
  8
SJC2
 10
-46.50000000003638
 20
-12.05991279959744
 30
0.0
 11
-46.50000000003638
 21
-12.056961036270881
 31
0.0
  0
ARC
  5
D16D
  8
SJC2
 10
-45.500000000036373
 20
-12.056961036270881
 30
0.0
 40
1.0
 50
180.0
 51
254.6964916274095
  0
LINE
  5
D16E
  8
HOJO
 10
-2.999999999998181
 20
12.0
 30
0.0
 11
-2.999999999998181
 21
-12.0
 31
0.0
  0
ARC
  5
D16F
  8
HOJO
 10
-0.499999999998181
 20
3.0
 30
0.0
 40
0.5
 50
270.0
 51
0.0
  0
ARC
  5
D170
  8
HOJO
 10
-1.499999999998181
 20
2.0
 30
0.0
 40
0.5
 50
90.0
 51
180.0
  0
LINE
  5
D171
  8
HOJO
 10
0.000000000001819
 20
-3.0
 30
0.0
 11
0.000000000001819
 21
-14.5
 31
0.0
  0
LINE
  5
D172
  8
HOJO
 10
0.000000000001819
 20
-12.0
 30
0.0
 11
-2.999999999998181
 21
-12.0
 31
0.0
  0
ARC
  5
D173
  8
HOJO
 10
-0.999999999998181
 20
-14.5
 30
0.0
 40
1.0
 50
270.0
 51
0.0
  0
ARC
  5
D174
  8
HOJO
 10
-0.499999999998181
 20
-3.0
 30
0.0
 40
0.5
 50
0.0
 51
90.0
  0
LINE
  5
D175
  8
HOJO
 10
-0.499999999998181
 20
2.5
 30
0.0
 11
-1.499999999998181
 21
2.5
 31
0.0
  0
ARC
  5
D176
  8
HOJO
 10
-1.499999999998181
 20
-2.0
 30
0.0
 40
0.5
 50
180.0
 51
270.0
  0
LINE
  5
D177
  8
HOJO
 10
-0.499999999998181
 20
-2.5
 30
0.0
 11
-1.499999999998181
 21
-2.5
 31
0.0
  0
LINE
  5
D178
  8
HOJO
 10
-1.999999999998181
 20
2.0
 30
0.0
 11
-1.999999999998181
 21
-2.0
 31
0.0
  0
LINE
  5
D179
  8
HOJO
 10
0.000000000001819
 20
14.5
 30
0.0
 11
0.000000000001819
 21
3.0
 31
0.0
  0
LINE
  5
D17A
  8
HOJO
 10
0.000000000001819
 20
12.0
 30
0.0
 11
-2.999999999998181
 21
12.0
 31
0.0
  0
ARC
  5
D17B
  8
HOJO
 10
-0.999999999998181
 20
14.5
 30
0.0
 40
1.0
 50
0.0
 51
90.0
  0
LINE
  5
D17C
  8
SJC2
 10
-51.00000000000545
 20
46.015802811095448
 30
0.0
 11
-51.00000000000545
 21
75.508623253810583
 31
0.0
  0
LINE
  5
D17D
  8
SJC2
 10
-63.9981837449468
 20
57.496364185190941
 30
0.0
 11
-71.000000000034561
 21
57.509081290056201
 31
0.0
  0
LINE
  5
D17E
  8
SJC2
 10
-51.000000000034561
 20
66.000000000034561
 30
0.0
 11
-51.000000000034561
 21
75.125089049730377
 31
0.0
1001
ACAD
1000
ASC_BOUNDS
1002
{
1070
    19
1002
}
  0
LINE
  5
D17F
  8
SJC2
 10
-51.000000000034561
 20
65.000000000001819
 30
0.0
 11
-51.000000000034561
 21
75.508623253814221
 31
0.0
1001
ACAD
1000
ASC_BOUNDS
1002
{
1070
    19
1002
}
  0
ARC
  5
D180
  8
SJC2
 10
-51.500000000034561
 20
75.508623253814221
 30
0.0
 40
0.5
 50
0.0
 51
135.0170421721869
1001
ACAD
1000
ASC_BOUNDS
1002
{
1070
    19
1002
}
  0
ARC
  5
D181
  8
SJC2
 10
11.013084017002249
 20
65.383503413965613
 30
0.0
 40
64.589756068386734
 50
230.24019218642189
 51
255.6455450385474
  0
ARC
  5
D182
  8
SJC2
 10
11.013084017002249
 20
65.383503413965613
 30
0.0
 40
64.589756068386734
 50
198.0312913377609
 51
230.24019218642189
  0
ARC
  5
D183
  8
SJC2
 10
-62.605522473073513
 20
47.081089375898053
 30
0.0
 40
1.0
 50
180.0
 51
270.0
  0
LINE
  5
D184
  8
SJC2
 10
-63.605522473073499
 20
47.081089375898053
 30
0.0
 11
-63.605522473073499
 21
54.30940387861483
 31
0.0
  0
LINE
  5
D185
  8
SJC2
 10
-63.430522473017838
 20
46.515956648046092
 30
0.0
 11
-63.430522473017838
 21
54.563663780162642
 31
0.0
  0
LINE
  5
D186
  8
SJC2
 10
-51.355402298902852
 20
46.081089375898038
 30
0.0
 11
-62.605522473073513
 21
46.081089375898038
 31
0.0
  0
ARC
  5
D187
  8
SJC2
 10
-51.355402298902852
 20
45.081089375898038
 30
0.0
 40
1.0
 50
18.031291337761012
 51
90.0
  0
LINE
  5
D188
  8
SJC2
 10
-63.430522473017838
 20
54.563663780162642
 30
0.0
 11
-52.000000000005457
 21
54.563663780162642
 31
0.0
  0
ARC
  5
D189
  8
SJC2
 10
-52.000000000005457
 20
55.563663780162642
 30
0.0
 40
1.0
 50
270.0
 51
0.0
  0
ARC
  5
D18A
  8
SJC2
 10
-66.000000000416549
 20
92.627387818060924
 30
0.0
 40
22.616781074614739
 50
229.68747980923681
 51
310.31252019224428
  0
LINE
  5
D18B
  8
SJC2
 10
-80.999999999998181
 20
73.847524157505177
 30
0.0
 11
-80.999999999998181
 21
58.500000000004547
 31
0.0
  0
ARC
  5
D18C
  8
SJC2
 10
-58.85464181770476
 20
77.615630311232053
 30
0.0
 40
7.812957059020504
 50
282.90450084487048
 51
343.38410367418152
  0
ARC
  5
D18D
  8
SJC2
 10
-73.145358184025099
 20
77.61563031008609
 30
0.0
 40
7.8129570575182496
 50
196.61589632326289
 51
257.09549916560889
  0
ARC
  5
D18E
  8
SJC2
 10
-79.999999999998181
 20
58.500000000004547
 30
0.0
 40
1.0
 50
180.0
 51
270.0
  0
ARC
  5
D18F
  8
SJC2
 10
-77.999999999998181
 20
62.543102609633927
 30
0.0
 40
3.0
 50
180.0
 51
250.49453895368919
1001
ACAD
1000
ASC_BOUNDS
1002
{
1070
    19
1002
}
  0
LINE
  5
D190
  8
SJC2
 10
-63.600000000005821
 20
46.97613963352341
 30
0.0
 11
-63.600000000005821
 21
57.50000000000454
 31
0.0
  0
ARC
  5
D191
  8
SJC2
 10
-64.600000000005821
 20
56.500000000004547
 30
0.0
 40
1.0
 50
0.0
 51
90.0
  0
LINE
  5
D192
  8
SJC2
 10
-57.109800000007453
 20
70.000000000004533
 30
0.0
 11
-74.890200000001641
 21
70.000000000004533
 31
0.0
  0
ARC
  5
D193
  8
SJC2
 10
-66.112287163503424
 20
96.102802208404682
 30
0.0
 40
38.602965517534642
 50
250.49453895368919
 51
289.88933051670051
1001
ACAD
1000
ASC_BOUNDS
1002
{
1070
    19
1002
}
  0
ARC
  5
D194
  8
SJC2
 10
-54.00000000000545
 20
62.62350034424162
 30
0.0
 40
3.0
 50
289.88933051670051
 51
0.0
1001
ACAD
1000
ASC_BOUNDS
1002
{
1070
    19
1002
}
  0
LINE
  5
D195
  8
SJC2
 10
-79.999999999998181
 20
57.50000000000454
 30
0.0
 11
-64.600000000005821
 21
57.50000000000454
 31
0.0
  0
POLYLINE
  5
D196
  8
SJC2
 10
-51.853658536620266
 20
75.862071467135735
 30
0.0
 66
     1
 70
     8
  0
VERTEX
  8
SJC2
  5
FDD1
 10
-51.8537
 20
75.8621
 30
0.000000
  70
    32
  0
VERTEX
  8
SJC2
  5
FDD2
 10
-51.8465
 20
75.8591
 30
0.000000
  70
    32
  0
VERTEX
  8
SJC2
  5
FDD3
 10
-51.8394
 20
75.8561
 30
0.000000
  70
    32
  0
VERTEX
  8
SJC2
  5
FDD4
 10
-51.8323
 20
75.8531
 30
0.000000
  70
    32
  0
VERTEX
  8
SJC2
  5
FDD5
 10
-51.8252
 20
75.8501
 30
0.000000
  70
    32
  0
VERTEX
  8
SJC2
  5
FDD6
 10
-51.8182
 20
75.8471
 30
0.000000
  70
    32
  0
VERTEX
  8
SJC2
  5
FDD7
 10
-51.8113
 20
75.8440
 30
0.000000
  70
    32
  0
VERTEX
  8
SJC2
  5
FDD8
 10
-51.8044
 20
75.8410
 30
0.000000
  70
    32
  0
VERTEX
  8
SJC2
  5
FDD9
 10
-51.7975
 20
75.8379
 30
0.000000
  70
    32
  0
VERTEX
  8
SJC2
  5
FDDA
 10
-51.7907
 20
75.8348
 30
0.000000
  70
    32
  0
VERTEX
  8
SJC2
  5
FDDB
 10
-51.7839
 20
75.8317
 30
0.000000
  70
    32
  0
VERTEX
  8
SJC2
  5
FDDC
 10
-51.7772
 20
75.8285
 30
0.000000
  70
    32
  0
VERTEX
  8
SJC2
  5
FDDD
 10
-51.7706
 20
75.8254
 30
0.000000
  70
    32
  0
VERTEX
  8
SJC2
  5
FDDE
 10
-51.7639
 20
75.8222
 30
0.000000
  70
    32
  0
VERTEX
  8
SJC2
  5
FDDF
 10
-51.7574
 20
75.8190
 30
0.000000
  70
    32
  0
VERTEX
  8
SJC2
  5
FDE0
 10
-51.7508
 20
75.8158
 30
0.000000
  70
    32
  0
VERTEX
  8
SJC2
  5
FDE1
 10
-51.7443
 20
75.8126
 30
0.000000
  70
    32
  0
VERTEX
  8
SJC2
  5
FDE2
 10
-51.7379
 20
75.8094
 30
0.000000
  70
    32
  0
VERTEX
  8
SJC2
  5
FDE3
 10
-51.7315
 20
75.8061
 30
0.000000
  70
    32
  0
VERTEX
  8
SJC2
  5
FDE4
 10
-51.7252
 20
75.8029
 30
0.000000
  70
    32
  0
VERTEX
  8
SJC2
  5
FDE5
 10
-51.7189
 20
75.7996
 30
0.000000
  70
    32
  0
VERTEX
  8
SJC2
  5
FDE6
 10
-51.7127
 20
75.7963
 30
0.000000
  70
    32
  0
VERTEX
  8
SJC2
  5
FDE7
 10
-51.7065
 20
75.7930
 30
0.000000
  70
    32
  0
VERTEX
  8
SJC2
  5
FDE8
 10
-51.7004
 20
75.7896
 30
0.000000
  70
    32
  0
VERTEX
  8
SJC2
  5
FDE9
 10
-51.6943
 20
75.7863
 30
0.000000
  70
    32
  0
VERTEX
  8
SJC2
  5
FDEA
 10
-51.6882
 20
75.7829
 30
0.000000
  70
    32
  0
VERTEX
  8
SJC2
  5
FDEB
 10
-51.6822
 20
75.7796
 30
0.000000
  70
    32
  0
VERTEX
  8
SJC2
  5
FDEC
 10
-51.6763
 20
75.7762
 30
0.000000
  70
    32
  0
VERTEX
  8
SJC2
  5
FDED
 10
-51.6704
 20
75.7728
 30
0.000000
  70
    32
  0
VERTEX
  8
SJC2
  5
FDEE
 10
-51.6646
 20
75.7693
 30
0.000000
  70
    32
  0
VERTEX
  8
SJC2
  5
FDEF
 10
-51.6588
 20
75.7659
 30
0.000000
  70
    32
  0
VERTEX
  8
SJC2
  5
FDF0
 10
-51.6531
 20
75.7625
 30
0.000000
  70
    32
  0
VERTEX
  8
SJC2
  5
FDF1
 10
-51.6474
 20
75.7590
 30
0.000000
  70
    32
  0
VERTEX
  8
SJC2
  5
FDF2
 10
-51.6418
 20
75.7555
 30
0.000000
  70
    32
  0
VERTEX
  8
SJC2
  5
FDF3
 10
-51.6362
 20
75.7520
 30
0.000000
  70
    32
  0
VERTEX
  8
SJC2
  5
FDF4
 10
-51.6307
 20
75.7485
 30
0.000000
  70
    32
  0
VERTEX
  8
SJC2
  5
FDF5
 10
-51.6252
 20
75.7450
 30
0.000000
  70
    32
  0
VERTEX
  8
SJC2
  5
FDF6
 10
-51.6198
 20
75.7415
 30
0.000000
  70
    32
  0
VERTEX
  8
SJC2
  5
FDF7
 10
-51.6144
 20
75.7379
 30
0.000000
  70
    32
  0
VERTEX
  8
SJC2
  5
FDF8
 10
-51.6091
 20
75.7344
 30
0.000000
  70
    32
  0
VERTEX
  8
SJC2
  5
FDF9
 10
-51.6038
 20
75.7308
 30
0.000000
  70
    32
  0
VERTEX
  8
SJC2
  5
FDFA
 10
-51.5986
 20
75.7272
 30
0.000000
  70
    32
  0
VERTEX
  8
SJC2
  5
FDFB
 10
-51.5935
 20
75.7236
 30
0.000000
  70
    32
  0
VERTEX
  8
SJC2
  5
FDFC
 10
-51.5884
 20
75.7200
 30
0.000000
  70
    32
  0
VERTEX
  8
SJC2
  5
FDFD
 10
-51.5833
 20
75.7164
 30
0.000000
  70
    32
  0
VERTEX
  8
SJC2
  5
FDFE
 10
-51.5784
 20
75.7128
 30
0.000000
  70
    32
  0
VERTEX
  8
SJC2
  5
FDFF
 10
-51.5734
 20
75.7091
 30
0.000000
  70
    32
  0
VERTEX
  8
SJC2
  5
FE00
 10
-51.5685
 20
75.7055
 30
0.000000
  70
    32
  0
VERTEX
  8
SJC2
  5
FE01
 10
-51.5637
 20
75.7018
 30
0.000000
  70
    32
  0
VERTEX
  8
SJC2
  5
FE02
 10
-51.5590
 20
75.6981
 30
0.000000
  70
    32
  0
VERTEX
  8
SJC2
  5
FE03
 10
-51.5542
 20
75.6944
 30
0.000000
  70
    32
  0
VERTEX
  8
SJC2
  5
FE04
 10
-51.5496
 20
75.6907
 30
0.000000
  70
    32
  0
VERTEX
  8
SJC2
  5
FE05
 10
-51.5450
 20
75.6870
 30
0.000000
  70
    32
  0
VERTEX
  8
SJC2
  5
FE06
 10
-51.5404
 20
75.6832
 30
0.000000
  70
    32
  0
VERTEX
  8
SJC2
  5
FE07
 10
-51.5359
 20
75.6795
 30
0.000000
  70
    32
  0
VERTEX
  8
SJC2
  5
FE08
 10
-51.5315
 20
75.6758
 30
0.000000
  70
    32
  0
VERTEX
  8
SJC2
  5
FE09
 10
-51.5271
 20
75.6720
 30
0.000000
  70
    32
  0
VERTEX
  8
SJC2
  5
FE0A
 10
-51.5228
 20
75.6682
 30
0.000000
  70
    32
  0
VERTEX
  8
SJC2
  5
FE0B
 10
-51.5185
 20
75.6644
 30
0.000000
  70
    32
  0
VERTEX
  8
SJC2
  5
FE0C
 10
-51.5143
 20
75.6606
 30
0.000000
  70
    32
  0
VERTEX
  8
SJC2
  5
FE0D
 10
-51.5102
 20
75.6568
 30
0.000000
  70
    32
  0
VERTEX
  8
SJC2
  5
FE0E
 10
-51.5061
 20
75.6530
 30
0.000000
  70
    32
  0
VERTEX
  8
SJC2
  5
FE0F
 10
-51.5020
 20
75.6492
 30
0.000000
  70
    32
  0
VERTEX
  8
SJC2
  5
FE10
 10
-51.4981
 20
75.6453
 30
0.000000
  70
    32
  0
VERTEX
  8
SJC2
  5
FE11
 10
-51.4941
 20
75.6415
 30
0.000000
  70
    32
  0
VERTEX
  8
SJC2
  5
FE12
 10
-51.4903
 20
75.6376
 30
0.000000
  70
    32
  0
VERTEX
  8
SJC2
  5
FE13
 10
-51.4865
 20
75.6338
 30
0.000000
  70
    32
  0
VERTEX
  8
SJC2
  5
FE14
 10
-51.4827
 20
75.6299
 30
0.000000
  70
    32
  0
VERTEX
  8
SJC2
  5
FE15
 10
-51.4790
 20
75.6260
 30
0.000000
  70
    32
  0
VERTEX
  8
SJC2
  5
FE16
 10
-51.4754
 20
75.6221
 30
0.000000
  70
    32
  0
VERTEX
  8
SJC2
  5
FE17
 10
-51.4718
 20
75.6182
 30
0.000000
  70
    32
  0
VERTEX
  8
SJC2
  5
FE18
 10
-51.4683
 20
75.6143
 30
0.000000
  70
    32
  0
VERTEX
  8
SJC2
  5
FE19
 10
-51.4649
 20
75.6104
 30
0.000000
  70
    32
  0
VERTEX
  8
SJC2
  5
FE1A
 10
-51.4615
 20
75.6064
 30
0.000000
  70
    32
  0
VERTEX
  8
SJC2
  5
FE1B
 10
-51.4581
 20
75.6025
 30
0.000000
  70
    32
  0
VERTEX
  8
SJC2
  5
FE1C
 10
-51.4548
 20
75.5986
 30
0.000000
  70
    32
  0
VERTEX
  8
SJC2
  5
FE1D
 10
-51.4516
 20
75.5946
 30
0.000000
  70
    32
  0
VERTEX
  8
SJC2
  5
FE1E
 10
-51.4485
 20
75.5906
 30
0.000000
  70
    32
  0
VERTEX
  8
SJC2
  5
FE1F
 10
-51.4454
 20
75.5867
 30
0.000000
  70
    32
  0
VERTEX
  8
SJC2
  5
FE20
 10
-51.4423
 20
75.5827
 30
0.000000
  70
    32
  0
VERTEX
  8
SJC2
  5
FE21
 10
-51.4393
 20
75.5787
 30
0.000000
  70
    32
  0
VERTEX
  8
SJC2
  5
FE22
 10
-51.4364
 20
75.5747
 30
0.000000
  70
    32
  0
VERTEX
  8
SJC2
  5
FE23
 10
-51.4335
 20
75.5707
 30
0.000000
  70
    32
  0
VERTEX
  8
SJC2
  5
FE24
 10
-51.4307
 20
75.5667
 30
0.000000
  70
    32
  0
VERTEX
  8
SJC2
  5
FE25
 10
-51.4280
 20
75.5627
 30
0.000000
  70
    32
  0
VERTEX
  8
SJC2
  5
FE26
 10
-51.4253
 20
75.5587
 30
0.000000
  70
    32
  0
VERTEX
  8
SJC2
  5
FE27
 10
-51.4227
 20
75.5546
 30
0.000000
  70
    32
  0
VERTEX
  8
SJC2
  5
FE28
 10
-51.4201
 20
75.5506
 30
0.000000
  70
    32
  0
VERTEX
  8
SJC2
  5
FE29
 10
-51.4176
 20
75.5466
 30
0.000000
  70
    32
  0
VERTEX
  8
SJC2
  5
FE2A
 10
-51.4152
 20
75.5425
 30
0.000000
  70
    32
  0
VERTEX
  8
SJC2
  5
FE2B
 10
-51.4128
 20
75.5385
 30
0.000000
  70
    32
  0
VERTEX
  8
SJC2
  5
FE2C
 10
-51.4105
 20
75.5344
 30
0.000000
  70
    32
  0
VERTEX
  8
SJC2
  5
FE2D
 10
-51.4082
 20
75.5303
 30
0.000000
  70
    32
  0
VERTEX
  8
SJC2
  5
FE2E
 10
-51.4060
 20
75.5263
 30
0.000000
  70
    32
  0
VERTEX
  8
SJC2
  5
FE2F
 10
-51.4039
 20
75.5222
 30
0.000000
  70
    32
  0
VERTEX
  8
SJC2
  5
FE30
 10
-51.4018
 20
75.5181
 30
0.000000
  70
    32
  0
VERTEX
  8
SJC2
  5
FE31
 10
-51.3998
 20
75.5140
 30
0.000000
  70
    32
  0
VERTEX
  8
SJC2
  5
FE32
 10
-51.3978
 20
75.5099
 30
0.000000
  70
    32
  0
VERTEX
  8
SJC2
  5
FE33
 10
-51.3959
 20
75.5058
 30
0.000000
  70
    32
  0
VERTEX
  8
SJC2
  5
FE34
 10
-51.3941
 20
75.5017
 30
0.000000
  70
    32
  0
VERTEX
  8
SJC2
  5
FE35
 10
-51.3923
 20
75.4976
 30
0.000000
  70
    32
  0
VERTEX
  8
SJC2
  5
FE36
 10
-51.3906
 20
75.4935
 30
0.000000
  70
    32
  0
VERTEX
  8
SJC2
  5
FE37
 10
-51.3890
 20
75.4894
 30
0.000000
  70
    32
  0
VERTEX
  8
SJC2
  5
FE38
 10
-51.3874
 20
75.4853
 30
0.000000
  70
    32
  0
VERTEX
  8
SJC2
  5
FE39
 10
-51.3859
 20
75.4812
 30
0.000000
  70
    32
  0
VERTEX
  8
SJC2
  5
FE3A
 10
-51.3844
 20
75.4770
 30
0.000000
  70
    32
  0
VERTEX
  8
SJC2
  5
FE3B
 10
-51.3830
 20
75.4729
 30
0.000000
  70
    32
  0
VERTEX
  8
SJC2
  5
FE3C
 10
-51.3817
 20
75.4688
 30
0.000000
  70
    32
  0
VERTEX
  8
SJC2
  5
FE3D
 10
-51.3804
 20
75.4646
 30
0.000000
  70
    32
  0
VERTEX
  8
SJC2
  5
FE3E
 10
-51.3792
 20
75.4605
 30
0.000000
  70
    32
  0
VERTEX
  8
SJC2
  5
FE3F
 10
-51.3780
 20
75.4564
 30
0.000000
  70
    32
  0
VERTEX
  8
SJC2
  5
FE40
 10
-51.3769
 20
75.4522
 30
0.000000
  70
    32
  0
VERTEX
  8
SJC2
  5
FE41
 10
-51.3759
 20
75.4481
 30
0.000000
  70
    32
  0
VERTEX
  8
SJC2
  5
FE42
 10
-51.3749
 20
75.4439
 30
0.000000
  70
    32
  0
VERTEX
  8
SJC2
  5
FE43
 10
-51.3740
 20
75.4398
 30
0.000000
  70
    32
  0
VERTEX
  8
SJC2
  5
FE44
 10
-51.3732
 20
75.4356
 30
0.000000
  70
    32
  0
VERTEX
  8
SJC2
  5
FE45
 10
-51.3724
 20
75.4315
 30
0.000000
  70
    32
  0
VERTEX
  8
SJC2
  5
FE46
 10
-51.3717
 20
75.4273
 30
0.000000
  70
    32
  0
VERTEX
  8
SJC2
  5
FE47
 10
-51.3710
 20
75.4231
 30
0.000000
  70
    32
  0
VERTEX
  8
SJC2
  5
FE48
 10
-51.3705
 20
75.4190
 30
0.000000
  70
    32
  0
VERTEX
  8
SJC2
  5
FE49
 10
-51.3699
 20
75.4148
 30
0.000000
  70
    32
  0
VERTEX
  8
SJC2
  5
FE4A
 10
-51.3695
 20
75.4107
 30
0.000000
  70
    32
  0
VERTEX
  8
SJC2
  5
FE4B
 10
-51.3691
 20
75.4065
 30
0.000000
  70
    32
  0
VERTEX
  8
SJC2
  5
FE4C
 10
-51.3687
 20
75.4023
 30
0.000000
  70
    32
  0
VERTEX
  8
SJC2
  5
FE4D
 10
-51.3684
 20
75.3982
 30
0.000000
  70
    32
  0
VERTEX
  8
SJC2
  5
FE4E
 10
-51.3682
 20
75.3940
 30
0.000000
  70
    32
  0
VERTEX
  8
SJC2
  5
FE4F
 10
-51.3681
 20
75.3898
 30
0.000000
  70
    32
  0
VERTEX
  8
SJC2
  5
FE50
 10
-51.3680
 20
75.3857
 30
0.000000
  70
    32
  0
VERTEX
  8
SJC2
  5
FE51
 10
-51.3679
 20
75.3815
 30
0.000000
  70
    32
  0
SEQEND
  8
SJC2
  5
FE52
  0
POLYLINE
  5
D197
  8
SJC2
 10
-80.146341463448081
 20
75.86207146713673
 30
0.0
 66
     1
 70
     8
  0
VERTEX
  8
SJC2
  5
FE53
 10
-80.1463
 20
75.8621
 30
0.000000
  70
    32
  0
VERTEX
  8
SJC2
  5
FE54
 10
-80.1535
 20
75.8591
 30
0.000000
  70
    32
  0
VERTEX
  8
SJC2
  5
FE55
 10
-80.1606
 20
75.8561
 30
0.000000
  70
    32
  0
VERTEX
  8
SJC2
  5
FE56
 10
-80.1677
 20
75.8531
 30
0.000000
  70
    32
  0
VERTEX
  8
SJC2
  5
FE57
 10
-80.1748
 20
75.8501
 30
0.000000
  70
    32
  0
VERTEX
  8
SJC2
  5
FE58
 10
-80.1818
 20
75.8471
 30
0.000000
  70
    32
  0
VERTEX
  8
SJC2
  5
FE59
 10
-80.1887
 20
75.8440
 30
0.000000
  70
    32
  0
VERTEX
  8
SJC2
  5
FE5A
 10
-80.1956
 20
75.8410
 30
0.000000
  70
    32
  0
VERTEX
  8
SJC2
  5
FE5B
 10
-80.2025
 20
75.8379
 30
0.000000
  70
    32
  0
VERTEX
  8
SJC2
  5
FE5C
 10
-80.2093
 20
75.8348
 30
0.000000
  70
    32
  0
VERTEX
  8
SJC2
  5
FE5D
 10
-80.2161
 20
75.8317
 30
0.000000
  70
    32
  0
VERTEX
  8
SJC2
  5
FE5E
 10
-80.2228
 20
75.8285
 30
0.000000
  70
    32
  0
VERTEX
  8
SJC2
  5
FE5F
 10
-80.2294
 20
75.8254
 30
0.000000
  70
    32
  0
VERTEX
  8
SJC2
  5
FE60
 10
-80.2361
 20
75.8222
 30
0.000000
  70
    32
  0
VERTEX
  8
SJC2
  5
FE61
 10
-80.2426
 20
75.8190
 30
0.000000
  70
    32
  0
VERTEX
  8
SJC2
  5
FE62
 10
-80.2492
 20
75.8158
 30
0.000000
  70
    32
  0
VERTEX
  8
SJC2
  5
FE63
 10
-80.2557
 20
75.8126
 30
0.000000
  70
    32
  0
VERTEX
  8
SJC2
  5
FE64
 10
-80.2621
 20
75.8094
 30
0.000000
  70
    32
  0
VERTEX
  8
SJC2
  5
FE65
 10
-80.2685
 20
75.8061
 30
0.000000
  70
    32
  0
VERTEX
  8
SJC2
  5
FE66
 10
-80.2748
 20
75.8029
 30
0.000000
  70
    32
  0
VERTEX
  8
SJC2
  5
FE67
 10
-80.2811
 20
75.7996
 30
0.000000
  70
    32
  0
VERTEX
  8
SJC2
  5
FE68
 10
-80.2873
 20
75.7963
 30
0.000000
  70
    32
  0
VERTEX
  8
SJC2
  5
FE69
 10
-80.2935
 20
75.7930
 30
0.000000
  70
    32
  0
VERTEX
  8
SJC2
  5
FE6A
 10
-80.2996
 20
75.7896
 30
0.000000
  70
    32
  0
VERTEX
  8
SJC2
  5
FE6B
 10
-80.3057
 20
75.7863
 30
0.000000
  70
    32
  0
VERTEX
  8
SJC2
  5
FE6C
 10
-80.3118
 20
75.7829
 30
0.000000
  70
    32
  0
VERTEX
  8
SJC2
  5
FE6D
 10
-80.3178
 20
75.7796
 30
0.000000
  70
    32
  0
VERTEX
  8
SJC2
  5
FE6E
 10
-80.3237
 20
75.7762
 30
0.000000
  70
    32
  0
VERTEX
  8
SJC2
  5
FE6F
 10
-80.3296
 20
75.7728
 30
0.000000
  70
    32
  0
VERTEX
  8
SJC2
  5
FE70
 10
-80.3354
 20
75.7693
 30
0.000000
  70
    32
  0
VERTEX
  8
SJC2
  5
FE71
 10
-80.3412
 20
75.7659
 30
0.000000
  70
    32
  0
VERTEX
  8
SJC2
  5
FE72
 10
-80.3469
 20
75.7625
 30
0.000000
  70
    32
  0
VERTEX
  8
SJC2
  5
FE73
 10
-80.3526
 20
75.7590
 30
0.000000
  70
    32
  0
VERTEX
  8
SJC2
  5
FE74
 10
-80.3582
 20
75.7555
 30
0.000000
  70
    32
  0
VERTEX
  8
SJC2
  5
FE75
 10
-80.3638
 20
75.7520
 30
0.000000
  70
    32
  0
VERTEX
  8
SJC2
  5
FE76
 10
-80.3693
 20
75.7485
 30
0.000000
  70
    32
  0
VERTEX
  8
SJC2
  5
FE77
 10
-80.3748
 20
75.7450
 30
0.000000
  70
    32
  0
VERTEX
  8
SJC2
  5
FE78
 10
-80.3802
 20
75.7415
 30
0.000000
  70
    32
  0
VERTEX
  8
SJC2
  5
FE79
 10
-80.3856
 20
75.7379
 30
0.000000
  70
    32
  0
VERTEX
  8
SJC2
  5
FE7A
 10
-80.3909
 20
75.7344
 30
0.000000
  70
    32
  0
VERTEX
  8
SJC2
  5
FE7B
 10
-80.3962
 20
75.7308
 30
0.000000
  70
    32
  0
VERTEX
  8
SJC2
  5
FE7C
 10
-80.4014
 20
75.7272
 30
0.000000
  70
    32
  0
VERTEX
  8
SJC2
  5
FE7D
 10
-80.4065
 20
75.7236
 30
0.000000
  70
    32
  0
VERTEX
  8
SJC2
  5
FE7E
 10
-80.4116
 20
75.7200
 30
0.000000
  70
    32
  0
VERTEX
  8
SJC2
  5
FE7F
 10
-80.4167
 20
75.7164
 30
0.000000
  70
    32
  0
VERTEX
  8
SJC2
  5
FE80
 10
-80.4216
 20
75.7128
 30
0.000000
  70
    32
  0
VERTEX
  8
SJC2
  5
FE81
 10
-80.4266
 20
75.7091
 30
0.000000
  70
    32
  0
VERTEX
  8
SJC2
  5
FE82
 10
-80.4315
 20
75.7055
 30
0.000000
  70
    32
  0
VERTEX
  8
SJC2
  5
FE83
 10
-80.4363
 20
75.7018
 30
0.000000
  70
    32
  0
VERTEX
  8
SJC2
  5
FE84
 10
-80.4410
 20
75.6981
 30
0.000000
  70
    32
  0
VERTEX
  8
SJC2
  5
FE85
 10
-80.4458
 20
75.6944
 30
0.000000
  70
    32
  0
VERTEX
  8
SJC2
  5
FE86
 10
-80.4504
 20
75.6907
 30
0.000000
  70
    32
  0
VERTEX
  8
SJC2
  5
FE87
 10
-80.4550
 20
75.6870
 30
0.000000
  70
    32
  0
VERTEX
  8
SJC2
  5
FE88
 10
-80.4596
 20
75.6832
 30
0.000000
  70
    32
  0
VERTEX
  8
SJC2
  5
FE89
 10
-80.4641
 20
75.6795
 30
0.000000
  70
    32
  0
VERTEX
  8
SJC2
  5
FE8A
 10
-80.4685
 20
75.6758
 30
0.000000
  70
    32
  0
VERTEX
  8
SJC2
  5
FE8B
 10
-80.4729
 20
75.6720
 30
0.000000
  70
    32
  0
VERTEX
  8
SJC2
  5
FE8C
 10
-80.4772
 20
75.6682
 30
0.000000
  70
    32
  0
VERTEX
  8
SJC2
  5
FE8D
 10
-80.4815
 20
75.6644
 30
0.000000
  70
    32
  0
VERTEX
  8
SJC2
  5
FE8E
 10
-80.4857
 20
75.6606
 30
0.000000
  70
    32
  0
VERTEX
  8
SJC2
  5
FE8F
 10
-80.4898
 20
75.6568
 30
0.000000
  70
    32
  0
VERTEX
  8
SJC2
  5
FE90
 10
-80.4939
 20
75.6530
 30
0.000000
  70
    32
  0
VERTEX
  8
SJC2
  5
FE91
 10
-80.4980
 20
75.6492
 30
0.000000
  70
    32
  0
VERTEX
  8
SJC2
  5
FE92
 10
-80.5019
 20
75.6453
 30
0.000000
  70
    32
  0
VERTEX
  8
SJC2
  5
FE93
 10
-80.5059
 20
75.6415
 30
0.000000
  70
    32
  0
VERTEX
  8
SJC2
  5
FE94
 10
-80.5097
 20
75.6376
 30
0.000000
  70
    32
  0
VERTEX
  8
SJC2
  5
FE95
 10
-80.5135
 20
75.6338
 30
0.000000
  70
    32
  0
VERTEX
  8
SJC2
  5
FE96
 10
-80.5173
 20
75.6299
 30
0.000000
  70
    32
  0
VERTEX
  8
SJC2
  5
FE97
 10
-80.5210
 20
75.6260
 30
0.000000
  70
    32
  0
VERTEX
  8
SJC2
  5
FE98
 10
-80.5246
 20
75.6221
 30
0.000000
  70
    32
  0
VERTEX
  8
SJC2
  5
FE99
 10
-80.5282
 20
75.6182
 30
0.000000
  70
    32
  0
VERTEX
  8
SJC2
  5
FE9A
 10
-80.5317
 20
75.6143
 30
0.000000
  70
    32
  0
VERTEX
  8
SJC2
  5
FE9B
 10
-80.5351
 20
75.6104
 30
0.000000
  70
    32
  0
VERTEX
  8
SJC2
  5
FE9C
 10
-80.5385
 20
75.6064
 30
0.000000
  70
    32
  0
VERTEX
  8
SJC2
  5
FE9D
 10
-80.5419
 20
75.6025
 30
0.000000
  70
    32
  0
VERTEX
  8
SJC2
  5
FE9E
 10
-80.5452
 20
75.5986
 30
0.000000
  70
    32
  0
VERTEX
  8
SJC2
  5
FE9F
 10
-80.5484
 20
75.5946
 30
0.000000
  70
    32
  0
VERTEX
  8
SJC2
  5
FEA0
 10
-80.5515
 20
75.5906
 30
0.000000
  70
    32
  0
VERTEX
  8
SJC2
  5
FEA1
 10
-80.5546
 20
75.5867
 30
0.000000
  70
    32
  0
VERTEX
  8
SJC2
  5
FEA2
 10
-80.5577
 20
75.5827
 30
0.000000
  70
    32
  0
VERTEX
  8
SJC2
  5
FEA3
 10
-80.5607
 20
75.5787
 30
0.000000
  70
    32
  0
VERTEX
  8
SJC2
  5
FEA4
 10
-80.5636
 20
75.5747
 30
0.000000
  70
    32
  0
VERTEX
  8
SJC2
  5
FEA5
 10
-80.5665
 20
75.5707
 30
0.000000
  70
    32
  0
VERTEX
  8
SJC2
  5
FEA6
 10
-80.5693
 20
75.5667
 30
0.000000
  70
    32
  0
VERTEX
  8
SJC2
  5
FEA7
 10
-80.5720
 20
75.5627
 30
0.000000
  70
    32
  0
VERTEX
  8
SJC2
  5
FEA8
 10
-80.5747
 20
75.5587
 30
0.000000
  70
    32
  0
VERTEX
  8
SJC2
  5
FEA9
 10
-80.5773
 20
75.5546
 30
0.000000
  70
    32
  0
VERTEX
  8
SJC2
  5
FEAA
 10
-80.5799
 20
75.5506
 30
0.000000
  70
    32
  0
VERTEX
  8
SJC2
  5
FEAB
 10
-80.5824
 20
75.5466
 30
0.000000
  70
    32
  0
VERTEX
  8
SJC2
  5
FEAC
 10
-80.5848
 20
75.5425
 30
0.000000
  70
    32
  0
VERTEX
  8
SJC2
  5
FEAD
 10
-80.5872
 20
75.5385
 30
0.000000
  70
    32
  0
VERTEX
  8
SJC2
  5
FEAE
 10
-80.5895
 20
75.5344
 30
0.000000
  70
    32
  0
VERTEX
  8
SJC2
  5
FEAF
 10
-80.5918
 20
75.5303
 30
0.000000
  70
    32
  0
VERTEX
  8
SJC2
  5
FEB0
 10
-80.5940
 20
75.5263
 30
0.000000
  70
    32
  0
VERTEX
  8
SJC2
  5
FEB1
 10
-80.5961
 20
75.5222
 30
0.000000
  70
    32
  0
VERTEX
  8
SJC2
  5
FEB2
 10
-80.5982
 20
75.5181
 30
0.000000
  70
    32
  0
VERTEX
  8
SJC2
  5
FEB3
 10
-80.6002
 20
75.5140
 30
0.000000
  70
    32
  0
VERTEX
  8
SJC2
  5
FEB4
 10
-80.6022
 20
75.5099
 30
0.000000
  70
    32
  0
VERTEX
  8
SJC2
  5
FEB5
 10
-80.6041
 20
75.5058
 30
0.000000
  70
    32
  0
VERTEX
  8
SJC2
  5
FEB6
 10
-80.6059
 20
75.5017
 30
0.000000
  70
    32
  0
VERTEX
  8
SJC2
  5
FEB7
 10
-80.6077
 20
75.4976
 30
0.000000
  70
    32
  0
VERTEX
  8
SJC2
  5
FEB8
 10
-80.6094
 20
75.4935
 30
0.000000
  70
    32
  0
VERTEX
  8
SJC2
  5
FEB9
 10
-80.6110
 20
75.4894
 30
0.000000
  70
    32
  0
VERTEX
  8
SJC2
  5
FEBA
 10
-80.6126
 20
75.4853
 30
0.000000
  70
    32
  0
VERTEX
  8
SJC2
  5
FEBB
 10
-80.6141
 20
75.4812
 30
0.000000
  70
    32
  0
VERTEX
  8
SJC2
  5
FEBC
 10
-80.6156
 20
75.4770
 30
0.000000
  70
    32
  0
VERTEX
  8
SJC2
  5
FEBD
 10
-80.6170
 20
75.4729
 30
0.000000
  70
    32
  0
VERTEX
  8
SJC2
  5
FEBE
 10
-80.6183
 20
75.4688
 30
0.000000
  70
    32
  0
VERTEX
  8
SJC2
  5
FEBF
 10
-80.6196
 20
75.4646
 30
0.000000
  70
    32
  0
VERTEX
  8
SJC2
  5
FEC0
 10
-80.6208
 20
75.4605
 30
0.000000
  70
    32
  0
VERTEX
  8
SJC2
  5
FEC1
 10
-80.6220
 20
75.4564
 30
0.000000
  70
    32
  0
VERTEX
  8
SJC2
  5
FEC2
 10
-80.6231
 20
75.4522
 30
0.000000
  70
    32
  0
VERTEX
  8
SJC2
  5
FEC3
 10
-80.6241
 20
75.4481
 30
0.000000
  70
    32
  0
VERTEX
  8
SJC2
  5
FEC4
 10
-80.6251
 20
75.4439
 30
0.000000
  70
    32
  0
VERTEX
  8
SJC2
  5
FEC5
 10
-80.6260
 20
75.4398
 30
0.000000
  70
    32
  0
VERTEX
  8
SJC2
  5
FEC6
 10
-80.6268
 20
75.4356
 30
0.000000
  70
    32
  0
VERTEX
  8
SJC2
  5
FEC7
 10
-80.6276
 20
75.4315
 30
0.000000
  70
    32
  0
VERTEX
  8
SJC2
  5
FEC8
 10
-80.6283
 20
75.4273
 30
0.000000
  70
    32
  0
VERTEX
  8
SJC2
  5
FEC9
 10
-80.6290
 20
75.4231
 30
0.000000
  70
    32
  0
VERTEX
  8
SJC2
  5
FECA
 10
-80.6295
 20
75.4190
 30
0.000000
  70
    32
  0
VERTEX
  8
SJC2
  5
FECB
 10
-80.6301
 20
75.4148
 30
0.000000
  70
    32
  0
VERTEX
  8
SJC2
  5
FECC
 10
-80.6305
 20
75.4107
 30
0.000000
  70
    32
  0
VERTEX
  8
SJC2
  5
FECD
 10
-80.6309
 20
75.4065
 30
0.000000
  70
    32
  0
VERTEX
  8
SJC2
  5
FECE
 10
-80.6313
 20
75.4023
 30
0.000000
  70
    32
  0
VERTEX
  8
SJC2
  5
FECF
 10
-80.6316
 20
75.3982
 30
0.000000
  70
    32
  0
VERTEX
  8
SJC2
  5
FED0
 10
-80.6318
 20
75.3940
 30
0.000000
  70
    32
  0
VERTEX
  8
SJC2
  5
FED1
 10
-80.6319
 20
75.3898
 30
0.000000
  70
    32
  0
VERTEX
  8
SJC2
  5
FED2
 10
-80.6320
 20
75.3857
 30
0.000000
  70
    32
  0
VERTEX
  8
SJC2
  5
FED3
 10
-80.6321
 20
75.3815
 30
0.000000
  70
    32
  0
SEQEND
  8
SJC2
  5
FED4
  0
LINE
  5
D198
  8
SJC2
 10
-51.00000000000545
 20
46.015802811095448
 30
0.0
 11
-51.00000000000545
 21
73.847524157505177
 31
0.0
  0
CIRCLE
  5
D199
  8
SJC2
 10
-66.000000000416549
 20
90.010606743446274
 30
0.0
 40
20.0
  0
CIRCLE
  5
D19A
  8
SJC2
 10
-66.000000000416549
 20
90.010606743446274
 30
0.0
 40
13.799999999999271
  0
CIRCLE
  5
D19B
  8
SJC2
 10
-66.000000000416549
 20
90.010606743446274
 30
0.0
 40
17.0
  0
LINE
  5
D19C
  8
CENTER
 10
0.0
 20
0.0
 30
0.0
 11
-54.976162939965427
 21
0.0
 31
0.0
  0
ENDBLK
  5
D19D
  8
0
  0
BLOCK
  8
0
  2
Nテスリ受-D
 70
     0
 10
0.0
 20
0.0
 30
0.0
  3
Nテスリ受-D
  1

  0
LINE
  5
D8CA
  8
CENTER
 10
0.0
 20
-25.985019599925181
 30
0.0
 11
0.0
 21
84.477169157034041
 31
0.0
  0
ARC
  5
D8CB
  8
SJC2
 10
0.0
 20
0.0
 30
0.0
 40
15.999999999999771
 50
160.7213881015669
 51
19.278611898433059
  0
ARC
  5
D8CC
  8
SJC2
 10
0.0
 20
0.0
 30
0.0
 40
20.5
 50
134.2042645179597
 51
45.795735482040293
  0
LINE
  5
D8CD
  8
CENTER
 10
12.159591952897239
 20
52.5
 30
0.0
 11
-12.159591952897239
 21
52.5
 31
0.0
  0
ARC
  5
D8CE
  8
SJC2
 10
0.0
 20
52.510604836093989
 30
0.0
 40
11.0
 50
0.0
 51
0.0426559987702394
  0
ARC
  5
D8CF
  8
SJC2
 10
0.0
 20
52.510604836093989
 30
0.0
 40
11.0
 50
0.0
 51
0.0426559987702394
  0
LINE
  5
D8D0
  8
CENTER
 10
-25.985019599927909
 20
0.0
 30
0.0
 11
25.985019599924271
 21
0.0
 31
0.0
  0
LINE
  5
D8D1
  8
SJC2
 10
-10.959517343759209
 20
53.442857142856148
 30
0.0
 11
-15.44295625711675
 21
1.328571428571194
 31
0.0
  0
LINE
  5
D8D2
  8
SJC2
 10
10.959517343759209
 20
53.442857142856148
 30
0.0
 11
15.44295625711675
 21
1.328571428571194
 31
0.0
  0
ARC
  5
D8D3
  8
SJC2
 10
0.0
 20
0.0
 30
0.0
 40
15.5
 50
175.0828996644384
 51
4.9171003355615834
  0
POLYLINE
  5
D8D4
  8
SJC2
 10
0.0
 20
12.304095143606412
 30
0.0
 66
     1
 70
     8
  0
VERTEX
  8
SJC2
  5
FED5
 10
0.000000
 20
12.3041
 30
0.000000
  70
    32
  0
VERTEX
  8
SJC2
  5
FED6
 10
-0.586389
 20
12.2894
 30
0.000000
  70
    32
  0
VERTEX
  8
SJC2
  5
FED7
 10
-1.17137
 20
12.2454
 30
0.000000
  70
    32
  0
VERTEX
  8
SJC2
  5
FED8
 10
-1.75352
 20
12.1722
 30
0.000000
  70
    32
  0
VERTEX
  8
SJC2
  5
FED9
 10
-2.33145
 20
12.0700
 30
0.000000
  70
    32
  0
VERTEX
  8
SJC2
  5
FEDA
 10
-2.90376
 20
11.9390
 30
0.000000
  70
    32
  0
VERTEX
  8
SJC2
  5
FEDB
 10
-3.46908
 20
11.7795
 30
0.000000
  70
    32
  0
VERTEX
  8
SJC2
  5
FEDC
 10
-4.02604
 20
11.5920
 30
0.000000
  70
    32
  0
VERTEX
  8
SJC2
  5
FEDD
 10
-4.57331
 20
11.3768
 30
0.000000
  70
    32
  0
VERTEX
  8
SJC2
  5
FEDE
 10
-5.10955
 20
11.1345
 30
0.000000
  70
    32
  0
VERTEX
  8
SJC2
  5
FEDF
 10
-5.63349
 20
10.8657
 30
0.000000
  70
    32
  0
VERTEX
  8
SJC2
  5
FEE0
 10
-6.14385
 20
10.5709
 30
0.000000
  70
    32
  0
VERTEX
  8
SJC2
  5
FEE1
 10
-6.63941
 20
10.2511
 30
0.000000
  70
    32
  0
VERTEX
  8
SJC2
  5
FEE2
 10
-7.11898
 20
9.90677
 30
0.000000
  70
    32
  0
VERTEX
  8
SJC2
  5
FEE3
 10
-7.58140
 20
9.53891
 30
0.000000
  70
    32
  0
VERTEX
  8
SJC2
  5
FEE4
 10
-8.02555
 20
9.14836
 30
0.000000
  70
    32
  0
VERTEX
  8
SJC2
  5
FEE5
 10
-8.45037
 20
8.73607
 30
0.000000
  70
    32
  0
VERTEX
  8
SJC2
  5
FEE6
 10
-8.85483
 20
8.30303
 30
0.000000
  70
    32
  0
VERTEX
  8
SJC2
  5
FEE7
 10
-9.23796
 20
7.85027
 30
0.000000
  70
    32
  0
VERTEX
  8
SJC2
  5
FEE8
 10
-9.59883
 20
7.37890
 30
0.000000
  70
    32
  0
VERTEX
  8
SJC2
  5
FEE9
 10
-9.93658
 20
6.89005
 30
0.000000
  70
    32
  0
VERTEX
  8
SJC2
  5
FEEA
 10
-10.2504
 20
6.38489
 30
0.000000
  70
    32
  0
VERTEX
  8
SJC2
  5
FEEB
 10
-10.5395
 20
5.86465
 30
0.000000
  70
    32
  0
VERTEX
  8
SJC2
  5
FEEC
 10
-10.8032
 20
5.33057
 30
0.000000
  70
    32
  0
VERTEX
  8
SJC2
  5
FEED
 10
-11.0409
 20
4.78394
 30
0.000000
  70
    32
  0
VERTEX
  8
SJC2
  5
FEEE
 10
-11.2520
 20
4.22608
 30
0.000000
  70
    32
  0
VERTEX
  8
SJC2
  5
FEEF
 10
-11.4360
 20
3.65834
 30
0.000000
  70
    32
  0
VERTEX
  8
SJC2
  5
FEF0
 10
-11.5925
 20
3.08208
 30
0.000000
  70
    32
  0
VERTEX
  8
SJC2
  5
FEF1
 10
-11.7210
 20
2.49868
 30
0.000000
  70
    32
  0
VERTEX
  8
SJC2
  5
FEF2
 10
-11.8213
 20
1.90956
 30
0.000000
  70
    32
  0
VERTEX
  8
SJC2
  5
FEF3
 10
-11.8931
 20
1.31614
 30
0.000000
  70
    32
  0
VERTEX
  8
SJC2
  5
FEF4
 10
-11.9362
 20
0.719834
 30
0.000000
  70
    32
  0
VERTEX
  8
SJC2
  5
FEF5
 10
-11.9506
 20
0.122091
 30
0.000000
  70
    32
  0
VERTEX
  8
SJC2
  5
FEF6
 10
-11.9362
 20
-0.475651
 30
0.000000
  70
    32
  0
VERTEX
  8
SJC2
  5
FEF7
 10
-11.8931
 20
-1.07195
 30
0.000000
  70
    32
  0
VERTEX
  8
SJC2
  5
FEF8
 10
-11.8213
 20
-1.66538
 30
0.000000
  70
    32
  0
VERTEX
  8
SJC2
  5
FEF9
 10
-11.7210
 20
-2.25450
 30
0.000000
  70
    32
  0
VERTEX
  8
SJC2
  5
FEFA
 10
-11.5925
 20
-2.83789
 30
0.000000
  70
    32
  0
VERTEX
  8
SJC2
  5
FEFB
 10
-11.4360
 20
-3.41416
 30
0.000000
  70
    32
  0
VERTEX
  8
SJC2
  5
FEFC
 10
-11.2520
 20
-3.98190
 30
0.000000
  70
    32
  0
VERTEX
  8
SJC2
  5
FEFD
 10
-11.0409
 20
-4.53976
 30
0.000000
  70
    32
  0
VERTEX
  8
SJC2
  5
FEFE
 10
-10.8032
 20
-5.08639
 30
0.000000
  70
    32
  0
VERTEX
  8
SJC2
  5
FEFF
 10
-10.5395
 20
-5.62047
 30
0.000000
  70
    32
  0
VERTEX
  8
SJC2
  5
FF00
 10
-10.2504
 20
-6.14071
 30
0.000000
  70
    32
  0
VERTEX
  8
SJC2
  5
FF01
 10
-9.93658
 20
-6.64587
 30
0.000000
  70
    32
  0
VERTEX
  8
SJC2
  5
FF02
 10
-9.59883
 20
-7.13472
 30
0.000000
  70
    32
  0
VERTEX
  8
SJC2
  5
FF03
 10
-9.23796
 20
-7.60609
 30
0.000000
  70
    32
  0
VERTEX
  8
SJC2
  5
FF04
 10
-8.85483
 20
-8.05884
 30
0.000000
  70
    32
  0
VERTEX
  8
SJC2
  5
FF05
 10
-8.45037
 20
-8.49189
 30
0.000000
  70
    32
  0
VERTEX
  8
SJC2
  5
FF06
 10
-8.02555
 20
-8.90418
 30
0.000000
  70
    32
  0
VERTEX
  8
SJC2
  5
FF07
 10
-7.58140
 20
-9.29473
 30
0.000000
  70
    32
  0
VERTEX
  8
SJC2
  5
FF08
 10
-7.11898
 20
-9.66259
 30
0.000000
  70
    32
  0
VERTEX
  8
SJC2
  5
FF09
 10
-6.63941
 20
-10.0069
 30
0.000000
  70
    32
  0
VERTEX
  8
SJC2
  5
FF0A
 10
-6.14385
 20
-10.3268
 30
0.000000
  70
    32
  0
VERTEX
  8
SJC2
  5
FF0B
 10
-5.63349
 20
-10.6215
 30
0.000000
  70
    32
  0
VERTEX
  8
SJC2
  5
FF0C
 10
-5.10955
 20
-10.8903
 30
0.000000
  70
    32
  0
VERTEX
  8
SJC2
  5
FF0D
 10
-4.57331
 20
-11.1326
 30
0.000000
  70
    32
  0
VERTEX
  8
SJC2
  5
FF0E
 10
-4.02604
 20
-11.3478
 30
0.000000
  70
    32
  0
VERTEX
  8
SJC2
  5
FF0F
 10
-3.46908
 20
-11.5354
 30
0.000000
  70
    32
  0
VERTEX
  8
SJC2
  5
FF10
 10
-2.90376
 20
-11.6948
 30
0.000000
  70
    32
  0
VERTEX
  8
SJC2
  5
FF11
 10
-2.33145
 20
-11.8258
 30
0.000000
  70
    32
  0
VERTEX
  8
SJC2
  5
FF12
 10
-1.75352
 20
-11.9281
 30
0.000000
  70
    32
  0
VERTEX
  8
SJC2
  5
FF13
 10
-1.17137
 20
-12.0013
 30
0.000000
  70
    32
  0
VERTEX
  8
SJC2
  5
FF14
 10
-0.586389
 20
-12.0452
 30
0.000000
  70
    32
  0
VERTEX
  8
SJC2
  5
FF15
 10
-1.46348e-015
 20
-12.0599
 30
0.000000
  70
    32
  0
VERTEX
  8
SJC2
  5
FF16
 10
0.586389
 20
-12.0452
 30
0.000000
  70
    32
  0
VERTEX
  8
SJC2
  5
FF17
 10
1.17137
 20
-12.0013
 30
0.000000
  70
    32
  0
VERTEX
  8
SJC2
  5
FF18
 10
1.75352
 20
-11.9281
 30
0.000000
  70
    32
  0
VERTEX
  8
SJC2
  5
FF19
 10
2.33145
 20
-11.8258
 30
0.000000
  70
    32
  0
VERTEX
  8
SJC2
  5
FF1A
 10
2.90376
 20
-11.6948
 30
0.000000
  70
    32
  0
VERTEX
  8
SJC2
  5
FF1B
 10
3.46908
 20
-11.5354
 30
0.000000
  70
    32
  0
VERTEX
  8
SJC2
  5
FF1C
 10
4.02604
 20
-11.3478
 30
0.000000
  70
    32
  0
VERTEX
  8
SJC2
  5
FF1D
 10
4.57331
 20
-11.1326
 30
0.000000
  70
    32
  0
VERTEX
  8
SJC2
  5
FF1E
 10
5.10955
 20
-10.8903
 30
0.000000
  70
    32
  0
VERTEX
  8
SJC2
  5
FF1F
 10
5.63349
 20
-10.6215
 30
0.000000
  70
    32
  0
VERTEX
  8
SJC2
  5
FF20
 10
6.14385
 20
-10.3268
 30
0.000000
  70
    32
  0
VERTEX
  8
SJC2
  5
FF21
 10
6.63941
 20
-10.0069
 30
0.000000
  70
    32
  0
VERTEX
  8
SJC2
  5
FF22
 10
7.11898
 20
-9.66259
 30
0.000000
  70
    32
  0
VERTEX
  8
SJC2
  5
FF23
 10
7.58140
 20
-9.29473
 30
0.000000
  70
    32
  0
VERTEX
  8
SJC2
  5
FF24
 10
8.02555
 20
-8.90418
 30
0.000000
  70
    32
  0
VERTEX
  8
SJC2
  5
FF25
 10
8.45037
 20
-8.49189
 30
0.000000
  70
    32
  0
VERTEX
  8
SJC2
  5
FF26
 10
8.85483
 20
-8.05884
 30
0.000000
  70
    32
  0
VERTEX
  8
SJC2
  5
FF27
 10
9.23796
 20
-7.60609
 30
0.000000
  70
    32
  0
VERTEX
  8
SJC2
  5
FF28
 10
9.59883
 20
-7.13472
 30
0.000000
  70
    32
  0
VERTEX
  8
SJC2
  5
FF29
 10
9.93658
 20
-6.64587
 30
0.000000
  70
    32
  0
VERTEX
  8
SJC2
  5
FF2A
 10
10.2504
 20
-6.14071
 30
0.000000
  70
    32
  0
VERTEX
  8
SJC2
  5
FF2B
 10
10.5395
 20
-5.62047
 30
0.000000
  70
    32
  0
VERTEX
  8
SJC2
  5
FF2C
 10
10.8032
 20
-5.08639
 30
0.000000
  70
    32
  0
VERTEX
  8
SJC2
  5
FF2D
 10
11.0409
 20
-4.53976
 30
0.000000
  70
    32
  0
VERTEX
  8
SJC2
  5
FF2E
 10
11.2520
 20
-3.98190
 30
0.000000
  70
    32
  0
VERTEX
  8
SJC2
  5
FF2F
 10
11.4360
 20
-3.41416
 30
0.000000
  70
    32
  0
VERTEX
  8
SJC2
  5
FF30
 10
11.5925
 20
-2.83789
 30
0.000000
  70
    32
  0
VERTEX
  8
SJC2
  5
FF31
 10
11.7210
 20
-2.25450
 30
0.000000
  70
    32
  0
VERTEX
  8
SJC2
  5
FF32
 10
11.8213
 20
-1.66538
 30
0.000000
  70
    32
  0
VERTEX
  8
SJC2
  5
FF33
 10
11.8931
 20
-1.07195
 30
0.000000
  70
    32
  0
VERTEX
  8
SJC2
  5
FF34
 10
11.9362
 20
-0.475651
 30
0.000000
  70
    32
  0
VERTEX
  8
SJC2
  5
FF35
 10
11.9506
 20
0.122091
 30
0.000000
  70
    32
  0
VERTEX
  8
SJC2
  5
FF36
 10
11.9362
 20
0.719834
 30
0.000000
  70
    32
  0
VERTEX
  8
SJC2
  5
FF37
 10
11.8931
 20
1.31614
 30
0.000000
  70
    32
  0
VERTEX
  8
SJC2
  5
FF38
 10
11.8213
 20
1.90956
 30
0.000000
  70
    32
  0
VERTEX
  8
SJC2
  5
FF39
 10
11.7210
 20
2.49868
 30
0.000000
  70
    32
  0
VERTEX
  8
SJC2
  5
FF3A
 10
11.5925
 20
3.08208
 30
0.000000
  70
    32
  0
VERTEX
  8
SJC2
  5
FF3B
 10
11.4360
 20
3.65834
 30
0.000000
  70
    32
  0
VERTEX
  8
SJC2
  5
FF3C
 10
11.2520
 20
4.22608
 30
0.000000
  70
    32
  0
VERTEX
  8
SJC2
  5
FF3D
 10
11.0409
 20
4.78394
 30
0.000000
  70
    32
  0
VERTEX
  8
SJC2
  5
FF3E
 10
10.8032
 20
5.33057
 30
0.000000
  70
    32
  0
VERTEX
  8
SJC2
  5
FF3F
 10
10.5395
 20
5.86465
 30
0.000000
  70
    32
  0
VERTEX
  8
SJC2
  5
FF40
 10
10.2504
 20
6.38489
 30
0.000000
  70
    32
  0
VERTEX
  8
SJC2
  5
FF41
 10
9.93658
 20
6.89005
 30
0.000000
  70
    32
  0
VERTEX
  8
SJC2
  5
FF42
 10
9.59883
 20
7.37890
 30
0.000000
  70
    32
  0
VERTEX
  8
SJC2
  5
FF43
 10
9.23796
 20
7.85027
 30
0.000000
  70
    32
  0
VERTEX
  8
SJC2
  5
FF44
 10
8.85483
 20
8.30303
 30
0.000000
  70
    32
  0
VERTEX
  8
SJC2
  5
FF45
 10
8.45037
 20
8.73607
 30
0.000000
  70
    32
  0
VERTEX
  8
SJC2
  5
FF46
 10
8.02555
 20
9.14836
 30
0.000000
  70
    32
  0
VERTEX
  8
SJC2
  5
FF47
 10
7.58140
 20
9.53891
 30
0.000000
  70
    32
  0
VERTEX
  8
SJC2
  5
FF48
 10
7.11898
 20
9.90677
 30
0.000000
  70
    32
  0
VERTEX
  8
SJC2
  5
FF49
 10
6.63941
 20
10.2511
 30
0.000000
  70
    32
  0
VERTEX
  8
SJC2
  5
FF4A
 10
6.14385
 20
10.5709
 30
0.000000
  70
    32
  0
VERTEX
  8
SJC2
  5
FF4B
 10
5.63349
 20
10.8657
 30
0.000000
  70
    32
  0
VERTEX
  8
SJC2
  5
FF4C
 10
5.10955
 20
11.1345
 30
0.000000
  70
    32
  0
VERTEX
  8
SJC2
  5
FF4D
 10
4.57331
 20
11.3768
 30
0.000000
  70
    32
  0
VERTEX
  8
SJC2
  5
FF4E
 10
4.02604
 20
11.5920
 30
0.000000
  70
    32
  0
VERTEX
  8
SJC2
  5
FF4F
 10
3.46908
 20
11.7795
 30
0.000000
  70
    32
  0
VERTEX
  8
SJC2
  5
FF50
 10
2.90376
 20
11.9390
 30
0.000000
  70
    32
  0
VERTEX
  8
SJC2
  5
FF51
 10
2.33145
 20
12.0700
 30
0.000000
  70
    32
  0
VERTEX
  8
SJC2
  5
FF52
 10
1.75352
 20
12.1722
 30
0.000000
  70
    32
  0
VERTEX
  8
SJC2
  5
FF53
 10
1.17137
 20
12.2454
 30
0.000000
  70
    32
  0
VERTEX
  8
SJC2
  5
FF54
 10
0.586389
 20
12.2894
 30
0.000000
  70
    32
  0
VERTEX
  8
SJC2
  5
FF55
 10
0.000000
 20
12.3041
 30
0.000000
  70
    32
  0
SEQEND
  8
SJC2
  5
FF56
  0
POLYLINE
  5
D8D5
  8
SJC2
 66
     1
 10
0.0
 20
0.0
 30
0.0
 70
     1
  0
VERTEX
  5
F9F7
  8
SJC2
 10
0.0
 20
10.949999999999809
 30
0.0
  0
VERTEX
  5
F9F8
  8
SJC2
 10
-9.4829781714397541
 20
5.4749999999994543
 30
0.0
  0
VERTEX
  5
F9F9
  8
SJC2
 10
-9.4829781714397541
 20
-5.4749999999994543
 30
0.0
  0
VERTEX
  5
F9FA
  8
SJC2
 10
0.0
 20
-10.949999999999809
 30
0.0
  0
VERTEX
  5
F9FB
  8
SJC2
 10
9.4829781714397541
 20
-5.4750000000003629
 30
0.0
  0
VERTEX
  5
F9FC
  8
SJC2
 10
9.4829781714397541
 20
5.4749999999994543
 30
0.0
  0
SEQEND
  5
F9FD
  8
SJC2
  0
CIRCLE
  5
D8D6
  8
SJC2
 10
0.0
 20
0.0
 30
0.0
 40
10.949999999999999
  0
POLYLINE
  5
D8D7
  8
SJC2
 66
     1
 10
0.0
 20
0.0
 30
0.0
 70
     1
  0
VERTEX
  5
F9FE
  8
SJC2
 10
0.0
 20
10.19566999551898
 30
0.0
  0
VERTEX
  5
F9FF
  8
SJC2
 10
-8.8297092247230466
 20
5.0978349977594908
 30
0.0
  0
VERTEX
  5
FA00
  8
SJC2
 10
-8.8297092247230466
 20
-5.0978349977594908
 30
0.0
  0
VERTEX
  5
FA01
  8
SJC2
 10
0.0
 20
-10.19566999551898
 30
0.0
  0
VERTEX
  5
FA02
  8
SJC2
 10
8.8297092247230466
 20
-5.0978349977594908
 30
0.0
  0
VERTEX
  5
FA03
  8
SJC2
 10
8.8297092247230466
 20
5.0978349977594908
 30
0.0
  0
SEQEND
  5
FA04
  8
SJC2
  0
CIRCLE
  5
D8D8
  8
HASEN
 10
0.0
 20
0.0
 30
0.0
 40
5.0
  0
LINE
  5
D8D9
  8
SJC2
 10
-8.8297092247230466
 20
-5.0978349977594908
 30
0.0
 11
-9.4829781714397541
 21
-5.4750000000003629
 31
0.0
  0
LINE
  5
D8DA
  8
SJC2
 10
-8.8297092247230466
 20
5.0978349977594908
 30
0.0
 11
-9.4829781714397541
 21
5.4749999999994543
 31
0.0
  0
LINE
  5
D8DB
  8
SJC2
 10
0.0
 20
10.949999999999809
 30
0.0
 11
0.0
 21
10.19566999551898
 31
0.0
  0
LINE
  5
D8DC
  8
SJC2
 10
8.8297092247230466
 20
-5.0978349977594908
 30
0.0
 11
9.4829781714397541
 21
-5.4750000000003629
 31
0.0
  0
LINE
  5
D8DD
  8
SJC2
 10
8.8297092247230466
 20
5.0978349977594908
 30
0.0
 11
9.4829781714397541
 21
5.4749999999994543
 31
0.0
  0
ARC
  5
D8DE
  8
SJC2
 10
0.0
 20
52.499999999999091
 30
0.0
 40
11.0
 50
220.803667048639
 51
319.196332951361
  0
ARC
  5
D8DF
  8
SJC2
 10
0.0
 20
52.499999999999091
 30
0.0
 40
11.0
 50
4.9171003355615834
 51
175.0828996644384
  0
CIRCLE
  5
D8E0
  8
SJC2
 10
0.0
 20
52.499999999999091
 30
0.0
 40
8.3264855721124604
  0
CIRCLE
  5
D8E1
  8
SJC2
 10
0.0
 20
52.499999999999091
 30
0.0
 40
7.750000000000056
  0
ARC
  5
D8E2
  8
SJC2
 10
0.0
 20
52.5
 30
0.0
 40
6.5
 50
270.0
 51
90.0
  0
ARC
  5
D8E3
  8
SJC2
 10
0.0
 20
52.5
 30
0.0
 40
11.0
 50
179.95734443228551
 51
180.0
  0
ARC
  5
D8E4
  8
SJC2
 10
0.0
 20
52.5
 30
0.0
 40
6.5
 50
90.0
 51
270.0
  0
ARC
  5
D8E5
  8
SJC2
 10
0.0
 20
52.5
 30
0.0
 40
11.0
 50
0.0
 51
0.0426555677144815
  0
CIRCLE
  5
D8E6
  8
SJC2
 10
0.0
 20
0.0
 30
0.0
 40
7.9000000000000004
  0
POLYLINE
  5
D8E7
  8
SJC2
 66
     1
 10
0.0
 20
0.0
 30
0.0
 70
     1
  0
VERTEX
  5
FA05
  8
SJC2
 10
-3.0
 20
50.767949192430031
 30
0.0
  0
VERTEX
  5
FA06
  8
SJC2
 10
0.0
 20
49.03589838486095
 30
0.0
  0
VERTEX
  5
FA07
  8
SJC2
 10
3.0
 20
50.767949192430031
 30
0.0
  0
VERTEX
  5
FA08
  8
SJC2
 10
3.0
 20
54.23205080756815
 30
0.0
  0
VERTEX
  5
FA09
  8
SJC2
 10
0.0
 20
55.964101615137217
 30
0.0
  0
VERTEX
  5
FA0A
  8
SJC2
 10
-3.0
 20
54.23205080756815
 30
0.0
  0
SEQEND
  5
FA0B
  8
SJC2
  0
ENDBLK
  5
D8E8
  8
0
  0
BLOCK
  8
0
  2
*D20
 70
     1
 10
0.0
 20
0.0
 30
0.0
  3
*D20
  1

  0
LINE
  5
FA34
  8
SUNPOU
 10
5738.8560509773624
 20
2203.3261911266468
 30
0.0
 11
5942.884281302996
 21
2203.3261911266468
 31
0.0
  0
LINE
  5
FA35
  8
SUNPOU
 10
5738.8560509773624
 20
2003.326191126647
 30
0.0
 11
5942.8842813029951
 21
2003.326191126647
 31
0.0
  0
LINE
  5
FA36
  8
SUNPOU
 10
5922.884281302996
 20
2163.3261911266468
 30
0.0
 11
5922.8842813029942
 21
2043.326191126647
 31
0.0
  0
SOLID
  5
FA37
  8
SUNPOU
 10
5916.217614636329
 20
2163.3261911266468
 30
0.0
 11
5929.550947969663
 21
2163.3261911266468
 31
0.0
 12
5922.884281302996
 22
2203.3261911266468
 32
0.0
 13
5922.884281302996
 23
2203.3261911266468
 33
0.0
  0
SOLID
  5
FA38
  8
SUNPOU
 10
5916.2176146363281
 20
2043.326191126647
 30
0.0
 11
5929.550947969662
 21
2043.326191126647
 31
0.0
 12
5922.8842813029942
 22
2003.326191126647
 32
0.0
 13
5922.8842813029942
 23
2003.326191126647
 33
0.0
  0
TEXT
  8
SUNPOU
  40
60
  5
FF57
  72
0
  71
0
 10
5748.88
 20
1997.13
 30
0.000000
  1
%%C40
  7
EXT08
  0
POINT
  5
FA3A
  8
DEFPOINTS
 62
     0
 10
5718.8560509773606
 20
2203.3261911266468
 30
0.0
  0
POINT
  5
FA3B
  8
DEFPOINTS
 62
     0
 10
5718.8560509773606
 20
2003.326191126647
 30
0.0
  0
POINT
  5
FA3C
  8
DEFPOINTS
 62
     0
 10
5922.8842813029942
 20
2003.326191126647
 30
0.0
  0
ENDBLK
  5
F08F
  8
0
  0
BLOCK
  8
0
  2
B0070022
 70
     0
 10
0.0
 20
0.0
 30
0.0
  3
B0070022
  1

  0
LINE
  5
F0A0
  8
SJC2
 10
-0.0000000000009095
 20
646.08883828032856
 30
0.0
 11
-0.0000000000009095
 21
46.593447405193722
 31
0.0
  0
LINE
  5
F0A1
  8
SJC2
 10
-0.0000000000009095
 20
-46.593447405194638
 30
0.0
 11
25.44908016938189
 21
-46.593447405194638
 31
0.0
  0
LINE
  5
F0A2
  8
SJC2
 10
-0.0000000000009095
 20
-46.593447405194638
 30
0.0
 11
-0.0000000000009095
 21
-646.08883828032856
 31
0.0
  0
LINE
  5
F0A3
  8
SJC2
 10
-25.44908016938189
 20
46.593447405193722
 30
0.0
 11
25.44908016938189
 21
-46.593447405194638
 31
0.0
  0
LINE
  5
F0A4
  8
SJC2
 10
-25.44908016938189
 20
46.593447405193722
 30
0.0
 11
-0.0000000000009095
 21
46.593447405193722
 31
0.0
  0
ENDBLK
  5
F0A6
  8
0
  0
BLOCK
  8
0
  2
*D22
 70
     1
 10
0.0
 20
0.0
 30
0.0
  3
*D22
  1

  0
LINE
  5
FA91
  8
SUNPOU
 10
6238.766628669161
 20
4214.624227962755
 30
0.0
 11
6615.9460933298969
 21
4214.624227962755
 31
0.0
  0
LINE
  5
FA92
  8
SUNPOU
 10
6421.2666286695794
 20
4104.6242279628059
 30
0.0
 11
6615.9460933298969
 21
4104.6242279628059
 31
0.0
  0
LINE
  5
FA93
  8
SUNPOU
 10
6595.9460933298988
 20
4254.624227962755
 30
0.0
 11
6595.9460933298988
 21
4294.6242279627559
 31
0.0
  0
LINE
  5
FA94
  8
SUNPOU
 10
6595.9460933298988
 20
4064.6242279628059
 30
0.0
 11
6595.9460933298988
 21
4024.6242279628059
 31
0.0
  0
TEXT
  8
SUNPOU
  40
60
  5
FF58
  72
0
  71
0
 10
6569.17
 20
4061.17
 30
0.000000
  1
(110)
  7
EXT08
  0
LINE
  5
FA96
  8
SUNPOU
 10
6595.9460933298988
 20
4214.624227962755
 30
0.0
 11
6595.9460933298988
 21
4104.6242279628059
 31
0.0
  0
SOLID
  5
FA97
  8
SUNPOU
 10
6589.2794266632309
 20
4254.624227962755
 30
0.0
 11
6602.6127599965639
 21
4254.624227962755
 31
0.0
 12
6595.9460933298988
 22
4214.624227962755
 32
0.0
 13
6595.9460933298988
 23
4214.624227962755
 33
0.0
  0
SOLID
  5
FA98
  8
SUNPOU
 10
6589.2794266632309
 20
4064.6242279628059
 30
0.0
 11
6602.6127599965639
 21
4064.6242279628059
 31
0.0
 12
6595.9460933298988
 22
4104.6242279628059
 32
0.0
 13
6595.9460933298988
 23
4104.6242279628059
 33
0.0
  0
POINT
  5
FA99
  8
DEFPOINTS
 62
     0
 10
6218.7666286691601
 20
4214.624227962755
 30
0.0
  0
POINT
  5
FA9A
  8
DEFPOINTS
 62
     0
 10
6401.2666286695794
 20
4104.6242279628059
 30
0.0
  0
POINT
  5
FA9B
  8
DEFPOINTS
 62
     0
 10
6595.9460933298988
 20
4104.6242279628059
 30
0.0
  0
ENDBLK
  5
F0DD
  8
0
  0
BLOCK
  8
0
  2
*D23
 70
     1
 10
0.0
 20
0.0
 30
0.0
  3
*D23
  1

  0
LINE
  5
FAA4
  8
SUNPOU
 10
768.43834190444511
 20
2213.8993663538909
 30
0.0
 11
768.43834190444511
 21
2611.5886405789461
 31
0.0
  0
LINE
  5
FAA5
  8
SUNPOU
 10
910.43834190527775
 20
2145.5343322302879
 30
0.0
 11
910.43834190527775
 21
2611.5886405789461
 31
0.0
  0
LINE
  5
FAA6
  8
SUNPOU
 10
808.43834190444534
 20
2591.5886405789461
 30
0.0
 11
870.43834190527775
 21
2591.5886405789461
 31
0.0
  0
TEXT
  8
SUNPOU
  40
60
  5
FF59
  72
0
  71
0
 10
719.438
 20
2553.25
 30
0.000000
  1
(70)
  7
EXT08
  0
SOLID
  5
FAA8
  8
SUNPOU
 10
808.43834190444534
 20
2598.255307245613
 30
0.0
 11
808.43834190444534
 21
2584.92197391228
 31
0.0
 12
768.43834190444511
 22
2591.5886405789461
 32
0.0
 13
768.43834190444511
 23
2591.5886405789461
 33
0.0
  0
SOLID
  5
FAA9
  8
SUNPOU
 10
870.43834190527775
 20
2598.255307245613
 30
0.0
 11
870.43834190527775
 21
2584.92197391228
 31
0.0
 12
910.43834190527775
 22
2591.5886405789461
 32
0.0
 13
910.43834190527775
 23
2591.5886405789461
 33
0.0
  0
POINT
  5
FAAA
  8
DEFPOINTS
 62
     0
 10
768.43834190444511
 20
2193.8993663538909
 30
0.0
  0
POINT
  5
FAAB
  8
DEFPOINTS
 62
     0
 10
910.43834190527775
 20
2125.5343322302879
 30
0.0
  0
POINT
  5
FAAC
  8
DEFPOINTS
 62
     0
 10
910.43834190527775
 20
2591.5886405789461
 30
0.0
  0
ENDBLK
  5
F129
  8
0
  0
BLOCK
  8
0
  2
CALCOMP_TECHJET720A3
 70
     0
 10
0.0
 20
0.0
 30
0.0
  3
CALCOMP_TECHJET720A3
  1

  0
POLYLINE
  5
F7F3
  8
ZWAKU
 66
     1
 10
0.0
 20
0.0
 30
0.0
 70
     1
  0
VERTEX
  5
FAAD
  8
ZWAKU
 10
0.0
 20
0.0
 30
0.0
  0
VERTEX
  5
FAAE
  8
ZWAKU
 10
0.0
 20
267.0
 30
0.0
  0
VERTEX
  5
FAAF
  8
ZWAKU
 10
370.0
 20
267.0
 30
0.0
  0
VERTEX
  5
FAB0
  8
ZWAKU
 10
370.0
 20
0.0
 30
0.0
  0
SEQEND
  5
FAB1
  8
ZWAKU
  0
ENDBLK
  5
F7F5
  8
0
  0
BLOCK
  8
0
  2
*U25
 70
     1
 10
0.0
 20
0.0
 30
0.0
  3
*U25
  1

  0
SOLID
  5
F92F
  8
SUNPOU
 10
2681.0082660499052
 20
2605.2385439905838
 30
0.0
 11
2641.0082660499052
 21
2611.9052106572499
 31
0.0
 12
2681.0082660499052
 22
2618.5718773239169
 32
0.0
 13
2681.0082660499052
 23
2618.5718773239169
 33
0.0
  0
POLYLINE
  5
F930
  8
SUNPOU
 66
     1
 10
0.0
 20
0.0
 30
0.0
  0
VERTEX
  5
F931
  8
SUNPOU
 10
2681.0082660499052
 20
2611.9052106572499
 30
0.0
  0
VERTEX
  5
F932
  8
SUNPOU
 10
3402.9756981735118
 20
2611.905210657254
 30
0.0
  0
SEQEND
  5
F933
  8
SUNPOU
  0
ENDBLK
  5
F935
  8
0
  0
BLOCK
  8
0
  2
*U26
 70
     1
 10
0.0
 20
0.0
 30
0.0
  3
*U26
  1

  0
SOLID
  5
F937
  8
SUNPOU
 10
2601.0082660499052
 20
2618.5718773239159
 30
0.0
 11
2641.0082660499052
 21
2611.9052106572499
 31
0.0
 12
2601.0082660499052
 22
2605.2385439905838
 32
0.0
 13
2601.0082660499052
 23
2605.2385439905838
 33
0.0
  0
POLYLINE
  5
F938
  8
SUNPOU
 66
     1
 10
0.0
 20
0.0
 30
0.0
  0
VERTEX
  5
F939
  8
SUNPOU
 10
2601.0082660499052
 20
2611.9052106572499
 30
0.0
  0
VERTEX
  5
F93A
  8
SUNPOU
 10
1893.9808028715961
 20
2611.9052106572499
 30
0.0
  0
SEQEND
  5
F93B
  8
SUNPOU
  0
ENDBLK
  5
F93D
  8
0
  0
BLOCK
  8
0
  2
*U27
 70
     1
 10
0.0
 20
0.0
 30
0.0
  3
*U27
  1

  0
TEXT
  5
F93F
  8
SUNPOU
 10
5027.8716917656893
 20
4690.1407587824451
 30
0.0
 40
60.0
  1
2000
 41
0.8
  7
EXT08
  0
ENDBLK
  5
F941
  8
0
  0
BLOCK
  8
0
  2
*U28
 70
     1
 10
0.0
 20
0.0
 30
0.0
  3
*U28
  1

  0
SOLID
  5
F984
  8
MOJI
 10
966.53439871335388
 20
4098.2715745836149
 30
0.0
 11
941.77759355255262
 21
4130.3892495099626
 31
0.0
 12
975.61273624834234
 22
4108.0368992263793
 32
0.0
 13
975.61273624834234
 23
4108.0368992263793
 33
0.0
  0
POLYLINE
  5
F985
  8
MOJI
 66
     1
 10
0.0
 20
0.0
 30
0.0
  0
VERTEX
  5
F986
  8
MOJI
 10
971.07356748084806
 20
4103.1542369049967
 30
0.0
  0
VERTEX
  5
F987
  8
MOJI
 10
1147.9256080488269
 20
3938.7436743522139
 30
0.0
  0
SEQEND
  5
F988
  8
MOJI
  0
ENDBLK
  5
F98A
  8
0
  0
BLOCK
  8
0
  2
*U29
 70
     1
 10
0.0
 20
0.0
 30
0.0
  3
*U29
  1

  0
SOLID
  5
F9C4
  8
MOJI
 10
696.93775896419822
 20
1918.596557359308
 30
0.0
 11
668.43834190444454
 21
1889.748200877548
 31
0.0
 12
686.04102621012737
 22
1926.2802409202129
 32
0.0
 13
686.04102621012737
 23
1926.2802409202129
 33
0.0
  0
POLYLINE
  5
F9C5
  8
MOJI
 66
     1
 10
0.0
 20
0.0
 30
0.0
  0
VERTEX
  5
F9C6
  8
MOJI
 10
691.48939258716291
 20
1922.4383991397599
 30
0.0
  0
VERTEX
  5
F9C7
  8
MOJI
 10
1085.1243136828989
 20
2480.677751899384
 30
0.0
  0
SEQEND
  5
F9C8
  8
MOJI
  0
ENDBLK
  5
F9CA
  8
0
  0
BLOCK
  8
0
  2
*U30
 70
     1
 10
0.0
 20
0.0
 30
0.0
  3
*U30
  1

  0
SOLID
  5
F9CC
  8
MOJI
 10
999.70411001851176
 20
3493.0255670702518
 30
0.0
 11
978.66921052743783
 21
3527.695113474047
 31
0.0
 12
1009.811265636441
 22
3501.7217261702658
 32
0.0
 13
1009.811265636441
 23
3501.7217261702658
 33
0.0
  0
POLYLINE
  5
F9CD
  8
MOJI
 66
     1
 10
0.0
 20
0.0
 30
0.0
  0
VERTEX
  5
F9CE
  8
MOJI
 10
1004.757687827476
 20
3497.373646620259
 30
0.0
  0
VERTEX
  5
F9CF
  8
MOJI
 10
1190.593974071656
 20
3281.3844676130361
 30
0.0
  0
SEQEND
  5
F9D0
  8
MOJI
  0
ENDBLK
  5
F9D2
  8
0
  0
BLOCK
  8
0
  2
*U31
 70
     1
 10
0.0
 20
0.0
 30
0.0
  3
*U31
  1

  0
TEXT
  5
FA0D
  8
MOJI
 10
350.06455167308229
 20
4005.5092419483649
 30
0.0
 40
60.0
  1
    手摺端末
 41
0.8
  7
EXT08
  0
ENDBLK
  5
FA0F
  8
0
  0
BLOCK
  8
0
  2
*U32
 70
     1
 10
0.0
 20
0.0
 30
0.0
  3
*U32
  1

  0
SOLID
  5
FA11
  8
MOJI
 10
805.34576217475615
 20
4105.5064438019244
 30
0.0
 11
836.90263804011909
 21
4130.9742279627517
 31
0.0
 12
815.31136113855757
 22
4096.6484183407701
 32
0.0
 13
815.31136113855757
 23
4096.6484183407701
 33
0.0
  0
POLYLINE
  5
FA12
  8
MOJI
 66
     1
 10
0.0
 20
0.0
 30
0.0
  0
VERTEX
  5
FA13
  8
MOJI
 10
810.32856165665692
 20
4101.0774310713477
 30
0.0
  0
VERTEX
  5
FA14
  8
MOJI
 10
710.39604293071159
 20
3988.6497337890669
 30
0.0
  0
SEQEND
  5
FA15
  8
MOJI
  0
ENDBLK
  5
FA17
  8
0
  0
BLOCK
  8
0
  2
*U33
 70
     1
 10
0.0
 20
0.0
 30
0.0
  3
*U33
  1

  0
SOLID
  5
FA19
  8
MOJI
 10
968.48480948713541
 20
4246.8046989564082
 30
0.0
 11
939.02681492889917
 21
4218.9358812374703
 31
0.0
 12
957.85394998054835
 22
4254.8522205580548
 32
0.0
 13
957.85394998054835
 23
4254.8522205580548
 33
0.0
  0
POLYLINE
  5
FA1A
  8
MOJI
 66
     1
 10
0.0
 20
0.0
 30
0.0
  0
VERTEX
  5
FA1B
  8
MOJI
 10
963.16937973384188
 20
4250.8284597572319
 30
0.0
  0
VERTEX
  5
FA1C
  8
MOJI
 10
1089.8392008357421
 20
4418.1606072823961
 30
0.0
  0
SEQEND
  5
FA1D
  8
MOJI
  0
ENDBLK
  5
FA1F
  8
0
  0
BLOCK
  8
0
  2
*U34
 70
     1
 10
0.0
 20
0.0
 30
0.0
  3
*U34
  1

  0
TEXT
  5
FA21
  8
MOJI
 10
4214.4192670678376
 20
2588.8485358886478
 30
0.0
 40
60.0
  1
手摺ジョイントカバー
 41
0.8
  7
EXT08
  0
ENDBLK
  5
FA23
  8
0
  0
BLOCK
  8
0
  2
*U35
 70
     1
 10
0.0
 20
0.0
 30
0.0
  3
*U35
  1

  0
TEXT
  5
FA25
  8
MOJI
 10
4375.7837861728549
 20
1752.3287058606229
 30
0.0
 40
60.0
  1
    手摺受金具
 41
0.8
  7
EXT08
  0
ENDBLK
  5
FA27
  8
0
  0
BLOCK
  8
0
  2
*U36
 70
     1
 10
0.0
 20
0.0
 30
0.0
  3
*U36
  1

  0
TEXT
  5
FA29
  8
MOJI
 10
5554.5021757892628
 20
1748.7698964342439
 30
0.0
 40
60.0
  1
M8×25
 41
0.8
  7
EXT08
  0
ENDBLK
  5
FA2B
  8
0
  0
BLOCK
  8
0
  2
*U37
 70
     1
 10
0.0
 20
0.0
 30
0.0
  3
*U37
  1

  0
TEXT
  5
FA2D
  8
MOJI
 10
5488.0977116842196
 20
1837.8149772254369
 30
0.0
 40
60.0
  1
六角穴付ボルト
 41
0.8
  7
EXT08
  0
ENDBLK
  5
FA2F
  8
0
  0
BLOCK
  8
0
  2
*U38
 70
     1
 10
0.0
 20
0.0
 30
0.0
  3
*U38
  1

  0
TEXT
  5
FA31
  8
MOJI
 10
5486.2014357809094
 20
2347.0063115925541
 30
0.0
 40
60.0
  1
インナージョイント
 41
0.8
  7
EXT08
  0
ENDBLK
  5
FA33
  8
0
  0
BLOCK
  8
0
  2
*U39
 70
     1
 10
0.0
 20
0.0
 30
0.0
  3
*U39
  1

  0
SOLID
  5
FA3E
  8
MOJI
 10
4970.6484124580857
 20
1807.9019972323881
 30
0.0
 11
5010.4077466385716
 21
1815.879452338427
 31
0.0
 12
4975.3848483941238
 22
1795.4382918282331
 32
0.0
 13
4975.3848483941238
 23
1795.4382918282331
 33
0.0
  0
POLYLINE
  5
FA3F
  8
MOJI
 66
     1
 10
0.0
 20
0.0
 30
0.0
  0
VERTEX
  5
FA40
  8
MOJI
 10
4973.0166304261047
 20
1801.6701445303099
 30
0.0
  0
VERTEX
  5
FA41
  8
MOJI
 10
4781.2530567826943
 20
1728.7964804011001
 30
0.0
  0
SEQEND
  5
FA42
  8
MOJI
  0
ENDBLK
  5
FA44
  8
0
  0
BLOCK
  8
0
  2
*U40
 70
     1
 10
0.0
 20
0.0
 30
0.0
  3
*U40
  1

  0
SOLID
  5
FA46
  8
MOJI
 10
5125.0994604471516
 20
1864.7042018308859
 30
0.0
 11
5100.8327891441404
 21
1897.1937864437441
 31
0.0
 12
5134.3249110619699
 22
1874.330667367693
 32
0.0
 13
5134.3249110619699
 23
1874.330667367693
 33
0.0
  0
POLYLINE
  5
FA47
  8
MOJI
 66
     1
 10
0.0
 20
0.0
 30
0.0
  0
VERTEX
  5
FA48
  8
MOJI
 10
5129.7121857545608
 20
1869.51743459929
 30
0.0
  0
VERTEX
  5
FA49
  8
MOJI
 10
5447.44434219308
 20
1565.021219788604
 30
0.0
  0
SEQEND
  5
FA4A
  8
MOJI
  0
ENDBLK
  5
FA4C
  8
0
  0
BLOCK
  8
0
  2
*U41
 70
     1
 10
0.0
 20
0.0
 30
0.0
  3
*U41
  1

  0
SOLID
  5
FA4E
  8
MOJI
 10
5287.6130809404913
 20
1903.374124632031
 30
0.0
 11
5256.9276668277716
 21
1929.885439295311
 31
0.0
 12
5294.5526741224876
 22
1914.7591948666029
 32
0.0
 13
5294.5526741224876
 23
1914.7591948666029
 33
0.0
  0
POLYLINE
  5
FA4F
  8
MOJI
 66
     1
 10
0.0
 20
0.0
 30
0.0
  0
VERTEX
  5
FA50
  8
MOJI
 10
5291.0828775314903
 20
1909.0666597493171
 30
0.0
  0
VERTEX
  5
FA51
  8
MOJI
 10
5436.620762803941
 20
1820.3562964796879
 30
0.0
  0
SEQEND
  5
FA52
  8
MOJI
  0
ENDBLK
  5
FA54
  8
0
  0
BLOCK
  8
0
  2
*U42
 70
     1
 10
0.0
 20
0.0
 30
0.0
  3
*U42
  1

  0
SOLID
  5
FA56
  8
MOJI
 10
5305.0819811046649
 20
2092.6129828255139
 30
0.0
 11
5276.1279321548418
 21
2064.2209506006848
 31
0.0
 12
5294.3086707101356
 22
2100.4687807430341
 32
0.0
 13
5294.3086707101356
 23
2100.4687807430341
 33
0.0
  0
POLYLINE
  5
FA57
  8
MOJI
 66
     1
 10
0.0
 20
0.0
 30
0.0
  0
VERTEX
  5
FA58
  8
MOJI
 10
5299.6953259073998
 20
2096.540881784274
 30
0.0
  0
VERTEX
  5
FA59
  8
MOJI
 10
5459.2703087020891
 20
2315.3793548329568
 30
0.0
  0
SEQEND
  5
FA5A
  8
MOJI
  0
ENDBLK
  5
FA5C
  8
0
  0
BLOCK
  8
0
  2
*U43
 70
     1
 10
0.0
 20
0.0
 30
0.0
  3
*U43
  1

  0
SOLID
  5
FA5E
  8
MOJI
 10
4983.3751251676431
 20
2255.669813920912
 30
0.0
 11
4998.8318546252149
 21
2218.1793623509479
 31
0.0
 12
4972.0515586831971
 22
2248.6303096876459
 32
0.0
 13
4972.0515586831971
 23
2248.6303096876459
 33
0.0
  0
POLYLINE
  5
FA5F
  8
MOJI
 66
     1
 10
0.0
 20
0.0
 30
0.0
  0
VERTEX
  5
FA60
  8
MOJI
 10
4977.7133419254196
 20
2252.1500618042792
 30
0.0
  0
VERTEX
  5
FA61
  8
MOJI
 10
4781.9206001347366
 20
2567.0972591312611
 30
0.0
  0
SEQEND
  5
FA62
  8
MOJI
  0
ENDBLK
  5
FA64
  8
0
  0
BLOCK
  8
0
  2
*U44
 70
     1
 10
0.0
 20
0.0
 30
0.0
  3
*U44
  1

  0
TEXT
  5
FA66
  8
MOJI
 10
5686.8841887534008
 20
2239.5350089736721
 30
0.0
 40
60.0
  1
t2.3
 41
0.8
  7
EXT08
  0
ENDBLK
  5
FA68
  8
0
  0
BLOCK
  8
0
  2
*U45
 70
     1
 10
0.0
 20
0.0
 30
0.0
  3
*U45
  1

  0
TEXT
  5
FA6A
  8
MOJI
 10
4315.5552594232649
 20
2481.5994037063952
 30
0.0
 40
60.0
  1
(\U+220540用)
 41
0.8
  7
EXT08
  0
ENDBLK
  5
FA6C
  8
0
  0
BLOCK
  8
0
  2
*U46
 70
     1
 10
0.0
 20
0.0
 30
0.0
  3
*U46
  1

  0
TEXT
  5
FA6E
  8
MOJI
 10
5453.9966401745278
 20
1495.3246903808131
 30
0.0
 40
60.0
  1
M8×25+ナット
 41
0.8
  7
EXT08
  0
ENDBLK
  5
FA70
  8
0
  0
BLOCK
  8
0
  2
*U47
 70
     1
 10
0.0
 20
0.0
 30
0.0
  3
*U47
  1

  0
TEXT
  5
FA72
  8
MOJI
 10
5494.0463520246276
 20
1584.369771172006
 30
0.0
 40
60.0
  1
六角穴付ボルト
 41
0.8
  7
EXT08
  0
ENDBLK
  5
FA74
  8
0
  0
BLOCK
  8
0
  2
*U48
 70
     1
 10
0.0
 20
0.0
 30
0.0
  3
*U48
  1

  0
SOLID
  5
FA9D
  8
MOJI
 10
1925.8549680077131
 20
4245.4802309932984
 30
0.0
 11
1899.5423945603361
 21
4214.624227962755
 31
0.0
 12
1914.4253144060581
 22
4252.3461465421469
 32
0.0
 13
1914.4253144060581
 23
4252.3461465421469
 33
0.0
  0
POLYLINE
  5
FA9E
  8
MOJI
 66
     1
 10
0.0
 20
0.0
 30
0.0
  0
VERTEX
  5
FA9F
  8
MOJI
 10
1920.1401412068849
 20
4248.9131887677231
 30
0.0
  0
VERTEX
  5
FAA0
  8
MOJI
 10
2003.1212011192549
 20
4387.051323958668
 30
0.0
  0
SEQEND
  5
FAA1
  8
MOJI
  0
ENDBLK
  5
FAA3
  8
0
  0
BLOCK
  8
0
  2
*U49
 70
     1
 10
0.0
 20
0.0
 30
0.0
  3
*U49
  1

  0
SOLID
  5
FAB3
  8
MOJI
 10
2969.5153483094232
 20
2136.0042039080809
 30
0.0
 11
2943.2027748620462
 21
2105.1482008775379
 31
0.0
 12
2958.0856947077668
 22
2142.8701194569298
 32
0.0
 13
2958.0856947077668
 23
2142.8701194569298
 33
0.0
  0
POLYLINE
  5
FAB4
  8
MOJI
 66
     1
 10
0.0
 20
0.0
 30
0.0
  0
VERTEX
  5
FAB5
  8
MOJI
 10
2963.800521508595
 20
2139.437161682506
 30
0.0
  0
VERTEX
  5
FAB6
  8
MOJI
 10
3046.7815814209639
 20
2277.57529687345
 30
0.0
  0
SEQEND
  5
FAB7
  8
MOJI
  0
ENDBLK
  5
FAB9
  8
0
  0
ENDSEC
  0
SECTION
  2
ENTITIES
  0
LINE
  5
B8
  8
KASOU
 10
6289.7666286695767
 20
3414.6242279628059
 30
0.0
 11
6289.7666286695767
 21
4402.3759010851081
 31
0.0
  0
LINE
  5
1C8
  8
SJC
 10
6561.1646086237779
 20
3414.6242279628059
 30
0.0
 11
6154.7450368780592
 21
3414.6242279628059
 31
0.0
  0
TEXT
  5
36A
  8
SJC
 10
524.56936287949793
 20
4966.7684625358052
 30
0.0
 40
80.0
  1
設置図 (1/20)
 41
0.8
  7
EXT08
  0
LINE
  5
36C
  8
SJC
 10
510.72421284182929
 20
4951.2853144535929
 30
0.0
 11
743.70638890462578
 21
4951.2853144535929
 31
0.0
  0
DIMENSION
  5
3D9
  8
SUNPOU
  2
*D1
 10
818.66921052743805
 20
4660.1407587824451
 30
0.0
 11
873.66921052743794
 21
4726.3853636640142
 31
0.0
 70
   128
  1
(<>)
 13
928.66921052743783
 23
4452.8757406948198
 33
0.0
 14
818.66921052743805
 24
4158.2742279625254
 34
0.0
1001
ACAD
1000
DSTYLE
1002
{
1070
   287
1070
     5
1070
    40
1040
20.0
1070
    41
1040
2.0
1070
    42
1040
1.0
1070
    43
1040
6.0
1070
    44
1040
1.0
1070
    73
1070
     0
1070
    74
1070
     0
1070
    77
1070
     1
1070
    78
1070
     8
1070
   140
1040
3.0
1070
   147
1040
1.1999999999999991
1070
   172
1070
     1
1070
   176
1070
   256
1070
   177
1070
   256
1070
   178
1070
   256
1070
   271
1070
     1
1070
   275
1070
     1
1070
   279
1070
     2
1070
   287
1070
     5
1070
   340
1005
614
1002
}
  0
TEXT
  5
3EA
  8
MOJI
 10
675.29408801631143
 20
3433.472490811137
 30
0.0
 40
60.0
  1
GL
 41
0.8
  7
EXT08
  0
DIMENSION
  5
3F2
  8
SUNPOU
  2
*D0
 10
2928.6692105274378
 20
4660.1407587824451
 30
0.0
 11
1928.6692105274381
 21
4714.1407587824451
 31
0.0
 70
     0
 13
928.66921052743783
 23
4452.8757406948198
 33
0.0
 14
2928.6692105274378
 24
4452.8757406948207
 34
0.0
1001
ACAD
1000
DSTYLE
1002
{
1070
   287
1070
     5
1070
    40
1040
20.0
1070
    41
1040
2.0
1070
    42
1040
1.0
1070
    43
1040
6.0
1070
    44
1040
1.0
1070
    73
1070
     0
1070
    74
1070
     0
1070
    77
1070
     1
1070
    78
1070
     8
1070
   140
1040
3.0
1070
   147
1040
1.1999999999999991
1070
   172
1070
     1
1070
   176
1070
   256
1070
   177
1070
   256
1070
   178
1070
   256
1070
   271
1070
     1
1070
   275
1070
     1
1070
   279
1070
     2
1070
   287
1070
     5
1070
   340
1005
614
1002
}
  0
TEXT
  5
401
  8
SUNPOU
 10
2964.0307484749578
 20
2638.8072985757399
 30
0.0
 40
60.0
  1
2000
 41
0.8
  7
EXT08
  0
LINE
  5
402
  8
SUNPOU
 10
2641.0082660499052
 20
2365.7465057071181
 30
0.0
 11
2641.0082660499052
 21
2638.8072985757399
 31
0.0
  0
INSERT
  5
403
  8
0
  2
*U25
 10
0.0
 20
0.0
 30
0.0
1001
ACAD
1000
DSTYLE
1002
{
1070
     5
1000

1070
    41
1040
40.0
1070
    42
1040
20.0
1070
    43
1040
120.0
1070
    44
1040
20.0
1070
    73
1070
     0
1070
    74
1070
     0
1070
    77
1070
     1
1070
    78
1070
     8
1070
   140
1040
60.0
1070
   144
1040
0.5
1070
   147
1040
30.0
1070
   172
1070
     1
1070
   176
1070
   256
1070
   177
1070
   256
1070
   178
1070
   256
1070
   271
1070
     2
1070
   340
1005
1C
1070
   342
1005
0
1002
}
  0
TEXT
  5
46B
  8
SUNPOU
 10
2139.4295659336349
 20
2638.8072985757399
 30
0.0
 40
60.0
  1
2000
 41
0.8
  7
EXT08
  0
LINE
  5
46D
  8
SJC
 10
1315.6411855026381
 20
2806.438944443144
 30
0.0
 11
1558.001448559666
 21
2806.438944443144
 31
0.0
  0
TEXT
  5
46E
  8
SJC
 10
1332.537491037041
 20
2829.5129586212938
 30
0.0
 40
80.0
  1
取付図 (1/10)
 41
0.8
  7
EXT08
  0
INSERT
  5
474
  8
0
  2
*U26
 10
0.0
 20
0.0
 30
0.0
1001
ACAD
1000
DSTYLE
1002
{
1070
     5
1000

1070
    41
1040
40.0
1070
    42
1040
20.0
1070
    43
1040
120.0
1070
    44
1040
20.0
1070
    73
1070
     0
1070
    74
1070
     0
1070
    77
1070
     1
1070
    78
1070
     8
1070
   140
1040
60.0
1070
   144
1040
0.5
1070
   147
1040
30.0
1070
   172
1070
     1
1070
   176
1070
   256
1070
   177
1070
   256
1070
   178
1070
   256
1070
   271
1070
     2
1070
   340
1005
1C
1070
   342
1005
0
1002
}
  0
TEXT
  5
475
  8
MOJI
 10
1913.1820488183689
 20
523.87800517558389
 30
0.0
 40
60.0
  1
GL
 41
0.8
  7
EXT08
  0
LINE
  5
476
  8
SJC
 10
1862.0952070693529
 20
505.14820087754208
 30
0.0
 11
3431.1424125602639
 21
505.14820087754208
 31
0.0
  0
LINE
  5
4F5
  8
SJC
 10
647.63837311915631
 20
3414.6242279628059
 30
0.0
 11
5296.9125209443146
 21
3414.6242279628059
 31
0.0
  0
LINE
  5
1202
  8
MOJI
 10
6052.2018341951089
 20
1272.609944873773
 30
0.0
 11
6052.201834195107
 21
372.6099448737732
 31
0.0
  0
LINE
  5
1205
  8
MOJI
 10
5315.332793244007
 20
1272.609944873773
 30
0.0
 11
5315.332793244007
 21
372.6099448737732
 31
0.0
  0
LINE
  5
1206
  8
MOJI
 10
4235.458380555373
 20
372.6099448737732
 30
0.0
 11
4235.4583805553702
 21
1272.609944873773
 31
0.0
  0
LINE
  5
1207
  8
MOJI
 10
4835.789887332282
 20
372.6099448737732
 30
0.0
 11
4835.7898873322792
 21
1272.609944873773
 31
0.0
  0
TEXT
  5
1208
  8
MOJI
 10
5587.6162617279024
 20
1190.954609871899
 30
0.0
 40
59.999999999999993
  1
摘  要
 41
0.8
  7
EXT08
 72
     1
 11
5668.073404585045
 21
1190.954609871899
 31
0.0
  0
TEXT
  5
1209
  8
MOJI
 10
4999.6400907373854
 20
1192.8894242962001
 30
0.0
 40
59.999999999999993
  1
材  質
 41
0.8
  7
EXT08
 72
     1
 11
5079.6400907373854
 21
1192.8894242962001
 31
0.0
  0
TEXT
  5
120A
  8
MOJI
 10
4455.6916806623094
 20
1192.8894242962001
 30
0.0
 40
59.999999999999993
  1
品  名
 41
0.8
  7
EXT08
 72
     1
 11
4534.091680662309
 21
1192.8894242962001
 31
0.0
  0
TEXT
  5
1412
  8
MOJI
 10
5386.4734045850446
 20
697.20511264441939
 30
0.0
 40
59.999999999999993
  1
高耐食溶融めっき鋼板
 41
0.8
  7
EXT08
 72
     1
 11
5668.073404585044
 21
697.20511264441939
 31
0.0
  0
TEXT
  5
1418
  8
MOJI
 10
5445.6734045850444
 20
787.79570595863152
 30
0.0
 40
59.999999999999993
  1
ポリカーボネート
 41
0.8
  7
EXT08
 72
     1
 11
5668.073404585044
 21
787.79570595863152
 31
0.0
  0
LINE
  5
141E
  8
MOJI
 10
4235.4583805553702
 20
472.60994487377309
 30
0.0
 11
6052.2018341951089
 21
472.60994487377309
 31
0.0
  0
LINE
  5
141F
  8
MOJI
 10
4235.4583805553702
 20
572.60994487377309
 30
0.0
 11
6052.2018341951089
 21
572.60994487377309
 31
0.0
  0
LINE
  5
1420
  8
MOJI
 10
4235.4583805553702
 20
672.60994487377309
 30
0.0
 11
6052.2018341951089
 21
672.60994487377309
 31
0.0
  0
LINE
  5
1421
  8
MOJI
 10
4235.4583805553702
 20
772.60994487377309
 30
0.0
 11
6052.2018341951089
 21
772.60994487377309
 31
0.0
  0
LINE
  5
1422
  8
MOJI
 10
4235.4583805553702
 20
872.6099448737732
 30
0.0
 11
6052.2018341951089
 21
872.6099448737732
 31
0.0
  0
LINE
  5
1423
  8
MOJI
 10
4235.4583805553702
 20
972.6099448737732
 30
0.0
 11
6052.2018341951089
 21
972.6099448737732
 31
0.0
  0
LINE
  5
1424
  8
MOJI
 10
4235.4583805553702
 20
1072.609944873773
 30
0.0
 11
6052.2018341951089
 21
1072.609944873773
 31
0.0
  0
LINE
  5
1425
  8
MOJI
 10
4235.4583805553702
 20
1172.609944873773
 30
0.0
 11
6052.2018341951089
 21
1172.609944873773
 31
0.0
  0
TEXT
  5
142C
  8
MOJI
 10
4255.6916806623112
 20
796.60583113169014
 30
0.0
 40
59.999999999999993
  1
手摺ジョイントカバー
 41
0.8
  7
EXT08
 72
     1
 11
4534.09168066231
 21
796.60583113169014
 31
0.0
  0
TEXT
  5
1432
  8
MOJI
 10
4398.09168066231
 20
590.82609112155023
 30
0.0
 40
59.999999999999993
  1
手摺ビーム
 41
0.8
  7
EXT08
 72
     1
 11
4534.09168066231
 21
590.82609112155023
 31
0.0
  0
TEXT
  5
1434
  8
MOJI
 10
4886.0400907373851
 20
692.44601543668705
 30
0.0
 40
59.999999999999993
  1
SGH400相当
 41
0.8
  7
EXT08
 72
     1
 11
5079.6400907373863
 21
692.44601543668705
 31
0.0
  0
TEXT
  5
1437
  8
MOJI
 10
5030.4972335945286
 20
792.44601543668705
 30
0.0
 40
59.999999999999993
  1
PC
 41
0.8
  7
EXT08
 72
     1
 11
5079.6400907373863
 21
792.44601543668705
 31
0.0
  0
TEXT
  5
1442
  8
MOJI
 10
4343.6916806623103
 20
895.20545666440921
 30
0.0
 40
59.999999999999993
  1
六角穴付ボルト
 41
0.8
  7
EXT08
 72
     1
 11
4534.091680662309
 21
895.20545666440921
 31
0.0
  0
TEXT
  5
1443
  8
MOJI
 10
4343.6916806623103
 20
995.20545666440921
 30
0.0
 40
59.999999999999993
  1
六角穴付ボルト
 41
0.8
  7
EXT08
 72
     1
 11
4534.091680662309
 21
995.20545666440921
 31
0.0
  0
TEXT
  5
1444
  8
MOJI
 10
4396.4916806623087
 20
1090.82609112155
 30
0.0
 40
59.999999999999993
  1
手摺受金具
 41
0.8
  7
EXT08
 72
     1
 11
4534.091680662309
 21
1090.82609112155
 31
0.0
  0
TEXT
  5
1452
  8
MOJI
 10
4938.8400907373862
 20
1090.5337761204751
 30
0.0
 40
59.999999999999993
  1
アルミ合金
 41
0.8
  7
EXT08
 72
     1
 11
5079.6400907373854
 21
1090.5337761204751
 31
0.0
  0
TEXT
  5
1453
  8
MOJI
 10
5008.7829478802423
 20
997.3674829131478
 30
0.0
 40
59.999999999999993
  1
SUS
 41
0.8
  7
EXT08
 72
     1
 11
5079.6400907373854
 21
997.3674829131478
 31
0.0
  0
TEXT
  5
1454
  8
MOJI
 10
5008.7829478802423
 20
892.44601543668705
 30
0.0
 40
59.999999999999993
  1
SUS
 41
0.8
  7
EXT08
 72
     1
 11
5079.6400907373854
 21
892.44601543668705
 31
0.0
  0
TEXT
  5
145F
  8
MOJI
 10
5501.6734045850453
 20
1093.422704767813
 30
0.0
 40
59.999999999999993
  1
　焼付塗装
 41
0.8
  7
EXT08
 72
     1
 11
5668.073404585045
 21
1093.422704767813
 31
0.0
  0
TEXT
  5
1461
  8
MOJI
 10
5433.7876902993303
 20
892.28072435362901
 30
0.0
 40
59.999999999999993
  1
M8\U+00d725+ナット
 41
0.8
  7
EXT08
 72
     1
 11
5668.073404585044
 21
892.28072435362901
 31
0.0
  0
LINE
  5
1499
  8
MOJI
 10
4235.4583805553702
 20
1272.609944873773
 30
0.0
 11
6052.2018341951089
 21
1272.609944873773
 31
0.0
  0
LINE
  5
14A8
  8
SJC
 10
510.72421284182929
 20
4931.285314453592
 30
0.0
 11
743.70638890462578
 21
4931.285314453592
 31
0.0
  0
LINE
  5
153F
  8
SUNPOU
  6
BYBLOCK
 10
4968.6692105274378
 20
4660.1407587824451
 30
0.0
 11
5291.2410144712721
 21
4660.1407587824451
 31
0.0
  0
SOLID
  5
1540
  8
SUNPOU
  6
BYBLOCK
 10
4968.6692105274378
 20
4666.8074254491121
 30
0.0
 11
4968.6692105274378
 21
4653.4740921157781
 31
0.0
 12
4928.6692105274378
 22
4660.1407587824451
 32
0.0
 13
4928.6692105274378
 23
4660.1407587824451
 33
0.0
  0
INSERT
  5
1542
  8
0
  2
*U27
 10
0.0
 20
0.0
 30
0.0
  0
LINE
  5
1573
  8
SJC
 10
1315.6411855026381
 20
2786.438944443144
 30
0.0
 11
1558.001448559666
 21
2786.438944443144
 31
0.0
  0
LINE
  5
1D5E
  8
MOJI
  6
CONTINUOUS
 10
1681.0925259821461
 20
4418.1606072823961
 30
0.0
 11
1089.8392008357421
 21
4418.1606072823961
 31
0.0
  0
TEXT
  5
1D5F
  8
MOJI
 10
1113.965138391758
 20
4437.1108107025702
 30
0.0
 40
59.999999999999993
  1
手摺ジョイントカバー
 41
0.8
  7
EXT08
  0
TEXT
  5
1D60
  8
MOJI
 10
1155.0096505592151
 20
3961.1320434995209
 30
0.0
 40
59.999999999999993
  1
手摺受金具
 41
0.8
  7
EXT08
  0
LINE
  5
1D61
  8
MOJI
  6
CONTINUOUS
 10
1147.9256080488269
 20
3938.7436743522139
 30
0.0
 11
1455.206832866899
 21
3938.7436743522139
 31
0.0
  0
LINE
  5
2DC8
  8
CENTER
 10
2641.0082660499052
 20
459.40715643210939
 30
0.0
 11
2641.0082660499052
 21
2334.8000437753649
 31
0.0
  0
DIMENSION
  5
3058
  8
SUNPOU
  2
*D2
 10
6289.7666286695767
 20
4501.4081948615931
 30
0.0
 11
6258.3091003197587
 21
4578.4274697152414
 31
0.0
 70
   128
  1
(<>)
 13
6239.7666286695767
 23
4190.3408308165153
 33
0.0
 14
6289.7666286695767
 24
4402.3759010851081
 34
0.0
1001
ACAD
1000
DSTYLE
1002
{
1070
   287
1070
     5
1070
    40
1040
20.0
1070
    41
1040
2.0
1070
    42
1040
1.0
1070
    43
1040
6.0
1070
    44
1040
1.0
1070
    73
1070
     0
1070
    74
1070
     0
1070
    77
1070
     1
1070
    78
1070
     8
1070
   140
1040
3.0
1070
   147
1040
1.1999999999999991
1070
   172
1070
     1
1070
   179
1070
     2
1070
   271
1070
     2
1070
   279
1070
     2
1070
   287
1070
     5
1070
   340
1005
614
1002
}
  0
LINE
  5
6269
  8
MOJI
 10
4235.4583805553702
 20
372.6099448737732
 30
0.0
 11
6052.2018341951089
 21
372.6099448737732
 31
0.0
  0
TEXT
  5
626D
  8
MOJI
 10
4425.2916806623107
 20
490.82609112155018
 30
0.0
 40
59.999999999999993
  1
手摺端末
 41
0.8
  7
EXT08
 72
     1
 11
4534.09168066231
 21
490.82609112155018
 31
0.0
  0
DIMENSION
  5
69D4
  8
SUNPOU
  2
*D3
 10
4928.6692105274378
 20
4660.1407587824451
 30
0.0
 11
3928.6692105274378
 21
4714.1407587824451
 31
0.0
 70
     0
 13
2928.6692105274378
 23
4452.8757406948207
 33
0.0
 14
4928.6692105274378
 24
4452.8757406948207
 34
0.0
1001
ACAD
1000
DSTYLE
1002
{
1070
   287
1070
     5
1070
    40
1040
20.0
1070
    41
1040
2.0
1070
    42
1040
1.0
1070
    43
1040
6.0
1070
    44
1040
1.0
1070
    73
1070
     0
1070
    74
1070
     0
1070
    77
1070
     1
1070
    78
1070
     8
1070
   140
1040
3.0
1070
   147
1040
1.1999999999999991
1070
   172
1070
     1
1070
   176
1070
   256
1070
   177
1070
   256
1070
   178
1070
   256
1070
   271
1070
     1
1070
   275
1070
     1
1070
   279
1070
     2
1070
   287
1070
     5
1070
   340
1005
614
1002
}
  0
LINE
  5
6EA1
  8
CENTER
 10
928.66921052743783
 20
3366.6595785169711
 30
0.0
 11
928.66921052743783
 21
4452.8757406948198
 31
0.0
  0
TEXT
  5
8883
  8
MOJI
 10
5368.8324697244316
 20
393.42270476781232
 30
0.0
 40
59.999999999999993
  1
M10\U+00d7150＋袋ナット
 41
0.8
  7
EXT08
 72
     1
 11
5676.7181840101448
 21
393.42270476781232
 31
0.0
  0
TEXT
  5
8885
  8
MOJI
 10
5009.4432514529954
 20
392.44601543668801
 30
0.0
 40
59.999999999999993
  1
SUS
 41
0.8
  7
EXT08
 72
     1
 11
5080.3003943101367
 21
392.44601543668801
 31
0.0
  0
TEXT
  5
8887
  8
MOJI
 10
4401.2916806623107
 20
390.82609112155211
 30
0.0
 40
59.999999999999993
  1
六角ボルト
 41
0.8
  7
EXT08
 72
     1
 11
4534.0916806623118
 21
390.82609112155211
 31
0.0
  0
TEXT
  5
889C
  8
MOJI
 10
4282.891680662311
 20
690.66610667993507
 30
0.0
 40
59.999999999999993
  1
インナージョイント
 41
0.8
  7
EXT08
 72
     1
 11
4534.09168066231
 21
690.66610667993507
 31
0.0
  0
TEXT
  5
9C17
  8
MOJI
 10
6145.4648239623202
 20
3433.472490811137
 30
0.0
 40
60.0
  1
GL
 41
0.8
  7
EXT08
  0
LINE
  5
A17E
  8
SJC2
 10
845.52678559034018
 20
4402.3759010851072
 30
0.0
 11
905.37248682484142
 21
4402.3759010851072
 31
0.0
  0
LINE
  5
A17F
  8
SJC2
 10
951.96593423003549
 20
4402.3759010851072
 30
0.0
 11
951.96593423003549
 21
4415.1004411697968
 31
0.0
  0
LINE
  5
A181
  8
SJC2
 10
905.37248682484142
 20
4389.6513610004158
 30
0.0
 11
951.96593423003549
 21
4415.1004411697968
 31
0.0
  0
LINE
  5
A182
  8
SJC2
 10
905.37248682484142
 20
4389.6513610004158
 30
0.0
 11
905.37248682484142
 21
4402.3759010851072
 31
0.0
  0
LINE
  5
A183
  8
SJC2
 10
951.96593423003549
 20
4402.3759010851072
 30
0.0
 11
1011.8116354645369
 21
4402.3759010851072
 31
0.0
  0
LINE
  5
A1B6
  8
SJC2
 10
2905.3724868248401
 20
4389.6513610004158
 30
0.0
 11
2951.9659342300351
 21
4415.1004411697968
 31
0.0
  0
LINE
  5
A1B7
  8
SJC2
 10
2951.9659342300351
 20
4402.3759010851072
 30
0.0
 11
3011.8116354645358
 21
4402.3759010851072
 31
0.0
  0
LINE
  5
A1B8
  8
SJC2
 10
2951.9659342300351
 20
4402.3759010851072
 30
0.0
 11
2951.9659342300351
 21
4415.1004411697968
 31
0.0
  0
LINE
  5
A1BA
  8
SJC2
 10
2845.5267855903389
 20
4402.3759010851072
 30
0.0
 11
2905.3724868248401
 21
4402.3759010851072
 31
0.0
  0
LINE
  5
A1BB
  8
SJC2
 10
2905.3724868248401
 20
4389.6513610004158
 30
0.0
 11
2905.3724868248401
 21
4402.3759010851072
 31
0.0
  0
LINE
  5
A1BD
  8
SJC2
 10
4905.372486824841
 20
4389.6513610004158
 30
0.0
 11
4951.9659342300347
 21
4415.1004411697968
 31
0.0
  0
LINE
  5
A1BE
  8
SJC2
 10
4951.9659342300347
 20
4402.3759010851072
 30
0.0
 11
5011.8116354645354
 21
4402.3759010851072
 31
0.0
  0
LINE
  5
A1BF
  8
SJC2
 10
4951.9659342300347
 20
4402.3759010851072
 30
0.0
 11
4951.9659342300347
 21
4415.1004411697968
 31
0.0
  0
LINE
  5
A1C1
  8
SJC2
 10
4845.5267855903394
 20
4402.3759010851072
 30
0.0
 11
4905.372486824841
 21
4402.3759010851072
 31
0.0
  0
LINE
  5
A1C2
  8
SJC2
 10
4905.372486824841
 20
4389.6513610004158
 30
0.0
 11
4905.372486824841
 21
4402.3759010851072
 31
0.0
  0
INSERT
  5
A378
  8
0
  2
*U28
 10
0.0
 20
0.0
 30
0.0
1001
ACAD
1000
DSTYLE
1002
{
1070
     5
1000

1070
    40
1040
20.0
1070
    41
1040
2.0
1070
    42
1040
1.0
1070
    43
1040
6.0
1070
    44
1040
1.0
1070
    73
1070
     0
1070
    74
1070
     0
1070
    77
1070
     1
1070
    78
1070
     8
1070
   140
1040
3.0
1070
   147
1040
1.1999999999999991
1070
   172
1070
     1
1070
   179
1070
     2
1070
   271
1070
     2
1070
   279
1070
     2
1070
   340
1005
614
1070
   342
1005
0
1002
}
  0
LINE
  5
A39E
  8
CENTER
 10
6339.7666286695767
 20
3366.6595785169711
 30
0.0
 11
6339.7666286695794
 21
4452.8757406948216
 31
0.0
  0
LINE
  5
A39F
  8
KASOU
 10
6389.7666286695794
 20
3414.6242279628059
 30
0.0
 11
6389.7666286695767
 21
4402.3759010851072
 31
0.0
  0
LINE
  5
A3A0
  8
SJC2
 10
6256.624203732481
 20
4402.3759010851081
 30
0.0
 11
6316.4699049669816
 21
4402.3759010851081
 31
0.0
  0
LINE
  5
A3A1
  8
SJC2
 10
6316.4699049669816
 20
4389.6513610004158
 30
0.0
 11
6363.0633523721763
 21
4415.1004411697968
 31
0.0
  0
LINE
  5
A3A2
  8
SJC2
 10
6316.4699049669816
 20
4389.6513610004158
 30
0.0
 11
6316.4699049669816
 21
4402.3759010851081
 31
0.0
  0
LINE
  5
A3A3
  8
SJC2
 10
6363.0633523721763
 20
4402.3759010851072
 30
0.0
 11
6363.0633523721763
 21
4415.1004411697968
 31
0.0
  0
LINE
  5
A3A4
  8
SJC2
 10
6363.0633523721763
 20
4402.3759010851072
 30
0.0
 11
6422.9090536066769
 21
4402.3759010851072
 31
0.0
  0
DIMENSION
  5
A7E7
  8
SUNPOU
  2
*D6
 10
5477.1321743185026
 20
3414.6242279628059
 30
0.0
 11
5423.1321743185026
 21
3814.6242279628059
 31
0.0
 70
     0
  1
H
 13
5296.9125209443418
 23
4214.6242279628059
 33
0.0
 14
5296.9125209443146
 24
3414.6242279628059
 34
0.0
 50
90.0
1001
ACAD
1000
DSTYLE
1002
{
1070
   287
1070
     5
1070
    40
1040
20.0
1070
    41
1040
2.0
1070
    42
1040
1.0
1070
    43
1040
6.0
1070
    44
1040
1.0
1070
    73
1070
     0
1070
    74
1070
     0
1070
    77
1070
     1
1070
    78
1070
     8
1070
   140
1040
3.0
1070
   147
1040
1.1999999999999991
1070
   172
1070
     1
1070
   179
1070
     2
1070
   271
1070
     2
1070
   279
1070
     2
1070
   287
1070
     5
1070
   340
1005
614
1002
}
  0
DIMENSION
  5
A811
  8
SUNPOU
  2
*D7
 10
6029.5362275769658
 20
3414.6242279628059
 30
0.0
 11
5975.5362275769648
 21
3814.6242279628082
 31
0.0
 70
     0
  1
H
 13
6219.7666286680051
 23
4214.6242279628059
 33
0.0
 14
6154.7450368780592
 24
3414.6242279628059
 34
0.0
 50
90.0
1001
ACAD
1000
DSTYLE
1002
{
1070
   287
1070
     5
1070
    40
1040
20.0
1070
    41
1040
2.0
1070
    42
1040
1.0
1070
    43
1040
6.0
1070
    44
1040
1.0
1070
    73
1070
     0
1070
    74
1070
     0
1070
    77
1070
     1
1070
    78
1070
     8
1070
   140
1040
3.0
1070
   147
1040
1.1999999999999991
1070
   172
1070
     1
1070
   179
1070
     2
1070
   271
1070
     2
1070
   279
1070
     2
1070
   287
1070
     5
1070
   340
1005
614
1002
}
  0
LINE
  5
A901
  8
SJC2
 10
2594.4148186447128
 20
2286.4158665168802
 30
0.0
 11
2687.6017134550998
 21
2337.3140268556422
 31
0.0
  0
LINE
  5
A902
  8
SJC2
 10
2687.6017134550998
 20
2311.8649466862589
 30
0.0
 11
2687.6017134550998
 21
2337.3140268556422
 31
0.0
  0
LINE
  5
A903
  8
SJC2
 10
2687.6017134550998
 20
2311.8649466862589
 30
0.0
 11
2807.293115924102
 21
2311.8649466862589
 31
0.0
  0
LINE
  5
A904
  8
SJC2
 10
2474.7234161757101
 20
2311.8649466862612
 30
0.0
 11
2594.4148186447128
 21
2311.8649466862612
 31
0.0
  0
LINE
  5
A905
  8
SJC2
 10
2594.4148186447128
 20
2286.4158665168802
 30
0.0
 11
2594.4148186447128
 21
2311.8649466862612
 31
0.0
  0
LINE
  5
AAD0
  8
KASOU
 10
768.4383419044425
 20
505.14820087754208
 30
0.0
 11
768.43834190444511
 21
2193.8993663538909
 31
0.0
  0
DIMENSION
  5
AAD1
  8
SUNPOU
  2
*D9
 10
1298.6848202771801
 20
505.14820087754202
 30
0.0
 11
1244.6848202771801
 21
1305.148200877542
 31
0.0
 70
     0
  1
H
 13
932.13834190450405
 23
2105.1482008775411
 33
0.0
 14
1144.226619020614
 24
505.14820087754208
 34
0.0
 50
90.0
1001
ACAD
1000
DSTYLE
1002
{
1070
   287
1070
     5
1070
    40
1040
20.0
1070
    41
1040
2.0
1070
    42
1040
1.0
1070
    43
1040
6.0
1070
    44
1040
1.0
1070
    78
1070
     8
1070
   140
1040
3.0
1070
   141
1040
0.09
1070
   144
1040
0.5
1070
   147
1040
1.1999999999999991
1070
   271
1070
     1
1070
   272
1070
     4
1070
   275
1070
     1
1070
   279
1070
     2
1070
   284
1070
     0
1070
   340
1005
614
1002
}
  0
LINE
  5
AAD3
  8
KASOU
 10
568.4383419044425
 20
505.14820087754208
 30
0.0
 11
568.43834190444511
 21
2193.8993663538909
 31
0.0
  0
TEXT
  5
AAD4
  8
MOJI
 10
959.66400613891335
 20
523.87800517558389
 30
0.0
 40
60.0
  1
GL
 41
0.8
  7
EXT08
  0
LINE
  5
AAD5
  8
SJC
 10
369.92287083687188
 20
505.14820087754208
 30
0.0
 11
1144.226619020614
 21
505.14820087754208
 31
0.0
  0
DIMENSION
  5
AAD6
  8
SUNPOU
  2
*D11
 10
768.4383419044425
 20
332.34502699664711
 30
0.0
 11
661.8842662739662
 21
391.76050768618018
 31
0.0
 70
   128
 13
568.4383419044425
 23
505.14820087754231
 33
0.0
 14
768.4383419044425
 24
505.14820087754208
 34
0.0
1001
ACAD
1000
DSTYLE
1002
{
1070
   287
1070
     5
1070
    40
1040
20.0
1070
    41
1040
2.0
1070
    42
1040
1.0
1070
    43
1040
6.0
1070
    44
1040
1.0
1070
    73
1070
     0
1070
    74
1070
     0
1070
    77
1070
     1
1070
    78
1070
     8
1070
   140
1040
3.0
1070
   144
1040
0.5
1070
   147
1040
1.1999999999999991
1070
   172
1070
     1
1070
   179
1070
     2
1070
   271
1070
     2
1070
   279
1070
     2
1070
   287
1070
     5
1070
   340
1005
614
1002
}
  0
DIMENSION
  5
AAD7
  8
SUNPOU
  2
*D10
 10
1163.705465149827
 20
1885.1482008775431
 30
0.0
 11
1087.8612947825491
 21
1997.1510101599031
 31
0.0
 70
   128
  1
(<>)
 13
932.1383419045037
 23
2105.1482008775411
 33
0.0
 14
888.39066778437552
 24
1885.1482008775431
 34
0.0
 50
90.0
1001
ACAD
1000
DSTYLE
1002
{
1070
   287
1070
     5
1070
    40
1040
20.0
1070
    41
1040
2.0
1070
    42
1040
1.0
1070
    43
1040
6.0
1070
    44
1040
1.0
1070
    73
1070
     0
1070
    74
1070
     0
1070
    77
1070
     1
1070
    78
1070
     8
1070
   140
1040
3.0
1070
   144
1040
0.5
1070
   147
1040
1.1999999999999991
1070
   172
1070
     1
1070
   176
1070
   256
1070
   177
1070
   256
1070
   178
1070
   256
1070
   271
1070
     1
1070
   275
1070
     1
1070
   279
1070
     2
1070
   287
1070
     5
1070
   340
1005
614
1002
}
  0
DIMENSION
  5
AAD9
  8
SUNPOU
  2
*D8
 10
768.43834190444511
 20
2319.5873153764519
 30
0.0
 11
823.45261444740765
 21
2405.902607380704
 31
0.0
 70
   128
  1
(50)
 13
870.43834190527775
 23
2065.1694143644359
 33
0.0
 14
768.43834190444511
 24
2193.8993663538909
 34
0.0
1001
ACAD
1000
DSTYLE
1002
{
1070
   287
1070
     5
1070
    40
1040
20.0
1070
    41
1040
2.0
1070
    42
1040
1.0
1070
    43
1040
6.0
1070
    44
1040
1.0
1070
    78
1070
     8
1070
   140
1040
3.0
1070
   141
1040
0.09
1070
   144
1040
0.5
1070
   147
1040
1.1999999999999991
1070
   271
1070
     1
1070
   272
1070
     4
1070
   275
1070
     1
1070
   279
1070
     2
1070
   284
1070
     0
1070
   340
1005
614
1002
}
  0
LINE
  5
ACE6
  8
CENTER
 10
668.4383419044425
 20
452.7245011747346
 30
0.0
 11
668.43834190444511
 21
2237.8675827665561
 31
0.0
  0
LINE
  5
AF9B
  8
SJC2
 10
621.84489449925138
 20
2168.4502861845099
 30
0.0
 11
715.03178930963895
 21
2219.3484465232732
 31
0.0
  0
LINE
  5
AF9C
  8
SJC2
 10
502.15349203024829
 20
2193.8993663538909
 30
0.0
 11
621.84489449925138
 21
2193.8993663538909
 31
0.0
  0
LINE
  5
AF9D
  8
SJC2
 10
621.84489449925138
 20
2168.4502861845099
 30
0.0
 11
621.84489449925138
 21
2193.8993663538909
 31
0.0
  0
LINE
  5
AF9E
  8
SJC2
 10
715.03178930963895
 20
2193.899366353889
 30
0.0
 11
834.72319177864017
 21
2193.899366353889
 31
0.0
  0
LINE
  5
AF9F
  8
SJC2
 10
715.03178930963895
 20
2193.899366353889
 30
0.0
 11
715.03178930963895
 21
2219.3484465232732
 31
0.0
  0
INSERT
  5
B280
  8
0
  2
*U29
 10
0.0
 20
0.0
 30
0.0
1001
ACAD
1000
DSTYLE
1002
{
1070
     5
1000

1070
    40
1040
20.0
1070
    41
1040
2.0
1070
    42
1040
1.0
1070
    43
1040
6.0
1070
    44
1040
1.0
1070
    73
1070
     0
1070
    74
1070
     0
1070
    77
1070
     0
1070
    78
1070
     8
1070
   140
1040
3.0
1070
   147
1040
1.1999999999999991
1070
   172
1070
     1
1070
   271
1070
     2
1070
   279
1070
     2
1070
   340
1005
614
1070
   342
1005
0
1002
}
  0
LINE
  5
B281
  8
MOJI
  6
CONTINUOUS
 10
1085.1243136828989
 20
2480.677751899384
 30
0.0
 11
1729.19881828808
 21
2480.677751899384
 31
0.0
  0
TEXT
  5
B282
  8
MOJI
 10
1115.746046858842
 20
2399.0444767699728
 30
0.0
 40
59.999999999999993
  1
既設支柱現地穴あけ
 41
0.8
  7
EXT08
  0
TEXT
  5
B283
  8
MOJI
 10
1121.176840384388
 20
2502.8383040148192
 30
0.0
 40
59.999999999999993
  1
六角ボルトM10×150
 41
0.8
  7
EXT08
  0
TEXT
  5
B284
  8
MOJI
 10
1113.57023453696
 20
2314.723133444596
 30
0.0
 40
59.999999999999993
  1
加工<%%c12~14程度>
 41
0.8
  7
EXT08
  0
LINE
  5
B554
  8
MOJI
  6
CONTINUOUS
 10
1623.1938478698719
 20
3281.3844676130361
 30
0.0
 11
1190.593974071656
 21
3281.3844676130361
 31
0.0
  0
TEXT
  5
B555
  8
MOJI
 10
1290.5975122403499
 20
3300.3346710332098
 30
0.0
 40
59.999999999999993
  1
既設支柱
 41
0.8
  7
EXT08
  0
TEXT
  5
B556
  8
MOJI
 10
1214.719911627672
 20
3202.1171055891391
 30
0.0
 40
59.999999999999993
  1
□100\U+00d7100
 41
0.8
  7
EXT08
  0
INSERT
  5
B557
  8
0
  2
*U30
 10
0.0
 20
0.0
 30
0.0
1001
ACAD
1000
DSTYLE
1002
{
1070
     5
1000

1070
    40
1040
20.0
1070
    41
1040
2.0
1070
    42
1040
1.0
1070
    43
1040
6.0
1070
    44
1040
1.0
1070
    73
1070
     0
1070
    74
1070
     0
1070
    77
1070
     1
1070
    78
1070
     8
1070
   140
1040
3.0
1070
   144
1040
0.5
1070
   147
1040
1.1999999999999991
1070
   172
1070
     1
1070
   179
1070
     2
1070
   271
1070
     2
1070
   279
1070
     2
1070
   340
1005
614
1070
   342
1005
0
1002
}
  0
TEXT
  5
C40A
  8
MOJI
 10
5836.4032781205688
 20
4869.1368251975218
 30
0.0
 40
70.0
  1
EPテスリ FH100K-20
 41
0.8
  7
EXT08
  0
DIMENSION
  5
C9DC
  8
SUNPOU
  2
*D12
 10
978.66921052743783
 20
3221.450624888806
 30
0.0
 11
912.08198331211315
 21
3274.3887028708509
 31
0.0
 70
   128
 13
878.66921052743783
 23
3414.6242279628059
 33
0.0
 14
978.66921052743783
 24
3414.6242279628059
 34
0.0
1001
ACAD
1000
DSTYLE
1002
{
1070
   287
1070
     5
1070
    40
1040
20.0
1070
    41
1040
2.0
1070
    42
1040
1.0
1070
    43
1040
6.0
1070
    44
1040
1.0
1070
    73
1070
     0
1070
    74
1070
     0
1070
    77
1070
     1
1070
    78
1070
     8
1070
   140
1040
3.0
1070
   147
1040
1.1999999999999991
1070
   172
1070
     1
1070
   179
1070
     2
1070
   271
1070
     2
1070
   279
1070
     2
1070
   340
1005
614
1002
}
  0
DIMENSION
  5
CA01
  8
SUNPOU
  2
*D13
 10
6389.7666286695794
 20
3272.5787594560188
 30
0.0
 11
6342.0841473243672
 21
3203.753414272911
 31
0.0
 70
   128
 13
6289.7666286695767
 23
3414.6242279628059
 33
0.0
 14
6389.7666286695794
 24
3414.6242279628059
 34
0.0
1001
ACAD
1000
DSTYLE
1002
{
1070
   287
1070
     5
1070
    40
1040
20.0
1070
    41
1040
2.0
1070
    42
1040
1.0
1070
    43
1040
6.0
1070
    44
1040
1.0
1070
    73
1070
     0
1070
    74
1070
     0
1070
    77
1070
     1
1070
    78
1070
     8
1070
   140
1040
3.0
1070
   147
1040
1.1999999999999991
1070
   172
1070
     1
1070
   179
1070
     2
1070
   271
1070
     2
1070
   279
1070
     2
1070
   340
1005
614
1002
}
  0
DIMENSION
  5
CBC5
  8
SUNPOU
  2
*D14
 10
2741.0082660499052
 20
332.34502699664711
 30
0.0
 11
2641.0082660499052
 21
393.34309751747247
 31
0.0
 70
   128
 13
2541.0082660499052
 23
505.14820087754208
 33
0.0
 14
2741.0082660499052
 24
505.14820087754208
 34
0.0
1001
ACAD
1000
DSTYLE
1002
{
1070
   287
1070
     5
1070
    40
1040
20.0
1070
    41
1040
2.0
1070
    42
1040
1.0
1070
    43
1040
6.0
1070
    44
1040
1.0
1070
    73
1070
     0
1070
    74
1070
     0
1070
    77
1070
     1
1070
    78
1070
     8
1070
   140
1040
3.0
1070
   144
1040
0.5
1070
   147
1040
1.1999999999999991
1070
   172
1070
     1
1070
   179
1070
     2
1070
   271
1070
     2
1070
   279
1070
     2
1070
   340
1005
614
1002
}
  0
LINE
  5
D597
  8
KASOU
 10
978.66921052743783
 20
3414.6242279628059
 30
0.0
 11
978.66921052743783
 21
4165.4485479430341
 31
0.0
  0
LINE
  5
D598
  8
KASOU
 10
878.66921052743783
 20
3414.6242279628059
 30
0.0
 11
878.66921052743714
 21
4165.1594766404041
 31
0.0
  0
LINE
  5
D599
  8
KASOU
 10
878.6692105274376
 20
4214.7742279625254
 30
0.0
 11
878.66921052743783
 21
4402.3759010851072
 31
0.0
  0
LINE
  5
D59A
  8
KASOU
 10
978.66921052743783
 20
4214.6242279628168
 30
0.0
 11
978.66921052743783
 21
4402.3759010851072
 31
0.0
  0
LINE
  5
E8AC
  8
MOJI
  6
CONTINUOUS
 10
710.39604293071159
 20
3988.6497337890669
 30
0.0
 11
460.28440261921418
 21
3988.6497337890669
 31
0.0
  0
INSERT
  5
E8AD
  8
0
  2
*U31
 10
0.0
 20
0.0
 30
0.0
  0
LINE
  5
E8AE
  8
SJC
 10
947.66921052743794
 20
4214.624227962754
 30
0.0
 11
2909.6692105274378
 21
4214.624227962755
 31
0.0
  0
LINE
  5
E8AF
  8
SJC
 10
979.18575017044714
 20
4174.624227962755
 30
0.0
 11
2878.1526708844272
 21
4174.624227962755
 31
0.0
  0
LINE
  5
E8B0
  8
SJC
 10
2979.1857501704471
 20
4174.6242279627531
 30
0.0
 11
4878.1526708844267
 21
4174.624227962755
 31
0.0
  0
LINE
  5
E8B1
  8
SJC
 10
2947.6692105274378
 20
4214.624227962755
 30
0.0
 11
4909.6711062685717
 21
4214.624227962755
 31
0.0
  0
INSERT
  5
E8B2
  8
SJC
  2
Nテスリ受-D
 10
928.66921052743783
 20
4104.6242279628059
 30
0.0
  0
INSERT
  5
E8B3
  8
CENTER
  2
N40テスリ受-U
 10
928.66921052743783
 20
4157.124227962805
 30
0.0
  0
INSERT
  5
E8B6
  8
SJC
  2
40手摺端末
 10
928.66921052743783
 20
4157.124227962805
 30
0.0
  0
INSERT
  5
E8B7
  8
0
  2
*U32
 10
0.0
 20
0.0
 30
0.0
1001
ACAD
1000
DSTYLE
1002
{
1070
     5
1000

1070
    40
1040
20.0
1070
    41
1040
2.0
1070
    42
1040
1.0
1070
    43
1040
6.0
1070
    44
1040
1.0
1070
    73
1070
     0
1070
    74
1070
     0
1070
    77
1070
     0
1070
    78
1070
     8
1070
   140
1040
3.0
1070
   147
1040
1.1999999999999991
1070
   172
1070
     1
1070
   271
1070
     2
1070
   279
1070
     2
1070
   340
1005
614
1070
   342
1005
0
1002
}
  0
ARC
  5
EDBD
  8
SJC2
 10
573.29806471375207
 20
1885.148200877542
 30
0.0
 40
27.859722809307701
 50
159.37179036878919
 51
200.62820963121081
  0
ARC
  5
EDBE
  8
SJC2
 10
553.07309494388767
 20
1870.425626907225
 30
0.0
 40
7.6347530394434306
 50
140.00000000000409
 51
219.99999999999579
  0
ARC
  5
EDBF
  8
SJC2
 10
553.07309494388767
 20
1899.8707748478521
 30
0.0
 40
7.6347530394434306
 50
140.00000000000409
 51
219.99999999999579
  0
LINE
  5
EDC0
  8
SJC2
 10
568.43834190444272
 20
1864.148200877542
 30
0.0
 11
568.43834190444272
 21
1906.148200877542
 31
0.0
  0
LINE
  5
EDC1
  8
SJC2
 10
564.43834190444272
 20
1906.148200877542
 30
0.0
 11
564.43834190444272
 21
1864.148200877542
 31
0.0
  0
LINE
  5
EDC2
  8
SJC2
 10
559.43834190444272
 20
1865.5181022504589
 30
0.0
 11
559.43834190444272
 21
1904.7782995046259
 31
0.0
  0
LINE
  5
EDC3
  8
SJC2
 10
564.43834190444272
 20
1866.748200877541
 30
0.0
 11
564.43834190444272
 21
1903.5482008775441
 31
0.0
  0
LINE
  5
EDC4
  8
SJC2
 10
564.43834190444272
 20
1866.748200877541
 30
0.0
 11
564.43834190444272
 21
1903.5482008775441
 31
0.0
  0
LINE
  5
EDC5
  8
SJC2
 10
564.43834190444272
 20
1864.148200877542
 30
0.0
 11
568.43834190444272
 21
1864.148200877542
 31
0.0
  0
LINE
  5
EDC6
  8
SJC2
 10
547.22453480343415
 20
1865.5181022504589
 30
0.0
 11
559.43834190444272
 21
1865.5181022504589
 31
0.0
  0
LINE
  5
EDC7
  8
SJC2
 10
547.22453480344143
 20
1875.333151564002
 30
0.0
 11
559.43834190444272
 21
1875.333151564002
 31
0.0
  0
LINE
  5
EDC8
  8
SJC2
 10
547.22453480343415
 20
1894.963250191086
 30
0.0
 11
559.43834190444272
 21
1894.963250191086
 31
0.0
  0
LINE
  5
EDC9
  8
SJC2
 10
564.43834190444272
 20
1906.148200877542
 30
0.0
 11
568.43834190444272
 21
1906.148200877542
 31
0.0
  0
LINE
  5
EDCA
  8
SJC2
 10
547.22453480343779
 20
1904.7782995046259
 30
0.0
 11
559.43834190444272
 21
1904.7782995046259
 31
0.0
  0
LINE
  5
EDCB
  8
SJC2
 10
545.43834190444272
 20
1870.425626907225
 30
0.0
 11
545.43834190444272
 21
1899.8707748478521
 31
0.0
  0
LINE
  5
EDCC
  8
SJC2
 10
564.43834190444272
 20
1870.425769013204
 30
0.0
 11
564.43834190444272
 21
1899.870632741874
 31
0.0
  0
LINE
  5
EDCD
  8
SJC2
 10
564.43834190444272
 20
1870.425769013204
 30
0.0
 11
564.43834190444272
 21
1899.870632741874
 31
0.0
  0
LINE
  5
EDCE
  8
SJC2
 10
564.43834190444272
 20
1866.748200877541
 30
0.0
 11
564.43834190444272
 21
1903.5482008775441
 31
0.0
  0
LINE
  5
EDCF
  8
SJC2
 10
559.43834190444272
 20
1866.748200877541
 30
0.0
 11
559.43834190444272
 21
1903.5482008775441
 31
0.0
  0
LINE
  5
EDD0
  8
SJC2
 10
564.43834190444272
 20
1903.5482008775441
 30
0.0
 11
559.43834190444272
 21
1903.5482008775441
 31
0.0
  0
LINE
  5
EDD1
  8
SJC2
 10
564.43834190444272
 20
1887.148200877542
 30
0.0
 11
559.43834190444272
 21
1883.148200877542
 31
0.0
  0
LINE
  5
EDD2
  8
SJC2
 10
564.43834190444272
 20
1866.748200877541
 30
0.0
 11
559.43834190444272
 21
1866.748200877541
 31
0.0
  0
INSERT
  5
EDD5
  8
SJC2
  2
N40テスリ受側
 10
6284.7666286695767
 20
4104.6242279628068
 30
0.0
  0
LINE
  5
EDD6
  8
SJC2
 10
6241.6404657296089
 20
4104.6242279628068
 30
0.0
 11
6385.3196790309266
 21
4104.6242279628059
 31
0.0
  0
INSERT
  5
EDDE
  8
SJC2
  2
40AF
 10
6289.7666286695767
 20
4104.6242279628059
 30
0.0
  0
LINE
  5
EDE0
  8
KASOU
 10
2978.6692105274378
 20
3414.6242279628059
 30
0.0
 11
2978.6692105274378
 21
4165.4485479430341
 31
0.0
  0
LINE
  5
EDE1
  8
KASOU
 10
2978.6692105274378
 20
4214.6242279628168
 30
0.0
 11
2978.6692105274378
 21
4402.3759010851072
 31
0.0
  0
LINE
  5
EDE2
  8
KASOU
 10
2878.6692105274378
 20
3414.6242279628059
 30
0.0
 11
2878.6692105274369
 21
4165.1594766404041
 31
0.0
  0
LINE
  5
EDE3
  8
KASOU
 10
2878.6692105274378
 20
4214.7742279625254
 30
0.0
 11
2878.6692105274378
 21
4402.3759010851072
 31
0.0
  0
INSERT
  5
EDE4
  8
SJC
  2
Nテスリ受-D
 10
2928.6692105274378
 20
4104.6242279628059
 30
0.0
  0
INSERT
  5
EDE5
  8
CENTER
  2
N40テスリ受-U
 10
2928.6692105274378
 20
4157.124227962805
 30
0.0
  0
LINE
  5
EDE6
  8
KASOU
 10
4978.6692105274378
 20
3414.6242279628059
 30
0.0
 11
4978.6692105274378
 21
4165.4485479430341
 31
0.0
  0
LINE
  5
EDE7
  8
KASOU
 10
4978.6692105274378
 20
4214.6242279628168
 30
0.0
 11
4978.6692105274378
 21
4402.3759010851072
 31
0.0
  0
LINE
  5
EDE8
  8
KASOU
 10
4878.6692105274369
 20
3414.6242279628059
 30
0.0
 11
4878.6692105274369
 21
4165.1594766404041
 31
0.0
  0
LINE
  5
EDE9
  8
KASOU
 10
4878.6692105274369
 20
4214.7742279625254
 30
0.0
 11
4878.6692105274369
 21
4402.3759010851072
 31
0.0
  0
INSERT
  5
EDEA
  8
SJC
  2
Nテスリ受-D
 10
4928.6692105274378
 20
4104.6242279628059
 30
0.0
  0
INSERT
  5
EDEB
  8
CENTER
  2
N40テスリ受-U
 10
4928.6692105274378
 20
4157.124227962805
 30
0.0
  0
LINE
  5
EDEC
  8
CENTER
 10
2928.6692105274378
 20
3366.6595785169711
 30
0.0
 11
2928.6692105274378
 21
4452.8757406948198
 31
0.0
  0
LINE
  5
EDED
  8
CENTER
 10
4928.6692105274378
 20
3366.6595785169711
 30
0.0
 11
4928.6692105274378
 21
4452.8757406948198
 31
0.0
  0
LINE
  5
EDEE
  8
SJC
 10
4979.1857501704471
 20
4174.6242279627531
 30
0.0
 11
5296.9125209443146
 21
4174.6242279627531
 31
0.0
  0
LINE
  5
EDEF
  8
SJC
 10
4947.6692105274378
 20
4214.624227962755
 30
0.0
 11
5296.9125209443146
 21
4214.624227962755
 31
0.0
  0
INSERT
  5
EDF0
  8
SJC
  2
Nテスリ受-D
 10
2641.0082660499052
 20
1885.148200877542
 30
0.0
 41
2.0
 42
2.0
 43
2.0
  0
INSERT
  5
EDF1
  8
CENTER
  2
N40テスリ受-U
 10
2641.0082660499052
 20
1990.148200877542
 30
0.0
 41
2.0
 42
2.0
 43
2.0
  0
LINE
  5
EDF2
  8
SJC
 10
1864.7082660499011
 20
2105.148200877537
 30
0.0
 11
2603.0082660499038
 21
2105.1482008775379
 31
0.0
  0
LINE
  5
EDF3
  8
SJC
 10
1864.7082660499011
 20
2025.1482008775381
 30
0.0
 11
2539.9751867638829
 21
2025.1482008775381
 31
0.0
  0
ARC
  5
EDF4
  8
SJC
 10
1914.899385169158
 20
2045.148200877604
 30
0.0
 40
54.029144343089293
 50
158.2738618799568
 51
201.7261381200432
  0
ARC
  5
EDF5
  8
SJC
 10
1814.5171469306399
 20
2046.643674094244
 30
0.0
 40
54.029144343089293
 50
338.27386187995683
 51
21.726138120043139
  0
ARC
  5
EDF6
  8
SJC
 10
1914.89938516916
 20
2083.6527276608299
 30
0.0
 40
54.029144343089293
 50
158.2738618799568
 51
201.7261381200432
  0
LINE
  5
EDF7
  8
SJC
 10
3422.5321523053258
 20
2025.1482008775381
 30
0.0
 11
2742.0413453359238
 21
2025.1482008775381
 31
0.0
  0
LINE
  5
EDF8
  8
SJC
 10
2679.0082660499029
 20
2105.1482008775379
 30
0.0
 11
3422.5321523053258
 21
2105.1482008775379
 31
0.0
  0
ARC
  5
EDF9
  8
SJC
 10
3372.3410331860659
 20
2045.148200877604
 30
0.0
 40
54.029144343089293
 50
338.27386187995683
 51
21.726138120043139
  0
ARC
  5
EDFA
  8
SJC
 10
3472.7232714245852
 20
2085.1482008777371
 30
0.0
 40
54.029144343089293
 50
158.2738618799568
 51
201.7261381200432
  0
ARC
  5
EDFB
  8
SJC
 10
3372.3410331860659
 20
2085.148200877471
 30
0.0
 40
54.029144343089293
 50
338.27386187995683
 51
21.726138120043139
  0
ARC
  5
EDFF
  8
HASEN
 10
851.07216946379106
 20
1899.8706327418829
 30
0.0
 40
7.6346793468919047
 50
140.00000000011539
 51
219.99999999988461
  0
LINE
  5
EE00
  8
HASEN
 10
843.43749011690159
 20
1883.1482008775411
 30
0.0
 11
838.4374901169017
 21
1887.148200877537
 31
0.0
  0
LINE
  5
EE01
  8
HASEN
 10
843.43749011690159
 20
1903.5482008775459
 30
0.0
 11
838.4374901169017
 21
1903.5482008775459
 31
0.0
  0
LINE
  5
EE02
  8
HASEN
 10
843.43749011690159
 20
1899.8706327418829
 30
0.0
 11
843.43749011690159
 21
1870.4257690132031
 31
0.0
  0
LINE
  5
EE03
  8
HASEN
 10
843.43749011690159
 20
1899.8706327418829
 30
0.0
 11
843.43749011690159
 21
1870.4257690132031
 31
0.0
  0
ARC
  5
EE04
  8
HASEN
 10
871.29694401717677
 20
1885.1482008775411
 30
0.0
 40
27.859453900274499
 50
159.3717903687301
 51
200.6282096312699
  0
ARC
  5
EE05
  8
HASEN
 10
851.80281077000154
 20
1899.8706327418829
 30
0.0
 40
7.6346793468919047
 50
320.00000000011539
 51
39.999999999884587
  0
ARC
  5
EE06
  8
HASEN
 10
860.34627841060365
 20
1901.1223707726369
 30
0.0
 40
1.0
 50
188.33533115006401
 51
266.74388925374808
  0
LINE
  5
EE07
  8
HASEN
 10
859.43749011690159
 20
1899.8706327418829
 30
0.0
 11
859.43749011690159
 21
1870.4257690132031
 31
0.0
  0
ARC
  5
EE08
  8
HASEN
 10
831.57803621662288
 20
1885.1482008775411
 30
0.0
 40
27.859453900274499
 50
339.3717903687301
 51
20.628209631269861
  0
ARC
  5
EE09
  8
HASEN
 10
859.43749011690159
 20
1885.1482008775449
 30
0.0
 40
15.0
 50
273.25611074625181
 51
86.743889253748165
  0
ARC
  5
EE0A
  8
HASEN
 10
911.56576149490911
 20
1911.583435875275
 30
0.0
 40
2.0
 50
294.0032541596027
 51
328.02866868060067
  0
LINE
  5
EE0B
  8
HASEN
 10
857.65131445868656
 20
1894.9631554537691
 30
0.0
 11
845.22366577510945
 21
1894.9631554537691
 31
0.0
  0
LINE
  5
EE0C
  8
HASEN
 10
857.65131445870111
 20
1904.7781100299931
 30
0.0
 11
845.22366577510945
 21
1904.7781100299931
 31
0.0
  0
LINE
  5
EE0D
  8
HASEN
 10
857.65131445868292
 20
1875.333246301316
 30
0.0
 11
845.22366577510945
 21
1875.333246301316
 31
0.0
  0
LINE
  5
EE0E
  8
HASEN
 10
911.67043340738235
 20
1909.5861768057571
 30
0.0
 11
839.38515416065138
 21
1905.7978658455861
 31
0.0
  0
LINE
  5
EE0F
  8
HASEN
 10
843.43749011690159
 20
1866.7482008775389
 30
0.0
 11
838.4374901169017
 21
1866.7482008775389
 31
0.0
  0
LINE
  5
EE10
  8
HASEN
 10
869.43749011691443
 20
1861.0283752783421
 30
0.0
 11
869.43749011691443
 21
1861.0342788049959
 31
0.0
  0
LINE
  5
EE11
  8
HASEN
 10
857.65131445868292
 20
1865.5182917251029
 30
0.0
 11
845.22366577510945
 21
1865.5182917251029
 31
0.0
  0
LINE
  5
EE12
  8
HASEN
 10
867.64654704343809
 20
1863.0174190690659
 30
0.0
 11
839.38515416065138
 21
1864.4985359095001
 31
0.0
  0
ARC
  5
EE13
  8
HASEN
 10
851.07216946379106
 20
1870.4257690132031
 30
0.0
 40
7.6346793468919047
 50
140.00000000011539
 51
219.99999999988461
  0
ARC
  5
EE14
  8
HASEN
 10
851.80281077000154
 20
1870.4257690132031
 30
0.0
 40
7.6346793468919047
 50
320.00000000011539
 51
39.999999999884587
  0
LINE
  5
EE15
  8
HASEN
 10
838.4374901169017
 20
1904.7992363108269
 30
0.0
 11
838.4374901169017
 21
1865.497165444255
 31
0.0
  0
LINE
  5
EE16
  8
HASEN
 10
838.4374901169017
 20
1903.5482008775459
 30
0.0
 11
838.4374901169017
 21
1866.7482008775389
 31
0.0
  0
LINE
  5
EE17
  8
HASEN
 10
843.43749011690159
 20
1903.5482008775459
 30
0.0
 11
843.43749011690159
 21
1866.7482008775389
 31
0.0
  0
ARC
  5
EE18
  8
HASEN
 10
860.34627841060365
 20
1869.174030982452
 30
0.0
 40
1.0
 50
93.256110746251835
 51
171.66466884993599
  0
LINE
  5
EE19
  8
HASEN
 10
568.43834190442305
 20
1877.148200877542
 30
0.0
 11
838.4374901169017
 21
1877.148200877534
 31
0.0
  0
LINE
  5
EE1A
  8
HASEN
 10
568.43834190442305
 20
1875.1482008775461
 30
0.0
 11
838.4374901169017
 21
1875.1482008775449
 31
0.0
  0
LINE
  5
EE1B
  8
HASEN
 10
568.43834190442305
 20
1895.148200877542
 30
0.0
 11
838.4374901169017
 21
1895.1482008775411
 31
0.0
  0
LINE
  5
EE1C
  8
HASEN
 10
568.43834190442305
 20
1893.1482008775449
 30
0.0
 11
838.4374901169017
 21
1893.1482008775449
 31
0.0
  0
INSERT
  5
EE20
  8
SJC
  2
N40テスリ受側
 10
-778.43834190444477
 20
1885.1482008775431
 30
0.0
 41
2.0
 42
2.0
 43
-2.0
210
0.0
220
0.0
230
-1.0
  0
LINE
  5
EE21
  8
CENTER
 10
888.39066778437552
 20
1885.1482008775431
 30
0.0
 11
553.63224118172604
 21
1885.148200877542
 31
0.0
  0
INSERT
  5
EE48
  8
SJC2
  2
40AF
 10
768.4383419044467
 20
1885.148200877542
 30
0.0
 41
2.0
 42
2.0
 43
2.0
 50
180.0
  0
ARC
  5
EE49
  8
SJC2
 10
6387.3367672649229
 20
4104.6242279628059
 30
0.0
 40
13.929861404653851
 50
339.37179036878922
 51
20.628209631210758
  0
ARC
  5
EE4A
  8
SJC2
 10
6397.4492521498551
 20
4111.9855149479636
 30
0.0
 40
3.8173765197217149
 50
320.00000000000409
 51
39.999999999995822
  0
ARC
  5
EE4B
  8
SJC2
 10
6397.4492521498551
 20
4097.2629409776509
 30
0.0
 40
3.8173765197217149
 50
320.00000000000409
 51
39.999999999995822
  0
LINE
  5
EE4C
  8
SJC2
 10
6389.7666286695767
 20
4115.124227962805
 30
0.0
 11
6389.7666286695767
 21
4094.124227962805
 31
0.0
  0
LINE
  5
EE4D
  8
SJC2
 10
6391.7666286695776
 20
4094.124227962805
 30
0.0
 11
6391.7666286695776
 21
4115.124227962805
 31
0.0
  0
LINE
  5
EE4E
  8
SJC2
 10
6394.2666286695767
 20
4114.4392772763467
 30
0.0
 11
6394.2666286695767
 21
4094.8091786492628
 31
0.0
  0
LINE
  5
EE4F
  8
SJC2
 10
6391.7666286695776
 20
4113.8242279628066
 30
0.0
 11
6391.7666286695776
 21
4095.4242279628052
 31
0.0
  0
LINE
  5
EE50
  8
SJC2
 10
6391.7666286695776
 20
4113.8242279628066
 30
0.0
 11
6391.7666286695776
 21
4095.4242279628052
 31
0.0
  0
LINE
  5
EE51
  8
SJC2
 10
6391.7666286695776
 20
4115.124227962805
 30
0.0
 11
6389.7666286695767
 21
4115.124227962805
 31
0.0
  0
LINE
  5
EE52
  8
SJC2
 10
6400.3735322200828
 20
4114.4392772763467
 30
0.0
 11
6394.2666286695767
 21
4114.4392772763467
 31
0.0
  0
LINE
  5
EE53
  8
SJC2
 10
6400.3735322200782
 20
4109.5317526195759
 30
0.0
 11
6394.2666286695767
 21
4109.5317526195759
 31
0.0
  0
LINE
  5
EE54
  8
SJC2
 10
6400.3735322200828
 20
4099.7167033060341
 30
0.0
 11
6394.2666286695767
 21
4099.7167033060341
 31
0.0
  0
LINE
  5
EE55
  8
SJC2
 10
6391.7666286695776
 20
4094.124227962805
 30
0.0
 11
6389.7666286695767
 21
4094.124227962805
 31
0.0
  0
LINE
  5
EE56
  8
SJC2
 10
6400.3735322200791
 20
4094.8091786492628
 30
0.0
 11
6394.2666286695767
 21
4094.8091786492628
 31
0.0
  0
LINE
  5
EE57
  8
SJC2
 10
6401.2666286695776
 20
4111.9855149479636
 30
0.0
 11
6401.2666286695776
 21
4097.2629409776509
 31
0.0
  0
LINE
  5
EE58
  8
SJC2
 10
6391.7666286695776
 20
4111.9854438949751
 30
0.0
 11
6391.7666286695776
 21
4097.2630120306403
 31
0.0
  0
LINE
  5
EE59
  8
SJC2
 10
6391.7666286695776
 20
4111.9854438949751
 30
0.0
 11
6391.7666286695776
 21
4097.2630120306403
 31
0.0
  0
LINE
  5
EE5A
  8
SJC2
 10
6391.7666286695776
 20
4113.8242279628066
 30
0.0
 11
6391.7666286695776
 21
4095.4242279628052
 31
0.0
  0
LINE
  5
EE5B
  8
SJC2
 10
6394.2666286695767
 20
4113.8242279628066
 30
0.0
 11
6394.2666286695767
 21
4095.4242279628052
 31
0.0
  0
LINE
  5
EE5C
  8
SJC2
 10
6391.7666286695776
 20
4095.4242279628052
 30
0.0
 11
6394.2666286695767
 21
4095.4242279628052
 31
0.0
  0
LINE
  5
EE5D
  8
SJC2
 10
6391.7666286695776
 20
4103.6242279628059
 30
0.0
 11
6394.2666286695767
 21
4105.624227962805
 31
0.0
  0
LINE
  5
EE5E
  8
SJC2
 10
6391.7666286695776
 20
4113.8242279628066
 30
0.0
 11
6394.2666286695767
 21
4113.8242279628066
 31
0.0
  0
LINE
  5
EEFE
  8
KASOU
 10
2741.0082660499052
 20
505.14820087754208
 30
0.0
 11
2741.0082660499052
 21
2006.796840838
 31
0.0
  0
LINE
  5
EEFF
  8
KASOU
 10
2541.0082660499052
 20
505.14820087754202
 30
0.0
 11
2541.0082660499038
 21
2006.2186982327421
 31
0.0
  0
LINE
  5
EF00
  8
KASOU
 10
2541.0082660499038
 20
2105.1482008775379
 30
0.0
 11
2541.0082660499038
 21
2311.8649466862589
 31
0.0
  0
LINE
  5
EF01
  8
KASOU
 10
2741.0082660499052
 20
2105.1482008775379
 30
0.0
 11
2741.0082660499052
 21
2311.8649466862589
 31
0.0
  0
INSERT
  5
EF5B
  8
0
  2
*U33
 10
0.0
 20
0.0
 30
0.0
1001
ACAD
1000
DSTYLE
1002
{
1070
     5
1000

1070
    40
1040
20.0
1070
    41
1040
2.0
1070
    42
1040
1.0
1070
    43
1040
6.0
1070
    44
1040
1.0
1070
    73
1070
     0
1070
    74
1070
     0
1070
    77
1070
     1
1070
    78
1070
     8
1070
   140
1040
3.0
1070
   147
1040
1.1999999999999991
1070
   172
1070
     1
1070
   179
1070
     2
1070
   271
1070
     2
1070
   279
1070
     2
1070
   340
1005
614
1070
   342
1005
0
1002
}
  0
LINE
  5
EF8D
  8
MOJI
  6
CONTINUOUS
 10
4781.9206001347366
 20
2567.0972591312611
 30
0.0
 11
4213.2361729157956
 21
2567.0972591312611
 31
0.0
  0
INSERT
  5
EF8E
  8
0
  2
*U34
 10
0.0
 20
0.0
 30
0.0
  0
LINE
  5
EF8F
  8
MOJI
  6
CONTINUOUS
 10
4781.2530567826943
 20
1728.7964804011001
 30
0.0
 11
4503.5054860529417
 21
1728.7964804011001
 31
0.0
  0
INSERT
  5
EF90
  8
0
  2
*U35
 10
0.0
 20
0.0
 30
0.0
  0
LINE
  5
EF96
  8
MOJI
  6
CONTINUOUS
 10
5436.620762803941
 20
1820.3562964796879
 30
0.0
 11
5869.9512560232988
 21
1820.3562964796879
 31
0.0
  0
LINE
  5
EF97
  8
MOJI
  6
CONTINUOUS
 10
5447.44434219308
 20
1565.021219788604
 30
0.0
 11
5881.5092129974782
 21
1565.021219788604
 31
0.0
  0
INSERT
  5
EF9C
  8
0
  2
*U36
 10
0.0
 20
0.0
 30
0.0
  0
INSERT
  5
EF9D
  8
0
  2
*U37
 10
0.0
 20
0.0
 30
0.0
  0
LINE
  5
EFA1
  8
MOJI
  6
CONTINUOUS
 10
5459.2703087020891
 20
2315.3793548329568
 30
0.0
 11
6002.5752129768516
 21
2315.3793548329568
 31
0.0
  0
INSERT
  5
EFA7
  8
0
  2
*U38
 10
0.0
 20
0.0
 30
0.0
  0
DIMENSION
  5
EFA8
  8
SUNPOU
  2
*D20
 10
5922.8842813029942
 20
2003.326191126647
 30
0.0
 11
5868.8842813029951
 21
2103.3261911266482
 31
0.0
 70
     0
  1
%%C40
 13
5718.8560509773606
 23
2203.3261911266468
 33
0.0
 14
5718.8560509773606
 24
2003.326191126647
 34
0.0
 50
90.0
1001
ACAD
1000
DSTYLE
1002
{
1070
   287
1070
     5
1070
    40
1040
20.0
1070
    41
1040
2.0
1070
    42
1040
1.0
1070
    43
1040
6.0
1070
    44
1040
1.0
1070
    73
1070
     0
1070
    74
1070
     0
1070
    77
1070
     1
1070
    78
1070
     8
1070
   140
1040
3.0
1070
   147
1040
1.1999999999999991
1070
   172
1070
     1
1070
   176
1070
   256
1070
   177
1070
   256
1070
   178
1070
   256
1070
   271
1070
     1
1070
   275
1070
     1
1070
   279
1070
     2
1070
   287
1070
     5
1070
   340
1005
614
1002
}
  0
INSERT
  5
EFAA
  8
0
  2
*U39
 10
0.0
 20
0.0
 30
0.0
1001
ACAD
1000
DSTYLE
1002
{
1070
     5
1000

1070
    40
1040
20.0
1070
    41
1040
2.0
1070
    42
1040
1.0
1070
    43
1040
6.0
1070
    44
1040
1.0
1070
    73
1070
     0
1070
    74
1070
     0
1070
    77
1070
     0
1070
    78
1070
     8
1070
   140
1040
3.0
1070
   144
1040
0.2
1070
   147
1040
1.1999999999999991
1070
   172
1070
     1
1070
   271
1070
     2
1070
   279
1070
     2
1070
   340
1005
614
1070
   342
1005
0
1002
}
  0
INSERT
  5
EFAB
  8
0
  2
*U40
 10
0.0
 20
0.0
 30
0.0
1001
ACAD
1000
DSTYLE
1002
{
1070
     5
1000

1070
    40
1040
20.0
1070
    41
1040
2.0
1070
    42
1040
1.0
1070
    43
1040
6.0
1070
    44
1040
1.0
1070
    73
1070
     0
1070
    74
1070
     0
1070
    77
1070
     0
1070
    78
1070
     8
1070
   140
1040
3.0
1070
   144
1040
0.2
1070
   147
1040
1.1999999999999991
1070
   172
1070
     1
1070
   271
1070
     2
1070
   279
1070
     2
1070
   340
1005
614
1070
   342
1005
0
1002
}
  0
INSERT
  5
EFAC
  8
0
  2
*U41
 10
0.0
 20
0.0
 30
0.0
1001
ACAD
1000
DSTYLE
1002
{
1070
     5
1000

1070
    40
1040
20.0
1070
    41
1040
2.0
1070
    42
1040
1.0
1070
    43
1040
6.0
1070
    44
1040
1.0
1070
    73
1070
     0
1070
    74
1070
     0
1070
    77
1070
     0
1070
    78
1070
     8
1070
   140
1040
3.0
1070
   144
1040
0.2
1070
   147
1040
1.1999999999999991
1070
   172
1070
     1
1070
   271
1070
     2
1070
   279
1070
     2
1070
   340
1005
614
1070
   342
1005
0
1002
}
  0
INSERT
  5
EFAD
  8
0
  2
*U42
 10
0.0
 20
0.0
 30
0.0
1001
ACAD
1000
DSTYLE
1002
{
1070
     5
1000

1070
    40
1040
20.0
1070
    41
1040
2.0
1070
    42
1040
1.0
1070
    43
1040
6.0
1070
    44
1040
1.0
1070
    73
1070
     0
1070
    74
1070
     0
1070
    77
1070
     0
1070
    78
1070
     8
1070
   140
1040
3.0
1070
   144
1040
0.2
1070
   147
1040
1.1999999999999991
1070
   172
1070
     1
1070
   271
1070
     2
1070
   279
1070
     2
1070
   340
1005
614
1070
   342
1005
0
1002
}
  0
INSERT
  5
EFAE
  8
0
  2
*U43
 10
0.0
 20
0.0
 30
0.0
1001
ACAD
1000
DSTYLE
1002
{
1070
     5
1000

1070
    40
1040
20.0
1070
    41
1040
2.0
1070
    42
1040
1.0
1070
    43
1040
6.0
1070
    44
1040
1.0
1070
    73
1070
     0
1070
    74
1070
     0
1070
    77
1070
     0
1070
    78
1070
     8
1070
   140
1040
3.0
1070
   144
1040
0.2
1070
   147
1040
1.1999999999999991
1070
   172
1070
     1
1070
   271
1070
     2
1070
   279
1070
     2
1070
   340
1005
614
1070
   342
1005
0
1002
}
  0
LINE
  5
EFAF
  8
SJC
 10
5114.2125839430782
 20
2203.3261911266932
 30
0.0
 11
5718.856050977427
 21
2203.3261911266468
 31
0.0
  0
LINE
  5
EFB0
  8
SJC2
 10
5708.3559184737524
 20
2188.3263411266389
 30
0.0
 11
5114.2125839430782
 21
2188.326341126693
 31
0.0
  0
LINE
  5
EFB1
  8
SJC2
 10
5702.1032141684173
 20
2172.3265011266349
 30
0.0
 11
5114.2125839430782
 21
2172.3265011266899
 31
0.0
  0
LINE
  5
EFB2
  8
CENTER
 10
5782.5287400964389
 20
2103.3271911266452
 30
0.0
 11
4317.7983838681012
 21
2103.3271911266588
 31
0.0
  0
POLYLINE
  5
EFB3
  8
SJC
 10
5266.7113839430722
 20
1940.8412263030311
 30
0.0
 66
     1
 70
     8
  0
VERTEX
  8
SJC
  5
FF5A
 10
5266.71
 20
1940.84
 30
0.000000
  70
    32
  0
VERTEX
  8
SJC
  5
FF5B
 10
5267.73
 20
1940.86
 30
0.000000
  70
    32
  0
VERTEX
  8
SJC
  5
FF5C
 10
5268.75
 20
1940.89
 30
0.000000
  70
    32
  0
VERTEX
  8
SJC
  5
FF5D
 10
5269.77
 20
1940.92
 30
0.000000
  70
    32
  0
VERTEX
  8
SJC
  5
FF5E
 10
5270.79
 20
1940.97
 30
0.000000
  70
    32
  0
VERTEX
  8
SJC
  5
FF5F
 10
5271.81
 20
1941.02
 30
0.000000
  70
    32
  0
VERTEX
  8
SJC
  5
FF60
 10
5272.82
 20
1941.08
 30
0.000000
  70
    32
  0
VERTEX
  8
SJC
  5
FF61
 10
5273.84
 20
1941.15
 30
0.000000
  70
    32
  0
VERTEX
  8
SJC
  5
FF62
 10
5274.85
 20
1941.23
 30
0.000000
  70
    32
  0
VERTEX
  8
SJC
  5
FF63
 10
5275.86
 20
1941.31
 30
0.000000
  70
    32
  0
VERTEX
  8
SJC
  5
FF64
 10
5276.87
 20
1941.41
 30
0.000000
  70
    32
  0
VERTEX
  8
SJC
  5
FF65
 10
5277.88
 20
1941.51
 30
0.000000
  70
    32
  0
VERTEX
  8
SJC
  5
FF66
 10
5278.89
 20
1941.62
 30
0.000000
  70
    32
  0
VERTEX
  8
SJC
  5
FF67
 10
5279.90
 20
1941.74
 30
0.000000
  70
    32
  0
VERTEX
  8
SJC
  5
FF68
 10
5280.90
 20
1941.87
 30
0.000000
  70
    32
  0
VERTEX
  8
SJC
  5
FF69
 10
5281.90
 20
1942.00
 30
0.000000
  70
    32
  0
VERTEX
  8
SJC
  5
FF6A
 10
5282.90
 20
1942.15
 30
0.000000
  70
    32
  0
VERTEX
  8
SJC
  5
FF6B
 10
5283.89
 20
1942.30
 30
0.000000
  70
    32
  0
VERTEX
  8
SJC
  5
FF6C
 10
5284.88
 20
1942.46
 30
0.000000
  70
    32
  0
VERTEX
  8
SJC
  5
FF6D
 10
5285.87
 20
1942.63
 30
0.000000
  70
    32
  0
VERTEX
  8
SJC
  5
FF6E
 10
5286.86
 20
1942.81
 30
0.000000
  70
    32
  0
VERTEX
  8
SJC
  5
FF6F
 10
5287.84
 20
1942.99
 30
0.000000
  70
    32
  0
VERTEX
  8
SJC
  5
FF70
 10
5288.83
 20
1943.18
 30
0.000000
  70
    32
  0
VERTEX
  8
SJC
  5
FF71
 10
5289.80
 20
1943.38
 30
0.000000
  70
    32
  0
VERTEX
  8
SJC
  5
FF72
 10
5290.77
 20
1943.59
 30
0.000000
  70
    32
  0
VERTEX
  8
SJC
  5
FF73
 10
5291.74
 20
1943.81
 30
0.000000
  70
    32
  0
VERTEX
  8
SJC
  5
FF74
 10
5292.71
 20
1944.04
 30
0.000000
  70
    32
  0
VERTEX
  8
SJC
  5
FF75
 10
5293.67
 20
1944.27
 30
0.000000
  70
    32
  0
VERTEX
  8
SJC
  5
FF76
 10
5294.63
 20
1944.51
 30
0.000000
  70
    32
  0
VERTEX
  8
SJC
  5
FF77
 10
5295.58
 20
1944.76
 30
0.000000
  70
    32
  0
VERTEX
  8
SJC
  5
FF78
 10
5296.53
 20
1945.02
 30
0.000000
  70
    32
  0
VERTEX
  8
SJC
  5
FF79
 10
5297.47
 20
1945.28
 30
0.000000
  70
    32
  0
VERTEX
  8
SJC
  5
FF7A
 10
5298.41
 20
1945.56
 30
0.000000
  70
    32
  0
VERTEX
  8
SJC
  5
FF7B
 10
5299.34
 20
1945.84
 30
0.000000
  70
    32
  0
VERTEX
  8
SJC
  5
FF7C
 10
5300.27
 20
1946.12
 30
0.000000
  70
    32
  0
VERTEX
  8
SJC
  5
FF7D
 10
5301.20
 20
1946.42
 30
0.000000
  70
    32
  0
VERTEX
  8
SJC
  5
FF7E
 10
5302.12
 20
1946.72
 30
0.000000
  70
    32
  0
VERTEX
  8
SJC
  5
FF7F
 10
5303.03
 20
1947.03
 30
0.000000
  70
    32
  0
VERTEX
  8
SJC
  5
FF80
 10
5303.94
 20
1947.35
 30
0.000000
  70
    32
  0
VERTEX
  8
SJC
  5
FF81
 10
5304.84
 20
1947.68
 30
0.000000
  70
    32
  0
VERTEX
  8
SJC
  5
FF82
 10
5305.73
 20
1948.01
 30
0.000000
  70
    32
  0
VERTEX
  8
SJC
  5
FF83
 10
5306.62
 20
1948.35
 30
0.000000
  70
    32
  0
VERTEX
  8
SJC
  5
FF84
 10
5307.51
 20
1948.70
 30
0.000000
  70
    32
  0
VERTEX
  8
SJC
  5
FF85
 10
5308.38
 20
1949.05
 30
0.000000
  70
    32
  0
VERTEX
  8
SJC
  5
FF86
 10
5309.26
 20
1949.42
 30
0.000000
  70
    32
  0
VERTEX
  8
SJC
  5
FF87
 10
5310.12
 20
1949.79
 30
0.000000
  70
    32
  0
VERTEX
  8
SJC
  5
FF88
 10
5310.98
 20
1950.16
 30
0.000000
  70
    32
  0
VERTEX
  8
SJC
  5
FF89
 10
5311.83
 20
1950.55
 30
0.000000
  70
    32
  0
VERTEX
  8
SJC
  5
FF8A
 10
5312.67
 20
1950.94
 30
0.000000
  70
    32
  0
VERTEX
  8
SJC
  5
FF8B
 10
5313.51
 20
1951.34
 30
0.000000
  70
    32
  0
VERTEX
  8
SJC
  5
FF8C
 10
5314.34
 20
1951.74
 30
0.000000
  70
    32
  0
VERTEX
  8
SJC
  5
FF8D
 10
5315.16
 20
1952.15
 30
0.000000
  70
    32
  0
VERTEX
  8
SJC
  5
FF8E
 10
5315.98
 20
1952.57
 30
0.000000
  70
    32
  0
VERTEX
  8
SJC
  5
FF8F
 10
5316.79
 20
1953.00
 30
0.000000
  70
    32
  0
VERTEX
  8
SJC
  5
FF90
 10
5317.59
 20
1953.43
 30
0.000000
  70
    32
  0
VERTEX
  8
SJC
  5
FF91
 10
5318.38
 20
1953.87
 30
0.000000
  70
    32
  0
VERTEX
  8
SJC
  5
FF92
 10
5319.17
 20
1954.31
 30
0.000000
  70
    32
  0
VERTEX
  8
SJC
  5
FF93
 10
5319.94
 20
1954.76
 30
0.000000
  70
    32
  0
VERTEX
  8
SJC
  5
FF94
 10
5320.71
 20
1955.22
 30
0.000000
  70
    32
  0
VERTEX
  8
SJC
  5
FF95
 10
5321.47
 20
1955.68
 30
0.000000
  70
    32
  0
VERTEX
  8
SJC
  5
FF96
 10
5322.22
 20
1956.15
 30
0.000000
  70
    32
  0
VERTEX
  8
SJC
  5
FF97
 10
5322.97
 20
1956.63
 30
0.000000
  70
    32
  0
VERTEX
  8
SJC
  5
FF98
 10
5323.70
 20
1957.11
 30
0.000000
  70
    32
  0
VERTEX
  8
SJC
  5
FF99
 10
5324.43
 20
1957.60
 30
0.000000
  70
    32
  0
VERTEX
  8
SJC
  5
FF9A
 10
5325.15
 20
1958.09
 30
0.000000
  70
    32
  0
VERTEX
  8
SJC
  5
FF9B
 10
5325.86
 20
1958.59
 30
0.000000
  70
    32
  0
VERTEX
  8
SJC
  5
FF9C
 10
5326.56
 20
1959.10
 30
0.000000
  70
    32
  0
VERTEX
  8
SJC
  5
FF9D
 10
5327.25
 20
1959.61
 30
0.000000
  70
    32
  0
VERTEX
  8
SJC
  5
FF9E
 10
5327.93
 20
1960.13
 30
0.000000
  70
    32
  0
VERTEX
  8
SJC
  5
FF9F
 10
5328.61
 20
1960.65
 30
0.000000
  70
    32
  0
VERTEX
  8
SJC
  5
FFA0
 10
5329.27
 20
1961.18
 30
0.000000
  70
    32
  0
VERTEX
  8
SJC
  5
FFA1
 10
5329.92
 20
1961.72
 30
0.000000
  70
    32
  0
VERTEX
  8
SJC
  5
FFA2
 10
5330.57
 20
1962.26
 30
0.000000
  70
    32
  0
VERTEX
  8
SJC
  5
FFA3
 10
5331.20
 20
1962.80
 30
0.000000
  70
    32
  0
VERTEX
  8
SJC
  5
FFA4
 10
5331.83
 20
1963.35
 30
0.000000
  70
    32
  0
VERTEX
  8
SJC
  5
FFA5
 10
5332.45
 20
1963.91
 30
0.000000
  70
    32
  0
VERTEX
  8
SJC
  5
FFA6
 10
5333.05
 20
1964.47
 30
0.000000
  70
    32
  0
VERTEX
  8
SJC
  5
FFA7
 10
5333.65
 20
1965.03
 30
0.000000
  70
    32
  0
VERTEX
  8
SJC
  5
FFA8
 10
5334.23
 20
1965.60
 30
0.000000
  70
    32
  0
VERTEX
  8
SJC
  5
FFA9
 10
5334.81
 20
1966.18
 30
0.000000
  70
    32
  0
VERTEX
  8
SJC
  5
FFAA
 10
5335.37
 20
1966.76
 30
0.000000
  70
    32
  0
VERTEX
  8
SJC
  5
FFAB
 10
5335.93
 20
1967.34
 30
0.000000
  70
    32
  0
VERTEX
  8
SJC
  5
FFAC
 10
5336.47
 20
1967.93
 30
0.000000
  70
    32
  0
VERTEX
  8
SJC
  5
FFAD
 10
5337.01
 20
1968.52
 30
0.000000
  70
    32
  0
VERTEX
  8
SJC
  5
FFAE
 10
5337.53
 20
1969.12
 30
0.000000
  70
    32
  0
VERTEX
  8
SJC
  5
FFAF
 10
5338.04
 20
1969.72
 30
0.000000
  70
    32
  0
VERTEX
  8
SJC
  5
FFB0
 10
5338.55
 20
1970.33
 30
0.000000
  70
    32
  0
VERTEX
  8
SJC
  5
FFB1
 10
5339.04
 20
1970.94
 30
0.000000
  70
    32
  0
VERTEX
  8
SJC
  5
FFB2
 10
5339.52
 20
1971.55
 30
0.000000
  70
    32
  0
VERTEX
  8
SJC
  5
FFB3
 10
5339.99
 20
1972.17
 30
0.000000
  70
    32
  0
VERTEX
  8
SJC
  5
FFB4
 10
5340.45
 20
1972.79
 30
0.000000
  70
    32
  0
VERTEX
  8
SJC
  5
FFB5
 10
5340.89
 20
1973.42
 30
0.000000
  70
    32
  0
VERTEX
  8
SJC
  5
FFB6
 10
5341.33
 20
1974.05
 30
0.000000
  70
    32
  0
VERTEX
  8
SJC
  5
FFB7
 10
5341.76
 20
1974.68
 30
0.000000
  70
    32
  0
VERTEX
  8
SJC
  5
FFB8
 10
5342.17
 20
1975.32
 30
0.000000
  70
    32
  0
VERTEX
  8
SJC
  5
FFB9
 10
5342.57
 20
1975.96
 30
0.000000
  70
    32
  0
VERTEX
  8
SJC
  5
FFBA
 10
5342.96
 20
1976.60
 30
0.000000
  70
    32
  0
VERTEX
  8
SJC
  5
FFBB
 10
5343.34
 20
1977.25
 30
0.000000
  70
    32
  0
VERTEX
  8
SJC
  5
FFBC
 10
5343.71
 20
1977.90
 30
0.000000
  70
    32
  0
VERTEX
  8
SJC
  5
FFBD
 10
5344.07
 20
1978.55
 30
0.000000
  70
    32
  0
VERTEX
  8
SJC
  5
FFBE
 10
5344.41
 20
1979.20
 30
0.000000
  70
    32
  0
VERTEX
  8
SJC
  5
FFBF
 10
5344.75
 20
1979.86
 30
0.000000
  70
    32
  0
VERTEX
  8
SJC
  5
FFC0
 10
5345.07
 20
1980.52
 30
0.000000
  70
    32
  0
VERTEX
  8
SJC
  5
FFC1
 10
5345.38
 20
1981.19
 30
0.000000
  70
    32
  0
VERTEX
  8
SJC
  5
FFC2
 10
5345.68
 20
1981.85
 30
0.000000
  70
    32
  0
VERTEX
  8
SJC
  5
FFC3
 10
5345.96
 20
1982.52
 30
0.000000
  70
    32
  0
VERTEX
  8
SJC
  5
FFC4
 10
5346.24
 20
1983.19
 30
0.000000
  70
    32
  0
VERTEX
  8
SJC
  5
FFC5
 10
5346.50
 20
1983.86
 30
0.000000
  70
    32
  0
VERTEX
  8
SJC
  5
FFC6
 10
5346.75
 20
1984.54
 30
0.000000
  70
    32
  0
VERTEX
  8
SJC
  5
FFC7
 10
5346.99
 20
1985.22
 30
0.000000
  70
    32
  0
VERTEX
  8
SJC
  5
FFC8
 10
5347.22
 20
1985.89
 30
0.000000
  70
    32
  0
VERTEX
  8
SJC
  5
FFC9
 10
5347.43
 20
1986.57
 30
0.000000
  70
    32
  0
VERTEX
  8
SJC
  5
FFCA
 10
5347.63
 20
1987.26
 30
0.000000
  70
    32
  0
VERTEX
  8
SJC
  5
FFCB
 10
5347.82
 20
1987.94
 30
0.000000
  70
    32
  0
VERTEX
  8
SJC
  5
FFCC
 10
5348.00
 20
1988.63
 30
0.000000
  70
    32
  0
VERTEX
  8
SJC
  5
FFCD
 10
5348.17
 20
1989.31
 30
0.000000
  70
    32
  0
VERTEX
  8
SJC
  5
FFCE
 10
5348.32
 20
1990.00
 30
0.000000
  70
    32
  0
VERTEX
  8
SJC
  5
FFCF
 10
5348.46
 20
1990.69
 30
0.000000
  70
    32
  0
VERTEX
  8
SJC
  5
FFD0
 10
5348.59
 20
1991.38
 30
0.000000
  70
    32
  0
VERTEX
  8
SJC
  5
FFD1
 10
5348.71
 20
1992.07
 30
0.000000
  70
    32
  0
VERTEX
  8
SJC
  5
FFD2
 10
5348.82
 20
1992.77
 30
0.000000
  70
    32
  0
VERTEX
  8
SJC
  5
FFD3
 10
5348.91
 20
1993.46
 30
0.000000
  70
    32
  0
VERTEX
  8
SJC
  5
FFD4
 10
5348.99
 20
1994.15
 30
0.000000
  70
    32
  0
VERTEX
  8
SJC
  5
FFD5
 10
5349.06
 20
1994.85
 30
0.000000
  70
    32
  0
VERTEX
  8
SJC
  5
FFD6
 10
5349.11
 20
1995.54
 30
0.000000
  70
    32
  0
VERTEX
  8
SJC
  5
FFD7
 10
5349.15
 20
1996.24
 30
0.000000
  70
    32
  0
VERTEX
  8
SJC
  5
FFD8
 10
5349.19
 20
1996.94
 30
0.000000
  70
    32
  0
VERTEX
  8
SJC
  5
FFD9
 10
5349.20
 20
1997.63
 30
0.000000
  70
    32
  0
VERTEX
  8
SJC
  5
FFDA
 10
5349.21
 20
1998.33
 30
0.000000
  70
    32
  0
SEQEND
  8
SJC
  5
FFDB
  0
LINE
  5
EFB4
  8
SJC
 10
5254.2113839430731
 20
2003.328191126692
 30
0.0
 11
5718.8560509774452
 21
2003.328191126642
 31
0.0
  0
LINE
  5
EFB5
  8
SJC2
 10
5735.6088877864368
 20
2034.3278811266459
 30
0.0
 11
5249.2112339430769
 21
2034.3278811267
 31
0.0
  0
LINE
  5
EFB6
  8
SJC
 10
5299.212983943069
 20
2045.827881126678
 30
0.0
 11
5260.2129839430727
 21
2045.827881126683
 31
0.0
  0
LINE
  5
EFB7
  8
SJC
 10
5208.2129839430827
 20
2045.8278811266871
 30
0.0
 11
5074.212983943069
 21
2045.8278811266971
 31
0.0
  0
LINE
  5
EFB8
  8
SJC2
 10
5729.3561834811208
 20
2018.328041126641
 30
0.0
 11
5279.2109339430835
 21
2018.328041126696
 31
0.0
  0
LINE
  5
EFB9
  8
SJC
 10
4979.2139339430823
 20
2203.3261911266932
 30
0.0
 11
4366.495187519502
 21
2203.3261911266609
 31
0.0
  0
LINE
  5
EFBA
  8
SJC
 10
4799.2157339430723
 20
2003.328191126692
 30
0.0
 11
4366.4951875195202
 21
2003.3281911266599
 31
0.0
  0
ARC
  5
EFBB
  8
SJC2
 10
4421.9574265495603
 20
2153.3266911266569
 30
0.0
 40
74.672685491247734
 50
137.96517408031059
 51
222.03482591968941
  0
ARC
  5
EFBC
  8
SJC2
 10
4421.9574265495603
 20
2053.3276911266589
 30
0.0
 40
74.672685491247734
 50
137.96517408031059
 51
222.03482591968941
  0
ARC
  5
EFBD
  8
SJC2
 10
4311.032948489481
 20
2153.3266911266492
 30
0.0
 40
74.672685491247734
 50
317.96517408031059
 51
42.034825919689411
  0
LINE
  5
EFBE
  8
SJC
 10
4883.4648914430709
 20
1940.8288161266939
 30
0.0
 11
4914.2145839430832
 21
1940.8288161266939
 31
0.0
  0
LINE
  5
EFBF
  8
SJC2
 10
5114.212583943061
 20
2094.327881126691
 30
0.0
 11
5114.2125839430782
 21
2203.3261911266932
 31
0.0
  0
LINE
  5
EFC0
  8
SJC2
 10
5189.2118339430799
 20
2018.328041126696
 30
0.0
 11
5114.2125839430782
 21
2018.328041126696
 31
0.0
  0
LINE
  5
EFC1
  8
SJC2
 10
5074.212983943069
 20
2034.3278811267
 30
0.0
 11
5219.2115339430884
 21
2034.3278811267
 31
0.0
  0
LINE
  5
EFC2
  8
SJC
 10
5074.212983943069
 20
2003.328191126692
 30
0.0
 11
5214.2113839430731
 21
2003.328191126692
 31
0.0
  0
POLYLINE
  5
EFC3
  8
SJC
 10
5129.2124339431284
 20
1915.8290673650913
 30
0.0
 66
     1
 70
     8
  0
VERTEX
  8
SJC
  5
FFDC
 10
5129.21
 20
1915.83
 30
0.000000
  70
    32
  0
VERTEX
  8
SJC
  5
FFDD
 10
5129.22
 20
1916.07
 30
0.000000
  70
    32
  0
VERTEX
  8
SJC
  5
FFDE
 10
5129.23
 20
1916.32
 30
0.000000
  70
    32
  0
VERTEX
  8
SJC
  5
FFDF
 10
5129.26
 20
1916.56
 30
0.000000
  70
    32
  0
VERTEX
  8
SJC
  5
FFE0
 10
5129.29
 20
1916.81
 30
0.000000
  70
    32
  0
VERTEX
  8
SJC
  5
FFE1
 10
5129.34
 20
1917.06
 30
0.000000
  70
    32
  0
VERTEX
  8
SJC
  5
FFE2
 10
5129.39
 20
1917.30
 30
0.000000
  70
    32
  0
VERTEX
  8
SJC
  5
FFE3
 10
5129.46
 20
1917.55
 30
0.000000
  70
    32
  0
VERTEX
  8
SJC
  5
FFE4
 10
5129.54
 20
1917.79
 30
0.000000
  70
    32
  0
VERTEX
  8
SJC
  5
FFE5
 10
5129.62
 20
1918.03
 30
0.000000
  70
    32
  0
VERTEX
  8
SJC
  5
FFE6
 10
5129.72
 20
1918.28
 30
0.000000
  70
    32
  0
VERTEX
  8
SJC
  5
FFE7
 10
5129.82
 20
1918.52
 30
0.000000
  70
    32
  0
VERTEX
  8
SJC
  5
FFE8
 10
5129.94
 20
1918.77
 30
0.000000
  70
    32
  0
VERTEX
  8
SJC
  5
FFE9
 10
5130.07
 20
1919.01
 30
0.000000
  70
    32
  0
VERTEX
  8
SJC
  5
FFEA
 10
5130.20
 20
1919.25
 30
0.000000
  70
    32
  0
VERTEX
  8
SJC
  5
FFEB
 10
5130.35
 20
1919.50
 30
0.000000
  70
    32
  0
VERTEX
  8
SJC
  5
FFEC
 10
5130.50
 20
1919.74
 30
0.000000
  70
    32
  0
VERTEX
  8
SJC
  5
FFED
 10
5130.67
 20
1919.98
 30
0.000000
  70
    32
  0
VERTEX
  8
SJC
  5
FFEE
 10
5130.85
 20
1920.22
 30
0.000000
  70
    32
  0
VERTEX
  8
SJC
  5
FFEF
 10
5131.03
 20
1920.46
 30
0.000000
  70
    32
  0
VERTEX
  8
SJC
  5
FFF0
 10
5131.23
 20
1920.70
 30
0.000000
  70
    32
  0
VERTEX
  8
SJC
  5
FFF1
 10
5131.43
 20
1920.94
 30
0.000000
  70
    32
  0
VERTEX
  8
SJC
  5
FFF2
 10
5131.65
 20
1921.18
 30
0.000000
  70
    32
  0
VERTEX
  8
SJC
  5
FFF3
 10
5131.88
 20
1921.42
 30
0.000000
  70
    32
  0
VERTEX
  8
SJC
  5
FFF4
 10
5132.11
 20
1921.66
 30
0.000000
  70
    32
  0
VERTEX
  8
SJC
  5
FFF5
 10
5132.36
 20
1921.90
 30
0.000000
  70
    32
  0
VERTEX
  8
SJC
  5
FFF6
 10
5132.61
 20
1922.14
 30
0.000000
  70
    32
  0
VERTEX
  8
SJC
  5
FFF7
 10
5132.88
 20
1922.38
 30
0.000000
  70
    32
  0
VERTEX
  8
SJC
  5
FFF8
 10
5133.15
 20
1922.61
 30
0.000000
  70
    32
  0
VERTEX
  8
SJC
  5
FFF9
 10
5133.44
 20
1922.85
 30
0.000000
  70
    32
  0
VERTEX
  8
SJC
  5
FFFA
 10
5133.73
 20
1923.08
 30
0.000000
  70
    32
  0
VERTEX
  8
SJC
  5
FFFB
 10
5134.03
 20
1923.32
 30
0.000000
  70
    32
  0
VERTEX
  8
SJC
  5
FFFC
 10
5134.35
 20
1923.55
 30
0.000000
  70
    32
  0
VERTEX
  8
SJC
  5
FFFD
 10
5134.67
 20
1923.78
 30
0.000000
  70
    32
  0
VERTEX
  8
SJC
  5
FFFE
 10
5135.00
 20
1924.02
 30
0.000000
  70
    32
  0
VERTEX
  8
SJC
  5
FFFF
 10
5135.35
 20
1924.25
 30
0.000000
  70
    32
  0
VERTEX
  8
SJC
  5
10000
 10
5135.70
 20
1924.48
 30
0.000000
  70
    32
  0
VERTEX
  8
SJC
  5
10001
 10
5136.06
 20
1924.71
 30
0.000000
  70
    32
  0
VERTEX
  8
SJC
  5
10002
 10
5136.43
 20
1924.94
 30
0.000000
  70
    32
  0
VERTEX
  8
SJC
  5
10003
 10
5136.81
 20
1925.17
 30
0.000000
  70
    32
  0
VERTEX
  8
SJC
  5
10004
 10
5137.20
 20
1925.39
 30
0.000000
  70
    32
  0
VERTEX
  8
SJC
  5
10005
 10
5137.60
 20
1925.62
 30
0.000000
  70
    32
  0
VERTEX
  8
SJC
  5
10006
 10
5138.01
 20
1925.84
 30
0.000000
  70
    32
  0
VERTEX
  8
SJC
  5
10007
 10
5138.42
 20
1926.07
 30
0.000000
  70
    32
  0
VERTEX
  8
SJC
  5
10008
 10
5138.85
 20
1926.29
 30
0.000000
  70
    32
  0
VERTEX
  8
SJC
  5
10009
 10
5139.28
 20
1926.51
 30
0.000000
  70
    32
  0
VERTEX
  8
SJC
  5
1000A
 10
5139.73
 20
1926.73
 30
0.000000
  70
    32
  0
VERTEX
  8
SJC
  5
1000B
 10
5140.18
 20
1926.96
 30
0.000000
  70
    32
  0
VERTEX
  8
SJC
  5
1000C
 10
5140.65
 20
1927.17
 30
0.000000
  70
    32
  0
VERTEX
  8
SJC
  5
1000D
 10
5141.12
 20
1927.39
 30
0.000000
  70
    32
  0
VERTEX
  8
SJC
  5
1000E
 10
5141.60
 20
1927.61
 30
0.000000
  70
    32
  0
VERTEX
  8
SJC
  5
1000F
 10
5142.09
 20
1927.83
 30
0.000000
  70
    32
  0
VERTEX
  8
SJC
  5
10010
 10
5142.59
 20
1928.04
 30
0.000000
  70
    32
  0
VERTEX
  8
SJC
  5
10011
 10
5143.10
 20
1928.25
 30
0.000000
  70
    32
  0
VERTEX
  8
SJC
  5
10012
 10
5143.61
 20
1928.47
 30
0.000000
  70
    32
  0
VERTEX
  8
SJC
  5
10013
 10
5144.14
 20
1928.68
 30
0.000000
  70
    32
  0
VERTEX
  8
SJC
  5
10014
 10
5144.67
 20
1928.89
 30
0.000000
  70
    32
  0
VERTEX
  8
SJC
  5
10015
 10
5145.21
 20
1929.09
 30
0.000000
  70
    32
  0
VERTEX
  8
SJC
  5
10016
 10
5145.77
 20
1929.30
 30
0.000000
  70
    32
  0
VERTEX
  8
SJC
  5
10017
 10
5146.33
 20
1929.51
 30
0.000000
  70
    32
  0
VERTEX
  8
SJC
  5
10018
 10
5146.89
 20
1929.71
 30
0.000000
  70
    32
  0
VERTEX
  8
SJC
  5
10019
 10
5147.47
 20
1929.92
 30
0.000000
  70
    32
  0
VERTEX
  8
SJC
  5
1001A
 10
5148.05
 20
1930.12
 30
0.000000
  70
    32
  0
VERTEX
  8
SJC
  5
1001B
 10
5148.65
 20
1930.32
 30
0.000000
  70
    32
  0
VERTEX
  8
SJC
  5
1001C
 10
5149.25
 20
1930.52
 30
0.000000
  70
    32
  0
VERTEX
  8
SJC
  5
1001D
 10
5149.86
 20
1930.72
 30
0.000000
  70
    32
  0
VERTEX
  8
SJC
  5
1001E
 10
5150.48
 20
1930.91
 30
0.000000
  70
    32
  0
VERTEX
  8
SJC
  5
1001F
 10
5151.10
 20
1931.11
 30
0.000000
  70
    32
  0
VERTEX
  8
SJC
  5
10020
 10
5151.74
 20
1931.30
 30
0.000000
  70
    32
  0
VERTEX
  8
SJC
  5
10021
 10
5152.38
 20
1931.49
 30
0.000000
  70
    32
  0
VERTEX
  8
SJC
  5
10022
 10
5153.03
 20
1931.68
 30
0.000000
  70
    32
  0
VERTEX
  8
SJC
  5
10023
 10
5153.68
 20
1931.87
 30
0.000000
  70
    32
  0
VERTEX
  8
SJC
  5
10024
 10
5154.35
 20
1932.06
 30
0.000000
  70
    32
  0
VERTEX
  8
SJC
  5
10025
 10
5155.02
 20
1932.25
 30
0.000000
  70
    32
  0
VERTEX
  8
SJC
  5
10026
 10
5155.70
 20
1932.43
 30
0.000000
  70
    32
  0
VERTEX
  8
SJC
  5
10027
 10
5156.39
 20
1932.61
 30
0.000000
  70
    32
  0
VERTEX
  8
SJC
  5
10028
 10
5157.09
 20
1932.79
 30
0.000000
  70
    32
  0
VERTEX
  8
SJC
  5
10029
 10
5157.79
 20
1932.97
 30
0.000000
  70
    32
  0
VERTEX
  8
SJC
  5
1002A
 10
5158.50
 20
1933.15
 30
0.000000
  70
    32
  0
VERTEX
  8
SJC
  5
1002B
 10
5159.22
 20
1933.33
 30
0.000000
  70
    32
  0
VERTEX
  8
SJC
  5
1002C
 10
5159.94
 20
1933.50
 30
0.000000
  70
    32
  0
VERTEX
  8
SJC
  5
1002D
 10
5160.67
 20
1933.67
 30
0.000000
  70
    32
  0
VERTEX
  8
SJC
  5
1002E
 10
5161.41
 20
1933.84
 30
0.000000
  70
    32
  0
VERTEX
  8
SJC
  5
1002F
 10
5162.16
 20
1934.01
 30
0.000000
  70
    32
  0
VERTEX
  8
SJC
  5
10030
 10
5162.91
 20
1934.18
 30
0.000000
  70
    32
  0
VERTEX
  8
SJC
  5
10031
 10
5163.67
 20
1934.35
 30
0.000000
  70
    32
  0
VERTEX
  8
SJC
  5
10032
 10
5164.44
 20
1934.51
 30
0.000000
  70
    32
  0
VERTEX
  8
SJC
  5
10033
 10
5165.21
 20
1934.67
 30
0.000000
  70
    32
  0
VERTEX
  8
SJC
  5
10034
 10
5165.99
 20
1934.83
 30
0.000000
  70
    32
  0
VERTEX
  8
SJC
  5
10035
 10
5166.78
 20
1934.99
 30
0.000000
  70
    32
  0
VERTEX
  8
SJC
  5
10036
 10
5167.57
 20
1935.15
 30
0.000000
  70
    32
  0
VERTEX
  8
SJC
  5
10037
 10
5168.37
 20
1935.30
 30
0.000000
  70
    32
  0
VERTEX
  8
SJC
  5
10038
 10
5169.18
 20
1935.46
 30
0.000000
  70
    32
  0
VERTEX
  8
SJC
  5
10039
 10
5169.99
 20
1935.61
 30
0.000000
  70
    32
  0
VERTEX
  8
SJC
  5
1003A
 10
5170.81
 20
1935.76
 30
0.000000
  70
    32
  0
VERTEX
  8
SJC
  5
1003B
 10
5171.63
 20
1935.90
 30
0.000000
  70
    32
  0
VERTEX
  8
SJC
  5
1003C
 10
5172.46
 20
1936.05
 30
0.000000
  70
    32
  0
VERTEX
  8
SJC
  5
1003D
 10
5173.30
 20
1936.19
 30
0.000000
  70
    32
  0
VERTEX
  8
SJC
  5
1003E
 10
5174.14
 20
1936.33
 30
0.000000
  70
    32
  0
VERTEX
  8
SJC
  5
1003F
 10
5174.99
 20
1936.47
 30
0.000000
  70
    32
  0
VERTEX
  8
SJC
  5
10040
 10
5175.84
 20
1936.61
 30
0.000000
  70
    32
  0
VERTEX
  8
SJC
  5
10041
 10
5176.70
 20
1936.75
 30
0.000000
  70
    32
  0
VERTEX
  8
SJC
  5
10042
 10
5177.56
 20
1936.88
 30
0.000000
  70
    32
  0
VERTEX
  8
SJC
  5
10043
 10
5178.43
 20
1937.01
 30
0.000000
  70
    32
  0
VERTEX
  8
SJC
  5
10044
 10
5179.31
 20
1937.14
 30
0.000000
  70
    32
  0
VERTEX
  8
SJC
  5
10045
 10
5180.19
 20
1937.27
 30
0.000000
  70
    32
  0
VERTEX
  8
SJC
  5
10046
 10
5181.08
 20
1937.39
 30
0.000000
  70
    32
  0
VERTEX
  8
SJC
  5
10047
 10
5181.97
 20
1937.51
 30
0.000000
  70
    32
  0
VERTEX
  8
SJC
  5
10048
 10
5182.87
 20
1937.64
 30
0.000000
  70
    32
  0
VERTEX
  8
SJC
  5
10049
 10
5183.77
 20
1937.75
 30
0.000000
  70
    32
  0
VERTEX
  8
SJC
  5
1004A
 10
5184.67
 20
1937.87
 30
0.000000
  70
    32
  0
VERTEX
  8
SJC
  5
1004B
 10
5185.58
 20
1937.99
 30
0.000000
  70
    32
  0
VERTEX
  8
SJC
  5
1004C
 10
5186.50
 20
1938.10
 30
0.000000
  70
    32
  0
VERTEX
  8
SJC
  5
1004D
 10
5187.42
 20
1938.21
 30
0.000000
  70
    32
  0
VERTEX
  8
SJC
  5
1004E
 10
5188.34
 20
1938.32
 30
0.000000
  70
    32
  0
VERTEX
  8
SJC
  5
1004F
 10
5189.27
 20
1938.42
 30
0.000000
  70
    32
  0
VERTEX
  8
SJC
  5
10050
 10
5190.21
 20
1938.53
 30
0.000000
  70
    32
  0
VERTEX
  8
SJC
  5
10051
 10
5191.14
 20
1938.63
 30
0.000000
  70
    32
  0
VERTEX
  8
SJC
  5
10052
 10
5192.09
 20
1938.73
 30
0.000000
  70
    32
  0
VERTEX
  8
SJC
  5
10053
 10
5193.03
 20
1938.83
 30
0.000000
  70
    32
  0
VERTEX
  8
SJC
  5
10054
 10
5193.98
 20
1938.92
 30
0.000000
  70
    32
  0
VERTEX
  8
SJC
  5
10055
 10
5194.93
 20
1939.01
 30
0.000000
  70
    32
  0
VERTEX
  8
SJC
  5
10056
 10
5195.89
 20
1939.10
 30
0.000000
  70
    32
  0
VERTEX
  8
SJC
  5
10057
 10
5196.85
 20
1939.19
 30
0.000000
  70
    32
  0
VERTEX
  8
SJC
  5
10058
 10
5197.82
 20
1939.28
 30
0.000000
  70
    32
  0
VERTEX
  8
SJC
  5
10059
 10
5198.79
 20
1939.36
 30
0.000000
  70
    32
  0
VERTEX
  8
SJC
  5
1005A
 10
5199.76
 20
1939.44
 30
0.000000
  70
    32
  0
VERTEX
  8
SJC
  5
1005B
 10
5200.73
 20
1939.52
 30
0.000000
  70
    32
  0
VERTEX
  8
SJC
  5
1005C
 10
5201.71
 20
1939.60
 30
0.000000
  70
    32
  0
SEQEND
  8
SJC
  5
1005D
  0
LINE
  5
EFC4
  8
SJC2
 10
5114.2125839430782
 20
2003.328191126692
 30
0.0
 11
5114.2125839430782
 21
2034.3278811267
 31
0.0
  0
LINE
  5
EFC5
  8
SJC2
 10
5189.2118339430799
 20
2003.328191126692
 30
0.0
 11
5189.2118339430799
 21
2034.3278811267
 31
0.0
  0
LINE
  5
EFC6
  8
SJC2
 10
5279.2109339430835
 20
2003.328191126692
 30
0.0
 11
5279.2109339430835
 21
2034.3278811267
 31
0.0
  0
LINE
  5
EFC7
  8
SJC2
 10
5249.2112339430769
 20
1978.6434011467179
 30
0.0
 11
5249.2112339430769
 21
2040.327821126702
 31
0.0
  0
LINE
  5
EFC8
  8
SJC2
 10
5219.2115339430884
 20
1977.3854392953119
 30
0.0
 11
5219.2115339430884
 21
2040.327821126702
 31
0.0
  0
LINE
  5
EFC9
  8
SJC
  6
CONTINUOUS
 62
     1
 10
5079.2129339430894
 20
2207.0761631633459
 30
0.0
 11
5169.2120339430749
 21
2207.0761631633459
 31
0.0
  0
LINE
  5
EFCA
  8
SJC
  6
CONTINUOUS
 62
     1
 10
5079.2129339430894
 20
2207.0761631633459
 30
0.0
 11
5079.2129339430894
 21
2182.07641316334
 31
0.0
  0
LINE
  5
EFCB
  8
SJC
  6
CONTINUOUS
 62
     1
 10
5074.212983943069
 20
2182.07641316334
 30
0.0
 11
5079.2129339430894
 21
2182.07641316334
 31
0.0
  0
LINE
  5
EFCC
  8
SJC
  6
CONTINUOUS
 62
     1
 10
5079.2129339430894
 20
2169.7532713203091
 30
0.0
 11
5079.2129339430894
 21
2138.3268506633422
 31
0.0
  0
LINE
  5
EFCD
  8
SJC
  6
CONTINUOUS
 62
     1
 10
5074.212983943069
 20
2138.3268506633422
 30
0.0
 11
5079.2129339430894
 21
2138.3268506633422
 31
0.0
  0
LINE
  5
EFCE
  8
SAISEN
  6
CONTINUOUS
 62
     9
 10
5074.212983943069
 20
2157.8081621959332
 30
0.0
 11
5079.2129339430894
 21
2157.8081621959332
 31
0.0
  0
LINE
  5
EFCF
  8
SJC
  6
CONTINUOUS
 62
     1
 10
5074.212983943069
 20
2169.7532713203091
 30
0.0
 11
5079.2129339430894
 21
2169.7532713203091
 31
0.0
  0
LINE
  5
EFD0
  8
SJC
 10
5326.7931563311668
 20
2003.328191126692
 30
0.0
 11
5348.8911071995954
 21
2003.328191126692
 31
0.0
  0
ARC
  5
EFD1
  8
SJC
 10
5344.2102839430827
 20
1998.328241126691
 30
0.0
 40
4.9999500000000001
 50
359.99999999989581
 51
89.999999999583125
  0
ARC
  5
EFD2
  8
SJC2
 10
5663.393811947406
 20
2053.3276911266412
 30
0.0
 40
74.672685491247734
 50
317.96517408031059
 51
42.034825919689411
  0
ARC
  5
EFD3
  8
SJC2
 10
5663.3938119473332
 20
2153.3266911266392
 30
0.0
 40
74.672685491247734
 50
317.96517408031059
 51
42.034825919689411
  0
ARC
  5
EFD4
  8
SJC2
 10
5774.3182900074662
 20
2153.3266911266392
 30
0.0
 40
74.672685491247734
 50
137.96517408031059
 51
222.03482591968941
  0
LINE
  5
EFD5
  8
SJC
 10
5074.212983943069
 20
2034.3278811267
 30
0.0
 11
5214.2113839430913
 21
2034.3278811267
 31
0.0
  0
LINE
  5
EFD6
  8
SJC
 10
5074.212983943069
 20
2094.327881126691
 30
0.0
 11
5218.6538257744533
 21
2094.327881126691
 31
0.0
  0
ARC
  5
EFD7
  8
SJC
 10
5437.1222166418902
 20
2328.572913440556
 30
0.0
 40
309.51755991347102
 50
233.77521960774379
 51
243.5407053024023
  0
LINE
  5
EFD8
  8
SJC
 10
5299.212983943069
 20
2051.4769671850891
 30
0.0
 11
5299.212983943069
 21
2034.3278811267
 31
0.0
  0
LINE
  5
EFD9
  8
CENTER
 10
5234.212983943069
 20
2074.5736499748632
 30
0.0
 11
5234.212983943069
 21
1991.2245966874329
 31
0.0
  0
LINE
  5
EFDA
  8
HASEN
 10
5207.962983943069
 20
2003.3290661266931
 30
0.0
 11
5074.212983943069
 21
2003.3290661266931
 31
0.0
  0
POLYLINE
  5
EFDB
  8
SJC
 10
5019.21298394307
 20
1915.8290661266954
 30
0.0
 66
     1
 70
     8
  0
VERTEX
  8
SJC
  5
1005E
 10
5019.21
 20
1915.83
 30
0.000000
  70
    32
  0
VERTEX
  8
SJC
  5
1005F
 10
5019.21
 20
1916.07
 30
0.000000
  70
    32
  0
VERTEX
  8
SJC
  5
10060
 10
5019.19
 20
1916.32
 30
0.000000
  70
    32
  0
VERTEX
  8
SJC
  5
10061
 10
5019.17
 20
1916.56
 30
0.000000
  70
    32
  0
VERTEX
  8
SJC
  5
10062
 10
5019.13
 20
1916.81
 30
0.000000
  70
    32
  0
VERTEX
  8
SJC
  5
10063
 10
5019.09
 20
1917.06
 30
0.000000
  70
    32
  0
VERTEX
  8
SJC
  5
10064
 10
5019.03
 20
1917.30
 30
0.000000
  70
    32
  0
VERTEX
  8
SJC
  5
10065
 10
5018.97
 20
1917.55
 30
0.000000
  70
    32
  0
VERTEX
  8
SJC
  5
10066
 10
5018.89
 20
1917.79
 30
0.000000
  70
    32
  0
VERTEX
  8
SJC
  5
10067
 10
5018.80
 20
1918.03
 30
0.000000
  70
    32
  0
VERTEX
  8
SJC
  5
10068
 10
5018.71
 20
1918.28
 30
0.000000
  70
    32
  0
VERTEX
  8
SJC
  5
10069
 10
5018.60
 20
1918.52
 30
0.000000
  70
    32
  0
VERTEX
  8
SJC
  5
1006A
 10
5018.49
 20
1918.77
 30
0.000000
  70
    32
  0
VERTEX
  8
SJC
  5
1006B
 10
5018.36
 20
1919.01
 30
0.000000
  70
    32
  0
VERTEX
  8
SJC
  5
1006C
 10
5018.22
 20
1919.25
 30
0.000000
  70
    32
  0
VERTEX
  8
SJC
  5
1006D
 10
5018.08
 20
1919.50
 30
0.000000
  70
    32
  0
VERTEX
  8
SJC
  5
1006E
 10
5017.92
 20
1919.74
 30
0.000000
  70
    32
  0
VERTEX
  8
SJC
  5
1006F
 10
5017.76
 20
1919.98
 30
0.000000
  70
    32
  0
VERTEX
  8
SJC
  5
10070
 10
5017.58
 20
1920.22
 30
0.000000
  70
    32
  0
VERTEX
  8
SJC
  5
10071
 10
5017.39
 20
1920.46
 30
0.000000
  70
    32
  0
VERTEX
  8
SJC
  5
10072
 10
5017.20
 20
1920.70
 30
0.000000
  70
    32
  0
VERTEX
  8
SJC
  5
10073
 10
5016.99
 20
1920.94
 30
0.000000
  70
    32
  0
VERTEX
  8
SJC
  5
10074
 10
5016.78
 20
1921.18
 30
0.000000
  70
    32
  0
VERTEX
  8
SJC
  5
10075
 10
5016.55
 20
1921.42
 30
0.000000
  70
    32
  0
VERTEX
  8
SJC
  5
10076
 10
5016.31
 20
1921.66
 30
0.000000
  70
    32
  0
VERTEX
  8
SJC
  5
10077
 10
5016.07
 20
1921.90
 30
0.000000
  70
    32
  0
VERTEX
  8
SJC
  5
10078
 10
5015.81
 20
1922.14
 30
0.000000
  70
    32
  0
VERTEX
  8
SJC
  5
10079
 10
5015.55
 20
1922.38
 30
0.000000
  70
    32
  0
VERTEX
  8
SJC
  5
1007A
 10
5015.27
 20
1922.61
 30
0.000000
  70
    32
  0
VERTEX
  8
SJC
  5
1007B
 10
5014.99
 20
1922.85
 30
0.000000
  70
    32
  0
VERTEX
  8
SJC
  5
1007C
 10
5014.70
 20
1923.08
 30
0.000000
  70
    32
  0
VERTEX
  8
SJC
  5
1007D
 10
5014.39
 20
1923.32
 30
0.000000
  70
    32
  0
VERTEX
  8
SJC
  5
1007E
 10
5014.08
 20
1923.55
 30
0.000000
  70
    32
  0
VERTEX
  8
SJC
  5
1007F
 10
5013.76
 20
1923.78
 30
0.000000
  70
    32
  0
VERTEX
  8
SJC
  5
10080
 10
5013.42
 20
1924.02
 30
0.000000
  70
    32
  0
VERTEX
  8
SJC
  5
10081
 10
5013.08
 20
1924.25
 30
0.000000
  70
    32
  0
VERTEX
  8
SJC
  5
10082
 10
5012.73
 20
1924.48
 30
0.000000
  70
    32
  0
VERTEX
  8
SJC
  5
10083
 10
5012.37
 20
1924.71
 30
0.000000
  70
    32
  0
VERTEX
  8
SJC
  5
10084
 10
5012.00
 20
1924.94
 30
0.000000
  70
    32
  0
VERTEX
  8
SJC
  5
10085
 10
5011.62
 20
1925.17
 30
0.000000
  70
    32
  0
VERTEX
  8
SJC
  5
10086
 10
5011.23
 20
1925.39
 30
0.000000
  70
    32
  0
VERTEX
  8
SJC
  5
10087
 10
5010.83
 20
1925.62
 30
0.000000
  70
    32
  0
VERTEX
  8
SJC
  5
10088
 10
5010.42
 20
1925.84
 30
0.000000
  70
    32
  0
VERTEX
  8
SJC
  5
10089
 10
5010.00
 20
1926.07
 30
0.000000
  70
    32
  0
VERTEX
  8
SJC
  5
1008A
 10
5009.58
 20
1926.29
 30
0.000000
  70
    32
  0
VERTEX
  8
SJC
  5
1008B
 10
5009.14
 20
1926.51
 30
0.000000
  70
    32
  0
VERTEX
  8
SJC
  5
1008C
 10
5008.70
 20
1926.73
 30
0.000000
  70
    32
  0
VERTEX
  8
SJC
  5
1008D
 10
5008.24
 20
1926.96
 30
0.000000
  70
    32
  0
VERTEX
  8
SJC
  5
1008E
 10
5007.78
 20
1927.17
 30
0.000000
  70
    32
  0
VERTEX
  8
SJC
  5
1008F
 10
5007.31
 20
1927.39
 30
0.000000
  70
    32
  0
VERTEX
  8
SJC
  5
10090
 10
5006.83
 20
1927.61
 30
0.000000
  70
    32
  0
VERTEX
  8
SJC
  5
10091
 10
5006.34
 20
1927.83
 30
0.000000
  70
    32
  0
VERTEX
  8
SJC
  5
10092
 10
5005.84
 20
1928.04
 30
0.000000
  70
    32
  0
VERTEX
  8
SJC
  5
10093
 10
5005.33
 20
1928.25
 30
0.000000
  70
    32
  0
VERTEX
  8
SJC
  5
10094
 10
5004.81
 20
1928.47
 30
0.000000
  70
    32
  0
VERTEX
  8
SJC
  5
10095
 10
5004.29
 20
1928.68
 30
0.000000
  70
    32
  0
VERTEX
  8
SJC
  5
10096
 10
5003.75
 20
1928.89
 30
0.000000
  70
    32
  0
VERTEX
  8
SJC
  5
10097
 10
5003.21
 20
1929.10
 30
0.000000
  70
    32
  0
VERTEX
  8
SJC
  5
10098
 10
5002.66
 20
1929.30
 30
0.000000
  70
    32
  0
VERTEX
  8
SJC
  5
10099
 10
5002.10
 20
1929.51
 30
0.000000
  70
    32
  0
VERTEX
  8
SJC
  5
1009A
 10
5001.53
 20
1929.71
 30
0.000000
  70
    32
  0
VERTEX
  8
SJC
  5
1009B
 10
5000.96
 20
1929.92
 30
0.000000
  70
    32
  0
VERTEX
  8
SJC
  5
1009C
 10
5000.37
 20
1930.12
 30
0.000000
  70
    32
  0
VERTEX
  8
SJC
  5
1009D
 10
4999.78
 20
1930.32
 30
0.000000
  70
    32
  0
VERTEX
  8
SJC
  5
1009E
 10
4999.18
 20
1930.52
 30
0.000000
  70
    32
  0
VERTEX
  8
SJC
  5
1009F
 10
4998.57
 20
1930.72
 30
0.000000
  70
    32
  0
VERTEX
  8
SJC
  5
100A0
 10
4997.95
 20
1930.91
 30
0.000000
  70
    32
  0
VERTEX
  8
SJC
  5
100A1
 10
4997.32
 20
1931.11
 30
0.000000
  70
    32
  0
VERTEX
  8
SJC
  5
100A2
 10
4996.69
 20
1931.30
 30
0.000000
  70
    32
  0
VERTEX
  8
SJC
  5
100A3
 10
4996.05
 20
1931.49
 30
0.000000
  70
    32
  0
VERTEX
  8
SJC
  5
100A4
 10
4995.40
 20
1931.68
 30
0.000000
  70
    32
  0
VERTEX
  8
SJC
  5
100A5
 10
4994.74
 20
1931.87
 30
0.000000
  70
    32
  0
VERTEX
  8
SJC
  5
100A6
 10
4994.08
 20
1932.06
 30
0.000000
  70
    32
  0
VERTEX
  8
SJC
  5
100A7
 10
4993.40
 20
1932.25
 30
0.000000
  70
    32
  0
VERTEX
  8
SJC
  5
100A8
 10
4992.72
 20
1932.43
 30
0.000000
  70
    32
  0
VERTEX
  8
SJC
  5
100A9
 10
4992.03
 20
1932.61
 30
0.000000
  70
    32
  0
VERTEX
  8
SJC
  5
100AA
 10
4991.34
 20
1932.79
 30
0.000000
  70
    32
  0
VERTEX
  8
SJC
  5
100AB
 10
4990.64
 20
1932.97
 30
0.000000
  70
    32
  0
VERTEX
  8
SJC
  5
100AC
 10
4989.93
 20
1933.15
 30
0.000000
  70
    32
  0
VERTEX
  8
SJC
  5
100AD
 10
4989.21
 20
1933.33
 30
0.000000
  70
    32
  0
VERTEX
  8
SJC
  5
100AE
 10
4988.48
 20
1933.50
 30
0.000000
  70
    32
  0
VERTEX
  8
SJC
  5
100AF
 10
4987.75
 20
1933.67
 30
0.000000
  70
    32
  0
VERTEX
  8
SJC
  5
100B0
 10
4987.01
 20
1933.84
 30
0.000000
  70
    32
  0
VERTEX
  8
SJC
  5
100B1
 10
4986.27
 20
1934.01
 30
0.000000
  70
    32
  0
VERTEX
  8
SJC
  5
100B2
 10
4985.51
 20
1934.18
 30
0.000000
  70
    32
  0
VERTEX
  8
SJC
  5
100B3
 10
4984.75
 20
1934.35
 30
0.000000
  70
    32
  0
VERTEX
  8
SJC
  5
100B4
 10
4983.99
 20
1934.51
 30
0.000000
  70
    32
  0
VERTEX
  8
SJC
  5
100B5
 10
4983.21
 20
1934.67
 30
0.000000
  70
    32
  0
VERTEX
  8
SJC
  5
100B6
 10
4982.43
 20
1934.83
 30
0.000000
  70
    32
  0
VERTEX
  8
SJC
  5
100B7
 10
4981.65
 20
1934.99
 30
0.000000
  70
    32
  0
VERTEX
  8
SJC
  5
100B8
 10
4980.85
 20
1935.15
 30
0.000000
  70
    32
  0
VERTEX
  8
SJC
  5
100B9
 10
4980.06
 20
1935.30
 30
0.000000
  70
    32
  0
VERTEX
  8
SJC
  5
100BA
 10
4979.25
 20
1935.46
 30
0.000000
  70
    32
  0
VERTEX
  8
SJC
  5
100BB
 10
4978.44
 20
1935.61
 30
0.000000
  70
    32
  0
VERTEX
  8
SJC
  5
100BC
 10
4977.62
 20
1935.76
 30
0.000000
  70
    32
  0
VERTEX
  8
SJC
  5
100BD
 10
4976.79
 20
1935.90
 30
0.000000
  70
    32
  0
VERTEX
  8
SJC
  5
100BE
 10
4975.96
 20
1936.05
 30
0.000000
  70
    32
  0
VERTEX
  8
SJC
  5
100BF
 10
4975.13
 20
1936.19
 30
0.000000
  70
    32
  0
VERTEX
  8
SJC
  5
100C0
 10
4974.29
 20
1936.33
 30
0.000000
  70
    32
  0
VERTEX
  8
SJC
  5
100C1
 10
4973.44
 20
1936.47
 30
0.000000
  70
    32
  0
VERTEX
  8
SJC
  5
100C2
 10
4972.58
 20
1936.61
 30
0.000000
  70
    32
  0
VERTEX
  8
SJC
  5
100C3
 10
4971.72
 20
1936.75
 30
0.000000
  70
    32
  0
VERTEX
  8
SJC
  5
100C4
 10
4970.86
 20
1936.88
 30
0.000000
  70
    32
  0
VERTEX
  8
SJC
  5
100C5
 10
4969.99
 20
1937.01
 30
0.000000
  70
    32
  0
VERTEX
  8
SJC
  5
100C6
 10
4969.11
 20
1937.14
 30
0.000000
  70
    32
  0
VERTEX
  8
SJC
  5
100C7
 10
4968.23
 20
1937.27
 30
0.000000
  70
    32
  0
VERTEX
  8
SJC
  5
100C8
 10
4967.35
 20
1937.39
 30
0.000000
  70
    32
  0
VERTEX
  8
SJC
  5
100C9
 10
4966.46
 20
1937.51
 30
0.000000
  70
    32
  0
VERTEX
  8
SJC
  5
100CA
 10
4965.56
 20
1937.64
 30
0.000000
  70
    32
  0
VERTEX
  8
SJC
  5
100CB
 10
4964.66
 20
1937.75
 30
0.000000
  70
    32
  0
VERTEX
  8
SJC
  5
100CC
 10
4963.75
 20
1937.87
 30
0.000000
  70
    32
  0
VERTEX
  8
SJC
  5
100CD
 10
4962.84
 20
1937.99
 30
0.000000
  70
    32
  0
VERTEX
  8
SJC
  5
100CE
 10
4961.93
 20
1938.10
 30
0.000000
  70
    32
  0
VERTEX
  8
SJC
  5
100CF
 10
4961.01
 20
1938.21
 30
0.000000
  70
    32
  0
VERTEX
  8
SJC
  5
100D0
 10
4960.08
 20
1938.32
 30
0.000000
  70
    32
  0
VERTEX
  8
SJC
  5
100D1
 10
4959.15
 20
1938.42
 30
0.000000
  70
    32
  0
VERTEX
  8
SJC
  5
100D2
 10
4958.22
 20
1938.53
 30
0.000000
  70
    32
  0
VERTEX
  8
SJC
  5
100D3
 10
4957.28
 20
1938.63
 30
0.000000
  70
    32
  0
VERTEX
  8
SJC
  5
100D4
 10
4956.34
 20
1938.73
 30
0.000000
  70
    32
  0
VERTEX
  8
SJC
  5
100D5
 10
4955.39
 20
1938.83
 30
0.000000
  70
    32
  0
VERTEX
  8
SJC
  5
100D6
 10
4954.44
 20
1938.92
 30
0.000000
  70
    32
  0
VERTEX
  8
SJC
  5
100D7
 10
4953.49
 20
1939.01
 30
0.000000
  70
    32
  0
VERTEX
  8
SJC
  5
100D8
 10
4952.53
 20
1939.10
 30
0.000000
  70
    32
  0
VERTEX
  8
SJC
  5
100D9
 10
4951.57
 20
1939.19
 30
0.000000
  70
    32
  0
VERTEX
  8
SJC
  5
100DA
 10
4950.61
 20
1939.28
 30
0.000000
  70
    32
  0
VERTEX
  8
SJC
  5
100DB
 10
4949.64
 20
1939.36
 30
0.000000
  70
    32
  0
VERTEX
  8
SJC
  5
100DC
 10
4948.67
 20
1939.44
 30
0.000000
  70
    32
  0
VERTEX
  8
SJC
  5
100DD
 10
4947.69
 20
1939.52
 30
0.000000
  70
    32
  0
VERTEX
  8
SJC
  5
100DE
 10
4946.71
 20
1939.60
 30
0.000000
  70
    32
  0
SEQEND
  8
SJC
  5
100DF
  0
LINE
  5
EFDC
  8
SJC
 10
4914.21298394307
 20
2027.566686914201
 30
0.0
 11
4979.212983943069
 21
2027.566686914201
 31
0.0
  0
LINE
  5
EFDD
  8
CENTER
 10
4914.21298394307
 20
2115.0282412000429
 30
0.0
 11
4914.21298394307
 21
1918.618844970701
 31
0.0
  0
ARC
  5
EFDE
  8
SJC
 10
4821.6302857280234
 20
2099.9879573766289
 30
0.0
 40
96.658891249940524
 50
270.0
 51
299.49018157546629
  0
LINE
  5
EFDF
  8
KEN
 10
4821.6302857280234
 20
2003.329066126684
 30
0.0
 11
4804.212983943069
 21
2003.3290661266931
 31
0.0
  0
POLYLINE
  5
EFE0
  8
SJC
 10
4883.4629839430609
 20
1940.8290661266931
 30
0.0
 66
     1
 70
     8
  0
VERTEX
  8
SJC
  5
100E0
 10
4883.46
 20
1940.83
 30
0.000000
  70
    32
  0
VERTEX
  8
SJC
  5
100E1
 10
4882.43
 20
1940.83
 30
0.000000
  70
    32
  0
VERTEX
  8
SJC
  5
100E2
 10
4881.40
 20
1940.84
 30
0.000000
  70
    32
  0
VERTEX
  8
SJC
  5
100E3
 10
4880.36
 20
1940.86
 30
0.000000
  70
    32
  0
VERTEX
  8
SJC
  5
100E4
 10
4879.33
 20
1940.89
 30
0.000000
  70
    32
  0
VERTEX
  8
SJC
  5
100E5
 10
4878.30
 20
1940.93
 30
0.000000
  70
    32
  0
VERTEX
  8
SJC
  5
100E6
 10
4877.27
 20
1940.97
 30
0.000000
  70
    32
  0
VERTEX
  8
SJC
  5
100E7
 10
4876.23
 20
1941.02
 30
0.000000
  70
    32
  0
VERTEX
  8
SJC
  5
100E8
 10
4875.21
 20
1941.08
 30
0.000000
  70
    32
  0
VERTEX
  8
SJC
  5
100E9
 10
4874.18
 20
1941.15
 30
0.000000
  70
    32
  0
VERTEX
  8
SJC
  5
100EA
 10
4873.15
 20
1941.22
 30
0.000000
  70
    32
  0
VERTEX
  8
SJC
  5
100EB
 10
4872.12
 20
1941.31
 30
0.000000
  70
    32
  0
VERTEX
  8
SJC
  5
100EC
 10
4871.10
 20
1941.40
 30
0.000000
  70
    32
  0
VERTEX
  8
SJC
  5
100ED
 10
4870.08
 20
1941.50
 30
0.000000
  70
    32
  0
VERTEX
  8
SJC
  5
100EE
 10
4869.06
 20
1941.60
 30
0.000000
  70
    32
  0
VERTEX
  8
SJC
  5
100EF
 10
4868.04
 20
1941.72
 30
0.000000
  70
    32
  0
VERTEX
  8
SJC
  5
100F0
 10
4867.03
 20
1941.84
 30
0.000000
  70
    32
  0
VERTEX
  8
SJC
  5
100F1
 10
4866.01
 20
1941.97
 30
0.000000
  70
    32
  0
VERTEX
  8
SJC
  5
100F2
 10
4865.00
 20
1942.10
 30
0.000000
  70
    32
  0
VERTEX
  8
SJC
  5
100F3
 10
4864.00
 20
1942.25
 30
0.000000
  70
    32
  0
VERTEX
  8
SJC
  5
100F4
 10
4862.99
 20
1942.40
 30
0.000000
  70
    32
  0
VERTEX
  8
SJC
  5
100F5
 10
4861.99
 20
1942.56
 30
0.000000
  70
    32
  0
VERTEX
  8
SJC
  5
100F6
 10
4860.99
 20
1942.73
 30
0.000000
  70
    32
  0
VERTEX
  8
SJC
  5
100F7
 10
4860.00
 20
1942.91
 30
0.000000
  70
    32
  0
VERTEX
  8
SJC
  5
100F8
 10
4859.01
 20
1943.09
 30
0.000000
  70
    32
  0
VERTEX
  8
SJC
  5
100F9
 10
4858.02
 20
1943.28
 30
0.000000
  70
    32
  0
VERTEX
  8
SJC
  5
100FA
 10
4857.04
 20
1943.48
 30
0.000000
  70
    32
  0
VERTEX
  8
SJC
  5
100FB
 10
4856.06
 20
1943.68
 30
0.000000
  70
    32
  0
VERTEX
  8
SJC
  5
100FC
 10
4855.08
 20
1943.90
 30
0.000000
  70
    32
  0
VERTEX
  8
SJC
  5
100FD
 10
4854.11
 20
1944.12
 30
0.000000
  70
    32
  0
VERTEX
  8
SJC
  5
100FE
 10
4853.14
 20
1944.35
 30
0.000000
  70
    32
  0
VERTEX
  8
SJC
  5
100FF
 10
4852.18
 20
1944.58
 30
0.000000
  70
    32
  0
VERTEX
  8
SJC
  5
10100
 10
4851.22
 20
1944.83
 30
0.000000
  70
    32
  0
VERTEX
  8
SJC
  5
10101
 10
4850.27
 20
1945.08
 30
0.000000
  70
    32
  0
VERTEX
  8
SJC
  5
10102
 10
4849.32
 20
1945.33
 30
0.000000
  70
    32
  0
VERTEX
  8
SJC
  5
10103
 10
4848.38
 20
1945.60
 30
0.000000
  70
    32
  0
VERTEX
  8
SJC
  5
10104
 10
4847.44
 20
1945.87
 30
0.000000
  70
    32
  0
VERTEX
  8
SJC
  5
10105
 10
4846.51
 20
1946.15
 30
0.000000
  70
    32
  0
VERTEX
  8
SJC
  5
10106
 10
4845.58
 20
1946.43
 30
0.000000
  70
    32
  0
VERTEX
  8
SJC
  5
10107
 10
4844.66
 20
1946.73
 30
0.000000
  70
    32
  0
VERTEX
  8
SJC
  5
10108
 10
4843.75
 20
1947.03
 30
0.000000
  70
    32
  0
VERTEX
  8
SJC
  5
10109
 10
4842.84
 20
1947.34
 30
0.000000
  70
    32
  0
VERTEX
  8
SJC
  5
1010A
 10
4841.94
 20
1947.65
 30
0.000000
  70
    32
  0
VERTEX
  8
SJC
  5
1010B
 10
4841.04
 20
1947.97
 30
0.000000
  70
    32
  0
VERTEX
  8
SJC
  5
1010C
 10
4840.15
 20
1948.30
 30
0.000000
  70
    32
  0
VERTEX
  8
SJC
  5
1010D
 10
4839.27
 20
1948.63
 30
0.000000
  70
    32
  0
VERTEX
  8
SJC
  5
1010E
 10
4838.39
 20
1948.97
 30
0.000000
  70
    32
  0
VERTEX
  8
SJC
  5
1010F
 10
4837.52
 20
1949.32
 30
0.000000
  70
    32
  0
VERTEX
  8
SJC
  5
10110
 10
4836.66
 20
1949.68
 30
0.000000
  70
    32
  0
VERTEX
  8
SJC
  5
10111
 10
4835.80
 20
1950.04
 30
0.000000
  70
    32
  0
VERTEX
  8
SJC
  5
10112
 10
4834.95
 20
1950.41
 30
0.000000
  70
    32
  0
VERTEX
  8
SJC
  5
10113
 10
4834.11
 20
1950.78
 30
0.000000
  70
    32
  0
VERTEX
  8
SJC
  5
10114
 10
4833.28
 20
1951.16
 30
0.000000
  70
    32
  0
VERTEX
  8
SJC
  5
10115
 10
4832.45
 20
1951.55
 30
0.000000
  70
    32
  0
VERTEX
  8
SJC
  5
10116
 10
4831.63
 20
1951.94
 30
0.000000
  70
    32
  0
VERTEX
  8
SJC
  5
10117
 10
4830.82
 20
1952.34
 30
0.000000
  70
    32
  0
VERTEX
  8
SJC
  5
10118
 10
4830.02
 20
1952.75
 30
0.000000
  70
    32
  0
VERTEX
  8
SJC
  5
10119
 10
4829.22
 20
1953.16
 30
0.000000
  70
    32
  0
VERTEX
  8
SJC
  5
1011A
 10
4828.43
 20
1953.58
 30
0.000000
  70
    32
  0
VERTEX
  8
SJC
  5
1011B
 10
4827.65
 20
1954.00
 30
0.000000
  70
    32
  0
VERTEX
  8
SJC
  5
1011C
 10
4826.88
 20
1954.43
 30
0.000000
  70
    32
  0
VERTEX
  8
SJC
  5
1011D
 10
4826.12
 20
1954.86
 30
0.000000
  70
    32
  0
VERTEX
  8
SJC
  5
1011E
 10
4825.37
 20
1955.31
 30
0.000000
  70
    32
  0
VERTEX
  8
SJC
  5
1011F
 10
4824.62
 20
1955.75
 30
0.000000
  70
    32
  0
VERTEX
  8
SJC
  5
10120
 10
4823.89
 20
1956.21
 30
0.000000
  70
    32
  0
VERTEX
  8
SJC
  5
10121
 10
4823.16
 20
1956.66
 30
0.000000
  70
    32
  0
VERTEX
  8
SJC
  5
10122
 10
4822.45
 20
1957.13
 30
0.000000
  70
    32
  0
VERTEX
  8
SJC
  5
10123
 10
4821.74
 20
1957.60
 30
0.000000
  70
    32
  0
VERTEX
  8
SJC
  5
10124
 10
4821.04
 20
1958.07
 30
0.000000
  70
    32
  0
VERTEX
  8
SJC
  5
10125
 10
4820.35
 20
1958.55
 30
0.000000
  70
    32
  0
VERTEX
  8
SJC
  5
10126
 10
4819.67
 20
1959.04
 30
0.000000
  70
    32
  0
VERTEX
  8
SJC
  5
10127
 10
4819.00
 20
1959.53
 30
0.000000
  70
    32
  0
VERTEX
  8
SJC
  5
10128
 10
4818.34
 20
1960.02
 30
0.000000
  70
    32
  0
VERTEX
  8
SJC
  5
10129
 10
4817.69
 20
1960.52
 30
0.000000
  70
    32
  0
VERTEX
  8
SJC
  5
1012A
 10
4817.04
 20
1961.03
 30
0.000000
  70
    32
  0
VERTEX
  8
SJC
  5
1012B
 10
4816.41
 20
1961.54
 30
0.000000
  70
    32
  0
VERTEX
  8
SJC
  5
1012C
 10
4815.79
 20
1962.05
 30
0.000000
  70
    32
  0
VERTEX
  8
SJC
  5
1012D
 10
4815.18
 20
1962.57
 30
0.000000
  70
    32
  0
VERTEX
  8
SJC
  5
1012E
 10
4814.58
 20
1963.10
 30
0.000000
  70
    32
  0
VERTEX
  8
SJC
  5
1012F
 10
4813.99
 20
1963.63
 30
0.000000
  70
    32
  0
VERTEX
  8
SJC
  5
10130
 10
4813.41
 20
1964.16
 30
0.000000
  70
    32
  0
VERTEX
  8
SJC
  5
10131
 10
4812.84
 20
1964.70
 30
0.000000
  70
    32
  0
VERTEX
  8
SJC
  5
10132
 10
4812.28
 20
1965.24
 30
0.000000
  70
    32
  0
VERTEX
  8
SJC
  5
10133
 10
4811.74
 20
1965.79
 30
0.000000
  70
    32
  0
VERTEX
  8
SJC
  5
10134
 10
4811.20
 20
1966.34
 30
0.000000
  70
    32
  0
VERTEX
  8
SJC
  5
10135
 10
4810.67
 20
1966.89
 30
0.000000
  70
    32
  0
VERTEX
  8
SJC
  5
10136
 10
4810.16
 20
1967.45
 30
0.000000
  70
    32
  0
VERTEX
  8
SJC
  5
10137
 10
4809.65
 20
1968.01
 30
0.000000
  70
    32
  0
VERTEX
  8
SJC
  5
10138
 10
4809.16
 20
1968.58
 30
0.000000
  70
    32
  0
VERTEX
  8
SJC
  5
10139
 10
4808.68
 20
1969.15
 30
0.000000
  70
    32
  0
VERTEX
  8
SJC
  5
1013A
 10
4808.21
 20
1969.72
 30
0.000000
  70
    32
  0
VERTEX
  8
SJC
  5
1013B
 10
4807.75
 20
1970.30
 30
0.000000
  70
    32
  0
VERTEX
  8
SJC
  5
1013C
 10
4807.30
 20
1970.88
 30
0.000000
  70
    32
  0
VERTEX
  8
SJC
  5
1013D
 10
4806.87
 20
1971.47
 30
0.000000
  70
    32
  0
VERTEX
  8
SJC
  5
1013E
 10
4806.44
 20
1972.05
 30
0.000000
  70
    32
  0
VERTEX
  8
SJC
  5
1013F
 10
4806.03
 20
1972.64
 30
0.000000
  70
    32
  0
VERTEX
  8
SJC
  5
10140
 10
4805.63
 20
1973.24
 30
0.000000
  70
    32
  0
VERTEX
  8
SJC
  5
10141
 10
4805.24
 20
1973.83
 30
0.000000
  70
    32
  0
VERTEX
  8
SJC
  5
10142
 10
4804.86
 20
1974.43
 30
0.000000
  70
    32
  0
VERTEX
  8
SJC
  5
10143
 10
4804.49
 20
1975.04
 30
0.000000
  70
    32
  0
VERTEX
  8
SJC
  5
10144
 10
4804.14
 20
1975.64
 30
0.000000
  70
    32
  0
VERTEX
  8
SJC
  5
10145
 10
4803.80
 20
1976.25
 30
0.000000
  70
    32
  0
VERTEX
  8
SJC
  5
10146
 10
4803.47
 20
1976.86
 30
0.000000
  70
    32
  0
VERTEX
  8
SJC
  5
10147
 10
4803.15
 20
1977.47
 30
0.000000
  70
    32
  0
VERTEX
  8
SJC
  5
10148
 10
4802.84
 20
1978.09
 30
0.000000
  70
    32
  0
VERTEX
  8
SJC
  5
10149
 10
4802.55
 20
1978.71
 30
0.000000
  70
    32
  0
VERTEX
  8
SJC
  5
1014A
 10
4802.26
 20
1979.33
 30
0.000000
  70
    32
  0
VERTEX
  8
SJC
  5
1014B
 10
4802.00
 20
1979.95
 30
0.000000
  70
    32
  0
VERTEX
  8
SJC
  5
1014C
 10
4801.74
 20
1980.57
 30
0.000000
  70
    32
  0
VERTEX
  8
SJC
  5
1014D
 10
4801.49
 20
1981.20
 30
0.000000
  70
    32
  0
VERTEX
  8
SJC
  5
1014E
 10
4801.26
 20
1981.83
 30
0.000000
  70
    32
  0
VERTEX
  8
SJC
  5
1014F
 10
4801.04
 20
1982.46
 30
0.000000
  70
    32
  0
VERTEX
  8
SJC
  5
10150
 10
4800.83
 20
1983.09
 30
0.000000
  70
    32
  0
VERTEX
  8
SJC
  5
10151
 10
4800.64
 20
1983.72
 30
0.000000
  70
    32
  0
VERTEX
  8
SJC
  5
10152
 10
4800.45
 20
1984.35
 30
0.000000
  70
    32
  0
VERTEX
  8
SJC
  5
10153
 10
4800.28
 20
1984.99
 30
0.000000
  70
    32
  0
VERTEX
  8
SJC
  5
10154
 10
4800.12
 20
1985.63
 30
0.000000
  70
    32
  0
VERTEX
  8
SJC
  5
10155
 10
4799.98
 20
1986.26
 30
0.000000
  70
    32
  0
VERTEX
  8
SJC
  5
10156
 10
4799.85
 20
1986.90
 30
0.000000
  70
    32
  0
VERTEX
  8
SJC
  5
10157
 10
4799.73
 20
1987.54
 30
0.000000
  70
    32
  0
VERTEX
  8
SJC
  5
10158
 10
4799.62
 20
1988.18
 30
0.000000
  70
    32
  0
VERTEX
  8
SJC
  5
10159
 10
4799.52
 20
1988.82
 30
0.000000
  70
    32
  0
VERTEX
  8
SJC
  5
1015A
 10
4799.44
 20
1989.47
 30
0.000000
  70
    32
  0
VERTEX
  8
SJC
  5
1015B
 10
4799.37
 20
1990.11
 30
0.000000
  70
    32
  0
VERTEX
  8
SJC
  5
1015C
 10
4799.31
 20
1990.75
 30
0.000000
  70
    32
  0
VERTEX
  8
SJC
  5
1015D
 10
4799.27
 20
1991.40
 30
0.000000
  70
    32
  0
VERTEX
  8
SJC
  5
1015E
 10
4799.24
 20
1992.04
 30
0.000000
  70
    32
  0
VERTEX
  8
SJC
  5
1015F
 10
4799.22
 20
1992.68
 30
0.000000
  70
    32
  0
VERTEX
  8
SJC
  5
10160
 10
4799.21
 20
1993.33
 30
0.000000
  70
    32
  0
SEQEND
  8
SJC
  5
10161
  0
LINE
  5
EFE1
  8
SJC
 10
4799.212983943069
 20
1998.3290661266931
 30
0.0
 11
4799.212983943069
 21
1993.3290661266931
 31
0.0
  0
ARC
  5
EFE2
  8
SJC
 10
4804.212983943069
 20
1998.3290661266931
 30
0.0
 40
5.0
 50
90.0
 51
180.0
  0
LINE
  5
EFE3
  8
KEN
 10
5013.3947917634196
 20
1940.8290661266931
 30
0.0
 11
4883.4629839430609
 21
1940.8290661266931
 31
0.0
  0
ARC
  5
EFE4
  8
SJC
 10
4914.21298394307
 20
1935.278100013506
 30
0.0
 40
92.288586900695563
 50
90.0
 51
119.1830186931647
  0
LINE
  5
EFE5
  8
HASEN
 10
5326.7956821581338
 20
2003.3290661266931
 30
0.0
 11
5260.462983943069
 21
2003.3290661266931
 31
0.0
  0
ARC
  5
EFE6
  8
SJC
 10
5074.212983943069
 20
1915.8290661266931
 30
0.0
 40
55.0
 50
0.0
 51
0.0426555677144815
  0
LINE
  5
EFE7
  8
SJC
 10
5201.711383943074
 20
1940.8290661266931
 30
0.0
 11
5135.0311761227194
 21
1940.8290661266931
 31
0.0
  0
LINE
  5
EFE8
  8
KEN
 10
5326.7956821581156
 20
2003.3290661267561
 30
0.0
 11
5344.212983943069
 21
2003.329066126711
 31
0.0
  0
ARC
  5
EFE9
  8
SJC
 10
5344.212983943069
 20
1998.3290661267019
 30
0.0
 40
5.0
 50
359.99999999989581
 51
89.999999999791555
  0
LINE
  5
EFEA
  8
CENTER
 10
5234.212983943069
 20
2049.7769080701928
 30
0.0
 11
5234.212983943069
 21
1918.618844970701
 31
0.0
  0
ARC
  5
EFEB
  8
SJC
 10
5074.212983943069
 20
1915.8290661266931
 30
0.0
 40
58.950000000000003
 50
31.657644216360929
 51
90.0
  0
ARC
  5
EFEC
  8
SJC
 10
5074.212983943069
 20
1915.8290661266931
 30
0.0
 40
58.950000000000003
 50
102.7556565970029
 51
148.34235578363911
  0
ARC
  5
EFED
  8
SJC
 10
5013.3947917634196
 20
1953.3290661266931
 30
0.0
 40
12.5
 50
270.0
 51
328.34235578363899
  0
ARC
  5
EFEE
  8
SJC
 10
5135.0311761227194
 20
1953.3290661266931
 30
0.0
 40
12.5
 50
211.65764421636089
 51
270.0
  0
LINE
  5
EFEF
  8
HASEN
 10
5272.962983943069
 20
1973.3290661266931
 30
0.0
 11
5272.962983943069
 21
1946.4824508653001
 31
0.0
  0
LINE
  5
EFF0
  8
HASEN
 10
5255.4629839430681
 20
1998.3290661266931
 30
0.0
 11
5255.4629839430681
 21
1983.3290661266931
 31
0.0
  0
LINE
  5
EFF1
  8
HASEN
 10
5267.962983943069
 20
1978.3290661266931
 30
0.0
 11
5260.462983943069
 21
1978.3290661266931
 31
0.0
  0
ARC
  5
EFF2
  8
HASEN
 10
5267.962983943069
 20
1973.3290661266931
 30
0.0
 40
5.0
 50
0.0
 51
90.0
  0
ARC
  5
EFF3
  8
HASEN
 10
5260.462983943069
 20
1983.3290661266931
 30
0.0
 40
5.0
 50
180.0
 51
270.0
  0
ARC
  5
EFF4
  8
HASEN
 10
5260.462983943069
 20
1998.3290661266931
 30
0.0
 40
5.0
 50
90.0
 51
180.0
  0
ARC
  5
EFF5
  8
HASEN
 10
5277.962983943069
 20
1946.4824508653001
 30
0.0
 40
5.0
 50
180.0
 51
288.6512921157622
  0
LINE
  5
EFF6
  8
HASEN
 10
5195.46298394307
 20
1973.3290661266931
 30
0.0
 11
5195.46298394307
 21
1946.4824508653001
 31
0.0
  0
LINE
  5
EFF7
  8
HASEN
 10
5212.962983943069
 20
1998.3290661266931
 30
0.0
 11
5212.962983943069
 21
1983.3290661266931
 31
0.0
  0
LINE
  5
EFF8
  8
HASEN
 10
5200.462983943069
 20
1978.3290661266931
 30
0.0
 11
5207.962983943069
 21
1978.3290661266931
 31
0.0
  0
ARC
  5
EFF9
  8
HASEN
 10
5200.462983943069
 20
1973.3290661266931
 30
0.0
 40
5.0
 50
90.0
 51
180.0
  0
ARC
  5
EFFA
  8
HASEN
 10
5207.962983943069
 20
1983.3290661266931
 30
0.0
 40
5.0
 50
270.0
 51
0.0
  0
ARC
  5
EFFB
  8
HASEN
 10
5207.962983943069
 20
1998.3290661266931
 30
0.0
 40
5.0
 50
0.0
 51
90.0
  0
ARC
  5
EFFC
  8
HASEN
 10
5190.462983943069
 20
1945.8290661266931
 30
0.0
 40
5.0
 50
270.0
 51
0.0
  0
ARC
  5
EFFD
  8
SJC2
 10
4881.4942555988437
 20
1733.7118091332959
 30
0.0
 40
248.5271341393358
 50
58.529345915657508
 51
85.383035376092934
  0
LINE
  5
EFFE
  8
HASEN
 10
5216.8908758673924
 20
1949.8854392953119
 30
0.0
 11
5234.2113839430731
 21
1959.8854392953119
 31
0.0
  0
ARC
  5
EFFF
  8
HASEN
 10
5234.2113839430731
 20
1926.0745499534719
 30
0.0
 40
25.336899006185579
 50
70.013176865165875
 51
109.9868231348341
  0
LINE
  5
F000
  8
SJC
 10
5214.2113839430731
 20
2089.8854392953122
 30
0.0
 11
5254.2113839430731
 21
2089.8854392953122
 31
0.0
  0
LINE
  5
F001
  8
SJC
 10
5214.2113839430731
 20
1977.3854392953119
 30
0.0
 11
5254.2113839430731
 21
1977.3854392953119
 31
0.0
  0
LINE
  5
F002
  8
SJC
 10
5219.2113839430731
 20
2094.8854392953122
 30
0.0
 11
5249.2113839430731
 21
2094.8854392953122
 31
0.0
  0
LINE
  5
F003
  8
SJC
 10
5201.711383943074
 20
1969.885439295311
 30
0.0
 11
5266.7113839430731
 21
1969.885439295311
 31
0.0
  0
LINE
  5
F004
  8
SJC
 10
5206.7113839430731
 20
1929.885439295311
 30
0.0
 11
5261.7113839430722
 21
1929.885439295311
 31
0.0
  0
LINE
  5
F005
  8
SJC2
 10
5249.2113839430731
 20
2094.8854392953122
 30
0.0
 11
5249.2113839430731
 21
1977.3854392953119
 31
0.0
  0
LINE
  5
F006
  8
SJC
 10
5254.2113839430731
 20
1974.8854392953069
 30
0.0
 11
5254.2113839430731
 21
2089.8854392953122
 31
0.0
  0
LINE
  5
F007
  8
CENTER
 10
5234.2113839430731
 20
1913.1402868345949
 30
0.0
 11
5234.2113839430731
 21
2115.7060050782452
 31
0.0
  0
LINE
  5
F008
  8
HASEN
 10
5251.5318920187538
 20
1929.885439295311
 30
0.0
 11
5251.5318920187538
 21
1949.8854392953119
 31
0.0
  0
LINE
  5
F009
  8
HASEN
 10
5242.8716379809139
 20
1929.885439295311
 30
0.0
 11
5242.8716379809139
 21
1949.8854392953119
 31
0.0
  0
ARC
  5
F00A
  8
SJC
 10
5261.7113839430722
 20
1934.8854392953119
 30
0.0
 40
5.0
 50
270.0
 51
0.0
  0
LINE
  5
F00B
  8
SJC
 10
5266.7113839430731
 20
1934.8854392953119
 30
0.0
 11
5266.7113839430731
 21
1969.885439295311
 31
0.0
  0
LINE
  5
F00C
  8
HASEN
 10
5251.5318920187538
 20
1949.8854392953119
 30
0.0
 11
5234.2113839430731
 21
1959.8854392953119
 31
0.0
  0
ARC
  5
F00D
  8
HASEN
 10
5247.2017649998252
 20
1943.044815337716
 30
0.0
 40
8.095933308095681
 50
57.666117509574981
 51
122.333882490425
  0
LINE
  5
F00E
  8
SJC2
 10
5249.2113839430731
 20
1977.3854392953119
 30
0.0
 11
5250.8780506097337
 21
1974.8854392953069
 31
0.0
  0
LINE
  5
F00F
  8
SJC
 10
5249.2113839430731
 20
2094.8854392953122
 30
0.0
 11
5254.2113839430731
 21
2089.8854392953122
 31
0.0
  0
LINE
  5
F010
  8
SJC2
 10
5219.2113839430731
 20
2094.8854392953122
 30
0.0
 11
5219.2113839430731
 21
1977.3854392953119
 31
0.0
  0
LINE
  5
F011
  8
SJC
 10
5214.2113839430731
 20
1974.885439295311
 30
0.0
 11
5214.2113839430731
 21
2089.8854392953122
 31
0.0
  0
LINE
  5
F012
  8
HASEN
 10
5225.5511299052323
 20
1929.885439295311
 30
0.0
 11
5225.5511299052323
 21
1949.8854392953119
 31
0.0
  0
LINE
  5
F013
  8
HASEN
 10
5216.8908758673924
 20
1929.885439295311
 30
0.0
 11
5216.8908758673924
 21
1949.8854392953119
 31
0.0
  0
ARC
  5
F014
  8
SJC
 10
5206.7113839430731
 20
1934.8854392953119
 30
0.0
 40
5.0
 50
180.0
 51
270.0
  0
LINE
  5
F015
  8
SJC
 10
5201.711383943074
 20
1934.8854392953119
 30
0.0
 11
5201.711383943074
 21
1969.885439295311
 31
0.0
  0
ARC
  5
F016
  8
HASEN
 10
5221.2210028863019
 20
1943.0448153377249
 30
0.0
 40
8.095933308095681
 50
57.666117509574981
 51
122.333882490425
  0
LINE
  5
F017
  8
SJC2
 10
5219.2113839430731
 20
1977.3854392953119
 30
0.0
 11
5217.5447172763943
 21
1974.885439295311
 31
0.0
  0
LINE
  5
F018
  8
SJC
 10
5214.2113839430731
 20
2089.8854392953122
 30
0.0
 11
5219.2113839430731
 21
2094.8854392953122
 31
0.0
  0
LINE
  5
F019
  8
SJC
 10
5272.7113839430767
 20
1969.885439295311
 30
0.0
 11
5195.7113839430704
 21
1969.885439295321
 31
0.0
  0
LINE
  5
F01A
  8
SJC
 10
5272.7113839430767
 20
1974.8854392953019
 30
0.0
 11
5195.7113839430704
 21
1974.885439295311
 31
0.0
  0
LINE
  5
F01B
  8
SJC
 10
5272.7113839430767
 20
1969.885439295311
 30
0.0
 11
5272.7113839430767
 21
1974.885439295311
 31
0.0
  0
LINE
  5
F01C
  8
SJC
 10
5195.7113839430704
 20
1969.885439295311
 30
0.0
 11
5195.7113839430704
 21
1974.885439295311
 31
0.0
  0
LINE
  5
F01D
  8
SJC
 10
5232.745373002288
 20
1969.885439295311
 30
0.0
 11
5231.4792370267951
 21
1974.885439295311
 31
0.0
  0
LINE
  5
F01E
  8
SJC
 10
5235.5870356413816
 20
1974.885439295311
 30
0.0
 11
5236.8531714609508
 21
1969.885439295311
 31
0.0
  0
LINE
  5
F01F
  8
HASEN
 10
5213.2129839430663
 20
2034.3278811267
 30
0.0
 11
5213.2129839430663
 21
2060.610035800099
 31
0.0
  0
LINE
  5
F020
  8
HASEN
 10
5216.712983943069
 20
2034.3278811267
 30
0.0
 11
5216.712983943069
 21
2059.0951496151042
 31
0.0
  0
LINE
  5
F021
  8
SJC
 10
5210.7129839430836
 20
2048.3278811266782
 30
0.0
 11
5210.7129839430654
 21
2061.9014742555091
 31
0.0
  0
ARC
  5
F022
  8
SJC
 10
5208.2129839430827
 20
2048.3278811266882
 30
0.0
 40
2.5
 50
270.0
 51
0.0
  0
ARC
  5
F023
  8
SJC
 10
5234.212983943069
 20
2104.3278811267
 30
0.0
 40
48.499999999999929
 50
241.01791773223781
 51
245.6440521713734
  0
ARC
  5
F024
  8
HASEN
 10
5234.212983943069
 20
2104.3278811267
 30
0.0
 40
48.499999999999929
 50
245.6440521713734
 51
248.84914509190921
  0
ARC
  5
F025
  8
HASEN
 10
5234.212983943069
 20
2104.3278811267
 30
0.0
 40
48.499999999999929
 50
291.15085490809071
 51
294.35179824149759
  0
ARC
  5
F026
  8
SJC
 10
5234.212983943069
 20
2104.3278811267
 30
0.0
 40
48.499999999999929
 50
294.35179824149759
 51
298.98208226776222
  0
LINE
  5
F027
  8
SJC
 10
5257.7129839430909
 20
2048.3278811266782
 30
0.0
 11
5257.7129839430718
 21
2061.9014742555091
 31
0.0
  0
ARC
  5
F028
  8
SJC
 10
5260.2129839430727
 20
2048.3278811266882
 30
0.0
 40
2.5
 50
180.0
 51
270.0
  0
LINE
  5
F029
  8
HASEN
 10
5255.2129839430909
 20
2034.3278811267
 30
0.0
 11
5255.2129839430727
 21
2060.610035800099
 31
0.0
  0
LINE
  5
F02A
  8
HASEN
 10
5251.712983943069
 20
2034.3278811267
 30
0.0
 11
5251.712983943069
 21
2059.0951496151042
 31
0.0
  0
ARC
  5
F02B
  8
SJC
 10
4494.5471126805178
 20
2116.7508971461571
 30
0.0
 40
492.34741210937489
 50
349.8657384086294
 51
10.134264152684169
  0
ARC
  5
F02C
  8
SJC
 10
5074.212983943069
 20
2323.0821120509422
 30
0.0
 40
350.0
 50
257.85894009488072
 51
269.99999749537488
  0
ARC
  5
F02D
  8
SJC
 10
5005.8592165480486
 20
2005.3514373072901
 30
0.0
 40
25.0
 50
200.90881596505309
 51
257.85894009488072
  0
ARC
  5
F02E
  8
SJC
 10
5029.212983943069
 20
2014.2734801539691
 30
0.0
 40
49.999999999999993
 50
180.00000500893731
 51
200.9088259829478
  0
LINE
  5
F02F
  8
SJC
 10
4979.212983943069
 20
2030.119713521889
 30
0.0
 11
4979.212983943069
 21
2014.2734801539691
 31
0.0
  0
ARC
  5
F030
  8
SJC
 10
5074.212983943069
 20
1944.6320903071669
 30
0.0
 40
285.0
 50
71.250661949704238
 51
108.7493430591682
  0
ARC
  5
F031
  8
SJC
 10
4984.212983943069
 20
2209.7735488185199
 30
0.0
 40
4.9999999999999956
 50
108.7493430591682
 51
180.00000500893731
  0
LINE
  5
F032
  8
SJC
 10
4979.212983943069
 20
2209.7735488185199
 30
0.0
 11
4979.212983943069
 21
2203.3820998439101
 31
0.0
  0
LINE
  5
F033
  8
SJC
 10
5169.212983943069
 20
2209.7735488185199
 30
0.0
 11
5169.212983943069
 21
2203.3820998439101
 31
0.0
  0
ARC
  5
F034
  8
SJC
 10
5164.21298394307
 20
2209.7735488185199
 30
0.0
 40
5.0
 50
0.0
 51
71.250661949704238
  0
LINE
  5
F035
  8
SJC
 10
4886.7129839430881
 20
1929.885439295311
 30
0.0
 11
4941.7129839430872
 21
1929.885439295311
 31
0.0
  0
LINE
  5
F036
  8
CENTER
 10
4914.2129839430872
 20
1913.1402868345949
 30
0.0
 11
4914.2129839430872
 21
2038.68394906246
 31
0.0
  0
ARC
  5
F037
  8
SJC
 10
4941.7129839430872
 20
1934.8854392953119
 30
0.0
 40
5.0
 50
270.0
 51
0.0
  0
LINE
  5
F038
  8
SJC
 10
4946.7129839430872
 20
1934.8854392953119
 30
0.0
 11
4946.7129839430872
 21
1940.8290661266931
 31
0.0
  0
ARC
  5
F039
  8
SJC
 10
4886.7129839430881
 20
1934.8854392953119
 30
0.0
 40
5.0
 50
180.0
 51
270.0
  0
LINE
  5
F03A
  8
SJC
 10
4881.7129839430881
 20
1934.8854392953119
 30
0.0
 11
4881.7129839430881
 21
1940.8290661266931
 31
0.0
  0
POINT
  5
F03B
  8
DEFPOINTS
 10
5074.212983943069
 20
1865.8847153071649
 30
0.0
  0
ARC
  5
F03C
  8
SJC
 10
5074.212983943069
 20
1915.884715307164
 30
0.0
 40
55.0
 50
0.0
 51
0.0426559987702406
  0
ARC
  5
F03D
  8
SJC
 10
5074.212983943069
 20
1915.884715307164
 30
0.0
 40
55.0
 50
0.0
 51
0.0426559987702406
  0
ARC
  5
F03E
  8
SJC
 10
5074.212983943069
 20
1915.831691126695
 30
0.0
 40
55.0
 50
179.95734443228551
 51
180.0
  0
ARC
  5
F03F
  8
HATCH
 10
5074.212983943069
 20
1915.831691126695
 30
0.0
 40
55.0
 50
0.0
 51
0.0426555677144815
  0
LINE
  5
F040
  8
HATCH
 10
4805.962885286287
 20
2179.283687319607
 30
0.0
 11
4857.3839914393538
 21
2179.2836872756329
 31
0.0
  0
LINE
  5
F041
  8
HATCH
 10
4910.8191693230647
 20
2172.8027117452571
 30
0.0
 11
4962.2402754761488
 21
2172.8027117012639
 31
0.0
  0
LINE
  5
F042
  8
HATCH
 10
4853.5265679638978
 20
2033.4617802416089
 30
0.0
 11
4904.9476741169638
 21
2033.4617801976169
 31
0.0
  0
LINE
  5
F043
  8
HATCH
 10
4807.0438679291219
 20
2016.1791789889401
 30
0.0
 11
4858.4649740821878
 21
2016.179178944953
 31
0.0
  0
LINE
  5
F044
  8
HATCH
 10
4898.9282607526611
 20
2052.9047066567582
 30
0.0
 11
4950.3493669057279
 21
2052.9047066127659
 31
0.0
  0
LINE
  5
F045
  8
HATCH
 10
4927.0340578226824
 20
2139.3176855164888
 30
0.0
 11
4978.4551639757483
 21
2139.3176854725052
 31
0.0
  0
LINE
  5
F046
  8
HATCH
 10
4845.9596151944488
 20
2154.4399479275348
 30
0.0
 11
4897.3807213475156
 21
2154.4399478835421
 31
0.0
  0
LINE
  5
F047
  8
HATCH
 10
4781.9454176311847
 20
2134.9970353175049
 30
0.0
 11
4829.2781699398874
 21
2134.9970352770051
 31
0.0
  0
LINE
  5
F048
  8
HATCH
 10
4781.9454175664832
 20
2059.3856822414991
 30
0.0
 11
4830.3591771230531
 21
2059.3856822000812
 31
0.0
  0
LINE
  5
F049
  8
HATCH
 10
4875.1464194088176
 20
2119.8747591068918
 30
0.0
 11
4926.5675255618853
 21
2119.8747590628991
 31
0.0
  0
LINE
  5
F04A
  8
HATCH
 10
4864.1472802153548
 20
2081.0663209676381
 30
0.0
 11
4915.5683863684762
 21
2081.06632092365
 31
0.0
  0
LINE
  5
F04B
  8
HATCH
 10
4944.5853429886192
 20
2086.7067391055521
 30
0.0
 11
4986.7114940751053
 21
2086.7067390695129
 31
0.0
  0
LINE
  5
F04C
  8
HATCH
 10
4594.123601987355
 20
2189.6796214656611
 30
0.0
 11
4645.5447081404209
 21
2189.679621421687
 31
0.0
  0
LINE
  5
F04D
  8
HATCH
 10
4698.9798860241326
 20
2183.1986458913111
 30
0.0
 11
4750.4009921772176
 21
2183.1986458473189
 31
0.0
  0
LINE
  5
F04E
  8
HATCH
 10
4641.6872846649658
 20
2043.857714387663
 30
0.0
 11
4693.1083908180308
 21
2043.857714343671
 31
0.0
  0
LINE
  5
F04F
  8
HATCH
 10
4598.3647643739068
 20
2018.1534158166589
 30
0.0
 11
4649.7858705269728
 21
2018.153415772671
 31
0.0
  0
LINE
  5
F050
  8
HATCH
 10
4687.08897745373
 20
2063.3006408028118
 30
0.0
 11
4738.5100836067959
 21
2063.30064075882
 31
0.0
  0
LINE
  5
F051
  8
HATCH
 10
4697.898903110633
 20
2029.815600789474
 30
0.0
 11
4749.320009263608
 21
2029.8156007454861
 31
0.0
  0
LINE
  5
F052
  8
HATCH
 10
4715.1947745237512
 20
2149.7136196625429
 30
0.0
 11
4766.6158806768162
 21
2149.7136196185588
 31
0.0
  0
LINE
  5
F053
  8
HATCH
 10
4634.1203318955177
 20
2164.8358820735889
 30
0.0
 11
4685.5414380485827
 21
2164.8358820295962
 31
0.0
  0
LINE
  5
F054
  8
HATCH
 10
4570.1061343322517
 20
2145.392969463559
 30
0.0
 11
4617.4388866409563
 21
2145.3929694230592
 31
0.0
  0
LINE
  5
F055
  8
HATCH
 10
4570.1061342675512
 20
2069.7816163875532
 30
0.0
 11
4618.519893824121
 21
2069.7816163461348
 31
0.0
  0
LINE
  5
F056
  8
HATCH
 10
4663.3071361098864
 20
2130.2706932529459
 30
0.0
 11
4714.7282422629523
 21
2130.2706932089532
 31
0.0
  0
LINE
  5
F057
  8
HATCH
 10
4652.3079969164219
 20
2091.4622551136922
 30
0.0
 11
4703.7291030695442
 21
2091.462255069704
 31
0.0
  0
LINE
  5
F058
  8
HATCH
 10
4732.7460596896872
 20
2097.1026732516061
 30
0.0
 11
4774.8722107761732
 21
2097.1026732155669
 31
0.0
  0
LINE
  5
F059
  8
HATCH
 10
4383.8933163183156
 20
2169.6783503183169
 30
0.0
 11
4424.3356738587836
 21
2169.6783502837329
 31
0.0
  0
LINE
  5
F05A
  8
HATCH
 10
4477.7708517424962
 20
2163.1973747533571
 30
0.0
 11
4529.1919578955803
 21
2163.1973747093662
 31
0.0
  0
LINE
  5
F05B
  8
HATCH
 10
4420.4782503833276
 20
2023.8564432497101
 30
0.0
 11
4471.8993565363944
 21
2023.8564432057169
 31
0.0
  0
LINE
  5
F05C
  8
HATCH
 10
4368.2738777338072
 20
2035.16424602606
 30
0.0
 11
4419.6949838868732
 21
2035.1642459820721
 31
0.0
  0
LINE
  5
F05D
  8
HATCH
 10
4465.8799431720927
 20
2043.2993696648589
 30
0.0
 11
4517.3010493251577
 21
2043.2993696208671
 31
0.0
  0
LINE
  5
F05E
  8
HATCH
 10
4476.6898688289966
 20
2009.8143296515209
 30
0.0
 11
4528.1109749819716
 21
2009.814329607533
 31
0.0
  0
LINE
  5
F05F
  8
HATCH
 10
4493.985740242113
 20
2129.7123485245902
 30
0.0
 11
4545.4068463951789
 21
2129.7123484806061
 31
0.0
  0
LINE
  5
F060
  8
HATCH
 10
4412.9112976138804
 20
2144.8346109356348
 30
0.0
 11
4464.3324037669463
 21
2144.834610891643
 31
0.0
  0
LINE
  5
F061
  8
HATCH
 10
4380.2835523437507
 20
2125.391698298753
 30
0.0
 11
4396.2298523593181
 21
2125.391698285106
 31
0.0
  0
LINE
  5
F062
  8
HATCH
 10
4348.8970999859139
 20
2049.7803452496
 30
0.0
 11
4397.3108595424837
 21
2049.7803452081821
 31
0.0
  0
LINE
  5
F063
  8
HATCH
 10
4442.0981018282491
 20
2110.2694221149918
 30
0.0
 11
4493.5192079813141
 21
2110.269422071
 31
0.0
  0
LINE
  5
F064
  8
HATCH
 10
4431.0989626347846
 20
2071.4609839757391
 30
0.0
 11
4482.520068787906
 21
2071.4609839317509
 31
0.0
  0
LINE
  5
F065
  8
HATCH
 10
4511.5370254080499
 20
2077.101402113653
 30
0.0
 11
4553.6631764945359
 21
2077.1014020776138
 31
0.0
  0
LINE
  5
F066
  8
HATCH
 10
4527.3289366072622
 20
2029.505632103072
 30
0.0
 11
4578.7500427603281
 21
2029.505632059085
 31
0.0
  0
LINE
  5
F067
  8
HATCH
 10
4416.7244194665163
 20
2187.5268537969978
 30
0.0
 11
4468.1455256195823
 21
2187.5268537530101
 31
0.0
  0
LINE
  5
F068
  8
HATCH
 10
4537.8622777904438
 20
2176.9997321490969
 30
0.0
 11
4589.2833839435089
 21
2176.9997321051092
 31
0.0
  0
LINE
  5
F069
  8
HATCH
 10
4368.5775777027065
 20
2084.802529974449
 30
0.0
 11
4419.9986838557716
 21
2084.8025299304609
 31
0.0
  0
INSERT
  5
F06A
  8
0
  2
*U44
 10
0.0
 20
0.0
 30
0.0
  0
INSERT
  5
F06B
  8
0
  2
*U45
 10
0.0
 20
0.0
 30
0.0
  0
INSERT
  5
F06C
  8
0
  2
*U46
 10
0.0
 20
0.0
 30
0.0
  0
INSERT
  5
F06D
  8
0
  2
*U47
 10
0.0
 20
0.0
 30
0.0
  0
CIRCLE
  5
F06E
  8
HASEN
 10
5074.2137468826932
 20
1653.3290661117401
 30
0.0
 40
25.001312581786351
  0
LINE
  5
F06F
  8
CENTER
 10
5137.5265812698908
 20
1915.8428482204661
 30
0.0
 11
5010.90091249535
 21
1915.8428482204661
 31
0.0
  0
LINE
  5
F070
  8
CENTER
 10
4956.4309203113653
 20
1653.3290661117401
 30
0.0
 11
5191.1019268143864
 21
1653.3290661117401
 31
0.0
  0
POLYLINE
  5
F071
  8
SJC2
 66
     1
 10
0.0
 20
0.0
 30
0.0
 70
     1
  0
VERTEX
  5
FA75
  8
SJC2
 10
5031.7115154936037
 20
1677.867740845352
 30
0.0
  0
VERTEX
  5
FA76
  8
SJC2
 10
5031.7115154936037
 20
1628.790391378091
 30
0.0
  0
VERTEX
  5
FA77
  8
SJC2
 10
5074.2137468826204
 20
1604.25171664446
 30
0.0
  0
VERTEX
  5
FA78
  8
SJC2
 10
5116.715978271709
 20
1628.790391378091
 30
0.0
  0
VERTEX
  5
FA79
  8
SJC2
 10
5116.715978271709
 20
1677.867740845352
 30
0.0
  0
VERTEX
  5
FA7A
  8
SJC2
 10
5074.2137468826204
 20
1702.4064155789461
 30
0.0
  0
SEQEND
  5
FA7B
  8
SJC2
  0
POLYLINE
  5
F072
  8
SJC2
 66
     1
 10
0.0
 20
0.0
 30
0.0
 70
     1
  0
VERTEX
  5
FA7C
  8
SJC2
 10
5074.2137468826204
 20
1704.3100926194641
 30
0.0
  0
VERTEX
  5
FA7D
  8
SJC2
 10
5030.0628828159433
 20
1678.8195793656021
 30
0.0
  0
VERTEX
  5
FA7E
  8
SJC2
 10
5030.0628828159433
 20
1627.838552857841
 30
0.0
  0
VERTEX
  5
FA7F
  8
SJC2
 10
5074.2137468826204
 20
1602.348039603979
 30
0.0
  0
VERTEX
  5
FA80
  8
SJC2
 10
5118.3646109493711
 20
1627.838552857841
 30
0.0
  0
VERTEX
  5
FA81
  8
SJC2
 10
5118.3646109493711
 20
1678.8195793656021
 30
0.0
  0
SEQEND
  5
FA82
  8
SJC2
  0
CIRCLE
  5
F073
  8
SJC2
 10
5074.2137468826204
 20
1653.3290661117401
 30
0.0
 40
39.502073879222451
  0
ARC
  5
F074
  8
SJC
 10
5074.2137468826204
 20
1653.3290661117401
 30
0.0
 40
102.5053815853241
 50
134.20426451824059
 51
45.795735481759351
  0
ARC
  5
F075
  8
SJC
 10
5074.2137468826204
 20
1653.3290661117401
 30
0.0
 40
77.504069003537623
 50
175.08289966412451
 51
4.9171003358754657
  0
POLYLINE
  5
F076
  8
SJC2
 66
     1
 10
0.0
 20
0.0
 30
0.0
 70
     1
  0
VERTEX
  5
FA83
  8
SJC2
 10
5074.2137468826204
 20
1708.081940665809
 30
0.0
  0
VERTEX
  5
FA84
  8
SJC2
 10
5026.7963665885927
 20
1680.7055033887741
 30
0.0
  0
VERTEX
  5
FA85
  8
SJC2
 10
5026.7963665885927
 20
1625.952628834669
 30
0.0
  0
VERTEX
  5
FA86
  8
SJC2
 10
5074.2137468826204
 20
1598.576191557597
 30
0.0
  0
VERTEX
  5
FA87
  8
SJC2
 10
5121.6311271767208
 20
1625.952628834669
 30
0.0
  0
VERTEX
  5
FA88
  8
SJC2
 10
5121.6311271767208
 20
1680.7055033887741
 30
0.0
  0
SEQEND
  5
FA89
  8
SJC2
  0
CIRCLE
  5
F077
  8
SJC2
 10
5074.2137468826204
 20
1653.3290661117401
 30
0.0
 40
54.752874554112111
  0
POLYLINE
  5
F078
  8
SJC2
 10
5074.2137468826932
 20
1714.8527718562177
 30
0.0
 66
     1
 70
     8
  0
VERTEX
  8
SJC2
  5
10162
 10
5074.21
 20
1714.85
 30
0.000000
  70
    32
  0
VERTEX
  8
SJC2
  5
10163
 10
5071.28
 20
1714.78
 30
0.000000
  70
    32
  0
VERTEX
  8
SJC2
  5
10164
 10
5068.36
 20
1714.56
 30
0.000000
  70
    32
  0
VERTEX
  8
SJC2
  5
10165
 10
5065.45
 20
1714.19
 30
0.000000
  70
    32
  0
VERTEX
  8
SJC2
  5
10166
 10
5062.56
 20
1713.68
 30
0.000000
  70
    32
  0
VERTEX
  8
SJC2
  5
10167
 10
5059.69
 20
1713.03
 30
0.000000
  70
    32
  0
VERTEX
  8
SJC2
  5
10168
 10
5056.87
 20
1712.23
 30
0.000000
  70
    32
  0
VERTEX
  8
SJC2
  5
10169
 10
5054.08
 20
1711.29
 30
0.000000
  70
    32
  0
VERTEX
  8
SJC2
  5
1016A
 10
5051.35
 20
1710.22
 30
0.000000
  70
    32
  0
VERTEX
  8
SJC2
  5
1016B
 10
5048.66
 20
1709.00
 30
0.000000
  70
    32
  0
VERTEX
  8
SJC2
  5
1016C
 10
5046.04
 20
1707.66
 30
0.000000
  70
    32
  0
VERTEX
  8
SJC2
  5
1016D
 10
5043.49
 20
1706.19
 30
0.000000
  70
    32
  0
VERTEX
  8
SJC2
  5
1016E
 10
5041.01
 20
1704.59
 30
0.000000
  70
    32
  0
VERTEX
  8
SJC2
  5
1016F
 10
5038.62
 20
1702.87
 30
0.000000
  70
    32
  0
VERTEX
  8
SJC2
  5
10170
 10
5036.30
 20
1701.03
 30
0.000000
  70
    32
  0
VERTEX
  8
SJC2
  5
10171
 10
5034.08
 20
1699.07
 30
0.000000
  70
    32
  0
VERTEX
  8
SJC2
  5
10172
 10
5031.96
 20
1697.01
 30
0.000000
  70
    32
  0
VERTEX
  8
SJC2
  5
10173
 10
5029.94
 20
1694.85
 30
0.000000
  70
    32
  0
VERTEX
  8
SJC2
  5
10174
 10
5028.02
 20
1692.58
 30
0.000000
  70
    32
  0
VERTEX
  8
SJC2
  5
10175
 10
5026.22
 20
1690.23
 30
0.000000
  70
    32
  0
VERTEX
  8
SJC2
  5
10176
 10
5024.53
 20
1687.78
 30
0.000000
  70
    32
  0
VERTEX
  8
SJC2
  5
10177
 10
5022.96
 20
1685.26
 30
0.000000
  70
    32
  0
VERTEX
  8
SJC2
  5
10178
 10
5021.51
 20
1682.65
 30
0.000000
  70
    32
  0
VERTEX
  8
SJC2
  5
10179
 10
5020.19
 20
1679.98
 30
0.000000
  70
    32
  0
VERTEX
  8
SJC2
  5
1017A
 10
5019.01
 20
1677.25
 30
0.000000
  70
    32
  0
VERTEX
  8
SJC2
  5
1017B
 10
5017.95
 20
1674.46
 30
0.000000
  70
    32
  0
VERTEX
  8
SJC2
  5
1017C
 10
5017.03
 20
1671.62
 30
0.000000
  70
    32
  0
VERTEX
  8
SJC2
  5
1017D
 10
5016.25
 20
1668.74
 30
0.000000
  70
    32
  0
VERTEX
  8
SJC2
  5
1017E
 10
5015.61
 20
1665.82
 30
0.000000
  70
    32
  0
VERTEX
  8
SJC2
  5
1017F
 10
5015.10
 20
1662.88
 30
0.000000
  70
    32
  0
VERTEX
  8
SJC2
  5
10180
 10
5014.75
 20
1659.91
 30
0.000000
  70
    32
  0
VERTEX
  8
SJC2
  5
10181
 10
5014.53
 20
1656.93
 30
0.000000
  70
    32
  0
VERTEX
  8
SJC2
  5
10182
 10
5014.46
 20
1653.94
 30
0.000000
  70
    32
  0
VERTEX
  8
SJC2
  5
10183
 10
5014.53
 20
1650.95
 30
0.000000
  70
    32
  0
VERTEX
  8
SJC2
  5
10184
 10
5014.75
 20
1647.97
 30
0.000000
  70
    32
  0
VERTEX
  8
SJC2
  5
10185
 10
5015.10
 20
1645.00
 30
0.000000
  70
    32
  0
VERTEX
  8
SJC2
  5
10186
 10
5015.61
 20
1642.06
 30
0.000000
  70
    32
  0
VERTEX
  8
SJC2
  5
10187
 10
5016.25
 20
1639.14
 30
0.000000
  70
    32
  0
VERTEX
  8
SJC2
  5
10188
 10
5017.03
 20
1636.26
 30
0.000000
  70
    32
  0
VERTEX
  8
SJC2
  5
10189
 10
5017.95
 20
1633.42
 30
0.000000
  70
    32
  0
VERTEX
  8
SJC2
  5
1018A
 10
5019.01
 20
1630.63
 30
0.000000
  70
    32
  0
VERTEX
  8
SJC2
  5
1018B
 10
5020.19
 20
1627.90
 30
0.000000
  70
    32
  0
VERTEX
  8
SJC2
  5
1018C
 10
5021.51
 20
1625.23
 30
0.000000
  70
    32
  0
VERTEX
  8
SJC2
  5
1018D
 10
5022.96
 20
1622.62
 30
0.000000
  70
    32
  0
VERTEX
  8
SJC2
  5
1018E
 10
5024.53
 20
1620.10
 30
0.000000
  70
    32
  0
VERTEX
  8
SJC2
  5
1018F
 10
5026.22
 20
1617.65
 30
0.000000
  70
    32
  0
VERTEX
  8
SJC2
  5
10190
 10
5028.02
 20
1615.30
 30
0.000000
  70
    32
  0
VERTEX
  8
SJC2
  5
10191
 10
5029.94
 20
1613.03
 30
0.000000
  70
    32
  0
VERTEX
  8
SJC2
  5
10192
 10
5031.96
 20
1610.87
 30
0.000000
  70
    32
  0
VERTEX
  8
SJC2
  5
10193
 10
5034.08
 20
1608.81
 30
0.000000
  70
    32
  0
VERTEX
  8
SJC2
  5
10194
 10
5036.30
 20
1606.85
 30
0.000000
  70
    32
  0
VERTEX
  8
SJC2
  5
10195
 10
5038.62
 20
1605.01
 30
0.000000
  70
    32
  0
VERTEX
  8
SJC2
  5
10196
 10
5041.01
 20
1603.29
 30
0.000000
  70
    32
  0
VERTEX
  8
SJC2
  5
10197
 10
5043.49
 20
1601.69
 30
0.000000
  70
    32
  0
VERTEX
  8
SJC2
  5
10198
 10
5046.04
 20
1600.22
 30
0.000000
  70
    32
  0
VERTEX
  8
SJC2
  5
10199
 10
5048.66
 20
1598.87
 30
0.000000
  70
    32
  0
VERTEX
  8
SJC2
  5
1019A
 10
5051.35
 20
1597.66
 30
0.000000
  70
    32
  0
VERTEX
  8
SJC2
  5
1019B
 10
5054.08
 20
1596.59
 30
0.000000
  70
    32
  0
VERTEX
  8
SJC2
  5
1019C
 10
5056.87
 20
1595.65
 30
0.000000
  70
    32
  0
VERTEX
  8
SJC2
  5
1019D
 10
5059.69
 20
1594.85
 30
0.000000
  70
    32
  0
VERTEX
  8
SJC2
  5
1019E
 10
5062.56
 20
1594.20
 30
0.000000
  70
    32
  0
VERTEX
  8
SJC2
  5
1019F
 10
5065.45
 20
1593.69
 30
0.000000
  70
    32
  0
VERTEX
  8
SJC2
  5
101A0
 10
5068.36
 20
1593.32
 30
0.000000
  70
    32
  0
VERTEX
  8
SJC2
  5
101A1
 10
5071.28
 20
1593.10
 30
0.000000
  70
    32
  0
VERTEX
  8
SJC2
  5
101A2
 10
5074.21
 20
1593.03
 30
0.000000
  70
    32
  0
VERTEX
  8
SJC2
  5
101A3
 10
5077.15
 20
1593.10
 30
0.000000
  70
    32
  0
VERTEX
  8
SJC2
  5
101A4
 10
5080.07
 20
1593.32
 30
0.000000
  70
    32
  0
VERTEX
  8
SJC2
  5
101A5
 10
5082.98
 20
1593.69
 30
0.000000
  70
    32
  0
VERTEX
  8
SJC2
  5
101A6
 10
5085.87
 20
1594.20
 30
0.000000
  70
    32
  0
VERTEX
  8
SJC2
  5
101A7
 10
5088.73
 20
1594.85
 30
0.000000
  70
    32
  0
VERTEX
  8
SJC2
  5
101A8
 10
5091.56
 20
1595.65
 30
0.000000
  70
    32
  0
VERTEX
  8
SJC2
  5
101A9
 10
5094.35
 20
1596.59
 30
0.000000
  70
    32
  0
VERTEX
  8
SJC2
  5
101AA
 10
5097.08
 20
1597.66
 30
0.000000
  70
    32
  0
VERTEX
  8
SJC2
  5
101AB
 10
5099.76
 20
1598.87
 30
0.000000
  70
    32
  0
VERTEX
  8
SJC2
  5
101AC
 10
5102.38
 20
1600.22
 30
0.000000
  70
    32
  0
VERTEX
  8
SJC2
  5
101AD
 10
5104.93
 20
1601.69
 30
0.000000
  70
    32
  0
VERTEX
  8
SJC2
  5
101AE
 10
5107.41
 20
1603.29
 30
0.000000
  70
    32
  0
VERTEX
  8
SJC2
  5
101AF
 10
5109.81
 20
1605.01
 30
0.000000
  70
    32
  0
VERTEX
  8
SJC2
  5
101B0
 10
5112.12
 20
1606.85
 30
0.000000
  70
    32
  0
VERTEX
  8
SJC2
  5
101B1
 10
5114.34
 20
1608.81
 30
0.000000
  70
    32
  0
VERTEX
  8
SJC2
  5
101B2
 10
5116.47
 20
1610.87
 30
0.000000
  70
    32
  0
VERTEX
  8
SJC2
  5
101B3
 10
5118.49
 20
1613.03
 30
0.000000
  70
    32
  0
VERTEX
  8
SJC2
  5
101B4
 10
5120.41
 20
1615.30
 30
0.000000
  70
    32
  0
VERTEX
  8
SJC2
  5
101B5
 10
5122.21
 20
1617.65
 30
0.000000
  70
    32
  0
VERTEX
  8
SJC2
  5
101B6
 10
5123.90
 20
1620.10
 30
0.000000
  70
    32
  0
VERTEX
  8
SJC2
  5
101B7
 10
5125.47
 20
1622.62
 30
0.000000
  70
    32
  0
VERTEX
  8
SJC2
  5
101B8
 10
5126.91
 20
1625.23
 30
0.000000
  70
    32
  0
VERTEX
  8
SJC2
  5
101B9
 10
5128.23
 20
1627.90
 30
0.000000
  70
    32
  0
VERTEX
  8
SJC2
  5
101BA
 10
5129.42
 20
1630.63
 30
0.000000
  70
    32
  0
VERTEX
  8
SJC2
  5
101BB
 10
5130.48
 20
1633.42
 30
0.000000
  70
    32
  0
VERTEX
  8
SJC2
  5
101BC
 10
5131.40
 20
1636.26
 30
0.000000
  70
    32
  0
VERTEX
  8
SJC2
  5
101BD
 10
5132.18
 20
1639.14
 30
0.000000
  70
    32
  0
VERTEX
  8
SJC2
  5
101BE
 10
5132.82
 20
1642.06
 30
0.000000
  70
    32
  0
VERTEX
  8
SJC2
  5
101BF
 10
5133.32
 20
1645.00
 30
0.000000
  70
    32
  0
VERTEX
  8
SJC2
  5
101C0
 10
5133.68
 20
1647.97
 30
0.000000
  70
    32
  0
VERTEX
  8
SJC2
  5
101C1
 10
5133.90
 20
1650.95
 30
0.000000
  70
    32
  0
VERTEX
  8
SJC2
  5
101C2
 10
5133.97
 20
1653.94
 30
0.000000
  70
    32
  0
VERTEX
  8
SJC2
  5
101C3
 10
5133.90
 20
1656.93
 30
0.000000
  70
    32
  0
VERTEX
  8
SJC2
  5
101C4
 10
5133.68
 20
1659.91
 30
0.000000
  70
    32
  0
VERTEX
  8
SJC2
  5
101C5
 10
5133.32
 20
1662.88
 30
0.000000
  70
    32
  0
VERTEX
  8
SJC2
  5
101C6
 10
5132.82
 20
1665.82
 30
0.000000
  70
    32
  0
VERTEX
  8
SJC2
  5
101C7
 10
5132.18
 20
1668.74
 30
0.000000
  70
    32
  0
VERTEX
  8
SJC2
  5
101C8
 10
5131.40
 20
1671.62
 30
0.000000
  70
    32
  0
VERTEX
  8
SJC2
  5
101C9
 10
5130.48
 20
1674.46
 30
0.000000
  70
    32
  0
VERTEX
  8
SJC2
  5
101CA
 10
5129.42
 20
1677.25
 30
0.000000
  70
    32
  0
VERTEX
  8
SJC2
  5
101CB
 10
5128.23
 20
1679.98
 30
0.000000
  70
    32
  0
VERTEX
  8
SJC2
  5
101CC
 10
5126.91
 20
1682.65
 30
0.000000
  70
    32
  0
VERTEX
  8
SJC2
  5
101CD
 10
5125.47
 20
1685.26
 30
0.000000
  70
    32
  0
VERTEX
  8
SJC2
  5
101CE
 10
5123.90
 20
1687.78
 30
0.000000
  70
    32
  0
VERTEX
  8
SJC2
  5
101CF
 10
5122.21
 20
1690.23
 30
0.000000
  70
    32
  0
VERTEX
  8
SJC2
  5
101D0
 10
5120.41
 20
1692.58
 30
0.000000
  70
    32
  0
VERTEX
  8
SJC2
  5
101D1
 10
5118.49
 20
1694.85
 30
0.000000
  70
    32
  0
VERTEX
  8
SJC2
  5
101D2
 10
5116.47
 20
1697.01
 30
0.000000
  70
    32
  0
VERTEX
  8
SJC2
  5
101D3
 10
5114.34
 20
1699.07
 30
0.000000
  70
    32
  0
VERTEX
  8
SJC2
  5
101D4
 10
5112.12
 20
1701.03
 30
0.000000
  70
    32
  0
VERTEX
  8
SJC2
  5
101D5
 10
5109.81
 20
1702.87
 30
0.000000
  70
    32
  0
VERTEX
  8
SJC2
  5
101D6
 10
5107.41
 20
1704.59
 30
0.000000
  70
    32
  0
VERTEX
  8
SJC2
  5
101D7
 10
5104.93
 20
1706.19
 30
0.000000
  70
    32
  0
VERTEX
  8
SJC2
  5
101D8
 10
5102.38
 20
1707.66
 30
0.000000
  70
    32
  0
VERTEX
  8
SJC2
  5
101D9
 10
5099.76
 20
1709.00
 30
0.000000
  70
    32
  0
VERTEX
  8
SJC2
  5
101DA
 10
5097.08
 20
1710.22
 30
0.000000
  70
    32
  0
VERTEX
  8
SJC2
  5
101DB
 10
5094.35
 20
1711.29
 30
0.000000
  70
    32
  0
VERTEX
  8
SJC2
  5
101DC
 10
5091.56
 20
1712.23
 30
0.000000
  70
    32
  0
VERTEX
  8
SJC2
  5
101DD
 10
5088.73
 20
1713.03
 30
0.000000
  70
    32
  0
VERTEX
  8
SJC2
  5
101DE
 10
5085.87
 20
1713.68
 30
0.000000
  70
    32
  0
VERTEX
  8
SJC2
  5
101DF
 10
5082.98
 20
1714.19
 30
0.000000
  70
    32
  0
VERTEX
  8
SJC2
  5
101E0
 10
5080.07
 20
1714.56
 30
0.000000
  70
    32
  0
VERTEX
  8
SJC2
  5
101E1
 10
5077.15
 20
1714.78
 30
0.000000
  70
    32
  0
VERTEX
  8
SJC2
  5
101E2
 10
5074.21
 20
1714.85
 30
0.000000
  70
    32
  0
SEQEND
  8
SJC2
  5
101E3
  0
LINE
  5
F079
  8
SJC2
 10
5118.3646109493711
 20
1627.838552857841
 30
0.0
 11
5121.6311271767208
 21
1625.952628834669
 31
0.0
  0
LINE
  5
F07A
  8
SJC
 10
5019.4132831112674
 20
1920.557381450192
 30
0.0
 11
4996.9949115684676
 21
1659.9722720262921
 31
0.0
  0
LINE
  5
F07B
  8
SJC
 10
5129.0142106540461
 20
1920.557381450192
 30
0.0
 11
5151.432582196845
 21
1659.9722720262921
 31
0.0
  0
ARC
  5
F07C
  8
SJC2
 10
5074.2137468826204
 20
1915.8428482204661
 30
0.0
 40
32.501706356322273
 50
270.0
 51
90.0
  0
ARC
  5
F07D
  8
SJC2
 10
5074.2137468826204
 20
1915.8428482204661
 30
0.0
 40
55.002887679929991
 50
220.80366704866441
 51
319.19633295133559
  0
CIRCLE
  5
F07E
  8
SJC2
 10
5074.2137468826204
 20
1915.8428482204661
 30
0.0
 40
41.63461369922355
  0
CIRCLE
  5
F07F
  8
SJC2
 10
5074.2137468826204
 20
1915.8428482204661
 30
0.0
 40
38.752034501769138
  0
ARC
  5
F080
  8
SJC
 10
5074.2137468826204
 20
1915.8428482204661
 30
0.0
 40
55.002887679929991
 50
4.9171003358754657
 51
175.08289966412451
  0
ARC
  5
F081
  8
SJC2
 10
5074.2137468826204
 20
1915.8428482204661
 30
0.0
 40
32.501706356322273
 50
90.0
 51
270.0
  0
ARC
  5
F082
  8
SJC
 10
5074.2137468826932
 20
1653.9395540228841
 30
0.0
 40
79.999999999199986
 50
160.58270011809091
 51
19.417299882350921
  0
POLYLINE
  5
F083
  8
SJC2
 66
     1
 10
0.0
 20
0.0
 30
0.0
 70
     1
  0
VERTEX
  5
FA8A
  8
SJC2
 10
5059.2137468826204
 20
1907.1825941852451
 30
0.0
  0
VERTEX
  5
FA8B
  8
SJC2
 10
5074.2137468826204
 20
1898.5223401473861
 30
0.0
  0
VERTEX
  5
FA8C
  8
SJC2
 10
5089.2137468826204
 20
1907.1825941852451
 30
0.0
  0
VERTEX
  5
FA8D
  8
SJC2
 10
5089.2137468826204
 20
1924.503102260926
 30
0.0
  0
VERTEX
  5
FA8E
  8
SJC2
 10
5074.2137468826204
 20
1933.1633562987849
 30
0.0
  0
VERTEX
  5
FA8F
  8
SJC2
 10
5059.2137468826204
 20
1924.503102260926
 30
0.0
  0
SEQEND
  5
FA90
  8
SJC2
  0
LINE
  5
F099
  8
CENTER
 10
5074.2129839429999
 20
2532.544426035618
 30
0.0
 11
5074.2129839429999
 21
1383.9465354050269
 31
0.0
  0
TEXT
  5
F09A
  8
MOJI2
 10
4841.1443518197038
 20
2730.1479777561549
 30
0.0
 40
80.0
  1
取付部詳細図 (1/4)
 41
0.8
  7
EXT08
  0
LINE
  5
F09B
  8
MOJI2
 10
4833.3385547409453
 20
2710.147977756154
 30
0.0
 11
5299.877969132619
 21
2710.147977756154
 31
0.0
  0
LINE
  5
F09C
  8
MOJI2
 10
4833.3385547409453
 20
2690.1479777561549
 30
0.0
 11
5299.877969132619
 21
2690.1479777561549
 31
0.0
  0
LINE
  5
F09D
  8
KASOU
 10
5324.2129839429999
 20
2457.1769315238398
 30
0.0
 11
5324.2129839430017
 21
1471.1187807922661
 31
0.0
  0
LINE
  5
F09E
  8
KASOU
 10
4824.2129839429999
 20
2457.1769315238398
 30
0.0
 11
4824.2129839430017
 21
1471.1187807922661
 31
0.0
  0
INSERT
  5
F0A7
  8
SJC
  2
B0070022
 10
5074.2129839429999
 20
2457.1769315238398
 30
0.0
 41
0.5
 42
0.5
 43
0.5
 50
90.0
  0
INSERT
  5
F0A8
  8
SJC
  2
B0070022
 10
5074.2129839429999
 20
1471.118780792267
 30
0.0
 41
0.5
 42
0.5
 43
0.5
 50
90.0
  0
TEXT
  5
F0BB
  8
MOJI
 10
5542.1305474421861
 20
992.28072435362901
 30
0.0
 40
59.999999999999993
  1
M8×25
 41
0.8
  7
EXT08
 72
     1
 11
5668.073404585044
 21
992.28072435362901
 31
0.0
  0
DIMENSION
  5
F0CF
  8
SUNPOU
  2
*D22
 10
6595.9460933298988
 20
4104.6242279628059
 30
0.0
 11
6689.1675951540674
 21
4167.3702826923773
 31
0.0
 70
   128
  1
(<>)
 13
6218.7666286691601
 23
4214.624227962755
 33
0.0
 14
6401.2666286695794
 24
4104.6242279628059
 34
0.0
 50
90.0
1001
ACAD
1000
DSTYLE
1002
{
1070
   287
1070
     5
1070
    40
1040
20.0
1070
    41
1040
2.0
1070
    42
1040
1.0
1070
    43
1040
6.0
1070
    44
1040
1.0
1070
    78
1070
     8
1070
   140
1040
3.0
1070
   147
1040
1.1999999999999991
1070
   179
1070
     2
1070
   279
1070
     2
1070
   340
1005
614
1002
}
  0
ARC
  5
F101
  8
SJC
 10
5292.1980135243657
 20
4204.6242279627568
 30
0.0
 40
11.05561306363089
 50
295.24156855651222
 51
64.758431443483758
  0
ARC
  5
F102
  8
SJC
 10
5292.1980135243657
 20
4184.6242279627586
 30
0.0
 40
11.05561306363089
 50
295.24156855651631
 51
64.75843144348778
  0
ARC
  5
F103
  8
SJC
 10
5301.6270283642752
 20
4184.6242279627631
 30
0.0
 40
11.05561306363089
 50
115.2415685565729
 51
244.75843144354451
  0
INSERT
  5
F10E
  8
0
  2
*U48
 10
0.0
 20
0.0
 30
0.0
1001
ACAD
1000
DSTYLE
1002
{
1070
     5
1000

1070
    40
1040
20.0
1070
    41
1040
2.0
1070
    42
1040
1.0
1070
    43
1040
6.0
1070
    44
1040
1.0
1070
    73
1070
     0
1070
    74
1070
     0
1070
    77
1070
     1
1070
    78
1070
     8
1070
   140
1040
3.0
1070
   147
1040
1.1999999999999991
1070
   172
1070
     1
1070
   176
1070
   256
1070
   177
1070
   256
1070
   178
1070
   256
1070
   271
1070
     1
1070
   275
1070
     1
1070
   287
1070
     5
1070
   340
1005
0
1070
   342
1005
0
1002
}
  0
LINE
  5
F10F
  8
MOJI
 10
2003.1212011192549
 20
4387.051323958668
 30
0.0
 11
2648.5158725917299
 21
4387.0513239586662
 31
0.0
  0
TEXT
  5
F110
  8
MOJI
 10
2036.6100198930289
 20
4410.1028164904747
 30
0.0
 40
60.0
  1
手摺ビーム(%%C40)
 41
0.8
  7
EXT08
  0
TEXT
  5
F111
  8
MOJI
 10
2033.798341867282
 20
4291.2265177352529
 30
0.0
 40
60.0
  1
芯材鋼管 %%C34×t3.2
 41
0.8
  7
EXT08
  0
TEXT
  5
F112
  8
MOJI
 10
5395.4040064089704
 20
593.09830555593453
 30
0.0
 40
60.0
  1
亜鉛めっき＋樹脂被覆
 41
0.8
  7
EXT08
 72
     1
 11
5677.004006408969
 21
593.09830555593453
 31
0.0
  0
TEXT
  5
F113
  8
MOJI
 10
4858.3184419299596
 20
589.27344888540017
 30
0.0
 40
60.0
  1
STK490＋PE
 41
0.8
  7
EXT08
 72
     1
 11
5067.6898705013891
 21
589.27344888540017
 31
0.0
  0
DIMENSION
  5
F11D
  8
SUNPOU
  2
*D23
 10
910.43834190527775
 20
2591.5886405789461
 30
0.0
 11
839.43834190486155
 21
2659.4516867188891
 31
0.0
 70
   128
  1
(70)
 13
768.43834190444511
 23
2193.8993663538909
 33
0.0
 14
910.43834190527775
 24
2125.5343322302879
 34
0.0
1001
ACAD
1000
DSTYLE
1002
{
1070
   287
1070
     5
1070
    40
1040
20.0
1070
    41
1040
2.0
1070
    42
1040
1.0
1070
    43
1040
6.0
1070
    44
1040
1.0
1070
    78
1070
     8
1070
   140
1040
3.0
1070
   141
1040
0.09
1070
   144
1040
0.5
1070
   147
1040
1.1999999999999991
1070
   271
1070
     1
1070
   272
1070
     4
1070
   275
1070
     1
1070
   279
1070
     2
1070
   284
1070
     0
1070
   340
1005
614
1002
}
  0
TEXT
  5
F1FD
  8
MOJI
 10
4941.3815590045479
 20
491.44086068055998
 30
0.0
 40
60.0
  1
アルミ合金
 41
0.8
  7
EXT08
 72
     1
 11
5082.181559004548
 21
491.44086068055998
 31
0.0
  0
TEXT
  5
F1FE
  8
MOJI
 10
5570.3037898079119
 20
495.93117216221981
 30
0.0
 40
60.0
  1
焼付塗装
 41
0.8
  7
EXT08
 72
     1
 11
5679.1037898079121
 21
495.93117216221981
 31
0.0
  0
INSERT
  5
F7F6
  8
ZWAKU
  2
CALCOMP_TECHJET720A3
 10
0.0
 20
0.0
 30
0.0
 41
20.0
 42
20.0
 43
20.0
  0
TEXT
  5
F7F7
  8
INFORMATION
 10
1.0
 20
2.0
 30
0.0
 40
0.8
  1
PLOTTER=CALCOMP_TECHJET720
  0
TEXT
  5
F7F8
  8
INFORMATION
 10
1.0
 20
3.0
 30
0.0
 40
0.8
  1
PAPER=A3
  0
TEXT
  5
F7FA
  8
INFORMATION
 10
1.0
 20
1.0
 30
0.0
 40
0.8
  1
VERSION=3.0
  0
INSERT
  5
F816
  8
0
  2
*U49
 10
0.0
 20
0.0
 30
0.0
1001
ACAD
1000
DSTYLE
1002
{
1070
     5
1000

1070
    40
1040
20.0
1070
    41
1040
2.0
1070
    42
1040
1.0
1070
    43
1040
6.0
1070
    44
1040
1.0
1070
    73
1070
     0
1070
    74
1070
     0
1070
    77
1070
     1
1070
    78
1070
     8
1070
   140
1040
3.0
1070
   147
1040
1.1999999999999991
1070
   172
1070
     1
1070
   176
1070
   256
1070
   177
1070
   256
1070
   178
1070
   256
1070
   271
1070
     1
1070
   275
1070
     1
1070
   287
1070
     5
1070
   340
1005
0
1070
   342
1005
0
1002
}
  0
LINE
  5
F817
  8
MOJI
 10
3046.7815814209639
 20
2277.57529687345
 30
0.0
 11
3692.1762528934391
 21
2277.5752968734491
 31
0.0
  0
TEXT
  5
F818
  8
MOJI
 10
3080.2704001947391
 20
2300.626789405258
 30
0.0
 40
60.0
  1
手摺ビーム(%%C40)
 41
0.8
  7
EXT08
  0
TEXT
  5
F819
  8
MOJI
 10
3077.4587221689908
 20
2181.7504906500371
 30
0.0
 40
60.0
  1
芯材鋼管 %%C34×t3.2
 41
0.8
  7
EXT08
  0
ENDSEC
  0
EOF
