  0
SECTION
  2
HEADER
  9
$ACADVER
  1
AC1015
  9
$ACADMAINTVER
 70
    18
  9
$DWGCODEPAGE
  3
ANSI_932
  9
$INSBASE
 10
0.0
 20
0.0
 30
0.0
  9
$EXTMIN
 10
0.0
 20
0.0
 30
0.0
  9
$EXTMAX
 10
4020.0
 20
2745.0
 30
0.0
  9
$LIMMIN
 10
0.0
 20
0.0
  9
$LIMMAX
 10
4200.0
 20
2970.0
  9
$ORTHOMODE
 70
     1
  9
$REGENMODE
 70
     1
  9
$FILLMODE
 70
     1
  9
$QTEXTMODE
 70
     0
  9
$MIRRTEXT
 70
     0
  9
$LTSCALE
 40
100.0
  9
$ATTMODE
 70
     1
  9
$TEXTSIZE
 40
30.0
  9
$TRACEWID
 40
0.05
  9
$TEXTSTYLE
  7
EXT08
  9
$CLAYER
  8
0
  9
$CELTYPE
  6
BYLAYER
  9
$CECOLOR
 62
   256
  9
$CELTSCALE
 40
1.0
  9
$DISPSILH
 70
     0
  9
$DIMSCALE
 40
10.0
  9
$DIMASZ
 40
2.0
  9
$DIMEXO
 40
1.0
  9
$DIMDLI
 40
6.0
  9
$DIMRND
 40
0.0
  9
$DIMDLE
 40
0.0
  9
$DIMEXE
 40
1.0
  9
$DIMTP
 40
0.0
  9
$DIMTM
 40
0.0
  9
$DIMTXT
 40
3.0
  9
$DIMCEN
 40
0.1
  9
$DIMTSZ
 40
0.0
  9
$DIMTOL
 70
     0
  9
$DIMLIM
 70
     0
  9
$DIMTIH
 70
     0
  9
$DIMTOH
 70
     0
  9
$DIMSE1
 70
     0
  9
$DIMSE2
 70
     0
  9
$DIMTAD
 70
     1
  9
$DIMZIN
 70
     8
  9
$DIMBLK
  1

  9
$DIMASO
 70
     1
  9
$DIMSHO
 70
     1
  9
$DIMPOST
  1

  9
$DIMAPOST
  1

  9
$DIMALT
 70
     0
  9
$DIMALTD
 70
     2
  9
$DIMALTF
 40
25.4
  9
$DIMLFAC
 40
1.0
  9
$DIMTOFL
 70
     1
  9
$DIMTVP
 40
0.0
  9
$DIMTIX
 70
     0
  9
$DIMSOXD
 70
     0
  9
$DIMSAH
 70
     0
  9
$DIMBLK1
  1

  9
$DIMBLK2
  1

  9
$DIMSTYLE
  2
SJC
  9
$DIMCLRD
 70
     0
  9
$DIMCLRE
 70
     0
  9
$DIMCLRT
 70
     0
  9
$DIMTFAC
 40
1.0
  9
$DIMGAP
 40
1.199999999999999
  9
$DIMJUST
 70
     0
  9
$DIMSD1
 70
     0
  9
$DIMSD2
 70
     0
  9
$DIMTOLJ
 70
     1
  9
$DIMTZIN
 70
     8
  9
$DIMALTZ
 70
     8
  9
$DIMALTTZ
 70
     8
  9
$DIMUPT
 70
     0
  9
$DIMDEC
 70
     2
  9
$DIMTDEC
 70
     1
  9
$DIMALTU
 70
     2
  9
$DIMALTTD
 70
     2
  9
$DIMTXSTY
  7
EXT08
  9
$DIMAUNIT
 70
     1
  9
$DIMADEC
 70
     2
  9
$DIMALTRND
 40
0.0
  9
$DIMAZIN
 70
     0
  9
$DIMDSEP
 70
    46
  9
$DIMATFIT
 70
     3
  9
$DIMFRAC
 70
     0
  9
$DIMLDRBLK
  1

  9
$DIMLUNIT
 70
     2
  9
$DIMLWD
 70
    -2
  9
$DIMLWE
 70
    -2
  9
$DIMTMOVE
 70
     2
  9
$LUNITS
 70
     2
  9
$LUPREC
 70
     2
  9
$SKETCHINC
 40
0.1
  9
$FILLETRAD
 40
0.0
  9
$AUNITS
 70
     1
  9
$AUPREC
 70
     2
  9
$MENU
  1
C:\r13\win\SUPPORT\sjc
  9
$ELEVATION
 40
0.0
  9
$PELEVATION
 40
0.0
  9
$THICKNESS
 40
0.0
  9
$LIMCHECK
 70
     0
  9
$CHAMFERA
 40
0.0
  9
$CHAMFERB
 40
0.0
  9
$CHAMFERC
 40
0.0
  9
$CHAMFERD
 40
0.0
  9
$SKPOLY
 70
     0
  9
$TDCREATE
 40
2450469.547535764
  9
$TDUCREATE
 40
2450469.172535764
  9
$TDUPDATE
 40
2459984.731714653
  9
$TDUUPDATE
 40
2459984.356714653
  9
$TDINDWG
 40
1.0462062037
  9
$TDUSRTIMER
 40
1.0462054745
  9
$USRTIMER
 70
     1
  9
$ANGBASE
 50
0.0
  9
$ANGDIR
 70
     0
  9
$PDMODE
 70
    33
  9
$PDSIZE
 40
5.0
  9
$PLINEWID
 40
0.0
  9
$SPLFRAME
 70
     0
  9
$SPLINETYPE
 70
     6
  9
$SPLINESEGS
 70
     8
  9
$HANDSEED
  5
1C8CDE6B2C42
  9
$SURFTAB1
 70
     6
  9
$SURFTAB2
 70
     6
  9
$SURFTYPE
 70
     6
  9
$SURFU
 70
     6
  9
$SURFV
 70
     6
  9
$UCSBASE
  2

  9
$UCSNAME
  2

  9
$UCSORG
 10
0.0
 20
0.0
 30
0.0
  9
$UCSXDIR
 10
1.0
 20
0.0
 30
0.0
  9
$UCSYDIR
 10
0.0
 20
1.0
 30
0.0
  9
$UCSORTHOREF
  2

  9
$UCSORTHOVIEW
 70
     0
  9
$UCSORGTOP
 10
0.0
 20
0.0
 30
0.0
  9
$UCSORGBOTTOM
 10
0.0
 20
0.0
 30
0.0
  9
$UCSORGLEFT
 10
0.0
 20
0.0
 30
0.0
  9
$UCSORGRIGHT
 10
0.0
 20
0.0
 30
0.0
  9
$UCSORGFRONT
 10
0.0
 20
0.0
 30
0.0
  9
$UCSORGBACK
 10
0.0
 20
0.0
 30
0.0
  9
$PUCSBASE
  2

  9
$PUCSNAME
  2

  9
$PUCSORG
 10
0.0
 20
0.0
 30
0.0
  9
$PUCSXDIR
 10
1.0
 20
0.0
 30
0.0
  9
$PUCSYDIR
 10
0.0
 20
1.0
 30
0.0
  9
$PUCSORTHOREF
  2

  9
$PUCSORTHOVIEW
 70
     0
  9
$PUCSORGTOP
 10
0.0
 20
0.0
 30
0.0
  9
$PUCSORGBOTTOM
 10
0.0
 20
0.0
 30
0.0
  9
$PUCSORGLEFT
 10
0.0
 20
0.0
 30
0.0
  9
$PUCSORGRIGHT
 10
0.0
 20
0.0
 30
0.0
  9
$PUCSORGFRONT
 10
0.0
 20
0.0
 30
0.0
  9
$PUCSORGBACK
 10
0.0
 20
0.0
 30
0.0
  9
$USERI1
 70
     3
  9
$USERI2
 70
    10
  9
$USERI3
 70
     0
  9
$USERI4
 70
     0
  9
$USERI5
 70
     0
  9
$USERR1
 40
0.1
  9
$USERR2
 40
0.0
  9
$USERR3
 40
0.0
  9
$USERR4
 40
0.0
  9
$USERR5
 40
0.0
  9
$WORLDVIEW
 70
     1
  9
$SHADEDGE
 70
     3
  9
$SHADEDIF
 70
    70
  9
$TILEMODE
 70
     1
  9
$MAXACTVP
 70
    16
  9
$PINSBASE
 10
0.0
 20
0.0
 30
0.0
  9
$PLIMCHECK
 70
     0
  9
$PEXTMIN
 10
1.000000000000000E+20
 20
1.000000000000000E+20
 30
1.000000000000000E+20
  9
$PEXTMAX
 10
-1.000000000000000E+20
 20
-1.000000000000000E+20
 30
-1.000000000000000E+20
  9
$PLIMMIN
 10
0.0
 20
0.0
  9
$PLIMMAX
 10
12.0
 20
9.0
  9
$UNITMODE
 70
     0
  9
$VISRETAIN
 70
     0
  9
$PLINEGEN
 70
     0
  9
$PSLTSCALE
 70
     0
  9
$TREEDEPTH
 70
  3020
  9
$CMLSTYLE
  2
STANDARD
  9
$CMLJUST
 70
     0
  9
$CMLSCALE
 40
1.0
  9
$PROXYGRAPHICS
 70
     1
  9
$MEASUREMENT
 70
     0
  9
$CELWEIGHT
370
    -1
  9
$ENDCAPS
280
     0
  9
$JOINSTYLE
280
     0
  9
$LWDISPLAY
290
     0
  9
$INSUNITS
 70
     0
  9
$HYPERLINKBASE
  1

  9
$STYLESHEET
  1
CALCOMP_TECHJET720.ctb
  9
$XEDIT
290
     1
  9
$CEPSNTYPE
380
     0
  9
$PSTYLEMODE
290
     1
  9
$FINGERPRINTGUID
  2
{93922514-ADD2-48A6-8795-DA5319F3C88B}
  9
$VERSIONGUID
  2
{83F4F487-1DD1-4E3C-97F9-416F1DC2A0C5}
  9
$EXTNAMES
290
     1
  9
$PSVPSCALE
 40
0.0
  9
$OLESTARTUP
290
     0
  0
ENDSEC
  0
SECTION
  2
CLASSES
  0
CLASS
  1
ACDBDICTIONARYWDFLT
  2
AcDbDictionaryWithDefault
  3
ObjectDBX Classes
 90
        0
280
     0
281
     0
  0
CLASS
  1
ACDBPLACEHOLDER
  2
AcDbPlaceHolder
  3
ObjectDBX Classes
 90
        0
280
     0
281
     0
  0
CLASS
  1
LAYOUT
  2
AcDbLayout
  3
ObjectDBX Classes
 90
        0
280
     0
281
     0
  0
CLASS
  1
PLOTSETTINGS
  2
AcDbPlotSettings
  3
ObjectDBX Classes
 90
        0
280
     0
281
     0
  0
CLASS
  1
DICTIONARYVAR
  2
AcDbDictionaryVar
  3
ObjectDBX Classes
 90
        0
280
     0
281
     0
  0
CLASS
  1
TABLESTYLE
  2
AcDbTableStyle
  3
ObjectDBX Classes
 90
     4095
280
     0
281
     0
  0
CLASS
  1
SORTENTSTABLE
  2
AcDbSortentsTable
  3
ObjectDBX Classes
 90
        0
280
     0
281
     0
  0
CLASS
  1
MATERIAL
  2
AcDbMaterial
  3
ObjectDBX Classes
 90
     1153
280
     0
281
     0
  0
CLASS
  1
VISUALSTYLE
  2
AcDbVisualStyle
  3
ObjectDBX Classes
 90
     4095
280
     0
281
     0
  0
CLASS
  1
SCALE
  2
AcDbScale
  3
ObjectDBX Classes
 90
     1153
280
     0
281
     0
  0
CLASS
  1
MLEADERSTYLE
  2
AcDbMLeaderStyle
  3
ACDB_MLEADERSTYLE_CLASS
 90
     4095
280
     0
281
     0
  0
CLASS
  1
ACDBSECTIONVIEWSTYLE
  2
AcDbSectionViewStyle
  3
ObjectDBX Classes
 90
     1025
280
     0
281
     0
  0
CLASS
  1
ACDBDETAILVIEWSTYLE
  2
AcDbDetailViewStyle
  3
ObjectDBX Classes
 90
     1025
280
     0
281
     0
  0
CLASS
  1
CELLSTYLEMAP
  2
AcDbCellStyleMap
  3
ObjectDBX Classes
 90
     1152
280
     0
281
     0
  0
ENDSEC
  0
SECTION
  2
TABLES
  0
TABLE
  2
VPORT
  5
1C8CDE699D43
102
{ACAD_XDICTIONARY
360
1C8CDE6B2622
102
}
330
0
100
AcDbSymbolTable
 70
     1
  0
VPORT
  5
1C8CDE6B2403
330
1C8CDE699D43
100
AcDbSymbolTableRecord
100
AcDbViewportTableRecord
  2
*Active
 70
     0
 10
0.0
 20
0.0
 11
1.0
 21
1.0
 12
2554.655463946509
 22
1372.447825340358
 13
0.0
 23
0.0
 14
5.0
 24
5.0
 15
0.0
 25
0.0
 16
0.0
 26
0.0
 36
1.0
 17
0.0
 27
0.0
 37
0.0
 40
2762.837205196934
 41
2.075975359342915
 42
50.0
 43
0.0
 44
0.0
 50
0.0
 51
0.0
 71
     0
 72
   500
 73
     1
 74
     0
 75
     0
 76
     0
 77
     0
 78
     2
281
     0
 65
     1
110
0.0
120
0.0
130
0.0
111
1.0
121
0.0
131
0.0
112
0.0
122
1.0
132
0.0
 79
     0
146
0.0
1001
ACAD_NAV_VCDISPLAY
1070
     3
  0
ENDTAB
  0
TABLE
  2
LTYPE
  5
1C8CDE699D40
330
0
100
AcDbSymbolTable
 70
     5
  0
LTYPE
  5
1C8CDE699D4D
330
1C8CDE699D40
100
AcDbSymbolTableRecord
100
AcDbLinetypeTableRecord
  2
BYBLOCK
 70
     0
  3

 72
    65
 73
     0
 40
0.0
  0
LTYPE
  5
1C8CDE699D4E
330
1C8CDE699D40
100
AcDbSymbolTableRecord
100
AcDbLinetypeTableRecord
  2
BYLAYER
 70
     0
  3

 72
    65
 73
     0
 40
0.0
  0
LTYPE
  5
1C8CDE699D4F
330
1C8CDE699D40
100
AcDbSymbolTableRecord
100
AcDbLinetypeTableRecord
  2
CONTINUOUS
 70
     0
  3
実線
 72
    65
 73
     0
 40
0.0
  0
LTYPE
  5
1C8CDE699D67
330
1C8CDE699D40
100
AcDbSymbolTableRecord
100
AcDbLinetypeTableRecord
  2
DIVIDE2
 70
     0
  3
__..__..__..__..__..__..__..__..__..__..__..__.
 72
    65
 73
     6
 40
0.625
 49
0.25
 74
     0
 49
-0.125
 74
     0
 49
0.0
 74
     0
 49
-0.125
 74
     0
 49
0.0
 74
     0
 49
-0.125
 74
     0
  0
LTYPE
  5
1C8CDE699D6A
330
1C8CDE699D40
100
AcDbSymbolTableRecord
100
AcDbLinetypeTableRecord
  2
CENTER
 70
     0
  3
____ _ ____ _ ____ _ ____ _ ____ _ ____ _ ____ 
 72
    65
 73
     4
 40
2.0
 49
1.25
 74
     0
 49
-0.25
 74
     0
 49
0.25
 74
     0
 49
-0.25
 74
     0
  0
LTYPE
  5
1C8CDE699D6B
330
1C8CDE699D40
100
AcDbSymbolTableRecord
100
AcDbLinetypeTableRecord
  2
HIDDEN
 70
     0
  3
__ __ __ __ __ __ __ __ __ __ __ __ __ __ __ __
 72
    65
 73
     2
 40
0.375
 49
0.25
 74
     0
 49
-0.125
 74
     0
  0
LTYPE
  5
1C8CDE6B26A9
330
1C8CDE699D40
100
AcDbSymbolTableRecord
100
AcDbLinetypeTableRecord
  2
PHANTOM
 70
     0
  3
Phantom ______  __  __  ______  __  __  ______
 72
    65
 73
     6
 40
2.5
 49
1.25
 74
     0
 49
-0.25
 74
     0
 49
0.25
 74
     0
 49
-0.25
 74
     0
 49
0.25
 74
     0
 49
-0.25
 74
     0
  0
ENDTAB
  0
TABLE
  2
LAYER
  5
1C8CDE699D3D
102
{ACAD_XDICTIONARY
360
1C8CDE6ABB6A
102
}
330
0
100
AcDbSymbolTable
 70
    15
  0
LAYER
  5
1C8CDE699D4A
102
{ACAD_XDICTIONARY
360
1C8CDE6B24AE
102
}
330
1C8CDE699D3D
100
AcDbSymbolTableRecord
100
AcDbLayerTableRecord
  2
0
 70
     0
 62
     7
  6
DIVIDE2
370
    -3
390
1C8CDE6A9C99
  0
LAYER
  5
1C8CDE699D71
102
{ACAD_XDICTIONARY
360
1C8CDE6B24B0
102
}
330
1C8CDE699D3D
100
AcDbSymbolTableRecord
100
AcDbLayerTableRecord
  2
CENTER
 70
     0
 62
     3
  6
CENTER
370
    -3
390
1C8CDE6A9C99
  0
LAYER
  5
1C8CDE699D72
102
{ACAD_XDICTIONARY
360
1C8CDE6B24B2
102
}
330
1C8CDE699D3D
100
AcDbSymbolTableRecord
100
AcDbLayerTableRecord
  2
SUNPOU
 70
     0
 62
     4
  6
CONTINUOUS
370
    -3
390
1C8CDE6A9C99
  0
LAYER
  5
1C8CDE699D74
102
{ACAD_XDICTIONARY
360
1C8CDE6B24B4
102
}
330
1C8CDE699D3D
100
AcDbSymbolTableRecord
100
AcDbLayerTableRecord
  2
MOJI
 70
     0
 62
     6
  6
CONTINUOUS
370
    -3
390
1C8CDE6A9C99
  0
LAYER
  5
1C8CDE699D75
102
{ACAD_XDICTIONARY
360
1C8CDE6B24B6
102
}
330
1C8CDE699D3D
100
AcDbSymbolTableRecord
100
AcDbLayerTableRecord
  2
HASEN
 70
     0
 62
     7
  6
HIDDEN
370
    -3
390
1C8CDE6A9C99
  0
LAYER
  5
1C8CDE699D77
102
{ACAD_XDICTIONARY
360
1C8CDE6B24B8
102
}
330
1C8CDE699D3D
100
AcDbSymbolTableRecord
100
AcDbLayerTableRecord
  2
SJC
 70
     0
 62
     1
  6
CONTINUOUS
370
    -3
390
1C8CDE6A9C99
  0
LAYER
  5
1C8CDE699D79
102
{ACAD_XDICTIONARY
360
1C8CDE6B24BA
102
}
330
1C8CDE699D3D
100
AcDbSymbolTableRecord
100
AcDbLayerTableRecord
  2
ZWAKU
 70
     1
 62
    -7
  6
CONTINUOUS
370
    -3
390
1C8CDE6A9C99
  0
LAYER
  5
1C8CDE699D7B
330
1C8CDE699D3D
100
AcDbSymbolTableRecord
100
AcDbLayerTableRecord
  2
DEFPOINTS
 70
     0
 62
     7
  6
CONTINUOUS
290
     0
370
    -3
390
1C8CDE6A9C99
  0
LAYER
  5
1C8CDE699D8F
102
{ACAD_XDICTIONARY
360
1C8CDE6B24BC
102
}
330
1C8CDE699D3D
100
AcDbSymbolTableRecord
100
AcDbLayerTableRecord
  2
INFORMATION
 70
     1
 62
     7
  6
CONTINUOUS
370
    -3
390
1C8CDE6A9C99
  0
LAYER
  5
1C8CDE699D92
102
{ACAD_XDICTIONARY
360
1C8CDE6B24BE
102
}
330
1C8CDE699D3D
100
AcDbSymbolTableRecord
100
AcDbLayerTableRecord
  2
SJC2
 70
     0
 62
     7
  6
CONTINUOUS
370
    -3
390
1C8CDE6A9C99
  0
LAYER
  5
1C8CDE699D94
102
{ACAD_XDICTIONARY
360
1C8CDE6B24C0
102
}
330
1C8CDE699D3D
100
AcDbSymbolTableRecord
100
AcDbLayerTableRecord
  2
HATCH
 70
     0
 62
     2
  6
CONTINUOUS
370
    -3
390
1C8CDE6A9C99
  0
LAYER
  5
1C8CDE6B26AA
330
1C8CDE699D3D
100
AcDbSymbolTableRecord
100
AcDbLayerTableRecord
  2
KASOU
 70
     0
 62
     2
  6
PHANTOM
370
    -3
390
1C8CDE6A9C99
  0
LAYER
  5
1C8CDE6B26AB
330
1C8CDE699D3D
100
AcDbSymbolTableRecord
100
AcDbLayerTableRecord
  2
WAKU
 70
     0
 62
     5
  6
CONTINUOUS
370
    -3
390
1C8CDE6A9C99
  0
LAYER
  5
1C8CDE6B26AC
330
1C8CDE699D3D
100
AcDbSymbolTableRecord
100
AcDbLayerTableRecord
  2
MOJI2
 70
     0
 62
     1
  6
CONTINUOUS
370
    -3
390
1C8CDE6A9C99
  0
LAYER
  5
1C8CDE6B26AD
330
1C8CDE699D3D
100
AcDbSymbolTableRecord
100
AcDbLayerTableRecord
  2
HOJO
 70
     0
 62
    -8
  6
CONTINUOUS
370
    -3
390
1C8CDE6A9C99
  0
ENDTAB
  0
TABLE
  2
STYLE
  5
1C8CDE699D3E
330
0
100
AcDbSymbolTable
 70
     8
  0
STYLE
  5
1C8CDE699D4B
330
1C8CDE699D3E
100
AcDbSymbolTableRecord
100
AcDbTextStyleTableRecord
  2
STANDARD
 70
     0
 40
2.5
 41
0.8
 50
0.0
 71
     0
 42
3.0
  3
ROMANS.SHX
  4
BIGFONT
  0
STYLE
  5
1C8CDE699D66
330
1C8CDE699D3E
100
AcDbSymbolTableRecord
100
AcDbTextStyleTableRecord
  2
KANJI
 70
     0
 40
0.0
 41
1.0
 50
0.0
 71
     0
 42
0.0
  3
ROMANS.SHX
  4
BIGFONT.SHX
  0
STYLE
  5
1C8CDE699DA6
330
1C8CDE699D3E
100
AcDbSymbolTableRecord
100
AcDbTextStyleTableRecord
  2
EXT08
 70
     0
 40
0.0
 41
0.8
 50
0.0
 71
     0
 42
30.0
  3
ROMANS
  4
EXTFONT
  0
STYLE
  5
1C8CDE6B26B8
330
1C8CDE699D3E
100
AcDbSymbolTableRecord
100
AcDbTextStyleTableRecord
  2
SIMPLEX
 70
     0
 40
0.0
 41
1.0
 50
0.0
 71
     0
 42
0.0
  3
scripts.shx
  4

  0
STYLE
  5
1C8CDE6B26B9
330
1C8CDE699D3E
100
AcDbSymbolTableRecord
100
AcDbTextStyleTableRecord
  2
TATEEXT
 70
     4
 40
0.0
 41
1.0
 50
0.0
 71
     0
 42
0.0
  3
romans.shx
  4
extfont.shx
  0
STYLE
  5
1C8CDE6B26BA
330
1C8CDE699D3E
100
AcDbSymbolTableRecord
100
AcDbTextStyleTableRecord
  2
TATEBIG
 70
     4
 40
0.0
 41
1.0
 50
0.0
 71
     0
 42
0.0
  3
romans.shx
  4
bigfont.shx
  0
STYLE
  5
1C8CDE6B26BB
330
1C8CDE699D3E
100
AcDbSymbolTableRecord
100
AcDbTextStyleTableRecord
  2
EXT
 70
     0
 40
0.0
 41
1.0
 50
0.0
 71
     0
 42
0.0
  3
romans.shx
  4
extfont.shx
  0
STYLE
  5
1C8CDE6B26BC
330
1C8CDE699D3E
100
AcDbSymbolTableRecord
100
AcDbTextStyleTableRecord
  2
KANJI08
 70
     0
 40
0.0
 41
0.8
 50
0.0
 71
     0
 42
3.0
  3
romans.shx
  4
bigfont.shx
  0
ENDTAB
  0
TABLE
  2
VIEW
  5
1C8CDE699D41
330
0
100
AcDbSymbolTable
 70
     0
  0
ENDTAB
  0
TABLE
  2
UCS
  5
1C8CDE699D42
330
0
100
AcDbSymbolTable
 70
     0
  0
ENDTAB
  0
TABLE
  2
APPID
  5
1C8CDE699D44
330
0
100
AcDbSymbolTable
 70
     5
  0
APPID
  5
1C8CDE699D4C
330
1C8CDE699D44
100
AcDbSymbolTableRecord
100
AcDbRegAppTableRecord
  2
ACAD
 70
     0
  0
APPID
  5
1C8CDE6ABAB3
330
1C8CDE699D44
100
AcDbSymbolTableRecord
100
AcDbRegAppTableRecord
  2
ACAD_PSEXT
 70
     0
  0
APPID
  5
1C8CDE6B2488
330
1C8CDE699D44
100
AcDbSymbolTableRecord
100
AcDbRegAppTableRecord
  2
ACAD_EXEMPT_FROM_CAD_STANDARDS
 70
     0
  0
APPID
  5
1C8CDE6B24CA
330
1C8CDE699D44
100
AcDbSymbolTableRecord
100
AcDbRegAppTableRecord
  2
ACAD_NAV_VCDISPLAY
 70
     0
  0
APPID
  5
1C8CDE6B2682
330
1C8CDE699D44
100
AcDbSymbolTableRecord
100
AcDbRegAppTableRecord
  2
ACAD_MLEADERVER
 70
     0
  0
ENDTAB
  0
TABLE
  2
DIMSTYLE
  5
1C8CDE699D45
330
0
100
AcDbSymbolTable
 70
     4
100
AcDbDimStyleTable
 71
     4
340
1C8CDE699DA9
340
1C8CDE6B26B7
340
1C8CDE6B26B3
340
1C8CDE6B26A8
  0
DIMSTYLE
105
1C8CDE699DA9
102
{ACAD_REACTORS
330
1C8CDE699761
330
1C8CDE69976D
330
1C8CDE699B8B
330
1C8CDE699EBE
330
1C8CDE69B5FF
330
1C8CDE69B617
330
1C8CDE6B14BB
330
1C8CDE6B14BC
330
1C8CDE6B19CA
330
1C8CDE6B1E37
330
1C8CDE6B1E38
330
1C8CDE6B1E39
330
1C8CDE6AC657
102
}
330
1C8CDE699D45
100
AcDbSymbolTableRecord
100
AcDbDimStyleTableRecord
  2
SJC
 70
     0
 41
20.0
 42
10.0
 43
0.4
 44
10.0
 73
     0
 74
     0
 77
     1
 78
     8
140
25.0
141
0.1
147
15.0
172
     1
176
   256
177
   256
178
   256
271
     1
272
     1
275
     1
279
     2
284
     8
285
     8
286
     8
340
1C8CDE699D66
  0
DIMSTYLE
105
1C8CDE6B26A8
330
1C8CDE699D45
100
AcDbSymbolTableRecord
100
AcDbDimStyleTableRecord
  2
STANDARD
 70
     0
 40
10.0
 41
2.0
 42
1.0
 43
6.0
 44
1.0
 73
     0
 74
     0
 77
     1
 78
     8
140
3.0
141
0.1
147
1.199999999999999
172
     1
179
     2
271
     2
272
     1
275
     1
279
     2
284
     8
285
     8
286
     8
340
1C8CDE699DA6
  0
DIMSTYLE
105
1C8CDE6B26B3
330
1C8CDE699D45
100
AcDbSymbolTableRecord
100
AcDbDimStyleTableRecord
  2
RUISEKI1
 70
     0
 40
10.0
 41
2.0
 42
1.0
 43
6.0
 44
30.0
 73
     0
 74
     0
 77
     1
 78
     8
140
3.0
141
0.1
147
1.5
172
     1
173
     1
179
     2
271
     2
272
     1
275
     1
279
     2
284
     8
285
     8
286
     8
340
1C8CDE699DA6
343
1C8CDE6B26AE
  0
DIMSTYLE
105
1C8CDE6B26B7
330
1C8CDE699D45
100
AcDbSymbolTableRecord
100
AcDbDimStyleTableRecord
  2
RUISEKI2
 70
     0
 40
10.0
 41
2.0
 42
1.0
 43
6.0
 44
30.0
 73
     0
 74
     0
 77
     1
 78
     8
140
3.0
141
0.1
147
1.5
172
     1
173
     1
179
     2
271
     2
272
     1
275
     1
279
     2
284
     8
285
     8
286
     8
340
1C8CDE699DA6
343
1C8CDE6B26B4
  0
ENDTAB
  0
TABLE
  2
BLOCK_RECORD
  5
1C8CDE699D3C
330
0
100
AcDbSymbolTable
 70
    16
  0
BLOCK_RECORD
  5
1C8CDE699D53
102
{ACAD_XDICTIONARY
360
1C8CDE6AB659
102
}
330
1C8CDE699D3C
100
AcDbSymbolTableRecord
100
AcDbBlockTableRecord
  2
*MODEL_SPACE
340
1C8CDE6A9C9C
  0
BLOCK_RECORD
  5
1C8CDE699D50
102
{ACAD_XDICTIONARY
360
1C8CDE6AB657
102
}
330
1C8CDE699D3C
100
AcDbSymbolTableRecord
100
AcDbBlockTableRecord
  2
*PAPER_SPACE
340
1C8CDE6A9C9D
  0
BLOCK_RECORD
  5
1C8CDE699D85
330
1C8CDE699D3C
100
AcDbSymbolTableRecord
100
AcDbBlockTableRecord
  2
CALCOMP_TECHJET720A3
340
0
102
{BLKREFS
331
1C8CDE6AB9A3
102
}
  0
BLOCK_RECORD
  5
1C8CDE699DDA
330
1C8CDE699D3C
100
AcDbSymbolTableRecord
100
AcDbBlockTableRecord
  2
*D1
340
0
  0
BLOCK_RECORD
  5
1C8CDE699DE6
330
1C8CDE699D3C
100
AcDbSymbolTableRecord
100
AcDbBlockTableRecord
  2
*D2
340
0
  0
BLOCK_RECORD
  5
1C8CDE699DF2
330
1C8CDE699D3C
100
AcDbSymbolTableRecord
100
AcDbBlockTableRecord
  2
*D3
340
0
  0
BLOCK_RECORD
  5
1C8CDE699EB0
330
1C8CDE699D3C
100
AcDbSymbolTableRecord
100
AcDbBlockTableRecord
  2
*D4
340
0
  0
BLOCK_RECORD
  5
1C8CDE69B5F3
330
1C8CDE699D3C
100
AcDbSymbolTableRecord
100
AcDbBlockTableRecord
  2
*D5
340
0
  0
BLOCK_RECORD
  5
1C8CDE69B60B
330
1C8CDE699D3C
100
AcDbSymbolTableRecord
100
AcDbBlockTableRecord
  2
*D6
340
0
  0
BLOCK_RECORD
  5
1C8CDE6AB991
330
1C8CDE699D3C
100
AcDbSymbolTableRecord
100
AcDbBlockTableRecord
  2
SYSTEMA3
340
0
102
{BLKREFS
331
1C8CDE6AB995
102
}
  0
BLOCK_RECORD
  5
1C8CDE6AC658
330
1C8CDE699D3C
100
AcDbSymbolTableRecord
100
AcDbBlockTableRecord
  2
*D8
340
0
  0
BLOCK_RECORD
  5
1C8CDE6B14BD
330
1C8CDE699D3C
100
AcDbSymbolTableRecord
100
AcDbBlockTableRecord
  2
*D9
340
0
  0
BLOCK_RECORD
  5
1C8CDE6B14C9
330
1C8CDE699D3C
100
AcDbSymbolTableRecord
100
AcDbBlockTableRecord
  2
*D10
340
0
  0
BLOCK_RECORD
  5
1C8CDE6B1E3A
330
1C8CDE699D3C
100
AcDbSymbolTableRecord
100
AcDbBlockTableRecord
  2
*D11
340
0
  0
BLOCK_RECORD
  5
1C8CDE6B1E46
330
1C8CDE699D3C
100
AcDbSymbolTableRecord
100
AcDbBlockTableRecord
  2
*D12
340
0
  0
BLOCK_RECORD
  5
1C8CDE6B1E52
330
1C8CDE699D3C
100
AcDbSymbolTableRecord
100
AcDbBlockTableRecord
  2
*D13
340
0
  0
BLOCK_RECORD
  5
1C8CDE6B26AE
330
1C8CDE699D3C
100
AcDbSymbolTableRecord
100
AcDbBlockTableRecord
  2
_Dot
340
0
  0
BLOCK_RECORD
  5
1C8CDE6B26B4
330
1C8CDE699D3C
100
AcDbSymbolTableRecord
100
AcDbBlockTableRecord
  2
_None
340
0
  0
ENDTAB
  0
ENDSEC
  0
SECTION
  2
BLOCKS
  0
BLOCK
  5
1C8CDE699D7E
330
1C8CDE699D53
100
AcDbEntity
  8
0
100
AcDbBlockBegin
  2
*MODEL_SPACE
 70
     0
 10
0.0
 20
0.0
 30
0.0
  3
*MODEL_SPACE
  1

  0
ENDBLK
  5
1C8CDE699D7F
330
1C8CDE699D53
100
AcDbEntity
  8
0
100
AcDbBlockEnd
  0
BLOCK
  5
1C8CDE699D7C
330
1C8CDE699D50
100
AcDbEntity
 67
     1
  8
0
100
AcDbBlockBegin
  2
*PAPER_SPACE
 70
     0
 10
0.0
 20
0.0
 30
0.0
  3
*PAPER_SPACE
  1

  0
ENDBLK
  5
1C8CDE699D7D
330
1C8CDE699D50
100
AcDbEntity
 67
     1
  8
0
100
AcDbBlockEnd
  0
BLOCK
  5
1C8CDE699D8C
330
1C8CDE699D85
100
AcDbEntity
  8
0
100
AcDbBlockBegin
  2
CALCOMP_TECHJET720A3
 70
     0
 10
0.0
 20
0.0
 30
0.0
  3
CALCOMP_TECHJET720A3
  1

  0
LWPOLYLINE
  5
1C8CDE699D86
330
1C8CDE699D85
100
AcDbEntity
  8
ZWAKU
 62
     2
100
AcDbPolyline
 90
        4
 70
     1
 43
0.0
 10
0.0
 20
0.0
 10
0.0
 20
267.0
 10
370.0
 20
267.0
 10
370.0
 20
0.0
  0
ENDBLK
  5
1C8CDE699D8D
330
1C8CDE699D85
100
AcDbEntity
  8
0
100
AcDbBlockEnd
  0
BLOCK
  5
1C8CDE6A9B81
330
1C8CDE699DDA
100
AcDbEntity
  8
0
100
AcDbBlockBegin
  2
*D1
 70
     1
 10
0.0
 20
0.0
 30
0.0
  3
*D1
  1

  0
LINE
  5
1C8CDE6B2393
330
1C8CDE699DDA
100
AcDbEntity
  8
SUNPOU
370
    -2
100
AcDbLine
 10
1218.241139671922
 20
634.8788971329295
 30
0.0
 11
1409.771526302443
 21
634.8788971329294
 31
0.0
  0
LINE
  5
1C8CDE6B2394
330
1C8CDE699DDA
100
AcDbEntity
  8
SUNPOU
370
    -2
100
AcDbLine
 10
1219.041139671924
 20
1034.878897132929
 30
0.0
 11
1409.771526302443
 21
1034.878897132929
 31
0.0
  0
LINE
  5
1C8CDE6B2395
330
1C8CDE699DDA
100
AcDbEntity
  8
SUNPOU
370
    -2
100
AcDbLine
 10
1399.771526302443
 20
654.8788971329294
 30
0.0
 11
1399.771526302443
 21
1014.878897132929
 31
0.0
  0
SOLID
  5
1C8CDE6B2396
330
1C8CDE699DDA
100
AcDbEntity
  8
SUNPOU
100
AcDbTrace
 10
1396.43819296911
 20
654.8788971329294
 30
0.0
 11
1403.104859635776
 21
654.8788971329294
 31
0.0
 12
1399.771526302443
 22
634.8788971329294
 32
0.0
 13
1399.771526302443
 23
634.8788971329294
 33
0.0
  0
SOLID
  5
1C8CDE6B2397
330
1C8CDE699DDA
100
AcDbEntity
  8
SUNPOU
100
AcDbTrace
 10
1396.43819296911
 20
1014.878897132929
 30
0.0
 11
1403.104859635776
 21
1014.878897132929
 31
0.0
 12
1399.771526302443
 22
1034.878897132929
 32
0.0
 13
1399.771526302443
 23
1034.878897132929
 33
0.0
  0
MTEXT
  5
1C8CDE6B2398
330
1C8CDE699DDA
100
AcDbEntity
  8
SUNPOU
100
AcDbMText
 10
1372.771526302442
 20
834.8788971329293
 30
0.0
 40
30.0
 41
0.0
 71
     5
 72
     1
  1
\A1;400
  7
EXT08
 11
0.0000000000000001
 21
1.0
 31
0.0
 73
     1
 44
1.0
1001
ACAD
1000
MTEXTBEGIN
1070
    73
1070
     1
1070
    44
1040
1.0
1070
    74
1070
     0
1000
MTEXTEND
  0
POINT
  5
1C8CDE6B2399
330
1C8CDE699DDA
100
AcDbEntity
  8
DEFPOINTS
 62
     0
100
AcDbPoint
 10
1208.241139671922
 20
634.8788971329295
 30
0.0
  0
POINT
  5
1C8CDE6B239A
330
1C8CDE699DDA
100
AcDbEntity
  8
DEFPOINTS
 62
     0
100
AcDbPoint
 10
1209.041139671924
 20
1034.878897132929
 30
0.0
  0
POINT
  5
1C8CDE6B239B
330
1C8CDE699DDA
100
AcDbEntity
  8
DEFPOINTS
 62
     0
100
AcDbPoint
 10
1399.771526302443
 20
1034.878897132929
 30
0.0
  0
ENDBLK
  5
1C8CDE6A9B8B
330
1C8CDE699DDA
100
AcDbEntity
  8
0
100
AcDbBlockEnd
  0
BLOCK
  5
1C8CDE6A9B6B
330
1C8CDE699DE6
100
AcDbEntity
  8
0
100
AcDbBlockBegin
  2
*D2
 70
     1
 10
0.0
 20
0.0
 30
0.0
  3
*D2
  1

  0
LINE
  5
1C8CDE6B23A5
330
1C8CDE699DE6
100
AcDbEntity
  8
SUNPOU
370
    -2
100
AcDbLine
 10
808.2411396719217
 20
574.8788971329295
 30
0.0
 11
808.2411396719217
 21
342.8314343411432
 31
0.0
  0
LINE
  5
1C8CDE6B23A6
330
1C8CDE699DE6
100
AcDbEntity
  8
SUNPOU
370
    -2
100
AcDbLine
 10
1208.241139671922
 20
574.8788971329295
 30
0.0
 11
1208.241139671922
 21
342.8314343411432
 31
0.0
  0
LINE
  5
1C8CDE6B23A7
330
1C8CDE699DE6
100
AcDbEntity
  8
SUNPOU
370
    -2
100
AcDbLine
 10
828.2411396719217
 20
352.8314343411432
 30
0.0
 11
1188.241139671922
 21
352.8314343411432
 31
0.0
  0
SOLID
  5
1C8CDE6B23A8
330
1C8CDE699DE6
100
AcDbEntity
  8
SUNPOU
100
AcDbTrace
 10
828.2411396719217
 20
356.1647676744765
 30
0.0
 11
828.2411396719217
 21
349.4981010078098
 31
0.0
 12
808.2411396719217
 22
352.8314343411432
 32
0.0
 13
808.2411396719217
 23
352.8314343411432
 33
0.0
  0
SOLID
  5
1C8CDE6B23A9
330
1C8CDE699DE6
100
AcDbEntity
  8
SUNPOU
100
AcDbTrace
 10
1188.241139671922
 20
356.1647676744765
 30
0.0
 11
1188.241139671922
 21
349.4981010078098
 31
0.0
 12
1208.241139671922
 22
352.8314343411432
 32
0.0
 13
1208.241139671922
 23
352.8314343411432
 33
0.0
  0
MTEXT
  5
1C8CDE6B23AA
330
1C8CDE699DE6
100
AcDbEntity
  8
SUNPOU
100
AcDbMText
 10
1008.241139671921
 20
379.8314343411432
 30
0.0
 40
30.0
 41
0.0
 71
     5
 72
     1
  1
\A1;□400
  7
EXT08
 73
     1
 44
1.0
1001
ACAD
1000
MTEXTBEGIN
1070
    73
1070
     1
1070
    44
1040
1.0
1070
    74
1070
     0
1000
MTEXTEND
  0
POINT
  5
1C8CDE6B23AB
330
1C8CDE699DE6
100
AcDbEntity
  8
DEFPOINTS
 62
     0
100
AcDbPoint
 10
808.2411396719217
 20
584.8788971329295
 30
0.0
  0
POINT
  5
1C8CDE6B23AC
330
1C8CDE699DE6
100
AcDbEntity
  8
DEFPOINTS
 62
     0
100
AcDbPoint
 10
1208.241139671922
 20
584.8788971329295
 30
0.0
  0
POINT
  5
1C8CDE6B23AD
330
1C8CDE699DE6
100
AcDbEntity
  8
DEFPOINTS
 62
     0
100
AcDbPoint
 10
1208.241139671922
 20
352.8314343411432
 30
0.0
  0
ENDBLK
  5
1C8CDE6A9B75
330
1C8CDE699DE6
100
AcDbEntity
  8
0
100
AcDbBlockEnd
  0
BLOCK
  5
1C8CDE6A9B76
330
1C8CDE699DF2
100
AcDbEntity
  8
0
100
AcDbBlockBegin
  2
*D3
 70
     1
 10
0.0
 20
0.0
 30
0.0
  3
*D3
  1

  0
LINE
  5
1C8CDE6B239C
330
1C8CDE699DF2
100
AcDbEntity
  8
SUNPOU
370
    -2
100
AcDbLine
 10
858.2411396719217
 20
575.5812308400145
 30
0.0
 11
858.2411396719217
 21
415.8895276785399
 31
0.0
  0
LINE
  5
1C8CDE6B239D
330
1C8CDE699DF2
100
AcDbEntity
  8
SUNPOU
370
    -2
100
AcDbLine
 10
1158.241139671922
 20
575.5812308400145
 30
0.0
 11
1158.241139671922
 21
415.8895276785399
 31
0.0
  0
LINE
  5
1C8CDE6B239E
330
1C8CDE699DF2
100
AcDbEntity
  8
SUNPOU
370
    -2
100
AcDbLine
 10
878.2411396719217
 20
425.8895276785398
 30
0.0
 11
1138.241139671922
 21
425.8895276785398
 31
0.0
  0
SOLID
  5
1C8CDE6B239F
330
1C8CDE699DF2
100
AcDbEntity
  8
SUNPOU
100
AcDbTrace
 10
878.2411396719217
 20
429.2228610118732
 30
0.0
 11
878.2411396719217
 21
422.5561943452065
 31
0.0
 12
858.2411396719217
 22
425.8895276785398
 32
0.0
 13
858.2411396719217
 23
425.8895276785398
 33
0.0
  0
SOLID
  5
1C8CDE6B23A0
330
1C8CDE699DF2
100
AcDbEntity
  8
SUNPOU
100
AcDbTrace
 10
1138.241139671922
 20
429.2228610118732
 30
0.0
 11
1138.241139671922
 21
422.5561943452065
 31
0.0
 12
1158.241139671922
 22
425.8895276785398
 32
0.0
 13
1158.241139671922
 23
425.8895276785398
 33
0.0
  0
MTEXT
  5
1C8CDE6B23A1
330
1C8CDE699DF2
100
AcDbEntity
  8
SUNPOU
100
AcDbMText
 10
1008.241139671921
 20
452.8895276785398
 30
0.0
 40
30.0
 41
0.0
 71
     5
 72
     1
  1
\A1;□300
  7
EXT08
 73
     1
 44
1.0
1001
ACAD
1000
MTEXTBEGIN
1070
    73
1070
     1
1070
    44
1040
1.0
1070
    74
1070
     0
1000
MTEXTEND
  0
POINT
  5
1C8CDE6B23A2
330
1C8CDE699DF2
100
AcDbEntity
  8
DEFPOINTS
 62
     0
100
AcDbPoint
 10
858.2411396719217
 20
585.5812308400145
 30
0.0
  0
POINT
  5
1C8CDE6B23A3
330
1C8CDE699DF2
100
AcDbEntity
  8
DEFPOINTS
 62
     0
100
AcDbPoint
 10
1158.241139671922
 20
585.5812308400145
 30
0.0
  0
POINT
  5
1C8CDE6B23A4
330
1C8CDE699DF2
100
AcDbEntity
  8
DEFPOINTS
 62
     0
100
AcDbPoint
 10
1158.241139671922
 20
425.8895276785398
 30
0.0
  0
ENDBLK
  5
1C8CDE6A9B80
330
1C8CDE699DF2
100
AcDbEntity
  8
0
100
AcDbBlockEnd
  0
BLOCK
  5
1C8CDE6A9B8C
330
1C8CDE699EB0
100
AcDbEntity
  8
0
100
AcDbBlockBegin
  2
*D4
 70
     1
 10
0.0
 20
0.0
 30
0.0
  3
*D4
  1

  0
LINE
  5
1C8CDE6B2388
330
1C8CDE699EB0
100
AcDbEntity
  8
SUNPOU
370
    -2
100
AcDbLine
 10
1218.241139671922
 20
584.8788971329295
 30
0.0
 11
1474.716492000697
 21
584.8788971329294
 31
0.0
  0
LINE
  5
1C8CDE6B2389
330
1C8CDE699EB0
100
AcDbEntity
  8
SUNPOU
370
    -2
100
AcDbLine
 10
1218.241139671922
 20
634.8788971329295
 30
0.0
 11
1474.716492000697
 21
634.8788971329294
 31
0.0
  0
LINE
  5
1C8CDE6B238A
330
1C8CDE699EB0
100
AcDbEntity
  8
SUNPOU
370
    -2
100
AcDbLine
 10
1464.716492000697
 20
564.8788971329294
 30
0.0
 11
1464.716492000697
 21
544.8788971329293
 31
0.0
  0
LINE
  5
1C8CDE6B238B
330
1C8CDE699EB0
100
AcDbEntity
  8
SUNPOU
370
    -2
100
AcDbLine
 10
1464.716492000697
 20
654.8788971329294
 30
0.0
 11
1464.716492000697
 21
674.8788971329294
 31
0.0
  0
MTEXT
  5
1C8CDE6B238C
330
1C8CDE699EB0
100
AcDbEntity
  8
SUNPOU
100
AcDbMText
 10
1436.320754442506
 20
548.2243865257796
 30
0.0
 40
30.0
 41
0.0
 71
     5
 72
     1
  1
\A1;50
  7
EXT08
 11
0.0000000000000001
 21
1.0
 31
0.0
 73
     1
 44
1.0
1001
ACAD
1000
MTEXTBEGIN
1070
    73
1070
     1
1070
    44
1040
1.0
1070
    74
1070
     0
1000
MTEXTEND
  0
LINE
  5
1C8CDE6B238D
330
1C8CDE699EB0
100
AcDbEntity
  8
SUNPOU
370
    -2
100
AcDbLine
 10
1464.716492000697
 20
584.8788971329294
 30
0.0
 11
1464.716492000697
 21
634.8788971329294
 31
0.0
  0
SOLID
  5
1C8CDE6B238E
330
1C8CDE699EB0
100
AcDbEntity
  8
SUNPOU
100
AcDbTrace
 10
1461.383158667364
 20
564.8788971329294
 30
0.0
 11
1468.04982533403
 21
564.8788971329294
 31
0.0
 12
1464.716492000697
 22
584.8788971329294
 32
0.0
 13
1464.716492000697
 23
584.8788971329294
 33
0.0
  0
SOLID
  5
1C8CDE6B238F
330
1C8CDE699EB0
100
AcDbEntity
  8
SUNPOU
100
AcDbTrace
 10
1461.383158667364
 20
654.8788971329294
 30
0.0
 11
1468.04982533403
 21
654.8788971329294
 31
0.0
 12
1464.716492000697
 22
634.8788971329294
 32
0.0
 13
1464.716492000697
 23
634.8788971329294
 33
0.0
  0
POINT
  5
1C8CDE6B2390
330
1C8CDE699EB0
100
AcDbEntity
  8
DEFPOINTS
 62
     0
100
AcDbPoint
 10
1208.241139671922
 20
584.8788971329295
 30
0.0
  0
POINT
  5
1C8CDE6B2391
330
1C8CDE699EB0
100
AcDbEntity
  8
DEFPOINTS
 62
     0
100
AcDbPoint
 10
1208.241139671922
 20
634.8788971329295
 30
0.0
  0
POINT
  5
1C8CDE6B2392
330
1C8CDE699EB0
100
AcDbEntity
  8
DEFPOINTS
 62
     0
100
AcDbPoint
 10
1464.716492000697
 20
634.8788971329294
 30
0.0
  0
ENDBLK
  5
1C8CDE6A9B98
330
1C8CDE699EB0
100
AcDbEntity
  8
0
100
AcDbBlockEnd
  0
BLOCK
  5
1C8CDE6A9B99
330
1C8CDE69B5F3
100
AcDbEntity
  8
0
100
AcDbBlockBegin
  2
*D5
 70
     1
 10
0.0
 20
0.0
 30
0.0
  3
*D5
  1

  0
LINE
  5
1C8CDE6B248A
330
1C8CDE69B5F3
100
AcDbEntity
  8
SUNPOU
370
    -2
100
AcDbLine
 10
1018.241139671921
 20
1887.37889625328
 30
0.0
 11
1409.771526302443
 21
1887.37889625328
 31
0.0
  0
LINE
  5
1C8CDE6B248B
330
1C8CDE69B5F3
100
AcDbEntity
  8
SUNPOU
370
    -2
100
AcDbLine
 10
1168.241139671922
 20
1034.878897132929
 30
0.0
 11
1409.771526302443
 21
1034.878897132929
 31
0.0
  0
LINE
  5
1C8CDE6B248C
330
1C8CDE69B5F3
100
AcDbEntity
  8
SUNPOU
370
    -2
100
AcDbLine
 10
1399.771526302443
 20
1867.37889625328
 30
0.0
 11
1399.771526302443
 21
1054.878897132929
 31
0.0
  0
SOLID
  5
1C8CDE6B248D
330
1C8CDE69B5F3
100
AcDbEntity
  8
SUNPOU
100
AcDbTrace
 10
1396.43819296911
 20
1867.37889625328
 30
0.0
 11
1403.104859635776
 21
1867.37889625328
 31
0.0
 12
1399.771526302443
 22
1887.37889625328
 32
0.0
 13
1399.771526302443
 23
1887.37889625328
 33
0.0
  0
SOLID
  5
1C8CDE6B248E
330
1C8CDE69B5F3
100
AcDbEntity
  8
SUNPOU
100
AcDbTrace
 10
1396.43819296911
 20
1054.878897132929
 30
0.0
 11
1403.104859635776
 21
1054.878897132929
 31
0.0
 12
1399.771526302443
 22
1034.878897132929
 32
0.0
 13
1399.771526302443
 23
1034.878897132929
 33
0.0
  0
MTEXT
  5
1C8CDE6B248F
330
1C8CDE69B5F3
100
AcDbEntity
  8
SUNPOU
100
AcDbMText
 10
1372.771526302442
 20
1461.128896693105
 30
0.0
 40
30.0
 41
0.0
 71
     5
 72
     1
  1
\A1;850
  7
EXT08
 11
0.0000000000000001
 21
1.0
 31
0.0
 73
     1
 44
1.0
1001
ACAD
1000
MTEXTBEGIN
1070
    73
1070
     1
1070
    44
1040
1.0
1070
    74
1070
     0
1000
MTEXTEND
  0
POINT
  5
1C8CDE6B2490
330
1C8CDE69B5F3
100
AcDbEntity
  8
DEFPOINTS
 62
     0
100
AcDbPoint
 10
1008.241139671921
 20
1887.37889625328
 30
0.0
  0
POINT
  5
1C8CDE6B2491
330
1C8CDE69B5F3
100
AcDbEntity
  8
DEFPOINTS
 62
     0
100
AcDbPoint
 10
1158.241139671922
 20
1034.878897132929
 30
0.0
  0
POINT
  5
1C8CDE6B2492
330
1C8CDE69B5F3
100
AcDbEntity
  8
DEFPOINTS
 62
     0
100
AcDbPoint
 10
1399.771526302443
 20
1034.878897132929
 30
0.0
  0
ENDBLK
  5
1C8CDE6A9BA3
330
1C8CDE69B5F3
100
AcDbEntity
  8
0
100
AcDbBlockEnd
  0
BLOCK
  5
1C8CDE6A9BA4
330
1C8CDE69B60B
100
AcDbEntity
  8
0
100
AcDbBlockBegin
  2
*D6
 70
     1
 10
0.0
 20
0.0
 30
0.0
  3
*D6
  1

  0
LINE
  5
1C8CDE6B24A5
330
1C8CDE69B60B
100
AcDbEntity
  8
SUNPOU
370
    -2
100
AcDbLine
 10
1218.241139671922
 20
634.8788971329295
 30
0.0
 11
1474.716492000696
 21
634.8788971329294
 31
0.0
  0
LINE
  5
1C8CDE6B24A6
330
1C8CDE69B60B
100
AcDbEntity
  8
SUNPOU
370
    -2
100
AcDbLine
 10
1018.241139671922
 20
1887.37889625328
 30
0.0
 11
1474.716492000697
 21
1887.37889625328
 31
0.0
  0
LINE
  5
1C8CDE6B24A7
330
1C8CDE69B60B
100
AcDbEntity
  8
SUNPOU
370
    -2
100
AcDbLine
 10
1464.716492000697
 20
654.8788971329294
 30
0.0
 11
1464.716492000697
 21
1867.37889625328
 31
0.0
  0
SOLID
  5
1C8CDE6B24A8
330
1C8CDE69B60B
100
AcDbEntity
  8
SUNPOU
100
AcDbTrace
 10
1461.383158667363
 20
654.8788971329294
 30
0.0
 11
1468.04982533403
 21
654.8788971329294
 31
0.0
 12
1464.716492000697
 22
634.8788971329294
 32
0.0
 13
1464.716492000697
 23
634.8788971329294
 33
0.0
  0
SOLID
  5
1C8CDE6B24A9
330
1C8CDE69B60B
100
AcDbEntity
  8
SUNPOU
100
AcDbTrace
 10
1461.383158667364
 20
1867.37889625328
 30
0.0
 11
1468.04982533403
 21
1867.37889625328
 31
0.0
 12
1464.716492000697
 22
1887.37889625328
 32
0.0
 13
1464.716492000697
 23
1887.37889625328
 33
0.0
  0
MTEXT
  5
1C8CDE6B24AA
330
1C8CDE69B60B
100
AcDbEntity
  8
SUNPOU
100
AcDbMText
 10
1437.716492000696
 20
1261.128896693105
 30
0.0
 40
30.0
 41
0.0
 71
     5
 72
     1
  1
\A1;1250
  7
EXT08
 11
0.0000000000000001
 21
1.0
 31
0.0
 73
     1
 44
1.0
1001
ACAD
1000
MTEXTBEGIN
1070
    73
1070
     1
1070
    44
1040
1.0
1070
    74
1070
     0
1000
MTEXTEND
  0
POINT
  5
1C8CDE6B24AB
330
1C8CDE69B60B
100
AcDbEntity
  8
DEFPOINTS
 62
     0
100
AcDbPoint
 10
1208.241139671922
 20
634.8788971329295
 30
0.0
  0
POINT
  5
1C8CDE6B24AC
330
1C8CDE69B60B
100
AcDbEntity
  8
DEFPOINTS
 62
     0
100
AcDbPoint
 10
1008.241139671922
 20
1887.37889625328
 30
0.0
  0
POINT
  5
1C8CDE6B24AD
330
1C8CDE69B60B
100
AcDbEntity
  8
DEFPOINTS
 62
     0
100
AcDbPoint
 10
1464.716492000697
 20
1887.37889625328
 30
0.0
  0
ENDBLK
  5
1C8CDE6A9BAE
330
1C8CDE69B60B
100
AcDbEntity
  8
0
100
AcDbBlockEnd
  0
BLOCK
  5
1C8CDE6AB993
330
1C8CDE6AB991
100
AcDbEntity
  8
0
100
AcDbBlockBegin
  2
SYSTEMA3
 70
     0
 10
0.0
 20
0.0
 30
0.0
  3
SYSTEMA3
  1

  0
LWPOLYLINE
  5
1C8CDE6AB992
330
1C8CDE6AB991
100
AcDbEntity
  8
ZWAKU
100
AcDbPolyline
 90
        4
 70
     1
 43
0.0
 10
0.0
 20
0.0
 10
0.0
 20
274.5
 10
402.0
 20
274.5
 10
402.0
 20
0.0
  0
ENDBLK
  5
1C8CDE6AB994
330
1C8CDE6AB991
100
AcDbEntity
  8
0
100
AcDbBlockEnd
  0
BLOCK
  5
1C8CDE6AC662
330
1C8CDE6AC658
100
AcDbEntity
  8
0
100
AcDbBlockBegin
  2
*D8
 70
     1
 10
0.0
 20
0.0
 30
0.0
  3
*D8
  1

  0
LINE
  5
1C8CDE6B236B
330
1C8CDE6AC658
100
AcDbEntity
  8
SUNPOU
 62
     0
370
    -2
100
AcDbLine
 10
1055.733017255403
 20
1784.878897132928
 30
0.0
 11
1256.478815836309
 21
1784.878897132928
 31
0.0
  0
LINE
  5
1C8CDE6B236C
330
1C8CDE6AC658
100
AcDbEntity
  8
SUNPOU
 62
     0
370
    -2
100
AcDbLine
 10
1055.733017255404
 20
1834.878897132929
 30
0.0
 11
1256.478815836309
 21
1834.878897132929
 31
0.0
  0
LINE
  5
1C8CDE6B236D
330
1C8CDE6AC658
100
AcDbEntity
  8
SUNPOU
 62
     0
370
    -2
100
AcDbLine
 10
1246.478815836309
 20
1764.878897132929
 30
0.0
 11
1246.478815836309
 21
1744.878897132929
 31
0.0
  0
LINE
  5
1C8CDE6B236E
330
1C8CDE6AC658
100
AcDbEntity
  8
SUNPOU
 62
     0
370
    -2
100
AcDbLine
 10
1246.478815836309
 20
1854.878897132929
 30
0.0
 11
1246.478815836309
 21
1874.878897132929
 31
0.0
  0
MTEXT
  5
1C8CDE6B236F
330
1C8CDE6AC658
100
AcDbEntity
  8
SUNPOU
 62
     0
100
AcDbMText
 10
1285.858055741004
 20
1809.87889713293
 30
0.0
 40
30.0
 41
0.0
 71
     5
 72
     1
  1
\A1;50
  7
EXT08
 11
0.0000000000000001
 21
1.0
 31
0.0
 73
     1
 44
1.0
1001
ACAD
1000
MTEXTBEGIN
1070
    73
1070
     1
1070
    44
1040
1.0
1070
    74
1070
     0
1000
MTEXTEND
  0
LINE
  5
1C8CDE6B2370
330
1C8CDE6AC658
100
AcDbEntity
  8
SUNPOU
 62
     0
370
    -2
100
AcDbLine
 10
1246.478815836309
 20
1784.878897132928
 30
0.0
 11
1246.478815836309
 21
1834.878897132929
 31
0.0
  0
SOLID
  5
1C8CDE6B2371
330
1C8CDE6AC658
100
AcDbEntity
  8
SUNPOU
 62
     0
100
AcDbTrace
 10
1243.145482502976
 20
1764.878897132929
 30
0.0
 11
1249.812149169643
 21
1764.878897132929
 31
0.0
 12
1246.478815836309
 22
1784.878897132928
 32
0.0
 13
1246.478815836309
 23
1784.878897132928
 33
0.0
  0
SOLID
  5
1C8CDE6B2372
330
1C8CDE6AC658
100
AcDbEntity
  8
SUNPOU
 62
     0
100
AcDbTrace
 10
1243.145482502976
 20
1854.878897132929
 30
0.0
 11
1249.812149169643
 21
1854.878897132929
 31
0.0
 12
1246.478815836309
 22
1834.878897132929
 32
0.0
 13
1246.478815836309
 23
1834.878897132929
 33
0.0
  0
POINT
  5
1C8CDE6B2373
330
1C8CDE6AC658
100
AcDbEntity
  8
DEFPOINTS
 62
     0
100
AcDbPoint
 10
1045.733017255403
 20
1784.878897132928
 30
0.0
  0
POINT
  5
1C8CDE6B2374
330
1C8CDE6AC658
100
AcDbEntity
  8
DEFPOINTS
 62
     0
100
AcDbPoint
 10
1045.733017255404
 20
1834.878897132929
 30
0.0
  0
POINT
  5
1C8CDE6B2375
330
1C8CDE6AC658
100
AcDbEntity
  8
DEFPOINTS
 62
     0
100
AcDbPoint
 10
1246.478815836309
 20
1834.878897132929
 30
0.0
  0
ENDBLK
  5
1C8CDE6AC663
330
1C8CDE6AC658
100
AcDbEntity
  8
0
100
AcDbBlockEnd
  0
BLOCK
  5
1C8CDE6B14C7
330
1C8CDE6B14BD
100
AcDbEntity
  8
0
100
AcDbBlockBegin
  2
*D9
 70
     1
 10
0.0
 20
0.0
 30
0.0
  3
*D9
  1

  0
LINE
  5
1C8CDE6B2362
330
1C8CDE6B14BD
100
AcDbEntity
  8
SUNPOU
 62
     0
370
    -2
100
AcDbLine
 10
2074.659897859056
 20
1437.900428580176
 30
0.0
 11
1821.164729129944
 21
1437.900428580176
 31
0.0
  0
LINE
  5
1C8CDE6B2363
330
1C8CDE6B14BD
100
AcDbEntity
  8
SUNPOU
 62
     0
370
    -2
100
AcDbLine
 10
2004.959897859056
 20
1037.900428580176
 30
0.0
 11
1821.164729129944
 21
1037.900428580176
 31
0.0
  0
LINE
  5
1C8CDE6B2364
330
1C8CDE6B14BD
100
AcDbEntity
  8
SUNPOU
 62
     0
370
    -2
100
AcDbLine
 10
1831.164729129944
 20
1417.900428580176
 30
0.0
 11
1831.164729129944
 21
1057.900428580176
 31
0.0
  0
SOLID
  5
1C8CDE6B2365
330
1C8CDE6B14BD
100
AcDbEntity
  8
SUNPOU
 62
     0
100
AcDbTrace
 10
1827.83139579661
 20
1417.900428580176
 30
0.0
 11
1834.498062463277
 21
1417.900428580176
 31
0.0
 12
1831.164729129944
 22
1437.900428580176
 32
0.0
 13
1831.164729129944
 23
1437.900428580176
 33
0.0
  0
SOLID
  5
1C8CDE6B2366
330
1C8CDE6B14BD
100
AcDbEntity
  8
SUNPOU
 62
     0
100
AcDbTrace
 10
1827.83139579661
 20
1057.900428580176
 30
0.0
 11
1834.498062463277
 21
1057.900428580176
 31
0.0
 12
1831.164729129944
 22
1037.900428580176
 32
0.0
 13
1831.164729129944
 23
1037.900428580176
 33
0.0
  0
MTEXT
  5
1C8CDE6B2367
330
1C8CDE6B14BD
100
AcDbEntity
  8
SUNPOU
 62
     0
100
AcDbMText
 10
1804.164729129944
 20
1237.900428580176
 30
0.0
 40
30.0
 41
0.0
 71
     5
 72
     1
  1
\A1;200
  7
EXT08
 11
0.0000000000000001
 21
1.0
 31
0.0
 73
     1
 44
1.0
1001
ACAD
1000
MTEXTBEGIN
1070
    73
1070
     1
1070
    44
1040
1.0
1070
    74
1070
     0
1000
MTEXTEND
  0
POINT
  5
1C8CDE6B2368
330
1C8CDE6B14BD
100
AcDbEntity
  8
DEFPOINTS
 62
     0
100
AcDbPoint
 10
2084.659897859056
 20
1437.900428580176
 30
0.0
  0
POINT
  5
1C8CDE6B2369
330
1C8CDE6B14BD
100
AcDbEntity
  8
DEFPOINTS
 62
     0
100
AcDbPoint
 10
2014.959897859056
 20
1037.900428580176
 30
0.0
  0
POINT
  5
1C8CDE6B236A
330
1C8CDE6B14BD
100
AcDbEntity
  8
DEFPOINTS
 62
     0
100
AcDbPoint
 10
1831.164729129944
 20
1037.900428580176
 30
0.0
  0
ENDBLK
  5
1C8CDE6B14C8
330
1C8CDE6B14BD
100
AcDbEntity
  8
0
100
AcDbBlockEnd
  0
BLOCK
  5
1C8CDE6B14D3
330
1C8CDE6B14C9
100
AcDbEntity
  8
0
100
AcDbBlockBegin
  2
*D10
 70
     1
 10
0.0
 20
0.0
 30
0.0
  3
*D10
  1

  0
LINE
  5
1C8CDE6B247F
330
1C8CDE6B14C9
100
AcDbEntity
  8
SUNPOU
 62
     0
370
    -2
100
AcDbLine
 10
2000.959897859057
 20
1237.900428580176
 30
0.0
 11
1881.810726779232
 21
1237.900428580176
 31
0.0
  0
LINE
  5
1C8CDE6B2480
330
1C8CDE6B14C9
100
AcDbEntity
  8
SUNPOU
 62
     0
370
    -2
100
AcDbLine
 10
2004.959897859056
 20
1037.900428580176
 30
0.0
 11
1881.810726779232
 21
1037.900428580176
 31
0.0
  0
LINE
  5
1C8CDE6B2481
330
1C8CDE6B14C9
100
AcDbEntity
  8
SUNPOU
 62
     0
370
    -2
100
AcDbLine
 10
1891.810726779232
 20
1217.900428580176
 30
0.0
 11
1891.810726779232
 21
1057.900428580176
 31
0.0
  0
SOLID
  5
1C8CDE6B2482
330
1C8CDE6B14C9
100
AcDbEntity
  8
SUNPOU
 62
     0
100
AcDbTrace
 10
1888.477393445899
 20
1217.900428580176
 30
0.0
 11
1895.144060112565
 21
1217.900428580176
 31
0.0
 12
1891.810726779232
 22
1237.900428580176
 32
0.0
 13
1891.810726779232
 23
1237.900428580176
 33
0.0
  0
SOLID
  5
1C8CDE6B2483
330
1C8CDE6B14C9
100
AcDbEntity
  8
SUNPOU
 62
     0
100
AcDbTrace
 10
1888.477393445899
 20
1057.900428580176
 30
0.0
 11
1895.144060112565
 21
1057.900428580176
 31
0.0
 12
1891.810726779232
 22
1037.900428580176
 32
0.0
 13
1891.810726779232
 23
1037.900428580176
 33
0.0
  0
MTEXT
  5
1C8CDE6B2484
330
1C8CDE6B14C9
100
AcDbEntity
  8
SUNPOU
 62
     0
100
AcDbMText
 10
1864.810726779231
 20
1137.900428580176
 30
0.0
 40
30.0
 41
0.0
 71
     5
 72
     1
  1
\A1;100
  7
EXT08
 11
0.0000000000000001
 21
1.0
 31
0.0
 73
     1
 44
1.0
1001
ACAD
1000
MTEXTBEGIN
1070
    73
1070
     1
1070
    44
1040
1.0
1070
    74
1070
     0
1000
MTEXTEND
  0
POINT
  5
1C8CDE6B2485
330
1C8CDE6B14C9
100
AcDbEntity
  8
DEFPOINTS
 62
     0
100
AcDbPoint
 10
2010.959897859057
 20
1237.900428580176
 30
0.0
  0
POINT
  5
1C8CDE6B2486
330
1C8CDE6B14C9
100
AcDbEntity
  8
DEFPOINTS
 62
     0
100
AcDbPoint
 10
2014.959897859056
 20
1037.900428580176
 30
0.0
  0
POINT
  5
1C8CDE6B2487
330
1C8CDE6B14C9
100
AcDbEntity
  8
DEFPOINTS
 62
     0
100
AcDbPoint
 10
1891.810726779232
 20
1037.900428580176
 30
0.0
  0
ENDBLK
  5
1C8CDE6B14D4
330
1C8CDE6B14C9
100
AcDbEntity
  8
0
100
AcDbBlockEnd
  0
BLOCK
  5
1C8CDE6B1E44
330
1C8CDE6B1E3A
100
AcDbEntity
  8
0
100
AcDbBlockBegin
  2
*D11
 70
     1
 10
0.0
 20
0.0
 30
0.0
  3
*D11
  1

  0
LINE
  5
1C8CDE6B2350
330
1C8CDE6B1E3A
100
AcDbEntity
  8
SUNPOU
 62
     0
370
    -2
100
AcDbLine
 10
3240.658095795822
 20
1481.003637176596
 30
0.0
 11
3339.644921437945
 21
1481.003637176596
 31
0.0
  0
LINE
  5
1C8CDE6B2351
330
1C8CDE6B1E3A
100
AcDbEntity
  8
SUNPOU
 62
     0
370
    -2
100
AcDbLine
 10
3230.658095795821
 20
1381.003637176595
 30
0.0
 11
3339.644921437945
 21
1381.003637176595
 31
0.0
  0
LINE
  5
1C8CDE6B2352
330
1C8CDE6B1E3A
100
AcDbEntity
  8
SUNPOU
 62
     0
370
    -2
100
AcDbLine
 10
3329.644921437946
 20
1461.003637176596
 30
0.0
 11
3329.644921437946
 21
1401.003637176594
 31
0.0
  0
SOLID
  5
1C8CDE6B2353
330
1C8CDE6B1E3A
100
AcDbEntity
  8
SUNPOU
 62
     0
100
AcDbTrace
 10
3326.311588104612
 20
1461.003637176596
 30
0.0
 11
3332.978254771279
 21
1461.003637176596
 31
0.0
 12
3329.644921437946
 22
1481.003637176596
 32
0.0
 13
3329.644921437946
 23
1481.003637176596
 33
0.0
  0
SOLID
  5
1C8CDE6B2354
330
1C8CDE6B1E3A
100
AcDbEntity
  8
SUNPOU
 62
     0
100
AcDbTrace
 10
3326.311588104612
 20
1401.003637176594
 30
0.0
 11
3332.978254771279
 21
1401.003637176594
 31
0.0
 12
3329.644921437946
 22
1381.003637176595
 32
0.0
 13
3329.644921437946
 23
1381.003637176595
 33
0.0
  0
MTEXT
  5
1C8CDE6B2355
330
1C8CDE6B1E3A
100
AcDbEntity
  8
SUNPOU
 62
     0
100
AcDbMText
 10
3302.644921437945
 20
1431.003637176596
 30
0.0
 40
30.0
 41
0.0
 71
     5
 72
     1
  1
\A1;50
  7
EXT08
 11
0.0000000000000001
 21
1.0
 31
0.0
 73
     1
 44
1.0
1001
ACAD
1000
MTEXTBEGIN
1070
    73
1070
     1
1070
    44
1040
1.0
1070
    74
1070
     0
1000
MTEXTEND
  0
POINT
  5
1C8CDE6B2356
330
1C8CDE6B1E3A
100
AcDbEntity
  8
DEFPOINTS
 62
     0
100
AcDbPoint
 10
3230.658095795823
 20
1481.003637176596
 30
0.0
  0
POINT
  5
1C8CDE6B2357
330
1C8CDE6B1E3A
100
AcDbEntity
  8
DEFPOINTS
 62
     0
100
AcDbPoint
 10
3220.65809579582
 20
1381.003637176595
 30
0.0
  0
POINT
  5
1C8CDE6B2358
330
1C8CDE6B1E3A
100
AcDbEntity
  8
DEFPOINTS
 62
     0
100
AcDbPoint
 10
3329.644921437946
 20
1381.003637176595
 30
0.0
  0
ENDBLK
  5
1C8CDE6B1E45
330
1C8CDE6B1E3A
100
AcDbEntity
  8
0
100
AcDbBlockEnd
  0
BLOCK
  5
1C8CDE6B1E50
330
1C8CDE6B1E46
100
AcDbEntity
  8
0
100
AcDbBlockBegin
  2
*D12
 70
     1
 10
0.0
 20
0.0
 30
0.0
  3
*D12
  1

  0
LINE
  5
1C8CDE6B2347
330
1C8CDE6B1E46
100
AcDbEntity
  8
SUNPOU
 62
     0
370
    -2
100
AcDbLine
 10
3240.658095795822
 20
1481.003637176594
 30
0.0
 11
3415.077170621127
 21
1481.003637176594
 31
0.0
  0
LINE
  5
1C8CDE6B2348
330
1C8CDE6B1E46
100
AcDbEntity
  8
SUNPOU
 62
     0
370
    -2
100
AcDbLine
 10
3240.658095795821
 20
1377.003637176598
 30
0.0
 11
3415.077170621127
 21
1377.003637176598
 31
0.0
  0
LINE
  5
1C8CDE6B2349
330
1C8CDE6B1E46
100
AcDbEntity
  8
SUNPOU
 62
     0
370
    -2
100
AcDbLine
 10
3405.077170621126
 20
1461.003637176594
 30
0.0
 11
3405.077170621126
 21
1397.003637176598
 31
0.0
  0
SOLID
  5
1C8CDE6B234A
330
1C8CDE6B1E46
100
AcDbEntity
  8
SUNPOU
 62
     0
100
AcDbTrace
 10
3401.743837287793
 20
1461.003637176594
 30
0.0
 11
3408.41050395446
 21
1461.003637176594
 31
0.0
 12
3405.077170621126
 22
1481.003637176594
 32
0.0
 13
3405.077170621126
 23
1481.003637176594
 33
0.0
  0
SOLID
  5
1C8CDE6B234B
330
1C8CDE6B1E46
100
AcDbEntity
  8
SUNPOU
 62
     0
100
AcDbTrace
 10
3401.743837287793
 20
1397.003637176598
 30
0.0
 11
3408.41050395446
 21
1397.003637176598
 31
0.0
 12
3405.077170621126
 22
1377.003637176598
 32
0.0
 13
3405.077170621126
 23
1377.003637176598
 33
0.0
  0
MTEXT
  5
1C8CDE6B234C
330
1C8CDE6B1E46
100
AcDbEntity
  8
SUNPOU
 62
     0
100
AcDbMText
 10
3370.220027763983
 20
1429.003637176597
 30
0.0
 40
30.0
 41
0.0
 71
     5
 72
     1
  1
\A1;(52)
  7
EXT08
 11
0.0000000000000001
 21
1.0
 31
0.0
 73
     1
 44
1.0
1001
ACAD
1000
MTEXTBEGIN
1070
    73
1070
     1
1070
    44
1040
1.0
1070
    74
1070
     0
1000
MTEXTEND
  0
POINT
  5
1C8CDE6B234D
330
1C8CDE6B1E46
100
AcDbEntity
  8
DEFPOINTS
 62
     0
100
AcDbPoint
 10
3230.658095795823
 20
1481.003637176594
 30
0.0
  0
POINT
  5
1C8CDE6B234E
330
1C8CDE6B1E46
100
AcDbEntity
  8
DEFPOINTS
 62
     0
100
AcDbPoint
 10
3230.658095795821
 20
1377.003637176598
 30
0.0
  0
POINT
  5
1C8CDE6B234F
330
1C8CDE6B1E46
100
AcDbEntity
  8
DEFPOINTS
 62
     0
100
AcDbPoint
 10
3405.077170621126
 20
1377.003637176598
 30
0.0
  0
ENDBLK
  5
1C8CDE6B1E51
330
1C8CDE6B1E46
100
AcDbEntity
  8
0
100
AcDbBlockEnd
  0
BLOCK
  5
1C8CDE6B1E59
330
1C8CDE6B1E52
100
AcDbEntity
  8
0
100
AcDbBlockBegin
  2
*D13
 70
     1
 10
0.0
 20
0.0
 30
0.0
  3
*D13
  1

  0
LINE
  5
1C8CDE6B2341
330
1C8CDE6B1E52
100
AcDbEntity
  8
SUNPOU
 62
     0
370
    -2
100
AcDbLine
 10
3317.502199243013
 20
1671.299002394784
 30
0.0
 11
3215.126988678731
 21
1575.80389120097
 31
0.0
  0
MTEXT
  5
1C8CDE6B2342
330
1C8CDE6B1E52
100
AcDbEntity
  8
SUNPOU
 62
     0
100
AcDbMText
 10
3255.210194699514
 20
1650.11631677769
 30
0.0
 40
30.0
 41
0.0
 71
     5
 72
     1
  1
\A1;R37.5
  7
EXT08
 11
0.7312515040305882
 21
0.6821079370986697
 31
0.0
 73
     1
 44
1.0
1001
ACAD
1000
MTEXTBEGIN
1070
    73
1070
     1
1070
    44
1040
1.0
1070
    74
1070
     0
1000
MTEXTEND
  0
LINE
  5
1C8CDE6B2343
330
1C8CDE6B1E52
100
AcDbEntity
  8
SUNPOU
 62
     0
370
    -2
100
AcDbLine
 10
3145.658095795825
 20
1511.003637176596
 30
0.0
 11
3200.50195859812
 21
1562.161732458997
 31
0.0
  0
SOLID
  5
1C8CDE6B2344
330
1C8CDE6B1E52
100
AcDbEntity
  8
SUNPOU
 62
     0
100
AcDbTrace
 10
3212.853295555069
 20
1578.241396214405
 30
0.0
 11
3217.400681802394
 21
1573.366386187535
 31
0.0
 12
3200.50195859812
 22
1562.161732458997
 32
0.0
 13
3200.50195859812
 23
1562.161732458997
 33
0.0
  0
POINT
  5
1C8CDE6B2345
330
1C8CDE6B1E52
100
AcDbEntity
  8
DEFPOINTS
 62
     0
100
AcDbPoint
 10
3200.50195859812
 20
1562.161732458997
 30
0.0
  0
POINT
  5
1C8CDE6B2346
330
1C8CDE6B1E52
100
AcDbEntity
  8
DEFPOINTS
 62
     0
100
AcDbPoint
 10
3145.658095795825
 20
1511.003637176596
 30
0.0
  0
ENDBLK
  5
1C8CDE6B1E5A
330
1C8CDE6B1E52
100
AcDbEntity
  8
0
100
AcDbBlockEnd
  0
BLOCK
  5
1C8CDE6B26B1
330
1C8CDE6B26AE
100
AcDbEntity
  8
0
100
AcDbBlockBegin
  2
_Dot
 70
     0
 10
0.0
 20
0.0
 30
0.0
  3
_Dot
  1

  0
LWPOLYLINE
  5
1C8CDE6B26AF
330
1C8CDE6B26AE
100
AcDbEntity
  8
0
  6
ByBlock
 62
     0
100
AcDbPolyline
 90
        2
 70
     1
 43
0.5
 10
-0.25
 20
0.0
 42
1.0
 10
0.25
 20
0.0
 42
1.0
  0
LINE
  5
1C8CDE6B26B0
330
1C8CDE6B26AE
100
AcDbEntity
  8
0
  6
ByBlock
 62
     0
370
    -2
100
AcDbLine
 10
-0.5
 20
0.0
 30
0.0
 11
-1.0
 21
0.0
 31
0.0
  0
ENDBLK
  5
1C8CDE6B26B2
330
1C8CDE6B26AE
100
AcDbEntity
  8
0
100
AcDbBlockEnd
  0
BLOCK
  5
1C8CDE6B26B5
330
1C8CDE6B26B4
100
AcDbEntity
  8
0
100
AcDbBlockBegin
  2
_None
 70
     0
 10
0.0
 20
0.0
 30
0.0
  3
_None
  1

  0
ENDBLK
  5
1C8CDE6B26B6
330
1C8CDE6B26B4
100
AcDbEntity
  8
0
100
AcDbBlockEnd
  0
ENDSEC
  0
SECTION
  2
ENTITIES
  0
LINE
  5
23A89
330
1C8CDE699D53
100
AcDbEntity
  8
SJC
100
AcDbLine
 10
858.2411396719217
 20
1034.878897132929
 30
0.0
 11
858.2411396719217
 21
634.8788971329295
 31
0.0
1001
ACAD
1000
ASC_BOUNDS
1002
{
1070
    19
1002
}
  0
LINE
  5
23A8A
330
1C8CDE699D53
100
AcDbEntity
  8
SJC
100
AcDbLine
 10
1158.241139671922
 20
1034.878897132929
 30
0.0
 11
1158.241139671922
 21
634.8788971329295
 31
0.0
1001
ACAD
1000
ASC_BOUNDS
1002
{
1070
    19
1002
}
  0
LINE
  5
23A8E
330
1C8CDE699D53
100
AcDbEntity
  8
SJC
100
AcDbLine
 10
808.2411396719217
 20
584.8788971329295
 30
0.0
 11
1208.241139671922
 21
584.8788971329295
 31
0.0
  0
LINE
  5
23A94
330
1C8CDE699D53
100
AcDbEntity
  8
SJC
100
AcDbLine
 10
808.2411396719217
 20
634.8788971329295
 30
0.0
 11
808.2411396719217
 21
584.8788971329295
 31
0.0
  0
LINE
  5
23A96
330
1C8CDE699D53
100
AcDbEntity
  8
SJC
100
AcDbLine
 10
1208.241139671922
 20
634.8788971329295
 30
0.0
 11
1208.241139671922
 21
584.8788971329295
 31
0.0
  0
LINE
  5
23A9D
330
1C8CDE699D53
100
AcDbEntity
  8
SJC
100
AcDbLine
 10
733.4739555623855
 20
1034.878897132929
 30
0.0
 11
1209.041139671924
 21
1034.878897132929
 31
0.0
1001
ACAD
1000
ASC_BOUNDS
1002
{
1070
    19
1002
}
  0
TEXT
  5
1C8CDE699738
330
1C8CDE699D53
100
AcDbEntity
  8
MOJI
100
AcDbText
 10
737.8922792023749
 20
1042.749603770189
 30
0.0
 40
30.0
  1
GL
 41
0.8
  7
EXT08
100
AcDbText
  0
DIMENSION
  5
1C8CDE699761
330
1C8CDE699D53
100
AcDbEntity
  8
SUNPOU
100
AcDbDimension
  2
*D2
 10
1208.241139671922
 20
352.8314343411432
 30
0.0
 11
1008.241139671921
 21
379.8314343411432
 31
0.0
 70
    32
  1
□400
 71
     5
 42
400.0000000000002
  3
SJC
100
AcDbAlignedDimension
 13
808.2411396719217
 23
584.8788971329295
 33
0.0
 14
1208.241139671922
 24
584.8788971329295
 34
0.0
100
AcDbRotatedDimension
1001
ACAD
1000
DSTYLE
1002
{
1070
    40
1040
10.0
1070
    41
1040
2.0
1070
    42
1040
1.0
1070
    43
1040
6.0
1070
    44
1040
1.0
1070
   140
1040
3.0
1070
   147
1040
1.199999999999999
1070
   271
1070
     2
1070
   275
1070
     0
1070
   340
1005
1C8CDE699DA6
1002
}
  0
DIMENSION
  5
1C8CDE69976D
330
1C8CDE699D53
100
AcDbEntity
  8
SUNPOU
100
AcDbDimension
  2
*D3
 10
1158.241139671922
 20
425.8895276785398
 30
0.0
 11
1008.241139671921
 21
452.8895276785398
 31
0.0
 70
    32
  1
□300
 71
     5
 42
300.0000000000002
  3
SJC
100
AcDbAlignedDimension
 13
858.2411396719217
 23
585.5812308400145
 33
0.0
 14
1158.241139671922
 24
585.5812308400145
 34
0.0
100
AcDbRotatedDimension
1001
ACAD
1000
DSTYLE
1002
{
1070
    40
1040
10.0
1070
    41
1040
2.0
1070
    42
1040
1.0
1070
    43
1040
6.0
1070
    44
1040
1.0
1070
   140
1040
3.0
1070
   147
1040
1.199999999999999
1070
   271
1070
     2
1070
   275
1070
     0
1070
   340
1005
1C8CDE699DA6
1002
}
  0
LWPOLYLINE
  5
1C8CDE6999F1
330
1C8CDE699D53
100
AcDbEntity
  8
HATCH
100
AcDbPolyline
 90
       13
 70
     0
 43
0.0
 10
1125.038615902258
 20
596.5667363100732
 42
0.0832096637728681
 10
1124.992847121576
 20
592.0034165813267
 42
0.1066863778283824
 10
1126.565710314856
 20
587.9310260546121
 42
0.2695695848649533
 10
1132.679401291155
 20
584.8788971329295
 42
0.1066863778284206
 10
1136.87956507846
 20
586.0692279216896
 42
0.0832096637728274
 10
1140.499330906598
 20
588.8483063800102
 42
0.1444747927664146
 10
1145.162982035087
 20
598.1900224583546
 42
0.0832096637728554
 10
1145.20875081577
 20
602.7533421871007
 42
0.1066863778284863
 10
1143.635887622488
 20
606.8257327138171
 42
0.2695694919691581
 10
1137.522196646189
 20
609.8778616354978
 42
0.1066863778284245
 10
1133.322032858885
 20
608.6875308467384
 42
0.0832096637728408
 10
1129.702267030746
 20
605.9084523884171
 42
0.1444747043562067
 10
1125.038617357311
 20
596.5667444887361
  0
LWPOLYLINE
  5
1C8CDE699A03
330
1C8CDE699D53
100
AcDbEntity
  8
HATCH
100
AcDbPolyline
 90
       13
 70
     0
 43
0.0
 10
850.4823613302644
 20
596.5667363100732
 42
0.0832096637728681
 10
850.4365925495831
 20
592.0034165813267
 42
0.1066863778283824
 10
852.0094557428629
 20
587.9310260546121
 42
0.2695695848649759
 10
858.1231467191617
 20
584.8788971329295
 42
0.1066863778284206
 10
862.3233105064674
 20
586.0692279216896
 42
0.0832096637728274
 10
865.9430763346053
 20
588.8483063800102
 42
0.1444747927663711
 10
870.6067274630942
 20
598.1900224583546
 42
0.0832096637728554
 10
870.6524962437761
 20
602.7533421871007
 42
0.1066863778284863
 10
869.0796330504944
 20
606.8257327138171
 42
0.2695694919691669
 10
862.9659420741962
 20
609.8778616354978
 42
0.1066863778284245
 10
858.7657782868909
 20
608.6875308467384
 42
0.0832096637728408
 10
855.146012458753
 20
605.9084523884171
 42
0.1444747043562044
 10
850.4823627853188
 20
596.5667444887364
  0
LWPOLYLINE
  5
1C8CDE699A15
330
1C8CDE699D53
100
AcDbEntity
  8
HATCH
100
AcDbPolyline
 90
       13
 70
     0
 43
0.0
 10
850.4823613302644
 20
621.2070291360324
 42
0.0832096637728681
 10
850.4365925495831
 20
616.6437094072858
 42
0.1066863778283824
 10
852.0094557428629
 20
612.571318880571
 42
0.2695695848649672
 10
858.1231467191617
 20
609.5191899588884
 42
0.1066863778284206
 10
862.3233105064674
 20
610.7095207476486
 42
0.0832096637728274
 10
865.9430763346053
 20
613.4885992059694
 42
0.1444747927663754
 10
870.6067274630942
 20
622.8303152843136
 42
0.0832096637728554
 10
870.6524962437761
 20
627.3936350130598
 42
0.1066863778284863
 10
869.0796330504944
 20
631.4660255397761
 42
0.269569491969162
 10
862.9659420741962
 20
634.518154461457
 42
0.1066863778284245
 10
858.7657782868909
 20
633.3278236726973
 42
0.0832096637728408
 10
855.146012458753
 20
630.5487452143761
 42
0.1444747043562012
 10
850.4823627853188
 20
621.2070373146955
  0
LWPOLYLINE
  5
1C8CDE699A27
330
1C8CDE699D53
100
AcDbEntity
  8
HATCH
100
AcDbPolyline
 90
       13
 70
     0
 43
0.0
 10
830.4943299378303
 20
621.2070291360324
 42
0.0832096637728681
 10
830.4485611571481
 20
616.6437094072858
 42
0.1066863778283824
 10
832.0214243504276
 20
612.571318880571
 42
0.2695695848649084
 10
838.1351153267267
 20
609.5191899588884
 42
0.1066863778284206
 10
842.3352791140324
 20
610.7095207476486
 42
0.0832096637728274
 10
845.9550449421703
 20
613.4885992059694
 42
0.1444747927664164
 10
850.6186960706592
 20
622.8303152843136
 42
0.0832096637728554
 10
850.664464851342
 20
627.3936350130598
 42
0.1066863778284863
 10
849.0916016580603
 20
631.4660255397761
 42
0.2695694919691194
 10
842.9779106817612
 20
634.518154461457
 42
0.1066863778284245
 10
838.7777468944568
 20
633.3278236726973
 42
0.0832096637728408
 10
835.1579810663178
 20
630.5487452143761
 42
0.1444747043561863
 10
830.4943313928843
 20
621.2070373146966
  0
LWPOLYLINE
  5
1C8CDE699A39
330
1C8CDE699D53
100
AcDbEntity
  8
HATCH
100
AcDbPolyline
 90
       13
 70
     0
 43
0.0
 10
830.4943299378303
 20
596.5667363100732
 42
0.0832096637728681
 10
830.4485611571481
 20
592.0034165813267
 42
0.1066863778283824
 10
832.0214243504276
 20
587.9310260546121
 42
0.269569584864917
 10
838.1351153267267
 20
584.8788971329295
 42
0.1066863778284206
 10
842.3352791140324
 20
586.0692279216896
 42
0.0832096637728274
 10
845.9550449421703
 20
588.8483063800102
 42
0.1444747927664121
 10
850.6186960706592
 20
598.1900224583546
 42
0.0832096637728554
 10
850.664464851342
 20
602.7533421871007
 42
0.1066863778284863
 10
849.0916016580603
 20
606.8257327138171
 42
0.2695694919691243
 10
842.9779106817612
 20
609.8778616354978
 42
0.1066863778284245
 10
838.7777468944568
 20
608.6875308467384
 42
0.0832096637728408
 10
835.1579810663178
 20
605.9084523884171
 42
0.1444747043561896
 10
830.4943313928843
 20
596.5667444887375
  0
LWPOLYLINE
  5
1C8CDE699A4B
330
1C8CDE699D53
100
AcDbEntity
  8
HATCH
100
AcDbPolyline
 90
       13
 70
     0
 43
0.0
 10
810.506298545396
 20
621.2070291360324
 42
0.0832096637728681
 10
810.4605297647131
 20
616.6437094072858
 42
0.1066863778283824
 10
812.0333929579928
 20
612.571318880571
 42
0.2695695848648695
 10
818.1470839342926
 20
609.5191899588884
 42
0.1066863778284206
 10
822.3472477215983
 20
610.7095207476486
 42
0.0832096637728274
 10
825.9670135497353
 20
613.4885992059694
 42
0.1444747927664529
 10
830.6306646782248
 20
622.8303152843136
 42
0.0832096637728554
 10
830.676433458907
 20
627.3936350130598
 42
0.1066863778284863
 10
829.1035702656254
 20
631.4660255397761
 42
0.2695694919691194
 10
822.9898792893262
 20
634.518154461457
 42
0.1066863778284245
 10
818.7897155020227
 20
633.3278236726973
 42
0.0832096637728408
 10
815.1699496738839
 20
630.5487452143761
 42
0.144474704356192
 10
810.50630000045
 20
621.2070373146961
  0
LWPOLYLINE
  5
1C8CDE699A5D
330
1C8CDE699D53
100
AcDbEntity
  8
HATCH
100
AcDbPolyline
 90
       13
 70
     0
 43
0.0
 10
810.506298545396
 20
596.5667363100732
 42
0.0832096637728681
 10
810.4605297647131
 20
592.0034165813267
 42
0.1066863778283824
 10
812.0333929579928
 20
587.9310260546121
 42
0.2695695848648783
 10
818.1470839342926
 20
584.8788971329295
 42
0.1066863778284206
 10
822.3472477215983
 20
586.0692279216896
 42
0.0832096637728274
 10
825.9670135497353
 20
588.8483063800102
 42
0.1444747927664486
 10
830.6306646782248
 20
598.1900224583546
 42
0.0832096637728554
 10
830.676433458907
 20
602.7533421871007
 42
0.1066863778284863
 10
829.1035702656254
 20
606.8257327138171
 42
0.2695694919691243
 10
822.9898792893262
 20
609.8778616354978
 42
0.1066863778284245
 10
818.7897155020227
 20
608.6875308467384
 42
0.0832096637728408
 10
815.1699496738839
 20
605.9084523884171
 42
0.1444747043561953
 10
810.50630000045
 20
596.5667444887372
  0
LWPOLYLINE
  5
1C8CDE699A6F
330
1C8CDE699D53
100
AcDbEntity
  8
HATCH
100
AcDbPolyline
 90
       13
 70
     0
 43
0.0
 10
870.4703927226994
 20
621.2070291360324
 42
0.0832096637728681
 10
870.4246239420172
 20
616.6437094072858
 42
0.1066863778283824
 10
871.997487135297
 20
612.571318880571
 42
0.2695695848649284
 10
878.1111781115967
 20
609.5191899588884
 42
0.1066863778284206
 10
882.3113418989024
 20
610.7095207476486
 42
0.0832096637728274
 10
885.9311077270394
 20
613.4885992059694
 42
0.1444747927664107
 10
890.5947588555292
 20
622.8303152843136
 42
0.0832096637728554
 10
890.6405276362102
 20
627.3936350130598
 42
0.1066863778284863
 10
889.0676644429285
 20
631.4660255397761
 42
0.2695694919691671
 10
882.9539734666306
 20
634.518154461457
 42
0.1066863778284245
 10
878.7538096793259
 20
633.3278236726973
 42
0.0832096637728408
 10
875.134043851188
 20
630.5487452143761
 42
0.1444747043562012
 10
870.4703941777538
 20
621.2070373146955
  0
LWPOLYLINE
  5
1C8CDE699A81
330
1C8CDE699D53
100
AcDbEntity
  8
HATCH
100
AcDbPolyline
 90
       13
 70
     0
 43
0.0
 10
1165.014678687127
 20
621.2070291360324
 42
0.0832096637728681
 10
1164.968909906445
 20
616.6437094072858
 42
0.1066863778283824
 10
1166.541773099725
 20
612.571318880571
 42
0.2695695848649548
 10
1172.655464076025
 20
609.5191899588884
 42
0.1066863778284206
 10
1176.85562786333
 20
610.7095207476486
 42
0.0832096637728274
 10
1180.475393691468
 20
613.4885992059694
 42
0.1444747927663835
 10
1185.139044819957
 20
622.8303152843136
 42
0.0832096637728554
 10
1185.184813600638
 20
627.3936350130598
 42
0.1066863778284863
 10
1183.611950407357
 20
631.4660255397761
 42
0.2695694919691532
 10
1177.498259431058
 20
634.518154461457
 42
0.1066863778284245
 10
1173.298095643754
 20
633.3278236726973
 42
0.0832096637728408
 10
1169.678329815616
 20
630.5487452143761
 42
0.1444747043562024
 10
1165.014680142181
 20
621.2070373146952
  0
LWPOLYLINE
  5
1C8CDE699A93
330
1C8CDE699D53
100
AcDbEntity
  8
HATCH
100
AcDbPolyline
 90
       13
 70
     0
 43
0.0
 10
1165.014678687127
 20
596.5667363100732
 42
0.0832096637728681
 10
1164.968909906445
 20
592.0034165813267
 42
0.1066863778283824
 10
1166.541773099725
 20
587.9310260546121
 42
0.2695695848649633
 10
1172.655464076025
 20
584.8788971329295
 42
0.1066863778284206
 10
1176.85562786333
 20
586.0692279216896
 42
0.0832096637728274
 10
1180.475393691468
 20
588.8483063800102
 42
0.1444747927663792
 10
1185.139044819957
 20
598.1900224583546
 42
0.0832096637728554
 10
1185.184813600638
 20
602.7533421871007
 42
0.1066863778284863
 10
1183.611950407357
 20
606.8257327138171
 42
0.2695694919691581
 10
1177.498259431058
 20
609.8778616354978
 42
0.1066863778284245
 10
1173.298095643754
 20
608.6875308467384
 42
0.0832096637728408
 10
1169.678329815616
 20
605.9084523884171
 42
0.1444747043562067
 10
1165.014680142181
 20
596.5667444887361
  0
LWPOLYLINE
  5
1C8CDE699AA5
330
1C8CDE699D53
100
AcDbEntity
  8
HATCH
100
AcDbPolyline
 90
       13
 70
     0
 43
0.0
 10
1145.026647294692
 20
621.2070291360324
 42
0.0832096637728681
 10
1144.980878514011
 20
616.6437094072858
 42
0.1066863778283824
 10
1146.553741707291
 20
612.571318880571
 42
0.2695695848650012
 10
1152.66743268359
 20
609.5191899588884
 42
0.1066863778284206
 10
1156.867596470895
 20
610.7095207476486
 42
0.0832096637728274
 10
1160.487362299033
 20
613.4885992059694
 42
0.1444747927663835
 10
1165.151013427522
 20
622.8303152843136
 42
0.0832096637728554
 10
1165.196782208204
 20
627.3936350130598
 42
0.1066863778284863
 10
1163.623919014922
 20
631.4660255397761
 42
0.2695694919691996
 10
1157.510228038624
 20
634.518154461457
 42
0.1066863778284245
 10
1153.310064251319
 20
633.3278236726973
 42
0.0832096637728408
 10
1149.690298423181
 20
630.5487452143761
 42
0.1444747043562024
 10
1145.026648749746
 20
621.2070373146952
  0
LWPOLYLINE
  5
1C8CDE699AB7
330
1C8CDE699D53
100
AcDbEntity
  8
HATCH
100
AcDbPolyline
 90
       13
 70
     0
 43
0.0
 10
1145.026647294692
 20
596.5667363100732
 42
0.0832096637728681
 10
1144.980878514011
 20
592.0034165813267
 42
0.1066863778283824
 10
1146.553741707291
 20
587.9310260546121
 42
0.2695695848650097
 10
1152.66743268359
 20
584.8788971329295
 42
0.1066863778284206
 10
1156.867596470895
 20
586.0692279216896
 42
0.0832096637728274
 10
1160.487362299033
 20
588.8483063800102
 42
0.1444747927663792
 10
1165.151013427522
 20
598.1900224583546
 42
0.0832096637728554
 10
1165.196782208204
 20
602.7533421871007
 42
0.1066863778284863
 10
1163.623919014922
 20
606.8257327138171
 42
0.2695694919692046
 10
1157.510228038624
 20
609.8778616354978
 42
0.1066863778284245
 10
1153.310064251319
 20
608.6875308467384
 42
0.0832096637728408
 10
1149.690298423181
 20
605.9084523884171
 42
0.1444747043562067
 10
1145.026648749746
 20
596.5667444887361
  0
LWPOLYLINE
  5
1C8CDE699AC9
330
1C8CDE699D53
100
AcDbEntity
  8
HATCH
100
AcDbPolyline
 90
       13
 70
     0
 43
0.0
 10
1185.002710079562
 20
621.2070291360324
 42
0.0832096637728681
 10
1184.956941298879
 20
616.6437094072858
 42
0.1066863778283824
 10
1186.529804492159
 20
612.571318880571
 42
0.2695695848648983
 10
1192.643495468459
 20
609.5191899588884
 42
0.1066863778284206
 10
1196.843659255764
 20
610.7095207476486
 42
0.0832096637728274
 10
1200.463425083902
 20
613.4885992059694
 42
0.1444747927664291
 10
1205.127076212391
 20
622.8303152843136
 42
0.0832096637728554
 10
1205.172844993073
 20
627.3936350130598
 42
0.1066863778284863
 10
1203.599981799792
 20
631.4660255397761
 42
0.2695694919690919
 10
1197.486290823492
 20
634.518154461457
 42
0.1066863778284245
 10
1193.286127036189
 20
633.3278236726973
 42
0.0832096637728408
 10
1189.66636120805
 20
630.5487452143761
 42
0.1444747043562046
 10
1185.002711534615
 20
621.2070373146952
  0
LWPOLYLINE
  5
1C8CDE699ADB
330
1C8CDE699D53
100
AcDbEntity
  8
HATCH
100
AcDbPolyline
 90
       13
 70
     0
 43
0.0
 10
1185.002710079562
 20
596.5667363100732
 42
0.0832096637728681
 10
1184.956941298879
 20
592.0034165813267
 42
0.1066863778283824
 10
1186.529804492159
 20
587.9310260546121
 42
0.2695695848649071
 10
1192.643495468459
 20
584.8788971329295
 42
0.1066863778284206
 10
1196.843659255764
 20
586.0692279216896
 42
0.0832096637728274
 10
1200.463425083902
 20
588.8483063800102
 42
0.1444747927664248
 10
1205.127076212391
 20
598.1900224583546
 42
0.0832096637728554
 10
1205.172844993073
 20
602.7533421871007
 42
0.1066863778284863
 10
1203.599981799792
 20
606.8257327138171
 42
0.2695694919690968
 10
1197.486290823492
 20
609.8778616354978
 42
0.1066863778284245
 10
1193.286127036189
 20
608.6875308467384
 42
0.0832096637728408
 10
1189.66636120805
 20
605.9084523884171
 42
0.1444747043562089
 10
1185.002711534615
 20
596.5667444887361
  0
DIMENSION
  5
1C8CDE699B8B
330
1C8CDE699D53
100
AcDbEntity
  8
SUNPOU
100
AcDbDimension
  2
*D1
 10
1399.771526302443
 20
1034.878897132929
 30
0.0
 11
1372.771526302442
 21
834.8788971329293
 31
0.0
 70
    32
 71
     5
 42
399.9999999999993
  3
SJC
100
AcDbAlignedDimension
 13
1208.241139671922
 23
634.8788971329295
 33
0.0
 14
1209.041139671924
 24
1034.878897132929
 34
0.0
 50
90.0
100
AcDbRotatedDimension
1001
ACAD
1000
DSTYLE
1002
{
1070
    40
1040
10.0
1070
    41
1040
2.0
1070
    42
1040
1.0
1070
    43
1040
6.0
1070
    44
1040
1.0
1070
   140
1040
3.0
1070
   147
1040
1.199999999999999
1070
   271
1070
     2
1070
   275
1070
     0
1070
   340
1005
1C8CDE699DA6
1002
}
  0
LINE
  5
1C8CDE699BC4
330
1C8CDE699D53
100
AcDbEntity
  8
SJC
100
AcDbLine
 10
933.2411396719214
 20
839.3788971329296
 30
0.0
 11
933.2411396719214
 21
830.3788971329291
 31
0.0
1001
ACAD
1000
ASC_BOUNDS
1002
{
1070
    19
1002
}
  0
LINE
  5
1C8CDE699BC5
330
1C8CDE699D53
100
AcDbEntity
  8
SJC
100
AcDbLine
 10
1083.241139671921
 20
839.3788971329295
 30
0.0
 11
1083.241139671921
 21
830.3788971329296
 31
0.0
1001
ACAD
1000
ASC_BOUNDS
1002
{
1070
    19
1002
}
  0
LINE
  5
1C8CDE699BC6
330
1C8CDE699D53
100
AcDbEntity
  8
HASEN
100
AcDbLine
 10
970.0911396719217
 20
839.3788971329295
 30
0.0
 11
1046.391139671922
 21
839.3788971329295
 31
0.0
  0
LINE
  5
1C8CDE699BC7
330
1C8CDE699D53
100
AcDbEntity
  8
HASEN
100
AcDbLine
 10
970.0911396719217
 20
830.3788971329296
 30
0.0
 11
1046.391139671922
 21
830.3788971329296
 31
0.0
  0
LINE
  5
1C8CDE699BC8
330
1C8CDE699D53
100
AcDbEntity
  8
SJC
100
AcDbLine
 10
970.0911396719218
 20
839.3788971329296
 30
0.0
 11
933.2411396719214
 21
839.3788971329296
 31
0.0
1001
ACAD
1000
ASC_BOUNDS
1002
{
1070
    19
1002
}
  0
LINE
  5
1C8CDE699BC9
330
1C8CDE699D53
100
AcDbEntity
  8
SJC
100
AcDbLine
 10
970.0911396719217
 20
830.3788971329295
 30
0.0
 11
933.2411396719217
 21
830.3788971329296
 31
0.0
1001
ACAD
1000
ASC_BOUNDS
1002
{
1070
    19
1002
}
  0
LINE
  5
1C8CDE699BCA
330
1C8CDE699D53
100
AcDbEntity
  8
SJC
100
AcDbLine
 10
1046.391139671922
 20
839.3788971329295
 30
0.0
 11
1083.241139671921
 21
839.3788971329295
 31
0.0
1001
ACAD
1000
ASC_BOUNDS
1002
{
1070
    19
1002
}
  0
LINE
  5
1C8CDE699BCB
330
1C8CDE699D53
100
AcDbEntity
  8
SJC
100
AcDbLine
 10
1046.391139671922
 20
830.3788971329296
 30
0.0
 11
1083.241139671921
 21
830.3788971329296
 31
0.0
1001
ACAD
1000
ASC_BOUNDS
1002
{
1070
    19
1002
}
  0
DIMENSION
  5
1C8CDE699EBE
330
1C8CDE699D53
100
AcDbEntity
  8
SUNPOU
100
AcDbDimension
  2
*D4
 10
1464.716492000697
 20
634.8788971329294
 30
0.0
 11
1436.320754442506
 21
548.2243865257796
 31
0.0
 70
   160
 71
     5
 42
50.0
  3
SJC
100
AcDbAlignedDimension
 13
1208.241139671922
 23
584.8788971329295
 33
0.0
 14
1208.241139671922
 24
634.8788971329295
 34
0.0
 50
90.0
100
AcDbRotatedDimension
1001
ACAD
1000
DSTYLE
1002
{
1070
    40
1040
10.0
1070
    41
1040
2.0
1070
    42
1040
1.0
1070
    43
1040
6.0
1070
    44
1040
1.0
1070
   140
1040
3.0
1070
   147
1040
1.199999999999999
1070
   271
1070
     2
1070
   275
1070
     0
1070
   340
1005
1C8CDE699DA6
1002
}
  0
LINE
  5
1C8CDE69A696
330
1C8CDE699D53
100
AcDbEntity
  8
SJC
100
AcDbLine
 10
808.2411396719217
 20
634.8788971329295
 30
0.0
 11
1208.241139671922
 21
634.8788971329295
 31
0.0
1001
ACAD
1000
ASC_BOUNDS
1002
{
1070
    19
1002
}
  0
LINE
  5
1C8CDE69AB34
330
1C8CDE699D53
100
AcDbEntity
  8
CENTER
100
AcDbLine
 10
904.7192332738475
 20
2194.411892609968
 30
0.0
 11
1113.278705999415
 21
2194.411892609968
 31
0.0
  0
LINE
  5
1C8CDE69AB3F
330
1C8CDE699D53
100
AcDbEntity
  8
CENTER
100
AcDbLine
 10
1008.998969636631
 20
2090.132156247184
 30
0.0
 11
1008.998969636631
 21
2298.691628972751
 31
0.0
  0
LINE
  5
1C8CDE69ABDE
330
1C8CDE699D53
100
AcDbEntity
  8
SJC
100
AcDbLine
 10
3670.326951741799
 20
2570.0
 30
0.0
 11
2828.381677693807
 21
2570.0
 31
0.0
  0
LINE
  5
1C8CDE69ABDF
330
1C8CDE699D53
100
AcDbEntity
  8
SJC
100
AcDbLine
 10
3670.326951741799
 20
2520.0
 30
0.0
 11
2828.381677693807
 21
2520.0
 31
0.0
  0
LINE
  5
1C8CDE69ABE0
330
1C8CDE699D53
100
AcDbEntity
  8
SJC
100
AcDbLine
 10
2843.381677693808
 20
2470.0
 30
0.0
 11
3655.326951741801
 21
2470.0
 31
0.0
  0
LINE
  5
1C8CDE69ABE1
330
1C8CDE699D53
100
AcDbEntity
  8
SJC
100
AcDbLine
 10
3655.326951741801
 20
2620.0
 30
0.0
 11
2843.381677693808
 21
2620.0
 31
0.0
  0
LINE
  5
1C8CDE69ABE2
330
1C8CDE699D53
100
AcDbEntity
  8
SJC
100
AcDbLine
 10
2828.381677693807
 20
2605.0
 30
0.0
 11
2828.381677693807
 21
2485.0
 31
0.0
  0
TEXT
  5
1C8CDE69ABE3
330
1C8CDE699D53
100
AcDbEntity
  8
MOJI
100
AcDbText
 10
2859.317471309887
 20
2530.063834164813
 30
0.0
 40
30.0
  1
品　番
 41
0.8
  7
EXT08
100
AcDbText
  0
ARC
  5
1C8CDE69ABE4
330
1C8CDE699D53
100
AcDbEntity
  8
SJC
100
AcDbCircle
 10
2843.381677693808
 20
2485.0
 30
0.0
 40
15.0
100
AcDbArc
 50
179.9999999999998
 51
270.0
  0
TEXT
  5
1C8CDE69ABE5
330
1C8CDE699D53
100
AcDbEntity
  8
MOJI
100
AcDbText
 10
2849.265245855713
 20
2480.063834164813
 30
0.0
 40
30.0
  1
図面番号
 41
0.8
  7
EXT08
100
AcDbText
  0
TEXT
  5
1C8CDE69ABE6
330
1C8CDE699D53
100
AcDbEntity
  8
MOJI
100
AcDbText
 10
2862.63992000832
 20
2580.063834164813
 30
0.0
 40
30.0
  1
タイプ
 41
0.8
  7
EXT08
100
AcDbText
  0
ARC
  5
1C8CDE69ABE7
330
1C8CDE699D53
100
AcDbEntity
  8
SJC
100
AcDbCircle
 10
2843.381677693808
 20
2605.0
 30
0.0
 40
15.0
100
AcDbArc
 50
90.0
 51
179.9999999999998
  0
LINE
  5
1C8CDE69ABE8
330
1C8CDE699D53
100
AcDbEntity
  8
SJC
100
AcDbLine
 10
2978.381677693807
 20
2620.0
 30
0.0
 11
2978.381677693807
 21
2470.0
 31
0.0
  0
TEXT
  5
1C8CDE69ABE9
330
1C8CDE699D53
100
AcDbEntity
  8
MOJI
100
AcDbText
 10
2996.454821337172
 20
2530.063834164813
 30
0.0
 40
30.0
  1
DK-10KグレイK
 41
0.8
  7
EXT08
100
AcDbText
  0
TEXT
  5
1C8CDE69ABEA
330
1C8CDE699D53
100
AcDbEntity
  8
MOJI
100
AcDbText
 10
2996.454821337172
 20
2480.063834164813
 30
0.0
 40
30.0
  1
KEKH00528※1
 41
0.8
  7
EXT08
100
AcDbText
  0
TEXT
  5
1C8CDE69ABEB
330
1C8CDE699D53
100
AcDbEntity
  8
MOJI
100
AcDbText
 10
2996.454821337172
 20
2580.063834164813
 30
0.0
 40
30.0
  1
弾性車止め
 41
0.8
  7
EXT08
100
AcDbText
  0
LINE
  5
1C8CDE69ABEC
330
1C8CDE699D53
100
AcDbEntity
  8
SJC
100
AcDbLine
 10
3670.326951741799
 20
2485.0
 30
0.0
 11
3670.326951741799
 21
2605.0
 31
0.0
  0
ARC
  5
1C8CDE69ABED
330
1C8CDE699D53
100
AcDbEntity
  8
SJC
100
AcDbCircle
 10
3655.326951741801
 20
2485.0
 30
0.0
 40
15.0
100
AcDbArc
 50
270.0
 51
0.0000000000000136
  0
ARC
  5
1C8CDE69ABEE
330
1C8CDE699D53
100
AcDbEntity
  8
SJC
100
AcDbCircle
 10
3655.326951741801
 20
2605.0
 30
0.0
 40
15.0
100
AcDbArc
 50
0.0
 51
90.0
  0
DIMENSION
  5
1C8CDE69B5FF
330
1C8CDE699D53
100
AcDbEntity
  8
SUNPOU
100
AcDbDimension
  2
*D5
 10
1399.771526302443
 20
1034.878897132929
 30
0.0
 11
1372.771526302442
 21
1461.128896693105
 31
0.0
 70
    32
  1
850
 71
     5
 42
852.4999991203513
  3
SJC
100
AcDbAlignedDimension
 13
1008.241139671921
 23
1887.37889625328
 33
0.0
 14
1158.241139671922
 24
1034.878897132929
 34
0.0
 50
90.0
100
AcDbRotatedDimension
1001
ACAD
1000
DSTYLE
1002
{
1070
    40
1040
10.0
1070
    41
1040
2.0
1070
    42
1040
1.0
1070
    43
1040
6.0
1070
    44
1040
1.0
1070
   140
1040
3.0
1070
   147
1040
1.199999999999999
1070
   271
1070
     2
1070
   275
1070
     0
1070
   340
1005
1C8CDE699DA6
1002
}
  0
DIMENSION
  5
1C8CDE69B617
330
1C8CDE699D53
100
AcDbEntity
  8
SUNPOU
100
AcDbDimension
  2
*D6
 10
1464.716492000697
 20
1887.37889625328
 30
0.0
 11
1437.716492000696
 21
1261.128896693105
 31
0.0
 70
    32
  1
1250
 71
     5
 42
1252.49999912035
  3
SJC
100
AcDbAlignedDimension
 13
1208.241139671922
 23
634.8788971329295
 33
0.0
 14
1008.241139671922
 24
1887.37889625328
 34
0.0
 50
90.0
100
AcDbRotatedDimension
1001
ACAD
1000
DSTYLE
1002
{
1070
    40
1040
10.0
1070
    41
1040
2.0
1070
    42
1040
1.0
1070
    43
1040
6.0
1070
    44
1040
1.0
1070
   140
1040
3.0
1070
   147
1040
1.199999999999999
1070
   271
1070
     2
1070
   275
1070
     0
1070
   340
1005
1C8CDE699DA6
1002
}
  0
TEXT
  5
1C8CDE6A8ACB
330
1C8CDE699D53
100
AcDbEntity
  8
MOJI
100
AcDbText
 10
586.0600358584767
 20
716.1340829664371
 30
0.0
 40
30.0
  1
ネカセ棒
 41
0.8
  7
EXT08
 72
     2
 11
694.8600358584767
 21
731.1340829664372
 31
0.0
100
AcDbText
 73
     2
  0
TEXT
  5
1C8CDE6A98C2
330
1C8CDE699D53
100
AcDbEntity
  8
MOJI
100
AcDbText
 10
3319.321500135979
 20
366.1066136417894
 30
0.0
 40
30.0
  1
弾性アクリルウレタン塗装
 41
0.8
  7
EXT08
 72
     4
 11
3488.921500135979
 21
381.1066136417894
 31
0.0
100
AcDbText
  0
TEXT
  5
1C8CDE6A98C3
330
1C8CDE699D53
100
AcDbEntity
  8
MOJI
100
AcDbText
 10
3419.892928707407
 20
426.1066136417894
 30
0.0
 40
30.0
  1
摘      要
 41
0.8
  7
EXT08
 72
     4
 11
3488.921500135979
 21
441.1066136417893
 31
0.0
100
AcDbText
  0
LINE
  5
1C8CDE6A98C4
330
1C8CDE699D53
100
AcDbEntity
  8
MOJI
100
AcDbLine
 10
2386.649722672366
 20
411.0707207398136
 30
0.0
 11
3676.430308605549
 21
411.0707207398136
 31
0.0
  0
TEXT
  5
1C8CDE6A98C5
330
1C8CDE699D53
100
AcDbEntity
  8
MOJI
100
AcDbText
 10
3417.950071564549
 20
186.4645552947677
 30
0.0
 40
30.0
  1
%%c9\U+00D7150
 41
0.8
  7
EXT08
 72
     4
 11
3488.921500135978
 21
201.4645552947677
 31
0.0
100
AcDbText
  0
LINE
  5
1C8CDE6A98C6
330
1C8CDE699D53
100
AcDbEntity
  8
MOJI
100
AcDbLine
 10
2386.649722672365
 20
231.0707207398136
 30
0.0
 11
3676.430308605548
 21
231.0707207398136
 31
0.0
  0
LINE
  5
1C8CDE6A98C7
330
1C8CDE699D53
100
AcDbEntity
  8
MOJI
100
AcDbLine
 10
2386.649722672365
 20
291.0707207398136
 30
0.0
 11
3676.430308605548
 21
291.0707207398136
 31
0.0
  0
LINE
  5
1C8CDE6A98C8
330
1C8CDE699D53
100
AcDbEntity
  8
MOJI
100
AcDbLine
 10
2386.649722672366
 20
351.0707207398136
 30
0.0
 11
3676.430308605548
 21
351.0707207398136
 31
0.0
  0
LINE
  5
1C8CDE6A98C9
330
1C8CDE699D53
100
AcDbEntity
  8
MOJI
100
AcDbLine
 10
2386.649722672366
 20
471.0707207398136
 30
0.0
 11
3676.430308605549
 21
471.0707207398136
 31
0.0
  0
TEXT
  5
1C8CDE6A98CA
330
1C8CDE699D53
100
AcDbEntity
  8
MOJI
100
AcDbText
 10
3378.521500135979
 20
306.1066136417894
 30
0.0
 40
30.0
  1
高耐食溶融めっき
 41
0.8
  7
EXT08
 72
     4
 11
3488.921500135979
 21
321.1066136417894
 31
0.0
100
AcDbText
  0
LINE
  5
1C8CDE6A98CD
330
1C8CDE699D53
100
AcDbEntity
  8
MOJI
100
AcDbLine
 10
2386.649722672365
 20
171.0707207398136
 30
0.0
 11
3676.430308605548
 21
171.0707207398136
 31
0.0
  0
TEXT
  5
1C8CDE6A98D4
330
1C8CDE699D53
100
AcDbEntity
  8
MOJI
100
AcDbText
 10
2425.221151243795
 20
246.0707207398136
 30
0.0
 40
30.0
  1
3
 41
0.8
  7
EXT08
 72
     4
 11
2436.649722672366
 21
261.0707207398136
 31
0.0
100
AcDbText
  0
LINE
  5
1C8CDE6A98D5
330
1C8CDE699D53
100
AcDbEntity
  8
MOJI
100
AcDbLine
 10
2738.517603777492
 20
471.0707207398136
 30
0.0
 11
2738.517603777492
 21
111.0707207398136
 31
0.0
  0
LINE
  5
1C8CDE6A98D6
330
1C8CDE699D53
100
AcDbEntity
  8
MOJI
100
AcDbLine
 10
2486.649722672366
 20
471.0707207398136
 30
0.0
 11
2486.649722672364
 21
111.0707207398136
 31
0.0
  0
LINE
  5
1C8CDE6A98D8
330
1C8CDE699D53
100
AcDbEntity
  8
MOJI
100
AcDbLine
 10
3303.932862638261
 20
471.0707207398136
 30
0.0
 11
3303.932862638264
 21
111.0707207398136
 31
0.0
  0
TEXT
  5
1C8CDE6A98D9
330
1C8CDE699D53
100
AcDbEntity
  8
MOJI
100
AcDbText
 10
2556.583663224928
 20
186.4645552947677
 30
0.0
 40
30.0
  1
ネカセ棒
 41
0.8
  7
EXT08
 72
     4
 11
2612.583663224928
 21
201.4645552947677
 31
0.0
100
AcDbText
  0
TEXT
  5
1C8CDE6A98E2
330
1C8CDE699D53
100
AcDbEntity
  8
MOJI
100
AcDbText
 10
2937.625233207877
 20
366.0707207398136
 30
0.0
 40
30.0
  1
再生ゴム（工場廃材）
 41
0.8
  7
EXT08
 72
     4
 11
3071.225233207876
 21
381.0707207398136
 31
0.0
100
AcDbText
  0
TEXT
  5
1C8CDE6A98E3
330
1C8CDE699D53
100
AcDbEntity
  8
MOJI
100
AcDbText
 10
2543.783663224929
 20
366.1066136417894
 30
0.0
 40
30.0
  1
本      体
 41
0.8
  7
EXT08
 72
     4
 11
2612.583663224929
 21
381.1066136417894
 31
0.0
100
AcDbText
  0
TEXT
  5
1C8CDE6A98E4
330
1C8CDE699D53
100
AcDbEntity
  8
MOJI
100
AcDbText
 10
2544.583663224929
 20
426.1066136417894
 30
0.0
 40
30.0
  1
品      名
 41
0.8
  7
EXT08
 72
     4
 11
2612.583663224929
 21
441.1066136417893
 31
0.0
100
AcDbText
  0
TEXT
  5
1C8CDE6A98E5
330
1C8CDE699D53
100
AcDbEntity
  8
MOJI
100
AcDbText
 10
2543.783663224929
 20
306.1066136417894
 30
0.0
 40
30.0
  1
芯      材
 41
0.8
  7
EXT08
 72
     4
 11
2612.583663224929
 21
321.1066136417894
 31
0.0
100
AcDbText
  0
TEXT
  5
1C8CDE6A98E6
330
1C8CDE699D53
100
AcDbEntity
  8
MOJI
100
AcDbText
 10
2426.935436958081
 20
366.0707207398136
 30
0.0
 40
30.0
  1
1
 41
0.8
  7
EXT08
 72
     4
 11
2436.649722672366
 21
381.0707207398136
 31
0.0
100
AcDbText
  0
TEXT
  5
1C8CDE6A98E7
330
1C8CDE699D53
100
AcDbEntity
  8
MOJI
100
AcDbText
 10
2425.221151243795
 20
306.0707207398136
 30
0.0
 40
30.0
  1
2
 41
0.8
  7
EXT08
 72
     4
 11
2436.649722672366
 21
321.0707207398136
 31
0.0
100
AcDbText
  0
TEXT
  5
1C8CDE6A98E8
330
1C8CDE699D53
100
AcDbEntity
  8
MOJI
100
AcDbText
 10
2403.849722672366
 20
426.0707207398136
 30
0.0
 40
30.0
  1
品 番
 41
0.8
  7
EXT08
 72
     4
 11
2436.649722672366
 21
441.0707207398136
 31
0.0
100
AcDbText
  0
TEXT
  5
1C8CDE6A98E9
330
1C8CDE699D53
100
AcDbEntity
  8
MOJI
100
AcDbText
 10
2977.853804636448
 20
306.0707207398136
 30
0.0
 40
30.0
  1
STK400相当
 41
0.8
  7
EXT08
 72
     4
 11
3071.225233207876
 21
321.0707207398136
 31
0.0
100
AcDbText
  0
TEXT
  5
1C8CDE6A98EA
330
1C8CDE699D53
100
AcDbEntity
  8
MOJI
100
AcDbText
 10
3002.425233207876
 20
426.0707207398136
 30
0.0
 40
30.0
  1
材      質
 41
0.8
  7
EXT08
 72
     4
 11
3071.225233207876
 21
441.0707207398136
 31
0.0
100
AcDbText
  0
LINE
  5
1C8CDE6A98EB
330
1C8CDE699D53
100
AcDbEntity
  8
MOJI
100
AcDbLine
 10
3676.430308605549
 20
471.0707207398136
 30
0.0
 11
3676.430308605547
 21
111.0707207398136
 31
0.0
  0
TEXT
  5
1C8CDE6A9B3C
330
1C8CDE699D53
100
AcDbEntity
  8
MOJI
100
AcDbText
 10
775.2657338812435
 20
1509.83466873772
 30
0.0
 40
30.0
  1
本体
 41
0.8
  7
EXT08
 11
775.2657338812435
 21
1509.83466873772
 31
0.0
100
AcDbText
 73
     1
  0
TEXT
  5
1C8CDE6A9B3D
330
1C8CDE699D53
100
AcDbEntity
  8
MOJI
100
AcDbText
 10
724.9157174088699
 20
1510.33703951268
 30
0.0
 40
30.0
  1
1
 41
0.8
  7
EXT08
 72
     2
 11
737.4871459802984
 21
1525.33703951268
 31
0.0
100
AcDbText
 73
     2
  0
TEXT
  5
1C8CDE6A9B44
330
1C8CDE699D53
100
AcDbEntity
  8
MOJI
100
AcDbText
 10
475.6928937777447
 20
960.9447616250562
 30
0.0
 40
30.0
  1
2
 41
0.8
  7
EXT08
 72
     2
 11
495.1214652063161
 21
975.9447616250563
 31
0.0
100
AcDbText
 73
     2
  0
MTEXT
  5
1C8CDE6A9B45
330
1C8CDE699D53
100
AcDbEntity
  8
MOJI
100
AcDbMText
 10
527.1402758419299
 20
959.7640807434443
 30
0.0
 40
30.0
 41
0.8
 71
     7
 72
     5
  1
芯材 \U+03C676.3
  7
EXT08
 73
     1
 44
1.0
1001
ACAD
1000
MTEXTBEGIN
1070
    73
1070
     1
1070
    44
1040
1.0
1070
    74
1070
     0
1000
MTEXTEND
  0
TEXT
  5
1C8CDE6A9B5D
330
1C8CDE699D53
100
AcDbEntity
  8
MOJI
100
AcDbText
 10
543.5238074759941
 20
716.7032976156377
 30
0.0
 40
30.0
  1
4
 41
0.8
  7
EXT08
100
AcDbText
  0
TEXT
  5
1C8CDE6A9B62
330
1C8CDE699D53
100
AcDbEntity
  8
MOJI
100
AcDbText
 10
548.7067658321998
 20
665.1222959969183
 30
0.0
 40
30.0
  1
%%c9\U+00D7150
 41
0.8
  7
EXT08
100
AcDbText
  0
TEXT
  5
1C8CDE6AB8E6
330
1C8CDE699D53
100
AcDbEntity
  8
MOJI
100
AcDbText
 10
2395.397667937769
 20
505.1982129913193
 30
0.0
 40
30.0
  1
・反射材は高輝度反射シートとする。
 41
0.8
  7
EXT08
100
AcDbText
  0
TEXT
  5
1C8CDE6AB8E7
330
1C8CDE699D53
100
AcDbEntity
  8
MOJI
100
AcDbText
 10
2397.218307352167
 20
556.2225667308958
 30
0.0
 40
30.0
  1
%%u特 記
 41
0.8
  7
EXT08
100
AcDbText
  0
INSERT
  5
1C8CDE6AB995
330
1C8CDE699D53
100
AcDbEntity
  8
ZWAKU
100
AcDbBlockReference
  2
SYSTEMA3
 10
0.0
 20
0.0
 30
0.0
 41
10.0
 42
10.0
 43
10.0
  0
TEXT
  5
1C8CDE6AB996
330
1C8CDE699D53
100
AcDbEntity
  8
INFORMATION
100
AcDbText
 10
1.0
 20
2.0
 30
0.0
 40
0.8
  1
PLOTTER=SYSTEM
 41
0.8
  7
EXT08
100
AcDbText
  0
TEXT
  5
1C8CDE6AB997
330
1C8CDE699D53
100
AcDbEntity
  8
INFORMATION
100
AcDbText
 10
1.0
 20
3.0
 30
0.0
 40
0.8
  1
PAPER=A3
 41
0.8
  7
EXT08
100
AcDbText
  0
INSERT
  5
1C8CDE6AB9A3
330
1C8CDE699D53
100
AcDbEntity
  8
ZWAKU
100
AcDbBlockReference
  2
CALCOMP_TECHJET720A3
 10
0.0
 20
0.0
 30
0.0
 41
10.0
 42
10.0
 43
10.0
  0
TEXT
  5
1C8CDE6ABA19
330
1C8CDE699D53
100
AcDbEntity
  8
MOJI
100
AcDbText
 10
647.241728410574
 20
1723.247862405315
 30
0.0
 40
30.0
  1
反射材
 41
0.8
  7
EXT08
100
AcDbText
  0
TEXT
  5
1C8CDE6ABA1A
330
1C8CDE699D53
100
AcDbEntity
  8
MOJI
100
AcDbText
 10
599.4997354177935
 20
1722.57534854725
 30
0.0
 40
30.0
  1
3
 41
0.8
  7
EXT08
 72
     2
 11
618.928306846365
 21
1737.57534854725
 31
0.0
100
AcDbText
 73
     2
  0
LINE
  5
1C8CDE6ABA1D
330
1C8CDE699D53
100
AcDbEntity
  8
MOJI
100
AcDbLine
 10
2386.649722672364
 20
111.0707207398136
 30
0.0
 11
3676.430308605548
 21
111.0707207398136
 31
0.0
  0
TEXT
  5
1C8CDE6ABA1E
330
1C8CDE699D53
100
AcDbEntity
  8
MOJI
100
AcDbText
 10
2424.649722672364
 20
186.0707207398135
 30
0.0
 40
30.0
  1
4
 41
0.8
  7
EXT08
 72
     4
 11
2436.649722672364
 21
201.0707207398136
 31
0.0
100
AcDbText
  0
TEXT
  5
1C8CDE6ABA1F
330
1C8CDE699D53
100
AcDbEntity
  8
MOJI
100
AcDbText
 10
2558.183663224929
 20
244.1181357697378
 30
0.0
 40
30.0
  1
反 射 材
 41
0.8
  7
EXT08
 72
     4
 11
2612.583663224929
 21
259.1181357697378
 31
0.0
100
AcDbText
  0
TEXT
  5
1C8CDE6ABA26
330
1C8CDE699D53
100
AcDbEntity
  8
MOJI
100
AcDbText
 10
2873.625233207878
 20
246.0707207398136
 30
0.0
 40
30.0
  1
マイクロプリズム型反射シート
 41
0.8
  7
EXT08
 72
     4
 11
3071.225233207878
 21
261.0707207398136
 31
0.0
100
AcDbText
  0
TEXT
  5
1C8CDE6ABA27
330
1C8CDE699D53
100
AcDbEntity
  8
MOJI
100
AcDbText
 10
3418.521500135979
 20
245.7356901572903
 30
0.0
 40
30.0
  1
シルバー色
 41
0.8
  7
EXT08
 72
     4
 11
3488.921500135979
 21
260.7356901572903
 31
0.0
100
AcDbText
  0
LINE
  5
1C8CDE6ABB56
330
1C8CDE699D53
100
AcDbEntity
  8
MOJI
100
AcDbLine
 10
2386.649722672366
 20
471.0707207398136
 30
0.0
 11
2386.649722672364
 21
111.0707207398136
 31
0.0
  0
LINE
  5
1C8CDE6ABB57
330
1C8CDE699D53
100
AcDbEntity
  8
MOJI
100
AcDbLine
 10
2838.517603777491
 20
471.0707207398136
 30
0.0
 11
2838.517603777491
 21
111.0707207398136
 31
0.0
  0
TEXT
  5
1C8CDE6ABB5E
330
1C8CDE699D53
100
AcDbEntity
  8
MOJI
100
AcDbText
 10
2756.105600821113
 20
426.0707207398136
 30
0.0
 40
30.0
  1
数 量
 41
0.8
  7
EXT08
 72
     4
 11
2788.905600821114
 21
441.0707207398136
 31
0.0
100
AcDbText
  0
TEXT
  5
1C8CDE6ABB65
330
1C8CDE699D53
100
AcDbEntity
  8
MOJI
100
AcDbText
 10
2780.110681884828
 20
186.0707207398135
 30
0.0
 40
30.0
  1
1
 41
0.8
  7
EXT08
 72
     4
 11
2789.824967599114
 21
201.0707207398136
 31
0.0
100
AcDbText
  0
TEXT
  5
1C8CDE6ABB66
330
1C8CDE699D53
100
AcDbEntity
  8
MOJI
100
AcDbText
 10
2780.11068188483
 20
246.0707207398136
 30
0.0
 40
30.0
  1
1
 41
0.8
  7
EXT08
 72
     4
 11
2789.824967599115
 21
261.0707207398136
 31
0.0
100
AcDbText
  0
TEXT
  5
1C8CDE6ABB68
330
1C8CDE699D53
100
AcDbEntity
  8
MOJI
100
AcDbText
 10
2780.11068188483
 20
306.0707207398136
 30
0.0
 40
30.0
  1
1
 41
0.8
  7
EXT08
 72
     4
 11
2789.824967599115
 21
321.0707207398136
 31
0.0
100
AcDbText
  0
TEXT
  5
1C8CDE6ABB69
330
1C8CDE699D53
100
AcDbEntity
  8
MOJI
100
AcDbText
 10
2780.11068188483
 20
366.0707207398136
 30
0.0
 40
30.0
  1
1
 41
0.8
  7
EXT08
 72
     4
 11
2789.824967599115
 21
381.0707207398136
 31
0.0
100
AcDbText
  0
LINE
  5
1C8CDE6AC578
330
1C8CDE699D53
100
AcDbEntity
  8
CENTER
100
AcDbLine
 10
1100.054113738607
 20
834.8788971329287
 30
0.0
 11
916.4281656052363
 21
834.8788971329287
 31
0.0
  0
LINE
  5
1C8CDE6AC656
330
1C8CDE699D53
100
AcDbEntity
  8
CENTER
100
AcDbLine
 10
1008.241139671922
 20
1906.785196629852
 30
0.0
 11
1008.241139671921
 21
534.0623938813887
 31
0.0
  0
DIMENSION
  5
1C8CDE6AC657
330
1C8CDE699D53
100
AcDbEntity
  8
SUNPOU
100
AcDbDimension
  2
*D8
 10
1246.478815836309
 20
1834.878897132929
 30
0.0
 11
1285.858055741004
 21
1809.87889713293
 31
0.0
 70
   160
 71
     5
 42
50.0
  3
SJC
100
AcDbAlignedDimension
 13
1045.733017255403
 23
1784.878897132928
 33
0.0
 14
1045.733017255404
 24
1834.878897132929
 34
0.0
 50
90.0
100
AcDbRotatedDimension
1001
ACAD
1000
DSTYLE
1002
{
1070
    40
1040
10.0
1070
    41
1040
2.0
1070
    42
1040
1.0
1070
    43
1040
6.0
1070
    44
1040
1.0
1070
   140
1040
3.0
1070
   147
1040
1.199999999999999
1070
   176
1070
     0
1070
   177
1070
     0
1070
   178
1070
     0
1070
   179
1070
     2
1070
   271
1070
     2
1070
   340
1005
1C8CDE699DA6
1002
}
  0
CIRCLE
  5
1C8CDE6AC9D6
330
1C8CDE699D53
100
AcDbEntity
  8
MOJI
100
AcDbCircle
 10
610.8998460739585
 20
1738.776959544159
 30
0.0
 40
20.63387731969829
  0
CIRCLE
  5
1C8CDE6AC9D7
330
1C8CDE699D53
100
AcDbEntity
  8
MOJI
100
AcDbCircle
 10
736.4005323181959
 20
1526.473530061326
 30
0.0
 40
20.63387731969829
  0
CIRCLE
  5
1C8CDE6AC9DA
330
1C8CDE699D53
100
AcDbEntity
  8
MOJI
100
AcDbCircle
 10
486.8505463568471
 20
974.9997011795294
 30
0.0
 40
20.63387731969829
  0
CIRCLE
  5
1C8CDE6AC9DB
330
1C8CDE699D53
100
AcDbEntity
  8
MOJI
100
AcDbCircle
 10
554.7157795294715
 20
731.2471106873145
 30
0.0
 40
20.63387731969829
  0
LINE
  5
1C8CDE6ACA41
330
1C8CDE699D53
100
AcDbEntity
  8
HATCH
100
AcDbLine
 10
858.2411396719226
 20
970.6584754651137
 30
0.0
 11
922.4615613397382
 21
1034.878897132929
 31
0.0
  0
LINE
  5
1C8CDE6ACA42
330
1C8CDE699D53
100
AcDbEntity
  8
HATCH
100
AcDbLine
 10
858.2411396719217
 20
698.4223647082926
 30
0.0
 11
970.0911396719217
 21
810.2723647082932
 31
0.0
  0
LINE
  5
1C8CDE6ACA43
330
1C8CDE699D53
100
AcDbEntity
  8
HATCH
100
AcDbLine
 10
858.2411396719217
 20
659.5314917430323
 30
0.0
 11
970.0911396719217
 21
771.3814917430327
 31
0.0
  0
LINE
  5
1C8CDE6ACA44
330
1C8CDE699D53
100
AcDbEntity
  8
HATCH
100
AcDbLine
 10
858.2411396719217
 20
678.9769282256626
 30
0.0
 11
970.0911396719217
 21
790.8269282256622
 31
0.0
  0
LINE
  5
1C8CDE6ACA45
330
1C8CDE699D53
100
AcDbEntity
  8
HATCH
100
AcDbLine
 10
858.2411396719226
 20
834.5404200867028
 30
0.0
 11
970.0911396719218
 21
946.390420086703
 31
0.0
  0
LINE
  5
1C8CDE6ACA46
330
1C8CDE699D53
100
AcDbEntity
  8
HATCH
100
AcDbLine
 10
858.2411396719226
 20
853.9858565693332
 30
0.0
 11
970.0911396719218
 21
965.8358565693335
 31
0.0
  0
LINE
  5
1C8CDE6ACA47
330
1C8CDE699D53
100
AcDbEntity
  8
HATCH
100
AcDbLine
 10
858.2411396719217
 20
815.0949836040727
 30
0.0
 11
970.0911396719218
 21
926.9449836040728
 31
0.0
  0
LINE
  5
1C8CDE6ACA48
330
1C8CDE699D53
100
AcDbEntity
  8
HATCH
100
AcDbLine
 10
858.2411396719226
 20
990.1039119477436
 30
0.0
 11
903.0161248571079
 21
1034.878897132929
 31
0.0
  0
LINE
  5
1C8CDE6ACA49
330
1C8CDE699D53
100
AcDbEntity
  8
HATCH
100
AcDbLine
 10
858.2411396719226
 20
1009.549348430374
 30
0.0
 11
883.5706883744784
 21
1034.878897132929
 31
0.0
  0
LINE
  5
1C8CDE6ACA4A
330
1C8CDE699D53
100
AcDbEntity
  8
HATCH
100
AcDbLine
 10
1046.391139671922
 20
857.1269282256618
 30
0.0
 11
1158.241139671922
 21
968.9769282256627
 31
0.0
  0
LINE
  5
1C8CDE6ACA4B
330
1C8CDE699D53
100
AcDbEntity
  8
HATCH
100
AcDbLine
 10
1046.391139671922
 20
876.5723647082925
 30
0.0
 11
1158.241139671922
 21
988.4223647082926
 31
0.0
  0
LINE
  5
1C8CDE6ACA4C
330
1C8CDE699D53
100
AcDbEntity
  8
HATCH
100
AcDbLine
 10
1046.391139671922
 20
896.017801190923
 30
0.0
 11
1158.241139671922
 21
1007.867801190923
 31
0.0
  0
LINE
  5
1C8CDE6ACA4D
330
1C8CDE699D53
100
AcDbEntity
  8
HATCH
100
AcDbLine
 10
1046.391139671922
 20
740.4543093298809
 30
0.0
 11
1158.241139671922
 21
852.304309329882
 31
0.0
  0
LINE
  5
1C8CDE6ACA4E
330
1C8CDE699D53
100
AcDbEntity
  8
HATCH
100
AcDbLine
 10
1046.391139671922
 20
701.5634363646212
 30
0.0
 11
1158.241139671922
 21
813.4134363646221
 31
0.0
  0
LINE
  5
1C8CDE6ACA4F
330
1C8CDE699D53
100
AcDbEntity
  8
HATCH
100
AcDbLine
 10
1046.391139671922
 20
721.0088728472514
 30
0.0
 11
1158.241139671922
 21
832.8588728472521
 31
0.0
  0
LINE
  5
1C8CDE6ACA50
330
1C8CDE699D53
100
AcDbEntity
  8
HATCH
100
AcDbLine
 10
950.2611639575984
 20
634.8788971329287
 30
0.0
 11
970.0911396719217
 21
654.7088728472519
 31
0.0
  0
LINE
  5
1C8CDE6ACA51
330
1C8CDE699D53
100
AcDbEntity
  8
HATCH
100
AcDbLine
 10
1135.270092301269
 20
634.8788971329295
 30
0.0
 11
1158.241139671922
 21
657.8499445035817
 31
0.0
  0
LINE
  5
1C8CDE6ACA52
330
1C8CDE699D53
100
AcDbEntity
  8
HATCH
100
AcDbLine
 10
1115.82465581864
 20
634.8788971329295
 30
0.0
 11
1158.241139671922
 21
677.2953809862117
 31
0.0
  0
LINE
  5
1C8CDE6ACA53
330
1C8CDE699D53
100
AcDbEntity
  8
HATCH
100
AcDbLine
 10
1096.379219336009
 20
634.8788971329295
 30
0.0
 11
1158.241139671922
 21
696.7408174688419
 31
0.0
  0
LINE
  5
1C8CDE6AD155
330
1C8CDE699D53
100
AcDbEntity
  8
SJC
100
AcDbLine
 10
1046.391139671922
 20
1034.878897132929
 30
0.0
 11
1046.391139671922
 21
634.8788971329295
 31
0.0
  0
LINE
  5
1C8CDE6AD156
330
1C8CDE699D53
100
AcDbEntity
  8
SJC
100
AcDbLine
 10
970.0911396719218
 20
1034.878897132929
 30
0.0
 11
970.0911396719217
 21
634.8788971329295
 31
0.0
  0
TEXT
  5
1C8CDE6AEDFE
330
1C8CDE699D53
100
AcDbEntity
  8
MOJI
100
AcDbText
 10
3346.97864299312
 20
126.4645552947677
 30
0.0
 40
30.0
  1
%%C16\U+00D7t1.5\U+00D7L120
 41
0.8
  7
EXT08
 72
     4
 11
3488.921500135978
 21
141.4645552947677
 31
0.0
100
AcDbText
  0
TEXT
  5
1C8CDE6AEDFF
330
1C8CDE699D53
100
AcDbEntity
  8
MOJI
100
AcDbText
 10
2499.783663224928
 20
126.4645552947677
 30
0.0
 40
30.0
  1
ロックピンガイド
 41
0.8
  7
EXT08
 72
     4
 11
2612.583663224928
 21
141.4645552947677
 31
0.0
100
AcDbText
  0
TEXT
  5
1C8CDE6AEE01
330
1C8CDE699D53
100
AcDbEntity
  8
MOJI
100
AcDbText
 10
2425.221151243793
 20
126.0707207398136
 30
0.0
 40
30.0
  1
5
 41
0.8
  7
EXT08
 72
     4
 11
2436.649722672364
 21
141.0707207398136
 31
0.0
100
AcDbText
  0
TEXT
  5
1C8CDE6AEE02
330
1C8CDE699D53
100
AcDbEntity
  8
MOJI
100
AcDbText
 10
2780.110681884828
 20
126.0707207398136
 30
0.0
 40
30.0
  1
1
 41
0.8
  7
EXT08
 72
     4
 11
2789.824967599114
 21
141.0707207398136
 31
0.0
100
AcDbText
  0
TEXT
  5
1C8CDE6AEE03
330
1C8CDE699D53
100
AcDbEntity
  8
MOJI
100
AcDbText
 10
3000.939518922164
 20
126.0707207398136
 30
0.0
 40
30.0
  1
SUS304
 41
0.8
  7
EXT08
 72
     4
 11
3071.225233207878
 21
141.0707207398136
 31
0.0
100
AcDbText
  0
TEXT
  5
1C8CDE6AFB60
330
1C8CDE699D53
100
AcDbEntity
  8
MOJI
100
AcDbText
 10
2868.019984470694
 20
1745.916384737222
 30
0.0
 40
30.0
  1
%%u反射シート貼付部詳細
 41
0.8
  7
EXT08
100
AcDbText
  0
TEXT
  5
1C8CDE6AFD64
330
1C8CDE699D53
100
AcDbEntity
  8
MOJI
100
AcDbText
 10
1915.418732108109
 20
1746.169298945905
 30
0.0
 40
30.0
  1
%%u下部断面詳細図
 41
0.8
  7
EXT08
100
AcDbText
  0
LINE
  5
1C8CDE6B0D2D
330
1C8CDE699D53
100
AcDbEntity
  8
CENTER
100
AcDbLine
 10
2010.959897859057
 20
1237.900428580176
 30
0.0
 11
2310.959897859059
 21
1237.900428580176
 31
0.0
  0
LINE
  5
1C8CDE6B0D2F
330
1C8CDE699D53
100
AcDbEntity
  8
SJC
100
AcDbLine
 10
1960.959897859057
 20
1037.900428580176
 30
0.0
 11
2084.959897859057
 21
1037.900428580176
 31
0.0
  0
LWPOLYLINE
  5
1C8CDE6B0D32
330
1C8CDE699D53
100
AcDbEntity
  8
SJC
100
AcDbPolyline
 90
        2
 70
     0
 43
0.0
 10
2084.659897859056
 20
965.3371368372766
 10
2084.659897859056
 20
1219.900428580176
  0
LINE
  5
1C8CDE6B0D33
330
1C8CDE699D53
100
AcDbEntity
  8
SJC
100
AcDbLine
 10
2091.059897859056
 20
1219.900428580176
 30
0.0
 11
2091.059897859057
 21
965.337136837277
 31
0.0
  0
LINE
  5
1C8CDE6B0D36
330
1C8CDE699D53
100
AcDbEntity
  8
SJC
100
AcDbLine
 10
2280.959897859059
 20
1250.900428580176
 30
0.0
 11
2040.959897859058
 21
1250.900428580176
 31
0.0
  0
LWPOLYLINE
  5
1C8CDE6B0D37
330
1C8CDE699D53
100
AcDbEntity
  8
SJC
100
AcDbPolyline
 90
        3
 70
     0
 43
0.0
 10
2084.659897859056
 20
1255.900428580176
 10
2084.659897859056
 20
1437.900428580176
 10
2237.259897859061
 20
1437.900428580176
  0
LINE
  5
1C8CDE6B0D38
330
1C8CDE699D53
100
AcDbEntity
  8
SJC
100
AcDbLine
 10
2091.059897859056
 20
1437.900428580176
 30
0.0
 11
2091.059897859056
 21
1255.900428580176
 31
0.0
  0
LINE
  5
1C8CDE6B0D39
330
1C8CDE699D53
100
AcDbEntity
  8
SJC
100
AcDbLine
 10
2030.959897859057
 20
1253.900428580176
 30
0.0
 11
2290.959897859059
 21
1253.900428580176
 31
0.0
  0
LINE
  5
1C8CDE6B0D3A
330
1C8CDE699D53
100
AcDbEntity
  8
SJC
100
AcDbLine
 10
2084.659897859056
 20
1255.900428580176
 30
0.0
 11
2091.059897859056
 21
1255.900428580176
 31
0.0
  0
LINE
  5
1C8CDE6B0D3B
330
1C8CDE699D53
100
AcDbEntity
  8
SJC
100
AcDbLine
 10
2280.959897859059
 20
1224.900428580176
 30
0.0
 11
2040.959897859058
 21
1224.900428580176
 31
0.0
  0
LINE
  5
1C8CDE6B0D3D
330
1C8CDE699D53
100
AcDbEntity
  8
SJC
100
AcDbLine
 10
2030.959897859057
 20
1221.900428580176
 30
0.0
 11
2290.959897859059
 21
1221.900428580176
 31
0.0
  0
LINE
  5
1C8CDE6B0D3E
330
1C8CDE699D53
100
AcDbEntity
  8
SJC
100
AcDbLine
 10
2084.659897859056
 20
1219.900428580176
 30
0.0
 11
2091.059897859056
 21
1219.900428580176
 31
0.0
  0
LINE
  5
1C8CDE6B0D41
330
1C8CDE699D53
100
AcDbEntity
  8
SJC
100
AcDbLine
 10
2084.959897859057
 20
1219.900428580176
 30
0.0
 11
2084.959897859057
 21
1037.900428580176
 31
0.0
  0
LINE
  5
1C8CDE6B0D44
330
1C8CDE699D53
100
AcDbEntity
  8
SJC
100
AcDbLine
 10
2046.531431730489
 20
1615.708914146804
 30
0.0
 11
2031.170131742211
 21
1339.678169742061
 31
0.0
  0
LINE
  5
1C8CDE6B0D64
330
1C8CDE699D53
100
AcDbEntity
  8
SJC
100
AcDbLine
 10
2010.959897859054
 20
1173.900428580176
 30
0.0
 11
2010.959897859057
 21
1041.900428580176
 31
0.0
  0
ARC
  5
1C8CDE6B0D66
330
1C8CDE699D53
100
AcDbEntity
  8
SJC
100
AcDbCircle
 10
2020.959897859055
 20
1325.900428580179
 30
0.0
 40
10.0
100
AcDbArc
 50
89.99999999999998
 51
180.0
  0
ARC
  5
1C8CDE6B0D67
330
1C8CDE699D53
100
AcDbEntity
  8
SJC
100
AcDbCircle
 10
2027.176311389604
 20
1339.900428580179
 30
0.0
 40
4.0
100
AcDbArc
 50
270.0
 51
356.8147361678411
  0
LINE
  5
1C8CDE6B0D68
330
1C8CDE699D53
100
AcDbEntity
  8
SJC
100
AcDbLine
 10
2020.959897859057
 20
1335.900428580176
 30
0.0
 11
2027.176311389604
 21
1335.900428580176
 31
0.0
  0
LINE
  5
1C8CDE6B0D69
330
1C8CDE699D53
100
AcDbEntity
  8
SJC
100
AcDbLine
 10
2030.959897859057
 20
1187.900428580176
 30
0.0
 11
2030.959897859057
 21
1287.900428580176
 31
0.0
  0
LINE
  5
1C8CDE6B0D6A
330
1C8CDE699D53
100
AcDbEntity
  8
SJC
100
AcDbLine
 10
2010.959897859057
 20
1301.900428580176
 30
0.0
 11
2010.959897859057
 21
1325.900428580176
 31
0.0
  0
ARC
  5
1C8CDE6B0D6B
330
1C8CDE699D53
100
AcDbEntity
  8
SJC
100
AcDbCircle
 10
2026.959897859056
 20
1287.900428580179
 30
0.0
 40
4.0
100
AcDbArc
 50
0.0
 51
89.99999999999998
  0
LINE
  5
1C8CDE6B0D6C
330
1C8CDE699D53
100
AcDbEntity
  8
SJC
100
AcDbLine
 10
2020.959897859057
 20
1291.900428580176
 30
0.0
 11
2026.959897859057
 21
1291.900428580176
 31
0.0
  0
ARC
  5
1C8CDE6B0D6D
330
1C8CDE699D53
100
AcDbEntity
  8
SJC
100
AcDbCircle
 10
2020.959897859055
 20
1301.900428580179
 30
0.0
 40
10.0
100
AcDbArc
 50
180.0
 51
270.0
  0
ARC
  5
1C8CDE6B0D6E
330
1C8CDE699D53
100
AcDbEntity
  8
SJC
100
AcDbCircle
 10
2020.959897859054
 20
1173.900428580179
 30
0.0
 40
10.0
100
AcDbArc
 50
89.99999999999998
 51
180.0
  0
ARC
  5
1C8CDE6B0D6F
330
1C8CDE699D53
100
AcDbEntity
  8
SJC
100
AcDbCircle
 10
2026.959897859056
 20
1187.900428580179
 30
0.0
 40
4.0
100
AcDbArc
 50
270.0
 51
0.0
  0
LINE
  5
1C8CDE6B0D70
330
1C8CDE699D53
100
AcDbEntity
  8
SJC
100
AcDbLine
 10
2020.959897859054
 20
1183.900428580176
 30
0.0
 11
2026.959897859057
 21
1183.900428580176
 31
0.0
  0
ARC
  5
1C8CDE6B0D7D
330
1C8CDE699D53
100
AcDbEntity
  8
SJC
100
AcDbCircle
 10
2014.959897859056
 20
1041.900428580179
 30
0.0
 40
4.0
100
AcDbArc
 50
180.0
 51
270.0
  0
ARC
  5
1C8CDE6B0D81
330
1C8CDE699D53
100
AcDbEntity
  8
SJC
100
AcDbCircle
 10
2072.959897859054
 20
1161.410428580179
 30
0.0
 40
22.48999999999978
100
AcDbArc
 50
89.99999999999998
 51
180.0
  0
LINE
  5
1C8CDE6B0D82
330
1C8CDE699D53
100
AcDbEntity
  8
SJC
100
AcDbLine
 10
2050.469897859056
 20
1037.900428580178
 30
0.0
 11
2050.469897859056
 21
1161.410428580178
 31
0.0
  0
LINE
  5
1C8CDE6B0D84
330
1C8CDE699D53
100
AcDbEntity
  8
SJC
100
AcDbLine
 10
2072.959897859055
 20
1253.900428580178
 30
0.0
 11
2072.959897859055
 21
1537.900428580178
 31
0.0
  0
ARC
  5
1C8CDE6B0D85
330
1C8CDE699D53
100
AcDbEntity
  8
SJC
100
AcDbCircle
 10
2084.959897859054
 20
1537.90042858018
 30
0.0
 40
12.0
100
AcDbArc
 50
89.99999999999998
 51
180.0
  0
LINE
  5
1C8CDE6B0D86
330
1C8CDE699D53
100
AcDbEntity
  8
SJC
100
AcDbLine
 10
2072.959897859055
 20
1183.900428580178
 30
0.0
 11
2072.959897859055
 21
1221.900428580178
 31
0.0
  0
LINE
  5
1C8CDE6B0D88
330
1C8CDE699D53
100
AcDbEntity
  8
SJC
100
AcDbLine
 10
2084.959897859055
 20
1615.708914146804
 30
0.0
 11
2084.959897859055
 21
1437.900428580176
 31
0.0
  0
LINE
  5
1C8CDE6B12B1
330
1C8CDE699D53
100
AcDbEntity
  8
SUNPOU
100
AcDbLine
 10
2200.956843824946
 20
1595.708914146803
 30
0.0
 11
2200.956843824946
 21
1615.708914146804
 31
0.0
  0
LINE
  5
1C8CDE6B12B2
330
1C8CDE699D53
100
AcDbEntity
  8
SUNPOU
100
AcDbLine
 10
2120.956843824946
 20
1635.708914146803
 30
0.0
 11
2200.956843824946
 21
1595.708914146803
 31
0.0
  0
LINE
  5
1C8CDE6B12B3
330
1C8CDE699D53
100
AcDbEntity
  8
SUNPOU
100
AcDbLine
 10
1960.956843824946
 20
1615.708914146804
 30
0.0
 11
2120.956843824946
 21
1615.708914146804
 31
0.0
  0
LINE
  5
1C8CDE6B12B4
330
1C8CDE699D53
100
AcDbEntity
  8
SUNPOU
100
AcDbLine
 10
2200.956843824946
 20
1615.708914146804
 30
0.0
 11
2360.956843824946
 21
1615.708914146804
 31
0.0
  0
LINE
  5
1C8CDE6B12B5
330
1C8CDE699D53
100
AcDbEntity
  8
SUNPOU
100
AcDbLine
 10
2120.956843824946
 20
1615.708914146804
 30
0.0
 11
2120.956843824946
 21
1635.708914146803
 31
0.0
  0
LINE
  5
1C8CDE6B12BB
330
1C8CDE699D53
100
AcDbEntity
  8
SUNPOU
100
AcDbLine
 10
2200.95684364148
 20
945.3371368372767
 30
0.0
 11
2200.95684364148
 21
965.3371368372766
 31
0.0
  0
LINE
  5
1C8CDE6B12BC
330
1C8CDE699D53
100
AcDbEntity
  8
SUNPOU
100
AcDbLine
 10
2120.95684364148
 20
985.3371368372767
 30
0.0
 11
2200.95684364148
 21
945.3371368372767
 31
0.0
  0
LINE
  5
1C8CDE6B12BD
330
1C8CDE699D53
100
AcDbEntity
  8
SUNPOU
100
AcDbLine
 10
1960.95684364148
 20
965.3371368372766
 30
0.0
 11
2120.95684364148
 21
965.3371368372766
 31
0.0
  0
LINE
  5
1C8CDE6B12BE
330
1C8CDE699D53
100
AcDbEntity
  8
SUNPOU
100
AcDbLine
 10
2200.95684364148
 20
965.3371368372766
 30
0.0
 11
2360.95684364148
 21
965.3371368372766
 31
0.0
  0
LINE
  5
1C8CDE6B12BF
330
1C8CDE699D53
100
AcDbEntity
  8
SUNPOU
100
AcDbLine
 10
2120.95684364148
 20
965.3371368372766
 30
0.0
 11
2120.95684364148
 21
985.3371368372767
 31
0.0
  0
LINE
  5
1C8CDE6B1405
330
1C8CDE699D53
100
AcDbEntity
  8
CENTER
100
AcDbLine
 10
2160.959897859058
 20
1694.08216222423
 30
0.0
 11
2160.959897859058
 21
858.8962092399007
 31
0.0
  0
LWPOLYLINE
  5
1C8CDE6B1424
330
1C8CDE699D53
100
AcDbEntity
  8
SJC
100
AcDbPolyline
 90
        2
 70
     0
 43
0.0
 10
2237.259897859061
 20
965.3371368372766
 10
2237.259897859061
 20
1219.900428580176
  0
LINE
  5
1C8CDE6B1425
330
1C8CDE699D53
100
AcDbEntity
  8
SJC
100
AcDbLine
 10
2230.859897859061
 20
1219.900428580176
 30
0.0
 11
2230.85989785906
 21
965.337136837277
 31
0.0
  0
LINE
  5
1C8CDE6B1426
330
1C8CDE699D53
100
AcDbEntity
  8
SJC
100
AcDbLine
 10
2230.859897859061
 20
1437.900428580176
 30
0.0
 11
2230.859897859061
 21
1255.900428580176
 31
0.0
  0
LINE
  5
1C8CDE6B1428
330
1C8CDE699D53
100
AcDbEntity
  8
SJC
100
AcDbLine
 10
2237.259897859061
 20
1255.900428580176
 30
0.0
 11
2230.859897859061
 21
1255.900428580176
 31
0.0
  0
LINE
  5
1C8CDE6B142A
330
1C8CDE699D53
100
AcDbEntity
  8
SJC
100
AcDbLine
 10
2237.259897859061
 20
1219.900428580176
 30
0.0
 11
2230.859897859061
 21
1219.900428580176
 31
0.0
  0
LINE
  5
1C8CDE6B142C
330
1C8CDE699D53
100
AcDbEntity
  8
SJC
100
AcDbLine
 10
2236.95989785906
 20
1219.900428580176
 30
0.0
 11
2236.95989785906
 21
1037.900428580176
 31
0.0
  0
LINE
  5
1C8CDE6B142D
330
1C8CDE699D53
100
AcDbEntity
  8
SJC
100
AcDbLine
 10
2275.388363987628
 20
1615.708914146804
 30
0.0
 11
2290.749663975906
 21
1339.678169742061
 31
0.0
  0
LINE
  5
1C8CDE6B142E
330
1C8CDE699D53
100
AcDbEntity
  8
SJC
100
AcDbLine
 10
2310.959897859063
 20
1173.900428580176
 30
0.0
 11
2310.959897859059
 21
1041.900428580176
 31
0.0
  0
ARC
  5
1C8CDE6B142F
330
1C8CDE699D53
100
AcDbEntity
  8
SJC
100
AcDbCircle
 10
2300.959897859061
 20
1325.900428580179
 30
0.0
 40
10.0
100
AcDbArc
 50
0.000000000000007
 51
90.00000000000005
  0
ARC
  5
1C8CDE6B1430
330
1C8CDE699D53
100
AcDbEntity
  8
SJC
100
AcDbCircle
 10
2294.743484328513
 20
1339.900428580179
 30
0.0
 40
4.0
100
AcDbArc
 50
183.1852638321589
 51
270.0
  0
LINE
  5
1C8CDE6B1431
330
1C8CDE699D53
100
AcDbEntity
  8
SJC
100
AcDbLine
 10
2300.959897859059
 20
1335.900428580176
 30
0.0
 11
2294.743484328513
 21
1335.900428580176
 31
0.0
  0
LINE
  5
1C8CDE6B1432
330
1C8CDE699D53
100
AcDbEntity
  8
SJC
100
AcDbLine
 10
2290.959897859059
 20
1187.900428580176
 30
0.0
 11
2290.959897859059
 21
1287.900428580176
 31
0.0
  0
LINE
  5
1C8CDE6B1433
330
1C8CDE699D53
100
AcDbEntity
  8
SJC
100
AcDbLine
 10
2310.959897859059
 20
1301.900428580176
 30
0.0
 11
2310.959897859059
 21
1325.900428580176
 31
0.0
  0
ARC
  5
1C8CDE6B1434
330
1C8CDE699D53
100
AcDbEntity
  8
SJC
100
AcDbCircle
 10
2294.959897859061
 20
1287.900428580179
 30
0.0
 40
4.0
100
AcDbArc
 50
90.00000000000005
 51
180.0
  0
LINE
  5
1C8CDE6B1435
330
1C8CDE699D53
100
AcDbEntity
  8
SJC
100
AcDbLine
 10
2300.959897859059
 20
1291.900428580176
 30
0.0
 11
2294.959897859059
 21
1291.900428580176
 31
0.0
  0
ARC
  5
1C8CDE6B1436
330
1C8CDE699D53
100
AcDbEntity
  8
SJC
100
AcDbCircle
 10
2300.959897859061
 20
1301.900428580179
 30
0.0
 40
10.0
100
AcDbArc
 50
270.0
 51
0.000000000000007
  0
ARC
  5
1C8CDE6B1437
330
1C8CDE699D53
100
AcDbEntity
  8
SJC
100
AcDbCircle
 10
2300.959897859063
 20
1173.900428580179
 30
0.0
 40
10.0
100
AcDbArc
 50
0.000000000000007
 51
90.00000000000005
  0
ARC
  5
1C8CDE6B1438
330
1C8CDE699D53
100
AcDbEntity
  8
SJC
100
AcDbCircle
 10
2294.959897859061
 20
1187.900428580179
 30
0.0
 40
4.0
100
AcDbArc
 50
180.0
 51
270.0
  0
LINE
  5
1C8CDE6B1439
330
1C8CDE699D53
100
AcDbEntity
  8
SJC
100
AcDbLine
 10
2300.959897859063
 20
1183.900428580176
 30
0.0
 11
2294.959897859059
 21
1183.900428580176
 31
0.0
  0
ARC
  5
1C8CDE6B143A
330
1C8CDE699D53
100
AcDbEntity
  8
SJC
100
AcDbCircle
 10
2306.959897859061
 20
1041.900428580179
 30
0.0
 40
4.0
100
AcDbArc
 50
270.0
 51
0.000000000000007
  0
ARC
  5
1C8CDE6B143C
330
1C8CDE699D53
100
AcDbEntity
  8
SJC
100
AcDbCircle
 10
2248.959897859063
 20
1161.410428580179
 30
0.0
 40
22.48999999999978
100
AcDbArc
 50
0.000000000000007
 51
90.00000000000005
  0
LINE
  5
1C8CDE6B143D
330
1C8CDE699D53
100
AcDbEntity
  8
SJC
100
AcDbLine
 10
2271.449897859061
 20
1037.900428580178
 30
0.0
 11
2271.449897859061
 21
1161.410428580178
 31
0.0
  0
LINE
  5
1C8CDE6B143E
330
1C8CDE699D53
100
AcDbEntity
  8
SJC
100
AcDbLine
 10
2236.95989785906
 20
1037.900428580178
 30
0.0
 11
2360.959897859059
 21
1037.900428580176
 31
0.0
  0
LINE
  5
1C8CDE6B143F
330
1C8CDE699D53
100
AcDbEntity
  8
SJC
100
AcDbLine
 10
2248.959897859061
 20
1253.900428580178
 30
0.0
 11
2248.959897859061
 21
1537.900428580178
 31
0.0
  0
ARC
  5
1C8CDE6B1440
330
1C8CDE699D53
100
AcDbEntity
  8
SJC
100
AcDbCircle
 10
2236.959897859063
 20
1537.90042858018
 30
0.0
 40
12.0
100
AcDbArc
 50
0.000000000000007
 51
90.00000000000005
  0
LINE
  5
1C8CDE6B1441
330
1C8CDE699D53
100
AcDbEntity
  8
SJC
100
AcDbLine
 10
2248.959897859061
 20
1183.900428580178
 30
0.0
 11
2248.959897859061
 21
1221.900428580178
 31
0.0
  0
LINE
  5
1C8CDE6B1442
330
1C8CDE699D53
100
AcDbEntity
  8
SJC
100
AcDbLine
 10
2236.959897859062
 20
1615.708914146804
 30
0.0
 11
2236.959897859061
 21
1437.900428580176
 31
0.0
  0
LINE
  5
1C8CDE6B1444
330
1C8CDE699D53
100
AcDbEntity
  8
SJC
100
AcDbLine
 10
2237.259897859061
 20
1255.900428580176
 30
0.0
 11
2237.259897859061
 21
1437.900428580176
 31
0.0
  0
HATCH
  5
1C8CDE6B1471
330
1C8CDE699D53
100
AcDbEntity
  8
HATCH
100
AcDbHatch
 10
0.0
 20
0.0
 30
0.0
210
0.0
220
0.0
230
1.0
  2
ANSI31
 70
     0
 71
     0
 91
        2
 92
        7
 72
     0
 73
     1
 93
        4
 10
2091.059897859057
 20
1219.900428580176
 10
2084.959897859057
 20
1219.900428580176
 10
2084.959897859059
 20
1037.900428580177
 10
2091.059897859057
 20
1037.900428580176
 97
        0
 92
        7
 72
     0
 73
     1
 93
        4
 10
2091.059897859057
 20
1037.900428580176
 10
2084.659897859056
 20
1037.900428580176
 10
2084.659897859058
 20
965.3371368372766
 10
2091.059897859057
 20
965.337136837277
 97
        0
 75
     0
 76
     1
 52
90.0
 41
40.0
 77
     0
 78
     1
 53
135.0
 43
-237.1309689856325
 44
-914.755029705303
 45
-3.535533905932736
 46
-3.535533905932736
 79
     0
 47
0.44806029816019
 98
        2
 10
2087.153670249579
 20
1096.509200866018
 10
2088.498424978446
 20
1013.618044357942
  0
HATCH
  5
1C8CDE6B1477
330
1C8CDE699D53
100
AcDbEntity
  8
HATCH
100
AcDbHatch
 10
0.0
 20
0.0
 30
0.0
210
0.0
220
0.0
230
1.0
  2
ANSI31
 70
     0
 71
     0
 91
        1
 92
        7
 72
     0
 73
     1
 93
        4
 10
2091.059897859056
 20
1437.900428580176
 10
2084.659897859056
 20
1437.900428580176
 10
2084.659897859056
 20
1255.900428580176
 10
2091.059897859056
 20
1255.900428580176
 97
        0
 75
     0
 76
     1
 52
90.0
 41
40.0
 77
     0
 78
     1
 53
135.0
 43
-237.1309689856325
 44
-914.755029705303
 45
-3.535533905932736
 46
-3.535533905932736
 79
     0
 47
0.6321510869681001
 98
        1
 10
2087.320209974802
 20
1348.388189257671
  0
HATCH
  5
1C8CDE6B147D
330
1C8CDE699D53
100
AcDbEntity
  8
HATCH
100
AcDbHatch
 10
0.0
 20
0.0
 30
0.0
210
0.0
220
0.0
230
1.0
  2
ANSI31
 70
     0
 71
     0
 91
        1
 92
        7
 72
     0
 73
     1
 93
        4
 10
2237.259897859061
 20
1437.900428580176
 10
2230.859897859061
 20
1437.900428580176
 10
2230.859897859061
 20
1255.900428580176
 10
2237.259897859061
 20
1255.900428580176
 97
        0
 75
     0
 76
     1
 52
90.0
 41
40.0
 77
     0
 78
     1
 53
135.0
 43
-237.1309689856325
 44
-914.755029705303
 45
-3.535533905932736
 46
-3.535533905932736
 79
     0
 47
0.6184729935180209
 98
        1
 10
2234.626147555278
 20
1337.7422898744
  0
HATCH
  5
1C8CDE6B1487
330
1C8CDE699D53
100
AcDbEntity
  8
HATCH
100
AcDbHatch
 10
0.0
 20
0.0
 30
0.0
210
0.0
220
0.0
230
1.0
  2
ANSI31
 70
     0
 71
     0
 91
        2
 92
        7
 72
     0
 73
     1
 93
        4
 10
2236.959897859058
 20
1219.900428580176
 10
2230.85989785906
 20
1219.900428580176
 10
2230.85989785906
 20
1037.900428580177
 10
2236.95989785906
 20
1037.900428580177
 97
        0
 92
        7
 72
     0
 73
     1
 93
        4
 10
2237.259897859059
 20
1037.900428580176
 10
2230.85989785906
 20
1037.900428580176
 10
2230.859897859061
 20
965.3371368372766
 10
2237.259897859061
 20
965.337136837277
 97
        0
 75
     0
 76
     1
 52
90.0
 41
40.0
 77
     0
 78
     1
 53
135.0
 43
-237.1309689856325
 44
-914.755029705303
 45
-3.535533905932736
 46
-3.535533905932736
 79
     0
 47
0.6184729935180209
 98
        2
 10
2232.769954840008
 20
1149.726496204132
 10
2234.626147555278
 20
1011.188543309809
  0
LINE
  5
1C8CDE6B14A4
330
1C8CDE699D53
100
AcDbEntity
  8
SJC
100
AcDbLine
 10
2040.959897859058
 20
1221.900428580176
 30
0.0
 11
2040.959897859058
 21
1253.900428580176
 31
0.0
  0
LINE
  5
1C8CDE6B14A6
330
1C8CDE699D53
100
AcDbEntity
  8
SJC
100
AcDbLine
 10
2280.959897859059
 20
1221.900428580176
 30
0.0
 11
2280.959897859059
 21
1253.900428580176
 31
0.0
  0
HATCH
  5
1C8CDE6B14BA
330
1C8CDE699D53
100
AcDbEntity
  8
HATCH
100
AcDbHatch
 10
0.0
 20
0.0
 30
0.0
210
0.0
220
0.0
230
1.0
  2
ANSI31
 70
     0
 71
     0
 91
        4
 92
        7
 72
     0
 73
     1
 93
        4
 10
2160.95989785906
 20
1253.900428580176
 10
2040.959897859057
 20
1253.900428580176
 10
2040.959897859058
 20
1250.900428580176
 10
2160.95989785906
 20
1250.900428580177
 97
        0
 92
        7
 72
     0
 73
     1
 93
        5
 10
2280.959897859061
 20
1253.900428580177
 10
2248.959897859059
 20
1253.900428580176
 10
2160.959897859058
 20
1253.900428580176
 10
2160.959897859058
 20
1250.900428580176
 10
2280.959897859059
 20
1250.900428580176
 97
        0
 92
        7
 72
     0
 73
     1
 93
        4
 10
2280.959897859059
 20
1224.900428580176
 10
2160.95989785906
 20
1224.900428580176
 10
2160.95989785906
 20
1221.900428580176
 10
2280.959897859059
 20
1221.900428580176
 97
        0
 92
        7
 72
     0
 73
     1
 93
        5
 10
2160.959897859058
 20
1224.900428580176
 10
2040.959897859058
 20
1224.900428580176
 10
2040.959897859058
 20
1221.900428580177
 10
2072.959897859058
 20
1221.900428580176
 10
2160.959897859058
 20
1221.900428580176
 97
        0
 75
     0
 76
     1
 52
-90.00000000000001
 41
20.0
 77
     0
 78
     1
 53
315.0
 43
-237.1309689856325
 44
-914.755029705303
 45
1.767766952966369
 46
1.767766952966368
 79
     0
 47
0.2594318255423137
 98
        4
 10
2116.984913361937
 20
1253.086736576896
 10
2187.839717433129
 20
1252.049008007193
 10
2177.45805916806
 20
1224.030368583243
 10
2155.137505088199
 20
1222.733211066918
  0
DIMENSION
  5
1C8CDE6B14BB
330
1C8CDE699D53
100
AcDbEntity
  8
SUNPOU
100
AcDbDimension
  2
*D9
 10
1831.164729129944
 20
1037.900428580176
 30
0.0
 11
1804.164729129944
 21
1237.900428580176
 31
0.0
 70
    32
  1
200
 71
     5
 42
400.0000000000002
  3
SJC
100
AcDbAlignedDimension
 13
2084.659897859056
 23
1437.900428580176
 33
0.0
 14
2014.959897859056
 24
1037.900428580176
 34
0.0
 50
90.0
100
AcDbRotatedDimension
1001
ACAD
1000
DSTYLE
1002
{
1070
    40
1040
10.0
1070
    41
1040
2.0
1070
    42
1040
1.0
1070
    43
1040
6.0
1070
    44
1040
1.0
1070
   140
1040
3.0
1070
   147
1040
1.199999999999999
1070
   176
1070
     0
1070
   177
1070
     0
1070
   178
1070
     0
1070
   179
1070
     2
1070
   271
1070
     2
1070
   340
1005
1C8CDE699DA6
1002
}
  0
DIMENSION
  5
1C8CDE6B14BC
330
1C8CDE699D53
100
AcDbEntity
  8
SUNPOU
100
AcDbDimension
  2
*D10
 10
1891.810726779232
 20
1037.900428580176
 30
0.0
 11
1864.810726779231
 21
1137.900428580176
 31
0.0
 70
    32
  1
100
 71
     5
 42
200.0
  3
SJC
100
AcDbAlignedDimension
 13
2010.959897859057
 23
1237.900428580176
 33
0.0
 14
2014.959897859056
 24
1037.900428580176
 34
0.0
 50
90.0
100
AcDbRotatedDimension
1001
ACAD
1000
DSTYLE
1002
{
1070
    40
1040
10.0
1070
    41
1040
2.0
1070
    42
1040
1.0
1070
    43
1040
6.0
1070
    44
1040
1.0
1070
   140
1040
3.0
1070
   147
1040
1.199999999999999
1070
   176
1070
     0
1070
   177
1070
     0
1070
   178
1070
     0
1070
   179
1070
     2
1070
   271
1070
     2
1070
   340
1005
1C8CDE699DA6
1002
}
  0
TEXT
  5
1C8CDE6B14F9
330
1C8CDE699D53
100
AcDbEntity
  8
MOJI
100
AcDbText
 10
2416.757342996179
 20
1336.551404695376
 30
0.0
 40
30.0
  1
5
 41
0.8
  7
EXT08
 72
     2
 11
2436.18591442475
 21
1351.551404695376
 31
0.0
100
AcDbText
 73
     2
  0
CIRCLE
  5
1C8CDE6B14FA
330
1C8CDE699D53
100
AcDbEntity
  8
MOJI
100
AcDbCircle
 10
2427.683921978733
 20
1351.516227649225
 30
0.0
 40
24.0
  0
LINE
  5
1C8CDE6B14FB
330
1C8CDE699D53
100
AcDbEntity
  8
MOJI
100
AcDbLine
 10
2389.649775543156
 20
1320.891593158677
 30
0.0
 11
2765.427353614957
 21
1320.891593158677
 31
0.0
  0
MTEXT
  5
1C8CDE6B14FC
330
1C8CDE699D53
100
AcDbEntity
  8
MOJI
100
AcDbMText
 10
2460.715321418809
 20
1330.897240098268
 30
0.0
 40
30.0
 41
0.8
 71
     7
 72
     5
  1
ロックピンガイド%%c16
  7
EXT08
 73
     1
 44
1.0
1001
ACAD
1000
MTEXTBEGIN
1070
    73
1070
     1
1070
    44
1040
1.0
1070
    74
1070
     0
1000
MTEXTEND
  0
HATCH
  5
1C8CDE6B158A
330
1C8CDE699D53
100
AcDbEntity
  8
HATCH
100
AcDbHatch
 10
0.0
 20
0.0
 30
0.0
210
0.0
220
0.0
230
1.0
  2
ANSI31
 70
     0
 71
     0
 91
        4
 92
        7
 72
     1
 73
     1
 93
       14
 10
2084.959897859055
 20
1549.90042858018
 42
0.0
 10
2084.959897859054
 20
1615.708914146804
 42
0.0
 10
2046.53143173049
 20
1615.708914146804
 42
0.0
 10
2031.170131742211
 20
1339.678169742061
 42
-0.3980228153312156
 10
2027.176311389604
 20
1335.900428580176
 42
0.0
 10
2020.959897859057
 20
1335.900428580176
 42
0.4142135623730951
 10
2010.959897859057
 20
1325.900428580176
 42
0.0
 10
2010.959897859057
 20
1301.900428580176
 42
0.4142135623730951
 10
2020.959897859057
 20
1291.900428580176
 42
0.0
 10
2026.959897859057
 20
1291.900428580176
 42
-0.4142135623730951
 10
2030.959897859057
 20
1287.900428580176
 42
0.0
 10
2030.959897859057
 20
1253.900428580176
 42
0.0
 10
2072.959897859055
 20
1253.900428580176
 42
0.0
 10
2072.959897859055
 20
1537.900428580178
 42
-0.4142135623731507
 97
        0
 92
        7
 72
     1
 73
     1
 93
       11
 10
2050.469897859056
 20
1161.410428580178
 42
-0.4142135623731011
 10
2072.959897859055
 20
1183.900428580179
 42
0.0
 10
2072.959897859055
 20
1221.900428580176
 42
0.0
 10
2030.959897859057
 20
1221.900428580176
 42
0.0
 10
2030.959897859057
 20
1187.900428580176
 42
-0.4142135623730951
 10
2026.959897859057
 20
1183.900428580176
 42
0.0
 10
2020.959897859054
 20
1183.900428580176
 42
0.4142135623731085
 10
2010.959897859054
 20
1173.900428580176
 42
0.0
 10
2010.959897859057
 20
1041.900428580176
 42
0.4142135623728287
 10
2014.959897859056
 20
1037.900428580178
 42
0.0
 10
2050.469897859056
 20
1037.900428580178
 42
0.0
 97
        0
 92
        7
 72
     1
 73
     1
 93
       11
 10
2290.95989785906
 20
1221.900428580176
 42
0.0
 10
2248.959897859061
 20
1221.900428580176
 42
0.0
 10
2248.959897859061
 20
1183.900428580178
 42
-0.4142135623730951
 10
2271.449897859061
 20
1161.410428580178
 42
0.0
 10
2271.449897859061
 20
1037.900428580178
 42
0.0
 10
2306.959897859061
 20
1037.900428580178
 42
0.4142135623728287
 10
2310.959897859059
 20
1041.900428580176
 42
0.0
 10
2310.959897859063
 20
1173.900428580176
 42
0.4142135623730951
 10
2300.959897859063
 20
1183.900428580176
 42
0.0
 10
2294.959897859059
 20
1183.900428580176
 42
-0.4142135623730951
 10
2290.959897859059
 20
1187.900428580176
 42
0.0
 97
        0
 92
        7
 72
     1
 73
     1
 93
       14
 10
2310.959897859059
 20
1325.900428580176
 42
0.4142135623730951
 10
2300.959897859059
 20
1335.900428580176
 42
0.0
 10
2294.743484328513
 20
1335.900428580176
 42
-0.3980228153312155
 10
2290.749663975906
 20
1339.678169742061
 42
0.0
 10
2275.388363987628
 20
1615.708914146804
 42
0.0
 10
2236.959897859062
 20
1615.708914146804
 42
0.0
 10
2236.959897859061
 20
1549.900428580178
 42
-0.4142135623730951
 10
2248.959897859061
 20
1537.900428580178
 42
0.0
 10
2248.959897859061
 20
1253.900428580176
 42
0.0
 10
2290.959897859059
 20
1253.900428580176
 42
0.0
 10
2290.959897859059
 20
1287.900428580176
 42
-0.4142135623730951
 10
2294.959897859059
 20
1291.900428580176
 42
0.0
 10
2300.959897859059
 20
1291.900428580176
 42
0.4142135623730951
 10
2310.959897859059
 20
1301.900428580176
 42
0.0
 97
        0
 75
     0
 76
     1
 52
0.0
 41
100.0
 77
     0
 78
     1
 53
45.0
 43
-237.1309689856325
 44
-914.755029705303
 45
-8.838834764831842
 46
8.838834764831842
 79
     0
 47
2.160891933106809
 98
        4
 10
2066.142233294365
 20
1546.845242221922
 10
2042.362381133317
 20
1116.827743205174
 10
2273.675476892041
 20
1196.780748168648
 10
2260.70465716007
 20
1322.1124772144
  0
CIRCLE
  5
1C8CDE6B18F4
330
1C8CDE699D53
100
AcDbEntity
  8
SJC
100
AcDbCircle
 10
1008.998969636631
 20
2194.411892609968
 30
0.0
 40
37.5
  0
CIRCLE
  5
1C8CDE6B18F6
330
1C8CDE699D53
100
AcDbEntity
  8
SJC
100
AcDbCircle
 10
1008.998969636631
 20
2194.411892609968
 30
0.0
 40
48.26595238122775
  0
CIRCLE
  5
1C8CDE6B18F7
330
1C8CDE699D53
100
AcDbEntity
  8
SJC
100
AcDbCircle
 10
1008.998969636631
 20
2194.411892609968
 30
0.0
 40
66.27526131807305
  0
CIRCLE
  5
1C8CDE6B18F8
330
1C8CDE699D53
100
AcDbEntity
  8
SJC
100
AcDbCircle
 10
1008.998969636631
 20
2194.411892609968
 30
0.0
 40
75.75782996471014
  0
LEADER
  5
1C8CDE6B19CA
330
1C8CDE699D53
100
AcDbEntity
  8
MOJI
100
AcDbLeader
  3
SJC
 76
     2
 10
2280.959897859059
 20
1247.464525442265
 30
0.0
 10
2389.649775543156
 20
1320.891593158677
 30
0.0
1001
ACAD
1000
DSTYLE
1002
{
1070
    40
1040
10.0
1070
    41
1040
2.0
1070
    42
1040
1.0
1070
    43
1040
6.0
1070
    44
1040
1.0
1070
   140
1040
3.0
1070
   147
1040
1.199999999999999
1070
   176
1070
     0
1070
   177
1070
     0
1070
   178
1070
     0
1070
   179
1070
     2
1070
   271
1070
     2
1070
   340
1005
1C8CDE699DA6
1002
}
  0
LINE
  5
1C8CDE6B19CB
330
1C8CDE699D53
100
AcDbEntity
  8
MOJI
100
AcDbLine
 10
572.6013510915636
 20
1712.612569930022
 30
0.0
 11
758.0315672465867
 21
1712.612569930022
 31
0.0
  0
LEADER
  5
1C8CDE6B19CC
330
1C8CDE699D53
100
AcDbEntity
  8
MOJI
100
AcDbLeader
  3
SJC
 76
     2
 10
970.7330172554032
 20
1811.040487564412
 30
0.0
 10
758.0315672465867
 20
1712.612569930022
 30
0.0
1001
ACAD
1000
DSTYLE
1002
{
1070
    40
1040
10.0
1070
    41
1040
2.0
1070
    42
1040
1.0
1070
    43
1040
6.0
1070
    44
1040
1.0
1070
   140
1040
3.0
1070
   147
1040
1.199999999999999
1070
   176
1070
     0
1070
   177
1070
     0
1070
   178
1070
     0
1070
   179
1070
     2
1070
   271
1070
     2
1070
   340
1005
1C8CDE699DA6
1002
}
  0
LINE
  5
1C8CDE6B19CD
330
1C8CDE699D53
100
AcDbEntity
  8
MOJI
100
AcDbLine
 10
710.1807996385637
 20
1499.605822912216
 30
0.0
 11
855.2841030702184
 21
1499.605822912216
 31
0.0
  0
LEADER
  5
1C8CDE6B19CE
330
1C8CDE699D53
100
AcDbEntity
  8
MOJI
100
AcDbLeader
  3
SJC
 76
     2
 10
956.0891094831438
 20
1456.895546623903
 30
0.0
 10
855.2841030702184
 20
1499.605822912216
 30
0.0
1001
ACAD
1000
DSTYLE
1002
{
1070
    40
1040
10.0
1070
    41
1040
2.0
1070
    42
1040
1.0
1070
    43
1040
6.0
1070
    44
1040
1.0
1070
   140
1040
3.0
1070
   147
1040
1.199999999999999
1070
   176
1070
     0
1070
   177
1070
     0
1070
   178
1070
     0
1070
   179
1070
     2
1070
   271
1070
     2
1070
   340
1005
1C8CDE699DA6
1002
}
  0
LINE
  5
1C8CDE6B19D0
330
1C8CDE699D53
100
AcDbEntity
  8
MOJI
100
AcDbLine
 10
449.2176668885221
 20
946.9741722326066
 30
0.0
 11
723.3410572879973
 21
946.9741722326066
 31
0.0
  0
LEADER
  5
1C8CDE6B19D1
330
1C8CDE699D53
100
AcDbEntity
  8
MOJI
100
AcDbLeader
  3
SJC
 76
     2
 10
985.7219334447544
 20
903.2929796046547
 30
0.0
 10
723.3410572879973
 20
946.9741722326066
 30
0.0
1001
ACAD
1000
DSTYLE
1002
{
1070
    40
1040
10.0
1070
    41
1040
2.0
1070
    42
1040
1.0
1070
    43
1040
6.0
1070
    44
1040
1.0
1070
   140
1040
3.0
1070
   147
1040
1.199999999999999
1070
   176
1070
     0
1070
   177
1070
     0
1070
   178
1070
     0
1070
   179
1070
     2
1070
   271
1070
     2
1070
   340
1005
1C8CDE699DA6
1002
}
  0
LINE
  5
1C8CDE6B19D2
330
1C8CDE699D53
100
AcDbEntity
  8
MOJI
100
AcDbLine
 10
525.4509357019087
 20
703.3873256662054
 30
0.0
 11
714.7164660215385
 21
703.3873256662054
 31
0.0
  0
LEADER
  5
1C8CDE6B19D3
330
1C8CDE699D53
100
AcDbEntity
  8
MOJI
100
AcDbLeader
  3
SJC
 76
     2
 10
933.2411396719217
 20
830.3788971329296
 30
0.0
 10
714.7164660215385
 20
703.3873256662054
 30
0.0
1001
ACAD
1000
DSTYLE
1002
{
1070
    40
1040
10.0
1070
    41
1040
2.0
1070
    42
1040
1.0
1070
    43
1040
6.0
1070
    44
1040
1.0
1070
   140
1040
3.0
1070
   147
1040
1.199999999999999
1070
   176
1070
     0
1070
   177
1070
     0
1070
   178
1070
     0
1070
   179
1070
     2
1070
   271
1070
     2
1070
   340
1005
1C8CDE699DA6
1002
}
  0
ARC
  5
1C8CDE6B1C4E
330
1C8CDE699D53
100
AcDbEntity
  8
SJC
100
AcDbCircle
 10
941.2330172554
 20
1109.878897132928
 30
0.0
 40
2.0
100
AcDbArc
 50
270.0
 51
0.0
  0
ARC
  5
1C8CDE6B1C4F
330
1C8CDE699D53
100
AcDbEntity
  8
SJC
100
AcDbCircle
 10
941.2330172554
 20
1159.878897132929
 30
0.0
 40
2.0
100
AcDbArc
 50
0.0
 51
90.0
  0
ARC
  5
1C8CDE6B1C50
330
1C8CDE699D53
100
AcDbEntity
  8
SJC
100
AcDbCircle
 10
941.3249791876303
 20
1185.878897132928
 30
0.0
 40
2.0
100
AcDbArc
 50
270.0
 51
357.3039881991773
  0
LINE
  5
1C8CDE6B1C58
330
1C8CDE699D53
100
AcDbEntity
  8
SJC
100
AcDbLine
 10
943.3227654906106
 20
1185.784823291607
 30
0.0
 11
970.6344093262316
 21
1765.784823291607
 31
0.0
  0
LINE
  5
1C8CDE6B1C59
330
1C8CDE699D53
100
AcDbEntity
  8
SJC
100
AcDbLine
 10
933.2330172553986
 20
1102.87889713293
 30
0.0
 11
933.2330172553986
 21
1036.87889713293
 31
0.0
  0
ARC
  5
1C8CDE6B1C5A
330
1C8CDE699D53
100
AcDbEntity
  8
SJC
100
AcDbCircle
 10
935.233017255399
 20
1036.878897132928
 30
0.0
 40
2.0
100
AcDbArc
 50
180.0
 51
270.0
  0
LINE
  5
1C8CDE6B1C5B
330
1C8CDE699D53
100
AcDbEntity
  8
SJC
100
AcDbLine
 10
938.2330172553986
 20
1107.87889713293
 30
0.0
 11
1078.2330172554
 21
1107.878897132928
 31
0.0
  0
ARC
  5
1C8CDE6B1C5C
330
1C8CDE699D53
100
AcDbEntity
  8
SJC
100
AcDbCircle
 10
938.233017255399
 20
1102.878897132928
 30
0.0
 40
5.0
100
AcDbArc
 50
90.0
 51
180.0
  0
LINE
  5
1C8CDE6B1C5D
330
1C8CDE699D53
100
AcDbEntity
  8
SJC
100
AcDbLine
 10
938.2330172553986
 20
1161.87889713293
 30
0.0
 11
1078.233017255399
 21
1161.878897132928
 31
0.0
  0
LINE
  5
1C8CDE6B1C5F
330
1C8CDE699D53
100
AcDbEntity
  8
SJC
100
AcDbLine
 10
938.2330172553986
 20
1183.878897132929
 30
0.0
 11
1078.2330172554
 21
1183.878897132928
 31
0.0
  0
ARC
  5
1C8CDE6B1C60
330
1C8CDE699D53
100
AcDbEntity
  8
SJC
100
AcDbCircle
 10
938.2330172554
 20
1178.878897132928
 30
0.0
 40
5.0
100
AcDbArc
 50
90.0
 51
180.0
  0
LINE
  5
1C8CDE6B1C61
330
1C8CDE699D53
100
AcDbEntity
  8
SJC
100
AcDbLine
 10
933.2330172553986
 20
1166.87889713293
 30
0.0
 11
933.2330172553986
 21
1178.87889713293
 31
0.0
  0
ARC
  5
1C8CDE6B1C62
330
1C8CDE699D53
100
AcDbEntity
  8
SJC
100
AcDbCircle
 10
938.2330172554
 20
1166.878897132928
 30
0.0
 40
5.0
100
AcDbArc
 50
180.0
 51
270.0
  0
LINE
  5
1C8CDE6B1C63
330
1C8CDE699D53
100
AcDbEntity
  8
SJC
100
AcDbLine
 10
943.2330172553987
 20
1109.878897132929
 30
0.0
 11
943.2330172553996
 21
1159.878897132929
 31
0.0
  0
LINE
  5
1C8CDE6B1C64
330
1C8CDE699D53
100
AcDbEntity
  8
SJC
100
AcDbLine
 10
1055.733017255405
 20
1844.878897132929
 30
0.0
 11
1055.733017255405
 21
1839.878897132928
 31
0.0
  0
LINE
  5
1C8CDE6B1C65
330
1C8CDE699D53
100
AcDbEntity
  8
SJC
100
AcDbLine
 10
960.7330172554032
 20
1844.878897132929
 30
0.0
 11
960.7330172554032
 21
1839.878897132928
 31
0.0
  0
LINE
  5
1C8CDE6B1C66
330
1C8CDE699D53
100
AcDbEntity
  8
SJC
100
AcDbLine
 10
1073.143269020186
 20
1185.784823291607
 30
0.0
 11
1045.831625184574
 21
1765.784823291607
 31
0.0
  0
LINE
  5
1C8CDE6B1C67
330
1C8CDE699D53
100
AcDbEntity
  8
SJC
100
AcDbLine
 10
1083.233017255398
 20
1102.878897132928
 30
0.0
 11
1083.233017255398
 21
1036.878897132928
 31
0.0
  0
ARC
  5
1C8CDE6B1C68
330
1C8CDE699D53
100
AcDbEntity
  8
SJC
100
AcDbCircle
 10
1081.2330172554
 20
1036.878897132928
 30
0.0
 40
2.0
100
AcDbArc
 50
270.0
 51
0.0
  0
ARC
  5
1C8CDE6B1C69
330
1C8CDE699D53
100
AcDbEntity
  8
SJC
100
AcDbCircle
 10
1078.2330172554
 20
1102.878897132928
 30
0.0
 40
5.0
100
AcDbArc
 50
0.0
 51
90.0
  0
ARC
  5
1C8CDE6B1C6B
330
1C8CDE699D53
100
AcDbEntity
  8
SJC
100
AcDbCircle
 10
1075.2330172554
 20
1109.878897132928
 30
0.0
 40
2.0
100
AcDbArc
 50
180.0
 51
270.0
  0
ARC
  5
1C8CDE6B1C6D
330
1C8CDE699D53
100
AcDbEntity
  8
SJC
100
AcDbCircle
 10
1075.2330172554
 20
1159.878897132928
 30
0.0
 40
2.0
100
AcDbArc
 50
90.0
 51
180.0
  0
ARC
  5
1C8CDE6B1C6E
330
1C8CDE699D53
100
AcDbEntity
  8
SJC
100
AcDbCircle
 10
1078.2330172554
 20
1178.878897132928
 30
0.0
 40
5.0
100
AcDbArc
 50
0.0
 51
90.0
  0
ARC
  5
1C8CDE6B1C70
330
1C8CDE699D53
100
AcDbEntity
  8
SJC
100
AcDbCircle
 10
1075.141055323169
 20
1185.878897132928
 30
0.0
 40
2.0
100
AcDbArc
 50
182.6960118008227
 51
270.0
  0
LINE
  5
1C8CDE6B1C71
330
1C8CDE699D53
100
AcDbEntity
  8
SJC
100
AcDbLine
 10
1083.233017255399
 20
1178.878897132928
 30
0.0
 11
1083.233017255398
 21
1166.878897132928
 31
0.0
  0
ARC
  5
1C8CDE6B1C72
330
1C8CDE699D53
100
AcDbEntity
  8
SJC
100
AcDbCircle
 10
1078.2330172554
 20
1166.878897132928
 30
0.0
 40
5.0
100
AcDbArc
 50
270.0
 51
0.0
  0
LINE
  5
1C8CDE6B1C73
330
1C8CDE699D53
100
AcDbEntity
  8
SJC
100
AcDbLine
 10
1073.233017255398
 20
1109.878897132929
 30
0.0
 11
1073.233017255399
 21
1159.878897132929
 31
0.0
  0
LINE
  5
1C8CDE6B1C76
330
1C8CDE699D53
100
AcDbEntity
  8
SJC
100
AcDbLine
 10
1050.733017255406
 20
1834.878897132928
 30
0.0
 11
965.7330172554019
 21
1834.878897132928
 31
0.0
  0
LWPOLYLINE
  5
1C8CDE6B1C77
330
1C8CDE699D53
100
AcDbEntity
  8
SJC
100
AcDbPolyline
 90
        4
 70
     0
 43
0.0
 10
1045.733017255403
 20
1834.878897132928
 10
1045.733017255403
 20
1784.878897132928
 10
970.7330172554032
 20
1784.878897132928
 10
970.7330172554032
 20
1834.878897132928
  0
ARC
  5
1C8CDE6B1C7B
330
1C8CDE699D53
100
AcDbEntity
  8
SJC
100
AcDbCircle
 10
968.7330172554018
 20
1784.878897132928
 30
0.0
 40
2.0
100
AcDbArc
 50
270.0
 51
0.0
  0
ARC
  5
1C8CDE6B1C7D
330
1C8CDE699D53
100
AcDbEntity
  8
SJC
100
AcDbCircle
 10
965.7330172554019
 20
1839.878897132929
 30
0.0
 40
5.0
100
AcDbArc
 50
180.0
 51
270.0
  0
ARC
  5
1C8CDE6B1C7F
330
1C8CDE699D53
100
AcDbEntity
  8
SJC
100
AcDbCircle
 10
968.6366230232499
 20
1765.878897132928
 30
0.0
 40
2.0
100
AcDbArc
 50
357.3039881991773
 51
90.0
  0
ARC
  5
1C8CDE6B1C80
330
1C8CDE699D53
100
AcDbEntity
  8
SJC
100
AcDbCircle
 10
965.7330172554031
 20
1772.87889713293
 30
0.0
 40
5.0
100
AcDbArc
 50
180.0
 51
270.0
  0
ARC
  5
1C8CDE6B1C81
330
1C8CDE699D53
100
AcDbEntity
  8
SJC
100
AcDbCircle
 10
965.7330172554022
 20
1777.87889713293
 30
0.0
 40
5.0
100
AcDbArc
 50
90.0
 51
180.0
  0
LINE
  5
1C8CDE6B1C82
330
1C8CDE699D53
100
AcDbEntity
  8
SJC
100
AcDbLine
 10
960.7330172554023
 20
1772.87889713293
 30
0.0
 11
960.7330172554023
 21
1777.87889713293
 31
0.0
  0
LINE
  5
1C8CDE6B1C83
330
1C8CDE699D53
100
AcDbEntity
  8
SJC
100
AcDbLine
 10
965.7330172554022
 20
1782.87889713293
 30
0.0
 11
1050.733017255403
 21
1782.87889713293
 31
0.0
  0
LINE
  5
1C8CDE6B1C84
330
1C8CDE699D53
100
AcDbEntity
  8
SJC
100
AcDbLine
 10
965.7330172554022
 20
1767.87889713293
 30
0.0
 11
1050.733017255403
 21
1767.87889713293
 31
0.0
  0
ARC
  5
1C8CDE6B1C85
330
1C8CDE699D53
100
AcDbEntity
  8
SJC
100
AcDbCircle
 10
1047.733017255404
 20
1784.878897132928
 30
0.0
 40
2.0
100
AcDbArc
 50
180.0
 51
270.0
  0
ARC
  5
1C8CDE6B1C87
330
1C8CDE699D53
100
AcDbEntity
  8
SJC
100
AcDbCircle
 10
1047.829411487556
 20
1765.878897132928
 30
0.0
 40
2.0
100
AcDbArc
 50
90.0
 51
182.6960118008227
  0
ARC
  5
1C8CDE6B1C88
330
1C8CDE699D53
100
AcDbEntity
  8
SJC
100
AcDbCircle
 10
1050.733017255405
 20
1839.878897132929
 30
0.0
 40
5.0
100
AcDbArc
 50
270.0
 51
0.0
  0
ARC
  5
1C8CDE6B1C89
330
1C8CDE699D53
100
AcDbEntity
  8
SJC
100
AcDbCircle
 10
1050.733017255404
 20
1772.878897132928
 30
0.0
 40
5.0
100
AcDbArc
 50
270.0
 51
0.0
  0
ARC
  5
1C8CDE6B1C8A
330
1C8CDE699D53
100
AcDbEntity
  8
SJC
100
AcDbCircle
 10
1050.733017255404
 20
1777.878897132928
 30
0.0
 40
5.0
100
AcDbArc
 50
0.0
 51
90.0
  0
LINE
  5
1C8CDE6B1C8B
330
1C8CDE699D53
100
AcDbEntity
  8
SJC
100
AcDbLine
 10
1055.733017255403
 20
1777.87889713293
 30
0.0
 11
1055.733017255403
 21
1772.87889713293
 31
0.0
  0
LINE
  5
1C8CDE6B1C8C
330
1C8CDE699D53
100
AcDbEntity
  8
SJC
100
AcDbLine
 10
1050.733017255406
 20
1849.878897132928
 30
0.0
 11
965.7330172554019
 21
1849.878897132928
 31
0.0
  0
ARC
  5
1C8CDE6B1C8D
330
1C8CDE699D53
100
AcDbEntity
  8
SJC
100
AcDbCircle
 10
1008.233017255405
 20
1849.878897132929
 30
0.0
 40
37.5
100
AcDbArc
 50
4.248022666718858
 51
175.7519773332811
  0
ARC
  5
1C8CDE6B1C90
330
1C8CDE699D53
100
AcDbEntity
  8
SJC
100
AcDbCircle
 10
965.7330172554019
 20
1844.878897132929
 30
0.0
 40
5.0
100
AcDbArc
 50
90.0
 51
180.0
  0
ARC
  5
1C8CDE6B1C91
330
1C8CDE699D53
100
AcDbEntity
  8
SJC
100
AcDbCircle
 10
967.8442812018955
 20
1852.878897132929
 30
0.0
 40
3.0
100
AcDbArc
 50
270.0
 51
355.7519773332811
  0
ARC
  5
1C8CDE6B1C92
330
1C8CDE699D53
100
AcDbEntity
  8
SJC
100
AcDbCircle
 10
1048.621753308913
 20
1852.878897132927
 30
0.0
 40
3.0
100
AcDbArc
 50
184.2480226667188
 51
270.0
  0
ARC
  5
1C8CDE6B1C93
330
1C8CDE699D53
100
AcDbEntity
  8
SJC
100
AcDbCircle
 10
1050.733017255405
 20
1844.878897132929
 30
0.0
 40
5.0
100
AcDbArc
 50
0.0
 51
90.0
  0
HATCH
  5
1C8CDE6B1CAA
330
1C8CDE699D53
100
AcDbEntity
  8
SJC2
100
AcDbHatch
 10
0.0
 20
0.0
 30
0.0
210
0.0
220
0.0
230
1.0
  2
NET
 70
     0
 71
     0
 91
        1
 92
        7
 72
     0
 73
     1
 93
        4
 10
1045.733017255404
 20
1834.878897132927
 10
970.7330172554032
 20
1834.878897132927
 10
970.7330172554023
 20
1784.878897132927
 10
1045.733017255405
 20
1784.878897132928
 97
        0
 75
     0
 76
     1
 52
45.0
 41
40.0
 77
     0
 78
     2
 53
45.0
 43
1554.346098539942
 44
-21.1780617277534
 45
-3.535533905932737
 46
3.535533905932737
 79
     0
 53
135.0
 43
1554.346098539942
 44
-21.1780617277534
 45
-3.535533905932737
 46
-3.535533905932737
 79
     0
 47
1.392769417547038
 98
        1
 10
1029.321675057554
 20
1809.995854559918
  0
TEXT
  5
1C8CDE6B1E0C
330
1C8CDE699D53
100
AcDbEntity
  8
MOJI
100
AcDbText
 10
2868.019984470695
 20
1745.911775743395
 30
0.0
 40
30.0
  1
%%u反射シート貼付部詳細
 41
0.8
  7
EXT08
100
AcDbText
  0
LINE
  5
1C8CDE6B1E0E
330
1C8CDE699D53
100
AcDbEntity
  8
SJC
100
AcDbLine
 10
3064.380111632724
 20
1213.682082585768
 30
0.0
 11
3070.460879937478
 21
1342.815489493953
 31
0.0
  0
LINE
  5
1C8CDE6B1E0F
330
1C8CDE699D53
100
AcDbEntity
  8
SJC
100
AcDbLine
 10
3240.658095795824
 20
1501.003637176596
 30
0.0
 11
3240.658095795824
 21
1491.003637176594
 31
0.0
  0
LINE
  5
1C8CDE6B1E10
330
1C8CDE699D53
100
AcDbEntity
  8
SJC
100
AcDbLine
 10
3050.65809579582
 20
1501.003637176596
 30
0.0
 11
3050.65809579582
 21
1491.003637176594
 31
0.0
  0
LINE
  5
1C8CDE6B1E11
330
1C8CDE699D53
100
AcDbEntity
  8
SJC
100
AcDbLine
 10
3226.936079958913
 20
1213.682082585768
 30
0.0
 11
3220.855311654162
 21
1342.815489493953
 31
0.0
  0
LINE
  5
1C8CDE6B1E14
330
1C8CDE699D53
100
AcDbEntity
  8
SJC
100
AcDbLine
 10
3230.658095795826
 20
1481.003637176594
 30
0.0
 11
3060.658095795819
 21
1481.003637176594
 31
0.0
  0
HATCH
  5
1C8CDE6B1E15
330
1C8CDE699D53
100
AcDbEntity
  8
SJC2
100
AcDbHatch
 10
0.0
 20
0.0
 30
0.0
210
0.0
220
0.0
230
1.0
  2
NET
 70
     0
 71
     0
 91
        1
 92
        7
 72
     0
 73
     1
 93
        4
 10
3220.658095795823
 20
1481.003637176594
 10
3070.658095795821
 20
1481.003637176594
 10
3070.658095795819
 20
1381.003637176595
 10
3220.658095795824
 20
1381.003637176595
 97
        0
 75
     0
 76
     1
 52
45.0
 41
80.0
 77
     0
 78
     2
 53
45.0
 43
4237.884258364899
 44
-2231.110280544768
 45
-7.071067811865474
 46
7.071067811865475
 79
     0
 53
135.0
 43
4237.884258364899
 44
-2231.110280544768
 45
-7.071067811865475
 46
-7.071067811865474
 79
     0
 47
1.392769417547038
 98
        1
 10
3187.835411400124
 20
1431.237552030576
  0
LWPOLYLINE
  5
1C8CDE6B1E16
330
1C8CDE699D53
100
AcDbEntity
  8
SJC
100
AcDbPolyline
 90
        4
 70
     0
 43
0.0
 10
3220.65809579582
 20
1481.003637176594
 10
3220.65809579582
 20
1381.003637176595
 10
3070.658095795821
 20
1381.003637176595
 10
3070.658095795821
 20
1481.003637176594
  0
ARC
  5
1C8CDE6B1E19
330
1C8CDE699D53
100
AcDbEntity
  8
SJC
100
AcDbCircle
 10
3066.658095795819
 20
1381.003637176596
 30
0.0
 40
4.0
100
AcDbArc
 50
270.0
 51
0.0
  0
ARC
  5
1C8CDE6B1E1B
330
1C8CDE699D53
100
AcDbEntity
  8
SJC
100
AcDbCircle
 10
3060.658095795819
 20
1491.003637176596
 30
0.0
 40
10.0
100
AcDbArc
 50
180.0
 51
270.0
  0
ARC
  5
1C8CDE6B1E1D
330
1C8CDE699D53
100
AcDbEntity
  8
SJC
100
AcDbCircle
 10
3066.465307331514
 20
1343.003637176594
 30
0.0
 40
4.0
100
AcDbArc
 50
357.3039881991769
 51
90.0
  0
ARC
  5
1C8CDE6B1E1E
330
1C8CDE699D53
100
AcDbEntity
  8
SJC
100
AcDbCircle
 10
3060.658095795821
 20
1357.003637176598
 30
0.0
 40
10.0
100
AcDbArc
 50
180.0
 51
270.0
  0
ARC
  5
1C8CDE6B1E1F
330
1C8CDE699D53
100
AcDbEntity
  8
SJC
100
AcDbCircle
 10
3060.658095795819
 20
1367.003637176598
 30
0.0
 40
10.0
100
AcDbArc
 50
90.0
 51
180.0
  0
LINE
  5
1C8CDE6B1E20
330
1C8CDE699D53
100
AcDbEntity
  8
SJC
100
AcDbLine
 10
3050.658095795819
 20
1357.003637176598
 30
0.0
 11
3050.658095795819
 21
1367.003637176598
 31
0.0
  0
LINE
  5
1C8CDE6B1E21
330
1C8CDE699D53
100
AcDbEntity
  8
SJC
100
AcDbLine
 10
3060.658095795819
 20
1377.003637176598
 30
0.0
 11
3230.658095795821
 21
1377.003637176598
 31
0.0
  0
LINE
  5
1C8CDE6B1E22
330
1C8CDE699D53
100
AcDbEntity
  8
SJC
100
AcDbLine
 10
3060.658095795819
 20
1347.003637176598
 30
0.0
 11
3230.658095795821
 21
1347.003637176598
 31
0.0
  0
ARC
  5
1C8CDE6B1E23
330
1C8CDE699D53
100
AcDbEntity
  8
SJC
100
AcDbCircle
 10
3224.658095795823
 20
1381.003637176596
 30
0.0
 40
4.0
100
AcDbArc
 50
180.0
 51
270.0
  0
ARC
  5
1C8CDE6B1E25
330
1C8CDE699D53
100
AcDbEntity
  8
SJC
100
AcDbCircle
 10
3224.850884260127
 20
1343.003637176594
 30
0.0
 40
4.0
100
AcDbArc
 50
90.0
 51
182.696011800823
  0
ARC
  5
1C8CDE6B1E26
330
1C8CDE699D53
100
AcDbEntity
  8
SJC
100
AcDbCircle
 10
3230.658095795826
 20
1491.003637176596
 30
0.0
 40
10.0
100
AcDbArc
 50
270.0
 51
0.0
  0
ARC
  5
1C8CDE6B1E27
330
1C8CDE699D53
100
AcDbEntity
  8
SJC
100
AcDbCircle
 10
3230.658095795823
 20
1357.003637176595
 30
0.0
 40
10.0
100
AcDbArc
 50
270.0
 51
0.0
  0
ARC
  5
1C8CDE6B1E28
330
1C8CDE699D53
100
AcDbEntity
  8
SJC
100
AcDbCircle
 10
3230.658095795823
 20
1367.003637176594
 30
0.0
 40
10.0
100
AcDbArc
 50
0.0
 51
90.0
  0
LINE
  5
1C8CDE6B1E29
330
1C8CDE699D53
100
AcDbEntity
  8
SJC
100
AcDbLine
 10
3240.658095795821
 20
1367.003637176598
 30
0.0
 11
3240.658095795821
 21
1357.003637176598
 31
0.0
  0
LINE
  5
1C8CDE6B1E2A
330
1C8CDE699D53
100
AcDbEntity
  8
SJC
100
AcDbLine
 10
3230.658095795826
 20
1511.003637176594
 30
0.0
 11
3060.658095795819
 21
1511.003637176594
 31
0.0
  0
ARC
  5
1C8CDE6B1E2B
330
1C8CDE699D53
100
AcDbEntity
  8
SJC
100
AcDbCircle
 10
3145.658095795826
 20
1511.003637176596
 30
0.0
 40
75.0
100
AcDbArc
 50
4.248022666719339
 51
175.7519773332806
  0
ARC
  5
1C8CDE6B1E2E
330
1C8CDE699D53
100
AcDbEntity
  8
SJC
100
AcDbCircle
 10
3060.658095795819
 20
1501.003637176596
 30
0.0
 40
10.0
100
AcDbArc
 50
90.0
 51
180.0
  0
ARC
  5
1C8CDE6B1E2F
330
1C8CDE699D53
100
AcDbEntity
  8
SJC
100
AcDbCircle
 10
3064.880623688806
 20
1517.003637176596
 30
0.0
 40
6.0
100
AcDbArc
 50
270.0
 51
355.7519773332807
  0
ARC
  5
1C8CDE6B1E30
330
1C8CDE699D53
100
AcDbEntity
  8
SJC
100
AcDbCircle
 10
3226.435567902842
 20
1517.003637176593
 30
0.0
 40
6.0
100
AcDbArc
 50
184.2480226667193
 51
270.0
  0
ARC
  5
1C8CDE6B1E31
330
1C8CDE699D53
100
AcDbEntity
  8
SJC
100
AcDbCircle
 10
3230.658095795826
 20
1501.003637176596
 30
0.0
 40
10.0
100
AcDbArc
 50
0.0
 51
90.0
  0
LINE
  5
1C8CDE6B1E32
330
1C8CDE699D53
100
AcDbEntity
  8
SUNPOU
100
AcDbLine
 10
2945.683558616512
 20
1213.682082585768
 30
0.0
 11
3105.683558616512
 21
1213.682082585768
 31
0.0
  0
LINE
  5
1C8CDE6B1E33
330
1C8CDE699D53
100
AcDbEntity
  8
SUNPOU
100
AcDbLine
 10
3105.683558616512
 20
1213.682082585768
 30
0.0
 11
3105.683558616512
 21
1233.682082585768
 31
0.0
  0
LINE
  5
1C8CDE6B1E34
330
1C8CDE699D53
100
AcDbEntity
  8
SUNPOU
100
AcDbLine
 10
3105.683558616512
 20
1233.682082585768
 30
0.0
 11
3185.683558616512
 21
1193.682082585768
 31
0.0
  0
LINE
  5
1C8CDE6B1E35
330
1C8CDE699D53
100
AcDbEntity
  8
SUNPOU
100
AcDbLine
 10
3185.683558616512
 20
1193.682082585768
 30
0.0
 11
3185.683558616512
 21
1213.682082585768
 31
0.0
  0
LINE
  5
1C8CDE6B1E36
330
1C8CDE699D53
100
AcDbEntity
  8
SUNPOU
100
AcDbLine
 10
3185.683558616512
 20
1213.682082585768
 30
0.0
 11
3345.683558616512
 21
1213.682082585768
 31
0.0
  0
DIMENSION
  5
1C8CDE6B1E37
330
1C8CDE699D53
100
AcDbEntity
  8
SUNPOU
100
AcDbDimension
  2
*D11
 10
3329.644921437946
 20
1381.003637176595
 30
0.0
 11
3302.644921437945
 21
1431.003637176596
 31
0.0
 70
    32
 71
     5
 42
50.00000000000091
  3
SJC
100
AcDbAlignedDimension
 13
3230.658095795823
 23
1481.003637176596
 33
0.0
 14
3220.65809579582
 24
1381.003637176595
 34
0.0
 50
90.0
100
AcDbRotatedDimension
1001
ACAD
1000
DSTYLE
1002
{
1070
    40
1040
10.0
1070
    41
1040
2.0
1070
    42
1040
1.0
1070
    43
1040
6.0
1070
    44
1040
1.0
1070
   140
1040
3.0
1070
   144
1040
0.5
1070
   147
1040
1.199999999999999
1070
   176
1070
     0
1070
   177
1070
     0
1070
   178
1070
     0
1070
   179
1070
     2
1070
   271
1070
     2
1070
   340
1005
1C8CDE699DA6
1002
}
  0
DIMENSION
  5
1C8CDE6B1E38
330
1C8CDE699D53
100
AcDbEntity
  8
SUNPOU
100
AcDbDimension
  2
*D12
 10
3405.077170621126
 20
1377.003637176598
 30
0.0
 11
3370.220027763983
 21
1429.003637176597
 31
0.0
 70
    32
  1
(<>)
 71
     5
 42
51.99999999999818
  3
SJC
100
AcDbAlignedDimension
 13
3230.658095795823
 23
1481.003637176594
 33
0.0
 14
3230.658095795821
 24
1377.003637176598
 34
0.0
 50
90.0
100
AcDbRotatedDimension
1001
ACAD
1000
DSTYLE
1002
{
1070
    40
1040
10.0
1070
    41
1040
2.0
1070
    42
1040
1.0
1070
    43
1040
6.0
1070
    44
1040
1.0
1070
   140
1040
3.0
1070
   144
1040
0.5
1070
   147
1040
1.199999999999999
1070
   176
1070
     0
1070
   177
1070
     0
1070
   178
1070
     0
1070
   179
1070
     2
1070
   271
1070
     2
1070
   340
1005
1C8CDE699DA6
1002
}
  0
DIMENSION
  5
1C8CDE6B1E39
330
1C8CDE699D53
100
AcDbEntity
  8
SUNPOU
100
AcDbDimension
  2
*D13
 10
3145.658095795825
 20
1511.003637176596
 30
0.0
 11
3255.210194699514
 21
1650.11631677769
 31
0.0
 70
    36
 71
     5
 42
37.50000000000046
  3
SJC
100
AcDbRadialDimension
 15
3200.50195859812
 25
1562.161732458997
 35
0.0
 40
0.0
1001
ACAD
1000
DSTYLE
1002
{
1070
    40
1040
10.0
1070
    41
1040
2.0
1070
    42
1040
1.0
1070
    43
1040
6.0
1070
    44
1040
1.0
1070
   140
1040
3.0
1070
   144
1040
0.5
1070
   147
1040
1.199999999999999
1070
   176
1070
     0
1070
   177
1070
     0
1070
   178
1070
     0
1070
   179
1070
     2
1070
   271
1070
     2
1070
   279
1070
     0
1070
   340
1005
1C8CDE699DA6
1002
}
  0
LINE
  5
1C8CDE6B1E73
330
1C8CDE699D53
100
AcDbEntity
  8
CENTER
100
AcDbLine
 10
3145.674340628856
 20
1630.816234411145
 30
0.0
 11
3145.674340628856
 21
1160.609638956682
 31
0.0
  0
TEXT
  5
1C8CDE6B26BD
330
1C8CDE699D53
100
AcDbEntity
  8
INFORMATION
100
AcDbText
 10
1.0
 20
1.0
 30
0.0
 40
0.8
  1
VERSION=3.0
100
AcDbText
  0
ENDSEC
  0
SECTION
  2
OBJECTS
  0
DICTIONARY
  5
1C8CDE699D47
330
0
100
AcDbDictionary
281
     1
  3
ACAD_CIP_PREVIOUS_PRODUCT_INFO
350
1C8CDE6B247E
  3
ACAD_COLOR
350
1C8CDE6ACAC4
  3
ACAD_DETAILVIEWSTYLE
350
1C8CDE6B2477
  3
ACAD_GROUP
350
1C8CDE699D48
  3
ACAD_LAYOUT
350
1C8CDE6A9C9A
  3
ACAD_MATERIAL
350
1C8CDE6ACAC3
  3
ACAD_MLEADERSTYLE
350
1C8CDE6B2473
  3
ACAD_MLINESTYLE
350
1C8CDE699D49
  3
ACAD_PLOTSETTINGS
350
1C8CDE6A9C9B
  3
ACAD_PLOTSTYLENAME
350
1C8CDE6A9C98
  3
ACAD_SCALELIST
350
1C8CDE6B2461
  3
ACAD_SECTIONVIEWSTYLE
350
1C8CDE6B2475
  3
ACAD_TABLESTYLE
350
1C8CDE6ACAC5
  3
ACAD_VISUALSTYLE
350
1C8CDE6B2448
  3
ACDB_RECOMPOSE_DATA
350
1C8CDE6B2BDC
  3
AcDbVariableDictionary
350
1C8CDE6ABFFD
  3
DWGPROPS
350
1C8CDE6B2BDD
  0
DICTIONARY
  5
1C8CDE6B2622
330
1C8CDE699D43
100
AcDbDictionary
280
     1
281
     1
  0
DICTIONARY
  5
1C8CDE6ABB6A
330
1C8CDE699D3D
100
AcDbDictionary
280
     1
281
     1
  3
ACAD_LAYERFILTERS
360
1C8CDE6AFED7
  3
ACAD_LAYERSTATES
360
1C8CDE6ACB87
  3
ACLYDICTIONARY
360
1C8CDE6AFED6
  0
DICTIONARY
  5
1C8CDE6B24AE
330
1C8CDE699D4A
100
AcDbDictionary
280
     1
281
     1
  3
ADSK_XREC_LAYER_RECONCILED
360
1C8CDE6B24AF
  0
DICTIONARY
  5
1C8CDE6B24B0
330
1C8CDE699D71
100
AcDbDictionary
280
     1
281
     1
  3
ADSK_XREC_LAYER_RECONCILED
360
1C8CDE6B24B1
  0
DICTIONARY
  5
1C8CDE6B24B2
330
1C8CDE699D72
100
AcDbDictionary
280
     1
281
     1
  3
ADSK_XREC_LAYER_RECONCILED
360
1C8CDE6B24B3
  0
DICTIONARY
  5
1C8CDE6B24B4
330
1C8CDE699D74
100
AcDbDictionary
280
     1
281
     1
  3
ADSK_XREC_LAYER_RECONCILED
360
1C8CDE6B24B5
  0
DICTIONARY
  5
1C8CDE6B24B6
330
1C8CDE699D75
100
AcDbDictionary
280
     1
281
     1
  3
ADSK_XREC_LAYER_RECONCILED
360
1C8CDE6B24B7
  0
DICTIONARY
  5
1C8CDE6B24B8
330
1C8CDE699D77
100
AcDbDictionary
280
     1
281
     1
  3
ADSK_XREC_LAYER_RECONCILED
360
1C8CDE6B24B9
  0
DICTIONARY
  5
1C8CDE6B24BA
330
1C8CDE699D79
100
AcDbDictionary
280
     1
281
     1
  3
ADSK_XREC_LAYER_RECONCILED
360
1C8CDE6B24BB
  0
DICTIONARY
  5
1C8CDE6B24BC
330
1C8CDE699D8F
100
AcDbDictionary
280
     1
281
     1
  3
ADSK_XREC_LAYER_RECONCILED
360
1C8CDE6B24BD
  0
DICTIONARY
  5
1C8CDE6B24BE
330
1C8CDE699D92
100
AcDbDictionary
280
     1
281
     1
  3
ADSK_XREC_LAYER_RECONCILED
360
1C8CDE6B24BF
  0
DICTIONARY
  5
1C8CDE6B24C0
330
1C8CDE699D94
100
AcDbDictionary
280
     1
281
     1
  3
ADSK_XREC_LAYER_RECONCILED
360
1C8CDE6B24C1
  0
DICTIONARY
  5
1C8CDE6AB659
330
1C8CDE699D53
100
AcDbDictionary
280
     1
281
     1
  3
ACAD_LAYOUTSELFREF
360
1C8CDE6AB65A
  3
ACAD_SORTENTS
360
1C8CDE6AD138
  0
DICTIONARY
  5
1C8CDE6AB657
330
1C8CDE699D50
100
AcDbDictionary
280
     1
281
     1
  3
ACAD_LAYOUTSELFREF
360
1C8CDE6AB658
  0
XRECORD
  5
1C8CDE6B247E
102
{ACAD_REACTORS
330
1C8CDE699D47
102
}
330
1C8CDE699D47
100
AcDbXrecord
280
     1
300
ACD
300
2015
300
ACD_F_S
  0
DICTIONARY
  5
1C8CDE6ACAC4
102
{ACAD_REACTORS
330
1C8CDE699D47
102
}
330
1C8CDE699D47
100
AcDbDictionary
281
     1
  0
DICTIONARY
  5
1C8CDE6B2477
102
{ACAD_REACTORS
330
1C8CDE699D47
102
}
330
1C8CDE699D47
100
AcDbDictionary
281
     1
  3
Imperial24
350
1C8CDE6B2478
  0
DICTIONARY
  5
1C8CDE699D48
102
{ACAD_REACTORS
330
1C8CDE699D47
102
}
330
1C8CDE699D47
100
AcDbDictionary
281
     1
  0
DICTIONARY
  5
1C8CDE6A9C9A
102
{ACAD_REACTORS
330
1C8CDE699D47
102
}
330
1C8CDE699D47
100
AcDbDictionary
281
     1
  3
Model
350
1C8CDE6A9C9C
  3
ﾚｲｱｳﾄ1
350
1C8CDE6A9C9D
  0
DICTIONARY
  5
1C8CDE6ACAC3
102
{ACAD_REACTORS
330
1C8CDE699D47
102
}
330
1C8CDE699D47
100
AcDbDictionary
281
     1
  3
ByBlock
350
1C8CDE6B2438
  3
ByLayer
350
1C8CDE6B2430
  3
Global
350
1C8CDE6B2440
  0
DICTIONARY
  5
1C8CDE6B2473
102
{ACAD_REACTORS
330
1C8CDE699D47
102
}
330
1C8CDE699D47
100
AcDbDictionary
281
     1
  3
Standard
350
1C8CDE6B2474
  0
DICTIONARY
  5
1C8CDE699D49
102
{ACAD_REACTORS
330
1C8CDE699D47
102
}
330
1C8CDE699D47
100
AcDbDictionary
281
     1
  3
STANDARD
350
1C8CDE699D56
  0
DICTIONARY
  5
1C8CDE6A9C9B
102
{ACAD_REACTORS
330
1C8CDE699D47
102
}
330
1C8CDE699D47
100
AcDbDictionary
281
     1
  3
A1-A3
350
1C8CDE6B26A2
  3
A1-A4
350
1C8CDE6B26A4
  3
A1-B4
350
1C8CDE6B26A3
  3
加工図A4
350
1C8CDE6B2695
  3
加工図B4_1
350
1C8CDE6B2696
  3
加工図B4_10
350
1C8CDE6B269C
  3
加工図B4_15
350
1C8CDE6B269E
  3
加工図B4_2
350
1C8CDE6B2699
  3
加工図B4_20
350
1C8CDE6B26A0
  3
加工図B4_3
350
1C8CDE6B2697
  3
加工図B4_4
350
1C8CDE6B26A5
  3
加工図B4_5
350
1C8CDE6B269A
  3
加工図B4_6
350
1C8CDE6B26A1
  3
標準図A3_10
350
1C8CDE6B2698
  3
標準図A3_15
350
1C8CDE6B26A6
  3
標準図A3_20
350
1C8CDE6B269D
  3
標準図A3_50
350
1C8CDE6B269F
  3
標準図A4
350
1C8CDE6B269B
  3
標準図B4
350
1C8CDE6B26A7
  0
ACDBDICTIONARYWDFLT
  5
1C8CDE6A9C98
102
{ACAD_REACTORS
330
1C8CDE699D47
102
}
330
1C8CDE699D47
100
AcDbDictionary
281
     1
  3
Normal
350
1C8CDE6A9C99
100
AcDbDictionaryWithDefault
340
1C8CDE6A9C99
  0
DICTIONARY
  5
1C8CDE6B2461
102
{ACAD_REACTORS
330
1C8CDE699D47
102
}
330
1C8CDE699D47
100
AcDbDictionary
281
     1
  3
A0
350
1C8CDE6B2462
  3
A1
350
1C8CDE6B2463
  3
A2
350
1C8CDE6B2464
  3
A3
350
1C8CDE6B2465
  3
A4
350
1C8CDE6B2466
  3
A5
350
1C8CDE6B2467
  3
A6
350
1C8CDE6B2468
  3
A7
350
1C8CDE6B2469
  3
A8
350
1C8CDE6B246A
  3
A9
350
1C8CDE6B246B
  3
B0
350
1C8CDE6B246C
  3
B1
350
1C8CDE6B246D
  3
B2
350
1C8CDE6B246E
  3
B3
350
1C8CDE6B246F
  3
B4
350
1C8CDE6B2470
  3
B5
350
1C8CDE6B2471
  3
B6
350
1C8CDE6B2472
  0
DICTIONARY
  5
1C8CDE6B2475
102
{ACAD_REACTORS
330
1C8CDE699D47
102
}
330
1C8CDE699D47
100
AcDbDictionary
281
     1
  3
Imperial24
350
1C8CDE6B2476
  0
DICTIONARY
  5
1C8CDE6ACAC5
102
{ACAD_REACTORS
330
1C8CDE699D47
102
}
330
1C8CDE699D47
100
AcDbDictionary
281
     1
  3
Standard
350
1C8CDE6ACAC6
  0
DICTIONARY
  5
1C8CDE6B2448
102
{ACAD_REACTORS
330
1C8CDE699D47
102
}
330
1C8CDE699D47
100
AcDbDictionary
281
     1
  3
2dWireframe
350
1C8CDE6B244E
  3
Basic
350
1C8CDE6B244D
  3
Brighten
350
1C8CDE6B2454
  3
ColorChange
350
1C8CDE6B2458
  3
Conceptual
350
1C8CDE6B2451
  3
Dim
350
1C8CDE6B2453
  3
EdgeColorOff
350
1C8CDE6B2460
  3
Facepattern
350
1C8CDE6B2457
  3
Flat
350
1C8CDE6B2449
  3
FlatWithEdges
350
1C8CDE6B244A
  3
Gouraud
350
1C8CDE6B244B
  3
GouraudWithEdges
350
1C8CDE6B244C
  3
Hidden
350
1C8CDE6B2450
  3
JitterOff
350
1C8CDE6B245E
  3
Linepattern
350
1C8CDE6B2456
  3
OverhangOff
350
1C8CDE6B245F
  3
Realistic
350
1C8CDE6B2452
  3
Shaded
350
1C8CDE6B245D
  3
Shaded with edges
350
1C8CDE6B245C
  3
Shades of Gray
350
1C8CDE6B2459
  3
Sketchy
350
1C8CDE6B245A
  3
Thicken
350
1C8CDE6B2455
  3
Wireframe
350
1C8CDE6B244F
  3
X-Ray
350
1C8CDE6B245B
  0
XRECORD
  5
1C8CDE6B2BDC
102
{ACAD_REACTORS
330
1C8CDE699D47
102
}
330
1C8CDE699D47
100
AcDbXrecord
280
     1
 90
        1
330
1C8CDE6ACAC6
  0
DICTIONARY
  5
1C8CDE6ABFFD
102
{ACAD_REACTORS
330
1C8CDE699D47
102
}
330
1C8CDE699D47
100
AcDbDictionary
281
     1
  3
CANNOSCALE
350
1C8CDE6B268C
  3
CMLEADERSTYLE
350
1C8CDE6B2689
  3
CTABLESTYLE
350
1C8CDE6AD0E6
  3
CVIEWDETAILSTYLE
350
1C8CDE6B268A
  3
CVIEWSECTIONSTYLE
350
1C8CDE6B268B
  3
DIMASSOC
350
1C8CDE6AECFA
  3
INDEXCTL
350
1C8CDE6B268D
  3
PROJECTNAME
350
1C8CDE6AECFB
  3
SORTENTS
350
1C8CDE6ABFFE
  3
XCLIPFRAME
350
1C8CDE6B2BDA
  0
XRECORD
  5
1C8CDE6B2BDD
102
{ACAD_REACTORS
330
1C8CDE699D47
102
}
330
1C8CDE699D47
100
AcDbXrecord
280
     1
  1
DWGPROPS COOKIE
  2

  3

  4

  6

  7

  8
SK000049
  9

300
=
301
=
302
=
303
=
304
=
305
=
306
=
307
=
308
=
309
=
 40
1.046181284722222
 41
2450469.547535764
 42
2459984.731714653
  1

 90
        0
  0
DICTIONARY
  5
1C8CDE6AFED7
102
{ACAD_REACTORS
330
1C8CDE6ABB6A
102
}
330
1C8CDE6ABB6A
100
AcDbDictionary
281
     1
  0
DICTIONARY
  5
1C8CDE6ACB87
102
{ACAD_REACTORS
330
1C8CDE6ABB6A
102
}
330
1C8CDE6ABB6A
100
AcDbDictionary
281
     1
  0
DICTIONARY
  5
1C8CDE6AFED6
102
{ACAD_REACTORS
330
1C8CDE6ABB6A
102
}
330
1C8CDE6ABB6A
100
AcDbDictionary
281
     1
1001
ACAD
1000
<All
  0
XRECORD
  5
1C8CDE6B24AF
102
{ACAD_REACTORS
330
1C8CDE6B24AE
102
}
330
1C8CDE6B24AE
100
AcDbXrecord
280
     1
290
     1
  0
XRECORD
  5
1C8CDE6B24B1
102
{ACAD_REACTORS
330
1C8CDE6B24B0
102
}
330
1C8CDE6B24B0
100
AcDbXrecord
280
     1
290
     1
  0
XRECORD
  5
1C8CDE6B24B3
102
{ACAD_REACTORS
330
1C8CDE6B24B2
102
}
330
1C8CDE6B24B2
100
AcDbXrecord
280
     1
290
     1
  0
XRECORD
  5
1C8CDE6B24B5
102
{ACAD_REACTORS
330
1C8CDE6B24B4
102
}
330
1C8CDE6B24B4
100
AcDbXrecord
280
     1
290
     1
  0
XRECORD
  5
1C8CDE6B24B7
102
{ACAD_REACTORS
330
1C8CDE6B24B6
102
}
330
1C8CDE6B24B6
100
AcDbXrecord
280
     1
290
     1
  0
XRECORD
  5
1C8CDE6B24B9
102
{ACAD_REACTORS
330
1C8CDE6B24B8
102
}
330
1C8CDE6B24B8
100
AcDbXrecord
280
     1
290
     1
  0
XRECORD
  5
1C8CDE6B24BB
102
{ACAD_REACTORS
330
1C8CDE6B24BA
102
}
330
1C8CDE6B24BA
100
AcDbXrecord
280
     1
290
     1
  0
XRECORD
  5
1C8CDE6B24BD
102
{ACAD_REACTORS
330
1C8CDE6B24BC
102
}
330
1C8CDE6B24BC
100
AcDbXrecord
280
     1
290
     1
  0
XRECORD
  5
1C8CDE6B24BF
102
{ACAD_REACTORS
330
1C8CDE6B24BE
102
}
330
1C8CDE6B24BE
100
AcDbXrecord
280
     1
290
     1
  0
XRECORD
  5
1C8CDE6B24C1
102
{ACAD_REACTORS
330
1C8CDE6B24C0
102
}
330
1C8CDE6B24C0
100
AcDbXrecord
280
     1
290
     1
  0
XRECORD
  5
1C8CDE6AB65A
102
{ACAD_REACTORS
330
1C8CDE6AB659
102
}
330
1C8CDE6AB659
100
AcDbXrecord
280
     1
340
1C8CDE699D53
  0
SORTENTSTABLE
  5
1C8CDE6AD138
102
{ACAD_REACTORS
330
1C8CDE6AB659
102
}
330
1C8CDE6AB659
100
AcDbSortentsTable
330
1C8CDE699D53
331
1C8CDE6B0D66
  5
1C8CDE6B0D85
331
1C8CDE6AEE03
  5
1C8CDE6AEE03
331
1C8CDE6B12BF
  5
1C8CDE6B143A
331
1C8CDE6B12BB
  5
1C8CDE6B12D2
331
1C8CDE6B1C5C
  5
1C8CDE6B1C5C
331
1C8CDE6B1C58
  5
1C8CDE6B1C58
331
1C8CDE6B14F9
  5
1C8CDE6B14FF
331
1C8CDE6B1C93
  5
1C8CDE6B1CA2
331
1C8CDE699AB7
  5
1C8CDE699AB7
331
1C8CDE6A98D6
  5
1C8CDE6A98D6
331
1C8CDE6AEDFF
  5
1C8CDE6AEDFF
331
1C8CDE6B0D3E
  5
1C8CDE6B0D53
331
1C8CDE6B0D3A
  5
1C8CDE6B0D4E
331
1C8CDE6B12B3
  5
1C8CDE6B12CE
331
1C8CDE6B1C50
  5
1C8CDE6B1C50
331
1C8CDE6B1C8B
  5
1C8CDE6B1C8D
331
1C8CDE6B1442
  5
1C8CDE6B14FA
331
1C8CDE6B1C87
  5
1C8CDE6B1C89
331
1C8CDE6B1C83
  5
1C8CDE6B1C85
331
1C8CDE69ABEB
  5
1C8CDE69ABEB
331
1C8CDE6A98CA
  5
1C8CDE6A98CA
331
1C8CDE69ABE7
  5
1C8CDE69ABE7
331
1C8CDE699A93
  5
1C8CDE699A93
331
1C8CDE699BCA
  5
1C8CDE699BCA
331
1C8CDE6A9B5D
  5
1C8CDE6A9B5D
331
1C8CDE6ACA53
  5
1C8CDE6ACCC3
331
1C8CDE6A98C6
  5
1C8CDE6A98C6
331
1C8CDE69ABE3
  5
1C8CDE69ABE3
331
1C8CDE6ABA1D
  5
1C8CDE6ABA1D
331
1C8CDE6ACA4F
  5
1C8CDE6ACA51
331
1C8CDE6AC578
  5
1C8CDE6AC578
331
1C8CDE6A98C2
  5
1C8CDE6A98C2
331
1C8CDE6ABA19
  5
1C8CDE6ABA19
331
1C8CDE6ACA4B
  5
1C8CDE6ACA4D
331
1C8CDE6B0D36
  5
1C8CDE6B0D46
331
1C8CDE6B0D32
  5
1C8CDE6B0D38
331
1C8CDE6B143E
  5
1C8CDE6B14A8
331
1C8CDE6B143A
  5
1C8CDE6B14A4
331
1C8CDE6B1C7F
  5
1C8CDE6B1C81
331
1C8CDE6B1436
  5
1C8CDE6B147F
331
1C8CDE6B19D0
  5
1C8CDE6B19D0
331
1C8CDE6B1C7B
  5
1C8CDE6B1C7D
331
1C8CDE6B1432
  5
1C8CDE6B1473
331
1C8CDE6B19CC
  5
1C8CDE6B19CC
331
1C8CDE6B1C77
  5
1C8CDE6B1C79
331
1C8CDE6B1C73
  5
1C8CDE6B1C73
331
1C8CDE699BC6
  5
1C8CDE699BC6
331
1C8CDE69ABDF
  5
1C8CDE69ABDF
331
1C8CDE6A9B45
  5
1C8CDE6A9B45
331
1C8CDE699A6F
  5
1C8CDE699A6F
331
1C8CDE6ACA47
  5
1C8CDE6ACA49
331
1C8CDE69AB3F
  5
1C8CDE69AB3F
331
1C8CDE6ACA43
  5
1C8CDE6ACA45
331
1C8CDE6A9B3D
  5
1C8CDE6A9B3D
331
1C8CDE6AB995
  5
1C8CDE6AB995
331
1C8CDE6ABB68
  5
1C8CDE6ABB68
331
1C8CDE6AC9DB
  5
1C8CDE6AC9DB
331
1C8CDE6B142E
  5
1C8CDE6B1463
331
1C8CDE6B142A
  5
1C8CDE6B1444
331
1C8CDE6B0D6F
  5
1C8CDE6B0D90
331
1C8CDE6B1426
  5
1C8CDE6B143F
331
1C8CDE6B18F8
  5
1C8CDE6B18F8
331
1C8CDE6B1C6B
  5
1C8CDE6B1C6B
331
1C8CDE6B0D6B
  5
1C8CDE6B0D8C
331
1C8CDE6B18F4
  5
1C8CDE6B18F4
331
1C8CDE6B1C67
  5
1C8CDE6B1C67
331
1C8CDE6B1C63
  5
1C8CDE6B1C63
331
23A94
  5
23A94
331
1C8CDE6AC9D7
  5
1C8CDE6AC9D7
331
1C8CDE6A98E9
  5
1C8CDE6A98E9
331
1C8CDE699A4B
  5
1C8CDE699A4B
331
1C8CDE6A98E5
  5
1C8CDE6A98E5
331
1C8CDE699738
  5
1C8CDE699738
331
1C8CDE6AEE02
  5
1C8CDE6AEE02
331
1C8CDE6B12BE
  5
1C8CDE6B1439
331
1C8CDE6B147D
  5
1C8CDE6B0D4A
331
1C8CDE6B1C5F
  5
1C8CDE6B1C5F
331
1C8CDE6B1CAA
  5
1C8CDE6B1C78
331
1C8CDE6B14FC
  5
1C8CDE6B15A1
331
1C8CDE6B1C5B
  5
1C8CDE6B1C5B
331
1C8CDE6B1C92
  5
1C8CDE6B1C95
331
1C8CDE699A27
  5
1C8CDE699A27
331
1C8CDE6A98D9
  5
1C8CDE6A98D9
331
1C8CDE6A98D5
  5
1C8CDE6A98D5
331
1C8CDE6AC657
  5
1C8CDE6AC657
331
1C8CDE6AEDFE
  5
1C8CDE6AEDFE
331
1C8CDE6B0D41
  5
1C8CDE6B0D55
331
1C8CDE6B0D3D
  5
1C8CDE6B0D52
331
1C8CDE6B0D39
  5
1C8CDE6B0D4D
331
1C8CDE6B12B2
  5
1C8CDE6B12CD
331
1C8CDE6B1471
  5
1C8CDE6B0D37
331
1C8CDE6B1C4F
  5
1C8CDE6B1C4F
331
1C8CDE6B1C8A
  5
1C8CDE6B1C8C
331
1C8CDE6B1441
  5
1C8CDE6B14F9
331
1C8CDE6B1C82
  5
1C8CDE6B1C84
331
1C8CDE69ABEE
  5
1C8CDE69ABEE
331
1C8CDE6A98CD
  5
1C8CDE6A98CD
331
1C8CDE69ABEA
  5
1C8CDE69ABEA
331
1C8CDE6A98C9
  5
1C8CDE6A98C9
331
1C8CDE69ABE6
  5
1C8CDE69ABE6
331
1C8CDE699A03
  5
1C8CDE699A03
331
1C8CDE699BC9
  5
1C8CDE699BC9
331
1C8CDE6ACA52
  5
1C8CDE6ACCC0
331
1C8CDE6A98C5
  5
1C8CDE6A98C5
331
1C8CDE69ABE2
  5
1C8CDE69ABE2
331
1C8CDE6ACA4E
  5
1C8CDE6ACA50
331
1C8CDE6ACA4A
  5
1C8CDE6ACA4C
331
1C8CDE6AD156
  5
1C8CDE6ACA41
331
1C8CDE6B0D2D
  5
1C8CDE6B0D2D
331
1C8CDE6B0D86
  5
1C8CDE6B12C9
331
1C8CDE6B143D
  5
1C8CDE6B14A7
331
1C8CDE6B0D82
  5
1C8CDE6B0DAA
331
1C8CDE6B1439
  5
1C8CDE6B14A3
331
1C8CDE6B19D3
  5
1C8CDE6B19D3
331
1C8CDE6B1435
  5
1C8CDE6B147E
331
1C8CDE6B1431
  5
1C8CDE6B1472
331
1C8CDE6B19CB
  5
1C8CDE6B19CB
331
1C8CDE6B14BC
  5
1C8CDE6B14FE
331
1C8CDE6B1C76
  5
1C8CDE6B1C76
331
1C8CDE6B1C72
  5
1C8CDE6B1C72
331
1C8CDE699BC5
  5
1C8CDE699BC5
331
1C8CDE69ABDE
  5
1C8CDE69ABDE
331
1C8CDE6A9B44
  5
1C8CDE6A9B44
331
1C8CDE6ACA46
  5
1C8CDE6ACA48
331
1C8CDE6ACA42
  5
1C8CDE6ACA44
331
1C8CDE6A9B3C
  5
1C8CDE6A9B3C
331
1C8CDE6AC9DA
  5
1C8CDE6AC9DA
331
1C8CDE6B142D
  5
1C8CDE6B1462
331
1C8CDE6B14A4
  5
1C8CDE6B0D44
331
1C8CDE6B1C6E
  5
1C8CDE6B1C6E
331
1C8CDE6B0D6E
  5
1C8CDE6B0D8F
331
1C8CDE6B1425
  5
1C8CDE6B143E
331
1C8CDE6B18F7
  5
1C8CDE6B18F7
331
1C8CDE6B0D6A
  5
1C8CDE6B0D8B
331
1C8CDE6B1C66
  5
1C8CDE6B1C66
331
1C8CDE6B1C62
  5
1C8CDE6B1C62
331
1C8CDE6AC9D6
  5
1C8CDE6AC9D6
331
1C8CDE6A98E8
  5
1C8CDE6A98E8
331
1C8CDE69A696
  5
1C8CDE69A696
331
1C8CDE699AC9
  5
1C8CDE699AC9
331
1C8CDE6A98E4
  5
1C8CDE6A98E4
331
1C8CDE6ABB57
  5
1C8CDE6ABB57
331
1C8CDE6B0D64
  5
1C8CDE6B0D83
331
1C8CDE6B1405
  5
1C8CDE6B143B
331
1C8CDE6AEE01
  5
1C8CDE6AEE01
331
1C8CDE6B12BD
  5
1C8CDE6B12D4
331
1C8CDE6B14FB
  5
1C8CDE6B152E
331
1C8CDE6B1C5A
  5
1C8CDE6B1C5A
331
1C8CDE6B1C91
  5
1C8CDE6B1C93
331
1C8CDE699EBE
  5
1C8CDE699EBE
331
1C8CDE6A98D8
  5
1C8CDE6A98D8
331
1C8CDE6A98D4
  5
1C8CDE6A98D4
331
1C8CDE6AC656
  5
1C8CDE6AC656
331
1C8CDE6B0D44
  5
1C8CDE6B0D82
331
1C8CDE6B12B5
  5
1C8CDE6B12D1
331
1C8CDE6B0D38
  5
1C8CDE6B0D4C
331
1C8CDE6B12B1
  5
1C8CDE6B12CB
331
1C8CDE6B1C8D
  5
1C8CDE6B1C8F
331
1C8CDE6B1444
  5
1C8CDE6B14FB
331
1C8CDE6B1C4E
  5
1C8CDE6B1C4E
331
1C8CDE6B1C89
  5
1C8CDE6B1C8B
331
1C8CDE6B1440
  5
1C8CDE6B14BC
331
1C8CDE6B1C85
  5
1C8CDE6B1C87
331
1C8CDE6B1C81
  5
1C8CDE6B1C83
331
1C8CDE699AA5
  5
1C8CDE699AA5
331
1C8CDE69ABED
  5
1C8CDE69ABED
331
1C8CDE6ABA27
  5
1C8CDE6ABA27
331
1C8CDE69ABE9
  5
1C8CDE69ABE9
331
1C8CDE6A98C8
  5
1C8CDE6A98C8
331
1C8CDE69ABE5
  5
1C8CDE69ABE5
331
1C8CDE699BC8
  5
1C8CDE699BC8
331
1C8CDE6ABA1F
  5
1C8CDE6ABA1F
331
1C8CDE6ACA51
  5
1C8CDE6ACA53
331
1C8CDE6A98C4
  5
1C8CDE6A98C4
331
1C8CDE69ABE1
  5
1C8CDE69ABE1
331
1C8CDE6ACA4D
  5
1C8CDE6ACA4F
331
1C8CDE6ACA49
  5
1C8CDE6ACA4B
331
1C8CDE6AD155
  5
1C8CDE6ACA42
331
1C8CDE6B0D85
  5
1C8CDE6B0DAF
331
1C8CDE6B143C
  5
1C8CDE6B14A6
331
1C8CDE6B0D81
  5
1C8CDE6B0DA7
331
1C8CDE6B1438
  5
1C8CDE6B1489
331
1C8CDE6B19D2
  5
1C8CDE6B19D2
331
1C8CDE6B1C7D
  5
1C8CDE6B1C7F
331
1C8CDE6B0D7D
  5
1C8CDE6B0D99
331
1C8CDE6B1434
  5
1C8CDE6B1479
331
1C8CDE6B19CE
  5
1C8CDE6B19CE
331
1C8CDE6B1430
  5
1C8CDE6B1469
331
1C8CDE6B19CA
  5
1C8CDE6B19CA
331
1C8CDE6B14BB
  5
1C8CDE6B14FD
331
1C8CDE6B1C71
  5
1C8CDE6B1C71
331
1C8CDE699BC4
  5
1C8CDE699BC4
331
1C8CDE699A81
  5
1C8CDE699A81
331
1C8CDE6AB9A3
  5
1C8CDE6AB9A3
331
1C8CDE6ACA45
  5
1C8CDE6ACA47
331
1C8CDE6AB997
  5
1C8CDE6AB997
331
1C8CDE6ACA41
  5
1C8CDE6ACA43
331
1C8CDE6ABB66
  5
1C8CDE6ABB66
331
1C8CDE6AFD64
  5
1C8CDE6AFD6B
331
1C8CDE6B142C
  5
1C8CDE6B1447
331
1C8CDE6B1428
  5
1C8CDE6B1441
331
1C8CDE6B1C6D
  5
1C8CDE6B1C6D
331
1C8CDE6B1424
  5
1C8CDE6B143C
331
1C8CDE6B0D6D
  5
1C8CDE6B0D8E
331
1C8CDE6B1487
  5
1C8CDE6B0D94
331
1C8CDE6B18F6
  5
1C8CDE6B18F6
331
1C8CDE6B1C69
  5
1C8CDE6B1C69
331
1C8CDE6B0D69
  5
1C8CDE6B0D8A
331
1C8CDE6B1C65
  5
1C8CDE6B1C65
331
23A96
  5
23A96
331
1C8CDE6B1C61
  5
1C8CDE6B1C61
331
23A8E
  5
23A8E
331
23A8A
  5
23A8A
331
1C8CDE699A5D
  5
1C8CDE699A5D
331
1C8CDE6AB8E7
  5
1C8CDE6AB8E7
331
1C8CDE6A98EB
  5
1C8CDE6A98EB
331
1C8CDE6ABB5E
  5
1C8CDE6ABB5E
331
1C8CDE6A98E7
  5
1C8CDE6A98E7
331
1C8CDE6A98E3
  5
1C8CDE6A98E3
331
1C8CDE6ABB56
  5
1C8CDE6ABB56
331
1C8CDE6AFB60
  5
1C8CDE6AFB60
331
1C8CDE6B0D67
  5
1C8CDE6B0D86
331
1C8CDE6B158A
  5
1C8CDE6B12CF
331
1C8CDE6B12BC
  5
1C8CDE6B12D3
331
1C8CDE6B1C5D
  5
1C8CDE6B1C5D
331
1C8CDE6B1C59
  5
1C8CDE6B1C59
331
1C8CDE6B14FA
  5
1C8CDE6B152D
331
1C8CDE6B1C90
  5
1C8CDE6B1C92
331
1C8CDE699A39
  5
1C8CDE699A39
331
1C8CDE6B1477
  5
1C8CDE6B0D47
331
1C8CDE6B0D3B
  5
1C8CDE6B0D51
331
1C8CDE6B12B4
  5
1C8CDE6B12D0
331
1C8CDE6B1C8C
  5
1C8CDE6B1C8E
331
1C8CDE6B1C88
  5
1C8CDE6B1C8A
331
1C8CDE6B1C84
  5
1C8CDE6B1C86
331
1C8CDE6B0D88
  5
1C8CDE6B12CA
331
1C8CDE6B1C80
  5
1C8CDE6B1C82
331
1C8CDE699A15
  5
1C8CDE699A15
331
1C8CDE69ABEC
  5
1C8CDE69ABEC
331
1C8CDE6A9B62
  5
1C8CDE6A9B62
331
1C8CDE69ABE8
  5
1C8CDE69ABE8
331
1C8CDE6ABA26
  5
1C8CDE6ABA26
331
1C8CDE699BCB
  5
1C8CDE699BCB
331
1C8CDE6A98C7
  5
1C8CDE6A98C7
331
1C8CDE69ABE4
  5
1C8CDE69ABE4
331
1C8CDE6A98C3
  5
1C8CDE6A98C3
331
1C8CDE69ABE0
  5
1C8CDE69ABE0
331
1C8CDE6ABA1E
  5
1C8CDE6ABA1E
331
1C8CDE6ACA50
  5
1C8CDE6ACA52
331
1C8CDE6ABA1A
  5
1C8CDE6ABA1A
331
1C8CDE6ACA4C
  5
1C8CDE6ACA4E
331
1C8CDE6ACA48
  5
1C8CDE6ACA4A
331
1C8CDE6B0D37
  5
1C8CDE6B0D4B
331
1C8CDE6B0D33
  5
1C8CDE6B0D3C
331
1C8CDE6B0D2F
  5
1C8CDE6B0D2F
331
1C8CDE6B143F
  5
1C8CDE6B14BB
331
1C8CDE6B0D84
  5
1C8CDE6B0DAE
331
1C8CDE6B1437
  5
1C8CDE6B1488
331
1C8CDE6B19D1
  5
1C8CDE6B19D1
331
1C8CDE6B1433
  5
1C8CDE6B1478
331
1C8CDE6B19CD
  5
1C8CDE6B19CD
331
1C8CDE6B14BA
  5
1C8CDE6B0D3F
331
1C8CDE6B1C70
  5
1C8CDE6B1C70
331
23A9D
  5
23A9D
331
1C8CDE699BC7
  5
1C8CDE699BC7
331
1C8CDE6999F1
  5
1C8CDE6999F1
331
1C8CDE6A8ACB
  5
1C8CDE6A8ACB
331
1C8CDE69976D
  5
1C8CDE69976D
331
1C8CDE699B8B
  5
1C8CDE699B8B
331
1C8CDE69B617
  5
1C8CDE69B617
331
1C8CDE6ACA44
  5
1C8CDE6ACA46
331
1C8CDE6AB996
  5
1C8CDE6AB996
331
1C8CDE6ABB69
  5
1C8CDE6ABB69
331
1C8CDE6ABB65
  5
1C8CDE6ABB65
331
1C8CDE6B142F
  5
1C8CDE6B1468
331
1C8CDE6B14A6
  5
1C8CDE6B14FC
331
1C8CDE6B0D70
  5
1C8CDE6B0D91
331
1C8CDE6B1C68
  5
1C8CDE6B1C68
331
1C8CDE6B0D6C
  5
1C8CDE6B0D8D
331
1C8CDE6B1C64
  5
1C8CDE6B1C64
331
1C8CDE6B0D68
  5
1C8CDE6B0D88
331
1C8CDE6B1C60
  5
1C8CDE6B1C60
331
23A89
  5
23A89
331
1C8CDE699ADB
  5
1C8CDE699ADB
331
1C8CDE69AB34
  5
1C8CDE69AB34
331
1C8CDE699761
  5
1C8CDE699761
331
1C8CDE6A98EA
  5
1C8CDE6A98EA
331
1C8CDE6AB8E6
  5
1C8CDE6AB8E6
331
1C8CDE69B5FF
  5
1C8CDE69B5FF
331
1C8CDE6A98E6
  5
1C8CDE6A98E6
331
1C8CDE6A98E2
  5
1C8CDE6A98E2
  0
XRECORD
  5
1C8CDE6AB658
102
{ACAD_REACTORS
330
1C8CDE6AB657
102
}
330
1C8CDE6AB657
100
AcDbXrecord
280
     1
340
1C8CDE699D50
  0
ACDBDETAILVIEWSTYLE
  5
1C8CDE6B2478
102
{ACAD_XDICTIONARY
360
1C8CDE6B2C1A
102
}
102
{ACAD_REACTORS
330
1C8CDE6B2477
102
}
330
1C8CDE6B2477
100
AcDbModelDocViewStyle
 70
     0
  3
Imperial24
290
     0
100
AcDbDetailViewStyle
 70
     0
 71
     0
 90
        3
 71
     1
340
1C8CDE699D4B
 40
0.24
340
0
 40
0.24
300

 40
0.36
280
     3
 71
     2
340
1C8CDE699D4F
 90
       25
 71
     3
340
1C8CDE699D4B
 40
0.24
 90
        1
 40
0.75
 90
        1
300
%<\AcVar ViewType \f "%tc1">% %<\AcVar ViewDetailId>%\PSCALE %<\AcVar ViewScale \f "%sn">%
 71
     4
340
1C8CDE699D4F
 90
       25
340
1C8CDE699D4F
 90
       25
280
     0
  0
LAYOUT
  5
1C8CDE6A9C9C
102
{ACAD_XDICTIONARY
360
1C8CDE6B2BDE
102
}
102
{ACAD_REACTORS
330
1C8CDE6A9C9A
102
}
330
1C8CDE6A9C9A
100
AcDbPlotSettings
  1
標準図A4
  2
CNSAcrobat PDFWriter6.pc3
  4
UserDefinedMetric (168.00 X 118.00ミリ)
  6

 40
3.200000047683715
 41
3.200000047683715
 42
3.199996948242187
 43
3.199996948242187
 44
168.0
 45
118.0
 46
0.0
 47
0.0
 48
0.0
 49
0.0
140
0.0
141
0.0
142
1.0
143
675.9677237396314
 70
  3760
 72
     0
 73
     0
 74
     2
  7
CALCOMP_TECHJET720.ctb
 75
     0
147
0.0014793605743004
148
0.0
149
0.0
100
AcDbLayout
  1
Model
 70
     1
 71
     0
 10
0.0
 20
0.0
 11
12.0
 21
9.0
 12
0.0
 22
0.0
 32
0.0
 14
0.0
 24
0.0
 34
0.0
 15
0.0
 25
0.0
 35
0.0
146
0.0
 13
0.0
 23
0.0
 33
0.0
 16
1.0
 26
0.0
 36
0.0
 17
0.0
 27
1.0
 37
0.0
 76
     0
330
1C8CDE699D53
331
1C8CDE6B2403
1001
ACAD_PSEXT
1000
CNSAcrobat PDFWriter6.pc3
1000
DWG To PDF
1000
ファイル
1000

1070
     0
  0
LAYOUT
  5
1C8CDE6A9C9D
102
{ACAD_XDICTIONARY
360
1C8CDE6B2BE0
102
}
102
{ACAD_REACTORS
330
1C8CDE6A9C9A
102
}
330
1C8CDE6A9C9A
100
AcDbPlotSettings
  1

  2
LBP-A309
  4

  6

 40
0.0
 41
0.0
 42
0.0
 43
0.0
 44
0.0
 45
0.0
 46
0.0
 47
0.0
 48
0.0
 49
0.0
140
0.0
141
0.0
142
1.0
143
1.0
 70
   688
 72
     0
 73
     0
 74
     5
  7
hatta.ctb
 75
    16
147
1.0
148
0.0
149
0.0
100
AcDbLayout
  1
ﾚｲｱｳﾄ1
 70
     0
 71
     1
 10
0.0
 20
0.0
 11
12.0
 21
9.0
 12
0.0
 22
0.0
 32
0.0
 14
1.000000000000000E+20
 24
1.000000000000000E+20
 34
1.000000000000000E+20
 15
-1.000000000000000E+20
 25
-1.000000000000000E+20
 35
-1.000000000000000E+20
146
0.0
 13
0.0
 23
0.0
 33
0.0
 16
1.0
 26
0.0
 36
0.0
 17
0.0
 27
1.0
 37
0.0
 76
     0
330
1C8CDE699D50
  0
MATERIAL
  5
1C8CDE6B2438
102
{ACAD_XDICTIONARY
360
1C8CDE6B2439
102
}
102
{ACAD_REACTORS
330
1C8CDE6ACAC3
102
}
330
1C8CDE6ACAC3
100
AcDbMaterial
  1
ByBlock
 72
     0
 43
0.0208333333333333
 43
0.0
 43
0.0
 43
0.0
 43
0.0
 43
0.0208333333333333
 43
0.0
 43
0.0
 43
0.0
 43
0.0
 43
1.0
 43
0.0
 43
0.0
 43
0.0
 43
0.0
 43
1.0
 77
     0
 47
0.0208333333333333
 47
0.0
 47
0.0
 47
0.0
 47
0.0
 47
0.0208333333333333
 47
0.0
 47
0.0
 47
0.0
 47
0.0
 47
1.0
 47
0.0
 47
0.0
 47
0.0
 47
0.0
 47
1.0
171
     0
 49
0.0208333333333333
 49
0.0
 49
0.0
 49
0.0
 49
0.0
 49
0.0208333333333333
 49
0.0
 49
0.0
 49
0.0
 49
0.0
 49
1.0
 49
0.0
 49
0.0
 49
0.0
 49
0.0
 49
1.0
175
     0
142
0.0208333333333333
142
0.0
142
0.0
142
0.0
142
0.0
142
0.0208333333333333
142
0.0
142
0.0
142
0.0
142
0.0
142
1.0
142
0.0
142
0.0
142
0.0
142
0.0
142
1.0
179
     0
144
0.0208333333333333
144
0.0
144
0.0
144
0.0
144
0.0
144
0.0208333333333333
144
0.0
144
0.0
144
0.0
144
0.0
144
1.0
144
0.0
144
0.0
144
0.0
144
0.0
144
1.0
147
0.0208333333333333
147
0.0
147
0.0
147
0.0
147
0.0
147
0.0208333333333333
147
0.0
147
0.0
147
0.0
147
0.0
147
1.0
147
0.0
147
0.0
147
0.0
147
0.0
147
1.0
  0
MATERIAL
  5
1C8CDE6B2430
102
{ACAD_XDICTIONARY
360
1C8CDE6B2431
102
}
102
{ACAD_REACTORS
330
1C8CDE6ACAC3
102
}
330
1C8CDE6ACAC3
100
AcDbMaterial
  1
ByLayer
 72
     0
 43
0.0208333333333333
 43
0.0
 43
0.0
 43
0.0
 43
0.0
 43
0.0208333333333333
 43
0.0
 43
0.0
 43
0.0
 43
0.0
 43
1.0
 43
0.0
 43
0.0
 43
0.0
 43
0.0
 43
1.0
 77
     0
 47
0.0208333333333333
 47
0.0
 47
0.0
 47
0.0
 47
0.0
 47
0.0208333333333333
 47
0.0
 47
0.0
 47
0.0
 47
0.0
 47
1.0
 47
0.0
 47
0.0
 47
0.0
 47
0.0
 47
1.0
171
     0
 49
0.0208333333333333
 49
0.0
 49
0.0
 49
0.0
 49
0.0
 49
0.0208333333333333
 49
0.0
 49
0.0
 49
0.0
 49
0.0
 49
1.0
 49
0.0
 49
0.0
 49
0.0
 49
0.0
 49
1.0
175
     0
142
0.0208333333333333
142
0.0
142
0.0
142
0.0
142
0.0
142
0.0208333333333333
142
0.0
142
0.0
142
0.0
142
0.0
142
1.0
142
0.0
142
0.0
142
0.0
142
0.0
142
1.0
179
     0
144
0.0208333333333333
144
0.0
144
0.0
144
0.0
144
0.0
144
0.0208333333333333
144
0.0
144
0.0
144
0.0
144
0.0
144
1.0
144
0.0
144
0.0
144
0.0
144
0.0
144
1.0
147
0.0208333333333333
147
0.0
147
0.0
147
0.0
147
0.0
147
0.0208333333333333
147
0.0
147
0.0
147
0.0
147
0.0
147
1.0
147
0.0
147
0.0
147
0.0
147
0.0
147
1.0
  0
MATERIAL
  5
1C8CDE6B2440
102
{ACAD_XDICTIONARY
360
1C8CDE6B2441
102
}
102
{ACAD_REACTORS
330
1C8CDE6ACAC3
102
}
330
1C8CDE6ACAC3
100
AcDbMaterial
  1
Global
 72
     0
 43
0.0208333333333333
 43
0.0
 43
0.0
 43
0.0
 43
0.0
 43
0.0208333333333333
 43
0.0
 43
0.0
 43
0.0
 43
0.0
 43
1.0
 43
0.0
 43
0.0
 43
0.0
 43
0.0
 43
1.0
 77
     0
 47
0.0208333333333333
 47
0.0
 47
0.0
 47
0.0
 47
0.0
 47
0.0208333333333333
 47
0.0
 47
0.0
 47
0.0
 47
0.0
 47
1.0
 47
0.0
 47
0.0
 47
0.0
 47
0.0
 47
1.0
171
     0
 49
0.0208333333333333
 49
0.0
 49
0.0
 49
0.0
 49
0.0
 49
0.0208333333333333
 49
0.0
 49
0.0
 49
0.0
 49
0.0
 49
1.0
 49
0.0
 49
0.0
 49
0.0
 49
0.0
 49
1.0
175
     0
142
0.0208333333333333
142
0.0
142
0.0
142
0.0
142
0.0
142
0.0208333333333333
142
0.0
142
0.0
142
0.0
142
0.0
142
1.0
142
0.0
142
0.0
142
0.0
142
0.0
142
1.0
179
     0
144
0.0208333333333333
144
0.0
144
0.0
144
0.0
144
0.0
144
0.0208333333333333
144
0.0
144
0.0
144
0.0
144
0.0
144
1.0
144
0.0
144
0.0
144
0.0
144
0.0
144
1.0
147
0.0208333333333333
147
0.0
147
0.0
147
0.0
147
0.0
147
0.0208333333333333
147
0.0
147
0.0
147
0.0
147
0.0
147
1.0
147
0.0
147
0.0
147
0.0
147
0.0
147
1.0
  0
MLEADERSTYLE
  5
1C8CDE6B2474
102
{ACAD_XDICTIONARY
360
1C8CDE6B2C16
102
}
102
{ACAD_REACTORS
330
1C8CDE6B2473
102
}
330
1C8CDE6B2473
100
AcDbMLeaderStyle
170
     2
171
     1
172
     0
 90
        2
 40
0.0
 41
0.0
173
     1
 91
-1056964608
340
1C8CDE699D4D
 92
       -2
290
     1
 42
0.09
291
     1
 43
0.36
  3
Standard
 44
0.18
300

342
1C8CDE699D4B
174
     1
178
     6
175
     1
176
     0
 93
-1056964608
 45
0.18
292
     0
297
     0
 46
0.18
 94
-1056964608
 47
1.0
 49
1.0
140
1.0
293
     1
141
0.0
294
     1
177
     0
142
1.0
295
     0
296
     0
143
0.125
1001
ACAD_MLEADERVER
1070
     2
  0
MLINESTYLE
  5
1C8CDE699D56
102
{ACAD_REACTORS
330
1C8CDE699D49
102
}
330
1C8CDE699D49
100
AcDbMlineStyle
  2
STANDARD
 70
     0
  3

 62
     0
 51
90.0
 52
90.0
 71
     2
 49
0.5
 62
   256
  6
BYLAYER
 49
-0.5
 62
   256
  6
BYLAYER
  0
PLOTSETTINGS
  5
1C8CDE6B26A2
102
{ACAD_XDICTIONARY
360
1C8CDE6B2C36
102
}
102
{ACAD_REACTORS
330
1C8CDE6A9C9B
102
}
330
1C8CDE6A9C9B
100
AcDbPlotSettings
  1
A1-A3
  2
DocuCentre-V C6685
  4
A3
  6

 40
4.900083065032958
 41
4.85772705078125
 42
4.900054931640625
 43
4.90008544921875
 44
297.0106506347656
 45
419.9889831542968
 46
6.0
 47
14.0
 48
0.0
 49
0.0
140
0.0
141
0.0
142
1.0
143
1.034084711147894
 70
  3760
 72
     1
 73
     1
 74
     2
  7
hatta.ctb
 75
     0
147
0.9670387630912189
148
0.0
149
0.0
1001
ACAD_PSEXT
1000
DocuCentre-V C6685
1000
FX DocuCentre-V C6685
1000
10.21.3.213
1000

1070
     0
  0
PLOTSETTINGS
  5
1C8CDE6B26A4
102
{ACAD_XDICTIONARY
360
1C8CDE6B2C3A
102
}
102
{ACAD_REACTORS
330
1C8CDE6A9C9B
102
}
330
1C8CDE6A9C9B
100
AcDbPlotSettings
  1
A1-A4
  2
DocuCentre-V C6685
  4
A4
  6

 40
4.900083065032958
 41
4.900054931640625
 42
4.90008544921875
 43
4.90008544921875
 44
210.0156707763672
 45
297.0106506347656
 46
5.0
 47
10.0
 48
0.0
 49
0.0
140
0.0
141
0.0
142
1.0
143
1.483401617978499
 70
  3760
 72
     1
 73
     1
 74
     2
  7
hatta.ctb
 75
     0
147
0.6741262702428131
148
0.0
149
0.0
1001
ACAD_PSEXT
1000
DocuCentre-V C6685
1000
FX DocuCentre-V C6685
1000
10.21.3.213
1000

1070
     0
  0
PLOTSETTINGS
  5
1C8CDE6B26A3
102
{ACAD_XDICTIONARY
360
1C8CDE6B2C38
102
}
102
{ACAD_REACTORS
330
1C8CDE6A9C9B
102
}
330
1C8CDE6A9C9B
100
AcDbPlotSettings
  1
A1-B4
  2
DocuCentre-V C6685
  4
B4 (JIS)
  6

 40
4.900083065032958
 41
4.85772705078125
 42
4.900054931640625
 43
4.90008544921875
 44
257.0056457519531
 45
363.9819946289062
 46
6.0
 47
14.0
 48
0.0
 49
0.0
140
0.0
141
0.0
142
1.0
143
1.201429542152492
 70
  3760
 72
     1
 73
     1
 74
     2
  7
hatta.ctb
 75
     0
147
0.8323417769538032
148
0.0
149
0.0
1001
ACAD_PSEXT
1000
DocuCentre-V C6685
1000
FX DocuCentre-V C6685
1000
10.21.3.213
1000

1070
     0
  0
PLOTSETTINGS
  5
1C8CDE6B2695
102
{ACAD_XDICTIONARY
360
1C8CDE6B2C1C
102
}
102
{ACAD_REACTORS
330
1C8CDE6A9C9B
102
}
330
1C8CDE6A9C9B
100
AcDbPlotSettings
  1
加工図A4
  2
DocuCentre-V C6685
  4
A4
  6

 40
4.900083065032958
 41
4.900054931640625
 42
4.90008544921875
 43
4.90008544921875
 44
210.0156707763672
 45
297.0106506347656
 46
10.0
 47
12.0
 48
0.0
 49
0.0
140
0.0
141
0.0
142
1.0
143
1.483401617978499
 70
  3760
 72
     1
 73
     1
 74
     2
  7
hatta.ctb
 75
     0
147
0.6741262702428131
148
0.0
149
0.0
1001
ACAD_PSEXT
1000
DocuCentre-V C6685
1000
FX DocuCentre-V C6685
1000
10.21.3.213
1000

1070
     0
  0
PLOTSETTINGS
  5
1C8CDE6B2696
102
{ACAD_XDICTIONARY
360
1C8CDE6B2C1E
102
}
102
{ACAD_REACTORS
330
1C8CDE6A9C9B
102
}
330
1C8CDE6A9C9B
100
AcDbPlotSettings
  1
加工図B4_1
  2
DocuCentre-V C6685
  4
B4 (JIS)
  6

 40
4.900083065032958
 41
4.85772705078125
 42
4.900054931640625
 43
4.90008544921875
 44
257.0056457519531
 45
363.9819946289062
 46
7.0
 47
7.0
 48
0.0
 49
0.0
140
0.0
141
0.0
142
1.0
143
1.0
 70
  3744
 72
     1
 73
     1
 74
     2
  7
hatta.ctb
 75
     0
147
1.0
148
0.0
149
0.0
1001
ACAD_PSEXT
1000
DocuCentre-V C6685
1000
FX DocuCentre-V C6685
1000
10.21.3.213
1000

1070
     0
  0
PLOTSETTINGS
  5
1C8CDE6B269C
102
{ACAD_XDICTIONARY
360
1C8CDE6B2C2A
102
}
102
{ACAD_REACTORS
330
1C8CDE6A9C9B
102
}
330
1C8CDE6A9C9B
100
AcDbPlotSettings
  1
加工図B4_10
  2
DocuCentre-V C6685
  4
B4 (JIS)
  6

 40
4.900083065032958
 41
4.85772705078125
 42
4.900054931640625
 43
4.90008544921875
 44
257.0056457519531
 45
363.9819946289062
 46
7.0
 47
7.0
 48
0.0
 49
0.0
140
0.0
141
0.0
142
1.0
143
10.0
 70
  3760
 72
     1
 73
     1
 74
     2
  7
hatta.ctb
 75
    20
147
0.1
148
0.0
149
0.0
1001
ACAD_PSEXT
1000
DocuCentre-V C6685
1000
FX DocuCentre-V C6685
1000
10.21.3.213
1000

1070
     0
  0
PLOTSETTINGS
  5
1C8CDE6B269E
102
{ACAD_XDICTIONARY
360
1C8CDE6B2C2E
102
}
102
{ACAD_REACTORS
330
1C8CDE6A9C9B
102
}
330
1C8CDE6A9C9B
100
AcDbPlotSettings
  1
加工図B4_15
  2
DocuCentre-V C6685
  4
B4 (JIS)
  6

 40
4.900083065032958
 41
4.85772705078125
 42
4.900054931640625
 43
4.90008544921875
 44
257.0056457519531
 45
363.9819946289062
 46
7.0
 47
7.0
 48
0.0
 49
0.0
140
0.0
141
0.0
142
1.0
143
15.0
 70
  3744
 72
     1
 73
     1
 74
     2
  7
hatta.ctb
 75
     0
147
0.0666666666666667
148
0.0
149
0.0
1001
ACAD_PSEXT
1000
DocuCentre-V C6685
1000
FX DocuCentre-V C6685
1000
10.21.3.213
1000

1070
     0
  0
PLOTSETTINGS
  5
1C8CDE6B2699
102
{ACAD_XDICTIONARY
360
1C8CDE6B2C24
102
}
102
{ACAD_REACTORS
330
1C8CDE6A9C9B
102
}
330
1C8CDE6A9C9B
100
AcDbPlotSettings
  1
加工図B4_2
  2
DocuCentre-V C6685
  4
B4 (JIS)
  6

 40
4.900083065032958
 41
4.85772705078125
 42
4.900054931640625
 43
4.90008544921875
 44
257.0056457519531
 45
363.9819946289062
 46
7.0
 47
7.0
 48
0.0
 49
0.0
140
0.0
141
0.0
142
1.0
143
2.0
 70
  3760
 72
     1
 73
     1
 74
     2
  7
hatta.ctb
 75
    17
147
0.5
148
0.0
149
0.0
1001
ACAD_PSEXT
1000
DocuCentre-V C6685
1000
FX DocuCentre-V C6685
1000
10.21.3.213
1000

1070
     0
  0
PLOTSETTINGS
  5
1C8CDE6B26A0
102
{ACAD_XDICTIONARY
360
1C8CDE6B2C32
102
}
102
{ACAD_REACTORS
330
1C8CDE6A9C9B
102
}
330
1C8CDE6A9C9B
100
AcDbPlotSettings
  1
加工図B4_20
  2
DocuCentre-V C6685
  4
B4 (JIS)
  6

 40
4.900083065032958
 41
4.85772705078125
 42
4.900054931640625
 43
4.90008544921875
 44
257.0056457519531
 45
363.9819946289062
 46
7.0
 47
7.0
 48
0.0
 49
0.0
140
0.0
141
0.0
142
1.0
143
20.0
 70
  3760
 72
     1
 73
     1
 74
     2
  7
hatta.ctb
 75
    22
147
0.05
148
0.0
149
0.0
1001
ACAD_PSEXT
1000
DocuCentre-V C6685
1000
FX DocuCentre-V C6685
1000
10.21.3.213
1000

1070
     0
  0
PLOTSETTINGS
  5
1C8CDE6B2697
102
{ACAD_XDICTIONARY
360
1C8CDE6B2C20
102
}
102
{ACAD_REACTORS
330
1C8CDE6A9C9B
102
}
330
1C8CDE6A9C9B
100
AcDbPlotSettings
  1
加工図B4_3
  2
DocuCentre-V C6685
  4
B4 (JIS)
  6

 40
4.900083065032958
 41
4.85772705078125
 42
4.900054931640625
 43
4.90008544921875
 44
257.0056457519531
 45
363.9819946289062
 46
7.0
 47
7.0
 48
0.0
 49
0.0
140
0.0
141
0.0
142
1.0
143
3.0
 70
  3744
 72
     1
 73
     1
 74
     2
  7
hatta.ctb
 75
     0
147
0.3333333333333333
148
0.0
149
0.0
1001
ACAD_PSEXT
1000
DocuCentre-V C6685
1000
FX DocuCentre-V C6685
1000
10.21.3.213
1000

1070
     0
  0
PLOTSETTINGS
  5
1C8CDE6B26A5
102
{ACAD_XDICTIONARY
360
1C8CDE6B2C3C
102
}
102
{ACAD_REACTORS
330
1C8CDE6A9C9B
102
}
330
1C8CDE6A9C9B
100
AcDbPlotSettings
  1
加工図B4_4
  2
DocuCentre-V C6685
  4
B4 (JIS)
  6

 40
4.900083065032958
 41
4.85772705078125
 42
4.900054931640625
 43
4.90008544921875
 44
257.0056457519531
 45
363.9819946289062
 46
7.0
 47
7.0
 48
0.0
 49
0.0
140
0.0
141
0.0
142
1.0
143
4.0
 70
  3760
 72
     1
 73
     1
 74
     2
  7
hatta.ctb
 75
    18
147
0.25
148
0.0
149
0.0
1001
ACAD_PSEXT
1000
DocuCentre-V C6685
1000
FX DocuCentre-V C6685
1000
10.21.3.213
1000

1070
     0
  0
PLOTSETTINGS
  5
1C8CDE6B269A
102
{ACAD_XDICTIONARY
360
1C8CDE6B2C26
102
}
102
{ACAD_REACTORS
330
1C8CDE6A9C9B
102
}
330
1C8CDE6A9C9B
100
AcDbPlotSettings
  1
加工図B4_5
  2
DocuCentre-V C6685
  4
B4 (JIS)
  6

 40
4.900083065032958
 41
4.85772705078125
 42
4.900054931640625
 43
4.90008544921875
 44
257.0056457519531
 45
363.9819946289062
 46
7.0
 47
7.0
 48
0.0
 49
0.0
140
0.0
141
0.0
142
1.0
143
5.0
 70
  3744
 72
     1
 73
     1
 74
     2
  7
hatta.ctb
 75
     0
147
0.2
148
0.0
149
0.0
1001
ACAD_PSEXT
1000
DocuCentre-V C6685
1000
FX DocuCentre-V C6685
1000
10.21.3.213
1000

1070
     0
  0
PLOTSETTINGS
  5
1C8CDE6B26A1
102
{ACAD_XDICTIONARY
360
1C8CDE6B2C34
102
}
102
{ACAD_REACTORS
330
1C8CDE6A9C9B
102
}
330
1C8CDE6A9C9B
100
AcDbPlotSettings
  1
加工図B4_6
  2
DocuCentre-V C6685
  4
B4 (JIS)
  6

 40
4.900083065032958
 41
4.85772705078125
 42
4.900054931640625
 43
4.90008544921875
 44
257.0056457519531
 45
363.9819946289062
 46
7.0
 47
7.0
 48
0.0
 49
0.0
140
0.0
141
0.0
142
1.0
143
6.0
 70
  3744
 72
     1
 73
     1
 74
     2
  7
hatta.ctb
 75
     0
147
0.1666666666666666
148
0.0
149
0.0
1001
ACAD_PSEXT
1000
DocuCentre-V C6685
1000
FX DocuCentre-V C6685
1000
10.21.3.213
1000

1070
     0
  0
PLOTSETTINGS
  5
1C8CDE6B2698
102
{ACAD_XDICTIONARY
360
1C8CDE6B2C22
102
}
102
{ACAD_REACTORS
330
1C8CDE6A9C9B
102
}
330
1C8CDE6A9C9B
100
AcDbPlotSettings
  1
標準図A3_10
  2
DocuCentre-V C6685
  4
A3
  6

 40
4.900083065032958
 41
4.85772705078125
 42
4.900054931640625
 43
4.90008544921875
 44
297.0106506347656
 45
419.9889831542968
 46
10.0
 47
15.0
 48
0.0
 49
0.0
140
0.0
141
0.0
142
1.0
143
10.0
 70
  3760
 72
     1
 73
     1
 74
     2
  7
hatta.ctb
 75
    20
147
0.1
148
0.0
149
0.0
1001
ACAD_PSEXT
1000
DocuCentre-V C6685
1000
FX DocuCentre-V C6685
1000
10.21.3.213
1000

1070
     0
  0
PLOTSETTINGS
  5
1C8CDE6B26A6
102
{ACAD_XDICTIONARY
360
1C8CDE6B2C3E
102
}
102
{ACAD_REACTORS
330
1C8CDE6A9C9B
102
}
330
1C8CDE6A9C9B
100
AcDbPlotSettings
  1
標準図A3_15
  2
DocuCentre-V C6685
  4
A3
  6

 40
4.900083065032958
 41
4.85772705078125
 42
4.900054931640625
 43
4.90008544921875
 44
297.0106506347656
 45
419.9889831542968
 46
10.0
 47
15.0
 48
0.0
 49
0.0
140
0.0
141
0.0
142
1.0
143
15.0
 70
  3744
 72
     1
 73
     1
 74
     2
  7
hatta.ctb
 75
     0
147
0.0666666666666667
148
0.0
149
0.0
1001
ACAD_PSEXT
1000
DocuCentre-V C6685
1000
FX DocuCentre-V C6685
1000
10.21.3.213
1000

1070
     0
  0
PLOTSETTINGS
  5
1C8CDE6B269D
102
{ACAD_XDICTIONARY
360
1C8CDE6B2C2C
102
}
102
{ACAD_REACTORS
330
1C8CDE6A9C9B
102
}
330
1C8CDE6A9C9B
100
AcDbPlotSettings
  1
標準図A3_20
  2
DocuCentre-V C6685
  4
A3
  6

 40
4.900083065032958
 41
4.85772705078125
 42
4.900054931640625
 43
4.90008544921875
 44
297.0106506347656
 45
419.9889831542968
 46
10.0
 47
15.0
 48
0.0
 49
0.0
140
0.0
141
0.0
142
1.0
143
20.0
 70
  3760
 72
     1
 73
     1
 74
     2
  7
hatta.ctb
 75
    22
147
0.05
148
0.0
149
0.0
1001
ACAD_PSEXT
1000
DocuCentre-V C6685
1000
FX DocuCentre-V C6685
1000
10.21.3.213
1000

1070
     0
  0
PLOTSETTINGS
  5
1C8CDE6B269F
102
{ACAD_XDICTIONARY
360
1C8CDE6B2C30
102
}
102
{ACAD_REACTORS
330
1C8CDE6A9C9B
102
}
330
1C8CDE6A9C9B
100
AcDbPlotSettings
  1
標準図A3_50
  2
DocuCentre-V C6685
  4
Letter
  6

 40
4.900083065032958
 41
4.90008544921875
 42
4.900070190429687
 43
4.90008544921875
 44
215.8999938964844
 45
279.3999938964844
 46
10.0
 47
15.0
 48
0.0
 49
0.0
140
0.0
141
0.0
142
1.0
143
50.0
 70
  3744
 72
     1
 73
     1
 74
     2
  7
hatta.ctb
 75
    25
147
0.02
148
0.0
149
0.0
1001
ACAD_PSEXT
1000
DocuCentre-V C6685
1000
FX DocuCentre-V C6685
1000
10.21.3.213
1000

1070
     0
  0
PLOTSETTINGS
  5
1C8CDE6B269B
102
{ACAD_XDICTIONARY
360
1C8CDE6B2C28
102
}
102
{ACAD_REACTORS
330
1C8CDE6A9C9B
102
}
330
1C8CDE6A9C9B
100
AcDbPlotSettings
  1
標準図A4
  2
DocuCentre-V C6685
  4
A4
  6

 40
4.900083065032958
 41
4.900054931640625
 42
4.90008544921875
 43
4.90008544921875
 44
210.0156707763672
 45
297.0106506347656
 46
10.0
 47
20.0
 48
0.0
 49
0.0
140
0.0
141
0.0
142
1.0
143
1.483401617978499
 70
  3760
 72
     1
 73
     1
 74
     2
  7
hatta.ctb
 75
     0
147
0.6741262702428131
148
0.0
149
0.0
1001
ACAD_PSEXT
1000
DocuCentre-V C6685
1000
FX DocuCentre-V C6685
1000
10.21.3.213
1000

1070
     0
  0
PLOTSETTINGS
  5
1C8CDE6B26A7
102
{ACAD_XDICTIONARY
360
1C8CDE6B2C40
102
}
102
{ACAD_REACTORS
330
1C8CDE6A9C9B
102
}
330
1C8CDE6A9C9B
100
AcDbPlotSettings
  1
標準図B4
  2
DocuCentre-V C6685
  4
B4 (JIS)
  6

 40
4.900083065032958
 41
4.85772705078125
 42
4.900054931640625
 43
4.90008544921875
 44
257.0056457519531
 45
363.9819946289062
 46
12.0
 47
23.0
 48
0.0
 49
0.0
140
0.0
141
0.0
142
1.0
143
1.201429542152492
 70
  3760
 72
     1
 73
     1
 74
     2
  7
hatta.ctb
 75
     0
147
0.8323417769538032
148
0.0
149
0.0
1001
ACAD_PSEXT
1000
DocuCentre-V C6685
1000
FX DocuCentre-V C6685
1000
10.21.3.213
1000

1070
     0
  0
ACDBPLACEHOLDER
  5
1C8CDE6A9C99
102
{ACAD_REACTORS
330
1C8CDE6A9C98
102
}
330
1C8CDE6A9C98
  0
SCALE
  5
1C8CDE6B2462
102
{ACAD_REACTORS
330
1C8CDE6B2461
102
}
330
1C8CDE6B2461
100
AcDbScale
 70
     0
300
1:1
140
1.0
141
1.0
290
     1
  0
SCALE
  5
1C8CDE6B2463
102
{ACAD_REACTORS
330
1C8CDE6B2461
102
}
330
1C8CDE6B2461
100
AcDbScale
 70
     0
300
1/128" = 1'-0"
140
0.0078125
141
12.0
290
     0
  0
SCALE
  5
1C8CDE6B2464
102
{ACAD_REACTORS
330
1C8CDE6B2461
102
}
330
1C8CDE6B2461
100
AcDbScale
 70
     0
300
1/64" = 1'-0"
140
0.015625
141
12.0
290
     0
  0
SCALE
  5
1C8CDE6B2465
102
{ACAD_REACTORS
330
1C8CDE6B2461
102
}
330
1C8CDE6B2461
100
AcDbScale
 70
     0
300
1/32" = 1'-0"
140
0.03125
141
12.0
290
     0
  0
SCALE
  5
1C8CDE6B2466
102
{ACAD_REACTORS
330
1C8CDE6B2461
102
}
330
1C8CDE6B2461
100
AcDbScale
 70
     0
300
1/16" = 1'-0"
140
0.0625
141
12.0
290
     0
  0
SCALE
  5
1C8CDE6B2467
102
{ACAD_REACTORS
330
1C8CDE6B2461
102
}
330
1C8CDE6B2461
100
AcDbScale
 70
     0
300
3/32" = 1'-0"
140
0.09375
141
12.0
290
     0
  0
SCALE
  5
1C8CDE6B2468
102
{ACAD_REACTORS
330
1C8CDE6B2461
102
}
330
1C8CDE6B2461
100
AcDbScale
 70
     0
300
1/8" = 1'-0"
140
0.125
141
12.0
290
     0
  0
SCALE
  5
1C8CDE6B2469
102
{ACAD_REACTORS
330
1C8CDE6B2461
102
}
330
1C8CDE6B2461
100
AcDbScale
 70
     0
300
3/16" = 1'-0"
140
0.1875
141
12.0
290
     0
  0
SCALE
  5
1C8CDE6B246A
102
{ACAD_REACTORS
330
1C8CDE6B2461
102
}
330
1C8CDE6B2461
100
AcDbScale
 70
     0
300
1/4" = 1'-0"
140
0.25
141
12.0
290
     0
  0
SCALE
  5
1C8CDE6B246B
102
{ACAD_REACTORS
330
1C8CDE6B2461
102
}
330
1C8CDE6B2461
100
AcDbScale
 70
     0
300
3/8" = 1'-0"
140
0.375
141
12.0
290
     0
  0
SCALE
  5
1C8CDE6B246C
102
{ACAD_REACTORS
330
1C8CDE6B2461
102
}
330
1C8CDE6B2461
100
AcDbScale
 70
     0
300
1/2" = 1'-0"
140
0.5
141
12.0
290
     0
  0
SCALE
  5
1C8CDE6B246D
102
{ACAD_REACTORS
330
1C8CDE6B2461
102
}
330
1C8CDE6B2461
100
AcDbScale
 70
     0
300
3/4" = 1'-0"
140
0.75
141
12.0
290
     0
  0
SCALE
  5
1C8CDE6B246E
102
{ACAD_REACTORS
330
1C8CDE6B2461
102
}
330
1C8CDE6B2461
100
AcDbScale
 70
     0
300
1" = 1'-0"
140
1.0
141
12.0
290
     0
  0
SCALE
  5
1C8CDE6B246F
102
{ACAD_REACTORS
330
1C8CDE6B2461
102
}
330
1C8CDE6B2461
100
AcDbScale
 70
     0
300
1-1/2" = 1'-0"
140
1.5
141
12.0
290
     0
  0
SCALE
  5
1C8CDE6B2470
102
{ACAD_REACTORS
330
1C8CDE6B2461
102
}
330
1C8CDE6B2461
100
AcDbScale
 70
     0
300
3" = 1'-0"
140
3.0
141
12.0
290
     0
  0
SCALE
  5
1C8CDE6B2471
102
{ACAD_REACTORS
330
1C8CDE6B2461
102
}
330
1C8CDE6B2461
100
AcDbScale
 70
     0
300
6" = 1'-0"
140
6.0
141
12.0
290
     0
  0
SCALE
  5
1C8CDE6B2472
102
{ACAD_REACTORS
330
1C8CDE6B2461
102
}
330
1C8CDE6B2461
100
AcDbScale
 70
     0
300
1'-0" = 1'-0"
140
12.0
141
12.0
290
     0
  0
ACDBSECTIONVIEWSTYLE
  5
1C8CDE6B2476
102
{ACAD_XDICTIONARY
360
1C8CDE6B2C18
102
}
102
{ACAD_REACTORS
330
1C8CDE6B2475
102
}
330
1C8CDE6B2475
100
AcDbModelDocViewStyle
 70
     0
  3
Imperial24
290
     0
100
AcDbSectionViewStyle
 70
     0
 71
     0
 90
       78
 71
     1
340
1C8CDE699D4B
 40
0.24
340
0
340
0
 40
0.24
300
I, O, Q, S, X, Z
 40
0.48
 90
        3
 40
0.18
 90
        1
 71
     2
340
1C8CDE699D4F
 90
       25
340
1C8CDE699D4F
 90
       50
 40
0.24
 40
0.0
 40
0.24
 71
     3
340
1C8CDE699D4B
 40
0.24
 90
        1
 40
0.75
 90
        1
300
%<\AcVar ViewType \f "%tc1">% %<\AcVar ViewSectionStartId>%-%<\AcVar ViewSectionEndId>%\PSCALE %<\AcVar ViewScale \f "%sn">%
 71
     4
300
ANSI31
 40
1.0
 90
        0
290
     0
290
     0
 90
        6
 40
0.0
 40
1.570796326794896
 40
0.2617993877991494
 40
1.308996938995747
 40
-0.2617993877991494
 40
1.832595714594046
  0
TABLESTYLE
  5
1C8CDE6ACAC6
102
{ACAD_XDICTIONARY
360
1C8CDE6B261E
102
}
102
{ACAD_REACTORS
330
1C8CDE6ACAC5
102
}
330
1C8CDE6ACAC5
100
AcDbTableStyle
  3
Standard
 70
     0
 71
     0
 40
0.06
 41
0.06
280
     0
281
     0
  7
STANDARD
140
0.18
170
     2
 62
     0
 63
     7
283
     0
274
    -2
284
     1
 64
     0
275
    -2
285
     1
 65
     0
276
    -2
286
     1
 66
     0
277
    -2
287
     1
 67
     0
278
    -2
288
     1
 68
     0
279
    -2
289
     1
 69
     0
  7
STANDARD
140
0.25
170
     5
 62
     0
 63
     7
283
     0
274
    -2
284
     1
 64
     0
275
    -2
285
     1
 65
     0
276
    -2
286
     1
 66
     0
277
    -2
287
     1
 67
     0
278
    -2
288
     1
 68
     0
279
    -2
289
     1
 69
     0
  7
STANDARD
140
0.18
170
     5
 62
     0
 63
     7
283
     0
274
    -2
284
     1
 64
     0
275
    -2
285
     1
 65
     0
276
    -2
286
     1
 66
     0
277
    -2
287
     1
 67
     0
278
    -2
288
     1
 68
     0
279
    -2
289
     1
 69
     0
  0
VISUALSTYLE
  5
1C8CDE6B244E
102
{ACAD_XDICTIONARY
360
1C8CDE6B2BF0
102
}
102
{ACAD_REACTORS
330
1C8CDE6B2448
102
}
330
1C8CDE6B2448
100
AcDbVisualStyle
  2
2dWireframe
 70
     4
 71
     0
 72
     2
 73
     0
 90
        0
 40
-0.6
 41
-30.0
 62
     5
 63
     7
 74
     1
 91
        4
 64
     7
 65
   257
 75
     1
175
     1
 42
1.0
 92
        0
 66
   257
 43
1.0
 76
     1
 77
     6
 78
     2
 67
     7
 79
     5
170
     0
171
     0
290
     0
174
     0
 93
        1
 44
0.0
173
     0
291
     0
 45
0.0
1001
ACAD
1000
AcDbSavedByObjectVersion
1070
     0
  0
VISUALSTYLE
  5
1C8CDE6B244D
102
{ACAD_XDICTIONARY
360
1C8CDE6B2BEE
102
}
102
{ACAD_REACTORS
330
1C8CDE6B2448
102
}
330
1C8CDE6B2448
100
AcDbVisualStyle
  2
Basic
 70
     7
 71
     1
 72
     0
 73
     1
 90
        0
 40
-0.6
 41
-30.0
 62
     5
 63
     7
 74
     0
 91
        4
 64
     7
 65
   257
 75
     1
175
     1
 42
1.0
 92
        8
 66
     7
 43
1.0
 76
     1
 77
     6
 78
     2
 67
     7
 79
     5
170
     0
171
     0
290
     0
174
     0
 93
        1
 44
0.0
173
     0
291
     1
 45
0.0
1001
ACAD
1000
AcDbSavedByObjectVersion
1070
     0
  0
VISUALSTYLE
  5
1C8CDE6B2454
102
{ACAD_XDICTIONARY
360
1C8CDE6B2BFC
102
}
102
{ACAD_REACTORS
330
1C8CDE6B2448
102
}
330
1C8CDE6B2448
100
AcDbVisualStyle
  2
Brighten
 70
    12
 71
     2
 72
     2
 73
     0
 90
        0
 40
-0.6
 41
-30.0
 62
     5
 63
     7
 74
     1
 91
        4
 64
     7
 65
   257
 75
     1
175
     1
 42
1.0
 92
        8
 66
     7
 43
1.0
 76
     1
 77
     6
 78
     2
 67
     7
 79
     5
170
     0
171
     0
290
     0
174
     0
 93
        1
 44
50.0
173
     0
291
     1
 45
0.0
1001
ACAD
1000
AcDbSavedByObjectVersion
1070
     0
  0
VISUALSTYLE
  5
1C8CDE6B2458
102
{ACAD_XDICTIONARY
360
1C8CDE6B2C04
102
}
102
{ACAD_REACTORS
330
1C8CDE6B2448
102
}
330
1C8CDE6B2448
100
AcDbVisualStyle
  2
ColorChange
 70
    16
 71
     2
 72
     2
 73
     3
 90
        0
 40
-0.6
 41
-30.0
 62
     5
 63
     8
 74
     1
 91
        4
 64
     7
 65
   257
 75
     1
175
     1
 42
1.0
 92
        8
 66
     8
 43
1.0
 76
     1
 77
     6
 78
     2
 67
     7
 79
     5
170
     0
171
     0
290
     0
174
     0
 93
        1
 44
0.0
173
     0
291
     1
 45
0.0
1001
ACAD
1000
AcDbSavedByObjectVersion
1070
     0
  0
VISUALSTYLE
  5
1C8CDE6B2451
102
{ACAD_XDICTIONARY
360
1C8CDE6B2BF6
102
}
102
{ACAD_REACTORS
330
1C8CDE6B2448
102
}
330
1C8CDE6B2448
100
AcDbVisualStyle
  2
Conceptual
 70
     9
 71
     3
 72
     2
 73
     0
 90
        0
 40
-0.6
 41
-30.0
 62
     5
 63
     7
 74
     2
 91
        2
 64
     7
 65
   257
 75
     1
175
     1
 42
179.0
 92
        8
 66
     7
 43
1.0
 76
     1
 77
     6
 78
     2
 67
     7
 79
     3
170
     0
171
     0
290
     0
174
     0
 93
        1
 44
0.0
173
     0
291
     0
 45
0.0
1001
ACAD
1000
AcDbSavedByObjectVersion
1070
     0
  0
VISUALSTYLE
  5
1C8CDE6B2453
102
{ACAD_XDICTIONARY
360
1C8CDE6B2BFA
102
}
102
{ACAD_REACTORS
330
1C8CDE6B2448
102
}
330
1C8CDE6B2448
100
AcDbVisualStyle
  2
Dim
 70
    11
 71
     2
 72
     2
 73
     0
 90
        0
 40
-0.6
 41
-30.0
 62
     5
 63
     7
 74
     1
 91
        4
 64
     7
 65
   257
 75
     1
175
     1
 42
1.0
 92
        8
 66
     7
 43
1.0
 76
     1
 77
     6
 78
     2
 67
     7
 79
     5
170
     0
171
     0
290
     0
174
     0
 93
        1
 44
-50.0
173
     0
291
     1
 45
0.0
1001
ACAD
1000
AcDbSavedByObjectVersion
1070
     0
  0
VISUALSTYLE
  5
1C8CDE6B2460
102
{ACAD_XDICTIONARY
360
1C8CDE6B2C14
102
}
102
{ACAD_REACTORS
330
1C8CDE6B2448
102
}
330
1C8CDE6B2448
100
AcDbVisualStyle
  2
EdgeColorOff
 70
    22
 71
     2
 72
     2
 73
     0
 90
        0
 40
-0.6
 41
-30.0
 62
     5
 63
     7
 74
     1
 91
        4
 64
     7
 65
   257
 75
     1
175
     1
 42
1.0
 92
        8
 66
     7
 43
1.0
 76
     1
 77
     6
 78
     2
 67
     7
 79
     5
170
     0
171
     0
290
     0
174
     0
 93
        1
 44
0.0
173
     0
291
     1
 45
0.0
1001
ACAD
1000
AcDbSavedByObjectVersion
1070
     0
  0
VISUALSTYLE
  5
1C8CDE6B2457
102
{ACAD_XDICTIONARY
360
1C8CDE6B2C02
102
}
102
{ACAD_REACTORS
330
1C8CDE6B2448
102
}
330
1C8CDE6B2448
100
AcDbVisualStyle
  2
Facepattern
 70
    15
 71
     2
 72
     2
 73
     0
 90
        0
 40
-0.6
 41
-30.0
 62
     5
 63
     7
 74
     1
 91
        4
 64
     7
 65
   257
 75
     1
175
     1
 42
1.0
 92
        8
 66
     7
 43
1.0
 76
     1
 77
     6
 78
     2
 67
     7
 79
     5
170
     0
171
     0
290
     0
174
     0
 93
        1
 44
0.0
173
     0
291
     1
 45
0.0
1001
ACAD
1000
AcDbSavedByObjectVersion
1070
     0
  0
VISUALSTYLE
  5
1C8CDE6B2449
102
{ACAD_XDICTIONARY
360
1C8CDE6B2BE6
102
}
102
{ACAD_REACTORS
330
1C8CDE6B2448
102
}
330
1C8CDE6B2448
100
AcDbVisualStyle
  2
Flat
 70
     0
 71
     2
 72
     1
 73
     1
 90
        2
 40
-0.6
 41
30.0
 62
     5
 63
     7
 74
     0
 91
        0
 64
     7
 65
   257
 75
     1
175
     1
 42
1.0
 92
        8
 66
     7
 43
1.0
 76
     1
 77
     6
 78
     2
 67
     7
 79
     5
170
     0
171
     0
290
     0
174
     0
 93
       13
 44
0.0
173
     0
291
     1
 45
0.0
1001
ACAD
1000
AcDbSavedByObjectVersion
1070
     0
  0
VISUALSTYLE
  5
1C8CDE6B244A
102
{ACAD_XDICTIONARY
360
1C8CDE6B2BE8
102
}
102
{ACAD_REACTORS
330
1C8CDE6B2448
102
}
330
1C8CDE6B2448
100
AcDbVisualStyle
  2
FlatWithEdges
 70
     1
 71
     2
 72
     1
 73
     1
 90
        2
 40
-0.6
 41
30.0
 62
     5
 63
     7
 74
     1
 91
        0
 64
     7
 65
   257
 75
     1
175
     1
 42
1.0
 92
        0
 66
   257
 43
1.0
 76
     1
 77
     6
 78
     2
 67
     7
 79
     5
170
     0
171
     0
290
     0
174
     0
 93
       13
 44
0.0
173
     0
291
     1
 45
0.0
1001
ACAD
1000
AcDbSavedByObjectVersion
1070
     0
  0
VISUALSTYLE
  5
1C8CDE6B244B
102
{ACAD_XDICTIONARY
360
1C8CDE6B2BEA
102
}
102
{ACAD_REACTORS
330
1C8CDE6B2448
102
}
330
1C8CDE6B2448
100
AcDbVisualStyle
  2
Gouraud
 70
     2
 71
     2
 72
     2
 73
     1
 90
        2
 40
-0.6
 41
30.0
 62
     5
 63
     7
 74
     0
 91
        0
 64
     7
 65
   257
 75
     1
175
     1
 42
1.0
 92
        0
 66
     7
 43
1.0
 76
     1
 77
     6
 78
     2
 67
     7
 79
     5
170
     0
171
     0
290
     0
174
     0
 93
       13
 44
0.0
173
     0
291
     1
 45
0.0
1001
ACAD
1000
AcDbSavedByObjectVersion
1070
     0
  0
VISUALSTYLE
  5
1C8CDE6B244C
102
{ACAD_XDICTIONARY
360
1C8CDE6B2BEC
102
}
102
{ACAD_REACTORS
330
1C8CDE6B2448
102
}
330
1C8CDE6B2448
100
AcDbVisualStyle
  2
GouraudWithEdges
 70
     3
 71
     2
 72
     2
 73
     1
 90
        2
 40
-0.6
 41
30.0
 62
     5
 63
     7
 74
     1
 91
        0
 64
     7
 65
   257
 75
     1
175
     1
 42
1.0
 92
        0
 66
   257
 43
1.0
 76
     1
 77
     6
 78
     2
 67
     7
 79
     5
170
     0
171
     0
290
     0
174
     0
 93
       13
 44
0.0
173
     0
291
     1
 45
0.0
1001
ACAD
1000
AcDbSavedByObjectVersion
1070
     0
  0
VISUALSTYLE
  5
1C8CDE6B2450
102
{ACAD_XDICTIONARY
360
1C8CDE6B2BF4
102
}
102
{ACAD_REACTORS
330
1C8CDE6B2448
102
}
330
1C8CDE6B2448
100
AcDbVisualStyle
  2
Hidden
 70
     6
 71
     1
 72
     2
 73
     2
 90
        0
 40
-0.6
 41
-30.0
 62
     5
 63
     7
 74
     2
 91
        2
 64
     7
 65
   257
 75
     2
175
     1
 42
40.0
 92
        0
 66
   257
 43
1.0
 76
     1
 77
     6
 78
     2
 67
     7
 79
     3
170
     0
171
     0
290
     0
174
     0
 93
        1
 44
0.0
173
     0
291
     0
 45
0.0
1001
ACAD
1000
AcDbSavedByObjectVersion
1070
     0
  0
VISUALSTYLE
  5
1C8CDE6B245E
102
{ACAD_XDICTIONARY
360
1C8CDE6B2C10
102
}
102
{ACAD_REACTORS
330
1C8CDE6B2448
102
}
330
1C8CDE6B2448
100
AcDbVisualStyle
  2
JitterOff
 70
    20
 71
     2
 72
     2
 73
     0
 90
        0
 40
-0.6
 41
-30.0
 62
     5
 63
     7
 74
     1
 91
        4
 64
     7
 65
   257
 75
     1
175
     1
 42
1.0
 92
       10
 66
     7
 43
1.0
 76
     1
 77
     6
 78
     2
 67
     7
 79
     5
170
     0
171
     0
290
     0
174
     0
 93
        1
 44
0.0
173
     0
291
     1
 45
0.0
1001
ACAD
1000
AcDbSavedByObjectVersion
1070
     0
  0
VISUALSTYLE
  5
1C8CDE6B2456
102
{ACAD_XDICTIONARY
360
1C8CDE6B2C00
102
}
102
{ACAD_REACTORS
330
1C8CDE6B2448
102
}
330
1C8CDE6B2448
100
AcDbVisualStyle
  2
Linepattern
 70
    14
 71
     2
 72
     2
 73
     0
 90
        0
 40
-0.6
 41
-30.0
 62
     5
 63
     7
 74
     1
 91
        4
 64
     7
 65
   257
 75
     7
175
     7
 42
1.0
 92
        8
 66
     7
 43
1.0
 76
     1
 77
     6
 78
     2
 67
     7
 79
     5
170
     0
171
     0
290
     0
174
     0
 93
        1
 44
0.0
173
     0
291
     1
 45
0.0
1001
ACAD
1000
AcDbSavedByObjectVersion
1070
     0
  0
VISUALSTYLE
  5
1C8CDE6B245F
102
{ACAD_XDICTIONARY
360
1C8CDE6B2C12
102
}
102
{ACAD_REACTORS
330
1C8CDE6B2448
102
}
330
1C8CDE6B2448
100
AcDbVisualStyle
  2
OverhangOff
 70
    21
 71
     2
 72
     2
 73
     0
 90
        0
 40
-0.6
 41
-30.0
 62
     5
 63
     7
 74
     1
 91
        4
 64
     7
 65
   257
 75
     1
175
     1
 42
1.0
 92
        9
 66
     7
 43
1.0
 76
     1
 77
     6
 78
     2
 67
     7
 79
     5
170
     0
171
     0
290
     0
174
     0
 93
        1
 44
0.0
173
     0
291
     1
 45
0.0
1001
ACAD
1000
AcDbSavedByObjectVersion
1070
     0
  0
VISUALSTYLE
  5
1C8CDE6B2452
102
{ACAD_XDICTIONARY
360
1C8CDE6B2BF8
102
}
102
{ACAD_REACTORS
330
1C8CDE6B2448
102
}
330
1C8CDE6B2448
100
AcDbVisualStyle
  2
Realistic
 70
     8
 71
     2
 72
     2
 73
     0
 90
        2
 40
-0.6
 41
30.0
 62
     5
 63
     7
 74
     0
 91
        0
 64
     7
 65
   257
 75
     1
175
     1
 42
1.0
 92
        8
 66
   257
 43
1.0
 76
     1
 77
     6
 78
     2
 67
     7
 79
     3
170
     0
171
     0
290
     0
174
     0
 93
       13
 44
0.0
173
     0
291
     0
 45
0.0
1001
ACAD
1000
AcDbSavedByObjectVersion
1070
     0
  0
VISUALSTYLE
  5
1C8CDE6B245D
102
{ACAD_XDICTIONARY
360
1C8CDE6B2C0E
102
}
102
{ACAD_REACTORS
330
1C8CDE6B2448
102
}
330
1C8CDE6B2448
100
AcDbVisualStyle
  2
Shaded
 70
    27
 71
     2
 72
     2
 73
     1
 90
        2
 40
-0.6
 41
30.0
 62
     5
 63
     7
 74
     0
 91
        4
 64
     7
 65
   257
 75
     1
175
     1
 42
1.0
 92
        8
 66
   257
 43
1.0
 76
     1
 77
     6
 78
     2
 67
     8
 79
     3
170
     0
171
     0
290
     0
174
     0
 93
        5
 44
0.0
173
     0
291
     0
 45
0.0
1001
ACAD
1000
AcDbSavedByObjectVersion
1070
     0
  0
VISUALSTYLE
  5
1C8CDE6B245C
102
{ACAD_XDICTIONARY
360
1C8CDE6B2C0C
102
}
102
{ACAD_REACTORS
330
1C8CDE6B2448
102
}
330
1C8CDE6B2448
100
AcDbVisualStyle
  2
Shaded with edges
 70
    26
 71
     2
 72
     2
 73
     1
 90
        2
 40
-0.6
 41
30.0
 62
     5
 63
     7
 74
     1
 91
       10
 64
     7
 65
   257
 75
     2
175
     1
 42
1.0
 92
        8
 66
   257
 43
1.0
 76
     1
 77
     6
 78
     2
 67
     7
 79
     3
170
     0
171
     0
290
     0
174
     0
 93
        5
 44
0.0
173
     0
291
     0
 45
0.0
1001
ACAD
1000
AcDbSavedByObjectVersion
1070
     0
  0
VISUALSTYLE
  5
1C8CDE6B2459
102
{ACAD_XDICTIONARY
360
1C8CDE6B2C06
102
}
102
{ACAD_REACTORS
330
1C8CDE6B2448
102
}
330
1C8CDE6B2448
100
AcDbVisualStyle
  2
Shades of Gray
 70
    23
 71
     2
 72
     2
 73
     3
 90
        0
 40
-0.6
 41
-30.0
 62
     5
 63
     7
 74
     2
 91
        2
 64
     7
 65
     7
 75
     1
175
     1
 42
40.0
 92
        8
 66
     7
 43
1.0
 76
     1
 77
     6
 78
     2
 67
     7
 79
     3
170
     0
171
     0
290
     0
174
     0
 93
        1
 44
0.0
173
     0
291
     0
 45
0.0
1001
ACAD
1000
AcDbSavedByObjectVersion
1070
     0
  0
VISUALSTYLE
  5
1C8CDE6B245A
102
{ACAD_XDICTIONARY
360
1C8CDE6B2C08
102
}
102
{ACAD_REACTORS
330
1C8CDE6B2448
102
}
330
1C8CDE6B2448
100
AcDbVisualStyle
  2
Sketchy
 70
    24
 71
     1
 72
     2
 73
     2
 90
        0
 40
-0.6
 41
-30.0
 62
     5
 63
     7
 74
     2
 91
        2
 64
     7
 65
     7
 75
     1
175
     1
 42
40.0
 92
       11
 66
     7
 43
1.0
 76
     1
 77
     6
 78
     2
 67
     7
 79
     6
170
     0
171
     0
290
     0
174
     0
 93
        1
 44
0.0
173
     0
291
     0
 45
0.0
1001
ACAD
1000
AcDbSavedByObjectVersion
1070
     0
  0
VISUALSTYLE
  5
1C8CDE6B2455
102
{ACAD_XDICTIONARY
360
1C8CDE6B2BFE
102
}
102
{ACAD_REACTORS
330
1C8CDE6B2448
102
}
330
1C8CDE6B2448
100
AcDbVisualStyle
  2
Thicken
 70
    13
 71
     2
 72
     2
 73
     0
 90
        0
 40
-0.6
 41
-30.0
 62
     5
 63
     7
 74
     1
 91
        4
 64
     7
 65
   257
 75
     1
175
     1
 42
1.0
 92
       12
 66
     7
 43
1.0
 76
     1
 77
     6
 78
     2
 67
     7
 79
     5
170
     0
171
     0
290
     0
174
     0
 93
        1
 44
0.0
173
     0
291
     1
 45
0.0
1001
ACAD
1000
AcDbSavedByObjectVersion
1070
     0
  0
VISUALSTYLE
  5
1C8CDE6B244F
102
{ACAD_XDICTIONARY
360
1C8CDE6B2BF2
102
}
102
{ACAD_REACTORS
330
1C8CDE6B2448
102
}
330
1C8CDE6B2448
100
AcDbVisualStyle
  2
Wireframe
 70
     5
 71
     0
 72
     2
 73
     0
 90
        0
 40
-0.6
 41
-30.0
 62
     5
 63
     7
 74
     1
 91
        4
 64
     7
 65
   257
 75
     1
175
     1
 42
1.0
 92
        0
 66
   257
 43
1.0
 76
     1
 77
     6
 78
     2
 67
     7
 79
     3
170
     0
171
     0
290
     0
174
     0
 93
        1
 44
0.0
173
     0
291
     0
 45
0.0
1001
ACAD
1000
AcDbSavedByObjectVersion
1070
     0
  0
VISUALSTYLE
  5
1C8CDE6B245B
102
{ACAD_XDICTIONARY
360
1C8CDE6B2C0A
102
}
102
{ACAD_REACTORS
330
1C8CDE6B2448
102
}
330
1C8CDE6B2448
100
AcDbVisualStyle
  2
X-Ray
 70
    25
 71
     2
 72
     2
 73
     1
 90
        1
 40
0.5
 41
-30.0
 62
     5
 63
     7
 74
     1
 91
        0
 64
     7
 65
   257
 75
     1
175
     1
 42
1.0
 92
        8
 66
     7
 43
1.0
 76
     1
 77
     6
 78
     2
 67
     7
 79
     3
170
     0
171
     0
290
     0
174
     0
 93
       13
 44
0.0
173
     0
291
     0
 45
0.0
1001
ACAD
1000
AcDbSavedByObjectVersion
1070
     0
  0
DICTIONARYVAR
  5
1C8CDE6B268C
102
{ACAD_REACTORS
330
1C8CDE6ABFFD
102
}
330
1C8CDE6ABFFD
100
DictionaryVariables
280
     0
  1
1:1
  0
DICTIONARYVAR
  5
1C8CDE6B2689
102
{ACAD_REACTORS
330
1C8CDE6ABFFD
102
}
330
1C8CDE6ABFFD
100
DictionaryVariables
280
     0
  1
STANDARD
  0
DICTIONARYVAR
  5
1C8CDE6AD0E6
102
{ACAD_REACTORS
330
1C8CDE6ABFFD
102
}
330
1C8CDE6ABFFD
100
DictionaryVariables
280
     0
  1
STANDARD
  0
DICTIONARYVAR
  5
1C8CDE6B268A
102
{ACAD_REACTORS
330
1C8CDE6ABFFD
102
}
330
1C8CDE6ABFFD
100
DictionaryVariables
280
     0
  1
Imperial24
  0
DICTIONARYVAR
  5
1C8CDE6B268B
102
{ACAD_REACTORS
330
1C8CDE6ABFFD
102
}
330
1C8CDE6ABFFD
100
DictionaryVariables
280
     0
  1
Imperial24
  0
DICTIONARYVAR
  5
1C8CDE6AECFA
102
{ACAD_REACTORS
330
1C8CDE6ABFFD
102
}
330
1C8CDE6ABFFD
100
DictionaryVariables
280
     0
  1
1
  0
DICTIONARYVAR
  5
1C8CDE6B268D
102
{ACAD_REACTORS
330
1C8CDE6ABFFD
102
}
330
1C8CDE6ABFFD
100
DictionaryVariables
280
     0
  1
0
  0
DICTIONARYVAR
  5
1C8CDE6AECFB
102
{ACAD_REACTORS
330
1C8CDE6ABFFD
102
}
330
1C8CDE6ABFFD
100
DictionaryVariables
280
     0
  1

  0
DICTIONARYVAR
  5
1C8CDE6ABFFE
102
{ACAD_REACTORS
330
1C8CDE6ABFFD
102
}
330
1C8CDE6ABFFD
100
DictionaryVariables
280
     0
  1
96
  0
DICTIONARYVAR
  5
1C8CDE6B2BDA
102
{ACAD_REACTORS
330
1C8CDE6ABFFD
102
}
330
1C8CDE6ABFFD
100
DictionaryVariables
280
     0
  1
2
  0
DICTIONARY
  5
1C8CDE6B2C1A
330
1C8CDE6B2478
100
AcDbDictionary
280
     1
281
     1
  3
ACAD_XREC_ROUNDTRIP
360
1C8CDE6B2C1B
  0
DICTIONARY
  5
1C8CDE6B2BDE
330
1C8CDE6A9C9C
100
AcDbDictionary
280
     1
281
     1
  3
ACAD_XREC_ROUNDTRIP
360
1C8CDE6B2BDF
  0
DICTIONARY
  5
1C8CDE6B2BE0
330
1C8CDE6A9C9D
100
AcDbDictionary
280
     1
281
     1
  3
ACAD_XREC_ROUNDTRIP
360
1C8CDE6B2BE1
  0
DICTIONARY
  5
1C8CDE6B2439
330
1C8CDE6B2438
100
AcDbDictionary
280
     1
281
     1
  3
ACAD_XREC_ROUNDTRIP
360
1C8CDE6B2BE4
  3
BUMPTILE
360
1C8CDE6B243B
  3
DIFFUSETILE
360
1C8CDE6B243A
  3
OPACITYTILE
360
1C8CDE6B243E
  3
REFLECTIONTILE
360
1C8CDE6B243D
  3
REFRACTIONTILE
360
1C8CDE6B243F
  3
SPECULARTILE
360
1C8CDE6B243C
  0
DICTIONARY
  5
1C8CDE6B2431
330
1C8CDE6B2430
100
AcDbDictionary
280
     1
281
     1
  3
ACAD_XREC_ROUNDTRIP
360
1C8CDE6B2BE3
  3
BUMPTILE
360
1C8CDE6B2433
  3
DIFFUSETILE
360
1C8CDE6B2432
  3
OPACITYTILE
360
1C8CDE6B2436
  3
REFLECTIONTILE
360
1C8CDE6B2435
  3
REFRACTIONTILE
360
1C8CDE6B2437
  3
SPECULARTILE
360
1C8CDE6B2434
  0
DICTIONARY
  5
1C8CDE6B2441
330
1C8CDE6B2440
100
AcDbDictionary
280
     1
281
     1
  3
ACAD_XREC_ROUNDTRIP
360
1C8CDE6B2BE5
  3
BUMPTILE
360
1C8CDE6B2443
  3
DIFFUSETILE
360
1C8CDE6B2442
  3
FBXASSET
360
1C8CDE6B2B01
  3
OPACITYTILE
360
1C8CDE6B2446
  3
REFLECTIONTILE
360
1C8CDE6B2445
  3
REFRACTIONTILE
360
1C8CDE6B2447
  3
SPECULARTILE
360
1C8CDE6B2444
  0
DICTIONARY
  5
1C8CDE6B2C16
330
1C8CDE6B2474
100
AcDbDictionary
280
     1
281
     1
  3
ACAD_XREC_ROUNDTRIP
360
1C8CDE6B2C17
  0
DICTIONARY
  5
1C8CDE6B2C36
330
1C8CDE6B26A2
100
AcDbDictionary
280
     1
281
     1
  3
ACAD_XREC_ROUNDTRIP
360
1C8CDE6B2C37
  0
DICTIONARY
  5
1C8CDE6B2C3A
330
1C8CDE6B26A4
100
AcDbDictionary
280
     1
281
     1
  3
ACAD_XREC_ROUNDTRIP
360
1C8CDE6B2C3B
  0
DICTIONARY
  5
1C8CDE6B2C38
330
1C8CDE6B26A3
100
AcDbDictionary
280
     1
281
     1
  3
ACAD_XREC_ROUNDTRIP
360
1C8CDE6B2C39
  0
DICTIONARY
  5
1C8CDE6B2C1C
330
1C8CDE6B2695
100
AcDbDictionary
280
     1
281
     1
  3
ACAD_XREC_ROUNDTRIP
360
1C8CDE6B2C1D
  0
DICTIONARY
  5
1C8CDE6B2C1E
330
1C8CDE6B2696
100
AcDbDictionary
280
     1
281
     1
  3
ACAD_XREC_ROUNDTRIP
360
1C8CDE6B2C1F
  0
DICTIONARY
  5
1C8CDE6B2C2A
330
1C8CDE6B269C
100
AcDbDictionary
280
     1
281
     1
  3
ACAD_XREC_ROUNDTRIP
360
1C8CDE6B2C2B
  0
DICTIONARY
  5
1C8CDE6B2C2E
330
1C8CDE6B269E
100
AcDbDictionary
280
     1
281
     1
  3
ACAD_XREC_ROUNDTRIP
360
1C8CDE6B2C2F
  0
DICTIONARY
  5
1C8CDE6B2C24
330
1C8CDE6B2699
100
AcDbDictionary
280
     1
281
     1
  3
ACAD_XREC_ROUNDTRIP
360
1C8CDE6B2C25
  0
DICTIONARY
  5
1C8CDE6B2C32
330
1C8CDE6B26A0
100
AcDbDictionary
280
     1
281
     1
  3
ACAD_XREC_ROUNDTRIP
360
1C8CDE6B2C33
  0
DICTIONARY
  5
1C8CDE6B2C20
330
1C8CDE6B2697
100
AcDbDictionary
280
     1
281
     1
  3
ACAD_XREC_ROUNDTRIP
360
1C8CDE6B2C21
  0
DICTIONARY
  5
1C8CDE6B2C3C
330
1C8CDE6B26A5
100
AcDbDictionary
280
     1
281
     1
  3
ACAD_XREC_ROUNDTRIP
360
1C8CDE6B2C3D
  0
DICTIONARY
  5
1C8CDE6B2C26
330
1C8CDE6B269A
100
AcDbDictionary
280
     1
281
     1
  3
ACAD_XREC_ROUNDTRIP
360
1C8CDE6B2C27
  0
DICTIONARY
  5
1C8CDE6B2C34
330
1C8CDE6B26A1
100
AcDbDictionary
280
     1
281
     1
  3
ACAD_XREC_ROUNDTRIP
360
1C8CDE6B2C35
  0
DICTIONARY
  5
1C8CDE6B2C22
330
1C8CDE6B2698
100
AcDbDictionary
280
     1
281
     1
  3
ACAD_XREC_ROUNDTRIP
360
1C8CDE6B2C23
  0
DICTIONARY
  5
1C8CDE6B2C3E
330
1C8CDE6B26A6
100
AcDbDictionary
280
     1
281
     1
  3
ACAD_XREC_ROUNDTRIP
360
1C8CDE6B2C3F
  0
DICTIONARY
  5
1C8CDE6B2C2C
330
1C8CDE6B269D
100
AcDbDictionary
280
     1
281
     1
  3
ACAD_XREC_ROUNDTRIP
360
1C8CDE6B2C2D
  0
DICTIONARY
  5
1C8CDE6B2C30
330
1C8CDE6B269F
100
AcDbDictionary
280
     1
281
     1
  3
ACAD_XREC_ROUNDTRIP
360
1C8CDE6B2C31
  0
DICTIONARY
  5
1C8CDE6B2C28
330
1C8CDE6B269B
100
AcDbDictionary
280
     1
281
     1
  3
ACAD_XREC_ROUNDTRIP
360
1C8CDE6B2C29
  0
DICTIONARY
  5
1C8CDE6B2C40
330
1C8CDE6B26A7
100
AcDbDictionary
280
     1
281
     1
  3
ACAD_XREC_ROUNDTRIP
360
1C8CDE6B2C41
  0
DICTIONARY
  5
1C8CDE6B2C18
330
1C8CDE6B2476
100
AcDbDictionary
280
     1
281
     1
  3
ACAD_XREC_ROUNDTRIP
360
1C8CDE6B2C19
  0
DICTIONARY
  5
1C8CDE6B261E
330
1C8CDE6ACAC6
100
AcDbDictionary
280
     1
281
     1
  3
ACAD_ROUNDTRIP_2008_TABLESTYLE_CELLSTYLEMAP
360
1C8CDE6B2BDB
  3
ACAD_XREC_ROUNDTRIP
360
1C8CDE6B2BE2
  0
DICTIONARY
  5
1C8CDE6B2BF0
330
1C8CDE6B244E
100
AcDbDictionary
280
     1
281
     1
  3
ACAD_XREC_ROUNDTRIP
360
1C8CDE6B2BF1
  0
DICTIONARY
  5
1C8CDE6B2BEE
330
1C8CDE6B244D
100
AcDbDictionary
280
     1
281
     1
  3
ACAD_XREC_ROUNDTRIP
360
1C8CDE6B2BEF
  0
DICTIONARY
  5
1C8CDE6B2BFC
330
1C8CDE6B2454
100
AcDbDictionary
280
     1
281
     1
  3
ACAD_XREC_ROUNDTRIP
360
1C8CDE6B2BFD
  0
DICTIONARY
  5
1C8CDE6B2C04
330
1C8CDE6B2458
100
AcDbDictionary
280
     1
281
     1
  3
ACAD_XREC_ROUNDTRIP
360
1C8CDE6B2C05
  0
DICTIONARY
  5
1C8CDE6B2BF6
330
1C8CDE6B2451
100
AcDbDictionary
280
     1
281
     1
  3
ACAD_XREC_ROUNDTRIP
360
1C8CDE6B2BF7
  0
DICTIONARY
  5
1C8CDE6B2BFA
330
1C8CDE6B2453
100
AcDbDictionary
280
     1
281
     1
  3
ACAD_XREC_ROUNDTRIP
360
1C8CDE6B2BFB
  0
DICTIONARY
  5
1C8CDE6B2C14
330
1C8CDE6B2460
100
AcDbDictionary
280
     1
281
     1
  3
ACAD_XREC_ROUNDTRIP
360
1C8CDE6B2C15
  0
DICTIONARY
  5
1C8CDE6B2C02
330
1C8CDE6B2457
100
AcDbDictionary
280
     1
281
     1
  3
ACAD_XREC_ROUNDTRIP
360
1C8CDE6B2C03
  0
DICTIONARY
  5
1C8CDE6B2BE6
330
1C8CDE6B2449
100
AcDbDictionary
280
     1
281
     1
  3
ACAD_XREC_ROUNDTRIP
360
1C8CDE6B2BE7
  0
DICTIONARY
  5
1C8CDE6B2BE8
330
1C8CDE6B244A
100
AcDbDictionary
280
     1
281
     1
  3
ACAD_XREC_ROUNDTRIP
360
1C8CDE6B2BE9
  0
DICTIONARY
  5
1C8CDE6B2BEA
330
1C8CDE6B244B
100
AcDbDictionary
280
     1
281
     1
  3
ACAD_XREC_ROUNDTRIP
360
1C8CDE6B2BEB
  0
DICTIONARY
  5
1C8CDE6B2BEC
330
1C8CDE6B244C
100
AcDbDictionary
280
     1
281
     1
  3
ACAD_XREC_ROUNDTRIP
360
1C8CDE6B2BED
  0
DICTIONARY
  5
1C8CDE6B2BF4
330
1C8CDE6B2450
100
AcDbDictionary
280
     1
281
     1
  3
ACAD_XREC_ROUNDTRIP
360
1C8CDE6B2BF5
  0
DICTIONARY
  5
1C8CDE6B2C10
330
1C8CDE6B245E
100
AcDbDictionary
280
     1
281
     1
  3
ACAD_XREC_ROUNDTRIP
360
1C8CDE6B2C11
  0
DICTIONARY
  5
1C8CDE6B2C00
330
1C8CDE6B2456
100
AcDbDictionary
280
     1
281
     1
  3
ACAD_XREC_ROUNDTRIP
360
1C8CDE6B2C01
  0
DICTIONARY
  5
1C8CDE6B2C12
330
1C8CDE6B245F
100
AcDbDictionary
280
     1
281
     1
  3
ACAD_XREC_ROUNDTRIP
360
1C8CDE6B2C13
  0
DICTIONARY
  5
1C8CDE6B2BF8
330
1C8CDE6B2452
100
AcDbDictionary
280
     1
281
     1
  3
ACAD_XREC_ROUNDTRIP
360
1C8CDE6B2BF9
  0
DICTIONARY
  5
1C8CDE6B2C0E
330
1C8CDE6B245D
100
AcDbDictionary
280
     1
281
     1
  3
ACAD_XREC_ROUNDTRIP
360
1C8CDE6B2C0F
  0
DICTIONARY
  5
1C8CDE6B2C0C
330
1C8CDE6B245C
100
AcDbDictionary
280
     1
281
     1
  3
ACAD_XREC_ROUNDTRIP
360
1C8CDE6B2C0D
  0
DICTIONARY
  5
1C8CDE6B2C06
330
1C8CDE6B2459
100
AcDbDictionary
280
     1
281
     1
  3
ACAD_XREC_ROUNDTRIP
360
1C8CDE6B2C07
  0
DICTIONARY
  5
1C8CDE6B2C08
330
1C8CDE6B245A
100
AcDbDictionary
280
     1
281
     1
  3
ACAD_XREC_ROUNDTRIP
360
1C8CDE6B2C09
  0
DICTIONARY
  5
1C8CDE6B2BFE
330
1C8CDE6B2455
100
AcDbDictionary
280
     1
281
     1
  3
ACAD_XREC_ROUNDTRIP
360
1C8CDE6B2BFF
  0
DICTIONARY
  5
1C8CDE6B2BF2
330
1C8CDE6B244F
100
AcDbDictionary
280
     1
281
     1
  3
ACAD_XREC_ROUNDTRIP
360
1C8CDE6B2BF3
  0
DICTIONARY
  5
1C8CDE6B2C0A
330
1C8CDE6B245B
100
AcDbDictionary
280
     1
281
     1
  3
ACAD_XREC_ROUNDTRIP
360
1C8CDE6B2C0B
  0
XRECORD
  5
1C8CDE6B2C1B
102
{ACAD_REACTORS
330
1C8CDE6B2C1A
102
}
330
1C8CDE6B2C1A
100
AcDbXrecord
280
     1
102
DISPLAYNAME
  1
Imperial24
102
FLAGS
 90
        0
  0
XRECORD
  5
1C8CDE6B2BDF
102
{ACAD_REACTORS
330
1C8CDE6B2BDE
102
}
330
1C8CDE6B2BDE
100
AcDbXrecord
280
     1
102
SHADEPLOT
 70
     0
102
SHADEPLOTRESLEVEL
 70
     2
102
SHADEPLOTCUSTOMDPI
 70
   300
  0
XRECORD
  5
1C8CDE6B2BE1
102
{ACAD_REACTORS
330
1C8CDE6B2BE0
102
}
330
1C8CDE6B2BE0
100
AcDbXrecord
280
     1
102
SHADEPLOT
 70
     0
102
SHADEPLOTRESLEVEL
 70
     2
102
SHADEPLOTCUSTOMDPI
 70
   300
  0
XRECORD
  5
1C8CDE6B2BE4
102
{ACAD_REACTORS
330
1C8CDE6B2439
102
}
330
1C8CDE6B2439
100
AcDbXrecord
280
     1
102
MATERIAL
148
0.0
149
0.0
149
0.0
 93
        0
 94
      127
282
     0
 72
     0
 77
     0
171
     0
175
     0
179
     0
273
     0
  0
XRECORD
  5
1C8CDE6B243B
102
{ACAD_REACTORS
330
1C8CDE6B2439
102
}
330
1C8CDE6B2439
100
AcDbXrecord
280
     1
270
     1
271
     1
  0
XRECORD
  5
1C8CDE6B243A
102
{ACAD_REACTORS
330
1C8CDE6B2439
102
}
330
1C8CDE6B2439
100
AcDbXrecord
280
     1
270
     1
271
     1
  0
XRECORD
  5
1C8CDE6B243E
102
{ACAD_REACTORS
330
1C8CDE6B2439
102
}
330
1C8CDE6B2439
100
AcDbXrecord
280
     1
270
     1
271
     1
  0
XRECORD
  5
1C8CDE6B243D
102
{ACAD_REACTORS
330
1C8CDE6B2439
102
}
330
1C8CDE6B2439
100
AcDbXrecord
280
     1
270
     1
271
     1
  0
XRECORD
  5
1C8CDE6B243F
102
{ACAD_REACTORS
330
1C8CDE6B2439
102
}
330
1C8CDE6B2439
100
AcDbXrecord
280
     1
270
     1
271
     1
  0
XRECORD
  5
1C8CDE6B243C
102
{ACAD_REACTORS
330
1C8CDE6B2439
102
}
330
1C8CDE6B2439
100
AcDbXrecord
280
     1
270
     1
271
     1
  0
XRECORD
  5
1C8CDE6B2BE3
102
{ACAD_REACTORS
330
1C8CDE6B2431
102
}
330
1C8CDE6B2431
100
AcDbXrecord
280
     1
102
MATERIAL
148
0.0
149
0.0
149
0.0
 93
        0
 94
      127
282
     0
 72
     0
 77
     0
171
     0
175
     0
179
     0
273
     0
  0
XRECORD
  5
1C8CDE6B2433
102
{ACAD_REACTORS
330
1C8CDE6B2431
102
}
330
1C8CDE6B2431
100
AcDbXrecord
280
     1
270
     1
271
     1
  0
XRECORD
  5
1C8CDE6B2432
102
{ACAD_REACTORS
330
1C8CDE6B2431
102
}
330
1C8CDE6B2431
100
AcDbXrecord
280
     1
270
     1
271
     1
  0
XRECORD
  5
1C8CDE6B2436
102
{ACAD_REACTORS
330
1C8CDE6B2431
102
}
330
1C8CDE6B2431
100
AcDbXrecord
280
     1
270
     1
271
     1
  0
XRECORD
  5
1C8CDE6B2435
102
{ACAD_REACTORS
330
1C8CDE6B2431
102
}
330
1C8CDE6B2431
100
AcDbXrecord
280
     1
270
     1
271
     1
  0
XRECORD
  5
1C8CDE6B2437
102
{ACAD_REACTORS
330
1C8CDE6B2431
102
}
330
1C8CDE6B2431
100
AcDbXrecord
280
     1
270
     1
271
     1
  0
XRECORD
  5
1C8CDE6B2434
102
{ACAD_REACTORS
330
1C8CDE6B2431
102
}
330
1C8CDE6B2431
100
AcDbXrecord
280
     1
270
     1
271
     1
  0
XRECORD
  5
1C8CDE6B2BE5
102
{ACAD_REACTORS
330
1C8CDE6B2441
102
}
330
1C8CDE6B2441
100
AcDbXrecord
280
     1
102
MATERIAL
148
0.0
149
0.0
149
0.0
 93
        0
 94
      127
282
     0
 72
     0
 77
     0
171
     0
175
     0
179
     0
273
     0
  0
XRECORD
  5
1C8CDE6B2443
102
{ACAD_REACTORS
330
1C8CDE6B2441
102
}
330
1C8CDE6B2441
100
AcDbXrecord
280
     1
270
     1
271
     1
  0
XRECORD
  5
1C8CDE6B2442
102
{ACAD_REACTORS
330
1C8CDE6B2441
102
}
330
1C8CDE6B2441
100
AcDbXrecord
280
     1
270
     1
271
     1
  0
XRECORD
  5
1C8CDE6B2B01
102
{ACAD_REACTORS
330
1C8CDE6B2441
102
}
330
1C8CDE6B2441
100
AcDbXrecord
280
     1
 70
     1
 90
1959938040
 71
     1
  1
B222217F-85D0-4144-AA3F-1B430EC96080
311
504B0304140006080800308C4856EAF961F6B4000000200100004F00000030443033324345302D353430452D344331392D383244352D4133373931363844364331452F4173736574446174612F446566696E6974696F6E4974657261746F7250726F706572746965732E62696EEB606060F80F0540260323103700495E20ED
311
9E9A975A94991C9C9C919A9BC8C00612C9C94F4ACC6147C831019920AE4B6A5A62694E0948976F6671726A4E4E625E6A7E69B12042A9426E6209D0B8C41C3D90264E20860914834C48875806B2DF0F88414E02D189290556F689C5C5A925B6FA694915FACE2E2666668EA646BA96A6C62EBA26A64626BA8E46266EBA26962E
311
E696E68E461686AEA6FA45A9C5F9A545C9A9C5FA46FA06F15093E30BF2D28106920800504B0304140006080800308C4856A98EDDDCEA000000300200004500000030443033324345302D353430452D344331392D383244352D4133373931363844364331452F4173736574446174612F496E7374616E636550726F70657274
311
6965732E62696EEB606060F80F0540260323103700495E20ED9E9A975A94991C9C9C919A9BA80214703202024373375D0B5317035D134313135D474763375D432713630357674B33030B037684469016634313175723534B5D531313635D133323435D273727175D43736303673367674B47574BA032B0BD0C9A31FD87BE6A
311
5CB107D24C40B1062086F1C134900F041FEC21AA1918041C1804C0426042C501C1C6CA026A84003803AB32A0205CC1076620AF0188A15A1F40691EA0102600852342066E0886C2949D0E18622802985A41466B20A9F960CF02E481628B0F8883CB134B9233749D8A12F35252534032B40200504B0304140006080800308C48
311
5628BB58AF800100009E0500003D00000030443033324345302D353430452D344331392D383244352D4133373931363844364331452F536368656D61732F436F6D6D6F6E536368656D612E786D6CBD544D4FC23018BEFB2B96DE15493C78601010A34B880709DEDFB52FD0D8B54BD70DF6EFED3AC0B12E6442E2716BFB3CEF
311
F3D18E26FB440405EA8C2B1992E1C323095052C5B8DC842437EBFB673219DF8DA659866649B798C078B48AE6410122242F2A4994AC7F93815DF85C049C8564CA0A901499DD886B2EB9B1E02448F358701A9235880C49A0119892A20C89D1B9FD768815CAD268CB5E0355B40B1E47F3E37A2020464BED06AA57CE8FCC20C3C3
311
446D46761A2632A8C1283D07031EFF2AE7CCB1BFEEE916E406DFAC8E36FFD99A9D60A6944090EEDC3B670C7DC13DE86B6B2C5C240D6E503BB85ACD579D513F1B9F9A69DC9CC22AFA80C426D40AF0B21EA168559156B6276F0F726A6BFF04DCD513A87A62CAD41FB24FCB2858B3952E3D852084DA25B9303C15687973CC8E8A
311
AE11DF2836C38C6A9E765E8C1BA1BFB1DC29CDFE518C8B5A7655A4ED7E77291ABEB80DBD82EC866ADE1B8D05AF9E35CF09D7A061F38A986D9EC412B8F0F65E5D81534D9B231D1E5A8FE577A241F3A5FD01504B0304140006080800308C48562CCEBD668A040000E01200003E00000030443033324345302D353430452D3443
311
31392D383244352D4133373931363844364331452F536368656D61732F47656E65726963536368656D612E786D6CD5586D6FDB380CFE7EBF42F0F7A649B70E1B90744856B4970F450FCD7A5F05459613EDE4174872DADCAF3F522F8ED3B88D2F1D06AC4050DBA2493EE4438AF2F8EB73AEC8466823CB62928C06C384888297
311
A92C5693A4B6D9D9E7E4EBD51FE3A931C22EF85AE4EC6AFC38BF261BA626C9AD288496DC3F4FCEAFC63366845F7A10452AF41DB320C0D44EC26EAB20918735565582695670811A6A49643A49A6E9069FA4604A64B29016DC4B48552F95E4932463CA888468C1D2B250DB4962750DF7CE273069CE8363F1FF4EDB00E0A21999
311
574AE4A2B00C353B93F3BD4777B8A61ED8F604ABFEDD79CE56A2B7BDFBDBC50996E0ADDE16FED26223C5D30956C29BDF4A55EA686E5E58B112DA45CE67F76F4FA27EFA3FB672FD7372FC388FAECDCA5209E693CAD167BADCD272F943701B3812F8A3D852008B1D2E32DB927B2F833C6EA95879925356D254582695095A3CE9
311
82924720BE5774A3CB9CDCDB350427D2DF20DA1B5532EBE2D5D6288D75D4F7E4FD9890A0EF8E3D93EBB8F8BA4758158EF6FB90A6F9520281C93DE7AAC6D24607DA296BB96018123F821A7D6A5C5884050C475DA4865442732C8B95684A50165CBB3A32F25F783A4A480ED59AD7F924B968AEA50131F46303223E6A397B0E52
311
976030DC1DCA81D7E7C1EDEEA42C19FF27635C505E2BD5198A599020DF50A2330FCB3AAF28CB0124108429553EF1B228802E2265D8F7CC2401042B155BCC7070F1E5C55F13B4A9577362CCCE46C32174E010C3C378C44841A4BDA00FE3A12006CE11EE6AEC59894D3526DDE1CD59D503ECC324017F8061B7F162162FA62EDD
311
81AE3308617770796DCBDAD2B2625C5AE8A63DE20B2C8AA5E95E76E5730823955956E33E705425A2187C185D36489A1B44D3DCEC2172F6BA2105C3546287A7194B2331768EBBE64F6E70A9930ABE0ADEA89E9E2C38523B810287AD67A54A039C1606EAFE68F8304610BB9093DBDDABC0B2AE4E290DCDA15376D7E39F72B556
311
F0B32EAB5D3D498B4C41ABADEC3A1434C422D87E8025A84BDCB2B1417ED750FAE4DA8976863974C577C7F902D3F156AD354DEA3540DE6BEAE2BEA52F7A2EB4CA43802ECE5BF2CE2EDC9347179FFB023CE412E60BE16DA0BE29B374988A553F561DC04615DD35F7D2C8979F60E5955CE93DF29DED8AFA1EE6642D53418086C0
311
3C47C377910F75F7E8F5EF665F70B60FFB22AEDF897D119E8423C773E819A3C1E55E550599EE6EDCA34D0C86FD72057DF2CD46F16A470682471C164E4346D5306BF12D7D12D82CFF673D41636C347443FEB51B50D72EA171A8E4A58623A4A16E0FA2B8B10A0D23268D87C33896EE8FB73305A74BF224EDBADFA0BD674AB354
311
D63DB7BD5D83426761C077DE767728235446A552754EB93B755891C3C4CC6CADE37CF0E912A7BB38DBA010F9DE1282EDF470CA69A9CDA482E334C4A6EA4107987980B17E72F31730EBF88BBD39E7C629F56797A3C0009C2C5AE7951D9A05A02773440F02EEB4DE396A3B6A570C72CCFBCD823B0B8ED3F1D5CEDDFED772FA70
311
236C83FB7D86C385D570B87107535572A60A96035F8F7C6A7192F13007246BBE0521855E6AC46F3E27689CEE7D186A6FD679D98CDCAD13333E04EBE7ED6F55FF01504B0304140006080800308C48566180134D5F0100006B0300004500000030443033324345302D353430452D344331392D383244352D4133373931363844
311
364331452F536368656D61732F52656E6465724D6174657269616C536368656D612E786D6CA5934D6FC2300C86EFFB1551EEE343DBA41D1A103009551ADAD40EAE28A4A68D9426284961FCFBE5A340113B2071746D3F765EBF4DC6BFB5407BD0862B49F0B037C0082453059725C18DDD3EBFE3F1E829991803366715D47494
311
2CD30FB4A782E00C64017A412D684E454CE3FE28995203B162A6EA5AC94B66997D225E109CD63B0135484BAD1B3C07E9080CA35DB3119C11BCA5C200461A68A1A438126C75E3E230D40FF81FB3F03C91D1E3A3A0AF79FE28E25BC39EC3E17E4C2A2D94A0833A51AF55BCCA7D88572FCBAC529C4140B020FC3AAFA886621DCE
311
D7EAD7664CC86024E806DC297DA1BB393E4156543457A4537DB8817349A70F8ACBF09B3EEE2CB2F33E91B65D60786E4E3B39B77E3FEEEF5650424525DA657FB8B46BE6BF064646F0A0F7327C0BC1BC1B4CBBC1C419FA3CCB23500007872A2580CAAE5461865565294E4EDB4617B62FF579DF9A5B2F54E834076A597573A020
311
912FED777F9B3F504B0304140006080800308C48569BC4EE4E4F000000570000004700000030443033324345302D353430452D344331392D383244352D4133373931363844364331452F4173736574446174612F41737365745461626C654F66436F6E74656E74732E62696E53616060703202024373375D0B5317035D1343
311
13135D474763375D432713630357674B33030B0321A0BADCC492D4A2CCC49CC48282D4C4A2C4BCE454A02018F00249F7D43CA06C727072466A6E2200504B0304140006080800308C4856F865834058000000680000004500000030443033324345302D353430452D344331392D383244352D4133373931363844364331452F
311
4173736574446174612F53747265616D56657273696F6E5461626C652E696E66558CBD0A80300C06F73E4B117FB66E451741D041DC5BF98480A492E4FDD18EAEC7DD4555D89EF28DF51A0B1BD8340C4DE7DD848B988C0ACF0649566493F2408C508DDEBB99D5129FF8F1AF8CF5B9503E20FAE5A16B5AF702504B0304140006
311
080800308C4856C6435945330100009A0400003600000030443033324345302D353430452D344331392D383244352D4133373931363844364331452F4173736574446174612F636E782E786D6CCD54B14EC33010FD95C87BECB41DA890E30AC1D209242A06B6AB7329561D5F645F10FC3D769B010462EA50C9D3F3BBBBE727
311
BFD39B8FC157EF1893A3D08A856C4485C152E7C2A11513F7F55A541BA323117FA3892AC080AD28B030FA10691A67A8C31E265F50EFC27106EF5242DEC1DEE3637F4F8131701295F590522B927DC301244C4C1DA6A3EC80412E64C44453B4983BB11B70EE6423026327CCB259AEEA665937EBDDE2E676B5CAE755ABC2347A4F
311
E467BECBC3228D953D4F15A6D1AA5C1B3D453773CA5B84F94BA3DCBBA055661A9D38664FE60AFE1C73058CA37716385BA7C832729D4908835667B2D1AA78F0C38907EC5D70A5649B8501537CCAF230B2C3AB73E43FAD9777661B1243B078BD7EFC567879179E4F3FE8E51CC85362AE2D27BF154A17FA0BA4449DD6480E4DD9
311
2AE60B504B0304140006080800308C485647B12597080100004F0300003400000030443033324345302D353430452D344331392D383244352D4133373931363844364331452F536368656D61732F636E782E786D6CCD933B4F04211485FFCA847E601E851BC3B0C51656366A65877077250BDC090FA3FF5E182976133B2D36
311
A180C3979B7B0E17BEFF74B6FB80100DFA858C74201D7885DAF8D342723AF63BD2ED050F88E902239D970E16526522F829605E9BA4E128B3ADAA35FEDCC4033A87FE59BD8393A45356C6B890B81DA9CC0935C433D532493AD200117350502A24E3A055500164024DC4344C733F4CFDB07B19EFEEE7B9AC57CE2A29F81BA26D
311
BCF10902AE9DC2B2F1A59D81B37A2D780EA631D5031197BDD192066785103CA650326864FA5A0B29D7D51A2553898A6DE00F2338AB56AF0C3F808760D46D3ABE6AEEDF2C3F81D7101ECB2B0523ED6D3AFFADC7BF05C0B6D92F2350BF82F806504B0304140006080800308C4856410A3D5871000000A40000002C0000003044
311
3033324345302D353430452D344331392D383244352D4133373931363844364331452F636E782E786D6C55CC4D0E82301086E1AB34B31774E7A22D31F1069E60020334B633A63FC6E34B0909B07DDE2F9FEE7EC1AB2FC5E4840DDC9A2B28E25E06C7938192C7CB1D54677514C9871928C640062A83D55394F2D968A0118BAF
311
EA1DBF377CA444F98919176EAB9FEAAB9F2960DA5BBB1E2ED3FA6FFF504B0304140006080800308C48566C7758AB7E000000A300000007000000636E782E786D6C4D8C4D0AC3201805AF22DFDE56F357036A28EA4142638234D16063E9F1AB258BAE1E0C6F860F9F6D456F1B5F2E7801F4420059FF0893F38B8074CC98011A
311
248F211C7F37407EDCAC808241F22586B49F68B2F398D64257E79F27249AD4953204B70D31B851B4C7ACD22DBED7B79E764C778A9A6C5C8B92E7D7CB5BF2F20B504B0304140006080800308C485616E99B5DA600000035010000130000005B436F6E74656E745F54797065735D2E786D6C9590410E82301045AFD2740F4517
311
C6180A0BF5065E60AC53688469D30E066F6F91AD9AB89CF9FFFD3F99BA9DC7413C3026E749CB4D59498164FCCD51A7E5C4B6D84BD136F5E5193089ECA5A465CF1C0E4A25D3E308A9F401292BD6C711388FB15301CC1D3A54DBAADA29E38991B8E0254336F5092D4C038BF39CD76B6FC6A538AEBEA54A4B08617006389FA516
311
557DE4AE8E7E70DE30729138228C5F021CD93F02D4FB0DCD0B504B0304140006080800308C48563DEE336E64000000790000001B0000006175746F6465736B2D64657369676E2D7061636B6167652E786D6C35CBC10E83200C00D05F21DCA56CA76D41FC96062B120735B69A7DBE268BB7777961F8D5AF396893C2ADB70FE7
311
ADA196782C2DF776D7A97B5933C430F15651E5469C55D70F80A4992A3ADC954792C525AE70A1E4D6AD9816CC044FEFDF01FE3FDE907802504B0304140006080800308C4856672256D5F8000000960100003700000030443033324345302D353430452D344331392D383244352D4133373931363844364331452F4173736574
311
446174612F636F72652E786D6C8550CB6EC32010FC156BEFF8451C9C0A13398F3FE8A93704C44589C1E211F5F30BB12BB5A74A488B66676677871EBFE647F154CE6B6B0668CA1A0A658495DA4C03C470433D1447469DB5E1170D0AC36735408681D1C9D9B86C90B02628935163A5DA40EEBD0A508847FA0CE0C5A79A79C963
311
480C7F2F172EEE7C526553AE3C4663D472936A99DCF44D2B07AC3F74DD758F7B3462D2A1DDA9BEA2032123EA30D993119FCE97FE4CAB2C6634E8F967BA708A072581B5758B51DDA2BA7F6FC81BC6E97DD02A3319F5C1A59BB7A1F93A6063DEFAC203A7D5DAFDE31A17F9BF6BD426E076735D151E5893967C3518AD724AA9BC
311
224C3527CABE01504B0304140006080800308C48567CFBF18FF7000000940100003500000030443033324345302D353430452D344331392D383244352D4133373931363844364331452F536368656D61732F636F72652E786D6C8550CB6EC32010FC156BEFF8451D9C0A133969BEA03DF58680B82831583CAA7E7EC176A5F6
311
540969D1ECCCECEED0D3D7FC283E95F3DA9A019AB286421961A536D30031DC500FC58951676DF84583C2F0590D9061607472362E3B24AC09CA64D458A976907BAF0214E2913E0378F1A1665EF21812C3DFCB858B3B9F54D9941B8FD118B5DCA55A26377DD3CA01EB8F5D773DE01E8D9874E8E95C5FD191901175981CC888CF
311
9797FE42AB2C6634E8F967BA708A072581B5758B51DDA2BA7F6BC833C6E9BDD32A3319F5C1A59BF7A1F93A60AFEB9E9E565BEF8F675CE4FF9E519B80DBDD735378604D5A716D305AE58C5259034C35E7C9BE01504B0304140006080800308C485649A29A4700010000D70100002D00000030443033324345302D353430452D
311
344331392D383244352D4133373931363844364331452F636F72652E786D6C9591D16E842010457FC5CC3B0ABAEEBA0DB269D43FE853DFA8CC5AB22B18C0A69F5FA8366DDFDA8404723977E0CEF0CBFB7CCFDED0796D4D0B2CA790A119ADD2666A610D57D2407611DC591B7E60901939630B4906C12767D76597466B029AA4
311
1AAB7017A5F718201BEFF1D0821F5F7196B95C4324FC2D5FE4789313E62CDF38C1839EBFACA343195081286959115A12DA3CB1D34355C5F5CC8B440ABE6A13AA727F0CE71754995D428C04A2E6C5761BA955AB9DD12AFE515F353A10B4A755D90D94D4073A9043C7CEA429FB9A3C56A7333B36FDB163432C12CD82FBE06267
311
F622A9077FB56FC65FC9D645FD33D9E6F020D877A822B559F0E27306714F23111F504B0304140006080800308C4856AFF1370007010000B201000008000000636F72652E786D6C8D50CB6EC32010FC15B477FCA20E4E85899C347FD0536FD41017C506CB40D4FE7D21A1527BAB84B46866766776D9E17399D14D6D4E5BD343
311
5D54809419ADD466EA21F80BEE001D38DBACF5BF64808C58540F0906CEA6CD863543A3355E99841A2B55068573CA031AE7F8E9C18D1F6A1185083E2ADCB558C57815932AEAE2A1E3CCEBE5A775DC94F04A026FAA86E0AAC155F75AD36742E27B63655272168296D94ACBE8AE2F5A6DC0BB7DDB9E77A4C303A12D7E3A5667BC
311
A774C02DA13B3A90E3E9A53BB1323573E6FC1677CE43624E8F9CB8255F563E28CEDEAD9DB3208692C89AF90B78C5CA44FC091D56F98FD0DA78D2E4818F0E07BC8E81EE44344E178CE57EDE58D3B5F937504B01021400140006080800308C4856EAF961F6B4000000200100004F000000000000000000000000000000000030
311
443033324345302D353430452D344331392D383244352D4133373931363844364331452F4173736574446174612F446566696E6974696F6E4974657261746F7250726F706572746965732E62696E504B01021400140006080800308C4856A98EDDDCEA00000030020000450000000000000000000000000021010000304430
311
33324345302D353430452D344331392D383244352D4133373931363844364331452F4173736574446174612F496E7374616E636550726F706572746965732E62696E504B01021400140006080800308C485628BB58AF800100009E0500003D000000000000000000000000006E02000030443033324345302D353430452D34
311
4331392D383244352D4133373931363844364331452F536368656D61732F436F6D6D6F6E536368656D612E786D6C504B01021400140006080800308C48562CCEBD668A040000E01200003E000000000000000000000000004904000030443033324345302D353430452D344331392D383244352D4133373931363844364331
311
452F536368656D61732F47656E65726963536368656D612E786D6C504B01021400140006080800308C48566180134D5F0100006B03000045000000000000000000000000002F09000030443033324345302D353430452D344331392D383244352D4133373931363844364331452F536368656D61732F52656E6465724D6174
311
657269616C536368656D612E786D6C504B01021400140006080800308C48569BC4EE4E4F000000570000004700000000000000000000000000F10A000030443033324345302D353430452D344331392D383244352D4133373931363844364331452F4173736574446174612F41737365745461626C654F66436F6E74656E74
311
732E62696E504B01021400140006080800308C4856F865834058000000680000004500000000000000000000000000A50B000030443033324345302D353430452D344331392D383244352D4133373931363844364331452F4173736574446174612F53747265616D56657273696F6E5461626C652E696E66504B0102140014
311
0006080800308C4856C6435945330100009A0400003600000000000000000000000000600C000030443033324345302D353430452D344331392D383244352D4133373931363844364331452F4173736574446174612F636E782E786D6C504B01021400140006080800308C485647B12597080100004F030000340000000000
311
0000000000000000E70D000030443033324345302D353430452D344331392D383244352D4133373931363844364331452F536368656D61732F636E782E786D6C504B01021400140006080800308C4856410A3D5871000000A40000002C00000000000000000000000000410F000030443033324345302D353430452D344331
311
392D383244352D4133373931363844364331452F636E782E786D6C504B01021400140006080800308C48566C7758AB7E000000A30000000700000000000000000000000000FC0F0000636E782E786D6C504B01021400140006080800308C485616E99B5DA60000003501000013000000000000000000000000009F1000005B
311
436F6E74656E745F54797065735D2E786D6C504B01021400140006080800308C48563DEE336E64000000790000001B00000000000000000000000000761100006175746F6465736B2D64657369676E2D7061636B6167652E786D6C504B01021400140006080800308C4856672256D5F8000000960100003700000000000000
311
0000000000001312000030443033324345302D353430452D344331392D383244352D4133373931363844364331452F4173736574446174612F636F72652E786D6C504B01021400140006080800308C48567CFBF18FF70000009401000035000000000000000000000000006013000030443033324345302D353430452D3443
311
31392D383244352D4133373931363844364331452F536368656D61732F636F72652E786D6C504B01021400140006080800308C485649A29A4700010000D70100002D00000000000000000000000000AA14000030443033324345302D353430452D344331392D383244352D4133373931363844364331452F636F72652E786D
311
6C504B01021400140006080800308C4856AFF1370007010000B20100000800000000000000000000000000F5150000636F72652E786D6C504B050600000000110011005A060000221700000000
310
504B0304140006080800308C4856000000000000000000000000370000006662782F42314433383038432D373536422D343534452D394431422D3839453745333436354238392F617474726962757465732E62696E504B0304140006080800308C4856000000000000000000000000350000006662782F4231443338303843
310
2D373536422D343534452D394431422D3839453745333436354238392F76657274696365732E62696E504B0304140006080800308C4856F270F1330600000004000000360000006662782F42314433383038432D373536422D343534452D394431422D3839453745333436354238392F747269616E676C65732E62696E6366
310
60600000504B0304140006080800308C485651464CB48900000043010000360000006662782F42314433383038432D373536422D343534452D394431422D3839453745333436354238392F6469726563746F72792E786D6C9D8F310EC2300C45AF127987122606C71DD918B841D4B851A43646695A717C52A85029031293A5
310
A76FBF6FACEF7DA7264E43906840EF0FA03836E242F406C6DCEE4EA06AC22492573150D1F66C60C640E8938CB705396EEDD86DE9B5042FE27813D640EA63BB001C722AF6E55CB61E4863F58284D5D3F53DD715CE1C3985E63FD7F1B7EBDD617E9F1E504B0304140006080800308C48564C1F44893C070000201C0000340000
310
006662782F42314433383038432D373536422D343534452D394431422D3839453745333436354238392F6F626A656374732E786D6CDD595B6FE23814FE2B56F665F72124814061441951684768D499D1A059ED5B6482A1DE3A1739494BF7D7EFB16387380D90CE455A2D954A709CE373BE733F99BE3F440C3D119ED124BEB6
310
BC9E6B211287C996C6FB6BABC877F6D842EF6768CA9324AFEDB3508C23726D89656B36DDF3A448D5D296EC70C19AAB77377FA12C2431B150C870965D5B59F84022DCC3459E6C49F6D8DBE21CF7F6BB43CFEB951B4DB27B8ED387C65129E624CE8155588F818AE2C0337F8248CE6CEA880DC6B641B76DFD33DB1C29B8C9288D
310
B31CC7E12BAE1AC7F54F70D5386EE0F9CBDBFE70620F7D7F60FBA3BE67DFDCDD2C6DEF6AE02E468BC5647E3BB1D06CBA491256292025F116B4F862CDBCA923EE54E22B14DAF80E933826A142B36DC39628BA94644D4C0C603D295A4D21A5ACB5854147E14F6CEB048AC19281B6164E7FD7AD37D9FC0D20645DAC9467445879
310
9673D0B5C2BEF40777EA94AB865E6886229C134E31438C6E38E6A020D85A2AC82023BC4590420233A9454DAFCE2B18F6655F6AE372573026FCD79A494F0BC01F499E49CEE83F841FB9AF9F063C81B4058DF3B112367F4981C464EAC8C5F2DEA0AF6E9640A21DC37BB01610536C1AF41B782D442C582DADD9C7BBCD612DE243
310
FBE1294F52C2736179D29995DF690DD64C0B8CAF032825AEA6EE8EA87C05E83F01F2152F680A9AE3F4E01F7C2D3BC771B64B7804DA412EB25DF8E72271F9EA6AEA540FCF103262E5294CC16D7F12A68618C6D9354867D32730FA840F9470EB1033B0E97B1A0B3F0743412C812588F7BBCDC19AAD2098C2223C8519480F7F53
310
475C22F82AE940BC6968A82DFC7650947698A69F1D75F5016C86D3B0529521E3297C873F05DFF972FD715DF01D0EC9BD72EC25D9D198E6904CDB193240375CFEDBEA93F4C80F2CD960767CDAD814C231FB44C48D16B5AC955A90D40B7022D270A919B9724FC1DB19C331498A4CADB7C5A93061090F362F41E9C2AD67FDA96D
310
A03C4C19406B2C83E41E729A0A4CAC99D25615087B3541C1C2305716B82FB51A6C8A280D709414B108B5AF4DB1C907C4196189405552D386ADBD5693DDD2DDAEC82078B5925C18402A7FD6844B0BF7218EB5F1CBC98E6348A2491C50C8C1E02CAD27180754E09DE739236C1750C68A28D85106792488707A827E4709EA99EB
310
91BC3C277CDB4AD0B42CED93DA8604E00A580D92CE5665CC573AE5E4898A3253E6339D0D8C1DAA0EB566FE89742132450BA0DA18A599DFF4E1E35DDDD9E3E1D2B57DCFF7EDF97C70677B37FEC0BD5D4C46EEF86825128163B4AAE73B50A528730CFFCB1F8A681363CAE086101B6FD377EF65F6BC7620343A8BA53F1ACD877D
310
7B321C2C6D7FD887B3FBFE9DED4F965793AB797FECDD0E1D4EB2A4E021C99CBEE306DA24D378DF44EF720C85B2E672B2D3FA6A0AF33F8EA1CD9C6028F1BF1A442BAB6C2908BB0651F1683384E2F051A4A82084AAAFD57D1A41B4C9475B9C7B635C767B03577E3C6FD27727FDF1645419FBD9402DCFF9E138D72641087D6791
310
07498A439AB727D4062E1DE3F49B724B6FE00D11A053FDAF0E399F67D421018DF09E043B2CBA8496C0784982D61CB6674996D19864B2CB7B55FD3568BA3D28A6CC9CDB6284340B2292E3EFB13FD936346C1A62330BA01FCDC544E062555019B4EA404E5114DD2F246E29FF4B90E1286565A77B0903AFAF21D03D4E9BC509A6
310
C5114F606F01CE03774BE4E0E212F58A7D5D1FB46AAD497DF2DDE44FC0A3EB9A5F088F3EA27BE9D41B7A13F1194350190DBDC19556C425ACF451B9E8E358019D67F8123C13BA7FE8546876D349AD642B8BEA9C44D0C6E2BCE09DFC7534745F1DA4E242C3216A27BDB13894FD9BEEE0003DD9C09D2A6F6BC7401D4A63987375
310
12E49514AD262C7521677A6274F506BF3EABEC3AD51F8E97BFBC62AE3B5F24873F9771806AB90CC02AFA1835756BD56DD443D933CE4308A46BF96DDF80476CC9F6D89819E4DA4A745DA75EAA9E5722A04630B1C522CEDE8B0BF61583AAA17BCE9C0F65D1E694EB2B91D87A309C3EF261306DD2FAFC61DDA0022B9D9FFE2230
310
22CF0D0A6A7521BAE133A4BEAD8E3D7F838292E8DBEACCE3FF898E422BB0364683697096300A4379B2457B9240F686B143876E8347249359198C570529FD46A0C3D34FE54C35C71BA69F0E1F300CA699EAC58A1086A29031AF2DB58E7E8331A89844CAE154EF11DA3015C32C54707A6D81C5E614BAADDE06C659727828A937
310
C695E0D838DE8B7C5F3E55FD3E3E26D081A87494ABDAD305172599E14C50D8A6F23D01547DE58DD9F4FB45D7EC209CC3E5A6C82B618E0B47691408FA8540291C4CFD1E15BC072828CECBE5F5E41E03924E93F9B3765052B573CCF772BC5EC37BBEFCE288C9F8EA334A59B117EA3CD7FD1A946CD175B3A29C424DC130949829
310
1635E4E29DF38527F08A294277148C00FD7E188FFE701649142571B9E4CCD58B2AB47E80D74E5B478FFCA08D77BDA123A7006AAC1F6C70467A789B3DC202A89653311B2D21360CA08AA63503D01A11BA80C78CFDAB2552B5516D42520FBB021E39D347E048E25D8E709BFA86DA00127C01B892378F177A61EA701882CFFE05
310
504B0304140006080800308C4856030CF3DA3D01000046050000300000006662782F42314433383038432D373536422D343534452D394431422D3839453745333436354238392F636E782E786D6CCD94C16A032110865F65F1BEBA9B1C1A8A6B20873E410FA537D79D6C6D5C5D742CCDDB575393B694941E02097890F117FE
310
6FE667F8FA7D32D51BF8A09DED484B1B5281556ED076EC48C46DBD22D55A70EF1C7E9391CACA093A92CB44F0D1BB3897D2005B194DAE1A6D77A52811BDEE234220953232848E04F50293A432A21B20ECE82051D2967A082E7A05E93FEA09CA7FE541220C442C9AC5B26E1675B37A6CEFEE97CB749E39CB4AC17BE74CD16B8B
310
E0DD5C29972E36996938CBCF8247AF8B261310F1E58CF6DA7296DE050FC9AD1D8B0EF773D6CDB3D14A626A13730A01EB24023971F629169C65DE1FD40F9BA7A3836AD01E143ABFBF5203DA730D3819A32909FFE33F08FFC676FD6BC2BDD6B4CFC2165B17433DA635A4B8FE9E7F4A91B4A3B9BDD09F8C5D3EF36995A056B787
310
7CF475216276587969E879038A0F504B0304140006080800308C4856573A98A17D000000A30000000B0000006662782F636E782E786D6C4D8CD10A832018465F45FE7BB7242D053370F920B12C64A6C3E5D8E34F4717BBFAE0F09D23C7CFEED1DBA6978B6100726900D9708F8B0BDB00F9583107342A99623CFE6E80C2BCDB
310
012A0625B714F3F3448B5DE7EC2BF52E3C4EA8C9D4F286DF70CF3A8D29A3068B8968CC85E94D4B3BA6B928C6B52A657EBDB235AFBE504B0304140006080800308C4856A6D797065F0000008200000007000000636E782E786D6C4DCB3B0E80201045D1AD90E9FD7516806B51190811670C8A61F982B1B0BAC9C97B72CA7B10
310
37C6D3332918DA1E04D2CAC69353902EDB8C20262D23F3F59B81A079470595414B17391D1F19B4730A5583A7ED43BBE4025D9592775E5ADFFA01504B0304140006080800308C48564FEB6A7CA0000000F4000000130000005B436F6E74656E745F54797065735D2E786D6C7D8F4B0EC2300C44AF1279DFA6B0400835ED02B8
310
011730C16D239A8F121795DB93D02D6269CFBC19BBED573B8B17C564BC53B0AB1B10E4B47F18372A5878A88E20FAAEBDBD032591BD2E299898C349CAA427B2986A1FC86565F0D122E7318E32A07EE24872DF3407A9BD63725C71C980AEBDD080CBCCE2BAE6F5D69B7110E7CD57AA146008B3D1C8F92C5954F993BB1BF787F3
310
9A89ABC491D09600F9FDA2FB00504B0304140006080800308C48563DEE336E64000000790000001B0000006175746F6465736B2D64657369676E2D7061636B6167652E786D6C35CBC10E83200C00D05F21DCA56CA76D41FC96062B120735B69A7DBE268BB7777961F8D5AF396893C2ADB70FE7ADA196782C2DF776D7A97B59
310
33C430F15651E5469C55D70F80A4992A3ADC954792C525AE70A1E4D6AD9816CC044FEFDF01FE3FDE907802504B0304140006080800308C4856E2FFD5F9F9000000960100003B0000006662782F42314433383038432D373536422D343534452D394431422D3839453745333436354238392F7265736F75726365732F636F72
310
652E786D6C8550CB6AC33010FC15B377D9B2FC481A640537B45FD0536F42DEB822B164F428FDFC4AB10BEDA92058313B33BB3BFCFCB5DC8B4F745E5B33405D5228D0283B69330F10C3951CA1380BEEAC0DBF685018B9E0001906C16767E3BA43CA9A8026A3C64EB883D27B0C50A87BFA0CE0D5072EB294312486BF95AB5437
310
396359971B4FF018F5B44BF594DCF455A3037160F4325E5A46FAE6E599B475F744C6574A4937D65DDFB74D37762DAFB258F0A0979FE9CAA10C38816094358432428F6FF5E1D434E9BDF32A3305F7C1A59BF7A1F93A100EBD8D4EA1E7D5D6FDE31AD7E97FD7A84D68D8EEBA293C883A2DF968085EE594527944986A4E547C03
310
504B0304140006080800308C48568830320CF1000000B1010000310000006662782F42314433383038432D373536422D343534452D394431422D3839453745333436354238392F636F72652E786D6C8D50CD6E8420187C15C31D15D1151B6413BBBE414FBD11605DB22B187E9A3E7E61B5497BDB84E423C30C33DFD0F3F7FA
310
28BE94F3DA9A11A0B2068532C24A6D9611C47085041467469DB5E10F0D1486AF6A0419068C2ECEC6ED80843541998C1A2BD50172EF55008578A4CB08BCB8A995973C86C4F0F772E3E2CE1755A272E7311AF4FA2B154EF1A024604DDD605837B0261FA87FC3389D4F5A6526A3316A79586999DCF5552B07D8842E98D4E41DF6
310
DD69826DD7CE70B8A0099261EE67DC9EBA890CB4CA62467D7069E7E393BCDDABF25DF82F73DCE40B99B509B8390C7785070CA53CCF0746AB5C601ACF76D3CC65B31F504B0304140006080800308C4856218955B252010000DD0200000C0000006662782F636F72652E786D6C8D52CB6E833010FC15E4BBC1BC92B4328E68D4
310
7E414FBD39E0502B602363A37C7ED73C4439F42110B66677667746D0F3A36B835198416A55A038242810AAD2B5544D819CBDE1130ACE8C1AADEDB7361428DE8902791831DA18EDFA05AAB4B2427954E95A2C201F06615150B57029D0507D8A8E87DC59E818EE61CFAB3B6F441887731FA3CEC97AA1CA1AD4E44D0A83D83121
310
97F29225F890BEBEE02CCE9F70F94608CECB383F1CB2342FF38C469ECCA895DD3ABD32825B5123969024C524C1E4F41E1F9FD314DE0F1AF94E46076BC0F332D4BB43EC767DD068C6777AAEAFFFD67352D93459F466C680580CEB4D0546239F0F1C5378FB0C6130E467F9B55D2DDC011A4565B5C9A0526BB79546DE3A01D224
310
981E1ACD55509E047ED2497ED1F95D0382E2AA81D5B885EBD5593F7DBF532F0C1EED2350DA74BCDD969B57DCBEDBA09DA5955EE9569BFFB057AB6B9891FF31D917504B0304140006080800308C4856165D324207010000B201000008000000636F72652E786D6C8D50CB6EC32010FC15B4776CFC4C5A6122376ABFA0A7DEA8
310
212E8A0D168FA8FDFB424CA5F6560969D1CCECCEECD2D3E7BAA09BB44E193D40551040524F46283D0F10FC051F019D18B5C6F85F32409AAF72800403A3B33561CBD064B4973AA1DA089941EE9CF480A6257E0670D3875C79C1838F0A772D363E5DF92C8BAAD8758C7AB5FEB44E56722F05B09AD40D263526C7D7EAF0D834F1
310
BDD13229190D41896CA544745717252DB0434DCEE3B9AD71DF3C3FE1B6EA1EF0F84208EEC6AAEBFBB6E9C6AEA5656A66D4791B77CE43624E8F1CBF255F5AEE14A3EFC62C5910430964F4F2058CD032117F42874DFC23B4D2BEA9F3C0BDC301AB62A03B118DD30563B99F37D6746DF60D504B01021400140006080800308C48
310
560000000000000000000000003700000000000000000000000000000000006662782F42314433383038432D373536422D343534452D394431422D3839453745333436354238392F617474726962757465732E62696E504B01021400140006080800308C485600000000000000000000000035000000000000000000000000
310
00550000006662782F42314433383038432D373536422D343534452D394431422D3839453745333436354238392F76657274696365732E62696E504B01021400140006080800308C4856F270F13306000000040000003600000000000000000000000000A80000006662782F42314433383038432D373536422D343534452D
310
394431422D3839453745333436354238392F747269616E676C65732E62696E504B01021400140006080800308C485651464CB489000000430100003600000000000000000000000000020100006662782F42314433383038432D373536422D343534452D394431422D3839453745333436354238392F6469726563746F7279
310
2E786D6C504B01021400140006080800308C48564C1F44893C070000201C00003400000000000000000000000000DF0100006662782F42314433383038432D373536422D343534452D394431422D3839453745333436354238392F6F626A656374732E786D6C504B01021400140006080800308C4856030CF3DA3D01000046
310
05000030000000000000000000000000006D0900006662782F42314433383038432D373536422D343534452D394431422D3839453745333436354238392F636E782E786D6C504B01021400140006080800308C4856573A98A17D000000A30000000B00000000000000000000000000F80A00006662782F636E782E786D6C50
310
4B01021400140006080800308C4856A6D797065F0000008200000007000000000000000000000000009E0B0000636E782E786D6C504B01021400140006080800308C48564FEB6A7CA0000000F40000001300000000000000000000000000220C00005B436F6E74656E745F54797065735D2E786D6C504B0102140014000608
310
0800308C48563DEE336E64000000790000001B00000000000000000000000000F30C00006175746F6465736B2D64657369676E2D7061636B6167652E786D6C504B01021400140006080800308C4856E2FFD5F9F9000000960100003B00000000000000000000000000900D00006662782F42314433383038432D373536422D
310
343534452D394431422D3839453745333436354238392F7265736F75726365732F636F72652E786D6C504B01021400140006080800308C48568830320CF1000000B10100003100000000000000000000000000E20E00006662782F42314433383038432D373536422D343534452D394431422D383945374533343635423839
310
2F636F72652E786D6C504B01021400140006080800308C4856218955B252010000DD0200000C00000000000000000000000000221000006662782F636F72652E786D6C504B01021400140006080800308C4856165D324207010000B201000008000000000000000000000000009E110000636F72652E786D6C504B05060000
310
00000E000E0080040000CB1200000000
  0
XRECORD
  5
1C8CDE6B2446
102
{ACAD_REACTORS
330
1C8CDE6B2441
102
}
330
1C8CDE6B2441
100
AcDbXrecord
280
     1
270
     1
271
     1
  0
XRECORD
  5
1C8CDE6B2445
102
{ACAD_REACTORS
330
1C8CDE6B2441
102
}
330
1C8CDE6B2441
100
AcDbXrecord
280
     1
270
     1
271
     1
  0
XRECORD
  5
1C8CDE6B2447
102
{ACAD_REACTORS
330
1C8CDE6B2441
102
}
330
1C8CDE6B2441
100
AcDbXrecord
280
     1
270
     1
271
     1
  0
XRECORD
  5
1C8CDE6B2444
102
{ACAD_REACTORS
330
1C8CDE6B2441
102
}
330
1C8CDE6B2441
100
AcDbXrecord
280
     1
270
     1
271
     1
  0
XRECORD
  5
1C8CDE6B2C17
102
{ACAD_REACTORS
330
1C8CDE6B2C16
102
}
330
1C8CDE6B2C16
100
AcDbXrecord
280
     1
102
ACAD_ROUNDTRIP_2012_MLEADER_STYLE
298
     1
  0
XRECORD
  5
1C8CDE6B2C37
102
{ACAD_REACTORS
330
1C8CDE6B2C36
102
}
330
1C8CDE6B2C36
100
AcDbXrecord
280
     1
102
SHADEPLOT
 70
     0
102
SHADEPLOTRESLEVEL
 70
     2
102
SHADEPLOTCUSTOMDPI
 70
   300
  0
XRECORD
  5
1C8CDE6B2C3B
102
{ACAD_REACTORS
330
1C8CDE6B2C3A
102
}
330
1C8CDE6B2C3A
100
AcDbXrecord
280
     1
102
SHADEPLOT
 70
     0
102
SHADEPLOTRESLEVEL
 70
     2
102
SHADEPLOTCUSTOMDPI
 70
   300
  0
XRECORD
  5
1C8CDE6B2C39
102
{ACAD_REACTORS
330
1C8CDE6B2C38
102
}
330
1C8CDE6B2C38
100
AcDbXrecord
280
     1
102
SHADEPLOT
 70
     0
102
SHADEPLOTRESLEVEL
 70
     2
102
SHADEPLOTCUSTOMDPI
 70
   300
  0
XRECORD
  5
1C8CDE6B2C1D
102
{ACAD_REACTORS
330
1C8CDE6B2C1C
102
}
330
1C8CDE6B2C1C
100
AcDbXrecord
280
     1
102
SHADEPLOT
 70
     0
102
SHADEPLOTRESLEVEL
 70
     2
102
SHADEPLOTCUSTOMDPI
 70
   300
  0
XRECORD
  5
1C8CDE6B2C1F
102
{ACAD_REACTORS
330
1C8CDE6B2C1E
102
}
330
1C8CDE6B2C1E
100
AcDbXrecord
280
     1
102
SHADEPLOT
 70
     0
102
SHADEPLOTRESLEVEL
 70
     2
102
SHADEPLOTCUSTOMDPI
 70
   300
  0
XRECORD
  5
1C8CDE6B2C2B
102
{ACAD_REACTORS
330
1C8CDE6B2C2A
102
}
330
1C8CDE6B2C2A
100
AcDbXrecord
280
     1
102
SHADEPLOT
 70
     0
102
SHADEPLOTRESLEVEL
 70
     2
102
SHADEPLOTCUSTOMDPI
 70
   300
  0
XRECORD
  5
1C8CDE6B2C2F
102
{ACAD_REACTORS
330
1C8CDE6B2C2E
102
}
330
1C8CDE6B2C2E
100
AcDbXrecord
280
     1
102
SHADEPLOT
 70
     0
102
SHADEPLOTRESLEVEL
 70
     2
102
SHADEPLOTCUSTOMDPI
 70
   300
  0
XRECORD
  5
1C8CDE6B2C25
102
{ACAD_REACTORS
330
1C8CDE6B2C24
102
}
330
1C8CDE6B2C24
100
AcDbXrecord
280
     1
102
SHADEPLOT
 70
     0
102
SHADEPLOTRESLEVEL
 70
     2
102
SHADEPLOTCUSTOMDPI
 70
   300
  0
XRECORD
  5
1C8CDE6B2C33
102
{ACAD_REACTORS
330
1C8CDE6B2C32
102
}
330
1C8CDE6B2C32
100
AcDbXrecord
280
     1
102
SHADEPLOT
 70
     0
102
SHADEPLOTRESLEVEL
 70
     2
102
SHADEPLOTCUSTOMDPI
 70
   300
  0
XRECORD
  5
1C8CDE6B2C21
102
{ACAD_REACTORS
330
1C8CDE6B2C20
102
}
330
1C8CDE6B2C20
100
AcDbXrecord
280
     1
102
SHADEPLOT
 70
     0
102
SHADEPLOTRESLEVEL
 70
     2
102
SHADEPLOTCUSTOMDPI
 70
   300
  0
XRECORD
  5
1C8CDE6B2C3D
102
{ACAD_REACTORS
330
1C8CDE6B2C3C
102
}
330
1C8CDE6B2C3C
100
AcDbXrecord
280
     1
102
SHADEPLOT
 70
     0
102
SHADEPLOTRESLEVEL
 70
     2
102
SHADEPLOTCUSTOMDPI
 70
   300
  0
XRECORD
  5
1C8CDE6B2C27
102
{ACAD_REACTORS
330
1C8CDE6B2C26
102
}
330
1C8CDE6B2C26
100
AcDbXrecord
280
     1
102
SHADEPLOT
 70
     0
102
SHADEPLOTRESLEVEL
 70
     2
102
SHADEPLOTCUSTOMDPI
 70
   300
  0
XRECORD
  5
1C8CDE6B2C35
102
{ACAD_REACTORS
330
1C8CDE6B2C34
102
}
330
1C8CDE6B2C34
100
AcDbXrecord
280
     1
102
SHADEPLOT
 70
     0
102
SHADEPLOTRESLEVEL
 70
     2
102
SHADEPLOTCUSTOMDPI
 70
   300
  0
XRECORD
  5
1C8CDE6B2C23
102
{ACAD_REACTORS
330
1C8CDE6B2C22
102
}
330
1C8CDE6B2C22
100
AcDbXrecord
280
     1
102
SHADEPLOT
 70
     0
102
SHADEPLOTRESLEVEL
 70
     2
102
SHADEPLOTCUSTOMDPI
 70
   300
  0
XRECORD
  5
1C8CDE6B2C3F
102
{ACAD_REACTORS
330
1C8CDE6B2C3E
102
}
330
1C8CDE6B2C3E
100
AcDbXrecord
280
     1
102
SHADEPLOT
 70
     0
102
SHADEPLOTRESLEVEL
 70
     2
102
SHADEPLOTCUSTOMDPI
 70
   300
  0
XRECORD
  5
1C8CDE6B2C2D
102
{ACAD_REACTORS
330
1C8CDE6B2C2C
102
}
330
1C8CDE6B2C2C
100
AcDbXrecord
280
     1
102
SHADEPLOT
 70
     0
102
SHADEPLOTRESLEVEL
 70
     2
102
SHADEPLOTCUSTOMDPI
 70
   300
  0
XRECORD
  5
1C8CDE6B2C31
102
{ACAD_REACTORS
330
1C8CDE6B2C30
102
}
330
1C8CDE6B2C30
100
AcDbXrecord
280
     1
102
SHADEPLOT
 70
     0
102
SHADEPLOTRESLEVEL
 70
     2
102
SHADEPLOTCUSTOMDPI
 70
   300
  0
XRECORD
  5
1C8CDE6B2C29
102
{ACAD_REACTORS
330
1C8CDE6B2C28
102
}
330
1C8CDE6B2C28
100
AcDbXrecord
280
     1
102
SHADEPLOT
 70
     0
102
SHADEPLOTRESLEVEL
 70
     2
102
SHADEPLOTCUSTOMDPI
 70
   300
  0
XRECORD
  5
1C8CDE6B2C41
102
{ACAD_REACTORS
330
1C8CDE6B2C40
102
}
330
1C8CDE6B2C40
100
AcDbXrecord
280
     1
102
SHADEPLOT
 70
     0
102
SHADEPLOTRESLEVEL
 70
     2
102
SHADEPLOTCUSTOMDPI
 70
   300
  0
XRECORD
  5
1C8CDE6B2C19
102
{ACAD_REACTORS
330
1C8CDE6B2C18
102
}
330
1C8CDE6B2C18
100
AcDbXrecord
280
     1
102
DISPLAYNAME
  1
Imperial24
102
FLAGS
 90
        0
  0
CELLSTYLEMAP
  5
1C8CDE6B2BDB
102
{ACAD_REACTORS
330
1C8CDE6B261E
102
}
330
1C8CDE6B261E
100
AcDbCellStyleMap
 90
        3
300
CELLSTYLE
  1
TABLEFORMAT_BEGIN
 90
        5
170
     1
 91
        0
 92
    32768
 62
   257
 93
        1
300
CONTENTFORMAT
  1
CONTENTFORMAT_BEGIN
 90
        0
 91
        0
 92
        4
 93
        0
300

 40
0.0
140
1.0
 94
        5
 62
     0
340
1C8CDE699D4B
144
0.25
309
CONTENTFORMAT_END
171
     0
 94
        6
 95
        1
302
GRIDFORMAT
  1
GRIDFORMAT_BEGIN
 90
        0
 91
        1
 62
     0
 92
       -2
340
0
 93
        0
 40
0.045
309
GRIDFORMAT_END
 95
        2
302
GRIDFORMAT
  1
GRIDFORMAT_BEGIN
 90
        0
 91
        1
 62
     0
 92
       -2
340
0
 93
        0
 40
0.045
309
GRIDFORMAT_END
 95
        4
302
GRIDFORMAT
  1
GRIDFORMAT_BEGIN
 90
        0
 91
        1
 62
     0
 92
       -2
340
0
 93
        0
 40
0.045
309
GRIDFORMAT_END
 95
        8
302
GRIDFORMAT
  1
GRIDFORMAT_BEGIN
 90
        0
 91
        1
 62
     0
 92
       -2
340
0
 93
        0
 40
0.045
309
GRIDFORMAT_END
 95
       16
302
GRIDFORMAT
  1
GRIDFORMAT_BEGIN
 90
        0
 91
        1
 62
     0
 92
       -2
340
0
 93
        0
 40
0.045
309
GRIDFORMAT_END
 95
       32
302
GRIDFORMAT
  1
GRIDFORMAT_BEGIN
 90
        0
 91
        1
 62
     0
 92
       -2
340
0
 93
        0
 40
0.045
309
GRIDFORMAT_END
309
TABLEFORMAT_END
  1
CELLSTYLE_BEGIN
 90
        1
 91
        1
300
_TITLE
309
CELLSTYLE_END
300
CELLSTYLE
  1
TABLEFORMAT_BEGIN
 90
        5
170
     1
 91
        0
 92
        0
 62
   257
 93
        1
300
CONTENTFORMAT
  1
CONTENTFORMAT_BEGIN
 90
        0
 91
        0
 92
        4
 93
        0
300

 40
0.0
140
1.0
 94
        5
 62
     0
340
1C8CDE699D4B
144
0.18
309
CONTENTFORMAT_END
171
     0
 94
        6
 95
        1
302
GRIDFORMAT
  1
GRIDFORMAT_BEGIN
 90
        0
 91
        1
 62
     0
 92
       -2
340
0
 93
        0
 40
0.045
309
GRIDFORMAT_END
 95
        2
302
GRIDFORMAT
  1
GRIDFORMAT_BEGIN
 90
        0
 91
        1
 62
     0
 92
       -2
340
0
 93
        0
 40
0.045
309
GRIDFORMAT_END
 95
        4
302
GRIDFORMAT
  1
GRIDFORMAT_BEGIN
 90
        0
 91
        1
 62
     0
 92
       -2
340
0
 93
        0
 40
0.045
309
GRIDFORMAT_END
 95
        8
302
GRIDFORMAT
  1
GRIDFORMAT_BEGIN
 90
        0
 91
        1
 62
     0
 92
       -2
340
0
 93
        0
 40
0.045
309
GRIDFORMAT_END
 95
       16
302
GRIDFORMAT
  1
GRIDFORMAT_BEGIN
 90
        0
 91
        1
 62
     0
 92
       -2
340
0
 93
        0
 40
0.045
309
GRIDFORMAT_END
 95
       32
302
GRIDFORMAT
  1
GRIDFORMAT_BEGIN
 90
        0
 91
        1
 62
     0
 92
       -2
340
0
 93
        0
 40
0.045
309
GRIDFORMAT_END
309
TABLEFORMAT_END
  1
CELLSTYLE_BEGIN
 90
        2
 91
        1
300
_HEADER
309
CELLSTYLE_END
300
CELLSTYLE
  1
TABLEFORMAT_BEGIN
 90
        5
170
     1
 91
        0
 92
        0
 62
   257
 93
        1
300
CONTENTFORMAT
  1
CONTENTFORMAT_BEGIN
 90
        0
 91
        0
 92
        4
 93
        0
300

 40
0.0
140
1.0
 94
        2
 62
     0
340
1C8CDE699D4B
144
0.18
309
CONTENTFORMAT_END
171
     0
 94
        6
 95
        1
302
GRIDFORMAT
  1
GRIDFORMAT_BEGIN
 90
        0
 91
        1
 62
     0
 92
       -2
340
0
 93
        0
 40
0.045
309
GRIDFORMAT_END
 95
        2
302
GRIDFORMAT
  1
GRIDFORMAT_BEGIN
 90
        0
 91
        1
 62
     0
 92
       -2
340
0
 93
        0
 40
0.045
309
GRIDFORMAT_END
 95
        4
302
GRIDFORMAT
  1
GRIDFORMAT_BEGIN
 90
        0
 91
        1
 62
     0
 92
       -2
340
0
 93
        0
 40
0.045
309
GRIDFORMAT_END
 95
        8
302
GRIDFORMAT
  1
GRIDFORMAT_BEGIN
 90
        0
 91
        1
 62
     0
 92
       -2
340
0
 93
        0
 40
0.045
309
GRIDFORMAT_END
 95
       16
302
GRIDFORMAT
  1
GRIDFORMAT_BEGIN
 90
        0
 91
        1
 62
     0
 92
       -2
340
0
 93
        0
 40
0.045
309
GRIDFORMAT_END
 95
       32
302
GRIDFORMAT
  1
GRIDFORMAT_BEGIN
 90
        0
 91
        1
 62
     0
 92
       -2
340
0
 93
        0
 40
0.045
309
GRIDFORMAT_END
309
TABLEFORMAT_END
  1
CELLSTYLE_BEGIN
 90
        3
 91
        2
300
_DATA
309
CELLSTYLE_END
  0
XRECORD
  5
1C8CDE6B2BE2
102
{ACAD_REACTORS
330
1C8CDE6B261E
102
}
330
1C8CDE6B261E
100
AcDbXrecord
280
     1
102
ACAD_ROUNDTRIP_PRE2007_TABLESTYLE
 90
        4
 91
        0
  1

 92
        4
 93
        0
  2

 94
        4
 95
        0
  3

  0
XRECORD
  5
1C8CDE6B2BF1
102
{ACAD_REACTORS
330
1C8CDE6B2BF0
102
}
330
1C8CDE6B2BF0
100
AcDbXrecord
280
     1
102
RTVSPost2010Prop28
280
     1
102
RTVSPost2010PropOp28
 70
     1
102
RTVSPost2010Prop29
280
     1
102
RTVSPost2010PropOp29
 70
     1
102
RTVSPost2010Prop30
280
     0
102
RTVSPost2010PropOp30
 70
     1
102
RTVSPost2010Prop31
280
     0
102
RTVSPost2010PropOp31
 70
     1
102
RTVSPost2010Prop32
280
     0
102
RTVSPost2010PropOp32
 70
     1
102
RTVSPost2010Prop33
280
     0
102
RTVSPost2010PropOp33
 70
     1
102
RTVSPost2010Prop34
280
     0
102
RTVSPost2010PropOp34
 70
     1
102
RTVSPost2010Prop35
280
     0
102
RTVSPost2010PropOp35
 70
     1
102
RTVSPost2010Prop36
280
     0
102
RTVSPost2010PropOp36
 70
     1
102
RTVSPost2010Prop37
 90
       50
102
RTVSPost2010PropOp37
 70
     1
102
RTVSPost2010Prop38
140
0.0
102
RTVSPost2010PropOp38
 70
     1
102
RTVSPost2010Prop39
140
1.0
102
RTVSPost2010PropOp39
 70
     1
102
RTVSPost2010Prop40
 90
        0
102
RTVSPost2010PropOp40
 70
     1
102
RTVSPost2010Prop41ColorIndex
 90
       18
102
RTVSPost2010Prop41ColorRGB
 90
        0
102
RTVSPost2010PropOp41
 70
     1
102
RTVSPost2010Prop42
 90
       50
102
RTVSPost2010PropOp42
 70
     1
102
RTVSPost2010Prop43
 90
        3
102
RTVSPost2010PropOp43
 70
     1
102
RTVSPost2010Prop44ColorIndex
 90
        5
102
RTVSPost2010Prop44ColorRGB
 90
      255
102
RTVSPost2010PropOp44
 70
     1
102
RTVSPost2010Prop45
280
     0
102
RTVSPost2010PropOp45
 70
     1
102
RTVSPost2010Prop46
 90
       50
102
RTVSPost2010PropOp46
 70
     1
102
RTVSPost2010Prop47
 90
       50
102
RTVSPost2010PropOp47
 70
     1
102
RTVSPost2010Prop48
 90
       50
102
RTVSPost2010PropOp48
 70
     1
102
RTVSPost2010Prop49
280
     0
102
RTVSPost2010PropOp49
 70
     1
102
RTVSPost2010Prop50
 90
       50
102
RTVSPost2010PropOp50
 70
     1
102
RTVSPost2010Prop51ColorIndex
 90
      256
102
RTVSPost2010Prop51ColorRGB
 90
-16777216
102
RTVSPost2010PropOp51
 70
     0
102
RTVSPost2010Prop52
140
1.0
102
RTVSPost2010PropOp52
 70
     0
102
RTVSPost2010Prop53
 90
        2
102
RTVSPost2010PropOp53
 70
     1
102
RTVSPost2010Prop54
  1
strokes_ogs.tif
102
RTVSPost2010PropOp54
 70
     1
102
RTVSPost2010Prop55
280
     0
102
RTVSPost2010PropOp55
 70
     1
102
RTVSPost2010Prop56
140
1.0
102
RTVSPost2010PropOp56
 70
     1
102
RTVSPost2010Prop57
140
1.0
102
RTVSPost2010PropOp57
 70
     1
102
RTVSPropertyOp0
 70
     1
102
RTVSPropertyOp1
 70
     1
102
RTVSPropertyOp2
 70
     1
102
RTVSPropertyOp3
 70
     1
102
RTVSPropertyOp4
 70
     1
102
RTVSPropertyOp5
 70
     1
102
RTVSPropertyOp6
 70
     1
102
RTVSPropertyOp7
 70
     1
102
RTVSPropertyOp8
 70
     1
102
RTVSPropertyOp9
 70
     1
102
RTVSPropertyOp10
 70
     1
102
RTVSPropertyOp11
 70
     1
102
RTVSPropertyOp12
 70
     1
102
RTVSPropertyOp13
 70
     1
102
RTVSPropertyOp14
 70
     1
102
RTVSPropertyOp15
 70
     1
102
RTVSPropertyOp16
 70
     1
102
RTVSPropertyOp17
 70
     1
102
RTVSPropertyOp18
 70
     1
102
RTVSPropertyOp19
 70
     1
102
RTVSPropertyOp20
 70
     1
102
RTVSPropertyOp21
 70
     1
102
RTVSPropertyOp22
 70
     1
102
RTVSPropertyOp23
 70
     1
102
RTVSPropertyOp24
 70
     1
102
RTVSPropertyOp25
 70
     1
102
RTVSPropertyOp26
 70
     1
102
RTVSPropertyOp27
 70
     1
102
RTVSPropertyOp28
 70
     1
102
RTVSPropertyOp29
 70
     1
102
RTVSPropertyOp30
 70
     1
102
RTVSPropertyOp31
 70
     1
102
RTVSPropertyOp32
 70
     1
102
RTVSPropertyOp33
 70
     1
102
RTVSPropertyOp34
 70
     1
102
RTVSPropertyOp35
 70
     1
102
RTVSPropertyOp36
 70
     1
102
RTVSPropertyOp37
 70
     1
102
RTVSPropertyOp38
 70
     1
102
RTVSPropertyOp39
 70
     1
102
RTVSPropertyOp40
 70
     1
102
RTVSPropertyOp41
 70
     1
102
RTVSPropertyOp42
 70
     1
102
RTVSPropertyOp43
 70
     1
102
RTVSPropertyOp44
 70
     1
102
RTVSPropertyOp45
 70
     1
102
RTVSPropertyOp46
 70
     1
102
RTVSPropertyOp47
 70
     1
102
RTVSPropertyOp48
 70
     1
102
RTVSPropertyOp49
 70
     1
102
RTVSPropertyOp50
 70
     1
102
RTVSPropertyOp51
 70
     0
102
RTVSPropertyOp52
 70
     0
102
RTVSPropertyOp53
 70
     1
102
RTVSPropertyOp54
 70
     1
102
RTVSPropertyOp55
 70
     1
102
RTVSPropertyOp56
 70
     1
102
RTVSPropertyOp57
 70
     1
102
RTVSPropertyOp58
 70
     1
102
RTVSPropertyOp59
 70
     1
102
RTVSPropertyOp60
 70
     1
102
RTVSPropertyOp61
 70
     1
102
RTVSPropertyOp62
 70
     1
  0
XRECORD
  5
1C8CDE6B2BEF
102
{ACAD_REACTORS
330
1C8CDE6B2BEE
102
}
330
1C8CDE6B2BEE
100
AcDbXrecord
280
     1
102
RTVSPost2010Prop28
280
     0
102
RTVSPost2010PropOp28
 70
     1
102
RTVSPost2010Prop29
280
     1
102
RTVSPost2010PropOp29
 70
     1
102
RTVSPost2010Prop30
280
     1
102
RTVSPost2010PropOp30
 70
     1
102
RTVSPost2010Prop31
280
     0
102
RTVSPost2010PropOp31
 70
     1
102
RTVSPost2010Prop32
280
     0
102
RTVSPost2010PropOp32
 70
     1
102
RTVSPost2010Prop33
280
     0
102
RTVSPost2010PropOp33
 70
     1
102
RTVSPost2010Prop34
280
     0
102
RTVSPost2010PropOp34
 70
     1
102
RTVSPost2010Prop35
280
     0
102
RTVSPost2010PropOp35
 70
     1
102
RTVSPost2010Prop36
280
     0
102
RTVSPost2010PropOp36
 70
     1
102
RTVSPost2010Prop37
 90
       50
102
RTVSPost2010PropOp37
 70
     1
102
RTVSPost2010Prop38
140
0.0
102
RTVSPost2010PropOp38
 70
     1
102
RTVSPost2010Prop39
140
1.0
102
RTVSPost2010PropOp39
 70
     1
102
RTVSPost2010Prop40
 90
        0
102
RTVSPost2010PropOp40
 70
     1
102
RTVSPost2010Prop41ColorIndex
 90
       18
102
RTVSPost2010Prop41ColorRGB
 90
        0
102
RTVSPost2010PropOp41
 70
     1
102
RTVSPost2010Prop42
 90
       50
102
RTVSPost2010PropOp42
 70
     1
102
RTVSPost2010Prop43
 90
        3
102
RTVSPost2010PropOp43
 70
     1
102
RTVSPost2010Prop44ColorIndex
 90
        5
102
RTVSPost2010Prop44ColorRGB
 90
      255
102
RTVSPost2010PropOp44
 70
     1
102
RTVSPost2010Prop45
280
     0
102
RTVSPost2010PropOp45
 70
     1
102
RTVSPost2010Prop46
 90
       50
102
RTVSPost2010PropOp46
 70
     1
102
RTVSPost2010Prop47
 90
       50
102
RTVSPost2010PropOp47
 70
     1
102
RTVSPost2010Prop48
 90
       50
102
RTVSPost2010PropOp48
 70
     1
102
RTVSPost2010Prop49
280
     0
102
RTVSPost2010PropOp49
 70
     1
102
RTVSPost2010Prop50
 90
       50
102
RTVSPost2010PropOp50
 70
     1
102
RTVSPost2010Prop51ColorIndex
 90
      256
102
RTVSPost2010Prop51ColorRGB
 90
-16777216
102
RTVSPost2010PropOp51
 70
     0
102
RTVSPost2010Prop52
140
1.0
102
RTVSPost2010PropOp52
 70
     0
102
RTVSPost2010Prop53
 90
        2
102
RTVSPost2010PropOp53
 70
     1
102
RTVSPost2010Prop54
  1
strokes_ogs.tif
102
RTVSPost2010PropOp54
 70
     1
102
RTVSPost2010Prop55
280
     0
102
RTVSPost2010PropOp55
 70
     1
102
RTVSPost2010Prop56
140
1.0
102
RTVSPost2010PropOp56
 70
     1
102
RTVSPost2010Prop57
140
1.0
102
RTVSPost2010PropOp57
 70
     1
102
RTVSPropertyOp0
 70
     1
102
RTVSPropertyOp1
 70
     1
102
RTVSPropertyOp2
 70
     1
102
RTVSPropertyOp3
 70
     1
102
RTVSPropertyOp4
 70
     1
102
RTVSPropertyOp5
 70
     1
102
RTVSPropertyOp6
 70
     1
102
RTVSPropertyOp7
 70
     1
102
RTVSPropertyOp8
 70
     1
102
RTVSPropertyOp9
 70
     1
102
RTVSPropertyOp10
 70
     1
102
RTVSPropertyOp11
 70
     1
102
RTVSPropertyOp12
 70
     1
102
RTVSPropertyOp13
 70
     1
102
RTVSPropertyOp14
 70
     1
102
RTVSPropertyOp15
 70
     1
102
RTVSPropertyOp16
 70
     1
102
RTVSPropertyOp17
 70
     1
102
RTVSPropertyOp18
 70
     1
102
RTVSPropertyOp19
 70
     1
102
RTVSPropertyOp20
 70
     1
102
RTVSPropertyOp21
 70
     1
102
RTVSPropertyOp22
 70
     1
102
RTVSPropertyOp23
 70
     1
102
RTVSPropertyOp24
 70
     1
102
RTVSPropertyOp25
 70
     1
102
RTVSPropertyOp26
 70
     1
102
RTVSPropertyOp27
 70
     1
102
RTVSPropertyOp28
 70
     1
102
RTVSPropertyOp29
 70
     1
102
RTVSPropertyOp30
 70
     1
102
RTVSPropertyOp31
 70
     1
102
RTVSPropertyOp32
 70
     1
102
RTVSPropertyOp33
 70
     1
102
RTVSPropertyOp34
 70
     1
102
RTVSPropertyOp35
 70
     1
102
RTVSPropertyOp36
 70
     1
102
RTVSPropertyOp37
 70
     1
102
RTVSPropertyOp38
 70
     1
102
RTVSPropertyOp39
 70
     1
102
RTVSPropertyOp40
 70
     1
102
RTVSPropertyOp41
 70
     1
102
RTVSPropertyOp42
 70
     1
102
RTVSPropertyOp43
 70
     1
102
RTVSPropertyOp44
 70
     1
102
RTVSPropertyOp45
 70
     1
102
RTVSPropertyOp46
 70
     1
102
RTVSPropertyOp47
 70
     1
102
RTVSPropertyOp48
 70
     1
102
RTVSPropertyOp49
 70
     1
102
RTVSPropertyOp50
 70
     1
102
RTVSPropertyOp51
 70
     0
102
RTVSPropertyOp52
 70
     0
102
RTVSPropertyOp53
 70
     1
102
RTVSPropertyOp54
 70
     1
102
RTVSPropertyOp55
 70
     1
102
RTVSPropertyOp56
 70
     1
102
RTVSPropertyOp57
 70
     1
102
RTVSPropertyOp58
 70
     1
102
RTVSPropertyOp59
 70
     1
102
RTVSPropertyOp60
 70
     1
102
RTVSPropertyOp61
 70
     1
102
RTVSPropertyOp62
 70
     1
  0
XRECORD
  5
1C8CDE6B2BFD
102
{ACAD_REACTORS
330
1C8CDE6B2BFC
102
}
330
1C8CDE6B2BFC
100
AcDbXrecord
280
     1
102
RTVSPost2010Prop28
280
     0
102
RTVSPost2010PropOp28
 70
     1
102
RTVSPost2010Prop29
280
     1
102
RTVSPost2010PropOp29
 70
     1
102
RTVSPost2010Prop30
280
     1
102
RTVSPost2010PropOp30
 70
     1
102
RTVSPost2010Prop31
280
     0
102
RTVSPost2010PropOp31
 70
     1
102
RTVSPost2010Prop32
280
     0
102
RTVSPost2010PropOp32
 70
     1
102
RTVSPost2010Prop33
280
     0
102
RTVSPost2010PropOp33
 70
     1
102
RTVSPost2010Prop34
280
     0
102
RTVSPost2010PropOp34
 70
     1
102
RTVSPost2010Prop35
280
     0
102
RTVSPost2010PropOp35
 70
     1
102
RTVSPost2010Prop36
280
     0
102
RTVSPost2010PropOp36
 70
     1
102
RTVSPost2010Prop37
 90
       50
102
RTVSPost2010PropOp37
 70
     1
102
RTVSPost2010Prop38
140
0.0
102
RTVSPost2010PropOp38
 70
     1
102
RTVSPost2010Prop39
140
1.0
102
RTVSPost2010PropOp39
 70
     1
102
RTVSPost2010Prop40
 90
        0
102
RTVSPost2010PropOp40
 70
     1
102
RTVSPost2010Prop41ColorIndex
 90
       18
102
RTVSPost2010Prop41ColorRGB
 90
        0
102
RTVSPost2010PropOp41
 70
     1
102
RTVSPost2010Prop42
 90
       50
102
RTVSPost2010PropOp42
 70
     1
102
RTVSPost2010Prop43
 90
        3
102
RTVSPost2010PropOp43
 70
     1
102
RTVSPost2010Prop44ColorIndex
 90
        5
102
RTVSPost2010Prop44ColorRGB
 90
      255
102
RTVSPost2010PropOp44
 70
     1
102
RTVSPost2010Prop45
280
     0
102
RTVSPost2010PropOp45
 70
     1
102
RTVSPost2010Prop46
 90
       50
102
RTVSPost2010PropOp46
 70
     1
102
RTVSPost2010Prop47
 90
       50
102
RTVSPost2010PropOp47
 70
     1
102
RTVSPost2010Prop48
 90
       50
102
RTVSPost2010PropOp48
 70
     1
102
RTVSPost2010Prop49
280
     0
102
RTVSPost2010PropOp49
 70
     1
102
RTVSPost2010Prop50
 90
       50
102
RTVSPost2010PropOp50
 70
     1
102
RTVSPost2010Prop51ColorIndex
 90
      256
102
RTVSPost2010Prop51ColorRGB
 90
-16777216
102
RTVSPost2010PropOp51
 70
     0
102
RTVSPost2010Prop52
140
1.0
102
RTVSPost2010PropOp52
 70
     0
102
RTVSPost2010Prop53
 90
        2
102
RTVSPost2010PropOp53
 70
     1
102
RTVSPost2010Prop54
  1
strokes_ogs.tif
102
RTVSPost2010PropOp54
 70
     1
102
RTVSPost2010Prop55
280
     0
102
RTVSPost2010PropOp55
 70
     1
102
RTVSPost2010Prop56
140
1.0
102
RTVSPost2010PropOp56
 70
     1
102
RTVSPost2010Prop57
140
1.0
102
RTVSPost2010PropOp57
 70
     1
102
RTVSPropertyOp0
 70
     1
102
RTVSPropertyOp1
 70
     1
102
RTVSPropertyOp2
 70
     1
102
RTVSPropertyOp3
 70
     1
102
RTVSPropertyOp4
 70
     1
102
RTVSPropertyOp5
 70
     1
102
RTVSPropertyOp6
 70
     1
102
RTVSPropertyOp7
 70
     1
102
RTVSPropertyOp8
 70
     1
102
RTVSPropertyOp9
 70
     1
102
RTVSPropertyOp10
 70
     1
102
RTVSPropertyOp11
 70
     1
102
RTVSPropertyOp12
 70
     1
102
RTVSPropertyOp13
 70
     1
102
RTVSPropertyOp14
 70
     1
102
RTVSPropertyOp15
 70
     1
102
RTVSPropertyOp16
 70
     1
102
RTVSPropertyOp17
 70
     1
102
RTVSPropertyOp18
 70
     1
102
RTVSPropertyOp19
 70
     1
102
RTVSPropertyOp20
 70
     1
102
RTVSPropertyOp21
 70
     1
102
RTVSPropertyOp22
 70
     1
102
RTVSPropertyOp23
 70
     1
102
RTVSPropertyOp24
 70
     1
102
RTVSPropertyOp25
 70
     1
102
RTVSPropertyOp26
 70
     1
102
RTVSPropertyOp27
 70
     1
102
RTVSPropertyOp28
 70
     1
102
RTVSPropertyOp29
 70
     1
102
RTVSPropertyOp30
 70
     1
102
RTVSPropertyOp31
 70
     1
102
RTVSPropertyOp32
 70
     1
102
RTVSPropertyOp33
 70
     1
102
RTVSPropertyOp34
 70
     1
102
RTVSPropertyOp35
 70
     1
102
RTVSPropertyOp36
 70
     1
102
RTVSPropertyOp37
 70
     1
102
RTVSPropertyOp38
 70
     1
102
RTVSPropertyOp39
 70
     1
102
RTVSPropertyOp40
 70
     1
102
RTVSPropertyOp41
 70
     1
102
RTVSPropertyOp42
 70
     1
102
RTVSPropertyOp43
 70
     1
102
RTVSPropertyOp44
 70
     1
102
RTVSPropertyOp45
 70
     1
102
RTVSPropertyOp46
 70
     1
102
RTVSPropertyOp47
 70
     1
102
RTVSPropertyOp48
 70
     1
102
RTVSPropertyOp49
 70
     1
102
RTVSPropertyOp50
 70
     1
102
RTVSPropertyOp51
 70
     0
102
RTVSPropertyOp52
 70
     0
102
RTVSPropertyOp53
 70
     1
102
RTVSPropertyOp54
 70
     1
102
RTVSPropertyOp55
 70
     1
102
RTVSPropertyOp56
 70
     1
102
RTVSPropertyOp57
 70
     1
102
RTVSPropertyOp58
 70
     1
102
RTVSPropertyOp59
 70
     1
102
RTVSPropertyOp60
 70
     1
102
RTVSPropertyOp61
 70
     1
102
RTVSPropertyOp62
 70
     1
  0
XRECORD
  5
1C8CDE6B2C05
102
{ACAD_REACTORS
330
1C8CDE6B2C04
102
}
330
1C8CDE6B2C04
100
AcDbXrecord
280
     1
102
RTVSPost2010Prop28
280
     0
102
RTVSPost2010PropOp28
 70
     1
102
RTVSPost2010Prop29
280
     1
102
RTVSPost2010PropOp29
 70
     1
102
RTVSPost2010Prop30
280
     1
102
RTVSPost2010PropOp30
 70
     1
102
RTVSPost2010Prop31
280
     0
102
RTVSPost2010PropOp31
 70
     1
102
RTVSPost2010Prop32
280
     0
102
RTVSPost2010PropOp32
 70
     1
102
RTVSPost2010Prop33
280
     0
102
RTVSPost2010PropOp33
 70
     1
102
RTVSPost2010Prop34
280
     0
102
RTVSPost2010PropOp34
 70
     1
102
RTVSPost2010Prop35
280
     0
102
RTVSPost2010PropOp35
 70
     1
102
RTVSPost2010Prop36
280
     0
102
RTVSPost2010PropOp36
 70
     1
102
RTVSPost2010Prop37
 90
       50
102
RTVSPost2010PropOp37
 70
     1
102
RTVSPost2010Prop38
140
0.0
102
RTVSPost2010PropOp38
 70
     1
102
RTVSPost2010Prop39
140
1.0
102
RTVSPost2010PropOp39
 70
     1
102
RTVSPost2010Prop40
 90
        0
102
RTVSPost2010PropOp40
 70
     1
102
RTVSPost2010Prop41ColorIndex
 90
       18
102
RTVSPost2010Prop41ColorRGB
 90
        0
102
RTVSPost2010PropOp41
 70
     1
102
RTVSPost2010Prop42
 90
       50
102
RTVSPost2010PropOp42
 70
     1
102
RTVSPost2010Prop43
 90
        3
102
RTVSPost2010PropOp43
 70
     1
102
RTVSPost2010Prop44ColorIndex
 90
        5
102
RTVSPost2010Prop44ColorRGB
 90
      255
102
RTVSPost2010PropOp44
 70
     1
102
RTVSPost2010Prop45
280
     0
102
RTVSPost2010PropOp45
 70
     1
102
RTVSPost2010Prop46
 90
       50
102
RTVSPost2010PropOp46
 70
     1
102
RTVSPost2010Prop47
 90
       50
102
RTVSPost2010PropOp47
 70
     1
102
RTVSPost2010Prop48
 90
       50
102
RTVSPost2010PropOp48
 70
     1
102
RTVSPost2010Prop49
280
     0
102
RTVSPost2010PropOp49
 70
     1
102
RTVSPost2010Prop50
 90
       50
102
RTVSPost2010PropOp50
 70
     1
102
RTVSPost2010Prop51ColorIndex
 90
      256
102
RTVSPost2010Prop51ColorRGB
 90
-16777216
102
RTVSPost2010PropOp51
 70
     0
102
RTVSPost2010Prop52
140
1.0
102
RTVSPost2010PropOp52
 70
     0
102
RTVSPost2010Prop53
 90
        2
102
RTVSPost2010PropOp53
 70
     1
102
RTVSPost2010Prop54
  1
strokes_ogs.tif
102
RTVSPost2010PropOp54
 70
     1
102
RTVSPost2010Prop55
280
     0
102
RTVSPost2010PropOp55
 70
     1
102
RTVSPost2010Prop56
140
1.0
102
RTVSPost2010PropOp56
 70
     1
102
RTVSPost2010Prop57
140
1.0
102
RTVSPost2010PropOp57
 70
     1
102
RTVSPropertyOp0
 70
     1
102
RTVSPropertyOp1
 70
     1
102
RTVSPropertyOp2
 70
     1
102
RTVSPropertyOp3
 70
     1
102
RTVSPropertyOp4
 70
     1
102
RTVSPropertyOp5
 70
     1
102
RTVSPropertyOp6
 70
     1
102
RTVSPropertyOp7
 70
     1
102
RTVSPropertyOp8
 70
     1
102
RTVSPropertyOp9
 70
     1
102
RTVSPropertyOp10
 70
     1
102
RTVSPropertyOp11
 70
     1
102
RTVSPropertyOp12
 70
     1
102
RTVSPropertyOp13
 70
     1
102
RTVSPropertyOp14
 70
     1
102
RTVSPropertyOp15
 70
     1
102
RTVSPropertyOp16
 70
     1
102
RTVSPropertyOp17
 70
     1
102
RTVSPropertyOp18
 70
     1
102
RTVSPropertyOp19
 70
     1
102
RTVSPropertyOp20
 70
     1
102
RTVSPropertyOp21
 70
     1
102
RTVSPropertyOp22
 70
     1
102
RTVSPropertyOp23
 70
     1
102
RTVSPropertyOp24
 70
     1
102
RTVSPropertyOp25
 70
     1
102
RTVSPropertyOp26
 70
     1
102
RTVSPropertyOp27
 70
     1
102
RTVSPropertyOp28
 70
     1
102
RTVSPropertyOp29
 70
     1
102
RTVSPropertyOp30
 70
     1
102
RTVSPropertyOp31
 70
     1
102
RTVSPropertyOp32
 70
     1
102
RTVSPropertyOp33
 70
     1
102
RTVSPropertyOp34
 70
     1
102
RTVSPropertyOp35
 70
     1
102
RTVSPropertyOp36
 70
     1
102
RTVSPropertyOp37
 70
     1
102
RTVSPropertyOp38
 70
     1
102
RTVSPropertyOp39
 70
     1
102
RTVSPropertyOp40
 70
     1
102
RTVSPropertyOp41
 70
     1
102
RTVSPropertyOp42
 70
     1
102
RTVSPropertyOp43
 70
     1
102
RTVSPropertyOp44
 70
     1
102
RTVSPropertyOp45
 70
     1
102
RTVSPropertyOp46
 70
     1
102
RTVSPropertyOp47
 70
     1
102
RTVSPropertyOp48
 70
     1
102
RTVSPropertyOp49
 70
     1
102
RTVSPropertyOp50
 70
     1
102
RTVSPropertyOp51
 70
     0
102
RTVSPropertyOp52
 70
     0
102
RTVSPropertyOp53
 70
     1
102
RTVSPropertyOp54
 70
     1
102
RTVSPropertyOp55
 70
     1
102
RTVSPropertyOp56
 70
     1
102
RTVSPropertyOp57
 70
     1
102
RTVSPropertyOp58
 70
     1
102
RTVSPropertyOp59
 70
     1
102
RTVSPropertyOp60
 70
     1
102
RTVSPropertyOp61
 70
     1
102
RTVSPropertyOp62
 70
     1
  0
XRECORD
  5
1C8CDE6B2BF7
102
{ACAD_REACTORS
330
1C8CDE6B2BF6
102
}
330
1C8CDE6B2BF6
100
AcDbXrecord
280
     1
102
RTVSPost2010Prop28
280
     0
102
RTVSPost2010PropOp28
 70
     1
102
RTVSPost2010Prop29
280
     1
102
RTVSPost2010PropOp29
 70
     1
102
RTVSPost2010Prop30
280
     1
102
RTVSPost2010PropOp30
 70
     1
102
RTVSPost2010Prop31
280
     0
102
RTVSPost2010PropOp31
 70
     1
102
RTVSPost2010Prop32
280
     0
102
RTVSPost2010PropOp32
 70
     1
102
RTVSPost2010Prop33
280
     0
102
RTVSPost2010PropOp33
 70
     1
102
RTVSPost2010Prop34
280
     0
102
RTVSPost2010PropOp34
 70
     1
102
RTVSPost2010Prop35
280
     0
102
RTVSPost2010PropOp35
 70
     1
102
RTVSPost2010Prop36
280
     0
102
RTVSPost2010PropOp36
 70
     1
102
RTVSPost2010Prop37
 90
       50
102
RTVSPost2010PropOp37
 70
     1
102
RTVSPost2010Prop38
140
0.0
102
RTVSPost2010PropOp38
 70
     1
102
RTVSPost2010Prop39
140
1.0
102
RTVSPost2010PropOp39
 70
     1
102
RTVSPost2010Prop40
 90
        0
102
RTVSPost2010PropOp40
 70
     1
102
RTVSPost2010Prop41ColorIndex
 90
       18
102
RTVSPost2010Prop41ColorRGB
 90
        0
102
RTVSPost2010PropOp41
 70
     1
102
RTVSPost2010Prop42
 90
       50
102
RTVSPost2010PropOp42
 70
     1
102
RTVSPost2010Prop43
 90
        3
102
RTVSPost2010PropOp43
 70
     1
102
RTVSPost2010Prop44ColorIndex
 90
        5
102
RTVSPost2010Prop44ColorRGB
 90
      255
102
RTVSPost2010PropOp44
 70
     1
102
RTVSPost2010Prop45
280
     0
102
RTVSPost2010PropOp45
 70
     1
102
RTVSPost2010Prop46
 90
       50
102
RTVSPost2010PropOp46
 70
     1
102
RTVSPost2010Prop47
 90
       50
102
RTVSPost2010PropOp47
 70
     1
102
RTVSPost2010Prop48
 90
       50
102
RTVSPost2010PropOp48
 70
     1
102
RTVSPost2010Prop49
280
     0
102
RTVSPost2010PropOp49
 70
     1
102
RTVSPost2010Prop50
 90
       50
102
RTVSPost2010PropOp50
 70
     1
102
RTVSPost2010Prop51ColorIndex
 90
      256
102
RTVSPost2010Prop51ColorRGB
 90
-16777216
102
RTVSPost2010PropOp51
 70
     0
102
RTVSPost2010Prop52
140
1.0
102
RTVSPost2010PropOp52
 70
     0
102
RTVSPost2010Prop53
 90
        2
102
RTVSPost2010PropOp53
 70
     1
102
RTVSPost2010Prop54
  1
strokes_ogs.tif
102
RTVSPost2010PropOp54
 70
     1
102
RTVSPost2010Prop55
280
     0
102
RTVSPost2010PropOp55
 70
     1
102
RTVSPost2010Prop56
140
1.0
102
RTVSPost2010PropOp56
 70
     1
102
RTVSPost2010Prop57
140
1.0
102
RTVSPost2010PropOp57
 70
     1
102
RTVSPropertyOp0
 70
     1
102
RTVSPropertyOp1
 70
     1
102
RTVSPropertyOp2
 70
     1
102
RTVSPropertyOp3
 70
     1
102
RTVSPropertyOp4
 70
     1
102
RTVSPropertyOp5
 70
     1
102
RTVSPropertyOp6
 70
     1
102
RTVSPropertyOp7
 70
     1
102
RTVSPropertyOp8
 70
     1
102
RTVSPropertyOp9
 70
     1
102
RTVSPropertyOp10
 70
     1
102
RTVSPropertyOp11
 70
     1
102
RTVSPropertyOp12
 70
     1
102
RTVSPropertyOp13
 70
     1
102
RTVSPropertyOp14
 70
     1
102
RTVSPropertyOp15
 70
     1
102
RTVSPropertyOp16
 70
     1
102
RTVSPropertyOp17
 70
     1
102
RTVSPropertyOp18
 70
     1
102
RTVSPropertyOp19
 70
     1
102
RTVSPropertyOp20
 70
     1
102
RTVSPropertyOp21
 70
     1
102
RTVSPropertyOp22
 70
     1
102
RTVSPropertyOp23
 70
     1
102
RTVSPropertyOp24
 70
     1
102
RTVSPropertyOp25
 70
     1
102
RTVSPropertyOp26
 70
     1
102
RTVSPropertyOp27
 70
     1
102
RTVSPropertyOp28
 70
     1
102
RTVSPropertyOp29
 70
     1
102
RTVSPropertyOp30
 70
     1
102
RTVSPropertyOp31
 70
     1
102
RTVSPropertyOp32
 70
     1
102
RTVSPropertyOp33
 70
     1
102
RTVSPropertyOp34
 70
     1
102
RTVSPropertyOp35
 70
     1
102
RTVSPropertyOp36
 70
     1
102
RTVSPropertyOp37
 70
     1
102
RTVSPropertyOp38
 70
     1
102
RTVSPropertyOp39
 70
     1
102
RTVSPropertyOp40
 70
     1
102
RTVSPropertyOp41
 70
     1
102
RTVSPropertyOp42
 70
     1
102
RTVSPropertyOp43
 70
     1
102
RTVSPropertyOp44
 70
     1
102
RTVSPropertyOp45
 70
     1
102
RTVSPropertyOp46
 70
     1
102
RTVSPropertyOp47
 70
     1
102
RTVSPropertyOp48
 70
     1
102
RTVSPropertyOp49
 70
     1
102
RTVSPropertyOp50
 70
     1
102
RTVSPropertyOp51
 70
     0
102
RTVSPropertyOp52
 70
     0
102
RTVSPropertyOp53
 70
     1
102
RTVSPropertyOp54
 70
     1
102
RTVSPropertyOp55
 70
     1
102
RTVSPropertyOp56
 70
     1
102
RTVSPropertyOp57
 70
     1
102
RTVSPropertyOp58
 70
     1
102
RTVSPropertyOp59
 70
     1
102
RTVSPropertyOp60
 70
     1
102
RTVSPropertyOp61
 70
     1
102
RTVSPropertyOp62
 70
     1
  0
XRECORD
  5
1C8CDE6B2BFB
102
{ACAD_REACTORS
330
1C8CDE6B2BFA
102
}
330
1C8CDE6B2BFA
100
AcDbXrecord
280
     1
102
RTVSPost2010Prop28
280
     0
102
RTVSPost2010PropOp28
 70
     1
102
RTVSPost2010Prop29
280
     1
102
RTVSPost2010PropOp29
 70
     1
102
RTVSPost2010Prop30
280
     1
102
RTVSPost2010PropOp30
 70
     1
102
RTVSPost2010Prop31
280
     0
102
RTVSPost2010PropOp31
 70
     1
102
RTVSPost2010Prop32
280
     0
102
RTVSPost2010PropOp32
 70
     1
102
RTVSPost2010Prop33
280
     0
102
RTVSPost2010PropOp33
 70
     1
102
RTVSPost2010Prop34
280
     0
102
RTVSPost2010PropOp34
 70
     1
102
RTVSPost2010Prop35
280
     0
102
RTVSPost2010PropOp35
 70
     1
102
RTVSPost2010Prop36
280
     0
102
RTVSPost2010PropOp36
 70
     1
102
RTVSPost2010Prop37
 90
       50
102
RTVSPost2010PropOp37
 70
     1
102
RTVSPost2010Prop38
140
0.0
102
RTVSPost2010PropOp38
 70
     1
102
RTVSPost2010Prop39
140
1.0
102
RTVSPost2010PropOp39
 70
     1
102
RTVSPost2010Prop40
 90
        0
102
RTVSPost2010PropOp40
 70
     1
102
RTVSPost2010Prop41ColorIndex
 90
       18
102
RTVSPost2010Prop41ColorRGB
 90
        0
102
RTVSPost2010PropOp41
 70
     1
102
RTVSPost2010Prop42
 90
       50
102
RTVSPost2010PropOp42
 70
     1
102
RTVSPost2010Prop43
 90
        3
102
RTVSPost2010PropOp43
 70
     1
102
RTVSPost2010Prop44ColorIndex
 90
        5
102
RTVSPost2010Prop44ColorRGB
 90
      255
102
RTVSPost2010PropOp44
 70
     1
102
RTVSPost2010Prop45
280
     0
102
RTVSPost2010PropOp45
 70
     1
102
RTVSPost2010Prop46
 90
       50
102
RTVSPost2010PropOp46
 70
     1
102
RTVSPost2010Prop47
 90
       50
102
RTVSPost2010PropOp47
 70
     1
102
RTVSPost2010Prop48
 90
       50
102
RTVSPost2010PropOp48
 70
     1
102
RTVSPost2010Prop49
280
     0
102
RTVSPost2010PropOp49
 70
     1
102
RTVSPost2010Prop50
 90
       50
102
RTVSPost2010PropOp50
 70
     1
102
RTVSPost2010Prop51ColorIndex
 90
      256
102
RTVSPost2010Prop51ColorRGB
 90
-16777216
102
RTVSPost2010PropOp51
 70
     0
102
RTVSPost2010Prop52
140
1.0
102
RTVSPost2010PropOp52
 70
     0
102
RTVSPost2010Prop53
 90
        2
102
RTVSPost2010PropOp53
 70
     1
102
RTVSPost2010Prop54
  1
strokes_ogs.tif
102
RTVSPost2010PropOp54
 70
     1
102
RTVSPost2010Prop55
280
     0
102
RTVSPost2010PropOp55
 70
     1
102
RTVSPost2010Prop56
140
1.0
102
RTVSPost2010PropOp56
 70
     1
102
RTVSPost2010Prop57
140
1.0
102
RTVSPost2010PropOp57
 70
     1
102
RTVSPropertyOp0
 70
     1
102
RTVSPropertyOp1
 70
     1
102
RTVSPropertyOp2
 70
     1
102
RTVSPropertyOp3
 70
     1
102
RTVSPropertyOp4
 70
     1
102
RTVSPropertyOp5
 70
     1
102
RTVSPropertyOp6
 70
     1
102
RTVSPropertyOp7
 70
     1
102
RTVSPropertyOp8
 70
     1
102
RTVSPropertyOp9
 70
     1
102
RTVSPropertyOp10
 70
     1
102
RTVSPropertyOp11
 70
     1
102
RTVSPropertyOp12
 70
     1
102
RTVSPropertyOp13
 70
     1
102
RTVSPropertyOp14
 70
     1
102
RTVSPropertyOp15
 70
     1
102
RTVSPropertyOp16
 70
     1
102
RTVSPropertyOp17
 70
     1
102
RTVSPropertyOp18
 70
     1
102
RTVSPropertyOp19
 70
     1
102
RTVSPropertyOp20
 70
     1
102
RTVSPropertyOp21
 70
     1
102
RTVSPropertyOp22
 70
     1
102
RTVSPropertyOp23
 70
     1
102
RTVSPropertyOp24
 70
     1
102
RTVSPropertyOp25
 70
     1
102
RTVSPropertyOp26
 70
     1
102
RTVSPropertyOp27
 70
     1
102
RTVSPropertyOp28
 70
     1
102
RTVSPropertyOp29
 70
     1
102
RTVSPropertyOp30
 70
     1
102
RTVSPropertyOp31
 70
     1
102
RTVSPropertyOp32
 70
     1
102
RTVSPropertyOp33
 70
     1
102
RTVSPropertyOp34
 70
     1
102
RTVSPropertyOp35
 70
     1
102
RTVSPropertyOp36
 70
     1
102
RTVSPropertyOp37
 70
     1
102
RTVSPropertyOp38
 70
     1
102
RTVSPropertyOp39
 70
     1
102
RTVSPropertyOp40
 70
     1
102
RTVSPropertyOp41
 70
     1
102
RTVSPropertyOp42
 70
     1
102
RTVSPropertyOp43
 70
     1
102
RTVSPropertyOp44
 70
     1
102
RTVSPropertyOp45
 70
     1
102
RTVSPropertyOp46
 70
     1
102
RTVSPropertyOp47
 70
     1
102
RTVSPropertyOp48
 70
     1
102
RTVSPropertyOp49
 70
     1
102
RTVSPropertyOp50
 70
     1
102
RTVSPropertyOp51
 70
     0
102
RTVSPropertyOp52
 70
     0
102
RTVSPropertyOp53
 70
     1
102
RTVSPropertyOp54
 70
     1
102
RTVSPropertyOp55
 70
     1
102
RTVSPropertyOp56
 70
     1
102
RTVSPropertyOp57
 70
     1
102
RTVSPropertyOp58
 70
     1
102
RTVSPropertyOp59
 70
     1
102
RTVSPropertyOp60
 70
     1
102
RTVSPropertyOp61
 70
     1
102
RTVSPropertyOp62
 70
     1
  0
XRECORD
  5
1C8CDE6B2C15
102
{ACAD_REACTORS
330
1C8CDE6B2C14
102
}
330
1C8CDE6B2C14
100
AcDbXrecord
280
     1
102
RTVSPost2010Prop28
280
     0
102
RTVSPost2010PropOp28
 70
     0
102
RTVSPost2010Prop29
280
     1
102
RTVSPost2010PropOp29
 70
     0
102
RTVSPost2010Prop30
280
     1
102
RTVSPost2010PropOp30
 70
     0
102
RTVSPost2010Prop31
280
     0
102
RTVSPost2010PropOp31
 70
     0
102
RTVSPost2010Prop32
280
     0
102
RTVSPost2010PropOp32
 70
     0
102
RTVSPost2010Prop33
280
     0
102
RTVSPost2010PropOp33
 70
     0
102
RTVSPost2010Prop34
280
     0
102
RTVSPost2010PropOp34
 70
     0
102
RTVSPost2010Prop35
280
     0
102
RTVSPost2010PropOp35
 70
     0
102
RTVSPost2010Prop36
280
     0
102
RTVSPost2010PropOp36
 70
     0
102
RTVSPost2010Prop37
 90
       50
102
RTVSPost2010PropOp37
 70
     0
102
RTVSPost2010Prop38
140
0.0
102
RTVSPost2010PropOp38
 70
     0
102
RTVSPost2010Prop39
140
1.0
102
RTVSPost2010PropOp39
 70
     0
102
RTVSPost2010Prop40
 90
        0
102
RTVSPost2010PropOp40
 70
     0
102
RTVSPost2010Prop41ColorIndex
 90
       18
102
RTVSPost2010Prop41ColorRGB
 90
        0
102
RTVSPost2010PropOp41
 70
     0
102
RTVSPost2010Prop42
 90
       50
102
RTVSPost2010PropOp42
 70
     0
102
RTVSPost2010Prop43
 90
        3
102
RTVSPost2010PropOp43
 70
     0
102
RTVSPost2010Prop44ColorIndex
 90
        5
102
RTVSPost2010Prop44ColorRGB
 90
      255
102
RTVSPost2010PropOp44
 70
     0
102
RTVSPost2010Prop45
280
     0
102
RTVSPost2010PropOp45
 70
     0
102
RTVSPost2010Prop46
 90
       50
102
RTVSPost2010PropOp46
 70
     0
102
RTVSPost2010Prop47
 90
       50
102
RTVSPost2010PropOp47
 70
     0
102
RTVSPost2010Prop48
 90
       50
102
RTVSPost2010PropOp48
 70
     0
102
RTVSPost2010Prop49
280
     0
102
RTVSPost2010PropOp49
 70
     0
102
RTVSPost2010Prop50
 90
       50
102
RTVSPost2010PropOp50
 70
     0
102
RTVSPost2010Prop51ColorIndex
 90
      256
102
RTVSPost2010Prop51ColorRGB
 90
-16777216
102
RTVSPost2010PropOp51
 70
     0
102
RTVSPost2010Prop52
140
1.0
102
RTVSPost2010PropOp52
 70
     0
102
RTVSPost2010Prop53
 90
        2
102
RTVSPost2010PropOp53
 70
     0
102
RTVSPost2010Prop54
  1
strokes_ogs.tif
102
RTVSPost2010PropOp54
 70
     0
102
RTVSPost2010Prop55
280
     0
102
RTVSPost2010PropOp55
 70
     0
102
RTVSPost2010Prop56
140
1.0
102
RTVSPost2010PropOp56
 70
     0
102
RTVSPost2010Prop57
140
1.0
102
RTVSPost2010PropOp57
 70
     0
102
RTVSPropertyOp0
 70
     0
102
RTVSPropertyOp1
 70
     0
102
RTVSPropertyOp2
 70
     0
102
RTVSPropertyOp3
 70
     0
102
RTVSPropertyOp4
 70
     0
102
RTVSPropertyOp5
 70
     0
102
RTVSPropertyOp6
 70
     0
102
RTVSPropertyOp7
 70
     0
102
RTVSPropertyOp8
 70
     0
102
RTVSPropertyOp9
 70
     0
102
RTVSPropertyOp10
 70
     0
102
RTVSPropertyOp11
 70
     0
102
RTVSPropertyOp12
 70
     0
102
RTVSPropertyOp13
 70
     0
102
RTVSPropertyOp14
 70
     2
102
RTVSPropertyOp15
 70
     0
102
RTVSPropertyOp16
 70
     0
102
RTVSPropertyOp17
 70
     0
102
RTVSPropertyOp18
 70
     0
102
RTVSPropertyOp19
 70
     0
102
RTVSPropertyOp20
 70
     0
102
RTVSPropertyOp21
 70
     0
102
RTVSPropertyOp22
 70
     0
102
RTVSPropertyOp23
 70
     0
102
RTVSPropertyOp24
 70
     0
102
RTVSPropertyOp25
 70
     0
102
RTVSPropertyOp26
 70
     0
102
RTVSPropertyOp27
 70
     0
102
RTVSPropertyOp28
 70
     0
102
RTVSPropertyOp29
 70
     0
102
RTVSPropertyOp30
 70
     0
102
RTVSPropertyOp31
 70
     0
102
RTVSPropertyOp32
 70
     0
102
RTVSPropertyOp33
 70
     0
102
RTVSPropertyOp34
 70
     0
102
RTVSPropertyOp35
 70
     0
102
RTVSPropertyOp36
 70
     0
102
RTVSPropertyOp37
 70
     0
102
RTVSPropertyOp38
 70
     0
102
RTVSPropertyOp39
 70
     0
102
RTVSPropertyOp40
 70
     0
102
RTVSPropertyOp41
 70
     0
102
RTVSPropertyOp42
 70
     0
102
RTVSPropertyOp43
 70
     0
102
RTVSPropertyOp44
 70
     0
102
RTVSPropertyOp45
 70
     0
102
RTVSPropertyOp46
 70
     0
102
RTVSPropertyOp47
 70
     0
102
RTVSPropertyOp48
 70
     0
102
RTVSPropertyOp49
 70
     0
102
RTVSPropertyOp50
 70
     0
102
RTVSPropertyOp51
 70
     0
102
RTVSPropertyOp52
 70
     0
102
RTVSPropertyOp53
 70
     0
102
RTVSPropertyOp54
 70
     0
102
RTVSPropertyOp55
 70
     0
102
RTVSPropertyOp56
 70
     0
102
RTVSPropertyOp57
 70
     0
102
RTVSPropertyOp58
 70
     0
102
RTVSPropertyOp59
 70
     0
102
RTVSPropertyOp60
 70
     0
102
RTVSPropertyOp61
 70
     0
102
RTVSPropertyOp62
 70
     0
  0
XRECORD
  5
1C8CDE6B2C03
102
{ACAD_REACTORS
330
1C8CDE6B2C02
102
}
330
1C8CDE6B2C02
100
AcDbXrecord
280
     1
102
RTVSPost2010Prop28
280
     0
102
RTVSPost2010PropOp28
 70
     1
102
RTVSPost2010Prop29
280
     1
102
RTVSPost2010PropOp29
 70
     1
102
RTVSPost2010Prop30
280
     1
102
RTVSPost2010PropOp30
 70
     1
102
RTVSPost2010Prop31
280
     0
102
RTVSPost2010PropOp31
 70
     1
102
RTVSPost2010Prop32
280
     0
102
RTVSPost2010PropOp32
 70
     1
102
RTVSPost2010Prop33
280
     0
102
RTVSPost2010PropOp33
 70
     1
102
RTVSPost2010Prop34
280
     0
102
RTVSPost2010PropOp34
 70
     1
102
RTVSPost2010Prop35
280
     0
102
RTVSPost2010PropOp35
 70
     1
102
RTVSPost2010Prop36
280
     0
102
RTVSPost2010PropOp36
 70
     1
102
RTVSPost2010Prop37
 90
       50
102
RTVSPost2010PropOp37
 70
     1
102
RTVSPost2010Prop38
140
0.0
102
RTVSPost2010PropOp38
 70
     1
102
RTVSPost2010Prop39
140
1.0
102
RTVSPost2010PropOp39
 70
     1
102
RTVSPost2010Prop40
 90
        0
102
RTVSPost2010PropOp40
 70
     1
102
RTVSPost2010Prop41ColorIndex
 90
       18
102
RTVSPost2010Prop41ColorRGB
 90
        0
102
RTVSPost2010PropOp41
 70
     1
102
RTVSPost2010Prop42
 90
       50
102
RTVSPost2010PropOp42
 70
     1
102
RTVSPost2010Prop43
 90
        3
102
RTVSPost2010PropOp43
 70
     1
102
RTVSPost2010Prop44ColorIndex
 90
        5
102
RTVSPost2010Prop44ColorRGB
 90
      255
102
RTVSPost2010PropOp44
 70
     1
102
RTVSPost2010Prop45
280
     0
102
RTVSPost2010PropOp45
 70
     1
102
RTVSPost2010Prop46
 90
       50
102
RTVSPost2010PropOp46
 70
     1
102
RTVSPost2010Prop47
 90
       50
102
RTVSPost2010PropOp47
 70
     1
102
RTVSPost2010Prop48
 90
       50
102
RTVSPost2010PropOp48
 70
     1
102
RTVSPost2010Prop49
280
     0
102
RTVSPost2010PropOp49
 70
     1
102
RTVSPost2010Prop50
 90
       50
102
RTVSPost2010PropOp50
 70
     1
102
RTVSPost2010Prop51ColorIndex
 90
      256
102
RTVSPost2010Prop51ColorRGB
 90
-16777216
102
RTVSPost2010PropOp51
 70
     0
102
RTVSPost2010Prop52
140
1.0
102
RTVSPost2010PropOp52
 70
     0
102
RTVSPost2010Prop53
 90
        2
102
RTVSPost2010PropOp53
 70
     1
102
RTVSPost2010Prop54
  1
strokes_ogs.tif
102
RTVSPost2010PropOp54
 70
     1
102
RTVSPost2010Prop55
280
     0
102
RTVSPost2010PropOp55
 70
     1
102
RTVSPost2010Prop56
140
1.0
102
RTVSPost2010PropOp56
 70
     1
102
RTVSPost2010Prop57
140
1.0
102
RTVSPost2010PropOp57
 70
     1
102
RTVSPropertyOp0
 70
     1
102
RTVSPropertyOp1
 70
     1
102
RTVSPropertyOp2
 70
     1
102
RTVSPropertyOp3
 70
     1
102
RTVSPropertyOp4
 70
     1
102
RTVSPropertyOp5
 70
     1
102
RTVSPropertyOp6
 70
     1
102
RTVSPropertyOp7
 70
     1
102
RTVSPropertyOp8
 70
     1
102
RTVSPropertyOp9
 70
     1
102
RTVSPropertyOp10
 70
     1
102
RTVSPropertyOp11
 70
     1
102
RTVSPropertyOp12
 70
     1
102
RTVSPropertyOp13
 70
     1
102
RTVSPropertyOp14
 70
     1
102
RTVSPropertyOp15
 70
     1
102
RTVSPropertyOp16
 70
     1
102
RTVSPropertyOp17
 70
     1
102
RTVSPropertyOp18
 70
     1
102
RTVSPropertyOp19
 70
     1
102
RTVSPropertyOp20
 70
     1
102
RTVSPropertyOp21
 70
     1
102
RTVSPropertyOp22
 70
     1
102
RTVSPropertyOp23
 70
     1
102
RTVSPropertyOp24
 70
     1
102
RTVSPropertyOp25
 70
     1
102
RTVSPropertyOp26
 70
     1
102
RTVSPropertyOp27
 70
     1
102
RTVSPropertyOp28
 70
     1
102
RTVSPropertyOp29
 70
     1
102
RTVSPropertyOp30
 70
     1
102
RTVSPropertyOp31
 70
     1
102
RTVSPropertyOp32
 70
     1
102
RTVSPropertyOp33
 70
     1
102
RTVSPropertyOp34
 70
     1
102
RTVSPropertyOp35
 70
     1
102
RTVSPropertyOp36
 70
     1
102
RTVSPropertyOp37
 70
     1
102
RTVSPropertyOp38
 70
     1
102
RTVSPropertyOp39
 70
     1
102
RTVSPropertyOp40
 70
     1
102
RTVSPropertyOp41
 70
     1
102
RTVSPropertyOp42
 70
     1
102
RTVSPropertyOp43
 70
     1
102
RTVSPropertyOp44
 70
     1
102
RTVSPropertyOp45
 70
     1
102
RTVSPropertyOp46
 70
     1
102
RTVSPropertyOp47
 70
     1
102
RTVSPropertyOp48
 70
     1
102
RTVSPropertyOp49
 70
     1
102
RTVSPropertyOp50
 70
     1
102
RTVSPropertyOp51
 70
     0
102
RTVSPropertyOp52
 70
     0
102
RTVSPropertyOp53
 70
     1
102
RTVSPropertyOp54
 70
     1
102
RTVSPropertyOp55
 70
     1
102
RTVSPropertyOp56
 70
     1
102
RTVSPropertyOp57
 70
     1
102
RTVSPropertyOp58
 70
     1
102
RTVSPropertyOp59
 70
     1
102
RTVSPropertyOp60
 70
     1
102
RTVSPropertyOp61
 70
     1
102
RTVSPropertyOp62
 70
     1
  0
XRECORD
  5
1C8CDE6B2BE7
102
{ACAD_REACTORS
330
1C8CDE6B2BE6
102
}
330
1C8CDE6B2BE6
100
AcDbXrecord
280
     1
102
RTVSPost2010Prop28
280
     0
102
RTVSPost2010PropOp28
 70
     1
102
RTVSPost2010Prop29
280
     1
102
RTVSPost2010PropOp29
 70
     1
102
RTVSPost2010Prop30
280
     1
102
RTVSPost2010PropOp30
 70
     1
102
RTVSPost2010Prop31
280
     0
102
RTVSPost2010PropOp31
 70
     1
102
RTVSPost2010Prop32
280
     0
102
RTVSPost2010PropOp32
 70
     1
102
RTVSPost2010Prop33
280
     0
102
RTVSPost2010PropOp33
 70
     1
102
RTVSPost2010Prop34
280
     0
102
RTVSPost2010PropOp34
 70
     1
102
RTVSPost2010Prop35
280
     0
102
RTVSPost2010PropOp35
 70
     1
102
RTVSPost2010Prop36
280
     0
102
RTVSPost2010PropOp36
 70
     1
102
RTVSPost2010Prop37
 90
       50
102
RTVSPost2010PropOp37
 70
     1
102
RTVSPost2010Prop38
140
0.0
102
RTVSPost2010PropOp38
 70
     1
102
RTVSPost2010Prop39
140
1.0
102
RTVSPost2010PropOp39
 70
     1
102
RTVSPost2010Prop40
 90
        0
102
RTVSPost2010PropOp40
 70
     1
102
RTVSPost2010Prop41ColorIndex
 90
       18
102
RTVSPost2010Prop41ColorRGB
 90
        0
102
RTVSPost2010PropOp41
 70
     1
102
RTVSPost2010Prop42
 90
       50
102
RTVSPost2010PropOp42
 70
     1
102
RTVSPost2010Prop43
 90
        3
102
RTVSPost2010PropOp43
 70
     1
102
RTVSPost2010Prop44ColorIndex
 90
        5
102
RTVSPost2010Prop44ColorRGB
 90
      255
102
RTVSPost2010PropOp44
 70
     1
102
RTVSPost2010Prop45
280
     0
102
RTVSPost2010PropOp45
 70
     1
102
RTVSPost2010Prop46
 90
       50
102
RTVSPost2010PropOp46
 70
     1
102
RTVSPost2010Prop47
 90
       50
102
RTVSPost2010PropOp47
 70
     1
102
RTVSPost2010Prop48
 90
       50
102
RTVSPost2010PropOp48
 70
     1
102
RTVSPost2010Prop49
280
     0
102
RTVSPost2010PropOp49
 70
     1
102
RTVSPost2010Prop50
 90
       50
102
RTVSPost2010PropOp50
 70
     1
102
RTVSPost2010Prop51ColorIndex
 90
      256
102
RTVSPost2010Prop51ColorRGB
 90
-16777216
102
RTVSPost2010PropOp51
 70
     0
102
RTVSPost2010Prop52
140
1.0
102
RTVSPost2010PropOp52
 70
     0
102
RTVSPost2010Prop53
 90
        2
102
RTVSPost2010PropOp53
 70
     1
102
RTVSPost2010Prop54
  1
strokes_ogs.tif
102
RTVSPost2010PropOp54
 70
     1
102
RTVSPost2010Prop55
280
     0
102
RTVSPost2010PropOp55
 70
     1
102
RTVSPost2010Prop56
140
1.0
102
RTVSPost2010PropOp56
 70
     1
102
RTVSPost2010Prop57
140
1.0
102
RTVSPost2010PropOp57
 70
     1
102
RTVSPropertyOp0
 70
     1
102
RTVSPropertyOp1
 70
     1
102
RTVSPropertyOp2
 70
     1
102
RTVSPropertyOp3
 70
     1
102
RTVSPropertyOp4
 70
     1
102
RTVSPropertyOp5
 70
     1
102
RTVSPropertyOp6
 70
     1
102
RTVSPropertyOp7
 70
     1
102
RTVSPropertyOp8
 70
     1
102
RTVSPropertyOp9
 70
     1
102
RTVSPropertyOp10
 70
     1
102
RTVSPropertyOp11
 70
     1
102
RTVSPropertyOp12
 70
     1
102
RTVSPropertyOp13
 70
     1
102
RTVSPropertyOp14
 70
     1
102
RTVSPropertyOp15
 70
     1
102
RTVSPropertyOp16
 70
     1
102
RTVSPropertyOp17
 70
     1
102
RTVSPropertyOp18
 70
     1
102
RTVSPropertyOp19
 70
     1
102
RTVSPropertyOp20
 70
     1
102
RTVSPropertyOp21
 70
     1
102
RTVSPropertyOp22
 70
     1
102
RTVSPropertyOp23
 70
     1
102
RTVSPropertyOp24
 70
     1
102
RTVSPropertyOp25
 70
     1
102
RTVSPropertyOp26
 70
     1
102
RTVSPropertyOp27
 70
     1
102
RTVSPropertyOp28
 70
     1
102
RTVSPropertyOp29
 70
     1
102
RTVSPropertyOp30
 70
     1
102
RTVSPropertyOp31
 70
     1
102
RTVSPropertyOp32
 70
     1
102
RTVSPropertyOp33
 70
     1
102
RTVSPropertyOp34
 70
     1
102
RTVSPropertyOp35
 70
     1
102
RTVSPropertyOp36
 70
     1
102
RTVSPropertyOp37
 70
     1
102
RTVSPropertyOp38
 70
     1
102
RTVSPropertyOp39
 70
     1
102
RTVSPropertyOp40
 70
     1
102
RTVSPropertyOp41
 70
     1
102
RTVSPropertyOp42
 70
     1
102
RTVSPropertyOp43
 70
     1
102
RTVSPropertyOp44
 70
     1
102
RTVSPropertyOp45
 70
     1
102
RTVSPropertyOp46
 70
     1
102
RTVSPropertyOp47
 70
     1
102
RTVSPropertyOp48
 70
     1
102
RTVSPropertyOp49
 70
     1
102
RTVSPropertyOp50
 70
     1
102
RTVSPropertyOp51
 70
     0
102
RTVSPropertyOp52
 70
     0
102
RTVSPropertyOp53
 70
     1
102
RTVSPropertyOp54
 70
     1
102
RTVSPropertyOp55
 70
     1
102
RTVSPropertyOp56
 70
     1
102
RTVSPropertyOp57
 70
     1
102
RTVSPropertyOp58
 70
     1
102
RTVSPropertyOp59
 70
     1
102
RTVSPropertyOp60
 70
     1
102
RTVSPropertyOp61
 70
     1
102
RTVSPropertyOp62
 70
     1
  0
XRECORD
  5
1C8CDE6B2BE9
102
{ACAD_REACTORS
330
1C8CDE6B2BE8
102
}
330
1C8CDE6B2BE8
100
AcDbXrecord
280
     1
102
RTVSPost2010Prop28
280
     0
102
RTVSPost2010PropOp28
 70
     1
102
RTVSPost2010Prop29
280
     1
102
RTVSPost2010PropOp29
 70
     1
102
RTVSPost2010Prop30
280
     1
102
RTVSPost2010PropOp30
 70
     1
102
RTVSPost2010Prop31
280
     0
102
RTVSPost2010PropOp31
 70
     1
102
RTVSPost2010Prop32
280
     0
102
RTVSPost2010PropOp32
 70
     1
102
RTVSPost2010Prop33
280
     0
102
RTVSPost2010PropOp33
 70
     1
102
RTVSPost2010Prop34
280
     0
102
RTVSPost2010PropOp34
 70
     1
102
RTVSPost2010Prop35
280
     0
102
RTVSPost2010PropOp35
 70
     1
102
RTVSPost2010Prop36
280
     0
102
RTVSPost2010PropOp36
 70
     1
102
RTVSPost2010Prop37
 90
       50
102
RTVSPost2010PropOp37
 70
     1
102
RTVSPost2010Prop38
140
0.0
102
RTVSPost2010PropOp38
 70
     1
102
RTVSPost2010Prop39
140
1.0
102
RTVSPost2010PropOp39
 70
     1
102
RTVSPost2010Prop40
 90
        0
102
RTVSPost2010PropOp40
 70
     1
102
RTVSPost2010Prop41ColorIndex
 90
       18
102
RTVSPost2010Prop41ColorRGB
 90
        0
102
RTVSPost2010PropOp41
 70
     1
102
RTVSPost2010Prop42
 90
       50
102
RTVSPost2010PropOp42
 70
     1
102
RTVSPost2010Prop43
 90
        3
102
RTVSPost2010PropOp43
 70
     1
102
RTVSPost2010Prop44ColorIndex
 90
        5
102
RTVSPost2010Prop44ColorRGB
 90
      255
102
RTVSPost2010PropOp44
 70
     1
102
RTVSPost2010Prop45
280
     0
102
RTVSPost2010PropOp45
 70
     1
102
RTVSPost2010Prop46
 90
       50
102
RTVSPost2010PropOp46
 70
     1
102
RTVSPost2010Prop47
 90
       50
102
RTVSPost2010PropOp47
 70
     1
102
RTVSPost2010Prop48
 90
       50
102
RTVSPost2010PropOp48
 70
     1
102
RTVSPost2010Prop49
280
     0
102
RTVSPost2010PropOp49
 70
     1
102
RTVSPost2010Prop50
 90
       50
102
RTVSPost2010PropOp50
 70
     1
102
RTVSPost2010Prop51ColorIndex
 90
      256
102
RTVSPost2010Prop51ColorRGB
 90
-16777216
102
RTVSPost2010PropOp51
 70
     0
102
RTVSPost2010Prop52
140
1.0
102
RTVSPost2010PropOp52
 70
     0
102
RTVSPost2010Prop53
 90
        2
102
RTVSPost2010PropOp53
 70
     1
102
RTVSPost2010Prop54
  1
strokes_ogs.tif
102
RTVSPost2010PropOp54
 70
     1
102
RTVSPost2010Prop55
280
     0
102
RTVSPost2010PropOp55
 70
     1
102
RTVSPost2010Prop56
140
1.0
102
RTVSPost2010PropOp56
 70
     1
102
RTVSPost2010Prop57
140
1.0
102
RTVSPost2010PropOp57
 70
     1
102
RTVSPropertyOp0
 70
     1
102
RTVSPropertyOp1
 70
     1
102
RTVSPropertyOp2
 70
     1
102
RTVSPropertyOp3
 70
     1
102
RTVSPropertyOp4
 70
     1
102
RTVSPropertyOp5
 70
     1
102
RTVSPropertyOp6
 70
     1
102
RTVSPropertyOp7
 70
     1
102
RTVSPropertyOp8
 70
     1
102
RTVSPropertyOp9
 70
     1
102
RTVSPropertyOp10
 70
     1
102
RTVSPropertyOp11
 70
     1
102
RTVSPropertyOp12
 70
     1
102
RTVSPropertyOp13
 70
     1
102
RTVSPropertyOp14
 70
     1
102
RTVSPropertyOp15
 70
     1
102
RTVSPropertyOp16
 70
     1
102
RTVSPropertyOp17
 70
     1
102
RTVSPropertyOp18
 70
     1
102
RTVSPropertyOp19
 70
     1
102
RTVSPropertyOp20
 70
     1
102
RTVSPropertyOp21
 70
     1
102
RTVSPropertyOp22
 70
     1
102
RTVSPropertyOp23
 70
     1
102
RTVSPropertyOp24
 70
     1
102
RTVSPropertyOp25
 70
     1
102
RTVSPropertyOp26
 70
     1
102
RTVSPropertyOp27
 70
     1
102
RTVSPropertyOp28
 70
     1
102
RTVSPropertyOp29
 70
     1
102
RTVSPropertyOp30
 70
     1
102
RTVSPropertyOp31
 70
     1
102
RTVSPropertyOp32
 70
     1
102
RTVSPropertyOp33
 70
     1
102
RTVSPropertyOp34
 70
     1
102
RTVSPropertyOp35
 70
     1
102
RTVSPropertyOp36
 70
     1
102
RTVSPropertyOp37
 70
     1
102
RTVSPropertyOp38
 70
     1
102
RTVSPropertyOp39
 70
     1
102
RTVSPropertyOp40
 70
     1
102
RTVSPropertyOp41
 70
     1
102
RTVSPropertyOp42
 70
     1
102
RTVSPropertyOp43
 70
     1
102
RTVSPropertyOp44
 70
     1
102
RTVSPropertyOp45
 70
     1
102
RTVSPropertyOp46
 70
     1
102
RTVSPropertyOp47
 70
     1
102
RTVSPropertyOp48
 70
     1
102
RTVSPropertyOp49
 70
     1
102
RTVSPropertyOp50
 70
     1
102
RTVSPropertyOp51
 70
     0
102
RTVSPropertyOp52
 70
     0
102
RTVSPropertyOp53
 70
     1
102
RTVSPropertyOp54
 70
     1
102
RTVSPropertyOp55
 70
     1
102
RTVSPropertyOp56
 70
     1
102
RTVSPropertyOp57
 70
     1
102
RTVSPropertyOp58
 70
     1
102
RTVSPropertyOp59
 70
     1
102
RTVSPropertyOp60
 70
     1
102
RTVSPropertyOp61
 70
     1
102
RTVSPropertyOp62
 70
     1
  0
XRECORD
  5
1C8CDE6B2BEB
102
{ACAD_REACTORS
330
1C8CDE6B2BEA
102
}
330
1C8CDE6B2BEA
100
AcDbXrecord
280
     1
102
RTVSPost2010Prop28
280
     0
102
RTVSPost2010PropOp28
 70
     1
102
RTVSPost2010Prop29
280
     1
102
RTVSPost2010PropOp29
 70
     1
102
RTVSPost2010Prop30
280
     1
102
RTVSPost2010PropOp30
 70
     1
102
RTVSPost2010Prop31
280
     0
102
RTVSPost2010PropOp31
 70
     1
102
RTVSPost2010Prop32
280
     0
102
RTVSPost2010PropOp32
 70
     1
102
RTVSPost2010Prop33
280
     0
102
RTVSPost2010PropOp33
 70
     1
102
RTVSPost2010Prop34
280
     0
102
RTVSPost2010PropOp34
 70
     1
102
RTVSPost2010Prop35
280
     0
102
RTVSPost2010PropOp35
 70
     1
102
RTVSPost2010Prop36
280
     0
102
RTVSPost2010PropOp36
 70
     1
102
RTVSPost2010Prop37
 90
       50
102
RTVSPost2010PropOp37
 70
     1
102
RTVSPost2010Prop38
140
0.0
102
RTVSPost2010PropOp38
 70
     1
102
RTVSPost2010Prop39
140
1.0
102
RTVSPost2010PropOp39
 70
     1
102
RTVSPost2010Prop40
 90
        0
102
RTVSPost2010PropOp40
 70
     1
102
RTVSPost2010Prop41ColorIndex
 90
       18
102
RTVSPost2010Prop41ColorRGB
 90
        0
102
RTVSPost2010PropOp41
 70
     1
102
RTVSPost2010Prop42
 90
       50
102
RTVSPost2010PropOp42
 70
     1
102
RTVSPost2010Prop43
 90
        3
102
RTVSPost2010PropOp43
 70
     1
102
RTVSPost2010Prop44ColorIndex
 90
        5
102
RTVSPost2010Prop44ColorRGB
 90
      255
102
RTVSPost2010PropOp44
 70
     1
102
RTVSPost2010Prop45
280
     0
102
RTVSPost2010PropOp45
 70
     1
102
RTVSPost2010Prop46
 90
       50
102
RTVSPost2010PropOp46
 70
     1
102
RTVSPost2010Prop47
 90
       50
102
RTVSPost2010PropOp47
 70
     1
102
RTVSPost2010Prop48
 90
       50
102
RTVSPost2010PropOp48
 70
     1
102
RTVSPost2010Prop49
280
     0
102
RTVSPost2010PropOp49
 70
     1
102
RTVSPost2010Prop50
 90
       50
102
RTVSPost2010PropOp50
 70
     1
102
RTVSPost2010Prop51ColorIndex
 90
      256
102
RTVSPost2010Prop51ColorRGB
 90
-16777216
102
RTVSPost2010PropOp51
 70
     0
102
RTVSPost2010Prop52
140
1.0
102
RTVSPost2010PropOp52
 70
     0
102
RTVSPost2010Prop53
 90
        2
102
RTVSPost2010PropOp53
 70
     1
102
RTVSPost2010Prop54
  1
strokes_ogs.tif
102
RTVSPost2010PropOp54
 70
     1
102
RTVSPost2010Prop55
280
     0
102
RTVSPost2010PropOp55
 70
     1
102
RTVSPost2010Prop56
140
1.0
102
RTVSPost2010PropOp56
 70
     1
102
RTVSPost2010Prop57
140
1.0
102
RTVSPost2010PropOp57
 70
     1
102
RTVSPropertyOp0
 70
     1
102
RTVSPropertyOp1
 70
     1
102
RTVSPropertyOp2
 70
     1
102
RTVSPropertyOp3
 70
     1
102
RTVSPropertyOp4
 70
     1
102
RTVSPropertyOp5
 70
     1
102
RTVSPropertyOp6
 70
     1
102
RTVSPropertyOp7
 70
     1
102
RTVSPropertyOp8
 70
     1
102
RTVSPropertyOp9
 70
     1
102
RTVSPropertyOp10
 70
     1
102
RTVSPropertyOp11
 70
     1
102
RTVSPropertyOp12
 70
     1
102
RTVSPropertyOp13
 70
     1
102
RTVSPropertyOp14
 70
     1
102
RTVSPropertyOp15
 70
     1
102
RTVSPropertyOp16
 70
     1
102
RTVSPropertyOp17
 70
     1
102
RTVSPropertyOp18
 70
     1
102
RTVSPropertyOp19
 70
     1
102
RTVSPropertyOp20
 70
     1
102
RTVSPropertyOp21
 70
     1
102
RTVSPropertyOp22
 70
     1
102
RTVSPropertyOp23
 70
     1
102
RTVSPropertyOp24
 70
     1
102
RTVSPropertyOp25
 70
     1
102
RTVSPropertyOp26
 70
     1
102
RTVSPropertyOp27
 70
     1
102
RTVSPropertyOp28
 70
     1
102
RTVSPropertyOp29
 70
     1
102
RTVSPropertyOp30
 70
     1
102
RTVSPropertyOp31
 70
     1
102
RTVSPropertyOp32
 70
     1
102
RTVSPropertyOp33
 70
     1
102
RTVSPropertyOp34
 70
     1
102
RTVSPropertyOp35
 70
     1
102
RTVSPropertyOp36
 70
     1
102
RTVSPropertyOp37
 70
     1
102
RTVSPropertyOp38
 70
     1
102
RTVSPropertyOp39
 70
     1
102
RTVSPropertyOp40
 70
     1
102
RTVSPropertyOp41
 70
     1
102
RTVSPropertyOp42
 70
     1
102
RTVSPropertyOp43
 70
     1
102
RTVSPropertyOp44
 70
     1
102
RTVSPropertyOp45
 70
     1
102
RTVSPropertyOp46
 70
     1
102
RTVSPropertyOp47
 70
     1
102
RTVSPropertyOp48
 70
     1
102
RTVSPropertyOp49
 70
     1
102
RTVSPropertyOp50
 70
     1
102
RTVSPropertyOp51
 70
     0
102
RTVSPropertyOp52
 70
     0
102
RTVSPropertyOp53
 70
     1
102
RTVSPropertyOp54
 70
     1
102
RTVSPropertyOp55
 70
     1
102
RTVSPropertyOp56
 70
     1
102
RTVSPropertyOp57
 70
     1
102
RTVSPropertyOp58
 70
     1
102
RTVSPropertyOp59
 70
     1
102
RTVSPropertyOp60
 70
     1
102
RTVSPropertyOp61
 70
     1
102
RTVSPropertyOp62
 70
     1
  0
XRECORD
  5
1C8CDE6B2BED
102
{ACAD_REACTORS
330
1C8CDE6B2BEC
102
}
330
1C8CDE6B2BEC
100
AcDbXrecord
280
     1
102
RTVSPost2010Prop28
280
     0
102
RTVSPost2010PropOp28
 70
     1
102
RTVSPost2010Prop29
280
     1
102
RTVSPost2010PropOp29
 70
     1
102
RTVSPost2010Prop30
280
     1
102
RTVSPost2010PropOp30
 70
     1
102
RTVSPost2010Prop31
280
     0
102
RTVSPost2010PropOp31
 70
     1
102
RTVSPost2010Prop32
280
     0
102
RTVSPost2010PropOp32
 70
     1
102
RTVSPost2010Prop33
280
     0
102
RTVSPost2010PropOp33
 70
     1
102
RTVSPost2010Prop34
280
     0
102
RTVSPost2010PropOp34
 70
     1
102
RTVSPost2010Prop35
280
     0
102
RTVSPost2010PropOp35
 70
     1
102
RTVSPost2010Prop36
280
     0
102
RTVSPost2010PropOp36
 70
     1
102
RTVSPost2010Prop37
 90
       50
102
RTVSPost2010PropOp37
 70
     1
102
RTVSPost2010Prop38
140
0.0
102
RTVSPost2010PropOp38
 70
     1
102
RTVSPost2010Prop39
140
1.0
102
RTVSPost2010PropOp39
 70
     1
102
RTVSPost2010Prop40
 90
        0
102
RTVSPost2010PropOp40
 70
     1
102
RTVSPost2010Prop41ColorIndex
 90
       18
102
RTVSPost2010Prop41ColorRGB
 90
        0
102
RTVSPost2010PropOp41
 70
     1
102
RTVSPost2010Prop42
 90
       50
102
RTVSPost2010PropOp42
 70
     1
102
RTVSPost2010Prop43
 90
        3
102
RTVSPost2010PropOp43
 70
     1
102
RTVSPost2010Prop44ColorIndex
 90
        5
102
RTVSPost2010Prop44ColorRGB
 90
      255
102
RTVSPost2010PropOp44
 70
     1
102
RTVSPost2010Prop45
280
     0
102
RTVSPost2010PropOp45
 70
     1
102
RTVSPost2010Prop46
 90
       50
102
RTVSPost2010PropOp46
 70
     1
102
RTVSPost2010Prop47
 90
       50
102
RTVSPost2010PropOp47
 70
     1
102
RTVSPost2010Prop48
 90
       50
102
RTVSPost2010PropOp48
 70
     1
102
RTVSPost2010Prop49
280
     0
102
RTVSPost2010PropOp49
 70
     1
102
RTVSPost2010Prop50
 90
       50
102
RTVSPost2010PropOp50
 70
     1
102
RTVSPost2010Prop51ColorIndex
 90
      256
102
RTVSPost2010Prop51ColorRGB
 90
-16777216
102
RTVSPost2010PropOp51
 70
     0
102
RTVSPost2010Prop52
140
1.0
102
RTVSPost2010PropOp52
 70
     0
102
RTVSPost2010Prop53
 90
        2
102
RTVSPost2010PropOp53
 70
     1
102
RTVSPost2010Prop54
  1
strokes_ogs.tif
102
RTVSPost2010PropOp54
 70
     1
102
RTVSPost2010Prop55
280
     0
102
RTVSPost2010PropOp55
 70
     1
102
RTVSPost2010Prop56
140
1.0
102
RTVSPost2010PropOp56
 70
     1
102
RTVSPost2010Prop57
140
1.0
102
RTVSPost2010PropOp57
 70
     1
102
RTVSPropertyOp0
 70
     1
102
RTVSPropertyOp1
 70
     1
102
RTVSPropertyOp2
 70
     1
102
RTVSPropertyOp3
 70
     1
102
RTVSPropertyOp4
 70
     1
102
RTVSPropertyOp5
 70
     1
102
RTVSPropertyOp6
 70
     1
102
RTVSPropertyOp7
 70
     1
102
RTVSPropertyOp8
 70
     1
102
RTVSPropertyOp9
 70
     1
102
RTVSPropertyOp10
 70
     1
102
RTVSPropertyOp11
 70
     1
102
RTVSPropertyOp12
 70
     1
102
RTVSPropertyOp13
 70
     1
102
RTVSPropertyOp14
 70
     1
102
RTVSPropertyOp15
 70
     1
102
RTVSPropertyOp16
 70
     1
102
RTVSPropertyOp17
 70
     1
102
RTVSPropertyOp18
 70
     1
102
RTVSPropertyOp19
 70
     1
102
RTVSPropertyOp20
 70
     1
102
RTVSPropertyOp21
 70
     1
102
RTVSPropertyOp22
 70
     1
102
RTVSPropertyOp23
 70
     1
102
RTVSPropertyOp24
 70
     1
102
RTVSPropertyOp25
 70
     1
102
RTVSPropertyOp26
 70
     1
102
RTVSPropertyOp27
 70
     1
102
RTVSPropertyOp28
 70
     1
102
RTVSPropertyOp29
 70
     1
102
RTVSPropertyOp30
 70
     1
102
RTVSPropertyOp31
 70
     1
102
RTVSPropertyOp32
 70
     1
102
RTVSPropertyOp33
 70
     1
102
RTVSPropertyOp34
 70
     1
102
RTVSPropertyOp35
 70
     1
102
RTVSPropertyOp36
 70
     1
102
RTVSPropertyOp37
 70
     1
102
RTVSPropertyOp38
 70
     1
102
RTVSPropertyOp39
 70
     1
102
RTVSPropertyOp40
 70
     1
102
RTVSPropertyOp41
 70
     1
102
RTVSPropertyOp42
 70
     1
102
RTVSPropertyOp43
 70
     1
102
RTVSPropertyOp44
 70
     1
102
RTVSPropertyOp45
 70
     1
102
RTVSPropertyOp46
 70
     1
102
RTVSPropertyOp47
 70
     1
102
RTVSPropertyOp48
 70
     1
102
RTVSPropertyOp49
 70
     1
102
RTVSPropertyOp50
 70
     1
102
RTVSPropertyOp51
 70
     0
102
RTVSPropertyOp52
 70
     0
102
RTVSPropertyOp53
 70
     1
102
RTVSPropertyOp54
 70
     1
102
RTVSPropertyOp55
 70
     1
102
RTVSPropertyOp56
 70
     1
102
RTVSPropertyOp57
 70
     1
102
RTVSPropertyOp58
 70
     1
102
RTVSPropertyOp59
 70
     1
102
RTVSPropertyOp60
 70
     1
102
RTVSPropertyOp61
 70
     1
102
RTVSPropertyOp62
 70
     1
  0
XRECORD
  5
1C8CDE6B2BF5
102
{ACAD_REACTORS
330
1C8CDE6B2BF4
102
}
330
1C8CDE6B2BF4
100
AcDbXrecord
280
     1
102
RTVSPost2010Prop28
280
     0
102
RTVSPost2010PropOp28
 70
     1
102
RTVSPost2010Prop29
280
     1
102
RTVSPost2010PropOp29
 70
     1
102
RTVSPost2010Prop30
280
     1
102
RTVSPost2010PropOp30
 70
     1
102
RTVSPost2010Prop31
280
     0
102
RTVSPost2010PropOp31
 70
     1
102
RTVSPost2010Prop32
280
     0
102
RTVSPost2010PropOp32
 70
     1
102
RTVSPost2010Prop33
280
     0
102
RTVSPost2010PropOp33
 70
     1
102
RTVSPost2010Prop34
280
     0
102
RTVSPost2010PropOp34
 70
     1
102
RTVSPost2010Prop35
280
     0
102
RTVSPost2010PropOp35
 70
     1
102
RTVSPost2010Prop36
280
     0
102
RTVSPost2010PropOp36
 70
     1
102
RTVSPost2010Prop37
 90
       50
102
RTVSPost2010PropOp37
 70
     1
102
RTVSPost2010Prop38
140
0.0
102
RTVSPost2010PropOp38
 70
     1
102
RTVSPost2010Prop39
140
1.0
102
RTVSPost2010PropOp39
 70
     1
102
RTVSPost2010Prop40
 90
        0
102
RTVSPost2010PropOp40
 70
     1
102
RTVSPost2010Prop41ColorIndex
 90
       18
102
RTVSPost2010Prop41ColorRGB
 90
        0
102
RTVSPost2010PropOp41
 70
     1
102
RTVSPost2010Prop42
 90
       50
102
RTVSPost2010PropOp42
 70
     1
102
RTVSPost2010Prop43
 90
        3
102
RTVSPost2010PropOp43
 70
     1
102
RTVSPost2010Prop44ColorIndex
 90
        5
102
RTVSPost2010Prop44ColorRGB
 90
      255
102
RTVSPost2010PropOp44
 70
     1
102
RTVSPost2010Prop45
280
     0
102
RTVSPost2010PropOp45
 70
     1
102
RTVSPost2010Prop46
 90
       50
102
RTVSPost2010PropOp46
 70
     1
102
RTVSPost2010Prop47
 90
       50
102
RTVSPost2010PropOp47
 70
     1
102
RTVSPost2010Prop48
 90
       50
102
RTVSPost2010PropOp48
 70
     1
102
RTVSPost2010Prop49
280
     0
102
RTVSPost2010PropOp49
 70
     1
102
RTVSPost2010Prop50
 90
       50
102
RTVSPost2010PropOp50
 70
     1
102
RTVSPost2010Prop51ColorIndex
 90
      256
102
RTVSPost2010Prop51ColorRGB
 90
-16777216
102
RTVSPost2010PropOp51
 70
     0
102
RTVSPost2010Prop52
140
1.0
102
RTVSPost2010PropOp52
 70
     0
102
RTVSPost2010Prop53
 90
        2
102
RTVSPost2010PropOp53
 70
     1
102
RTVSPost2010Prop54
  1
strokes_ogs.tif
102
RTVSPost2010PropOp54
 70
     1
102
RTVSPost2010Prop55
280
     0
102
RTVSPost2010PropOp55
 70
     1
102
RTVSPost2010Prop56
140
1.0
102
RTVSPost2010PropOp56
 70
     1
102
RTVSPost2010Prop57
140
1.0
102
RTVSPost2010PropOp57
 70
     1
102
RTVSPropertyOp0
 70
     1
102
RTVSPropertyOp1
 70
     1
102
RTVSPropertyOp2
 70
     1
102
RTVSPropertyOp3
 70
     1
102
RTVSPropertyOp4
 70
     1
102
RTVSPropertyOp5
 70
     1
102
RTVSPropertyOp6
 70
     1
102
RTVSPropertyOp7
 70
     1
102
RTVSPropertyOp8
 70
     1
102
RTVSPropertyOp9
 70
     1
102
RTVSPropertyOp10
 70
     1
102
RTVSPropertyOp11
 70
     1
102
RTVSPropertyOp12
 70
     1
102
RTVSPropertyOp13
 70
     1
102
RTVSPropertyOp14
 70
     1
102
RTVSPropertyOp15
 70
     1
102
RTVSPropertyOp16
 70
     1
102
RTVSPropertyOp17
 70
     1
102
RTVSPropertyOp18
 70
     1
102
RTVSPropertyOp19
 70
     1
102
RTVSPropertyOp20
 70
     1
102
RTVSPropertyOp21
 70
     1
102
RTVSPropertyOp22
 70
     1
102
RTVSPropertyOp23
 70
     1
102
RTVSPropertyOp24
 70
     1
102
RTVSPropertyOp25
 70
     1
102
RTVSPropertyOp26
 70
     1
102
RTVSPropertyOp27
 70
     1
102
RTVSPropertyOp28
 70
     1
102
RTVSPropertyOp29
 70
     1
102
RTVSPropertyOp30
 70
     1
102
RTVSPropertyOp31
 70
     1
102
RTVSPropertyOp32
 70
     1
102
RTVSPropertyOp33
 70
     1
102
RTVSPropertyOp34
 70
     1
102
RTVSPropertyOp35
 70
     1
102
RTVSPropertyOp36
 70
     1
102
RTVSPropertyOp37
 70
     1
102
RTVSPropertyOp38
 70
     1
102
RTVSPropertyOp39
 70
     1
102
RTVSPropertyOp40
 70
     1
102
RTVSPropertyOp41
 70
     1
102
RTVSPropertyOp42
 70
     1
102
RTVSPropertyOp43
 70
     1
102
RTVSPropertyOp44
 70
     1
102
RTVSPropertyOp45
 70
     1
102
RTVSPropertyOp46
 70
     1
102
RTVSPropertyOp47
 70
     1
102
RTVSPropertyOp48
 70
     1
102
RTVSPropertyOp49
 70
     1
102
RTVSPropertyOp50
 70
     1
102
RTVSPropertyOp51
 70
     0
102
RTVSPropertyOp52
 70
     0
102
RTVSPropertyOp53
 70
     1
102
RTVSPropertyOp54
 70
     1
102
RTVSPropertyOp55
 70
     1
102
RTVSPropertyOp56
 70
     1
102
RTVSPropertyOp57
 70
     1
102
RTVSPropertyOp58
 70
     1
102
RTVSPropertyOp59
 70
     1
102
RTVSPropertyOp60
 70
     1
102
RTVSPropertyOp61
 70
     1
102
RTVSPropertyOp62
 70
     1
  0
XRECORD
  5
1C8CDE6B2C11
102
{ACAD_REACTORS
330
1C8CDE6B2C10
102
}
330
1C8CDE6B2C10
100
AcDbXrecord
280
     1
102
RTVSPost2010Prop28
280
     0
102
RTVSPost2010PropOp28
 70
     0
102
RTVSPost2010Prop29
280
     1
102
RTVSPost2010PropOp29
 70
     0
102
RTVSPost2010Prop30
280
     1
102
RTVSPost2010PropOp30
 70
     0
102
RTVSPost2010Prop31
280
     0
102
RTVSPost2010PropOp31
 70
     0
102
RTVSPost2010Prop32
280
     0
102
RTVSPost2010PropOp32
 70
     0
102
RTVSPost2010Prop33
280
     0
102
RTVSPost2010PropOp33
 70
     0
102
RTVSPost2010Prop34
280
     0
102
RTVSPost2010PropOp34
 70
     0
102
RTVSPost2010Prop35
280
     0
102
RTVSPost2010PropOp35
 70
     0
102
RTVSPost2010Prop36
280
     0
102
RTVSPost2010PropOp36
 70
     0
102
RTVSPost2010Prop37
 90
       50
102
RTVSPost2010PropOp37
 70
     0
102
RTVSPost2010Prop38
140
0.0
102
RTVSPost2010PropOp38
 70
     0
102
RTVSPost2010Prop39
140
1.0
102
RTVSPost2010PropOp39
 70
     0
102
RTVSPost2010Prop40
 90
        0
102
RTVSPost2010PropOp40
 70
     0
102
RTVSPost2010Prop41ColorIndex
 90
       18
102
RTVSPost2010Prop41ColorRGB
 90
        0
102
RTVSPost2010PropOp41
 70
     0
102
RTVSPost2010Prop42
 90
       50
102
RTVSPost2010PropOp42
 70
     0
102
RTVSPost2010Prop43
 90
        3
102
RTVSPost2010PropOp43
 70
     0
102
RTVSPost2010Prop44ColorIndex
 90
        5
102
RTVSPost2010Prop44ColorRGB
 90
      255
102
RTVSPost2010PropOp44
 70
     0
102
RTVSPost2010Prop45
280
     0
102
RTVSPost2010PropOp45
 70
     0
102
RTVSPost2010Prop46
 90
       50
102
RTVSPost2010PropOp46
 70
     0
102
RTVSPost2010Prop47
 90
       50
102
RTVSPost2010PropOp47
 70
     0
102
RTVSPost2010Prop48
 90
       50
102
RTVSPost2010PropOp48
 70
     0
102
RTVSPost2010Prop49
280
     0
102
RTVSPost2010PropOp49
 70
     0
102
RTVSPost2010Prop50
 90
       50
102
RTVSPost2010PropOp50
 70
     0
102
RTVSPost2010Prop51ColorIndex
 90
      256
102
RTVSPost2010Prop51ColorRGB
 90
-16777216
102
RTVSPost2010PropOp51
 70
     0
102
RTVSPost2010Prop52
140
1.0
102
RTVSPost2010PropOp52
 70
     0
102
RTVSPost2010Prop53
 90
        2
102
RTVSPost2010PropOp53
 70
     0
102
RTVSPost2010Prop54
  1
strokes_ogs.tif
102
RTVSPost2010PropOp54
 70
     0
102
RTVSPost2010Prop55
280
     0
102
RTVSPost2010PropOp55
 70
     0
102
RTVSPost2010Prop56
140
1.0
102
RTVSPost2010PropOp56
 70
     0
102
RTVSPost2010Prop57
140
1.0
102
RTVSPost2010PropOp57
 70
     0
102
RTVSPropertyOp0
 70
     0
102
RTVSPropertyOp1
 70
     0
102
RTVSPropertyOp2
 70
     0
102
RTVSPropertyOp3
 70
     0
102
RTVSPropertyOp4
 70
     0
102
RTVSPropertyOp5
 70
     0
102
RTVSPropertyOp6
 70
     0
102
RTVSPropertyOp7
 70
     0
102
RTVSPropertyOp8
 70
     0
102
RTVSPropertyOp9
 70
     0
102
RTVSPropertyOp10
 70
     0
102
RTVSPropertyOp11
 70
     0
102
RTVSPropertyOp12
 70
     0
102
RTVSPropertyOp13
 70
     0
102
RTVSPropertyOp14
 70
     2
102
RTVSPropertyOp15
 70
     0
102
RTVSPropertyOp16
 70
     0
102
RTVSPropertyOp17
 70
     0
102
RTVSPropertyOp18
 70
     0
102
RTVSPropertyOp19
 70
     0
102
RTVSPropertyOp20
 70
     0
102
RTVSPropertyOp21
 70
     0
102
RTVSPropertyOp22
 70
     0
102
RTVSPropertyOp23
 70
     0
102
RTVSPropertyOp24
 70
     0
102
RTVSPropertyOp25
 70
     0
102
RTVSPropertyOp26
 70
     0
102
RTVSPropertyOp27
 70
     0
102
RTVSPropertyOp28
 70
     0
102
RTVSPropertyOp29
 70
     0
102
RTVSPropertyOp30
 70
     0
102
RTVSPropertyOp31
 70
     0
102
RTVSPropertyOp32
 70
     0
102
RTVSPropertyOp33
 70
     0
102
RTVSPropertyOp34
 70
     0
102
RTVSPropertyOp35
 70
     0
102
RTVSPropertyOp36
 70
     0
102
RTVSPropertyOp37
 70
     0
102
RTVSPropertyOp38
 70
     0
102
RTVSPropertyOp39
 70
     0
102
RTVSPropertyOp40
 70
     0
102
RTVSPropertyOp41
 70
     0
102
RTVSPropertyOp42
 70
     0
102
RTVSPropertyOp43
 70
     0
102
RTVSPropertyOp44
 70
     0
102
RTVSPropertyOp45
 70
     0
102
RTVSPropertyOp46
 70
     0
102
RTVSPropertyOp47
 70
     0
102
RTVSPropertyOp48
 70
     0
102
RTVSPropertyOp49
 70
     0
102
RTVSPropertyOp50
 70
     0
102
RTVSPropertyOp51
 70
     0
102
RTVSPropertyOp52
 70
     0
102
RTVSPropertyOp53
 70
     0
102
RTVSPropertyOp54
 70
     0
102
RTVSPropertyOp55
 70
     0
102
RTVSPropertyOp56
 70
     0
102
RTVSPropertyOp57
 70
     0
102
RTVSPropertyOp58
 70
     0
102
RTVSPropertyOp59
 70
     0
102
RTVSPropertyOp60
 70
     0
102
RTVSPropertyOp61
 70
     0
102
RTVSPropertyOp62
 70
     0
  0
XRECORD
  5
1C8CDE6B2C01
102
{ACAD_REACTORS
330
1C8CDE6B2C00
102
}
330
1C8CDE6B2C00
100
AcDbXrecord
280
     1
102
RTVSPost2010Prop28
280
     0
102
RTVSPost2010PropOp28
 70
     1
102
RTVSPost2010Prop29
280
     1
102
RTVSPost2010PropOp29
 70
     1
102
RTVSPost2010Prop30
280
     1
102
RTVSPost2010PropOp30
 70
     1
102
RTVSPost2010Prop31
280
     0
102
RTVSPost2010PropOp31
 70
     1
102
RTVSPost2010Prop32
280
     0
102
RTVSPost2010PropOp32
 70
     1
102
RTVSPost2010Prop33
280
     0
102
RTVSPost2010PropOp33
 70
     1
102
RTVSPost2010Prop34
280
     0
102
RTVSPost2010PropOp34
 70
     1
102
RTVSPost2010Prop35
280
     0
102
RTVSPost2010PropOp35
 70
     1
102
RTVSPost2010Prop36
280
     0
102
RTVSPost2010PropOp36
 70
     1
102
RTVSPost2010Prop37
 90
       50
102
RTVSPost2010PropOp37
 70
     1
102
RTVSPost2010Prop38
140
0.0
102
RTVSPost2010PropOp38
 70
     1
102
RTVSPost2010Prop39
140
1.0
102
RTVSPost2010PropOp39
 70
     1
102
RTVSPost2010Prop40
 90
        0
102
RTVSPost2010PropOp40
 70
     1
102
RTVSPost2010Prop41ColorIndex
 90
       18
102
RTVSPost2010Prop41ColorRGB
 90
        0
102
RTVSPost2010PropOp41
 70
     1
102
RTVSPost2010Prop42
 90
       50
102
RTVSPost2010PropOp42
 70
     1
102
RTVSPost2010Prop43
 90
        3
102
RTVSPost2010PropOp43
 70
     1
102
RTVSPost2010Prop44ColorIndex
 90
        5
102
RTVSPost2010Prop44ColorRGB
 90
      255
102
RTVSPost2010PropOp44
 70
     1
102
RTVSPost2010Prop45
280
     0
102
RTVSPost2010PropOp45
 70
     1
102
RTVSPost2010Prop46
 90
       50
102
RTVSPost2010PropOp46
 70
     1
102
RTVSPost2010Prop47
 90
       50
102
RTVSPost2010PropOp47
 70
     1
102
RTVSPost2010Prop48
 90
       50
102
RTVSPost2010PropOp48
 70
     1
102
RTVSPost2010Prop49
280
     0
102
RTVSPost2010PropOp49
 70
     1
102
RTVSPost2010Prop50
 90
       50
102
RTVSPost2010PropOp50
 70
     1
102
RTVSPost2010Prop51ColorIndex
 90
      256
102
RTVSPost2010Prop51ColorRGB
 90
-16777216
102
RTVSPost2010PropOp51
 70
     0
102
RTVSPost2010Prop52
140
1.0
102
RTVSPost2010PropOp52
 70
     0
102
RTVSPost2010Prop53
 90
        2
102
RTVSPost2010PropOp53
 70
     1
102
RTVSPost2010Prop54
  1
strokes_ogs.tif
102
RTVSPost2010PropOp54
 70
     1
102
RTVSPost2010Prop55
280
     0
102
RTVSPost2010PropOp55
 70
     1
102
RTVSPost2010Prop56
140
1.0
102
RTVSPost2010PropOp56
 70
     1
102
RTVSPost2010Prop57
140
1.0
102
RTVSPost2010PropOp57
 70
     1
102
RTVSPropertyOp0
 70
     1
102
RTVSPropertyOp1
 70
     1
102
RTVSPropertyOp2
 70
     1
102
RTVSPropertyOp3
 70
     1
102
RTVSPropertyOp4
 70
     1
102
RTVSPropertyOp5
 70
     1
102
RTVSPropertyOp6
 70
     1
102
RTVSPropertyOp7
 70
     1
102
RTVSPropertyOp8
 70
     1
102
RTVSPropertyOp9
 70
     1
102
RTVSPropertyOp10
 70
     1
102
RTVSPropertyOp11
 70
     1
102
RTVSPropertyOp12
 70
     1
102
RTVSPropertyOp13
 70
     1
102
RTVSPropertyOp14
 70
     1
102
RTVSPropertyOp15
 70
     1
102
RTVSPropertyOp16
 70
     1
102
RTVSPropertyOp17
 70
     1
102
RTVSPropertyOp18
 70
     1
102
RTVSPropertyOp19
 70
     1
102
RTVSPropertyOp20
 70
     1
102
RTVSPropertyOp21
 70
     1
102
RTVSPropertyOp22
 70
     1
102
RTVSPropertyOp23
 70
     1
102
RTVSPropertyOp24
 70
     1
102
RTVSPropertyOp25
 70
     1
102
RTVSPropertyOp26
 70
     1
102
RTVSPropertyOp27
 70
     1
102
RTVSPropertyOp28
 70
     1
102
RTVSPropertyOp29
 70
     1
102
RTVSPropertyOp30
 70
     1
102
RTVSPropertyOp31
 70
     1
102
RTVSPropertyOp32
 70
     1
102
RTVSPropertyOp33
 70
     1
102
RTVSPropertyOp34
 70
     1
102
RTVSPropertyOp35
 70
     1
102
RTVSPropertyOp36
 70
     1
102
RTVSPropertyOp37
 70
     1
102
RTVSPropertyOp38
 70
     1
102
RTVSPropertyOp39
 70
     1
102
RTVSPropertyOp40
 70
     1
102
RTVSPropertyOp41
 70
     1
102
RTVSPropertyOp42
 70
     1
102
RTVSPropertyOp43
 70
     1
102
RTVSPropertyOp44
 70
     1
102
RTVSPropertyOp45
 70
     1
102
RTVSPropertyOp46
 70
     1
102
RTVSPropertyOp47
 70
     1
102
RTVSPropertyOp48
 70
     1
102
RTVSPropertyOp49
 70
     1
102
RTVSPropertyOp50
 70
     1
102
RTVSPropertyOp51
 70
     0
102
RTVSPropertyOp52
 70
     0
102
RTVSPropertyOp53
 70
     1
102
RTVSPropertyOp54
 70
     1
102
RTVSPropertyOp55
 70
     1
102
RTVSPropertyOp56
 70
     1
102
RTVSPropertyOp57
 70
     1
102
RTVSPropertyOp58
 70
     1
102
RTVSPropertyOp59
 70
     1
102
RTVSPropertyOp60
 70
     1
102
RTVSPropertyOp61
 70
     1
102
RTVSPropertyOp62
 70
     1
  0
XRECORD
  5
1C8CDE6B2C13
102
{ACAD_REACTORS
330
1C8CDE6B2C12
102
}
330
1C8CDE6B2C12
100
AcDbXrecord
280
     1
102
RTVSPost2010Prop28
280
     0
102
RTVSPost2010PropOp28
 70
     0
102
RTVSPost2010Prop29
280
     1
102
RTVSPost2010PropOp29
 70
     0
102
RTVSPost2010Prop30
280
     1
102
RTVSPost2010PropOp30
 70
     0
102
RTVSPost2010Prop31
280
     0
102
RTVSPost2010PropOp31
 70
     0
102
RTVSPost2010Prop32
280
     0
102
RTVSPost2010PropOp32
 70
     0
102
RTVSPost2010Prop33
280
     0
102
RTVSPost2010PropOp33
 70
     0
102
RTVSPost2010Prop34
280
     0
102
RTVSPost2010PropOp34
 70
     0
102
RTVSPost2010Prop35
280
     0
102
RTVSPost2010PropOp35
 70
     0
102
RTVSPost2010Prop36
280
     0
102
RTVSPost2010PropOp36
 70
     0
102
RTVSPost2010Prop37
 90
       50
102
RTVSPost2010PropOp37
 70
     0
102
RTVSPost2010Prop38
140
0.0
102
RTVSPost2010PropOp38
 70
     0
102
RTVSPost2010Prop39
140
1.0
102
RTVSPost2010PropOp39
 70
     0
102
RTVSPost2010Prop40
 90
        0
102
RTVSPost2010PropOp40
 70
     0
102
RTVSPost2010Prop41ColorIndex
 90
       18
102
RTVSPost2010Prop41ColorRGB
 90
        0
102
RTVSPost2010PropOp41
 70
     0
102
RTVSPost2010Prop42
 90
       50
102
RTVSPost2010PropOp42
 70
     0
102
RTVSPost2010Prop43
 90
        3
102
RTVSPost2010PropOp43
 70
     0
102
RTVSPost2010Prop44ColorIndex
 90
        5
102
RTVSPost2010Prop44ColorRGB
 90
      255
102
RTVSPost2010PropOp44
 70
     0
102
RTVSPost2010Prop45
280
     0
102
RTVSPost2010PropOp45
 70
     0
102
RTVSPost2010Prop46
 90
       50
102
RTVSPost2010PropOp46
 70
     0
102
RTVSPost2010Prop47
 90
       50
102
RTVSPost2010PropOp47
 70
     0
102
RTVSPost2010Prop48
 90
       50
102
RTVSPost2010PropOp48
 70
     0
102
RTVSPost2010Prop49
280
     0
102
RTVSPost2010PropOp49
 70
     0
102
RTVSPost2010Prop50
 90
       50
102
RTVSPost2010PropOp50
 70
     0
102
RTVSPost2010Prop51ColorIndex
 90
      256
102
RTVSPost2010Prop51ColorRGB
 90
-16777216
102
RTVSPost2010PropOp51
 70
     0
102
RTVSPost2010Prop52
140
1.0
102
RTVSPost2010PropOp52
 70
     0
102
RTVSPost2010Prop53
 90
        2
102
RTVSPost2010PropOp53
 70
     0
102
RTVSPost2010Prop54
  1
strokes_ogs.tif
102
RTVSPost2010PropOp54
 70
     0
102
RTVSPost2010Prop55
280
     0
102
RTVSPost2010PropOp55
 70
     0
102
RTVSPost2010Prop56
140
1.0
102
RTVSPost2010PropOp56
 70
     0
102
RTVSPost2010Prop57
140
1.0
102
RTVSPost2010PropOp57
 70
     0
102
RTVSPropertyOp0
 70
     0
102
RTVSPropertyOp1
 70
     0
102
RTVSPropertyOp2
 70
     0
102
RTVSPropertyOp3
 70
     0
102
RTVSPropertyOp4
 70
     0
102
RTVSPropertyOp5
 70
     0
102
RTVSPropertyOp6
 70
     0
102
RTVSPropertyOp7
 70
     0
102
RTVSPropertyOp8
 70
     0
102
RTVSPropertyOp9
 70
     0
102
RTVSPropertyOp10
 70
     0
102
RTVSPropertyOp11
 70
     0
102
RTVSPropertyOp12
 70
     0
102
RTVSPropertyOp13
 70
     0
102
RTVSPropertyOp14
 70
     2
102
RTVSPropertyOp15
 70
     0
102
RTVSPropertyOp16
 70
     0
102
RTVSPropertyOp17
 70
     0
102
RTVSPropertyOp18
 70
     0
102
RTVSPropertyOp19
 70
     0
102
RTVSPropertyOp20
 70
     0
102
RTVSPropertyOp21
 70
     0
102
RTVSPropertyOp22
 70
     0
102
RTVSPropertyOp23
 70
     0
102
RTVSPropertyOp24
 70
     0
102
RTVSPropertyOp25
 70
     0
102
RTVSPropertyOp26
 70
     0
102
RTVSPropertyOp27
 70
     0
102
RTVSPropertyOp28
 70
     0
102
RTVSPropertyOp29
 70
     0
102
RTVSPropertyOp30
 70
     0
102
RTVSPropertyOp31
 70
     0
102
RTVSPropertyOp32
 70
     0
102
RTVSPropertyOp33
 70
     0
102
RTVSPropertyOp34
 70
     0
102
RTVSPropertyOp35
 70
     0
102
RTVSPropertyOp36
 70
     0
102
RTVSPropertyOp37
 70
     0
102
RTVSPropertyOp38
 70
     0
102
RTVSPropertyOp39
 70
     0
102
RTVSPropertyOp40
 70
     0
102
RTVSPropertyOp41
 70
     0
102
RTVSPropertyOp42
 70
     0
102
RTVSPropertyOp43
 70
     0
102
RTVSPropertyOp44
 70
     0
102
RTVSPropertyOp45
 70
     0
102
RTVSPropertyOp46
 70
     0
102
RTVSPropertyOp47
 70
     0
102
RTVSPropertyOp48
 70
     0
102
RTVSPropertyOp49
 70
     0
102
RTVSPropertyOp50
 70
     0
102
RTVSPropertyOp51
 70
     0
102
RTVSPropertyOp52
 70
     0
102
RTVSPropertyOp53
 70
     0
102
RTVSPropertyOp54
 70
     0
102
RTVSPropertyOp55
 70
     0
102
RTVSPropertyOp56
 70
     0
102
RTVSPropertyOp57
 70
     0
102
RTVSPropertyOp58
 70
     0
102
RTVSPropertyOp59
 70
     0
102
RTVSPropertyOp60
 70
     0
102
RTVSPropertyOp61
 70
     0
102
RTVSPropertyOp62
 70
     0
  0
XRECORD
  5
1C8CDE6B2BF9
102
{ACAD_REACTORS
330
1C8CDE6B2BF8
102
}
330
1C8CDE6B2BF8
100
AcDbXrecord
280
     1
102
RTVSPost2010Prop28
280
     0
102
RTVSPost2010PropOp28
 70
     1
102
RTVSPost2010Prop29
280
     1
102
RTVSPost2010PropOp29
 70
     1
102
RTVSPost2010Prop30
280
     1
102
RTVSPost2010PropOp30
 70
     1
102
RTVSPost2010Prop31
280
     0
102
RTVSPost2010PropOp31
 70
     1
102
RTVSPost2010Prop32
280
     0
102
RTVSPost2010PropOp32
 70
     1
102
RTVSPost2010Prop33
280
     0
102
RTVSPost2010PropOp33
 70
     1
102
RTVSPost2010Prop34
280
     0
102
RTVSPost2010PropOp34
 70
     1
102
RTVSPost2010Prop35
280
     0
102
RTVSPost2010PropOp35
 70
     1
102
RTVSPost2010Prop36
280
     0
102
RTVSPost2010PropOp36
 70
     1
102
RTVSPost2010Prop37
 90
       50
102
RTVSPost2010PropOp37
 70
     1
102
RTVSPost2010Prop38
140
0.0
102
RTVSPost2010PropOp38
 70
     1
102
RTVSPost2010Prop39
140
1.0
102
RTVSPost2010PropOp39
 70
     1
102
RTVSPost2010Prop40
 90
        0
102
RTVSPost2010PropOp40
 70
     1
102
RTVSPost2010Prop41ColorIndex
 90
       18
102
RTVSPost2010Prop41ColorRGB
 90
        0
102
RTVSPost2010PropOp41
 70
     1
102
RTVSPost2010Prop42
 90
       50
102
RTVSPost2010PropOp42
 70
     1
102
RTVSPost2010Prop43
 90
        3
102
RTVSPost2010PropOp43
 70
     1
102
RTVSPost2010Prop44ColorIndex
 90
        5
102
RTVSPost2010Prop44ColorRGB
 90
      255
102
RTVSPost2010PropOp44
 70
     1
102
RTVSPost2010Prop45
280
     0
102
RTVSPost2010PropOp45
 70
     1
102
RTVSPost2010Prop46
 90
       50
102
RTVSPost2010PropOp46
 70
     1
102
RTVSPost2010Prop47
 90
       50
102
RTVSPost2010PropOp47
 70
     1
102
RTVSPost2010Prop48
 90
       50
102
RTVSPost2010PropOp48
 70
     1
102
RTVSPost2010Prop49
280
     0
102
RTVSPost2010PropOp49
 70
     1
102
RTVSPost2010Prop50
 90
       50
102
RTVSPost2010PropOp50
 70
     1
102
RTVSPost2010Prop51ColorIndex
 90
      256
102
RTVSPost2010Prop51ColorRGB
 90
-16777216
102
RTVSPost2010PropOp51
 70
     0
102
RTVSPost2010Prop52
140
1.0
102
RTVSPost2010PropOp52
 70
     0
102
RTVSPost2010Prop53
 90
        2
102
RTVSPost2010PropOp53
 70
     1
102
RTVSPost2010Prop54
  1
strokes_ogs.tif
102
RTVSPost2010PropOp54
 70
     1
102
RTVSPost2010Prop55
280
     0
102
RTVSPost2010PropOp55
 70
     1
102
RTVSPost2010Prop56
140
1.0
102
RTVSPost2010PropOp56
 70
     1
102
RTVSPost2010Prop57
140
1.0
102
RTVSPost2010PropOp57
 70
     1
102
RTVSPropertyOp0
 70
     1
102
RTVSPropertyOp1
 70
     1
102
RTVSPropertyOp2
 70
     1
102
RTVSPropertyOp3
 70
     1
102
RTVSPropertyOp4
 70
     1
102
RTVSPropertyOp5
 70
     1
102
RTVSPropertyOp6
 70
     1
102
RTVSPropertyOp7
 70
     1
102
RTVSPropertyOp8
 70
     1
102
RTVSPropertyOp9
 70
     1
102
RTVSPropertyOp10
 70
     1
102
RTVSPropertyOp11
 70
     1
102
RTVSPropertyOp12
 70
     1
102
RTVSPropertyOp13
 70
     1
102
RTVSPropertyOp14
 70
     1
102
RTVSPropertyOp15
 70
     1
102
RTVSPropertyOp16
 70
     1
102
RTVSPropertyOp17
 70
     1
102
RTVSPropertyOp18
 70
     1
102
RTVSPropertyOp19
 70
     1
102
RTVSPropertyOp20
 70
     1
102
RTVSPropertyOp21
 70
     1
102
RTVSPropertyOp22
 70
     1
102
RTVSPropertyOp23
 70
     1
102
RTVSPropertyOp24
 70
     1
102
RTVSPropertyOp25
 70
     1
102
RTVSPropertyOp26
 70
     1
102
RTVSPropertyOp27
 70
     1
102
RTVSPropertyOp28
 70
     1
102
RTVSPropertyOp29
 70
     1
102
RTVSPropertyOp30
 70
     1
102
RTVSPropertyOp31
 70
     1
102
RTVSPropertyOp32
 70
     1
102
RTVSPropertyOp33
 70
     1
102
RTVSPropertyOp34
 70
     1
102
RTVSPropertyOp35
 70
     1
102
RTVSPropertyOp36
 70
     1
102
RTVSPropertyOp37
 70
     1
102
RTVSPropertyOp38
 70
     1
102
RTVSPropertyOp39
 70
     1
102
RTVSPropertyOp40
 70
     1
102
RTVSPropertyOp41
 70
     1
102
RTVSPropertyOp42
 70
     1
102
RTVSPropertyOp43
 70
     1
102
RTVSPropertyOp44
 70
     1
102
RTVSPropertyOp45
 70
     1
102
RTVSPropertyOp46
 70
     1
102
RTVSPropertyOp47
 70
     1
102
RTVSPropertyOp48
 70
     1
102
RTVSPropertyOp49
 70
     1
102
RTVSPropertyOp50
 70
     1
102
RTVSPropertyOp51
 70
     0
102
RTVSPropertyOp52
 70
     0
102
RTVSPropertyOp53
 70
     1
102
RTVSPropertyOp54
 70
     1
102
RTVSPropertyOp55
 70
     1
102
RTVSPropertyOp56
 70
     1
102
RTVSPropertyOp57
 70
     1
102
RTVSPropertyOp58
 70
     1
102
RTVSPropertyOp59
 70
     1
102
RTVSPropertyOp60
 70
     1
102
RTVSPropertyOp61
 70
     1
102
RTVSPropertyOp62
 70
     1
  0
XRECORD
  5
1C8CDE6B2C0F
102
{ACAD_REACTORS
330
1C8CDE6B2C0E
102
}
330
1C8CDE6B2C0E
100
AcDbXrecord
280
     1
102
RTVSPost2010Prop28
280
     0
102
RTVSPost2010PropOp28
 70
     1
102
RTVSPost2010Prop29
280
     1
102
RTVSPost2010PropOp29
 70
     1
102
RTVSPost2010Prop30
280
     1
102
RTVSPost2010PropOp30
 70
     1
102
RTVSPost2010Prop31
280
     0
102
RTVSPost2010PropOp31
 70
     1
102
RTVSPost2010Prop32
280
     0
102
RTVSPost2010PropOp32
 70
     1
102
RTVSPost2010Prop33
280
     0
102
RTVSPost2010PropOp33
 70
     1
102
RTVSPost2010Prop34
280
     0
102
RTVSPost2010PropOp34
 70
     1
102
RTVSPost2010Prop35
280
     0
102
RTVSPost2010PropOp35
 70
     1
102
RTVSPost2010Prop36
280
     0
102
RTVSPost2010PropOp36
 70
     1
102
RTVSPost2010Prop37
 90
       50
102
RTVSPost2010PropOp37
 70
     1
102
RTVSPost2010Prop38
140
0.0
102
RTVSPost2010PropOp38
 70
     1
102
RTVSPost2010Prop39
140
1.0
102
RTVSPost2010PropOp39
 70
     1
102
RTVSPost2010Prop40
 90
        0
102
RTVSPost2010PropOp40
 70
     1
102
RTVSPost2010Prop41ColorIndex
 90
       18
102
RTVSPost2010Prop41ColorRGB
 90
        0
102
RTVSPost2010PropOp41
 70
     1
102
RTVSPost2010Prop42
 90
       50
102
RTVSPost2010PropOp42
 70
     1
102
RTVSPost2010Prop43
 90
        3
102
RTVSPost2010PropOp43
 70
     1
102
RTVSPost2010Prop44ColorIndex
 90
        5
102
RTVSPost2010Prop44ColorRGB
 90
      255
102
RTVSPost2010PropOp44
 70
     1
102
RTVSPost2010Prop45
280
     0
102
RTVSPost2010PropOp45
 70
     1
102
RTVSPost2010Prop46
 90
       50
102
RTVSPost2010PropOp46
 70
     1
102
RTVSPost2010Prop47
 90
       50
102
RTVSPost2010PropOp47
 70
     1
102
RTVSPost2010Prop48
 90
       50
102
RTVSPost2010PropOp48
 70
     1
102
RTVSPost2010Prop49
280
     0
102
RTVSPost2010PropOp49
 70
     1
102
RTVSPost2010Prop50
 90
       50
102
RTVSPost2010PropOp50
 70
     1
102
RTVSPost2010Prop51ColorIndex
 90
      256
102
RTVSPost2010Prop51ColorRGB
 90
-16777216
102
RTVSPost2010PropOp51
 70
     0
102
RTVSPost2010Prop52
140
1.0
102
RTVSPost2010PropOp52
 70
     0
102
RTVSPost2010Prop53
 90
        2
102
RTVSPost2010PropOp53
 70
     1
102
RTVSPost2010Prop54
  1
strokes_ogs.tif
102
RTVSPost2010PropOp54
 70
     1
102
RTVSPost2010Prop55
280
     0
102
RTVSPost2010PropOp55
 70
     1
102
RTVSPost2010Prop56
140
1.0
102
RTVSPost2010PropOp56
 70
     1
102
RTVSPost2010Prop57
140
1.0
102
RTVSPost2010PropOp57
 70
     1
102
RTVSPropertyOp0
 70
     1
102
RTVSPropertyOp1
 70
     1
102
RTVSPropertyOp2
 70
     1
102
RTVSPropertyOp3
 70
     1
102
RTVSPropertyOp4
 70
     1
102
RTVSPropertyOp5
 70
     1
102
RTVSPropertyOp6
 70
     1
102
RTVSPropertyOp7
 70
     1
102
RTVSPropertyOp8
 70
     1
102
RTVSPropertyOp9
 70
     1
102
RTVSPropertyOp10
 70
     1
102
RTVSPropertyOp11
 70
     1
102
RTVSPropertyOp12
 70
     1
102
RTVSPropertyOp13
 70
     1
102
RTVSPropertyOp14
 70
     1
102
RTVSPropertyOp15
 70
     1
102
RTVSPropertyOp16
 70
     1
102
RTVSPropertyOp17
 70
     1
102
RTVSPropertyOp18
 70
     1
102
RTVSPropertyOp19
 70
     1
102
RTVSPropertyOp20
 70
     1
102
RTVSPropertyOp21
 70
     1
102
RTVSPropertyOp22
 70
     1
102
RTVSPropertyOp23
 70
     1
102
RTVSPropertyOp24
 70
     1
102
RTVSPropertyOp25
 70
     1
102
RTVSPropertyOp26
 70
     1
102
RTVSPropertyOp27
 70
     1
102
RTVSPropertyOp28
 70
     1
102
RTVSPropertyOp29
 70
     1
102
RTVSPropertyOp30
 70
     1
102
RTVSPropertyOp31
 70
     1
102
RTVSPropertyOp32
 70
     1
102
RTVSPropertyOp33
 70
     1
102
RTVSPropertyOp34
 70
     1
102
RTVSPropertyOp35
 70
     1
102
RTVSPropertyOp36
 70
     1
102
RTVSPropertyOp37
 70
     1
102
RTVSPropertyOp38
 70
     1
102
RTVSPropertyOp39
 70
     1
102
RTVSPropertyOp40
 70
     1
102
RTVSPropertyOp41
 70
     1
102
RTVSPropertyOp42
 70
     1
102
RTVSPropertyOp43
 70
     1
102
RTVSPropertyOp44
 70
     1
102
RTVSPropertyOp45
 70
     1
102
RTVSPropertyOp46
 70
     1
102
RTVSPropertyOp47
 70
     1
102
RTVSPropertyOp48
 70
     1
102
RTVSPropertyOp49
 70
     1
102
RTVSPropertyOp50
 70
     1
102
RTVSPropertyOp51
 70
     0
102
RTVSPropertyOp52
 70
     0
102
RTVSPropertyOp53
 70
     1
102
RTVSPropertyOp54
 70
     1
102
RTVSPropertyOp55
 70
     1
102
RTVSPropertyOp56
 70
     1
102
RTVSPropertyOp57
 70
     1
102
RTVSPropertyOp58
 70
     1
102
RTVSPropertyOp59
 70
     1
102
RTVSPropertyOp60
 70
     1
102
RTVSPropertyOp61
 70
     1
102
RTVSPropertyOp62
 70
     1
  0
XRECORD
  5
1C8CDE6B2C0D
102
{ACAD_REACTORS
330
1C8CDE6B2C0C
102
}
330
1C8CDE6B2C0C
100
AcDbXrecord
280
     1
102
RTVSPost2010Prop28
280
     0
102
RTVSPost2010PropOp28
 70
     1
102
RTVSPost2010Prop29
280
     1
102
RTVSPost2010PropOp29
 70
     1
102
RTVSPost2010Prop30
280
     1
102
RTVSPost2010PropOp30
 70
     1
102
RTVSPost2010Prop31
280
     0
102
RTVSPost2010PropOp31
 70
     1
102
RTVSPost2010Prop32
280
     0
102
RTVSPost2010PropOp32
 70
     1
102
RTVSPost2010Prop33
280
     0
102
RTVSPost2010PropOp33
 70
     1
102
RTVSPost2010Prop34
280
     0
102
RTVSPost2010PropOp34
 70
     1
102
RTVSPost2010Prop35
280
     0
102
RTVSPost2010PropOp35
 70
     1
102
RTVSPost2010Prop36
280
     0
102
RTVSPost2010PropOp36
 70
     1
102
RTVSPost2010Prop37
 90
       50
102
RTVSPost2010PropOp37
 70
     1
102
RTVSPost2010Prop38
140
0.0
102
RTVSPost2010PropOp38
 70
     1
102
RTVSPost2010Prop39
140
1.0
102
RTVSPost2010PropOp39
 70
     1
102
RTVSPost2010Prop40
 90
        0
102
RTVSPost2010PropOp40
 70
     1
102
RTVSPost2010Prop41ColorIndex
 90
       18
102
RTVSPost2010Prop41ColorRGB
 90
        0
102
RTVSPost2010PropOp41
 70
     1
102
RTVSPost2010Prop42
 90
       50
102
RTVSPost2010PropOp42
 70
     1
102
RTVSPost2010Prop43
 90
        3
102
RTVSPost2010PropOp43
 70
     1
102
RTVSPost2010Prop44ColorIndex
 90
        5
102
RTVSPost2010Prop44ColorRGB
 90
      255
102
RTVSPost2010PropOp44
 70
     1
102
RTVSPost2010Prop45
280
     0
102
RTVSPost2010PropOp45
 70
     1
102
RTVSPost2010Prop46
 90
       50
102
RTVSPost2010PropOp46
 70
     1
102
RTVSPost2010Prop47
 90
       50
102
RTVSPost2010PropOp47
 70
     1
102
RTVSPost2010Prop48
 90
       50
102
RTVSPost2010PropOp48
 70
     1
102
RTVSPost2010Prop49
280
     0
102
RTVSPost2010PropOp49
 70
     1
102
RTVSPost2010Prop50
 90
       50
102
RTVSPost2010PropOp50
 70
     1
102
RTVSPost2010Prop51ColorIndex
 90
      256
102
RTVSPost2010Prop51ColorRGB
 90
-16777216
102
RTVSPost2010PropOp51
 70
     0
102
RTVSPost2010Prop52
140
1.0
102
RTVSPost2010PropOp52
 70
     0
102
RTVSPost2010Prop53
 90
        2
102
RTVSPost2010PropOp53
 70
     1
102
RTVSPost2010Prop54
  1
strokes_ogs.tif
102
RTVSPost2010PropOp54
 70
     1
102
RTVSPost2010Prop55
280
     0
102
RTVSPost2010PropOp55
 70
     1
102
RTVSPost2010Prop56
140
1.0
102
RTVSPost2010PropOp56
 70
     1
102
RTVSPost2010Prop57
140
1.0
102
RTVSPost2010PropOp57
 70
     1
102
RTVSPropertyOp0
 70
     1
102
RTVSPropertyOp1
 70
     1
102
RTVSPropertyOp2
 70
     1
102
RTVSPropertyOp3
 70
     1
102
RTVSPropertyOp4
 70
     1
102
RTVSPropertyOp5
 70
     1
102
RTVSPropertyOp6
 70
     1
102
RTVSPropertyOp7
 70
     1
102
RTVSPropertyOp8
 70
     1
102
RTVSPropertyOp9
 70
     1
102
RTVSPropertyOp10
 70
     1
102
RTVSPropertyOp11
 70
     1
102
RTVSPropertyOp12
 70
     1
102
RTVSPropertyOp13
 70
     1
102
RTVSPropertyOp14
 70
     1
102
RTVSPropertyOp15
 70
     1
102
RTVSPropertyOp16
 70
     1
102
RTVSPropertyOp17
 70
     1
102
RTVSPropertyOp18
 70
     1
102
RTVSPropertyOp19
 70
     1
102
RTVSPropertyOp20
 70
     1
102
RTVSPropertyOp21
 70
     1
102
RTVSPropertyOp22
 70
     1
102
RTVSPropertyOp23
 70
     1
102
RTVSPropertyOp24
 70
     1
102
RTVSPropertyOp25
 70
     1
102
RTVSPropertyOp26
 70
     1
102
RTVSPropertyOp27
 70
     1
102
RTVSPropertyOp28
 70
     1
102
RTVSPropertyOp29
 70
     1
102
RTVSPropertyOp30
 70
     1
102
RTVSPropertyOp31
 70
     1
102
RTVSPropertyOp32
 70
     1
102
RTVSPropertyOp33
 70
     1
102
RTVSPropertyOp34
 70
     1
102
RTVSPropertyOp35
 70
     1
102
RTVSPropertyOp36
 70
     1
102
RTVSPropertyOp37
 70
     1
102
RTVSPropertyOp38
 70
     1
102
RTVSPropertyOp39
 70
     1
102
RTVSPropertyOp40
 70
     1
102
RTVSPropertyOp41
 70
     1
102
RTVSPropertyOp42
 70
     1
102
RTVSPropertyOp43
 70
     1
102
RTVSPropertyOp44
 70
     1
102
RTVSPropertyOp45
 70
     1
102
RTVSPropertyOp46
 70
     1
102
RTVSPropertyOp47
 70
     1
102
RTVSPropertyOp48
 70
     1
102
RTVSPropertyOp49
 70
     1
102
RTVSPropertyOp50
 70
     1
102
RTVSPropertyOp51
 70
     0
102
RTVSPropertyOp52
 70
     0
102
RTVSPropertyOp53
 70
     1
102
RTVSPropertyOp54
 70
     1
102
RTVSPropertyOp55
 70
     1
102
RTVSPropertyOp56
 70
     1
102
RTVSPropertyOp57
 70
     1
102
RTVSPropertyOp58
 70
     1
102
RTVSPropertyOp59
 70
     1
102
RTVSPropertyOp60
 70
     1
102
RTVSPropertyOp61
 70
     1
102
RTVSPropertyOp62
 70
     1
  0
XRECORD
  5
1C8CDE6B2C07
102
{ACAD_REACTORS
330
1C8CDE6B2C06
102
}
330
1C8CDE6B2C06
100
AcDbXrecord
280
     1
102
RTVSPost2010Prop28
280
     0
102
RTVSPost2010PropOp28
 70
     1
102
RTVSPost2010Prop29
280
     1
102
RTVSPost2010PropOp29
 70
     1
102
RTVSPost2010Prop30
280
     1
102
RTVSPost2010PropOp30
 70
     1
102
RTVSPost2010Prop31
280
     0
102
RTVSPost2010PropOp31
 70
     1
102
RTVSPost2010Prop32
280
     0
102
RTVSPost2010PropOp32
 70
     1
102
RTVSPost2010Prop33
280
     0
102
RTVSPost2010PropOp33
 70
     1
102
RTVSPost2010Prop34
280
     0
102
RTVSPost2010PropOp34
 70
     1
102
RTVSPost2010Prop35
280
     0
102
RTVSPost2010PropOp35
 70
     1
102
RTVSPost2010Prop36
280
     0
102
RTVSPost2010PropOp36
 70
     1
102
RTVSPost2010Prop37
 90
       50
102
RTVSPost2010PropOp37
 70
     1
102
RTVSPost2010Prop38
140
0.0
102
RTVSPost2010PropOp38
 70
     1
102
RTVSPost2010Prop39
140
1.0
102
RTVSPost2010PropOp39
 70
     1
102
RTVSPost2010Prop40
 90
        0
102
RTVSPost2010PropOp40
 70
     1
102
RTVSPost2010Prop41ColorIndex
 90
       18
102
RTVSPost2010Prop41ColorRGB
 90
        0
102
RTVSPost2010PropOp41
 70
     1
102
RTVSPost2010Prop42
 90
       50
102
RTVSPost2010PropOp42
 70
     1
102
RTVSPost2010Prop43
 90
        3
102
RTVSPost2010PropOp43
 70
     1
102
RTVSPost2010Prop44ColorIndex
 90
        5
102
RTVSPost2010Prop44ColorRGB
 90
      255
102
RTVSPost2010PropOp44
 70
     1
102
RTVSPost2010Prop45
280
     0
102
RTVSPost2010PropOp45
 70
     1
102
RTVSPost2010Prop46
 90
       50
102
RTVSPost2010PropOp46
 70
     1
102
RTVSPost2010Prop47
 90
       50
102
RTVSPost2010PropOp47
 70
     1
102
RTVSPost2010Prop48
 90
       50
102
RTVSPost2010PropOp48
 70
     1
102
RTVSPost2010Prop49
280
     0
102
RTVSPost2010PropOp49
 70
     1
102
RTVSPost2010Prop50
 90
       50
102
RTVSPost2010PropOp50
 70
     1
102
RTVSPost2010Prop51ColorIndex
 90
      256
102
RTVSPost2010Prop51ColorRGB
 90
-16777216
102
RTVSPost2010PropOp51
 70
     0
102
RTVSPost2010Prop52
140
1.0
102
RTVSPost2010PropOp52
 70
     0
102
RTVSPost2010Prop53
 90
        2
102
RTVSPost2010PropOp53
 70
     1
102
RTVSPost2010Prop54
  1
strokes_ogs.tif
102
RTVSPost2010PropOp54
 70
     1
102
RTVSPost2010Prop55
280
     0
102
RTVSPost2010PropOp55
 70
     1
102
RTVSPost2010Prop56
140
1.0
102
RTVSPost2010PropOp56
 70
     1
102
RTVSPost2010Prop57
140
1.0
102
RTVSPost2010PropOp57
 70
     1
102
RTVSPropertyOp0
 70
     1
102
RTVSPropertyOp1
 70
     1
102
RTVSPropertyOp2
 70
     1
102
RTVSPropertyOp3
 70
     1
102
RTVSPropertyOp4
 70
     1
102
RTVSPropertyOp5
 70
     1
102
RTVSPropertyOp6
 70
     1
102
RTVSPropertyOp7
 70
     1
102
RTVSPropertyOp8
 70
     1
102
RTVSPropertyOp9
 70
     1
102
RTVSPropertyOp10
 70
     1
102
RTVSPropertyOp11
 70
     1
102
RTVSPropertyOp12
 70
     1
102
RTVSPropertyOp13
 70
     1
102
RTVSPropertyOp14
 70
     1
102
RTVSPropertyOp15
 70
     1
102
RTVSPropertyOp16
 70
     1
102
RTVSPropertyOp17
 70
     1
102
RTVSPropertyOp18
 70
     1
102
RTVSPropertyOp19
 70
     1
102
RTVSPropertyOp20
 70
     1
102
RTVSPropertyOp21
 70
     1
102
RTVSPropertyOp22
 70
     1
102
RTVSPropertyOp23
 70
     1
102
RTVSPropertyOp24
 70
     1
102
RTVSPropertyOp25
 70
     1
102
RTVSPropertyOp26
 70
     1
102
RTVSPropertyOp27
 70
     1
102
RTVSPropertyOp28
 70
     1
102
RTVSPropertyOp29
 70
     1
102
RTVSPropertyOp30
 70
     1
102
RTVSPropertyOp31
 70
     1
102
RTVSPropertyOp32
 70
     1
102
RTVSPropertyOp33
 70
     1
102
RTVSPropertyOp34
 70
     1
102
RTVSPropertyOp35
 70
     1
102
RTVSPropertyOp36
 70
     1
102
RTVSPropertyOp37
 70
     1
102
RTVSPropertyOp38
 70
     1
102
RTVSPropertyOp39
 70
     1
102
RTVSPropertyOp40
 70
     1
102
RTVSPropertyOp41
 70
     1
102
RTVSPropertyOp42
 70
     1
102
RTVSPropertyOp43
 70
     1
102
RTVSPropertyOp44
 70
     1
102
RTVSPropertyOp45
 70
     1
102
RTVSPropertyOp46
 70
     1
102
RTVSPropertyOp47
 70
     1
102
RTVSPropertyOp48
 70
     1
102
RTVSPropertyOp49
 70
     1
102
RTVSPropertyOp50
 70
     1
102
RTVSPropertyOp51
 70
     0
102
RTVSPropertyOp52
 70
     0
102
RTVSPropertyOp53
 70
     1
102
RTVSPropertyOp54
 70
     1
102
RTVSPropertyOp55
 70
     1
102
RTVSPropertyOp56
 70
     1
102
RTVSPropertyOp57
 70
     1
102
RTVSPropertyOp58
 70
     1
102
RTVSPropertyOp59
 70
     1
102
RTVSPropertyOp60
 70
     1
102
RTVSPropertyOp61
 70
     1
102
RTVSPropertyOp62
 70
     1
  0
XRECORD
  5
1C8CDE6B2C09
102
{ACAD_REACTORS
330
1C8CDE6B2C08
102
}
330
1C8CDE6B2C08
100
AcDbXrecord
280
     1
102
RTVSPost2010Prop28
280
     0
102
RTVSPost2010PropOp28
 70
     1
102
RTVSPost2010Prop29
280
     1
102
RTVSPost2010PropOp29
 70
     1
102
RTVSPost2010Prop30
280
     1
102
RTVSPost2010PropOp30
 70
     1
102
RTVSPost2010Prop31
280
     0
102
RTVSPost2010PropOp31
 70
     1
102
RTVSPost2010Prop32
280
     0
102
RTVSPost2010PropOp32
 70
     1
102
RTVSPost2010Prop33
280
     0
102
RTVSPost2010PropOp33
 70
     1
102
RTVSPost2010Prop34
280
     0
102
RTVSPost2010PropOp34
 70
     1
102
RTVSPost2010Prop35
280
     0
102
RTVSPost2010PropOp35
 70
     1
102
RTVSPost2010Prop36
280
     0
102
RTVSPost2010PropOp36
 70
     1
102
RTVSPost2010Prop37
 90
       50
102
RTVSPost2010PropOp37
 70
     1
102
RTVSPost2010Prop38
140
0.0
102
RTVSPost2010PropOp38
 70
     1
102
RTVSPost2010Prop39
140
1.0
102
RTVSPost2010PropOp39
 70
     1
102
RTVSPost2010Prop40
 90
        0
102
RTVSPost2010PropOp40
 70
     1
102
RTVSPost2010Prop41ColorIndex
 90
       18
102
RTVSPost2010Prop41ColorRGB
 90
        0
102
RTVSPost2010PropOp41
 70
     1
102
RTVSPost2010Prop42
 90
       50
102
RTVSPost2010PropOp42
 70
     1
102
RTVSPost2010Prop43
 90
        3
102
RTVSPost2010PropOp43
 70
     1
102
RTVSPost2010Prop44ColorIndex
 90
        5
102
RTVSPost2010Prop44ColorRGB
 90
      255
102
RTVSPost2010PropOp44
 70
     1
102
RTVSPost2010Prop45
280
     0
102
RTVSPost2010PropOp45
 70
     1
102
RTVSPost2010Prop46
 90
       50
102
RTVSPost2010PropOp46
 70
     1
102
RTVSPost2010Prop47
 90
       50
102
RTVSPost2010PropOp47
 70
     1
102
RTVSPost2010Prop48
 90
       50
102
RTVSPost2010PropOp48
 70
     1
102
RTVSPost2010Prop49
280
     0
102
RTVSPost2010PropOp49
 70
     1
102
RTVSPost2010Prop50
 90
       50
102
RTVSPost2010PropOp50
 70
     1
102
RTVSPost2010Prop51ColorIndex
 90
      256
102
RTVSPost2010Prop51ColorRGB
 90
-16777216
102
RTVSPost2010PropOp51
 70
     0
102
RTVSPost2010Prop52
140
1.0
102
RTVSPost2010PropOp52
 70
     0
102
RTVSPost2010Prop53
 90
        2
102
RTVSPost2010PropOp53
 70
     1
102
RTVSPost2010Prop54
  1
strokes_ogs.tif
102
RTVSPost2010PropOp54
 70
     1
102
RTVSPost2010Prop55
280
     0
102
RTVSPost2010PropOp55
 70
     1
102
RTVSPost2010Prop56
140
1.0
102
RTVSPost2010PropOp56
 70
     1
102
RTVSPost2010Prop57
140
1.0
102
RTVSPost2010PropOp57
 70
     1
102
RTVSPropertyOp0
 70
     1
102
RTVSPropertyOp1
 70
     1
102
RTVSPropertyOp2
 70
     1
102
RTVSPropertyOp3
 70
     1
102
RTVSPropertyOp4
 70
     1
102
RTVSPropertyOp5
 70
     1
102
RTVSPropertyOp6
 70
     1
102
RTVSPropertyOp7
 70
     1
102
RTVSPropertyOp8
 70
     1
102
RTVSPropertyOp9
 70
     1
102
RTVSPropertyOp10
 70
     1
102
RTVSPropertyOp11
 70
     1
102
RTVSPropertyOp12
 70
     1
102
RTVSPropertyOp13
 70
     1
102
RTVSPropertyOp14
 70
     1
102
RTVSPropertyOp15
 70
     1
102
RTVSPropertyOp16
 70
     1
102
RTVSPropertyOp17
 70
     1
102
RTVSPropertyOp18
 70
     1
102
RTVSPropertyOp19
 70
     1
102
RTVSPropertyOp20
 70
     1
102
RTVSPropertyOp21
 70
     1
102
RTVSPropertyOp22
 70
     1
102
RTVSPropertyOp23
 70
     1
102
RTVSPropertyOp24
 70
     1
102
RTVSPropertyOp25
 70
     1
102
RTVSPropertyOp26
 70
     1
102
RTVSPropertyOp27
 70
     1
102
RTVSPropertyOp28
 70
     1
102
RTVSPropertyOp29
 70
     1
102
RTVSPropertyOp30
 70
     1
102
RTVSPropertyOp31
 70
     1
102
RTVSPropertyOp32
 70
     1
102
RTVSPropertyOp33
 70
     1
102
RTVSPropertyOp34
 70
     1
102
RTVSPropertyOp35
 70
     1
102
RTVSPropertyOp36
 70
     1
102
RTVSPropertyOp37
 70
     1
102
RTVSPropertyOp38
 70
     1
102
RTVSPropertyOp39
 70
     1
102
RTVSPropertyOp40
 70
     1
102
RTVSPropertyOp41
 70
     1
102
RTVSPropertyOp42
 70
     1
102
RTVSPropertyOp43
 70
     1
102
RTVSPropertyOp44
 70
     1
102
RTVSPropertyOp45
 70
     1
102
RTVSPropertyOp46
 70
     1
102
RTVSPropertyOp47
 70
     1
102
RTVSPropertyOp48
 70
     1
102
RTVSPropertyOp49
 70
     1
102
RTVSPropertyOp50
 70
     1
102
RTVSPropertyOp51
 70
     0
102
RTVSPropertyOp52
 70
     0
102
RTVSPropertyOp53
 70
     1
102
RTVSPropertyOp54
 70
     1
102
RTVSPropertyOp55
 70
     1
102
RTVSPropertyOp56
 70
     1
102
RTVSPropertyOp57
 70
     1
102
RTVSPropertyOp58
 70
     1
102
RTVSPropertyOp59
 70
     1
102
RTVSPropertyOp60
 70
     1
102
RTVSPropertyOp61
 70
     1
102
RTVSPropertyOp62
 70
     1
  0
XRECORD
  5
1C8CDE6B2BFF
102
{ACAD_REACTORS
330
1C8CDE6B2BFE
102
}
330
1C8CDE6B2BFE
100
AcDbXrecord
280
     1
102
RTVSPost2010Prop28
280
     0
102
RTVSPost2010PropOp28
 70
     1
102
RTVSPost2010Prop29
280
     1
102
RTVSPost2010PropOp29
 70
     1
102
RTVSPost2010Prop30
280
     1
102
RTVSPost2010PropOp30
 70
     1
102
RTVSPost2010Prop31
280
     0
102
RTVSPost2010PropOp31
 70
     1
102
RTVSPost2010Prop32
280
     0
102
RTVSPost2010PropOp32
 70
     1
102
RTVSPost2010Prop33
280
     0
102
RTVSPost2010PropOp33
 70
     1
102
RTVSPost2010Prop34
280
     0
102
RTVSPost2010PropOp34
 70
     1
102
RTVSPost2010Prop35
280
     0
102
RTVSPost2010PropOp35
 70
     1
102
RTVSPost2010Prop36
280
     0
102
RTVSPost2010PropOp36
 70
     1
102
RTVSPost2010Prop37
 90
       50
102
RTVSPost2010PropOp37
 70
     1
102
RTVSPost2010Prop38
140
0.0
102
RTVSPost2010PropOp38
 70
     1
102
RTVSPost2010Prop39
140
1.0
102
RTVSPost2010PropOp39
 70
     1
102
RTVSPost2010Prop40
 90
        0
102
RTVSPost2010PropOp40
 70
     1
102
RTVSPost2010Prop41ColorIndex
 90
       18
102
RTVSPost2010Prop41ColorRGB
 90
        0
102
RTVSPost2010PropOp41
 70
     1
102
RTVSPost2010Prop42
 90
       50
102
RTVSPost2010PropOp42
 70
     1
102
RTVSPost2010Prop43
 90
        3
102
RTVSPost2010PropOp43
 70
     1
102
RTVSPost2010Prop44ColorIndex
 90
        5
102
RTVSPost2010Prop44ColorRGB
 90
      255
102
RTVSPost2010PropOp44
 70
     1
102
RTVSPost2010Prop45
280
     0
102
RTVSPost2010PropOp45
 70
     1
102
RTVSPost2010Prop46
 90
       50
102
RTVSPost2010PropOp46
 70
     1
102
RTVSPost2010Prop47
 90
       50
102
RTVSPost2010PropOp47
 70
     1
102
RTVSPost2010Prop48
 90
       50
102
RTVSPost2010PropOp48
 70
     1
102
RTVSPost2010Prop49
280
     0
102
RTVSPost2010PropOp49
 70
     1
102
RTVSPost2010Prop50
 90
       50
102
RTVSPost2010PropOp50
 70
     1
102
RTVSPost2010Prop51ColorIndex
 90
      256
102
RTVSPost2010Prop51ColorRGB
 90
-16777216
102
RTVSPost2010PropOp51
 70
     0
102
RTVSPost2010Prop52
140
1.0
102
RTVSPost2010PropOp52
 70
     0
102
RTVSPost2010Prop53
 90
        2
102
RTVSPost2010PropOp53
 70
     1
102
RTVSPost2010Prop54
  1
strokes_ogs.tif
102
RTVSPost2010PropOp54
 70
     1
102
RTVSPost2010Prop55
280
     0
102
RTVSPost2010PropOp55
 70
     1
102
RTVSPost2010Prop56
140
1.0
102
RTVSPost2010PropOp56
 70
     1
102
RTVSPost2010Prop57
140
1.0
102
RTVSPost2010PropOp57
 70
     1
102
RTVSPropertyOp0
 70
     1
102
RTVSPropertyOp1
 70
     1
102
RTVSPropertyOp2
 70
     1
102
RTVSPropertyOp3
 70
     1
102
RTVSPropertyOp4
 70
     1
102
RTVSPropertyOp5
 70
     1
102
RTVSPropertyOp6
 70
     1
102
RTVSPropertyOp7
 70
     1
102
RTVSPropertyOp8
 70
     1
102
RTVSPropertyOp9
 70
     1
102
RTVSPropertyOp10
 70
     1
102
RTVSPropertyOp11
 70
     1
102
RTVSPropertyOp12
 70
     1
102
RTVSPropertyOp13
 70
     1
102
RTVSPropertyOp14
 70
     1
102
RTVSPropertyOp15
 70
     1
102
RTVSPropertyOp16
 70
     1
102
RTVSPropertyOp17
 70
     1
102
RTVSPropertyOp18
 70
     1
102
RTVSPropertyOp19
 70
     1
102
RTVSPropertyOp20
 70
     1
102
RTVSPropertyOp21
 70
     1
102
RTVSPropertyOp22
 70
     1
102
RTVSPropertyOp23
 70
     1
102
RTVSPropertyOp24
 70
     1
102
RTVSPropertyOp25
 70
     1
102
RTVSPropertyOp26
 70
     1
102
RTVSPropertyOp27
 70
     1
102
RTVSPropertyOp28
 70
     1
102
RTVSPropertyOp29
 70
     1
102
RTVSPropertyOp30
 70
     1
102
RTVSPropertyOp31
 70
     1
102
RTVSPropertyOp32
 70
     1
102
RTVSPropertyOp33
 70
     1
102
RTVSPropertyOp34
 70
     1
102
RTVSPropertyOp35
 70
     1
102
RTVSPropertyOp36
 70
     1
102
RTVSPropertyOp37
 70
     1
102
RTVSPropertyOp38
 70
     1
102
RTVSPropertyOp39
 70
     1
102
RTVSPropertyOp40
 70
     1
102
RTVSPropertyOp41
 70
     1
102
RTVSPropertyOp42
 70
     1
102
RTVSPropertyOp43
 70
     1
102
RTVSPropertyOp44
 70
     1
102
RTVSPropertyOp45
 70
     1
102
RTVSPropertyOp46
 70
     1
102
RTVSPropertyOp47
 70
     1
102
RTVSPropertyOp48
 70
     1
102
RTVSPropertyOp49
 70
     1
102
RTVSPropertyOp50
 70
     1
102
RTVSPropertyOp51
 70
     0
102
RTVSPropertyOp52
 70
     0
102
RTVSPropertyOp53
 70
     1
102
RTVSPropertyOp54
 70
     1
102
RTVSPropertyOp55
 70
     1
102
RTVSPropertyOp56
 70
     1
102
RTVSPropertyOp57
 70
     1
102
RTVSPropertyOp58
 70
     1
102
RTVSPropertyOp59
 70
     1
102
RTVSPropertyOp60
 70
     1
102
RTVSPropertyOp61
 70
     1
102
RTVSPropertyOp62
 70
     1
  0
XRECORD
  5
1C8CDE6B2BF3
102
{ACAD_REACTORS
330
1C8CDE6B2BF2
102
}
330
1C8CDE6B2BF2
100
AcDbXrecord
280
     1
102
RTVSPost2010Prop28
280
     0
102
RTVSPost2010PropOp28
 70
     1
102
RTVSPost2010Prop29
280
     1
102
RTVSPost2010PropOp29
 70
     1
102
RTVSPost2010Prop30
280
     1
102
RTVSPost2010PropOp30
 70
     1
102
RTVSPost2010Prop31
280
     0
102
RTVSPost2010PropOp31
 70
     1
102
RTVSPost2010Prop32
280
     0
102
RTVSPost2010PropOp32
 70
     1
102
RTVSPost2010Prop33
280
     0
102
RTVSPost2010PropOp33
 70
     1
102
RTVSPost2010Prop34
280
     0
102
RTVSPost2010PropOp34
 70
     1
102
RTVSPost2010Prop35
280
     0
102
RTVSPost2010PropOp35
 70
     1
102
RTVSPost2010Prop36
280
     0
102
RTVSPost2010PropOp36
 70
     1
102
RTVSPost2010Prop37
 90
       50
102
RTVSPost2010PropOp37
 70
     1
102
RTVSPost2010Prop38
140
0.0
102
RTVSPost2010PropOp38
 70
     1
102
RTVSPost2010Prop39
140
1.0
102
RTVSPost2010PropOp39
 70
     1
102
RTVSPost2010Prop40
 90
        0
102
RTVSPost2010PropOp40
 70
     1
102
RTVSPost2010Prop41ColorIndex
 90
       18
102
RTVSPost2010Prop41ColorRGB
 90
        0
102
RTVSPost2010PropOp41
 70
     1
102
RTVSPost2010Prop42
 90
       50
102
RTVSPost2010PropOp42
 70
     1
102
RTVSPost2010Prop43
 90
        3
102
RTVSPost2010PropOp43
 70
     1
102
RTVSPost2010Prop44ColorIndex
 90
        5
102
RTVSPost2010Prop44ColorRGB
 90
      255
102
RTVSPost2010PropOp44
 70
     1
102
RTVSPost2010Prop45
280
     0
102
RTVSPost2010PropOp45
 70
     1
102
RTVSPost2010Prop46
 90
       50
102
RTVSPost2010PropOp46
 70
     1
102
RTVSPost2010Prop47
 90
       50
102
RTVSPost2010PropOp47
 70
     1
102
RTVSPost2010Prop48
 90
       50
102
RTVSPost2010PropOp48
 70
     1
102
RTVSPost2010Prop49
280
     0
102
RTVSPost2010PropOp49
 70
     1
102
RTVSPost2010Prop50
 90
       50
102
RTVSPost2010PropOp50
 70
     1
102
RTVSPost2010Prop51ColorIndex
 90
      256
102
RTVSPost2010Prop51ColorRGB
 90
-16777216
102
RTVSPost2010PropOp51
 70
     0
102
RTVSPost2010Prop52
140
1.0
102
RTVSPost2010PropOp52
 70
     0
102
RTVSPost2010Prop53
 90
        2
102
RTVSPost2010PropOp53
 70
     1
102
RTVSPost2010Prop54
  1
strokes_ogs.tif
102
RTVSPost2010PropOp54
 70
     1
102
RTVSPost2010Prop55
280
     0
102
RTVSPost2010PropOp55
 70
     1
102
RTVSPost2010Prop56
140
1.0
102
RTVSPost2010PropOp56
 70
     1
102
RTVSPost2010Prop57
140
1.0
102
RTVSPost2010PropOp57
 70
     1
102
RTVSPropertyOp0
 70
     1
102
RTVSPropertyOp1
 70
     1
102
RTVSPropertyOp2
 70
     1
102
RTVSPropertyOp3
 70
     1
102
RTVSPropertyOp4
 70
     1
102
RTVSPropertyOp5
 70
     1
102
RTVSPropertyOp6
 70
     1
102
RTVSPropertyOp7
 70
     1
102
RTVSPropertyOp8
 70
     1
102
RTVSPropertyOp9
 70
     1
102
RTVSPropertyOp10
 70
     1
102
RTVSPropertyOp11
 70
     1
102
RTVSPropertyOp12
 70
     1
102
RTVSPropertyOp13
 70
     1
102
RTVSPropertyOp14
 70
     1
102
RTVSPropertyOp15
 70
     1
102
RTVSPropertyOp16
 70
     1
102
RTVSPropertyOp17
 70
     1
102
RTVSPropertyOp18
 70
     1
102
RTVSPropertyOp19
 70
     1
102
RTVSPropertyOp20
 70
     1
102
RTVSPropertyOp21
 70
     1
102
RTVSPropertyOp22
 70
     1
102
RTVSPropertyOp23
 70
     1
102
RTVSPropertyOp24
 70
     1
102
RTVSPropertyOp25
 70
     1
102
RTVSPropertyOp26
 70
     1
102
RTVSPropertyOp27
 70
     1
102
RTVSPropertyOp28
 70
     1
102
RTVSPropertyOp29
 70
     1
102
RTVSPropertyOp30
 70
     1
102
RTVSPropertyOp31
 70
     1
102
RTVSPropertyOp32
 70
     1
102
RTVSPropertyOp33
 70
     1
102
RTVSPropertyOp34
 70
     1
102
RTVSPropertyOp35
 70
     1
102
RTVSPropertyOp36
 70
     1
102
RTVSPropertyOp37
 70
     1
102
RTVSPropertyOp38
 70
     1
102
RTVSPropertyOp39
 70
     1
102
RTVSPropertyOp40
 70
     1
102
RTVSPropertyOp41
 70
     1
102
RTVSPropertyOp42
 70
     1
102
RTVSPropertyOp43
 70
     1
102
RTVSPropertyOp44
 70
     1
102
RTVSPropertyOp45
 70
     1
102
RTVSPropertyOp46
 70
     1
102
RTVSPropertyOp47
 70
     1
102
RTVSPropertyOp48
 70
     1
102
RTVSPropertyOp49
 70
     1
102
RTVSPropertyOp50
 70
     1
102
RTVSPropertyOp51
 70
     0
102
RTVSPropertyOp52
 70
     0
102
RTVSPropertyOp53
 70
     1
102
RTVSPropertyOp54
 70
     1
102
RTVSPropertyOp55
 70
     1
102
RTVSPropertyOp56
 70
     1
102
RTVSPropertyOp57
 70
     1
102
RTVSPropertyOp58
 70
     1
102
RTVSPropertyOp59
 70
     1
102
RTVSPropertyOp60
 70
     1
102
RTVSPropertyOp61
 70
     1
102
RTVSPropertyOp62
 70
     1
  0
XRECORD
  5
1C8CDE6B2C0B
102
{ACAD_REACTORS
330
1C8CDE6B2C0A
102
}
330
1C8CDE6B2C0A
100
AcDbXrecord
280
     1
102
RTVSPost2010Prop28
280
     0
102
RTVSPost2010PropOp28
 70
     1
102
RTVSPost2010Prop29
280
     1
102
RTVSPost2010PropOp29
 70
     1
102
RTVSPost2010Prop30
280
     1
102
RTVSPost2010PropOp30
 70
     1
102
RTVSPost2010Prop31
280
     0
102
RTVSPost2010PropOp31
 70
     1
102
RTVSPost2010Prop32
280
     0
102
RTVSPost2010PropOp32
 70
     1
102
RTVSPost2010Prop33
280
     0
102
RTVSPost2010PropOp33
 70
     1
102
RTVSPost2010Prop34
280
     0
102
RTVSPost2010PropOp34
 70
     1
102
RTVSPost2010Prop35
280
     0
102
RTVSPost2010PropOp35
 70
     1
102
RTVSPost2010Prop36
280
     0
102
RTVSPost2010PropOp36
 70
     1
102
RTVSPost2010Prop37
 90
       50
102
RTVSPost2010PropOp37
 70
     1
102
RTVSPost2010Prop38
140
0.0
102
RTVSPost2010PropOp38
 70
     1
102
RTVSPost2010Prop39
140
1.0
102
RTVSPost2010PropOp39
 70
     1
102
RTVSPost2010Prop40
 90
        0
102
RTVSPost2010PropOp40
 70
     1
102
RTVSPost2010Prop41ColorIndex
 90
       18
102
RTVSPost2010Prop41ColorRGB
 90
        0
102
RTVSPost2010PropOp41
 70
     1
102
RTVSPost2010Prop42
 90
       50
102
RTVSPost2010PropOp42
 70
     1
102
RTVSPost2010Prop43
 90
        3
102
RTVSPost2010PropOp43
 70
     1
102
RTVSPost2010Prop44ColorIndex
 90
        5
102
RTVSPost2010Prop44ColorRGB
 90
      255
102
RTVSPost2010PropOp44
 70
     1
102
RTVSPost2010Prop45
280
     0
102
RTVSPost2010PropOp45
 70
     1
102
RTVSPost2010Prop46
 90
       50
102
RTVSPost2010PropOp46
 70
     1
102
RTVSPost2010Prop47
 90
       50
102
RTVSPost2010PropOp47
 70
     1
102
RTVSPost2010Prop48
 90
       50
102
RTVSPost2010PropOp48
 70
     1
102
RTVSPost2010Prop49
280
     0
102
RTVSPost2010PropOp49
 70
     1
102
RTVSPost2010Prop50
 90
       50
102
RTVSPost2010PropOp50
 70
     1
102
RTVSPost2010Prop51ColorIndex
 90
      256
102
RTVSPost2010Prop51ColorRGB
 90
-16777216
102
RTVSPost2010PropOp51
 70
     0
102
RTVSPost2010Prop52
140
1.0
102
RTVSPost2010PropOp52
 70
     0
102
RTVSPost2010Prop53
 90
        2
102
RTVSPost2010PropOp53
 70
     1
102
RTVSPost2010Prop54
  1
strokes_ogs.tif
102
RTVSPost2010PropOp54
 70
     1
102
RTVSPost2010Prop55
280
     0
102
RTVSPost2010PropOp55
 70
     1
102
RTVSPost2010Prop56
140
1.0
102
RTVSPost2010PropOp56
 70
     1
102
RTVSPost2010Prop57
140
1.0
102
RTVSPost2010PropOp57
 70
     1
102
RTVSPropertyOp0
 70
     1
102
RTVSPropertyOp1
 70
     1
102
RTVSPropertyOp2
 70
     1
102
RTVSPropertyOp3
 70
     1
102
RTVSPropertyOp4
 70
     1
102
RTVSPropertyOp5
 70
     1
102
RTVSPropertyOp6
 70
     1
102
RTVSPropertyOp7
 70
     1
102
RTVSPropertyOp8
 70
     1
102
RTVSPropertyOp9
 70
     1
102
RTVSPropertyOp10
 70
     1
102
RTVSPropertyOp11
 70
     1
102
RTVSPropertyOp12
 70
     1
102
RTVSPropertyOp13
 70
     1
102
RTVSPropertyOp14
 70
     1
102
RTVSPropertyOp15
 70
     1
102
RTVSPropertyOp16
 70
     1
102
RTVSPropertyOp17
 70
     1
102
RTVSPropertyOp18
 70
     1
102
RTVSPropertyOp19
 70
     1
102
RTVSPropertyOp20
 70
     1
102
RTVSPropertyOp21
 70
     1
102
RTVSPropertyOp22
 70
     1
102
RTVSPropertyOp23
 70
     1
102
RTVSPropertyOp24
 70
     1
102
RTVSPropertyOp25
 70
     1
102
RTVSPropertyOp26
 70
     1
102
RTVSPropertyOp27
 70
     1
102
RTVSPropertyOp28
 70
     1
102
RTVSPropertyOp29
 70
     1
102
RTVSPropertyOp30
 70
     1
102
RTVSPropertyOp31
 70
     1
102
RTVSPropertyOp32
 70
     1
102
RTVSPropertyOp33
 70
     1
102
RTVSPropertyOp34
 70
     1
102
RTVSPropertyOp35
 70
     1
102
RTVSPropertyOp36
 70
     1
102
RTVSPropertyOp37
 70
     1
102
RTVSPropertyOp38
 70
     1
102
RTVSPropertyOp39
 70
     1
102
RTVSPropertyOp40
 70
     1
102
RTVSPropertyOp41
 70
     1
102
RTVSPropertyOp42
 70
     1
102
RTVSPropertyOp43
 70
     1
102
RTVSPropertyOp44
 70
     1
102
RTVSPropertyOp45
 70
     1
102
RTVSPropertyOp46
 70
     1
102
RTVSPropertyOp47
 70
     1
102
RTVSPropertyOp48
 70
     1
102
RTVSPropertyOp49
 70
     1
102
RTVSPropertyOp50
 70
     1
102
RTVSPropertyOp51
 70
     0
102
RTVSPropertyOp52
 70
     0
102
RTVSPropertyOp53
 70
     1
102
RTVSPropertyOp54
 70
     1
102
RTVSPropertyOp55
 70
     1
102
RTVSPropertyOp56
 70
     1
102
RTVSPropertyOp57
 70
     1
102
RTVSPropertyOp58
 70
     1
102
RTVSPropertyOp59
 70
     1
102
RTVSPropertyOp60
 70
     1
102
RTVSPropertyOp61
 70
     1
102
RTVSPropertyOp62
 70
     1
  0
ENDSEC
  0
EOF
