  0
SECTION
  2
HEADER
  9
$ACADVER
  1
AC1015
  9
$ACADMAINTVER
 70
    18
  9
$DWGCODEPAGE
  3
ANSI_932
  9
$INSBASE
 10
0.0
 20
0.0
 30
0.0
  9
$EXTMIN
 10
0.0
 20
0.0
 30
0.0
  9
$EXTMAX
 10
7400.0
 20
5340.0
 30
0.0
  9
$LIMMIN
 10
0.0
 20
0.0
  9
$LIMMAX
 10
8400.0
 20
5940.0
  9
$ORTHOMODE
 70
     1
  9
$REGENMODE
 70
     1
  9
$FILLMODE
 70
     1
  9
$QTEXTMODE
 70
     0
  9
$MIRRTEXT
 70
     0
  9
$LTSCALE
 40
200.0
  9
$ATTMODE
 70
     1
  9
$TEXTSIZE
 40
60.0
  9
$TRACEWID
 40
0.05
  9
$TEXTSTYLE
  7
EXT08
  9
$CLAYER
  8
0
  9
$CELTYPE
  6
BYLAYER
  9
$CECOLOR
 62
   256
  9
$CELTSCALE
 40
1.0
  9
$DISPSILH
 70
     0
  9
$DIMSCALE
 40
20.0
  9
$DIMASZ
 40
2.0
  9
$DIMEXO
 40
1.0
  9
$DIMDLI
 40
6.0
  9
$DIMRND
 40
0.0
  9
$DIMDLE
 40
0.0
  9
$DIMEXE
 40
1.0
  9
$DIMTP
 40
0.0
  9
$DIMTM
 40
0.0
  9
$DIMTXT
 40
3.0
  9
$DIMCEN
 40
0.09
  9
$DIMTSZ
 40
0.0
  9
$DIMTOL
 70
     0
  9
$DIMLIM
 70
     0
  9
$DIMTIH
 70
     0
  9
$DIMTOH
 70
     0
  9
$DIMSE1
 70
     0
  9
$DIMSE2
 70
     0
  9
$DIMTAD
 70
     1
  9
$DIMZIN
 70
     8
  9
$DIMBLK
  1

  9
$DIMASO
 70
     1
  9
$DIMSHO
 70
     1
  9
$DIMPOST
  1

  9
$DIMAPOST
  1

  9
$DIMALT
 70
     0
  9
$DIMALTD
 70
     2
  9
$DIMALTF
 40
25.4
  9
$DIMLFAC
 40
1.0
  9
$DIMTOFL
 70
     1
  9
$DIMTVP
 40
0.0
  9
$DIMTIX
 70
     0
  9
$DIMSOXD
 70
     0
  9
$DIMSAH
 70
     0
  9
$DIMBLK1
  1

  9
$DIMBLK2
  1

  9
$DIMSTYLE
  2
SJC
  9
$DIMCLRD
 70
     0
  9
$DIMCLRE
 70
     0
  9
$DIMCLRT
 70
     0
  9
$DIMTFAC
 40
1.0
  9
$DIMGAP
 40
1.199999999999999
  9
$DIMJUST
 70
     0
  9
$DIMSD1
 70
     0
  9
$DIMSD2
 70
     0
  9
$DIMTOLJ
 70
     1
  9
$DIMTZIN
 70
     0
  9
$DIMALTZ
 70
     0
  9
$DIMALTTZ
 70
     0
  9
$DIMUPT
 70
     0
  9
$DIMDEC
 70
     2
  9
$DIMTDEC
 70
     4
  9
$DIMALTU
 70
     2
  9
$DIMALTTD
 70
     2
  9
$DIMTXSTY
  7
EXT08
  9
$DIMAUNIT
 70
     0
  9
$DIMADEC
 70
     2
  9
$DIMALTRND
 40
0.0
  9
$DIMAZIN
 70
     0
  9
$DIMDSEP
 70
    46
  9
$DIMATFIT
 70
     3
  9
$DIMFRAC
 70
     0
  9
$DIMLDRBLK
  1

  9
$DIMLUNIT
 70
     2
  9
$DIMLWD
 70
    -2
  9
$DIMLWE
 70
    -2
  9
$DIMTMOVE
 70
     2
  9
$LUNITS
 70
     2
  9
$LUPREC
 70
     2
  9
$SKETCHINC
 40
0.1
  9
$FILLETRAD
 40
0.0
  9
$AUNITS
 70
     1
  9
$AUPREC
 70
     2
  9
$MENU
  1
C:\r13\win\SUPPORT\sjc
  9
$ELEVATION
 40
0.0
  9
$PELEVATION
 40
0.0
  9
$THICKNESS
 40
0.0
  9
$LIMCHECK
 70
     0
  9
$CHAMFERA
 40
0.0
  9
$CHAMFERB
 40
0.0
  9
$CHAMFERC
 40
0.0
  9
$CHAMFERD
 40
0.0
  9
$SKPOLY
 70
     0
  9
$TDCREATE
 40
2449345.816337037
  9
$TDUCREATE
 40
2449345.441337037
  9
$TDUPDATE
 40
2456624.740866423
  9
$TDUUPDATE
 40
2456624.365866424
  9
$TDINDWG
 40
0.4461339699
  9
$TDUSRTIMER
 40
0.4461339699
  9
$USRTIMER
 70
     1
  9
$ANGBASE
 50
0.0
  9
$ANGDIR
 70
     0
  9
$PDMODE
 70
    33
  9
$PDSIZE
 40
5.0
  9
$PLINEWID
 40
0.0
  9
$SPLFRAME
 70
     0
  9
$SPLINETYPE
 70
     6
  9
$SPLINESEGS
 70
     8
  9
$HANDSEED
  5
1387
  9
$SURFTAB1
 70
     6
  9
$SURFTAB2
 70
     6
  9
$SURFTYPE
 70
     6
  9
$SURFU
 70
     6
  9
$SURFV
 70
     6
  9
$UCSBASE
  2

  9
$UCSNAME
  2

  9
$UCSORG
 10
0.0
 20
0.0
 30
0.0
  9
$UCSXDIR
 10
1.0
 20
0.0
 30
0.0
  9
$UCSYDIR
 10
0.0
 20
1.0
 30
0.0
  9
$UCSORTHOREF
  2

  9
$UCSORTHOVIEW
 70
     0
  9
$UCSORGTOP
 10
0.0
 20
0.0
 30
0.0
  9
$UCSORGBOTTOM
 10
0.0
 20
0.0
 30
0.0
  9
$UCSORGLEFT
 10
0.0
 20
0.0
 30
0.0
  9
$UCSORGRIGHT
 10
0.0
 20
0.0
 30
0.0
  9
$UCSORGFRONT
 10
0.0
 20
0.0
 30
0.0
  9
$UCSORGBACK
 10
0.0
 20
0.0
 30
0.0
  9
$PUCSBASE
  2

  9
$PUCSNAME
  2

  9
$PUCSORG
 10
0.0
 20
0.0
 30
0.0
  9
$PUCSXDIR
 10
1.0
 20
0.0
 30
0.0
  9
$PUCSYDIR
 10
0.0
 20
1.0
 30
0.0
  9
$PUCSORTHOREF
  2

  9
$PUCSORTHOVIEW
 70
     0
  9
$PUCSORGTOP
 10
0.0
 20
0.0
 30
0.0
  9
$PUCSORGBOTTOM
 10
0.0
 20
0.0
 30
0.0
  9
$PUCSORGLEFT
 10
0.0
 20
0.0
 30
0.0
  9
$PUCSORGRIGHT
 10
0.0
 20
0.0
 30
0.0
  9
$PUCSORGFRONT
 10
0.0
 20
0.0
 30
0.0
  9
$PUCSORGBACK
 10
0.0
 20
0.0
 30
0.0
  9
$USERI1
 70
     3
  9
$USERI2
 70
    20
  9
$USERI3
 70
     0
  9
$USERI4
 70
     0
  9
$USERI5
 70
     0
  9
$USERR1
 40
0.0
  9
$USERR2
 40
0.0
  9
$USERR3
 40
0.0
  9
$USERR4
 40
0.0
  9
$USERR5
 40
0.0
  9
$WORLDVIEW
 70
     1
  9
$SHADEDGE
 70
     3
  9
$SHADEDIF
 70
    70
  9
$TILEMODE
 70
     1
  9
$MAXACTVP
 70
    16
  9
$PINSBASE
 10
0.0
 20
0.0
 30
0.0
  9
$PLIMCHECK
 70
     0
  9
$PEXTMIN
 10
1.000000000000000E+20
 20
1.000000000000000E+20
 30
1.000000000000000E+20
  9
$PEXTMAX
 10
-1.000000000000000E+20
 20
-1.000000000000000E+20
 30
-1.000000000000000E+20
  9
$PLIMMIN
 10
0.0
 20
0.0
  9
$PLIMMAX
 10
12.0
 20
9.0
  9
$UNITMODE
 70
     0
  9
$VISRETAIN
 70
     0
  9
$PLINEGEN
 70
     0
  9
$PSLTSCALE
 70
     1
  9
$TREEDEPTH
 70
  3020
  9
$CMLSTYLE
  2
STANDARD
  9
$CMLJUST
 70
     0
  9
$CMLSCALE
 40
1.0
  9
$PROXYGRAPHICS
 70
     1
  9
$MEASUREMENT
 70
     0
  9
$CELWEIGHT
370
    -1
  9
$ENDCAPS
280
     0
  9
$JOINSTYLE
280
     0
  9
$LWDISPLAY
290
     0
  9
$INSUNITS
 70
     0
  9
$HYPERLINKBASE
  1

  9
$STYLESHEET
  1
CALCOMP_TECHJET720.ctb
  9
$XEDIT
290
     1
  9
$CEPSNTYPE
380
     0
  9
$PSTYLEMODE
290
     1
  9
$FINGERPRINTGUID
  2
{8C4598D5-4CAC-4762-9125-B8ED0A793F58}
  9
$VERSIONGUID
  2
{068147E0-3984-43F2-AC46-521233A62ED6}
  9
$EXTNAMES
290
     1
  9
$PSVPSCALE
 40
0.0
  9
$OLESTARTUP
290
     0
  0
ENDSEC
  0
SECTION
  2
CLASSES
  0
CLASS
  1
ACDBDICTIONARYWDFLT
  2
AcDbDictionaryWithDefault
  3
ObjectDBX Classes
 90
        0
280
     0
281
     0
  0
CLASS
  1
ACDBPLACEHOLDER
  2
AcDbPlaceHolder
  3
ObjectDBX Classes
 90
        0
280
     0
281
     0
  0
CLASS
  1
LAYOUT
  2
AcDbLayout
  3
ObjectDBX Classes
 90
        0
280
     0
281
     0
  0
CLASS
  1
TABLESTYLE
  2
AcDbTableStyle
  3
ObjectDBX Classes
 90
     4095
280
     0
281
     0
  0
CLASS
  1
SORTENTSTABLE
  2
AcDbSortentsTable
  3
ObjectDBX Classes
 90
        0
280
     0
281
     0
  0
CLASS
  1
DICTIONARYVAR
  2
AcDbDictionaryVar
  3
ObjectDBX Classes
 90
        0
280
     0
281
     0
  0
CLASS
  1
MATERIAL
  2
AcDbMaterial
  3
ObjectDBX Classes
 90
     1153
280
     0
281
     0
  0
CLASS
  1
VISUALSTYLE
  2
AcDbVisualStyle
  3
ObjectDBX Classes
 90
     4095
280
     0
281
     0
  0
CLASS
  1
SCALE
  2
AcDbScale
  3
ObjectDBX Classes
 90
     1153
280
     0
281
     0
  0
CLASS
  1
MLEADERSTYLE
  2
AcDbMLeaderStyle
  3
ACDB_MLEADERSTYLE_CLASS
 90
     4095
280
     0
281
     0
  0
CLASS
  1
ACDBSECTIONVIEWSTYLE
  2
AcDbSectionViewStyle
  3
ObjectDBX Classes
 90
     1025
280
     0
281
     0
  0
CLASS
  1
ACDBDETAILVIEWSTYLE
  2
AcDbDetailViewStyle
  3
ObjectDBX Classes
 90
     1025
280
     0
281
     0
  0
CLASS
  1
CELLSTYLEMAP
  2
AcDbCellStyleMap
  3
ObjectDBX Classes
 90
     1152
280
     0
281
     0
  0
ENDSEC
  0
SECTION
  2
TABLES
  0
TABLE
  2
VPORT
  5
8
330
0
100
AcDbSymbolTable
 70
     1
  0
VPORT
  5
12E4
330
8
100
AcDbSymbolTableRecord
100
AcDbViewportTableRecord
  2
*Active
 70
     0
 10
0.0
 20
0.0
 11
1.0
 21
1.0
 12
5519.650727914374
 22
2969.954707674035
 13
0.0
 23
0.0
 14
10.0
 24
10.0
 15
0.0
 25
0.0
 16
0.0
 26
0.0
 36
1.0
 17
0.0
 27
0.0
 37
0.0
 40
5986.316970524709
 41
2.075975359342915
 42
50.0
 43
0.0
 44
0.0
 50
0.0
 51
0.0
 71
     0
 72
   100
 73
     1
 74
     1
 75
     0
 76
     0
 77
     0
 78
     0
281
     0
 65
     1
110
0.0
120
0.0
130
0.0
111
1.0
121
0.0
131
0.0
112
0.0
122
1.0
132
0.0
 79
     0
146
0.0
1001
ACAD_NAV_VCDISPLAY
1070
     3
  0
ENDTAB
  0
TABLE
  2
LTYPE
  5
5
330
0
100
AcDbSymbolTable
 70
     5
  0
LTYPE
  5
12
330
5
100
AcDbSymbolTableRecord
100
AcDbLinetypeTableRecord
  2
BYBLOCK
 70
     0
  3

 72
    65
 73
     0
 40
0.0
  0
LTYPE
  5
13
330
5
100
AcDbSymbolTableRecord
100
AcDbLinetypeTableRecord
  2
BYLAYER
 70
     0
  3

 72
    65
 73
     0
 40
0.0
  0
LTYPE
  5
14
330
5
100
AcDbSymbolTableRecord
100
AcDbLinetypeTableRecord
  2
CONTINUOUS
 70
     0
  3
Solid line
 72
    65
 73
     0
 40
0.0
  0
LTYPE
  5
30
330
5
100
AcDbSymbolTableRecord
100
AcDbLinetypeTableRecord
  2
CENTER
 70
     0
  3
____ _ ____ _ ____ _ ____ _ ____ _ ____ _ ____ 
 72
    65
 73
     4
 40
2.0
 49
1.25
 74
     0
 49
-0.25
 74
     0
 49
0.25
 74
     0
 49
-0.25
 74
     0
  0
LTYPE
  5
31
330
5
100
AcDbSymbolTableRecord
100
AcDbLinetypeTableRecord
  2
HIDDEN
 70
     0
  3
__ __ __ __ __ __ __ __ __ __ __ __ __ __ __ __
 72
    65
 73
     2
 40
0.375
 49
0.25
 74
     0
 49
-0.125
 74
     0
  0
LTYPE
  5
32
330
5
100
AcDbSymbolTableRecord
100
AcDbLinetypeTableRecord
  2
HIDDEN2
 70
     0
  3
_ _ _ _ _ _ _ _ _ _ _ _ _ _ _ _ _ _ _ _ _ _ _ _
 72
    65
 73
     2
 40
0.1875
 49
0.125
 74
     0
 49
-0.0625
 74
     0
  0
LTYPE
  5
33
330
5
100
AcDbSymbolTableRecord
100
AcDbLinetypeTableRecord
  2
PHANTOM
 70
     0
  3
______  __  __  ______  __  __  ______  __  __ 
 72
    65
 73
     6
 40
2.5
 49
1.25
 74
     0
 49
-0.25
 74
     0
 49
0.25
 74
     0
 49
-0.25
 74
     0
 49
0.25
 74
     0
 49
-0.25
 74
     0
  0
ENDTAB
  0
TABLE
  2
LAYER
  5
2
102
{ACAD_XDICTIONARY
360
110F
102
}
330
0
100
AcDbSymbolTable
 70
    15
  0
LAYER
  5
F
330
2
100
AcDbSymbolTableRecord
100
AcDbLayerTableRecord
  2
0
 70
     0
 62
     7
  6
CONTINUOUS
370
    -3
390
724
  0
LAYER
  5
3A
330
2
100
AcDbSymbolTableRecord
100
AcDbLayerTableRecord
  2
CENTER
 70
     0
 62
     3
  6
CENTER
370
    -3
390
724
  0
LAYER
  5
3B
330
2
100
AcDbSymbolTableRecord
100
AcDbLayerTableRecord
  2
HASEN
 70
     0
 62
     7
  6
HIDDEN
370
    -3
390
724
  0
LAYER
  5
3C
330
2
100
AcDbSymbolTableRecord
100
AcDbLayerTableRecord
  2
HOJO
 70
     0
 62
     8
  6
CONTINUOUS
370
    -3
390
724
  0
LAYER
  5
3D
330
2
100
AcDbSymbolTableRecord
100
AcDbLayerTableRecord
  2
KASOU
 70
     0
 62
     2
  6
PHANTOM
370
    -3
390
724
  0
LAYER
  5
3E
330
2
100
AcDbSymbolTableRecord
100
AcDbLayerTableRecord
  2
MOJI
 70
     0
 62
     6
  6
CONTINUOUS
370
    -3
390
724
  0
LAYER
  5
3F
330
2
100
AcDbSymbolTableRecord
100
AcDbLayerTableRecord
  2
SJC
 70
     0
 62
     1
  6
CONTINUOUS
370
    -3
390
724
  0
LAYER
  5
40
330
2
100
AcDbSymbolTableRecord
100
AcDbLayerTableRecord
  2
SUNPOU
 70
     0
 62
     4
  6
CONTINUOUS
370
    -3
390
724
  0
LAYER
  5
41
330
2
100
AcDbSymbolTableRecord
100
AcDbLayerTableRecord
  2
WAKU
 70
     0
 62
    -5
  6
CONTINUOUS
370
    -3
390
724
  0
LAYER
  5
42
330
2
100
AcDbSymbolTableRecord
100
AcDbLayerTableRecord
  2
DEFPOINTS
 70
     0
 62
     7
  6
CONTINUOUS
290
     0
370
    -3
390
724
  0
LAYER
  5
348
330
2
100
AcDbSymbolTableRecord
100
AcDbLayerTableRecord
  2
ZWAKU
 70
     1
 62
    -7
  6
CONTINUOUS
370
    -3
390
724
  0
LAYER
  5
359
330
2
100
AcDbSymbolTableRecord
100
AcDbLayerTableRecord
  2
INFORMATION
 70
     1
 62
     7
  6
CONTINUOUS
370
    -3
390
724
  0
LAYER
  5
35E
330
2
100
AcDbSymbolTableRecord
100
AcDbLayerTableRecord
  2
SJC2
 70
     0
 62
     7
  6
CONTINUOUS
370
    -3
390
724
  0
LAYER
  5
35F
330
2
100
AcDbSymbolTableRecord
100
AcDbLayerTableRecord
  2
MOJI2
 70
     0
 62
     1
  6
CONTINUOUS
370
    -3
390
724
  0
LAYER
  5
360
330
2
100
AcDbSymbolTableRecord
100
AcDbLayerTableRecord
  2
HATCH
 70
     0
 62
     2
  6
CONTINUOUS
370
    -3
390
724
  0
ENDTAB
  0
TABLE
  2
STYLE
  5
3
330
0
100
AcDbSymbolTable
 70
    10
  0
STYLE
  5
10
330
3
100
AcDbSymbolTableRecord
100
AcDbTextStyleTableRecord
  2
STANDARD
 70
     0
 40
0.0
 41
1.0
 50
0.0
 71
     0
 42
3.0
  3
TXT
  4
BIGFONT
  0
STYLE
  5
2E
330
3
100
AcDbSymbolTableRecord
100
AcDbTextStyleTableRecord
  2
USER
 70
     0
 40
0.0
 41
1.0
 50
0.0
 71
     0
 42
60.0
  3
TXT
  4
BIGFONT
  0
STYLE
  5
2F
330
3
100
AcDbSymbolTableRecord
100
AcDbTextStyleTableRecord
  2
TEXT6060
 70
     0
 40
60.0
 41
1.0
 50
0.0
 71
     0
 42
60.0
  3
TXT
  4
BIGFONT
  0
STYLE
  5
349
330
3
100
AcDbSymbolTableRecord
100
AcDbTextStyleTableRecord
  2
KANJI
 70
     0
 40
0.0
 41
1.0
 50
0.0
 71
     0
 42
0.0
  3
ROMANS.SHX
  4
BIGFONT.SHX
  0
STYLE
  5
34A
330
3
100
AcDbSymbolTableRecord
100
AcDbTextStyleTableRecord
  2
SIMPLEX
 70
     0
 40
0.0
 41
1.0
 50
0.0
 71
     0
 42
0.0
  3
SCRIPTS.SHX
  4

  0
STYLE
  5
371
330
3
100
AcDbSymbolTableRecord
100
AcDbTextStyleTableRecord
  2
TATEEXT
 70
     4
 40
0.0
 41
1.0
 50
0.0
 71
     0
 42
0.0
  3
ROMANS
  4
EXTFONT
  0
STYLE
  5
372
330
3
100
AcDbSymbolTableRecord
100
AcDbTextStyleTableRecord
  2
TATEBIG
 70
     4
 40
0.0
 41
1.0
 50
0.0
 71
     0
 42
0.0
  3
ROMANS
  4
BIGFONT
  0
STYLE
  5
373
330
3
100
AcDbSymbolTableRecord
100
AcDbTextStyleTableRecord
  2
EXT08
 70
     0
 40
0.0
 41
0.8
 50
0.0
 71
     0
 42
60.0
  3
ROMANS
  4
EXTFONT
  0
STYLE
  5
374
330
3
100
AcDbSymbolTableRecord
100
AcDbTextStyleTableRecord
  2
EXT
 70
     0
 40
0.0
 41
1.0
 50
0.0
 71
     0
 42
0.0
  3
ROMANS
  4
EXTFONT
  0
STYLE
  5
375
330
3
100
AcDbSymbolTableRecord
100
AcDbTextStyleTableRecord
  2
KANJI08
 70
     0
 40
0.0
 41
0.8
 50
0.0
 71
     0
 42
0.0
  3
ROMANS
  4
BIGFONT
  0
ENDTAB
  0
TABLE
  2
VIEW
  5
6
330
0
100
AcDbSymbolTable
 70
     0
  0
ENDTAB
  0
TABLE
  2
UCS
  5
7
330
0
100
AcDbSymbolTable
 70
     0
  0
ENDTAB
  0
TABLE
  2
APPID
  5
9
330
0
100
AcDbSymbolTable
 70
     4
  0
APPID
  5
11
330
9
100
AcDbSymbolTableRecord
100
AcDbRegAppTableRecord
  2
ACAD
 70
     0
  0
APPID
  5
11EC
330
9
100
AcDbSymbolTableRecord
100
AcDbRegAppTableRecord
  2
ACAD_PSEXT
 70
     0
  0
APPID
  5
1343
330
9
100
AcDbSymbolTableRecord
100
AcDbRegAppTableRecord
  2
ACAD_NAV_VCDISPLAY
 70
     0
  0
APPID
  5
1380
330
9
100
AcDbSymbolTableRecord
100
AcDbRegAppTableRecord
  2
ACAD_MLEADERVER
 70
     0
  0
ENDTAB
  0
TABLE
  2
DIMSTYLE
  5
A
330
0
100
AcDbSymbolTable
 70
     6
100
AcDbDimStyleTable
 71
     1
340
376
  0
DIMSTYLE
105
36
330
A
100
AcDbSymbolTableRecord
100
AcDbDimStyleTableRecord
  2
S01-20AX
 70
     0
 41
40.0
 44
20.0
 73
     0
 74
     0
 77
     1
 78
     8
140
60.0
146
0.003
172
     1
174
     1
279
     2
284
     8
285
     8
286
     8
340
2F
  0
DIMSTYLE
105
37
330
A
100
AcDbSymbolTableRecord
100
AcDbDimStyleTableRecord
  2
S01-10AX
 70
     0
 41
40.0
 44
20.0
 73
     0
 74
     0
 77
     1
 78
     8
140
60.0
144
0.5
146
0.003
172
     1
174
     1
279
     2
284
     8
285
     8
286
     8
340
2F
  0
DIMSTYLE
105
376
102
{ACAD_REACTORS
330
225
330
226
330
227
330
228
330
230
330
233
330
234
330
23B
330
23C
330
23D
330
386
330
3D4
330
3E1
330
430
330
43F
330
121B
102
}
330
A
100
AcDbSymbolTableRecord
100
AcDbDimStyleTableRecord
  2
SJC
 70
     0
340
10
  0
DIMSTYLE
105
E57
330
A
100
AcDbSymbolTableRecord
100
AcDbDimStyleTableRecord
  2
STANDARD
 70
     0
 40
20.0
 41
2.0
 42
1.0
 43
6.0
 44
1.0
 73
     0
 74
     0
 77
     1
 78
     8
140
3.0
147
1.199999999999999
172
     1
176
   256
177
   256
178
   256
271
     2
275
     1
279
     2
340
373
  0
DIMSTYLE
105
E5D
330
A
100
AcDbSymbolTableRecord
100
AcDbDimStyleTableRecord
  2
RUISEKI1
 70
     0
 40
20.0
 41
2.0
 42
1.0
 43
6.0
 44
30.0
 73
     0
 74
     0
 77
     1
 78
     8
140
3.0
147
1.5
172
     1
173
     1
176
   256
177
   256
178
   256
271
     2
275
     1
279
     2
340
373
341
E58
343
E58
  0
DIMSTYLE
105
E61
330
A
100
AcDbSymbolTableRecord
100
AcDbDimStyleTableRecord
  2
RUISEKI2
 70
     0
 40
20.0
 41
2.0
 42
1.0
 43
6.0
 44
30.0
 73
     0
 74
     0
 77
     1
 78
     8
140
3.0
147
1.5
172
     1
173
     1
176
   256
177
   256
178
   256
271
     2
275
     1
279
     2
340
373
341
E5E
343
E5E
  0
ENDTAB
  0
TABLE
  2
BLOCK_RECORD
  5
1
330
0
100
AcDbSymbolTable
 70
    22
  0
BLOCK_RECORD
  5
18
102
{ACAD_XDICTIONARY
360
CD4
102
}
330
1
100
AcDbSymbolTableRecord
100
AcDbBlockTableRecord
  2
*MODEL_SPACE
340
727
  0
BLOCK_RECORD
  5
15
102
{ACAD_XDICTIONARY
360
CD2
102
}
330
1
100
AcDbSymbolTableRecord
100
AcDbBlockTableRecord
  2
*PAPER_SPACE
340
728
  0
BLOCK_RECORD
  5
2B
330
1
100
AcDbSymbolTableRecord
100
AcDbBlockTableRecord
  2
*X0
340
0
102
{BLKREFS
331
23E
102
}
  0
BLOCK_RECORD
  5
2C
330
1
100
AcDbSymbolTableRecord
100
AcDbBlockTableRecord
  2
*X1
340
0
102
{BLKREFS
331
23F
102
}
  0
BLOCK_RECORD
  5
34C
330
1
100
AcDbSymbolTableRecord
100
AcDbBlockTableRecord
  2
CALCOMP_TECHJET720A3
340
0
102
{BLKREFS
331
358
102
}
  0
BLOCK_RECORD
  5
37A
330
1
100
AcDbSymbolTableRecord
100
AcDbBlockTableRecord
  2
*D3
340
0
  0
BLOCK_RECORD
  5
387
330
1
100
AcDbSymbolTableRecord
100
AcDbBlockTableRecord
  2
*D4
340
0
  0
BLOCK_RECORD
  5
393
330
1
100
AcDbSymbolTableRecord
100
AcDbBlockTableRecord
  2
*D5
340
0
  0
BLOCK_RECORD
  5
3C8
330
1
100
AcDbSymbolTableRecord
100
AcDbBlockTableRecord
  2
*D6
340
0
  0
BLOCK_RECORD
  5
3D5
330
1
100
AcDbSymbolTableRecord
100
AcDbBlockTableRecord
  2
*D7
340
0
  0
BLOCK_RECORD
  5
3E2
330
1
100
AcDbSymbolTableRecord
100
AcDbBlockTableRecord
  2
*D8
340
0
  0
BLOCK_RECORD
  5
3FC
330
1
100
AcDbSymbolTableRecord
100
AcDbBlockTableRecord
  2
*D9
340
0
  0
BLOCK_RECORD
  5
408
330
1
100
AcDbSymbolTableRecord
100
AcDbBlockTableRecord
  2
*D10
340
0
  0
BLOCK_RECORD
  5
422
330
1
100
AcDbSymbolTableRecord
100
AcDbBlockTableRecord
  2
*D11
340
0
  0
BLOCK_RECORD
  5
431
330
1
100
AcDbSymbolTableRecord
100
AcDbBlockTableRecord
  2
*D12
340
0
  0
BLOCK_RECORD
  5
49C
330
1
100
AcDbSymbolTableRecord
100
AcDbBlockTableRecord
  2
*D13
340
0
  0
BLOCK_RECORD
  5
4A8
330
1
100
AcDbSymbolTableRecord
100
AcDbBlockTableRecord
  2
*D14
340
0
  0
BLOCK_RECORD
  5
4B4
330
1
100
AcDbSymbolTableRecord
100
AcDbBlockTableRecord
  2
*D15
340
0
  0
BLOCK_RECORD
  5
4C0
330
1
100
AcDbSymbolTableRecord
100
AcDbBlockTableRecord
  2
*D16
340
0
  0
BLOCK_RECORD
  5
4CC
330
1
100
AcDbSymbolTableRecord
100
AcDbBlockTableRecord
  2
*D17
340
0
  0
BLOCK_RECORD
  5
E58
330
1
100
AcDbSymbolTableRecord
100
AcDbBlockTableRecord
  2
_Dot
340
0
  0
BLOCK_RECORD
  5
E5E
330
1
100
AcDbSymbolTableRecord
100
AcDbBlockTableRecord
  2
_None
340
0
  0
BLOCK_RECORD
  5
11E1
330
1
100
AcDbSymbolTableRecord
100
AcDbBlockTableRecord
  2
L50-3.2
340
0
310
2800000020000000200000000100080000000000000400000000000000000000000000000000000000000000000080000080000000808000800000008000800080800000C0C0C000C0DCC000F0CAA6000020400000206000002080000020A0000020C0000020E00000400000004020000040400000406000004080000040A0
310
000040C0000040E00000600000006020000060400000606000006080000060A0000060C0000060E00000800000008020000080400000806000008080000080A0000080C0000080E00000A0000000A0200000A0400000A0600000A0800000A0A00000A0C00000A0E00000C0000000C0200000C0400000C0600000C0800000C0
310
A00000C0C00000C0E00000E0000000E0200000E0400000E0600000E0800000E0A00000E0C00000E0E00040000000400020004000400040006000400080004000A0004000C0004000E00040200000402020004020400040206000402080004020A0004020C0004020E000404000004040200040404000404060004040800040
310
40A0004040C0004040E00040600000406020004060400040606000406080004060A0004060C0004060E00040800000408020004080400040806000408080004080A0004080C0004080E00040A0000040A0200040A0400040A0600040A0800040A0A00040A0C00040A0E00040C0000040C0200040C0400040C0600040C08000
310
40C0A00040C0C00040C0E00040E0000040E0200040E0400040E0600040E0800040E0A00040E0C00040E0E00080000000800020008000400080006000800080008000A0008000C0008000E00080200000802020008020400080206000802080008020A0008020C0008020E00080400000804020008040400080406000804080
310
008040A0008040C0008040E00080600000806020008060400080606000806080008060A0008060C0008060E00080800000808020008080400080806000808080008080A0008080C0008080E00080A0000080A0200080A0400080A0600080A0800080A0A00080A0C00080A0E00080C0000080C0200080C0400080C0600080C0
310
800080C0A00080C0C00080C0E00080E0000080E0200080E0400080E0600080E0800080E0A00080E0C00080E0E000C0000000C0002000C0004000C0006000C0008000C000A000C000C000C000E000C0200000C0202000C0204000C0206000C0208000C020A000C020C000C020E000C0400000C0402000C0404000C0406000C0
310
408000C040A000C040C000C040E000C0600000C0602000C0604000C0606000C0608000C060A000C060C000C060E000C0800000C0802000C0804000C0806000C0808000C080A000C080C000C080E000C0A00000C0A02000C0A04000C0A06000C0A08000C0A0A000C0A0C000C0A0E000C0C00000C0C02000C0C04000C0C06000
310
C0C08000C0C0A000F0FBFF00A4A0A000808080000000FF0000FF000000FFFF00FF000000FF00FF00FFFF0000FFFFFF0000000000000000000000000000000000000000000000000000000000000000000000000000F9F9F9F9F9F9F9F9F9F9F9F9F9F9F9F9F9F9F9F9F9F9F9F9F9F90000000000F900000000000000000000
310
000000000000000000000000000000F900000000F900F9F9F9F9F9F9F9F9F9F9F9F9F9F9F9F9F9F9F9F9F9F9F9F9F9F9000000F900F900000000000000000000000000000000000000000000000000000000F900F90000000000000000000000000000000000000000000000000000000000F900F900000000000000000000
310
00000000000000000000000000000000000000F900F90000000000000000000000000000000000000000000000000000000000F900F90000000000000000000000000000000000000000000000000000000000F900F90000000000000000000000000000000000000000000000000000000000F900F9000000000000000000
310
0000000000000000000000000000000000000000F900F90000000000000000000000000000000000000000000000000000000000F900F90000000000000000000000000000000000000000000000000000000000F900F90000000000000000000000000000000000000000000000000000000000F900F90000000000000000
310
000000000000000000000000000000000000000000F900F90000000000000000000000000000000000000000000000000000000000F900F90000000000000000000000000000000000000000000000000000000000F900F90000000000000000000000000000000000000000000000000000000000F900F900000000000000
310
00000000000000000000000000000000000000000000F900F90000000000000000000000000000000000000000000000000000000000F900F90000000000000000000000000000000000000000000000000000000000F900F90000000000000000000000000000000000000000000000000000000000F900F9000000000000
310
0000000000000000000000000000000000000000000000F900F90000000000000000000000000000000000000000000000000000000000F900F90000000000000000000000000000000000000000000000000000000000F900F90000000000000000000000000000000000000000000000000000000000F900F90000000000
310
000000000000000000000000000000000000000000000000F900F90000000000000000000000000000000000000000000000000000000000F900F90000000000000000000000000000000000000000000000000000000000F900F90000000000000000000000000000000000000000000000000000000000F9F9F900000000
310
0000000000000000000000000000000000000000000000000000000000000000000000000000000000000000000000000000000000000000
102
{BLKREFS
331
1239
331
123A
102
}
1001
ACAD
1000
DesignCenter Data
1002
{
1070
     1
1070
     4
1002
}
  0
BLOCK_RECORD
  5
123D
330
1
100
AcDbSymbolTableRecord
100
AcDbBlockTableRecord
  2
*D21
340
0
  0
ENDTAB
  0
ENDSEC
  0
SECTION
  2
BLOCKS
  0
BLOCK
  5
45
330
18
100
AcDbEntity
  8
0
100
AcDbBlockBegin
  2
*MODEL_SPACE
 70
     0
 10
0.0
 20
0.0
 30
0.0
  3
*MODEL_SPACE
  1

  0
ENDBLK
  5
46
330
18
100
AcDbEntity
  8
0
100
AcDbBlockEnd
  0
BLOCK
  5
43
330
15
100
AcDbEntity
 67
     1
  8
0
100
AcDbBlockBegin
  2
*PAPER_SPACE
 70
     0
 10
0.0
 20
0.0
 30
0.0
  3
*PAPER_SPACE
  1

  0
ENDBLK
  5
44
330
15
100
AcDbEntity
 67
     1
  8
0
100
AcDbBlockEnd
  0
BLOCK
  5
E9
330
2B
100
AcDbEntity
  8
0
100
AcDbBlockBegin
  2
*X0
 70
     1
 10
0.0
 20
0.0
 30
0.0
  3
*X0
  1

  0
LINE
  5
EA
330
2B
100
AcDbEntity
  8
0
 62
     0
100
AcDbLine
 10
6270.202494329142
 20
2186.666666607775
 30
0.0
 11
6290.202494327291
 21
2206.666666605925
 31
0.0
  0
LINE
  5
EB
330
2B
100
AcDbEntity
  8
0
 62
     0
100
AcDbLine
 10
6228.954657685491
 20
2186.666666607775
 30
0.0
 11
6248.954657683641
 21
2206.666666605925
 31
0.0
  0
LINE
  5
EC
330
2B
100
AcDbEntity
  8
0
 62
     0
100
AcDbLine
 10
6187.706821041842
 20
2186.666666607775
 30
0.0
 11
6207.706821039991
 21
2206.666666605925
 31
0.0
  0
LINE
  5
ED
330
2B
100
AcDbEntity
  8
0
 62
     0
100
AcDbLine
 10
6146.458984398191
 20
2186.666666607775
 30
0.0
 11
6166.45898439634
 21
2206.666666605925
 31
0.0
  0
LINE
  5
EE
330
2B
100
AcDbEntity
  8
0
 62
     0
100
AcDbLine
 10
6105.211147754541
 20
2186.666666607775
 30
0.0
 11
6125.211147752691
 21
2206.666666605925
 31
0.0
  0
LINE
  5
EF
330
2B
100
AcDbEntity
  8
0
 62
     0
100
AcDbLine
 10
6063.963311110891
 20
2186.666666607775
 30
0.0
 11
6083.963311109041
 21
2206.666666605925
 31
0.0
  0
LINE
  5
F0
330
2B
100
AcDbEntity
  8
0
 62
     0
100
AcDbLine
 10
6022.715474467241
 20
2186.666666607775
 30
0.0
 11
6042.715474465389
 21
2206.666666605925
 31
0.0
  0
LINE
  5
F1
330
2B
100
AcDbEntity
  8
0
 62
     0
100
AcDbLine
 10
5981.467637823591
 20
2186.666666607775
 30
0.0
 11
6001.46763782174
 21
2206.666666605925
 31
0.0
  0
LINE
  5
F2
330
2B
100
AcDbEntity
  8
0
 62
     0
100
AcDbLine
 10
6311.450330972792
 20
2186.666666607775
 30
0.0
 11
6331.450330970941
 21
2206.666666605925
 31
0.0
  0
LINE
  5
F3
330
2B
100
AcDbEntity
  8
0
 62
     0
100
AcDbLine
 10
6352.698167616442
 20
2186.666666607775
 30
0.0
 11
6372.698167614592
 21
2206.666666605925
 31
0.0
  0
LINE
  5
F4
330
2B
100
AcDbEntity
  8
0
 62
     0
100
AcDbLine
 10
6393.946004260092
 20
2186.666666607775
 30
0.0
 11
6413.946004258241
 21
2206.666666605925
 31
0.0
  0
LINE
  5
F5
330
2B
100
AcDbEntity
  8
0
 62
     0
100
AcDbLine
 10
6435.193840903743
 20
2186.666666607775
 30
0.0
 11
6455.193840901891
 21
2206.666666605925
 31
0.0
  0
LINE
  5
F6
330
2B
100
AcDbEntity
  8
0
 62
     0
100
AcDbLine
 10
6476.441677547393
 20
2186.666666607775
 30
0.0
 11
6496.441677545542
 21
2206.666666605925
 31
0.0
  0
LINE
  5
F7
330
2B
100
AcDbEntity
  8
0
 62
     0
100
AcDbLine
 10
6517.689514191042
 20
2186.666666607775
 30
0.0
 11
6537.689514189192
 21
2206.666666605925
 31
0.0
  0
LINE
  5
F8
330
2B
100
AcDbEntity
  8
0
 62
     0
100
AcDbLine
 10
6558.937350834693
 20
2186.666666607775
 30
0.0
 11
6578.937350832842
 21
2206.666666605925
 31
0.0
  0
LINE
  5
F9
330
2B
100
AcDbEntity
  8
0
 62
     0
100
AcDbLine
 10
6600.185187478344
 20
2186.666666607775
 30
0.0
 11
6620.185187476493
 21
2206.666666605925
 31
0.0
  0
ENDBLK
  5
FA
330
2B
100
AcDbEntity
  8
0
100
AcDbBlockEnd
  0
BLOCK
  5
FB
330
2C
100
AcDbEntity
  8
0
100
AcDbBlockBegin
  2
*X1
 70
     1
 10
0.0
 20
0.0
 30
0.0
  3
*X1
  1

  0
LINE
  5
FC
330
2C
100
AcDbEntity
  8
0
 62
     0
100
AcDbLine
 10
4785.280375157736
 20
2186.666666607775
 30
0.0
 11
4805.280375155884
 21
2206.666666605925
 31
0.0
  0
LINE
  5
FD
330
2C
100
AcDbEntity
  8
0
 62
     0
100
AcDbLine
 10
4744.032538514086
 20
2186.666666607775
 30
0.0
 11
4764.032538512235
 21
2206.666666605925
 31
0.0
  0
LINE
  5
FE
330
2C
100
AcDbEntity
  8
0
 62
     0
100
AcDbLine
 10
4702.784701870434
 20
2186.666666607775
 30
0.0
 11
4722.784701868585
 21
2206.666666605925
 31
0.0
  0
LINE
  5
FF
330
2C
100
AcDbEntity
  8
0
 62
     0
100
AcDbLine
 10
4661.536865226785
 20
2186.666666607775
 30
0.0
 11
4681.536865224934
 21
2206.666666605925
 31
0.0
  0
LINE
  5
100
330
2C
100
AcDbEntity
  8
0
 62
     0
100
AcDbLine
 10
4620.289028583135
 20
2186.666666607775
 30
0.0
 11
4640.289028581285
 21
2206.666666605925
 31
0.0
  0
LINE
  5
101
330
2C
100
AcDbEntity
  8
0
 62
     0
100
AcDbLine
 10
4579.041191939484
 20
2186.666666607775
 30
0.0
 11
4599.041191937635
 21
2206.666666605925
 31
0.0
  0
LINE
  5
102
330
2C
100
AcDbEntity
  8
0
 62
     0
100
AcDbLine
 10
4537.793355295835
 20
2186.666666607775
 30
0.0
 11
4557.793355293983
 21
2206.666666605925
 31
0.0
  0
LINE
  5
103
330
2C
100
AcDbEntity
  8
0
 62
     0
100
AcDbLine
 10
4496.545518652185
 20
2186.666666607775
 30
0.0
 11
4516.545518650334
 21
2206.666666605925
 31
0.0
  0
LINE
  5
104
330
2C
100
AcDbEntity
  8
0
 62
     0
100
AcDbLine
 10
4826.528211801385
 20
2186.666666607775
 30
0.0
 11
4846.528211799536
 21
2206.666666605925
 31
0.0
  0
LINE
  5
105
330
2C
100
AcDbEntity
  8
0
 62
     0
100
AcDbLine
 10
4867.776048445037
 20
2186.666666607775
 30
0.0
 11
4887.776048443186
 21
2206.666666605925
 31
0.0
  0
LINE
  5
106
330
2C
100
AcDbEntity
  8
0
 62
     0
100
AcDbLine
 10
4909.023885088686
 20
2186.666666607775
 30
0.0
 11
4929.023885086835
 21
2206.666666605925
 31
0.0
  0
LINE
  5
107
330
2C
100
AcDbEntity
  8
0
 62
     0
100
AcDbLine
 10
4950.271721732336
 20
2186.666666607775
 30
0.0
 11
4970.271721730487
 21
2206.666666605925
 31
0.0
  0
LINE
  5
108
330
2C
100
AcDbEntity
  8
0
 62
     0
100
AcDbLine
 10
4991.519558375987
 20
2186.666666607775
 30
0.0
 11
5011.519558374136
 21
2206.666666605925
 31
0.0
  0
LINE
  5
109
330
2C
100
AcDbEntity
  8
0
 62
     0
100
AcDbLine
 10
5032.767395019637
 20
2186.666666607775
 30
0.0
 11
5052.767395017786
 21
2206.666666605925
 31
0.0
  0
LINE
  5
10A
330
2C
100
AcDbEntity
  8
0
 62
     0
100
AcDbLine
 10
5074.015231663286
 20
2186.666666607775
 30
0.0
 11
5094.015231661437
 21
2206.666666605925
 31
0.0
  0
LINE
  5
10B
330
2C
100
AcDbEntity
  8
0
 62
     0
100
AcDbLine
 10
5115.263068306937
 20
2186.666666607775
 30
0.0
 11
5135.263068305087
 21
2206.666666605925
 31
0.0
  0
LINE
  5
10C
330
2C
100
AcDbEntity
  8
0
 62
     0
100
AcDbLine
 10
5156.510904950587
 20
2186.666666607775
 30
0.0
 11
5159.99999988345
 21
2190.155761540639
 31
0.0
  0
ENDBLK
  5
10D
330
2C
100
AcDbEntity
  8
0
100
AcDbBlockEnd
  0
BLOCK
  5
353
330
34C
100
AcDbEntity
  8
0
100
AcDbBlockBegin
  2
CALCOMP_TECHJET720A3
 70
     0
 10
0.0
 20
0.0
 30
0.0
  3
CALCOMP_TECHJET720A3
  1

  0
LWPOLYLINE
  5
34D
330
34C
100
AcDbEntity
  8
ZWAKU
100
AcDbPolyline
 90
        4
 70
     1
 43
0.0
 10
0.0
 20
0.0
 10
0.0
 20
267.0
 10
370.0
 20
267.0
 10
370.0
 20
0.0
  0
ENDBLK
  5
354
330
34C
100
AcDbEntity
  8
0
100
AcDbBlockEnd
  0
BLOCK
  5
638
330
37A
100
AcDbEntity
  8
0
100
AcDbBlockBegin
  2
*D3
 70
     1
 10
0.0
 20
0.0
 30
0.0
  3
*D3
  1

  0
LINE
  5
10C4
330
37A
100
AcDbEntity
  8
SUNPOU
100
AcDbLine
 10
6242.450534389031
 20
3400.0
 30
0.0
 11
6440.0
 21
3400.0
 31
0.0
  0
LINE
  5
10C5
330
37A
100
AcDbEntity
  8
SUNPOU
100
AcDbLine
 10
6070.0625
 20
4000.0
 30
0.0
 11
6440.0
 21
4000.0
 31
0.0
  0
LINE
  5
10C6
330
37A
100
AcDbEntity
  8
SUNPOU
100
AcDbLine
 10
6420.0
 20
3440.0
 30
0.0
 11
6420.0
 21
3960.0
 31
0.0
  0
SOLID
  5
10C7
330
37A
100
AcDbEntity
  8
SUNPOU
100
AcDbTrace
 10
6413.333333333333
 20
3440.0
 30
0.0
 11
6426.666666666666
 21
3440.0
 31
0.0
 12
6420.0
 22
3400.0
 32
0.0
 13
6420.0
 23
3400.0
 33
0.0
  0
SOLID
  5
10C8
330
37A
100
AcDbEntity
  8
SUNPOU
100
AcDbTrace
 10
6413.333333333333
 20
3960.0
 30
0.0
 11
6426.666666666666
 21
3960.0
 31
0.0
 12
6420.0
 22
4000.0
 32
0.0
 13
6420.0
 23
4000.0
 33
0.0
  0
MTEXT
  5
10C9
330
37A
100
AcDbEntity
  8
SUNPOU
100
AcDbMText
 10
6365.999999999999
 20
3700.000000000001
 30
0.0
 40
60.0
 41
0.0
 71
     5
 72
     5
  1
\A1;600
  7
EXT08
 11
0.0000000000000001
 21
1.0
 31
0.0
 73
     1
 44
1.0
1001
ACAD
1000
MTEXTBEGIN
1070
    73
1070
     1
1070
    44
1040
1.0
1070
    74
1070
     0
1000
MTEXTEND
  0
POINT
  5
10CA
330
37A
100
AcDbEntity
  8
DEFPOINTS
 62
     0
100
AcDbPoint
 10
6222.450534389031
 20
3400.0
 30
0.0
  0
POINT
  5
10CB
330
37A
100
AcDbEntity
  8
DEFPOINTS
 62
     0
100
AcDbPoint
 10
6050.0625
 20
4000.0
 30
0.0
  0
POINT
  5
10CC
330
37A
100
AcDbEntity
  8
DEFPOINTS
 62
     0
100
AcDbPoint
 10
6420.0
 20
4000.0
 30
0.0
  0
ENDBLK
  5
642
330
37A
100
AcDbEntity
  8
0
100
AcDbBlockEnd
  0
BLOCK
  5
6B5
330
387
100
AcDbEntity
  8
0
100
AcDbBlockBegin
  2
*D4
 70
     1
 10
0.0
 20
0.0
 30
0.0
  3
*D4
  1

  0
LINE
  5
1059
330
387
100
AcDbEntity
  8
SUNPOU
100
AcDbLine
 10
5940.0
 20
4175.0
 30
0.0
 11
5680.0
 21
4175.0
 31
0.0
  0
LINE
  5
105A
330
387
100
AcDbEntity
  8
SUNPOU
100
AcDbLine
 10
5940.0
 20
3825.0
 30
0.0
 11
5680.0
 21
3825.0
 31
0.0
  0
LINE
  5
105B
330
387
100
AcDbEntity
  8
SUNPOU
100
AcDbLine
 10
5700.0
 20
4135.0
 30
0.0
 11
5700.0
 21
3865.0
 31
0.0
  0
SOLID
  5
105C
330
387
100
AcDbEntity
  8
SUNPOU
100
AcDbTrace
 10
5693.333333333333
 20
4135.0
 30
0.0
 11
5706.666666666666
 21
4135.0
 31
0.0
 12
5700.0
 22
4175.0
 32
0.0
 13
5700.0
 23
4175.0
 33
0.0
  0
SOLID
  5
105D
330
387
100
AcDbEntity
  8
SUNPOU
100
AcDbTrace
 10
5693.333333333333
 20
3865.0
 30
0.0
 11
5706.666666666666
 21
3865.0
 31
0.0
 12
5700.0
 22
3825.0
 32
0.0
 13
5700.0
 23
3825.0
 33
0.0
  0
MTEXT
  5
105E
330
387
100
AcDbEntity
  8
SUNPOU
100
AcDbMText
 10
5645.999999999999
 20
4000.0
 30
0.0
 40
60.0
 41
0.0
 71
     5
 72
     5
  1
\A1;350
  7
EXT08
 11
0.0000000000000001
 21
1.0
 31
0.0
 73
     1
 44
1.0
1001
ACAD
1000
MTEXTBEGIN
1070
    73
1070
     1
1070
    44
1040
1.0
1070
    74
1070
     0
1000
MTEXTEND
  0
POINT
  5
105F
330
387
100
AcDbEntity
  8
DEFPOINTS
 62
     0
100
AcDbPoint
 10
5960.0
 20
4175.0
 30
0.0
  0
POINT
  5
1060
330
387
100
AcDbEntity
  8
DEFPOINTS
 62
     0
100
AcDbPoint
 10
5960.0
 20
3825.0
 30
0.0
  0
POINT
  5
1061
330
387
100
AcDbEntity
  8
DEFPOINTS
 62
     0
100
AcDbPoint
 10
5700.0
 20
3825.0
 30
0.0
  0
ENDBLK
  5
6BF
330
387
100
AcDbEntity
  8
0
100
AcDbBlockEnd
  0
BLOCK
  5
6A8
330
393
100
AcDbEntity
  8
0
100
AcDbBlockBegin
  2
*D5
 70
     1
 10
0.0
 20
0.0
 30
0.0
  3
*D5
  1

  0
LINE
  5
1062
330
393
100
AcDbEntity
  8
SUNPOU
100
AcDbLine
 10
6130.0
 20
4100.0
 30
0.0
 11
6440.0
 21
4099.999999999999
 31
0.0
  0
LINE
  5
1063
330
393
100
AcDbEntity
  8
SUNPOU
100
AcDbLine
 10
6070.0
 20
4000.0
 30
0.0
 11
6440.0
 21
4000.0
 31
0.0
  0
LINE
  5
1064
330
393
100
AcDbEntity
  8
SUNPOU
100
AcDbLine
 10
6420.0
 20
4139.999999999999
 30
0.0
 11
6420.0
 21
4179.999999999998
 31
0.0
  0
LINE
  5
1065
330
393
100
AcDbEntity
  8
SUNPOU
100
AcDbLine
 10
6420.0
 20
3960.0
 30
0.0
 11
6420.0
 21
3920.0
 31
0.0
  0
MTEXT
  5
1066
330
393
100
AcDbEntity
  8
SUNPOU
100
AcDbMText
 10
6479.328995151554
 20
4049.737283577896
 30
0.0
 40
60.0
 41
0.0
 71
     5
 72
     5
  1
\A1;100
  7
EXT08
 11
0.0000000000000001
 21
1.0
 31
0.0
 73
     1
 44
1.0
1001
ACAD
1000
MTEXTBEGIN
1070
    73
1070
     1
1070
    44
1040
1.0
1070
    74
1070
     0
1000
MTEXTEND
  0
LINE
  5
1067
330
393
100
AcDbEntity
  8
SUNPOU
100
AcDbLine
 10
6420.0
 20
4099.999999999999
 30
0.0
 11
6420.0
 21
4000.0
 31
0.0
  0
SOLID
  5
1068
330
393
100
AcDbEntity
  8
SUNPOU
100
AcDbTrace
 10
6413.333333333333
 20
4139.999999999999
 30
0.0
 11
6426.666666666666
 21
4139.999999999999
 31
0.0
 12
6420.0
 22
4099.999999999999
 32
0.0
 13
6420.0
 23
4099.999999999999
 33
0.0
  0
SOLID
  5
1069
330
393
100
AcDbEntity
  8
SUNPOU
100
AcDbTrace
 10
6413.333333333333
 20
3960.0
 30
0.0
 11
6426.666666666666
 21
3960.0
 31
0.0
 12
6420.0
 22
4000.0
 32
0.0
 13
6420.0
 23
4000.0
 33
0.0
  0
POINT
  5
106A
330
393
100
AcDbEntity
  8
DEFPOINTS
 62
     0
100
AcDbPoint
 10
6110.0
 20
4100.0
 30
0.0
  0
POINT
  5
106B
330
393
100
AcDbEntity
  8
DEFPOINTS
 62
     0
100
AcDbPoint
 10
6050.0
 20
4000.0
 30
0.0
  0
POINT
  5
106C
330
393
100
AcDbEntity
  8
DEFPOINTS
 62
     0
100
AcDbPoint
 10
6420.0
 20
4000.0
 30
0.0
  0
ENDBLK
  5
6B4
330
393
100
AcDbEntity
  8
0
100
AcDbBlockEnd
  0
BLOCK
  5
62D
330
3C8
100
AcDbEntity
  8
0
100
AcDbBlockBegin
  2
*D6
 70
     1
 10
0.0
 20
0.0
 30
0.0
  3
*D6
  1

  0
LINE
  5
10CD
330
3C8
100
AcDbEntity
  8
SUNPOU
100
AcDbLine
 10
1800.0
 20
4256.018680186027
 30
0.0
 11
1800.0
 21
4695.0
 31
0.0
  0
LINE
  5
10CE
330
3C8
100
AcDbEntity
  8
SUNPOU
100
AcDbLine
 10
3799.999999999999
 20
4256.018680186026
 30
0.0
 11
3799.999999999999
 21
4695.0
 31
0.0
  0
LINE
  5
10CF
330
3C8
100
AcDbEntity
  8
SUNPOU
100
AcDbLine
 10
1840.0
 20
4675.0
 30
0.0
 11
3760.0
 21
4675.0
 31
0.0
  0
SOLID
  5
10D0
330
3C8
100
AcDbEntity
  8
SUNPOU
100
AcDbTrace
 10
1840.0
 20
4681.666666666667
 30
0.0
 11
1840.0
 21
4668.333333333333
 31
0.0
 12
1800.0
 22
4675.0
 32
0.0
 13
1800.0
 23
4675.0
 33
0.0
  0
SOLID
  5
10D1
330
3C8
100
AcDbEntity
  8
SUNPOU
100
AcDbTrace
 10
3760.0
 20
4681.666666666667
 30
0.0
 11
3760.0
 21
4668.333333333333
 31
0.0
 12
3799.999999999999
 22
4675.0
 32
0.0
 13
3799.999999999999
 23
4675.0
 33
0.0
  0
MTEXT
  5
10D2
330
3C8
100
AcDbEntity
  8
SUNPOU
100
AcDbMText
 10
2800.0
 20
4729.0
 30
0.0
 40
60.0
 41
0.0
 71
     5
 72
     5
  1
\A1;2000
  7
EXT08
 73
     1
 44
1.0
1001
ACAD
1000
MTEXTBEGIN
1070
    73
1070
     1
1070
    44
1040
1.0
1070
    74
1070
     0
1000
MTEXTEND
  0
POINT
  5
10D3
330
3C8
100
AcDbEntity
  8
DEFPOINTS
 62
     0
100
AcDbPoint
 10
1800.0
 20
4236.018680186027
 30
0.0
  0
POINT
  5
10D4
330
3C8
100
AcDbEntity
  8
DEFPOINTS
 62
     0
100
AcDbPoint
 10
3799.999999999999
 20
4236.018680186027
 30
0.0
  0
POINT
  5
10D5
330
3C8
100
AcDbEntity
  8
DEFPOINTS
 62
     0
100
AcDbPoint
 10
3799.999999999999
 20
4675.0
 30
0.0
  0
ENDBLK
  5
637
330
3C8
100
AcDbEntity
  8
0
100
AcDbBlockEnd
  0
BLOCK
  5
622
330
3D5
100
AcDbEntity
  8
0
100
AcDbBlockBegin
  2
*D7
 70
     1
 10
0.0
 20
0.0
 30
0.0
  3
*D7
  1

  0
LINE
  5
10D6
330
3D5
100
AcDbEntity
  8
SUNPOU
100
AcDbLine
 10
1300.0
 20
4175.0
 30
0.0
 11
1300.0
 21
4695.0
 31
0.0
  0
LINE
  5
10D7
330
3D5
100
AcDbEntity
  8
SUNPOU
100
AcDbLine
 10
1800.0
 20
4256.018680186027
 30
0.0
 11
1800.0
 21
4695.0
 31
0.0
  0
LINE
  5
10D8
330
3D5
100
AcDbEntity
  8
SUNPOU
100
AcDbLine
 10
1340.0
 20
4675.0
 30
0.0
 11
1760.0
 21
4675.0
 31
0.0
  0
SOLID
  5
10D9
330
3D5
100
AcDbEntity
  8
SUNPOU
100
AcDbTrace
 10
1340.0
 20
4681.666666666667
 30
0.0
 11
1340.0
 21
4668.333333333333
 31
0.0
 12
1300.0
 22
4675.0
 32
0.0
 13
1300.0
 23
4675.0
 33
0.0
  0
SOLID
  5
10DA
330
3D5
100
AcDbEntity
  8
SUNPOU
100
AcDbTrace
 10
1760.0
 20
4681.666666666667
 30
0.0
 11
1760.0
 21
4668.333333333333
 31
0.0
 12
1800.0
 22
4675.0
 32
0.0
 13
1800.0
 23
4675.0
 33
0.0
  0
MTEXT
  5
10DB
330
3D5
100
AcDbEntity
  8
SUNPOU
100
AcDbMText
 10
1550.0
 20
4729.0
 30
0.0
 40
60.0
 41
0.0
 71
     5
 72
     5
  1
\A1;500
  7
EXT08
 73
     1
 44
1.0
1001
ACAD
1000
MTEXTBEGIN
1070
    73
1070
     1
1070
    44
1040
1.0
1070
    74
1070
     0
1000
MTEXTEND
  0
POINT
  5
10DC
330
3D5
100
AcDbEntity
  8
DEFPOINTS
 62
     0
100
AcDbPoint
 10
1300.0
 20
4155.0
 30
0.0
  0
POINT
  5
10DD
330
3D5
100
AcDbEntity
  8
DEFPOINTS
 62
     0
100
AcDbPoint
 10
1800.0
 20
4236.018680186027
 30
0.0
  0
POINT
  5
10DE
330
3D5
100
AcDbEntity
  8
DEFPOINTS
 62
     0
100
AcDbPoint
 10
1800.0
 20
4675.0
 30
0.0
  0
ENDBLK
  5
62C
330
3D5
100
AcDbEntity
  8
0
100
AcDbBlockEnd
  0
BLOCK
  5
687
330
3E2
100
AcDbEntity
  8
0
100
AcDbBlockBegin
  2
*D8
 70
     1
 10
0.0
 20
0.0
 30
0.0
  3
*D8
  1

  0
LINE
  5
107F
330
3E2
100
AcDbEntity
  8
SUNPOU
100
AcDbLine
 10
2240.0
 20
3253.162411854756
 30
0.0
 11
3360.0
 21
3253.162411854756
 31
0.0
  0
SOLID
  5
1080
330
3E2
100
AcDbEntity
  8
SUNPOU
100
AcDbTrace
 10
2240.0
 20
3259.829078521422
 30
0.0
 11
2240.0
 21
3246.495745188088
 31
0.0
 12
2200.0
 22
3253.162411854756
 32
0.0
 13
2200.0
 23
3253.162411854756
 33
0.0
  0
SOLID
  5
1081
330
3E2
100
AcDbEntity
  8
SUNPOU
100
AcDbTrace
 10
3360.0
 20
3259.829078521422
 30
0.0
 11
3360.0
 21
3246.495745188088
 31
0.0
 12
3400.0
 22
3253.162411854756
 32
0.0
 13
3400.0
 23
3253.162411854756
 33
0.0
  0
MTEXT
  5
1082
330
3E2
100
AcDbEntity
  8
SUNPOU
100
AcDbMText
 10
2800.0
 20
3307.162411854756
 30
0.0
 40
60.0
 41
0.0
 71
     5
 72
     5
  1
\A1;3@ 400=1200
  7
EXT08
 73
     1
 44
1.0
1001
ACAD
1000
MTEXTBEGIN
1070
    73
1070
     1
1070
    44
1040
1.0
1070
    74
1070
     0
1000
MTEXTEND
  0
POINT
  5
1083
330
3E2
100
AcDbEntity
  8
DEFPOINTS
 62
     0
100
AcDbPoint
 10
2200.0
 20
3253.162411854756
 30
0.0
  0
POINT
  5
1084
330
3E2
100
AcDbEntity
  8
DEFPOINTS
 62
     0
100
AcDbPoint
 10
3400.0
 20
3253.162411854756
 30
0.0
  0
POINT
  5
1085
330
3E2
100
AcDbEntity
  8
DEFPOINTS
 62
     0
100
AcDbPoint
 10
3400.0
 20
3253.162411854756
 30
0.0
  0
ENDBLK
  5
691
330
3E2
100
AcDbEntity
  8
0
100
AcDbBlockEnd
  0
BLOCK
  5
6C0
330
3FC
100
AcDbEntity
  8
0
100
AcDbBlockBegin
  2
*D9
 70
     1
 10
0.0
 20
0.0
 30
0.0
  3
*D9
  1

  0
LINE
  5
106D
330
3FC
100
AcDbEntity
  8
SUNPOU
100
AcDbLine
 10
1880.0
 20
3405.0
 30
0.0
 11
1880.0
 21
3233.162411854755
 31
0.0
  0
LINE
  5
106E
330
3FC
100
AcDbEntity
  8
SUNPOU
100
AcDbLine
 10
2200.0
 20
3400.0
 30
0.0
 11
2200.0
 21
3233.162411854755
 31
0.0
  0
LINE
  5
106F
330
3FC
100
AcDbEntity
  8
SUNPOU
100
AcDbLine
 10
1920.0
 20
3253.162411854756
 30
0.0
 11
2160.0
 21
3253.162411854756
 31
0.0
  0
SOLID
  5
1070
330
3FC
100
AcDbEntity
  8
SUNPOU
100
AcDbTrace
 10
1920.0
 20
3259.829078521422
 30
0.0
 11
1920.0
 21
3246.495745188088
 31
0.0
 12
1880.0
 22
3253.162411854756
 32
0.0
 13
1880.0
 23
3253.162411854756
 33
0.0
  0
SOLID
  5
1071
330
3FC
100
AcDbEntity
  8
SUNPOU
100
AcDbTrace
 10
2160.0
 20
3259.829078521422
 30
0.0
 11
2160.0
 21
3246.495745188088
 31
0.0
 12
2200.0
 22
3253.162411854756
 32
0.0
 13
2200.0
 23
3253.162411854756
 33
0.0
  0
MTEXT
  5
1072
330
3FC
100
AcDbEntity
  8
SUNPOU
100
AcDbMText
 10
2040.0
 20
3307.162411854756
 30
0.0
 40
60.0
 41
0.0
 71
     5
 72
     5
  1
\A1;320
  7
EXT08
 73
     1
 44
1.0
1001
ACAD
1000
MTEXTBEGIN
1070
    73
1070
     1
1070
    44
1040
1.0
1070
    74
1070
     0
1000
MTEXTEND
  0
POINT
  5
1073
330
3FC
100
AcDbEntity
  8
DEFPOINTS
 62
     0
100
AcDbPoint
 10
1880.0
 20
3425.0
 30
0.0
  0
POINT
  5
1074
330
3FC
100
AcDbEntity
  8
DEFPOINTS
 62
     0
100
AcDbPoint
 10
2200.0
 20
3420.0
 30
0.0
  0
POINT
  5
1075
330
3FC
100
AcDbEntity
  8
DEFPOINTS
 62
     0
100
AcDbPoint
 10
2200.0
 20
3253.162411854756
 30
0.0
  0
ENDBLK
  5
6CA
330
3FC
100
AcDbEntity
  8
0
100
AcDbBlockEnd
  0
BLOCK
  5
6E5
330
408
100
AcDbEntity
  8
0
100
AcDbBlockBegin
  2
*D10
 70
     1
 10
0.0
 20
0.0
 30
0.0
  3
*D10
  1

  0
LINE
  5
1076
330
408
100
AcDbEntity
  8
SUNPOU
100
AcDbLine
 10
3400.0
 20
3400.0
 30
0.0
 11
3400.0
 21
3233.162411854755
 31
0.0
  0
LINE
  5
1077
330
408
100
AcDbEntity
  8
SUNPOU
100
AcDbLine
 10
3720.0
 20
3405.0
 30
0.0
 11
3720.0
 21
3233.162411854755
 31
0.0
  0
LINE
  5
1078
330
408
100
AcDbEntity
  8
SUNPOU
100
AcDbLine
 10
3440.0
 20
3253.162411854756
 30
0.0
 11
3680.0
 21
3253.162411854756
 31
0.0
  0
SOLID
  5
1079
330
408
100
AcDbEntity
  8
SUNPOU
100
AcDbTrace
 10
3440.0
 20
3259.829078521422
 30
0.0
 11
3440.0
 21
3246.495745188088
 31
0.0
 12
3400.0
 22
3253.162411854756
 32
0.0
 13
3400.0
 23
3253.162411854756
 33
0.0
  0
SOLID
  5
107A
330
408
100
AcDbEntity
  8
SUNPOU
100
AcDbTrace
 10
3680.0
 20
3259.829078521422
 30
0.0
 11
3680.0
 21
3246.495745188088
 31
0.0
 12
3720.0
 22
3253.162411854756
 32
0.0
 13
3720.0
 23
3253.162411854756
 33
0.0
  0
MTEXT
  5
107B
330
408
100
AcDbEntity
  8
SUNPOU
100
AcDbMText
 10
3560.0
 20
3307.162411854756
 30
0.0
 40
60.0
 41
0.0
 71
     5
 72
     5
  1
\A1;320
  7
EXT08
 73
     1
 44
1.0
1001
ACAD
1000
MTEXTBEGIN
1070
    73
1070
     1
1070
    44
1040
1.0
1070
    74
1070
     0
1000
MTEXTEND
  0
POINT
  5
107C
330
408
100
AcDbEntity
  8
DEFPOINTS
 62
     0
100
AcDbPoint
 10
3400.0
 20
3420.0
 30
0.0
  0
POINT
  5
107D
330
408
100
AcDbEntity
  8
DEFPOINTS
 62
     0
100
AcDbPoint
 10
3720.0
 20
3425.0
 30
0.0
  0
POINT
  5
107E
330
408
100
AcDbEntity
  8
DEFPOINTS
 62
     0
100
AcDbPoint
 10
3720.0
 20
3253.162411854756
 30
0.0
  0
ENDBLK
  5
6EF
330
408
100
AcDbEntity
  8
0
100
AcDbBlockEnd
  0
BLOCK
  5
6CB
330
422
100
AcDbEntity
  8
0
100
AcDbBlockBegin
  2
*D11
 70
     1
 10
0.0
 20
0.0
 30
0.0
  3
*D11
  1

  0
LINE
  5
10DF
330
422
100
AcDbEntity
  8
SUNPOU
100
AcDbLine
 10
1880.0
 20
3380.0
 30
0.0
 11
1880.0
 21
3233.162411854755
 31
0.0
  0
LINE
  5
10E0
330
422
100
AcDbEntity
  8
SUNPOU
100
AcDbLine
 10
1800.0
 20
3380.0
 30
0.0
 11
1800.0
 21
3233.162411854755
 31
0.0
  0
LINE
  5
10E1
330
422
100
AcDbEntity
  8
SUNPOU
100
AcDbLine
 10
1920.0
 20
3253.162411854756
 30
0.0
 11
1960.0
 21
3253.162411854756
 31
0.0
  0
LINE
  5
10E2
330
422
100
AcDbEntity
  8
SUNPOU
100
AcDbLine
 10
1760.0
 20
3253.162411854756
 30
0.0
 11
1720.0
 21
3253.162411854756
 31
0.0
  0
MTEXT
  5
10E3
330
422
100
AcDbEntity
  8
SUNPOU
100
AcDbMText
 10
1835.500322992353
 20
3188.86041350091
 30
0.0
 40
60.0
 41
0.0
 71
     5
 72
     5
  1
\A1;80
  7
EXT08
 73
     1
 44
1.0
1001
ACAD
1000
MTEXTBEGIN
1070
    73
1070
     1
1070
    44
1040
1.0
1070
    74
1070
     0
1000
MTEXTEND
  0
LINE
  5
10E4
330
422
100
AcDbEntity
  8
SUNPOU
100
AcDbLine
 10
1880.0
 20
3253.162411854756
 30
0.0
 11
1800.0
 21
3253.162411854756
 31
0.0
  0
SOLID
  5
10E5
330
422
100
AcDbEntity
  8
SUNPOU
100
AcDbTrace
 10
1920.0
 20
3259.829078521422
 30
0.0
 11
1920.0
 21
3246.495745188088
 31
0.0
 12
1880.0
 22
3253.162411854756
 32
0.0
 13
1880.0
 23
3253.162411854756
 33
0.0
  0
SOLID
  5
10E6
330
422
100
AcDbEntity
  8
SUNPOU
100
AcDbTrace
 10
1760.0
 20
3259.829078521422
 30
0.0
 11
1760.0
 21
3246.495745188088
 31
0.0
 12
1800.0
 22
3253.162411854756
 32
0.0
 13
1800.0
 23
3253.162411854756
 33
0.0
  0
POINT
  5
10E7
330
422
100
AcDbEntity
  8
DEFPOINTS
 62
     0
100
AcDbPoint
 10
1880.0
 20
3400.0
 30
0.0
  0
POINT
  5
10E8
330
422
100
AcDbEntity
  8
DEFPOINTS
 62
     0
100
AcDbPoint
 10
1800.0
 20
3400.0
 30
0.0
  0
POINT
  5
10E9
330
422
100
AcDbEntity
  8
DEFPOINTS
 62
     0
100
AcDbPoint
 10
1800.0
 20
3253.162411854756
 30
0.0
  0
ENDBLK
  5
6D7
330
422
100
AcDbEntity
  8
0
100
AcDbBlockEnd
  0
BLOCK
  5
6F0
330
431
100
AcDbEntity
  8
0
100
AcDbBlockBegin
  2
*D12
 70
     1
 10
0.0
 20
0.0
 30
0.0
  3
*D12
  1

  0
LINE
  5
10EA
330
431
100
AcDbEntity
  8
SUNPOU
100
AcDbLine
 10
3720.0
 20
3405.0
 30
0.0
 11
3720.0
 21
3233.162411854755
 31
0.0
  0
LINE
  5
10EB
330
431
100
AcDbEntity
  8
SUNPOU
100
AcDbLine
 10
3800.000000000001
 20
3380.0
 30
0.0
 11
3800.000000000001
 21
3233.162411854755
 31
0.0
  0
LINE
  5
10EC
330
431
100
AcDbEntity
  8
SUNPOU
100
AcDbLine
 10
3680.0
 20
3253.162411854756
 30
0.0
 11
3640.0
 21
3253.162411854756
 31
0.0
  0
LINE
  5
10ED
330
431
100
AcDbEntity
  8
SUNPOU
100
AcDbLine
 10
3840.000000000001
 20
3253.162411854756
 30
0.0
 11
3880.000000000001
 21
3253.162411854756
 31
0.0
  0
MTEXT
  5
10EE
330
431
100
AcDbEntity
  8
SUNPOU
100
AcDbMText
 10
3750.0
 20
3188.86041350091
 30
0.0
 40
60.0
 41
0.0
 71
     5
 72
     5
  1
\A1;80
  7
EXT08
 73
     1
 44
1.0
1001
ACAD
1000
MTEXTBEGIN
1070
    73
1070
     1
1070
    44
1040
1.0
1070
    74
1070
     0
1000
MTEXTEND
  0
LINE
  5
10EF
330
431
100
AcDbEntity
  8
SUNPOU
100
AcDbLine
 10
3720.0
 20
3253.162411854756
 30
0.0
 11
3800.000000000001
 21
3253.162411854756
 31
0.0
  0
SOLID
  5
10F0
330
431
100
AcDbEntity
  8
SUNPOU
100
AcDbTrace
 10
3680.0
 20
3259.829078521422
 30
0.0
 11
3680.0
 21
3246.495745188088
 31
0.0
 12
3720.0
 22
3253.162411854756
 32
0.0
 13
3720.0
 23
3253.162411854756
 33
0.0
  0
SOLID
  5
10F1
330
431
100
AcDbEntity
  8
SUNPOU
100
AcDbTrace
 10
3840.000000000001
 20
3259.829078521422
 30
0.0
 11
3840.000000000001
 21
3246.495745188088
 31
0.0
 12
3800.000000000001
 22
3253.162411854756
 32
0.0
 13
3800.000000000001
 23
3253.162411854756
 33
0.0
  0
POINT
  5
10F2
330
431
100
AcDbEntity
  8
DEFPOINTS
 62
     0
100
AcDbPoint
 10
3720.0
 20
3425.0
 30
0.0
  0
POINT
  5
10F3
330
431
100
AcDbEntity
  8
DEFPOINTS
 62
     0
100
AcDbPoint
 10
3800.000000000001
 20
3400.0
 30
0.0
  0
POINT
  5
10F4
330
431
100
AcDbEntity
  8
DEFPOINTS
 62
     0
100
AcDbPoint
 10
3800.000000000001
 20
3253.162411854756
 30
0.0
  0
ENDBLK
  5
6FC
330
431
100
AcDbEntity
  8
0
100
AcDbBlockEnd
  0
BLOCK
  5
643
330
49C
100
AcDbEntity
  8
0
100
AcDbBlockBegin
  2
*D13
 70
     1
 10
0.0
 20
0.0
 30
0.0
  3
*D13
  1

  0
LINE
  5
10B2
330
49C
100
AcDbEntity
  8
SUNPOU
100
AcDbLine
 10
1080.0
 20
2300.0
 30
0.0
 11
730.0000000000001
 21
2300.0
 31
0.0
  0
LINE
  5
10B3
330
49C
100
AcDbEntity
  8
SUNPOU
100
AcDbLine
 10
750.0
 20
2260.000000000001
 30
0.0
 11
750.0
 21
1640.0
 31
0.0
  0
SOLID
  5
10B4
330
49C
100
AcDbEntity
  8
SUNPOU
100
AcDbTrace
 10
743.3333333333335
 20
2260.000000000001
 30
0.0
 11
756.6666666666667
 21
2260.000000000001
 31
0.0
 12
750.0
 22
2300.0
 32
0.0
 13
750.0
 23
2300.0
 33
0.0
  0
SOLID
  5
10B5
330
49C
100
AcDbEntity
  8
SUNPOU
100
AcDbTrace
 10
743.3333333333333
 20
1640.0
 30
0.0
 11
756.6666666666666
 21
1640.0
 31
0.0
 12
750.0
 22
1600.0
 32
0.0
 13
750.0
 23
1600.0
 33
0.0
  0
MTEXT
  5
10B6
330
49C
100
AcDbEntity
  8
SUNPOU
100
AcDbMText
 10
695.9999999999998
 20
1950.0
 30
0.0
 40
60.0
 41
0.0
 71
     5
 72
     5
  1
\A1;350
  7
EXT08
 11
0.0000000000000001
 21
1.0
 31
0.0
 73
     1
 44
1.0
1001
ACAD
1000
MTEXTBEGIN
1070
    73
1070
     1
1070
    44
1040
1.0
1070
    74
1070
     0
1000
MTEXTEND
  0
POINT
  5
10B7
330
49C
100
AcDbEntity
  8
DEFPOINTS
 62
     0
100
AcDbPoint
 10
1100.0
 20
2300.0
 30
0.0
  0
POINT
  5
10B8
330
49C
100
AcDbEntity
  8
DEFPOINTS
 62
     0
100
AcDbPoint
 10
750.0
 20
1600.0
 30
0.0
  0
POINT
  5
10B9
330
49C
100
AcDbEntity
  8
DEFPOINTS
 62
     0
100
AcDbPoint
 10
750.0
 20
1600.0
 30
0.0
  0
ENDBLK
  5
64D
330
49C
100
AcDbEntity
  8
0
100
AcDbBlockEnd
  0
BLOCK
  5
66F
330
4A8
100
AcDbEntity
  8
0
100
AcDbBlockBegin
  2
*D14
 70
     1
 10
0.0
 20
0.0
 30
0.0
  3
*D14
  1

  0
LINE
  5
1091
330
4A8
100
AcDbEntity
  8
SUNPOU
100
AcDbLine
 10
1839.999999999997
 20
1400.0
 30
0.0
 11
890.0000000000002
 21
1400.0
 31
0.0
  0
LINE
  5
1092
330
4A8
100
AcDbEntity
  8
SUNPOU
100
AcDbLine
 10
1839.999999999997
 20
950.0
 30
0.0
 11
890.0
 21
950.0000000000003
 31
0.0
  0
LINE
  5
1093
330
4A8
100
AcDbEntity
  8
SUNPOU
100
AcDbLine
 10
910.0000000000001
 20
1360.0
 30
0.0
 11
910.0
 21
990.0000000000003
 31
0.0
  0
SOLID
  5
1094
330
4A8
100
AcDbEntity
  8
SUNPOU
100
AcDbTrace
 10
903.3333333333334
 20
1360.0
 30
0.0
 11
916.6666666666667
 21
1360.0
 31
0.0
 12
910.0000000000001
 22
1400.0
 32
0.0
 13
910.0000000000001
 23
1400.0
 33
0.0
  0
SOLID
  5
1095
330
4A8
100
AcDbEntity
  8
SUNPOU
100
AcDbTrace
 10
903.3333333333333
 20
990.0000000000003
 30
0.0
 11
916.6666666666666
 21
990.0000000000003
 31
0.0
 12
910.0
 22
950.0000000000003
 32
0.0
 13
910.0
 23
950.0000000000003
 33
0.0
  0
MTEXT
  5
1096
330
4A8
100
AcDbEntity
  8
SUNPOU
100
AcDbMText
 10
855.9999999999998
 20
1175.0
 30
0.0
 40
60.0
 41
0.0
 71
     5
 72
     5
  1
\A1;225
  7
EXT08
 11
0.0000000000000001
 21
1.0
 31
0.0
 73
     1
 44
1.0
1001
ACAD
1000
MTEXTBEGIN
1070
    73
1070
     1
1070
    44
1040
1.0
1070
    74
1070
     0
1000
MTEXTEND
  0
POINT
  5
1097
330
4A8
100
AcDbEntity
  8
DEFPOINTS
 62
     0
100
AcDbPoint
 10
1859.999999999997
 20
1400.0
 30
0.0
  0
POINT
  5
1098
330
4A8
100
AcDbEntity
  8
DEFPOINTS
 62
     0
100
AcDbPoint
 10
1859.999999999997
 20
950.0
 30
0.0
  0
POINT
  5
1099
330
4A8
100
AcDbEntity
  8
DEFPOINTS
 62
     0
100
AcDbPoint
 10
910.0
 20
950.0000000000003
 30
0.0
  0
ENDBLK
  5
679
330
4A8
100
AcDbEntity
  8
0
100
AcDbBlockEnd
  0
BLOCK
  5
664
330
4B4
100
AcDbEntity
  8
0
100
AcDbBlockBegin
  2
*D15
 70
     1
 10
0.0
 20
0.0
 30
0.0
  3
*D15
  1

  0
LINE
  5
109A
330
4B4
100
AcDbEntity
  8
SUNPOU
100
AcDbLine
 10
1120.556
 20
1600.0
 30
0.0
 11
730.0000000000002
 21
1600.0
 31
0.0
  0
LINE
  5
109B
330
4B4
100
AcDbEntity
  8
SUNPOU
100
AcDbLine
 10
1080.0
 20
750.0
 30
0.0
 11
730.0
 21
750.0
 31
0.0
  0
LINE
  5
109C
330
4B4
100
AcDbEntity
  8
SUNPOU
100
AcDbLine
 10
750.0000000000002
 20
1560.0
 30
0.0
 11
750.0
 21
790.0000000000001
 31
0.0
  0
SOLID
  5
109D
330
4B4
100
AcDbEntity
  8
SUNPOU
100
AcDbTrace
 10
743.3333333333336
 20
1560.0
 30
0.0
 11
756.6666666666669
 21
1560.0
 31
0.0
 12
750.0000000000002
 22
1600.0
 32
0.0
 13
750.0000000000002
 23
1600.0
 33
0.0
  0
SOLID
  5
109E
330
4B4
100
AcDbEntity
  8
SUNPOU
100
AcDbTrace
 10
743.3333333333335
 20
790.0000000000001
 30
0.0
 11
756.6666666666667
 21
790.0000000000001
 31
0.0
 12
750.0
 22
750.0
 32
0.0
 13
750.0
 23
750.0
 33
0.0
  0
MTEXT
  5
109F
330
4B4
100
AcDbEntity
  8
SUNPOU
100
AcDbMText
 10
696.0
 20
1175.0
 30
0.0
 40
60.0
 41
0.0
 71
     5
 72
     5
  1
\A1;425
  7
EXT08
 11
0.0000000000000001
 21
1.0
 31
0.0
 73
     1
 44
1.0
1001
ACAD
1000
MTEXTBEGIN
1070
    73
1070
     1
1070
    44
1040
1.0
1070
    74
1070
     0
1000
MTEXTEND
  0
POINT
  5
10A0
330
4B4
100
AcDbEntity
  8
DEFPOINTS
 62
     0
100
AcDbPoint
 10
1140.556
 20
1600.0
 30
0.0
  0
POINT
  5
10A1
330
4B4
100
AcDbEntity
  8
DEFPOINTS
 62
     0
100
AcDbPoint
 10
1100.0
 20
750.0
 30
0.0
  0
POINT
  5
10A2
330
4B4
100
AcDbEntity
  8
DEFPOINTS
 62
     0
100
AcDbPoint
 10
750.0
 20
750.0
 30
0.0
  0
ENDBLK
  5
66E
330
4B4
100
AcDbEntity
  8
0
100
AcDbBlockEnd
  0
BLOCK
  5
64E
330
4C0
100
AcDbEntity
  8
0
100
AcDbBlockBegin
  2
*D16
 70
     1
 10
0.0
 20
0.0
 30
0.0
  3
*D16
  1

  0
LINE
  5
10AA
330
4C0
100
AcDbEntity
  8
SUNPOU
100
AcDbLine
 10
770.0
 20
749.9999999999999
 30
0.0
 11
930.0
 21
749.9999999999999
 31
0.0
  0
LINE
  5
10AB
330
4C0
100
AcDbEntity
  8
SUNPOU
100
AcDbLine
 10
910.0000000000001
 20
910.0
 30
0.0
 11
910.0000000000001
 21
789.9999999999999
 31
0.0
  0
MTEXT
  5
10AC
330
4C0
100
AcDbEntity
  8
SUNPOU
100
AcDbMText
 10
851.5896378831202
 20
850.0
 30
0.0
 40
60.0
 41
0.0
 71
     5
 72
     5
  1
\A1;100
  7
EXT08
 11
0.0000000000000001
 21
1.0
 31
0.0
 73
     1
 44
1.0
1001
ACAD
1000
MTEXTBEGIN
1070
    73
1070
     1
1070
    44
1040
1.0
1070
    74
1070
     0
1000
MTEXTEND
  0
SOLID
  5
10AD
330
4C0
100
AcDbEntity
  8
SUNPOU
100
AcDbTrace
 10
903.3333333333334
 20
910.0
 30
0.0
 11
916.6666666666667
 21
910.0
 31
0.0
 12
910.0000000000001
 22
950.0
 32
0.0
 13
910.0000000000001
 23
950.0
 33
0.0
  0
SOLID
  5
10AE
330
4C0
100
AcDbEntity
  8
SUNPOU
100
AcDbTrace
 10
903.3333333333334
 20
789.9999999999999
 30
0.0
 11
916.6666666666667
 21
789.9999999999999
 31
0.0
 12
910.0
 22
749.9999999999999
 32
0.0
 13
910.0
 23
749.9999999999999
 33
0.0
  0
POINT
  5
10AF
330
4C0
100
AcDbEntity
  8
DEFPOINTS
 62
     0
100
AcDbPoint
 10
910.0
 20
950.0
 30
0.0
  0
POINT
  5
10B0
330
4C0
100
AcDbEntity
  8
DEFPOINTS
 62
     0
100
AcDbPoint
 10
750.0
 20
750.0
 30
0.0
  0
POINT
  5
10B1
330
4C0
100
AcDbEntity
  8
DEFPOINTS
 62
     0
100
AcDbPoint
 10
910.0
 20
749.9999999999999
 30
0.0
  0
ENDBLK
  5
658
330
4C0
100
AcDbEntity
  8
0
100
AcDbBlockEnd
  0
BLOCK
  5
659
330
4CC
100
AcDbEntity
  8
0
100
AcDbBlockBegin
  2
*D17
 70
     1
 10
0.0
 20
0.0
 30
0.0
  3
*D17
  1

  0
LINE
  5
10A3
330
4CC
100
AcDbEntity
  8
SUNPOU
100
AcDbLine
 10
910.0
 20
1560.0
 30
0.0
 11
910.0
 21
1440.0
 31
0.0
  0
MTEXT
  5
10A4
330
4CC
100
AcDbEntity
  8
SUNPOU
100
AcDbMText
 10
850.8621418545736
 20
1500.0
 30
0.0
 40
60.0
 41
0.0
 71
     5
 72
     5
  1
\A1;100
  7
EXT08
 11
0.0000000000000001
 21
1.0
 31
0.0
 73
     1
 44
1.0
1001
ACAD
1000
MTEXTBEGIN
1070
    73
1070
     1
1070
    44
1040
1.0
1070
    74
1070
     0
1000
MTEXTEND
  0
SOLID
  5
10A5
330
4CC
100
AcDbEntity
  8
SUNPOU
100
AcDbTrace
 10
903.3333333333333
 20
1560.0
 30
0.0
 11
916.6666666666666
 21
1560.0
 31
0.0
 12
910.0
 22
1600.0
 32
0.0
 13
910.0
 23
1600.0
 33
0.0
  0
SOLID
  5
10A6
330
4CC
100
AcDbEntity
  8
SUNPOU
100
AcDbTrace
 10
903.3333333333333
 20
1440.0
 30
0.0
 11
916.6666666666666
 21
1440.0
 31
0.0
 12
910.0
 22
1400.0
 32
0.0
 13
910.0
 23
1400.0
 33
0.0
  0
POINT
  5
10A7
330
4CC
100
AcDbEntity
  8
DEFPOINTS
 62
     0
100
AcDbPoint
 10
910.0
 20
1600.0
 30
0.0
  0
POINT
  5
10A8
330
4CC
100
AcDbEntity
  8
DEFPOINTS
 62
     0
100
AcDbPoint
 10
910.0
 20
1400.0
 30
0.0
  0
POINT
  5
10A9
330
4CC
100
AcDbEntity
  8
DEFPOINTS
 62
     0
100
AcDbPoint
 10
910.0
 20
1400.0
 30
0.0
  0
ENDBLK
  5
663
330
4CC
100
AcDbEntity
  8
0
100
AcDbBlockEnd
  0
BLOCK
  5
E5B
330
E58
100
AcDbEntity
  8
0
100
AcDbBlockBegin
  2
_Dot
 70
     0
 10
0.0
 20
0.0
 30
0.0
  3
_Dot
  1

  0
LWPOLYLINE
  5
E59
330
E58
100
AcDbEntity
  8
0
  6
ByBlock
 62
     0
100
AcDbPolyline
 90
        2
 70
     1
 43
0.5
 10
-0.25
 20
0.0
 42
1.0
 10
0.25
 20
0.0
 42
1.0
  0
LINE
  5
E5A
330
E58
100
AcDbEntity
  8
0
  6
ByBlock
 62
     0
370
    -2
100
AcDbLine
 10
-0.5
 20
0.0
 30
0.0
 11
-1.0
 21
0.0
 31
0.0
  0
ENDBLK
  5
E5C
330
E58
100
AcDbEntity
  8
0
100
AcDbBlockEnd
  0
BLOCK
  5
E5F
330
E5E
100
AcDbEntity
  8
0
100
AcDbBlockBegin
  2
_None
 70
     0
 10
0.0
 20
0.0
 30
0.0
  3
_None
  1

  0
ENDBLK
  5
E60
330
E5E
100
AcDbEntity
  8
0
100
AcDbBlockEnd
  0
BLOCK
  5
11E2
330
11E1
100
AcDbEntity
  8
0
100
AcDbBlockBegin
  2
L50-3.2
 70
     0
 10
0.0
 20
0.0
 30
0.0
  3
L50-3.2
  1

  0
LINE
  5
11E3
330
11E1
100
AcDbEntity
  8
SJC
100
AcDbLine
 10
0.0000000000009095
 20
25.0
 30
0.0
 11
0.0000000000009095
 21
-18.99999999999636
 31
0.0
  0
LINE
  5
11E4
330
11E1
100
AcDbEntity
  8
SJC
100
AcDbLine
 10
3.200000000000727
 20
25.0
 30
0.0
 11
3.200000000000727
 21
-18.59999999998763
 31
0.0
  0
ARC
  5
11E5
330
11E1
100
AcDbEntity
  8
SJC
100
AcDbCircle
 10
6.400000000000545
 20
-18.59999999998763
 30
0.0
 40
3.2
100
AcDbArc
 50
180.0
 51
270.0
  0
ARC
  5
11E6
330
11E1
100
AcDbEntity
  8
SJC
100
AcDbCircle
 10
6.000000000000909
 20
-18.99999999999636
 30
0.0
 40
6.0
100
AcDbArc
 50
180.0
 51
270.0
  0
LINE
  5
11E7
330
11E1
100
AcDbEntity
  8
SJC
100
AcDbLine
 10
50.00000000000182
 20
-21.799999999992
 30
0.0
 11
50.00000000000182
 21
-24.99999999999273
 31
0.0
  0
LINE
  5
11E8
330
11E1
100
AcDbEntity
  8
SJC
100
AcDbLine
 10
6.000000000001818
 20
-24.99999999999636
 30
0.0
 11
50.00000000000182
 21
-24.99999999999273
 31
0.0
  0
LINE
  5
11E9
330
11E1
100
AcDbEntity
  8
SJC
100
AcDbLine
 10
6.400000000000545
 20
-21.79999999998836
 30
0.0
 11
50.00000000000182
 21
-21.799999999992
 31
0.0
  0
LINE
  5
11EA
330
11E1
100
AcDbEntity
  8
SJC
100
AcDbLine
 10
0.0000000000009095
 20
25.0
 30
0.0
 11
3.200000000000727
 21
25.0
 31
0.0
  0
ENDBLK
  5
11EB
330
11E1
100
AcDbEntity
  8
0
100
AcDbBlockEnd
  0
BLOCK
  5
1249
330
123D
100
AcDbEntity
  8
0
100
AcDbBlockBegin
  2
*D21
 70
     1
 10
0.0
 20
0.0
 30
0.0
  3
*D21
  1

  0
LINE
  5
1256
330
123D
100
AcDbEntity
  8
SUNPOU
370
    -2
100
AcDbLine
 10
3852.576483784105
 20
1449.999999999992
 30
0.0
 11
3652.576483784105
 21
1449.999999999992
 31
0.0
  0
LINE
  5
1257
330
123D
100
AcDbEntity
  8
SUNPOU
370
    -2
100
AcDbLine
 10
3852.576483784105
 20
1349.999999999992
 30
0.0
 11
3652.576483784105
 21
1349.999999999992
 31
0.0
  0
LINE
  5
1258
330
123D
100
AcDbEntity
  8
SUNPOU
370
    -2
100
AcDbLine
 10
3672.576483784105
 20
1489.999999999992
 30
0.0
 11
3672.576483784105
 21
1529.999999999992
 31
0.0
  0
LINE
  5
1259
330
123D
100
AcDbEntity
  8
SUNPOU
370
    -2
100
AcDbLine
 10
3672.576483784105
 20
1309.999999999992
 30
0.0
 11
3672.576483784105
 21
1269.999999999992
 31
0.0
  0
MTEXT
  5
125A
330
123D
100
AcDbEntity
  8
SUNPOU
100
AcDbMText
 10
3608.489608166471
 20
1397.793871348525
 30
0.0
 40
60.0
 41
0.0
 71
     5
 72
     1
  1
\A1;50
  7
EXT08
 11
0.0000000000000001
 21
1.0
 31
0.0
 73
     1
 44
1.0
1001
ACAD
1000
MTEXTBEGIN
1070
    73
1070
     1
1070
    44
1040
1.0
1070
    74
1070
     0
1000
MTEXTEND
  0
LINE
  5
125B
330
123D
100
AcDbEntity
  8
SUNPOU
370
    -2
100
AcDbLine
 10
3672.576483784105
 20
1449.999999999992
 30
0.0
 11
3672.576483784105
 21
1349.999999999992
 31
0.0
  0
SOLID
  5
125C
330
123D
100
AcDbEntity
  8
SUNPOU
100
AcDbTrace
 10
3665.909817117439
 20
1489.999999999992
 30
0.0
 11
3679.243150450772
 21
1489.999999999992
 31
0.0
 12
3672.576483784105
 22
1449.999999999992
 32
0.0
 13
3672.576483784105
 23
1449.999999999992
 33
0.0
  0
SOLID
  5
125D
330
123D
100
AcDbEntity
  8
SUNPOU
100
AcDbTrace
 10
3665.909817117439
 20
1309.999999999992
 30
0.0
 11
3679.243150450772
 21
1309.999999999992
 31
0.0
 12
3672.576483784105
 22
1349.999999999992
 32
0.0
 13
3672.576483784105
 23
1349.999999999992
 33
0.0
  0
POINT
  5
125E
330
123D
100
AcDbEntity
  8
DEFPOINTS
 62
     0
100
AcDbPoint
 10
3872.576483784106
 20
1449.999999999992
 30
0.0
  0
POINT
  5
125F
330
123D
100
AcDbEntity
  8
DEFPOINTS
 62
     0
100
AcDbPoint
 10
3872.576483784106
 20
1349.999999999992
 30
0.0
  0
POINT
  5
1260
330
123D
100
AcDbEntity
  8
DEFPOINTS
 62
     0
100
AcDbPoint
 10
3672.576483784105
 20
1349.999999999992
 30
0.0
  0
ENDBLK
  5
124A
330
123D
100
AcDbEntity
  8
0
100
AcDbBlockEnd
  0
ENDSEC
  0
SECTION
  2
ENTITIES
  0
LINE
  5
144
330
18
100
AcDbEntity
  8
CENTER
100
AcDbLine
 10
3799.999999999999
 20
4236.018680186027
 30
0.0
 11
3800.000000000001
 21
3400.000000000001
 31
0.0
  0
LINE
  5
145
330
18
100
AcDbEntity
  8
CENTER
100
AcDbLine
 10
1800.0
 20
4236.018680186027
 30
0.0
 11
1800.0
 21
3400.0
 31
0.0
  0
LINE
  5
146
330
18
100
AcDbEntity
  8
MOJI2
100
AcDbLine
 10
747.2463149870309
 20
4844.399624391829
 30
0.0
 11
1009.899433923761
 21
4844.399624391829
 31
0.0
  0
LINE
  5
148
330
18
100
AcDbEntity
  8
CENTER
100
AcDbLine
 10
6050.0
 20
4180.0
 30
0.0
 11
6050.0
 21
3380.0
 31
0.0
  0
LINE
  5
149
330
18
100
AcDbEntity
  8
CENTER
100
AcDbLine
 10
6015.0
 20
3500.0
 30
0.0
 11
6085.0
 21
3500.0
 31
0.0
  0
LINE
  5
14A
330
18
100
AcDbEntity
  8
CENTER
100
AcDbLine
 10
6015.0
 20
3725.0
 30
0.0
 11
6085.0
 21
3725.0
 31
0.0
  0
LINE
  5
14C
330
18
100
AcDbEntity
  8
MOJI2
100
AcDbLine
 10
4850.879277464202
 20
2960.0
 30
0.0
 11
5434.789216874105
 21
2960.0
 31
0.0
  0
LINE
  5
150
330
18
100
AcDbEntity
  8
CENTER
100
AcDbLine
 10
2130.599999999998
 20
800.0
 30
0.0
 11
2190.599999999998
 21
800.0
 31
0.0
  0
LINE
  5
151
330
18
100
AcDbEntity
  8
CENTER
100
AcDbLine
 10
2130.3
 20
1550.0
 30
0.0
 11
2190.3
 21
1550.0
 31
0.0
  0
LINE
  5
152
330
18
100
AcDbEntity
  8
CENTER
100
AcDbLine
 10
2000.0
 20
2340.584806097288
 30
0.0
 11
2000.0
 21
710.0
 31
0.0
  0
LINE
  5
153
330
18
100
AcDbEntity
  8
CENTER
100
AcDbLine
 10
1200.0
 20
760.0
 30
0.0
 11
1200.0
 21
840.0
 31
0.0
  0
LINE
  5
154
330
18
100
AcDbEntity
  8
CENTER
100
AcDbLine
 10
1230.0
 20
800.0
 30
0.0
 11
1170.0
 21
800.0
 31
0.0
  0
LINE
  5
155
330
18
100
AcDbEntity
  8
CENTER
100
AcDbLine
 10
1200.0
 20
1590.0
 30
0.0
 11
1200.0
 21
1510.0
 31
0.0
  0
LINE
  5
156
330
18
100
AcDbEntity
  8
CENTER
100
AcDbLine
 10
1230.0
 20
1550.0
 30
0.0
 11
1170.0
 21
1550.0
 31
0.0
  0
LINE
  5
157
330
18
100
AcDbEntity
  8
CENTER
100
AcDbLine
 10
1839.999999999997
 20
760.0
 30
0.0
 11
1839.999999999997
 21
840.0
 31
0.0
  0
LINE
  5
158
330
18
100
AcDbEntity
  8
CENTER
100
AcDbLine
 10
1869.999999999997
 20
800.0
 30
0.0
 11
1809.999999999997
 21
800.0
 31
0.0
  0
LINE
  5
159
330
18
100
AcDbEntity
  8
CENTER
100
AcDbLine
 10
2160.599999999998
 20
760.0
 30
0.0
 11
2160.599999999998
 21
840.0
 31
0.0
  0
LINE
  5
15A
330
18
100
AcDbEntity
  8
CENTER
100
AcDbLine
 10
1839.7
 20
1590.0
 30
0.0
 11
1839.7
 21
1510.0
 31
0.0
  0
LINE
  5
15B
330
18
100
AcDbEntity
  8
CENTER
100
AcDbLine
 10
1869.7
 20
1550.0
 30
0.0
 11
1809.7
 21
1550.0
 31
0.0
  0
LINE
  5
15C
330
18
100
AcDbEntity
  8
CENTER
100
AcDbLine
 10
2160.3
 20
1590.0
 30
0.0
 11
2160.3
 21
1510.0
 31
0.0
  0
LINE
  5
15D
330
18
100
AcDbEntity
  8
CENTER
100
AcDbLine
 10
2770.0
 20
800.0
 30
0.0
 11
2830.0
 21
800.0
 31
0.0
  0
LINE
  5
15E
330
18
100
AcDbEntity
  8
CENTER
100
AcDbLine
 10
2800.0
 20
760.0
 30
0.0
 11
2800.0
 21
840.0
 31
0.0
  0
LWPOLYLINE
  5
15F
330
18
100
AcDbEntity
  8
MOJI
100
AcDbPolyline
 90
        4
 70
     0
 43
0.0
 10
2780.38344822879
 20
1048.048540118298
 42
0.4274428357941544
 10
2813.758029793847
 20
1082.958253974426
 42
-1.045997049823064
 10
2813.758029793847
 20
1082.958253974426
 42
-0.5977673222641586
 10
2842.863777281444
 20
1111.661797156586
 42
-14.94395005431955
  0
LINE
  5
165
330
18
100
AcDbEntity
  8
CENTER
100
AcDbLine
 10
2770.0
 20
1550.0
 30
0.0
 11
2830.0
 21
1550.0
 31
0.0
  0
LINE
  5
166
330
18
100
AcDbEntity
  8
CENTER
100
AcDbLine
 10
2800.0
 20
1590.0
 30
0.0
 11
2800.0
 21
1510.0
 31
0.0
  0
LINE
  5
16E
330
18
100
AcDbEntity
  8
MOJI
100
AcDbLine
 10
2250.0
 20
1260.0
 30
0.0
 11
2390.0
 21
1260.0
 31
0.0
  0
LINE
  5
16F
330
18
100
AcDbEntity
  8
MOJI
100
AcDbLine
 10
2390.0
 20
1260.0
 30
0.0
 11
2390.0
 21
1180.0
 31
0.0
  0
LINE
  5
170
330
18
100
AcDbEntity
  8
MOJI
100
AcDbLine
 10
2390.0
 20
1180.0
 30
0.0
 11
2430.0
 21
1220.0
 31
0.0
  0
LINE
  5
171
330
18
100
AcDbEntity
  8
MOJI
100
AcDbLine
 10
2430.0
 20
1220.0
 30
0.0
 11
2350.0
 21
1220.0
 31
0.0
  0
LINE
  5
172
330
18
100
AcDbEntity
  8
MOJI
100
AcDbLine
 10
1750.0
 20
1260.0
 30
0.0
 11
1610.0
 21
1260.0
 31
0.0
  0
LINE
  5
173
330
18
100
AcDbEntity
  8
MOJI
100
AcDbLine
 10
1570.0
 20
1220.0
 30
0.0
 11
1650.0
 21
1220.0
 31
0.0
  0
LINE
  5
174
330
18
100
AcDbEntity
  8
MOJI
100
AcDbLine
 10
1610.0
 20
1180.0
 30
0.0
 11
1570.0
 21
1220.0
 31
0.0
  0
LINE
  5
175
330
18
100
AcDbEntity
  8
MOJI
100
AcDbLine
 10
1610.0
 20
1260.0
 30
0.0
 11
1610.0
 21
1180.0
 31
0.0
  0
SOLID
  5
176
330
18
100
AcDbEntity
  8
MOJI
100
AcDbTrace
 10
2560.97175680482
 20
4209.707778104683
 30
0.0
 11
2548.581571646284
 21
4214.633332846534
 31
0.0
 12
2540.0
 22
4175.0
 32
0.0
 13
2540.0
 23
4175.0
 33
0.0
  0
LINE
  5
177
330
18
100
AcDbEntity
  8
MOJI
100
AcDbLine
 10
2554.776664225552
 20
4212.170555475609
 30
0.0
 11
2618.64868342636
 21
4372.84
 31
0.0
  0
LINE
  5
178
330
18
100
AcDbEntity
  8
MOJI
100
AcDbLine
 10
2618.64868342636
 20
4372.84
 30
0.0
 11
3092.461956530282
 21
4372.84
 31
0.0
  0
LINE
  5
17B
330
18
100
AcDbEntity
  8
MOJI
100
AcDbLine
 10
2718.64868342636
 20
3597.157371598441
 30
0.0
 11
3299.547363757283
 21
3597.157371598441
 31
0.0
  0
SOLID
  5
17F
330
18
100
AcDbEntity
  8
MOJI
100
AcDbTrace
 10
2835.614292216477
 20
1043.093407813467
 30
0.0
 11
2845.444389830003
 21
1052.101568485121
 31
0.0
 12
2813.504859008276
 22
1077.087780989871
 32
0.0
 13
2813.504859008276
 23
1077.087780989871
 33
0.0
  0
LINE
  5
180
330
18
100
AcDbEntity
  8
MOJI
100
AcDbLine
 10
2813.504859008281
 20
1077.087780989868
 30
0.0
 11
2937.29736685272
 21
942.0000000000001
 31
0.0
  0
LINE
  5
181
330
18
100
AcDbEntity
  8
MOJI
100
AcDbLine
 10
2937.29736685272
 20
942.0000000000001
 30
0.0
 11
3621.464030005187
 21
942.0
 31
0.0
  0
SOLID
  5
182
330
18
100
AcDbEntity
  8
MOJI
100
AcDbTrace
 10
2553.642618147327
 20
712.5867277301041
 30
0.0
 11
2564.931105470141
 21
719.6823483330153
 31
0.0
 12
2538.0
 22
750.0
 32
0.0
 13
2538.0
 23
750.0
 33
0.0
  0
LINE
  5
183
330
18
100
AcDbEntity
  8
MOJI
100
AcDbLine
 10
2559.286861808734
 20
716.1345380315598
 30
0.0
 11
2626.0
 21
609.9999999999998
 31
0.0
  0
LINE
  5
184
330
18
100
AcDbEntity
  8
MOJI
100
AcDbLine
 10
2626.0
 20
609.9999999999998
 30
0.0
 11
3224.895986411568
 21
610.0
 31
0.0
  0
SOLID
  5
185
330
18
100
AcDbEntity
  8
MOJI
100
AcDbTrace
 10
4512.676540308319
 20
2244.548366883617
 30
0.0
 11
4501.172820945529
 21
2237.807282504979
 31
0.0
 12
4527.14793376284
 22
2206.666666605925
 32
0.0
 13
4527.14793376284
 23
2206.666666605925
 33
0.0
  0
LINE
  5
186
330
18
100
AcDbEntity
  8
MOJI
100
AcDbLine
 10
4506.924680626925
 20
2241.177824694298
 30
0.0
 11
4395.14793376284
 21
2431.925819376692
 31
0.0
  0
LINE
  5
187
330
18
100
AcDbEntity
  8
MOJI
100
AcDbLine
 10
4395.14793376284
 20
2431.925819376692
 30
0.0
 11
3805.572312501227
 21
2431.925819376692
 31
0.0
  0
SOLID
  5
188
330
18
100
AcDbEntity
  8
MOJI
100
AcDbTrace
 10
5379.225387885697
 20
2616.838056901795
 30
0.0
 11
5368.429834950753
 21
2624.663260707869
 31
0.0
 12
5350.352
 22
2588.364000000001
 32
0.0
 13
5350.352
 23
2588.364000000001
 33
0.0
  0
LINE
  5
189
330
18
100
AcDbEntity
  8
MOJI
100
AcDbLine
 10
5373.827611418225
 20
2620.750658804832
 30
0.0
 11
5540.000000000002
 21
2850.000000000001
 31
0.0
  0
LINE
  5
18A
330
18
100
AcDbEntity
  8
MOJI
100
AcDbLine
 10
5540.000000000002
 20
2850.000000000001
 30
0.0
 11
6480.306296223476
 21
2850.0
 31
0.0
  0
SOLID
  5
18B
330
18
100
AcDbEntity
  8
MOJI
100
AcDbTrace
 10
5534.531751641728
 20
2561.117687022465
 30
0.0
 11
5523.927490825154
 21
2569.200225628117
 31
0.0
 12
5504.982005416487
 22
2533.346173875568
 32
0.0
 13
5504.982005416487
 23
2533.346173875568
 33
0.0
  0
LINE
  5
18C
330
18
100
AcDbEntity
  8
MOJI
100
AcDbLine
 10
5529.229621233441
 20
2565.158956325291
 30
0.0
 11
5612.889109792909
 21
2674.919896513755
 31
0.0
  0
LINE
  5
18D
330
18
100
AcDbEntity
  8
MOJI
100
AcDbLine
 10
5612.889109792909
 20
2674.919896513755
 30
0.0
 11
6166.230620659545
 21
2674.919896513757
 31
0.0
  0
SOLID
  5
18E
330
18
100
AcDbEntity
  8
MOJI
100
AcDbTrace
 10
5829.319675327145
 20
2424.014301112784
 30
0.0
 11
5818.649108695962
 21
2432.009098517801
 31
0.0
 12
5799.999999796501
 22
2395.999999921746
 32
0.0
 13
5799.999999796501
 23
2395.999999921746
 33
0.0
  0
LINE
  5
18F
330
18
100
AcDbEntity
  8
MOJI
100
AcDbLine
 10
5823.984392011554
 20
2428.011699815293
 30
0.0
 11
5890.204741061194
 21
2516.395258657054
 31
0.0
  0
LINE
  5
190
330
18
100
AcDbEntity
  8
MOJI
100
AcDbLine
 10
5890.204741061194
 20
2516.395258657054
 30
0.0
 11
6319.198433011909
 21
2516.395258657056
 31
0.0
  0
SOLID
  5
191
330
18
100
AcDbEntity
  8
MOJI
100
AcDbTrace
 10
5877.668125555686
 20
2169.486389484287
 30
0.0
 11
5889.355572089199
 21
2175.903660812823
 31
0.0
 12
5870.0
 22
2208.0
 32
0.0
 13
5870.0
 23
2208.0
 33
0.0
  0
LINE
  5
192
330
18
100
AcDbEntity
  8
MOJI
100
AcDbLine
 10
5883.511848822442
 20
2172.695025148555
 30
0.0
 11
6022.0
 21
1810.0
 31
0.0
  0
LINE
  5
193
330
18
100
AcDbEntity
  8
MOJI
100
AcDbLine
 10
6022.0
 20
1810.0
 30
0.0
 11
6998.535681127484
 21
1809.999999999999
 31
0.0
  0
TEXT
  5
194
330
18
100
AcDbEntity
  8
MOJI2
100
AcDbText
 10
772.2463149870309
 20
4859.39962439183
 30
0.0
 40
80.0
  1
設置図 (1/20)
 41
0.8
  7
EXT08
100
AcDbText
  0
TEXT
  5
195
330
18
100
AcDbEntity
  8
MOJI2
100
AcDbText
 10
1758.098557241086
 20
2900.006186682737
 30
0.0
 40
80.0
  1
連結部詳細図 (1/10)
 41
0.8
  7
EXT08
100
AcDbText
  0
TEXT
  5
196
330
18
100
AcDbEntity
  8
MOJI2
100
AcDbText
 10
4868.282616601893
 20
2980.0
 30
0.0
 40
80.0
  1
A-A断面詳細図 (1/3)
 41
0.8
  7
EXT08
100
AcDbText
  0
LINE
  5
197
330
18
100
AcDbEntity
  8
MOJI2
100
AcDbLine
 10
1738.936310166736
 20
2880.006186682737
 30
0.0
 11
2215.92093777383
 21
2880.006186682737
 31
0.0
  0
TEXT
  5
199
330
18
100
AcDbEntity
  8
MOJI
100
AcDbText
 10
2629.217547330333
 20
4390.0
 30
0.0
 40
60.0
  1
既設ガードレール
 41
0.8
  7
EXT08
100
AcDbText
  0
TEXT
  5
19A
330
18
100
AcDbEntity
  8
MOJI
100
AcDbText
 10
2740.0
 20
3630.066037329564
 30
0.0
 40
60.0
  1
泥跳防止板　　t3.0
 41
0.8
  7
EXT08
100
AcDbText
  0
TEXT
  5
19C
330
18
100
AcDbEntity
  8
MOJI
100
AcDbText
 10
2688.727800275308
 20
634.9529019183973
 30
0.0
 40
60.0
  1
L-50\U+00D750\U+00D7t3.2
 41
0.8
  7
EXT08
100
AcDbText
  0
TEXT
  5
19D
330
18
100
AcDbEntity
  8
MOJI
100
AcDbText
 10
3050.740446386353
 20
965.0
 30
0.0
 40
60.0
  1
泥跳防止板　　t3.0
 41
0.8
  7
EXT08
100
AcDbText
  0
TEXT
  5
19E
330
18
100
AcDbEntity
  8
MOJI
100
AcDbText
 10
3807.842923685818
 20
2460.669637234852
 30
0.0
 40
60.0
  1
泥跳防止板　　t3.0
 41
0.8
  7
EXT08
100
AcDbText
  0
TEXT
  5
19F
330
18
100
AcDbEntity
  8
MOJI
100
AcDbText
 10
5988.960980727416
 20
2539.381586939585
 30
0.0
 40
60.0
  1
取付ボルト
 41
0.8
  7
EXT08
100
AcDbText
  0
TEXT
  5
1A0
330
18
100
AcDbEntity
  8
MOJI
100
AcDbText
 10
5545.0
 20
2875.0
 30
0.0
 40
60.0
  1
ガードレール支柱%%C114.3\U+00D7t4.5
 41
0.8
  7
EXT08
100
AcDbText
  0
TEXT
  5
1A1
330
18
100
AcDbEntity
  8
MOJI
100
AcDbText
 10
5718.483239182882
 20
2700.777670486298
 30
0.0
 40
60.0
  1
取付バンドt2.3
 41
0.8
  7
EXT08
100
AcDbText
  0
TEXT
  5
1A2
330
18
100
AcDbEntity
  8
MOJI
100
AcDbText
 10
6047.453472569359
 20
1849.905817666937
 30
0.0
 40
60.0
  1
縦枠　[-30\U+00D76\U+00D76\U+00D7405\U+00D7t2.3
 41
0.8
  7
EXT08
100
AcDbText
  0
TEXT
  5
1AA
330
18
100
AcDbEntity
  8
MOJI
100
AcDbText
 10
1590.0
 20
1100.0
 30
0.0
 40
60.0
  1
A
 41
0.8
  7
EXT08
100
AcDbText
  0
TEXT
  5
1AB
330
18
100
AcDbEntity
  8
MOJI
100
AcDbText
 10
2410.0
 20
1100.0
 30
0.0
 40
60.0
  1
A
 41
0.8
  7
EXT08
100
AcDbText
  0
LINE
  5
1AC
330
18
100
AcDbEntity
  8
CENTER
100
AcDbLine
 10
4832.375905654569
 20
2216.666666605
 30
0.0
 11
5700.957427370427
 21
2216.666666605
 31
0.0
  0
ARC
  5
1AE
330
18
100
AcDbEntity
  8
SJC
100
AcDbCircle
 10
5266.666666512501
 20
2216.666666605
 30
0.0
 40
396.3333332966726
100
AcDbArc
 50
188.4744533630089
 51
351.5255466369911
  0
ARC
  5
1AF
330
18
100
AcDbEntity
  8
SJC
100
AcDbCircle
 10
5266.666666512501
 20
2216.666666605
 30
0.0
 40
396.3333332966726
100
AcDbArc
 50
8.474453363009059
 51
171.525546636991
  0
CIRCLE
  5
1B0
330
18
100
AcDbEntity
  8
SJC
100
AcDbCircle
 10
5266.666666512501
 20
2216.666666605
 30
0.0
 40
350.9999999675326
  0
LINE
  5
1B1
330
18
100
AcDbEntity
  8
CENTER
100
AcDbLine
 10
5266.666666512501
 20
2683.3333332285
 30
0.0
 11
5266.666666512501
 21
1749.9999999815
 31
0.0
  0
LINE
  5
1B2
330
18
100
AcDbEntity
  8
CENTER
100
AcDbLine
 10
4733.333333228499
 20
2416.6666665865
 30
0.0
 11
4733.333333228499
 21
2083.333333284
 31
0.0
  0
ARC
  5
1B3
330
18
100
AcDbEntity
  8
SJC
100
AcDbCircle
 10
4817.999999887334
 20
2221.99999993784
 30
0.0
 40
15.333333331915
100
AcDbArc
 50
270.0
 51
0.0
  0
ARC
  5
1B4
330
18
100
AcDbEntity
  8
SJC
100
AcDbCircle
 10
4648.666666569666
 20
2221.99999993784
 30
0.0
 40
15.333333331915
100
AcDbArc
 50
180.0
 51
270.0
  0
LINE
  5
1B5
330
18
100
AcDbEntity
  8
SJC
100
AcDbLine
 10
4193.333333278451
 20
2229.9999999371
 30
0.0
 11
4193.3333
 21
2163.3334
 31
0.0
  0
LINE
  5
1B6
330
18
100
AcDbEntity
  8
SJC
100
AcDbLine
 10
4872.93452409672
 20
2186.666666607775
 30
0.0
 11
4193.333333278451
 21
2186.666666607775
 31
0.0
  0
LINE
  5
1B7
330
18
100
AcDbEntity
  8
SJC
100
AcDbLine
 10
4859.99999988345
 20
2206.666666605925
 30
0.0
 11
4193.333333278451
 21
2206.666666605925
 31
0.0
  0
LINE
  5
1B8
330
18
100
AcDbEntity
  8
SJC
100
AcDbLine
 10
4859.494712702651
 20
2171.33333327586
 30
0.0
 11
4619.99999990565
 21
2171.33333327586
 31
0.0
  0
LINE
  5
1B9
330
18
100
AcDbEntity
  8
SJC
100
AcDbLine
 10
4817.999999887334
 20
2206.666666605925
 30
0.0
 11
4648.666666569666
 21
2206.666666605925
 31
0.0
  0
LINE
  5
1BA
330
18
100
AcDbEntity
  8
SJC2
100
AcDbLine
 10
4799.999999888999
 20
2166.666666609625
 30
0.0
 11
4666.666666568
 21
2166.666666609625
 31
0.0
  0
ARC
  5
1BB
330
18
100
AcDbEntity
  8
SJC2
100
AcDbCircle
 10
4733.333333228499
 20
2197.499999940106
 30
0.0
 40
70.83333332678126
100
AcDbArc
 50
244.942384581697
 51
295.0576154183031
  0
LINE
  5
1BC
330
18
100
AcDbEntity
  8
SJC2
100
AcDbLine
 10
4778.333333224337
 20
2126.666666613325
 30
0.0
 11
4688.333333232662
 21
2126.666666613325
 31
0.0
  0
ARC
  5
1BD
330
18
100
AcDbEntity
  8
SJC2
100
AcDbCircle
 10
4688.333333232662
 20
2146.874999944789
 30
0.0
 40
20.20833333146407
100
AcDbArc
 50
222.0750220508436
 51
317.9249779491564
  0
LINE
  5
1BE
330
18
100
AcDbEntity
  8
SJC2
100
AcDbLine
 10
4666.666666568
 20
2166.666666609625
 30
0.0
 11
4666.666666568
 21
2171.33333327586
 31
0.0
  0
LINE
  5
1BF
330
18
100
AcDbEntity
  8
SJC2
100
AcDbLine
 10
4673.33333323405
 20
2133.333333279375
 30
0.0
 11
4673.33333323405
 21
2166.666666609625
 31
0.0
  0
LINE
  5
1C0
330
18
100
AcDbEntity
  8
SJC
100
AcDbLine
 10
4619.99999990565
 20
2186.666666607775
 30
0.0
 11
4619.99999990565
 21
2171.33333327586
 31
0.0
  0
LINE
  5
1C1
330
18
100
AcDbEntity
  8
SJC2
100
AcDbLine
 10
4703.333333231275
 20
2126.666666613325
 30
0.0
 11
4703.333333231275
 21
2166.666666609625
 31
0.0
  0
ARC
  5
1C2
330
18
100
AcDbEntity
  8
SJC
100
AcDbCircle
 10
4871.566678848232
 20
2167.093166102217
 30
0.0
 40
19.62123652232254
100
AcDbArc
 50
34.99722517535802
 51
86.00252625142017
  0
ARC
  5
1C3
330
18
100
AcDbEntity
  8
SJC
100
AcDbCircle
 10
4859.494712702651
 20
2155.999999943945
 30
0.0
 40
15.333333331915
100
AcDbArc
 50
8.474453363008596
 51
90.0
  0
LINE
  5
1C4
330
18
100
AcDbEntity
  8
SJC2
100
AcDbLine
 10
4799.999999888999
 20
2171.33333327586
 30
0.0
 11
4799.999999888999
 21
2166.666666609625
 31
0.0
  0
LINE
  5
1C5
330
18
100
AcDbEntity
  8
SJC2
100
AcDbLine
 10
4763.333333225725
 20
2126.666666613325
 30
0.0
 11
4763.333333225725
 21
2166.666666609625
 31
0.0
  0
ARC
  5
1C6
330
18
100
AcDbEntity
  8
SJC2
100
AcDbCircle
 10
4778.333333224337
 20
2146.874999944789
 30
0.0
 40
20.20833333146407
100
AcDbArc
 50
222.0750220508436
 51
317.9249779491564
  0
LINE
  5
1C7
330
18
100
AcDbEntity
  8
SJC2
100
AcDbLine
 10
4793.33333322295
 20
2133.333333279375
 30
0.0
 11
4793.33333322295
 21
2166.666666609625
 31
0.0
  0
LINE
  5
1C8
330
18
100
AcDbEntity
  8
SJC
100
AcDbLine
 10
4859.99999988345
 20
2206.666666605925
 30
0.0
 11
4859.99999988345
 21
2186.666666607775
 31
0.0
  0
LINE
  5
1C9
330
18
100
AcDbEntity
  8
SJC
100
AcDbLine
 10
4872.93452409672
 20
2246.666666602225
 30
0.0
 11
4619.99999990565
 21
2246.666666602225
 31
0.0
  0
LINE
  5
1CA
330
18
100
AcDbEntity
  8
SJC
100
AcDbLine
 10
4859.494712702651
 20
2261.999999934142
 30
0.0
 11
4619.99999990565
 21
2261.999999934142
 31
0.0
  0
LINE
  5
1CB
330
18
100
AcDbEntity
  8
SJC2
100
AcDbLine
 10
4799.999999888999
 20
2266.666666600375
 30
0.0
 11
4666.666666568
 21
2266.666666600375
 31
0.0
  0
LINE
  5
1CC
330
18
100
AcDbEntity
  8
SJC2
100
AcDbLine
 10
4778.333333224337
 20
2306.666666596675
 30
0.0
 11
4688.333333232662
 21
2306.666666596675
 31
0.0
  0
ARC
  5
1CD
330
18
100
AcDbEntity
  8
SJC2
100
AcDbCircle
 10
4733.333333228499
 20
2235.833333269894
 30
0.0
 40
70.83333332678126
100
AcDbArc
 50
64.942384581697
 51
115.057615418303
  0
LINE
  5
1CE
330
18
100
AcDbEntity
  8
SJC
100
AcDbLine
 10
4802.66666655542
 20
2221.99999993784
 30
0.0
 11
4663.999999901579
 21
2221.99999993784
 31
0.0
  0
LINE
  5
1CF
330
18
100
AcDbEntity
  8
SJC2
100
AcDbLine
 10
4759.999999892699
 20
2395.999999921746
 30
0.0
 11
4706.6666665643
 21
2395.999999921746
 31
0.0
  0
LINE
  5
1D0
330
18
100
AcDbEntity
  8
SJC2
100
AcDbLine
 10
4766.66666655875
 20
2389.333333255696
 30
0.0
 11
4699.99999989825
 21
2389.333333255696
 31
0.0
  0
LINE
  5
1D1
330
18
100
AcDbEntity
  8
SJC2
100
AcDbLine
 10
4699.99999989825
 20
2389.333333255696
 30
0.0
 11
4699.99999989825
 21
2306.666666596675
 31
0.0
  0
LINE
  5
1D2
330
18
100
AcDbEntity
  8
SJC2
100
AcDbLine
 10
4706.6666665643
 20
2395.999999921746
 30
0.0
 11
4706.6666665643
 21
2306.666666596675
 31
0.0
  0
ARC
  5
1D3
330
18
100
AcDbEntity
  8
SJC2
100
AcDbCircle
 10
4688.333333232662
 20
2286.458333265211
 30
0.0
 40
20.20833333146407
100
AcDbArc
 50
42.07502205084361
 51
137.9249779491564
  0
LINE
  5
1D4
330
18
100
AcDbEntity
  8
SJC2
100
AcDbLine
 10
4666.666666568
 20
2266.666666600375
 30
0.0
 11
4666.666666568
 21
2261.99999993414
 31
0.0
  0
LINE
  5
1D5
330
18
100
AcDbEntity
  8
SJC
100
AcDbLine
 10
4633.333333237749
 20
2221.99999993784
 30
0.0
 11
4633.333333237749
 21
2246.666666602225
 31
0.0
  0
LINE
  5
1D6
330
18
100
AcDbEntity
  8
SJC2
100
AcDbLine
 10
4673.33333323405
 20
2299.999999930625
 30
0.0
 11
4673.33333323405
 21
2266.666666600375
 31
0.0
  0
LINE
  5
1D7
330
18
100
AcDbEntity
  8
SJC
100
AcDbLine
 10
4648.666666569666
 20
2237.333333269754
 30
0.0
 11
4648.666666569666
 21
2246.666666602225
 31
0.0
  0
ARC
  5
1D8
330
18
100
AcDbEntity
  8
SJC
100
AcDbCircle
 10
4663.999999901579
 20
2237.333333269754
 30
0.0
 40
15.333333331915
100
AcDbArc
 50
180.0
 51
270.0
  0
LINE
  5
1D9
330
18
100
AcDbEntity
  8
SJC
100
AcDbLine
 10
4619.99999990565
 20
2261.99999993414
 30
0.0
 11
4619.99999990565
 21
2246.666666602225
 31
0.0
  0
LINE
  5
1DA
330
18
100
AcDbEntity
  8
SJC2
100
AcDbLine
 10
4703.333333231275
 20
2306.666666596675
 30
0.0
 11
4703.333333231275
 21
2266.666666600375
 31
0.0
  0
LINE
  5
1DB
330
18
100
AcDbEntity
  8
SJC2
100
AcDbLine
 10
4699.99999989825
 20
2246.666666602225
 30
0.0
 11
4699.99999989825
 21
2221.999999937842
 31
0.0
  0
LINE
  5
1DC
330
18
100
AcDbEntity
  8
SJC2
100
AcDbLine
 10
4706.6666665643
 20
2246.666666602225
 30
0.0
 11
4706.6666665643
 21
2221.99999993784
 31
0.0
  0
LINE
  5
1DD
330
18
100
AcDbEntity
  8
SJC2
100
AcDbLine
 10
4706.6666665643
 20
2395.999999921746
 30
0.0
 11
4699.99999989825
 21
2389.333333255696
 31
0.0
  0
ARC
  5
1DE
330
18
100
AcDbEntity
  8
SJC
100
AcDbCircle
 10
4872.28082734717
 20
2263.932936668345
 30
0.0
 40
17.27864003434713
100
AcDbArc
 50
272.1681686314371
 51
334.8389028892498
  0
ARC
  5
1DF
330
18
100
AcDbEntity
  8
SJC
100
AcDbCircle
 10
4859.494712702651
 20
2277.333333266056
 30
0.0
 40
15.333333331915
100
AcDbArc
 50
270.0
 51
351.5255466369918
  0
LINE
  5
1E0
330
18
100
AcDbEntity
  8
SJC2
100
AcDbLine
 10
4766.66666655875
 20
2389.333333255696
 30
0.0
 11
4766.66666655875
 21
2306.666666596675
 31
0.0
  0
LINE
  5
1E1
330
18
100
AcDbEntity
  8
SJC2
100
AcDbLine
 10
4759.999999892699
 20
2395.999999921746
 30
0.0
 11
4759.999999892699
 21
2306.666666596675
 31
0.0
  0
ARC
  5
1E2
330
18
100
AcDbEntity
  8
SJC
100
AcDbCircle
 10
4802.66666655542
 20
2237.333333269754
 30
0.0
 40
15.333333331915
100
AcDbArc
 50
270.0
 51
0.0
  0
LINE
  5
1E3
330
18
100
AcDbEntity
  8
SJC2
100
AcDbLine
 10
4799.999999888999
 20
2261.999999934142
 30
0.0
 11
4799.999999888999
 21
2266.666666600375
 31
0.0
  0
LINE
  5
1E4
330
18
100
AcDbEntity
  8
SJC2
100
AcDbLine
 10
4793.33333322295
 20
2299.999999930625
 30
0.0
 11
4793.33333322295
 21
2266.666666600375
 31
0.0
  0
LINE
  5
1E5
330
18
100
AcDbEntity
  8
SJC2
100
AcDbLine
 10
4763.333333225725
 20
2306.666666596675
 30
0.0
 11
4763.333333225725
 21
2266.666666600375
 31
0.0
  0
ARC
  5
1E6
330
18
100
AcDbEntity
  8
SJC2
100
AcDbCircle
 10
4778.333333224337
 20
2286.458333265211
 30
0.0
 40
20.20833333146407
100
AcDbArc
 50
42.07502205084361
 51
137.9249779491564
  0
LINE
  5
1E7
330
18
100
AcDbEntity
  8
SJC2
100
AcDbLine
 10
4766.66666655875
 20
2246.666666602225
 30
0.0
 11
4766.66666655875
 21
2221.999999937842
 31
0.0
  0
LINE
  5
1E8
330
18
100
AcDbEntity
  8
SJC2
100
AcDbLine
 10
4759.999999892699
 20
2246.666666602225
 30
0.0
 11
4759.999999892699
 21
2221.999999937842
 31
0.0
  0
LINE
  5
1E9
330
18
100
AcDbEntity
  8
SJC
100
AcDbLine
 10
4833.33333321925
 20
2246.666666602225
 30
0.0
 11
4833.33333321925
 21
2221.99999993784
 31
0.0
  0
LINE
  5
1EA
330
18
100
AcDbEntity
  8
SJC
100
AcDbLine
 10
4817.999999887334
 20
2246.666666602225
 30
0.0
 11
4817.999999887334
 21
2237.333333269754
 31
0.0
  0
LINE
  5
1EB
330
18
100
AcDbEntity
  8
SJC2
100
AcDbLine
 10
4759.999999892699
 20
2395.999999921746
 30
0.0
 11
4766.66666655875
 21
2389.333333255696
 31
0.0
  0
LINE
  5
1EC
330
18
100
AcDbEntity
  8
CENTER
100
AcDbLine
 10
5799.999999796501
 20
2416.6666665865
 30
0.0
 11
5799.999999796501
 21
2083.333333284
 31
0.0
  0
ARC
  5
1ED
330
18
100
AcDbEntity
  8
SJC
100
AcDbCircle
 10
5884.666666455334
 20
2221.99999993784
 30
0.0
 40
15.333333331915
100
AcDbArc
 50
270.0
 51
0.0
  0
ARC
  5
1EE
330
18
100
AcDbEntity
  8
SJC
100
AcDbCircle
 10
5715.333333137667
 20
2221.99999993784
 30
0.0
 40
15.333333331915
100
AcDbArc
 50
180.0
 51
270.0
  0
LINE
  5
1EF
330
18
100
AcDbEntity
  8
SJC
100
AcDbLine
 10
5673.333333141551
 20
2206.666666605925
 30
0.0
 11
6339.999999746551
 21
2206.666666605925
 31
0.0
  0
LINE
  5
1F0
330
18
100
AcDbEntity
  8
SJC
100
AcDbLine
 10
5660.398808928277
 20
2186.666666607775
 30
0.0
 11
6339.999999746551
 21
2186.666666607775
 31
0.0
  0
LINE
  5
1F1
330
18
100
AcDbEntity
  8
SJC2
100
AcDbLine
 10
5754.999999800663
 20
2126.666666613325
 30
0.0
 11
5844.999999792338
 21
2126.666666613325
 31
0.0
  0
ARC
  5
1F2
330
18
100
AcDbEntity
  8
SJC2
100
AcDbCircle
 10
5799.999999796501
 20
2197.499999940106
 30
0.0
 40
70.83333332678126
100
AcDbArc
 50
244.942384581697
 51
295.0576154183031
  0
LINE
  5
1F3
330
18
100
AcDbEntity
  8
SJC2
100
AcDbLine
 10
5733.333333136001
 20
2166.666666609625
 30
0.0
 11
5866.666666457
 21
2166.666666609625
 31
0.0
  0
LINE
  5
1F4
330
18
100
AcDbEntity
  8
SJC
100
AcDbLine
 10
5715.333333137667
 20
2206.666666605925
 30
0.0
 11
5884.666666455334
 21
2206.666666605925
 31
0.0
  0
LINE
  5
1F5
330
18
100
AcDbEntity
  8
SJC
100
AcDbLine
 10
5673.838620322349
 20
2171.33333327586
 30
0.0
 11
5913.33333311935
 21
2171.33333327586
 31
0.0
  0
ARC
  5
1F6
330
18
100
AcDbEntity
  8
SJC
100
AcDbCircle
 10
5661.766654176768
 20
2167.093166102217
 30
0.0
 40
19.62123652232254
100
AcDbArc
 50
93.99747374857982
 51
145.002774824642
  0
ARC
  5
1F7
330
18
100
AcDbEntity
  8
SJC
100
AcDbCircle
 10
5673.838620322349
 20
2155.999999943945
 30
0.0
 40
15.333333331915
100
AcDbArc
 50
90.0
 51
171.5255466369914
  0
LINE
  5
1F8
330
18
100
AcDbEntity
  8
SJC
100
AcDbLine
 10
5673.333333141551
 20
2206.666666605925
 30
0.0
 11
5673.333333141551
 21
2186.666666607775
 31
0.0
  0
LINE
  5
1F9
330
18
100
AcDbEntity
  8
SJC2
100
AcDbLine
 10
5739.999999802051
 20
2133.333333279375
 30
0.0
 11
5739.999999802051
 21
2166.666666609625
 31
0.0
  0
ARC
  5
1FA
330
18
100
AcDbEntity
  8
SJC2
100
AcDbCircle
 10
5754.999999800663
 20
2146.874999944789
 30
0.0
 40
20.20833333146407
100
AcDbArc
 50
222.0750220508436
 51
317.9249779491564
  0
LINE
  5
1FB
330
18
100
AcDbEntity
  8
SJC2
100
AcDbLine
 10
5769.999999799275
 20
2126.666666613325
 30
0.0
 11
5769.999999799275
 21
2166.666666609625
 31
0.0
  0
LINE
  5
1FC
330
18
100
AcDbEntity
  8
SJC2
100
AcDbLine
 10
5733.333333136001
 20
2171.33333327586
 30
0.0
 11
5733.333333136001
 21
2166.666666609625
 31
0.0
  0
ARC
  5
1FD
330
18
100
AcDbEntity
  8
SJC2
100
AcDbCircle
 10
5844.999999792338
 20
2146.874999944789
 30
0.0
 40
20.20833333146407
100
AcDbArc
 50
222.0750220508436
 51
317.9249779491564
  0
LINE
  5
1FE
330
18
100
AcDbEntity
  8
SJC2
100
AcDbLine
 10
5829.999999793725
 20
2126.666666613325
 30
0.0
 11
5829.999999793725
 21
2166.666666609625
 31
0.0
  0
LINE
  5
1FF
330
18
100
AcDbEntity
  8
SJC
100
AcDbLine
 10
5913.33333311935
 20
2186.666666607775
 30
0.0
 11
5913.33333311935
 21
2171.33333327586
 31
0.0
  0
LINE
  5
200
330
18
100
AcDbEntity
  8
SJC2
100
AcDbLine
 10
5859.99999979095
 20
2133.333333279375
 30
0.0
 11
5859.99999979095
 21
2166.666666609625
 31
0.0
  0
LINE
  5
201
330
18
100
AcDbEntity
  8
SJC2
100
AcDbLine
 10
5866.666666457
 20
2166.666666609625
 30
0.0
 11
5866.666666457
 21
2171.33333327586
 31
0.0
  0
LINE
  5
202
330
18
100
AcDbEntity
  8
SJC2
100
AcDbLine
 10
5766.66666646625
 20
2389.333333255696
 30
0.0
 11
5833.33333312675
 21
2389.333333255696
 31
0.0
  0
LINE
  5
203
330
18
100
AcDbEntity
  8
SJC2
100
AcDbLine
 10
5773.333333132301
 20
2395.999999921746
 30
0.0
 11
5826.6666664607
 21
2395.999999921746
 31
0.0
  0
LINE
  5
204
330
18
100
AcDbEntity
  8
SJC
100
AcDbLine
 10
5730.666666469582
 20
2221.99999993784
 30
0.0
 11
5869.333333123417
 21
2221.99999993784
 31
0.0
  0
ARC
  5
205
330
18
100
AcDbEntity
  8
SJC2
100
AcDbCircle
 10
5799.999999796501
 20
2235.833333269894
 30
0.0
 40
70.83333332678126
100
AcDbArc
 50
64.94238458169698
 51
115.057615418303
  0
LINE
  5
206
330
18
100
AcDbEntity
  8
SJC2
100
AcDbLine
 10
5754.999999800663
 20
2306.666666596675
 30
0.0
 11
5844.999999792338
 21
2306.666666596675
 31
0.0
  0
LINE
  5
207
330
18
100
AcDbEntity
  8
SJC2
100
AcDbLine
 10
5733.333333136001
 20
2266.666666600375
 30
0.0
 11
5866.666666457
 21
2266.666666600375
 31
0.0
  0
LINE
  5
208
330
18
100
AcDbEntity
  8
SJC
100
AcDbLine
 10
5673.838620322349
 20
2261.999999934142
 30
0.0
 11
5913.33333311935
 21
2261.999999934142
 31
0.0
  0
LINE
  5
209
330
18
100
AcDbEntity
  8
SJC
100
AcDbLine
 10
5660.398808928277
 20
2246.666666602225
 30
0.0
 11
5913.33333311935
 21
2246.666666602225
 31
0.0
  0
ARC
  5
20A
330
18
100
AcDbEntity
  8
SJC
100
AcDbCircle
 10
5661.05250567783
 20
2263.932936668345
 30
0.0
 40
17.27864003434713
100
AcDbArc
 50
205.1610971107538
 51
267.8318313685629
  0
ARC
  5
20B
330
18
100
AcDbEntity
  8
SJC
100
AcDbCircle
 10
5673.838620322349
 20
2277.333333266056
 30
0.0
 40
15.333333331915
100
AcDbArc
 50
188.4744533630081
 51
270.0
  0
LINE
  5
20C
330
18
100
AcDbEntity
  8
SJC2
100
AcDbLine
 10
5773.333333132301
 20
2395.999999921746
 30
0.0
 11
5773.333333132301
 21
2306.666666596675
 31
0.0
  0
LINE
  5
20D
330
18
100
AcDbEntity
  8
SJC2
100
AcDbLine
 10
5766.66666646625
 20
2389.333333255696
 30
0.0
 11
5766.66666646625
 21
2306.666666596675
 31
0.0
  0
ARC
  5
20E
330
18
100
AcDbEntity
  8
SJC
100
AcDbCircle
 10
5730.666666469582
 20
2237.333333269754
 30
0.0
 40
15.333333331915
100
AcDbArc
 50
180.0
 51
270.0
  0
LINE
  5
20F
330
18
100
AcDbEntity
  8
SJC
100
AcDbLine
 10
5715.333333137667
 20
2246.666666602225
 30
0.0
 11
5715.333333137667
 21
2237.333333269754
 31
0.0
  0
LINE
  5
210
330
18
100
AcDbEntity
  8
SJC
100
AcDbLine
 10
5699.999999805751
 20
2246.666666602225
 30
0.0
 11
5699.999999805751
 21
2221.99999993784
 31
0.0
  0
LINE
  5
211
330
18
100
AcDbEntity
  8
SJC2
100
AcDbLine
 10
5773.333333132301
 20
2246.666666602225
 30
0.0
 11
5773.333333132301
 21
2221.999999937842
 31
0.0
  0
LINE
  5
212
330
18
100
AcDbEntity
  8
SJC2
100
AcDbLine
 10
5766.66666646625
 20
2246.666666602225
 30
0.0
 11
5766.66666646625
 21
2221.999999937842
 31
0.0
  0
ARC
  5
213
330
18
100
AcDbEntity
  8
SJC2
100
AcDbCircle
 10
5754.999999800663
 20
2286.458333265211
 30
0.0
 40
20.20833333146407
100
AcDbArc
 50
42.07502205084363
 51
137.9249779491564
  0
LINE
  5
214
330
18
100
AcDbEntity
  8
SJC2
100
AcDbLine
 10
5769.999999799275
 20
2306.666666596675
 30
0.0
 11
5769.999999799275
 21
2266.666666600375
 31
0.0
  0
LINE
  5
215
330
18
100
AcDbEntity
  8
SJC2
100
AcDbLine
 10
5739.999999802051
 20
2299.999999930625
 30
0.0
 11
5739.999999802051
 21
2266.666666600375
 31
0.0
  0
LINE
  5
216
330
18
100
AcDbEntity
  8
SJC2
100
AcDbLine
 10
5733.333333136001
 20
2261.999999934142
 30
0.0
 11
5733.333333136001
 21
2266.666666600375
 31
0.0
  0
LINE
  5
217
330
18
100
AcDbEntity
  8
SJC2
100
AcDbLine
 10
5773.333333132301
 20
2395.999999921746
 30
0.0
 11
5766.66666646625
 21
2389.333333255696
 31
0.0
  0
LINE
  5
218
330
18
100
AcDbEntity
  8
SJC2
100
AcDbLine
 10
5826.6666664607
 20
2395.999999921746
 30
0.0
 11
5826.6666664607
 21
2306.666666596675
 31
0.0
  0
LINE
  5
219
330
18
100
AcDbEntity
  8
SJC2
100
AcDbLine
 10
5833.33333312675
 20
2389.333333255696
 30
0.0
 11
5833.33333312675
 21
2306.666666596675
 31
0.0
  0
ARC
  5
21A
330
18
100
AcDbEntity
  8
SJC2
100
AcDbCircle
 10
5844.999999792338
 20
2286.458333265211
 30
0.0
 40
20.20833333146407
100
AcDbArc
 50
42.07502205084363
 51
137.9249779491564
  0
LINE
  5
21B
330
18
100
AcDbEntity
  8
SJC2
100
AcDbLine
 10
5826.6666664607
 20
2246.666666602225
 30
0.0
 11
5826.6666664607
 21
2221.99999993784
 31
0.0
  0
LINE
  5
21C
330
18
100
AcDbEntity
  8
SJC2
100
AcDbLine
 10
5833.33333312675
 20
2246.666666602225
 30
0.0
 11
5833.33333312675
 21
2221.999999937842
 31
0.0
  0
LINE
  5
21D
330
18
100
AcDbEntity
  8
SJC2
100
AcDbLine
 10
5829.999999793725
 20
2306.666666596675
 30
0.0
 11
5829.999999793725
 21
2266.666666600375
 31
0.0
  0
LINE
  5
21E
330
18
100
AcDbEntity
  8
SJC
100
AcDbLine
 10
5913.33333311935
 20
2261.99999993414
 30
0.0
 11
5913.33333311935
 21
2246.666666602225
 31
0.0
  0
ARC
  5
21F
330
18
100
AcDbEntity
  8
SJC
100
AcDbCircle
 10
5869.333333123417
 20
2237.333333269754
 30
0.0
 40
15.333333331915
100
AcDbArc
 50
270.0
 51
0.0
  0
LINE
  5
220
330
18
100
AcDbEntity
  8
SJC
100
AcDbLine
 10
5884.666666455334
 20
2237.333333269754
 30
0.0
 11
5884.666666455334
 21
2246.666666602225
 31
0.0
  0
LINE
  5
221
330
18
100
AcDbEntity
  8
SJC2
100
AcDbLine
 10
5859.99999979095
 20
2299.999999930625
 30
0.0
 11
5859.99999979095
 21
2266.666666600375
 31
0.0
  0
LINE
  5
222
330
18
100
AcDbEntity
  8
SJC
100
AcDbLine
 10
5899.999999787251
 20
2221.99999993784
 30
0.0
 11
5899.999999787251
 21
2246.666666602225
 31
0.0
  0
LINE
  5
223
330
18
100
AcDbEntity
  8
SJC2
100
AcDbLine
 10
5866.666666457
 20
2266.666666600375
 30
0.0
 11
5866.666666457
 21
2261.99999993414
 31
0.0
  0
LINE
  5
224
330
18
100
AcDbEntity
  8
SJC2
100
AcDbLine
 10
5826.6666664607
 20
2395.999999921746
 30
0.0
 11
5833.33333312675
 21
2389.333333255696
 31
0.0
  0
DIMENSION
  5
225
330
18
100
AcDbEntity
  8
SUNPOU
100
AcDbDimension
  2
*D4
 10
5700.0
 20
3825.0
 30
0.0
 11
5645.999999999999
 21
4000.0
 31
0.0
 70
    32
 71
     5
 42
-1.0
  3
SJC
100
AcDbAlignedDimension
 13
5960.0
 23
4175.0
 33
0.0
 14
5960.0
 24
3825.0
 34
0.0
 50
90.0
100
AcDbRotatedDimension
1001
ACAD
1000
DSTYLE
1002
{
1070
   287
1070
     5
1070
   287
1070
     5
1070
   287
1070
     5
1070
    40
1040
20.0
1070
    41
1040
2.0
1070
    42
1040
1.0
1070
    43
1040
6.0
1070
    44
1040
1.0
1070
    73
1070
     0
1070
    74
1070
     0
1070
    77
1070
     1
1070
    78
1070
     8
1070
   140
1040
3.0
1070
   147
1040
1.199999999999999
1070
   172
1070
     1
1070
   176
1070
   256
1070
   177
1070
   256
1070
   178
1070
   256
1070
   271
1070
     1
1070
   275
1070
     1
1070
   279
1070
     2
1070
   340
1005
373
1002
}
  0
DIMENSION
  5
226
330
18
100
AcDbEntity
  8
SUNPOU
100
AcDbDimension
  2
*D5
 10
6420.0
 20
4000.0
 30
0.0
 11
6479.328995151554
 21
4049.737283577896
 31
0.0
 70
   160
 71
     5
 42
-1.0
  3
SJC
100
AcDbAlignedDimension
 13
6110.0
 23
4100.0
 33
0.0
 14
6050.0
 24
4000.0
 34
0.0
 50
90.0
100
AcDbRotatedDimension
1001
ACAD
1000
DSTYLE
1002
{
1070
   287
1070
     5
1070
   287
1070
     5
1070
   287
1070
     5
1070
    40
1040
20.0
1070
    41
1040
2.0
1070
    42
1040
1.0
1070
    43
1040
6.0
1070
    44
1040
1.0
1070
    73
1070
     0
1070
    74
1070
     0
1070
    77
1070
     1
1070
    78
1070
     8
1070
   140
1040
3.0
1070
   147
1040
1.199999999999999
1070
   172
1070
     1
1070
   176
1070
   256
1070
   177
1070
   256
1070
   178
1070
   256
1070
   271
1070
     1
1070
   275
1070
     1
1070
   279
1070
     2
1070
   340
1005
373
1002
}
  0
DIMENSION
  5
227
330
18
100
AcDbEntity
  8
SUNPOU
100
AcDbDimension
  2
*D9
 10
2200.0
 20
3253.162411854756
 30
0.0
 11
2040.0
 21
3307.162411854756
 31
0.0
 70
    32
 71
     5
 42
-1.0
  3
SJC
100
AcDbAlignedDimension
 13
1880.0
 23
3425.0
 33
0.0
 14
2200.0
 24
3420.0
 34
0.0
100
AcDbRotatedDimension
1001
ACAD
1000
DSTYLE
1002
{
1070
   287
1070
     5
1070
   287
1070
     5
1070
   287
1070
     5
1070
    40
1040
20.0
1070
    41
1040
2.0
1070
    42
1040
1.0
1070
    43
1040
6.0
1070
    44
1040
1.0
1070
    73
1070
     0
1070
    74
1070
     0
1070
    77
1070
     1
1070
    78
1070
     8
1070
   140
1040
3.0
1070
   147
1040
1.199999999999999
1070
   172
1070
     1
1070
   176
1070
   256
1070
   177
1070
   256
1070
   178
1070
   256
1070
   271
1070
     1
1070
   275
1070
     1
1070
   279
1070
     2
1070
   340
1005
373
1002
}
  0
DIMENSION
  5
228
330
18
100
AcDbEntity
  8
SUNPOU
100
AcDbDimension
  2
*D10
 10
3720.0
 20
3253.162411854756
 30
0.0
 11
3560.0
 21
3307.162411854756
 31
0.0
 70
    32
 71
     5
 42
-1.0
  3
SJC
100
AcDbAlignedDimension
 13
3400.0
 23
3420.0
 33
0.0
 14
3720.0
 24
3425.0
 34
0.0
100
AcDbRotatedDimension
1001
ACAD
1000
DSTYLE
1002
{
1070
   287
1070
     5
1070
   287
1070
     5
1070
   287
1070
     5
1070
    40
1040
20.0
1070
    41
1040
2.0
1070
    42
1040
1.0
1070
    43
1040
6.0
1070
    44
1040
1.0
1070
    73
1070
     0
1070
    74
1070
     0
1070
    77
1070
     1
1070
    78
1070
     8
1070
   140
1040
3.0
1070
   147
1040
1.199999999999999
1070
   172
1070
     1
1070
   176
1070
   256
1070
   177
1070
   256
1070
   178
1070
   256
1070
   271
1070
     1
1070
   275
1070
     1
1070
   279
1070
     2
1070
   340
1005
373
1002
}
  0
SOLID
  5
229
330
18
100
AcDbEntity
  8
SUNPOU
100
AcDbTrace
 10
3840.0
 20
4668.333333333333
 30
0.0
 11
3840.0
 21
4681.666666666667
 31
0.0
 12
3800.0
 22
4675.0
 32
0.0
 13
3800.0
 23
4675.0
 33
0.0
  0
LINE
  5
22A
330
18
100
AcDbEntity
  8
SUNPOU
100
AcDbLine
 10
3840.0
 20
4675.0
 30
0.0
 11
5200.0
 21
4675.0
 31
0.0
  0
TEXT
  5
22B
330
18
100
AcDbEntity
  8
SUNPOU
100
AcDbText
 10
4470.0
 20
4705.0
 30
0.0
 40
60.0
  1
2000
 41
0.8
  7
EXT08
 11
4470.0
 21
4735.0
 31
0.0
100
AcDbText
 73
     2
  0
DIMENSION
  5
230
330
18
100
AcDbEntity
  8
SUNPOU
100
AcDbDimension
  2
*D8
 10
3400.0
 20
3253.162411854756
 30
0.0
 11
2800.0
 21
3307.162411854756
 31
0.0
 70
    32
  1
3@ 400=1200
 71
     5
 42
-1.0
  3
SJC
100
AcDbAlignedDimension
 13
2200.0
 23
3253.162411854756
 33
0.0
 14
3400.0
 24
3253.162411854756
 34
0.0
100
AcDbRotatedDimension
1001
ACAD
1000
DSTYLE
1002
{
1070
   287
1070
     5
1070
   287
1070
     5
1070
   287
1070
     5
1070
    40
1040
20.0
1070
    41
1040
2.0
1070
    42
1040
1.0
1070
    43
1040
6.0
1070
    44
1040
1.0
1070
    73
1070
     0
1070
    74
1070
     0
1070
    77
1070
     1
1070
    78
1070
     8
1070
   140
1040
3.0
1070
   147
1040
1.199999999999999
1070
   172
1070
     1
1070
   176
1070
   256
1070
   177
1070
   256
1070
   178
1070
   256
1070
   271
1070
     1
1070
   275
1070
     1
1070
   279
1070
     2
1070
   340
1005
373
1002
}
  0
DIMENSION
  5
233
330
18
100
AcDbEntity
  8
SUNPOU
100
AcDbDimension
  2
*D14
 10
910.0
 20
950.0000000000003
 30
0.0
 11
855.9999999999998
 21
1175.0
 31
0.0
 70
    32
 71
     5
 42
-1.0
  3
SJC
100
AcDbAlignedDimension
 13
1859.999999999997
 23
1400.0
 33
0.0
 14
1859.999999999997
 24
950.0
 34
0.0
 50
90.0
100
AcDbRotatedDimension
1001
ACAD
1000
DSTYLE
1002
{
1070
   287
1070
     5
1070
   287
1070
     5
1070
   287
1070
     5
1070
    40
1040
20.0
1070
    41
1040
2.0
1070
    42
1040
1.0
1070
    43
1040
6.0
1070
    44
1040
1.0
1070
    73
1070
     0
1070
    74
1070
     0
1070
    77
1070
     1
1070
    78
1070
     8
1070
   140
1040
3.0
1070
   144
1040
0.5
1070
   147
1040
1.199999999999999
1070
   172
1070
     1
1070
   176
1070
   256
1070
   177
1070
   256
1070
   178
1070
   256
1070
   271
1070
     1
1070
   275
1070
     1
1070
   279
1070
     2
1070
   340
1005
373
1002
}
  0
DIMENSION
  5
234
330
18
100
AcDbEntity
  8
SUNPOU
100
AcDbDimension
  2
*D15
 10
750.0
 20
750.0
 30
0.0
 11
696.0
 21
1175.0
 31
0.0
 70
    32
 71
     5
 42
-1.0
  3
SJC
100
AcDbAlignedDimension
 13
1140.556
 23
1600.0
 33
0.0
 14
1100.0
 24
750.0
 34
0.0
 50
90.0
100
AcDbRotatedDimension
1001
ACAD
1000
DSTYLE
1002
{
1070
   287
1070
     5
1070
   287
1070
     5
1070
   287
1070
     5
1070
    40
1040
20.0
1070
    41
1040
2.0
1070
    42
1040
1.0
1070
    43
1040
6.0
1070
    44
1040
1.0
1070
    73
1070
     0
1070
    74
1070
     0
1070
    77
1070
     1
1070
    78
1070
     8
1070
   140
1040
3.0
1070
   144
1040
0.5
1070
   147
1040
1.199999999999999
1070
   172
1070
     1
1070
   176
1070
   256
1070
   177
1070
   256
1070
   178
1070
   256
1070
   271
1070
     1
1070
   275
1070
     1
1070
   279
1070
     2
1070
   340
1005
373
1002
}
  0
SOLID
  5
235
330
18
100
AcDbEntity
  8
SUNPOU
100
AcDbTrace
 10
2040.0
 20
2642.242183212416
 30
0.0
 11
2040.0
 21
2655.575516545749
 31
0.0
 12
2000.0
 22
2648.908849879083
 32
0.0
 13
2000.0
 23
2648.908849879083
 33
0.0
  0
LINE
  5
236
330
18
100
AcDbEntity
  8
SUNPOU
100
AcDbLine
 10
2040.0
 20
2648.908849879083
 30
0.0
 11
2860.0
 21
2648.908849879083
 31
0.0
  0
SOLID
  5
238
330
18
100
AcDbEntity
  8
SUNPOU
100
AcDbTrace
 10
1960.0
 20
2655.575516545749
 30
0.0
 11
1960.0
 21
2642.242183212416
 31
0.0
 12
2000.0
 22
2648.908849879083
 32
0.0
 13
2000.0
 23
2648.908849879083
 33
0.0
  0
LINE
  5
239
330
18
100
AcDbEntity
  8
SUNPOU
100
AcDbLine
 10
1960.0
 20
2648.908849879083
 30
0.0
 11
1130.0
 21
2648.908849879083
 31
0.0
  0
TEXT
  5
23A
330
18
100
AcDbEntity
  8
SUNPOU
100
AcDbText
 10
1154.0
 20
2684.463711878716
 30
0.0
 40
60.0
  1
2000
 41
0.8
  7
EXT08
 72
     2
 11
1330.0
 21
2714.463711878716
 31
0.0
100
AcDbText
 73
     2
  0
DIMENSION
  5
23B
330
18
100
AcDbEntity
  8
SUNPOU
100
AcDbDimension
  2
*D17
 10
910.0
 20
1400.0
 30
0.0
 11
850.8621418545736
 21
1500.0
 31
0.0
 70
   160
 71
     5
 42
-1.0
  3
SJC
100
AcDbAlignedDimension
 13
910.0
 23
1600.0
 33
0.0
 14
910.0
 24
1400.0
 34
0.0
 50
90.0
100
AcDbRotatedDimension
1001
ACAD
1000
DSTYLE
1002
{
1070
   287
1070
     5
1070
   287
1070
     5
1070
   287
1070
     5
1070
    40
1040
20.0
1070
    41
1040
2.0
1070
    42
1040
1.0
1070
    43
1040
6.0
1070
    44
1040
1.0
1070
    73
1070
     0
1070
    74
1070
     0
1070
    77
1070
     1
1070
    78
1070
     8
1070
   140
1040
3.0
1070
   144
1040
0.5
1070
   147
1040
1.199999999999999
1070
   172
1070
     1
1070
   176
1070
   256
1070
   177
1070
   256
1070
   178
1070
   256
1070
   271
1070
     1
1070
   275
1070
     1
1070
   279
1070
     2
1070
   340
1005
373
1002
}
  0
DIMENSION
  5
23C
330
18
100
AcDbEntity
  8
SUNPOU
100
AcDbDimension
  2
*D16
 10
910.0
 20
749.9999999999999
 30
0.0
 11
851.5896378831202
 21
850.0
 31
0.0
 70
   160
 71
     5
 42
-1.0
  3
SJC
100
AcDbAlignedDimension
 13
910.0
 23
950.0
 33
0.0
 14
750.0
 24
750.0
 34
0.0
 50
90.0
100
AcDbRotatedDimension
1001
ACAD
1000
DSTYLE
1002
{
1070
   287
1070
     5
1070
   287
1070
     5
1070
   287
1070
     5
1070
    40
1040
20.0
1070
    41
1040
2.0
1070
    42
1040
1.0
1070
    43
1040
6.0
1070
    44
1040
1.0
1070
    73
1070
     0
1070
    74
1070
     0
1070
    77
1070
     1
1070
    78
1070
     8
1070
   140
1040
3.0
1070
   144
1040
0.5
1070
   147
1040
1.199999999999999
1070
   172
1070
     1
1070
   176
1070
   256
1070
   177
1070
   256
1070
   178
1070
   256
1070
   271
1070
     1
1070
   275
1070
     1
1070
   279
1070
     2
1070
   340
1005
373
1002
}
  0
DIMENSION
  5
23D
330
18
100
AcDbEntity
  8
SUNPOU
100
AcDbDimension
  2
*D13
 10
750.0
 20
1600.0
 30
0.0
 11
695.9999999999998
 21
1950.0
 31
0.0
 70
    32
 71
     5
 42
-1.0
  3
SJC
100
AcDbAlignedDimension
 13
1100.0
 23
2300.0
 33
0.0
 14
750.0
 24
1600.0
 34
0.0
 50
90.0
100
AcDbRotatedDimension
1001
ACAD
1000
DSTYLE
1002
{
1070
   287
1070
     5
1070
   287
1070
     5
1070
   287
1070
     5
1070
    40
1040
20.0
1070
    41
1040
2.0
1070
    42
1040
1.0
1070
    43
1040
6.0
1070
    44
1040
1.0
1070
    73
1070
     0
1070
    74
1070
     0
1070
    77
1070
     1
1070
    78
1070
     8
1070
   140
1040
3.0
1070
   144
1040
0.5
1070
   147
1040
1.199999999999999
1070
   172
1070
     1
1070
   176
1070
   256
1070
   177
1070
   256
1070
   178
1070
   256
1070
   271
1070
     1
1070
   275
1070
     1
1070
   279
1070
     2
1070
   340
1005
373
1002
}
  0
INSERT
  5
23E
330
18
100
AcDbEntity
  8
HATCH
100
AcDbBlockReference
  2
*X0
 10
-300.0
 20
0.0
 30
0.0
1001
ACAD
1000
HATCH
1002
{
1070
    16
1000
ANSI31
1040
233.333
1040
0.0
1002
}
  0
INSERT
  5
23F
330
18
100
AcDbEntity
  8
HATCH
100
AcDbBlockReference
  2
*X1
 10
-300.0
 20
0.0
 30
0.0
1001
ACAD
1000
HATCH
1002
{
1070
    16
1000
ANSI31
1040
233.333
1040
0.0
1002
}
  0
LINE
  5
240
330
18
100
AcDbEntity
  8
SJC
100
AcDbLine
 10
1100.0
 20
750.0
 30
0.0
 11
2900.0
 21
750.0
 31
0.0
  0
LINE
  5
241
330
18
100
AcDbEntity
  8
SJC
100
AcDbLine
 10
1104.528301886792
 20
1600.0
 30
0.0
 11
2895.471698113207
 21
1600.0
 31
0.0
  0
LINE
  5
242
330
18
100
AcDbEntity
  8
KASOU
100
AcDbLine
 10
1083.396226415094
 20
1670.0
 30
0.0
 11
2916.603773584906
 21
1670.0
 31
0.0
  0
LINE
  5
243
330
18
100
AcDbEntity
  8
KASOU
100
AcDbLine
 10
1041.132075471698
 20
1810.0
 30
0.0
 11
2958.867924528302
 21
1810.0
 31
0.0
  0
LINE
  5
244
330
18
100
AcDbEntity
  8
KASOU
100
AcDbLine
 10
1020.0
 20
1880.0
 30
0.0
 11
2980.0
 21
1880.0
 31
0.0
  0
LINE
  5
245
330
18
100
AcDbEntity
  8
KASOU
100
AcDbLine
 10
1100.0
 20
2020.0
 30
0.0
 11
2900.0
 21
2020.0
 31
0.0
  0
LINE
  5
246
330
18
100
AcDbEntity
  8
KASOU
100
AcDbLine
 10
1100.0
 20
2090.0
 30
0.0
 11
2900.0
 21
2090.0
 31
0.0
  0
LINE
  5
247
330
18
100
AcDbEntity
  8
KASOU
100
AcDbLine
 10
1100.0
 20
2230.0
 30
0.0
 11
2900.0
 21
2230.0
 31
0.0
  0
LINE
  5
248
330
18
100
AcDbEntity
  8
KASOU
100
AcDbLine
 10
1100.0
 20
2300.0
 30
0.0
 11
2900.0
 21
2300.0
 31
0.0
  0
LINE
  5
249
330
18
100
AcDbEntity
  8
SJC
100
AcDbLine
 10
2114.3
 20
1500.0
 30
0.0
 11
2865.283018867925
 21
1500.0
 31
0.0
  0
LINE
  5
24A
330
18
100
AcDbEntity
  8
HASEN
100
AcDbLine
 10
2114.3
 20
1592.0
 30
0.0
 11
2893.056603773585
 21
1592.0
 31
0.0
  0
LINE
  5
24B
330
18
100
AcDbEntity
  8
HASEN
100
AcDbLine
 10
2114.3
 20
758.0
 30
0.0
 11
2900.0
 21
758.0
 31
0.0
  0
LINE
  5
24C
330
18
100
AcDbEntity
  8
SJC
100
AcDbLine
 10
2114.3
 20
850.0
 30
0.0
 11
2900.0
 21
850.0
 31
0.0
  0
ARC
  5
24D
330
18
100
AcDbEntity
  8
HASEN
100
AcDbCircle
 10
2000.0
 20
1924.098617631144
 30
0.0
 40
255.2815006148307
100
AcDbArc
 50
62.2405585733248
 51
117.7594414266752
  0
LINE
  5
24E
330
18
100
AcDbEntity
  8
KASOU
100
AcDbLine
 10
1700.0
 20
2300.0
 30
0.0
 11
1700.0
 21
1600.0
 31
0.0
  0
LINE
  5
24F
330
18
100
AcDbEntity
  8
SJC2
100
AcDbLine
 10
1100.0
 20
2340.0
 30
0.0
 11
1100.0
 21
1880.0
 31
0.0
  0
LINE
  5
250
330
18
100
AcDbEntity
  8
HASEN
100
AcDbLine
 10
1885.7
 20
1592.0
 30
0.0
 11
1106.943396226415
 21
1592.0
 31
0.0
  0
LINE
  5
251
330
18
100
AcDbEntity
  8
SJC
100
AcDbLine
 10
1885.7
 20
850.0
 30
0.0
 11
1100.0
 21
850.0
 31
0.0
  0
LINE
  5
252
330
18
100
AcDbEntity
  8
HASEN
100
AcDbLine
 10
1885.7
 20
758.0
 30
0.0
 11
1100.0
 21
758.0
 31
0.0
  0
LINE
  5
253
330
18
100
AcDbEntity
  8
SJC
100
AcDbLine
 10
1885.7
 20
1500.0
 30
0.0
 11
1134.716981132075
 21
1500.0
 31
0.0
  0
LINE
  5
254
330
18
100
AcDbEntity
  8
SJC2
100
AcDbLine
 10
1100.0
 20
1350.0
 30
0.0
 11
1100.0
 21
750.0
 31
0.0
  0
CIRCLE
  5
255
330
18
100
AcDbEntity
  8
SJC
100
AcDbCircle
 10
1200.0
 20
800.0
 30
0.0
 40
10.0
  0
LINE
  5
256
330
18
100
AcDbEntity
  8
SJC2
100
AcDbLine
 10
1020.0
 20
1880.0
 30
0.0
 11
1180.0
 21
1350.0
 31
0.0
  0
LINE
  5
257
330
18
100
AcDbEntity
  8
SJC2
100
AcDbLine
 10
1180.0
 20
1350.0
 30
0.0
 11
1100.0
 21
1350.0
 31
0.0
  0
CIRCLE
  5
258
330
18
100
AcDbEntity
  8
SJC
100
AcDbCircle
 10
1200.0
 20
1550.0
 30
0.0
 40
10.0
  0
LINE
  5
259
330
18
100
AcDbEntity
  8
SJC
100
AcDbLine
 10
2114.3
 20
1350.0
 30
0.0
 11
2114.3
 21
1000.0
 31
0.0
  0
LINE
  5
25A
330
18
100
AcDbEntity
  8
SJC
100
AcDbLine
 10
1885.7
 20
1350.0
 30
0.0
 11
1885.7
 21
1000.0
 31
0.0
  0
LINE
  5
25B
330
18
100
AcDbEntity
  8
HASEN
100
AcDbLine
 10
2190.3
 20
1350.0
 30
0.0
 11
2190.3
 21
1000.0
 31
0.0
  0
LINE
  5
25C
330
18
100
AcDbEntity
  8
HASEN
100
AcDbLine
 10
2130.3
 20
1350.0
 30
0.0
 11
2130.3
 21
1000.0
 31
0.0
  0
LINE
  5
25D
330
18
100
AcDbEntity
  8
HASEN
100
AcDbLine
 10
1809.7
 20
1350.0
 30
0.0
 11
1809.7
 21
1000.0
 31
0.0
  0
LINE
  5
25E
330
18
100
AcDbEntity
  8
HASEN
100
AcDbLine
 10
1869.7
 20
1350.0
 30
0.0
 11
1869.7
 21
1000.0
 31
0.0
  0
LINE
  5
25F
330
18
100
AcDbEntity
  8
SJC
100
AcDbLine
 10
1805.099999999999
 20
900.0
 30
0.0
 11
2194.9
 21
900.0
 31
0.0
  0
LINE
  5
260
330
18
100
AcDbEntity
  8
SJC
100
AcDbLine
 10
1805.099999999999
 20
1000.0
 30
0.0
 11
2194.9
 21
1000.0
 31
0.0
  0
LINE
  5
261
330
18
100
AcDbEntity
  8
SJC
100
AcDbLine
 10
1805.099999999999
 20
900.0
 30
0.0
 11
1805.099999999999
 21
1000.0
 31
0.0
  0
LINE
  5
262
330
18
100
AcDbEntity
  8
SJC
100
AcDbLine
 10
1881.099999999999
 20
900.0
 30
0.0
 11
1881.099999999999
 21
1000.0
 31
0.0
  0
LINE
  5
263
330
18
100
AcDbEntity
  8
SJC
100
AcDbLine
 10
1885.7
 20
900.0
 30
0.0
 11
1885.7
 21
750.0
 31
0.0
  0
CIRCLE
  5
264
330
18
100
AcDbEntity
  8
SJC
100
AcDbCircle
 10
1839.999999999997
 20
800.0
 30
0.0
 40
10.0
  0
LINE
  5
265
330
18
100
AcDbEntity
  8
HASEN
100
AcDbLine
 10
1809.7
 20
900.0
 30
0.0
 11
1809.7
 21
850.0
 31
0.0
  0
LINE
  5
266
330
18
100
AcDbEntity
  8
HASEN
100
AcDbLine
 10
1869.7
 20
900.0
 30
0.0
 11
1869.7
 21
850.0
 31
0.0
  0
CIRCLE
  5
267
330
18
100
AcDbEntity
  8
SJC
100
AcDbCircle
 10
1839.7
 20
950.0
 30
0.0
 40
10.0
  0
LINE
  5
268
330
18
100
AcDbEntity
  8
SJC
100
AcDbLine
 10
2194.9
 20
900.0
 30
0.0
 11
2194.9
 21
1000.0
 31
0.0
  0
LINE
  5
269
330
18
100
AcDbEntity
  8
SJC
100
AcDbLine
 10
2118.9
 20
900.0
 30
0.0
 11
2118.9
 21
1000.0
 31
0.0
  0
LINE
  5
26A
330
18
100
AcDbEntity
  8
SJC
100
AcDbLine
 10
2114.3
 20
900.0
 30
0.0
 11
2114.3
 21
750.0
 31
0.0
  0
LINE
  5
26B
330
18
100
AcDbEntity
  8
HASEN
100
AcDbLine
 10
2130.3
 20
900.0
 30
0.0
 11
2130.3
 21
850.0
 31
0.0
  0
CIRCLE
  5
26C
330
18
100
AcDbEntity
  8
SJC
100
AcDbCircle
 10
2160.599999999998
 20
800.0
 30
0.0
 40
10.0
  0
LINE
  5
26D
330
18
100
AcDbEntity
  8
HASEN
100
AcDbLine
 10
2190.3
 20
900.0
 30
0.0
 11
2190.3
 21
850.0
 31
0.0
  0
CIRCLE
  5
26E
330
18
100
AcDbEntity
  8
SJC
100
AcDbCircle
 10
2160.3
 20
950.0
 30
0.0
 40
10.0
  0
LINE
  5
26F
330
18
100
AcDbEntity
  8
HASEN
100
AcDbLine
 10
2114.3
 20
2130.0
 30
0.0
 11
2114.3
 21
1600.0
 31
0.0
  0
LINE
  5
270
330
18
100
AcDbEntity
  8
HASEN
100
AcDbLine
 10
1885.7
 20
2130.0
 30
0.0
 11
1885.7
 21
1600.0
 31
0.0
  0
LINE
  5
271
330
18
100
AcDbEntity
  8
SJC
100
AcDbLine
 10
1805.099999999999
 20
1450.0
 30
0.0
 11
2194.9
 21
1450.0
 31
0.0
  0
LINE
  5
272
330
18
100
AcDbEntity
  8
SJC
100
AcDbLine
 10
1805.099999999999
 20
1350.0
 30
0.0
 11
2194.9
 21
1350.0
 31
0.0
  0
LINE
  5
273
330
18
100
AcDbEntity
  8
SJC
100
AcDbLine
 10
1805.099999999999
 20
1450.0
 30
0.0
 11
1805.099999999999
 21
1350.0
 31
0.0
  0
CIRCLE
  5
274
330
18
100
AcDbEntity
  8
SJC
100
AcDbCircle
 10
1839.7
 20
1400.0
 30
0.0
 40
10.0
  0
LINE
  5
275
330
18
100
AcDbEntity
  8
SJC
100
AcDbLine
 10
1881.099999999999
 20
1450.0
 30
0.0
 11
1881.099999999999
 21
1350.0
 31
0.0
  0
LINE
  5
276
330
18
100
AcDbEntity
  8
SJC
100
AcDbLine
 10
1885.7
 20
1600.0
 30
0.0
 11
1885.7
 21
1450.0
 31
0.0
  0
LINE
  5
277
330
18
100
AcDbEntity
  8
HASEN
100
AcDbLine
 10
1809.7
 20
1500.0
 30
0.0
 11
1809.7
 21
1450.0
 31
0.0
  0
LINE
  5
278
330
18
100
AcDbEntity
  8
HASEN
100
AcDbLine
 10
1869.7
 20
1500.0
 30
0.0
 11
1869.7
 21
1450.0
 31
0.0
  0
CIRCLE
  5
279
330
18
100
AcDbEntity
  8
SJC
100
AcDbCircle
 10
1839.7
 20
1550.0
 30
0.0
 40
10.0
  0
LINE
  5
27A
330
18
100
AcDbEntity
  8
SJC
100
AcDbLine
 10
2194.9
 20
1450.0
 30
0.0
 11
2194.9
 21
1350.0
 31
0.0
  0
LINE
  5
27B
330
18
100
AcDbEntity
  8
SJC
100
AcDbLine
 10
2118.9
 20
1450.0
 30
0.0
 11
2118.9
 21
1350.0
 31
0.0
  0
CIRCLE
  5
27C
330
18
100
AcDbEntity
  8
SJC
100
AcDbCircle
 10
2160.3
 20
1400.0
 30
0.0
 40
10.0
  0
LINE
  5
27D
330
18
100
AcDbEntity
  8
SJC
100
AcDbLine
 10
2114.3
 20
1600.0
 30
0.0
 11
2114.3
 21
1450.0
 31
0.0
  0
LINE
  5
27E
330
18
100
AcDbEntity
  8
HASEN
100
AcDbLine
 10
2130.3
 20
1500.0
 30
0.0
 11
2130.3
 21
1450.0
 31
0.0
  0
LINE
  5
27F
330
18
100
AcDbEntity
  8
HASEN
100
AcDbLine
 10
2190.3
 20
1500.0
 30
0.0
 11
2190.3
 21
1450.0
 31
0.0
  0
CIRCLE
  5
280
330
18
100
AcDbEntity
  8
SJC
100
AcDbCircle
 10
2160.3
 20
1550.0
 30
0.0
 40
10.0
  0
LINE
  5
281
330
18
100
AcDbEntity
  8
HASEN
100
AcDbLine
 10
1881.099999999999
 20
2150.0
 30
0.0
 11
2118.9
 21
2150.0
 31
0.0
  0
LINE
  5
282
330
18
100
AcDbEntity
  8
HASEN
100
AcDbLine
 10
1881.099999999999
 20
2130.0
 30
0.0
 11
2118.9
 21
2130.0
 31
0.0
  0
LINE
  5
283
330
18
100
AcDbEntity
  8
HASEN
100
AcDbLine
 10
1881.099999999999
 20
2150.0
 30
0.0
 11
1881.099999999999
 21
2130.0
 31
0.0
  0
LINE
  5
284
330
18
100
AcDbEntity
  8
HASEN
100
AcDbLine
 10
2118.9
 20
2150.0
 30
0.0
 11
2118.9
 21
2130.0
 31
0.0
  0
LINE
  5
285
330
18
100
AcDbEntity
  8
KASOU
100
AcDbLine
 10
2300.0
 20
2300.0
 30
0.0
 11
2300.0
 21
1600.0
 31
0.0
  0
LINE
  5
286
330
18
100
AcDbEntity
  8
SJC2
100
AcDbLine
 10
2900.0
 20
2340.0
 30
0.0
 11
2900.0
 21
1880.0
 31
0.0
  0
LINE
  5
287
330
18
100
AcDbEntity
  8
SJC2
100
AcDbLine
 10
2900.0
 20
1350.0
 30
0.0
 11
2900.0
 21
750.0
 31
0.0
  0
CIRCLE
  5
288
330
18
100
AcDbEntity
  8
SJC
100
AcDbCircle
 10
2800.0
 20
800.0
 30
0.0
 40
10.0
  0
LINE
  5
289
330
18
100
AcDbEntity
  8
SJC2
100
AcDbLine
 10
2980.0
 20
1880.0
 30
0.0
 11
2820.0
 21
1350.0
 31
0.0
  0
LINE
  5
28A
330
18
100
AcDbEntity
  8
SJC2
100
AcDbLine
 10
2820.0
 20
1350.0
 30
0.0
 11
2900.0
 21
1350.0
 31
0.0
  0
CIRCLE
  5
28B
330
18
100
AcDbEntity
  8
SJC
100
AcDbCircle
 10
2800.0
 20
1550.0
 30
0.0
 40
10.0
  0
LINE
  5
2B0
330
18
100
AcDbEntity
  8
SJC
100
AcDbLine
 10
1300.0
 20
3400.0
 30
0.0
 11
5200.0
 21
3400.0
 31
0.0
  0
LINE
  5
2B1
330
18
100
AcDbEntity
  8
SJC
100
AcDbLine
 10
1857.15
 20
3450.0
 30
0.0
 11
5200.0
 21
3450.0
 31
0.0
  0
LINE
  5
2B2
330
18
100
AcDbEntity
  8
SJC
100
AcDbLine
 10
1857.15
 20
3775.0
 30
0.0
 11
5189.150943396226
 21
3775.000000000001
 31
0.0
  0
LINE
  5
2B3
330
18
100
AcDbEntity
  8
KASOU
100
AcDbLine
 10
1970.0
 20
4070.0
 30
0.0
 11
5200.0
 21
4070.0
 31
0.0
  0
LINE
  5
2B4
330
18
100
AcDbEntity
  8
KASOU
100
AcDbLine
 10
1970.0
 20
4035.0
 30
0.0
 11
5200.0
 21
4035.0
 31
0.0
  0
LINE
  5
2B5
330
18
100
AcDbEntity
  8
KASOU
100
AcDbLine
 10
1970.0
 20
3965.0
 30
0.0
 11
5225.0
 21
3965.0
 31
0.0
  0
LINE
  5
2B6
330
18
100
AcDbEntity
  8
KASOU
100
AcDbLine
 10
1970.0
 20
3930.0
 30
0.0
 11
5218.396226415094
 21
3930.000000000001
 31
0.0
  0
LINE
  5
2B7
330
18
100
AcDbEntity
  8
KASOU
100
AcDbLine
 10
1630.0
 20
4140.0
 30
0.0
 11
5200.0
 21
4140.0
 31
0.0
  0
LINE
  5
2B8
330
18
100
AcDbEntity
  8
KASOU
100
AcDbLine
 10
1630.0
 20
3860.0
 30
0.0
 11
5205.188679245283
 21
3860.0
 31
0.0
  0
LINE
  5
2B9
330
18
100
AcDbEntity
  8
KASOU
100
AcDbLine
 10
1320.0
 20
4175.0
 30
0.0
 11
5200.0
 21
4175.0
 31
0.0
  0
LINE
  5
2BA
330
18
100
AcDbEntity
  8
KASOU
100
AcDbLine
 10
1320.0
 20
3825.0
 30
0.0
 11
5198.584905660379
 21
3825.000000000001
 31
0.0
  0
LINE
  5
2BB
330
18
100
AcDbEntity
  8
KASOU
100
AcDbLine
 10
3950.0
 20
4175.0
 30
0.0
 11
3950.0
 21
3825.0
 31
0.0
  0
LINE
  5
2BC
330
18
100
AcDbEntity
  8
KASOU
100
AcDbLine
 10
3650.0
 20
4175.0
 30
0.0
 11
3650.0
 21
3825.0
 31
0.0
  0
LINE
  5
2BD
330
18
100
AcDbEntity
  8
KASOU
100
AcDbLine
 10
1970.0
 20
4175.0
 30
0.0
 11
1970.0
 21
4035.0
 31
0.0
  0
ARC
  5
2BE
330
18
100
AcDbEntity
  8
SJC
100
AcDbCircle
 10
1320.0
 20
4155.0
 30
0.0
 40
20.0
100
AcDbArc
 50
90.0
 51
180.0
  0
LINE
  5
2BF
330
18
100
AcDbEntity
  8
SJC
100
AcDbLine
 10
1742.85
 20
3700.0
 30
0.0
 11
1742.85
 21
3525.0
 31
0.0
  0
LINE
  5
2C0
330
18
100
AcDbEntity
  8
SJC
100
AcDbLine
 10
1857.15
 20
3700.0
 30
0.0
 11
1857.15
 21
3525.0
 31
0.0
  0
LINE
  5
2C1
330
18
100
AcDbEntity
  8
SJC
100
AcDbLine
 10
1857.15
 20
3475.0
 30
0.0
 11
1857.15
 21
3400.0
 31
0.0
  0
LINE
  5
2C2
330
18
100
AcDbEntity
  8
SJC
100
AcDbLine
 10
1742.85
 20
3475.0
 30
0.0
 11
1742.85
 21
3400.0
 31
0.0
  0
CIRCLE
  5
2C3
330
18
100
AcDbEntity
  8
SJC
100
AcDbCircle
 10
1880.0
 20
3425.0
 30
0.0
 40
5.0
  0
LINE
  5
2C4
330
18
100
AcDbEntity
  8
SJC
100
AcDbLine
 10
1702.55
 20
3525.0
 30
0.0
 11
1897.45
 21
3524.999999999999
 31
0.0
  0
LINE
  5
2C5
330
18
100
AcDbEntity
  8
SJC
100
AcDbLine
 10
1702.55
 20
3475.0
 30
0.0
 11
1897.45
 21
3475.000000000001
 31
0.0
  0
CIRCLE
  5
2C6
330
18
100
AcDbEntity
  8
SJC
100
AcDbCircle
 10
1719.85
 20
3500.0
 30
0.0
 40
5.0
  0
LINE
  5
2C7
330
18
100
AcDbEntity
  8
SJC
100
AcDbLine
 10
1740.55
 20
3475.0
 30
0.0
 11
1740.55
 21
3525.0
 31
0.0
  0
LINE
  5
2C8
330
18
100
AcDbEntity
  8
SJC
100
AcDbLine
 10
1702.55
 20
3475.0
 30
0.0
 11
1702.55
 21
3525.0
 31
0.0
  0
CIRCLE
  5
2C9
330
18
100
AcDbEntity
  8
SJC
100
AcDbCircle
 10
1880.15
 20
3500.0
 30
0.0
 40
5.0
  0
LINE
  5
2CA
330
18
100
AcDbEntity
  8
SJC
100
AcDbLine
 10
1859.45
 20
3475.0
 30
0.0
 11
1859.45
 21
3525.0
 31
0.0
  0
LINE
  5
2CB
330
18
100
AcDbEntity
  8
SJC
100
AcDbLine
 10
1897.45
 20
3475.0
 30
0.0
 11
1897.45
 21
3525.0
 31
0.0
  0
CIRCLE
  5
2CC
330
18
100
AcDbEntity
  8
SJC
100
AcDbCircle
 10
2200.0
 20
3425.0
 30
0.0
 40
5.0
  0
CIRCLE
  5
2CD
330
18
100
AcDbEntity
  8
SJC
100
AcDbCircle
 10
2600.0
 20
3425.0
 30
0.0
 40
5.0
  0
LINE
  5
2CE
330
18
100
AcDbEntity
  8
KASOU
100
AcDbLine
 10
1300.0
 20
3845.0
 30
0.0
 11
1529.999999999999
 21
3845.0
 31
0.0
  0
LINE
  5
2CF
330
18
100
AcDbEntity
  8
KASOU
100
AcDbLine
 10
1300.0
 20
4155.0
 30
0.0
 11
1530.0
 21
4155.0
 31
0.0
  0
LINE
  5
2D0
330
18
100
AcDbEntity
  8
KASOU
100
AcDbLine
 10
1300.0
 20
4155.0
 30
0.0
 11
1300.0
 21
3845.0
 31
0.0
  0
ARC
  5
2D1
330
18
100
AcDbEntity
  8
KASOU
100
AcDbCircle
 10
1320.0
 20
3845.0
 30
0.0
 40
20.0
100
AcDbArc
 50
180.0
 51
270.0
  0
LINE
  5
2D2
330
18
100
AcDbEntity
  8
KASOU
100
AcDbLine
 10
1970.0
 20
3965.0
 30
0.0
 11
1970.0
 21
3825.0
 31
0.0
  0
LINE
  5
2D3
330
18
100
AcDbEntity
  8
SJC
100
AcDbLine
 10
1859.45
 20
3750.0
 30
0.0
 11
1859.45
 21
3700.0
 31
0.0
  0
LINE
  5
2D4
330
18
100
AcDbEntity
  8
SJC
100
AcDbLine
 10
1897.45
 20
3750.0
 30
0.0
 11
1897.45
 21
3700.0
 31
0.0
  0
LINE
  5
2D5
330
18
100
AcDbEntity
  8
SJC
100
AcDbLine
 10
1740.55
 20
3750.0
 30
0.0
 11
1740.55
 21
3700.0
 31
0.0
  0
LINE
  5
2D6
330
18
100
AcDbEntity
  8
SJC
100
AcDbLine
 10
1702.55
 20
3750.0
 30
0.0
 11
1702.55
 21
3700.0
 31
0.0
  0
LINE
  5
2D7
330
18
100
AcDbEntity
  8
SJC
100
AcDbLine
 10
1702.55
 20
3700.0
 30
0.0
 11
1897.45
 21
3700.0
 31
0.0
  0
CIRCLE
  5
2D8
330
18
100
AcDbEntity
  8
SJC
100
AcDbCircle
 10
1719.85
 20
3725.0
 30
0.0
 40
5.0
  0
CIRCLE
  5
2D9
330
18
100
AcDbEntity
  8
SJC
100
AcDbCircle
 10
1880.15
 20
3725.0
 30
0.0
 40
5.0
  0
LINE
  5
2DA
330
18
100
AcDbEntity
  8
SJC
100
AcDbLine
 10
1702.55
 20
3750.0
 30
0.0
 11
1897.45
 21
3750.0
 31
0.0
  0
LINE
  5
2DB
330
18
100
AcDbEntity
  8
SJC
100
AcDbLine
 10
1742.85
 20
3825.0
 30
0.0
 11
1742.85
 21
3750.0
 31
0.0
  0
LINE
  5
2DC
330
18
100
AcDbEntity
  8
KASOU
100
AcDbLine
 10
1530.0
 20
3845.0
 30
0.0
 11
1630.0
 21
3860.0
 31
0.0
  0
LINE
  5
2DD
330
18
100
AcDbEntity
  8
SJC
100
AcDbLine
 10
1857.15
 20
3825.0
 30
0.0
 11
1857.15
 21
3750.0
 31
0.0
  0
CIRCLE
  5
2DE
330
18
100
AcDbEntity
  8
SJC
100
AcDbCircle
 10
1880.15
 20
3800.0
 30
0.0
 40
5.0
  0
CIRCLE
  5
2DF
330
18
100
AcDbEntity
  8
SJC
100
AcDbCircle
 10
2200.0
 20
3800.0
 30
0.0
 40
5.0
  0
CIRCLE
  5
2E0
330
18
100
AcDbEntity
  8
SJC
100
AcDbCircle
 10
2600.0
 20
3800.0
 30
0.0
 40
5.0
  0
LINE
  5
2E1
330
18
100
AcDbEntity
  8
KASOU
100
AcDbLine
 10
2015.0
 20
4025.0
 30
0.0
 11
2015.0
 21
3975.0
 31
0.0
  0
LINE
  5
2E2
330
18
100
AcDbEntity
  8
KASOU
100
AcDbLine
 10
1970.0
 20
3965.0
 30
0.0
 11
2015.0
 21
3975.0
 31
0.0
  0
LINE
  5
2E3
330
18
100
AcDbEntity
  8
KASOU
100
AcDbLine
 10
1530.0
 20
4155.0
 30
0.0
 11
1630.0
 21
4140.0
 31
0.0
  0
LINE
  5
2E4
330
18
100
AcDbEntity
  8
KASOU
100
AcDbLine
 10
1970.0
 20
4035.0
 30
0.0
 11
2015.0
 21
4025.0
 31
0.0
  0
LINE
  5
2E5
330
18
100
AcDbEntity
  8
SJC
100
AcDbLine
 10
3857.15
 20
3700.0
 30
0.0
 11
3857.15
 21
3525.0
 31
0.0
  0
LINE
  5
2E6
330
18
100
AcDbEntity
  8
SJC
100
AcDbLine
 10
3742.850000000001
 20
3700.0
 30
0.0
 11
3742.850000000001
 21
3525.0
 31
0.0
  0
CIRCLE
  5
2E7
330
18
100
AcDbEntity
  8
SJC
100
AcDbCircle
 10
3000.0
 20
3425.0
 30
0.0
 40
5.0
  0
CIRCLE
  5
2E8
330
18
100
AcDbEntity
  8
SJC
100
AcDbCircle
 10
3400.0
 20
3425.0
 30
0.0
 40
5.0
  0
CIRCLE
  5
2E9
330
18
100
AcDbEntity
  8
SJC
100
AcDbCircle
 10
3720.0
 20
3425.0
 30
0.0
 40
5.0
  0
LINE
  5
2EA
330
18
100
AcDbEntity
  8
SJC
100
AcDbLine
 10
3857.15
 20
3475.0
 30
0.0
 11
3857.15
 21
3400.0
 31
0.0
  0
LINE
  5
2EB
330
18
100
AcDbEntity
  8
SJC
100
AcDbLine
 10
3742.850000000001
 20
3475.0
 30
0.0
 11
3742.850000000001
 21
3400.0
 31
0.0
  0
CIRCLE
  5
2ED
330
18
100
AcDbEntity
  8
SJC
100
AcDbCircle
 10
4200.0
 20
3425.0
 30
0.0
 40
5.0
  0
LINE
  5
2EE
330
18
100
AcDbEntity
  8
SJC
100
AcDbLine
 10
3702.55
 20
3525.0
 30
0.0
 11
3897.45
 21
3524.999999999999
 31
0.0
  0
LINE
  5
2EF
330
18
100
AcDbEntity
  8
SJC
100
AcDbLine
 10
3702.55
 20
3475.0
 30
0.0
 11
3897.45
 21
3475.000000000001
 31
0.0
  0
CIRCLE
  5
2F0
330
18
100
AcDbEntity
  8
SJC
100
AcDbCircle
 10
3719.85
 20
3500.0
 30
0.0
 40
5.0
  0
LINE
  5
2F1
330
18
100
AcDbEntity
  8
SJC
100
AcDbLine
 10
3740.550000000001
 20
3475.0
 30
0.0
 11
3740.550000000001
 21
3525.0
 31
0.0
  0
LINE
  5
2F2
330
18
100
AcDbEntity
  8
SJC
100
AcDbLine
 10
3702.55
 20
3475.0
 30
0.0
 11
3702.55
 21
3525.0
 31
0.0
  0
CIRCLE
  5
2F3
330
18
100
AcDbEntity
  8
SJC
100
AcDbCircle
 10
3880.15
 20
3500.0
 30
0.0
 40
5.0
  0
LINE
  5
2F4
330
18
100
AcDbEntity
  8
SJC
100
AcDbLine
 10
3859.45
 20
3475.0
 30
0.0
 11
3859.45
 21
3525.0
 31
0.0
  0
LINE
  5
2F5
330
18
100
AcDbEntity
  8
SJC
100
AcDbLine
 10
3897.45
 20
3475.0
 30
0.0
 11
3897.45
 21
3525.0
 31
0.0
  0
CIRCLE
  5
2F6
330
18
100
AcDbEntity
  8
SJC
100
AcDbCircle
 10
4600.0
 20
3425.0
 30
0.0
 40
5.0
  0
CIRCLE
  5
2F7
330
18
100
AcDbEntity
  8
SJC
100
AcDbCircle
 10
3000.0
 20
3800.0
 30
0.0
 40
5.0
  0
CIRCLE
  5
2F8
330
18
100
AcDbEntity
  8
SJC
100
AcDbCircle
 10
3400.0
 20
3800.0
 30
0.0
 40
5.0
  0
CIRCLE
  5
2F9
330
18
100
AcDbEntity
  8
SJC
100
AcDbCircle
 10
3719.85
 20
3800.0
 30
0.0
 40
5.0
  0
LINE
  5
2FA
330
18
100
AcDbEntity
  8
SJC
100
AcDbLine
 10
3859.45
 20
3750.0
 30
0.0
 11
3859.45
 21
3700.0
 31
0.0
  0
LINE
  5
2FB
330
18
100
AcDbEntity
  8
SJC
100
AcDbLine
 10
3897.45
 20
3750.0
 30
0.0
 11
3897.45
 21
3700.0
 31
0.0
  0
LINE
  5
2FC
330
18
100
AcDbEntity
  8
SJC
100
AcDbLine
 10
3740.550000000001
 20
3750.0
 30
0.0
 11
3740.550000000001
 21
3700.0
 31
0.0
  0
LINE
  5
2FD
330
18
100
AcDbEntity
  8
SJC
100
AcDbLine
 10
3702.55
 20
3750.0
 30
0.0
 11
3702.55
 21
3700.0
 31
0.0
  0
LINE
  5
2FE
330
18
100
AcDbEntity
  8
SJC
100
AcDbLine
 10
3702.55
 20
3700.0
 30
0.0
 11
3897.45
 21
3700.0
 31
0.0
  0
CIRCLE
  5
2FF
330
18
100
AcDbEntity
  8
SJC
100
AcDbCircle
 10
3719.85
 20
3725.0
 30
0.0
 40
5.0
  0
CIRCLE
  5
300
330
18
100
AcDbEntity
  8
SJC
100
AcDbCircle
 10
3880.15
 20
3725.0
 30
0.0
 40
5.0
  0
LINE
  5
301
330
18
100
AcDbEntity
  8
SJC
100
AcDbLine
 10
3857.15
 20
3825.0
 30
0.0
 11
3857.15
 21
3750.0
 31
0.0
  0
LINE
  5
302
330
18
100
AcDbEntity
  8
SJC
100
AcDbLine
 10
3742.850000000001
 20
3825.0
 30
0.0
 11
3742.850000000001
 21
3750.0
 31
0.0
  0
LINE
  5
303
330
18
100
AcDbEntity
  8
SJC
100
AcDbLine
 10
3702.55
 20
3750.0
 30
0.0
 11
3897.45
 21
3750.0
 31
0.0
  0
CIRCLE
  5
305
330
18
100
AcDbEntity
  8
SJC
100
AcDbCircle
 10
4200.0
 20
3800.0
 30
0.0
 40
5.0
  0
CIRCLE
  5
306
330
18
100
AcDbEntity
  8
SJC
100
AcDbCircle
 10
4600.0
 20
3800.0
 30
0.0
 40
5.0
  0
LINE
  5
307
330
18
100
AcDbEntity
  8
KASOU
100
AcDbLine
 10
5961.0
 20
4175.0
 30
0.0
 11
5911.0
 21
4140.0
 31
0.0
  0
LINE
  5
308
330
18
100
AcDbEntity
  8
SJC2
100
AcDbLine
 10
5200.0
 20
4195.0
 30
0.0
 11
5200.0
 21
3965.0
 31
0.0
  0
LINE
  5
309
330
18
100
AcDbEntity
  8
SJC2
100
AcDbLine
 10
6054.5
 20
3821.0
 30
0.0
 11
6054.5
 21
3404.0
 31
0.0
  0
LINE
  5
30A
330
18
100
AcDbEntity
  8
SJC2
100
AcDbLine
 10
6045.5
 20
3821.0
 30
0.0
 11
6045.5
 21
3404.0
 31
0.0
  0
LINE
  5
30B
330
18
100
AcDbEntity
  8
SJC2
100
AcDbLine
 10
6048.5
 20
3821.0
 30
0.0
 11
6048.5
 21
3404.0
 31
0.0
  0
LINE
  5
30C
330
18
100
AcDbEntity
  8
SJC2
100
AcDbLine
 10
5200.0
 20
3700.0
 30
0.0
 11
5200.0
 21
3400.0
 31
0.0
  0
LINE
  5
30D
330
18
100
AcDbEntity
  8
SJC
100
AcDbLine
 10
6107.15
 20
3700.0
 30
0.0
 11
6107.15
 21
3525.0
 31
0.0
  0
LINE
  5
30E
330
18
100
AcDbEntity
  8
SJC
100
AcDbLine
 10
5992.85
 20
3700.0
 30
0.0
 11
5992.85
 21
3525.0
 31
0.0
  0
LINE
  5
30F
330
18
100
AcDbEntity
  8
SJC
100
AcDbLine
 10
5725.356745115827
 20
3400.0
 30
0.0
 11
6222.450534389031
 21
3400.0
 31
0.0
  0
CIRCLE
  5
310
330
18
100
AcDbEntity
  8
SJC
100
AcDbCircle
 10
5000.0
 20
3425.0
 30
0.0
 40
5.0
  0
LINE
  5
311
330
18
100
AcDbEntity
  8
SJC
100
AcDbLine
 10
5992.85
 20
3475.0
 30
0.0
 11
5992.85
 21
3400.0
 31
0.0
  0
LINE
  5
312
330
18
100
AcDbEntity
  8
SJC
100
AcDbLine
 10
6107.15
 20
3475.0
 30
0.0
 11
6107.15
 21
3400.0
 31
0.0
  0
LINE
  5
313
330
18
100
AcDbEntity
  8
SJC2
100
AcDbLine
 10
6041.5
 20
3450.0
 30
0.0
 11
6041.5
 21
3400.0
 31
0.0
  0
LINE
  5
314
330
18
100
AcDbEntity
  8
SJC2
100
AcDbLine
 10
6045.5
 20
3404.0
 30
0.0
 11
6091.499999999999
 21
3404.0
 31
0.0
  0
LINE
  5
315
330
18
100
AcDbEntity
  8
SJC2
100
AcDbLine
 10
6091.499999999999
 20
3404.0
 30
0.0
 11
6091.499999999999
 21
3400.0
 31
0.0
  0
LINE
  5
316
330
18
100
AcDbEntity
  8
SJC2
100
AcDbLine
 10
6041.5
 20
3450.0
 30
0.0
 11
6045.5
 21
3450.0
 31
0.0
  0
LINE
  5
317
330
18
100
AcDbEntity
  8
SJC2
100
AcDbLine
 10
5990.549999999999
 20
3525.0
 30
0.0
 11
6045.5
 21
3525.0
 31
0.0
  0
LINE
  5
318
330
18
100
AcDbEntity
  8
SJC2
100
AcDbLine
 10
5990.549999999999
 20
3475.0
 30
0.0
 11
6045.5
 21
3475.000000000001
 31
0.0
  0
LINE
  5
319
330
18
100
AcDbEntity
  8
SJC2
100
AcDbLine
 10
5990.549999999999
 20
3475.0
 30
0.0
 11
5990.549999999999
 21
3525.0
 31
0.0
  0
LINE
  5
31A
330
18
100
AcDbEntity
  8
SJC2
100
AcDbLine
 10
6109.450000000001
 20
3475.0
 30
0.0
 11
6109.450000000001
 21
3525.0
 31
0.0
  0
LINE
  5
31B
330
18
100
AcDbEntity
  8
SJC2
100
AcDbLine
 10
6056.799999999999
 20
3525.0
 30
0.0
 11
6056.799999999999
 21
3475.0
 31
0.0
  0
LINE
  5
31C
330
18
100
AcDbEntity
  8
SJC2
100
AcDbLine
 10
6043.200000000001
 20
3525.0
 30
0.0
 11
6043.200000000001
 21
3475.0
 31
0.0
  0
LINE
  5
31D
330
18
100
AcDbEntity
  8
SJC2
100
AcDbLine
 10
5225.0
 20
3965.0
 30
0.0
 11
5175.0
 21
3700.0
 31
0.0
  0
LINE
  5
31E
330
18
100
AcDbEntity
  8
SJC2
100
AcDbLine
 10
5175.0
 20
3700.0
 30
0.0
 11
5200.0
 21
3700.0
 31
0.0
  0
CIRCLE
  5
31F
330
18
100
AcDbEntity
  8
SJC
100
AcDbCircle
 10
5000.0
 20
3800.0
 30
0.0
 40
5.0
  0
LINE
  5
320
330
18
100
AcDbEntity
  8
SJC
100
AcDbLine
 10
5992.85
 20
4090.0
 30
0.0
 11
5992.85
 21
3750.0
 31
0.0
  0
LINE
  5
321
330
18
100
AcDbEntity
  8
SJC
100
AcDbLine
 10
6107.15
 20
4090.0
 30
0.0
 11
6107.15
 21
3750.0
 31
0.0
  0
LINE
  5
322
330
18
100
AcDbEntity
  8
KASOU
100
AcDbLine
 10
5911.0
 20
3930.0
 30
0.0
 11
5911.0
 21
3860.0
 31
0.0
  0
LINE
  5
323
330
18
100
AcDbEntity
  8
SJC2
100
AcDbLine
 10
6109.450000000001
 20
3750.0
 30
0.0
 11
6109.450000000001
 21
3700.0
 31
0.0
  0
LINE
  5
324
330
18
100
AcDbEntity
  8
SJC2
100
AcDbLine
 10
6056.799999999999
 20
3750.0
 30
0.0
 11
6056.799999999999
 21
3700.0
 31
0.0
  0
LINE
  5
325
330
18
100
AcDbEntity
  8
SJC2
100
AcDbLine
 10
6043.200000000001
 20
3750.0
 30
0.0
 11
6043.200000000001
 21
3700.0
 31
0.0
  0
LINE
  5
326
330
18
100
AcDbEntity
  8
SJC2
100
AcDbLine
 10
5990.549999999999
 20
3750.0
 30
0.0
 11
5990.549999999999
 21
3700.0
 31
0.0
  0
LINE
  5
327
330
18
100
AcDbEntity
  8
SJC
100
AcDbLine
 10
5990.549999999999
 20
3700.0
 30
0.0
 11
6045.5
 21
3700.0
 31
0.0
  0
LINE
  5
328
330
18
100
AcDbEntity
  8
SJC2
100
AcDbLine
 10
6041.5
 20
3775.0
 30
0.0
 11
6041.5
 21
3825.0
 31
0.0
  0
LINE
  5
329
330
18
100
AcDbEntity
  8
SJC2
100
AcDbLine
 10
5990.549999999999
 20
3750.0
 30
0.0
 11
6045.5
 21
3750.0
 31
0.0
  0
LINE
  5
32A
330
18
100
AcDbEntity
  8
SJC2
100
AcDbLine
 10
6041.5
 20
3775.0
 30
0.0
 11
6045.5
 21
3775.0
 31
0.0
  0
LINE
  5
32B
330
18
100
AcDbEntity
  8
KASOU
100
AcDbLine
 10
5911.0
 20
3860.0
 30
0.0
 11
5961.0
 21
3825.0
 31
0.0
  0
LINE
  5
32C
330
18
100
AcDbEntity
  8
SJC2
100
AcDbLine
 10
6045.5
 20
3821.0
 30
0.0
 11
6091.499999999999
 21
3821.0
 31
0.0
  0
LINE
  5
32D
330
18
100
AcDbEntity
  8
SJC2
100
AcDbLine
 10
6041.5
 20
3825.0
 30
0.0
 11
6091.499999999999
 21
3825.0
 31
0.0
  0
LINE
  5
32E
330
18
100
AcDbEntity
  8
SJC2
100
AcDbLine
 10
6091.499999999999
 20
3821.0
 30
0.0
 11
6091.499999999999
 21
3825.0
 31
0.0
  0
LINE
  5
32F
330
18
100
AcDbEntity
  8
KASOU
100
AcDbLine
 10
5971.0
 20
4035.0
 30
0.0
 11
5971.0
 21
3965.0
 31
0.0
  0
LINE
  5
330
330
18
100
AcDbEntity
  8
KASOU
100
AcDbLine
 10
5961.0
 20
4035.0
 30
0.0
 11
5961.0
 21
3965.0
 31
0.0
  0
LINE
  5
331
330
18
100
AcDbEntity
  8
KASOU
100
AcDbLine
 10
5961.0
 20
3965.0
 30
0.0
 11
5911.0
 21
3930.0
 31
0.0
  0
LINE
  5
332
330
18
100
AcDbEntity
  8
KASOU
100
AcDbLine
 10
5992.85
 20
3965.0
 30
0.0
 11
5961.0
 21
3965.0
 31
0.0
  0
LINE
  5
333
330
18
100
AcDbEntity
  8
KASOU
100
AcDbLine
 10
5911.0
 20
4140.0
 30
0.0
 11
5911.0
 21
4070.0
 31
0.0
  0
LINE
  5
334
330
18
100
AcDbEntity
  8
KASOU
100
AcDbLine
 10
5911.0
 20
4070.0
 30
0.0
 11
5961.0
 21
4035.0
 31
0.0
  0
LINE
  5
335
330
18
100
AcDbEntity
  8
KASOU
100
AcDbLine
 10
5992.85
 20
4035.0
 30
0.0
 11
5961.0
 21
4035.0
 31
0.0
  0
ARC
  5
336
330
18
100
AcDbEntity
  8
SJC
100
AcDbCircle
 10
6049.999999999998
 20
3987.049308815573
 30
0.0
 40
127.6407503074153
100
AcDbArc
 50
62.2405585733248
 51
117.7594414266752
  0
LINE
  5
337
330
18
100
AcDbEntity
  8
SJC
100
AcDbLine
 10
5990.549999999999
 20
4090.0
 30
0.0
 11
6109.449999999998
 21
4090.0
 31
0.0
  0
LINE
  5
338
330
18
100
AcDbEntity
  8
SJC
100
AcDbLine
 10
5990.549999999999
 20
4100.0
 30
0.0
 11
6109.449999999998
 21
4100.0
 31
0.0
  0
LINE
  5
339
330
18
100
AcDbEntity
  8
SJC
100
AcDbLine
 10
5990.549999999999
 20
4100.0
 30
0.0
 11
5990.549999999999
 21
4090.0
 31
0.0
  0
LINE
  5
33A
330
18
100
AcDbEntity
  8
SJC
100
AcDbLine
 10
6109.449999999998
 20
4100.0
 30
0.0
 11
6109.449999999998
 21
4090.0
 31
0.0
  0
LWPOLYLINE
  5
33B
330
18
100
AcDbEntity
  8
MOJI
100
AcDbPolyline
 90
        4
 70
     0
 43
0.0
 10
2579.290480330358
 20
3639.054397839741
 42
0.4274428357941544
 10
2587.279473197974
 20
3686.685551606164
 42
-1.045997049823064
 10
2587.279473197974
 20
3686.685551606164
 42
-0.5977673222641586
 10
2595.224964875431
 20
3726.784268418866
 42
-14.94395005431955
  0
LINE
  5
341
330
18
100
AcDbEntity
  8
SJC2
100
AcDbLine
 10
6054.5
 20
3525.0
 30
0.0
 11
6109.450000000001
 21
3525.0
 31
0.0
  0
LINE
  5
342
330
18
100
AcDbEntity
  8
SJC2
100
AcDbLine
 10
6054.5
 20
3475.000000000001
 30
0.0
 11
6109.450000000001
 21
3475.0
 31
0.0
  0
LINE
  5
343
330
18
100
AcDbEntity
  8
SJC2
100
AcDbLine
 10
6054.5
 20
3750.0
 30
0.0
 11
6109.450000000001
 21
3750.0
 31
0.0
  0
LINE
  5
344
330
18
100
AcDbEntity
  8
SJC2
100
AcDbLine
 10
5990.549999999999
 20
3700.0
 30
0.0
 11
6109.450000000001
 21
3700.0
 31
0.0
  0
LINE
  5
345
330
18
100
AcDbEntity
  8
SJC
100
AcDbLine
 10
6339.999983360776
 20
2229.99999996855
 30
0.0
 11
6340.000016639226
 21
2163.33340003145
 31
0.0
  0
INSERT
  5
358
330
18
100
AcDbEntity
  8
ZWAKU
100
AcDbBlockReference
  2
CALCOMP_TECHJET720A3
 10
0.0
 20
0.0
 30
0.0
 41
20.0
 42
20.0
 43
20.0
  0
TEXT
  5
35A
330
18
100
AcDbEntity
  8
INFORMATION
100
AcDbText
 10
1.0
 20
2.0
 30
0.0
 40
0.8
  1
PLOTTER=CALCOMP_TECHJET720
  7
EXT08
100
AcDbText
  0
TEXT
  5
35B
330
18
100
AcDbEntity
  8
INFORMATION
100
AcDbText
 10
1.0
 20
3.0
 30
0.0
 40
0.8
  1
PAPER=A3
  7
EXT08
100
AcDbText
  0
LINE
  5
35C
330
18
100
AcDbEntity
  8
MOJI2
100
AcDbLine
 10
1738.936310166736
 20
2860.006186682737
 30
0.0
 11
2215.92093777383
 21
2860.006186682737
 31
0.0
  0
LINE
  5
35D
330
18
100
AcDbEntity
  8
MOJI2
100
AcDbLine
 10
747.2463149870309
 20
4824.39962439183
 30
0.0
 11
1009.899433923761
 21
4824.39962439183
 31
0.0
  0
LINE
  5
378
330
18
100
AcDbEntity
  8
MOJI2
100
AcDbLine
 10
4850.879277464202
 20
2940.0
 30
0.0
 11
5434.789216874105
 21
2940.0
 31
0.0
  0
TEXT
  5
379
330
18
100
AcDbEntity
  8
MOJI
100
AcDbText
 10
5742.924773558371
 20
3421.986028884527
 30
0.0
 40
60.0
  1
GL
 41
0.8
  7
EXT08
100
AcDbText
  0
DIMENSION
  5
386
330
18
100
AcDbEntity
  8
SUNPOU
100
AcDbDimension
  2
*D3
 10
6420.0
 20
4000.0
 30
0.0
 11
6365.999999999999
 21
3700.000000000001
 31
0.0
 70
    32
 71
     5
 42
-1.0
  3
SJC
100
AcDbAlignedDimension
 13
6222.450534389031
 23
3400.0
 33
0.0
 14
6050.0625
 24
4000.0
 34
0.0
 50
90.0
100
AcDbRotatedDimension
1001
ACAD
1000
DSTYLE
1002
{
1070
   287
1070
     5
1070
   287
1070
     5
1070
   287
1070
     5
1070
    40
1040
20.0
1070
    41
1040
2.0
1070
    42
1040
1.0
1070
    43
1040
6.0
1070
    44
1040
1.0
1070
    73
1070
     0
1070
    74
1070
     0
1070
    77
1070
     1
1070
    78
1070
     8
1070
   140
1040
3.0
1070
   147
1040
1.199999999999999
1070
   172
1070
     1
1070
   176
1070
   256
1070
   177
1070
   256
1070
   178
1070
   256
1070
   271
1070
     1
1070
   275
1070
     1
1070
   279
1070
     2
1070
   340
1005
373
1002
}
  0
TEXT
  5
3AE
330
18
100
AcDbEntity
  8
MOJI
100
AcDbText
 10
5817.659626528981
 20
4400.147232446028
 30
0.0
 40
70.0
  1
DB-2-GR
 41
0.8
  7
EXT08
100
AcDbText
  0
DIMENSION
  5
3D4
330
18
100
AcDbEntity
  8
SUNPOU
100
AcDbDimension
  2
*D6
 10
3799.999999999999
 20
4675.0
 30
0.0
 11
2800.0
 21
4729.0
 31
0.0
 70
    32
 71
     5
 42
-1.0
  3
SJC
100
AcDbAlignedDimension
 13
1800.0
 23
4236.018680186027
 33
0.0
 14
3799.999999999999
 24
4236.018680186027
 34
0.0
100
AcDbRotatedDimension
1001
ACAD
1000
DSTYLE
1002
{
1070
   287
1070
     5
1070
   287
1070
     5
1070
   287
1070
     5
1070
    40
1040
20.0
1070
    41
1040
2.0
1070
    42
1040
1.0
1070
    43
1040
6.0
1070
    44
1040
1.0
1070
    73
1070
     0
1070
    74
1070
     0
1070
    77
1070
     1
1070
    78
1070
     8
1070
   140
1040
3.0
1070
   147
1040
1.199999999999999
1070
   172
1070
     1
1070
   176
1070
   256
1070
   177
1070
   256
1070
   178
1070
   256
1070
   271
1070
     1
1070
   275
1070
     1
1070
   279
1070
     2
1070
   340
1005
373
1002
}
  0
DIMENSION
  5
3E1
330
18
100
AcDbEntity
  8
SUNPOU
100
AcDbDimension
  2
*D7
 10
1800.0
 20
4675.0
 30
0.0
 11
1550.0
 21
4729.0
 31
0.0
 70
    32
 71
     5
 42
-1.0
  3
SJC
100
AcDbAlignedDimension
 13
1300.0
 23
4155.0
 33
0.0
 14
1800.0
 24
4236.018680186027
 34
0.0
100
AcDbRotatedDimension
1001
ACAD
1000
DSTYLE
1002
{
1070
   287
1070
     5
1070
   287
1070
     5
1070
   287
1070
     5
1070
    40
1040
20.0
1070
    41
1040
2.0
1070
    42
1040
1.0
1070
    43
1040
6.0
1070
    44
1040
1.0
1070
    73
1070
     0
1070
    74
1070
     0
1070
    77
1070
     1
1070
    78
1070
     8
1070
   140
1040
3.0
1070
   147
1040
1.199999999999999
1070
   172
1070
     1
1070
   176
1070
   256
1070
   177
1070
   256
1070
   178
1070
   256
1070
   271
1070
     1
1070
   275
1070
     1
1070
   279
1070
     2
1070
   340
1005
373
1002
}
  0
DIMENSION
  5
430
330
18
100
AcDbEntity
  8
SUNPOU
100
AcDbDimension
  2
*D11
 10
1800.0
 20
3253.162411854756
 30
0.0
 11
1835.500322992353
 21
3188.86041350091
 31
0.0
 70
   160
 71
     5
 42
-1.0
  3
SJC
100
AcDbAlignedDimension
 13
1880.0
 23
3400.0
 33
0.0
 14
1800.0
 24
3400.0
 34
0.0
100
AcDbRotatedDimension
1001
ACAD
1000
DSTYLE
1002
{
1070
   287
1070
     5
1070
   287
1070
     5
1070
   287
1070
     5
1070
    40
1040
20.0
1070
    41
1040
2.0
1070
    42
1040
1.0
1070
    43
1040
6.0
1070
    44
1040
1.0
1070
    73
1070
     0
1070
    74
1070
     0
1070
    77
1070
     1
1070
    78
1070
     8
1070
   140
1040
3.0
1070
   147
1040
1.199999999999999
1070
   172
1070
     1
1070
   176
1070
   256
1070
   177
1070
   256
1070
   178
1070
   256
1070
   271
1070
     1
1070
   275
1070
     1
1070
   279
1070
     2
1070
   340
1005
373
1002
}
  0
DIMENSION
  5
43F
330
18
100
AcDbEntity
  8
SUNPOU
100
AcDbDimension
  2
*D12
 10
3800.000000000001
 20
3253.162411854756
 30
0.0
 11
3750.0
 21
3188.86041350091
 31
0.0
 70
   160
 71
     5
 42
-1.0
  3
SJC
100
AcDbAlignedDimension
 13
3720.0
 23
3425.0
 33
0.0
 14
3800.000000000001
 24
3400.0
 34
0.0
100
AcDbRotatedDimension
1001
ACAD
1000
DSTYLE
1002
{
1070
   287
1070
     5
1070
   287
1070
     5
1070
   287
1070
     5
1070
    40
1040
20.0
1070
    41
1040
2.0
1070
    42
1040
1.0
1070
    43
1040
6.0
1070
    44
1040
1.0
1070
    73
1070
     0
1070
    74
1070
     0
1070
    77
1070
     1
1070
    78
1070
     8
1070
   140
1040
3.0
1070
   147
1040
1.199999999999999
1070
   172
1070
     1
1070
   176
1070
   256
1070
   177
1070
   256
1070
   178
1070
   256
1070
   271
1070
     1
1070
   275
1070
     1
1070
   279
1070
     2
1070
   340
1005
373
1002
}
  0
TEXT
  5
497
330
18
100
AcDbEntity
  8
MOJI
100
AcDbText
 10
1314.154910775935
 20
3421.986028884527
 30
0.0
 40
60.0
  1
GL
 41
0.8
  7
EXT08
100
AcDbText
  0
LINE
  5
499
330
18
100
AcDbEntity
  8
SUNPOU
100
AcDbLine
 10
2000.0
 20
2668.908849879083
 30
0.0
 11
2000.0
 21
2363.03593660522
 31
0.0
  0
TEXT
  5
49B
330
18
100
AcDbEntity
  8
SUNPOU
100
AcDbText
 10
2676.857142857143
 20
2684.463711878716
 30
0.0
 40
60.0
  1
2000
 41
0.8
  7
EXT08
 72
     2
 11
2852.857142857143
 21
2714.463711878716
 31
0.0
100
AcDbText
 73
     2
  0
LEADER
  5
704
330
18
100
AcDbEntity
  8
MOJI
100
AcDbLeader
  3
SJC
 76
     2
 10
2587.279473197974
 20
3686.685551606164
 30
0.0
 10
2718.64868342636
 20
3597.157371598441
 30
0.0
1001
ACAD
1000
DSTYLE
1002
{
1070
     5
1000

1070
    40
1040
20.0
1070
    41
1040
2.0
1070
    42
1040
1.0
1070
    43
1040
6.0
1070
    44
1040
1.0
1070
    73
1070
     0
1070
    74
1070
     0
1070
    77
1070
     1
1070
    78
1070
     8
1070
   140
1040
3.0
1070
   144
1040
0.5
1070
   147
1040
1.199999999999999
1070
   172
1070
     1
1070
   176
1070
   256
1070
   177
1070
   256
1070
   178
1070
   256
1070
   271
1070
     2
1070
   275
1070
     1
1070
   287
1070
     5
1070
   340
1005
373
1070
   342
1005
0
1002
}
  0
CIRCLE
  5
70F
330
18
100
AcDbEntity
  8
SJC
100
AcDbCircle
 10
5266.666666512501
 20
2216.666666605
 30
0.0
 40
380.9999999647575
  0
CIRCLE
  5
A39
330
18
100
AcDbEntity
  8
SJC
100
AcDbCircle
 10
3880.15
 20
3800.0
 30
0.0
 40
5.0
  0
CIRCLE
  5
A3A
330
18
100
AcDbEntity
  8
SJC
100
AcDbCircle
 10
3880.0
 20
3425.0
 30
0.0
 40
5.0
  0
TEXT
  5
E62
330
18
100
AcDbEntity
  8
INFORMATION
100
AcDbText
 10
1.0
 20
1.0
 30
0.0
 40
0.8
  1
VERSION=3.0
100
AcDbText
  0
LINE
  5
1156
330
18
100
AcDbEntity
  8
MOJI
100
AcDbLine
 10
6414.297941663554
 20
1413.227014744872
 30
0.0
 11
4837.77729610124
 21
1413.227014744872
 31
0.0
  0
LINE
  5
1158
330
18
100
AcDbEntity
  8
MOJI
100
AcDbLine
 10
6414.297941663554
 20
1313.227014744872
 30
0.0
 11
4837.77729610124
 21
1313.227014744872
 31
0.0
  0
LINE
  5
1159
330
18
100
AcDbEntity
  8
MOJI
100
AcDbLine
 10
6414.297941663554
 20
1213.227014744872
 30
0.0
 11
4837.77729610124
 21
1213.227014744873
 31
0.0
  0
LINE
  5
115A
330
18
100
AcDbEntity
  8
MOJI
100
AcDbLine
 10
6414.297941663554
 20
1113.227014744872
 30
0.0
 11
4837.77729610124
 21
1113.227014744872
 31
0.0
  0
LINE
  5
115B
330
18
100
AcDbEntity
  8
MOJI
100
AcDbLine
 10
6414.297941663554
 20
1013.227014744872
 30
0.0
 11
4837.77729610124
 21
1013.227014744872
 31
0.0
  0
LINE
  5
115C
330
18
100
AcDbEntity
  8
MOJI
100
AcDbLine
 10
6414.297941663554
 20
913.2270147448725
 30
0.0
 11
4837.77729610124
 21
913.2270147448727
 31
0.0
  0
LINE
  5
115D
330
18
100
AcDbEntity
  8
MOJI
100
AcDbLine
 10
6414.297941663554
 20
813.2270147448725
 30
0.0
 11
4837.77729610124
 21
813.2270147448727
 31
0.0
  0
LINE
  5
115E
330
18
100
AcDbEntity
  8
MOJI
100
AcDbLine
 10
4837.77729610124
 20
1413.227014744872
 30
0.0
 11
4837.77729610124
 21
713.2270147448727
 31
0.0
  0
LINE
  5
115F
330
18
100
AcDbEntity
  8
MOJI
100
AcDbLine
 10
5152.28671997508
 20
1413.227014744872
 30
0.0
 11
5152.286719975082
 21
713.2270147448727
 31
0.0
  0
LINE
  5
1160
330
18
100
AcDbEntity
  8
MOJI
100
AcDbLine
 10
5639.203987376409
 20
1413.227014744872
 30
0.0
 11
5639.203987376409
 21
713.2270147448727
 31
0.0
  0
TEXT
  5
1162
330
18
100
AcDbEntity
  8
MOJI
100
AcDbText
 10
4916.645026781946
 20
1338.187777868654
 30
0.0
 40
60.0
  1
品 名
 41
0.8
  7
EXT08
100
AcDbText
  0
TEXT
  5
1163
330
18
100
AcDbEntity
  8
MOJI
100
AcDbText
 10
5273.659328185619
 20
1338.187777868654
 30
0.0
 40
60.0
  1
材     質
 41
0.8
  7
EXT08
100
AcDbText
  0
TEXT
  5
1164
330
18
100
AcDbEntity
  8
MOJI
100
AcDbText
 10
5829.835813111798
 20
1338.187777868654
 30
0.0
 40
60.0
  1
摘        要
 41
0.8
  7
EXT08
100
AcDbText
  0
TEXT
  5
1166
330
18
100
AcDbEntity
  8
MOJI
100
AcDbText
 10
4853.554099032663
 20
1236.196767828616
 30
0.0
 40
60.0
  1
泥跳防止板
 41
0.8
  7
EXT08
100
AcDbText
  0
TEXT
  5
1168
330
18
100
AcDbEntity
  8
MOJI
100
AcDbText
 10
5168.608789342259
 20
1235.428064256954
 30
0.0
 40
60.0
  1
ポリカーボネート
 41
0.8
  7
EXT08
100
AcDbText
  0
TEXT
  5
1169
330
18
100
AcDbEntity
  8
MOJI
100
AcDbText
 10
5300.351541089161
 20
838.187777868654
 30
0.0
 40
60.0
  1
4.6相当
 41
0.8
  7
EXT08
100
AcDbText
  0
TEXT
  5
116A
330
18
100
AcDbEntity
  8
MOJI
100
AcDbText
 10
5807.361089754046
 20
1238.187777868654
 30
0.0
 40
60.0
  1
t3.0
 41
0.8
  7
EXT08
100
AcDbText
  0
TEXT
  5
116C
330
18
100
AcDbEntity
  8
MOJI
100
AcDbText
 10
4898.76838633135
 20
1136.196767828616
 30
0.0
 40
60.0
  1
横  枠
 41
0.8
  7
EXT08
100
AcDbText
  0
TEXT
  5
116E
330
18
100
AcDbEntity
  8
MOJI
100
AcDbText
 10
4898.76838633135
 20
1036.196767828616
 30
0.0
 40
60.0
  1
縦  枠
 41
0.8
  7
EXT08
100
AcDbText
  0
TEXT
  5
1171
330
18
100
AcDbEntity
  8
MOJI
100
AcDbText
 10
4856.263789301724
 20
738.1877778686539
 30
0.0
 40
60.0
  1
取付ボルト
 41
0.8
  7
EXT08
100
AcDbText
  0
TEXT
  5
1173
330
18
100
AcDbEntity
  8
MOJI
100
AcDbText
 10
4856.263789301724
 20
838.187777868654
 30
0.0
 40
60.0
  1
取付ボルト
 41
0.8
  7
EXT08
100
AcDbText
  0
TEXT
  5
1174
330
18
100
AcDbEntity
  8
MOJI
100
AcDbText
 10
5666.594618309102
 20
838.187777868654
 30
0.0
 40
60.0
  1
溶融亜鉛めっき M10\U+00D735
 41
0.8
  7
EXT08
100
AcDbText
  0
TEXT
  5
1175
330
18
100
AcDbEntity
  8
MOJI
100
AcDbText
 10
5667.213888801104
 20
1138.187777868654
 30
0.0
 40
60.0
  1
亜鉛めっき＋静電粉体塗装
 41
0.8
  7
EXT08
100
AcDbText
  0
TEXT
  5
1176
330
18
100
AcDbEntity
  8
MOJI
100
AcDbText
 10
4856.263789301724
 20
938.187777868654
 30
0.0
 40
60.0
  1
取付バンド
 41
0.8
  7
EXT08
100
AcDbText
  0
TEXT
  5
1177
330
18
100
AcDbEntity
  8
MOJI
100
AcDbText
 10
5300.351541089161
 20
738.1877778686539
 30
0.0
 40
60.0
  1
ＳＵＳ
 41
0.8
  7
EXT08
100
AcDbText
  0
TEXT
  5
1178
330
18
100
AcDbEntity
  8
MOJI
100
AcDbText
 10
5666.594618309102
 20
738.1877778686539
 30
0.0
 40
60.0
  1
M8\U+00D725（Ｕ－ナット）
 41
0.8
  7
EXT08
100
AcDbText
  0
TEXT
  5
1179
330
18
100
AcDbEntity
  8
MOJI
100
AcDbText
 10
5262.695357436788
 20
1135.190355437991
 30
0.0
 40
60.0
  1
SGH400
 41
0.8
  7
EXT08
100
AcDbText
  0
TEXT
  5
117A
330
18
100
AcDbEntity
  8
MOJI
100
AcDbText
 10
5260.94043132203
 20
1039.420817852418
 30
0.0
 40
60.0
  1
SGH400
 41
0.8
  7
EXT08
100
AcDbText
  0
TEXT
  5
117B
330
18
100
AcDbEntity
  8
MOJI
100
AcDbText
 10
5667.213888801104
 20
1042.418240283081
 30
0.0
 40
60.0
  1
亜鉛めっき＋静電粉体塗装
 41
0.8
  7
EXT08
100
AcDbText
  0
LINE
  5
118C
330
18
100
AcDbEntity
  8
MOJI
100
AcDbLine
 10
6414.297941663554
 20
713.2270147448726
 30
0.0
 11
4837.77729610124
 21
713.2270147448727
 31
0.0
  0
LINE
  5
119F
330
18
100
AcDbEntity
  8
MOJI
100
AcDbLine
 10
3040.615220314752
 20
1773.406605594963
 30
0.0
 11
3727.879425180263
 21
1773.406605594964
 31
0.0
  0
TEXT
  5
11A0
330
18
100
AcDbEntity
  8
MOJI
100
AcDbText
 10
3117.930303158491
 20
1806.826493294527
 30
0.0
 40
60.0
  1
取付ボルト　M8\U+00D725
 41
0.8
  7
EXT08
100
AcDbText
  0
SOLID
  5
11A2
330
18
100
AcDbEntity
  8
MOJI
  6
Continuous
100
AcDbTrace
 10
2840.870095382245
 20
1579.117342117701
 30
0.0
 11
2831.804766247522
 21
1588.894743892044
 31
0.0
 12
2807.005225491855
 22
1556.810055600704
 32
0.0
 13
2807.005225491855
 23
1556.810055600704
 33
0.0
  0
LINE
  5
11A3
330
18
100
AcDbEntity
  8
MOJI
  6
Continuous
100
AcDbLine
 10
2836.337430814884
 20
1584.006043004873
 30
0.0
 11
3040.615220314752
 21
1773.406605594963
 31
0.0
  0
TEXT
  5
11A4
330
18
100
AcDbEntity
  8
MOJI
100
AcDbText
 10
3029.805748542345
 20
1677.592596931379
 30
0.0
 40
75.0
  1
(スペーサーリング付)
 41
0.8
  7
EXT08
100
AcDbText
  0
SOLID
  5
11B2
330
18
100
AcDbEntity
  8
MOJI
100
AcDbTrace
 10
1803.752867875718
 20
765.6139786545477
 30
0.0
 11
1813.90539365379
 21
756.9708311894535
 31
0.0
 12
1834.758573160034
 22
791.7499822562185
 32
0.0
 13
1834.758573160034
 23
791.7499822562185
 33
0.0
  0
LINE
  5
11B3
330
18
100
AcDbEntity
  8
MOJI
100
AcDbLine
 10
1808.829130764754
 20
761.2924049220005
 30
0.0
 11
1621.50694018379
 21
541.2575881658439
 31
0.0
  0
LINE
  5
11B4
330
18
100
AcDbEntity
  8
MOJI
100
AcDbLine
 10
941.4659650132474
 20
541.2575881658439
 30
0.0
 11
1621.50694018379
 21
541.2575881658441
 31
0.0
  0
TEXT
  5
11B6
330
18
100
AcDbEntity
  8
MOJI
100
AcDbText
 10
925.6356191273134
 20
572.627397048549
 30
0.0
 40
60.0
  1
取付ボルト　M8\U+00D725
 41
0.8
  7
EXT08
100
AcDbText
  0
TEXT
  5
11B8
330
18
100
AcDbEntity
  8
MOJI
100
AcDbText
 10
926.8263448324105
 20
443.9872341437217
 30
0.0
 40
75.0
  1
(スペーサーリング付)
 41
0.8
  7
EXT08
100
AcDbText
  0
LINE
  5
1218
330
18
100
AcDbEntity
  8
CENTER
100
AcDbLine
 10
4002.576483784105
 20
1909.999999999993
 30
0.0
 11
4002.576483784105
 21
709.9999999999925
 31
0.0
  0
LINE
  5
1219
330
18
100
AcDbEntity
  8
CENTER
100
AcDbLine
 10
3932.576483784106
 20
949.9999999999925
 30
0.0
 11
4072.576483784105
 21
949.9999999999925
 31
0.0
  0
LINE
  5
121A
330
18
100
AcDbEntity
  8
CENTER
100
AcDbLine
 10
3932.576483784106
 20
1399.999999999992
 30
0.0
 11
4072.576483784105
 21
1399.999999999992
 31
0.0
  0
DIMENSION
  5
121B
330
18
100
AcDbEntity
  8
SUNPOU
100
AcDbDimension
  2
*D21
 10
3672.576483784105
 20
1349.999999999992
 30
0.0
 11
3608.489608166471
 21
1397.793871348525
 31
0.0
 70
   160
 71
     5
 42
50.0
  3
SJC
100
AcDbAlignedDimension
 13
3872.576483784106
 23
1449.999999999992
 33
0.0
 14
3872.576483784106
 24
1349.999999999992
 34
0.0
 50
90.0
100
AcDbRotatedDimension
1001
ACAD
1000
DSTYLE
1002
{
1070
   287
1070
     5
1070
   287
1070
     5
1070
   287
1070
     5
1070
    40
1040
20.0
1070
    41
1040
2.0
1070
    42
1040
1.0
1070
    43
1040
6.0
1070
    44
1040
1.0
1070
    73
1070
     0
1070
    74
1070
     0
1070
    77
1070
     1
1070
    78
1070
     8
1070
   140
1040
3.0
1070
   144
1040
0.5
1070
   147
1040
1.199999999999999
1070
   172
1070
     1
1070
   176
1070
   256
1070
   177
1070
   256
1070
   178
1070
   256
1070
   271
1070
     1
1070
   275
1070
     1
1070
   279
1070
     2
1070
   340
1005
373
1002
}
  0
LINE
  5
121C
330
18
100
AcDbEntity
  8
SJC
100
AcDbLine
 10
3888.276483784105
 20
1349.999999999992
 30
0.0
 11
3888.276483784105
 21
999.9999999999925
 31
0.0
  0
LINE
  5
121D
330
18
100
AcDbEntity
  8
SJC
100
AcDbLine
 10
4116.876483784105
 20
1349.999999999992
 30
0.0
 11
4116.876483784105
 21
999.9999999999925
 31
0.0
  0
LINE
  5
121E
330
18
100
AcDbEntity
  8
SJC2
100
AcDbLine
 10
4011.576483784105
 20
1579.999999999992
 30
0.0
 11
4011.576483784105
 21
769.9999999999925
 31
0.0
  0
LINE
  5
121F
330
18
100
AcDbEntity
  8
SJC2
100
AcDbLine
 10
3993.576483784106
 20
1579.999999999992
 30
0.0
 11
3993.576483784106
 21
769.9999999999925
 31
0.0
  0
LINE
  5
1220
330
18
100
AcDbEntity
  8
SJC2
100
AcDbLine
 10
3999.576483784105
 20
1579.999999999992
 30
0.0
 11
3999.576483784105
 21
769.9999999999925
 31
0.0
  0
LINE
  5
1221
330
18
100
AcDbEntity
  8
SJC
100
AcDbLine
 10
3802.576483784105
 20
749.9999999999925
 30
0.0
 11
4202.576483784105
 21
749.9999999999925
 31
0.0
  0
LINE
  5
1222
330
18
100
AcDbEntity
  8
SJC2
100
AcDbLine
 10
3883.676483784105
 20
999.9999999999925
 30
0.0
 11
3993.576483784106
 21
999.9999999999925
 31
0.0
  0
LINE
  5
1223
330
18
100
AcDbEntity
  8
SJC2
100
AcDbLine
 10
3883.676483784105
 20
899.9999999999925
 30
0.0
 11
3993.576483784106
 21
899.9999999999925
 31
0.0
  0
LINE
  5
1224
330
18
100
AcDbEntity
  8
SJC2
100
AcDbLine
 10
3883.676483784105
 20
899.9999999999925
 30
0.0
 11
3883.676483784105
 21
999.9999999999925
 31
0.0
  0
LINE
  5
1225
330
18
100
AcDbEntity
  8
SJC
100
AcDbLine
 10
3888.276483784105
 20
899.9999999999925
 30
0.0
 11
3888.276483784105
 21
749.9999999999925
 31
0.0
  0
LINE
  5
1226
330
18
100
AcDbEntity
  8
SJC2
100
AcDbLine
 10
4121.476483784105
 20
899.9999999999925
 30
0.0
 11
4121.476483784105
 21
999.9999999999925
 31
0.0
  0
LINE
  5
1227
330
18
100
AcDbEntity
  8
SJC2
100
AcDbLine
 10
4016.176483784104
 20
999.9999999999925
 30
0.0
 11
4016.176483784104
 21
899.9999999999925
 31
0.0
  0
LINE
  5
1228
330
18
100
AcDbEntity
  8
SJC2
100
AcDbLine
 10
3988.976483784105
 20
999.9999999999925
 30
0.0
 11
3988.976483784105
 21
899.9999999999925
 31
0.0
  0
LINE
  5
1229
330
18
100
AcDbEntity
  8
SJC2
100
AcDbLine
 10
4011.576483784105
 20
899.9999999999925
 30
0.0
 11
4121.476483784105
 21
899.9999999999925
 31
0.0
  0
LINE
  5
122A
330
18
100
AcDbEntity
  8
SJC
100
AcDbLine
 10
4116.876483784105
 20
899.9999999999925
 30
0.0
 11
4116.876483784105
 21
749.9999999999925
 31
0.0
  0
LINE
  5
122B
330
18
100
AcDbEntity
  8
SJC2
100
AcDbLine
 10
4011.576483784105
 20
999.9999999999925
 30
0.0
 11
4121.476483784105
 21
999.9999999999925
 31
0.0
  0
LINE
  5
122C
330
18
100
AcDbEntity
  8
SJC
100
AcDbLine
 10
4116.876483784104
 20
1749.272886011776
 30
0.0
 11
4116.876483784105
 21
1449.999999999992
 31
0.0
  0
LINE
  5
122D
330
18
100
AcDbEntity
  8
SJC
100
AcDbLine
 10
3817.654483784105
 20
1606.163999999992
 30
0.0
 11
4182.218483784104
 21
1780.523999999993
 31
0.0
  0
LINE
  5
122E
330
18
100
AcDbEntity
  8
SJC2
100
AcDbLine
 10
3883.676483784105
 20
1449.999999999992
 30
0.0
 11
3993.576483784106
 21
1449.999999999992
 31
0.0
  0
LINE
  5
122F
330
18
100
AcDbEntity
  8
SJC2
100
AcDbLine
 10
3883.676483784105
 20
1349.999999999992
 30
0.0
 11
3993.576483784106
 21
1349.999999999992
 31
0.0
  0
LINE
  5
1230
330
18
100
AcDbEntity
  8
SJC2
100
AcDbLine
 10
3883.676483784105
 20
1449.999999999992
 30
0.0
 11
3883.676483784105
 21
1349.999999999992
 31
0.0
  0
LINE
  5
1231
330
18
100
AcDbEntity
  8
SJC
100
AcDbLine
 10
3888.276483784105
 20
1639.94037923656
 30
0.0
 11
3888.276483784105
 21
1449.999999999992
 31
0.0
  0
LINE
  5
1232
330
18
100
AcDbEntity
  8
SJC2
100
AcDbLine
 10
4121.476483784105
 20
1449.999999999992
 30
0.0
 11
4121.476483784105
 21
1349.999999999992
 31
0.0
  0
LINE
  5
1233
330
18
100
AcDbEntity
  8
SJC2
100
AcDbLine
 10
4016.176483784104
 20
1449.999999999992
 30
0.0
 11
4016.176483784104
 21
1349.999999999992
 31
0.0
  0
LINE
  5
1234
330
18
100
AcDbEntity
  8
SJC2
100
AcDbLine
 10
3988.976483784105
 20
1449.999999999992
 30
0.0
 11
3988.976483784105
 21
1349.999999999992
 31
0.0
  0
LINE
  5
1235
330
18
100
AcDbEntity
  8
SJC2
100
AcDbLine
 10
4011.576483784105
 20
1349.999999999992
 30
0.0
 11
4121.476483784105
 21
1349.999999999992
 31
0.0
  0
LINE
  5
1236
330
18
100
AcDbEntity
  8
SJC2
100
AcDbLine
 10
4011.576483784105
 20
1449.999999999992
 30
0.0
 11
4121.476483784105
 21
1449.999999999992
 31
0.0
  0
LINE
  5
1237
330
18
100
AcDbEntity
  8
SJC2
100
AcDbLine
 10
3993.576483784106
 20
769.9999999999925
 30
0.0
 11
4011.576483784105
 21
769.9999999999925
 31
0.0
  0
LINE
  5
1238
330
18
100
AcDbEntity
  8
SJC2
100
AcDbLine
 10
3993.576483784106
 20
1579.999999999992
 30
0.0
 11
4011.576483784105
 21
1579.999999999992
 31
0.0
  0
INSERT
  5
1239
330
18
100
AcDbEntity
  8
SJC
100
AcDbBlockReference
  2
L50-3.2
 10
3987.176483784104
 20
799.9999999999925
 30
0.0
 41
2.0
 42
2.0
 43
2.0
  0
INSERT
  5
123A
330
18
100
AcDbEntity
  8
SJC
100
AcDbBlockReference
  2
L50-3.2
 10
4037.176483784082
 20
1599.999999999992
 30
0.0
 41
2.0
 42
2.0
 43
2.0
 50
270.0
  0
LINE
  5
123B
330
18
100
AcDbEntity
  8
CENTER
100
AcDbLine
 10
4029.441450727844
 20
1549.999999999991
 30
0.0
 11
3944.91151684034
 21
1549.999999999991
 31
0.0
  0
LINE
  5
123C
330
18
100
AcDbEntity
  8
CENTER
100
AcDbLine
 10
4029.441450727844
 20
799.9999999999925
 30
0.0
 11
3944.91151684034
 21
799.9999999999925
 31
0.0
  0
TEXT
  5
1261
330
18
100
AcDbEntity
  8
MOJI
100
AcDbText
 10
5988.960980727416
 20
2434.994218257262
 30
0.0
 40
60.0
  1
M10\U+00D735
 41
0.8
  7
EXT08
100
AcDbText
  0
LINE
  5
126A
330
18
100
AcDbEntity
  8
MOJI
100
AcDbLine
 10
4865.577775884162
 20
713.2270147448727
 30
0.0
 11
6414.297941663554
 21
713.2270147448726
 31
0.0
  0
LINE
  5
126E
330
18
100
AcDbEntity
  8
MOJI
100
AcDbLine
 10
6414.297941663554
 20
713.2270147448727
 30
0.0
 11
6414.297941663554
 21
1413.227014744872
 31
0.0
  0
TEXT
  5
12DB
330
18
100
AcDbEntity
  8
MOJI
100
AcDbText
 10
5260.94043132203
 20
939.4208178524184
 30
0.0
 40
60.0
  1
SGH400
 41
0.8
  7
EXT08
100
AcDbText
  0
TEXT
  5
12DC
330
18
100
AcDbEntity
  8
MOJI
100
AcDbText
 10
5667.213888801104
 20
942.4182402830808
 30
0.0
 40
60.0
  1
亜鉛めっき＋静電粉体塗装
 41
0.8
  7
EXT08
100
AcDbText
  0
ENDSEC
  0
SECTION
  2
OBJECTS
  0
DICTIONARY
  5
C
330
0
100
AcDbDictionary
281
     1
  3
ACAD_CIP_PREVIOUS_PRODUCT_INFO
350
133B
  3
ACAD_COLOR
350
1102
  3
ACAD_DETAILVIEWSTYLE
350
1333
  3
ACAD_GROUP
350
D
  3
ACAD_LAYOUT
350
725
  3
ACAD_MATERIAL
350
1101
  3
ACAD_MLEADERSTYLE
350
132F
  3
ACAD_MLINESTYLE
350
E
  3
ACAD_PLOTSETTINGS
350
726
  3
ACAD_PLOTSTYLENAME
350
723
  3
ACAD_SCALELIST
350
131D
  3
ACAD_SECTIONVIEWSTYLE
350
1331
  3
ACAD_TABLESTYLE
350
1103
  3
ACAD_VISUALSTYLE
350
1304
  3
ACDB_RECOMPOSE_DATA
350
1346
  3
AcDbVariableDictionary
350
11BA
  3
DWGPROPS
350
1347
  0
DICTIONARY
  5
110F
330
2
100
AcDbDictionary
280
     1
281
     1
  3
ACAD_LAYERSTATES
360
1110
  0
DICTIONARY
  5
CD4
330
18
100
AcDbDictionary
280
     1
281
     1
  3
ACAD_LAYOUTSELFREF
360
104D
  3
ACAD_SORTENTS
360
11CF
  0
DICTIONARY
  5
CD2
330
15
100
AcDbDictionary
280
     1
281
     1
  3
ACAD_LAYOUTSELFREF
360
104C
  0
XRECORD
  5
133B
102
{ACAD_REACTORS
330
C
102
}
330
C
100
AcDbXrecord
280
     1
300
ACD
300
2015
300
ACD_F_S
  0
DICTIONARY
  5
1102
102
{ACAD_REACTORS
330
C
102
}
330
C
100
AcDbDictionary
281
     1
  0
DICTIONARY
  5
1333
102
{ACAD_REACTORS
330
C
102
}
330
C
100
AcDbDictionary
281
     1
  3
Imperial24
350
1334
  0
DICTIONARY
  5
D
102
{ACAD_REACTORS
330
C
102
}
330
C
100
AcDbDictionary
281
     1
  0
DICTIONARY
  5
725
102
{ACAD_REACTORS
330
C
102
}
330
C
100
AcDbDictionary
281
     1
  3
Model
350
727
  3
ﾚｲｱｳﾄ1
350
728
  0
DICTIONARY
  5
1101
102
{ACAD_REACTORS
330
C
102
}
330
C
100
AcDbDictionary
281
     1
  3
ByBlock
350
12F4
  3
ByLayer
350
12EC
  3
Global
350
12FC
  0
DICTIONARY
  5
132F
102
{ACAD_REACTORS
330
C
102
}
330
C
100
AcDbDictionary
281
     1
  3
Standard
350
1330
  0
DICTIONARY
  5
E
102
{ACAD_REACTORS
330
C
102
}
330
C
100
AcDbDictionary
281
     1
  3
STANDARD
350
1B
  0
DICTIONARY
  5
726
102
{ACAD_REACTORS
330
C
102
}
330
C
100
AcDbDictionary
281
     1
  0
ACDBDICTIONARYWDFLT
  5
723
102
{ACAD_REACTORS
330
C
102
}
330
C
100
AcDbDictionary
281
     1
  3
Normal
350
724
100
AcDbDictionaryWithDefault
340
724
  0
DICTIONARY
  5
131D
102
{ACAD_REACTORS
330
C
102
}
330
C
100
AcDbDictionary
281
     1
  3
A0
350
131E
  3
A1
350
131F
  3
A2
350
1320
  3
A3
350
1321
  3
A4
350
1322
  3
A5
350
1323
  3
A6
350
1324
  3
A7
350
1325
  3
A8
350
1326
  3
A9
350
1327
  3
B0
350
1328
  3
B1
350
1329
  3
B2
350
132A
  3
B3
350
132B
  3
B4
350
132C
  3
B5
350
132D
  3
B6
350
132E
  0
DICTIONARY
  5
1331
102
{ACAD_REACTORS
330
C
102
}
330
C
100
AcDbDictionary
281
     1
  3
Imperial24
350
1332
  0
DICTIONARY
  5
1103
102
{ACAD_REACTORS
330
C
102
}
330
C
100
AcDbDictionary
281
     1
  3
Standard
350
1104
  0
DICTIONARY
  5
1304
102
{ACAD_REACTORS
330
C
102
}
330
C
100
AcDbDictionary
281
     1
  3
2dWireframe
350
130A
  3
Basic
350
1309
  3
Brighten
350
1310
  3
ColorChange
350
1314
  3
Conceptual
350
130D
  3
Dim
350
130F
  3
EdgeColorOff
350
131C
  3
Facepattern
350
1313
  3
Flat
350
1305
  3
FlatWithEdges
350
1306
  3
Gouraud
350
1307
  3
GouraudWithEdges
350
1308
  3
Hidden
350
130C
  3
JitterOff
350
131A
  3
Linepattern
350
1312
  3
OverhangOff
350
131B
  3
Realistic
350
130E
  3
Shaded
350
1319
  3
Shaded with edges
350
1318
  3
Shades of Gray
350
1315
  3
Sketchy
350
1316
  3
Thicken
350
1311
  3
Wireframe
350
130B
  3
X-Ray
350
1317
  0
XRECORD
  5
1346
102
{ACAD_REACTORS
330
C
102
}
330
C
100
AcDbXrecord
280
     1
 90
        1
330
225
330
226
330
227
330
228
330
230
330
233
330
234
330
23B
330
23C
330
23D
330
386
330
3D4
330
3E1
330
430
330
43F
330
1104
330
121B
  0
DICTIONARY
  5
11BA
102
{ACAD_REACTORS
330
C
102
}
330
C
100
AcDbDictionary
281
     1
  3
CANNOSCALE
350
133F
  3
CMLEADERSTYLE
350
133C
  3
CTABLESTYLE
350
11BB
  3
CVIEWDETAILSTYLE
350
133D
  3
CVIEWSECTIONSTYLE
350
133E
  3
DIMASSOC
350
12BA
  3
INDEXCTL
350
1341
  3
PROJECTNAME
350
12BB
  3
SORTENTS
350
1340
  3
XCLIPFRAME
350
1342
  0
XRECORD
  5
1347
102
{ACAD_REACTORS
330
C
102
}
330
C
100
AcDbXrecord
280
     1
  1
DWGPROPS COOKIE
  2

  3

  4

  6

  7

  8
SJC
  9

300
=
301
=
302
=
303
=
304
=
305
=
306
=
307
=
308
=
309
=
 40
0.4461102662037037
 41
2449345.816337037
 42
2456624.740866423
  1

 90
        0
  0
DICTIONARY
  5
1110
102
{ACAD_REACTORS
330
110F
102
}
330
110F
100
AcDbDictionary
281
     1
  0
XRECORD
  5
104D
102
{ACAD_REACTORS
330
CD4
102
}
330
CD4
100
AcDbXrecord
280
     1
340
18
  0
SORTENTSTABLE
  5
11CF
102
{ACAD_REACTORS
330
CD4
102
}
330
CD4
100
AcDbSortentsTable
330
18
331
18E
  5
191
331
204
  5
208
331
27E
  5
282
331
18A
  5
18D
331
186
  5
188
331
1C5
  5
1C9
331
27A
  5
27E
331
3AE
  5
43F
331
314
  5
318
331
200
  5
204
331
23F
  5
243
331
23B
  5
23F
331
1FC
  5
200
331
2D5
  5
2D9
331
310
  5
314
331
276
  5
27A
331
182
  5
184
331
1C1
  5
1C5
331
2D1
  5
2D5
331
272
  5
276
331
30C
  5
310
331
1F8
  5
1FC
331
118C
  5
121C
331
308
  5
30C
331
1178
  5
1187
331
1BD
  5
1C1
331
233
  5
238
331
1F4
  5
1F8
331
2CD
  5
2D1
331
26E
  5
272
331
1B9
  5
1BD
331
1B5
  5
1B9
331
176
  5
176
331
26A
  5
26E
331
2C9
  5
2CD
331
386
  5
430
331
343
  5
35A
331
1F0
  5
1F4
331
1EC
  5
1F0
331
22B
  5
235
331
300
  5
305
331
266
  5
26A
331
2C5
  5
2C9
331
172
  5
172
331
1B1
  5
1B5
331
262
  5
266
331
2C1
  5
2C5
331
33B
  5
344
331
2FC
  5
300
331
1E8
  5
1EC
331
1174
  5
1183
331
2F8
  5
2FC
331
116C
  5
117F
331
123A
  5
126E
331
1168
  5
117C
331
227
  5
22B
331
16E
  5
16E
331
25E
  5
262
331
2BD
  5
2C1
331
337
  5
33B
331
1E4
  5
1E8
331
223
  5
227
331
1E0
  5
1E4
331
21F
  5
223
331
2B9
  5
2BD
331
333
  5
337
331
2F4
  5
2F8
331
25A
  5
25E
331
166
  5
166
331
1A1
  5
1AC
331
21B
  5
21F
331
2B5
  5
2B9
331
256
  5
25A
331
2F0
  5
2F4
331
32F
  5
333
331
1DC
  5
1E0
331
1D8
  5
1DC
331
32B
  5
32F
331
252
  5
256
331
2B1
  5
2B5
331
2E8
  5
2ED
331
1164
  5
1179
331
1236
  5
126A
331
3E1
  5
499
331
1232
  5
1266
331
1160
  5
1176
331
11B3
  5
1223
331
115C
  5
116B
331
122E
  5
1261
331
122A
  5
1239
331
1158
  5
1161
331
217
  5
21B
331
15E
  5
15E
331
19D
  5
1A1
331
199
  5
19E
331
15A
  5
15A
331
213
  5
217
331
24E
  5
252
331
327
  5
32B
331
1D4
  5
1D8
331
195
  5
19A
331
1D0
  5
1D4
331
20F
  5
213
331
2E4
  5
2E8
331
323
  5
327
331
24A
  5
24E
331
289
  5
2B1
331
156
  5
156
331
191
  5
194
331
152
  5
152
331
246
  5
24A
331
285
  5
289
331
2E0
  5
2E4
331
31F
  5
323
331
1CC
  5
1D0
331
20B
  5
20F
331
35A
  5
378
331
1C8
  5
1CC
331
31B
  5
31F
331
2DC
  5
2E0
331
242
  5
246
331
281
  5
285
331
11A3
  5
1220
331
2D8
  5
2DC
331
1226
  5
1235
331
1222
  5
1231
331
119F
  5
121D
331
121E
  5
122D
331
121A
  5
1229
331
1261
  5
128A
331
14A
  5
14A
331
207
  5
20B
331
18D
  5
190
331
189
  5
18C
331
27D
  5
281
331
317
  5
31B
331
203
  5
207
331
1C4
  5
1C8
331
1FF
  5
203
331
23E
  5
242
331
313
  5
317
331
279
  5
27D
331
185
  5
187
331
181
  5
183
331
1C0
  5
1C4
331
275
  5
279
331
2D4
  5
2D8
331
30F
  5
313
331
1FB
  5
1FF
331
23A
  5
23E
331
30B
  5
30F
331
271
  5
275
331
2D0
  5
2D4
331
704
  5
A3A
331
430
  5
49B
331
117B
  5
118D
331
146
  5
146
331
1F7
  5
1FB
331
236
  5
23B
331
1BC
  5
1C0
331
1B8
  5
1BC
331
2CC
  5
2D0
331
26D
  5
271
331
307
  5
30B
331
1F3
  5
1F7
331
1EF
  5
1F3
331
2C8
  5
2CC
331
342
  5
358
331
303
  5
308
331
269
  5
26D
331
175
  5
175
331
1B4
  5
1B8
331
171
  5
171
331
1B0
  5
1B4
331
22A
  5
234
331
2C4
  5
2C8
331
265
  5
269
331
2FF
  5
303
331
1EB
  5
1EF
331
2C0
  5
2C4
331
2FB
  5
2FF
331
33A
  5
343
331
261
  5
265
331
1177
  5
1186
331
1173
  5
1182
331
379
  5
3E1
331
1239
  5
126D
331
226
  5
22A
331
1E7
  5
1EB
331
1AC
  5
1B1
331
222
  5
226
331
2BC
  5
2C0
331
25D
  5
261
331
2F7
  5
2FB
331
336
  5
33A
331
1E3
  5
1E7
331
1DF
  5
1E3
331
21E
  5
222
331
2F3
  5
2F7
331
332
  5
336
331
259
  5
25D
331
2B8
  5
2BC
331
165
  5
165
331
1A0
  5
1AB
331
255
  5
259
331
2B4
  5
2B8
331
2EF
  5
2F3
331
32E
  5
332
331
1DB
  5
1DF
331
21A
  5
21E
331
32A
  5
32E
331
2EB
  5
2F0
331
251
  5
255
331
2B0
  5
2B4
331
1163
  5
1178
331
49B
  5
A39
331
1235
  5
1269
331
11B6
  5
1225
331
1231
  5
1265
331
115F
  5
1175
331
11B2
  5
1222
331
115B
  5
1169
331
122D
  5
123C
331
1229
  5
1238
331
1D7
  5
1DB
331
216
  5
21A
331
15D
  5
15D
331
19C
  5
1A0
331
159
  5
159
331
24D
  5
251
331
326
  5
32A
331
2E7
  5
2EB
331
1D3
  5
1D7
331
212
  5
216
331
1CF
  5
1D3
331
20E
  5
212
331
288
  5
28C
331
322
  5
326
331
2E3
  5
2E7
331
35D
  5
3AE
331
3D4
  5
497
331
249
  5
24D
331
155
  5
155
331
194
  5
199
331
497
  5
70F
331
151
  5
151
331
190
  5
193
331
20A
  5
20E
331
284
  5
288
331
245
  5
249
331
2DF
  5
2E3
331
31E
  5
322
331
1CB
  5
1CF
331
280
  5
284
331
2DB
  5
2DF
331
31A
  5
31E
331
241
  5
245
331
43F
  5
704
331
11A2
  5
121F
331
70F
  5
E62
331
1225
  5
1234
331
1221
  5
1230
331
121D
  5
122C
331
1219
  5
1228
331
149
  5
149
331
206
  5
20A
331
18C
  5
18F
331
188
  5
18B
331
1C7
  5
1CB
331
27C
  5
280
331
316
  5
31A
331
202
  5
206
331
23D
  5
241
331
1FE
  5
202
331
2D7
  5
2DB
331
312
  5
316
331
278
  5
27C
331
184
  5
186
331
1C3
  5
1C7
331
180
  5
182
331
239
  5
23D
331
2D3
  5
2D7
331
274
  5
278
331
30E
  5
312
331
1FA
  5
1FE
331
30A
  5
30E
331
270
  5
274
331
E62
  5
115A
331
117A
  5
118B
331
145
  5
145
331
1BF
  5
1C3
331
235
  5
23A
331
1F6
  5
1FA
331
2CF
  5
2D3
331
1BB
  5
1BF
331
1B7
  5
1BB
331
178
  5
178
331
26C
  5
270
331
2CB
  5
2CF
331
306
  5
30A
331
345
  5
35C
331
1F2
  5
1F6
331
1B3
  5
1B7
331
1EE
  5
1F2
331
302
  5
307
331
341
  5
345
331
268
  5
26C
331
2C7
  5
2CB
331
174
  5
174
331
170
  5
170
331
264
  5
268
331
2C3
  5
2C7
331
2FE
  5
302
331
1EA
  5
1EE
331
229
  5
232
331
339
  5
342
331
2FA
  5
2FE
331
260
  5
264
331
1176
  5
1185
331
378
  5
3D4
331
116E
  5
1180
331
116A
  5
117E
331
123C
  5
1289
331
1238
  5
126C
331
1AF
  5
1B3
331
1E6
  5
1EA
331
225
  5
229
331
2BF
  5
2C3
331
1AB
  5
1B0
331
2BB
  5
2BF
331
25C
  5
260
331
335
  5
339
331
2F6
  5
2FA
331
1E2
  5
1E6
331
221
  5
225
331
1DE
  5
1E2
331
21D
  5
221
331
2B7
  5
2BB
331
331
  5
335
331
2F2
  5
2F6
331
258
  5
25C
331
219
  5
21D
331
2B3
  5
2B7
331
254
  5
258
331
2EE
  5
2F2
331
32D
  5
331
331
1DA
  5
1DE
331
1166
  5
117A
331
A3A
  5
1159
331
2EA
  5
2EF
331
329
  5
32D
331
250
  5
254
331
1234
  5
1268
331
1162
  5
1177
331
115E
  5
1174
331
1230
  5
1264
331
122C
  5
123B
331
115A
  5
1167
331
1228
  5
1237
331
19F
  5
1A4
331
215
  5
219
331
1D6
  5
1DA
331
15C
  5
15C
331
197
  5
19D
331
158
  5
158
331
211
  5
215
331
24C
  5
250
331
28B
  5
2B3
331
2E6
  5
2EA
331
325
  5
329
331
1D2
  5
1D6
331
193
  5
196
331
1CE
  5
1D2
331
20D
  5
211
331
2E2
  5
2E6
331
321
  5
325
331
35C
  5
386
331
248
  5
24C
331
287
  5
28B
331
154
  5
154
331
150
  5
150
331
244
  5
248
331
283
  5
287
331
358
  5
35D
331
2DE
  5
2E2
331
31D
  5
321
331
1CA
  5
1CE
331
209
  5
20D
331
319
  5
31D
331
1156
  5
1160
331
2DA
  5
2DE
331
240
  5
244
331
1224
  5
1233
331
1220
  5
122F
331
121C
  5
122B
331
1218
  5
1227
331
18F
  5
192
331
14C
  5
14C
331
148
  5
148
331
205
  5
209
331
27F
  5
283
331
18B
  5
18E
331
1C6
  5
1CA
331
187
  5
189
331
27B
  5
27F
331
315
  5
319
331
201
  5
205
331
1FD
  5
201
331
23C
  5
240
331
311
  5
315
331
277
  5
27B
331
2D6
  5
2DA
331
183
  5
185
331
1C2
  5
1C6
331
273
  5
277
331
2D2
  5
2D6
331
30D
  5
311
331
1F9
  5
1FD
331
238
  5
23C
331
309
  5
30D
331
1179
  5
1188
331
144
  5
144
331
17F
  5
181
331
1BE
  5
1C2
331
1F5
  5
1F9
331
234
  5
239
331
26F
  5
273
331
2CE
  5
2D2
331
17B
  5
17B
331
1BA
  5
1BE
331
177
  5
177
331
1B6
  5
1BA
331
2CA
  5
2CE
331
26B
  5
26F
331
344
  5
35B
331
305
  5
309
331
1F1
  5
1F5
331
230
  5
236
331
1ED
  5
1F1
331
2C6
  5
2CA
331
301
  5
306
331
267
  5
26B
331
173
  5
173
331
1B2
  5
1B6
331
228
  5
230
331
2C2
  5
2C6
331
263
  5
267
331
2FD
  5
301
331
1E9
  5
1ED
331
1175
  5
1184
331
2F9
  5
2FD
331
338
  5
341
331
1171
  5
1181
331
123B
  5
1288
331
1169
  5
117D
331
16F
  5
16F
331
1AE
  5
1B2
331
224
  5
228
331
1E5
  5
1E9
331
2BE
  5
2C2
331
25F
  5
263
331
1AA
  5
1AF
331
25B
  5
25F
331
2BA
  5
2BE
331
2F5
  5
2F9
331
334
  5
338
331
1E1
  5
1E5
331
220
  5
224
331
1DD
  5
1E1
331
21C
  5
220
331
2F1
  5
2F5
331
330
  5
334
331
257
  5
25B
331
2B6
  5
2BA
331
1A2
  5
1AE
331
253
  5
257
331
2B2
  5
2B6
331
32C
  5
330
331
2ED
  5
2F1
331
1D9
  5
1DD
331
218
  5
21C
331
328
  5
32C
331
A39
  5
1156
331
2E9
  5
2EE
331
1237
  5
126B
331
1233
  5
1267
331
11B8
  5
1226
331
499
  5
896
331
11B4
  5
1224
331
115D
  5
116F
331
122F
  5
1263
331
122B
  5
123A
331
1159
  5
1164
331
15F
  5
15F
331
19E
  5
1A2
331
1D5
  5
1D9
331
214
  5
218
331
24F
  5
253
331
15B
  5
15B
331
19A
  5
19F
331
157
  5
157
331
196
  5
19C
331
28A
  5
2B2
331
24B
  5
24F
331
324
  5
328
331
2E5
  5
2E9
331
1D1
  5
1D5
331
210
  5
214
331
1CD
  5
1D1
331
20C
  5
210
331
286
  5
28A
331
2E1
  5
2E5
331
320
  5
324
331
35B
  5
379
331
247
  5
24B
331
153
  5
153
331
192
  5
195
331
208
  5
20C
331
282
  5
286
331
243
  5
247
331
2DD
  5
2E1
331
31C
  5
320
331
1C9
  5
1CD
331
11A4
  5
1221
331
2D9
  5
2DD
331
318
  5
31C
331
1227
  5
1236
331
126E
  5
115E
331
1223
  5
1232
331
126A
  5
115C
331
11A0
  5
121E
331
121F
  5
122E
331
121B
  5
122A
  0
XRECORD
  5
104C
102
{ACAD_REACTORS
330
CD2
102
}
330
CD2
100
AcDbXrecord
280
     1
340
15
  0
ACDBDETAILVIEWSTYLE
  5
1334
102
{ACAD_XDICTIONARY
360
1385
102
}
102
{ACAD_REACTORS
330
1333
102
}
330
1333
100
AcDbModelDocViewStyle
 70
     0
  3
Imperial24
290
     0
100
AcDbDetailViewStyle
 70
     0
 71
     0
 90
        3
 71
     1
340
10
 40
0.24
340
0
 40
0.24
300

 40
0.36
280
     3
 71
     2
340
14
 90
       25
 71
     3
340
10
 40
0.24
 90
        1
 40
0.75
 90
        1
300
%<\AcVar ViewType \f "%tc1">% %<\AcVar ViewDetailId>%\PSCALE %<\AcVar ViewScale \f "%sn">%
 71
     4
340
14
 90
       25
340
14
 90
       25
280
     0
  0
LAYOUT
  5
727
102
{ACAD_XDICTIONARY
360
1348
102
}
102
{ACAD_REACTORS
330
725
102
}
330
725
100
AcDbPlotSettings
  1

  2
CNSAcrobat PDFWriter6.pc3
  4
UserDefinedMetric (168.00 X 118.00ミリ)
  6

 40
3.200000047683715
 41
3.200000047683715
 42
3.199996948242187
 43
3.199996948242187
 44
168.0
 45
118.0
 46
0.0
 47
0.0
 48
0.0
 49
0.0
140
0.0
141
0.0
142
1.0
143
1351.935447479263
 70
 11952
 72
     0
 73
     0
 74
     2
  7
CALCOMP_TECHJET720.ctb
 75
     0
147
0.0007396802871502
148
0.0
149
0.0
100
AcDbLayout
  1
Model
 70
     1
 71
     0
 10
0.0
 20
0.0
 11
12.0
 21
9.0
 12
0.0
 22
0.0
 32
0.0
 14
0.0
 24
0.0
 34
0.0
 15
0.0
 25
0.0
 35
0.0
146
0.0
 13
0.0
 23
0.0
 33
0.0
 16
1.0
 26
0.0
 36
0.0
 17
0.0
 27
1.0
 37
0.0
 76
     0
330
18
1001
ACAD_PSEXT
1000
CNSAcrobat PDFWriter6.pc3
1000
DWG To PDF
1000
ファイル
1000

1070
     0
  0
LAYOUT
  5
728
102
{ACAD_XDICTIONARY
360
134A
102
}
102
{ACAD_REACTORS
330
725
102
}
330
725
100
AcDbPlotSettings
  1

  2
C:\Program Files\AutoCAD 2000i\plotters\DWF Classic.pc3
  4

  6

 40
0.0
 41
0.0
 42
0.0
 43
0.0
 44
0.0
 45
0.0
 46
0.0
 47
0.0
 48
0.0
 49
0.0
140
0.0
141
0.0
142
1.0
143
1.0
 70
   688
 72
     0
 73
     0
 74
     5
  7
SJCCAD.ctb
 75
    16
147
1.0
148
0.0
149
0.0
100
AcDbLayout
  1
ﾚｲｱｳﾄ1
 70
     1
 71
     1
 10
0.0
 20
0.0
 11
12.0
 21
9.0
 12
0.0
 22
0.0
 32
0.0
 14
1.000000000000000E+20
 24
1.000000000000000E+20
 34
1.000000000000000E+20
 15
-1.000000000000000E+20
 25
-1.000000000000000E+20
 35
-1.000000000000000E+20
146
0.0
 13
0.0
 23
0.0
 33
0.0
 16
1.0
 26
0.0
 36
0.0
 17
0.0
 27
1.0
 37
0.0
 76
     0
330
15
  0
MATERIAL
  5
12F4
102
{ACAD_XDICTIONARY
360
12F5
102
}
102
{ACAD_REACTORS
330
1101
102
}
330
1101
100
AcDbMaterial
  1
ByBlock
 72
     0
 43
0.0208333333333333
 43
0.0
 43
0.0
 43
0.0
 43
0.0
 43
0.0208333333333333
 43
0.0
 43
0.0
 43
0.0
 43
0.0
 43
1.0
 43
0.0
 43
0.0
 43
0.0
 43
0.0
 43
1.0
 77
     0
 47
0.0208333333333333
 47
0.0
 47
0.0
 47
0.0
 47
0.0
 47
0.0208333333333333
 47
0.0
 47
0.0
 47
0.0
 47
0.0
 47
1.0
 47
0.0
 47
0.0
 47
0.0
 47
0.0
 47
1.0
171
     0
 49
0.0208333333333333
 49
0.0
 49
0.0
 49
0.0
 49
0.0
 49
0.0208333333333333
 49
0.0
 49
0.0
 49
0.0
 49
0.0
 49
1.0
 49
0.0
 49
0.0
 49
0.0
 49
0.0
 49
1.0
175
     0
142
0.0208333333333333
142
0.0
142
0.0
142
0.0
142
0.0
142
0.0208333333333333
142
0.0
142
0.0
142
0.0
142
0.0
142
1.0
142
0.0
142
0.0
142
0.0
142
0.0
142
1.0
179
     0
144
0.0208333333333333
144
0.0
144
0.0
144
0.0
144
0.0
144
0.0208333333333333
144
0.0
144
0.0
144
0.0
144
0.0
144
1.0
144
0.0
144
0.0
144
0.0
144
0.0
144
1.0
147
0.0208333333333333
147
0.0
147
0.0
147
0.0
147
0.0
147
0.0208333333333333
147
0.0
147
0.0
147
0.0
147
0.0
147
1.0
147
0.0
147
0.0
147
0.0
147
0.0
147
1.0
  0
MATERIAL
  5
12EC
102
{ACAD_XDICTIONARY
360
12ED
102
}
102
{ACAD_REACTORS
330
1101
102
}
330
1101
100
AcDbMaterial
  1
ByLayer
 72
     0
 43
0.0208333333333333
 43
0.0
 43
0.0
 43
0.0
 43
0.0
 43
0.0208333333333333
 43
0.0
 43
0.0
 43
0.0
 43
0.0
 43
1.0
 43
0.0
 43
0.0
 43
0.0
 43
0.0
 43
1.0
 77
     0
 47
0.0208333333333333
 47
0.0
 47
0.0
 47
0.0
 47
0.0
 47
0.0208333333333333
 47
0.0
 47
0.0
 47
0.0
 47
0.0
 47
1.0
 47
0.0
 47
0.0
 47
0.0
 47
0.0
 47
1.0
171
     0
 49
0.0208333333333333
 49
0.0
 49
0.0
 49
0.0
 49
0.0
 49
0.0208333333333333
 49
0.0
 49
0.0
 49
0.0
 49
0.0
 49
1.0
 49
0.0
 49
0.0
 49
0.0
 49
0.0
 49
1.0
175
     0
142
0.0208333333333333
142
0.0
142
0.0
142
0.0
142
0.0
142
0.0208333333333333
142
0.0
142
0.0
142
0.0
142
0.0
142
1.0
142
0.0
142
0.0
142
0.0
142
0.0
142
1.0
179
     0
144
0.0208333333333333
144
0.0
144
0.0
144
0.0
144
0.0
144
0.0208333333333333
144
0.0
144
0.0
144
0.0
144
0.0
144
1.0
144
0.0
144
0.0
144
0.0
144
0.0
144
1.0
147
0.0208333333333333
147
0.0
147
0.0
147
0.0
147
0.0
147
0.0208333333333333
147
0.0
147
0.0
147
0.0
147
0.0
147
1.0
147
0.0
147
0.0
147
0.0
147
0.0
147
1.0
  0
MATERIAL
  5
12FC
102
{ACAD_XDICTIONARY
360
12FD
102
}
102
{ACAD_REACTORS
330
1101
102
}
330
1101
100
AcDbMaterial
  1
Global
 72
     0
 43
0.0208333333333333
 43
0.0
 43
0.0
 43
0.0
 43
0.0
 43
0.0208333333333333
 43
0.0
 43
0.0
 43
0.0
 43
0.0
 43
1.0
 43
0.0
 43
0.0
 43
0.0
 43
0.0
 43
1.0
 77
     0
 47
0.0208333333333333
 47
0.0
 47
0.0
 47
0.0
 47
0.0
 47
0.0208333333333333
 47
0.0
 47
0.0
 47
0.0
 47
0.0
 47
1.0
 47
0.0
 47
0.0
 47
0.0
 47
0.0
 47
1.0
171
     0
 49
0.0208333333333333
 49
0.0
 49
0.0
 49
0.0
 49
0.0
 49
0.0208333333333333
 49
0.0
 49
0.0
 49
0.0
 49
0.0
 49
1.0
 49
0.0
 49
0.0
 49
0.0
 49
0.0
 49
1.0
175
     0
142
0.0208333333333333
142
0.0
142
0.0
142
0.0
142
0.0
142
0.0208333333333333
142
0.0
142
0.0
142
0.0
142
0.0
142
1.0
142
0.0
142
0.0
142
0.0
142
0.0
142
1.0
179
     0
144
0.0208333333333333
144
0.0
144
0.0
144
0.0
144
0.0
144
0.0208333333333333
144
0.0
144
0.0
144
0.0
144
0.0
144
1.0
144
0.0
144
0.0
144
0.0
144
0.0
144
1.0
147
0.0208333333333333
147
0.0
147
0.0
147
0.0
147
0.0
147
0.0208333333333333
147
0.0
147
0.0
147
0.0
147
0.0
147
1.0
147
0.0
147
0.0
147
0.0
147
0.0
147
1.0
  0
MLEADERSTYLE
  5
1330
102
{ACAD_XDICTIONARY
360
1381
102
}
102
{ACAD_REACTORS
330
132F
102
}
330
132F
100
AcDbMLeaderStyle
170
     2
171
     1
172
     0
 90
        2
 40
0.0
 41
0.0
173
     1
 91
-1056964608
340
12
 92
       -2
290
     1
 42
0.09
291
     1
 43
0.36
  3
Standard
 44
0.18
300

342
10
174
     1
178
     6
175
     1
176
     0
 93
-1056964608
 45
0.18
292
     0
297
     0
 46
0.18
 94
-1056964608
 47
1.0
 49
1.0
140
1.0
293
     1
141
0.0
294
     1
177
     0
142
1.0
295
     0
296
     0
143
0.125
1001
ACAD_MLEADERVER
1070
     2
  0
MLINESTYLE
  5
1B
102
{ACAD_REACTORS
330
E
102
}
330
E
100
AcDbMlineStyle
  2
STANDARD
 70
     0
  3

 62
     0
 51
90.0
 52
90.0
 71
     2
 49
0.5
 62
   256
  6
BYLAYER
 49
-0.5
 62
   256
  6
BYLAYER
  0
ACDBPLACEHOLDER
  5
724
102
{ACAD_REACTORS
330
723
102
}
330
723
  0
SCALE
  5
131E
102
{ACAD_REACTORS
330
131D
102
}
330
131D
100
AcDbScale
 70
     0
300
1:1
140
1.0
141
1.0
290
     1
  0
SCALE
  5
131F
102
{ACAD_REACTORS
330
131D
102
}
330
131D
100
AcDbScale
 70
     0
300
1/128" = 1'-0"
140
0.0078125
141
12.0
290
     0
  0
SCALE
  5
1320
102
{ACAD_REACTORS
330
131D
102
}
330
131D
100
AcDbScale
 70
     0
300
1/64" = 1'-0"
140
0.015625
141
12.0
290
     0
  0
SCALE
  5
1321
102
{ACAD_REACTORS
330
131D
102
}
330
131D
100
AcDbScale
 70
     0
300
1/32" = 1'-0"
140
0.03125
141
12.0
290
     0
  0
SCALE
  5
1322
102
{ACAD_REACTORS
330
131D
102
}
330
131D
100
AcDbScale
 70
     0
300
1/16" = 1'-0"
140
0.0625
141
12.0
290
     0
  0
SCALE
  5
1323
102
{ACAD_REACTORS
330
131D
102
}
330
131D
100
AcDbScale
 70
     0
300
3/32" = 1'-0"
140
0.09375
141
12.0
290
     0
  0
SCALE
  5
1324
102
{ACAD_REACTORS
330
131D
102
}
330
131D
100
AcDbScale
 70
     0
300
1/8" = 1'-0"
140
0.125
141
12.0
290
     0
  0
SCALE
  5
1325
102
{ACAD_REACTORS
330
131D
102
}
330
131D
100
AcDbScale
 70
     0
300
3/16" = 1'-0"
140
0.1875
141
12.0
290
     0
  0
SCALE
  5
1326
102
{ACAD_REACTORS
330
131D
102
}
330
131D
100
AcDbScale
 70
     0
300
1/4" = 1'-0"
140
0.25
141
12.0
290
     0
  0
SCALE
  5
1327
102
{ACAD_REACTORS
330
131D
102
}
330
131D
100
AcDbScale
 70
     0
300
3/8" = 1'-0"
140
0.375
141
12.0
290
     0
  0
SCALE
  5
1328
102
{ACAD_REACTORS
330
131D
102
}
330
131D
100
AcDbScale
 70
     0
300
1/2" = 1'-0"
140
0.5
141
12.0
290
     0
  0
SCALE
  5
1329
102
{ACAD_REACTORS
330
131D
102
}
330
131D
100
AcDbScale
 70
     0
300
3/4" = 1'-0"
140
0.75
141
12.0
290
     0
  0
SCALE
  5
132A
102
{ACAD_REACTORS
330
131D
102
}
330
131D
100
AcDbScale
 70
     0
300
1" = 1'-0"
140
1.0
141
12.0
290
     0
  0
SCALE
  5
132B
102
{ACAD_REACTORS
330
131D
102
}
330
131D
100
AcDbScale
 70
     0
300
1-1/2" = 1'-0"
140
1.5
141
12.0
290
     0
  0
SCALE
  5
132C
102
{ACAD_REACTORS
330
131D
102
}
330
131D
100
AcDbScale
 70
     0
300
3" = 1'-0"
140
3.0
141
12.0
290
     0
  0
SCALE
  5
132D
102
{ACAD_REACTORS
330
131D
102
}
330
131D
100
AcDbScale
 70
     0
300
6" = 1'-0"
140
6.0
141
12.0
290
     0
  0
SCALE
  5
132E
102
{ACAD_REACTORS
330
131D
102
}
330
131D
100
AcDbScale
 70
     0
300
1'-0" = 1'-0"
140
12.0
141
12.0
290
     0
  0
ACDBSECTIONVIEWSTYLE
  5
1332
102
{ACAD_XDICTIONARY
360
1383
102
}
102
{ACAD_REACTORS
330
1331
102
}
330
1331
100
AcDbModelDocViewStyle
 70
     0
  3
Imperial24
290
     0
100
AcDbSectionViewStyle
 70
     0
 71
     0
 90
       78
 71
     1
340
10
 40
0.24
340
0
340
0
 40
0.24
300
I, O, Q, S, X, Z
 40
0.48
 90
        3
 40
0.18
 90
        1
 71
     2
340
14
 90
       25
340
14
 90
       50
 40
0.24
 40
0.0
 40
0.24
 71
     3
340
10
 40
0.24
 90
        1
 40
0.75
 90
        1
300
%<\AcVar ViewType \f "%tc1">% %<\AcVar ViewSectionStartId>%-%<\AcVar ViewSectionEndId>%\PSCALE %<\AcVar ViewScale \f "%sn">%
 71
     4
300
ANSI31
 40
1.0
 90
        0
290
     0
290
     0
 90
        6
 40
0.0
 40
1.570796326794896
 40
0.2617993877991494
 40
1.308996938995747
 40
-0.2617993877991494
 40
1.832595714594046
  0
TABLESTYLE
  5
1104
102
{ACAD_XDICTIONARY
360
1344
102
}
102
{ACAD_REACTORS
330
1103
102
}
330
1103
100
AcDbTableStyle
  3
Standard
 70
     0
 71
     0
 40
0.06
 41
0.06
280
     0
281
     0
  7
STANDARD
140
0.18
170
     2
 62
     0
 63
     7
283
     0
274
    -2
284
     1
 64
     0
275
    -2
285
     1
 65
     0
276
    -2
286
     1
 66
     0
277
    -2
287
     1
 67
     0
278
    -2
288
     1
 68
     0
279
    -2
289
     1
 69
     0
  7
STANDARD
140
0.25
170
     5
 62
     0
 63
     7
283
     0
274
    -2
284
     1
 64
     0
275
    -2
285
     1
 65
     0
276
    -2
286
     1
 66
     0
277
    -2
287
     1
 67
     0
278
    -2
288
     1
 68
     0
279
    -2
289
     1
 69
     0
  7
STANDARD
140
0.18
170
     5
 62
     0
 63
     7
283
     0
274
    -2
284
     1
 64
     0
275
    -2
285
     1
 65
     0
276
    -2
286
     1
 66
     0
277
    -2
287
     1
 67
     0
278
    -2
288
     1
 68
     0
279
    -2
289
     1
 69
     0
  0
VISUALSTYLE
  5
130A
102
{ACAD_XDICTIONARY
360
135A
102
}
102
{ACAD_REACTORS
330
1304
102
}
330
1304
100
AcDbVisualStyle
  2
2dWireframe
 70
     4
 71
     0
 72
     2
 73
     0
 90
        0
 40
-0.6
 41
-30.0
 62
     5
 63
     7
 74
     1
 91
        4
 64
     7
 65
   257
 75
     1
175
     1
 42
1.0
 92
        0
 66
   257
 43
1.0
 76
     1
 77
     6
 78
     2
 67
     7
 79
     5
170
     0
171
     0
290
     0
174
     0
 93
        1
 44
0.0
173
     0
291
     0
 45
0.0
1001
ACAD
1000
AcDbSavedByObjectVersion
1070
     0
  0
VISUALSTYLE
  5
1309
102
{ACAD_XDICTIONARY
360
1358
102
}
102
{ACAD_REACTORS
330
1304
102
}
330
1304
100
AcDbVisualStyle
  2
Basic
 70
     7
 71
     1
 72
     0
 73
     1
 90
        0
 40
-0.6
 41
-30.0
 62
     5
 63
     7
 74
     0
 91
        4
 64
     7
 65
   257
 75
     1
175
     1
 42
1.0
 92
        8
 66
     7
 43
1.0
 76
     1
 77
     6
 78
     2
 67
     7
 79
     5
170
     0
171
     0
290
     0
174
     0
 93
        1
 44
0.0
173
     0
291
     1
 45
0.0
1001
ACAD
1000
AcDbSavedByObjectVersion
1070
     0
  0
VISUALSTYLE
  5
1310
102
{ACAD_XDICTIONARY
360
1366
102
}
102
{ACAD_REACTORS
330
1304
102
}
330
1304
100
AcDbVisualStyle
  2
Brighten
 70
    12
 71
     2
 72
     2
 73
     0
 90
        0
 40
-0.6
 41
-30.0
 62
     5
 63
     7
 74
     1
 91
        4
 64
     7
 65
   257
 75
     1
175
     1
 42
1.0
 92
        8
 66
     7
 43
1.0
 76
     1
 77
     6
 78
     2
 67
     7
 79
     5
170
     0
171
     0
290
     0
174
     0
 93
        1
 44
50.0
173
     0
291
     1
 45
0.0
1001
ACAD
1000
AcDbSavedByObjectVersion
1070
     0
  0
VISUALSTYLE
  5
1314
102
{ACAD_XDICTIONARY
360
136E
102
}
102
{ACAD_REACTORS
330
1304
102
}
330
1304
100
AcDbVisualStyle
  2
ColorChange
 70
    16
 71
     2
 72
     2
 73
     3
 90
        0
 40
-0.6
 41
-30.0
 62
     5
 63
     8
 74
     1
 91
        4
 64
     7
 65
   257
 75
     1
175
     1
 42
1.0
 92
        8
 66
     8
 43
1.0
 76
     1
 77
     6
 78
     2
 67
     7
 79
     5
170
     0
171
     0
290
     0
174
     0
 93
        1
 44
0.0
173
     0
291
     1
 45
0.0
1001
ACAD
1000
AcDbSavedByObjectVersion
1070
     0
  0
VISUALSTYLE
  5
130D
102
{ACAD_XDICTIONARY
360
1360
102
}
102
{ACAD_REACTORS
330
1304
102
}
330
1304
100
AcDbVisualStyle
  2
Conceptual
 70
     9
 71
     3
 72
     2
 73
     0
 90
        0
 40
-0.6
 41
-30.0
 62
     5
 63
     7
 74
     2
 91
        2
 64
     7
 65
   257
 75
     1
175
     1
 42
179.0
 92
        8
 66
     7
 43
1.0
 76
     1
 77
     6
 78
     2
 67
     7
 79
     3
170
     0
171
     0
290
     0
174
     0
 93
        1
 44
0.0
173
     0
291
     0
 45
0.0
1001
ACAD
1000
AcDbSavedByObjectVersion
1070
     0
  0
VISUALSTYLE
  5
130F
102
{ACAD_XDICTIONARY
360
1364
102
}
102
{ACAD_REACTORS
330
1304
102
}
330
1304
100
AcDbVisualStyle
  2
Dim
 70
    11
 71
     2
 72
     2
 73
     0
 90
        0
 40
-0.6
 41
-30.0
 62
     5
 63
     7
 74
     1
 91
        4
 64
     7
 65
   257
 75
     1
175
     1
 42
1.0
 92
        8
 66
     7
 43
1.0
 76
     1
 77
     6
 78
     2
 67
     7
 79
     5
170
     0
171
     0
290
     0
174
     0
 93
        1
 44
-50.0
173
     0
291
     1
 45
0.0
1001
ACAD
1000
AcDbSavedByObjectVersion
1070
     0
  0
VISUALSTYLE
  5
131C
102
{ACAD_XDICTIONARY
360
137E
102
}
102
{ACAD_REACTORS
330
1304
102
}
330
1304
100
AcDbVisualStyle
  2
EdgeColorOff
 70
    22
 71
     2
 72
     2
 73
     0
 90
        0
 40
-0.6
 41
-30.0
 62
     5
 63
     7
 74
     1
 91
        4
 64
     7
 65
   257
 75
     1
175
     1
 42
1.0
 92
        8
 66
     7
 43
1.0
 76
     1
 77
     6
 78
     2
 67
     7
 79
     5
170
     0
171
     0
290
     0
174
     0
 93
        1
 44
0.0
173
     0
291
     1
 45
0.0
1001
ACAD
1000
AcDbSavedByObjectVersion
1070
     0
  0
VISUALSTYLE
  5
1313
102
{ACAD_XDICTIONARY
360
136C
102
}
102
{ACAD_REACTORS
330
1304
102
}
330
1304
100
AcDbVisualStyle
  2
Facepattern
 70
    15
 71
     2
 72
     2
 73
     0
 90
        0
 40
-0.6
 41
-30.0
 62
     5
 63
     7
 74
     1
 91
        4
 64
     7
 65
   257
 75
     1
175
     1
 42
1.0
 92
        8
 66
     7
 43
1.0
 76
     1
 77
     6
 78
     2
 67
     7
 79
     5
170
     0
171
     0
290
     0
174
     0
 93
        1
 44
0.0
173
     0
291
     1
 45
0.0
1001
ACAD
1000
AcDbSavedByObjectVersion
1070
     0
  0
VISUALSTYLE
  5
1305
102
{ACAD_XDICTIONARY
360
1350
102
}
102
{ACAD_REACTORS
330
1304
102
}
330
1304
100
AcDbVisualStyle
  2
Flat
 70
     0
 71
     2
 72
     1
 73
     1
 90
        2
 40
-0.6
 41
30.0
 62
     5
 63
     7
 74
     0
 91
        0
 64
     7
 65
   257
 75
     1
175
     1
 42
1.0
 92
        8
 66
     7
 43
1.0
 76
     1
 77
     6
 78
     2
 67
     7
 79
     5
170
     0
171
     0
290
     0
174
     0
 93
       13
 44
0.0
173
     0
291
     1
 45
0.0
1001
ACAD
1000
AcDbSavedByObjectVersion
1070
     0
  0
VISUALSTYLE
  5
1306
102
{ACAD_XDICTIONARY
360
1352
102
}
102
{ACAD_REACTORS
330
1304
102
}
330
1304
100
AcDbVisualStyle
  2
FlatWithEdges
 70
     1
 71
     2
 72
     1
 73
     1
 90
        2
 40
-0.6
 41
30.0
 62
     5
 63
     7
 74
     1
 91
        0
 64
     7
 65
   257
 75
     1
175
     1
 42
1.0
 92
        0
 66
   257
 43
1.0
 76
     1
 77
     6
 78
     2
 67
     7
 79
     5
170
     0
171
     0
290
     0
174
     0
 93
       13
 44
0.0
173
     0
291
     1
 45
0.0
1001
ACAD
1000
AcDbSavedByObjectVersion
1070
     0
  0
VISUALSTYLE
  5
1307
102
{ACAD_XDICTIONARY
360
1354
102
}
102
{ACAD_REACTORS
330
1304
102
}
330
1304
100
AcDbVisualStyle
  2
Gouraud
 70
     2
 71
     2
 72
     2
 73
     1
 90
        2
 40
-0.6
 41
30.0
 62
     5
 63
     7
 74
     0
 91
        0
 64
     7
 65
   257
 75
     1
175
     1
 42
1.0
 92
        0
 66
     7
 43
1.0
 76
     1
 77
     6
 78
     2
 67
     7
 79
     5
170
     0
171
     0
290
     0
174
     0
 93
       13
 44
0.0
173
     0
291
     1
 45
0.0
1001
ACAD
1000
AcDbSavedByObjectVersion
1070
     0
  0
VISUALSTYLE
  5
1308
102
{ACAD_XDICTIONARY
360
1356
102
}
102
{ACAD_REACTORS
330
1304
102
}
330
1304
100
AcDbVisualStyle
  2
GouraudWithEdges
 70
     3
 71
     2
 72
     2
 73
     1
 90
        2
 40
-0.6
 41
30.0
 62
     5
 63
     7
 74
     1
 91
        0
 64
     7
 65
   257
 75
     1
175
     1
 42
1.0
 92
        0
 66
   257
 43
1.0
 76
     1
 77
     6
 78
     2
 67
     7
 79
     5
170
     0
171
     0
290
     0
174
     0
 93
       13
 44
0.0
173
     0
291
     1
 45
0.0
1001
ACAD
1000
AcDbSavedByObjectVersion
1070
     0
  0
VISUALSTYLE
  5
130C
102
{ACAD_XDICTIONARY
360
135E
102
}
102
{ACAD_REACTORS
330
1304
102
}
330
1304
100
AcDbVisualStyle
  2
Hidden
 70
     6
 71
     1
 72
     2
 73
     2
 90
        0
 40
-0.6
 41
-30.0
 62
     5
 63
     7
 74
     2
 91
        2
 64
     7
 65
   257
 75
     2
175
     1
 42
40.0
 92
        0
 66
   257
 43
1.0
 76
     1
 77
     6
 78
     2
 67
     7
 79
     3
170
     0
171
     0
290
     0
174
     0
 93
        1
 44
0.0
173
     0
291
     0
 45
0.0
1001
ACAD
1000
AcDbSavedByObjectVersion
1070
     0
  0
VISUALSTYLE
  5
131A
102
{ACAD_XDICTIONARY
360
137A
102
}
102
{ACAD_REACTORS
330
1304
102
}
330
1304
100
AcDbVisualStyle
  2
JitterOff
 70
    20
 71
     2
 72
     2
 73
     0
 90
        0
 40
-0.6
 41
-30.0
 62
     5
 63
     7
 74
     1
 91
        4
 64
     7
 65
   257
 75
     1
175
     1
 42
1.0
 92
       10
 66
     7
 43
1.0
 76
     1
 77
     6
 78
     2
 67
     7
 79
     5
170
     0
171
     0
290
     0
174
     0
 93
        1
 44
0.0
173
     0
291
     1
 45
0.0
1001
ACAD
1000
AcDbSavedByObjectVersion
1070
     0
  0
VISUALSTYLE
  5
1312
102
{ACAD_XDICTIONARY
360
136A
102
}
102
{ACAD_REACTORS
330
1304
102
}
330
1304
100
AcDbVisualStyle
  2
Linepattern
 70
    14
 71
     2
 72
     2
 73
     0
 90
        0
 40
-0.6
 41
-30.0
 62
     5
 63
     7
 74
     1
 91
        4
 64
     7
 65
   257
 75
     7
175
     7
 42
1.0
 92
        8
 66
     7
 43
1.0
 76
     1
 77
     6
 78
     2
 67
     7
 79
     5
170
     0
171
     0
290
     0
174
     0
 93
        1
 44
0.0
173
     0
291
     1
 45
0.0
1001
ACAD
1000
AcDbSavedByObjectVersion
1070
     0
  0
VISUALSTYLE
  5
131B
102
{ACAD_XDICTIONARY
360
137C
102
}
102
{ACAD_REACTORS
330
1304
102
}
330
1304
100
AcDbVisualStyle
  2
OverhangOff
 70
    21
 71
     2
 72
     2
 73
     0
 90
        0
 40
-0.6
 41
-30.0
 62
     5
 63
     7
 74
     1
 91
        4
 64
     7
 65
   257
 75
     1
175
     1
 42
1.0
 92
        9
 66
     7
 43
1.0
 76
     1
 77
     6
 78
     2
 67
     7
 79
     5
170
     0
171
     0
290
     0
174
     0
 93
        1
 44
0.0
173
     0
291
     1
 45
0.0
1001
ACAD
1000
AcDbSavedByObjectVersion
1070
     0
  0
VISUALSTYLE
  5
130E
102
{ACAD_XDICTIONARY
360
1362
102
}
102
{ACAD_REACTORS
330
1304
102
}
330
1304
100
AcDbVisualStyle
  2
Realistic
 70
     8
 71
     2
 72
     3
 73
     0
 90
        2
 40
-0.6
 41
30.0
 62
     5
 63
     7
 74
     0
 91
        0
 64
     7
 65
   257
 75
     1
175
     1
 42
1.0
 92
        8
 66
   257
 43
1.0
 76
     1
 77
     6
 78
     2
 67
     7
 79
     3
170
     0
171
     0
290
     0
174
     0
 93
       13
 44
0.0
173
     0
291
     0
 45
0.0
1001
ACAD
1000
AcDbSavedByObjectVersion
1070
     0
  0
VISUALSTYLE
  5
1319
102
{ACAD_XDICTIONARY
360
1378
102
}
102
{ACAD_REACTORS
330
1304
102
}
330
1304
100
AcDbVisualStyle
  2
Shaded
 70
    27
 71
     2
 72
     2
 73
     1
 90
        2
 40
-0.6
 41
30.0
 62
     5
 63
     7
 74
     0
 91
        4
 64
     7
 65
   257
 75
     1
175
     1
 42
1.0
 92
        8
 66
   257
 43
1.0
 76
     1
 77
     6
 78
     2
 67
     8
 79
     3
170
     0
171
     0
290
     0
174
     0
 93
        5
 44
0.0
173
     0
291
     0
 45
0.0
1001
ACAD
1000
AcDbSavedByObjectVersion
1070
     0
  0
VISUALSTYLE
  5
1318
102
{ACAD_XDICTIONARY
360
1376
102
}
102
{ACAD_REACTORS
330
1304
102
}
330
1304
100
AcDbVisualStyle
  2
Shaded with edges
 70
    26
 71
     2
 72
     2
 73
     1
 90
        2
 40
-0.6
 41
30.0
 62
     5
 63
     7
 74
     1
 91
       10
 64
     7
 65
   257
 75
     2
175
     1
 42
1.0
 92
        8
 66
   257
 43
1.0
 76
     1
 77
     6
 78
     2
 67
     7
 79
     3
170
     0
171
     0
290
     0
174
     0
 93
        5
 44
0.0
173
     0
291
     0
 45
0.0
1001
ACAD
1000
AcDbSavedByObjectVersion
1070
     0
  0
VISUALSTYLE
  5
1315
102
{ACAD_XDICTIONARY
360
1370
102
}
102
{ACAD_REACTORS
330
1304
102
}
330
1304
100
AcDbVisualStyle
  2
Shades of Gray
 70
    23
 71
     2
 72
     2
 73
     3
 90
        0
 40
-0.6
 41
-30.0
 62
     5
 63
     7
 74
     2
 91
        2
 64
     7
 65
     7
 75
     1
175
     1
 42
40.0
 92
        8
 66
     7
 43
1.0
 76
     1
 77
     6
 78
     2
 67
     7
 79
     3
170
     0
171
     0
290
     0
174
     0
 93
        1
 44
0.0
173
     0
291
     0
 45
0.0
1001
ACAD
1000
AcDbSavedByObjectVersion
1070
     0
  0
VISUALSTYLE
  5
1316
102
{ACAD_XDICTIONARY
360
1372
102
}
102
{ACAD_REACTORS
330
1304
102
}
330
1304
100
AcDbVisualStyle
  2
Sketchy
 70
    24
 71
     1
 72
     2
 73
     2
 90
        0
 40
-0.6
 41
-30.0
 62
     5
 63
     7
 74
     2
 91
        2
 64
     7
 65
     7
 75
     1
175
     1
 42
40.0
 92
       11
 66
     7
 43
1.0
 76
     1
 77
     6
 78
     2
 67
     7
 79
     6
170
     0
171
     0
290
     0
174
     0
 93
        1
 44
0.0
173
     0
291
     0
 45
0.0
1001
ACAD
1000
AcDbSavedByObjectVersion
1070
     0
  0
VISUALSTYLE
  5
1311
102
{ACAD_XDICTIONARY
360
1368
102
}
102
{ACAD_REACTORS
330
1304
102
}
330
1304
100
AcDbVisualStyle
  2
Thicken
 70
    13
 71
     2
 72
     2
 73
     0
 90
        0
 40
-0.6
 41
-30.0
 62
     5
 63
     7
 74
     1
 91
        4
 64
     7
 65
   257
 75
     1
175
     1
 42
1.0
 92
       12
 66
     7
 43
1.0
 76
     1
 77
     6
 78
     2
 67
     7
 79
     5
170
     0
171
     0
290
     0
174
     0
 93
        1
 44
0.0
173
     0
291
     1
 45
0.0
1001
ACAD
1000
AcDbSavedByObjectVersion
1070
     0
  0
VISUALSTYLE
  5
130B
102
{ACAD_XDICTIONARY
360
135C
102
}
102
{ACAD_REACTORS
330
1304
102
}
330
1304
100
AcDbVisualStyle
  2
Wireframe
 70
     5
 71
     0
 72
     2
 73
     0
 90
        0
 40
-0.6
 41
-30.0
 62
     5
 63
     7
 74
     1
 91
        4
 64
     7
 65
   257
 75
     1
175
     1
 42
1.0
 92
        0
 66
   257
 43
1.0
 76
     1
 77
     6
 78
     2
 67
     7
 79
     3
170
     0
171
     0
290
     0
174
     0
 93
        1
 44
0.0
173
     0
291
     0
 45
0.0
1001
ACAD
1000
AcDbSavedByObjectVersion
1070
     0
  0
VISUALSTYLE
  5
1317
102
{ACAD_XDICTIONARY
360
1374
102
}
102
{ACAD_REACTORS
330
1304
102
}
330
1304
100
AcDbVisualStyle
  2
X-Ray
 70
    25
 71
     2
 72
     2
 73
     1
 90
        1
 40
0.5
 41
-30.0
 62
     5
 63
     7
 74
     1
 91
        0
 64
     7
 65
   257
 75
     1
175
     1
 42
1.0
 92
        8
 66
     7
 43
1.0
 76
     1
 77
     6
 78
     2
 67
     7
 79
     3
170
     0
171
     0
290
     0
174
     0
 93
       13
 44
0.0
173
     0
291
     0
 45
0.0
1001
ACAD
1000
AcDbSavedByObjectVersion
1070
     0
  0
DICTIONARYVAR
  5
133F
102
{ACAD_REACTORS
330
11BA
102
}
330
11BA
100
DictionaryVariables
280
     0
  1
1:1
  0
DICTIONARYVAR
  5
133C
102
{ACAD_REACTORS
330
11BA
102
}
330
11BA
100
DictionaryVariables
280
     0
  1
STANDARD
  0
DICTIONARYVAR
  5
11BB
102
{ACAD_REACTORS
330
11BA
102
}
330
11BA
100
DictionaryVariables
280
     0
  1
STANDARD
  0
DICTIONARYVAR
  5
133D
102
{ACAD_REACTORS
330
11BA
102
}
330
11BA
100
DictionaryVariables
280
     0
  1
Imperial24
  0
DICTIONARYVAR
  5
133E
102
{ACAD_REACTORS
330
11BA
102
}
330
11BA
100
DictionaryVariables
280
     0
  1
Imperial24
  0
DICTIONARYVAR
  5
12BA
102
{ACAD_REACTORS
330
11BA
102
}
330
11BA
100
DictionaryVariables
280
     0
  1
1
  0
DICTIONARYVAR
  5
1341
102
{ACAD_REACTORS
330
11BA
102
}
330
11BA
100
DictionaryVariables
280
     0
  1
0
  0
DICTIONARYVAR
  5
12BB
102
{ACAD_REACTORS
330
11BA
102
}
330
11BA
100
DictionaryVariables
280
     0
  1

  0
DICTIONARYVAR
  5
1340
102
{ACAD_REACTORS
330
11BA
102
}
330
11BA
100
DictionaryVariables
280
     0
  1
127
  0
DICTIONARYVAR
  5
1342
102
{ACAD_REACTORS
330
11BA
102
}
330
11BA
100
DictionaryVariables
280
     0
  1
2
  0
DICTIONARY
  5
1385
330
1334
100
AcDbDictionary
280
     1
281
     1
  3
ACAD_XREC_ROUNDTRIP
360
1386
  0
DICTIONARY
  5
1348
330
727
100
AcDbDictionary
280
     1
281
     1
  3
ACAD_XREC_ROUNDTRIP
360
1349
  0
DICTIONARY
  5
134A
330
728
100
AcDbDictionary
280
     1
281
     1
  3
ACAD_XREC_ROUNDTRIP
360
134B
  0
DICTIONARY
  5
12F5
330
12F4
100
AcDbDictionary
280
     1
281
     1
  3
ACAD_XREC_ROUNDTRIP
360
134E
  3
BUMPTILE
360
12F7
  3
DIFFUSETILE
360
12F6
  3
OPACITYTILE
360
12FA
  3
REFLECTIONTILE
360
12F9
  3
REFRACTIONTILE
360
12FB
  3
SPECULARTILE
360
12F8
  0
DICTIONARY
  5
12ED
330
12EC
100
AcDbDictionary
280
     1
281
     1
  3
ACAD_XREC_ROUNDTRIP
360
134D
  3
BUMPTILE
360
12EF
  3
DIFFUSETILE
360
12EE
  3
OPACITYTILE
360
12F2
  3
REFLECTIONTILE
360
12F1
  3
REFRACTIONTILE
360
12F3
  3
SPECULARTILE
360
12F0
  0
DICTIONARY
  5
12FD
330
12FC
100
AcDbDictionary
280
     1
281
     1
  3
ACAD_XREC_ROUNDTRIP
360
134F
  3
BUMPTILE
360
12FF
  3
DIFFUSETILE
360
12FE
  3
OPACITYTILE
360
1302
  3
REFLECTIONTILE
360
1301
  3
REFRACTIONTILE
360
1303
  3
SPECULARTILE
360
1300
  0
DICTIONARY
  5
1381
330
1330
100
AcDbDictionary
280
     1
281
     1
  3
ACAD_XREC_ROUNDTRIP
360
1382
  0
DICTIONARY
  5
1383
330
1332
100
AcDbDictionary
280
     1
281
     1
  3
ACAD_XREC_ROUNDTRIP
360
1384
  0
DICTIONARY
  5
1344
330
1104
100
AcDbDictionary
280
     1
281
     1
  3
ACAD_ROUNDTRIP_2008_TABLESTYLE_CELLSTYLEMAP
360
1345
  3
ACAD_XREC_ROUNDTRIP
360
134C
  0
DICTIONARY
  5
135A
330
130A
100
AcDbDictionary
280
     1
281
     1
  3
ACAD_XREC_ROUNDTRIP
360
135B
  0
DICTIONARY
  5
1358
330
1309
100
AcDbDictionary
280
     1
281
     1
  3
ACAD_XREC_ROUNDTRIP
360
1359
  0
DICTIONARY
  5
1366
330
1310
100
AcDbDictionary
280
     1
281
     1
  3
ACAD_XREC_ROUNDTRIP
360
1367
  0
DICTIONARY
  5
136E
330
1314
100
AcDbDictionary
280
     1
281
     1
  3
ACAD_XREC_ROUNDTRIP
360
136F
  0
DICTIONARY
  5
1360
330
130D
100
AcDbDictionary
280
     1
281
     1
  3
ACAD_XREC_ROUNDTRIP
360
1361
  0
DICTIONARY
  5
1364
330
130F
100
AcDbDictionary
280
     1
281
     1
  3
ACAD_XREC_ROUNDTRIP
360
1365
  0
DICTIONARY
  5
137E
330
131C
100
AcDbDictionary
280
     1
281
     1
  3
ACAD_XREC_ROUNDTRIP
360
137F
  0
DICTIONARY
  5
136C
330
1313
100
AcDbDictionary
280
     1
281
     1
  3
ACAD_XREC_ROUNDTRIP
360
136D
  0
DICTIONARY
  5
1350
330
1305
100
AcDbDictionary
280
     1
281
     1
  3
ACAD_XREC_ROUNDTRIP
360
1351
  0
DICTIONARY
  5
1352
330
1306
100
AcDbDictionary
280
     1
281
     1
  3
ACAD_XREC_ROUNDTRIP
360
1353
  0
DICTIONARY
  5
1354
330
1307
100
AcDbDictionary
280
     1
281
     1
  3
ACAD_XREC_ROUNDTRIP
360
1355
  0
DICTIONARY
  5
1356
330
1308
100
AcDbDictionary
280
     1
281
     1
  3
ACAD_XREC_ROUNDTRIP
360
1357
  0
DICTIONARY
  5
135E
330
130C
100
AcDbDictionary
280
     1
281
     1
  3
ACAD_XREC_ROUNDTRIP
360
135F
  0
DICTIONARY
  5
137A
330
131A
100
AcDbDictionary
280
     1
281
     1
  3
ACAD_XREC_ROUNDTRIP
360
137B
  0
DICTIONARY
  5
136A
330
1312
100
AcDbDictionary
280
     1
281
     1
  3
ACAD_XREC_ROUNDTRIP
360
136B
  0
DICTIONARY
  5
137C
330
131B
100
AcDbDictionary
280
     1
281
     1
  3
ACAD_XREC_ROUNDTRIP
360
137D
  0
DICTIONARY
  5
1362
330
130E
100
AcDbDictionary
280
     1
281
     1
  3
ACAD_XREC_ROUNDTRIP
360
1363
  0
DICTIONARY
  5
1378
330
1319
100
AcDbDictionary
280
     1
281
     1
  3
ACAD_XREC_ROUNDTRIP
360
1379
  0
DICTIONARY
  5
1376
330
1318
100
AcDbDictionary
280
     1
281
     1
  3
ACAD_XREC_ROUNDTRIP
360
1377
  0
DICTIONARY
  5
1370
330
1315
100
AcDbDictionary
280
     1
281
     1
  3
ACAD_XREC_ROUNDTRIP
360
1371
  0
DICTIONARY
  5
1372
330
1316
100
AcDbDictionary
280
     1
281
     1
  3
ACAD_XREC_ROUNDTRIP
360
1373
  0
DICTIONARY
  5
1368
330
1311
100
AcDbDictionary
280
     1
281
     1
  3
ACAD_XREC_ROUNDTRIP
360
1369
  0
DICTIONARY
  5
135C
330
130B
100
AcDbDictionary
280
     1
281
     1
  3
ACAD_XREC_ROUNDTRIP
360
135D
  0
DICTIONARY
  5
1374
330
1317
100
AcDbDictionary
280
     1
281
     1
  3
ACAD_XREC_ROUNDTRIP
360
1375
  0
XRECORD
  5
1386
102
{ACAD_REACTORS
330
1385
102
}
330
1385
100
AcDbXrecord
280
     1
102
DISPLAYNAME
  1
Imperial24
102
FLAGS
 90
        0
  0
XRECORD
  5
1349
102
{ACAD_REACTORS
330
1348
102
}
330
1348
100
AcDbXrecord
280
     1
102
SHADEPLOT
 70
     0
102
SHADEPLOTRESLEVEL
 70
     2
102
SHADEPLOTCUSTOMDPI
 70
   300
  0
XRECORD
  5
134B
102
{ACAD_REACTORS
330
134A
102
}
330
134A
100
AcDbXrecord
280
     1
102
SHADEPLOT
 70
     0
102
SHADEPLOTRESLEVEL
 70
     2
102
SHADEPLOTCUSTOMDPI
 70
   300
  0
XRECORD
  5
134E
102
{ACAD_REACTORS
330
12F5
102
}
330
12F5
100
AcDbXrecord
280
     1
102
MATERIAL
148
0.0
149
0.0
149
0.0
 93
        0
 94
      127
282
     0
 72
     0
 77
     0
171
     0
175
     0
179
     0
273
     0
  0
XRECORD
  5
12F7
102
{ACAD_REACTORS
330
12F5
102
}
330
12F5
100
AcDbXrecord
280
     1
270
     1
271
     1
  0
XRECORD
  5
12F6
102
{ACAD_REACTORS
330
12F5
102
}
330
12F5
100
AcDbXrecord
280
     1
270
     1
271
     1
  0
XRECORD
  5
12FA
102
{ACAD_REACTORS
330
12F5
102
}
330
12F5
100
AcDbXrecord
280
     1
270
     1
271
     1
  0
XRECORD
  5
12F9
102
{ACAD_REACTORS
330
12F5
102
}
330
12F5
100
AcDbXrecord
280
     1
270
     1
271
     1
  0
XRECORD
  5
12FB
102
{ACAD_REACTORS
330
12F5
102
}
330
12F5
100
AcDbXrecord
280
     1
270
     1
271
     1
  0
XRECORD
  5
12F8
102
{ACAD_REACTORS
330
12F5
102
}
330
12F5
100
AcDbXrecord
280
     1
270
     1
271
     1
  0
XRECORD
  5
134D
102
{ACAD_REACTORS
330
12ED
102
}
330
12ED
100
AcDbXrecord
280
     1
102
MATERIAL
148
0.0
149
0.0
149
0.0
 93
        0
 94
      127
282
     0
 72
     0
 77
     0
171
     0
175
     0
179
     0
273
     0
  0
XRECORD
  5
12EF
102
{ACAD_REACTORS
330
12ED
102
}
330
12ED
100
AcDbXrecord
280
     1
270
     1
271
     1
  0
XRECORD
  5
12EE
102
{ACAD_REACTORS
330
12ED
102
}
330
12ED
100
AcDbXrecord
280
     1
270
     1
271
     1
  0
XRECORD
  5
12F2
102
{ACAD_REACTORS
330
12ED
102
}
330
12ED
100
AcDbXrecord
280
     1
270
     1
271
     1
  0
XRECORD
  5
12F1
102
{ACAD_REACTORS
330
12ED
102
}
330
12ED
100
AcDbXrecord
280
     1
270
     1
271
     1
  0
XRECORD
  5
12F3
102
{ACAD_REACTORS
330
12ED
102
}
330
12ED
100
AcDbXrecord
280
     1
270
     1
271
     1
  0
XRECORD
  5
12F0
102
{ACAD_REACTORS
330
12ED
102
}
330
12ED
100
AcDbXrecord
280
     1
270
     1
271
     1
  0
XRECORD
  5
134F
102
{ACAD_REACTORS
330
12FD
102
}
330
12FD
100
AcDbXrecord
280
     1
102
MATERIAL
148
0.0
149
0.0
149
0.0
 93
        0
 94
      127
282
     0
 72
     0
 77
     0
171
     0
175
     0
179
     0
273
     0
  0
XRECORD
  5
12FF
102
{ACAD_REACTORS
330
12FD
102
}
330
12FD
100
AcDbXrecord
280
     1
270
     1
271
     1
  0
XRECORD
  5
12FE
102
{ACAD_REACTORS
330
12FD
102
}
330
12FD
100
AcDbXrecord
280
     1
270
     1
271
     1
  0
XRECORD
  5
1302
102
{ACAD_REACTORS
330
12FD
102
}
330
12FD
100
AcDbXrecord
280
     1
270
     1
271
     1
  0
XRECORD
  5
1301
102
{ACAD_REACTORS
330
12FD
102
}
330
12FD
100
AcDbXrecord
280
     1
270
     1
271
     1
  0
XRECORD
  5
1303
102
{ACAD_REACTORS
330
12FD
102
}
330
12FD
100
AcDbXrecord
280
     1
270
     1
271
     1
  0
XRECORD
  5
1300
102
{ACAD_REACTORS
330
12FD
102
}
330
12FD
100
AcDbXrecord
280
     1
270
     1
271
     1
  0
XRECORD
  5
1382
102
{ACAD_REACTORS
330
1381
102
}
330
1381
100
AcDbXrecord
280
     1
102
ACAD_ROUNDTRIP_2012_MLEADER_STYLE
298
     1
  0
XRECORD
  5
1384
102
{ACAD_REACTORS
330
1383
102
}
330
1383
100
AcDbXrecord
280
     1
102
DISPLAYNAME
  1
Imperial24
102
FLAGS
 90
        0
  0
CELLSTYLEMAP
  5
1345
102
{ACAD_REACTORS
330
1344
102
}
330
1344
100
AcDbCellStyleMap
 90
        3
300
CELLSTYLE
  1
TABLEFORMAT_BEGIN
 90
        5
170
     1
 91
        0
 92
    32768
 62
   257
 93
        1
300
CONTENTFORMAT
  1
CONTENTFORMAT_BEGIN
 90
        0
 91
        0
 92
        4
 93
        0
300

 40
0.0
140
1.0
 94
        5
 62
     0
340
10
144
0.25
309
CONTENTFORMAT_END
171
     0
 94
        6
 95
        1
302
GRIDFORMAT
  1
GRIDFORMAT_BEGIN
 90
        0
 91
        1
 62
     0
 92
       -2
340
0
 93
        0
 40
0.045
309
GRIDFORMAT_END
 95
        2
302
GRIDFORMAT
  1
GRIDFORMAT_BEGIN
 90
        0
 91
        1
 62
     0
 92
       -2
340
0
 93
        0
 40
0.045
309
GRIDFORMAT_END
 95
        4
302
GRIDFORMAT
  1
GRIDFORMAT_BEGIN
 90
        0
 91
        1
 62
     0
 92
       -2
340
0
 93
        0
 40
0.045
309
GRIDFORMAT_END
 95
        8
302
GRIDFORMAT
  1
GRIDFORMAT_BEGIN
 90
        0
 91
        1
 62
     0
 92
       -2
340
0
 93
        0
 40
0.045
309
GRIDFORMAT_END
 95
       16
302
GRIDFORMAT
  1
GRIDFORMAT_BEGIN
 90
        0
 91
        1
 62
     0
 92
       -2
340
0
 93
        0
 40
0.045
309
GRIDFORMAT_END
 95
       32
302
GRIDFORMAT
  1
GRIDFORMAT_BEGIN
 90
        0
 91
        1
 62
     0
 92
       -2
340
0
 93
        0
 40
0.045
309
GRIDFORMAT_END
309
TABLEFORMAT_END
  1
CELLSTYLE_BEGIN
 90
        1
 91
        1
300
_TITLE
309
CELLSTYLE_END
300
CELLSTYLE
  1
TABLEFORMAT_BEGIN
 90
        5
170
     1
 91
        0
 92
        0
 62
   257
 93
        1
300
CONTENTFORMAT
  1
CONTENTFORMAT_BEGIN
 90
        0
 91
        0
 92
        4
 93
        0
300

 40
0.0
140
1.0
 94
        5
 62
     0
340
10
144
0.18
309
CONTENTFORMAT_END
171
     0
 94
        6
 95
        1
302
GRIDFORMAT
  1
GRIDFORMAT_BEGIN
 90
        0
 91
        1
 62
     0
 92
       -2
340
0
 93
        0
 40
0.045
309
GRIDFORMAT_END
 95
        2
302
GRIDFORMAT
  1
GRIDFORMAT_BEGIN
 90
        0
 91
        1
 62
     0
 92
       -2
340
0
 93
        0
 40
0.045
309
GRIDFORMAT_END
 95
        4
302
GRIDFORMAT
  1
GRIDFORMAT_BEGIN
 90
        0
 91
        1
 62
     0
 92
       -2
340
0
 93
        0
 40
0.045
309
GRIDFORMAT_END
 95
        8
302
GRIDFORMAT
  1
GRIDFORMAT_BEGIN
 90
        0
 91
        1
 62
     0
 92
       -2
340
0
 93
        0
 40
0.045
309
GRIDFORMAT_END
 95
       16
302
GRIDFORMAT
  1
GRIDFORMAT_BEGIN
 90
        0
 91
        1
 62
     0
 92
       -2
340
0
 93
        0
 40
0.045
309
GRIDFORMAT_END
 95
       32
302
GRIDFORMAT
  1
GRIDFORMAT_BEGIN
 90
        0
 91
        1
 62
     0
 92
       -2
340
0
 93
        0
 40
0.045
309
GRIDFORMAT_END
309
TABLEFORMAT_END
  1
CELLSTYLE_BEGIN
 90
        2
 91
        1
300
_HEADER
309
CELLSTYLE_END
300
CELLSTYLE
  1
TABLEFORMAT_BEGIN
 90
        5
170
     1
 91
        0
 92
        0
 62
   257
 93
        1
300
CONTENTFORMAT
  1
CONTENTFORMAT_BEGIN
 90
        0
 91
        0
 92
        4
 93
        0
300

 40
0.0
140
1.0
 94
        2
 62
     0
340
10
144
0.18
309
CONTENTFORMAT_END
171
     0
 94
        6
 95
        1
302
GRIDFORMAT
  1
GRIDFORMAT_BEGIN
 90
        0
 91
        1
 62
     0
 92
       -2
340
0
 93
        0
 40
0.045
309
GRIDFORMAT_END
 95
        2
302
GRIDFORMAT
  1
GRIDFORMAT_BEGIN
 90
        0
 91
        1
 62
     0
 92
       -2
340
0
 93
        0
 40
0.045
309
GRIDFORMAT_END
 95
        4
302
GRIDFORMAT
  1
GRIDFORMAT_BEGIN
 90
        0
 91
        1
 62
     0
 92
       -2
340
0
 93
        0
 40
0.045
309
GRIDFORMAT_END
 95
        8
302
GRIDFORMAT
  1
GRIDFORMAT_BEGIN
 90
        0
 91
        1
 62
     0
 92
       -2
340
0
 93
        0
 40
0.045
309
GRIDFORMAT_END
 95
       16
302
GRIDFORMAT
  1
GRIDFORMAT_BEGIN
 90
        0
 91
        1
 62
     0
 92
       -2
340
0
 93
        0
 40
0.045
309
GRIDFORMAT_END
 95
       32
302
GRIDFORMAT
  1
GRIDFORMAT_BEGIN
 90
        0
 91
        1
 62
     0
 92
       -2
340
0
 93
        0
 40
0.045
309
GRIDFORMAT_END
309
TABLEFORMAT_END
  1
CELLSTYLE_BEGIN
 90
        3
 91
        2
300
_DATA
309
CELLSTYLE_END
  0
XRECORD
  5
134C
102
{ACAD_REACTORS
330
1344
102
}
330
1344
100
AcDbXrecord
280
     1
102
ACAD_ROUNDTRIP_PRE2007_TABLESTYLE
 90
        4
 91
        0
  1

 92
        4
 93
        0
  2

 94
        4
 95
        0
  3

  0
XRECORD
  5
135B
102
{ACAD_REACTORS
330
135A
102
}
330
135A
100
AcDbXrecord
280
     1
102
RTVSPost2010Prop28
280
     1
102
RTVSPost2010PropOp28
 70
     1
102
RTVSPost2010Prop29
280
     1
102
RTVSPost2010PropOp29
 70
     1
102
RTVSPost2010Prop30
280
     0
102
RTVSPost2010PropOp30
 70
     1
102
RTVSPost2010Prop31
280
     0
102
RTVSPost2010PropOp31
 70
     1
102
RTVSPost2010Prop32
280
     0
102
RTVSPost2010PropOp32
 70
     1
102
RTVSPost2010Prop33
280
     0
102
RTVSPost2010PropOp33
 70
     1
102
RTVSPost2010Prop34
280
     0
102
RTVSPost2010PropOp34
 70
     1
102
RTVSPost2010Prop35
280
     0
102
RTVSPost2010PropOp35
 70
     1
102
RTVSPost2010Prop36
280
     0
102
RTVSPost2010PropOp36
 70
     1
102
RTVSPost2010Prop37
 90
       50
102
RTVSPost2010PropOp37
 70
     1
102
RTVSPost2010Prop38
140
0.0
102
RTVSPost2010PropOp38
 70
     1
102
RTVSPost2010Prop39
140
1.0
102
RTVSPost2010PropOp39
 70
     1
102
RTVSPost2010Prop40
 90
        0
102
RTVSPost2010PropOp40
 70
     1
102
RTVSPost2010Prop41ColorIndex
 90
       18
102
RTVSPost2010Prop41ColorRGB
 90
        0
102
RTVSPost2010PropOp41
 70
     1
102
RTVSPost2010Prop42
 90
       50
102
RTVSPost2010PropOp42
 70
     1
102
RTVSPost2010Prop43
 90
        3
102
RTVSPost2010PropOp43
 70
     1
102
RTVSPost2010Prop44ColorIndex
 90
        5
102
RTVSPost2010Prop44ColorRGB
 90
      255
102
RTVSPost2010PropOp44
 70
     1
102
RTVSPost2010Prop45
280
     0
102
RTVSPost2010PropOp45
 70
     1
102
RTVSPost2010Prop46
 90
       50
102
RTVSPost2010PropOp46
 70
     1
102
RTVSPost2010Prop47
 90
       50
102
RTVSPost2010PropOp47
 70
     1
102
RTVSPost2010Prop48
 90
       50
102
RTVSPost2010PropOp48
 70
     1
102
RTVSPost2010Prop49
280
     0
102
RTVSPost2010PropOp49
 70
     1
102
RTVSPost2010Prop50
 90
       50
102
RTVSPost2010PropOp50
 70
     1
102
RTVSPost2010Prop51ColorIndex
 90
      256
102
RTVSPost2010Prop51ColorRGB
 90
-16777216
102
RTVSPost2010PropOp51
 70
     0
102
RTVSPost2010Prop52
140
1.0
102
RTVSPost2010PropOp52
 70
     0
102
RTVSPost2010Prop53
 90
        2
102
RTVSPost2010PropOp53
 70
     1
102
RTVSPost2010Prop54
  1
strokes_ogs.tif
102
RTVSPost2010PropOp54
 70
     1
102
RTVSPost2010Prop55
280
     0
102
RTVSPost2010PropOp55
 70
     1
102
RTVSPost2010Prop56
140
1.0
102
RTVSPost2010PropOp56
 70
     1
102
RTVSPost2010Prop57
140
1.0
102
RTVSPost2010PropOp57
 70
     1
102
RTVSPropertyOp0
 70
     1
102
RTVSPropertyOp1
 70
     1
102
RTVSPropertyOp2
 70
     1
102
RTVSPropertyOp3
 70
     1
102
RTVSPropertyOp4
 70
     1
102
RTVSPropertyOp5
 70
     1
102
RTVSPropertyOp6
 70
     1
102
RTVSPropertyOp7
 70
     1
102
RTVSPropertyOp8
 70
     1
102
RTVSPropertyOp9
 70
     1
102
RTVSPropertyOp10
 70
     1
102
RTVSPropertyOp11
 70
     1
102
RTVSPropertyOp12
 70
     1
102
RTVSPropertyOp13
 70
     1
102
RTVSPropertyOp14
 70
     1
102
RTVSPropertyOp15
 70
     1
102
RTVSPropertyOp16
 70
     1
102
RTVSPropertyOp17
 70
     1
102
RTVSPropertyOp18
 70
     1
102
RTVSPropertyOp19
 70
     1
102
RTVSPropertyOp20
 70
     1
102
RTVSPropertyOp21
 70
     1
102
RTVSPropertyOp22
 70
     1
102
RTVSPropertyOp23
 70
     1
102
RTVSPropertyOp24
 70
     1
102
RTVSPropertyOp25
 70
     1
102
RTVSPropertyOp26
 70
     1
102
RTVSPropertyOp27
 70
     1
102
RTVSPropertyOp28
 70
     1
102
RTVSPropertyOp29
 70
     1
102
RTVSPropertyOp30
 70
     1
102
RTVSPropertyOp31
 70
     1
102
RTVSPropertyOp32
 70
     1
102
RTVSPropertyOp33
 70
     1
102
RTVSPropertyOp34
 70
     1
102
RTVSPropertyOp35
 70
     1
102
RTVSPropertyOp36
 70
     1
102
RTVSPropertyOp37
 70
     1
102
RTVSPropertyOp38
 70
     1
102
RTVSPropertyOp39
 70
     1
102
RTVSPropertyOp40
 70
     1
102
RTVSPropertyOp41
 70
     1
102
RTVSPropertyOp42
 70
     1
102
RTVSPropertyOp43
 70
     1
102
RTVSPropertyOp44
 70
     1
102
RTVSPropertyOp45
 70
     1
102
RTVSPropertyOp46
 70
     1
102
RTVSPropertyOp47
 70
     1
102
RTVSPropertyOp48
 70
     1
102
RTVSPropertyOp49
 70
     1
102
RTVSPropertyOp50
 70
     1
102
RTVSPropertyOp51
 70
     0
102
RTVSPropertyOp52
 70
     0
102
RTVSPropertyOp53
 70
     1
102
RTVSPropertyOp54
 70
     1
102
RTVSPropertyOp55
 70
     1
102
RTVSPropertyOp56
 70
     1
102
RTVSPropertyOp57
 70
     1
102
RTVSPropertyOp58
 70
     1
102
RTVSPropertyOp59
 70
     1
102
RTVSPropertyOp60
 70
     1
102
RTVSPropertyOp61
 70
     1
102
RTVSPropertyOp62
 70
     1
  0
XRECORD
  5
1359
102
{ACAD_REACTORS
330
1358
102
}
330
1358
100
AcDbXrecord
280
     1
102
RTVSPost2010Prop28
280
     0
102
RTVSPost2010PropOp28
 70
     1
102
RTVSPost2010Prop29
280
     1
102
RTVSPost2010PropOp29
 70
     1
102
RTVSPost2010Prop30
280
     1
102
RTVSPost2010PropOp30
 70
     1
102
RTVSPost2010Prop31
280
     0
102
RTVSPost2010PropOp31
 70
     1
102
RTVSPost2010Prop32
280
     0
102
RTVSPost2010PropOp32
 70
     1
102
RTVSPost2010Prop33
280
     0
102
RTVSPost2010PropOp33
 70
     1
102
RTVSPost2010Prop34
280
     0
102
RTVSPost2010PropOp34
 70
     1
102
RTVSPost2010Prop35
280
     0
102
RTVSPost2010PropOp35
 70
     1
102
RTVSPost2010Prop36
280
     0
102
RTVSPost2010PropOp36
 70
     1
102
RTVSPost2010Prop37
 90
       50
102
RTVSPost2010PropOp37
 70
     1
102
RTVSPost2010Prop38
140
0.0
102
RTVSPost2010PropOp38
 70
     1
102
RTVSPost2010Prop39
140
1.0
102
RTVSPost2010PropOp39
 70
     1
102
RTVSPost2010Prop40
 90
        0
102
RTVSPost2010PropOp40
 70
     1
102
RTVSPost2010Prop41ColorIndex
 90
       18
102
RTVSPost2010Prop41ColorRGB
 90
        0
102
RTVSPost2010PropOp41
 70
     1
102
RTVSPost2010Prop42
 90
       50
102
RTVSPost2010PropOp42
 70
     1
102
RTVSPost2010Prop43
 90
        3
102
RTVSPost2010PropOp43
 70
     1
102
RTVSPost2010Prop44ColorIndex
 90
        5
102
RTVSPost2010Prop44ColorRGB
 90
      255
102
RTVSPost2010PropOp44
 70
     1
102
RTVSPost2010Prop45
280
     0
102
RTVSPost2010PropOp45
 70
     1
102
RTVSPost2010Prop46
 90
       50
102
RTVSPost2010PropOp46
 70
     1
102
RTVSPost2010Prop47
 90
       50
102
RTVSPost2010PropOp47
 70
     1
102
RTVSPost2010Prop48
 90
       50
102
RTVSPost2010PropOp48
 70
     1
102
RTVSPost2010Prop49
280
     0
102
RTVSPost2010PropOp49
 70
     1
102
RTVSPost2010Prop50
 90
       50
102
RTVSPost2010PropOp50
 70
     1
102
RTVSPost2010Prop51ColorIndex
 90
      256
102
RTVSPost2010Prop51ColorRGB
 90
-16777216
102
RTVSPost2010PropOp51
 70
     0
102
RTVSPost2010Prop52
140
1.0
102
RTVSPost2010PropOp52
 70
     0
102
RTVSPost2010Prop53
 90
        2
102
RTVSPost2010PropOp53
 70
     1
102
RTVSPost2010Prop54
  1
strokes_ogs.tif
102
RTVSPost2010PropOp54
 70
     1
102
RTVSPost2010Prop55
280
     0
102
RTVSPost2010PropOp55
 70
     1
102
RTVSPost2010Prop56
140
1.0
102
RTVSPost2010PropOp56
 70
     1
102
RTVSPost2010Prop57
140
1.0
102
RTVSPost2010PropOp57
 70
     1
102
RTVSPropertyOp0
 70
     1
102
RTVSPropertyOp1
 70
     1
102
RTVSPropertyOp2
 70
     1
102
RTVSPropertyOp3
 70
     1
102
RTVSPropertyOp4
 70
     1
102
RTVSPropertyOp5
 70
     1
102
RTVSPropertyOp6
 70
     1
102
RTVSPropertyOp7
 70
     1
102
RTVSPropertyOp8
 70
     1
102
RTVSPropertyOp9
 70
     1
102
RTVSPropertyOp10
 70
     1
102
RTVSPropertyOp11
 70
     1
102
RTVSPropertyOp12
 70
     1
102
RTVSPropertyOp13
 70
     1
102
RTVSPropertyOp14
 70
     1
102
RTVSPropertyOp15
 70
     1
102
RTVSPropertyOp16
 70
     1
102
RTVSPropertyOp17
 70
     1
102
RTVSPropertyOp18
 70
     1
102
RTVSPropertyOp19
 70
     1
102
RTVSPropertyOp20
 70
     1
102
RTVSPropertyOp21
 70
     1
102
RTVSPropertyOp22
 70
     1
102
RTVSPropertyOp23
 70
     1
102
RTVSPropertyOp24
 70
     1
102
RTVSPropertyOp25
 70
     1
102
RTVSPropertyOp26
 70
     1
102
RTVSPropertyOp27
 70
     1
102
RTVSPropertyOp28
 70
     1
102
RTVSPropertyOp29
 70
     1
102
RTVSPropertyOp30
 70
     1
102
RTVSPropertyOp31
 70
     1
102
RTVSPropertyOp32
 70
     1
102
RTVSPropertyOp33
 70
     1
102
RTVSPropertyOp34
 70
     1
102
RTVSPropertyOp35
 70
     1
102
RTVSPropertyOp36
 70
     1
102
RTVSPropertyOp37
 70
     1
102
RTVSPropertyOp38
 70
     1
102
RTVSPropertyOp39
 70
     1
102
RTVSPropertyOp40
 70
     1
102
RTVSPropertyOp41
 70
     1
102
RTVSPropertyOp42
 70
     1
102
RTVSPropertyOp43
 70
     1
102
RTVSPropertyOp44
 70
     1
102
RTVSPropertyOp45
 70
     1
102
RTVSPropertyOp46
 70
     1
102
RTVSPropertyOp47
 70
     1
102
RTVSPropertyOp48
 70
     1
102
RTVSPropertyOp49
 70
     1
102
RTVSPropertyOp50
 70
     1
102
RTVSPropertyOp51
 70
     0
102
RTVSPropertyOp52
 70
     0
102
RTVSPropertyOp53
 70
     1
102
RTVSPropertyOp54
 70
     1
102
RTVSPropertyOp55
 70
     1
102
RTVSPropertyOp56
 70
     1
102
RTVSPropertyOp57
 70
     1
102
RTVSPropertyOp58
 70
     1
102
RTVSPropertyOp59
 70
     1
102
RTVSPropertyOp60
 70
     1
102
RTVSPropertyOp61
 70
     1
102
RTVSPropertyOp62
 70
     1
  0
XRECORD
  5
1367
102
{ACAD_REACTORS
330
1366
102
}
330
1366
100
AcDbXrecord
280
     1
102
RTVSPost2010Prop28
280
     0
102
RTVSPost2010PropOp28
 70
     1
102
RTVSPost2010Prop29
280
     1
102
RTVSPost2010PropOp29
 70
     1
102
RTVSPost2010Prop30
280
     1
102
RTVSPost2010PropOp30
 70
     1
102
RTVSPost2010Prop31
280
     0
102
RTVSPost2010PropOp31
 70
     1
102
RTVSPost2010Prop32
280
     0
102
RTVSPost2010PropOp32
 70
     1
102
RTVSPost2010Prop33
280
     0
102
RTVSPost2010PropOp33
 70
     1
102
RTVSPost2010Prop34
280
     0
102
RTVSPost2010PropOp34
 70
     1
102
RTVSPost2010Prop35
280
     0
102
RTVSPost2010PropOp35
 70
     1
102
RTVSPost2010Prop36
280
     0
102
RTVSPost2010PropOp36
 70
     1
102
RTVSPost2010Prop37
 90
       50
102
RTVSPost2010PropOp37
 70
     1
102
RTVSPost2010Prop38
140
0.0
102
RTVSPost2010PropOp38
 70
     1
102
RTVSPost2010Prop39
140
1.0
102
RTVSPost2010PropOp39
 70
     1
102
RTVSPost2010Prop40
 90
        0
102
RTVSPost2010PropOp40
 70
     1
102
RTVSPost2010Prop41ColorIndex
 90
       18
102
RTVSPost2010Prop41ColorRGB
 90
        0
102
RTVSPost2010PropOp41
 70
     1
102
RTVSPost2010Prop42
 90
       50
102
RTVSPost2010PropOp42
 70
     1
102
RTVSPost2010Prop43
 90
        3
102
RTVSPost2010PropOp43
 70
     1
102
RTVSPost2010Prop44ColorIndex
 90
        5
102
RTVSPost2010Prop44ColorRGB
 90
      255
102
RTVSPost2010PropOp44
 70
     1
102
RTVSPost2010Prop45
280
     0
102
RTVSPost2010PropOp45
 70
     1
102
RTVSPost2010Prop46
 90
       50
102
RTVSPost2010PropOp46
 70
     1
102
RTVSPost2010Prop47
 90
       50
102
RTVSPost2010PropOp47
 70
     1
102
RTVSPost2010Prop48
 90
       50
102
RTVSPost2010PropOp48
 70
     1
102
RTVSPost2010Prop49
280
     0
102
RTVSPost2010PropOp49
 70
     1
102
RTVSPost2010Prop50
 90
       50
102
RTVSPost2010PropOp50
 70
     1
102
RTVSPost2010Prop51ColorIndex
 90
      256
102
RTVSPost2010Prop51ColorRGB
 90
-16777216
102
RTVSPost2010PropOp51
 70
     0
102
RTVSPost2010Prop52
140
1.0
102
RTVSPost2010PropOp52
 70
     0
102
RTVSPost2010Prop53
 90
        2
102
RTVSPost2010PropOp53
 70
     1
102
RTVSPost2010Prop54
  1
strokes_ogs.tif
102
RTVSPost2010PropOp54
 70
     1
102
RTVSPost2010Prop55
280
     0
102
RTVSPost2010PropOp55
 70
     1
102
RTVSPost2010Prop56
140
1.0
102
RTVSPost2010PropOp56
 70
     1
102
RTVSPost2010Prop57
140
1.0
102
RTVSPost2010PropOp57
 70
     1
102
RTVSPropertyOp0
 70
     1
102
RTVSPropertyOp1
 70
     1
102
RTVSPropertyOp2
 70
     1
102
RTVSPropertyOp3
 70
     1
102
RTVSPropertyOp4
 70
     1
102
RTVSPropertyOp5
 70
     1
102
RTVSPropertyOp6
 70
     1
102
RTVSPropertyOp7
 70
     1
102
RTVSPropertyOp8
 70
     1
102
RTVSPropertyOp9
 70
     1
102
RTVSPropertyOp10
 70
     1
102
RTVSPropertyOp11
 70
     1
102
RTVSPropertyOp12
 70
     1
102
RTVSPropertyOp13
 70
     1
102
RTVSPropertyOp14
 70
     1
102
RTVSPropertyOp15
 70
     1
102
RTVSPropertyOp16
 70
     1
102
RTVSPropertyOp17
 70
     1
102
RTVSPropertyOp18
 70
     1
102
RTVSPropertyOp19
 70
     1
102
RTVSPropertyOp20
 70
     1
102
RTVSPropertyOp21
 70
     1
102
RTVSPropertyOp22
 70
     1
102
RTVSPropertyOp23
 70
     1
102
RTVSPropertyOp24
 70
     1
102
RTVSPropertyOp25
 70
     1
102
RTVSPropertyOp26
 70
     1
102
RTVSPropertyOp27
 70
     1
102
RTVSPropertyOp28
 70
     1
102
RTVSPropertyOp29
 70
     1
102
RTVSPropertyOp30
 70
     1
102
RTVSPropertyOp31
 70
     1
102
RTVSPropertyOp32
 70
     1
102
RTVSPropertyOp33
 70
     1
102
RTVSPropertyOp34
 70
     1
102
RTVSPropertyOp35
 70
     1
102
RTVSPropertyOp36
 70
     1
102
RTVSPropertyOp37
 70
     1
102
RTVSPropertyOp38
 70
     1
102
RTVSPropertyOp39
 70
     1
102
RTVSPropertyOp40
 70
     1
102
RTVSPropertyOp41
 70
     1
102
RTVSPropertyOp42
 70
     1
102
RTVSPropertyOp43
 70
     1
102
RTVSPropertyOp44
 70
     1
102
RTVSPropertyOp45
 70
     1
102
RTVSPropertyOp46
 70
     1
102
RTVSPropertyOp47
 70
     1
102
RTVSPropertyOp48
 70
     1
102
RTVSPropertyOp49
 70
     1
102
RTVSPropertyOp50
 70
     1
102
RTVSPropertyOp51
 70
     0
102
RTVSPropertyOp52
 70
     0
102
RTVSPropertyOp53
 70
     1
102
RTVSPropertyOp54
 70
     1
102
RTVSPropertyOp55
 70
     1
102
RTVSPropertyOp56
 70
     1
102
RTVSPropertyOp57
 70
     1
102
RTVSPropertyOp58
 70
     1
102
RTVSPropertyOp59
 70
     1
102
RTVSPropertyOp60
 70
     1
102
RTVSPropertyOp61
 70
     1
102
RTVSPropertyOp62
 70
     1
  0
XRECORD
  5
136F
102
{ACAD_REACTORS
330
136E
102
}
330
136E
100
AcDbXrecord
280
     1
102
RTVSPost2010Prop28
280
     0
102
RTVSPost2010PropOp28
 70
     1
102
RTVSPost2010Prop29
280
     1
102
RTVSPost2010PropOp29
 70
     1
102
RTVSPost2010Prop30
280
     1
102
RTVSPost2010PropOp30
 70
     1
102
RTVSPost2010Prop31
280
     0
102
RTVSPost2010PropOp31
 70
     1
102
RTVSPost2010Prop32
280
     0
102
RTVSPost2010PropOp32
 70
     1
102
RTVSPost2010Prop33
280
     0
102
RTVSPost2010PropOp33
 70
     1
102
RTVSPost2010Prop34
280
     0
102
RTVSPost2010PropOp34
 70
     1
102
RTVSPost2010Prop35
280
     0
102
RTVSPost2010PropOp35
 70
     1
102
RTVSPost2010Prop36
280
     0
102
RTVSPost2010PropOp36
 70
     1
102
RTVSPost2010Prop37
 90
       50
102
RTVSPost2010PropOp37
 70
     1
102
RTVSPost2010Prop38
140
0.0
102
RTVSPost2010PropOp38
 70
     1
102
RTVSPost2010Prop39
140
1.0
102
RTVSPost2010PropOp39
 70
     1
102
RTVSPost2010Prop40
 90
        0
102
RTVSPost2010PropOp40
 70
     1
102
RTVSPost2010Prop41ColorIndex
 90
       18
102
RTVSPost2010Prop41ColorRGB
 90
        0
102
RTVSPost2010PropOp41
 70
     1
102
RTVSPost2010Prop42
 90
       50
102
RTVSPost2010PropOp42
 70
     1
102
RTVSPost2010Prop43
 90
        3
102
RTVSPost2010PropOp43
 70
     1
102
RTVSPost2010Prop44ColorIndex
 90
        5
102
RTVSPost2010Prop44ColorRGB
 90
      255
102
RTVSPost2010PropOp44
 70
     1
102
RTVSPost2010Prop45
280
     0
102
RTVSPost2010PropOp45
 70
     1
102
RTVSPost2010Prop46
 90
       50
102
RTVSPost2010PropOp46
 70
     1
102
RTVSPost2010Prop47
 90
       50
102
RTVSPost2010PropOp47
 70
     1
102
RTVSPost2010Prop48
 90
       50
102
RTVSPost2010PropOp48
 70
     1
102
RTVSPost2010Prop49
280
     0
102
RTVSPost2010PropOp49
 70
     1
102
RTVSPost2010Prop50
 90
       50
102
RTVSPost2010PropOp50
 70
     1
102
RTVSPost2010Prop51ColorIndex
 90
      256
102
RTVSPost2010Prop51ColorRGB
 90
-16777216
102
RTVSPost2010PropOp51
 70
     0
102
RTVSPost2010Prop52
140
1.0
102
RTVSPost2010PropOp52
 70
     0
102
RTVSPost2010Prop53
 90
        2
102
RTVSPost2010PropOp53
 70
     1
102
RTVSPost2010Prop54
  1
strokes_ogs.tif
102
RTVSPost2010PropOp54
 70
     1
102
RTVSPost2010Prop55
280
     0
102
RTVSPost2010PropOp55
 70
     1
102
RTVSPost2010Prop56
140
1.0
102
RTVSPost2010PropOp56
 70
     1
102
RTVSPost2010Prop57
140
1.0
102
RTVSPost2010PropOp57
 70
     1
102
RTVSPropertyOp0
 70
     1
102
RTVSPropertyOp1
 70
     1
102
RTVSPropertyOp2
 70
     1
102
RTVSPropertyOp3
 70
     1
102
RTVSPropertyOp4
 70
     1
102
RTVSPropertyOp5
 70
     1
102
RTVSPropertyOp6
 70
     1
102
RTVSPropertyOp7
 70
     1
102
RTVSPropertyOp8
 70
     1
102
RTVSPropertyOp9
 70
     1
102
RTVSPropertyOp10
 70
     1
102
RTVSPropertyOp11
 70
     1
102
RTVSPropertyOp12
 70
     1
102
RTVSPropertyOp13
 70
     1
102
RTVSPropertyOp14
 70
     1
102
RTVSPropertyOp15
 70
     1
102
RTVSPropertyOp16
 70
     1
102
RTVSPropertyOp17
 70
     1
102
RTVSPropertyOp18
 70
     1
102
RTVSPropertyOp19
 70
     1
102
RTVSPropertyOp20
 70
     1
102
RTVSPropertyOp21
 70
     1
102
RTVSPropertyOp22
 70
     1
102
RTVSPropertyOp23
 70
     1
102
RTVSPropertyOp24
 70
     1
102
RTVSPropertyOp25
 70
     1
102
RTVSPropertyOp26
 70
     1
102
RTVSPropertyOp27
 70
     1
102
RTVSPropertyOp28
 70
     1
102
RTVSPropertyOp29
 70
     1
102
RTVSPropertyOp30
 70
     1
102
RTVSPropertyOp31
 70
     1
102
RTVSPropertyOp32
 70
     1
102
RTVSPropertyOp33
 70
     1
102
RTVSPropertyOp34
 70
     1
102
RTVSPropertyOp35
 70
     1
102
RTVSPropertyOp36
 70
     1
102
RTVSPropertyOp37
 70
     1
102
RTVSPropertyOp38
 70
     1
102
RTVSPropertyOp39
 70
     1
102
RTVSPropertyOp40
 70
     1
102
RTVSPropertyOp41
 70
     1
102
RTVSPropertyOp42
 70
     1
102
RTVSPropertyOp43
 70
     1
102
RTVSPropertyOp44
 70
     1
102
RTVSPropertyOp45
 70
     1
102
RTVSPropertyOp46
 70
     1
102
RTVSPropertyOp47
 70
     1
102
RTVSPropertyOp48
 70
     1
102
RTVSPropertyOp49
 70
     1
102
RTVSPropertyOp50
 70
     1
102
RTVSPropertyOp51
 70
     0
102
RTVSPropertyOp52
 70
     0
102
RTVSPropertyOp53
 70
     1
102
RTVSPropertyOp54
 70
     1
102
RTVSPropertyOp55
 70
     1
102
RTVSPropertyOp56
 70
     1
102
RTVSPropertyOp57
 70
     1
102
RTVSPropertyOp58
 70
     1
102
RTVSPropertyOp59
 70
     1
102
RTVSPropertyOp60
 70
     1
102
RTVSPropertyOp61
 70
     1
102
RTVSPropertyOp62
 70
     1
  0
XRECORD
  5
1361
102
{ACAD_REACTORS
330
1360
102
}
330
1360
100
AcDbXrecord
280
     1
102
RTVSPost2010Prop28
280
     0
102
RTVSPost2010PropOp28
 70
     1
102
RTVSPost2010Prop29
280
     1
102
RTVSPost2010PropOp29
 70
     1
102
RTVSPost2010Prop30
280
     1
102
RTVSPost2010PropOp30
 70
     1
102
RTVSPost2010Prop31
280
     0
102
RTVSPost2010PropOp31
 70
     1
102
RTVSPost2010Prop32
280
     0
102
RTVSPost2010PropOp32
 70
     1
102
RTVSPost2010Prop33
280
     0
102
RTVSPost2010PropOp33
 70
     1
102
RTVSPost2010Prop34
280
     0
102
RTVSPost2010PropOp34
 70
     1
102
RTVSPost2010Prop35
280
     0
102
RTVSPost2010PropOp35
 70
     1
102
RTVSPost2010Prop36
280
     0
102
RTVSPost2010PropOp36
 70
     1
102
RTVSPost2010Prop37
 90
       50
102
RTVSPost2010PropOp37
 70
     1
102
RTVSPost2010Prop38
140
0.0
102
RTVSPost2010PropOp38
 70
     1
102
RTVSPost2010Prop39
140
1.0
102
RTVSPost2010PropOp39
 70
     1
102
RTVSPost2010Prop40
 90
        0
102
RTVSPost2010PropOp40
 70
     1
102
RTVSPost2010Prop41ColorIndex
 90
       18
102
RTVSPost2010Prop41ColorRGB
 90
        0
102
RTVSPost2010PropOp41
 70
     1
102
RTVSPost2010Prop42
 90
       50
102
RTVSPost2010PropOp42
 70
     1
102
RTVSPost2010Prop43
 90
        3
102
RTVSPost2010PropOp43
 70
     1
102
RTVSPost2010Prop44ColorIndex
 90
        5
102
RTVSPost2010Prop44ColorRGB
 90
      255
102
RTVSPost2010PropOp44
 70
     1
102
RTVSPost2010Prop45
280
     0
102
RTVSPost2010PropOp45
 70
     1
102
RTVSPost2010Prop46
 90
       50
102
RTVSPost2010PropOp46
 70
     1
102
RTVSPost2010Prop47
 90
       50
102
RTVSPost2010PropOp47
 70
     1
102
RTVSPost2010Prop48
 90
       50
102
RTVSPost2010PropOp48
 70
     1
102
RTVSPost2010Prop49
280
     0
102
RTVSPost2010PropOp49
 70
     1
102
RTVSPost2010Prop50
 90
       50
102
RTVSPost2010PropOp50
 70
     1
102
RTVSPost2010Prop51ColorIndex
 90
      256
102
RTVSPost2010Prop51ColorRGB
 90
-16777216
102
RTVSPost2010PropOp51
 70
     0
102
RTVSPost2010Prop52
140
1.0
102
RTVSPost2010PropOp52
 70
     0
102
RTVSPost2010Prop53
 90
        2
102
RTVSPost2010PropOp53
 70
     1
102
RTVSPost2010Prop54
  1
strokes_ogs.tif
102
RTVSPost2010PropOp54
 70
     1
102
RTVSPost2010Prop55
280
     0
102
RTVSPost2010PropOp55
 70
     1
102
RTVSPost2010Prop56
140
1.0
102
RTVSPost2010PropOp56
 70
     1
102
RTVSPost2010Prop57
140
1.0
102
RTVSPost2010PropOp57
 70
     1
102
RTVSPropertyOp0
 70
     1
102
RTVSPropertyOp1
 70
     1
102
RTVSPropertyOp2
 70
     1
102
RTVSPropertyOp3
 70
     1
102
RTVSPropertyOp4
 70
     1
102
RTVSPropertyOp5
 70
     1
102
RTVSPropertyOp6
 70
     1
102
RTVSPropertyOp7
 70
     1
102
RTVSPropertyOp8
 70
     1
102
RTVSPropertyOp9
 70
     1
102
RTVSPropertyOp10
 70
     1
102
RTVSPropertyOp11
 70
     1
102
RTVSPropertyOp12
 70
     1
102
RTVSPropertyOp13
 70
     1
102
RTVSPropertyOp14
 70
     1
102
RTVSPropertyOp15
 70
     1
102
RTVSPropertyOp16
 70
     1
102
RTVSPropertyOp17
 70
     1
102
RTVSPropertyOp18
 70
     1
102
RTVSPropertyOp19
 70
     1
102
RTVSPropertyOp20
 70
     1
102
RTVSPropertyOp21
 70
     1
102
RTVSPropertyOp22
 70
     1
102
RTVSPropertyOp23
 70
     1
102
RTVSPropertyOp24
 70
     1
102
RTVSPropertyOp25
 70
     1
102
RTVSPropertyOp26
 70
     1
102
RTVSPropertyOp27
 70
     1
102
RTVSPropertyOp28
 70
     1
102
RTVSPropertyOp29
 70
     1
102
RTVSPropertyOp30
 70
     1
102
RTVSPropertyOp31
 70
     1
102
RTVSPropertyOp32
 70
     1
102
RTVSPropertyOp33
 70
     1
102
RTVSPropertyOp34
 70
     1
102
RTVSPropertyOp35
 70
     1
102
RTVSPropertyOp36
 70
     1
102
RTVSPropertyOp37
 70
     1
102
RTVSPropertyOp38
 70
     1
102
RTVSPropertyOp39
 70
     1
102
RTVSPropertyOp40
 70
     1
102
RTVSPropertyOp41
 70
     1
102
RTVSPropertyOp42
 70
     1
102
RTVSPropertyOp43
 70
     1
102
RTVSPropertyOp44
 70
     1
102
RTVSPropertyOp45
 70
     1
102
RTVSPropertyOp46
 70
     1
102
RTVSPropertyOp47
 70
     1
102
RTVSPropertyOp48
 70
     1
102
RTVSPropertyOp49
 70
     1
102
RTVSPropertyOp50
 70
     1
102
RTVSPropertyOp51
 70
     0
102
RTVSPropertyOp52
 70
     0
102
RTVSPropertyOp53
 70
     1
102
RTVSPropertyOp54
 70
     1
102
RTVSPropertyOp55
 70
     1
102
RTVSPropertyOp56
 70
     1
102
RTVSPropertyOp57
 70
     1
102
RTVSPropertyOp58
 70
     1
102
RTVSPropertyOp59
 70
     1
102
RTVSPropertyOp60
 70
     1
102
RTVSPropertyOp61
 70
     1
102
RTVSPropertyOp62
 70
     1
  0
XRECORD
  5
1365
102
{ACAD_REACTORS
330
1364
102
}
330
1364
100
AcDbXrecord
280
     1
102
RTVSPost2010Prop28
280
     0
102
RTVSPost2010PropOp28
 70
     1
102
RTVSPost2010Prop29
280
     1
102
RTVSPost2010PropOp29
 70
     1
102
RTVSPost2010Prop30
280
     1
102
RTVSPost2010PropOp30
 70
     1
102
RTVSPost2010Prop31
280
     0
102
RTVSPost2010PropOp31
 70
     1
102
RTVSPost2010Prop32
280
     0
102
RTVSPost2010PropOp32
 70
     1
102
RTVSPost2010Prop33
280
     0
102
RTVSPost2010PropOp33
 70
     1
102
RTVSPost2010Prop34
280
     0
102
RTVSPost2010PropOp34
 70
     1
102
RTVSPost2010Prop35
280
     0
102
RTVSPost2010PropOp35
 70
     1
102
RTVSPost2010Prop36
280
     0
102
RTVSPost2010PropOp36
 70
     1
102
RTVSPost2010Prop37
 90
       50
102
RTVSPost2010PropOp37
 70
     1
102
RTVSPost2010Prop38
140
0.0
102
RTVSPost2010PropOp38
 70
     1
102
RTVSPost2010Prop39
140
1.0
102
RTVSPost2010PropOp39
 70
     1
102
RTVSPost2010Prop40
 90
        0
102
RTVSPost2010PropOp40
 70
     1
102
RTVSPost2010Prop41ColorIndex
 90
       18
102
RTVSPost2010Prop41ColorRGB
 90
        0
102
RTVSPost2010PropOp41
 70
     1
102
RTVSPost2010Prop42
 90
       50
102
RTVSPost2010PropOp42
 70
     1
102
RTVSPost2010Prop43
 90
        3
102
RTVSPost2010PropOp43
 70
     1
102
RTVSPost2010Prop44ColorIndex
 90
        5
102
RTVSPost2010Prop44ColorRGB
 90
      255
102
RTVSPost2010PropOp44
 70
     1
102
RTVSPost2010Prop45
280
     0
102
RTVSPost2010PropOp45
 70
     1
102
RTVSPost2010Prop46
 90
       50
102
RTVSPost2010PropOp46
 70
     1
102
RTVSPost2010Prop47
 90
       50
102
RTVSPost2010PropOp47
 70
     1
102
RTVSPost2010Prop48
 90
       50
102
RTVSPost2010PropOp48
 70
     1
102
RTVSPost2010Prop49
280
     0
102
RTVSPost2010PropOp49
 70
     1
102
RTVSPost2010Prop50
 90
       50
102
RTVSPost2010PropOp50
 70
     1
102
RTVSPost2010Prop51ColorIndex
 90
      256
102
RTVSPost2010Prop51ColorRGB
 90
-16777216
102
RTVSPost2010PropOp51
 70
     0
102
RTVSPost2010Prop52
140
1.0
102
RTVSPost2010PropOp52
 70
     0
102
RTVSPost2010Prop53
 90
        2
102
RTVSPost2010PropOp53
 70
     1
102
RTVSPost2010Prop54
  1
strokes_ogs.tif
102
RTVSPost2010PropOp54
 70
     1
102
RTVSPost2010Prop55
280
     0
102
RTVSPost2010PropOp55
 70
     1
102
RTVSPost2010Prop56
140
1.0
102
RTVSPost2010PropOp56
 70
     1
102
RTVSPost2010Prop57
140
1.0
102
RTVSPost2010PropOp57
 70
     1
102
RTVSPropertyOp0
 70
     1
102
RTVSPropertyOp1
 70
     1
102
RTVSPropertyOp2
 70
     1
102
RTVSPropertyOp3
 70
     1
102
RTVSPropertyOp4
 70
     1
102
RTVSPropertyOp5
 70
     1
102
RTVSPropertyOp6
 70
     1
102
RTVSPropertyOp7
 70
     1
102
RTVSPropertyOp8
 70
     1
102
RTVSPropertyOp9
 70
     1
102
RTVSPropertyOp10
 70
     1
102
RTVSPropertyOp11
 70
     1
102
RTVSPropertyOp12
 70
     1
102
RTVSPropertyOp13
 70
     1
102
RTVSPropertyOp14
 70
     1
102
RTVSPropertyOp15
 70
     1
102
RTVSPropertyOp16
 70
     1
102
RTVSPropertyOp17
 70
     1
102
RTVSPropertyOp18
 70
     1
102
RTVSPropertyOp19
 70
     1
102
RTVSPropertyOp20
 70
     1
102
RTVSPropertyOp21
 70
     1
102
RTVSPropertyOp22
 70
     1
102
RTVSPropertyOp23
 70
     1
102
RTVSPropertyOp24
 70
     1
102
RTVSPropertyOp25
 70
     1
102
RTVSPropertyOp26
 70
     1
102
RTVSPropertyOp27
 70
     1
102
RTVSPropertyOp28
 70
     1
102
RTVSPropertyOp29
 70
     1
102
RTVSPropertyOp30
 70
     1
102
RTVSPropertyOp31
 70
     1
102
RTVSPropertyOp32
 70
     1
102
RTVSPropertyOp33
 70
     1
102
RTVSPropertyOp34
 70
     1
102
RTVSPropertyOp35
 70
     1
102
RTVSPropertyOp36
 70
     1
102
RTVSPropertyOp37
 70
     1
102
RTVSPropertyOp38
 70
     1
102
RTVSPropertyOp39
 70
     1
102
RTVSPropertyOp40
 70
     1
102
RTVSPropertyOp41
 70
     1
102
RTVSPropertyOp42
 70
     1
102
RTVSPropertyOp43
 70
     1
102
RTVSPropertyOp44
 70
     1
102
RTVSPropertyOp45
 70
     1
102
RTVSPropertyOp46
 70
     1
102
RTVSPropertyOp47
 70
     1
102
RTVSPropertyOp48
 70
     1
102
RTVSPropertyOp49
 70
     1
102
RTVSPropertyOp50
 70
     1
102
RTVSPropertyOp51
 70
     0
102
RTVSPropertyOp52
 70
     0
102
RTVSPropertyOp53
 70
     1
102
RTVSPropertyOp54
 70
     1
102
RTVSPropertyOp55
 70
     1
102
RTVSPropertyOp56
 70
     1
102
RTVSPropertyOp57
 70
     1
102
RTVSPropertyOp58
 70
     1
102
RTVSPropertyOp59
 70
     1
102
RTVSPropertyOp60
 70
     1
102
RTVSPropertyOp61
 70
     1
102
RTVSPropertyOp62
 70
     1
  0
XRECORD
  5
137F
102
{ACAD_REACTORS
330
137E
102
}
330
137E
100
AcDbXrecord
280
     1
102
RTVSPost2010Prop28
280
     0
102
RTVSPost2010PropOp28
 70
     0
102
RTVSPost2010Prop29
280
     1
102
RTVSPost2010PropOp29
 70
     0
102
RTVSPost2010Prop30
280
     1
102
RTVSPost2010PropOp30
 70
     0
102
RTVSPost2010Prop31
280
     0
102
RTVSPost2010PropOp31
 70
     0
102
RTVSPost2010Prop32
280
     0
102
RTVSPost2010PropOp32
 70
     0
102
RTVSPost2010Prop33
280
     0
102
RTVSPost2010PropOp33
 70
     0
102
RTVSPost2010Prop34
280
     0
102
RTVSPost2010PropOp34
 70
     0
102
RTVSPost2010Prop35
280
     0
102
RTVSPost2010PropOp35
 70
     0
102
RTVSPost2010Prop36
280
     0
102
RTVSPost2010PropOp36
 70
     0
102
RTVSPost2010Prop37
 90
       50
102
RTVSPost2010PropOp37
 70
     0
102
RTVSPost2010Prop38
140
0.0
102
RTVSPost2010PropOp38
 70
     0
102
RTVSPost2010Prop39
140
1.0
102
RTVSPost2010PropOp39
 70
     0
102
RTVSPost2010Prop40
 90
        0
102
RTVSPost2010PropOp40
 70
     0
102
RTVSPost2010Prop41ColorIndex
 90
       18
102
RTVSPost2010Prop41ColorRGB
 90
        0
102
RTVSPost2010PropOp41
 70
     0
102
RTVSPost2010Prop42
 90
       50
102
RTVSPost2010PropOp42
 70
     0
102
RTVSPost2010Prop43
 90
        3
102
RTVSPost2010PropOp43
 70
     0
102
RTVSPost2010Prop44ColorIndex
 90
        5
102
RTVSPost2010Prop44ColorRGB
 90
      255
102
RTVSPost2010PropOp44
 70
     0
102
RTVSPost2010Prop45
280
     0
102
RTVSPost2010PropOp45
 70
     0
102
RTVSPost2010Prop46
 90
       50
102
RTVSPost2010PropOp46
 70
     0
102
RTVSPost2010Prop47
 90
       50
102
RTVSPost2010PropOp47
 70
     0
102
RTVSPost2010Prop48
 90
       50
102
RTVSPost2010PropOp48
 70
     0
102
RTVSPost2010Prop49
280
     0
102
RTVSPost2010PropOp49
 70
     0
102
RTVSPost2010Prop50
 90
       50
102
RTVSPost2010PropOp50
 70
     0
102
RTVSPost2010Prop51ColorIndex
 90
      256
102
RTVSPost2010Prop51ColorRGB
 90
-16777216
102
RTVSPost2010PropOp51
 70
     0
102
RTVSPost2010Prop52
140
1.0
102
RTVSPost2010PropOp52
 70
     0
102
RTVSPost2010Prop53
 90
        2
102
RTVSPost2010PropOp53
 70
     0
102
RTVSPost2010Prop54
  1
strokes_ogs.tif
102
RTVSPost2010PropOp54
 70
     0
102
RTVSPost2010Prop55
280
     0
102
RTVSPost2010PropOp55
 70
     0
102
RTVSPost2010Prop56
140
1.0
102
RTVSPost2010PropOp56
 70
     0
102
RTVSPost2010Prop57
140
1.0
102
RTVSPost2010PropOp57
 70
     0
102
RTVSPropertyOp0
 70
     0
102
RTVSPropertyOp1
 70
     0
102
RTVSPropertyOp2
 70
     0
102
RTVSPropertyOp3
 70
     0
102
RTVSPropertyOp4
 70
     0
102
RTVSPropertyOp5
 70
     0
102
RTVSPropertyOp6
 70
     0
102
RTVSPropertyOp7
 70
     0
102
RTVSPropertyOp8
 70
     0
102
RTVSPropertyOp9
 70
     0
102
RTVSPropertyOp10
 70
     0
102
RTVSPropertyOp11
 70
     0
102
RTVSPropertyOp12
 70
     0
102
RTVSPropertyOp13
 70
     0
102
RTVSPropertyOp14
 70
     2
102
RTVSPropertyOp15
 70
     0
102
RTVSPropertyOp16
 70
     0
102
RTVSPropertyOp17
 70
     0
102
RTVSPropertyOp18
 70
     0
102
RTVSPropertyOp19
 70
     0
102
RTVSPropertyOp20
 70
     0
102
RTVSPropertyOp21
 70
     0
102
RTVSPropertyOp22
 70
     0
102
RTVSPropertyOp23
 70
     0
102
RTVSPropertyOp24
 70
     0
102
RTVSPropertyOp25
 70
     0
102
RTVSPropertyOp26
 70
     0
102
RTVSPropertyOp27
 70
     0
102
RTVSPropertyOp28
 70
     0
102
RTVSPropertyOp29
 70
     0
102
RTVSPropertyOp30
 70
     0
102
RTVSPropertyOp31
 70
     0
102
RTVSPropertyOp32
 70
     0
102
RTVSPropertyOp33
 70
     0
102
RTVSPropertyOp34
 70
     0
102
RTVSPropertyOp35
 70
     0
102
RTVSPropertyOp36
 70
     0
102
RTVSPropertyOp37
 70
     0
102
RTVSPropertyOp38
 70
     0
102
RTVSPropertyOp39
 70
     0
102
RTVSPropertyOp40
 70
     0
102
RTVSPropertyOp41
 70
     0
102
RTVSPropertyOp42
 70
     0
102
RTVSPropertyOp43
 70
     0
102
RTVSPropertyOp44
 70
     0
102
RTVSPropertyOp45
 70
     0
102
RTVSPropertyOp46
 70
     0
102
RTVSPropertyOp47
 70
     0
102
RTVSPropertyOp48
 70
     0
102
RTVSPropertyOp49
 70
     0
102
RTVSPropertyOp50
 70
     0
102
RTVSPropertyOp51
 70
     0
102
RTVSPropertyOp52
 70
     0
102
RTVSPropertyOp53
 70
     0
102
RTVSPropertyOp54
 70
     0
102
RTVSPropertyOp55
 70
     0
102
RTVSPropertyOp56
 70
     0
102
RTVSPropertyOp57
 70
     0
102
RTVSPropertyOp58
 70
     0
102
RTVSPropertyOp59
 70
     0
102
RTVSPropertyOp60
 70
     0
102
RTVSPropertyOp61
 70
     0
102
RTVSPropertyOp62
 70
     0
  0
XRECORD
  5
136D
102
{ACAD_REACTORS
330
136C
102
}
330
136C
100
AcDbXrecord
280
     1
102
RTVSPost2010Prop28
280
     0
102
RTVSPost2010PropOp28
 70
     1
102
RTVSPost2010Prop29
280
     1
102
RTVSPost2010PropOp29
 70
     1
102
RTVSPost2010Prop30
280
     1
102
RTVSPost2010PropOp30
 70
     1
102
RTVSPost2010Prop31
280
     0
102
RTVSPost2010PropOp31
 70
     1
102
RTVSPost2010Prop32
280
     0
102
RTVSPost2010PropOp32
 70
     1
102
RTVSPost2010Prop33
280
     0
102
RTVSPost2010PropOp33
 70
     1
102
RTVSPost2010Prop34
280
     0
102
RTVSPost2010PropOp34
 70
     1
102
RTVSPost2010Prop35
280
     0
102
RTVSPost2010PropOp35
 70
     1
102
RTVSPost2010Prop36
280
     0
102
RTVSPost2010PropOp36
 70
     1
102
RTVSPost2010Prop37
 90
       50
102
RTVSPost2010PropOp37
 70
     1
102
RTVSPost2010Prop38
140
0.0
102
RTVSPost2010PropOp38
 70
     1
102
RTVSPost2010Prop39
140
1.0
102
RTVSPost2010PropOp39
 70
     1
102
RTVSPost2010Prop40
 90
        0
102
RTVSPost2010PropOp40
 70
     1
102
RTVSPost2010Prop41ColorIndex
 90
       18
102
RTVSPost2010Prop41ColorRGB
 90
        0
102
RTVSPost2010PropOp41
 70
     1
102
RTVSPost2010Prop42
 90
       50
102
RTVSPost2010PropOp42
 70
     1
102
RTVSPost2010Prop43
 90
        3
102
RTVSPost2010PropOp43
 70
     1
102
RTVSPost2010Prop44ColorIndex
 90
        5
102
RTVSPost2010Prop44ColorRGB
 90
      255
102
RTVSPost2010PropOp44
 70
     1
102
RTVSPost2010Prop45
280
     0
102
RTVSPost2010PropOp45
 70
     1
102
RTVSPost2010Prop46
 90
       50
102
RTVSPost2010PropOp46
 70
     1
102
RTVSPost2010Prop47
 90
       50
102
RTVSPost2010PropOp47
 70
     1
102
RTVSPost2010Prop48
 90
       50
102
RTVSPost2010PropOp48
 70
     1
102
RTVSPost2010Prop49
280
     0
102
RTVSPost2010PropOp49
 70
     1
102
RTVSPost2010Prop50
 90
       50
102
RTVSPost2010PropOp50
 70
     1
102
RTVSPost2010Prop51ColorIndex
 90
      256
102
RTVSPost2010Prop51ColorRGB
 90
-16777216
102
RTVSPost2010PropOp51
 70
     0
102
RTVSPost2010Prop52
140
1.0
102
RTVSPost2010PropOp52
 70
     0
102
RTVSPost2010Prop53
 90
        2
102
RTVSPost2010PropOp53
 70
     1
102
RTVSPost2010Prop54
  1
strokes_ogs.tif
102
RTVSPost2010PropOp54
 70
     1
102
RTVSPost2010Prop55
280
     0
102
RTVSPost2010PropOp55
 70
     1
102
RTVSPost2010Prop56
140
1.0
102
RTVSPost2010PropOp56
 70
     1
102
RTVSPost2010Prop57
140
1.0
102
RTVSPost2010PropOp57
 70
     1
102
RTVSPropertyOp0
 70
     1
102
RTVSPropertyOp1
 70
     1
102
RTVSPropertyOp2
 70
     1
102
RTVSPropertyOp3
 70
     1
102
RTVSPropertyOp4
 70
     1
102
RTVSPropertyOp5
 70
     1
102
RTVSPropertyOp6
 70
     1
102
RTVSPropertyOp7
 70
     1
102
RTVSPropertyOp8
 70
     1
102
RTVSPropertyOp9
 70
     1
102
RTVSPropertyOp10
 70
     1
102
RTVSPropertyOp11
 70
     1
102
RTVSPropertyOp12
 70
     1
102
RTVSPropertyOp13
 70
     1
102
RTVSPropertyOp14
 70
     1
102
RTVSPropertyOp15
 70
     1
102
RTVSPropertyOp16
 70
     1
102
RTVSPropertyOp17
 70
     1
102
RTVSPropertyOp18
 70
     1
102
RTVSPropertyOp19
 70
     1
102
RTVSPropertyOp20
 70
     1
102
RTVSPropertyOp21
 70
     1
102
RTVSPropertyOp22
 70
     1
102
RTVSPropertyOp23
 70
     1
102
RTVSPropertyOp24
 70
     1
102
RTVSPropertyOp25
 70
     1
102
RTVSPropertyOp26
 70
     1
102
RTVSPropertyOp27
 70
     1
102
RTVSPropertyOp28
 70
     1
102
RTVSPropertyOp29
 70
     1
102
RTVSPropertyOp30
 70
     1
102
RTVSPropertyOp31
 70
     1
102
RTVSPropertyOp32
 70
     1
102
RTVSPropertyOp33
 70
     1
102
RTVSPropertyOp34
 70
     1
102
RTVSPropertyOp35
 70
     1
102
RTVSPropertyOp36
 70
     1
102
RTVSPropertyOp37
 70
     1
102
RTVSPropertyOp38
 70
     1
102
RTVSPropertyOp39
 70
     1
102
RTVSPropertyOp40
 70
     1
102
RTVSPropertyOp41
 70
     1
102
RTVSPropertyOp42
 70
     1
102
RTVSPropertyOp43
 70
     1
102
RTVSPropertyOp44
 70
     1
102
RTVSPropertyOp45
 70
     1
102
RTVSPropertyOp46
 70
     1
102
RTVSPropertyOp47
 70
     1
102
RTVSPropertyOp48
 70
     1
102
RTVSPropertyOp49
 70
     1
102
RTVSPropertyOp50
 70
     1
102
RTVSPropertyOp51
 70
     0
102
RTVSPropertyOp52
 70
     0
102
RTVSPropertyOp53
 70
     1
102
RTVSPropertyOp54
 70
     1
102
RTVSPropertyOp55
 70
     1
102
RTVSPropertyOp56
 70
     1
102
RTVSPropertyOp57
 70
     1
102
RTVSPropertyOp58
 70
     1
102
RTVSPropertyOp59
 70
     1
102
RTVSPropertyOp60
 70
     1
102
RTVSPropertyOp61
 70
     1
102
RTVSPropertyOp62
 70
     1
  0
XRECORD
  5
1351
102
{ACAD_REACTORS
330
1350
102
}
330
1350
100
AcDbXrecord
280
     1
102
RTVSPost2010Prop28
280
     0
102
RTVSPost2010PropOp28
 70
     1
102
RTVSPost2010Prop29
280
     1
102
RTVSPost2010PropOp29
 70
     1
102
RTVSPost2010Prop30
280
     1
102
RTVSPost2010PropOp30
 70
     1
102
RTVSPost2010Prop31
280
     0
102
RTVSPost2010PropOp31
 70
     1
102
RTVSPost2010Prop32
280
     0
102
RTVSPost2010PropOp32
 70
     1
102
RTVSPost2010Prop33
280
     0
102
RTVSPost2010PropOp33
 70
     1
102
RTVSPost2010Prop34
280
     0
102
RTVSPost2010PropOp34
 70
     1
102
RTVSPost2010Prop35
280
     0
102
RTVSPost2010PropOp35
 70
     1
102
RTVSPost2010Prop36
280
     0
102
RTVSPost2010PropOp36
 70
     1
102
RTVSPost2010Prop37
 90
       50
102
RTVSPost2010PropOp37
 70
     1
102
RTVSPost2010Prop38
140
0.0
102
RTVSPost2010PropOp38
 70
     1
102
RTVSPost2010Prop39
140
1.0
102
RTVSPost2010PropOp39
 70
     1
102
RTVSPost2010Prop40
 90
        0
102
RTVSPost2010PropOp40
 70
     1
102
RTVSPost2010Prop41ColorIndex
 90
       18
102
RTVSPost2010Prop41ColorRGB
 90
        0
102
RTVSPost2010PropOp41
 70
     1
102
RTVSPost2010Prop42
 90
       50
102
RTVSPost2010PropOp42
 70
     1
102
RTVSPost2010Prop43
 90
        3
102
RTVSPost2010PropOp43
 70
     1
102
RTVSPost2010Prop44ColorIndex
 90
        5
102
RTVSPost2010Prop44ColorRGB
 90
      255
102
RTVSPost2010PropOp44
 70
     1
102
RTVSPost2010Prop45
280
     0
102
RTVSPost2010PropOp45
 70
     1
102
RTVSPost2010Prop46
 90
       50
102
RTVSPost2010PropOp46
 70
     1
102
RTVSPost2010Prop47
 90
       50
102
RTVSPost2010PropOp47
 70
     1
102
RTVSPost2010Prop48
 90
       50
102
RTVSPost2010PropOp48
 70
     1
102
RTVSPost2010Prop49
280
     0
102
RTVSPost2010PropOp49
 70
     1
102
RTVSPost2010Prop50
 90
       50
102
RTVSPost2010PropOp50
 70
     1
102
RTVSPost2010Prop51ColorIndex
 90
      256
102
RTVSPost2010Prop51ColorRGB
 90
-16777216
102
RTVSPost2010PropOp51
 70
     0
102
RTVSPost2010Prop52
140
1.0
102
RTVSPost2010PropOp52
 70
     0
102
RTVSPost2010Prop53
 90
        2
102
RTVSPost2010PropOp53
 70
     1
102
RTVSPost2010Prop54
  1
strokes_ogs.tif
102
RTVSPost2010PropOp54
 70
     1
102
RTVSPost2010Prop55
280
     0
102
RTVSPost2010PropOp55
 70
     1
102
RTVSPost2010Prop56
140
1.0
102
RTVSPost2010PropOp56
 70
     1
102
RTVSPost2010Prop57
140
1.0
102
RTVSPost2010PropOp57
 70
     1
102
RTVSPropertyOp0
 70
     1
102
RTVSPropertyOp1
 70
     1
102
RTVSPropertyOp2
 70
     1
102
RTVSPropertyOp3
 70
     1
102
RTVSPropertyOp4
 70
     1
102
RTVSPropertyOp5
 70
     1
102
RTVSPropertyOp6
 70
     1
102
RTVSPropertyOp7
 70
     1
102
RTVSPropertyOp8
 70
     1
102
RTVSPropertyOp9
 70
     1
102
RTVSPropertyOp10
 70
     1
102
RTVSPropertyOp11
 70
     1
102
RTVSPropertyOp12
 70
     1
102
RTVSPropertyOp13
 70
     1
102
RTVSPropertyOp14
 70
     1
102
RTVSPropertyOp15
 70
     1
102
RTVSPropertyOp16
 70
     1
102
RTVSPropertyOp17
 70
     1
102
RTVSPropertyOp18
 70
     1
102
RTVSPropertyOp19
 70
     1
102
RTVSPropertyOp20
 70
     1
102
RTVSPropertyOp21
 70
     1
102
RTVSPropertyOp22
 70
     1
102
RTVSPropertyOp23
 70
     1
102
RTVSPropertyOp24
 70
     1
102
RTVSPropertyOp25
 70
     1
102
RTVSPropertyOp26
 70
     1
102
RTVSPropertyOp27
 70
     1
102
RTVSPropertyOp28
 70
     1
102
RTVSPropertyOp29
 70
     1
102
RTVSPropertyOp30
 70
     1
102
RTVSPropertyOp31
 70
     1
102
RTVSPropertyOp32
 70
     1
102
RTVSPropertyOp33
 70
     1
102
RTVSPropertyOp34
 70
     1
102
RTVSPropertyOp35
 70
     1
102
RTVSPropertyOp36
 70
     1
102
RTVSPropertyOp37
 70
     1
102
RTVSPropertyOp38
 70
     1
102
RTVSPropertyOp39
 70
     1
102
RTVSPropertyOp40
 70
     1
102
RTVSPropertyOp41
 70
     1
102
RTVSPropertyOp42
 70
     1
102
RTVSPropertyOp43
 70
     1
102
RTVSPropertyOp44
 70
     1
102
RTVSPropertyOp45
 70
     1
102
RTVSPropertyOp46
 70
     1
102
RTVSPropertyOp47
 70
     1
102
RTVSPropertyOp48
 70
     1
102
RTVSPropertyOp49
 70
     1
102
RTVSPropertyOp50
 70
     1
102
RTVSPropertyOp51
 70
     0
102
RTVSPropertyOp52
 70
     0
102
RTVSPropertyOp53
 70
     1
102
RTVSPropertyOp54
 70
     1
102
RTVSPropertyOp55
 70
     1
102
RTVSPropertyOp56
 70
     1
102
RTVSPropertyOp57
 70
     1
102
RTVSPropertyOp58
 70
     1
102
RTVSPropertyOp59
 70
     1
102
RTVSPropertyOp60
 70
     1
102
RTVSPropertyOp61
 70
     1
102
RTVSPropertyOp62
 70
     1
  0
XRECORD
  5
1353
102
{ACAD_REACTORS
330
1352
102
}
330
1352
100
AcDbXrecord
280
     1
102
RTVSPost2010Prop28
280
     0
102
RTVSPost2010PropOp28
 70
     1
102
RTVSPost2010Prop29
280
     1
102
RTVSPost2010PropOp29
 70
     1
102
RTVSPost2010Prop30
280
     1
102
RTVSPost2010PropOp30
 70
     1
102
RTVSPost2010Prop31
280
     0
102
RTVSPost2010PropOp31
 70
     1
102
RTVSPost2010Prop32
280
     0
102
RTVSPost2010PropOp32
 70
     1
102
RTVSPost2010Prop33
280
     0
102
RTVSPost2010PropOp33
 70
     1
102
RTVSPost2010Prop34
280
     0
102
RTVSPost2010PropOp34
 70
     1
102
RTVSPost2010Prop35
280
     0
102
RTVSPost2010PropOp35
 70
     1
102
RTVSPost2010Prop36
280
     0
102
RTVSPost2010PropOp36
 70
     1
102
RTVSPost2010Prop37
 90
       50
102
RTVSPost2010PropOp37
 70
     1
102
RTVSPost2010Prop38
140
0.0
102
RTVSPost2010PropOp38
 70
     1
102
RTVSPost2010Prop39
140
1.0
102
RTVSPost2010PropOp39
 70
     1
102
RTVSPost2010Prop40
 90
        0
102
RTVSPost2010PropOp40
 70
     1
102
RTVSPost2010Prop41ColorIndex
 90
       18
102
RTVSPost2010Prop41ColorRGB
 90
        0
102
RTVSPost2010PropOp41
 70
     1
102
RTVSPost2010Prop42
 90
       50
102
RTVSPost2010PropOp42
 70
     1
102
RTVSPost2010Prop43
 90
        3
102
RTVSPost2010PropOp43
 70
     1
102
RTVSPost2010Prop44ColorIndex
 90
        5
102
RTVSPost2010Prop44ColorRGB
 90
      255
102
RTVSPost2010PropOp44
 70
     1
102
RTVSPost2010Prop45
280
     0
102
RTVSPost2010PropOp45
 70
     1
102
RTVSPost2010Prop46
 90
       50
102
RTVSPost2010PropOp46
 70
     1
102
RTVSPost2010Prop47
 90
       50
102
RTVSPost2010PropOp47
 70
     1
102
RTVSPost2010Prop48
 90
       50
102
RTVSPost2010PropOp48
 70
     1
102
RTVSPost2010Prop49
280
     0
102
RTVSPost2010PropOp49
 70
     1
102
RTVSPost2010Prop50
 90
       50
102
RTVSPost2010PropOp50
 70
     1
102
RTVSPost2010Prop51ColorIndex
 90
      256
102
RTVSPost2010Prop51ColorRGB
 90
-16777216
102
RTVSPost2010PropOp51
 70
     0
102
RTVSPost2010Prop52
140
1.0
102
RTVSPost2010PropOp52
 70
     0
102
RTVSPost2010Prop53
 90
        2
102
RTVSPost2010PropOp53
 70
     1
102
RTVSPost2010Prop54
  1
strokes_ogs.tif
102
RTVSPost2010PropOp54
 70
     1
102
RTVSPost2010Prop55
280
     0
102
RTVSPost2010PropOp55
 70
     1
102
RTVSPost2010Prop56
140
1.0
102
RTVSPost2010PropOp56
 70
     1
102
RTVSPost2010Prop57
140
1.0
102
RTVSPost2010PropOp57
 70
     1
102
RTVSPropertyOp0
 70
     1
102
RTVSPropertyOp1
 70
     1
102
RTVSPropertyOp2
 70
     1
102
RTVSPropertyOp3
 70
     1
102
RTVSPropertyOp4
 70
     1
102
RTVSPropertyOp5
 70
     1
102
RTVSPropertyOp6
 70
     1
102
RTVSPropertyOp7
 70
     1
102
RTVSPropertyOp8
 70
     1
102
RTVSPropertyOp9
 70
     1
102
RTVSPropertyOp10
 70
     1
102
RTVSPropertyOp11
 70
     1
102
RTVSPropertyOp12
 70
     1
102
RTVSPropertyOp13
 70
     1
102
RTVSPropertyOp14
 70
     1
102
RTVSPropertyOp15
 70
     1
102
RTVSPropertyOp16
 70
     1
102
RTVSPropertyOp17
 70
     1
102
RTVSPropertyOp18
 70
     1
102
RTVSPropertyOp19
 70
     1
102
RTVSPropertyOp20
 70
     1
102
RTVSPropertyOp21
 70
     1
102
RTVSPropertyOp22
 70
     1
102
RTVSPropertyOp23
 70
     1
102
RTVSPropertyOp24
 70
     1
102
RTVSPropertyOp25
 70
     1
102
RTVSPropertyOp26
 70
     1
102
RTVSPropertyOp27
 70
     1
102
RTVSPropertyOp28
 70
     1
102
RTVSPropertyOp29
 70
     1
102
RTVSPropertyOp30
 70
     1
102
RTVSPropertyOp31
 70
     1
102
RTVSPropertyOp32
 70
     1
102
RTVSPropertyOp33
 70
     1
102
RTVSPropertyOp34
 70
     1
102
RTVSPropertyOp35
 70
     1
102
RTVSPropertyOp36
 70
     1
102
RTVSPropertyOp37
 70
     1
102
RTVSPropertyOp38
 70
     1
102
RTVSPropertyOp39
 70
     1
102
RTVSPropertyOp40
 70
     1
102
RTVSPropertyOp41
 70
     1
102
RTVSPropertyOp42
 70
     1
102
RTVSPropertyOp43
 70
     1
102
RTVSPropertyOp44
 70
     1
102
RTVSPropertyOp45
 70
     1
102
RTVSPropertyOp46
 70
     1
102
RTVSPropertyOp47
 70
     1
102
RTVSPropertyOp48
 70
     1
102
RTVSPropertyOp49
 70
     1
102
RTVSPropertyOp50
 70
     1
102
RTVSPropertyOp51
 70
     0
102
RTVSPropertyOp52
 70
     0
102
RTVSPropertyOp53
 70
     1
102
RTVSPropertyOp54
 70
     1
102
RTVSPropertyOp55
 70
     1
102
RTVSPropertyOp56
 70
     1
102
RTVSPropertyOp57
 70
     1
102
RTVSPropertyOp58
 70
     1
102
RTVSPropertyOp59
 70
     1
102
RTVSPropertyOp60
 70
     1
102
RTVSPropertyOp61
 70
     1
102
RTVSPropertyOp62
 70
     1
  0
XRECORD
  5
1355
102
{ACAD_REACTORS
330
1354
102
}
330
1354
100
AcDbXrecord
280
     1
102
RTVSPost2010Prop28
280
     0
102
RTVSPost2010PropOp28
 70
     1
102
RTVSPost2010Prop29
280
     1
102
RTVSPost2010PropOp29
 70
     1
102
RTVSPost2010Prop30
280
     1
102
RTVSPost2010PropOp30
 70
     1
102
RTVSPost2010Prop31
280
     0
102
RTVSPost2010PropOp31
 70
     1
102
RTVSPost2010Prop32
280
     0
102
RTVSPost2010PropOp32
 70
     1
102
RTVSPost2010Prop33
280
     0
102
RTVSPost2010PropOp33
 70
     1
102
RTVSPost2010Prop34
280
     0
102
RTVSPost2010PropOp34
 70
     1
102
RTVSPost2010Prop35
280
     0
102
RTVSPost2010PropOp35
 70
     1
102
RTVSPost2010Prop36
280
     0
102
RTVSPost2010PropOp36
 70
     1
102
RTVSPost2010Prop37
 90
       50
102
RTVSPost2010PropOp37
 70
     1
102
RTVSPost2010Prop38
140
0.0
102
RTVSPost2010PropOp38
 70
     1
102
RTVSPost2010Prop39
140
1.0
102
RTVSPost2010PropOp39
 70
     1
102
RTVSPost2010Prop40
 90
        0
102
RTVSPost2010PropOp40
 70
     1
102
RTVSPost2010Prop41ColorIndex
 90
       18
102
RTVSPost2010Prop41ColorRGB
 90
        0
102
RTVSPost2010PropOp41
 70
     1
102
RTVSPost2010Prop42
 90
       50
102
RTVSPost2010PropOp42
 70
     1
102
RTVSPost2010Prop43
 90
        3
102
RTVSPost2010PropOp43
 70
     1
102
RTVSPost2010Prop44ColorIndex
 90
        5
102
RTVSPost2010Prop44ColorRGB
 90
      255
102
RTVSPost2010PropOp44
 70
     1
102
RTVSPost2010Prop45
280
     0
102
RTVSPost2010PropOp45
 70
     1
102
RTVSPost2010Prop46
 90
       50
102
RTVSPost2010PropOp46
 70
     1
102
RTVSPost2010Prop47
 90
       50
102
RTVSPost2010PropOp47
 70
     1
102
RTVSPost2010Prop48
 90
       50
102
RTVSPost2010PropOp48
 70
     1
102
RTVSPost2010Prop49
280
     0
102
RTVSPost2010PropOp49
 70
     1
102
RTVSPost2010Prop50
 90
       50
102
RTVSPost2010PropOp50
 70
     1
102
RTVSPost2010Prop51ColorIndex
 90
      256
102
RTVSPost2010Prop51ColorRGB
 90
-16777216
102
RTVSPost2010PropOp51
 70
     0
102
RTVSPost2010Prop52
140
1.0
102
RTVSPost2010PropOp52
 70
     0
102
RTVSPost2010Prop53
 90
        2
102
RTVSPost2010PropOp53
 70
     1
102
RTVSPost2010Prop54
  1
strokes_ogs.tif
102
RTVSPost2010PropOp54
 70
     1
102
RTVSPost2010Prop55
280
     0
102
RTVSPost2010PropOp55
 70
     1
102
RTVSPost2010Prop56
140
1.0
102
RTVSPost2010PropOp56
 70
     1
102
RTVSPost2010Prop57
140
1.0
102
RTVSPost2010PropOp57
 70
     1
102
RTVSPropertyOp0
 70
     1
102
RTVSPropertyOp1
 70
     1
102
RTVSPropertyOp2
 70
     1
102
RTVSPropertyOp3
 70
     1
102
RTVSPropertyOp4
 70
     1
102
RTVSPropertyOp5
 70
     1
102
RTVSPropertyOp6
 70
     1
102
RTVSPropertyOp7
 70
     1
102
RTVSPropertyOp8
 70
     1
102
RTVSPropertyOp9
 70
     1
102
RTVSPropertyOp10
 70
     1
102
RTVSPropertyOp11
 70
     1
102
RTVSPropertyOp12
 70
     1
102
RTVSPropertyOp13
 70
     1
102
RTVSPropertyOp14
 70
     1
102
RTVSPropertyOp15
 70
     1
102
RTVSPropertyOp16
 70
     1
102
RTVSPropertyOp17
 70
     1
102
RTVSPropertyOp18
 70
     1
102
RTVSPropertyOp19
 70
     1
102
RTVSPropertyOp20
 70
     1
102
RTVSPropertyOp21
 70
     1
102
RTVSPropertyOp22
 70
     1
102
RTVSPropertyOp23
 70
     1
102
RTVSPropertyOp24
 70
     1
102
RTVSPropertyOp25
 70
     1
102
RTVSPropertyOp26
 70
     1
102
RTVSPropertyOp27
 70
     1
102
RTVSPropertyOp28
 70
     1
102
RTVSPropertyOp29
 70
     1
102
RTVSPropertyOp30
 70
     1
102
RTVSPropertyOp31
 70
     1
102
RTVSPropertyOp32
 70
     1
102
RTVSPropertyOp33
 70
     1
102
RTVSPropertyOp34
 70
     1
102
RTVSPropertyOp35
 70
     1
102
RTVSPropertyOp36
 70
     1
102
RTVSPropertyOp37
 70
     1
102
RTVSPropertyOp38
 70
     1
102
RTVSPropertyOp39
 70
     1
102
RTVSPropertyOp40
 70
     1
102
RTVSPropertyOp41
 70
     1
102
RTVSPropertyOp42
 70
     1
102
RTVSPropertyOp43
 70
     1
102
RTVSPropertyOp44
 70
     1
102
RTVSPropertyOp45
 70
     1
102
RTVSPropertyOp46
 70
     1
102
RTVSPropertyOp47
 70
     1
102
RTVSPropertyOp48
 70
     1
102
RTVSPropertyOp49
 70
     1
102
RTVSPropertyOp50
 70
     1
102
RTVSPropertyOp51
 70
     0
102
RTVSPropertyOp52
 70
     0
102
RTVSPropertyOp53
 70
     1
102
RTVSPropertyOp54
 70
     1
102
RTVSPropertyOp55
 70
     1
102
RTVSPropertyOp56
 70
     1
102
RTVSPropertyOp57
 70
     1
102
RTVSPropertyOp58
 70
     1
102
RTVSPropertyOp59
 70
     1
102
RTVSPropertyOp60
 70
     1
102
RTVSPropertyOp61
 70
     1
102
RTVSPropertyOp62
 70
     1
  0
XRECORD
  5
1357
102
{ACAD_REACTORS
330
1356
102
}
330
1356
100
AcDbXrecord
280
     1
102
RTVSPost2010Prop28
280
     0
102
RTVSPost2010PropOp28
 70
     1
102
RTVSPost2010Prop29
280
     1
102
RTVSPost2010PropOp29
 70
     1
102
RTVSPost2010Prop30
280
     1
102
RTVSPost2010PropOp30
 70
     1
102
RTVSPost2010Prop31
280
     0
102
RTVSPost2010PropOp31
 70
     1
102
RTVSPost2010Prop32
280
     0
102
RTVSPost2010PropOp32
 70
     1
102
RTVSPost2010Prop33
280
     0
102
RTVSPost2010PropOp33
 70
     1
102
RTVSPost2010Prop34
280
     0
102
RTVSPost2010PropOp34
 70
     1
102
RTVSPost2010Prop35
280
     0
102
RTVSPost2010PropOp35
 70
     1
102
RTVSPost2010Prop36
280
     0
102
RTVSPost2010PropOp36
 70
     1
102
RTVSPost2010Prop37
 90
       50
102
RTVSPost2010PropOp37
 70
     1
102
RTVSPost2010Prop38
140
0.0
102
RTVSPost2010PropOp38
 70
     1
102
RTVSPost2010Prop39
140
1.0
102
RTVSPost2010PropOp39
 70
     1
102
RTVSPost2010Prop40
 90
        0
102
RTVSPost2010PropOp40
 70
     1
102
RTVSPost2010Prop41ColorIndex
 90
       18
102
RTVSPost2010Prop41ColorRGB
 90
        0
102
RTVSPost2010PropOp41
 70
     1
102
RTVSPost2010Prop42
 90
       50
102
RTVSPost2010PropOp42
 70
     1
102
RTVSPost2010Prop43
 90
        3
102
RTVSPost2010PropOp43
 70
     1
102
RTVSPost2010Prop44ColorIndex
 90
        5
102
RTVSPost2010Prop44ColorRGB
 90
      255
102
RTVSPost2010PropOp44
 70
     1
102
RTVSPost2010Prop45
280
     0
102
RTVSPost2010PropOp45
 70
     1
102
RTVSPost2010Prop46
 90
       50
102
RTVSPost2010PropOp46
 70
     1
102
RTVSPost2010Prop47
 90
       50
102
RTVSPost2010PropOp47
 70
     1
102
RTVSPost2010Prop48
 90
       50
102
RTVSPost2010PropOp48
 70
     1
102
RTVSPost2010Prop49
280
     0
102
RTVSPost2010PropOp49
 70
     1
102
RTVSPost2010Prop50
 90
       50
102
RTVSPost2010PropOp50
 70
     1
102
RTVSPost2010Prop51ColorIndex
 90
      256
102
RTVSPost2010Prop51ColorRGB
 90
-16777216
102
RTVSPost2010PropOp51
 70
     0
102
RTVSPost2010Prop52
140
1.0
102
RTVSPost2010PropOp52
 70
     0
102
RTVSPost2010Prop53
 90
        2
102
RTVSPost2010PropOp53
 70
     1
102
RTVSPost2010Prop54
  1
strokes_ogs.tif
102
RTVSPost2010PropOp54
 70
     1
102
RTVSPost2010Prop55
280
     0
102
RTVSPost2010PropOp55
 70
     1
102
RTVSPost2010Prop56
140
1.0
102
RTVSPost2010PropOp56
 70
     1
102
RTVSPost2010Prop57
140
1.0
102
RTVSPost2010PropOp57
 70
     1
102
RTVSPropertyOp0
 70
     1
102
RTVSPropertyOp1
 70
     1
102
RTVSPropertyOp2
 70
     1
102
RTVSPropertyOp3
 70
     1
102
RTVSPropertyOp4
 70
     1
102
RTVSPropertyOp5
 70
     1
102
RTVSPropertyOp6
 70
     1
102
RTVSPropertyOp7
 70
     1
102
RTVSPropertyOp8
 70
     1
102
RTVSPropertyOp9
 70
     1
102
RTVSPropertyOp10
 70
     1
102
RTVSPropertyOp11
 70
     1
102
RTVSPropertyOp12
 70
     1
102
RTVSPropertyOp13
 70
     1
102
RTVSPropertyOp14
 70
     1
102
RTVSPropertyOp15
 70
     1
102
RTVSPropertyOp16
 70
     1
102
RTVSPropertyOp17
 70
     1
102
RTVSPropertyOp18
 70
     1
102
RTVSPropertyOp19
 70
     1
102
RTVSPropertyOp20
 70
     1
102
RTVSPropertyOp21
 70
     1
102
RTVSPropertyOp22
 70
     1
102
RTVSPropertyOp23
 70
     1
102
RTVSPropertyOp24
 70
     1
102
RTVSPropertyOp25
 70
     1
102
RTVSPropertyOp26
 70
     1
102
RTVSPropertyOp27
 70
     1
102
RTVSPropertyOp28
 70
     1
102
RTVSPropertyOp29
 70
     1
102
RTVSPropertyOp30
 70
     1
102
RTVSPropertyOp31
 70
     1
102
RTVSPropertyOp32
 70
     1
102
RTVSPropertyOp33
 70
     1
102
RTVSPropertyOp34
 70
     1
102
RTVSPropertyOp35
 70
     1
102
RTVSPropertyOp36
 70
     1
102
RTVSPropertyOp37
 70
     1
102
RTVSPropertyOp38
 70
     1
102
RTVSPropertyOp39
 70
     1
102
RTVSPropertyOp40
 70
     1
102
RTVSPropertyOp41
 70
     1
102
RTVSPropertyOp42
 70
     1
102
RTVSPropertyOp43
 70
     1
102
RTVSPropertyOp44
 70
     1
102
RTVSPropertyOp45
 70
     1
102
RTVSPropertyOp46
 70
     1
102
RTVSPropertyOp47
 70
     1
102
RTVSPropertyOp48
 70
     1
102
RTVSPropertyOp49
 70
     1
102
RTVSPropertyOp50
 70
     1
102
RTVSPropertyOp51
 70
     0
102
RTVSPropertyOp52
 70
     0
102
RTVSPropertyOp53
 70
     1
102
RTVSPropertyOp54
 70
     1
102
RTVSPropertyOp55
 70
     1
102
RTVSPropertyOp56
 70
     1
102
RTVSPropertyOp57
 70
     1
102
RTVSPropertyOp58
 70
     1
102
RTVSPropertyOp59
 70
     1
102
RTVSPropertyOp60
 70
     1
102
RTVSPropertyOp61
 70
     1
102
RTVSPropertyOp62
 70
     1
  0
XRECORD
  5
135F
102
{ACAD_REACTORS
330
135E
102
}
330
135E
100
AcDbXrecord
280
     1
102
RTVSPost2010Prop28
280
     0
102
RTVSPost2010PropOp28
 70
     1
102
RTVSPost2010Prop29
280
     1
102
RTVSPost2010PropOp29
 70
     1
102
RTVSPost2010Prop30
280
     1
102
RTVSPost2010PropOp30
 70
     1
102
RTVSPost2010Prop31
280
     0
102
RTVSPost2010PropOp31
 70
     1
102
RTVSPost2010Prop32
280
     0
102
RTVSPost2010PropOp32
 70
     1
102
RTVSPost2010Prop33
280
     0
102
RTVSPost2010PropOp33
 70
     1
102
RTVSPost2010Prop34
280
     0
102
RTVSPost2010PropOp34
 70
     1
102
RTVSPost2010Prop35
280
     0
102
RTVSPost2010PropOp35
 70
     1
102
RTVSPost2010Prop36
280
     0
102
RTVSPost2010PropOp36
 70
     1
102
RTVSPost2010Prop37
 90
       50
102
RTVSPost2010PropOp37
 70
     1
102
RTVSPost2010Prop38
140
0.0
102
RTVSPost2010PropOp38
 70
     1
102
RTVSPost2010Prop39
140
1.0
102
RTVSPost2010PropOp39
 70
     1
102
RTVSPost2010Prop40
 90
        0
102
RTVSPost2010PropOp40
 70
     1
102
RTVSPost2010Prop41ColorIndex
 90
       18
102
RTVSPost2010Prop41ColorRGB
 90
        0
102
RTVSPost2010PropOp41
 70
     1
102
RTVSPost2010Prop42
 90
       50
102
RTVSPost2010PropOp42
 70
     1
102
RTVSPost2010Prop43
 90
        3
102
RTVSPost2010PropOp43
 70
     1
102
RTVSPost2010Prop44ColorIndex
 90
        5
102
RTVSPost2010Prop44ColorRGB
 90
      255
102
RTVSPost2010PropOp44
 70
     1
102
RTVSPost2010Prop45
280
     0
102
RTVSPost2010PropOp45
 70
     1
102
RTVSPost2010Prop46
 90
       50
102
RTVSPost2010PropOp46
 70
     1
102
RTVSPost2010Prop47
 90
       50
102
RTVSPost2010PropOp47
 70
     1
102
RTVSPost2010Prop48
 90
       50
102
RTVSPost2010PropOp48
 70
     1
102
RTVSPost2010Prop49
280
     0
102
RTVSPost2010PropOp49
 70
     1
102
RTVSPost2010Prop50
 90
       50
102
RTVSPost2010PropOp50
 70
     1
102
RTVSPost2010Prop51ColorIndex
 90
      256
102
RTVSPost2010Prop51ColorRGB
 90
-16777216
102
RTVSPost2010PropOp51
 70
     0
102
RTVSPost2010Prop52
140
1.0
102
RTVSPost2010PropOp52
 70
     0
102
RTVSPost2010Prop53
 90
        2
102
RTVSPost2010PropOp53
 70
     1
102
RTVSPost2010Prop54
  1
strokes_ogs.tif
102
RTVSPost2010PropOp54
 70
     1
102
RTVSPost2010Prop55
280
     0
102
RTVSPost2010PropOp55
 70
     1
102
RTVSPost2010Prop56
140
1.0
102
RTVSPost2010PropOp56
 70
     1
102
RTVSPost2010Prop57
140
1.0
102
RTVSPost2010PropOp57
 70
     1
102
RTVSPropertyOp0
 70
     1
102
RTVSPropertyOp1
 70
     1
102
RTVSPropertyOp2
 70
     1
102
RTVSPropertyOp3
 70
     1
102
RTVSPropertyOp4
 70
     1
102
RTVSPropertyOp5
 70
     1
102
RTVSPropertyOp6
 70
     1
102
RTVSPropertyOp7
 70
     1
102
RTVSPropertyOp8
 70
     1
102
RTVSPropertyOp9
 70
     1
102
RTVSPropertyOp10
 70
     1
102
RTVSPropertyOp11
 70
     1
102
RTVSPropertyOp12
 70
     1
102
RTVSPropertyOp13
 70
     1
102
RTVSPropertyOp14
 70
     1
102
RTVSPropertyOp15
 70
     1
102
RTVSPropertyOp16
 70
     1
102
RTVSPropertyOp17
 70
     1
102
RTVSPropertyOp18
 70
     1
102
RTVSPropertyOp19
 70
     1
102
RTVSPropertyOp20
 70
     1
102
RTVSPropertyOp21
 70
     1
102
RTVSPropertyOp22
 70
     1
102
RTVSPropertyOp23
 70
     1
102
RTVSPropertyOp24
 70
     1
102
RTVSPropertyOp25
 70
     1
102
RTVSPropertyOp26
 70
     1
102
RTVSPropertyOp27
 70
     1
102
RTVSPropertyOp28
 70
     1
102
RTVSPropertyOp29
 70
     1
102
RTVSPropertyOp30
 70
     1
102
RTVSPropertyOp31
 70
     1
102
RTVSPropertyOp32
 70
     1
102
RTVSPropertyOp33
 70
     1
102
RTVSPropertyOp34
 70
     1
102
RTVSPropertyOp35
 70
     1
102
RTVSPropertyOp36
 70
     1
102
RTVSPropertyOp37
 70
     1
102
RTVSPropertyOp38
 70
     1
102
RTVSPropertyOp39
 70
     1
102
RTVSPropertyOp40
 70
     1
102
RTVSPropertyOp41
 70
     1
102
RTVSPropertyOp42
 70
     1
102
RTVSPropertyOp43
 70
     1
102
RTVSPropertyOp44
 70
     1
102
RTVSPropertyOp45
 70
     1
102
RTVSPropertyOp46
 70
     1
102
RTVSPropertyOp47
 70
     1
102
RTVSPropertyOp48
 70
     1
102
RTVSPropertyOp49
 70
     1
102
RTVSPropertyOp50
 70
     1
102
RTVSPropertyOp51
 70
     0
102
RTVSPropertyOp52
 70
     0
102
RTVSPropertyOp53
 70
     1
102
RTVSPropertyOp54
 70
     1
102
RTVSPropertyOp55
 70
     1
102
RTVSPropertyOp56
 70
     1
102
RTVSPropertyOp57
 70
     1
102
RTVSPropertyOp58
 70
     1
102
RTVSPropertyOp59
 70
     1
102
RTVSPropertyOp60
 70
     1
102
RTVSPropertyOp61
 70
     1
102
RTVSPropertyOp62
 70
     1
  0
XRECORD
  5
137B
102
{ACAD_REACTORS
330
137A
102
}
330
137A
100
AcDbXrecord
280
     1
102
RTVSPost2010Prop28
280
     0
102
RTVSPost2010PropOp28
 70
     0
102
RTVSPost2010Prop29
280
     1
102
RTVSPost2010PropOp29
 70
     0
102
RTVSPost2010Prop30
280
     1
102
RTVSPost2010PropOp30
 70
     0
102
RTVSPost2010Prop31
280
     0
102
RTVSPost2010PropOp31
 70
     0
102
RTVSPost2010Prop32
280
     0
102
RTVSPost2010PropOp32
 70
     0
102
RTVSPost2010Prop33
280
     0
102
RTVSPost2010PropOp33
 70
     0
102
RTVSPost2010Prop34
280
     0
102
RTVSPost2010PropOp34
 70
     0
102
RTVSPost2010Prop35
280
     0
102
RTVSPost2010PropOp35
 70
     0
102
RTVSPost2010Prop36
280
     0
102
RTVSPost2010PropOp36
 70
     0
102
RTVSPost2010Prop37
 90
       50
102
RTVSPost2010PropOp37
 70
     0
102
RTVSPost2010Prop38
140
0.0
102
RTVSPost2010PropOp38
 70
     0
102
RTVSPost2010Prop39
140
1.0
102
RTVSPost2010PropOp39
 70
     0
102
RTVSPost2010Prop40
 90
        0
102
RTVSPost2010PropOp40
 70
     0
102
RTVSPost2010Prop41ColorIndex
 90
       18
102
RTVSPost2010Prop41ColorRGB
 90
        0
102
RTVSPost2010PropOp41
 70
     0
102
RTVSPost2010Prop42
 90
       50
102
RTVSPost2010PropOp42
 70
     0
102
RTVSPost2010Prop43
 90
        3
102
RTVSPost2010PropOp43
 70
     0
102
RTVSPost2010Prop44ColorIndex
 90
        5
102
RTVSPost2010Prop44ColorRGB
 90
      255
102
RTVSPost2010PropOp44
 70
     0
102
RTVSPost2010Prop45
280
     0
102
RTVSPost2010PropOp45
 70
     0
102
RTVSPost2010Prop46
 90
       50
102
RTVSPost2010PropOp46
 70
     0
102
RTVSPost2010Prop47
 90
       50
102
RTVSPost2010PropOp47
 70
     0
102
RTVSPost2010Prop48
 90
       50
102
RTVSPost2010PropOp48
 70
     0
102
RTVSPost2010Prop49
280
     0
102
RTVSPost2010PropOp49
 70
     0
102
RTVSPost2010Prop50
 90
       50
102
RTVSPost2010PropOp50
 70
     0
102
RTVSPost2010Prop51ColorIndex
 90
      256
102
RTVSPost2010Prop51ColorRGB
 90
-16777216
102
RTVSPost2010PropOp51
 70
     0
102
RTVSPost2010Prop52
140
1.0
102
RTVSPost2010PropOp52
 70
     0
102
RTVSPost2010Prop53
 90
        2
102
RTVSPost2010PropOp53
 70
     0
102
RTVSPost2010Prop54
  1
strokes_ogs.tif
102
RTVSPost2010PropOp54
 70
     0
102
RTVSPost2010Prop55
280
     0
102
RTVSPost2010PropOp55
 70
     0
102
RTVSPost2010Prop56
140
1.0
102
RTVSPost2010PropOp56
 70
     0
102
RTVSPost2010Prop57
140
1.0
102
RTVSPost2010PropOp57
 70
     0
102
RTVSPropertyOp0
 70
     0
102
RTVSPropertyOp1
 70
     0
102
RTVSPropertyOp2
 70
     0
102
RTVSPropertyOp3
 70
     0
102
RTVSPropertyOp4
 70
     0
102
RTVSPropertyOp5
 70
     0
102
RTVSPropertyOp6
 70
     0
102
RTVSPropertyOp7
 70
     0
102
RTVSPropertyOp8
 70
     0
102
RTVSPropertyOp9
 70
     0
102
RTVSPropertyOp10
 70
     0
102
RTVSPropertyOp11
 70
     0
102
RTVSPropertyOp12
 70
     0
102
RTVSPropertyOp13
 70
     0
102
RTVSPropertyOp14
 70
     2
102
RTVSPropertyOp15
 70
     0
102
RTVSPropertyOp16
 70
     0
102
RTVSPropertyOp17
 70
     0
102
RTVSPropertyOp18
 70
     0
102
RTVSPropertyOp19
 70
     0
102
RTVSPropertyOp20
 70
     0
102
RTVSPropertyOp21
 70
     0
102
RTVSPropertyOp22
 70
     0
102
RTVSPropertyOp23
 70
     0
102
RTVSPropertyOp24
 70
     0
102
RTVSPropertyOp25
 70
     0
102
RTVSPropertyOp26
 70
     0
102
RTVSPropertyOp27
 70
     0
102
RTVSPropertyOp28
 70
     0
102
RTVSPropertyOp29
 70
     0
102
RTVSPropertyOp30
 70
     0
102
RTVSPropertyOp31
 70
     0
102
RTVSPropertyOp32
 70
     0
102
RTVSPropertyOp33
 70
     0
102
RTVSPropertyOp34
 70
     0
102
RTVSPropertyOp35
 70
     0
102
RTVSPropertyOp36
 70
     0
102
RTVSPropertyOp37
 70
     0
102
RTVSPropertyOp38
 70
     0
102
RTVSPropertyOp39
 70
     0
102
RTVSPropertyOp40
 70
     0
102
RTVSPropertyOp41
 70
     0
102
RTVSPropertyOp42
 70
     0
102
RTVSPropertyOp43
 70
     0
102
RTVSPropertyOp44
 70
     0
102
RTVSPropertyOp45
 70
     0
102
RTVSPropertyOp46
 70
     0
102
RTVSPropertyOp47
 70
     0
102
RTVSPropertyOp48
 70
     0
102
RTVSPropertyOp49
 70
     0
102
RTVSPropertyOp50
 70
     0
102
RTVSPropertyOp51
 70
     0
102
RTVSPropertyOp52
 70
     0
102
RTVSPropertyOp53
 70
     0
102
RTVSPropertyOp54
 70
     0
102
RTVSPropertyOp55
 70
     0
102
RTVSPropertyOp56
 70
     0
102
RTVSPropertyOp57
 70
     0
102
RTVSPropertyOp58
 70
     0
102
RTVSPropertyOp59
 70
     0
102
RTVSPropertyOp60
 70
     0
102
RTVSPropertyOp61
 70
     0
102
RTVSPropertyOp62
 70
     0
  0
XRECORD
  5
136B
102
{ACAD_REACTORS
330
136A
102
}
330
136A
100
AcDbXrecord
280
     1
102
RTVSPost2010Prop28
280
     0
102
RTVSPost2010PropOp28
 70
     1
102
RTVSPost2010Prop29
280
     1
102
RTVSPost2010PropOp29
 70
     1
102
RTVSPost2010Prop30
280
     1
102
RTVSPost2010PropOp30
 70
     1
102
RTVSPost2010Prop31
280
     0
102
RTVSPost2010PropOp31
 70
     1
102
RTVSPost2010Prop32
280
     0
102
RTVSPost2010PropOp32
 70
     1
102
RTVSPost2010Prop33
280
     0
102
RTVSPost2010PropOp33
 70
     1
102
RTVSPost2010Prop34
280
     0
102
RTVSPost2010PropOp34
 70
     1
102
RTVSPost2010Prop35
280
     0
102
RTVSPost2010PropOp35
 70
     1
102
RTVSPost2010Prop36
280
     0
102
RTVSPost2010PropOp36
 70
     1
102
RTVSPost2010Prop37
 90
       50
102
RTVSPost2010PropOp37
 70
     1
102
RTVSPost2010Prop38
140
0.0
102
RTVSPost2010PropOp38
 70
     1
102
RTVSPost2010Prop39
140
1.0
102
RTVSPost2010PropOp39
 70
     1
102
RTVSPost2010Prop40
 90
        0
102
RTVSPost2010PropOp40
 70
     1
102
RTVSPost2010Prop41ColorIndex
 90
       18
102
RTVSPost2010Prop41ColorRGB
 90
        0
102
RTVSPost2010PropOp41
 70
     1
102
RTVSPost2010Prop42
 90
       50
102
RTVSPost2010PropOp42
 70
     1
102
RTVSPost2010Prop43
 90
        3
102
RTVSPost2010PropOp43
 70
     1
102
RTVSPost2010Prop44ColorIndex
 90
        5
102
RTVSPost2010Prop44ColorRGB
 90
      255
102
RTVSPost2010PropOp44
 70
     1
102
RTVSPost2010Prop45
280
     0
102
RTVSPost2010PropOp45
 70
     1
102
RTVSPost2010Prop46
 90
       50
102
RTVSPost2010PropOp46
 70
     1
102
RTVSPost2010Prop47
 90
       50
102
RTVSPost2010PropOp47
 70
     1
102
RTVSPost2010Prop48
 90
       50
102
RTVSPost2010PropOp48
 70
     1
102
RTVSPost2010Prop49
280
     0
102
RTVSPost2010PropOp49
 70
     1
102
RTVSPost2010Prop50
 90
       50
102
RTVSPost2010PropOp50
 70
     1
102
RTVSPost2010Prop51ColorIndex
 90
      256
102
RTVSPost2010Prop51ColorRGB
 90
-16777216
102
RTVSPost2010PropOp51
 70
     0
102
RTVSPost2010Prop52
140
1.0
102
RTVSPost2010PropOp52
 70
     0
102
RTVSPost2010Prop53
 90
        2
102
RTVSPost2010PropOp53
 70
     1
102
RTVSPost2010Prop54
  1
strokes_ogs.tif
102
RTVSPost2010PropOp54
 70
     1
102
RTVSPost2010Prop55
280
     0
102
RTVSPost2010PropOp55
 70
     1
102
RTVSPost2010Prop56
140
1.0
102
RTVSPost2010PropOp56
 70
     1
102
RTVSPost2010Prop57
140
1.0
102
RTVSPost2010PropOp57
 70
     1
102
RTVSPropertyOp0
 70
     1
102
RTVSPropertyOp1
 70
     1
102
RTVSPropertyOp2
 70
     1
102
RTVSPropertyOp3
 70
     1
102
RTVSPropertyOp4
 70
     1
102
RTVSPropertyOp5
 70
     1
102
RTVSPropertyOp6
 70
     1
102
RTVSPropertyOp7
 70
     1
102
RTVSPropertyOp8
 70
     1
102
RTVSPropertyOp9
 70
     1
102
RTVSPropertyOp10
 70
     1
102
RTVSPropertyOp11
 70
     1
102
RTVSPropertyOp12
 70
     1
102
RTVSPropertyOp13
 70
     1
102
RTVSPropertyOp14
 70
     1
102
RTVSPropertyOp15
 70
     1
102
RTVSPropertyOp16
 70
     1
102
RTVSPropertyOp17
 70
     1
102
RTVSPropertyOp18
 70
     1
102
RTVSPropertyOp19
 70
     1
102
RTVSPropertyOp20
 70
     1
102
RTVSPropertyOp21
 70
     1
102
RTVSPropertyOp22
 70
     1
102
RTVSPropertyOp23
 70
     1
102
RTVSPropertyOp24
 70
     1
102
RTVSPropertyOp25
 70
     1
102
RTVSPropertyOp26
 70
     1
102
RTVSPropertyOp27
 70
     1
102
RTVSPropertyOp28
 70
     1
102
RTVSPropertyOp29
 70
     1
102
RTVSPropertyOp30
 70
     1
102
RTVSPropertyOp31
 70
     1
102
RTVSPropertyOp32
 70
     1
102
RTVSPropertyOp33
 70
     1
102
RTVSPropertyOp34
 70
     1
102
RTVSPropertyOp35
 70
     1
102
RTVSPropertyOp36
 70
     1
102
RTVSPropertyOp37
 70
     1
102
RTVSPropertyOp38
 70
     1
102
RTVSPropertyOp39
 70
     1
102
RTVSPropertyOp40
 70
     1
102
RTVSPropertyOp41
 70
     1
102
RTVSPropertyOp42
 70
     1
102
RTVSPropertyOp43
 70
     1
102
RTVSPropertyOp44
 70
     1
102
RTVSPropertyOp45
 70
     1
102
RTVSPropertyOp46
 70
     1
102
RTVSPropertyOp47
 70
     1
102
RTVSPropertyOp48
 70
     1
102
RTVSPropertyOp49
 70
     1
102
RTVSPropertyOp50
 70
     1
102
RTVSPropertyOp51
 70
     0
102
RTVSPropertyOp52
 70
     0
102
RTVSPropertyOp53
 70
     1
102
RTVSPropertyOp54
 70
     1
102
RTVSPropertyOp55
 70
     1
102
RTVSPropertyOp56
 70
     1
102
RTVSPropertyOp57
 70
     1
102
RTVSPropertyOp58
 70
     1
102
RTVSPropertyOp59
 70
     1
102
RTVSPropertyOp60
 70
     1
102
RTVSPropertyOp61
 70
     1
102
RTVSPropertyOp62
 70
     1
  0
XRECORD
  5
137D
102
{ACAD_REACTORS
330
137C
102
}
330
137C
100
AcDbXrecord
280
     1
102
RTVSPost2010Prop28
280
     0
102
RTVSPost2010PropOp28
 70
     0
102
RTVSPost2010Prop29
280
     1
102
RTVSPost2010PropOp29
 70
     0
102
RTVSPost2010Prop30
280
     1
102
RTVSPost2010PropOp30
 70
     0
102
RTVSPost2010Prop31
280
     0
102
RTVSPost2010PropOp31
 70
     0
102
RTVSPost2010Prop32
280
     0
102
RTVSPost2010PropOp32
 70
     0
102
RTVSPost2010Prop33
280
     0
102
RTVSPost2010PropOp33
 70
     0
102
RTVSPost2010Prop34
280
     0
102
RTVSPost2010PropOp34
 70
     0
102
RTVSPost2010Prop35
280
     0
102
RTVSPost2010PropOp35
 70
     0
102
RTVSPost2010Prop36
280
     0
102
RTVSPost2010PropOp36
 70
     0
102
RTVSPost2010Prop37
 90
       50
102
RTVSPost2010PropOp37
 70
     0
102
RTVSPost2010Prop38
140
0.0
102
RTVSPost2010PropOp38
 70
     0
102
RTVSPost2010Prop39
140
1.0
102
RTVSPost2010PropOp39
 70
     0
102
RTVSPost2010Prop40
 90
        0
102
RTVSPost2010PropOp40
 70
     0
102
RTVSPost2010Prop41ColorIndex
 90
       18
102
RTVSPost2010Prop41ColorRGB
 90
        0
102
RTVSPost2010PropOp41
 70
     0
102
RTVSPost2010Prop42
 90
       50
102
RTVSPost2010PropOp42
 70
     0
102
RTVSPost2010Prop43
 90
        3
102
RTVSPost2010PropOp43
 70
     0
102
RTVSPost2010Prop44ColorIndex
 90
        5
102
RTVSPost2010Prop44ColorRGB
 90
      255
102
RTVSPost2010PropOp44
 70
     0
102
RTVSPost2010Prop45
280
     0
102
RTVSPost2010PropOp45
 70
     0
102
RTVSPost2010Prop46
 90
       50
102
RTVSPost2010PropOp46
 70
     0
102
RTVSPost2010Prop47
 90
       50
102
RTVSPost2010PropOp47
 70
     0
102
RTVSPost2010Prop48
 90
       50
102
RTVSPost2010PropOp48
 70
     0
102
RTVSPost2010Prop49
280
     0
102
RTVSPost2010PropOp49
 70
     0
102
RTVSPost2010Prop50
 90
       50
102
RTVSPost2010PropOp50
 70
     0
102
RTVSPost2010Prop51ColorIndex
 90
      256
102
RTVSPost2010Prop51ColorRGB
 90
-16777216
102
RTVSPost2010PropOp51
 70
     0
102
RTVSPost2010Prop52
140
1.0
102
RTVSPost2010PropOp52
 70
     0
102
RTVSPost2010Prop53
 90
        2
102
RTVSPost2010PropOp53
 70
     0
102
RTVSPost2010Prop54
  1
strokes_ogs.tif
102
RTVSPost2010PropOp54
 70
     0
102
RTVSPost2010Prop55
280
     0
102
RTVSPost2010PropOp55
 70
     0
102
RTVSPost2010Prop56
140
1.0
102
RTVSPost2010PropOp56
 70
     0
102
RTVSPost2010Prop57
140
1.0
102
RTVSPost2010PropOp57
 70
     0
102
RTVSPropertyOp0
 70
     0
102
RTVSPropertyOp1
 70
     0
102
RTVSPropertyOp2
 70
     0
102
RTVSPropertyOp3
 70
     0
102
RTVSPropertyOp4
 70
     0
102
RTVSPropertyOp5
 70
     0
102
RTVSPropertyOp6
 70
     0
102
RTVSPropertyOp7
 70
     0
102
RTVSPropertyOp8
 70
     0
102
RTVSPropertyOp9
 70
     0
102
RTVSPropertyOp10
 70
     0
102
RTVSPropertyOp11
 70
     0
102
RTVSPropertyOp12
 70
     0
102
RTVSPropertyOp13
 70
     0
102
RTVSPropertyOp14
 70
     2
102
RTVSPropertyOp15
 70
     0
102
RTVSPropertyOp16
 70
     0
102
RTVSPropertyOp17
 70
     0
102
RTVSPropertyOp18
 70
     0
102
RTVSPropertyOp19
 70
     0
102
RTVSPropertyOp20
 70
     0
102
RTVSPropertyOp21
 70
     0
102
RTVSPropertyOp22
 70
     0
102
RTVSPropertyOp23
 70
     0
102
RTVSPropertyOp24
 70
     0
102
RTVSPropertyOp25
 70
     0
102
RTVSPropertyOp26
 70
     0
102
RTVSPropertyOp27
 70
     0
102
RTVSPropertyOp28
 70
     0
102
RTVSPropertyOp29
 70
     0
102
RTVSPropertyOp30
 70
     0
102
RTVSPropertyOp31
 70
     0
102
RTVSPropertyOp32
 70
     0
102
RTVSPropertyOp33
 70
     0
102
RTVSPropertyOp34
 70
     0
102
RTVSPropertyOp35
 70
     0
102
RTVSPropertyOp36
 70
     0
102
RTVSPropertyOp37
 70
     0
102
RTVSPropertyOp38
 70
     0
102
RTVSPropertyOp39
 70
     0
102
RTVSPropertyOp40
 70
     0
102
RTVSPropertyOp41
 70
     0
102
RTVSPropertyOp42
 70
     0
102
RTVSPropertyOp43
 70
     0
102
RTVSPropertyOp44
 70
     0
102
RTVSPropertyOp45
 70
     0
102
RTVSPropertyOp46
 70
     0
102
RTVSPropertyOp47
 70
     0
102
RTVSPropertyOp48
 70
     0
102
RTVSPropertyOp49
 70
     0
102
RTVSPropertyOp50
 70
     0
102
RTVSPropertyOp51
 70
     0
102
RTVSPropertyOp52
 70
     0
102
RTVSPropertyOp53
 70
     0
102
RTVSPropertyOp54
 70
     0
102
RTVSPropertyOp55
 70
     0
102
RTVSPropertyOp56
 70
     0
102
RTVSPropertyOp57
 70
     0
102
RTVSPropertyOp58
 70
     0
102
RTVSPropertyOp59
 70
     0
102
RTVSPropertyOp60
 70
     0
102
RTVSPropertyOp61
 70
     0
102
RTVSPropertyOp62
 70
     0
  0
XRECORD
  5
1363
102
{ACAD_REACTORS
330
1362
102
}
330
1362
100
AcDbXrecord
280
     1
102
RTVSPost2010Prop28
280
     0
102
RTVSPost2010PropOp28
 70
     1
102
RTVSPost2010Prop29
280
     1
102
RTVSPost2010PropOp29
 70
     1
102
RTVSPost2010Prop30
280
     1
102
RTVSPost2010PropOp30
 70
     1
102
RTVSPost2010Prop31
280
     0
102
RTVSPost2010PropOp31
 70
     1
102
RTVSPost2010Prop32
280
     0
102
RTVSPost2010PropOp32
 70
     1
102
RTVSPost2010Prop33
280
     0
102
RTVSPost2010PropOp33
 70
     1
102
RTVSPost2010Prop34
280
     0
102
RTVSPost2010PropOp34
 70
     1
102
RTVSPost2010Prop35
280
     0
102
RTVSPost2010PropOp35
 70
     1
102
RTVSPost2010Prop36
280
     0
102
RTVSPost2010PropOp36
 70
     1
102
RTVSPost2010Prop37
 90
       50
102
RTVSPost2010PropOp37
 70
     1
102
RTVSPost2010Prop38
140
0.0
102
RTVSPost2010PropOp38
 70
     1
102
RTVSPost2010Prop39
140
1.0
102
RTVSPost2010PropOp39
 70
     1
102
RTVSPost2010Prop40
 90
        0
102
RTVSPost2010PropOp40
 70
     1
102
RTVSPost2010Prop41ColorIndex
 90
       18
102
RTVSPost2010Prop41ColorRGB
 90
        0
102
RTVSPost2010PropOp41
 70
     1
102
RTVSPost2010Prop42
 90
       50
102
RTVSPost2010PropOp42
 70
     1
102
RTVSPost2010Prop43
 90
        3
102
RTVSPost2010PropOp43
 70
     1
102
RTVSPost2010Prop44ColorIndex
 90
        5
102
RTVSPost2010Prop44ColorRGB
 90
      255
102
RTVSPost2010PropOp44
 70
     1
102
RTVSPost2010Prop45
280
     0
102
RTVSPost2010PropOp45
 70
     1
102
RTVSPost2010Prop46
 90
       50
102
RTVSPost2010PropOp46
 70
     1
102
RTVSPost2010Prop47
 90
       50
102
RTVSPost2010PropOp47
 70
     1
102
RTVSPost2010Prop48
 90
       50
102
RTVSPost2010PropOp48
 70
     1
102
RTVSPost2010Prop49
280
     0
102
RTVSPost2010PropOp49
 70
     1
102
RTVSPost2010Prop50
 90
       50
102
RTVSPost2010PropOp50
 70
     1
102
RTVSPost2010Prop51ColorIndex
 90
      256
102
RTVSPost2010Prop51ColorRGB
 90
-16777216
102
RTVSPost2010PropOp51
 70
     0
102
RTVSPost2010Prop52
140
1.0
102
RTVSPost2010PropOp52
 70
     0
102
RTVSPost2010Prop53
 90
        2
102
RTVSPost2010PropOp53
 70
     1
102
RTVSPost2010Prop54
  1
strokes_ogs.tif
102
RTVSPost2010PropOp54
 70
     1
102
RTVSPost2010Prop55
280
     0
102
RTVSPost2010PropOp55
 70
     1
102
RTVSPost2010Prop56
140
1.0
102
RTVSPost2010PropOp56
 70
     1
102
RTVSPost2010Prop57
140
1.0
102
RTVSPost2010PropOp57
 70
     1
102
RTVSPropertyOp0
 70
     1
102
RTVSPropertyOp1
 70
     1
102
RTVSPropertyOp2
 70
     1
102
RTVSPropertyOp3
 70
     1
102
RTVSPropertyOp4
 70
     1
102
RTVSPropertyOp5
 70
     1
102
RTVSPropertyOp6
 70
     1
102
RTVSPropertyOp7
 70
     1
102
RTVSPropertyOp8
 70
     1
102
RTVSPropertyOp9
 70
     1
102
RTVSPropertyOp10
 70
     1
102
RTVSPropertyOp11
 70
     1
102
RTVSPropertyOp12
 70
     1
102
RTVSPropertyOp13
 70
     1
102
RTVSPropertyOp14
 70
     1
102
RTVSPropertyOp15
 70
     1
102
RTVSPropertyOp16
 70
     1
102
RTVSPropertyOp17
 70
     1
102
RTVSPropertyOp18
 70
     1
102
RTVSPropertyOp19
 70
     1
102
RTVSPropertyOp20
 70
     1
102
RTVSPropertyOp21
 70
     1
102
RTVSPropertyOp22
 70
     1
102
RTVSPropertyOp23
 70
     1
102
RTVSPropertyOp24
 70
     1
102
RTVSPropertyOp25
 70
     1
102
RTVSPropertyOp26
 70
     1
102
RTVSPropertyOp27
 70
     1
102
RTVSPropertyOp28
 70
     1
102
RTVSPropertyOp29
 70
     1
102
RTVSPropertyOp30
 70
     1
102
RTVSPropertyOp31
 70
     1
102
RTVSPropertyOp32
 70
     1
102
RTVSPropertyOp33
 70
     1
102
RTVSPropertyOp34
 70
     1
102
RTVSPropertyOp35
 70
     1
102
RTVSPropertyOp36
 70
     1
102
RTVSPropertyOp37
 70
     1
102
RTVSPropertyOp38
 70
     1
102
RTVSPropertyOp39
 70
     1
102
RTVSPropertyOp40
 70
     1
102
RTVSPropertyOp41
 70
     1
102
RTVSPropertyOp42
 70
     1
102
RTVSPropertyOp43
 70
     1
102
RTVSPropertyOp44
 70
     1
102
RTVSPropertyOp45
 70
     1
102
RTVSPropertyOp46
 70
     1
102
RTVSPropertyOp47
 70
     1
102
RTVSPropertyOp48
 70
     1
102
RTVSPropertyOp49
 70
     1
102
RTVSPropertyOp50
 70
     1
102
RTVSPropertyOp51
 70
     0
102
RTVSPropertyOp52
 70
     0
102
RTVSPropertyOp53
 70
     1
102
RTVSPropertyOp54
 70
     1
102
RTVSPropertyOp55
 70
     1
102
RTVSPropertyOp56
 70
     1
102
RTVSPropertyOp57
 70
     1
102
RTVSPropertyOp58
 70
     1
102
RTVSPropertyOp59
 70
     1
102
RTVSPropertyOp60
 70
     1
102
RTVSPropertyOp61
 70
     1
102
RTVSPropertyOp62
 70
     1
  0
XRECORD
  5
1379
102
{ACAD_REACTORS
330
1378
102
}
330
1378
100
AcDbXrecord
280
     1
102
RTVSPost2010Prop28
280
     0
102
RTVSPost2010PropOp28
 70
     1
102
RTVSPost2010Prop29
280
     1
102
RTVSPost2010PropOp29
 70
     1
102
RTVSPost2010Prop30
280
     1
102
RTVSPost2010PropOp30
 70
     1
102
RTVSPost2010Prop31
280
     0
102
RTVSPost2010PropOp31
 70
     1
102
RTVSPost2010Prop32
280
     0
102
RTVSPost2010PropOp32
 70
     1
102
RTVSPost2010Prop33
280
     0
102
RTVSPost2010PropOp33
 70
     1
102
RTVSPost2010Prop34
280
     0
102
RTVSPost2010PropOp34
 70
     1
102
RTVSPost2010Prop35
280
     0
102
RTVSPost2010PropOp35
 70
     1
102
RTVSPost2010Prop36
280
     0
102
RTVSPost2010PropOp36
 70
     1
102
RTVSPost2010Prop37
 90
       50
102
RTVSPost2010PropOp37
 70
     1
102
RTVSPost2010Prop38
140
0.0
102
RTVSPost2010PropOp38
 70
     1
102
RTVSPost2010Prop39
140
1.0
102
RTVSPost2010PropOp39
 70
     1
102
RTVSPost2010Prop40
 90
        0
102
RTVSPost2010PropOp40
 70
     1
102
RTVSPost2010Prop41ColorIndex
 90
       18
102
RTVSPost2010Prop41ColorRGB
 90
        0
102
RTVSPost2010PropOp41
 70
     1
102
RTVSPost2010Prop42
 90
       50
102
RTVSPost2010PropOp42
 70
     1
102
RTVSPost2010Prop43
 90
        3
102
RTVSPost2010PropOp43
 70
     1
102
RTVSPost2010Prop44ColorIndex
 90
        5
102
RTVSPost2010Prop44ColorRGB
 90
      255
102
RTVSPost2010PropOp44
 70
     1
102
RTVSPost2010Prop45
280
     0
102
RTVSPost2010PropOp45
 70
     1
102
RTVSPost2010Prop46
 90
       50
102
RTVSPost2010PropOp46
 70
     1
102
RTVSPost2010Prop47
 90
       50
102
RTVSPost2010PropOp47
 70
     1
102
RTVSPost2010Prop48
 90
       50
102
RTVSPost2010PropOp48
 70
     1
102
RTVSPost2010Prop49
280
     0
102
RTVSPost2010PropOp49
 70
     1
102
RTVSPost2010Prop50
 90
       50
102
RTVSPost2010PropOp50
 70
     1
102
RTVSPost2010Prop51ColorIndex
 90
      256
102
RTVSPost2010Prop51ColorRGB
 90
-16777216
102
RTVSPost2010PropOp51
 70
     0
102
RTVSPost2010Prop52
140
1.0
102
RTVSPost2010PropOp52
 70
     0
102
RTVSPost2010Prop53
 90
        2
102
RTVSPost2010PropOp53
 70
     1
102
RTVSPost2010Prop54
  1
strokes_ogs.tif
102
RTVSPost2010PropOp54
 70
     1
102
RTVSPost2010Prop55
280
     0
102
RTVSPost2010PropOp55
 70
     1
102
RTVSPost2010Prop56
140
1.0
102
RTVSPost2010PropOp56
 70
     1
102
RTVSPost2010Prop57
140
1.0
102
RTVSPost2010PropOp57
 70
     1
102
RTVSPropertyOp0
 70
     1
102
RTVSPropertyOp1
 70
     1
102
RTVSPropertyOp2
 70
     1
102
RTVSPropertyOp3
 70
     1
102
RTVSPropertyOp4
 70
     1
102
RTVSPropertyOp5
 70
     1
102
RTVSPropertyOp6
 70
     1
102
RTVSPropertyOp7
 70
     1
102
RTVSPropertyOp8
 70
     1
102
RTVSPropertyOp9
 70
     1
102
RTVSPropertyOp10
 70
     1
102
RTVSPropertyOp11
 70
     1
102
RTVSPropertyOp12
 70
     1
102
RTVSPropertyOp13
 70
     1
102
RTVSPropertyOp14
 70
     1
102
RTVSPropertyOp15
 70
     1
102
RTVSPropertyOp16
 70
     1
102
RTVSPropertyOp17
 70
     1
102
RTVSPropertyOp18
 70
     1
102
RTVSPropertyOp19
 70
     1
102
RTVSPropertyOp20
 70
     1
102
RTVSPropertyOp21
 70
     1
102
RTVSPropertyOp22
 70
     1
102
RTVSPropertyOp23
 70
     1
102
RTVSPropertyOp24
 70
     1
102
RTVSPropertyOp25
 70
     1
102
RTVSPropertyOp26
 70
     1
102
RTVSPropertyOp27
 70
     1
102
RTVSPropertyOp28
 70
     1
102
RTVSPropertyOp29
 70
     1
102
RTVSPropertyOp30
 70
     1
102
RTVSPropertyOp31
 70
     1
102
RTVSPropertyOp32
 70
     1
102
RTVSPropertyOp33
 70
     1
102
RTVSPropertyOp34
 70
     1
102
RTVSPropertyOp35
 70
     1
102
RTVSPropertyOp36
 70
     1
102
RTVSPropertyOp37
 70
     1
102
RTVSPropertyOp38
 70
     1
102
RTVSPropertyOp39
 70
     1
102
RTVSPropertyOp40
 70
     1
102
RTVSPropertyOp41
 70
     1
102
RTVSPropertyOp42
 70
     1
102
RTVSPropertyOp43
 70
     1
102
RTVSPropertyOp44
 70
     1
102
RTVSPropertyOp45
 70
     1
102
RTVSPropertyOp46
 70
     1
102
RTVSPropertyOp47
 70
     1
102
RTVSPropertyOp48
 70
     1
102
RTVSPropertyOp49
 70
     1
102
RTVSPropertyOp50
 70
     1
102
RTVSPropertyOp51
 70
     0
102
RTVSPropertyOp52
 70
     0
102
RTVSPropertyOp53
 70
     1
102
RTVSPropertyOp54
 70
     1
102
RTVSPropertyOp55
 70
     1
102
RTVSPropertyOp56
 70
     1
102
RTVSPropertyOp57
 70
     1
102
RTVSPropertyOp58
 70
     1
102
RTVSPropertyOp59
 70
     1
102
RTVSPropertyOp60
 70
     1
102
RTVSPropertyOp61
 70
     1
102
RTVSPropertyOp62
 70
     1
  0
XRECORD
  5
1377
102
{ACAD_REACTORS
330
1376
102
}
330
1376
100
AcDbXrecord
280
     1
102
RTVSPost2010Prop28
280
     0
102
RTVSPost2010PropOp28
 70
     1
102
RTVSPost2010Prop29
280
     1
102
RTVSPost2010PropOp29
 70
     1
102
RTVSPost2010Prop30
280
     1
102
RTVSPost2010PropOp30
 70
     1
102
RTVSPost2010Prop31
280
     0
102
RTVSPost2010PropOp31
 70
     1
102
RTVSPost2010Prop32
280
     0
102
RTVSPost2010PropOp32
 70
     1
102
RTVSPost2010Prop33
280
     0
102
RTVSPost2010PropOp33
 70
     1
102
RTVSPost2010Prop34
280
     0
102
RTVSPost2010PropOp34
 70
     1
102
RTVSPost2010Prop35
280
     0
102
RTVSPost2010PropOp35
 70
     1
102
RTVSPost2010Prop36
280
     0
102
RTVSPost2010PropOp36
 70
     1
102
RTVSPost2010Prop37
 90
       50
102
RTVSPost2010PropOp37
 70
     1
102
RTVSPost2010Prop38
140
0.0
102
RTVSPost2010PropOp38
 70
     1
102
RTVSPost2010Prop39
140
1.0
102
RTVSPost2010PropOp39
 70
     1
102
RTVSPost2010Prop40
 90
        0
102
RTVSPost2010PropOp40
 70
     1
102
RTVSPost2010Prop41ColorIndex
 90
       18
102
RTVSPost2010Prop41ColorRGB
 90
        0
102
RTVSPost2010PropOp41
 70
     1
102
RTVSPost2010Prop42
 90
       50
102
RTVSPost2010PropOp42
 70
     1
102
RTVSPost2010Prop43
 90
        3
102
RTVSPost2010PropOp43
 70
     1
102
RTVSPost2010Prop44ColorIndex
 90
        5
102
RTVSPost2010Prop44ColorRGB
 90
      255
102
RTVSPost2010PropOp44
 70
     1
102
RTVSPost2010Prop45
280
     0
102
RTVSPost2010PropOp45
 70
     1
102
RTVSPost2010Prop46
 90
       50
102
RTVSPost2010PropOp46
 70
     1
102
RTVSPost2010Prop47
 90
       50
102
RTVSPost2010PropOp47
 70
     1
102
RTVSPost2010Prop48
 90
       50
102
RTVSPost2010PropOp48
 70
     1
102
RTVSPost2010Prop49
280
     0
102
RTVSPost2010PropOp49
 70
     1
102
RTVSPost2010Prop50
 90
       50
102
RTVSPost2010PropOp50
 70
     1
102
RTVSPost2010Prop51ColorIndex
 90
      256
102
RTVSPost2010Prop51ColorRGB
 90
-16777216
102
RTVSPost2010PropOp51
 70
     0
102
RTVSPost2010Prop52
140
1.0
102
RTVSPost2010PropOp52
 70
     0
102
RTVSPost2010Prop53
 90
        2
102
RTVSPost2010PropOp53
 70
     1
102
RTVSPost2010Prop54
  1
strokes_ogs.tif
102
RTVSPost2010PropOp54
 70
     1
102
RTVSPost2010Prop55
280
     0
102
RTVSPost2010PropOp55
 70
     1
102
RTVSPost2010Prop56
140
1.0
102
RTVSPost2010PropOp56
 70
     1
102
RTVSPost2010Prop57
140
1.0
102
RTVSPost2010PropOp57
 70
     1
102
RTVSPropertyOp0
 70
     1
102
RTVSPropertyOp1
 70
     1
102
RTVSPropertyOp2
 70
     1
102
RTVSPropertyOp3
 70
     1
102
RTVSPropertyOp4
 70
     1
102
RTVSPropertyOp5
 70
     1
102
RTVSPropertyOp6
 70
     1
102
RTVSPropertyOp7
 70
     1
102
RTVSPropertyOp8
 70
     1
102
RTVSPropertyOp9
 70
     1
102
RTVSPropertyOp10
 70
     1
102
RTVSPropertyOp11
 70
     1
102
RTVSPropertyOp12
 70
     1
102
RTVSPropertyOp13
 70
     1
102
RTVSPropertyOp14
 70
     1
102
RTVSPropertyOp15
 70
     1
102
RTVSPropertyOp16
 70
     1
102
RTVSPropertyOp17
 70
     1
102
RTVSPropertyOp18
 70
     1
102
RTVSPropertyOp19
 70
     1
102
RTVSPropertyOp20
 70
     1
102
RTVSPropertyOp21
 70
     1
102
RTVSPropertyOp22
 70
     1
102
RTVSPropertyOp23
 70
     1
102
RTVSPropertyOp24
 70
     1
102
RTVSPropertyOp25
 70
     1
102
RTVSPropertyOp26
 70
     1
102
RTVSPropertyOp27
 70
     1
102
RTVSPropertyOp28
 70
     1
102
RTVSPropertyOp29
 70
     1
102
RTVSPropertyOp30
 70
     1
102
RTVSPropertyOp31
 70
     1
102
RTVSPropertyOp32
 70
     1
102
RTVSPropertyOp33
 70
     1
102
RTVSPropertyOp34
 70
     1
102
RTVSPropertyOp35
 70
     1
102
RTVSPropertyOp36
 70
     1
102
RTVSPropertyOp37
 70
     1
102
RTVSPropertyOp38
 70
     1
102
RTVSPropertyOp39
 70
     1
102
RTVSPropertyOp40
 70
     1
102
RTVSPropertyOp41
 70
     1
102
RTVSPropertyOp42
 70
     1
102
RTVSPropertyOp43
 70
     1
102
RTVSPropertyOp44
 70
     1
102
RTVSPropertyOp45
 70
     1
102
RTVSPropertyOp46
 70
     1
102
RTVSPropertyOp47
 70
     1
102
RTVSPropertyOp48
 70
     1
102
RTVSPropertyOp49
 70
     1
102
RTVSPropertyOp50
 70
     1
102
RTVSPropertyOp51
 70
     0
102
RTVSPropertyOp52
 70
     0
102
RTVSPropertyOp53
 70
     1
102
RTVSPropertyOp54
 70
     1
102
RTVSPropertyOp55
 70
     1
102
RTVSPropertyOp56
 70
     1
102
RTVSPropertyOp57
 70
     1
102
RTVSPropertyOp58
 70
     1
102
RTVSPropertyOp59
 70
     1
102
RTVSPropertyOp60
 70
     1
102
RTVSPropertyOp61
 70
     1
102
RTVSPropertyOp62
 70
     1
  0
XRECORD
  5
1371
102
{ACAD_REACTORS
330
1370
102
}
330
1370
100
AcDbXrecord
280
     1
102
RTVSPost2010Prop28
280
     0
102
RTVSPost2010PropOp28
 70
     1
102
RTVSPost2010Prop29
280
     1
102
RTVSPost2010PropOp29
 70
     1
102
RTVSPost2010Prop30
280
     1
102
RTVSPost2010PropOp30
 70
     1
102
RTVSPost2010Prop31
280
     0
102
RTVSPost2010PropOp31
 70
     1
102
RTVSPost2010Prop32
280
     0
102
RTVSPost2010PropOp32
 70
     1
102
RTVSPost2010Prop33
280
     0
102
RTVSPost2010PropOp33
 70
     1
102
RTVSPost2010Prop34
280
     0
102
RTVSPost2010PropOp34
 70
     1
102
RTVSPost2010Prop35
280
     0
102
RTVSPost2010PropOp35
 70
     1
102
RTVSPost2010Prop36
280
     0
102
RTVSPost2010PropOp36
 70
     1
102
RTVSPost2010Prop37
 90
       50
102
RTVSPost2010PropOp37
 70
     1
102
RTVSPost2010Prop38
140
0.0
102
RTVSPost2010PropOp38
 70
     1
102
RTVSPost2010Prop39
140
1.0
102
RTVSPost2010PropOp39
 70
     1
102
RTVSPost2010Prop40
 90
        0
102
RTVSPost2010PropOp40
 70
     1
102
RTVSPost2010Prop41ColorIndex
 90
       18
102
RTVSPost2010Prop41ColorRGB
 90
        0
102
RTVSPost2010PropOp41
 70
     1
102
RTVSPost2010Prop42
 90
       50
102
RTVSPost2010PropOp42
 70
     1
102
RTVSPost2010Prop43
 90
        3
102
RTVSPost2010PropOp43
 70
     1
102
RTVSPost2010Prop44ColorIndex
 90
        5
102
RTVSPost2010Prop44ColorRGB
 90
      255
102
RTVSPost2010PropOp44
 70
     1
102
RTVSPost2010Prop45
280
     0
102
RTVSPost2010PropOp45
 70
     1
102
RTVSPost2010Prop46
 90
       50
102
RTVSPost2010PropOp46
 70
     1
102
RTVSPost2010Prop47
 90
       50
102
RTVSPost2010PropOp47
 70
     1
102
RTVSPost2010Prop48
 90
       50
102
RTVSPost2010PropOp48
 70
     1
102
RTVSPost2010Prop49
280
     0
102
RTVSPost2010PropOp49
 70
     1
102
RTVSPost2010Prop50
 90
       50
102
RTVSPost2010PropOp50
 70
     1
102
RTVSPost2010Prop51ColorIndex
 90
      256
102
RTVSPost2010Prop51ColorRGB
 90
-16777216
102
RTVSPost2010PropOp51
 70
     0
102
RTVSPost2010Prop52
140
1.0
102
RTVSPost2010PropOp52
 70
     0
102
RTVSPost2010Prop53
 90
        2
102
RTVSPost2010PropOp53
 70
     1
102
RTVSPost2010Prop54
  1
strokes_ogs.tif
102
RTVSPost2010PropOp54
 70
     1
102
RTVSPost2010Prop55
280
     0
102
RTVSPost2010PropOp55
 70
     1
102
RTVSPost2010Prop56
140
1.0
102
RTVSPost2010PropOp56
 70
     1
102
RTVSPost2010Prop57
140
1.0
102
RTVSPost2010PropOp57
 70
     1
102
RTVSPropertyOp0
 70
     1
102
RTVSPropertyOp1
 70
     1
102
RTVSPropertyOp2
 70
     1
102
RTVSPropertyOp3
 70
     1
102
RTVSPropertyOp4
 70
     1
102
RTVSPropertyOp5
 70
     1
102
RTVSPropertyOp6
 70
     1
102
RTVSPropertyOp7
 70
     1
102
RTVSPropertyOp8
 70
     1
102
RTVSPropertyOp9
 70
     1
102
RTVSPropertyOp10
 70
     1
102
RTVSPropertyOp11
 70
     1
102
RTVSPropertyOp12
 70
     1
102
RTVSPropertyOp13
 70
     1
102
RTVSPropertyOp14
 70
     1
102
RTVSPropertyOp15
 70
     1
102
RTVSPropertyOp16
 70
     1
102
RTVSPropertyOp17
 70
     1
102
RTVSPropertyOp18
 70
     1
102
RTVSPropertyOp19
 70
     1
102
RTVSPropertyOp20
 70
     1
102
RTVSPropertyOp21
 70
     1
102
RTVSPropertyOp22
 70
     1
102
RTVSPropertyOp23
 70
     1
102
RTVSPropertyOp24
 70
     1
102
RTVSPropertyOp25
 70
     1
102
RTVSPropertyOp26
 70
     1
102
RTVSPropertyOp27
 70
     1
102
RTVSPropertyOp28
 70
     1
102
RTVSPropertyOp29
 70
     1
102
RTVSPropertyOp30
 70
     1
102
RTVSPropertyOp31
 70
     1
102
RTVSPropertyOp32
 70
     1
102
RTVSPropertyOp33
 70
     1
102
RTVSPropertyOp34
 70
     1
102
RTVSPropertyOp35
 70
     1
102
RTVSPropertyOp36
 70
     1
102
RTVSPropertyOp37
 70
     1
102
RTVSPropertyOp38
 70
     1
102
RTVSPropertyOp39
 70
     1
102
RTVSPropertyOp40
 70
     1
102
RTVSPropertyOp41
 70
     1
102
RTVSPropertyOp42
 70
     1
102
RTVSPropertyOp43
 70
     1
102
RTVSPropertyOp44
 70
     1
102
RTVSPropertyOp45
 70
     1
102
RTVSPropertyOp46
 70
     1
102
RTVSPropertyOp47
 70
     1
102
RTVSPropertyOp48
 70
     1
102
RTVSPropertyOp49
 70
     1
102
RTVSPropertyOp50
 70
     1
102
RTVSPropertyOp51
 70
     0
102
RTVSPropertyOp52
 70
     0
102
RTVSPropertyOp53
 70
     1
102
RTVSPropertyOp54
 70
     1
102
RTVSPropertyOp55
 70
     1
102
RTVSPropertyOp56
 70
     1
102
RTVSPropertyOp57
 70
     1
102
RTVSPropertyOp58
 70
     1
102
RTVSPropertyOp59
 70
     1
102
RTVSPropertyOp60
 70
     1
102
RTVSPropertyOp61
 70
     1
102
RTVSPropertyOp62
 70
     1
  0
XRECORD
  5
1373
102
{ACAD_REACTORS
330
1372
102
}
330
1372
100
AcDbXrecord
280
     1
102
RTVSPost2010Prop28
280
     0
102
RTVSPost2010PropOp28
 70
     1
102
RTVSPost2010Prop29
280
     1
102
RTVSPost2010PropOp29
 70
     1
102
RTVSPost2010Prop30
280
     1
102
RTVSPost2010PropOp30
 70
     1
102
RTVSPost2010Prop31
280
     0
102
RTVSPost2010PropOp31
 70
     1
102
RTVSPost2010Prop32
280
     0
102
RTVSPost2010PropOp32
 70
     1
102
RTVSPost2010Prop33
280
     0
102
RTVSPost2010PropOp33
 70
     1
102
RTVSPost2010Prop34
280
     0
102
RTVSPost2010PropOp34
 70
     1
102
RTVSPost2010Prop35
280
     0
102
RTVSPost2010PropOp35
 70
     1
102
RTVSPost2010Prop36
280
     0
102
RTVSPost2010PropOp36
 70
     1
102
RTVSPost2010Prop37
 90
       50
102
RTVSPost2010PropOp37
 70
     1
102
RTVSPost2010Prop38
140
0.0
102
RTVSPost2010PropOp38
 70
     1
102
RTVSPost2010Prop39
140
1.0
102
RTVSPost2010PropOp39
 70
     1
102
RTVSPost2010Prop40
 90
        0
102
RTVSPost2010PropOp40
 70
     1
102
RTVSPost2010Prop41ColorIndex
 90
       18
102
RTVSPost2010Prop41ColorRGB
 90
        0
102
RTVSPost2010PropOp41
 70
     1
102
RTVSPost2010Prop42
 90
       50
102
RTVSPost2010PropOp42
 70
     1
102
RTVSPost2010Prop43
 90
        3
102
RTVSPost2010PropOp43
 70
     1
102
RTVSPost2010Prop44ColorIndex
 90
        5
102
RTVSPost2010Prop44ColorRGB
 90
      255
102
RTVSPost2010PropOp44
 70
     1
102
RTVSPost2010Prop45
280
     0
102
RTVSPost2010PropOp45
 70
     1
102
RTVSPost2010Prop46
 90
       50
102
RTVSPost2010PropOp46
 70
     1
102
RTVSPost2010Prop47
 90
       50
102
RTVSPost2010PropOp47
 70
     1
102
RTVSPost2010Prop48
 90
       50
102
RTVSPost2010PropOp48
 70
     1
102
RTVSPost2010Prop49
280
     0
102
RTVSPost2010PropOp49
 70
     1
102
RTVSPost2010Prop50
 90
       50
102
RTVSPost2010PropOp50
 70
     1
102
RTVSPost2010Prop51ColorIndex
 90
      256
102
RTVSPost2010Prop51ColorRGB
 90
-16777216
102
RTVSPost2010PropOp51
 70
     0
102
RTVSPost2010Prop52
140
1.0
102
RTVSPost2010PropOp52
 70
     0
102
RTVSPost2010Prop53
 90
        2
102
RTVSPost2010PropOp53
 70
     1
102
RTVSPost2010Prop54
  1
strokes_ogs.tif
102
RTVSPost2010PropOp54
 70
     1
102
RTVSPost2010Prop55
280
     0
102
RTVSPost2010PropOp55
 70
     1
102
RTVSPost2010Prop56
140
1.0
102
RTVSPost2010PropOp56
 70
     1
102
RTVSPost2010Prop57
140
1.0
102
RTVSPost2010PropOp57
 70
     1
102
RTVSPropertyOp0
 70
     1
102
RTVSPropertyOp1
 70
     1
102
RTVSPropertyOp2
 70
     1
102
RTVSPropertyOp3
 70
     1
102
RTVSPropertyOp4
 70
     1
102
RTVSPropertyOp5
 70
     1
102
RTVSPropertyOp6
 70
     1
102
RTVSPropertyOp7
 70
     1
102
RTVSPropertyOp8
 70
     1
102
RTVSPropertyOp9
 70
     1
102
RTVSPropertyOp10
 70
     1
102
RTVSPropertyOp11
 70
     1
102
RTVSPropertyOp12
 70
     1
102
RTVSPropertyOp13
 70
     1
102
RTVSPropertyOp14
 70
     1
102
RTVSPropertyOp15
 70
     1
102
RTVSPropertyOp16
 70
     1
102
RTVSPropertyOp17
 70
     1
102
RTVSPropertyOp18
 70
     1
102
RTVSPropertyOp19
 70
     1
102
RTVSPropertyOp20
 70
     1
102
RTVSPropertyOp21
 70
     1
102
RTVSPropertyOp22
 70
     1
102
RTVSPropertyOp23
 70
     1
102
RTVSPropertyOp24
 70
     1
102
RTVSPropertyOp25
 70
     1
102
RTVSPropertyOp26
 70
     1
102
RTVSPropertyOp27
 70
     1
102
RTVSPropertyOp28
 70
     1
102
RTVSPropertyOp29
 70
     1
102
RTVSPropertyOp30
 70
     1
102
RTVSPropertyOp31
 70
     1
102
RTVSPropertyOp32
 70
     1
102
RTVSPropertyOp33
 70
     1
102
RTVSPropertyOp34
 70
     1
102
RTVSPropertyOp35
 70
     1
102
RTVSPropertyOp36
 70
     1
102
RTVSPropertyOp37
 70
     1
102
RTVSPropertyOp38
 70
     1
102
RTVSPropertyOp39
 70
     1
102
RTVSPropertyOp40
 70
     1
102
RTVSPropertyOp41
 70
     1
102
RTVSPropertyOp42
 70
     1
102
RTVSPropertyOp43
 70
     1
102
RTVSPropertyOp44
 70
     1
102
RTVSPropertyOp45
 70
     1
102
RTVSPropertyOp46
 70
     1
102
RTVSPropertyOp47
 70
     1
102
RTVSPropertyOp48
 70
     1
102
RTVSPropertyOp49
 70
     1
102
RTVSPropertyOp50
 70
     1
102
RTVSPropertyOp51
 70
     0
102
RTVSPropertyOp52
 70
     0
102
RTVSPropertyOp53
 70
     1
102
RTVSPropertyOp54
 70
     1
102
RTVSPropertyOp55
 70
     1
102
RTVSPropertyOp56
 70
     1
102
RTVSPropertyOp57
 70
     1
102
RTVSPropertyOp58
 70
     1
102
RTVSPropertyOp59
 70
     1
102
RTVSPropertyOp60
 70
     1
102
RTVSPropertyOp61
 70
     1
102
RTVSPropertyOp62
 70
     1
  0
XRECORD
  5
1369
102
{ACAD_REACTORS
330
1368
102
}
330
1368
100
AcDbXrecord
280
     1
102
RTVSPost2010Prop28
280
     0
102
RTVSPost2010PropOp28
 70
     1
102
RTVSPost2010Prop29
280
     1
102
RTVSPost2010PropOp29
 70
     1
102
RTVSPost2010Prop30
280
     1
102
RTVSPost2010PropOp30
 70
     1
102
RTVSPost2010Prop31
280
     0
102
RTVSPost2010PropOp31
 70
     1
102
RTVSPost2010Prop32
280
     0
102
RTVSPost2010PropOp32
 70
     1
102
RTVSPost2010Prop33
280
     0
102
RTVSPost2010PropOp33
 70
     1
102
RTVSPost2010Prop34
280
     0
102
RTVSPost2010PropOp34
 70
     1
102
RTVSPost2010Prop35
280
     0
102
RTVSPost2010PropOp35
 70
     1
102
RTVSPost2010Prop36
280
     0
102
RTVSPost2010PropOp36
 70
     1
102
RTVSPost2010Prop37
 90
       50
102
RTVSPost2010PropOp37
 70
     1
102
RTVSPost2010Prop38
140
0.0
102
RTVSPost2010PropOp38
 70
     1
102
RTVSPost2010Prop39
140
1.0
102
RTVSPost2010PropOp39
 70
     1
102
RTVSPost2010Prop40
 90
        0
102
RTVSPost2010PropOp40
 70
     1
102
RTVSPost2010Prop41ColorIndex
 90
       18
102
RTVSPost2010Prop41ColorRGB
 90
        0
102
RTVSPost2010PropOp41
 70
     1
102
RTVSPost2010Prop42
 90
       50
102
RTVSPost2010PropOp42
 70
     1
102
RTVSPost2010Prop43
 90
        3
102
RTVSPost2010PropOp43
 70
     1
102
RTVSPost2010Prop44ColorIndex
 90
        5
102
RTVSPost2010Prop44ColorRGB
 90
      255
102
RTVSPost2010PropOp44
 70
     1
102
RTVSPost2010Prop45
280
     0
102
RTVSPost2010PropOp45
 70
     1
102
RTVSPost2010Prop46
 90
       50
102
RTVSPost2010PropOp46
 70
     1
102
RTVSPost2010Prop47
 90
       50
102
RTVSPost2010PropOp47
 70
     1
102
RTVSPost2010Prop48
 90
       50
102
RTVSPost2010PropOp48
 70
     1
102
RTVSPost2010Prop49
280
     0
102
RTVSPost2010PropOp49
 70
     1
102
RTVSPost2010Prop50
 90
       50
102
RTVSPost2010PropOp50
 70
     1
102
RTVSPost2010Prop51ColorIndex
 90
      256
102
RTVSPost2010Prop51ColorRGB
 90
-16777216
102
RTVSPost2010PropOp51
 70
     0
102
RTVSPost2010Prop52
140
1.0
102
RTVSPost2010PropOp52
 70
     0
102
RTVSPost2010Prop53
 90
        2
102
RTVSPost2010PropOp53
 70
     1
102
RTVSPost2010Prop54
  1
strokes_ogs.tif
102
RTVSPost2010PropOp54
 70
     1
102
RTVSPost2010Prop55
280
     0
102
RTVSPost2010PropOp55
 70
     1
102
RTVSPost2010Prop56
140
1.0
102
RTVSPost2010PropOp56
 70
     1
102
RTVSPost2010Prop57
140
1.0
102
RTVSPost2010PropOp57
 70
     1
102
RTVSPropertyOp0
 70
     1
102
RTVSPropertyOp1
 70
     1
102
RTVSPropertyOp2
 70
     1
102
RTVSPropertyOp3
 70
     1
102
RTVSPropertyOp4
 70
     1
102
RTVSPropertyOp5
 70
     1
102
RTVSPropertyOp6
 70
     1
102
RTVSPropertyOp7
 70
     1
102
RTVSPropertyOp8
 70
     1
102
RTVSPropertyOp9
 70
     1
102
RTVSPropertyOp10
 70
     1
102
RTVSPropertyOp11
 70
     1
102
RTVSPropertyOp12
 70
     1
102
RTVSPropertyOp13
 70
     1
102
RTVSPropertyOp14
 70
     1
102
RTVSPropertyOp15
 70
     1
102
RTVSPropertyOp16
 70
     1
102
RTVSPropertyOp17
 70
     1
102
RTVSPropertyOp18
 70
     1
102
RTVSPropertyOp19
 70
     1
102
RTVSPropertyOp20
 70
     1
102
RTVSPropertyOp21
 70
     1
102
RTVSPropertyOp22
 70
     1
102
RTVSPropertyOp23
 70
     1
102
RTVSPropertyOp24
 70
     1
102
RTVSPropertyOp25
 70
     1
102
RTVSPropertyOp26
 70
     1
102
RTVSPropertyOp27
 70
     1
102
RTVSPropertyOp28
 70
     1
102
RTVSPropertyOp29
 70
     1
102
RTVSPropertyOp30
 70
     1
102
RTVSPropertyOp31
 70
     1
102
RTVSPropertyOp32
 70
     1
102
RTVSPropertyOp33
 70
     1
102
RTVSPropertyOp34
 70
     1
102
RTVSPropertyOp35
 70
     1
102
RTVSPropertyOp36
 70
     1
102
RTVSPropertyOp37
 70
     1
102
RTVSPropertyOp38
 70
     1
102
RTVSPropertyOp39
 70
     1
102
RTVSPropertyOp40
 70
     1
102
RTVSPropertyOp41
 70
     1
102
RTVSPropertyOp42
 70
     1
102
RTVSPropertyOp43
 70
     1
102
RTVSPropertyOp44
 70
     1
102
RTVSPropertyOp45
 70
     1
102
RTVSPropertyOp46
 70
     1
102
RTVSPropertyOp47
 70
     1
102
RTVSPropertyOp48
 70
     1
102
RTVSPropertyOp49
 70
     1
102
RTVSPropertyOp50
 70
     1
102
RTVSPropertyOp51
 70
     0
102
RTVSPropertyOp52
 70
     0
102
RTVSPropertyOp53
 70
     1
102
RTVSPropertyOp54
 70
     1
102
RTVSPropertyOp55
 70
     1
102
RTVSPropertyOp56
 70
     1
102
RTVSPropertyOp57
 70
     1
102
RTVSPropertyOp58
 70
     1
102
RTVSPropertyOp59
 70
     1
102
RTVSPropertyOp60
 70
     1
102
RTVSPropertyOp61
 70
     1
102
RTVSPropertyOp62
 70
     1
  0
XRECORD
  5
135D
102
{ACAD_REACTORS
330
135C
102
}
330
135C
100
AcDbXrecord
280
     1
102
RTVSPost2010Prop28
280
     0
102
RTVSPost2010PropOp28
 70
     1
102
RTVSPost2010Prop29
280
     1
102
RTVSPost2010PropOp29
 70
     1
102
RTVSPost2010Prop30
280
     1
102
RTVSPost2010PropOp30
 70
     1
102
RTVSPost2010Prop31
280
     0
102
RTVSPost2010PropOp31
 70
     1
102
RTVSPost2010Prop32
280
     0
102
RTVSPost2010PropOp32
 70
     1
102
RTVSPost2010Prop33
280
     0
102
RTVSPost2010PropOp33
 70
     1
102
RTVSPost2010Prop34
280
     0
102
RTVSPost2010PropOp34
 70
     1
102
RTVSPost2010Prop35
280
     0
102
RTVSPost2010PropOp35
 70
     1
102
RTVSPost2010Prop36
280
     0
102
RTVSPost2010PropOp36
 70
     1
102
RTVSPost2010Prop37
 90
       50
102
RTVSPost2010PropOp37
 70
     1
102
RTVSPost2010Prop38
140
0.0
102
RTVSPost2010PropOp38
 70
     1
102
RTVSPost2010Prop39
140
1.0
102
RTVSPost2010PropOp39
 70
     1
102
RTVSPost2010Prop40
 90
        0
102
RTVSPost2010PropOp40
 70
     1
102
RTVSPost2010Prop41ColorIndex
 90
       18
102
RTVSPost2010Prop41ColorRGB
 90
        0
102
RTVSPost2010PropOp41
 70
     1
102
RTVSPost2010Prop42
 90
       50
102
RTVSPost2010PropOp42
 70
     1
102
RTVSPost2010Prop43
 90
        3
102
RTVSPost2010PropOp43
 70
     1
102
RTVSPost2010Prop44ColorIndex
 90
        5
102
RTVSPost2010Prop44ColorRGB
 90
      255
102
RTVSPost2010PropOp44
 70
     1
102
RTVSPost2010Prop45
280
     0
102
RTVSPost2010PropOp45
 70
     1
102
RTVSPost2010Prop46
 90
       50
102
RTVSPost2010PropOp46
 70
     1
102
RTVSPost2010Prop47
 90
       50
102
RTVSPost2010PropOp47
 70
     1
102
RTVSPost2010Prop48
 90
       50
102
RTVSPost2010PropOp48
 70
     1
102
RTVSPost2010Prop49
280
     0
102
RTVSPost2010PropOp49
 70
     1
102
RTVSPost2010Prop50
 90
       50
102
RTVSPost2010PropOp50
 70
     1
102
RTVSPost2010Prop51ColorIndex
 90
      256
102
RTVSPost2010Prop51ColorRGB
 90
-16777216
102
RTVSPost2010PropOp51
 70
     0
102
RTVSPost2010Prop52
140
1.0
102
RTVSPost2010PropOp52
 70
     0
102
RTVSPost2010Prop53
 90
        2
102
RTVSPost2010PropOp53
 70
     1
102
RTVSPost2010Prop54
  1
strokes_ogs.tif
102
RTVSPost2010PropOp54
 70
     1
102
RTVSPost2010Prop55
280
     0
102
RTVSPost2010PropOp55
 70
     1
102
RTVSPost2010Prop56
140
1.0
102
RTVSPost2010PropOp56
 70
     1
102
RTVSPost2010Prop57
140
1.0
102
RTVSPost2010PropOp57
 70
     1
102
RTVSPropertyOp0
 70
     1
102
RTVSPropertyOp1
 70
     1
102
RTVSPropertyOp2
 70
     1
102
RTVSPropertyOp3
 70
     1
102
RTVSPropertyOp4
 70
     1
102
RTVSPropertyOp5
 70
     1
102
RTVSPropertyOp6
 70
     1
102
RTVSPropertyOp7
 70
     1
102
RTVSPropertyOp8
 70
     1
102
RTVSPropertyOp9
 70
     1
102
RTVSPropertyOp10
 70
     1
102
RTVSPropertyOp11
 70
     1
102
RTVSPropertyOp12
 70
     1
102
RTVSPropertyOp13
 70
     1
102
RTVSPropertyOp14
 70
     1
102
RTVSPropertyOp15
 70
     1
102
RTVSPropertyOp16
 70
     1
102
RTVSPropertyOp17
 70
     1
102
RTVSPropertyOp18
 70
     1
102
RTVSPropertyOp19
 70
     1
102
RTVSPropertyOp20
 70
     1
102
RTVSPropertyOp21
 70
     1
102
RTVSPropertyOp22
 70
     1
102
RTVSPropertyOp23
 70
     1
102
RTVSPropertyOp24
 70
     1
102
RTVSPropertyOp25
 70
     1
102
RTVSPropertyOp26
 70
     1
102
RTVSPropertyOp27
 70
     1
102
RTVSPropertyOp28
 70
     1
102
RTVSPropertyOp29
 70
     1
102
RTVSPropertyOp30
 70
     1
102
RTVSPropertyOp31
 70
     1
102
RTVSPropertyOp32
 70
     1
102
RTVSPropertyOp33
 70
     1
102
RTVSPropertyOp34
 70
     1
102
RTVSPropertyOp35
 70
     1
102
RTVSPropertyOp36
 70
     1
102
RTVSPropertyOp37
 70
     1
102
RTVSPropertyOp38
 70
     1
102
RTVSPropertyOp39
 70
     1
102
RTVSPropertyOp40
 70
     1
102
RTVSPropertyOp41
 70
     1
102
RTVSPropertyOp42
 70
     1
102
RTVSPropertyOp43
 70
     1
102
RTVSPropertyOp44
 70
     1
102
RTVSPropertyOp45
 70
     1
102
RTVSPropertyOp46
 70
     1
102
RTVSPropertyOp47
 70
     1
102
RTVSPropertyOp48
 70
     1
102
RTVSPropertyOp49
 70
     1
102
RTVSPropertyOp50
 70
     1
102
RTVSPropertyOp51
 70
     0
102
RTVSPropertyOp52
 70
     0
102
RTVSPropertyOp53
 70
     1
102
RTVSPropertyOp54
 70
     1
102
RTVSPropertyOp55
 70
     1
102
RTVSPropertyOp56
 70
     1
102
RTVSPropertyOp57
 70
     1
102
RTVSPropertyOp58
 70
     1
102
RTVSPropertyOp59
 70
     1
102
RTVSPropertyOp60
 70
     1
102
RTVSPropertyOp61
 70
     1
102
RTVSPropertyOp62
 70
     1
  0
XRECORD
  5
1375
102
{ACAD_REACTORS
330
1374
102
}
330
1374
100
AcDbXrecord
280
     1
102
RTVSPost2010Prop28
280
     0
102
RTVSPost2010PropOp28
 70
     1
102
RTVSPost2010Prop29
280
     1
102
RTVSPost2010PropOp29
 70
     1
102
RTVSPost2010Prop30
280
     1
102
RTVSPost2010PropOp30
 70
     1
102
RTVSPost2010Prop31
280
     0
102
RTVSPost2010PropOp31
 70
     1
102
RTVSPost2010Prop32
280
     0
102
RTVSPost2010PropOp32
 70
     1
102
RTVSPost2010Prop33
280
     0
102
RTVSPost2010PropOp33
 70
     1
102
RTVSPost2010Prop34
280
     0
102
RTVSPost2010PropOp34
 70
     1
102
RTVSPost2010Prop35
280
     0
102
RTVSPost2010PropOp35
 70
     1
102
RTVSPost2010Prop36
280
     0
102
RTVSPost2010PropOp36
 70
     1
102
RTVSPost2010Prop37
 90
       50
102
RTVSPost2010PropOp37
 70
     1
102
RTVSPost2010Prop38
140
0.0
102
RTVSPost2010PropOp38
 70
     1
102
RTVSPost2010Prop39
140
1.0
102
RTVSPost2010PropOp39
 70
     1
102
RTVSPost2010Prop40
 90
        0
102
RTVSPost2010PropOp40
 70
     1
102
RTVSPost2010Prop41ColorIndex
 90
       18
102
RTVSPost2010Prop41ColorRGB
 90
        0
102
RTVSPost2010PropOp41
 70
     1
102
RTVSPost2010Prop42
 90
       50
102
RTVSPost2010PropOp42
 70
     1
102
RTVSPost2010Prop43
 90
        3
102
RTVSPost2010PropOp43
 70
     1
102
RTVSPost2010Prop44ColorIndex
 90
        5
102
RTVSPost2010Prop44ColorRGB
 90
      255
102
RTVSPost2010PropOp44
 70
     1
102
RTVSPost2010Prop45
280
     0
102
RTVSPost2010PropOp45
 70
     1
102
RTVSPost2010Prop46
 90
       50
102
RTVSPost2010PropOp46
 70
     1
102
RTVSPost2010Prop47
 90
       50
102
RTVSPost2010PropOp47
 70
     1
102
RTVSPost2010Prop48
 90
       50
102
RTVSPost2010PropOp48
 70
     1
102
RTVSPost2010Prop49
280
     0
102
RTVSPost2010PropOp49
 70
     1
102
RTVSPost2010Prop50
 90
       50
102
RTVSPost2010PropOp50
 70
     1
102
RTVSPost2010Prop51ColorIndex
 90
      256
102
RTVSPost2010Prop51ColorRGB
 90
-16777216
102
RTVSPost2010PropOp51
 70
     0
102
RTVSPost2010Prop52
140
1.0
102
RTVSPost2010PropOp52
 70
     0
102
RTVSPost2010Prop53
 90
        2
102
RTVSPost2010PropOp53
 70
     1
102
RTVSPost2010Prop54
  1
strokes_ogs.tif
102
RTVSPost2010PropOp54
 70
     1
102
RTVSPost2010Prop55
280
     0
102
RTVSPost2010PropOp55
 70
     1
102
RTVSPost2010Prop56
140
1.0
102
RTVSPost2010PropOp56
 70
     1
102
RTVSPost2010Prop57
140
1.0
102
RTVSPost2010PropOp57
 70
     1
102
RTVSPropertyOp0
 70
     1
102
RTVSPropertyOp1
 70
     1
102
RTVSPropertyOp2
 70
     1
102
RTVSPropertyOp3
 70
     1
102
RTVSPropertyOp4
 70
     1
102
RTVSPropertyOp5
 70
     1
102
RTVSPropertyOp6
 70
     1
102
RTVSPropertyOp7
 70
     1
102
RTVSPropertyOp8
 70
     1
102
RTVSPropertyOp9
 70
     1
102
RTVSPropertyOp10
 70
     1
102
RTVSPropertyOp11
 70
     1
102
RTVSPropertyOp12
 70
     1
102
RTVSPropertyOp13
 70
     1
102
RTVSPropertyOp14
 70
     1
102
RTVSPropertyOp15
 70
     1
102
RTVSPropertyOp16
 70
     1
102
RTVSPropertyOp17
 70
     1
102
RTVSPropertyOp18
 70
     1
102
RTVSPropertyOp19
 70
     1
102
RTVSPropertyOp20
 70
     1
102
RTVSPropertyOp21
 70
     1
102
RTVSPropertyOp22
 70
     1
102
RTVSPropertyOp23
 70
     1
102
RTVSPropertyOp24
 70
     1
102
RTVSPropertyOp25
 70
     1
102
RTVSPropertyOp26
 70
     1
102
RTVSPropertyOp27
 70
     1
102
RTVSPropertyOp28
 70
     1
102
RTVSPropertyOp29
 70
     1
102
RTVSPropertyOp30
 70
     1
102
RTVSPropertyOp31
 70
     1
102
RTVSPropertyOp32
 70
     1
102
RTVSPropertyOp33
 70
     1
102
RTVSPropertyOp34
 70
     1
102
RTVSPropertyOp35
 70
     1
102
RTVSPropertyOp36
 70
     1
102
RTVSPropertyOp37
 70
     1
102
RTVSPropertyOp38
 70
     1
102
RTVSPropertyOp39
 70
     1
102
RTVSPropertyOp40
 70
     1
102
RTVSPropertyOp41
 70
     1
102
RTVSPropertyOp42
 70
     1
102
RTVSPropertyOp43
 70
     1
102
RTVSPropertyOp44
 70
     1
102
RTVSPropertyOp45
 70
     1
102
RTVSPropertyOp46
 70
     1
102
RTVSPropertyOp47
 70
     1
102
RTVSPropertyOp48
 70
     1
102
RTVSPropertyOp49
 70
     1
102
RTVSPropertyOp50
 70
     1
102
RTVSPropertyOp51
 70
     0
102
RTVSPropertyOp52
 70
     0
102
RTVSPropertyOp53
 70
     1
102
RTVSPropertyOp54
 70
     1
102
RTVSPropertyOp55
 70
     1
102
RTVSPropertyOp56
 70
     1
102
RTVSPropertyOp57
 70
     1
102
RTVSPropertyOp58
 70
     1
102
RTVSPropertyOp59
 70
     1
102
RTVSPropertyOp60
 70
     1
102
RTVSPropertyOp61
 70
     1
102
RTVSPropertyOp62
 70
     1
  0
ENDSEC
  0
EOF
