  0
SECTION
  2
HEADER
  9
$ACADVER
  1
AC1012
  9
$DWGCODEPAGE
  3
dos932
  9
$INSBASE
 10
0.0
 20
0.0
 30
0.0
  9
$EXTMIN
 10
0.0
 20
0.0
 30
0.0
  9
$EXTMAX
 10
3700.0
 20
2670.0
 30
0.0
  9
$LIMMIN
 10
0.0
 20
0.0
  9
$LIMMAX
 10
4200.0
 20
2970.0
  9
$ORTHOMODE
 70
     1
  9
$REGENMODE
 70
     1
  9
$FILLMODE
 70
     1
  9
$QTEXTMODE
 70
     0
  9
$MIRRTEXT
 70
     0
  9
$DRAGMODE
 70
     2
  9
$LTSCALE
 40
100.0
  9
$OSMODE
 70
    33
  9
$ATTMODE
 70
     1
  9
$TEXTSIZE
 40
30.0
  9
$TRACEWID
 40
0.05
  9
$TEXTSTYLE
  7
KANJI08
  9
$CLAYER
  8
MOJI
  9
$CELTYPE
  6
BYLAYER
  9
$CECOLOR
 62
   256
  9
$CELTSCALE
 40
1.0
  9
$DELOBJ
 70
     1
  9
$DISPSILH
 70
     0
  9
$DIMSCALE
 40
10.0
  9
$DIMASZ
 40
2.0
  9
$DIMEXO
 40
1.0
  9
$DIMDLI
 40
6.0
  9
$DIMRND
 40
0.0
  9
$DIMDLE
 40
0.0
  9
$DIMEXE
 40
1.0
  9
$DIMTP
 40
0.0
  9
$DIMTM
 40
0.0
  9
$DIMTXT
 40
3.0
  9
$DIMCEN
 40
0.09
  9
$DIMTSZ
 40
0.0
  9
$DIMTOL
 70
     0
  9
$DIMLIM
 70
     0
  9
$DIMTIH
 70
     0
  9
$DIMTOH
 70
     0
  9
$DIMSE1
 70
     0
  9
$DIMSE2
 70
     0
  9
$DIMTAD
 70
     2
  9
$DIMZIN
 70
     8
  9
$DIMBLK
  1

  9
$DIMASO
 70
     1
  9
$DIMSHO
 70
     1
  9
$DIMPOST
  1

  9
$DIMAPOST
  1

  9
$DIMALT
 70
     0
  9
$DIMALTD
 70
     2
  9
$DIMALTF
 40
25.4
  9
$DIMLFAC
 40
1.0
  9
$DIMTOFL
 70
     1
  9
$DIMTVP
 40
0.0
  9
$DIMTIX
 70
     0
  9
$DIMSOXD
 70
     0
  9
$DIMSAH
 70
     0
  9
$DIMBLK1
  1

  9
$DIMBLK2
  1

  9
$DIMSTYLE
  2
SJC
  9
$DIMCLRD
 70
   256
  9
$DIMCLRE
 70
   256
  9
$DIMCLRT
 70
   256
  9
$DIMTFAC
 40
1.0
  9
$DIMGAP
 40
1.2
  9
$DIMJUST
 70
     0
  9
$DIMSD1
 70
     0
  9
$DIMSD2
 70
     0
  9
$DIMTOLJ
 70
     1
  9
$DIMTZIN
 70
     0
  9
$DIMALTZ
 70
     0
  9
$DIMALTTZ
 70
     0
  9
$DIMFIT
 70
     3
  9
$DIMUPT
 70
     0
  9
$DIMUNIT
 70
     2
  9
$DIMDEC
 70
     2
  9
$DIMTDEC
 70
     4
  9
$DIMALTU
 70
     2
  9
$DIMALTTD
 70
     2
  9
$DIMTXSTY
  7
KANJI08
  9
$DIMAUNIT
 70
     0
  9
$LUNITS
 70
     2
  9
$LUPREC
 70
     2
  9
$SKETCHINC
 40
0.1
  9
$FILLETRAD
 40
0.0
  9
$AUNITS
 70
     1
  9
$AUPREC
 70
     2
  9
$MENU
  1
C:\r13\win\SUPPORT\sjc
  9
$ELEVATION
 40
0.0
  9
$PELEVATION
 40
0.0
  9
$THICKNESS
 40
0.0
  9
$LIMCHECK
 70
     0
  9
$BLIPMODE
 70
     1
  9
$CHAMFERA
 40
0.0
  9
$CHAMFERB
 40
0.0
  9
$CHAMFERC
 40
0.0
  9
$CHAMFERD
 40
0.0
  9
$SKPOLY
 70
     0
  9
$TDCREATE
 40
2449337.416473726
  9
$TDUPDATE
 40
2451779.605774120
  9
$TDINDWG
 40
0.0372438889
  9
$TDUSRTIMER
 40
0.0372438889
  9
$USRTIMER
 70
     1
  9
$ANGBASE
 50
0.0
  9
$ANGDIR
 70
     0
  9
$PDMODE
 70
     0
  9
$PDSIZE
 40
0.0
  9
$PLINEWID
 40
0.0
  9
$COORDS
 70
     1
  9
$SPLFRAME
 70
     0
  9
$SPLINETYPE
 70
     6
  9
$SPLINESEGS
 70
     8
  9
$ATTDIA
 70
     0
  9
$ATTREQ
 70
     1
  9
$HANDLING
 70
     1
  9
$HANDSEED
  5
538
  9
$SURFTAB1
 70
     6
  9
$SURFTAB2
 70
     6
  9
$SURFTYPE
 70
     6
  9
$SURFU
 70
     6
  9
$SURFV
 70
     6
  9
$UCSNAME
  2

  9
$UCSORG
 10
0.0
 20
0.0
 30
0.0
  9
$UCSXDIR
 10
1.0
 20
0.0
 30
0.0
  9
$UCSYDIR
 10
0.0
 20
1.0
 30
0.0
  9
$PUCSNAME
  2

  9
$PUCSORG
 10
0.0
 20
0.0
 30
0.0
  9
$PUCSXDIR
 10
1.0
 20
0.0
 30
0.0
  9
$PUCSYDIR
 10
0.0
 20
1.0
 30
0.0
  9
$USERI1
 70
     3
  9
$USERI2
 70
    10
  9
$USERI3
 70
     0
  9
$USERI4
 70
     0
  9
$USERI5
 70
     0
  9
$USERR1
 40
0.0
  9
$USERR2
 40
0.0
  9
$USERR3
 40
0.0
  9
$USERR4
 40
0.0
  9
$USERR5
 40
0.0
  9
$WORLDVIEW
 70
     1
  9
$SHADEDGE
 70
     3
  9
$SHADEDIF
 70
    70
  9
$TILEMODE
 70
     1
  9
$MAXACTVP
 70
    16
  9
$PINSBASE
 10
0.0
 20
0.0
 30
0.0
  9
$PLIMCHECK
 70
     0
  9
$PEXTMIN
 10
1.000000E+20
 20
1.000000E+20
 30
1.000000E+20
  9
$PEXTMAX
 10
-1.000000E+20
 20
-1.000000E+20
 30
-1.000000E+20
  9
$PLIMMIN
 10
0.0
 20
0.0
  9
$PLIMMAX
 10
12.0
 20
9.0
  9
$UNITMODE
 70
     0
  9
$VISRETAIN
 70
     0
  9
$PLINEGEN
 70
     0
  9
$PSLTSCALE
 70
     1
  9
$TREEDEPTH
 70
  3020
  9
$PICKSTYLE
 70
     1
  9
$CMLSTYLE
  2
STANDARD
  9
$CMLJUST
 70
     0
  9
$CMLSCALE
 40
1.0
  9
$SAVEIMAGES
 70
     0
  0
ENDSEC
  0
SECTION
  2
CLASSES
  0
ENDSEC
  0
SECTION
  2
TABLES
  0
TABLE
  2
VPORT
  5
8
100
AcDbSymbolTable
 70
     4
  0
VPORT
  5
537
100
AcDbSymbolTableRecord
100
AcDbViewportTableRecord
  2
*ACTIVE
 70
     0
 10
0.0
 20
0.0
 11
1.0
 21
1.0
 12
2808.101504
 22
1524.078947
 13
0.0
 23
0.0
 14
10.0
 24
10.0
 15
0.0
 25
0.0
 16
0.0
 26
0.0
 36
1.0
 17
0.0
 27
0.0
 37
0.0
 40
3048.157895
 41
1.842491
 42
50.0
 43
0.0
 44
0.0
 50
0.0
 51
0.0
 71
     0
 72
   100
 73
     1
 74
     1
 75
     0
 76
     0
 77
     0
 78
     0
  0
ENDTAB
  0
TABLE
  2
LTYPE
  5
5
100
AcDbSymbolTable
 70
     5
  0
LTYPE
  5
12
100
AcDbSymbolTableRecord
100
AcDbLinetypeTableRecord
  2
BYBLOCK
 70
     0
  3

 72
    65
 73
     0
 40
0.0
  0
LTYPE
  5
13
100
AcDbSymbolTableRecord
100
AcDbLinetypeTableRecord
  2
BYLAYER
 70
     0
  3

 72
    65
 73
     0
 40
0.0
  0
LTYPE
  5
14
100
AcDbSymbolTableRecord
100
AcDbLinetypeTableRecord
  2
CONTINUOUS
 70
    64
  3
Solid line
 72
    65
 73
     0
 40
0.0
  0
LTYPE
  5
2F
100
AcDbSymbolTableRecord
100
AcDbLinetypeTableRecord
  2
CENTER
 70
    64
  3
____ _ ____ _ ____ _ ____ _ ____ _ ____ _ ____ 
 72
    65
 73
     4
 40
2.0
 49
1.25
 74
     0
 49
-0.25
 74
     0
 49
0.25
 74
     0
 49
-0.25
 74
     0
  0
LTYPE
  5
30
100
AcDbSymbolTableRecord
100
AcDbLinetypeTableRecord
  2
HIDDEN
 70
    64
  3
__ __ __ __ __ __ __ __ __ __ __ __ __ __ __ __
 72
    65
 73
     2
 40
0.375
 49
0.25
 74
     0
 49
-0.125
 74
     0
  0
LTYPE
  5
31
100
AcDbSymbolTableRecord
100
AcDbLinetypeTableRecord
  2
HIDDEN2
 70
    64
  3
_ _ _ _ _ _ _ _ _ _ _ _ _ _ _ _ _ _ _ _ _ _ _ _
 72
    65
 73
     2
 40
0.1875
 49
0.125
 74
     0
 49
-0.0625
 74
     0
  0
LTYPE
  5
32
100
AcDbSymbolTableRecord
100
AcDbLinetypeTableRecord
  2
PHANTOM
 70
    64
  3
______  __  __  ______  __  __  ______  __  __ 
 72
    65
 73
     6
 40
2.5
 49
1.25
 74
     0
 49
-0.25
 74
     0
 49
0.25
 74
     0
 49
-0.25
 74
     0
 49
0.25
 74
     0
 49
-0.25
 74
     0
  0
ENDTAB
  0
TABLE
  2
LAYER
  5
2
100
AcDbSymbolTable
 70
    15
  0
LAYER
  5
F
100
AcDbSymbolTableRecord
100
AcDbLayerTableRecord
  2
0
 70
    64
 62
     7
  6
CONTINUOUS
  0
LAYER
  5
38
100
AcDbSymbolTableRecord
100
AcDbLayerTableRecord
  2
CENTER
 70
    64
 62
     3
  6
CENTER
  0
LAYER
  5
39
100
AcDbSymbolTableRecord
100
AcDbLayerTableRecord
  2
HASEN
 70
    64
 62
     7
  6
HIDDEN
  0
LAYER
  5
3A
100
AcDbSymbolTableRecord
100
AcDbLayerTableRecord
  2
HOJO
 70
    64
 62
     8
  6
CONTINUOUS
  0
LAYER
  5
3B
100
AcDbSymbolTableRecord
100
AcDbLayerTableRecord
  2
KASOU
 70
     0
 62
     2
  6
PHANTOM
  0
LAYER
  5
3C
100
AcDbSymbolTableRecord
100
AcDbLayerTableRecord
  2
MOJI
 70
    64
 62
     6
  6
CONTINUOUS
  0
LAYER
  5
3D
100
AcDbSymbolTableRecord
100
AcDbLayerTableRecord
  2
SJC
 70
    64
 62
     1
  6
CONTINUOUS
  0
LAYER
  5
3E
100
AcDbSymbolTableRecord
100
AcDbLayerTableRecord
  2
SUNPOU
 70
    64
 62
     4
  6
CONTINUOUS
  0
LAYER
  5
3F
100
AcDbSymbolTableRecord
100
AcDbLayerTableRecord
  2
WAKU
 70
     0
 62
     5
  6
CONTINUOUS
  0
LAYER
  5
40
100
AcDbSymbolTableRecord
100
AcDbLayerTableRecord
  2
DEFPOINTS
 70
    64
 62
     7
  6
CONTINUOUS
  0
LAYER
  5
22C
100
AcDbSymbolTableRecord
100
AcDbLayerTableRecord
  2
ZWAKU
 70
    64
 62
    -7
  6
CONTINUOUS
  0
LAYER
  5
23D
100
AcDbSymbolTableRecord
100
AcDbLayerTableRecord
  2
INFORMATION
 70
    65
 62
     7
  6
CONTINUOUS
  0
LAYER
  5
240
100
AcDbSymbolTableRecord
100
AcDbLayerTableRecord
  2
SJC2
 70
    64
 62
     7
  6
CONTINUOUS
  0
LAYER
  5
241
100
AcDbSymbolTableRecord
100
AcDbLayerTableRecord
  2
MOJI2
 70
    64
 62
     1
  6
CONTINUOUS
  0
LAYER
  5
242
100
AcDbSymbolTableRecord
100
AcDbLayerTableRecord
  2
HATCH
 70
    64
 62
     2
  6
CONTINUOUS
  0
ENDTAB
  0
TABLE
  2
STYLE
  5
3
100
AcDbSymbolTable
 70
    10
  0
STYLE
  5
10
100
AcDbSymbolTableRecord
100
AcDbTextStyleTableRecord
  2
STANDARD
 70
    64
 40
0.0
 41
1.0
 50
0.0
 71
     0
 42
30.0
  3
TXT
  4
BIGFONT
  0
STYLE
  5
2D
100
AcDbSymbolTableRecord
100
AcDbTextStyleTableRecord
  2
USER
 70
    64
 40
0.0
 41
1.0
 50
0.0
 71
     0
 42
30.0
  3
TXT
  4
BIGFONT
  0
STYLE
  5
2E
100
AcDbSymbolTableRecord
100
AcDbTextStyleTableRecord
  2
TEXT3030
 70
    64
 40
30.0
 41
1.0
 50
0.0
 71
     0
 42
30.0
  3
TXT
  4
BIGFONT
  0
STYLE
  5
22D
100
AcDbSymbolTableRecord
100
AcDbTextStyleTableRecord
  2
KANJI
 70
     0
 40
0.0
 41
1.0
 50
0.0
 71
     0
 42
30.0
  3
ROMANS.SHX
  4
BIGFONT.SHX
  0
STYLE
  5
22E
100
AcDbSymbolTableRecord
100
AcDbTextStyleTableRecord
  2
SIMPLEX
 70
     0
 40
0.0
 41
1.0
 50
0.0
 71
     0
 42
30.0
  3
SCRIPTS.SHX
  4

  0
STYLE
  5
253
100
AcDbSymbolTableRecord
100
AcDbTextStyleTableRecord
  2
TATEEXT
 70
    68
 40
0.0
 41
1.0
 50
0.0
 71
     0
 42
30.0
  3
ROMANS
  4
EXTFONT
  0
STYLE
  5
254
100
AcDbSymbolTableRecord
100
AcDbTextStyleTableRecord
  2
TATEBIG
 70
    68
 40
0.0
 41
5.0
 50
0.0
 71
     0
 42
30.0
  3
ROMANS
  4
BIGFONT
  0
STYLE
  5
255
100
AcDbSymbolTableRecord
100
AcDbTextStyleTableRecord
  2
EXT08
 70
    64
 40
0.0
 41
0.8
 50
0.0
 71
     0
 42
30.0
  3
ROMANS
  4
EXTFONT
  0
STYLE
  5
256
100
AcDbSymbolTableRecord
100
AcDbTextStyleTableRecord
  2
EXT
 70
    64
 40
0.0
 41
1.0
 50
0.0
 71
     0
 42
30.0
  3
ROMANS
  4
EXTFONT
  0
STYLE
  5
257
100
AcDbSymbolTableRecord
100
AcDbTextStyleTableRecord
  2
KANJI08
 70
    64
 40
0.0
 41
0.8
 50
0.0
 71
     0
 42
30.0
  3
ROMANS
  4
BIGFONT
  0
ENDTAB
  0
TABLE
  2
VIEW
  5
6
100
AcDbSymbolTable
 70
     0
  0
ENDTAB
  0
TABLE
  2
UCS
  5
7
100
AcDbSymbolTable
 70
     0
  0
ENDTAB
  0
TABLE
  2
APPID
  5
9
100
AcDbSymbolTable
 70
     1
  0
APPID
  5
11
100
AcDbSymbolTableRecord
100
AcDbRegAppTableRecord
  2
ACAD
 70
    64
  0
ENDTAB
  0
TABLE
  2
DIMSTYLE
  5
A
100
AcDbSymbolTable
 70
     2
  0
DIMSTYLE
105
35
100
AcDbSymbolTableRecord
100
AcDbDimStyleTableRecord
  2
S01-10AX
 70
    64
  3

  4

  5

  6

  7

 40
1.0
 41
20.0
 42
0.0625
 43
0.38
 44
10.0
 45
0.0
 46
0.0
 47
0.0
 48
0.0
140
30.0
141
0.09
142
0.0
143
25.4
144
1.0
145
0.0
146
0.006
147
0.09
 71
     0
 72
     0
 73
     0
 74
     0
 75
     0
 76
     0
 77
     1
 78
     8
170
     0
171
     2
172
     1
173
     0
174
     1
175
     0
176
     0
177
     0
178
     0
270
     2
271
     4
272
     4
273
     2
274
     2
340
2E
275
     0
280
     0
281
     0
282
     0
283
     1
284
     8
285
     8
286
     8
287
     5
288
     0
  0
DIMSTYLE
105
258
100
AcDbSymbolTableRecord
100
AcDbDimStyleTableRecord
  2
SJC
 70
     0
  3

  4

  5

  6

  7

 40
1.0
 41
0.18
 42
0.0625
 43
0.38
 44
0.18
 45
0.0
 46
0.0
 47
0.0
 48
0.0
140
0.18
141
0.09
142
0.0
143
25.4
144
1.0
145
0.0
146
1.0
147
0.09
 71
     0
 72
     0
 73
     1
 74
     1
 75
     0
 76
     0
 77
     0
 78
     0
170
     0
171
     2
172
     0
173
     0
174
     0
175
     0
176
     0
177
     0
178
     0
270
     2
271
     4
272
     4
273
     2
274
     2
340
10
275
     0
280
     0
281
     0
282
     0
283
     1
284
     0
285
     0
286
     0
287
     3
288
     0
  0
ENDTAB
  0
TABLE
  2
BLOCK_RECORD
  5
1
100
AcDbSymbolTable
 70
     9
  0
BLOCK_RECORD
  5
18
100
AcDbSymbolTableRecord
100
AcDbBlockTableRecord
  2
*MODEL_SPACE
  0
BLOCK_RECORD
  5
15
100
AcDbSymbolTableRecord
100
AcDbBlockTableRecord
  2
*PAPER_SPACE
  0
BLOCK_RECORD
  5
2A
100
AcDbSymbolTableRecord
100
AcDbBlockTableRecord
  2
1-10BASE
  0
BLOCK_RECORD
  5
230
100
AcDbSymbolTableRecord
100
AcDbBlockTableRecord
  2
CALCOMP_TECHJET720A3
  0
BLOCK_RECORD
  5
25E
100
AcDbSymbolTableRecord
100
AcDbBlockTableRecord
  2
*D2
  0
BLOCK_RECORD
  5
26A
100
AcDbSymbolTableRecord
100
AcDbBlockTableRecord
  2
*D3
  0
BLOCK_RECORD
  5
276
100
AcDbSymbolTableRecord
100
AcDbBlockTableRecord
  2
*D4
  0
BLOCK_RECORD
  5
28D
100
AcDbSymbolTableRecord
100
AcDbBlockTableRecord
  2
*D5
  0
BLOCK_RECORD
  5
299
100
AcDbSymbolTableRecord
100
AcDbBlockTableRecord
  2
*D6
  0
BLOCK_RECORD
  5
2C6
100
AcDbSymbolTableRecord
100
AcDbBlockTableRecord
  2
*X7
  0
BLOCK_RECORD
  5
374
100
AcDbSymbolTableRecord
100
AcDbBlockTableRecord
  2
*D8
  0
ENDTAB
  0
ENDSEC
  0
SECTION
  2
BLOCKS
  0
BLOCK
  5
43
100
AcDbEntity
  8
SJC
100
AcDbBlockBegin
  2
*MODEL_SPACE
 70
     0
 10
0.0
 20
0.0
 30
0.0
  3
*MODEL_SPACE
  1

  0
ENDBLK
  5
44
100
AcDbEntity
  8
SJC
100
AcDbBlockEnd
  0
BLOCK
  5
41
100
AcDbEntity
 67
     1
  8
SJC
100
AcDbBlockBegin
  2
*PAPER_SPACE
 70
     0
 10
0.0
 20
0.0
 30
0.0
  3
*PAPER_SPACE
  1

  0
ENDBLK
  5
42
100
AcDbEntity
 67
     1
  8
SJC
100
AcDbBlockEnd
  0
BLOCK
  5
160
100
AcDbEntity
  8
0
100
AcDbBlockBegin
  2
1-10BASE
 70
    64
 10
0.0
 20
0.0
 30
0.0
  3
1-10BASE
  1

  0
ENDBLK
  5
161
100
AcDbEntity
  8
0
100
AcDbBlockEnd
  0
BLOCK
  5
237
100
AcDbEntity
  8
ZWAKU
100
AcDbBlockBegin
  2
CALCOMP_TECHJET720A3
 70
     0
 10
0.0
 20
0.0
 30
0.0
  3
CALCOMP_TECHJET720A3
  1

  0
POLYLINE
  5
231
100
AcDbEntity
  8
ZWAKU
100
AcDb2dPolyline
 66
     1
 10
0.0
 20
0.0
 30
0.0
 70
     1
  0
VERTEX
  5
232
100
AcDbEntity
  8
ZWAKU
100
AcDbVertex
100
AcDb2dVertex
 10
0.0
 20
0.0
 30
0.0
  0
VERTEX
  5
233
100
AcDbEntity
  8
ZWAKU
100
AcDbVertex
100
AcDb2dVertex
 10
0.0
 20
267.0
 30
0.0
  0
VERTEX
  5
234
100
AcDbEntity
  8
ZWAKU
100
AcDbVertex
100
AcDb2dVertex
 10
370.0
 20
267.0
 30
0.0
  0
VERTEX
  5
235
100
AcDbEntity
  8
ZWAKU
100
AcDbVertex
100
AcDb2dVertex
 10
370.0
 20
0.0
 30
0.0
  0
SEQEND
  5
236
100
AcDbEntity
  8
ZWAKU
  0
ENDBLK
  5
238
100
AcDbEntity
  8
ZWAKU
100
AcDbBlockEnd
  0
BLOCK
  5
518
100
AcDbEntity
  8
0
100
AcDbBlockBegin
  2
*D2
 70
    65
 10
0.0
 20
0.0
 30
0.0
  3
*D2
  1

  0
LINE
  5
519
100
AcDbEntity
  8
0
  6
BYBLOCK
100
AcDbLine
 10
1170.0
 20
1660.0
 30
0.0
 11
778.723172
 21
1660.0
 31
0.0
  0
LINE
  5
51A
100
AcDbEntity
  8
0
  6
BYBLOCK
100
AcDbLine
 10
781.154607
 20
860.00002
 30
0.0
 11
778.723172
 21
860.00002
 31
0.0
  0
LINE
  5
51B
100
AcDbEntity
  8
0
  6
BYBLOCK
100
AcDbLine
 10
788.723172
 20
1640.0
 30
0.0
 11
788.723172
 21
880.00002
 31
0.0
  0
SOLID
  5
51C
100
AcDbEntity
  8
0
  6
BYBLOCK
100
AcDbTrace
 10
785.389838
 20
1640.0
 30
0.0
 11
792.056505
 21
1640.0
 31
0.0
 12
788.723172
 22
1660.0
 32
0.0
 13
788.723172
 23
1660.0
 33
0.0
  0
SOLID
  5
51D
100
AcDbEntity
  8
0
  6
BYBLOCK
100
AcDbTrace
 10
785.389838
 20
880.00002
 30
0.0
 11
792.056505
 21
880.00002
 31
0.0
 12
788.723172
 22
860.00002
 32
0.0
 13
788.723172
 23
860.00002
 33
0.0
  0
MTEXT
  5
51E
100
AcDbEntity
  8
0
  6
BYBLOCK
100
AcDbMText
 10
761.723172
 20
1260.00001
 30
0.0
 40
30.0
 41
0.0
 71
     5
 72
     1
  1
\A1;800
  7
KANJI08
 11
0.0
 21
1.0
 31
0.0
  0
POINT
  5
51F
100
AcDbEntity
  8
DEFPOINTS
  6
BYBLOCK
 62
     0
100
AcDbPoint
 10
1180.0
 20
1660.0
 30
0.0
  0
POINT
  5
520
100
AcDbEntity
  8
DEFPOINTS
  6
BYBLOCK
 62
     0
100
AcDbPoint
 10
791.154607
 20
860.00002
 30
0.0
  0
POINT
  5
521
100
AcDbEntity
  8
DEFPOINTS
  6
BYBLOCK
 62
     0
100
AcDbPoint
 10
788.723172
 20
860.00002
 30
0.0
  0
ENDBLK
  5
522
100
AcDbEntity
  8
0
100
AcDbBlockEnd
  0
BLOCK
  5
523
100
AcDbEntity
  8
0
100
AcDbBlockBegin
  2
*D3
 70
    65
 10
0.0
 20
0.0
 30
0.0
  3
*D3
  1

  0
LINE
  5
524
100
AcDbEntity
  8
0
  6
BYBLOCK
100
AcDbLine
 10
1170.0
 20
1660.0
 30
0.0
 11
696.977204
 21
1660.0
 31
0.0
  0
LINE
  5
525
100
AcDbEntity
  8
0
  6
BYBLOCK
100
AcDbLine
 10
970.0
 20
460.0
 30
0.0
 11
696.977204
 21
460.0
 31
0.0
  0
LINE
  5
526
100
AcDbEntity
  8
0
  6
BYBLOCK
100
AcDbLine
 10
706.977204
 20
1640.0
 30
0.0
 11
706.977204
 21
480.0
 31
0.0
  0
SOLID
  5
527
100
AcDbEntity
  8
0
  6
BYBLOCK
100
AcDbTrace
 10
703.643871
 20
1640.0
 30
0.0
 11
710.310537
 21
1640.0
 31
0.0
 12
706.977204
 22
1660.0
 32
0.0
 13
706.977204
 23
1660.0
 33
0.0
  0
SOLID
  5
528
100
AcDbEntity
  8
0
  6
BYBLOCK
100
AcDbTrace
 10
703.643871
 20
480.0
 30
0.0
 11
710.310537
 21
480.0
 31
0.0
 12
706.977204
 22
460.0
 32
0.0
 13
706.977204
 23
460.0
 33
0.0
  0
MTEXT
  5
529
100
AcDbEntity
  8
0
  6
BYBLOCK
100
AcDbMText
 10
679.977204
 20
1060.0
 30
0.0
 40
30.0
 41
0.0
 71
     5
 72
     1
  1
\A1;1200
  7
KANJI08
 11
0.0
 21
1.0
 31
0.0
  0
POINT
  5
52A
100
AcDbEntity
  8
DEFPOINTS
  6
BYBLOCK
 62
     0
100
AcDbPoint
 10
1180.0
 20
1660.0
 30
0.0
  0
POINT
  5
52B
100
AcDbEntity
  8
DEFPOINTS
  6
BYBLOCK
 62
     0
100
AcDbPoint
 10
980.0
 20
460.0
 30
0.0
  0
POINT
  5
52C
100
AcDbEntity
  8
DEFPOINTS
  6
BYBLOCK
 62
     0
100
AcDbPoint
 10
706.977204
 20
460.0
 30
0.0
  0
ENDBLK
  5
52D
100
AcDbEntity
  8
0
100
AcDbBlockEnd
  0
BLOCK
  5
4F7
100
AcDbEntity
  8
0
100
AcDbBlockBegin
  2
*D4
 70
    65
 10
0.0
 20
0.0
 30
0.0
  3
*D4
  1

  0
LINE
  5
4F8
100
AcDbEntity
  8
0
  6
BYBLOCK
100
AcDbLine
 10
1170.0
 20
1660.0
 30
0.0
 11
882.277133
 21
1660.0
 31
0.0
  0
LINE
  5
4F9
100
AcDbEntity
  8
0
  6
BYBLOCK
100
AcDbLine
 10
1099.506484
 20
1525.0
 30
0.0
 11
882.277133
 21
1525.0
 31
0.0
  0
LINE
  5
4FA
100
AcDbEntity
  8
0
  6
BYBLOCK
100
AcDbLine
 10
892.277133
 20
1640.0
 30
0.0
 11
892.277133
 21
1545.0
 31
0.0
  0
SOLID
  5
4FB
100
AcDbEntity
  8
0
  6
BYBLOCK
100
AcDbTrace
 10
888.9438
 20
1640.0
 30
0.0
 11
895.610466
 21
1640.0
 31
0.0
 12
892.277133
 22
1660.0
 32
0.0
 13
892.277133
 23
1660.0
 33
0.0
  0
SOLID
  5
4FC
100
AcDbEntity
  8
0
  6
BYBLOCK
100
AcDbTrace
 10
888.9438
 20
1545.0
 30
0.0
 11
895.610466
 21
1545.0
 31
0.0
 12
892.277133
 22
1525.0
 32
0.0
 13
892.277133
 23
1525.0
 33
0.0
  0
MTEXT
  5
4FD
100
AcDbEntity
  8
0
  6
BYBLOCK
100
AcDbMText
 10
865.277133
 20
1592.5
 30
0.0
 40
30.0
 41
0.0
 71
     5
 72
     1
  1
\A1;135
  7
KANJI08
 11
0.0
 21
1.0
 31
0.0
  0
POINT
  5
4FE
100
AcDbEntity
  8
DEFPOINTS
  6
BYBLOCK
 62
     0
100
AcDbPoint
 10
1180.0
 20
1660.0
 30
0.0
  0
POINT
  5
4FF
100
AcDbEntity
  8
DEFPOINTS
  6
BYBLOCK
 62
     0
100
AcDbPoint
 10
1109.506484
 20
1525.0
 30
0.0
  0
POINT
  5
500
100
AcDbEntity
  8
DEFPOINTS
  6
BYBLOCK
 62
     0
100
AcDbPoint
 10
892.277133
 20
1525.0
 30
0.0
  0
ENDBLK
  5
501
100
AcDbEntity
  8
0
100
AcDbBlockEnd
  0
BLOCK
  5
50D
100
AcDbEntity
  8
0
100
AcDbBlockBegin
  2
*D5
 70
    65
 10
0.0
 20
0.0
 30
0.0
  3
*D5
  1

  0
LINE
  5
50E
100
AcDbEntity
  8
0
  6
BYBLOCK
100
AcDbLine
 10
970.0
 20
460.0
 30
0.0
 11
778.723172
 21
460.0
 31
0.0
  0
LINE
  5
50F
100
AcDbEntity
  8
0
  6
BYBLOCK
100
AcDbLine
 10
853.04883
 20
860.0
 30
0.0
 11
778.723172
 21
860.0
 31
0.0
  0
LINE
  5
510
100
AcDbEntity
  8
0
  6
BYBLOCK
100
AcDbLine
 10
788.723172
 20
480.0
 30
0.0
 11
788.723172
 21
840.0
 31
0.0
  0
SOLID
  5
511
100
AcDbEntity
  8
0
  6
BYBLOCK
100
AcDbTrace
 10
785.389838
 20
480.0
 30
0.0
 11
792.056505
 21
480.0
 31
0.0
 12
788.723172
 22
460.0
 32
0.0
 13
788.723172
 23
460.0
 33
0.0
  0
SOLID
  5
512
100
AcDbEntity
  8
0
  6
BYBLOCK
100
AcDbTrace
 10
785.389838
 20
840.0
 30
0.0
 11
792.056505
 21
840.0
 31
0.0
 12
788.723172
 22
860.0
 32
0.0
 13
788.723172
 23
860.0
 33
0.0
  0
MTEXT
  5
513
100
AcDbEntity
  8
0
  6
BYBLOCK
100
AcDbMText
 10
761.723172
 20
660.0
 30
0.0
 40
30.0
 41
0.0
 71
     5
 72
     1
  1
\A1;400
  7
KANJI08
 11
0.0
 21
1.0
 31
0.0
  0
POINT
  5
514
100
AcDbEntity
  8
DEFPOINTS
  6
BYBLOCK
 62
     0
100
AcDbPoint
 10
980.0
 20
460.0
 30
0.0
  0
POINT
  5
515
100
AcDbEntity
  8
DEFPOINTS
  6
BYBLOCK
 62
     0
100
AcDbPoint
 10
863.04883
 20
860.0
 30
0.0
  0
POINT
  5
516
100
AcDbEntity
  8
DEFPOINTS
  6
BYBLOCK
 62
     0
100
AcDbPoint
 10
788.723172
 20
860.0
 30
0.0
  0
ENDBLK
  5
517
100
AcDbEntity
  8
0
100
AcDbBlockEnd
  0
BLOCK
  5
502
100
AcDbEntity
  8
0
100
AcDbBlockBegin
  2
*D6
 70
    65
 10
0.0
 20
0.0
 30
0.0
  3
*D6
  1

  0
LINE
  5
503
100
AcDbEntity
  8
0
  6
BYBLOCK
100
AcDbLine
 10
980.0
 20
446.716698
 30
0.0
 11
980.0
 21
300.076318
 31
0.0
  0
LINE
  5
504
100
AcDbEntity
  8
0
  6
BYBLOCK
100
AcDbLine
 10
1380.0
 20
446.716698
 30
0.0
 11
1380.0
 21
300.076318
 31
0.0
  0
LINE
  5
505
100
AcDbEntity
  8
0
  6
BYBLOCK
100
AcDbLine
 10
1000.0
 20
310.076318
 30
0.0
 11
1360.0
 21
310.076318
 31
0.0
  0
SOLID
  5
506
100
AcDbEntity
  8
0
  6
BYBLOCK
100
AcDbTrace
 10
1000.0
 20
313.409651
 30
0.0
 11
1000.0
 21
306.742985
 31
0.0
 12
980.0
 22
310.076318
 32
0.0
 13
980.0
 23
310.076318
 33
0.0
  0
SOLID
  5
507
100
AcDbEntity
  8
0
  6
BYBLOCK
100
AcDbTrace
 10
1360.0
 20
313.409651
 30
0.0
 11
1360.0
 21
306.742985
 31
0.0
 12
1380.0
 22
310.076318
 32
0.0
 13
1380.0
 23
310.076318
 33
0.0
  0
MTEXT
  5
508
100
AcDbEntity
  8
0
  6
BYBLOCK
100
AcDbMText
 10
1180.0
 20
337.076318
 30
0.0
 40
30.0
 41
0.0
 71
     5
 72
     1
  1
\A1;□400
  7
KANJI08
  0
POINT
  5
509
100
AcDbEntity
  8
DEFPOINTS
  6
BYBLOCK
 62
     0
100
AcDbPoint
 10
980.0
 20
456.716698
 30
0.0
  0
POINT
  5
50A
100
AcDbEntity
  8
DEFPOINTS
  6
BYBLOCK
 62
     0
100
AcDbPoint
 10
1380.0
 20
456.716698
 30
0.0
  0
POINT
  5
50B
100
AcDbEntity
  8
DEFPOINTS
  6
BYBLOCK
 62
     0
100
AcDbPoint
 10
1380.0
 20
310.076318
 30
0.0
  0
ENDBLK
  5
50C
100
AcDbEntity
  8
0
100
AcDbBlockEnd
  0
BLOCK
  5
2C7
100
AcDbEntity
  8
0
100
AcDbBlockBegin
  2
*X7
 70
    65
 10
0.0
 20
0.0
 30
0.0
  3
*X7
  1

  0
LINE
  5
2C9
100
AcDbEntity
  8
0
 62
     0
100
AcDbLine
 10
980.0
 20
626.446609
 30
0.0
 11
1122.85
 21
769.296609
 31
0.0
  0
LINE
  5
2CA
100
AcDbEntity
  8
0
 62
     0
100
AcDbLine
 10
980.0
 20
803.223305
 30
0.0
 11
1036.776695
 21
860.0
 31
0.0
  0
LINE
  5
2CB
100
AcDbEntity
  8
0
 62
     0
100
AcDbLine
 10
990.330086
 20
460.0
 30
0.0
 11
1122.85
 21
592.519914
 31
0.0
  0
LINE
  5
2CC
100
AcDbEntity
  8
0
 62
     0
100
AcDbLine
 10
1237.15
 20
706.819914
 30
0.0
 11
1380.0
 21
849.669914
 31
0.0
  0
LINE
  5
2CD
100
AcDbEntity
  8
0
 62
     0
100
AcDbLine
 10
1237.15
 20
530.043219
 30
0.0
 11
1380.0
 21
672.893219
 31
0.0
  0
LINE
  5
2CE
100
AcDbEntity
  8
0
 62
     0
100
AcDbLine
 10
1343.883476
 20
460.0
 30
0.0
 11
1380.0
 21
496.116524
 31
0.0
  0
LINE
  5
2CF
100
AcDbEntity
  8
0
 62
     0
100
AcDbLine
 10
980.0
 20
471.767001
 30
0.0
 11
1122.85
 21
614.617001
 31
0.0
  0
LINE
  5
2D0
100
AcDbEntity
  8
0
 62
     0
100
AcDbLine
 10
1237.15
 20
728.917001
 30
0.0
 11
1368.232999
 21
860.0
 31
0.0
  0
LINE
  5
2D1
100
AcDbEntity
  8
0
 62
     0
100
AcDbLine
 10
980.0
 20
648.543696
 30
0.0
 11
1122.85
 21
791.393696
 31
0.0
  0
LINE
  5
2D2
100
AcDbEntity
  8
0
 62
     0
100
AcDbLine
 10
980.0
 20
825.320392
 30
0.0
 11
1014.679608
 21
860.0
 31
0.0
  0
LINE
  5
2D3
100
AcDbEntity
  8
0
 62
     0
100
AcDbLine
 10
1237.15
 20
552.140306
 30
0.0
 11
1380.0
 21
694.990306
 31
0.0
  0
LINE
  5
2D4
100
AcDbEntity
  8
0
 62
     0
100
AcDbLine
 10
1321.78639
 20
460.0
 30
0.0
 11
1380.0
 21
518.21361
 31
0.0
  0
LINE
  5
2D5
100
AcDbEntity
  8
0
 62
     0
100
AcDbLine
 10
980.0
 20
493.864088
 30
0.0
 11
1122.85
 21
636.714088
 31
0.0
  0
LINE
  5
2D6
100
AcDbEntity
  8
0
 62
     0
100
AcDbLine
 10
1237.15
 20
751.014088
 30
0.0
 11
1346.135912
 21
860.0
 31
0.0
  0
LINE
  5
2D7
100
AcDbEntity
  8
0
 62
     0
100
AcDbLine
 10
980.0
 20
670.640783
 30
0.0
 11
1122.85
 21
813.490783
 31
0.0
  0
LINE
  5
2D8
100
AcDbEntity
  8
0
 62
     0
100
AcDbLine
 10
980.0
 20
847.417479
 30
0.0
 11
992.582521
 21
860.0
 31
0.0
  0
LINE
  5
2D9
100
AcDbEntity
  8
0
 62
     0
100
AcDbLine
 10
1237.15
 20
574.237393
 30
0.0
 11
1380.0
 21
717.087393
 31
0.0
  0
LINE
  5
2DA
100
AcDbEntity
  8
0
 62
     0
100
AcDbLine
 10
1299.689303
 20
460.0
 30
0.0
 11
1380.0
 21
540.310697
 31
0.0
  0
ENDBLK
  5
2DB
100
AcDbEntity
  8
0
100
AcDbBlockEnd
  0
BLOCK
  5
4EB
100
AcDbEntity
  8
0
100
AcDbBlockBegin
  2
*D8
 70
    65
 10
0.0
 20
0.0
 30
0.0
  3
*D8
  1

  0
LINE
  5
4EC
100
AcDbEntity
  8
0
  6
BYBLOCK
100
AcDbLine
 10
2251.98438
 20
1971.344895
 30
0.0
 11
2253.914039
 21
1971.004645
 31
0.0
  0
ARC
  5
4ED
100
AcDbEntity
  8
0
  6
BYBLOCK
100
AcDbCircle
 10
2105.636359
 20
1997.15
 30
0.0
 40
140.565101
100
AcDbArc
 50
198.159098
 51
341.840902
  0
SOLID
  5
4EE
100
AcDbEntity
  8
0
  6
BYBLOCK
100
AcDbTrace
 10
1968.838938
 20
1952.531052
 30
0.0
 11
1975.30533
 21
1954.152844
 31
0.0
 12
1967.206758
 22
1972.741126
 32
0.0
 13
1967.206758
 23
1972.741126
 33
0.0
  0
SOLID
  5
4EF
100
AcDbEntity
  8
0
  6
BYBLOCK
100
AcDbTrace
 10
2235.967389
 20
1954.152844
 30
0.0
 11
2242.433781
 21
1952.531052
 31
0.0
 12
2244.065961
 22
1972.741126
 32
0.0
 13
2244.065961
 23
1972.741126
 33
0.0
  0
MTEXT
  5
4F0
100
AcDbEntity
  8
0
  6
BYBLOCK
100
AcDbMText
 10
2105.636359
 20
1883.584899
 30
0.0
 40
30.0
 41
0.0
 71
     5
 72
     1
  1
\A1;160\U+00B0
  7
KANJI08
  0
POINT
  5
4F1
100
AcDbEntity
  8
DEFPOINTS
  6
BYBLOCK
 62
     0
100
AcDbPoint
 10
2042.550857
 20
1871.536437
 30
0.0
  0
POINT
  5
4F2
100
AcDbEntity
  8
DEFPOINTS
  6
BYBLOCK
 62
     0
100
AcDbPoint
 10
2105.636359
 20
1997.15
 30
0.0
  0
POINT
  5
4F3
100
AcDbEntity
  8
DEFPOINTS
  6
BYBLOCK
 62
     0
100
AcDbPoint
 10
1862.241123
 20
1954.232853
 30
0.0
  0
POINT
  5
4F4
100
AcDbEntity
  8
DEFPOINTS
  6
BYBLOCK
 62
     0
100
AcDbPoint
 10
2105.636359
 20
1997.15
 30
0.0
  0
POINT
  5
4F5
100
AcDbEntity
  8
DEFPOINTS
  6
BYBLOCK
 62
     0
100
AcDbPoint
 10
2242.136302
 20
1973.081377
 30
0.0
  0
ENDBLK
  5
4F6
100
AcDbEntity
  8
0
100
AcDbBlockEnd
  0
ENDSEC
  0
SECTION
  2
ENTITIES
  0
LINE
  5
177
100
AcDbEntity
  8
SJC
100
AcDbLine
 10
980.0
 20
460.0
 30
0.0
 11
1380.0
 21
460.0
 31
0.0
1001
ACAD
1000
ASC_BOUNDS
1002
{
1070
    19
1002
}
  0
LINE
  5
178
100
AcDbEntity
  8
SJC
100
AcDbLine
 10
1237.15
 20
860.0
 30
0.0
 11
1528.602827
 21
860.0
 31
0.0
1001
ACAD
1000
ASC_BOUNDS
1002
{
1070
    19
1002
}
  0
LINE
  5
17E
100
AcDbEntity
  8
SJC
100
AcDbLine
 10
1122.85
 20
1602.85
 30
0.0
 11
1122.85
 21
460.0
 31
0.0
1001
ACAD
1000
ASC_BOUNDS
1002
{
1070
    19
1002
}
  0
LINE
  5
17F
100
AcDbEntity
  8
SJC
100
AcDbLine
 10
1237.15
 20
1602.85
 30
0.0
 11
1237.15
 21
460.0
 31
0.0
1001
ACAD
1000
ASC_BOUNDS
1002
{
1070
    19
1002
}
  0
LINE
  5
180
100
AcDbEntity
  8
SJC
100
AcDbLine
 10
1122.85
 20
1602.85
 30
0.0
 11
1237.15
 21
1602.85
 31
0.0
  0
DIMENSION
  5
181
100
AcDbEntity
  8
SUNPOU
100
AcDbDimension
  2
*D3
 10
706.977204
 20
460.0
 30
0.0
 11
679.977204
 21
1060.0
 31
0.0
 70
    32
  3
SJC
100
AcDbAlignedDimension
 13
1180.0
 23
1660.0
 33
0.0
 14
980.0
 24
460.0
 34
0.0
 50
90.0
100
AcDbRotatedDimension
1001
ACAD
1000
DSTYLE
1002
{
1070
    78
1070
     8
1070
   140
1040
3.0
1070
   340
1005
257
1070
    74
1070
     0
1070
   172
1070
     1
1070
    73
1070
     0
1070
    77
1070
     1
1070
    40
1040
10.0
1070
   147
1040
1.2
1070
   287
1070
     5
1070
    42
1040
1.0
1070
    44
1040
1.0
1070
    43
1040
6.0
1070
   271
1070
     2
1070
   178
1070
   256
1070
   177
1070
   256
1070
   176
1070
   256
1070
    41
1040
2.0
1002
}
  0
DIMENSION
  5
182
100
AcDbEntity
  8
SUNPOU
100
AcDbDimension
  2
*D2
 10
788.723172
 20
860.00002
 30
0.0
 11
761.723172
 21
1260.00001
 31
0.0
 70
    32
  3
SJC
100
AcDbAlignedDimension
 13
1180.0
 23
1660.0
 33
0.0
 14
791.154607
 24
860.00002
 34
0.0
 50
90.0
100
AcDbRotatedDimension
1001
ACAD
1000
DSTYLE
1002
{
1070
    78
1070
     8
1070
   140
1040
3.0
1070
   340
1005
257
1070
    74
1070
     0
1070
   172
1070
     1
1070
    73
1070
     0
1070
    77
1070
     1
1070
    40
1040
10.0
1070
   147
1040
1.2
1070
   287
1070
     5
1070
    42
1040
1.0
1070
    44
1040
1.0
1070
    43
1040
6.0
1070
   271
1070
     2
1070
   178
1070
   256
1070
   177
1070
   256
1070
   176
1070
   256
1070
    41
1040
2.0
1002
}
  0
DIMENSION
  5
183
100
AcDbEntity
  8
SUNPOU
100
AcDbDimension
  2
*D5
 10
788.723172
 20
860.0
 30
0.0
 11
761.723172
 21
660.0
 31
0.0
 70
    32
  3
SJC
100
AcDbAlignedDimension
 13
980.0
 23
460.0
 33
0.0
 14
863.04883
 24
860.0
 34
0.0
 50
90.0
100
AcDbRotatedDimension
1001
ACAD
1000
DSTYLE
1002
{
1070
    78
1070
     8
1070
   140
1040
3.0
1070
   340
1005
257
1070
    74
1070
     0
1070
   172
1070
     1
1070
    73
1070
     0
1070
    77
1070
     1
1070
    40
1040
10.0
1070
   147
1040
1.2
1070
   287
1070
     5
1070
    42
1040
1.0
1070
    44
1040
1.0
1070
    43
1040
6.0
1070
   271
1070
     2
1070
   178
1070
   256
1070
   177
1070
   256
1070
   176
1070
   256
1070
    41
1040
2.0
1002
}
  0
TEXT
  5
184
100
AcDbEntity
  8
MOJI2
100
AcDbText
 10
465.008005
 20
2105.705649
 30
0.0
 40
40.0
  1
車止め CS6-114-80W
 41
0.8
  7
KANJI08
100
AcDbText
  0
LINE
  5
185
100
AcDbEntity
  8
CENTER
100
AcDbLine
 10
1180.0
 20
1687.249512
 30
0.0
 11
1180.0
 21
460.0
 31
0.0
  0
LINE
  5
187
100
AcDbEntity
  8
MOJI
100
AcDbLine
 10
1339.9
 20
1225.0
 30
0.0
 11
1815.026183
 21
1225.0
 31
0.0
  0
TEXT
  5
188
100
AcDbEntity
  8
MOJI
100
AcDbText
 10
1357.655161
 20
1229.721424
 30
0.0
 40
30.0
  1
支柱 %%C114.3×t4.5 STK400
 41
0.8
  7
KANJI08
100
AcDbText
  0
TEXT
  5
189
100
AcDbEntity
  8
MOJI
100
AcDbText
 10
1405.181908
 20
1188.383529
 30
0.0
 40
30.0
  1
亜鉛めっき＋静電粉体塗装
 41
0.8
  7
KANJI08
100
AcDbText
  0
LINE
  5
18A
100
AcDbEntity
  8
MOJI
100
AcDbLine
 10
1339.55
 20
1785.0
 30
0.0
 11
1655.616285
 21
1785.0
 31
0.0
  0
TEXT
  5
18B
100
AcDbEntity
  8
MOJI
100
AcDbText
 10
1344.801314
 20
1793.964351
 30
0.0
 40
30.0
  1
キャップ 　アルミ合金
 41
0.8
  7
KANJI08
100
AcDbText
  0
TEXT
  5
18C
100
AcDbEntity
  8
MOJI
100
AcDbText
 10
1410.024604
 20
1750.509315
 30
0.0
 40
30.0
  1
静電粉体塗装
 41
0.8
  7
KANJI08
100
AcDbText
  0
LINE
  5
18D
100
AcDbEntity
  8
SJC
100
AcDbLine
 10
980.0
 20
860.0
 30
0.0
 11
980.0
 21
460.0
 31
0.0
1001
ACAD
1000
ASC_BOUNDS
1002
{
1070
    19
1002
}
  0
LINE
  5
18E
100
AcDbEntity
  8
SJC
100
AcDbLine
 10
1380.0
 20
860.0
 30
0.0
 11
1380.0
 21
460.0
 31
0.0
1001
ACAD
1000
ASC_BOUNDS
1002
{
1070
    19
1002
}
  0
DIMENSION
  5
18F
100
AcDbEntity
  8
SUNPOU
100
AcDbDimension
  2
*D6
 10
1380.0
 20
310.076318
 30
0.0
 11
1180.0
 21
337.076318
 31
0.0
 70
    32
  1
□400
  3
SJC
100
AcDbAlignedDimension
 13
980.0
 23
456.716698
 33
0.0
 14
1380.0
 24
456.716698
 34
0.0
100
AcDbRotatedDimension
1001
ACAD
1000
DSTYLE
1002
{
1070
    78
1070
     8
1070
   140
1040
3.0
1070
   340
1005
257
1070
    74
1070
     0
1070
   172
1070
     1
1070
    73
1070
     0
1070
    77
1070
     1
1070
    40
1040
10.0
1070
   147
1040
1.2
1070
   287
1070
     5
1070
    42
1040
1.0
1070
    44
1040
1.0
1070
    43
1040
6.0
1070
   271
1070
     2
1070
   178
1070
   256
1070
   177
1070
   256
1070
   176
1070
   256
1070
    41
1040
2.0
1002
}
  0
ARC
  5
19E
100
AcDbEntity
  8
SJC
100
AcDbCircle
 10
1180.0
 20
1602.85
 30
0.0
 40
57.15
100
AcDbArc
 50
0.0
 51
180.0
  0
LINE
  5
1A1
100
AcDbEntity
  8
CENTER
100
AcDbLine
 10
1112.85
 20
1525.0
 30
0.0
 11
1247.15
 21
1525.0
 31
0.0
  0
CIRCLE
  5
1A2
100
AcDbEntity
  8
SJC
100
AcDbCircle
 10
1180.0
 20
1525.0
 30
0.0
 40
32.0
  0
DIMENSION
  5
1A3
100
AcDbEntity
  8
SUNPOU
100
AcDbDimension
  2
*D4
 10
892.277133
 20
1525.0
 30
0.0
 11
865.277133
 21
1592.5
 31
0.0
 70
    32
  3
SJC
100
AcDbAlignedDimension
 13
1180.0
 23
1660.0
 33
0.0
 14
1109.506484
 24
1525.0
 34
0.0
 50
90.0
100
AcDbRotatedDimension
1001
ACAD
1000
DSTYLE
1002
{
1070
    78
1070
     8
1070
   140
1040
3.0
1070
   340
1005
257
1070
    74
1070
     0
1070
   172
1070
     1
1070
    73
1070
     0
1070
    77
1070
     1
1070
    40
1040
10.0
1070
   147
1040
1.2
1070
   287
1070
     5
1070
    42
1040
1.0
1070
    44
1040
1.0
1070
    43
1040
6.0
1070
   271
1070
     2
1070
   178
1070
   256
1070
   177
1070
   256
1070
   176
1070
   256
1070
    41
1040
2.0
1002
}
  0
LINE
  5
1A4
100
AcDbEntity
  8
SJC
100
AcDbLine
 10
2048.486359
 20
1602.85
 30
0.0
 11
2048.486359
 21
460.0
 31
0.0
  0
LINE
  5
1A5
100
AcDbEntity
  8
SJC
100
AcDbLine
 10
2162.786359
 20
1602.85
 30
0.0
 11
2162.786359
 21
460.0
 31
0.0
  0
LINE
  5
1A7
100
AcDbEntity
  8
SJC
100
AcDbLine
 10
2305.636359
 20
860.0
 30
0.0
 11
2305.636359
 21
460.0
 31
0.0
  0
LINE
  5
1A8
100
AcDbEntity
  8
SJC
100
AcDbLine
 10
1905.636359
 20
860.0
 30
0.0
 11
1905.636359
 21
460.0
 31
0.0
  0
LINE
  5
1AC
100
AcDbEntity
  8
SJC
100
AcDbLine
 10
1905.636359
 20
460.0
 30
0.0
 11
2305.636359
 21
460.0
 31
0.0
  0
LINE
  5
1B2
100
AcDbEntity
  8
SJC
100
AcDbLine
 10
2162.786359
 20
860.0
 30
0.0
 11
2452.236407
 21
860.0
 31
0.0
  0
LINE
  5
1B6
100
AcDbEntity
  8
SJC
100
AcDbLine
 10
1738.486359
 20
860.0
 30
0.0
 11
2048.486359
 21
860.0
 31
0.0
  0
LINE
  5
1BF
100
AcDbEntity
  8
SJC
100
AcDbLine
 10
2048.486359
 20
1602.85
 30
0.0
 11
2162.786359
 21
1602.85
 31
0.0
  0
LINE
  5
1C0
100
AcDbEntity
  8
CENTER
100
AcDbLine
 10
2020.636359
 20
1525.0
 30
0.0
 11
2090.636359
 21
1525.0
 31
0.0
  0
ARC
  5
1C1
100
AcDbEntity
  8
SJC
100
AcDbCircle
 10
2105.636359
 20
1602.85
 30
0.0
 40
57.15
100
AcDbArc
 50
0.0
 51
180.0
  0
CIRCLE
  5
1C3
100
AcDbEntity
  8
SJC
100
AcDbCircle
 10
2105.636359
 20
1997.15
 30
0.0
 40
57.15
  0
LINE
  5
1C4
100
AcDbEntity
  8
CENTER
100
AcDbLine
 10
2105.636359
 20
1687.249512
 30
0.0
 11
2105.636359
 21
460.0
 31
0.0
  0
LINE
  5
1C5
100
AcDbEntity
  8
MOJI
100
AcDbLine
 10
1346.660725
 20
1674.994667
 30
0.0
 11
1658.455725
 21
1674.994667
 31
0.0
  0
TEXT
  5
1C6
100
AcDbEntity
  8
MOJI
100
AcDbText
 10
1351.910258
 20
1683.959018
 30
0.0
 40
30.0
  1
スワレフレックス%%C64
 41
0.8
  7
KANJI08
100
AcDbText
  0
TEXT
  5
1C8
100
AcDbEntity
  8
MOJI
100
AcDbText
 10
1399.918498
 20
1633.769566
 30
0.0
 40
30.0
  1
（ガラスビーズ）
 41
0.8
  7
KANJI08
100
AcDbText
  0
TEXT
  5
1CB
100
AcDbEntity
  8
MOJI
100
AcDbText
 10
760.732446
 20
1797.241588
 30
0.0
 40
30.0
  1
リベット NA 6-4
 41
0.8
  7
KANJI08
100
AcDbText
  0
CIRCLE
  5
1CC
100
AcDbEntity
  8
SJC2
100
AcDbCircle
 10
1180.0
 20
1549.0
 30
0.0
 40
3.0
  0
CIRCLE
  5
1CF
100
AcDbEntity
  8
SJC2
100
AcDbCircle
 10
1180.0
 20
1501.0
 30
0.0
 40
3.0
  0
LINE
  5
1D0
100
AcDbEntity
  8
CENTER
100
AcDbLine
 10
2120.636359
 20
1525.0
 30
0.0
 11
2190.636359
 21
1525.0
 31
0.0
  0
ARC
  5
1D1
100
AcDbEntity
  8
HASEN
100
AcDbCircle
 10
2012.372985
 20
1980.705151
 30
0.0
 40
57.15
100
AcDbArc
 50
335.949042
 51
44.050958
  0
ARC
  5
1D2
100
AcDbEntity
  8
HASEN
100
AcDbCircle
 10
2198.899733
 20
1980.705151
 30
0.0
 40
57.15
100
AcDbArc
 50
135.949042
 51
204.050958
  0
LINE
  5
1D4
100
AcDbEntity
  8
CENTER
100
AcDbLine
 10
2105.636359
 20
1997.15
 30
0.0
 11
2279.903401
 21
1966.422019
 31
0.0
  0
DIMENSION
  5
1D5
100
AcDbEntity
  8
SUNPOU
100
AcDbDimension
  2
*D8
 10
2242.136302
 20
1973.081377
 30
0.0
 11
2105.636359
 21
1883.584899
 31
0.0
 70
    34
  3
SJC
100
AcDb2LineAngularDimension
 13
1862.241123
 23
1954.232853
 33
0.0
 14
2105.636359
 24
1997.15
 34
0.0
 15
2105.636359
 25
1997.15
 35
0.0
 16
2106.171122
 26
1856.585916
 36
0.0
1001
ACAD
1000
DSTYLE
1002
{
1070
    78
1070
     8
1070
   140
1040
3.0
1070
   340
1005
257
1070
    74
1070
     0
1070
   172
1070
     1
1070
    73
1070
     0
1070
    77
1070
     1
1070
    40
1040
10.0
1070
   147
1040
1.2
1070
    42
1040
1.0
1070
    44
1040
1.0
1070
    43
1040
6.0
1070
   271
1070
     2
1070
   178
1070
   256
1070
   177
1070
   256
1070
   176
1070
   256
1070
    41
1040
2.0
1002
}
  0
ARC
  5
1D8
100
AcDbEntity
  8
SJC
100
AcDbCircle
 10
2024.673295
 20
1525.0
 30
0.0
 40
39.888119
100
AcDbArc
 50
306.655084
 51
53.344916
  0
ARC
  5
1D9
100
AcDbEntity
  8
SJC
100
AcDbCircle
 10
2186.599424
 20
1525.0
 30
0.0
 40
39.888119
100
AcDbArc
 50
126.655084
 51
233.344916
  0
LINE
  5
1DA
100
AcDbEntity
  8
SJC
100
AcDbLine
 10
3189.173986
 20
1627.81988
 30
0.0
 11
3224.173986
 21
1667.81988
 31
0.0
  0
LINE
  5
1DB
100
AcDbEntity
  8
SUNPOU
100
AcDbLine
 10
3159.173986
 20
1667.81988
 30
0.0
 11
3259.173986
 21
1667.81988
 31
0.0
  0
LINE
  5
1DC
100
AcDbEntity
  8
CENTER
100
AcDbLine
 10
3246.204206
 20
1750.0
 30
0.0
 11
2733.333308
 21
1750.0
 31
0.0
  0
LINE
  5
1DD
100
AcDbEntity
  8
MOJI
100
AcDbLine
 10
3123.333308
 20
1005.0
 30
0.0
 11
3441.686084
 21
1005.0
 31
0.0
  0
LINE
  5
1DE
100
AcDbEntity
  8
CENTER
100
AcDbLine
 10
2733.333308
 20
795.0
 30
0.0
 11
3223.333308
 21
795.0
 31
0.0
  0
LINE
  5
1DF
100
AcDbEntity
  8
SJC
100
AcDbLine
 10
2933.333308
 20
635.0
 30
0.0
 11
2933.333308
 21
445.0
 31
0.0
  0
LINE
  5
1E0
100
AcDbEntity
  8
SJC
100
AcDbLine
 10
2955.833308
 20
629.637191
 30
0.0
 11
2955.833308
 21
432.395477
 31
0.0
  0
LINE
  5
1E1
100
AcDbEntity
  8
SJC
100
AcDbLine
 10
2908.333308
 20
459.005025
 30
0.0
 11
2980.833308
 21
418.390452
 31
0.0
  0
LINE
  5
1E2
100
AcDbEntity
  8
SJC2
100
AcDbLine
 10
2987.333308
 20
1750.0
 30
0.0
 11
2987.333308
 21
1587.81988
 31
0.0
  0
LINE
  5
1E3
100
AcDbEntity
  8
SJC2
100
AcDbLine
 10
2996.895338
 20
1750.0
 30
0.0
 11
2996.895338
 21
1730.0
 31
0.0
  0
LINE
  5
1E4
100
AcDbEntity
  8
SJC2
100
AcDbLine
 10
3006.059393
 20
1740.0
 30
0.0
 11
3006.059393
 21
1587.81988
 31
0.0
  0
ARC
  5
1E5
100
AcDbEntity
  8
SJC2
100
AcDbCircle
 10
2989.020808
 20
1730.48127
 30
0.0
 40
7.6875
100
AcDbArc
 50
102.680383
 51
257.319617
  0
LINE
  5
1E6
100
AcDbEntity
  8
SJC
100
AcDbLine
 10
3013.333308
 20
1750.0
 30
0.0
 11
3013.333308
 21
1591.453477
 31
0.0
  0
ARC
  5
1E7
100
AcDbEntity
  8
SJC
100
AcDbCircle
 10
3219.083308
 20
1750.0
 30
0.0
 40
285.75
100
AcDbArc
 50
99.913097
 51
260.086903
  0
ARC
  5
1E8
100
AcDbEntity
  8
SJC
100
AcDbCircle
 10
3219.083308
 20
1750.0
 30
0.0
 40
265.75
100
AcDbArc
 50
99.913097
 51
207.007474
  0
LINE
  5
1E9
100
AcDbEntity
  8
SJC
100
AcDbLine
 10
2933.333308
 20
1171.384339
 30
0.0
 11
2933.333308
 21
955.0
 31
0.0
  0
LINE
  5
1EA
100
AcDbEntity
  8
SJC
100
AcDbLine
 10
2955.833308
 20
1131.220184
 30
0.0
 11
2955.833308
 21
960.362809
 31
0.0
  0
LINE
  5
1EB
100
AcDbEntity
  8
SJC
100
AcDbLine
 10
3013.333308
 20
955.0
 30
0.0
 11
3013.333308
 21
629.0
 31
0.0
  0
LINE
  5
1EC
100
AcDbEntity
  8
SJC2
100
AcDbLine
 10
2987.333308
 20
638.0
 30
0.0
 11
3007.333308
 21
638.0
 31
0.0
  0
LINE
  5
1ED
100
AcDbEntity
  8
SJC
100
AcDbLine
 10
2961.833308
 20
629.0
 30
0.0
 11
3013.333308
 21
629.0
 31
0.0
  0
LINE
  5
1EE
100
AcDbEntity
  8
SJC
100
AcDbLine
 10
2965.075464
 20
635.0
 30
0.0
 11
3007.333308
 21
635.0
 31
0.0
  0
LINE
  5
1EF
100
AcDbEntity
  8
SJC2
100
AcDbLine
 10
2987.333308
 20
682.5
 30
0.0
 11
2997.333308
 21
682.5
 31
0.0
  0
LINE
  5
1F0
100
AcDbEntity
  8
SJC2
100
AcDbLine
 10
2987.333308
 20
642.5
 30
0.0
 11
2997.333308
 21
642.5
 31
0.0
  0
LINE
  5
1F1
100
AcDbEntity
  8
CENTER
100
AcDbLine
 10
2897.452264
 20
662.5
 30
0.0
 11
3080.833308
 21
662.5
 31
0.0
  0
LINE
  5
1F2
100
AcDbEntity
  8
SJC2
100
AcDbLine
 10
2987.333308
 20
795.0
 30
0.0
 11
2987.333308
 21
635.0
 31
0.0
  0
LINE
  5
1F3
100
AcDbEntity
  8
SJC
100
AcDbLine
 10
2955.833308
 20
599.0
 30
0.0
 11
2961.833308
 21
599.0
 31
0.0
  0
LINE
  5
1F4
100
AcDbEntity
  8
SJC
100
AcDbLine
 10
2961.833308
 20
629.0
 30
0.0
 11
2961.833308
 21
599.0
 31
0.0
  0
ARC
  5
1F5
100
AcDbEntity
  8
SJC2
100
AcDbCircle
 10
2989.020808
 20
795.0
 30
0.0
 40
7.6875
100
AcDbArc
 50
180.0
 51
257.319617
  0
ARC
  5
1F6
100
AcDbEntity
  8
SJC2
100
AcDbCircle
 10
2989.020808
 20
777.661389
 30
0.0
 40
7.6875
100
AcDbArc
 50
102.680383
 51
257.319617
  0
ARC
  5
1F7
100
AcDbEntity
  8
SJC2
100
AcDbCircle
 10
2989.020808
 20
760.112924
 30
0.0
 40
7.6875
100
AcDbArc
 50
102.680383
 51
257.319617
  0
ARC
  5
1F8
100
AcDbEntity
  8
SJC2
100
AcDbCircle
 10
2989.020808
 20
743.311201
 30
0.0
 40
7.6875
100
AcDbArc
 50
102.680383
 51
257.319617
  0
ARC
  5
1F9
100
AcDbEntity
  8
SJC2
100
AcDbCircle
 10
2989.020808
 20
727.256221
 30
0.0
 40
7.6875
100
AcDbArc
 50
102.680383
 51
257.319617
  0
ARC
  5
1FA
100
AcDbEntity
  8
SJC2
100
AcDbCircle
 10
2989.020808
 20
710.454498
 30
0.0
 40
7.6875
100
AcDbArc
 50
102.680383
 51
257.319617
  0
ARC
  5
1FB
100
AcDbEntity
  8
SJC2
100
AcDbCircle
 10
2989.020808
 20
692.159291
 30
0.0
 40
7.6875
100
AcDbArc
 50
102.680383
 51
257.319617
  0
ARC
  5
1FC
100
AcDbEntity
  8
SJC2
100
AcDbCircle
 10
2989.020808
 20
672.743965
 30
0.0
 40
7.6875
100
AcDbArc
 50
102.680383
 51
257.319617
  0
ARC
  5
1FD
100
AcDbEntity
  8
SJC2
100
AcDbCircle
 10
2989.020808
 20
654.448758
 30
0.0
 40
7.6875
100
AcDbArc
 50
102.680383
 51
257.319617
  0
LINE
  5
1FE
100
AcDbEntity
  8
SJC2
100
AcDbLine
 10
3007.333308
 20
795.0
 30
0.0
 11
3007.333308
 21
672.5
 31
0.0
  0
LINE
  5
1FF
100
AcDbEntity
  8
SJC2
100
AcDbLine
 10
2997.333308
 20
682.5
 30
0.0
 11
2997.333308
 21
642.5
 31
0.0
  0
LINE
  5
200
100
AcDbEntity
  8
SJC2
100
AcDbLine
 10
3007.333308
 20
652.5
 30
0.0
 11
3007.333308
 21
635.0
 31
0.0
  0
LINE
  5
201
100
AcDbEntity
  8
SJC
100
AcDbLine
 10
2997.333308
 20
672.5
 30
0.0
 11
3013.333308
 21
672.5
 31
0.0
  0
LINE
  5
202
100
AcDbEntity
  8
SJC
100
AcDbLine
 10
2997.333308
 20
652.5
 30
0.0
 11
3013.333308
 21
652.5
 31
0.0
  0
ARC
  5
203
100
AcDbEntity
  8
SJC
100
AcDbCircle
 10
3010.654737
 20
662.5
 30
0.0
 40
20.178571
100
AcDbArc
 50
277.62815
 51
82.37185
  0
LINE
  5
204
100
AcDbEntity
  8
SJC
100
AcDbLine
 10
2965.075464
 20
955.0
 30
0.0
 11
3013.333308
 21
955.0
 31
0.0
  0
LINE
  5
205
100
AcDbEntity
  8
CENTER
100
AcDbLine
 10
2897.452264
 20
927.5
 30
0.0
 11
3080.833308
 21
927.5
 31
0.0
  0
LINE
  5
206
100
AcDbEntity
  8
SJC
100
AcDbLine
 10
2955.833308
 20
994.0
 30
0.0
 11
2961.833308
 21
994.0
 31
0.0
  0
LINE
  5
207
100
AcDbEntity
  8
SJC
100
AcDbLine
 10
2961.833308
 20
961.763768
 30
0.0
 11
2961.833308
 21
994.0
 31
0.0
  0
LINE
  5
209
100
AcDbEntity
  8
SJC
100
AcDbLine
 10
3164.647317
 20
1438.516248
 30
0.0
 11
3178.576213
 21
1518.217648
 31
0.0
  0
LINE
  5
20A
100
AcDbEntity
  8
SJC
100
AcDbLine
 10
2964.890595
 20
1115.052261
 30
0.0
 11
2924.276021
 21
1187.552261
 31
0.0
  0
LINE
  5
20B
100
AcDbEntity
  8
SJC2
100
AcDbLine
 10
2987.333308
 20
1587.81988
 30
0.0
 11
3006.059393
 21
1587.81988
 31
0.0
  0
LINE
  5
20C
100
AcDbEntity
  8
SJC2
100
AcDbLine
 10
2986.895338
 20
1730.0
 30
0.0
 11
2996.895338
 21
1730.0
 31
0.0
  0
ARC
  5
20D
100
AcDbEntity
  8
SJC2
100
AcDbCircle
 10
2989.020808
 20
1607.268639
 30
0.0
 40
7.6875
100
AcDbArc
 50
102.680383
 51
257.319617
  0
ARC
  5
20E
100
AcDbEntity
  8
SJC2
100
AcDbCircle
 10
2989.020808
 20
1625.563846
 30
0.0
 40
7.6875
100
AcDbArc
 50
102.680383
 51
257.319617
  0
ARC
  5
20F
100
AcDbEntity
  8
SJC2
100
AcDbCircle
 10
2989.020808
 20
1644.979171
 30
0.0
 40
7.6875
100
AcDbArc
 50
102.680383
 51
257.319617
  0
ARC
  5
210
100
AcDbEntity
  8
SJC2
100
AcDbCircle
 10
2989.020808
 20
1663.274378
 30
0.0
 40
7.6875
100
AcDbArc
 50
102.680383
 51
257.319617
  0
ARC
  5
211
100
AcDbEntity
  8
SJC2
100
AcDbCircle
 10
2989.020808
 20
1680.076101
 30
0.0
 40
7.6875
100
AcDbArc
 50
102.680383
 51
257.319617
  0
ARC
  5
212
100
AcDbEntity
  8
SJC2
100
AcDbCircle
 10
2989.020808
 20
1696.131082
 30
0.0
 40
7.6875
100
AcDbArc
 50
102.680383
 51
257.319617
  0
ARC
  5
213
100
AcDbEntity
  8
SJC2
100
AcDbCircle
 10
2989.020808
 20
1712.932805
 30
0.0
 40
7.6875
100
AcDbArc
 50
102.680383
 51
257.319617
  0
LINE
  5
214
100
AcDbEntity
  8
SJC
100
AcDbLine
 10
3189.173986
 20
1667.81988
 30
0.0
 11
3189.173986
 21
1627.81988
 31
0.0
  0
ARC
  5
216
100
AcDbEntity
  8
SJC
100
AcDbCircle
 10
3219.083308
 20
1750.0
 30
0.0
 40
265.75
100
AcDbArc
 50
216.7173
 51
260.086903
  0
LINE
  5
217
100
AcDbEntity
  8
MOJI2
100
AcDbLine
 10
2801.210353
 20
2207.370627
 30
0.0
 11
3117.469813
 21
2207.370627
 31
0.0
  0
LINE
  5
218
100
AcDbEntity
  8
SJC
100
AcDbLine
 10
3164.647317
 20
2061.483752
 30
0.0
 11
3178.576213
 21
1981.782352
 31
0.0
  0
ARC
  5
219
100
AcDbEntity
  8
SJC2
100
AcDbCircle
 10
2989.020808
 20
1747.81988
 30
0.0
 40
7.6875
100
AcDbArc
 50
163.525249
 51
257.319617
  0
LINE
  5
21A
100
AcDbEntity
  8
SJC2
100
AcDbLine
 10
2996.895338
 20
1740.0
 30
0.0
 11
3006.059393
 21
1740.0
 31
0.0
  0
LINE
  5
21B
100
AcDbEntity
  8
SJC
100
AcDbLine
 10
3013.333308
 20
1770.0
 30
0.0
 11
3013.333308
 21
1908.546523
 31
0.0
  0
ARC
  5
21C
100
AcDbEntity
  8
SJC
100
AcDbCircle
 10
2622.607947
 20
795.0
 30
0.0
 40
349.5
100
AcDbArc
 50
332.754966
 51
27.245034
  0
ARC
  5
21D
100
AcDbEntity
  8
SJC
100
AcDbCircle
 10
2622.607947
 20
795.0
 30
0.0
 40
372.0
100
AcDbArc
 50
333.607132
 51
346.005158
  0
ARC
  5
21E
100
AcDbEntity
  8
SJC
100
AcDbCircle
 10
2622.607947
 20
795.0
 30
0.0
 40
378.0
100
AcDbArc
 50
333.82119
 51
343.227796
  0
ARC
  5
21F
100
AcDbEntity
  8
SJC
100
AcDbCircle
 10
2622.607947
 20
795.0
 30
0.0
 40
378.0
100
AcDbArc
 50
0.0
 51
26.17881
  0
ARC
  5
220
100
AcDbEntity
  8
SJC
100
AcDbCircle
 10
2622.607947
 20
795.0
 30
0.0
 40
372.0
100
AcDbArc
 50
0.0
 51
26.392868
  0
ARC
  5
221
100
AcDbEntity
  8
SJC
100
AcDbCircle
 10
3219.083308
 20
1750.0
 30
0.0
 40
259.75
100
AcDbArc
 50
217.617073
 51
226.947934
  0
ARC
  5
222
100
AcDbEntity
  8
SJC
100
AcDbCircle
 10
3219.083308
 20
1750.0
 30
0.0
 40
259.75
100
AcDbArc
 50
133.052066
 51
142.382927
  0
LINE
  5
223
100
AcDbEntity
  8
SJC
100
AcDbLine
 10
3041.761679
 20
1947.939643
 30
0.0
 11
3041.761679
 21
1939.808067
 31
0.0
  0
LINE
  5
224
100
AcDbEntity
  8
SJC
100
AcDbLine
 10
3041.761679
 20
1560.191933
 30
0.0
 11
3041.761679
 21
1552.060357
 31
0.0
  0
TEXT
  5
225
100
AcDbEntity
  8
MOJI
100
AcDbText
 10
3142.455428
 20
1014.997343
 30
0.0
 40
30.0
  1
裏板 t1.2(亜鉛鉄板)
 41
0.8
  7
KANJI08
100
AcDbText
  0
TEXT
  5
226
100
AcDbEntity
  8
MOJI2
100
AcDbText
 10
2812.119936
 20
2218.387478
 30
0.0
 40
40.0
  1
反射板取付部詳細
 41
0.8
  7
KANJI08
100
AcDbText
  0
ARC
  5
227
100
AcDbEntity
  8
SJC
100
AcDbCircle
 10
3010.654737
 20
1750.0
 30
0.0
 40
20.178571
100
AcDbArc
 50
277.62815
 51
82.37185
  0
INSERT
  5
228
100
AcDbEntity
  8
SJC
100
AcDbBlockReference
  2
1-10BASE
 10
0.0
 20
0.0
 30
0.0
  0
INSERT
  5
23C
100
AcDbEntity
  8
ZWAKU
100
AcDbBlockReference
  2
CALCOMP_TECHJET720A3
 10
0.0
 20
0.0
 30
0.0
 41
10.0
 42
10.0
 43
10.0
  0
TEXT
  5
23E
100
AcDbEntity
  8
INFORMATION
100
AcDbText
 10
1.0
 20
2.0
 30
0.0
 40
0.8
  1
PLOTTER=CALCOMP_TECHJET720
100
AcDbText
  0
TEXT
  5
23F
100
AcDbEntity
  8
INFORMATION
100
AcDbText
 10
1.0
 20
3.0
 30
0.0
 40
0.8
  1
PAPER=A3
100
AcDbText
  0
LINE
  5
25D
100
AcDbEntity
  8
MOJI2
100
AcDbLine
 10
2801.210353
 20
2197.370627
 30
0.0
 11
3117.469813
 21
2197.370627
 31
0.0
  0
LINE
  5
2A5
100
AcDbEntity
  8
MOJI
100
AcDbLine
 10
756.804659
 20
1789.128127
 30
0.0
 11
1035.814526
 21
1789.128127
 31
0.0
  0
SOLID
  5
2A8
100
AcDbEntity
  8
MOJI
  6
CONTINUOUS
100
AcDbTrace
 10
1235.19268
 20
1657.040488
 30
0.0
 11
1230.112417
 21
1661.35736
 31
0.0
 12
1219.701934
 22
1643.958137
 32
0.0
 13
1219.701934
 23
1643.958137
 33
0.0
  0
LINE
  5
2A9
100
AcDbEntity
  8
MOJI
  6
CONTINUOUS
100
AcDbLine
 10
1232.652548
 20
1659.198924
 30
0.0
 11
1339.55
 21
1785.0
 31
0.0
  0
SOLID
  5
2AD
100
AcDbEntity
  8
MOJI
  6
CONTINUOUS
100
AcDbTrace
 10
1215.580354
 20
1547.185102
 30
0.0
 11
1211.013916
 21
1552.04227
 31
0.0
 12
1198.725629
 22
1535.914372
 32
0.0
 13
1198.725629
 23
1535.914372
 33
0.0
  0
LINE
  5
2AE
100
AcDbEntity
  8
MOJI
  6
CONTINUOUS
100
AcDbLine
 10
1213.297135
 20
1549.613686
 30
0.0
 11
1346.660725
 21
1674.994667
 31
0.0
  0
SOLID
  5
2B0
100
AcDbEntity
  8
MOJI
  6
CONTINUOUS
100
AcDbTrace
 10
1253.83912
 20
1137.061864
 30
0.0
 11
1249.202564
 21
1141.852145
 31
0.0
 12
1237.15
 22
1125.547335
 32
0.0
 13
1237.15
 23
1125.547335
 33
0.0
  0
LINE
  5
2B1
100
AcDbEntity
  8
MOJI
  6
CONTINUOUS
100
AcDbLine
 10
1251.520842
 20
1139.457005
 30
0.0
 11
1339.9
 21
1225.0
 31
0.0
  0
INSERT
  5
2C8
100
AcDbEntity
  8
HATCH
100
AcDbBlockReference
  2
*X7
 10
0.0
 20
0.0
 30
0.0
1001
ACAD
1000
HATCH
1002
{
1070
    19
1000
PLAST
1040
500.0
1040
0.785398
1002
}
  0
LINE
  5
2DC
100
AcDbEntity
  8
SJC
100
AcDbLine
 10
863.04883
 20
860.0
 30
0.0
 11
1122.85
 21
860.0
 31
0.0
1001
ACAD
1000
ASC_BOUNDS
1002
{
1070
    19
1005
2C8
1002
}
  0
TEXT
  5
367
100
AcDbEntity
  8
MOJI
100
AcDbText
 10
877.128961
 20
869.724634
 30
0.0
 40
30.0
  1
GL
 41
0.8
  7
KANJI08
100
AcDbText
  0
LINE
  5
373
100
AcDbEntity
  8
CENTER
100
AcDbLine
 10
2105.636359
 20
2081.506191
 30
0.0
 11
2105.636359
 21
1913.515283
 31
0.0
  0
LINE
  5
39C
100
AcDbEntity
  8
CENTER
100
AcDbLine
 10
1924.84373
 20
1997.15
 30
0.0
 11
2286.557365
 21
1997.15
 31
0.0
  0
LINE
  5
39D
100
AcDbEntity
  8
CENTER
100
AcDbLine
 10
1932.254355
 20
1966.578075
 30
0.0
 11
2105.636359
 21
1997.15
 31
0.0
  0
ARC
  5
45E
100
AcDbEntity
  8
SUNPOU
  6
BYBLOCK
100
AcDbCircle
 10
2105.636359
 20
1997.15
 30
0.0
 40
138.605674
100
AcDbArc
 50
8.27464
 51
16.54928
  0
ARC
  5
45F
100
AcDbEntity
  8
SUNPOU
  6
BYBLOCK
100
AcDbCircle
 10
2107.566018
 20
1996.809749
 30
0.0
 40
138.605674
100
AcDbArc
 50
350.0
 51
360.0
  0
SOLID
  5
460
100
AcDbEntity
  8
SUNPOU
  6
BYBLOCK
100
AcDbTrace
 10
2235.94865
 20
1954.161019
 30
0.0
 11
2242.413404
 21
1952.532708
 31
0.0
 12
2244.065961
 22
1972.741126
 32
0.0
 13
2244.065961
 23
1972.741126
 33
0.0
  0
SOLID
  5
461
100
AcDbEntity
  8
SUNPOU
  6
BYBLOCK
100
AcDbTrace
 10
2248.053397
 20
2016.998119
 30
0.0
 11
2241.404104
 21
2016.517139
 31
0.0
 12
2246.171693
 22
1996.809749
 32
0.0
 13
2246.171693
 23
1996.809749
 33
0.0
  0
MTEXT
  5
462
100
AcDbEntity
  8
SUNPOU
  6
BYBLOCK
100
AcDbMText
 10
2311.791845
 20
1982.649888
 30
0.0
 40
30.0
 41
0.0
 71
     5
 72
     1
  1
\A1;10\U+00B0
  7
KANJI08
 11
0.998914
 21
0.046582
 31
0.0
  0
POINT
  5
463
100
AcDbEntity
  8
SUNPOU
  6
BYBLOCK
 62
     0
100
AcDbPoint
 10
2244.007535
 20
1989.090797
 30
0.0
  0
POINT
  5
464
100
AcDbEntity
  8
DEFPOINTS
  6
BYBLOCK
 62
     0
100
AcDbPoint
 10
2105.636359
 20
1997.15
 30
0.0
  0
POINT
  5
465
100
AcDbEntity
  8
DEFPOINTS
  6
BYBLOCK
 62
     0
100
AcDbPoint
 10
1924.84373
 20
1997.15
 30
0.0
  0
POINT
  5
466
100
AcDbEntity
  8
DEFPOINTS
  6
BYBLOCK
 62
     0
100
AcDbPoint
 10
2286.557365
 20
1997.15
 30
0.0
  0
POINT
  5
467
100
AcDbEntity
  8
DEFPOINTS
  6
BYBLOCK
 62
     0
100
AcDbPoint
 10
2279.903401
 20
1966.422019
 30
0.0
  0
ARC
  5
468
100
AcDbEntity
  8
SUNPOU
  6
BYBLOCK
100
AcDbCircle
 10
2105.636359
 20
1997.15
 30
0.0
 40
140.248169
100
AcDbArc
 50
163.644866
 51
171.822433
  0
ARC
  5
46A
100
AcDbEntity
  8
SUNPOU
  6
BYBLOCK
100
AcDbCircle
 10
2105.636359
 20
1997.15
 30
0.0
 40
140.248169
100
AcDbArc
 50
180.0
 51
190.0
  0
SOLID
  5
46B
100
AcDbEntity
  8
SUNPOU
  6
BYBLOCK
100
AcDbTrace
 10
1970.139083
 20
2016.861421
 30
0.0
 11
1963.489385
 21
2017.336769
 31
0.0
 12
1965.388191
 22
1997.15
 32
0.0
 13
1965.388191
 23
1997.15
 33
0.0
  0
SOLID
  5
46C
100
AcDbEntity
  8
SUNPOU
  6
BYBLOCK
100
AcDbTrace
 10
1969.154313
 20
1952.58635
 30
0.0
 11
1975.620444
 21
1954.209184
 31
0.0
 12
1967.518876
 22
1972.796161
 32
0.0
 13
1967.518876
 23
1972.796161
 33
0.0
  0
MTEXT
  5
46D
100
AcDbEntity
  8
SUNPOU
  6
BYBLOCK
100
AcDbMText
 10
1900.037403
 20
1979.542991
 30
0.0
 40
30.0
 41
0.0
 71
     5
 72
     1
  1
\A1;10\U+00B0
  7
KANJI08
 11
0.999902
 21
0.013968
 31
0.0
  0
POINT
  5
46E
100
AcDbEntity
  8
SUNPOU
  6
BYBLOCK
 62
     0
100
AcDbPoint
 10
1966.336499
 20
1980.868181
 30
0.0
  0
POINT
  5
46F
100
AcDbEntity
  8
DEFPOINTS
  6
BYBLOCK
 62
     0
100
AcDbPoint
 10
1932.254355
 20
1966.578075
 30
0.0
  0
POINT
  5
470
100
AcDbEntity
  8
DEFPOINTS
  6
BYBLOCK
 62
     0
100
AcDbPoint
 10
1924.84373
 20
1997.15
 30
0.0
  0
POINT
  5
471
100
AcDbEntity
  8
DEFPOINTS
  6
BYBLOCK
 62
     0
100
AcDbPoint
 10
2286.557365
 20
1997.15
 30
0.0
  0
POINT
  5
472
100
AcDbEntity
  8
DEFPOINTS
  6
BYBLOCK
 62
     0
100
AcDbPoint
 10
2105.636359
 20
1997.15
 30
0.0
  0
INSERT
  5
480
100
AcDbEntity
  8
HATCH
100
AcDbBlockReference
  2
*X7
 10
925.636359
 20
0.0
 30
0.0
1001
ACAD
1000
HATCH
1002
{
1070
    19
1000
PLAST
1040
500.0
1040
0.785398
1002
}
  0
SOLID
  5
483
100
AcDbEntity
  8
MOJI
  6
CONTINUOUS
100
AcDbTrace
 10
3030.043424
 20
910.402343
 30
0.0
 11
3025.415621
 21
915.201081
 31
0.0
 12
3013.333308
 22
898.918304
 32
0.0
 13
3013.333308
 23
898.918304
 33
0.0
  0
LINE
  5
484
100
AcDbEntity
  8
MOJI
  6
CONTINUOUS
100
AcDbLine
 10
3027.729523
 20
912.801712
 30
0.0
 11
3123.333308
 21
1005.0
 31
0.0
  0
SOLID
  5
492
100
AcDbEntity
  8
SUNPOU
  6
CONTINUOUS
100
AcDbTrace
 10
3058.343957
 20
1563.728226
 30
0.0
 11
3053.663444
 21
1568.475566
 31
0.0
 12
3041.761679
 22
1552.060357
 32
0.0
 13
3041.761679
 23
1552.060357
 33
0.0
  0
LINE
  5
493
100
AcDbEntity
  8
SUNPOU
  6
CONTINUOUS
100
AcDbLine
 10
3056.0037
 20
1566.101896
 30
0.0
 11
3159.173986
 21
1667.81988
 31
0.0
  0
TEXT
  5
4A6
100
AcDbEntity
  8
MOJI
100
AcDbText
 10
1744.759717
 20
869.724634
 30
0.0
 40
30.0
  1
GL
 41
0.8
  7
KANJI08
100
AcDbText
  0
SOLID
  5
4DD
100
AcDbEntity
  8
MOJI
  6
CONTINUOUS
100
AcDbTrace
 10
1172.457274
 20
1570.820691
 30
0.0
 11
1166.760981
 21
1567.357067
 31
0.0
 12
1180.0
 22
1552.0
 32
0.0
 13
1180.0
 23
1552.0
 33
0.0
  0
LINE
  5
4DE
100
AcDbEntity
  8
MOJI
  6
CONTINUOUS
100
AcDbLine
 10
1169.609128
 20
1569.088879
 30
0.0
 11
1035.814526
 21
1789.128127
 31
0.0
  0
TEXT
  5
52E
100
AcDbEntity
  8
INFORMATION
100
AcDbText
 10
1.0
 20
1.0
 30
0.0
 40
0.8
  1
VERSION=3.0
100
AcDbText
  0
ENDSEC
  0
SECTION
  2
OBJECTS
  0
DICTIONARY
  5
C
100
AcDbDictionary
  3
ACAD_GROUP
350
D
  3
ACAD_MLINESTYLE
350
E
  0
DICTIONARY
  5
D
102
{ACAD_REACTORS
330
C
102
}
100
AcDbDictionary
  0
DICTIONARY
  5
E
102
{ACAD_REACTORS
330
C
102
}
100
AcDbDictionary
  3
STANDARD
350
1B
  0
MLINESTYLE
  5
1B
102
{ACAD_REACTORS
330
E
102
}
100
AcDbMlineStyle
  2
STANDARD
 70
     0
  3

 62
     0
 51
90.0
 52
90.0
 71
     2
 49
0.5
 62
   256
  6
BYLAYER
 49
-0.5
 62
   256
  6
BYLAYER
  0
ENDSEC
  0
EOF
