  0
SECTION
  2
HEADER
  9
$ACADVER
  1
AC1012
  9
$DWGCODEPAGE
  3
dos932
  9
$INSBASE
 10
0.0
 20
0.0
 30
0.0
  9
$EXTMIN
 10
0.0
 20
0.0
 30
0.0
  9
$EXTMAX
 10
3700.0
 20
2670.0
 30
0.0
  9
$LIMMIN
 10
0.0
 20
0.0
  9
$LIMMAX
 10
4200.0
 20
2970.0
  9
$ORTHOMODE
 70
     0
  9
$REGENMODE
 70
     1
  9
$FILLMODE
 70
     1
  9
$QTEXTMODE
 70
     0
  9
$MIRRTEXT
 70
     0
  9
$DRAGMODE
 70
     2
  9
$LTSCALE
 40
100.0
  9
$OSMODE
 70
    33
  9
$ATTMODE
 70
     1
  9
$TEXTSIZE
 40
30.0
  9
$TRACEWID
 40
0.05
  9
$TEXTSTYLE
  7
KANJI08
  9
$CLAYER
  8
SUNPOU
  9
$CELTYPE
  6
BYLAYER
  9
$CECOLOR
 62
   256
  9
$CELTSCALE
 40
1.0
  9
$DELOBJ
 70
     1
  9
$DISPSILH
 70
     0
  9
$DIMSCALE
 40
1.0
  9
$DIMASZ
 40
20.0
  9
$DIMEXO
 40
10.0
  9
$DIMDLI
 40
60.0
  9
$DIMRND
 40
0.0
  9
$DIMDLE
 40
0.0
  9
$DIMEXE
 40
10.0
  9
$DIMTP
 40
0.0
  9
$DIMTM
 40
0.0
  9
$DIMTXT
 40
30.0
  9
$DIMCEN
 40
0.09
  9
$DIMTSZ
 40
0.0
  9
$DIMTOL
 70
     0
  9
$DIMLIM
 70
     0
  9
$DIMTIH
 70
     0
  9
$DIMTOH
 70
     0
  9
$DIMSE1
 70
     0
  9
$DIMSE2
 70
     0
  9
$DIMTAD
 70
     1
  9
$DIMZIN
 70
     8
  9
$DIMBLK
  1

  9
$DIMASO
 70
     1
  9
$DIMSHO
 70
     1
  9
$DIMPOST
  1

  9
$DIMAPOST
  1

  9
$DIMALT
 70
     0
  9
$DIMALTD
 70
     2
  9
$DIMALTF
 40
25.4
  9
$DIMLFAC
 40
1.0
  9
$DIMTOFL
 70
     1
  9
$DIMTVP
 40
0.0
  9
$DIMTIX
 70
     0
  9
$DIMSOXD
 70
     0
  9
$DIMSAH
 70
     0
  9
$DIMBLK1
  1

  9
$DIMBLK2
  1

  9
$DIMSTYLE
  2
SJC
  9
$DIMCLRD
 70
   256
  9
$DIMCLRE
 70
   256
  9
$DIMCLRT
 70
   256
  9
$DIMTFAC
 40
1.0
  9
$DIMGAP
 40
15.0
  9
$DIMJUST
 70
     0
  9
$DIMSD1
 70
     0
  9
$DIMSD2
 70
     0
  9
$DIMTOLJ
 70
     1
  9
$DIMTZIN
 70
     0
  9
$DIMALTZ
 70
     0
  9
$DIMALTTZ
 70
     0
  9
$DIMFIT
 70
     5
  9
$DIMUPT
 70
     0
  9
$DIMUNIT
 70
     2
  9
$DIMDEC
 70
     2
  9
$DIMTDEC
 70
     4
  9
$DIMALTU
 70
     2
  9
$DIMALTTD
 70
     2
  9
$DIMTXSTY
  7
KANJI08
  9
$DIMAUNIT
 70
     0
  9
$LUNITS
 70
     2
  9
$LUPREC
 70
     2
  9
$SKETCHINC
 40
0.1
  9
$FILLETRAD
 40
0.0
  9
$AUNITS
 70
     1
  9
$AUPREC
 70
     2
  9
$MENU
  1
acad
  9
$ELEVATION
 40
0.0
  9
$PELEVATION
 40
0.0
  9
$THICKNESS
 40
0.0
  9
$LIMCHECK
 70
     0
  9
$BLIPMODE
 70
     1
  9
$CHAMFERA
 40
0.0
  9
$CHAMFERB
 40
0.0
  9
$CHAMFERC
 40
0.0
  9
$CHAMFERD
 40
0.0
  9
$SKPOLY
 70
     0
  9
$TDCREATE
 40
2449337.414686111
  9
$TDUPDATE
 40
2450945.458929028
  9
$TDINDWG
 40
0.0183333912
  9
$TDUSRTIMER
 40
0.0183333912
  9
$USRTIMER
 70
     1
  9
$ANGBASE
 50
0.0
  9
$ANGDIR
 70
     0
  9
$PDMODE
 70
     0
  9
$PDSIZE
 40
0.0
  9
$PLINEWID
 40
0.0
  9
$COORDS
 70
     1
  9
$SPLFRAME
 70
     0
  9
$SPLINETYPE
 70
     6
  9
$SPLINESEGS
 70
     8
  9
$ATTDIA
 70
     0
  9
$ATTREQ
 70
     1
  9
$HANDLING
 70
     1
  9
$HANDSEED
  5
553
  9
$SURFTAB1
 70
     6
  9
$SURFTAB2
 70
     6
  9
$SURFTYPE
 70
     6
  9
$SURFU
 70
     6
  9
$SURFV
 70
     6
  9
$UCSNAME
  2

  9
$UCSORG
 10
0.0
 20
0.0
 30
0.0
  9
$UCSXDIR
 10
1.0
 20
0.0
 30
0.0
  9
$UCSYDIR
 10
0.0
 20
1.0
 30
0.0
  9
$PUCSNAME
  2

  9
$PUCSORG
 10
0.0
 20
0.0
 30
0.0
  9
$PUCSXDIR
 10
1.0
 20
0.0
 30
0.0
  9
$PUCSYDIR
 10
0.0
 20
1.0
 30
0.0
  9
$USERI1
 70
     3
  9
$USERI2
 70
    10
  9
$USERI3
 70
     0
  9
$USERI4
 70
     0
  9
$USERI5
 70
     0
  9
$USERR1
 40
0.0
  9
$USERR2
 40
0.0
  9
$USERR3
 40
0.0
  9
$USERR4
 40
0.0
  9
$USERR5
 40
0.0
  9
$WORLDVIEW
 70
     1
  9
$SHADEDGE
 70
     3
  9
$SHADEDIF
 70
    70
  9
$TILEMODE
 70
     1
  9
$MAXACTVP
 70
    16
  9
$PINSBASE
 10
0.0
 20
0.0
 30
0.0
  9
$PLIMCHECK
 70
     0
  9
$PEXTMIN
 10
1.000000E+20
 20
1.000000E+20
 30
1.000000E+20
  9
$PEXTMAX
 10
-1.000000E+20
 20
-1.000000E+20
 30
-1.000000E+20
  9
$PLIMMIN
 10
0.0
 20
0.0
  9
$PLIMMAX
 10
12.0
 20
9.0
  9
$UNITMODE
 70
     0
  9
$VISRETAIN
 70
     0
  9
$PLINEGEN
 70
     0
  9
$PSLTSCALE
 70
     1
  9
$TREEDEPTH
 70
  3020
  9
$PICKSTYLE
 70
     1
  9
$CMLSTYLE
  2
STANDARD
  9
$CMLJUST
 70
     0
  9
$CMLSCALE
 40
1.0
  9
$SAVEIMAGES
 70
     0
  0
ENDSEC
  0
SECTION
  2
CLASSES
  0
ENDSEC
  0
SECTION
  2
TABLES
  0
TABLE
  2
VPORT
  5
8
100
AcDbSymbolTable
 70
     2
  0
VPORT
  5
552
100
AcDbSymbolTableRecord
100
AcDbViewportTableRecord
  2
*ACTIVE
 70
     0
 10
0.0
 20
0.0
 11
1.0
 21
1.0
 12
2808.101504
 22
1485.0
 13
0.0
 23
0.0
 14
10.0
 24
10.0
 15
0.0
 25
0.0
 16
0.0
 26
0.0
 36
1.0
 17
0.0
 27
0.0
 37
0.0
 40
2970.0
 41
1.890977
 42
50.0
 43
0.0
 44
0.0
 50
0.0
 51
0.0
 71
     0
 72
   100
 73
     1
 74
     1
 75
     0
 76
     0
 77
     0
 78
     0
  0
ENDTAB
  0
TABLE
  2
LTYPE
  5
5
100
AcDbSymbolTable
 70
     5
  0
LTYPE
  5
12
100
AcDbSymbolTableRecord
100
AcDbLinetypeTableRecord
  2
BYBLOCK
 70
     0
  3

 72
    65
 73
     0
 40
0.0
  0
LTYPE
  5
13
100
AcDbSymbolTableRecord
100
AcDbLinetypeTableRecord
  2
BYLAYER
 70
     0
  3

 72
    65
 73
     0
 40
0.0
  0
LTYPE
  5
14
100
AcDbSymbolTableRecord
100
AcDbLinetypeTableRecord
  2
CONTINUOUS
 70
    64
  3
Solid line
 72
    65
 73
     0
 40
0.0
  0
LTYPE
  5
2A
100
AcDbSymbolTableRecord
100
AcDbLinetypeTableRecord
  2
CENTER
 70
    64
  3
____ _ ____ _ ____ _ ____ _ ____ _ ____ _ ____ 
 72
    65
 73
     4
 40
2.0
 49
1.25
 74
     0
 49
-0.25
 74
     0
 49
0.25
 74
     0
 49
-0.25
 74
     0
  0
LTYPE
  5
2B
100
AcDbSymbolTableRecord
100
AcDbLinetypeTableRecord
  2
HIDDEN
 70
    64
  3
__ __ __ __ __ __ __ __ __ __ __ __ __ __ __ __
 72
    65
 73
     2
 40
0.375
 49
0.25
 74
     0
 49
-0.125
 74
     0
  0
LTYPE
  5
2C
100
AcDbSymbolTableRecord
100
AcDbLinetypeTableRecord
  2
HIDDEN2
 70
    64
  3
_ _ _ _ _ _ _ _ _ _ _ _ _ _ _ _ _ _ _ _ _ _ _ _
 72
    65
 73
     2
 40
0.1875
 49
0.125
 74
     0
 49
-0.0625
 74
     0
  0
LTYPE
  5
2D
100
AcDbSymbolTableRecord
100
AcDbLinetypeTableRecord
  2
PHANTOM
 70
    64
  3
______  __  __  ______  __  __  ______  __  __ 
 72
    65
 73
     6
 40
2.5
 49
1.25
 74
     0
 49
-0.25
 74
     0
 49
0.25
 74
     0
 49
-0.25
 74
     0
 49
0.25
 74
     0
 49
-0.25
 74
     0
  0
ENDTAB
  0
TABLE
  2
LAYER
  5
2
100
AcDbSymbolTable
 70
    15
  0
LAYER
  5
F
100
AcDbSymbolTableRecord
100
AcDbLayerTableRecord
  2
0
 70
    64
 62
     7
  6
CONTINUOUS
  0
LAYER
  5
33
100
AcDbSymbolTableRecord
100
AcDbLayerTableRecord
  2
CENTER
 70
    64
 62
     3
  6
CENTER
  0
LAYER
  5
34
100
AcDbSymbolTableRecord
100
AcDbLayerTableRecord
  2
HASEN
 70
     0
 62
     7
  6
HIDDEN
  0
LAYER
  5
35
100
AcDbSymbolTableRecord
100
AcDbLayerTableRecord
  2
HOJO
 70
    64
 62
     8
  6
CONTINUOUS
  0
LAYER
  5
36
100
AcDbSymbolTableRecord
100
AcDbLayerTableRecord
  2
KASOU
 70
     0
 62
     2
  6
PHANTOM
  0
LAYER
  5
37
100
AcDbSymbolTableRecord
100
AcDbLayerTableRecord
  2
MOJI
 70
    64
 62
     6
  6
CONTINUOUS
  0
LAYER
  5
38
100
AcDbSymbolTableRecord
100
AcDbLayerTableRecord
  2
SJC
 70
    64
 62
     1
  6
CONTINUOUS
  0
LAYER
  5
39
100
AcDbSymbolTableRecord
100
AcDbLayerTableRecord
  2
SUNPOU
 70
    64
 62
     4
  6
CONTINUOUS
  0
LAYER
  5
3A
100
AcDbSymbolTableRecord
100
AcDbLayerTableRecord
  2
WAKU
 70
     0
 62
     5
  6
CONTINUOUS
  0
LAYER
  5
3B
100
AcDbSymbolTableRecord
100
AcDbLayerTableRecord
  2
DEFPOINTS
 70
    64
 62
     7
  6
CONTINUOUS
  0
LAYER
  5
9B
100
AcDbSymbolTableRecord
100
AcDbLayerTableRecord
  2
SJC2
 70
    64
 62
     7
  6
CONTINUOUS
  0
LAYER
  5
9C
100
AcDbSymbolTableRecord
100
AcDbLayerTableRecord
  2
MOJI2
 70
    64
 62
     1
  6
CONTINUOUS
  0
LAYER
  5
9D
100
AcDbSymbolTableRecord
100
AcDbLayerTableRecord
  2
HATCH
 70
    64
 62
     2
  6
CONTINUOUS
  0
LAYER
  5
9E
100
AcDbSymbolTableRecord
100
AcDbLayerTableRecord
  2
ZWAKU
 70
    64
 62
    -7
  6
CONTINUOUS
  0
LAYER
  5
AF
100
AcDbSymbolTableRecord
100
AcDbLayerTableRecord
  2
INFORMATION
 70
    65
 62
     7
  6
CONTINUOUS
  0
ENDTAB
  0
TABLE
  2
STYLE
  5
3
100
AcDbSymbolTable
 70
    10
  0
STYLE
  5
10
100
AcDbSymbolTableRecord
100
AcDbTextStyleTableRecord
  2
STANDARD
 70
    64
 40
0.0
 41
1.0
 50
0.0
 71
     0
 42
30.0
  3
TXT
  4
BIGFONT
  0
STYLE
  5
28
100
AcDbSymbolTableRecord
100
AcDbTextStyleTableRecord
  2
USER
 70
    64
 40
0.0
 41
1.0
 50
0.0
 71
     0
 42
30.0
  3
TXT
  4
BIGFONT
  0
STYLE
  5
29
100
AcDbSymbolTableRecord
100
AcDbTextStyleTableRecord
  2
TEXT3030
 70
    64
 40
30.0
 41
1.0
 50
0.0
 71
     0
 42
30.0
  3
TXT
  4
BIGFONT
  0
STYLE
  5
9F
100
AcDbSymbolTableRecord
100
AcDbTextStyleTableRecord
  2
KANJI
 70
     0
 40
0.0
 41
1.0
 50
0.0
 71
     0
 42
30.0
  3
ROMANS.SHX
  4
BIGFONT.SHX
  0
STYLE
  5
A0
100
AcDbSymbolTableRecord
100
AcDbTextStyleTableRecord
  2
SIMPLEX
 70
     0
 40
0.0
 41
1.0
 50
0.0
 71
     0
 42
30.0
  3
SCRIPTS.SHX
  4

  0
STYLE
  5
C2
100
AcDbSymbolTableRecord
100
AcDbTextStyleTableRecord
  2
TATEEXT
 70
    68
 40
0.0
 41
1.0
 50
0.0
 71
     0
 42
30.0
  3
ROMANS
  4
EXTFONT
  0
STYLE
  5
C3
100
AcDbSymbolTableRecord
100
AcDbTextStyleTableRecord
  2
TATEBIG
 70
    68
 40
0.0
 41
5.0
 50
0.0
 71
     0
 42
30.0
  3
ROMANS
  4
BIGFONT
  0
STYLE
  5
C4
100
AcDbSymbolTableRecord
100
AcDbTextStyleTableRecord
  2
EXT08
 70
    64
 40
0.0
 41
0.8
 50
0.0
 71
     0
 42
30.0
  3
ROMANS
  4
EXTFONT
  0
STYLE
  5
C5
100
AcDbSymbolTableRecord
100
AcDbTextStyleTableRecord
  2
EXT
 70
    64
 40
0.0
 41
1.0
 50
0.0
 71
     0
 42
30.0
  3
ROMANS
  4
EXTFONT
  0
STYLE
  5
C6
100
AcDbSymbolTableRecord
100
AcDbTextStyleTableRecord
  2
KANJI08
 70
    64
 40
0.0
 41
0.8
 50
0.0
 71
     0
 42
30.0
  3
ROMANS
  4
BIGFONT
  0
ENDTAB
  0
TABLE
  2
VIEW
  5
6
100
AcDbSymbolTable
 70
     0
  0
ENDTAB
  0
TABLE
  2
UCS
  5
7
100
AcDbSymbolTable
 70
     0
  0
ENDTAB
  0
TABLE
  2
APPID
  5
9
100
AcDbSymbolTable
 70
     1
  0
APPID
  5
11
100
AcDbSymbolTableRecord
100
AcDbRegAppTableRecord
  2
ACAD
 70
    64
  0
ENDTAB
  0
TABLE
  2
DIMSTYLE
  5
A
100
AcDbSymbolTable
 70
     2
  0
DIMSTYLE
105
30
100
AcDbSymbolTableRecord
100
AcDbDimStyleTableRecord
  2
S01-10AX
 70
    64
  3

  4

  5

  6

  7

 40
1.0
 41
20.0
 42
0.0625
 43
0.38
 44
10.0
 45
0.0
 46
0.0
 47
0.0
 48
0.0
140
30.0
141
0.09
142
0.0
143
25.4
144
1.0
145
0.0
146
0.006
147
0.09
 71
     0
 72
     0
 73
     0
 74
     0
 75
     0
 76
     0
 77
     1
 78
     8
170
     0
171
     2
172
     1
173
     0
174
     1
175
     0
176
     0
177
     0
178
     0
270
     2
271
     4
272
     4
273
     2
274
     2
340
29
275
     0
280
     0
281
     0
282
     0
283
     1
284
     8
285
     8
286
     8
287
     5
288
     0
  0
DIMSTYLE
105
C7
100
AcDbSymbolTableRecord
100
AcDbDimStyleTableRecord
  2
SJC
 70
     0
  3

  4

  5

  6

  7

 40
1.0
 41
0.18
 42
0.0625
 43
0.38
 44
0.18
 45
0.0
 46
0.0
 47
0.0
 48
0.0
140
0.18
141
0.09
142
0.0
143
25.4
144
1.0
145
0.0
146
1.0
147
0.09
 71
     0
 72
     0
 73
     1
 74
     1
 75
     0
 76
     0
 77
     0
 78
     0
170
     0
171
     2
172
     0
173
     0
174
     0
175
     0
176
     0
177
     0
178
     0
270
     2
271
     4
272
     4
273
     2
274
     2
340
10
275
     0
280
     0
281
     0
282
     0
283
     1
284
     0
285
     0
286
     0
287
     3
288
     0
  0
ENDTAB
  0
TABLE
  2
BLOCK_RECORD
  5
1
100
AcDbSymbolTable
 70
     7
  0
BLOCK_RECORD
  5
18
100
AcDbSymbolTableRecord
100
AcDbBlockTableRecord
  2
*MODEL_SPACE
  0
BLOCK_RECORD
  5
15
100
AcDbSymbolTableRecord
100
AcDbBlockTableRecord
  2
*PAPER_SPACE
  0
BLOCK_RECORD
  5
26
100
AcDbSymbolTableRecord
100
AcDbBlockTableRecord
  2
1-10BASE
  0
BLOCK_RECORD
  5
A2
100
AcDbSymbolTableRecord
100
AcDbBlockTableRecord
  2
CALCOMP_TECHJET720A3
  0
BLOCK_RECORD
  5
C9
100
AcDbSymbolTableRecord
100
AcDbBlockTableRecord
  2
*D2
  0
BLOCK_RECORD
  5
F8
100
AcDbSymbolTableRecord
100
AcDbBlockTableRecord
  2
*D3
  0
BLOCK_RECORD
  5
4AE
100
AcDbSymbolTableRecord
100
AcDbBlockTableRecord
  2
*D4
  0
BLOCK_RECORD
  5
4BB
100
AcDbSymbolTableRecord
100
AcDbBlockTableRecord
  2
*D5
  0
BLOCK_RECORD
  5
52D
100
AcDbSymbolTableRecord
100
AcDbBlockTableRecord
  2
*X6
  0
ENDTAB
  0
ENDSEC
  0
SECTION
  2
BLOCKS
  0
BLOCK
  5
3E
100
AcDbEntity
  8
SJC
100
AcDbBlockBegin
  2
*MODEL_SPACE
 70
     0
 10
0.0
 20
0.0
 30
0.0
  3
*MODEL_SPACE
  1

  0
ENDBLK
  5
3F
100
AcDbEntity
  8
SJC
100
AcDbBlockEnd
  0
BLOCK
  5
3C
100
AcDbEntity
 67
     1
  8
SJC
100
AcDbBlockBegin
  2
*PAPER_SPACE
 70
     0
 10
0.0
 20
0.0
 30
0.0
  3
*PAPER_SPACE
  1

  0
ENDBLK
  5
3D
100
AcDbEntity
 67
     1
  8
SJC
100
AcDbBlockEnd
  0
BLOCK
  5
61
100
AcDbEntity
  8
0
100
AcDbBlockBegin
  2
1-10BASE
 70
    64
 10
0.0
 20
0.0
 30
0.0
  3
1-10BASE
  1

  0
ENDBLK
  5
62
100
AcDbEntity
  8
0
100
AcDbBlockEnd
  0
BLOCK
  5
A9
100
AcDbEntity
  8
ZWAKU
100
AcDbBlockBegin
  2
CALCOMP_TECHJET720A3
 70
     0
 10
0.0
 20
0.0
 30
0.0
  3
CALCOMP_TECHJET720A3
  1

  0
POLYLINE
  5
A3
100
AcDbEntity
  8
ZWAKU
100
AcDb2dPolyline
 66
     1
 10
0.0
 20
0.0
 30
0.0
 70
     1
  0
VERTEX
  5
A4
100
AcDbEntity
  8
ZWAKU
100
AcDbVertex
100
AcDb2dVertex
 10
0.0
 20
0.0
 30
0.0
  0
VERTEX
  5
A5
100
AcDbEntity
  8
ZWAKU
100
AcDbVertex
100
AcDb2dVertex
 10
0.0
 20
267.0
 30
0.0
  0
VERTEX
  5
A6
100
AcDbEntity
  8
ZWAKU
100
AcDbVertex
100
AcDb2dVertex
 10
370.0
 20
267.0
 30
0.0
  0
VERTEX
  5
A7
100
AcDbEntity
  8
ZWAKU
100
AcDbVertex
100
AcDb2dVertex
 10
370.0
 20
0.0
 30
0.0
  0
SEQEND
  5
A8
100
AcDbEntity
  8
ZWAKU
  0
ENDBLK
  5
AA
100
AcDbEntity
  8
ZWAKU
100
AcDbBlockEnd
  0
BLOCK
  5
500
100
AcDbEntity
  8
0
100
AcDbBlockBegin
  2
*D2
 70
    65
 10
0.0
 20
0.0
 30
0.0
  3
*D2
  1

  0
LINE
  5
501
100
AcDbEntity
  8
0
  6
BYBLOCK
100
AcDbLine
 10
1737.07799
 20
1660.0
 30
0.0
 11
1185.187849
 21
1660.0
 31
0.0
  0
LINE
  5
502
100
AcDbEntity
  8
0
  6
BYBLOCK
100
AcDbLine
 10
1536.73124
 20
460.0
 30
0.0
 11
1185.187849
 21
460.0
 31
0.0
  0
LINE
  5
503
100
AcDbEntity
  8
0
  6
BYBLOCK
100
AcDbLine
 10
1195.187849
 20
1640.0
 30
0.0
 11
1195.187849
 21
480.0
 31
0.0
  0
SOLID
  5
504
100
AcDbEntity
  8
0
  6
BYBLOCK
100
AcDbTrace
 10
1191.854516
 20
1640.0
 30
0.0
 11
1198.521182
 21
1640.0
 31
0.0
 12
1195.187849
 22
1660.0
 32
0.0
 13
1195.187849
 23
1660.0
 33
0.0
  0
SOLID
  5
505
100
AcDbEntity
  8
0
  6
BYBLOCK
100
AcDbTrace
 10
1191.854516
 20
480.0
 30
0.0
 11
1198.521182
 21
480.0
 31
0.0
 12
1195.187849
 22
460.0
 32
0.0
 13
1195.187849
 23
460.0
 33
0.0
  0
MTEXT
  5
506
100
AcDbEntity
  8
0
  6
BYBLOCK
100
AcDbMText
 10
1165.187849
 20
1060.0
 30
0.0
 40
30.0
 41
0.0
 71
     5
 72
     1
  1
\A1;1200
  7
KANJI08
 11
0.0
 21
1.0
 31
0.0
  0
POINT
  5
507
100
AcDbEntity
  8
DEFPOINTS
  6
BYBLOCK
 62
     0
100
AcDbPoint
 10
1747.07799
 20
1660.0
 30
0.0
  0
POINT
  5
508
100
AcDbEntity
  8
DEFPOINTS
  6
BYBLOCK
 62
     0
100
AcDbPoint
 10
1546.73124
 20
460.0
 30
0.0
  0
POINT
  5
509
100
AcDbEntity
  8
DEFPOINTS
  6
BYBLOCK
 62
     0
100
AcDbPoint
 10
1195.187849
 20
460.0
 30
0.0
  0
ENDBLK
  5
50A
100
AcDbEntity
  8
0
100
AcDbBlockEnd
  0
BLOCK
  5
10F
100
AcDbEntity
  8
0
100
AcDbBlockBegin
  2
*D3
 70
    65
 10
0.0
 20
0.0
 30
0.0
  3
*D3
  1

  0
LINE
  5
110
100
AcDbEntity
  8
0
  6
BYBLOCK
100
AcDbLine
 10
1547.07799
 20
430.0
 30
0.0
 11
1547.07799
 21
301.909081
 31
0.0
  0
LINE
  5
111
100
AcDbEntity
  8
0
  6
BYBLOCK
100
AcDbLine
 10
1947.07799
 20
430.0
 30
0.0
 11
1947.07799
 21
301.909081
 31
0.0
  0
LINE
  5
112
100
AcDbEntity
  8
0
  6
BYBLOCK
100
AcDbLine
 10
1567.07799
 20
311.909081
 30
0.0
 11
1927.07799
 21
311.909081
 31
0.0
  0
SOLID
  5
113
100
AcDbEntity
  8
0
  6
BYBLOCK
100
AcDbTrace
 10
1567.07799
 20
315.242415
 30
0.0
 11
1567.07799
 21
308.575748
 31
0.0
 12
1547.07799
 22
311.909081
 32
0.0
 13
1547.07799
 23
311.909081
 33
0.0
  0
SOLID
  5
114
100
AcDbEntity
  8
0
  6
BYBLOCK
100
AcDbTrace
 10
1927.07799
 20
315.242415
 30
0.0
 11
1927.07799
 21
308.575748
 31
0.0
 12
1947.07799
 22
311.909081
 32
0.0
 13
1947.07799
 23
311.909081
 33
0.0
  0
MTEXT
  5
115
100
AcDbEntity
  8
0
  6
BYBLOCK
100
AcDbMText
 10
1747.07799
 20
341.909081
 30
0.0
 40
30.0
 41
0.0
 71
     5
 72
     1
  1
\A1;□400
  7
KANJI08
  0
POINT
  5
116
100
AcDbEntity
  8
DEFPOINTS
  6
BYBLOCK
 62
     0
100
AcDbPoint
 10
1547.07799
 20
440.0
 30
0.0
  0
POINT
  5
117
100
AcDbEntity
  8
DEFPOINTS
  6
BYBLOCK
 62
     0
100
AcDbPoint
 10
1947.07799
 20
440.0
 30
0.0
  0
POINT
  5
118
100
AcDbEntity
  8
DEFPOINTS
  6
BYBLOCK
 62
     0
100
AcDbPoint
 10
1947.07799
 20
311.909081
 30
0.0
  0
ENDBLK
  5
119
100
AcDbEntity
  8
0
100
AcDbBlockEnd
  0
BLOCK
  5
50B
100
AcDbEntity
  8
0
100
AcDbBlockBegin
  2
*D4
 70
    65
 10
0.0
 20
0.0
 30
0.0
  3
*D4
  1

  0
LINE
  5
50C
100
AcDbEntity
  8
0
  6
BYBLOCK
100
AcDbLine
 10
1737.07799
 20
1660.0
 30
0.0
 11
1288.263503
 21
1660.0
 31
0.0
  0
LINE
  5
50D
100
AcDbEntity
  8
0
  6
BYBLOCK
100
AcDbLine
 10
1369.877232
 20
860.0
 30
0.0
 11
1288.263503
 21
860.0
 31
0.0
  0
LINE
  5
50E
100
AcDbEntity
  8
0
  6
BYBLOCK
100
AcDbLine
 10
1298.263503
 20
1640.0
 30
0.0
 11
1298.263503
 21
880.0
 31
0.0
  0
SOLID
  5
50F
100
AcDbEntity
  8
0
  6
BYBLOCK
100
AcDbTrace
 10
1294.93017
 20
1640.0
 30
0.0
 11
1301.596836
 21
1640.0
 31
0.0
 12
1298.263503
 22
1660.0
 32
0.0
 13
1298.263503
 23
1660.0
 33
0.0
  0
SOLID
  5
510
100
AcDbEntity
  8
0
  6
BYBLOCK
100
AcDbTrace
 10
1294.93017
 20
880.0
 30
0.0
 11
1301.596836
 21
880.0
 31
0.0
 12
1298.263503
 22
860.0
 32
0.0
 13
1298.263503
 23
860.0
 33
0.0
  0
MTEXT
  5
511
100
AcDbEntity
  8
0
  6
BYBLOCK
100
AcDbMText
 10
1268.263503
 20
1260.0
 30
0.0
 40
30.0
 41
0.0
 71
     5
 72
     1
  1
\A1;800
  7
KANJI08
 11
0.0
 21
1.0
 31
0.0
  0
POINT
  5
512
100
AcDbEntity
  8
DEFPOINTS
  6
BYBLOCK
 62
     0
100
AcDbPoint
 10
1747.07799
 20
1660.0
 30
0.0
  0
POINT
  5
513
100
AcDbEntity
  8
DEFPOINTS
  6
BYBLOCK
 62
     0
100
AcDbPoint
 10
1379.877232
 20
860.0
 30
0.0
  0
POINT
  5
514
100
AcDbEntity
  8
DEFPOINTS
  6
BYBLOCK
 62
     0
100
AcDbPoint
 10
1298.263503
 20
860.0
 30
0.0
  0
ENDBLK
  5
515
100
AcDbEntity
  8
0
100
AcDbBlockEnd
  0
BLOCK
  5
516
100
AcDbEntity
  8
0
100
AcDbBlockBegin
  2
*D5
 70
    65
 10
0.0
 20
0.0
 30
0.0
  3
*D5
  1

  0
LINE
  5
517
100
AcDbEntity
  8
0
  6
BYBLOCK
100
AcDbLine
 10
1369.877232
 20
860.0
 30
0.0
 11
1288.263503
 21
860.0
 31
0.0
  0
LINE
  5
518
100
AcDbEntity
  8
0
  6
BYBLOCK
100
AcDbLine
 10
1537.07799
 20
460.0
 30
0.0
 11
1288.263503
 21
460.0
 31
0.0
  0
LINE
  5
519
100
AcDbEntity
  8
0
  6
BYBLOCK
100
AcDbLine
 10
1298.263503
 20
840.0
 30
0.0
 11
1298.263503
 21
480.0
 31
0.0
  0
SOLID
  5
51A
100
AcDbEntity
  8
0
  6
BYBLOCK
100
AcDbTrace
 10
1294.93017
 20
840.0
 30
0.0
 11
1301.596836
 21
840.0
 31
0.0
 12
1298.263503
 22
860.0
 32
0.0
 13
1298.263503
 23
860.0
 33
0.0
  0
SOLID
  5
51B
100
AcDbEntity
  8
0
  6
BYBLOCK
100
AcDbTrace
 10
1294.93017
 20
480.0
 30
0.0
 11
1301.596836
 21
480.0
 31
0.0
 12
1298.263503
 22
460.0
 32
0.0
 13
1298.263503
 23
460.0
 33
0.0
  0
MTEXT
  5
51C
100
AcDbEntity
  8
0
  6
BYBLOCK
100
AcDbMText
 10
1268.263503
 20
660.0
 30
0.0
 40
30.0
 41
0.0
 71
     5
 72
     1
  1
\A1;400
  7
KANJI08
 11
0.0
 21
1.0
 31
0.0
  0
POINT
  5
51D
100
AcDbEntity
  8
DEFPOINTS
  6
BYBLOCK
 62
     0
100
AcDbPoint
 10
1379.877232
 20
860.0
 30
0.0
  0
POINT
  5
51E
100
AcDbEntity
  8
DEFPOINTS
  6
BYBLOCK
 62
     0
100
AcDbPoint
 10
1547.07799
 20
460.0
 30
0.0
  0
POINT
  5
51F
100
AcDbEntity
  8
DEFPOINTS
  6
BYBLOCK
 62
     0
100
AcDbPoint
 10
1298.263503
 20
460.0
 30
0.0
  0
ENDBLK
  5
520
100
AcDbEntity
  8
0
100
AcDbBlockEnd
  0
BLOCK
  5
52E
100
AcDbEntity
  8
0
100
AcDbBlockBegin
  2
*X6
 70
    65
 10
0.0
 20
0.0
 30
0.0
  3
*X6
  1

  0
LINE
  5
530
100
AcDbEntity
  8
0
 62
     0
100
AcDbLine
 10
1547.07799
 20
486.417818
 30
0.0
 11
1689.92799
 21
629.267818
 31
0.0
  0
LINE
  5
531
100
AcDbEntity
  8
0
 62
     0
100
AcDbLine
 10
1804.22799
 20
743.567818
 30
0.0
 11
1920.660172
 21
860.0
 31
0.0
  0
LINE
  5
532
100
AcDbEntity
  8
0
 62
     0
100
AcDbLine
 10
1547.07799
 20
663.194514
 30
0.0
 11
1689.92799
 21
806.044514
 31
0.0
  0
LINE
  5
533
100
AcDbEntity
  8
0
 62
     0
100
AcDbLine
 10
1547.07799
 20
839.971209
 30
0.0
 11
1567.106781
 21
860.0
 31
0.0
  0
LINE
  5
534
100
AcDbEntity
  8
0
 62
     0
100
AcDbLine
 10
1804.22799
 20
566.791123
 30
0.0
 11
1947.07799
 21
709.641123
 31
0.0
  0
LINE
  5
535
100
AcDbEntity
  8
0
 62
     0
100
AcDbLine
 10
1874.213562
 20
460.0
 30
0.0
 11
1947.07799
 21
532.864428
 31
0.0
  0
LINE
  5
536
100
AcDbEntity
  8
0
 62
     0
100
AcDbLine
 10
1547.07799
 20
508.514905
 30
0.0
 11
1689.92799
 21
651.364905
 31
0.0
  0
LINE
  5
537
100
AcDbEntity
  8
0
 62
     0
100
AcDbLine
 10
1804.22799
 20
765.664905
 30
0.0
 11
1898.563085
 21
860.0
 31
0.0
  0
LINE
  5
538
100
AcDbEntity
  8
0
 62
     0
100
AcDbLine
 10
1547.07799
 20
685.2916
 30
0.0
 11
1689.92799
 21
828.1416
 31
0.0
  0
LINE
  5
539
100
AcDbEntity
  8
0
 62
     0
100
AcDbLine
 10
1675.33978
 20
460.0
 30
0.0
 11
1689.92799
 21
474.58821
 31
0.0
  0
LINE
  5
53A
100
AcDbEntity
  8
0
 62
     0
100
AcDbLine
 10
1804.22799
 20
588.88821
 30
0.0
 11
1947.07799
 21
731.73821
 31
0.0
  0
LINE
  5
53B
100
AcDbEntity
  8
0
 62
     0
100
AcDbLine
 10
1852.116475
 20
460.0
 30
0.0
 11
1947.07799
 21
554.961515
 31
0.0
  0
LINE
  5
53C
100
AcDbEntity
  8
0
 62
     0
100
AcDbLine
 10
1547.07799
 20
530.611992
 30
0.0
 11
1689.92799
 21
673.461992
 31
0.0
  0
LINE
  5
53D
100
AcDbEntity
  8
0
 62
     0
100
AcDbLine
 10
1804.22799
 20
787.761992
 30
0.0
 11
1876.465998
 21
860.0
 31
0.0
  0
LINE
  5
53E
100
AcDbEntity
  8
0
 62
     0
100
AcDbLine
 10
1547.07799
 20
707.388687
 30
0.0
 11
1689.92799
 21
850.238687
 31
0.0
  0
LINE
  5
53F
100
AcDbEntity
  8
0
 62
     0
100
AcDbLine
 10
1653.242693
 20
460.0
 30
0.0
 11
1689.92799
 21
496.685297
 31
0.0
  0
LINE
  5
540
100
AcDbEntity
  8
0
 62
     0
100
AcDbLine
 10
1804.22799
 20
610.985297
 30
0.0
 11
1947.07799
 21
753.835297
 31
0.0
  0
LINE
  5
541
100
AcDbEntity
  8
0
 62
     0
100
AcDbLine
 10
1830.019389
 20
460.0
 30
0.0
 11
1947.07799
 21
577.058601
 31
0.0
  0
ENDBLK
  5
542
100
AcDbEntity
  8
0
100
AcDbBlockEnd
  0
ENDSEC
  0
SECTION
  2
ENTITIES
  0
LINE
  5
6D
100
AcDbEntity
  8
SJC
100
AcDbLine
 10
1379.877232
 20
860.0
 30
0.0
 11
1689.92799
 21
860.0
 31
0.0
1001
ACAD
1000
ASC_BOUNDS
1002
{
1070
    19
1005
52F
1002
}
  0
LINE
  5
6E
100
AcDbEntity
  8
SJC
100
AcDbLine
 10
1547.07799
 20
460.0
 30
0.0
 11
1947.07799
 21
460.0
 31
0.0
1001
ACAD
1000
ASC_BOUNDS
1002
{
1070
    19
1005
52F
1005
0
1005
0
1005
0
1005
0
1005
52F
1002
}
  0
LINE
  5
6F
100
AcDbEntity
  8
SJC
100
AcDbLine
 10
1804.22799
 20
860.0
 30
0.0
 11
2189.22799
 21
860.0
 31
0.0
1001
ACAD
1000
ASC_BOUNDS
1002
{
1070
    19
1005
52F
1002
}
  0
LINE
  5
75
100
AcDbEntity
  8
SJC
100
AcDbLine
 10
1689.92799
 20
1602.85
 30
0.0
 11
1689.92799
 21
460.0
 31
0.0
1001
ACAD
1000
ASC_BOUNDS
1002
{
1070
    19
1005
52F
1002
}
  0
LINE
  5
76
100
AcDbEntity
  8
SJC
100
AcDbLine
 10
1804.22799
 20
1602.85
 30
0.0
 11
1804.22799
 21
460.0
 31
0.0
1001
ACAD
1000
ASC_BOUNDS
1002
{
1070
    19
1005
52F
1002
}
  0
DIMENSION
  5
78
100
AcDbEntity
  8
SUNPOU
100
AcDbDimension
  2
*D2
 10
1195.187849
 20
460.0
 30
0.0
 11
1165.187849
 21
1060.0
 31
0.0
 70
    32
  3
SJC
100
AcDbAlignedDimension
 13
1747.07799
 23
1660.0
 33
0.0
 14
1546.73124
 24
460.0
 34
0.0
 50
90.0
100
AcDbRotatedDimension
1001
ACAD
1000
DSTYLE
1002
{
1070
    78
1070
     8
1070
   140
1040
30.0
1070
   340
1005
C6
1070
    74
1070
     0
1070
   172
1070
     1
1070
    73
1070
     0
1070
    77
1070
     1
1070
   147
1040
15.0
1070
   287
1070
     5
1070
    42
1040
10.0
1070
    44
1040
10.0
1070
    43
1040
60.0
1070
   271
1070
     2
1070
   178
1070
   256
1070
   177
1070
   256
1070
   176
1070
   256
1070
    41
1040
20.0
1002
}
  0
TEXT
  5
7B
100
AcDbEntity
  8
MOJI2
100
AcDbText
 10
619.444004
 20
2037.061933
 30
0.0
 40
40.0
  1
車止め  CS6-114-80
 41
0.8
  7
KANJI08
100
AcDbText
  0
LINE
  5
7D
100
AcDbEntity
  8
CENTER
100
AcDbLine
 10
1747.07799
 20
1740.0
 30
0.0
 11
1747.07799
 21
400.0
 31
0.0
  0
LINE
  5
7F
100
AcDbEntity
  8
MOJI
100
AcDbLine
 10
1906.97799
 20
1225.0
 30
0.0
 11
2387.666049
 21
1225.0
 31
0.0
  0
TEXT
  5
80
100
AcDbEntity
  8
MOJI
100
AcDbText
 10
1911.992838
 20
1239.195346
 30
0.0
 40
30.0
  1
支柱 %%C114.3×t4.5（STK400）
 41
0.8
  7
KANJI08
100
AcDbText
  0
TEXT
  5
81
100
AcDbEntity
  8
MOJI
100
AcDbText
 10
1948.277373
 20
1186.488745
 30
0.0
 40
30.0
  1
亜鉛めっき＋静電粉体塗装
 41
0.8
  7
KANJI08
100
AcDbText
  0
LINE
  5
82
100
AcDbEntity
  8
MOJI
100
AcDbLine
 10
1934.575854
 20
1752.224449
 30
0.0
 11
2247.515545
 21
1752.224449
 31
0.0
  0
TEXT
  5
83
100
AcDbEntity
  8
MOJI
100
AcDbText
 10
1941.723459
 20
1764.302407
 30
0.0
 40
30.0
  1
キャップ（アルミ合金）
 41
0.8
  7
KANJI08
100
AcDbText
  0
TEXT
  5
84
100
AcDbEntity
  8
MOJI
100
AcDbText
 10
1997.741453
 20
1715.838979
 30
0.0
 40
30.0
  1
静電粉体塗装
 41
0.8
  7
KANJI08
100
AcDbText
  0
LINE
  5
85
100
AcDbEntity
  8
SJC
100
AcDbLine
 10
1547.07799
 20
860.0
 30
0.0
 11
1547.07799
 21
460.0
 31
0.0
1001
ACAD
1000
ASC_BOUNDS
1002
{
1070
    19
1005
52F
1002
}
  0
LINE
  5
86
100
AcDbEntity
  8
SJC
100
AcDbLine
 10
1947.07799
 20
860.0
 30
0.0
 11
1947.07799
 21
460.0
 31
0.0
1001
ACAD
1000
ASC_BOUNDS
1002
{
1070
    19
1005
52F
1002
}
  0
DIMENSION
  5
87
100
AcDbEntity
  8
SUNPOU
100
AcDbDimension
  2
*D3
 10
1947.07799
 20
331.103322
 30
0.0
 11
1747.07799
 21
361.103322
 31
0.0
 12
0.0
 22
19.19424
 32
0.0
 70
    32
  1
□400
  3
SJC
100
AcDbAlignedDimension
 13
1547.07799
 23
459.19424
 33
0.0
 14
1947.07799
 24
459.19424
 34
0.0
100
AcDbRotatedDimension
1001
ACAD
1000
DSTYLE
1002
{
1070
    78
1070
     8
1070
   140
1040
30.0
1070
   340
1005
C6
1070
    74
1070
     0
1070
   172
1070
     1
1070
    73
1070
     0
1070
    77
1070
     1
1070
   147
1040
15.0
1070
   287
1070
     5
1070
    42
1040
10.0
1070
    44
1040
10.0
1070
    43
1040
60.0
1070
   271
1070
     2
1070
   178
1070
   256
1070
   177
1070
   256
1070
   176
1070
   256
1070
    41
1040
20.0
1002
}
  0
INSERT
  5
98
100
AcDbEntity
  8
SJC
100
AcDbBlockReference
  2
1-10BASE
 10
0.0
 20
0.0
 30
0.0
  0
INSERT
  5
AE
100
AcDbEntity
  8
ZWAKU
100
AcDbBlockReference
  2
CALCOMP_TECHJET720A3
 10
0.0
 20
0.0
 30
0.0
 41
10.0
 42
10.0
 43
10.0
  0
TEXT
  5
B0
100
AcDbEntity
  8
INFORMATION
100
AcDbText
 10
1.0
 20
2.0
 30
0.0
 40
0.8
  1
PLOTTER=CALCOMP_TECHJET720
100
AcDbText
  0
TEXT
  5
B1
100
AcDbEntity
  8
INFORMATION
100
AcDbText
 10
1.0
 20
3.0
 30
0.0
 40
0.8
  1
PAPER=A3
100
AcDbText
  0
TEXT
  5
C8
100
AcDbEntity
  8
INFORMATION
100
AcDbText
 10
1.0
 20
1.0
 30
0.0
 40
0.8
  1
VERSION=2.0
100
AcDbText
  0
SOLID
  5
148
100
AcDbEntity
  8
MOJI
  6
CONTINUOUS
100
AcDbTrace
 10
1812.883643
 20
1354.87221
 30
0.0
 11
1818.362421
 21
1358.670557
 31
0.0
 12
1804.22799
 22
1373.207716
 32
0.0
 13
1804.22799
 23
1373.207716
 33
0.0
  0
LINE
  5
149
100
AcDbEntity
  8
MOJI
  6
CONTINUOUS
100
AcDbLine
 10
1815.623032
 20
1356.771384
 30
0.0
 11
1906.97799
 21
1225.0
 31
0.0
  0
INSERT
  5
397
100
AcDbEntity
  8
SJC
100
AcDbBlockReference
  2
1-10BASE
 10
4124.85185
 20
943.655378
 30
0.0
  0
TEXT
  5
39D
100
AcDbEntity
  8
INFORMATION
100
AcDbText
 10
4125.85185
 20
945.655378
 30
0.0
 40
0.8
  1
PLOTTER=CALCOMP_TECHJET720
100
AcDbText
  0
TEXT
  5
39E
100
AcDbEntity
  8
INFORMATION
100
AcDbText
 10
4125.85185
 20
946.655378
 30
0.0
 40
0.8
  1
PAPER=A3
100
AcDbText
  0
TEXT
  5
39F
100
AcDbEntity
  8
INFORMATION
100
AcDbText
 10
4125.85185
 20
944.655378
 30
0.0
 40
0.8
  1
VERSION=2.1
100
AcDbText
  0
ARC
  5
474
100
AcDbEntity
  8
SJC
100
AcDbCircle
 10
1747.07799
 20
1602.85
 30
0.0
 40
57.15
100
AcDbArc
 50
0.0
 51
180.0
  0
LINE
  5
475
100
AcDbEntity
  8
SJC
100
AcDbLine
 10
1689.92799
 20
1602.85
 30
0.0
 11
1804.22799
 21
1602.85
 31
0.0
  0
SOLID
  5
476
100
AcDbEntity
  8
MOJI
  6
CONTINUOUS
100
AcDbTrace
 10
1809.509573
 20
1648.300264
 30
0.0
 11
1805.354888
 21
1653.513999
 31
0.0
 12
1791.791024
 22
1638.443077
 32
0.0
 13
1791.791024
 23
1638.443077
 33
0.0
  0
LINE
  5
477
100
AcDbEntity
  8
MOJI
  6
CONTINUOUS
100
AcDbLine
 10
1807.43223
 20
1650.907132
 30
0.0
 11
1934.575854
 21
1752.224449
 31
0.0
  0
DIMENSION
  5
4BA
100
AcDbEntity
  8
SUNPOU
100
AcDbDimension
  2
*D4
 10
1298.263503
 20
860.0
 30
0.0
 11
1268.263503
 21
1260.0
 31
0.0
 70
    32
  3
SJC
100
AcDbAlignedDimension
 13
1747.07799
 23
1660.0
 33
0.0
 14
1379.877232
 24
860.0
 34
0.0
 50
90.0
100
AcDbRotatedDimension
1001
ACAD
1000
DSTYLE
1002
{
1070
    78
1070
     8
1070
   140
1040
30.0
1070
   340
1005
C6
1070
    74
1070
     0
1070
   172
1070
     1
1070
    73
1070
     0
1070
    77
1070
     1
1070
   147
1040
15.0
1070
   287
1070
     5
1070
    42
1040
10.0
1070
    44
1040
10.0
1070
    43
1040
60.0
1070
   271
1070
     2
1070
   178
1070
   256
1070
   177
1070
   256
1070
   176
1070
   256
1070
    41
1040
20.0
1002
}
  0
DIMENSION
  5
4C7
100
AcDbEntity
  8
SUNPOU
100
AcDbDimension
  2
*D5
 10
1298.263503
 20
460.0
 30
0.0
 11
1268.263503
 21
660.0
 31
0.0
 70
    32
  3
SJC
100
AcDbAlignedDimension
 13
1379.877232
 23
860.0
 33
0.0
 14
1547.07799
 24
460.0
 34
0.0
 50
90.0
100
AcDbRotatedDimension
1001
ACAD
1000
DSTYLE
1002
{
1070
    78
1070
     8
1070
   140
1040
30.0
1070
   340
1005
C6
1070
    74
1070
     0
1070
   172
1070
     1
1070
    73
1070
     0
1070
    77
1070
     1
1070
   147
1040
15.0
1070
   287
1070
     5
1070
    42
1040
10.0
1070
    44
1040
10.0
1070
    43
1040
60.0
1070
   271
1070
     2
1070
   178
1070
   256
1070
   177
1070
   256
1070
   176
1070
   256
1070
    41
1040
20.0
1002
}
  0
TEXT
  5
4FF
100
AcDbEntity
  8
MOJI
100
AcDbText
 10
1381.076593
 20
878.657196
 30
0.0
 40
30.0
  1
GL
 41
0.8
  7
KANJI08
100
AcDbText
  0
INSERT
  5
52F
100
AcDbEntity
  8
HATCH
100
AcDbBlockReference
  2
*X6
 10
0.0
 20
0.0
 30
0.0
1001
ACAD
1000
HATCH
1002
{
1070
    19
1000
PLAST
1040
500.0
1040
0.785398
1000
ASC_BOUNDS
1070
     2
1070
     1
1070
     4
1005
6F
1005
76
1005
6E
1005
86
1070
     1
1070
     4
1005
6D
1005
85
1005
6E
1005
75
1000
ASC_SEEDPOINT
1011
1618.50299
1021
557.842818
1031
0.0
1002
}
  0
ENDSEC
  0
SECTION
  2
OBJECTS
  0
DICTIONARY
  5
C
100
AcDbDictionary
  3
ACAD_GROUP
350
D
  3
ACAD_MLINESTYLE
350
E
  0
DICTIONARY
  5
D
102
{ACAD_REACTORS
330
C
102
}
100
AcDbDictionary
  0
DICTIONARY
  5
E
102
{ACAD_REACTORS
330
C
102
}
100
AcDbDictionary
  3
STANDARD
350
1B
  0
MLINESTYLE
  5
1B
102
{ACAD_REACTORS
330
E
102
}
100
AcDbMlineStyle
  2
STANDARD
 70
     0
  3

 62
     0
 51
90.0
 52
90.0
 71
     2
 49
0.5
 62
   256
  6
BYLAYER
 49
-0.5
 62
   256
  6
BYLAYER
  0
ENDSEC
  0
EOF
