  0
SECTION
  2
HEADER
  9
$ACADVER
  1
AC1012
  9
$DWGCODEPAGE
  3
dos932
  9
$INSBASE
 10
0.0
 20
0.0
 30
0.0
  9
$EXTMIN
 10
0.0
 20
0.0
 30
0.0
  9
$EXTMAX
 10
3700.0
 20
2670.0
 30
0.0
  9
$LIMMIN
 10
0.0
 20
0.0
  9
$LIMMAX
 10
4200.0
 20
2970.0
  9
$ORTHOMODE
 70
     0
  9
$REGENMODE
 70
     1
  9
$FILLMODE
 70
     1
  9
$QTEXTMODE
 70
     0
  9
$MIRRTEXT
 70
     0
  9
$DRAGMODE
 70
     2
  9
$LTSCALE
 40
100.0
  9
$OSMODE
 70
    33
  9
$ATTMODE
 70
     1
  9
$TEXTSIZE
 40
30.0
  9
$TRACEWID
 40
0.05
  9
$TEXTSTYLE
  7
EXT08
  9
$CLAYER
  8
SJC
  9
$CELTYPE
  6
BYLAYER
  9
$CECOLOR
 62
   256
  9
$CELTSCALE
 40
1.0
  9
$DELOBJ
 70
     1
  9
$DISPSILH
 70
     0
  9
$DIMSCALE
 40
10.0
  9
$DIMASZ
 40
2.0
  9
$DIMEXO
 40
1.0
  9
$DIMDLI
 40
6.0
  9
$DIMRND
 40
0.0
  9
$DIMDLE
 40
0.0
  9
$DIMEXE
 40
1.0
  9
$DIMTP
 40
0.0
  9
$DIMTM
 40
0.0
  9
$DIMTXT
 40
3.0
  9
$DIMCEN
 40
0.09
  9
$DIMTSZ
 40
0.0
  9
$DIMTOL
 70
     0
  9
$DIMLIM
 70
     0
  9
$DIMTIH
 70
     0
  9
$DIMTOH
 70
     0
  9
$DIMSE1
 70
     0
  9
$DIMSE2
 70
     0
  9
$DIMTAD
 70
     1
  9
$DIMZIN
 70
     8
  9
$DIMBLK
  1

  9
$DIMASO
 70
     1
  9
$DIMSHO
 70
     1
  9
$DIMPOST
  1

  9
$DIMAPOST
  1

  9
$DIMALT
 70
     0
  9
$DIMALTD
 70
     2
  9
$DIMALTF
 40
25.4
  9
$DIMLFAC
 40
1.0
  9
$DIMTOFL
 70
     1
  9
$DIMTVP
 40
0.0
  9
$DIMTIX
 70
     0
  9
$DIMSOXD
 70
     0
  9
$DIMSAH
 70
     0
  9
$DIMBLK1
  1

  9
$DIMBLK2
  1

  9
$DIMSTYLE
  2
SJC
  9
$DIMCLRD
 70
     0
  9
$DIMCLRE
 70
     0
  9
$DIMCLRT
 70
     0
  9
$DIMTFAC
 40
1.0
  9
$DIMGAP
 40
1.2
  9
$DIMJUST
 70
     0
  9
$DIMSD1
 70
     0
  9
$DIMSD2
 70
     0
  9
$DIMTOLJ
 70
     1
  9
$DIMTZIN
 70
     0
  9
$DIMALTZ
 70
     0
  9
$DIMALTTZ
 70
     0
  9
$DIMFIT
 70
     5
  9
$DIMUPT
 70
     0
  9
$DIMUNIT
 70
     2
  9
$DIMDEC
 70
     2
  9
$DIMTDEC
 70
     4
  9
$DIMALTU
 70
     2
  9
$DIMALTTD
 70
     2
  9
$DIMTXSTY
  7
EXT08
  9
$DIMAUNIT
 70
     0
  9
$LUNITS
 70
     2
  9
$LUPREC
 70
     2
  9
$SKETCHINC
 40
0.1
  9
$FILLETRAD
 40
0.0
  9
$AUNITS
 70
     1
  9
$AUPREC
 70
     2
  9
$MENU
  1
C:\r13\win\SUPPORT\sjc
  9
$ELEVATION
 40
0.0
  9
$PELEVATION
 40
0.0
  9
$THICKNESS
 40
0.0
  9
$LIMCHECK
 70
     0
  9
$BLIPMODE
 70
     1
  9
$CHAMFERA
 40
0.0
  9
$CHAMFERB
 40
0.0
  9
$CHAMFERC
 40
0.0
  9
$CHAMFERD
 40
0.0
  9
$SKPOLY
 70
     0
  9
$TDCREATE
 40
2449337.412180787
  9
$TDUPDATE
 40
2451947.687272071
  9
$TDINDWG
 40
0.1584916204
  9
$TDUSRTIMER
 40
0.1584916204
  9
$USRTIMER
 70
     1
  9
$ANGBASE
 50
0.0
  9
$ANGDIR
 70
     0
  9
$PDMODE
 70
    33
  9
$PDSIZE
 40
5.0
  9
$PLINEWID
 40
0.0
  9
$COORDS
 70
     1
  9
$SPLFRAME
 70
     0
  9
$SPLINETYPE
 70
     6
  9
$SPLINESEGS
 70
     8
  9
$ATTDIA
 70
     0
  9
$ATTREQ
 70
     1
  9
$HANDLING
 70
     1
  9
$HANDSEED
  5
677
  9
$SURFTAB1
 70
     6
  9
$SURFTAB2
 70
     6
  9
$SURFTYPE
 70
     6
  9
$SURFU
 70
     6
  9
$SURFV
 70
     6
  9
$UCSNAME
  2

  9
$UCSORG
 10
0.0
 20
0.0
 30
0.0
  9
$UCSXDIR
 10
1.0
 20
0.0
 30
0.0
  9
$UCSYDIR
 10
0.0
 20
1.0
 30
0.0
  9
$PUCSNAME
  2

  9
$PUCSORG
 10
0.0
 20
0.0
 30
0.0
  9
$PUCSXDIR
 10
1.0
 20
0.0
 30
0.0
  9
$PUCSYDIR
 10
0.0
 20
1.0
 30
0.0
  9
$USERI1
 70
     3
  9
$USERI2
 70
    10
  9
$USERI3
 70
     0
  9
$USERI4
 70
     0
  9
$USERI5
 70
     0
  9
$USERR1
 40
0.0
  9
$USERR2
 40
0.0
  9
$USERR3
 40
0.0
  9
$USERR4
 40
0.0
  9
$USERR5
 40
0.0
  9
$WORLDVIEW
 70
     1
  9
$SHADEDGE
 70
     3
  9
$SHADEDIF
 70
    70
  9
$TILEMODE
 70
     1
  9
$MAXACTVP
 70
    16
  9
$PINSBASE
 10
0.0
 20
0.0
 30
0.0
  9
$PLIMCHECK
 70
     0
  9
$PEXTMIN
 10
1.000000E+20
 20
1.000000E+20
 30
1.000000E+20
  9
$PEXTMAX
 10
-1.000000E+20
 20
-1.000000E+20
 30
-1.000000E+20
  9
$PLIMMIN
 10
0.0
 20
0.0
  9
$PLIMMAX
 10
12.0
 20
9.0
  9
$UNITMODE
 70
     0
  9
$VISRETAIN
 70
     0
  9
$PLINEGEN
 70
     0
  9
$PSLTSCALE
 70
     0
  9
$TREEDEPTH
 70
  3020
  9
$PICKSTYLE
 70
     1
  9
$CMLSTYLE
  2
STANDARD
  9
$CMLJUST
 70
     0
  9
$CMLSCALE
 40
1.0
  9
$SAVEIMAGES
 70
     0
  0
ENDSEC
  0
SECTION
  2
CLASSES
  0
ENDSEC
  0
SECTION
  2
TABLES
  0
TABLE
  2
VPORT
  5
8
100
AcDbSymbolTable
 70
     7
  0
VPORT
  5
676
100
AcDbSymbolTableRecord
100
AcDbViewportTableRecord
  2
*ACTIVE
 70
     0
 10
0.0
 20
0.0
 11
1.0
 21
1.0
 12
2736.098901
 22
1485.0
 13
0.0
 23
0.0
 14
10.0
 24
10.0
 15
0.0
 25
0.0
 16
0.0
 26
0.0
 36
1.0
 17
0.0
 27
0.0
 37
0.0
 40
2970.0
 41
1.842491
 42
50.0
 43
0.0
 44
0.0
 50
0.0
 51
0.0
 71
     0
 72
   100
 73
     1
 74
     1
 75
     0
 76
     0
 77
     0
 78
     0
  0
ENDTAB
  0
TABLE
  2
LTYPE
  5
5
100
AcDbSymbolTable
 70
     5
  0
LTYPE
  5
12
100
AcDbSymbolTableRecord
100
AcDbLinetypeTableRecord
  2
BYBLOCK
 70
     0
  3

 72
    65
 73
     0
 40
0.0
  0
LTYPE
  5
13
100
AcDbSymbolTableRecord
100
AcDbLinetypeTableRecord
  2
BYLAYER
 70
     0
  3

 72
    65
 73
     0
 40
0.0
  0
LTYPE
  5
14
100
AcDbSymbolTableRecord
100
AcDbLinetypeTableRecord
  2
CONTINUOUS
 70
    64
  3
Solid line
 72
    65
 73
     0
 40
0.0
  0
LTYPE
  5
27
100
AcDbSymbolTableRecord
100
AcDbLinetypeTableRecord
  2
CENTER
 70
    64
  3
____ _ ____ _ ____ _ ____ _ ____ _ ____ _ ____ 
 72
    65
 73
     4
 40
2.0
 49
1.25
 74
     0
 49
-0.25
 74
     0
 49
0.25
 74
     0
 49
-0.25
 74
     0
  0
LTYPE
  5
28
100
AcDbSymbolTableRecord
100
AcDbLinetypeTableRecord
  2
HIDDEN
 70
    64
  3
__ __ __ __ __ __ __ __ __ __ __ __ __ __ __ __
 72
    65
 73
     2
 40
0.375
 49
0.25
 74
     0
 49
-0.125
 74
     0
  0
LTYPE
  5
29
100
AcDbSymbolTableRecord
100
AcDbLinetypeTableRecord
  2
HIDDEN2
 70
    64
  3
_ _ _ _ _ _ _ _ _ _ _ _ _ _ _ _ _ _ _ _ _ _ _ _
 72
    65
 73
     2
 40
0.1875
 49
0.125
 74
     0
 49
-0.0625
 74
     0
  0
LTYPE
  5
2A
100
AcDbSymbolTableRecord
100
AcDbLinetypeTableRecord
  2
PHANTOM
 70
    64
  3
______  __  __  ______  __  __  ______  __  __ 
 72
    65
 73
     6
 40
2.5
 49
1.25
 74
     0
 49
-0.25
 74
     0
 49
0.25
 74
     0
 49
-0.25
 74
     0
 49
0.25
 74
     0
 49
-0.25
 74
     0
  0
ENDTAB
  0
TABLE
  2
LAYER
  5
2
100
AcDbSymbolTable
 70
    15
  0
LAYER
  5
F
100
AcDbSymbolTableRecord
100
AcDbLayerTableRecord
  2
0
 70
    64
 62
     7
  6
CONTINUOUS
  0
LAYER
  5
30
100
AcDbSymbolTableRecord
100
AcDbLayerTableRecord
  2
CENTER
 70
    64
 62
     3
  6
CENTER
  0
LAYER
  5
31
100
AcDbSymbolTableRecord
100
AcDbLayerTableRecord
  2
HASEN
 70
    64
 62
     7
  6
HIDDEN
  0
LAYER
  5
32
100
AcDbSymbolTableRecord
100
AcDbLayerTableRecord
  2
HOJO
 70
    64
 62
    -8
  6
CONTINUOUS
  0
LAYER
  5
33
100
AcDbSymbolTableRecord
100
AcDbLayerTableRecord
  2
KASOU
 70
     0
 62
     2
  6
PHANTOM
  0
LAYER
  5
34
100
AcDbSymbolTableRecord
100
AcDbLayerTableRecord
  2
MOJI
 70
    64
 62
     6
  6
CONTINUOUS
  0
LAYER
  5
35
100
AcDbSymbolTableRecord
100
AcDbLayerTableRecord
  2
SJC
 70
    64
 62
     1
  6
CONTINUOUS
  0
LAYER
  5
36
100
AcDbSymbolTableRecord
100
AcDbLayerTableRecord
  2
SUNPOU
 70
    64
 62
     4
  6
CONTINUOUS
  0
LAYER
  5
37
100
AcDbSymbolTableRecord
100
AcDbLayerTableRecord
  2
WAKU
 70
     0
 62
     5
  6
CONTINUOUS
  0
LAYER
  5
38
100
AcDbSymbolTableRecord
100
AcDbLayerTableRecord
  2
DEFPOINTS
 70
    64
 62
     7
  6
CONTINUOUS
  0
LAYER
  5
150
100
AcDbSymbolTableRecord
100
AcDbLayerTableRecord
  2
SJC2
 70
    64
 62
     7
  6
CONTINUOUS
  0
LAYER
  5
151
100
AcDbSymbolTableRecord
100
AcDbLayerTableRecord
  2
MOJI2
 70
    64
 62
     1
  6
CONTINUOUS
  0
LAYER
  5
152
100
AcDbSymbolTableRecord
100
AcDbLayerTableRecord
  2
HATCH
 70
    64
 62
     2
  6
CONTINUOUS
  0
LAYER
  5
153
100
AcDbSymbolTableRecord
100
AcDbLayerTableRecord
  2
ZWAKU
 70
    64
 62
     7
  6
CONTINUOUS
  0
LAYER
  5
164
100
AcDbSymbolTableRecord
100
AcDbLayerTableRecord
  2
INFORMATION
 70
    65
 62
     7
  6
CONTINUOUS
  0
ENDTAB
  0
TABLE
  2
STYLE
  5
3
100
AcDbSymbolTable
 70
    10
  0
STYLE
  5
10
100
AcDbSymbolTableRecord
100
AcDbTextStyleTableRecord
  2
STANDARD
 70
     0
 40
0.0
 41
1.0
 50
0.0
 71
     0
 42
3.0
  3
TXT
  4
BIGFONT
  0
STYLE
  5
25
100
AcDbSymbolTableRecord
100
AcDbTextStyleTableRecord
  2
USER
 70
    64
 40
0.0
 41
1.0
 50
0.0
 71
     0
 42
30.0
  3
TXT
  4
BIGFONT
  0
STYLE
  5
26
100
AcDbSymbolTableRecord
100
AcDbTextStyleTableRecord
  2
TEXT3030
 70
    64
 40
30.0
 41
1.0
 50
0.0
 71
     0
 42
30.0
  3
TXT
  4
BIGFONT
  0
STYLE
  5
154
100
AcDbSymbolTableRecord
100
AcDbTextStyleTableRecord
  2
KANJI
 70
     0
 40
0.0
 41
1.0
 50
0.0
 71
     0
 42
0.0
  3
ROMANS.SHX
  4
BIGFONT.SHX
  0
STYLE
  5
155
100
AcDbSymbolTableRecord
100
AcDbTextStyleTableRecord
  2
SIMPLEX
 70
     0
 40
0.0
 41
1.0
 50
0.0
 71
     0
 42
0.0
  3
SCRIPTS.SHX
  4

  0
STYLE
  5
177
100
AcDbSymbolTableRecord
100
AcDbTextStyleTableRecord
  2
TATEEXT
 70
    68
 40
0.0
 41
1.0
 50
0.0
 71
     0
 42
0.0
  3
ROMANS
  4
EXTFONT
  0
STYLE
  5
178
100
AcDbSymbolTableRecord
100
AcDbTextStyleTableRecord
  2
TATEBIG
 70
    68
 40
0.0
 41
1.0
 50
0.0
 71
     0
 42
0.0
  3
ROMANS
  4
BIGFONT
  0
STYLE
  5
179
100
AcDbSymbolTableRecord
100
AcDbTextStyleTableRecord
  2
EXT08
 70
    64
 40
0.0
 41
0.8
 50
0.0
 71
     0
 42
30.0
  3
ROMANS
  4
EXTFONT
  0
STYLE
  5
17A
100
AcDbSymbolTableRecord
100
AcDbTextStyleTableRecord
  2
EXT
 70
    64
 40
0.0
 41
1.0
 50
0.0
 71
     0
 42
0.0
  3
ROMANS
  4
EXTFONT
  0
STYLE
  5
17B
100
AcDbSymbolTableRecord
100
AcDbTextStyleTableRecord
  2
KANJI08
 70
    64
 40
0.0
 41
0.8
 50
0.0
 71
     0
 42
0.0
  3
ROMANS
  4
BIGFONT
  0
ENDTAB
  0
TABLE
  2
VIEW
  5
6
100
AcDbSymbolTable
 70
     0
  0
ENDTAB
  0
TABLE
  2
UCS
  5
7
100
AcDbSymbolTable
 70
     0
  0
ENDTAB
  0
TABLE
  2
APPID
  5
9
100
AcDbSymbolTable
 70
     1
  0
APPID
  5
11
100
AcDbSymbolTableRecord
100
AcDbRegAppTableRecord
  2
ACAD
 70
    64
  0
ENDTAB
  0
TABLE
  2
DIMSTYLE
  5
A
100
AcDbSymbolTable
 70
     5
  0
DIMSTYLE
105
2D
100
AcDbSymbolTableRecord
100
AcDbDimStyleTableRecord
  2
S01-10AX
 70
    64
  3

  4

  5

  6

  7

 40
1.0
 41
20.0
 42
0.0625
 43
0.38
 44
10.0
 45
0.0
 46
0.0
 47
0.0
 48
0.0
140
30.0
141
0.09
142
0.0
143
25.4
144
1.0
145
0.0
146
0.006
147
0.09
 71
     0
 72
     0
 73
     0
 74
     0
 75
     0
 76
     0
 77
     1
 78
     8
170
     0
171
     2
172
     1
173
     0
174
     1
175
     0
176
     0
177
     0
178
     0
270
     2
271
     4
272
     4
273
     2
274
     2
340
26
275
     0
280
     0
281
     0
282
     0
283
     1
284
     8
285
     8
286
     8
287
     5
288
     0
  0
DIMSTYLE
105
17C
100
AcDbSymbolTableRecord
100
AcDbDimStyleTableRecord
  2
SJC
 70
     0
  3

  4

  5

  6

  7

 40
1.0
 41
0.18
 42
0.0625
 43
0.38
 44
0.18
 45
0.0
 46
0.0
 47
0.0
 48
0.0
140
0.18
141
0.09
142
0.0
143
25.4
144
1.0
145
0.0
146
1.0
147
0.09
 71
     0
 72
     0
 73
     1
 74
     1
 75
     0
 76
     0
 77
     0
 78
     0
170
     0
171
     2
172
     0
173
     0
174
     0
175
     0
176
     0
177
     0
178
     0
270
     2
271
     4
272
     4
273
     2
274
     2
340
10
275
     0
280
     0
281
     0
282
     0
283
     1
284
     0
285
     0
286
     0
287
     3
288
     0
  0
DIMSTYLE
105
450
100
AcDbSymbolTableRecord
100
AcDbDimStyleTableRecord
  2
STANDARD
 70
     0
  3

  4

  5

  6

  7

 40
10.0
 41
2.0
 42
1.0
 43
6.0
 44
1.0
 45
0.0
 46
0.0
 47
0.0
 48
0.0
140
3.0
141
0.09
142
0.0
143
25.4
144
1.0
145
0.0
146
1.0
147
1.2
 71
     0
 72
     0
 73
     0
 74
     0
 75
     0
 76
     0
 77
     1
 78
     8
170
     0
171
     2
172
     1
173
     0
174
     0
175
     0
176
   256
177
   256
178
   256
270
     2
271
     2
272
     4
273
     2
274
     2
340
179
275
     1
280
     0
281
     0
282
     0
283
     1
284
     0
285
     0
286
     0
287
     5
288
     0
  0
DIMSTYLE
105
459
100
AcDbSymbolTableRecord
100
AcDbDimStyleTableRecord
  2
RUISEKI1
 70
     0
  3

  4

  5

  6
_DOT
  7

 40
10.0
 41
2.0
 42
1.0
 43
6.0
 44
30.0
 45
0.0
 46
0.0
 47
0.0
 48
0.0
140
3.0
141
0.09
142
0.0
143
25.4
144
1.0
145
0.0
146
1.0
147
1.5
 71
     0
 72
     0
 73
     0
 74
     0
 75
     0
 76
     0
 77
     1
 78
     8
170
     0
171
     2
172
     1
173
     1
174
     0
175
     0
176
   256
177
   256
178
   256
270
     2
271
     2
272
     4
273
     2
274
     2
340
179
275
     1
280
     0
281
     0
282
     0
283
     1
284
     0
285
     0
286
     0
287
     5
288
     0
  0
DIMSTYLE
105
45E
100
AcDbSymbolTableRecord
100
AcDbDimStyleTableRecord
  2
RUISEKI2
 70
     0
  3

  4

  5

  6
_NONE
  7

 40
10.0
 41
2.0
 42
1.0
 43
6.0
 44
30.0
 45
0.0
 46
0.0
 47
0.0
 48
0.0
140
3.0
141
0.09
142
0.0
143
25.4
144
1.0
145
0.0
146
1.0
147
1.5
 71
     0
 72
     0
 73
     0
 74
     0
 75
     0
 76
     0
 77
     1
 78
     8
170
     0
171
     2
172
     1
173
     1
174
     0
175
     0
176
   256
177
   256
178
   256
270
     2
271
     2
272
     4
273
     2
274
     2
340
179
275
     1
280
     0
281
     0
282
     0
283
     1
284
     0
285
     0
286
     0
287
     5
288
     0
  0
ENDTAB
  0
TABLE
  2
BLOCK_RECORD
  5
1
100
AcDbSymbolTable
 70
    14
  0
BLOCK_RECORD
  5
18
100
AcDbSymbolTableRecord
100
AcDbBlockTableRecord
  2
*MODEL_SPACE
  0
BLOCK_RECORD
  5
15
100
AcDbSymbolTableRecord
100
AcDbBlockTableRecord
  2
*PAPER_SPACE
  0
BLOCK_RECORD
  5
22
100
AcDbSymbolTableRecord
100
AcDbBlockTableRecord
  2
1-10BASE
  0
BLOCK_RECORD
  5
157
100
AcDbSymbolTableRecord
100
AcDbBlockTableRecord
  2
CALCOMP_TECHJET720A3
  0
BLOCK_RECORD
  5
1BF
100
AcDbSymbolTableRecord
100
AcDbBlockTableRecord
  2
*X2
  0
BLOCK_RECORD
  5
1D5
100
AcDbSymbolTableRecord
100
AcDbBlockTableRecord
  2
*D3
  0
BLOCK_RECORD
  5
1E1
100
AcDbSymbolTableRecord
100
AcDbBlockTableRecord
  2
*D4
  0
BLOCK_RECORD
  5
1ED
100
AcDbSymbolTableRecord
100
AcDbBlockTableRecord
  2
*D5
  0
BLOCK_RECORD
  5
21B
100
AcDbSymbolTableRecord
100
AcDbBlockTableRecord
  2
*D6
  0
BLOCK_RECORD
  5
298
100
AcDbSymbolTableRecord
100
AcDbBlockTableRecord
  2
*D7
  0
ENDTAB
  0
ENDSEC
  0
SECTION
  2
BLOCKS
  0
BLOCK
  5
3B
100
AcDbEntity
  8
SJC
100
AcDbBlockBegin
  2
*MODEL_SPACE
 70
     0
 10
0.0
 20
0.0
 30
0.0
  3
*MODEL_SPACE
  1

  0
ENDBLK
  5
3C
100
AcDbEntity
  8
SJC
100
AcDbBlockEnd
  0
BLOCK
  5
39
100
AcDbEntity
 67
     1
  8
SJC
100
AcDbBlockBegin
  2
*PAPER_SPACE
 70
     0
 10
0.0
 20
0.0
 30
0.0
  3
*PAPER_SPACE
  1

  0
ENDBLK
  5
3A
100
AcDbEntity
 67
     1
  8
SJC
100
AcDbBlockEnd
  0
BLOCK
  5
85
100
AcDbEntity
  8
0
100
AcDbBlockBegin
  2
1-10BASE
 70
    64
 10
0.0
 20
0.0
 30
0.0
  3
1-10BASE
  1

  0
ENDBLK
  5
86
100
AcDbEntity
  8
0
100
AcDbBlockEnd
  0
BLOCK
  5
15E
100
AcDbEntity
  8
ZWAKU
100
AcDbBlockBegin
  2
CALCOMP_TECHJET720A3
 70
     0
 10
0.0
 20
0.0
 30
0.0
  3
CALCOMP_TECHJET720A3
  1

  0
POLYLINE
  5
158
100
AcDbEntity
  8
ZWAKU
100
AcDb2dPolyline
 66
     1
 10
0.0
 20
0.0
 30
0.0
 70
     1
  0
VERTEX
  5
159
100
AcDbEntity
  8
ZWAKU
100
AcDbVertex
100
AcDb2dVertex
 10
0.0
 20
0.0
 30
0.0
  0
VERTEX
  5
15A
100
AcDbEntity
  8
ZWAKU
100
AcDbVertex
100
AcDb2dVertex
 10
0.0
 20
267.0
 30
0.0
  0
VERTEX
  5
15B
100
AcDbEntity
  8
ZWAKU
100
AcDbVertex
100
AcDb2dVertex
 10
370.0
 20
267.0
 30
0.0
  0
VERTEX
  5
15C
100
AcDbEntity
  8
ZWAKU
100
AcDbVertex
100
AcDb2dVertex
 10
370.0
 20
0.0
 30
0.0
  0
SEQEND
  5
15D
100
AcDbEntity
  8
ZWAKU
  0
ENDBLK
  5
15F
100
AcDbEntity
  8
ZWAKU
100
AcDbBlockEnd
  0
BLOCK
  5
1C0
100
AcDbEntity
  8
0
100
AcDbBlockBegin
  2
*X2
 70
    65
 10
0.0
 20
0.0
 30
0.0
  3
*X2
  1

  0
LINE
  5
1C2
100
AcDbEntity
  8
0
 62
     0
100
AcDbLine
 10
1837.485108
 20
423.271546
 30
0.0
 11
1967.585108
 21
553.371546
 31
0.0
  0
LINE
  5
1C3
100
AcDbEntity
  8
0
 62
     0
100
AcDbLine
 10
2107.385108
 20
693.171546
 30
0.0
 11
2162.768909
 21
748.555347
 31
0.0
  0
LINE
  5
1C4
100
AcDbEntity
  8
0
 62
     0
100
AcDbLine
 10
1837.485108
 20
600.048241
 30
0.0
 11
1967.585108
 21
730.148241
 31
0.0
  0
LINE
  5
1C5
100
AcDbEntity
  8
0
 62
     0
100
AcDbLine
 10
1939.545605
 20
348.555347
 30
0.0
 11
1967.585108
 21
376.59485
 31
0.0
  0
LINE
  5
1C6
100
AcDbEntity
  8
0
 62
     0
100
AcDbLine
 10
2107.385108
 20
516.39485
 30
0.0
 11
2237.485108
 21
646.49485
 31
0.0
  0
LINE
  5
1C7
100
AcDbEntity
  8
0
 62
     0
100
AcDbLine
 10
2116.3223
 20
348.555347
 30
0.0
 11
2237.485108
 21
469.718155
 31
0.0
  0
LINE
  5
1C8
100
AcDbEntity
  8
0
 62
     0
100
AcDbLine
 10
1837.485108
 20
445.368632
 30
0.0
 11
1967.585108
 21
575.468632
 31
0.0
  0
LINE
  5
1C9
100
AcDbEntity
  8
0
 62
     0
100
AcDbLine
 10
2107.385108
 20
715.268632
 30
0.0
 11
2140.671822
 21
748.555347
 31
0.0
  0
LINE
  5
1CA
100
AcDbEntity
  8
0
 62
     0
100
AcDbLine
 10
1837.485108
 20
622.145328
 30
0.0
 11
1963.895127
 21
748.555347
 31
0.0
  0
LINE
  5
1CB
100
AcDbEntity
  8
0
 62
     0
100
AcDbLine
 10
1917.448518
 20
348.555347
 30
0.0
 11
1967.585108
 21
398.691937
 31
0.0
  0
LINE
  5
1CC
100
AcDbEntity
  8
0
 62
     0
100
AcDbLine
 10
2107.385108
 20
538.491937
 30
0.0
 11
2237.485108
 21
668.591937
 31
0.0
  0
LINE
  5
1CD
100
AcDbEntity
  8
0
 62
     0
100
AcDbLine
 10
2107.385108
 20
361.715242
 30
0.0
 11
2237.485108
 21
491.815242
 31
0.0
  0
LINE
  5
1CE
100
AcDbEntity
  8
0
 62
     0
100
AcDbLine
 10
1837.485108
 20
467.465719
 30
0.0
 11
1967.585108
 21
597.565719
 31
0.0
  0
LINE
  5
1CF
100
AcDbEntity
  8
0
 62
     0
100
AcDbLine
 10
2107.385108
 20
737.365719
 30
0.0
 11
2118.574735
 21
748.555347
 31
0.0
  0
LINE
  5
1D0
100
AcDbEntity
  8
0
 62
     0
100
AcDbLine
 10
1837.485108
 20
644.242415
 30
0.0
 11
1941.79804
 21
748.555347
 31
0.0
  0
LINE
  5
1D1
100
AcDbEntity
  8
0
 62
     0
100
AcDbLine
 10
1895.351431
 20
348.555347
 30
0.0
 11
1967.585108
 21
420.789024
 31
0.0
  0
LINE
  5
1D2
100
AcDbEntity
  8
0
 62
     0
100
AcDbLine
 10
2107.385108
 20
560.589024
 30
0.0
 11
2237.485108
 21
690.689024
 31
0.0
  0
LINE
  5
1D3
100
AcDbEntity
  8
0
 62
     0
100
AcDbLine
 10
2107.385108
 20
383.812329
 30
0.0
 11
2237.485108
 21
513.912329
 31
0.0
  0
ENDBLK
  5
1D4
100
AcDbEntity
  8
0
100
AcDbBlockEnd
  0
BLOCK
  5
4F9
100
AcDbEntity
  8
0
100
AcDbBlockBegin
  2
*D3
 70
    65
 10
0.0
 20
0.0
 30
0.0
  3
*D3
  1

  0
LINE
  5
4FA
100
AcDbEntity
  8
0
  6
BYBLOCK
100
AcDbLine
 10
732.685108
 20
336.079932
 30
0.0
 11
732.685108
 21
206.178282
 31
0.0
  0
LINE
  5
4FB
100
AcDbEntity
  8
0
  6
BYBLOCK
100
AcDbLine
 10
1132.685108
 20
336.079932
 30
0.0
 11
1132.685108
 21
206.178282
 31
0.0
  0
LINE
  5
4FC
100
AcDbEntity
  8
0
  6
BYBLOCK
100
AcDbLine
 10
752.685108
 20
216.178282
 30
0.0
 11
1112.685108
 21
216.178282
 31
0.0
  0
SOLID
  5
4FD
100
AcDbEntity
  8
0
  6
BYBLOCK
100
AcDbTrace
 10
752.685108
 20
219.511615
 30
0.0
 11
752.685108
 21
212.844949
 31
0.0
 12
732.685108
 22
216.178282
 32
0.0
 13
732.685108
 23
216.178282
 33
0.0
  0
SOLID
  5
4FE
100
AcDbEntity
  8
0
  6
BYBLOCK
100
AcDbTrace
 10
1112.685108
 20
219.511615
 30
0.0
 11
1112.685108
 21
212.844949
 31
0.0
 12
1132.685108
 22
216.178282
 32
0.0
 13
1132.685108
 23
216.178282
 33
0.0
  0
MTEXT
  5
4FF
100
AcDbEntity
  8
0
  6
BYBLOCK
100
AcDbMText
 10
932.685108
 20
243.178282
 30
0.0
 40
30.0
 41
0.0
 71
     5
 72
     1
  1
\A1;□400
  7
EXT08
  0
POINT
  5
500
100
AcDbEntity
  8
DEFPOINTS
  6
BYBLOCK
 62
     0
100
AcDbPoint
 10
732.685108
 20
346.079932
 30
0.0
  0
POINT
  5
501
100
AcDbEntity
  8
DEFPOINTS
  6
BYBLOCK
 62
     0
100
AcDbPoint
 10
1132.685108
 20
346.079932
 30
0.0
  0
POINT
  5
502
100
AcDbEntity
  8
DEFPOINTS
  6
BYBLOCK
 62
     0
100
AcDbPoint
 10
1132.685108
 20
216.178282
 30
0.0
  0
ENDBLK
  5
503
100
AcDbEntity
  8
0
100
AcDbBlockEnd
  0
BLOCK
  5
50F
100
AcDbEntity
  8
0
100
AcDbBlockBegin
  2
*D4
 70
    65
 10
0.0
 20
0.0
 30
0.0
  3
*D4
  1

  0
LINE
  5
510
100
AcDbEntity
  8
0
  6
BYBLOCK
100
AcDbLine
 10
922.685108
 20
1548.555347
 30
0.0
 11
428.643192
 21
1548.555347
 31
0.0
  0
LINE
  5
511
100
AcDbEntity
  8
0
  6
BYBLOCK
100
AcDbLine
 10
723.868783
 20
348.555347
 30
0.0
 11
428.643192
 21
348.555347
 31
0.0
  0
LINE
  5
512
100
AcDbEntity
  8
0
  6
BYBLOCK
100
AcDbLine
 10
438.643192
 20
1528.555347
 30
0.0
 11
438.643192
 21
368.555347
 31
0.0
  0
SOLID
  5
513
100
AcDbEntity
  8
0
  6
BYBLOCK
100
AcDbTrace
 10
435.309859
 20
1528.555347
 30
0.0
 11
441.976525
 21
1528.555347
 31
0.0
 12
438.643192
 22
1548.555347
 32
0.0
 13
438.643192
 23
1548.555347
 33
0.0
  0
SOLID
  5
514
100
AcDbEntity
  8
0
  6
BYBLOCK
100
AcDbTrace
 10
435.309859
 20
368.555347
 30
0.0
 11
441.976525
 21
368.555347
 31
0.0
 12
438.643192
 22
348.555347
 32
0.0
 13
438.643192
 23
348.555347
 33
0.0
  0
MTEXT
  5
515
100
AcDbEntity
  8
0
  6
BYBLOCK
100
AcDbMText
 10
411.643192
 20
948.555347
 30
0.0
 40
30.0
 41
0.0
 71
     5
 72
     1
  1
\A1;1200
  7
EXT08
 11
0.0
 21
1.0
 31
0.0
  0
POINT
  5
516
100
AcDbEntity
  8
DEFPOINTS
  6
BYBLOCK
 62
     0
100
AcDbPoint
 10
932.685108
 20
1548.555347
 30
0.0
  0
POINT
  5
517
100
AcDbEntity
  8
DEFPOINTS
  6
BYBLOCK
 62
     0
100
AcDbPoint
 10
733.868783
 20
348.555347
 30
0.0
  0
POINT
  5
518
100
AcDbEntity
  8
DEFPOINTS
  6
BYBLOCK
 62
     0
100
AcDbPoint
 10
438.643192
 20
348.555347
 30
0.0
  0
ENDBLK
  5
519
100
AcDbEntity
  8
0
100
AcDbBlockEnd
  0
BLOCK
  5
504
100
AcDbEntity
  8
0
100
AcDbBlockBegin
  2
*D5
 70
    65
 10
0.0
 20
0.0
 30
0.0
  3
*D5
  1

  0
LINE
  5
505
100
AcDbEntity
  8
0
  6
BYBLOCK
100
AcDbLine
 10
922.685108
 20
1548.555347
 30
0.0
 11
540.636152
 21
1548.555347
 31
0.0
  0
LINE
  5
506
100
AcDbEntity
  8
0
  6
BYBLOCK
100
AcDbLine
 10
540.636152
 20
748.555367
 30
0.0
 11
540.636152
 21
748.555367
 31
0.0
  0
LINE
  5
507
100
AcDbEntity
  8
0
  6
BYBLOCK
100
AcDbLine
 10
550.636152
 20
1528.555347
 30
0.0
 11
550.636152
 21
768.555367
 31
0.0
  0
SOLID
  5
508
100
AcDbEntity
  8
0
  6
BYBLOCK
100
AcDbTrace
 10
547.302819
 20
1528.555347
 30
0.0
 11
553.969486
 21
1528.555347
 31
0.0
 12
550.636152
 22
1548.555347
 32
0.0
 13
550.636152
 23
1548.555347
 33
0.0
  0
SOLID
  5
509
100
AcDbEntity
  8
0
  6
BYBLOCK
100
AcDbTrace
 10
547.302819
 20
768.555367
 30
0.0
 11
553.969486
 21
768.555367
 31
0.0
 12
550.636152
 22
748.555367
 32
0.0
 13
550.636152
 23
748.555367
 33
0.0
  0
MTEXT
  5
50A
100
AcDbEntity
  8
0
  6
BYBLOCK
100
AcDbMText
 10
523.636152
 20
1148.555357
 30
0.0
 40
30.0
 41
0.0
 71
     5
 72
     1
  1
\A1;800
  7
EXT08
 11
0.0
 21
1.0
 31
0.0
  0
POINT
  5
50B
100
AcDbEntity
  8
DEFPOINTS
  6
BYBLOCK
 62
     0
100
AcDbPoint
 10
932.685108
 20
1548.555347
 30
0.0
  0
POINT
  5
50C
100
AcDbEntity
  8
DEFPOINTS
  6
BYBLOCK
 62
     0
100
AcDbPoint
 10
550.636152
 20
748.555367
 30
0.0
  0
POINT
  5
50D
100
AcDbEntity
  8
DEFPOINTS
  6
BYBLOCK
 62
     0
100
AcDbPoint
 10
550.636152
 20
748.555367
 30
0.0
  0
ENDBLK
  5
50E
100
AcDbEntity
  8
0
100
AcDbBlockEnd
  0
BLOCK
  5
4EE
100
AcDbEntity
  8
0
100
AcDbBlockBegin
  2
*D6
 70
    65
 10
0.0
 20
0.0
 30
0.0
  3
*D6
  1

  0
LINE
  5
4EF
100
AcDbEntity
  8
0
  6
BYBLOCK
100
AcDbLine
 10
922.685108
 20
1548.555347
 30
0.0
 11
657.785108
 21
1548.555347
 31
0.0
  0
LINE
  5
4F0
100
AcDbEntity
  8
0
  6
BYBLOCK
100
AcDbLine
 10
832.785108
 20
1403.555347
 30
0.0
 11
657.785108
 21
1403.555347
 31
0.0
  0
LINE
  5
4F1
100
AcDbEntity
  8
0
  6
BYBLOCK
100
AcDbLine
 10
667.785108
 20
1528.555347
 30
0.0
 11
667.785108
 21
1423.555347
 31
0.0
  0
SOLID
  5
4F2
100
AcDbEntity
  8
0
  6
BYBLOCK
100
AcDbTrace
 10
664.451775
 20
1528.555347
 30
0.0
 11
671.118441
 21
1528.555347
 31
0.0
 12
667.785108
 22
1548.555347
 32
0.0
 13
667.785108
 23
1548.555347
 33
0.0
  0
SOLID
  5
4F3
100
AcDbEntity
  8
0
  6
BYBLOCK
100
AcDbTrace
 10
664.451775
 20
1423.555347
 30
0.0
 11
671.118441
 21
1423.555347
 31
0.0
 12
667.785108
 22
1403.555347
 32
0.0
 13
667.785108
 23
1403.555347
 33
0.0
  0
MTEXT
  5
4F4
100
AcDbEntity
  8
0
  6
BYBLOCK
100
AcDbMText
 10
640.785108
 20
1476.055347
 30
0.0
 40
30.0
 41
0.0
 71
     5
 72
     1
  1
\A1;145
  7
EXT08
 11
0.0
 21
1.0
 31
0.0
  0
POINT
  5
4F5
100
AcDbEntity
  8
DEFPOINTS
  6
BYBLOCK
 62
     0
100
AcDbPoint
 10
932.685108
 20
1548.555347
 30
0.0
  0
POINT
  5
4F6
100
AcDbEntity
  8
DEFPOINTS
  6
BYBLOCK
 62
     0
100
AcDbPoint
 10
842.785108
 20
1403.555347
 30
0.0
  0
POINT
  5
4F7
100
AcDbEntity
  8
DEFPOINTS
  6
BYBLOCK
 62
     0
100
AcDbPoint
 10
667.785108
 20
1403.555347
 30
0.0
  0
ENDBLK
  5
4F8
100
AcDbEntity
  8
0
100
AcDbBlockEnd
  0
BLOCK
  5
4BD
100
AcDbEntity
  8
0
100
AcDbBlockBegin
  2
*D7
 70
    65
 10
0.0
 20
0.0
 30
0.0
  3
*D7
  1

  0
LINE
  5
4BE
100
AcDbEntity
  8
0
  6
BYBLOCK
100
AcDbLine
 10
636.634744
 20
748.555347
 30
0.0
 11
540.636152
 21
748.555347
 31
0.0
  0
LINE
  5
4BF
100
AcDbEntity
  8
0
  6
BYBLOCK
100
AcDbLine
 10
722.685108
 20
348.555347
 30
0.0
 11
540.636152
 21
348.555347
 31
0.0
  0
LINE
  5
4C0
100
AcDbEntity
  8
0
  6
BYBLOCK
100
AcDbLine
 10
550.636152
 20
728.555347
 30
0.0
 11
550.636152
 21
368.555347
 31
0.0
  0
SOLID
  5
4C1
100
AcDbEntity
  8
0
  6
BYBLOCK
100
AcDbTrace
 10
547.302819
 20
728.555347
 30
0.0
 11
553.969486
 21
728.555347
 31
0.0
 12
550.636152
 22
748.555347
 32
0.0
 13
550.636152
 23
748.555347
 33
0.0
  0
SOLID
  5
4C2
100
AcDbEntity
  8
0
  6
BYBLOCK
100
AcDbTrace
 10
547.302819
 20
368.555347
 30
0.0
 11
553.969486
 21
368.555347
 31
0.0
 12
550.636152
 22
348.555347
 32
0.0
 13
550.636152
 23
348.555347
 33
0.0
  0
MTEXT
  5
4C3
100
AcDbEntity
  8
0
  6
BYBLOCK
100
AcDbMText
 10
523.636152
 20
548.555347
 30
0.0
 40
30.0
 41
0.0
 71
     5
 72
     1
  1
\A1;400
  7
EXT08
 11
0.0
 21
1.0
 31
0.0
  0
POINT
  5
4C4
100
AcDbEntity
  8
DEFPOINTS
  6
BYBLOCK
 62
     0
100
AcDbPoint
 10
646.634744
 20
748.555347
 30
0.0
  0
POINT
  5
4C5
100
AcDbEntity
  8
DEFPOINTS
  6
BYBLOCK
 62
     0
100
AcDbPoint
 10
732.685108
 20
348.555347
 30
0.0
  0
POINT
  5
4C6
100
AcDbEntity
  8
DEFPOINTS
  6
BYBLOCK
 62
     0
100
AcDbPoint
 10
550.636152
 20
348.555347
 30
0.0
  0
ENDBLK
  5
4C7
100
AcDbEntity
  8
0
100
AcDbBlockEnd
  0
ENDSEC
  0
SECTION
  2
ENTITIES
  0
LINE
  5
9B
100
AcDbEntity
  8
SJC
100
AcDbLine
 10
646.634744
 20
748.555347
 30
0.0
 11
862.785108
 21
748.555347
 31
0.0
1001
ACAD
1000
ASC_BOUNDS
1002
{
1070
    19
1002
}
  0
LINE
  5
9C
100
AcDbEntity
  8
SJC
100
AcDbLine
 10
732.685108
 20
348.555347
 30
0.0
 11
1132.685108
 21
348.555347
 31
0.0
1001
ACAD
1000
ASC_BOUNDS
1002
{
1070
    19
1005
0
1002
}
  0
LINE
  5
9D
100
AcDbEntity
  8
SJC
100
AcDbLine
 10
1002.585108
 20
748.555347
 30
0.0
 11
1302.585108
 21
748.555347
 31
0.0
1001
ACAD
1000
ASC_BOUNDS
1002
{
1070
    19
1002
}
  0
LINE
  5
A3
100
AcDbEntity
  8
SJC
100
AcDbLine
 10
862.785108
 20
1478.655347
 30
0.0
 11
862.785108
 21
348.555347
 31
0.0
1001
ACAD
1000
ASC_BOUNDS
1002
{
1070
    19
1002
}
  0
LINE
  5
A4
100
AcDbEntity
  8
SJC
100
AcDbLine
 10
1002.585108
 20
1478.655347
 30
0.0
 11
1002.585108
 21
348.555347
 31
0.0
1001
ACAD
1000
ASC_BOUNDS
1002
{
1070
    19
1002
}
  0
LINE
  5
A5
100
AcDbEntity
  8
SJC
100
AcDbLine
 10
862.785108
 20
1478.655347
 30
0.0
 11
1002.585108
 21
1478.655347
 31
0.0
  0
DIMENSION
  5
A6
100
AcDbEntity
  8
SUNPOU
100
AcDbDimension
  2
*D4
 10
438.643192
 20
348.555347
 30
0.0
 11
411.643192
 21
948.555347
 31
0.0
 70
    32
  3
SJC
100
AcDbAlignedDimension
 13
932.685108
 23
1548.555347
 33
0.0
 14
733.868783
 24
348.555347
 34
0.0
 50
90.0
100
AcDbRotatedDimension
1001
ACAD
1000
DSTYLE
1002
{
1070
   340
1005
179
1070
   140
1040
3.0
1070
    78
1070
     8
1070
    74
1070
     0
1070
   172
1070
     1
1070
    73
1070
     0
1070
    77
1070
     1
1070
    40
1040
10.0
1070
   147
1040
1.2
1070
   287
1070
     5
1070
    42
1040
1.0
1070
    44
1040
1.0
1070
    43
1040
6.0
1070
   271
1070
     1
1070
   178
1070
   256
1070
   177
1070
   256
1070
   176
1070
   256
1070
   275
1070
     1
1070
    41
1040
2.0
1002
}
  0
DIMENSION
  5
A7
100
AcDbEntity
  8
SUNPOU
100
AcDbDimension
  2
*D5
 10
550.636152
 20
748.555367
 30
0.0
 11
523.636152
 21
1148.555357
 31
0.0
 70
    32
  3
SJC
100
AcDbAlignedDimension
 13
932.685108
 23
1548.555347
 33
0.0
 14
550.636152
 24
748.555367
 34
0.0
 50
90.0
100
AcDbRotatedDimension
1001
ACAD
1000
DSTYLE
1002
{
1070
   340
1005
179
1070
   140
1040
3.0
1070
    78
1070
     8
1070
    74
1070
     0
1070
   172
1070
     1
1070
    73
1070
     0
1070
    77
1070
     1
1070
    40
1040
10.0
1070
   147
1040
1.2
1070
   287
1070
     5
1070
    42
1040
1.0
1070
    44
1040
1.0
1070
    43
1040
6.0
1070
   271
1070
     1
1070
   178
1070
   256
1070
   177
1070
   256
1070
   176
1070
   256
1070
   275
1070
     1
1070
    41
1040
2.0
1002
}
  0
TEXT
  5
A9
100
AcDbEntity
  8
MOJI2
100
AcDbText
 10
281.473804
 20
2169.558574
 30
0.0
 40
40.0
  1
車止めCS5-139-80W
 41
0.8
  7
EXT08
100
AcDbText
  0
LINE
  5
AB
100
AcDbEntity
  8
CENTER
100
AcDbLine
 10
932.685108
 20
1603.88701
 30
0.0
 11
932.685108
 21
288.555347
 31
0.0
  0
LINE
  5
AD
100
AcDbEntity
  8
MOJI
100
AcDbLine
 10
1092.585108
 20
1113.555347
 30
0.0
 11
1556.907835
 21
1113.555347
 31
0.0
  0
TEXT
  5
AE
100
AcDbEntity
  8
MOJI
100
AcDbText
 10
1104.835393
 20
1125.505806
 30
0.0
 40
30.0
  1
支柱 %%C139.8×t4.5 STK400
 41
0.8
  7
EXT08
100
AcDbText
  0
TEXT
  5
AF
100
AcDbEntity
  8
MOJI
100
AcDbText
 10
1152.202937
 20
1076.938876
 30
0.0
 40
30.0
  1
亜鉛めっき＋静電粉体塗装
 41
0.8
  7
EXT08
100
AcDbText
  0
LINE
  5
B1
100
AcDbEntity
  8
MOJI
100
AcDbLine
 10
1091.942011
 20
1683.555347
 30
0.0
 11
1462.578939
 21
1683.555347
 31
0.0
  0
TEXT
  5
B2
100
AcDbEntity
  8
MOJI
100
AcDbText
 10
1208.54696
 20
1693.024857
 30
0.0
 40
30.0
  1
キャップ 
 41
0.8
  7
EXT08
100
AcDbText
  0
TEXT
  5
B3
100
AcDbEntity
  8
MOJI
100
AcDbText
 10
1104.244427
 20
1649.064662
 30
0.0
 40
30.0
  1
アルミ合金＋静電粉体塗装
 41
0.8
  7
EXT08
100
AcDbText
  0
ARC
  5
B4
100
AcDbEntity
  8
SJC
100
AcDbCircle
 10
932.685108
 20
1478.655347
 30
0.0
 40
69.9
100
AcDbArc
 50
360.0
 51
180.0
  0
LINE
  5
B5
100
AcDbEntity
  8
SJC
100
AcDbLine
 10
732.685108
 20
748.555347
 30
0.0
 11
732.685108
 21
348.555347
 31
0.0
1001
ACAD
1000
ASC_BOUNDS
1002
{
1070
    19
1002
}
  0
LINE
  5
B6
100
AcDbEntity
  8
SJC
100
AcDbLine
 10
1132.685108
 20
748.555347
 30
0.0
 11
1132.685108
 21
348.555347
 31
0.0
1001
ACAD
1000
ASC_BOUNDS
1002
{
1070
    19
1002
}
  0
DIMENSION
  5
B7
100
AcDbEntity
  8
SUNPOU
100
AcDbDimension
  2
*D3
 10
1132.685108
 20
216.178282
 30
0.0
 11
932.685108
 21
243.178282
 31
0.0
 70
    32
  1
□<>
  3
SJC
100
AcDbAlignedDimension
 13
732.685108
 23
346.079932
 33
0.0
 14
1132.685108
 24
346.079932
 34
0.0
100
AcDbRotatedDimension
1001
ACAD
1000
DSTYLE
1002
{
1070
   340
1005
179
1070
   140
1040
3.0
1070
    78
1070
     8
1070
    74
1070
     0
1070
   172
1070
     1
1070
    73
1070
     0
1070
    77
1070
     1
1070
    40
1040
10.0
1070
   147
1040
1.2
1070
   287
1070
     5
1070
    42
1040
1.0
1070
    44
1040
1.0
1070
    43
1040
6.0
1070
   271
1070
     1
1070
   178
1070
   256
1070
   177
1070
   256
1070
   176
1070
   256
1070
   275
1070
     1
1070
    41
1040
2.0
1002
}
  0
LINE
  5
C6
100
AcDbEntity
  8
CENTER
100
AcDbLine
 10
862.785108
 20
1403.555347
 30
0.0
 11
1002.585108
 21
1403.555347
 31
0.0
  0
CIRCLE
  5
C7
100
AcDbEntity
  8
SJC2
100
AcDbCircle
 10
932.685108
 20
1403.555347
 30
0.0
 40
32.0
  0
DIMENSION
  5
C8
100
AcDbEntity
  8
SUNPOU
100
AcDbDimension
  2
*D6
 10
667.785108
 20
1403.555347
 30
0.0
 11
640.785108
 21
1476.055347
 31
0.0
 70
    32
  3
SJC
100
AcDbAlignedDimension
 13
932.685108
 23
1548.555347
 33
0.0
 14
842.785108
 24
1403.555347
 34
0.0
 50
90.0
100
AcDbRotatedDimension
1001
ACAD
1000
DSTYLE
1002
{
1070
   340
1005
179
1070
   140
1040
3.0
1070
    78
1070
     8
1070
    74
1070
     0
1070
   172
1070
     1
1070
    73
1070
     0
1070
    77
1070
     1
1070
    40
1040
10.0
1070
   147
1040
1.2
1070
   287
1070
     5
1070
    42
1040
1.0
1070
    44
1040
1.0
1070
    43
1040
6.0
1070
   271
1070
     1
1070
   178
1070
   256
1070
   177
1070
   256
1070
   176
1070
   256
1070
   275
1070
     1
1070
    41
1040
2.0
1002
}
  0
LINE
  5
CA
100
AcDbEntity
  8
MOJI
100
AcDbLine
 10
1082.235108
 20
1558.555347
 30
0.0
 11
1401.366704
 21
1558.555347
 31
0.0
  0
TEXT
  5
CB
100
AcDbEntity
  8
MOJI
100
AcDbText
 10
1096.676307
 20
1569.66815
 30
0.0
 40
30.0
  1
スワレフレックス%%c64
 41
0.8
  7
EXT08
100
AcDbText
  0
TEXT
  5
CC
100
AcDbEntity
  8
MOJI
100
AcDbText
 10
1128.99712
 20
1515.347615
 30
0.0
 40
30.0
  1
（ガラスビーズ）
 41
0.8
  7
EXT08
100
AcDbText
  0
LINE
  5
CD
100
AcDbEntity
  8
SJC
100
AcDbLine
 10
2107.385108
 20
1478.655347
 30
0.0
 11
2107.385108
 21
348.555347
 31
0.0
1001
ACAD
1000
ASC_BOUNDS
1002
{
1070
    19
1005
1C1
1002
}
  0
LINE
  5
CE
100
AcDbEntity
  8
CENTER
100
AcDbLine
 10
2037.485108
 20
1989.683008
 30
0.0
 11
2037.485108
 21
1649.152347
 31
0.0
  0
LINE
  5
CF
100
AcDbEntity
  8
SJC
100
AcDbLine
 10
1967.585108
 20
1478.655347
 30
0.0
 11
1967.585108
 21
348.555347
 31
0.0
1001
ACAD
1000
ASC_BOUNDS
1002
{
1070
    19
1005
1C1
1002
}
  0
LINE
  5
D0
100
AcDbEntity
  8
SJC
100
AcDbLine
 10
1667.585071
 20
748.555347
 30
0.0
 11
1967.585108
 21
748.555347
 31
0.0
1001
ACAD
1000
ASC_BOUNDS
1002
{
1070
    19
1005
1C1
1002
}
  0
LINE
  5
D1
100
AcDbEntity
  8
SJC
100
AcDbLine
 10
2237.485108
 20
748.555347
 30
0.0
 11
2237.485108
 21
348.555347
 31
0.0
1001
ACAD
1000
ASC_BOUNDS
1002
{
1070
    19
1005
1C1
1002
}
  0
LINE
  5
D2
100
AcDbEntity
  8
SJC
100
AcDbLine
 10
1837.485108
 20
748.555347
 30
0.0
 11
1837.485108
 21
348.555347
 31
0.0
1001
ACAD
1000
ASC_BOUNDS
1002
{
1070
    19
1005
1C1
1002
}
  0
LINE
  5
D6
100
AcDbEntity
  8
SJC
100
AcDbLine
 10
1837.485108
 20
348.555347
 30
0.0
 11
2237.485108
 21
348.555347
 31
0.0
1001
ACAD
1000
ASC_BOUNDS
1002
{
1070
    19
1005
1C1
1005
1C1
1002
}
  0
LINE
  5
DC
100
AcDbEntity
  8
SJC
100
AcDbLine
 10
2107.385108
 20
748.555347
 30
0.0
 11
2407.385108
 21
748.555347
 31
0.0
1001
ACAD
1000
ASC_BOUNDS
1002
{
1070
    19
1005
1C1
1002
}
  0
LINE
  5
E8
100
AcDbEntity
  8
SJC
100
AcDbLine
 10
1967.585108
 20
1478.655347
 30
0.0
 11
2107.385108
 21
1478.655347
 31
0.0
  0
ARC
  5
E9
100
AcDbEntity
  8
SJC
100
AcDbCircle
 10
2037.485108
 20
1478.655347
 30
0.0
 40
69.9
100
AcDbArc
 50
360.0
 51
180.0
  0
LINE
  5
EA
100
AcDbEntity
  8
CENTER
100
AcDbLine
 10
1937.485108
 20
1403.555347
 30
0.0
 11
2017.485108
 21
1403.555347
 31
0.0
  0
LINE
  5
EB
100
AcDbEntity
  8
CENTER
100
AcDbLine
 10
2037.485108
 20
1589.086008
 30
0.0
 11
2037.485108
 21
288.555347
 31
0.0
  0
LINE
  5
EC
100
AcDbEntity
  8
CENTER
100
AcDbLine
 10
1847.485108
 20
1839.152347
 30
0.0
 11
2227.485108
 21
1839.152347
 31
0.0
  0
CIRCLE
  5
ED
100
AcDbEntity
  8
SJC
100
AcDbCircle
 10
2037.485108
 20
1839.152347
 30
0.0
 40
69.9
  0
LINE
  5
EF
100
AcDbEntity
  8
MOJI
100
AcDbLine
 10
807.685108
 20
1635.157979
 30
0.0
 11
559.069236
 21
1635.157979
 31
0.0
  0
TEXT
  5
F0
100
AcDbEntity
  8
MOJI
100
AcDbText
 10
566.896904
 20
1650.17168
 30
0.0
 40
30.0
  1
リベットNA6-4
 41
0.8
  7
EXT08
100
AcDbText
  0
LINE
  5
F1
100
AcDbEntity
  8
MOJI2
100
AcDbLine
 10
1843.703767
 20
2125.943299
 30
0.0
 11
2223.925524
 21
2125.943299
 31
0.0
  0
TEXT
  5
F2
100
AcDbEntity
  8
MOJI2
100
AcDbText
 10
1848.872389
 20
2150.943327
 30
0.0
 40
40.0
  1
(レンズ160%%dタイプ)
 41
0.8
  7
EXT08
100
AcDbText
  0
CIRCLE
  5
F3
100
AcDbEntity
  8
SJC2
100
AcDbCircle
 10
932.685108
 20
1427.555347
 30
0.0
 40
3.0
  0
CIRCLE
  5
F4
100
AcDbEntity
  8
SJC2
100
AcDbCircle
 10
932.685108
 20
1379.555347
 30
0.0
 40
3.0
  0
ARC
  5
F5
100
AcDbEntity
  8
HASEN
100
AcDbCircle
 10
1915.08321
 20
1817.56959
 30
0.0
 40
69.9
100
AcDbArc
 50
342.754966
 51
37.245034
  0
ARC
  5
F6
100
AcDbEntity
  8
HASEN
100
AcDbCircle
 10
2159.887006
 20
1817.56959
 30
0.0
 40
69.9
100
AcDbArc
 50
142.754966
 51
197.245034
  0
LINE
  5
F7
100
AcDbEntity
  8
CENTER
100
AcDbLine
 10
2057.485108
 20
1403.555347
 30
0.0
 11
2137.485108
 21
1403.555347
 31
0.0
  0
LINE
  5
F8
100
AcDbEntity
  8
CENTER
100
AcDbLine
 10
2037.485108
 20
1839.152347
 30
0.0
 11
1845.43467
 21
1805.36426
 31
0.0
  0
LINE
  5
F9
100
AcDbEntity
  8
CENTER
100
AcDbLine
 10
2037.485108
 20
1839.152347
 30
0.0
 11
2229.52262
 21
1805.290952
 31
0.0
  0
ARC
  5
FD
100
AcDbEntity
  8
SJC2
100
AcDbCircle
 10
1938.79778
 20
1403.555347
 30
0.0
 40
43.043121
100
AcDbArc
 50
311.974675
 51
48.025325
  0
ARC
  5
FE
100
AcDbEntity
  8
SJC2
100
AcDbCircle
 10
2136.172436
 20
1403.555347
 30
0.0
 40
43.043121
100
AcDbArc
 50
131.974675
 51
228.025325
  0
LINE
  5
FF
100
AcDbEntity
  8
SJC
100
AcDbLine
 10
3184.751147
 20
1516.375227
 30
0.0
 11
3219.751147
 21
1556.375227
 31
0.0
  0
LINE
  5
100
100
AcDbEntity
  8
SUNPOU
100
AcDbLine
 10
3154.751147
 20
1556.375227
 30
0.0
 11
3254.751147
 21
1556.375227
 31
0.0
  0
LINE
  5
101
100
AcDbEntity
  8
CENTER
100
AcDbLine
 10
3241.781367
 20
1638.555347
 30
0.0
 11
2728.910469
 21
1638.555347
 31
0.0
  0
LINE
  5
102
100
AcDbEntity
  8
MOJI
100
AcDbLine
 10
3123.910469
 20
898.555347
 30
0.0
 11
3444.122954
 21
898.555347
 31
0.0
  0
LINE
  5
103
100
AcDbEntity
  8
CENTER
100
AcDbLine
 10
2728.910469
 20
688.555347
 30
0.0
 11
3218.910469
 21
688.555347
 31
0.0
  0
LINE
  5
104
100
AcDbEntity
  8
SJC
100
AcDbLine
 10
2928.910469
 20
528.555347
 30
0.0
 11
2928.910469
 21
338.555347
 31
0.0
  0
LINE
  5
105
100
AcDbEntity
  8
SJC
100
AcDbLine
 10
2951.410469
 20
523.192537
 30
0.0
 11
2951.410469
 21
325.950824
 31
0.0
  0
LINE
  5
106
100
AcDbEntity
  8
SJC2
100
AcDbLine
 10
2903.910469
 20
352.560372
 30
0.0
 11
2976.410469
 21
311.945799
 31
0.0
  0
LINE
  5
107
100
AcDbEntity
  8
SJC
100
AcDbLine
 10
2982.910469
 20
1638.555347
 30
0.0
 11
2982.910469
 21
1476.375227
 31
0.0
  0
LINE
  5
108
100
AcDbEntity
  8
SJC2
100
AcDbLine
 10
2992.472499
 20
1638.555347
 30
0.0
 11
2992.472499
 21
1618.555347
 31
0.0
  0
LINE
  5
109
100
AcDbEntity
  8
SJC
100
AcDbLine
 10
3001.636554
 20
1628.555347
 30
0.0
 11
3001.636554
 21
1476.375227
 31
0.0
  0
ARC
  5
10A
100
AcDbEntity
  8
SJC2
100
AcDbCircle
 10
2984.597969
 20
1619.036617
 30
0.0
 40
7.6875
100
AcDbArc
 50
102.680383
 51
257.319617
  0
LINE
  5
10B
100
AcDbEntity
  8
SJC
100
AcDbLine
 10
3008.910469
 20
1638.555347
 30
0.0
 11
3008.910469
 21
1480.008824
 31
0.0
  0
ARC
  5
10C
100
AcDbEntity
  8
SJC
100
AcDbCircle
 10
3214.660469
 20
1638.555347
 30
0.0
 40
285.75
100
AcDbArc
 50
99.913097
 51
260.086903
  0
ARC
  5
10D
100
AcDbEntity
  8
SJC
100
AcDbCircle
 10
3214.660469
 20
1638.555347
 30
0.0
 40
265.75
100
AcDbArc
 50
99.913097
 51
207.007474
  0
LINE
  5
10E
100
AcDbEntity
  8
SJC
100
AcDbLine
 10
2928.910469
 20
1064.939686
 30
0.0
 11
2928.910469
 21
848.555347
 31
0.0
  0
LINE
  5
10F
100
AcDbEntity
  8
SJC
100
AcDbLine
 10
2951.410469
 20
1024.775531
 30
0.0
 11
2951.410469
 21
853.918156
 31
0.0
  0
LINE
  5
110
100
AcDbEntity
  8
SJC
100
AcDbLine
 10
3008.910469
 20
848.555347
 30
0.0
 11
3008.910469
 21
522.555347
 31
0.0
  0
LINE
  5
111
100
AcDbEntity
  8
SJC
100
AcDbLine
 10
2982.910469
 20
531.555347
 30
0.0
 11
3002.910469
 21
531.555347
 31
0.0
  0
LINE
  5
112
100
AcDbEntity
  8
SJC
100
AcDbLine
 10
2957.410469
 20
522.555347
 30
0.0
 11
3008.910469
 21
522.555347
 31
0.0
  0
LINE
  5
113
100
AcDbEntity
  8
SJC
100
AcDbLine
 10
2960.652625
 20
528.555347
 30
0.0
 11
3002.910469
 21
528.555347
 31
0.0
  0
LINE
  5
114
100
AcDbEntity
  8
SJC2
100
AcDbLine
 10
2982.910469
 20
576.055347
 30
0.0
 11
2992.910469
 21
576.055347
 31
0.0
  0
LINE
  5
115
100
AcDbEntity
  8
SJC2
100
AcDbLine
 10
2982.910469
 20
536.055347
 30
0.0
 11
2992.910469
 21
536.055347
 31
0.0
  0
LINE
  5
116
100
AcDbEntity
  8
CENTER
100
AcDbLine
 10
2893.029425
 20
556.055347
 30
0.0
 11
3076.410469
 21
556.055347
 31
0.0
  0
LINE
  5
117
100
AcDbEntity
  8
SJC
100
AcDbLine
 10
2982.910469
 20
688.555347
 30
0.0
 11
2982.910469
 21
528.555347
 31
0.0
  0
LINE
  5
118
100
AcDbEntity
  8
SJC
100
AcDbLine
 10
2951.410469
 20
492.555347
 30
0.0
 11
2957.410469
 21
492.555347
 31
0.0
  0
LINE
  5
119
100
AcDbEntity
  8
SJC
100
AcDbLine
 10
2957.410469
 20
522.555347
 30
0.0
 11
2957.410469
 21
492.555347
 31
0.0
  0
ARC
  5
11A
100
AcDbEntity
  8
SJC2
100
AcDbCircle
 10
2984.597969
 20
688.555347
 30
0.0
 40
7.6875
100
AcDbArc
 50
180.0
 51
257.319617
  0
ARC
  5
11B
100
AcDbEntity
  8
SJC2
100
AcDbCircle
 10
2984.597969
 20
671.216736
 30
0.0
 40
7.6875
100
AcDbArc
 50
102.680383
 51
257.319617
  0
ARC
  5
11C
100
AcDbEntity
  8
SJC2
100
AcDbCircle
 10
2984.597969
 20
653.668271
 30
0.0
 40
7.6875
100
AcDbArc
 50
102.680383
 51
257.319617
  0
ARC
  5
11D
100
AcDbEntity
  8
SJC2
100
AcDbCircle
 10
2984.597969
 20
636.866548
 30
0.0
 40
7.6875
100
AcDbArc
 50
102.680383
 51
257.319617
  0
ARC
  5
11E
100
AcDbEntity
  8
SJC2
100
AcDbCircle
 10
2984.597969
 20
620.811567
 30
0.0
 40
7.6875
100
AcDbArc
 50
102.680383
 51
257.319617
  0
ARC
  5
11F
100
AcDbEntity
  8
SJC2
100
AcDbCircle
 10
2984.597969
 20
604.009845
 30
0.0
 40
7.6875
100
AcDbArc
 50
102.680383
 51
257.319617
  0
ARC
  5
120
100
AcDbEntity
  8
SJC2
100
AcDbCircle
 10
2984.597969
 20
585.714637
 30
0.0
 40
7.6875
100
AcDbArc
 50
102.680383
 51
257.319617
  0
ARC
  5
121
100
AcDbEntity
  8
SJC2
100
AcDbCircle
 10
2984.597969
 20
566.299312
 30
0.0
 40
7.6875
100
AcDbArc
 50
102.680383
 51
257.319617
  0
ARC
  5
122
100
AcDbEntity
  8
SJC2
100
AcDbCircle
 10
2984.597969
 20
548.004105
 30
0.0
 40
7.6875
100
AcDbArc
 50
102.680383
 51
257.319617
  0
LINE
  5
123
100
AcDbEntity
  8
SJC
100
AcDbLine
 10
3002.910469
 20
688.555347
 30
0.0
 11
3002.910469
 21
566.055347
 31
0.0
  0
LINE
  5
124
100
AcDbEntity
  8
SJC2
100
AcDbLine
 10
2992.910469
 20
576.055347
 30
0.0
 11
2992.910469
 21
536.055347
 31
0.0
  0
LINE
  5
125
100
AcDbEntity
  8
SJC
100
AcDbLine
 10
3002.910469
 20
546.055347
 30
0.0
 11
3002.910469
 21
528.555347
 31
0.0
  0
LINE
  5
126
100
AcDbEntity
  8
SJC2
100
AcDbLine
 10
2992.910469
 20
566.055347
 30
0.0
 11
3008.910469
 21
566.055347
 31
0.0
  0
LINE
  5
127
100
AcDbEntity
  8
SJC2
100
AcDbLine
 10
2992.910469
 20
546.055347
 30
0.0
 11
3008.910469
 21
546.055347
 31
0.0
  0
ARC
  5
128
100
AcDbEntity
  8
SJC2
100
AcDbCircle
 10
3006.231898
 20
556.055347
 30
0.0
 40
20.178571
100
AcDbArc
 50
277.62815
 51
82.37185
  0
LINE
  5
129
100
AcDbEntity
  8
SJC
100
AcDbLine
 10
2960.652625
 20
848.555347
 30
0.0
 11
3008.910469
 21
848.555347
 31
0.0
  0
LINE
  5
12A
100
AcDbEntity
  8
CENTER
100
AcDbLine
 10
2893.029425
 20
821.055347
 30
0.0
 11
3076.410469
 21
821.055347
 31
0.0
  0
LINE
  5
12B
100
AcDbEntity
  8
SJC
100
AcDbLine
 10
2951.410469
 20
887.555347
 30
0.0
 11
2957.410469
 21
887.555347
 31
0.0
  0
LINE
  5
12C
100
AcDbEntity
  8
SJC
100
AcDbLine
 10
2957.410469
 20
855.319115
 30
0.0
 11
2957.410469
 21
887.555347
 31
0.0
  0
LINE
  5
12E
100
AcDbEntity
  8
SJC2
100
AcDbLine
 10
3160.224478
 20
1327.071595
 30
0.0
 11
3174.153374
 21
1406.772995
 31
0.0
  0
LINE
  5
12F
100
AcDbEntity
  8
SJC2
100
AcDbLine
 10
2960.467755
 20
1008.607608
 30
0.0
 11
2919.853182
 21
1081.107608
 31
0.0
  0
LINE
  5
130
100
AcDbEntity
  8
SJC
100
AcDbLine
 10
2982.910469
 20
1476.375227
 30
0.0
 11
3001.636554
 21
1476.375227
 31
0.0
  0
LINE
  5
131
100
AcDbEntity
  8
SJC2
100
AcDbLine
 10
2982.472499
 20
1618.555347
 30
0.0
 11
2992.472499
 21
1618.555347
 31
0.0
  0
ARC
  5
132
100
AcDbEntity
  8
SJC2
100
AcDbCircle
 10
2984.597969
 20
1495.823985
 30
0.0
 40
7.6875
100
AcDbArc
 50
102.680383
 51
257.319617
  0
ARC
  5
133
100
AcDbEntity
  8
SJC2
100
AcDbCircle
 10
2984.597969
 20
1514.119193
 30
0.0
 40
7.6875
100
AcDbArc
 50
102.680383
 51
257.319617
  0
ARC
  5
134
100
AcDbEntity
  8
SJC2
100
AcDbCircle
 10
2984.597969
 20
1533.534518
 30
0.0
 40
7.6875
100
AcDbArc
 50
102.680383
 51
257.319617
  0
ARC
  5
135
100
AcDbEntity
  8
SJC2
100
AcDbCircle
 10
2984.597969
 20
1551.829725
 30
0.0
 40
7.6875
100
AcDbArc
 50
102.680383
 51
257.319617
  0
ARC
  5
136
100
AcDbEntity
  8
SJC2
100
AcDbCircle
 10
2984.597969
 20
1568.631448
 30
0.0
 40
7.6875
100
AcDbArc
 50
102.680383
 51
257.319617
  0
ARC
  5
137
100
AcDbEntity
  8
SJC2
100
AcDbCircle
 10
2984.597969
 20
1584.686429
 30
0.0
 40
7.6875
100
AcDbArc
 50
102.680383
 51
257.319617
  0
ARC
  5
138
100
AcDbEntity
  8
SJC2
100
AcDbCircle
 10
2984.597969
 20
1601.488151
 30
0.0
 40
7.6875
100
AcDbArc
 50
102.680383
 51
257.319617
  0
LINE
  5
139
100
AcDbEntity
  8
SJC
100
AcDbLine
 10
3184.751147
 20
1556.375227
 30
0.0
 11
3184.751147
 21
1516.375227
 31
0.0
  0
ARC
  5
13B
100
AcDbEntity
  8
SJC
100
AcDbCircle
 10
3214.660469
 20
1638.555347
 30
0.0
 40
265.75
100
AcDbArc
 50
216.7173
 51
260.086903
  0
LINE
  5
13C
100
AcDbEntity
  8
MOJI2
100
AcDbLine
 10
2911.178817
 20
2119.41767
 30
0.0
 11
3237.18462
 21
2119.41767
 31
0.0
  0
LINE
  5
13D
100
AcDbEntity
  8
SJC2
100
AcDbLine
 10
3160.224478
 20
1950.039099
 30
0.0
 11
3174.153374
 21
1870.337699
 31
0.0
  0
ARC
  5
13E
100
AcDbEntity
  8
SJC2
100
AcDbCircle
 10
2984.597969
 20
1636.375227
 30
0.0
 40
7.6875
100
AcDbArc
 50
163.525249
 51
257.319617
  0
LINE
  5
13F
100
AcDbEntity
  8
SJC2
100
AcDbLine
 10
2992.472499
 20
1628.555347
 30
0.0
 11
3001.636554
 21
1628.555347
 31
0.0
  0
LINE
  5
140
100
AcDbEntity
  8
SJC
100
AcDbLine
 10
3008.910469
 20
1658.555347
 30
0.0
 11
3008.910469
 21
1797.10187
 31
0.0
  0
ARC
  5
141
100
AcDbEntity
  8
SJC
100
AcDbCircle
 10
2618.185108
 20
688.555347
 30
0.0
 40
349.5
100
AcDbArc
 50
332.754966
 51
27.245034
  0
ARC
  5
142
100
AcDbEntity
  8
SJC
100
AcDbCircle
 10
2618.185108
 20
688.555347
 30
0.0
 40
372.0
100
AcDbArc
 50
333.607132
 51
346.005158
  0
ARC
  5
143
100
AcDbEntity
  8
SJC
100
AcDbCircle
 10
2618.185108
 20
688.555347
 30
0.0
 40
378.0
100
AcDbArc
 50
333.82119
 51
343.227796
  0
ARC
  5
144
100
AcDbEntity
  8
SJC
100
AcDbCircle
 10
2618.185108
 20
688.555347
 30
0.0
 40
378.0
100
AcDbArc
 50
0.0
 51
26.17881
  0
ARC
  5
145
100
AcDbEntity
  8
SJC
100
AcDbCircle
 10
2618.185108
 20
688.555347
 30
0.0
 40
372.0
100
AcDbArc
 50
0.0
 51
26.392868
  0
ARC
  5
146
100
AcDbEntity
  8
SJC
100
AcDbCircle
 10
3214.660469
 20
1638.555347
 30
0.0
 40
259.75
100
AcDbArc
 50
217.617073
 51
226.947934
  0
ARC
  5
147
100
AcDbEntity
  8
SJC2
100
AcDbCircle
 10
3214.660469
 20
1638.555347
 30
0.0
 40
259.75
100
AcDbArc
 50
133.052066
 51
142.382927
  0
LINE
  5
148
100
AcDbEntity
  8
SJC2
100
AcDbLine
 10
3037.33884
 20
1836.49499
 30
0.0
 11
3037.33884
 21
1828.363414
 31
0.0
  0
LINE
  5
149
100
AcDbEntity
  8
SJC
100
AcDbLine
 10
3037.33884
 20
1448.747279
 30
0.0
 11
3037.33884
 21
1440.615703
 31
0.0
  0
TEXT
  5
14A
100
AcDbEntity
  8
MOJI2
100
AcDbText
 10
2927.036094
 20
2134.41767
 30
0.0
 40
40.0
  1
反射板取付部詳細
 41
0.8
  7
EXT08
100
AcDbText
  0
TEXT
  5
14B
100
AcDbEntity
  8
MOJI
100
AcDbText
 10
3134.596492
 20
909.784229
 30
0.0
 40
30.0
  1
裏板 t1.2（亜鉛鉄板）
 41
0.8
  7
EXT08
100
AcDbText
  0
ARC
  5
14C
100
AcDbEntity
  8
SJC
100
AcDbCircle
 10
3006.231898
 20
1638.555347
 30
0.0
 40
20.178571
100
AcDbArc
 50
277.62815
 51
82.37185
  0
INSERT
  5
14D
100
AcDbEntity
  8
SJC
100
AcDbBlockReference
  2
1-10BASE
 10
0.0
 20
0.0
 30
0.0
  0
LINE
  5
17F
100
AcDbEntity
  8
MOJI2
100
AcDbLine
 10
1843.703767
 20
2115.943299
 30
0.0
 11
2223.925524
 21
2115.943299
 31
0.0
  0
LINE
  5
180
100
AcDbEntity
  8
MOJI2
100
AcDbLine
 10
2911.178817
 20
2109.41767
 30
0.0
 11
3237.18462
 21
2109.41767
 31
0.0
  0
INSERT
  5
1C1
100
AcDbEntity
  8
HATCH
100
AcDbBlockReference
  2
*X2
 10
0.0
 20
0.0
 30
0.0
1001
ACAD
1000
HATCH
1002
{
1070
    19
1000
PLAST
1040
500.0
1040
0.785398
1000
ASC_BOUNDS
1070
     2
1070
     1
1070
     4
1005
DC
1005
CD
1005
D6
1005
D1
1070
     1
1070
     4
1005
D0
1005
D2
1005
D6
1005
CF
1000
ASC_SEEDPOINT
1011
1899.400567
1021
580.201111
1031
0.0
1002
}
  0
INSERT
  5
28C
100
AcDbEntity
  8
HATCH
100
AcDbBlockReference
  2
*X2
 10
-1104.8
 20
0.0
 30
0.0
1001
ACAD
1000
HATCH
1002
{
1070
    19
1000
PLAST
1040
500.0
1040
0.785398
1002
}
  0
DIMENSION
  5
2A4
100
AcDbEntity
  8
SUNPOU
100
AcDbDimension
  2
*D7
 10
550.636152
 20
348.555347
 30
0.0
 11
523.636152
 21
548.555347
 31
0.0
 70
    32
  3
SJC
100
AcDbAlignedDimension
 13
646.634744
 23
748.555347
 33
0.0
 14
732.685108
 24
348.555347
 34
0.0
 50
90.0
100
AcDbRotatedDimension
1001
ACAD
1000
DSTYLE
1002
{
1070
   340
1005
179
1070
   140
1040
3.0
1070
    78
1070
     8
1070
    74
1070
     0
1070
   172
1070
     1
1070
    73
1070
     0
1070
    77
1070
     1
1070
    40
1040
10.0
1070
   147
1040
1.2
1070
   287
1070
     5
1070
    42
1040
1.0
1070
    44
1040
1.0
1070
    43
1040
6.0
1070
   271
1070
     1
1070
   178
1070
   256
1070
   177
1070
   256
1070
   176
1070
   256
1070
   275
1070
     1
1070
    41
1040
2.0
1002
}
  0
SOLID
  5
2A5
100
AcDbEntity
  8
MOJI
  6
CONTINUOUS
100
AcDbTrace
 10
950.86529
 20
1558.983827
 30
0.0
 11
946.541846
 21
1564.058497
 31
0.0
 12
933.479556
 22
1548.550832
 32
0.0
 13
933.479556
 23
1548.550832
 33
0.0
  0
LINE
  5
2A6
100
AcDbEntity
  8
MOJI
  6
CONTINUOUS
100
AcDbLine
 10
948.703568
 20
1561.521162
 30
0.0
 11
1091.942011
 21
1683.555347
 31
0.0
  0
SOLID
  5
2A9
100
AcDbEntity
  8
MOJI
  6
CONTINUOUS
100
AcDbTrace
 10
968.416273
 20
1440.88765
 30
0.0
 11
963.71988
 21
1445.619282
 31
0.0
 12
951.873182
 22
1429.164287
 32
0.0
 13
951.873182
 23
1429.164287
 33
0.0
  0
LINE
  5
2AA
100
AcDbEntity
  8
MOJI
  6
CONTINUOUS
100
AcDbLine
 10
966.068077
 20
1443.253466
 30
0.0
 11
1082.235108
 21
1558.555347
 31
0.0
  0
SOLID
  5
2AB
100
AcDbEntity
  8
MOJI
  6
CONTINUOUS
100
AcDbTrace
 10
923.10097
 20
1448.486944
 30
0.0
 11
917.378007
 21
1445.067567
 31
0.0
 12
930.497617
 22
1429.608365
 32
0.0
 13
930.497617
 23
1429.608365
 33
0.0
  0
LINE
  5
2AC
100
AcDbEntity
  8
MOJI
  6
CONTINUOUS
100
AcDbLine
 10
920.239488
 20
1446.777256
 30
0.0
 11
807.685108
 21
1635.157979
 31
0.0
  0
SOLID
  5
2AD
100
AcDbEntity
  8
MOJI
  6
CONTINUOUS
100
AcDbTrace
 10
1016.136506
 20
987.243759
 30
0.0
 11
1010.512496
 21
990.823557
 31
0.0
 12
1002.585108
 22
972.161627
 32
0.0
 13
1002.585108
 23
972.161627
 33
0.0
  0
LINE
  5
2AE
100
AcDbEntity
  8
MOJI
  6
CONTINUOUS
100
AcDbLine
 10
1013.324501
 20
989.033658
 30
0.0
 11
1092.585108
 21
1113.555347
 31
0.0
  0
SOLID
  5
2E5
100
AcDbEntity
  8
MOJI
  6
CONTINUOUS
100
AcDbTrace
 10
3024.888472
 20
785.710988
 30
0.0
 11
3019.976396
 21
790.21831
 31
0.0
 12
3008.910469
 22
773.22842
 32
0.0
 13
3008.910469
 23
773.22842
 33
0.0
  0
LINE
  5
2E6
100
AcDbEntity
  8
MOJI
  6
CONTINUOUS
100
AcDbLine
 10
3022.432434
 20
787.964649
 30
0.0
 11
3123.910469
 21
898.555347
 31
0.0
  0
TEXT
  5
308
100
AcDbEntity
  8
MOJI
100
AcDbText
 10
672.308649
 20
764.66863
 30
0.0
 40
30.0
  1
GL
 41
0.8
  7
EXT08
100
AcDbText
  0
TEXT
  5
309
100
AcDbEntity
  8
MOJI
100
AcDbText
 10
1705.927111
 20
764.66863
 30
0.0
 40
30.0
  1
GL
 41
0.8
  7
EXT08
100
AcDbText
  0
SOLID
  5
313
100
AcDbEntity
  8
SUNPOU
  6
CONTINUOUS
100
AcDbTrace
 10
3054.334338
 20
1459.804592
 30
0.0
 11
3049.829508
 21
1464.718953
 31
0.0
 12
3037.33884
 22
1448.747279
 32
0.0
 13
3037.33884
 23
1448.747279
 33
0.0
  0
LINE
  5
314
100
AcDbEntity
  8
SUNPOU
  6
CONTINUOUS
100
AcDbLine
 10
3052.081923
 20
1462.261772
 30
0.0
 11
3154.751147
 21
1556.375227
 31
0.0
  0
INSERT
  5
3EF
100
AcDbEntity
  8
ZWAKU
100
AcDbBlockReference
  2
CALCOMP_TECHJET720A3
 10
0.0
 20
0.0
 30
0.0
 41
10.0
 42
10.0
 43
10.0
  0
TEXT
  5
3F0
100
AcDbEntity
  8
INFORMATION
100
AcDbText
 10
1.0
 20
2.0
 30
0.0
 40
0.8
  1
PLOTTER=CALCOMP_TECHJET720
  7
EXT08
100
AcDbText
  0
TEXT
  5
3F1
100
AcDbEntity
  8
INFORMATION
100
AcDbText
 10
1.0
 20
3.0
 30
0.0
 40
0.8
  1
PAPER=A3
  7
EXT08
100
AcDbText
  0
TEXT
  5
45F
100
AcDbEntity
  8
INFORMATION
100
AcDbText
 10
1.0
 20
1.0
 30
0.0
 40
0.8
  1
VERSION=3.0
  7
EXT08
100
AcDbText
  0
ARC
  5
616
100
AcDbEntity
  8
SUNPOU
100
AcDbCircle
 10
2037.485108
 20
1839.152347
 30
0.0
 40
138.057064
100
AcDbArc
 50
189.978128
 51
341.692421
  0
SOLID
  5
617
100
AcDbEntity
  8
SUNPOU
100
AcDbTrace
 10
1903.166951
 20
1795.022318
 30
0.0
 11
1909.631858
 21
1796.650019
 31
0.0
 12
1901.516299
 22
1815.230892
 32
0.0
 13
1901.516299
 23
1815.230892
 33
0.0
  0
SOLID
  5
618
100
AcDbEntity
  8
SUNPOU
100
AcDbTrace
 10
2165.322124
 20
1796.601217
 30
0.0
 11
2171.786409
 21
1794.971047
 31
0.0
 12
2173.444775
 22
1815.178989
 32
0.0
 13
2173.444775
 23
1815.178989
 33
0.0
  0
MTEXT
  5
619
100
AcDbEntity
  8
SUNPOU
100
AcDbMText
 10
2034.878398
 20
1725.744103
 30
0.0
 40
30.0
 41
0.0
 71
     5
 72
     1
  1
\A1;160\U+00B0
  7
EXT08
  0
POINT
  5
61B
100
AcDbEntity
  8
DEFPOINTS
  6
BYBLOCK
 62
     0
100
AcDbPoint
 10
2037.485108
 20
1839.152347
 30
0.0
  0
POINT
  5
61C
100
AcDbEntity
  8
DEFPOINTS
  6
BYBLOCK
 62
     0
100
AcDbPoint
 10
2037.485108
 20
1839.152347
 30
0.0
  0
ARC
  5
61F
100
AcDbEntity
  8
SUNPOU
100
AcDbCircle
 10
2037.929399
 20
1839.230513
 30
0.0
 40
138.508179
100
AcDbArc
 50
163.439051
 51
171.719525
  0
ARC
  5
621
100
AcDbEntity
  8
SUNPOU
100
AcDbCircle
 10
2037.929399
 20
1839.230513
 30
0.0
 40
138.508179
100
AcDbArc
 50
180.0
 51
189.978128
  0
SOLID
  5
622
100
AcDbEntity
  8
SUNPOU
100
AcDbTrace
 10
1904.189813
 20
1858.93766
 30
0.0
 11
1897.540544
 21
1859.418979
 31
0.0
 12
1899.42122
 22
1839.230513
 32
0.0
 13
1899.42122
 23
1839.230513
 33
0.0
  0
SOLID
  5
623
100
AcDbEntity
  8
SUNPOU
100
AcDbTrace
 10
1903.162171
 20
1795.021928
 30
0.0
 11
1909.627463
 21
1796.6481
 31
0.0
 12
1901.516299
 22
1815.230892
 32
0.0
 13
1901.516299
 23
1815.230892
 33
0.0
  0
MTEXT
  5
624
100
AcDbEntity
  8
SUNPOU
100
AcDbMText
 10
1874.632274
 20
1871.15478
 30
0.0
 40
30.0
 41
0.0
 71
     5
 72
     1
  1
\A1;10\U+00B0
  7
EXT08
 11
0.105526
 21
0.994416
 31
0.0
  0
POINT
  5
627
100
AcDbEntity
  8
DEFPOINTS
  6
BYBLOCK
 62
     0
100
AcDbPoint
 10
2037.485108
 20
1839.152347
 30
0.0
  0
POINT
  5
632
100
AcDbEntity
  8
DEFPOINTS
  6
BYBLOCK
 62
     0
100
AcDbPoint
 10
1847.485108
 20
1839.152347
 30
0.0
  0
POINT
  5
633
100
AcDbEntity
  8
DEFPOINTS
  6
BYBLOCK
 62
     0
100
AcDbPoint
 10
2037.485108
 20
1839.152347
 30
0.0
  0
ARC
  5
661
100
AcDbEntity
  8
SUNPOU
100
AcDbCircle
 10
2012.197802
 20
1843.611181
 30
0.0
 40
163.734468
100
AcDbArc
 50
7.00298
 51
14.00596
  0
ARC
  5
662
100
AcDbEntity
  8
SUNPOU
100
AcDbCircle
 10
2012.197802
 20
1843.611181
 30
0.0
 40
163.734468
100
AcDbArc
 50
350.0
 51
360.0
  0
SOLID
  5
664
100
AcDbEntity
  8
SUNPOU
100
AcDbTrace
 10
2178.03789
 20
1863.777427
 30
0.0
 11
2171.383669
 21
1863.370264
 31
0.0
 12
2175.93227
 22
1843.611181
 32
0.0
 13
2175.93227
 23
1843.611181
 33
0.0
  0
MTEXT
  5
665
100
AcDbEntity
  8
SUNPOU
100
AcDbMText
 10
2204.146617
 20
1852.756384
 30
0.0
 40
30.0
 41
0.0
 71
     5
 72
     1
  1
\A1;10\U+00B0
  7
EXT08
 11
0.04759
 21
-0.998867
 31
0.0
  0
ENDSEC
  0
SECTION
  2
OBJECTS
  0
DICTIONARY
  5
C
100
AcDbDictionary
  3
ACAD_GROUP
350
D
  3
ACAD_MLINESTYLE
350
E
  0
DICTIONARY
  5
D
102
{ACAD_REACTORS
330
C
102
}
100
AcDbDictionary
  0
DICTIONARY
  5
E
102
{ACAD_REACTORS
330
C
102
}
100
AcDbDictionary
  3
STANDARD
350
1B
  0
MLINESTYLE
  5
1B
102
{ACAD_REACTORS
330
E
102
}
100
AcDbMlineStyle
  2
STANDARD
 70
     0
  3

 62
     0
 51
90.0
 52
90.0
 71
     2
 49
0.5
 62
   256
  6
BYLAYER
 49
-0.5
 62
   256
  6
BYLAYER
  0
ENDSEC
  0
EOF
