  0
SECTION
  2
HEADER
  9
$ACADVER
  1
AC1015
  9
$ACADMAINTVER
 70
    10
  9
$DWGCODEPAGE
  3
ANSI_932
  9
$INSBASE
 10
0.0
 20
0.0
 30
0.0
  9
$EXTMIN
 10
0.0
 20
0.0
 30
0.0
  9
$EXTMAX
 10
3700.0
 20
2670.0
 30
0.0
  9
$LIMMIN
 10
0.0
 20
0.0
  9
$LIMMAX
 10
4200.0
 20
2970.0
  9
$ORTHOMODE
 70
     1
  9
$REGENMODE
 70
     1
  9
$FILLMODE
 70
     1
  9
$QTEXTMODE
 70
     0
  9
$MIRRTEXT
 70
     0
  9
$LTSCALE
 40
100.0
  9
$ATTMODE
 70
     1
  9
$TEXTSIZE
 40
30.0
  9
$TRACEWID
 40
0.05
  9
$TEXTSTYLE
  7
EXT08
  9
$CLAYER
  8
SJC
  9
$CELTYPE
  6
BYLAYER
  9
$CECOLOR
 62
   256
  9
$CELTSCALE
 40
1.0
  9
$DISPSILH
 70
     0
  9
$DIMSCALE
 40
10.0
  9
$DIMASZ
 40
2.0
  9
$DIMEXO
 40
1.0
  9
$DIMDLI
 40
6.0
  9
$DIMRND
 40
0.0
  9
$DIMDLE
 40
0.0
  9
$DIMEXE
 40
1.0
  9
$DIMTP
 40
0.0
  9
$DIMTM
 40
0.0
  9
$DIMTXT
 40
3.0
  9
$DIMCEN
 40
0.09
  9
$DIMTSZ
 40
0.0
  9
$DIMTOL
 70
     0
  9
$DIMLIM
 70
     0
  9
$DIMTIH
 70
     0
  9
$DIMTOH
 70
     0
  9
$DIMSE1
 70
     0
  9
$DIMSE2
 70
     0
  9
$DIMTAD
 70
     1
  9
$DIMZIN
 70
     8
  9
$DIMBLK
  1

  9
$DIMASO
 70
     1
  9
$DIMSHO
 70
     1
  9
$DIMPOST
  1

  9
$DIMAPOST
  1

  9
$DIMALT
 70
     0
  9
$DIMALTD
 70
     2
  9
$DIMALTF
 40
25.4
  9
$DIMLFAC
 40
1.0
  9
$DIMTOFL
 70
     1
  9
$DIMTVP
 40
0.0
  9
$DIMTIX
 70
     0
  9
$DIMSOXD
 70
     0
  9
$DIMSAH
 70
     0
  9
$DIMBLK1
  1

  9
$DIMBLK2
  1

  9
$DIMSTYLE
  2
SJC
  9
$DIMCLRD
 70
     0
  9
$DIMCLRE
 70
     0
  9
$DIMCLRT
 70
     0
  9
$DIMTFAC
 40
1.0
  9
$DIMGAP
 40
1.199999999999999
  9
$DIMJUST
 70
     0
  9
$DIMSD1
 70
     0
  9
$DIMSD2
 70
     0
  9
$DIMTOLJ
 70
     1
  9
$DIMTZIN
 70
     0
  9
$DIMALTZ
 70
     0
  9
$DIMALTTZ
 70
     0
  9
$DIMUPT
 70
     0
  9
$DIMDEC
 70
     2
  9
$DIMTDEC
 70
     4
  9
$DIMALTU
 70
     2
  9
$DIMALTTD
 70
     2
  9
$DIMTXSTY
  7
EXT08
  9
$DIMAUNIT
 70
     0
  9
$DIMADEC
 70
     2
  9
$DIMALTRND
 40
0.0
  9
$DIMAZIN
 70
     0
  9
$DIMDSEP
 70
    46
  9
$DIMATFIT
 70
     3
  9
$DIMFRAC
 70
     0
  9
$DIMLDRBLK
  1

  9
$DIMLUNIT
 70
     2
  9
$DIMLWD
 70
    -2
  9
$DIMLWE
 70
    -2
  9
$DIMTMOVE
 70
     2
  9
$LUNITS
 70
     2
  9
$LUPREC
 70
     2
  9
$SKETCHINC
 40
0.1
  9
$FILLETRAD
 40
0.0
  9
$AUNITS
 70
     1
  9
$AUPREC
 70
     2
  9
$MENU
  1
acad
  9
$ELEVATION
 40
0.0
  9
$PELEVATION
 40
0.0
  9
$THICKNESS
 40
0.0
  9
$LIMCHECK
 70
     0
  9
$CHAMFERA
 40
0.0
  9
$CHAMFERB
 40
0.0
  9
$CHAMFERC
 40
0.0
  9
$CHAMFERD
 40
0.0
  9
$SKPOLY
 70
     0
  9
$TDCREATE
 40
2449337.400898842
  9
$TDUCREATE
 40
2449337.025898842
  9
$TDUPDATE
 40
2453110.574520578
  9
$TDUUPDATE
 40
2453110.199520578
  9
$TDINDWG
 40
0.0436232176
  9
$TDUSRTIMER
 40
0.0436232176
  9
$USRTIMER
 70
     1
  9
$ANGBASE
 50
0.0
  9
$ANGDIR
 70
     0
  9
$PDMODE
 70
    33
  9
$PDSIZE
 40
5.0
  9
$PLINEWID
 40
0.0
  9
$SPLFRAME
 70
     0
  9
$SPLINETYPE
 70
     6
  9
$SPLINESEGS
 70
     8
  9
$HANDSEED
  5
1753
  9
$SURFTAB1
 70
     6
  9
$SURFTAB2
 70
     6
  9
$SURFTYPE
 70
     6
  9
$SURFU
 70
     6
  9
$SURFV
 70
     6
  9
$UCSBASE
  2

  9
$UCSNAME
  2

  9
$UCSORG
 10
0.0
 20
0.0
 30
0.0
  9
$UCSXDIR
 10
1.0
 20
0.0
 30
0.0
  9
$UCSYDIR
 10
0.0
 20
1.0
 30
0.0
  9
$UCSORTHOREF
  2

  9
$UCSORTHOVIEW
 70
     0
  9
$UCSORGTOP
 10
0.0
 20
0.0
 30
0.0
  9
$UCSORGBOTTOM
 10
0.0
 20
0.0
 30
0.0
  9
$UCSORGLEFT
 10
0.0
 20
0.0
 30
0.0
  9
$UCSORGRIGHT
 10
0.0
 20
0.0
 30
0.0
  9
$UCSORGFRONT
 10
0.0
 20
0.0
 30
0.0
  9
$UCSORGBACK
 10
0.0
 20
0.0
 30
0.0
  9
$PUCSBASE
  2

  9
$PUCSNAME
  2

  9
$PUCSORG
 10
0.0
 20
0.0
 30
0.0
  9
$PUCSXDIR
 10
1.0
 20
0.0
 30
0.0
  9
$PUCSYDIR
 10
0.0
 20
1.0
 30
0.0
  9
$PUCSORTHOREF
  2

  9
$PUCSORTHOVIEW
 70
     0
  9
$PUCSORGTOP
 10
0.0
 20
0.0
 30
0.0
  9
$PUCSORGBOTTOM
 10
0.0
 20
0.0
 30
0.0
  9
$PUCSORGLEFT
 10
0.0
 20
0.0
 30
0.0
  9
$PUCSORGRIGHT
 10
0.0
 20
0.0
 30
0.0
  9
$PUCSORGFRONT
 10
0.0
 20
0.0
 30
0.0
  9
$PUCSORGBACK
 10
0.0
 20
0.0
 30
0.0
  9
$USERI1
 70
     3
  9
$USERI2
 70
    10
  9
$USERI3
 70
     0
  9
$USERI4
 70
     0
  9
$USERI5
 70
     0
  9
$USERR1
 40
0.0
  9
$USERR2
 40
0.0
  9
$USERR3
 40
0.0
  9
$USERR4
 40
0.0
  9
$USERR5
 40
0.0
  9
$WORLDVIEW
 70
     1
  9
$SHADEDGE
 70
     3
  9
$SHADEDIF
 70
    70
  9
$TILEMODE
 70
     1
  9
$MAXACTVP
 70
    16
  9
$PINSBASE
 10
0.0
 20
0.0
 30
0.0
  9
$PLIMCHECK
 70
     0
  9
$PEXTMIN
 10
1.000000000000000E+20
 20
1.000000000000000E+20
 30
1.000000000000000E+20
  9
$PEXTMAX
 10
-1.000000000000000E+20
 20
-1.000000000000000E+20
 30
-1.000000000000000E+20
  9
$PLIMMIN
 10
0.0
 20
0.0
  9
$PLIMMAX
 10
12.0
 20
9.0
  9
$UNITMODE
 70
     0
  9
$VISRETAIN
 70
     0
  9
$PLINEGEN
 70
     0
  9
$PSLTSCALE
 70
     1
  9
$TREEDEPTH
 70
  3020
  9
$CMLSTYLE
  2
STANDARD
  9
$CMLJUST
 70
     0
  9
$CMLSCALE
 40
1.0
  9
$PROXYGRAPHICS
 70
     1
  9
$MEASUREMENT
 70
     0
  9
$CELWEIGHT
370
    -1
  9
$ENDCAPS
280
     0
  9
$JOINSTYLE
280
     0
  9
$LWDISPLAY
290
     0
  9
$INSUNITS
 70
     0
  9
$HYPERLINKBASE
  1

  9
$STYLESHEET
  1
CALCOMP_TECHJET720.CTB
  9
$XEDIT
290
     1
  9
$CEPSNTYPE
380
     0
  9
$PSTYLEMODE
290
     1
  9
$FINGERPRINTGUID
  2
{BAE32772-9E2A-4AF8-867C-12833EC6FECA}
  9
$VERSIONGUID
  2
{2BE82A9B-A361-41AF-AE6E-128CF1319A70}
  9
$EXTNAMES
290
     1
  9
$PSVPSCALE
 40
0.0
  9
$OLESTARTUP
290
     0
  0
ENDSEC
  0
SECTION
  2
CLASSES
  0
CLASS
  1
ACDBDICTIONARYWDFLT
  2
AcDbDictionaryWithDefault
  3
AutoCAD 2000
 90
        0
280
     0
281
     0
  0
CLASS
  1
ACDBPLACEHOLDER
  2
AcDbPlaceHolder
  3
AutoCAD 2000
 90
        0
280
     0
281
     0
  0
CLASS
  1
LAYOUT
  2
AcDbLayout
  3
AutoCAD 2000
 90
        0
280
     0
281
     0
  0
CLASS
  1
LONG_TRANSACTION
  2
AcDbLongTransaction
  3
AutoCAD 2000
 90
    32768
280
     0
281
     0
  0
CLASS
  1
LWPOLYLINE
  2
AcDbPolyline
  3
AutoCAD 2000
 90
    32768
280
     0
281
     1
  0
CLASS
  1
HATCH
  2
AcDbHatch
  3
AutoCAD 2000
 90
    32768
280
     0
281
     1
  0
CLASS
  1
XRECORD
  2
AcDbXrecord
  3
AutoCAD 2000
 90
    32768
280
     0
281
     0
  0
CLASS
  1
DICTIONARYVAR
  2
AcDbDictionaryVar
  3
AutoCAD 2000
 90
        0
280
     0
281
     0
  0
CLASS
  1
LONG_TRANSACTION
  2
AcDbLongTransaction
  3
AutoCAD 2000
 90
    32768
280
     0
281
     0
  0
CLASS
  1
LWPOLYLINE
  2
AcDbPolyline
  3
AutoCAD 2000
 90
    32768
280
     0
281
     1
  0
CLASS
  1
HATCH
  2
AcDbHatch
  3
AutoCAD 2000
 90
    32768
280
     0
281
     1
  0
CLASS
  1
XRECORD
  2
AcDbXrecord
  3
AutoCAD 2000
 90
    32768
280
     0
281
     0
  0
ENDSEC
  0
SECTION
  2
TABLES
  0
TABLE
  2
VPORT
  5
8
330
0
100
AcDbSymbolTable
 70
     2
  0
VPORT
  5
1752
330
8
100
AcDbSymbolTableRecord
100
AcDbViewportTableRecord
  2
*Active
 70
     0
 10
0.0
 20
0.0
 11
1.0
 21
1.0
 12
2099.841317956109
 22
1484.932310713733
 13
0.0
 23
0.0
 14
10.0
 24
10.0
 15
0.0
 25
0.0
 16
0.0
 26
0.0
 36
1.0
 17
0.0
 27
0.0
 37
0.0
 40
3000.494513617568
 41
1.716723549488054
 42
50.0
 43
0.0
 44
0.0
 50
0.0
 51
0.0
 71
     0
 72
   100
 73
     1
 74
     1
 75
     0
 76
     0
 77
     0
 78
     0
281
     0
 65
     1
110
0.0
120
0.0
130
0.0
111
1.0
121
0.0
131
0.0
112
0.0
122
1.0
132
0.0
 79
     0
146
0.0
  0
ENDTAB
  0
TABLE
  2
LTYPE
  5
5
330
0
100
AcDbSymbolTable
 70
     5
  0
LTYPE
  5
12
330
5
100
AcDbSymbolTableRecord
100
AcDbLinetypeTableRecord
  2
BYBLOCK
 70
     0
  3

 72
    65
 73
     0
 40
0.0
  0
LTYPE
  5
13
330
5
100
AcDbSymbolTableRecord
100
AcDbLinetypeTableRecord
  2
BYLAYER
 70
     0
  3

 72
    65
 73
     0
 40
0.0
  0
LTYPE
  5
14
330
5
100
AcDbSymbolTableRecord
100
AcDbLinetypeTableRecord
  2
CONTINUOUS
 70
     0
  3
Solid line
 72
    65
 73
     0
 40
0.0
  0
LTYPE
  5
2A
330
5
100
AcDbSymbolTableRecord
100
AcDbLinetypeTableRecord
  2
CENTER
 70
     0
  3
____ _ ____ _ ____ _ ____ _ ____ _ ____ _ ____ 
 72
    65
 73
     4
 40
2.0
 49
1.25
 74
     0
 49
-0.25
 74
     0
 49
0.25
 74
     0
 49
-0.25
 74
     0
  0
LTYPE
  5
2B
330
5
100
AcDbSymbolTableRecord
100
AcDbLinetypeTableRecord
  2
HIDDEN
 70
     0
  3
__ __ __ __ __ __ __ __ __ __ __ __ __ __ __ __
 72
    65
 73
     2
 40
0.375
 49
0.25
 74
     0
 49
-0.125
 74
     0
  0
LTYPE
  5
2C
330
5
100
AcDbSymbolTableRecord
100
AcDbLinetypeTableRecord
  2
HIDDEN2
 70
     0
  3
_ _ _ _ _ _ _ _ _ _ _ _ _ _ _ _ _ _ _ _ _ _ _ _
 72
    65
 73
     2
 40
0.1875
 49
0.125
 74
     0
 49
-0.0625
 74
     0
  0
LTYPE
  5
2D
330
5
100
AcDbSymbolTableRecord
100
AcDbLinetypeTableRecord
  2
PHANTOM
 70
     0
  3
______  __  __  ______  __  __  ______  __  __ 
 72
    65
 73
     6
 40
2.5
 49
1.25
 74
     0
 49
-0.25
 74
     0
 49
0.25
 74
     0
 49
-0.25
 74
     0
 49
0.25
 74
     0
 49
-0.25
 74
     0
  0
ENDTAB
  0
TABLE
  2
LAYER
  5
2
330
0
100
AcDbSymbolTable
 70
    18
  0
LAYER
  5
F
330
2
100
AcDbSymbolTableRecord
100
AcDbLayerTableRecord
  2
0
 70
     0
 62
     7
  6
CONTINUOUS
370
    -3
390
EE5
  0
LAYER
  5
34
330
2
100
AcDbSymbolTableRecord
100
AcDbLayerTableRecord
  2
CENTER
 70
     0
 62
     3
  6
CENTER
370
    -3
390
EE5
  0
LAYER
  5
35
330
2
100
AcDbSymbolTableRecord
100
AcDbLayerTableRecord
  2
HASEN
 70
     0
 62
     7
  6
HIDDEN
370
    -3
390
EE5
  0
LAYER
  5
36
330
2
100
AcDbSymbolTableRecord
100
AcDbLayerTableRecord
  2
HOJO
 70
     0
 62
     8
  6
CONTINUOUS
370
    -3
390
EE5
  0
LAYER
  5
37
330
2
100
AcDbSymbolTableRecord
100
AcDbLayerTableRecord
  2
KASOU
 70
     0
 62
     2
  6
PHANTOM
370
    -3
390
EE5
  0
LAYER
  5
38
330
2
100
AcDbSymbolTableRecord
100
AcDbLayerTableRecord
  2
MOJI
 70
     0
 62
     6
  6
CONTINUOUS
370
    -3
390
EE5
  0
LAYER
  5
39
330
2
100
AcDbSymbolTableRecord
100
AcDbLayerTableRecord
  2
SJC
 70
     0
 62
     1
  6
CONTINUOUS
370
    -3
390
EE5
  0
LAYER
  5
3A
330
2
100
AcDbSymbolTableRecord
100
AcDbLayerTableRecord
  2
SUNPOU
 70
     0
 62
     4
  6
CONTINUOUS
370
    -3
390
EE5
  0
LAYER
  5
3B
330
2
100
AcDbSymbolTableRecord
100
AcDbLayerTableRecord
  2
WAKU
 70
     0
 62
    -5
  6
CONTINUOUS
370
    -3
390
EE5
  0
LAYER
  5
3C
330
2
100
AcDbSymbolTableRecord
100
AcDbLayerTableRecord
  2
DEFPOINTS
 70
     0
 62
     7
  6
CONTINUOUS
290
     0
370
    -3
390
EE5
  0
LAYER
  5
153
330
2
100
AcDbSymbolTableRecord
100
AcDbLayerTableRecord
  2
SJC2
 70
     0
 62
     7
  6
CONTINUOUS
370
    -3
390
EE5
  0
LAYER
  5
154
330
2
100
AcDbSymbolTableRecord
100
AcDbLayerTableRecord
  2
MOJI2
 70
     0
 62
     1
  6
CONTINUOUS
370
    -3
390
EE5
  0
LAYER
  5
155
330
2
100
AcDbSymbolTableRecord
100
AcDbLayerTableRecord
  2
HATCH
 70
     0
 62
     2
  6
CONTINUOUS
370
    -3
390
EE5
  0
LAYER
  5
156
330
2
100
AcDbSymbolTableRecord
100
AcDbLayerTableRecord
  2
ZWAKU
 70
     0
 62
    -7
  6
CONTINUOUS
370
    -3
390
EE5
  0
LAYER
  5
167
330
2
100
AcDbSymbolTableRecord
100
AcDbLayerTableRecord
  2
INFORMATION
 70
     1
 62
     7
  6
CONTINUOUS
370
    -3
390
EE5
  0
LAYER
  5
469
330
2
100
AcDbSymbolTableRecord
100
AcDbLayerTableRecord
  2
KEN
 70
     0
 62
     1
  6
CONTINUOUS
370
    -3
390
EE5
  0
LAYER
  5
46A
330
2
100
AcDbSymbolTableRecord
100
AcDbLayerTableRecord
  2
LIST
 70
     0
 62
     6
  6
CONTINUOUS
370
    -3
390
EE5
  0
LAYER
  5
46B
330
2
100
AcDbSymbolTableRecord
100
AcDbLayerTableRecord
  2
1
 70
     0
 62
     7
  6
CONTINUOUS
370
    -3
390
EE5
  0
ENDTAB
  0
TABLE
  2
STYLE
  5
3
330
0
100
AcDbSymbolTable
 70
    14
  0
STYLE
  5
10
330
3
100
AcDbSymbolTableRecord
100
AcDbTextStyleTableRecord
  2
STANDARD
 70
     0
 40
0.0
 41
1.0
 50
0.0
 71
     0
 42
3.0
  3
TXT
  4
BIGFONT
  0
STYLE
  5
28
330
3
100
AcDbSymbolTableRecord
100
AcDbTextStyleTableRecord
  2
USER
 70
     0
 40
0.0
 41
1.0
 50
0.0
 71
     0
 42
30.0
  3
TXT
  4
BIGFONT
  0
STYLE
  5
29
330
3
100
AcDbSymbolTableRecord
100
AcDbTextStyleTableRecord
  2
TEXT3030
 70
     0
 40
30.0
 41
1.0
 50
0.0
 71
     0
 42
30.0
  3
TXT
  4
BIGFONT
  0
STYLE
  5
157
330
3
100
AcDbSymbolTableRecord
100
AcDbTextStyleTableRecord
  2
KANJI
 70
     0
 40
0.0
 41
1.0
 50
0.0
 71
     0
 42
0.0
  3
ROMANS.SHX
  4
BIGFONT.SHX
  0
STYLE
  5
158
330
3
100
AcDbSymbolTableRecord
100
AcDbTextStyleTableRecord
  2
SIMPLEX
 70
     0
 40
0.0
 41
1.0
 50
0.0
 71
     0
 42
0.0
  3
SCRIPTS.SHX
  4

  0
STYLE
  5
17A
330
3
100
AcDbSymbolTableRecord
100
AcDbTextStyleTableRecord
  2
TATEEXT
 70
     4
 40
0.0
 41
1.0
 50
0.0
 71
     0
 42
0.0
  3
ROMANS
  4
EXTFONT
  0
STYLE
  5
17B
330
3
100
AcDbSymbolTableRecord
100
AcDbTextStyleTableRecord
  2
TATEBIG
 70
     4
 40
0.0
 41
1.0
 50
0.0
 71
     0
 42
0.0
  3
ROMANS
  4
BIGFONT
  0
STYLE
  5
17C
330
3
100
AcDbSymbolTableRecord
100
AcDbTextStyleTableRecord
  2
EXT08
 70
     0
 40
0.0
 41
0.8
 50
0.0
 71
     0
 42
30.0
  3
ROMANS
  4
EXTFONT
  0
STYLE
  5
17D
330
3
100
AcDbSymbolTableRecord
100
AcDbTextStyleTableRecord
  2
EXT
 70
     0
 40
0.0
 41
1.0
 50
0.0
 71
     0
 42
0.0
  3
ROMANS
  4
EXTFONT
  0
STYLE
  5
17E
330
3
100
AcDbSymbolTableRecord
100
AcDbTextStyleTableRecord
  2
KANJI08
 70
     0
 40
0.0
 41
0.8
 50
0.0
 71
     0
 42
0.0
  3
ROMANS
  4
BIGFONT
  0
STYLE
  5
46C
330
3
100
AcDbSymbolTableRecord
100
AcDbTextStyleTableRecord
  2
Y-MOJI
 70
     0
 40
26.0
 41
0.6
 50
0.0
 71
     0
 42
30.0
  3
TXT
  4
BIGFONT
  0
STYLE
  5
46D
330
3
100
AcDbSymbolTableRecord
100
AcDbTextStyleTableRecord
  2
TEXT6060
 70
     0
 40
60.0
 41
1.0
 50
0.0
 71
     0
 42
30.0
  3
TXT
  4
BIGFONT
  0
STYLE
  5
DBB
330
3
100
AcDbSymbolTableRecord
100
AcDbTextStyleTableRecord
  2
A
 70
     0
 40
2.5
 41
0.6
 50
0.0
 71
     0
 42
30.0
  3
TXT
  4
BIGFONT
  0
STYLE
  5
DBC
330
3
100
AcDbSymbolTableRecord
100
AcDbTextStyleTableRecord
  2
TATE
 70
     4
 40
0.0
 41
1.0
 50
0.0
 71
     0
 42
30.0
  3
SIMPLEX
  4
BIGFONT
  0
ENDTAB
  0
TABLE
  2
VIEW
  5
6
330
0
100
AcDbSymbolTable
 70
     0
  0
ENDTAB
  0
TABLE
  2
UCS
  5
7
330
0
100
AcDbSymbolTable
 70
     0
  0
ENDTAB
  0
TABLE
  2
APPID
  5
9
330
0
100
AcDbSymbolTable
 70
     1
  0
APPID
  5
11
330
9
100
AcDbSymbolTableRecord
100
AcDbRegAppTableRecord
  2
ACAD
 70
     0
  0
ENDTAB
  0
TABLE
  2
DIMSTYLE
  5
A
330
0
100
AcDbSymbolTable
 70
     5
100
AcDbDimStyleTable
 71
     0
  0
DIMSTYLE
105
30
330
A
100
AcDbSymbolTableRecord
100
AcDbDimStyleTableRecord
  2
S01-10AX
 70
     0
 41
20.0
 44
10.0
 73
     0
 74
     0
 77
     1
 78
     8
140
30.0
146
0.006
172
     1
174
     1
279
     2
284
     8
285
     8
286
     8
340
29
  0
DIMSTYLE
105
17F
102
{ACAD_REACTORS
330
BC
330
EB
330
EE
330
205
330
212
330
22A
330
32A
330
34D
330
35A
330
E35
102
}
330
A
100
AcDbSymbolTableRecord
100
AcDbDimStyleTableRecord
  2
SJC
 70
     0
340
10
  0
DIMSTYLE
105
1108
330
A
100
AcDbSymbolTableRecord
100
AcDbDimStyleTableRecord
  2
STANDARD
 70
     0
 40
10.0
 41
2.0
 42
1.0
 43
6.0
 44
1.0
 73
     0
 74
     0
 77
     1
 78
     8
140
3.0
147
1.199999999999999
172
     1
176
   256
177
   256
178
   256
271
     2
275
     1
279
     2
340
17C
  0
DIMSTYLE
105
110E
330
A
100
AcDbSymbolTableRecord
100
AcDbDimStyleTableRecord
  2
RUISEKI1
 70
     0
 40
10.0
 41
2.0
 42
1.0
 43
6.0
 44
30.0
 73
     0
 74
     0
 77
     1
 78
     8
140
3.0
147
1.5
172
     1
173
     1
176
   256
177
   256
178
   256
271
     2
275
     1
279
     2
340
17C
341
1109
343
1109
  0
DIMSTYLE
105
1112
330
A
100
AcDbSymbolTableRecord
100
AcDbDimStyleTableRecord
  2
RUISEKI2
 70
     0
 40
10.0
 41
2.0
 42
1.0
 43
6.0
 44
30.0
 73
     0
 74
     0
 77
     1
 78
     8
140
3.0
147
1.5
172
     1
173
     1
176
   256
177
   256
178
   256
271
     2
275
     1
279
     2
340
17C
341
110F
343
110F
  0
ENDTAB
  0
TABLE
  2
BLOCK_RECORD
  5
1
330
0
100
AcDbSymbolTable
 70
    16
  0
BLOCK_RECORD
  5
18
102
{ACAD_XDICTIONARY
360
11F2
102
}
330
1
100
AcDbSymbolTableRecord
100
AcDbBlockTableRecord
  2
*MODEL_SPACE
340
EE8
  0
BLOCK_RECORD
  5
15
102
{ACAD_XDICTIONARY
360
11F0
102
}
330
1
100
AcDbSymbolTableRecord
100
AcDbBlockTableRecord
  2
*PAPER_SPACE
340
EE9
  0
BLOCK_RECORD
  5
15A
330
1
100
AcDbSymbolTableRecord
100
AcDbBlockTableRecord
  2
CALCOMP_TECHJET720A3
340
0
102
{BLKREFS
331
166
331
EBE
102
}
  0
BLOCK_RECORD
  5
18C
330
1
100
AcDbSymbolTableRecord
100
AcDbBlockTableRecord
  2
*D1
340
0
  0
BLOCK_RECORD
  5
198
330
1
100
AcDbSymbolTableRecord
100
AcDbBlockTableRecord
  2
*D2
340
0
  0
BLOCK_RECORD
  5
1D5
330
1
100
AcDbSymbolTableRecord
100
AcDbBlockTableRecord
  2
*D3
340
0
  0
BLOCK_RECORD
  5
1F9
330
1
100
AcDbSymbolTableRecord
100
AcDbBlockTableRecord
  2
*D4
340
0
  0
BLOCK_RECORD
  5
206
330
1
100
AcDbSymbolTableRecord
100
AcDbBlockTableRecord
  2
*D5
340
0
  0
BLOCK_RECORD
  5
21E
330
1
100
AcDbSymbolTableRecord
100
AcDbBlockTableRecord
  2
*D6
340
0
  0
BLOCK_RECORD
  5
31A
330
1
100
AcDbSymbolTableRecord
100
AcDbBlockTableRecord
  2
*D7
340
0
  0
BLOCK_RECORD
  5
33D
330
1
100
AcDbSymbolTableRecord
100
AcDbBlockTableRecord
  2
*D8
340
0
  0
BLOCK_RECORD
  5
34E
330
1
100
AcDbSymbolTableRecord
100
AcDbBlockTableRecord
  2
*D9
340
0
  0
BLOCK_RECORD
  5
DC2
330
1
100
AcDbSymbolTableRecord
100
AcDbBlockTableRecord
  2
B0040021
340
0
102
{BLKREFS
331
DD1
331
DD2
331
1314
331
1327
102
}
  0
BLOCK_RECORD
  5
E27
330
1
100
AcDbSymbolTableRecord
100
AcDbBlockTableRecord
  2
*D11
340
0
  0
BLOCK_RECORD
  5
1109
330
1
100
AcDbSymbolTableRecord
100
AcDbBlockTableRecord
  2
_Dot
340
0
  0
BLOCK_RECORD
  5
110F
330
1
100
AcDbSymbolTableRecord
100
AcDbBlockTableRecord
  2
_None
340
0
  0
BLOCK_RECORD
  5
1721
330
1
100
AcDbSymbolTableRecord
100
AcDbBlockTableRecord
  2
*X14
340
0
102
{BLKREFS
331
134E
102
}
  0
BLOCK_RECORD
  5
1736
330
1
100
AcDbSymbolTableRecord
100
AcDbBlockTableRecord
  2
*X15
340
0
102
{BLKREFS
331
1370
102
}
  0
ENDTAB
  0
ENDSEC
  0
SECTION
  2
BLOCKS
  0
BLOCK
  5
3F
330
18
100
AcDbEntity
  8
0
100
AcDbBlockBegin
  2
*MODEL_SPACE
 70
     0
 10
0.0
 20
0.0
 30
0.0
  3
*MODEL_SPACE
  1

  0
ENDBLK
  5
40
330
18
100
AcDbEntity
  8
0
100
AcDbBlockEnd
  0
BLOCK
  5
3D
330
15
100
AcDbEntity
 67
     1
  8
0
100
AcDbBlockBegin
  2
*PAPER_SPACE
 70
     0
 10
0.0
 20
0.0
 30
0.0
  3
*PAPER_SPACE
  1

  0
ENDBLK
  5
3E
330
15
100
AcDbEntity
 67
     1
  8
0
100
AcDbBlockEnd
  0
BLOCK
  5
161
330
15A
100
AcDbEntity
  8
0
100
AcDbBlockBegin
  2
CALCOMP_TECHJET720A3
 70
     0
 10
0.0
 20
0.0
 30
0.0
  3
CALCOMP_TECHJET720A3
  1

  0
LWPOLYLINE
  5
15B
330
15A
100
AcDbEntity
  8
ZWAKU
100
AcDbPolyline
 90
        4
 70
     1
 43
0.0
 10
0.0
 20
0.0
 10
0.0
 20
267.0
 10
370.0
 20
267.0
 10
370.0
 20
0.0
  0
ENDBLK
  5
162
330
15A
100
AcDbEntity
  8
0
100
AcDbBlockEnd
  0
BLOCK
  5
1AF
330
18C
100
AcDbEntity
  8
0
100
AcDbBlockBegin
  2
*D1
 70
     1
 10
0.0
 20
0.0
 30
0.0
  3
*D1
  1

  0
LINE
  5
169D
330
18C
100
AcDbEntity
  8
SUNPOU
100
AcDbLine
 10
2758.815114145119
 20
428.4999709621201
 30
0.0
 11
2758.815114145119
 21
272.8261690439099
 31
0.0
  0
LINE
  5
169E
330
18C
100
AcDbEntity
  8
SUNPOU
100
AcDbLine
 10
2458.815114145119
 20
428.4999709621201
 30
0.0
 11
2458.815114145119
 21
272.8261690439099
 31
0.0
  0
LINE
  5
169F
330
18C
100
AcDbEntity
  8
SUNPOU
100
AcDbLine
 10
2738.815114145118
 20
282.8261690439098
 30
0.0
 11
2478.815114145119
 21
282.8261690439098
 31
0.0
  0
SOLID
  5
16A0
330
18C
100
AcDbEntity
  8
SUNPOU
100
AcDbTrace
 10
2738.815114145118
 20
286.1595023772432
 30
0.0
 11
2738.815114145118
 21
279.4928357105765
 31
0.0
 12
2758.815114145119
 22
282.8261690439098
 32
0.0
 13
2758.815114145119
 23
282.8261690439098
 33
0.0
  0
SOLID
  5
16A1
330
18C
100
AcDbEntity
  8
SUNPOU
100
AcDbTrace
 10
2478.815114145119
 20
286.1595023772432
 30
0.0
 11
2478.815114145119
 21
279.4928357105765
 31
0.0
 12
2458.815114145119
 22
282.8261690439098
 32
0.0
 13
2458.815114145119
 23
282.8261690439098
 33
0.0
  0
MTEXT
  5
16A2
330
18C
100
AcDbEntity
  8
SUNPOU
100
AcDbMText
 10
2608.815114145119
 20
309.8261690439098
 30
0.0
 40
30.0
 41
0.0
 71
     5
 72
     5
  1
\A1;□300
  7
EXT08
 73
     1
 44
1.0
  0
POINT
  5
16A3
330
18C
100
AcDbEntity
  8
DEFPOINTS
 62
     0
100
AcDbPoint
 10
2758.815114145119
 20
438.4999709621202
 30
0.0
  0
POINT
  5
16A4
330
18C
100
AcDbEntity
  8
DEFPOINTS
 62
     0
100
AcDbPoint
 10
2458.815114145119
 20
438.4999709621202
 30
0.0
  0
POINT
  5
16A5
330
18C
100
AcDbEntity
  8
DEFPOINTS
 62
     0
100
AcDbPoint
 10
2458.815114145119
 20
282.8261690439098
 30
0.0
  0
ENDBLK
  5
1B9
330
18C
100
AcDbEntity
  8
0
100
AcDbBlockEnd
  0
BLOCK
  5
22B
330
198
100
AcDbEntity
  8
0
100
AcDbBlockBegin
  2
*D2
 70
     1
 10
0.0
 20
0.0
 30
0.0
  3
*D2
  1

  0
LINE
  5
16A6
330
198
100
AcDbEntity
  8
SUNPOU
100
AcDbLine
 10
1314.847800169051
 20
1642.057885030506
 30
0.0
 11
1800.34932575571
 21
1642.057885030506
 31
0.0
  0
LINE
  5
16A7
330
198
100
AcDbEntity
  8
SUNPOU
100
AcDbLine
 10
1484.715113628148
 20
442.0578850305064
 30
0.0
 11
1800.349325755709
 21
442.0578850305063
 31
0.0
  0
LINE
  5
16A8
330
198
100
AcDbEntity
  8
SUNPOU
100
AcDbLine
 10
1790.34932575571
 20
1622.057885030506
 30
0.0
 11
1790.349325755709
 21
462.0578850305063
 31
0.0
  0
SOLID
  5
16A9
330
198
100
AcDbEntity
  8
SUNPOU
100
AcDbTrace
 10
1787.015992422377
 20
1622.057885030506
 30
0.0
 11
1793.682659089043
 21
1622.057885030506
 31
0.0
 12
1790.34932575571
 22
1642.057885030506
 32
0.0
 13
1790.34932575571
 23
1642.057885030506
 33
0.0
  0
SOLID
  5
16AA
330
198
100
AcDbEntity
  8
SUNPOU
100
AcDbTrace
 10
1787.015992422376
 20
462.0578850305063
 30
0.0
 11
1793.682659089043
 21
462.0578850305063
 31
0.0
 12
1790.349325755709
 22
442.0578850305063
 32
0.0
 13
1790.349325755709
 23
442.0578850305063
 33
0.0
  0
MTEXT
  5
16AB
330
198
100
AcDbEntity
  8
SUNPOU
100
AcDbMText
 10
1763.34932575571
 20
1042.057885030506
 30
0.0
 40
30.0
 41
0.0
 71
     5
 72
     5
  1
\A1;1200
  7
EXT08
 11
0.0000000000000001
 21
1.0
 31
0.0
 73
     1
 44
1.0
  0
POINT
  5
16AC
330
198
100
AcDbEntity
  8
DEFPOINTS
 62
     0
100
AcDbPoint
 10
1304.847800169051
 20
1642.057885030506
 30
0.0
  0
POINT
  5
16AD
330
198
100
AcDbEntity
  8
DEFPOINTS
 62
     0
100
AcDbPoint
 10
1474.715113628148
 20
442.0578850305064
 30
0.0
  0
POINT
  5
16AE
330
198
100
AcDbEntity
  8
DEFPOINTS
 62
     0
100
AcDbPoint
 10
1790.349325755709
 20
442.0578850305063
 30
0.0
  0
ENDBLK
  5
235
330
198
100
AcDbEntity
  8
0
100
AcDbBlockEnd
  0
BLOCK
  5
262
330
1D5
100
AcDbEntity
  8
0
100
AcDbBlockBegin
  2
*D3
 70
     1
 10
0.0
 20
0.0
 30
0.0
  3
*D3
  1

  0
LINE
  5
16AF
330
1D5
100
AcDbEntity
  8
SUNPOU
100
AcDbLine
 10
1314.847799501765
 20
1642.057904934857
 30
0.0
 11
1614.265099501765
 21
1642.057904934857
 31
0.0
  0
LINE
  5
16B0
330
1D5
100
AcDbEntity
  8
SUNPOU
100
AcDbLine
 10
1374.715113628148
 20
1512.057885030506
 30
0.0
 11
1614.265099501765
 21
1512.057885030506
 31
0.0
  0
LINE
  5
16B1
330
1D5
100
AcDbEntity
  8
SUNPOU
100
AcDbLine
 10
1604.265099501765
 20
1622.057904934857
 30
0.0
 11
1604.265099501765
 21
1532.057885030506
 31
0.0
  0
MTEXT
  5
16B2
330
1D5
100
AcDbEntity
  8
SUNPOU
100
AcDbMText
 10
1575.557083105917
 20
1577.057894982681
 30
0.0
 40
30.0
 41
0.0
 71
     5
 72
     5
  1
\A1;130
  7
EXT08
 11
0.0000000000000001
 21
1.0
 31
0.0
 73
     1
 44
1.0
  0
SOLID
  5
16B3
330
1D5
100
AcDbEntity
  8
SUNPOU
100
AcDbTrace
 10
1600.931766168432
 20
1622.057904934857
 30
0.0
 11
1607.598432835098
 21
1622.057904934857
 31
0.0
 12
1604.265099501765
 22
1642.057904934857
 32
0.0
 13
1604.265099501765
 23
1642.057904934857
 33
0.0
  0
SOLID
  5
16B4
330
1D5
100
AcDbEntity
  8
SUNPOU
100
AcDbTrace
 10
1600.931766168432
 20
1532.057885030506
 30
0.0
 11
1607.598432835098
 21
1532.057885030506
 31
0.0
 12
1604.265099501765
 22
1512.057885030506
 32
0.0
 13
1604.265099501765
 23
1512.057885030506
 33
0.0
  0
POINT
  5
16B5
330
1D5
100
AcDbEntity
  8
DEFPOINTS
 62
     0
100
AcDbPoint
 10
1304.847799501765
 20
1642.057904934857
 30
0.0
  0
POINT
  5
16B6
330
1D5
100
AcDbEntity
  8
DEFPOINTS
 62
     0
100
AcDbPoint
 10
1364.715113628148
 20
1512.057885030506
 30
0.0
  0
POINT
  5
16B7
330
1D5
100
AcDbEntity
  8
DEFPOINTS
 62
     0
100
AcDbPoint
 10
1604.265099501765
 20
1512.057885030506
 30
0.0
  0
ENDBLK
  5
26C
330
1D5
100
AcDbEntity
  8
0
100
AcDbBlockEnd
  0
BLOCK
  5
24C
330
1F9
100
AcDbEntity
  8
0
100
AcDbBlockBegin
  2
*D4
 70
     1
 10
0.0
 20
0.0
 30
0.0
  3
*D4
  1

  0
LINE
  5
16BD
330
1F9
100
AcDbEntity
  8
SUNPOU
100
AcDbLine
 10
1464.715113628148
 20
442.0578850305064
 30
0.0
 11
1712.82393114234
 21
442.0578850305063
 31
0.0
  0
LINE
  5
16BE
330
1F9
100
AcDbEntity
  8
SUNPOU
100
AcDbLine
 10
1569.17277081392
 20
842.0578850305066
 30
0.0
 11
1712.823931142341
 21
842.0578850305066
 31
0.0
  0
LINE
  5
16BF
330
1F9
100
AcDbEntity
  8
SUNPOU
100
AcDbLine
 10
1702.82393114234
 20
462.0578850305063
 30
0.0
 11
1702.82393114234
 21
822.0578850305065
 31
0.0
  0
SOLID
  5
16C0
330
1F9
100
AcDbEntity
  8
SUNPOU
100
AcDbTrace
 10
1699.490597809007
 20
462.0578850305063
 30
0.0
 11
1706.157264475674
 21
462.0578850305063
 31
0.0
 12
1702.82393114234
 22
442.0578850305063
 32
0.0
 13
1702.82393114234
 23
442.0578850305063
 33
0.0
  0
SOLID
  5
16C1
330
1F9
100
AcDbEntity
  8
SUNPOU
100
AcDbTrace
 10
1699.490597809007
 20
822.0578850305065
 30
0.0
 11
1706.157264475674
 21
822.0578850305065
 31
0.0
 12
1702.82393114234
 22
842.0578850305066
 32
0.0
 13
1702.82393114234
 23
842.0578850305066
 33
0.0
  0
MTEXT
  5
16C2
330
1F9
100
AcDbEntity
  8
SUNPOU
100
AcDbMText
 10
1675.82393114234
 20
642.0578850305068
 30
0.0
 40
30.0
 41
0.0
 71
     5
 72
     5
  1
\A1;400
  7
EXT08
 11
0.0000000000000001
 21
1.0
 31
0.0
 73
     1
 44
1.0
  0
POINT
  5
16C3
330
1F9
100
AcDbEntity
  8
DEFPOINTS
 62
     0
100
AcDbPoint
 10
1454.715113628148
 20
442.0578850305064
 30
0.0
  0
POINT
  5
16C4
330
1F9
100
AcDbEntity
  8
DEFPOINTS
 62
     0
100
AcDbPoint
 10
1559.17277081392
 20
842.0578850305066
 30
0.0
  0
POINT
  5
16C5
330
1F9
100
AcDbEntity
  8
DEFPOINTS
 62
     0
100
AcDbPoint
 10
1702.82393114234
 20
842.0578850305066
 30
0.0
  0
ENDBLK
  5
256
330
1F9
100
AcDbEntity
  8
0
100
AcDbBlockEnd
  0
BLOCK
  5
207
330
206
100
AcDbEntity
  8
0
100
AcDbBlockBegin
  2
*D5
 70
     1
 10
0.0
 20
0.0
 30
0.0
  3
*D5
  1

  0
LINE
  5
16C6
330
206
100
AcDbEntity
  8
SUNPOU
100
AcDbLine
 10
1569.17277081392
 20
842.0578850305066
 30
0.0
 11
1614.265099501765
 21
842.0578850305066
 31
0.0
  0
LINE
  5
16C7
330
206
100
AcDbEntity
  8
SUNPOU
100
AcDbLine
 10
1490.395511289208
 20
1512.057885030506
 30
0.0
 11
1614.265099501765
 21
1512.057885030506
 31
0.0
  0
LINE
  5
16C8
330
206
100
AcDbEntity
  8
SUNPOU
100
AcDbLine
 10
1604.265099501765
 20
862.0578850305065
 30
0.0
 11
1604.265099501765
 21
1492.057885030506
 31
0.0
  0
SOLID
  5
16C9
330
206
100
AcDbEntity
  8
SUNPOU
100
AcDbTrace
 10
1600.931766168432
 20
862.0578850305065
 30
0.0
 11
1607.598432835098
 21
862.0578850305065
 31
0.0
 12
1604.265099501765
 22
842.0578850305066
 32
0.0
 13
1604.265099501765
 23
842.0578850305066
 33
0.0
  0
SOLID
  5
16CA
330
206
100
AcDbEntity
  8
SUNPOU
100
AcDbTrace
 10
1600.931766168432
 20
1492.057885030506
 30
0.0
 11
1607.598432835098
 21
1492.057885030506
 31
0.0
 12
1604.265099501765
 22
1512.057885030506
 32
0.0
 13
1604.265099501765
 23
1512.057885030506
 33
0.0
  0
MTEXT
  5
16CB
330
206
100
AcDbEntity
  8
SUNPOU
100
AcDbMText
 10
1577.265099501765
 20
1177.057885030506
 30
0.0
 40
30.0
 41
0.0
 71
     5
 72
     5
  1
\A1;670
  7
EXT08
 11
0.0000000000000001
 21
1.0
 31
0.0
 73
     1
 44
1.0
  0
POINT
  5
16CC
330
206
100
AcDbEntity
  8
DEFPOINTS
 62
     0
100
AcDbPoint
 10
1559.17277081392
 20
842.0578850305066
 30
0.0
  0
POINT
  5
16CD
330
206
100
AcDbEntity
  8
DEFPOINTS
 62
     0
100
AcDbPoint
 10
1480.395511289208
 20
1512.057885030506
 30
0.0
  0
POINT
  5
16CE
330
206
100
AcDbEntity
  8
DEFPOINTS
 62
     0
100
AcDbPoint
 10
1604.265099501765
 20
1512.057885030506
 30
0.0
  0
ENDBLK
  5
211
330
206
100
AcDbEntity
  8
0
100
AcDbBlockEnd
  0
BLOCK
  5
241
330
21E
100
AcDbEntity
  8
0
100
AcDbBlockBegin
  2
*D6
 70
     1
 10
0.0
 20
0.0
 30
0.0
  3
*D6
  1

  0
LINE
  5
16CF
330
21E
100
AcDbEntity
  8
SUNPOU
100
AcDbLine
 10
1569.17277081392
 20
842.0578850305066
 30
0.0
 11
1712.82393114234
 21
842.0578850305066
 31
0.0
  0
LINE
  5
16D0
330
21E
100
AcDbEntity
  8
SUNPOU
100
AcDbLine
 10
1324.847800169051
 20
1642.057885030506
 30
0.0
 11
1712.823931142341
 21
1642.057885030506
 31
0.0
  0
LINE
  5
16D1
330
21E
100
AcDbEntity
  8
SUNPOU
100
AcDbLine
 10
1702.82393114234
 20
862.0578850305065
 30
0.0
 11
1702.82393114234
 21
1622.057885030506
 31
0.0
  0
SOLID
  5
16D2
330
21E
100
AcDbEntity
  8
SUNPOU
100
AcDbTrace
 10
1699.490597809007
 20
862.0578850305065
 30
0.0
 11
1706.157264475674
 21
862.0578850305065
 31
0.0
 12
1702.82393114234
 22
842.0578850305066
 32
0.0
 13
1702.82393114234
 23
842.0578850305066
 33
0.0
  0
SOLID
  5
16D3
330
21E
100
AcDbEntity
  8
SUNPOU
100
AcDbTrace
 10
1699.490597809007
 20
1622.057885030506
 30
0.0
 11
1706.157264475674
 21
1622.057885030506
 31
0.0
 12
1702.82393114234
 22
1642.057885030506
 32
0.0
 13
1702.82393114234
 23
1642.057885030506
 33
0.0
  0
MTEXT
  5
16D4
330
21E
100
AcDbEntity
  8
SUNPOU
100
AcDbMText
 10
1675.82393114234
 20
1242.057885030506
 30
0.0
 40
30.0
 41
0.0
 71
     5
 72
     5
  1
\A1;800
  7
EXT08
 11
0.0000000000000001
 21
1.0
 31
0.0
 73
     1
 44
1.0
  0
POINT
  5
16D5
330
21E
100
AcDbEntity
  8
DEFPOINTS
 62
     0
100
AcDbPoint
 10
1559.17277081392
 20
842.0578850305066
 30
0.0
  0
POINT
  5
16D6
330
21E
100
AcDbEntity
  8
DEFPOINTS
 62
     0
100
AcDbPoint
 10
1314.847800169051
 20
1642.057885030506
 30
0.0
  0
POINT
  5
16D7
330
21E
100
AcDbEntity
  8
DEFPOINTS
 62
     0
100
AcDbPoint
 10
1702.82393114234
 20
1642.057885030506
 30
0.0
  0
ENDBLK
  5
24B
330
21E
100
AcDbEntity
  8
0
100
AcDbBlockEnd
  0
BLOCK
  5
32B
330
31A
100
AcDbEntity
  8
0
100
AcDbBlockBegin
  2
*D7
 70
     1
 10
0.0
 20
0.0
 30
0.0
  3
*D7
  1

  0
LINE
  5
16D8
330
31A
100
AcDbEntity
  8
SUNPOU
100
AcDbLine
 10
1461.645846200688
 20
1928.936770601719
 30
0.0
 11
1498.521703833271
 21
1922.43456196433
 31
0.0
  0
LINE
  5
16D9
330
31A
100
AcDbEntity
  8
SUNPOU
100
AcDbLine
 10
1449.316390625516
 20
1956.607885030506
 30
0.0
 11
1501.511482196571
 21
1956.607885030506
 31
0.0
  0
ARC
  5
16DA
330
31A
100
AcDbEntity
  8
SUNPOU
100
AcDbCircle
 10
1304.715158012144
 20
1956.607885030506
 30
0.0
 40
186.7963241844268
100
AcDbArc
 50
337.72498707488
 51
343.86249353744
  0
ARC
  5
16DB
330
31A
100
AcDbEntity
  8
SUNPOU
100
AcDbCircle
 10
1304.715158012144
 20
1956.607885030506
 30
0.0
 40
186.7963241844268
100
AcDbArc
 50
6.137506462559967
 51
12.27501292511993
  0
ARC
  5
16DC
330
31A
100
AcDbEntity
  8
SUNPOU
100
AcDbCircle
 10
1304.715158012144
 20
1956.607885030506
 30
0.0
 40
186.7963241844268
100
AcDbArc
 50
349.9999999999999
 51
0.0000000000000799
  0
SOLID
  5
16DD
330
31A
100
AcDbEntity
  8
SUNPOU
100
AcDbTrace
 10
1480.904226063193
 20
1905.442788856401
 30
0.0
 11
1487.398222254953
 21
1903.935321475042
 31
0.0
 12
1488.67362630315
 22
1924.171043740999
 32
0.0
 13
1488.67362630315
 23
1924.171043740999
 33
0.0
  0
SOLID
  5
16DE
330
31A
100
AcDbEntity
  8
SUNPOU
100
AcDbTrace
 10
1493.769350696941
 20
1976.757652794581
 30
0.0
 11
1487.1122439356
 21
1976.400757834481
 31
0.0
 12
1491.511482196571
 22
1956.607885030506
 32
0.0
 13
1491.511482196571
 23
1956.607885030506
 33
0.0
  0
MTEXT
  5
16DF
330
31A
100
AcDbEntity
  8
SUNPOU
100
AcDbMText
 10
1524.285582027548
 20
1927.705835769312
 30
0.0
 40
30.0
 41
0.0
 71
     5
 72
     5
  1
\A1;10°0'
  7
EXT08
 11
0.1305042419349515
 21
0.9914477509364695
 31
0.0
 73
     1
 44
1.0
  0
POINT
  5
16E0
330
31A
100
AcDbEntity
  8
DEFPOINTS
 62
     0
100
AcDbPoint
 10
1491.195452380542
 20
1945.746644719697
 30
0.0
  0
POINT
  5
16E1
330
31A
100
AcDbEntity
  8
DEFPOINTS
 62
     0
100
AcDbPoint
 10
1451.797768670566
 20
1930.673252378388
 30
0.0
  0
POINT
  5
16E2
330
31A
100
AcDbEntity
  8
DEFPOINTS
 62
     0
100
AcDbPoint
 10
1439.316390625516
 20
1956.607885030506
 30
0.0
  0
POINT
  5
16E3
330
31A
100
AcDbEntity
  8
DEFPOINTS
 62
     0
100
AcDbPoint
 10
1189.507623218699
 20
1956.607885030506
 30
0.0
  0
POINT
  5
16E4
330
31A
100
AcDbEntity
  8
DEFPOINTS
 62
     0
100
AcDbPoint
 10
1304.715158012144
 20
1956.607885030506
 30
0.0
  0
ENDBLK
  5
339
330
31A
100
AcDbEntity
  8
0
100
AcDbBlockEnd
  0
BLOCK
  5
33E
330
33D
100
AcDbEntity
  8
0
100
AcDbBlockBegin
  2
*D8
 70
     1
 10
0.0
 20
0.0
 30
0.0
  3
*D8
  1

  0
LINE
  5
16E5
330
33D
100
AcDbEntity
  8
SUNPOU
100
AcDbLine
 10
1179.507623218699
 20
1956.607885030506
 30
0.0
 11
1131.193214343967
 21
1956.607885030506
 31
0.0
  0
LINE
  5
16E6
330
33D
100
AcDbEntity
  8
SUNPOU
100
AcDbLine
 10
1179.659545688578
 20
1934.557206488844
 30
0.0
 11
1133.829402569976
 21
1926.476115727304
 31
0.0
  0
ARC
  5
16E7
330
33D
100
AcDbEntity
  8
SUNPOU
100
AcDbCircle
 10
1304.715158012142
 20
1956.607885030506
 30
0.0
 40
163.5219436681751
100
AcDbArc
 50
165.9758144054491
 51
172.9879072027245
  0
ARC
  5
16E8
330
33D
100
AcDbEntity
  8
SUNPOU
100
AcDbCircle
 10
1304.715158012142
 20
1956.607885030506
 30
0.0
 40
163.5219436681751
100
AcDbArc
 50
197.0120927972756
 51
204.024185594551
  0
ARC
  5
16E9
330
33D
100
AcDbEntity
  8
SUNPOU
100
AcDbCircle
 10
1304.715158012142
 20
1956.607885030506
 30
0.0
 40
163.5219436681751
100
AcDbArc
 50
180.0
 51
190.0000000000001
  0
SOLID
  5
16EA
330
33D
100
AcDbEntity
  8
SUNPOU
100
AcDbTrace
 10
1145.743386283926
 20
1976.366605799522
 30
0.0
 11
1139.089197281005
 21
1976.774298279021
 31
0.0
 12
1141.193214343967
 22
1956.607885030506
 32
0.0
 13
1141.193214343967
 23
1956.607885030506
 33
0.0
  0
SOLID
  5
16EB
330
33D
100
AcDbEntity
  8
SUNPOU
100
AcDbTrace
 10
1145.107288694706
 20
1907.987198657624
 30
0.0
 11
1151.589590558678
 21
1909.544185166489
 31
0.0
 12
1143.677480100098
 22
1928.212597503973
 32
0.0
 13
1143.677480100098
 23
1928.212597503973
 33
0.0
  0
MTEXT
  5
16EC
330
33D
100
AcDbEntity
  8
SUNPOU
100
AcDbMText
 10
1102.472866041496
 20
1930.935261107622
 30
0.0
 40
30.0
 41
0.0
 71
     5
 72
     5
  1
\A1;10°0'
  7
EXT08
 11
0.1259293949858024
 21
-0.9920392066236644
 31
0.0
 73
     1
 44
1.0
  0
POINT
  5
16ED
330
33D
100
AcDbEntity
  8
DEFPOINTS
 62
     0
100
AcDbPoint
 10
1141.469867591828
 20
1947.099929592812
 30
0.0
  0
POINT
  5
16EE
330
33D
100
AcDbEntity
  8
DEFPOINTS
 62
     0
100
AcDbPoint
 10
1189.5076232187
 20
1936.293688265513
 30
0.0
  0
POINT
  5
16EF
330
33D
100
AcDbEntity
  8
DEFPOINTS
 62
     0
100
AcDbPoint
 10
1439.316390625516
 20
1956.607885030506
 30
0.0
  0
POINT
  5
16F0
330
33D
100
AcDbEntity
  8
DEFPOINTS
 62
     0
100
AcDbPoint
 10
1189.507623218699
 20
1956.607885030506
 30
0.0
  0
POINT
  5
16F1
330
33D
100
AcDbEntity
  8
DEFPOINTS
 62
     0
100
AcDbPoint
 10
1304.715158012144
 20
1956.607885030506
 30
0.0
  0
ENDBLK
  5
34C
330
33D
100
AcDbEntity
  8
0
100
AcDbBlockEnd
  0
BLOCK
  5
35B
330
34E
100
AcDbEntity
  8
0
100
AcDbBlockBegin
  2
*D9
 70
     1
 10
0.0
 20
0.0
 30
0.0
  3
*D9
  1

  0
ARC
  5
16F2
330
34E
100
AcDbEntity
  8
SUNPOU
100
AcDbCircle
 10
1304.715158012144
 20
1956.607885030507
 30
0.0
 40
94.12106016992034
100
AcDbArc
 50
202.1979343349973
 51
337.8020656650028
  0
SOLID
  5
16F3
330
34E
100
AcDbEntity
  8
SUNPOU
100
AcDbTrace
 10
1214.367341070604
 20
1920.123926946136
 30
0.0
 11
1220.772568757047
 21
1921.972575839052
 31
0.0
 12
1212.024008235078
 22
1940.263934451921
 32
0.0
 13
1212.024008235078
 23
1940.263934451921
 33
0.0
  0
SOLID
  5
16F4
330
34E
100
AcDbEntity
  8
SUNPOU
100
AcDbTrace
 10
1388.657747267242
 20
1921.972575839052
 30
0.0
 11
1395.062974953684
 21
1920.123926946137
 31
0.0
 12
1397.40630778921
 22
1940.263934451921
 32
0.0
 13
1397.40630778921
 23
1940.263934451921
 33
0.0
  0
MTEXT
  5
16F5
330
34E
100
AcDbEntity
  8
SUNPOU
100
AcDbMText
 10
1302.874308300532
 20
1829.20840025031
 30
0.0
 40
30.0
 41
0.0
 71
     5
 72
     5
  1
\A1;160°0'
  7
EXT08
 11
0.9998956233559425
 21
-0.0144479200451463
 31
0.0
 73
     1
 44
1.0
  0
POINT
  5
16F6
330
34E
100
AcDbEntity
  8
DEFPOINTS
 62
     0
100
AcDbPoint
 10
1346.956612656003
 20
1872.498233520822
 30
0.0
  0
POINT
  5
16F7
330
34E
100
AcDbEntity
  8
DEFPOINTS
 62
     0
100
AcDbPoint
 10
1439.316390625516
 20
1932.874056084154
 30
0.0
  0
POINT
  5
16F8
330
34E
100
AcDbEntity
  8
DEFPOINTS
 62
     0
100
AcDbPoint
 10
1189.507623218699
 20
1936.293688265513
 30
0.0
  0
POINT
  5
16F9
330
34E
100
AcDbEntity
  8
DEFPOINTS
 62
     0
100
AcDbPoint
 10
1304.715158012144
 20
1956.607885030506
 30
0.0
  0
POINT
  5
16FA
330
34E
100
AcDbEntity
  8
DEFPOINTS
 62
     0
100
AcDbPoint
 10
1304.715158012144
 20
1956.607885030507
 30
0.0
  0
ENDBLK
  5
365
330
34E
100
AcDbEntity
  8
0
100
AcDbBlockEnd
  0
BLOCK
  5
DCF
330
DC2
100
AcDbEntity
  8
0
100
AcDbBlockBegin
  2
B0040021
 70
     0
 10
0.0
 20
0.0
 30
0.0
  3
B0040021
  1

  0
LINE
  5
DC3
330
DC2
100
AcDbEntity
  8
HATCH
100
AcDbLine
 10
68.03459680887726
 20
0.0
 30
0.0
 11
49.01729840443886
 21
-19.0172984044384
 31
0.0
  0
LINE
  5
DC4
330
DC2
100
AcDbEntity
  8
HATCH
100
AcDbLine
 10
30.0
 20
0.0
 30
0.0
 11
64.01729840443841
 21
-34.01729840443886
 31
0.0
  0
LINE
  5
DC5
330
DC2
100
AcDbEntity
  8
HATCH
100
AcDbLine
 10
22.5
 20
-7.5
 30
0.0
 11
49.01729840443841
 21
-34.01729840443886
 31
0.0
  0
LINE
  5
DC6
330
DC2
100
AcDbEntity
  8
HATCH
100
AcDbLine
 10
15.0
 20
-15.0
 30
0.0
 11
34.0172984044384
 21
-34.01729840443886
 31
0.0
  0
LINE
  5
DC7
330
DC2
100
AcDbEntity
  8
HATCH
100
AcDbLine
 10
0.0
 20
0.0
 30
0.0
 11
-34.0172984044384
 21
-34.01729840443886
 31
0.0
  0
LINE
  5
DC8
330
DC2
100
AcDbEntity
  8
HATCH
100
AcDbLine
 10
30.0
 20
0.0
 30
0.0
 11
-4.017298404438406
 21
-34.01729840443886
 31
0.0
  0
LINE
  5
DC9
330
DC2
100
AcDbEntity
  8
HATCH
100
AcDbLine
 10
15.0
 20
0.0
 30
0.0
 11
-19.0172984044384
 21
-34.01729840443886
 31
0.0
  0
LINE
  5
DCA
330
DC2
100
AcDbEntity
  8
HATCH
100
AcDbLine
 10
90.53459680887726
 20
-7.5
 30
0.0
 11
117.0518952133161
 21
-34.01729840443886
 31
0.0
  0
LINE
  5
DCB
330
DC2
100
AcDbEntity
  8
HATCH
100
AcDbLine
 10
98.03459680887726
 20
0.0
 30
0.0
 11
132.0518952133161
 21
-34.01729840443886
 31
0.0
  0
LINE
  5
DCC
330
DC2
100
AcDbEntity
  8
HATCH
100
AcDbLine
 10
83.03459680887726
 20
0.0
 30
0.0
 11
56.51729840443886
 21
-26.5172984044384
 31
0.0
  0
LINE
  5
DCD
330
DC2
100
AcDbEntity
  8
HATCH
100
AcDbLine
 10
83.03459680887726
 20
-15.0
 30
0.0
 11
102.0518952133161
 21
-34.01729840443886
 31
0.0
  0
LINE
  5
DCE
330
DC2
100
AcDbEntity
  8
HATCH
100
AcDbLine
 10
98.03459680887726
 20
0.0
 30
0.0
 11
64.01729840443841
 21
-34.01729840443886
 31
0.0
  0
ENDBLK
  5
DD0
330
DC2
100
AcDbEntity
  8
0
100
AcDbBlockEnd
  0
BLOCK
  5
E36
330
E27
100
AcDbEntity
  8
0
100
AcDbBlockBegin
  2
*D11
 70
     1
 10
0.0
 20
0.0
 30
0.0
  3
*D11
  1

  0
LINE
  5
1703
330
E27
100
AcDbEntity
  8
SUNPOU
100
AcDbLine
 10
2618.815128271501
 20
1491.407885030506
 30
0.0
 11
2720.8150524313
 21
1491.407885030506
 31
0.0
  0
LINE
  5
1704
330
E27
100
AcDbEntity
  8
SUNPOU
100
AcDbLine
 10
2618.815128271501
 20
1532.707885030506
 30
0.0
 11
2720.8150524313
 21
1532.707885030506
 31
0.0
  0
LINE
  5
1705
330
E27
100
AcDbEntity
  8
SUNPOU
100
AcDbLine
 10
2710.8150524313
 20
1471.407885030506
 30
0.0
 11
2710.8150524313
 21
1451.407885030506
 31
0.0
  0
LINE
  5
1706
330
E27
100
AcDbEntity
  8
SUNPOU
100
AcDbLine
 10
2710.8150524313
 20
1552.707885030506
 30
0.0
 11
2710.8150524313
 21
1572.707885030506
 31
0.0
  0
MTEXT
  5
1707
330
E27
100
AcDbEntity
  8
SUNPOU
100
AcDbMText
 10
2744.879113515726
 20
1512.057885030506
 30
0.0
 40
30.0
 41
0.0
 71
     5
 72
     5
  1
\A1;%%c41.3
  7
EXT08
 11
0.0000000000000001
 21
1.0
 31
0.0
 73
     1
 44
1.0
  0
LINE
  5
1708
330
E27
100
AcDbEntity
  8
SUNPOU
100
AcDbLine
 10
2710.8150524313
 20
1491.407885030506
 30
0.0
 11
2710.8150524313
 21
1532.707885030506
 31
0.0
  0
SOLID
  5
1709
330
E27
100
AcDbEntity
  8
SUNPOU
100
AcDbTrace
 10
2707.481719097967
 20
1471.407885030506
 30
0.0
 11
2714.148385764634
 21
1471.407885030506
 31
0.0
 12
2710.8150524313
 22
1491.407885030506
 32
0.0
 13
2710.8150524313
 23
1491.407885030506
 33
0.0
  0
SOLID
  5
170A
330
E27
100
AcDbEntity
  8
SUNPOU
100
AcDbTrace
 10
2707.481719097967
 20
1552.707885030506
 30
0.0
 11
2714.148385764634
 21
1552.707885030506
 31
0.0
 12
2710.8150524313
 22
1532.707885030506
 32
0.0
 13
2710.8150524313
 23
1532.707885030506
 33
0.0
  0
POINT
  5
170B
330
E27
100
AcDbEntity
  8
DEFPOINTS
 62
     0
100
AcDbPoint
 10
2608.815128271501
 20
1491.407885030506
 30
0.0
  0
POINT
  5
170C
330
E27
100
AcDbEntity
  8
DEFPOINTS
 62
     0
100
AcDbPoint
 10
2608.815128271501
 20
1532.707885030506
 30
0.0
  0
POINT
  5
170D
330
E27
100
AcDbEntity
  8
DEFPOINTS
 62
     0
100
AcDbPoint
 10
2710.8150524313
 20
1532.707885030506
 30
0.0
  0
ENDBLK
  5
E42
330
E27
100
AcDbEntity
  8
0
100
AcDbBlockEnd
  0
BLOCK
  5
110C
330
1109
100
AcDbEntity
  8
0
100
AcDbBlockBegin
  2
_Dot
 70
     0
 10
0.0
 20
0.0
 30
0.0
  3
_Dot
  1

  0
LWPOLYLINE
  5
110A
330
1109
100
AcDbEntity
  8
0
  6
ByBlock
 62
     0
100
AcDbPolyline
 90
        2
 70
     1
 43
0.5
 10
-0.25
 20
0.0
 42
1.0
 10
0.25
 20
0.0
 42
1.0
  0
LINE
  5
110B
330
1109
100
AcDbEntity
  8
0
  6
ByBlock
 62
     0
370
    -2
100
AcDbLine
 10
-0.5
 20
0.0
 30
0.0
 11
-1.0
 21
0.0
 31
0.0
  0
ENDBLK
  5
110D
330
1109
100
AcDbEntity
  8
0
100
AcDbBlockEnd
  0
BLOCK
  5
1110
330
110F
100
AcDbEntity
  8
0
100
AcDbBlockBegin
  2
_None
 70
     0
 10
0.0
 20
0.0
 30
0.0
  3
_None
  1

  0
ENDBLK
  5
1111
330
110F
100
AcDbEntity
  8
0
100
AcDbBlockEnd
  0
BLOCK
  5
1734
330
1721
100
AcDbEntity
  8
0
100
AcDbBlockBegin
  2
*X14
 70
     1
 10
0.0
 20
0.0
 30
0.0
  3
*X14
  1

  0
LINE
  5
1722
330
1721
100
AcDbEntity
  8
0
 62
     0
100
AcDbLine
 10
1353.876879528448
 20
442.0578850305064
 30
0.0
 11
1454.715113628149
 21
542.8961191302073
 31
0.0
  0
LINE
  5
1723
330
1721
100
AcDbEntity
  8
0
 62
     0
100
AcDbLine
 10
1349.265113628148
 20
614.2228144268435
 30
0.0
 11
1454.715113628148
 21
719.672814426844
 31
0.0
  0
LINE
  5
1724
330
1721
100
AcDbEntity
  8
0
 62
     0
100
AcDbLine
 10
1177.100184231811
 20
442.0578850305065
 30
0.0
 11
1260.165113628148
 21
525.1228144268439
 31
0.0
  0
LINE
  5
1725
330
1721
100
AcDbEntity
  8
0
 62
     0
100
AcDbLine
 10
1349.265113628148
 20
790.9995097234805
 30
0.0
 11
1400.323488935174
 21
842.0578850305064
 31
0.0
  0
LINE
  5
1726
330
1721
100
AcDbEntity
  8
0
 62
     0
100
AcDbLine
 10
1154.715113628148
 20
596.4495097234808
 30
0.0
 11
1260.165113628148
 21
701.8995097234808
 31
0.0
  0
LINE
  5
1727
330
1721
100
AcDbEntity
  8
0
 62
     0
100
AcDbLine
 10
1154.715113628148
 20
773.2262050201178
 30
0.0
 11
1223.546793638537
 21
842.0578850305064
 31
0.0
  0
LINE
  5
1728
330
1721
100
AcDbEntity
  8
0
 62
     0
100
AcDbLine
 10
1375.973966440527
 20
442.0578850305063
 30
0.0
 11
1454.715113628148
 21
520.7990322181274
 31
0.0
  0
LINE
  5
1729
330
1721
100
AcDbEntity
  8
0
 62
     0
100
AcDbLine
 10
1349.265113628148
 20
592.1257275147641
 30
0.0
 11
1454.715113628148
 21
697.5757275147641
 31
0.0
  0
LINE
  5
172A
330
1721
100
AcDbEntity
  8
0
 62
     0
100
AcDbLine
 10
1199.19727114389
 20
442.0578850305065
 30
0.0
 11
1260.165113628148
 21
503.0257275147642
 31
0.0
  0
LINE
  5
172B
330
1721
100
AcDbEntity
  8
0
 62
     0
100
AcDbLine
 10
1349.265113628148
 20
768.9024228114008
 30
0.0
 11
1422.420575847254
 21
842.0578850305062
 31
0.0
  0
LINE
  5
172C
330
1721
100
AcDbEntity
  8
0
 62
     0
100
AcDbLine
 10
1154.715113628148
 20
574.3524228114012
 30
0.0
 11
1260.165113628148
 21
679.8024228114011
 31
0.0
  0
LINE
  5
172D
330
1721
100
AcDbEntity
  8
0
 62
     0
100
AcDbLine
 10
1154.715113628148
 20
751.129118108038
 30
0.0
 11
1245.643880550617
 21
842.0578850305064
 31
0.0
  0
LINE
  5
172E
330
1721
100
AcDbEntity
  8
0
 62
     0
100
AcDbLine
 10
1398.071053352607
 20
442.0578850305064
 30
0.0
 11
1454.715113628148
 21
498.7019453060478
 31
0.0
  0
LINE
  5
172F
330
1721
100
AcDbEntity
  8
0
 62
     0
100
AcDbLine
 10
1349.265113628148
 20
570.0286406026842
 30
0.0
 11
1454.715113628148
 21
675.4786406026846
 31
0.0
  0
LINE
  5
1730
330
1721
100
AcDbEntity
  8
0
 62
     0
100
AcDbLine
 10
1221.29435805597
 20
442.0578850305065
 30
0.0
 11
1260.165113628148
 21
480.9286406026845
 31
0.0
  0
LINE
  5
1731
330
1721
100
AcDbEntity
  8
0
 62
     0
100
AcDbLine
 10
1349.265113628148
 20
746.8053358993211
 30
0.0
 11
1444.517662759333
 21
842.0578850305062
 31
0.0
  0
LINE
  5
1732
330
1721
100
AcDbEntity
  8
0
 62
     0
100
AcDbLine
 10
1154.715113628148
 20
552.2553358993217
 30
0.0
 11
1260.165113628148
 21
657.7053358993215
 31
0.0
  0
LINE
  5
1733
330
1721
100
AcDbEntity
  8
0
 62
     0
100
AcDbLine
 10
1154.715113628148
 20
729.0320311959585
 30
0.0
 11
1260.165113628148
 21
834.4820311959585
 31
0.0
  0
ENDBLK
  5
1735
330
1721
100
AcDbEntity
  8
0
100
AcDbBlockEnd
  0
BLOCK
  5
1748
330
1736
100
AcDbEntity
  8
0
100
AcDbBlockBegin
  2
*X15
 70
     1
 10
0.0
 20
0.0
 30
0.0
  3
*X15
  1

  0
LINE
  5
1737
330
1736
100
AcDbEntity
  8
0
 62
     0
100
AcDbLine
 10
2653.365128271502
 20
504.1092666971023
 30
0.0
 11
2758.815128271502
 21
609.5592666971025
 31
0.0
  0
LINE
  5
1738
330
1736
100
AcDbEntity
  8
0
 62
     0
100
AcDbLine
 10
2653.365128271502
 20
680.8859619937392
 30
0.0
 11
2758.815128271502
 21
786.3359619937397
 31
0.0
  0
LINE
  5
1739
330
1736
100
AcDbEntity
  8
0
 62
     0
100
AcDbLine
 10
2458.815128271502
 20
486.3359619937397
 30
0.0
 11
2564.265128271502
 21
591.7859619937395
 31
0.0
  0
LINE
  5
173A
330
1736
100
AcDbEntity
  8
0
 62
     0
100
AcDbLine
 10
2458.815128271502
 20
663.1126572903767
 30
0.0
 11
2564.265128271502
 21
768.5626572903762
 31
0.0
  0
LINE
  5
173B
330
1736
100
AcDbEntity
  8
0
 62
     0
100
AcDbLine
 10
2458.815128271502
 20
839.8893525870134
 30
0.0
 11
2460.983660714995
 21
842.057885030506
 31
0.0
  0
LINE
  5
173C
330
1736
100
AcDbEntity
  8
0
 62
     0
100
AcDbLine
 10
2653.365128271502
 20
482.0121797850227
 30
0.0
 11
2758.815128271502
 21
587.4621797850231
 31
0.0
  0
LINE
  5
173D
330
1736
100
AcDbEntity
  8
0
 62
     0
100
AcDbLine
 10
2653.365128271502
 20
658.7888750816595
 30
0.0
 11
2758.815128271502
 21
764.2388750816601
 31
0.0
  0
LINE
  5
173E
330
1736
100
AcDbEntity
  8
0
 62
     0
100
AcDbLine
 10
2458.815128271502
 20
464.2388750816601
 30
0.0
 11
2564.265128271502
 21
569.6888750816596
 31
0.0
  0
LINE
  5
173F
330
1736
100
AcDbEntity
  8
0
 62
     0
100
AcDbLine
 10
2653.365128271502
 20
835.5655703782966
 30
0.0
 11
2659.857442923712
 21
842.0578850305062
 31
0.0
  0
LINE
  5
1740
330
1736
100
AcDbEntity
  8
0
 62
     0
100
AcDbLine
 10
2458.815128271502
 20
641.0155703782968
 30
0.0
 11
2564.265128271502
 21
746.4655703782964
 31
0.0
  0
LINE
  5
1741
330
1736
100
AcDbEntity
  8
0
 62
     0
100
AcDbLine
 10
2458.815128271502
 20
817.7922656749336
 30
0.0
 11
2483.080747627075
 21
842.0578850305062
 31
0.0
  0
LINE
  5
1742
330
1736
100
AcDbEntity
  8
0
 62
     0
100
AcDbLine
 10
2653.365128271502
 20
459.915092872943
 30
0.0
 11
2758.815128271502
 21
565.3650928729434
 31
0.0
  0
LINE
  5
1743
330
1736
100
AcDbEntity
  8
0
 62
     0
100
AcDbLine
 10
2653.365128271502
 20
636.6917881695801
 30
0.0
 11
2758.815128271502
 21
742.1417881695804
 31
0.0
  0
LINE
  5
1744
330
1736
100
AcDbEntity
  8
0
 62
     0
100
AcDbLine
 10
2458.815128271502
 20
442.1417881695806
 30
0.0
 11
2564.265128271502
 21
547.5917881695799
 31
0.0
  0
LINE
  5
1745
330
1736
100
AcDbEntity
  8
0
 62
     0
100
AcDbLine
 10
2653.365128271502
 20
813.4684834662168
 30
0.0
 11
2681.954529835791
 21
842.0578850305062
 31
0.0
  0
LINE
  5
1746
330
1736
100
AcDbEntity
  8
0
 62
     0
100
AcDbLine
 10
2458.815128271502
 20
618.9184834662174
 30
0.0
 11
2564.265128271502
 21
724.3684834662172
 31
0.0
  0
LINE
  5
1747
330
1736
100
AcDbEntity
  8
0
 62
     0
100
AcDbLine
 10
2458.815128271502
 20
795.6951787628542
 30
0.0
 11
2505.177834539155
 21
842.0578850305062
 31
0.0
  0
ENDBLK
  5
1749
330
1736
100
AcDbEntity
  8
0
100
AcDbBlockEnd
  0
ENDSEC
  0
SECTION
  2
ENTITIES
  0
LINE
  5
B7
330
18
100
AcDbEntity
  8
SJC
100
AcDbLine
 10
2758.815128271502
 20
842.0578850305064
 30
0.0
 11
2758.815128271502
 21
442.0578850305064
 31
0.0
1001
ACAD
1000
ASC_BOUNDS
1002
{
1070
    19
1005
1370
1002
}
  0
LINE
  5
B8
330
18
100
AcDbEntity
  8
SJC
100
AcDbLine
 10
2458.815128271502
 20
842.0578850305064
 30
0.0
 11
2458.815128271502
 21
442.0578850305064
 31
0.0
1001
ACAD
1000
ASC_BOUNDS
1002
{
1070
    19
1005
1370
1002
}
  0
LINE
  5
B9
330
18
100
AcDbEntity
  8
SJC
100
AcDbLine
 10
2863.272785457274
 20
842.0578850305064
 30
0.0
 11
2653.365128271502
 21
842.0578850305064
 31
0.0
1001
ACAD
1000
ASC_BOUNDS
1002
{
1070
    19
1005
1370
1002
}
  0
LINE
  5
BA
330
18
100
AcDbEntity
  8
SJC
100
AcDbLine
 10
2758.815128271502
 20
442.0578850305064
 30
0.0
 11
2458.815128271502
 21
442.0578850305064
 31
0.0
1001
ACAD
1000
ASC_BOUNDS
1002
{
1070
    19
1005
1370
1005
1370
1002
}
  0
LINE
  5
BB
330
18
100
AcDbEntity
  8
SJC
100
AcDbLine
 10
2564.265128271502
 20
842.0578850305064
 30
0.0
 11
2341.243306545243
 21
842.0578850305064
 31
0.0
1001
ACAD
1000
ASC_BOUNDS
1002
{
1070
    19
1005
1370
1002
}
  0
DIMENSION
  5
BC
330
18
100
AcDbEntity
  8
SUNPOU
100
AcDbDimension
  2
*D1
 10
2458.815114145119
 20
282.8261690439098
 30
0.0
 11
2608.815114145119
 21
309.8261690439098
 31
0.0
 70
    32
  1
□<>
 71
     5
 42
-1.0
  3
SJC
100
AcDbAlignedDimension
 13
2758.815114145119
 23
438.4999709621202
 33
0.0
 14
2458.815114145119
 24
438.4999709621202
 34
0.0
 50
180.0
100
AcDbRotatedDimension
1001
ACAD
1000
DSTYLE
1002
{
1070
   287
1070
     5
1070
   287
1070
     5
1070
    40
1040
10.0
1070
    41
1040
2.0
1070
    42
1040
1.0
1070
    43
1040
6.0
1070
    44
1040
1.0
1070
    73
1070
     0
1070
    74
1070
     0
1070
    77
1070
     1
1070
    78
1070
     8
1070
   140
1040
3.0
1070
   147
1040
1.199999999999999
1070
   172
1070
     1
1070
   176
1070
   256
1070
   177
1070
   256
1070
   178
1070
   256
1070
   271
1070
     1
1070
   275
1070
     1
1070
   279
1070
     2
1070
   340
1005
17C
1002
}
  0
LINE
  5
E5
330
18
100
AcDbEntity
  8
SJC
100
AcDbLine
 10
2653.365128271502
 20
1571.120969637516
 30
0.0
 11
2653.365128271502
 21
442.0578850305064
 31
0.0
1001
ACAD
1000
ASC_BOUNDS
1002
{
1070
    19
1005
1370
1002
}
  0
LINE
  5
E6
330
18
100
AcDbEntity
  8
SJC
100
AcDbLine
 10
2564.265128271502
 20
1571.120969637516
 30
0.0
 11
2564.265128271502
 21
442.0578850305064
 31
0.0
1001
ACAD
1000
ASC_BOUNDS
1002
{
1070
    19
1005
1370
1002
}
  0
LINE
  5
E7
330
18
100
AcDbEntity
  8
CENTER
100
AcDbLine
 10
1304.715158012144
 20
2018.595640116443
 30
0.0
 11
1304.715158012144
 21
1891.390710822838
 31
0.0
  0
LINE
  5
E9
330
18
100
AcDbEntity
  8
CENTER
100
AcDbLine
 10
2653.365128271502
 20
1512.057885030506
 30
0.0
 11
2564.265128271502
 21
1512.057885030506
 31
0.0
  0
CIRCLE
  5
EA
330
18
100
AcDbEntity
  8
SJC
100
AcDbCircle
 10
2608.815128271501
 20
1512.057885030506
 30
0.0
 40
20.64999999999999
  0
DIMENSION
  5
EB
330
18
100
AcDbEntity
  8
SUNPOU
100
AcDbDimension
  2
*D2
 10
1790.349325755709
 20
442.0578850305063
 30
0.0
 11
1763.34932575571
 21
1042.057885030506
 31
0.0
 70
    32
 71
     5
 42
-1.0
  3
SJC
100
AcDbAlignedDimension
 13
1304.847800169051
 23
1642.057885030506
 33
0.0
 14
1474.715113628148
 24
442.0578850305064
 34
0.0
 50
90.0
100
AcDbRotatedDimension
1001
ACAD
1000
DSTYLE
1002
{
1070
   287
1070
     5
1070
   287
1070
     5
1070
    40
1040
10.0
1070
    41
1040
2.0
1070
    42
1040
1.0
1070
    43
1040
6.0
1070
    44
1040
1.0
1070
    73
1070
     0
1070
    74
1070
     0
1070
    77
1070
     1
1070
    78
1070
     8
1070
   140
1040
3.0
1070
   147
1040
1.199999999999999
1070
   172
1070
     1
1070
   176
1070
   256
1070
   177
1070
   256
1070
   178
1070
   256
1070
   271
1070
     1
1070
   275
1070
     1
1070
   279
1070
     2
1070
   340
1005
17C
1002
}
  0
DIMENSION
  5
EE
330
18
100
AcDbEntity
  8
SUNPOU
100
AcDbDimension
  2
*D3
 10
1604.265099501765
 20
1512.057885030506
 30
0.0
 11
1575.557083105917
 21
1577.057894982681
 31
0.0
 70
   160
 71
     5
 42
-1.0
  3
SJC
100
AcDbAlignedDimension
 13
1304.847799501765
 23
1642.057904934857
 33
0.0
 14
1364.715113628148
 24
1512.057885030506
 34
0.0
 50
90.0
100
AcDbRotatedDimension
1001
ACAD
1000
DSTYLE
1002
{
1070
   287
1070
     5
1070
   287
1070
     5
1070
    40
1040
10.0
1070
    41
1040
2.0
1070
    42
1040
1.0
1070
    43
1040
6.0
1070
    44
1040
1.0
1070
    73
1070
     0
1070
    74
1070
     0
1070
    77
1070
     1
1070
    78
1070
     8
1070
   140
1040
3.0
1070
   147
1040
1.199999999999999
1070
   172
1070
     1
1070
   176
1070
   256
1070
   177
1070
   256
1070
   178
1070
   256
1070
   271
1070
     1
1070
   275
1070
     1
1070
   279
1070
     2
1070
   340
1005
17C
1002
}
  0
TEXT
  5
F0
330
18
100
AcDbEntity
  8
MOJI2
100
AcDbText
 10
383.6160353127124
 20
2303.76846750152
 30
0.0
 40
40.0
  1
車止め CS3-89-80W
 41
0.8
  7
EXT08
100
AcDbText
  0
LINE
  5
F1
330
18
100
AcDbEntity
  8
MOJI2
100
AcDbLine
 10
371.8773092317733
 20
2291.515358324642
 30
0.0
 11
856.439229699121
 21
2291.515358324642
 31
0.0
  0
LINE
  5
F2
330
18
100
AcDbEntity
  8
CENTER
100
AcDbLine
 10
1439.316390625516
 20
1956.607885030506
 30
0.0
 11
1189.507623218699
 21
1956.607885030506
 31
0.0
  0
LINE
  5
F4
330
18
100
AcDbEntity
  8
SJC
100
AcDbLine
 10
1349.265113628147
 20
1571.120969637516
 30
0.0
 11
1349.265113628148
 21
1532.707885030506
 31
0.0
  0
LINE
  5
F5
330
18
100
AcDbEntity
  8
SJC
100
AcDbLine
 10
1260.165113628148
 20
1571.120969637516
 30
0.0
 11
1260.165113628148
 21
1532.707885030506
 31
0.0
  0
LINE
  5
F6
330
18
100
AcDbEntity
  8
CENTER
100
AcDbLine
 10
1304.715113628148
 20
1666.374365818272
 30
0.0
 11
1304.715113628149
 21
442.0578850305064
 31
0.0
  0
LINE
  5
FD
330
18
100
AcDbEntity
  8
SJC
100
AcDbLine
 10
1260.165113628148
 20
842.0578850305064
 30
0.0
 11
1048.463952041688
 21
842.0578850305064
 31
0.0
1001
ACAD
1000
ASC_BOUNDS
1002
{
1070
    19
1005
134E
1002
}
  0
LINE
  5
FE
330
18
100
AcDbEntity
  8
SJC
100
AcDbLine
 10
1454.715113628148
 20
442.0578850305064
 30
0.0
 11
1154.715113628148
 21
442.0578850305064
 31
0.0
1001
ACAD
1000
ASC_BOUNDS
1002
{
1070
    19
1005
134E
1005
134E
1005
0
1002
}
  0
LINE
  5
FF
330
18
100
AcDbEntity
  8
SJC
100
AcDbLine
 10
1559.17277081392
 20
842.0578850305064
 30
0.0
 11
1349.265113628148
 21
842.0578850305064
 31
0.0
1001
ACAD
1000
ASC_BOUNDS
1002
{
1070
    19
1005
134E
1002
}
  0
LINE
  5
100
330
18
100
AcDbEntity
  8
SJC
100
AcDbLine
 10
1454.715113628148
 20
842.0578850305064
 30
0.0
 11
1454.715113628148
 21
442.0578850305064
 31
0.0
1001
ACAD
1000
ASC_BOUNDS
1002
{
1070
    19
1005
134E
1002
}
  0
LINE
  5
109
330
18
100
AcDbEntity
  8
SJC
100
AcDbLine
 10
1154.715113628148
 20
842.0578850305064
 30
0.0
 11
1154.715113628148
 21
442.0578850305064
 31
0.0
1001
ACAD
1000
ASC_BOUNDS
1002
{
1070
    19
1005
134E
1002
}
  0
CIRCLE
  5
126
330
18
100
AcDbEntity
  8
SJC
100
AcDbCircle
 10
1304.715158012144
 20
1956.607885030506
 30
0.0
 40
44.55
  0
LINE
  5
127
330
18
100
AcDbEntity
  8
CENTER
100
AcDbLine
 10
2608.815128271501
 20
1665.648287744102
 30
0.0
 11
2608.815128271502
 21
442.0578850305064
 31
0.0
  0
LINE
  5
128
330
18
100
AcDbEntity
  8
SJC
100
AcDbLine
 10
1349.265113628148
 20
1491.407885030506
 30
0.0
 11
1349.265113628148
 21
442.0578850305064
 31
0.0
1001
ACAD
1000
ASC_BOUNDS
1002
{
1070
    19
1005
134E
1002
}
  0
CIRCLE
  5
129
330
18
100
AcDbEntity
  8
SJC2
100
AcDbCircle
 10
2608.815128271501
 20
1512.057885030506
 30
0.0
 40
2.5
  0
LINE
  5
12B
330
18
100
AcDbEntity
  8
MOJI
100
AcDbLine
 10
2474.265128271502
 20
1207.057885030506
 30
0.0
 11
2029.261396262853
 21
1207.057885030506
 31
0.0
  0
TEXT
  5
12C
330
18
100
AcDbEntity
  8
MOJI
100
AcDbText
 10
2045.3807227061
 20
1219.522342815809
 30
0.0
 40
30.0
  1
支柱 %%C89.1×t3.2 STK400
 41
0.8
  7
EXT08
100
AcDbText
  0
TEXT
  5
12D
330
18
100
AcDbEntity
  8
MOJI
100
AcDbText
 10
2093.639682095848
 20
1170.441414230948
 30
0.0
 40
30.0
  1
亜鉛めっき＋静電粉体塗装
 41
0.8
  7
EXT08
100
AcDbText
  0
LINE
  5
12F
330
18
100
AcDbEntity
  8
MOJI
100
AcDbLine
 10
2473.715128271502
 20
1642.057885030506
 30
0.0
 11
2376.883143038263
 21
1642.057885030506
 31
0.0
  0
TEXT
  5
130
330
18
100
AcDbEntity
  8
MOJI
100
AcDbText
 10
2389.013790233562
 20
1649.600120610454
 30
0.0
 40
30.0
  1
反射体
 41
0.8
  7
EXT08
100
AcDbText
  0
LINE
  5
132
330
18
100
AcDbEntity
  8
MOJI
100
AcDbLine
 10
2474.265128271502
 20
1767.057885030506
 30
0.0
 11
2223.806343648309
 21
1767.057885030506
 31
0.0
  0
TEXT
  5
133
330
18
100
AcDbEntity
  8
MOJI
100
AcDbText
 10
2231.070957002262
 20
1775.360964825365
 30
0.0
 40
30.0
  1
擬宝珠 アルミ合金
 41
0.8
  7
EXT08
100
AcDbText
  0
TEXT
  5
134
330
18
100
AcDbEntity
  8
MOJI
100
AcDbText
 10
2258.12618572754
 20
1732.567199705354
 30
0.0
 40
30.0
  1
静電粉体塗装
 41
0.8
  7
EXT08
100
AcDbText
  0
LINE
  5
136
330
18
100
AcDbEntity
  8
MOJI
100
AcDbLine
 10
2783.365128271502
 20
1682.057885030506
 30
0.0
 11
3123.848028335382
 21
1682.057885030506
 31
0.0
  0
TEXT
  5
137
330
18
100
AcDbEntity
  8
MOJI
100
AcDbText
 10
2802.387079045488
 20
1692.073776642088
 30
0.0
 40
30.0
  1
ブラインドリベット 44
 41
0.8
  7
EXT08
100
AcDbText
  0
LINE
  5
138
330
18
100
AcDbEntity
  8
CENTER
100
AcDbLine
 10
1244.715113628147
 20
1512.057885030506
 30
0.0
 11
1364.715113628148
 21
1512.057885030506
 31
0.0
  0
LINE
  5
139
330
18
100
AcDbEntity
  8
SJC
100
AcDbLine
 10
1260.165113628148
 20
1491.407885030506
 30
0.0
 11
1260.165113628148
 21
442.0578850305064
 31
0.0
1001
ACAD
1000
ASC_BOUNDS
1002
{
1070
    19
1005
134E
1002
}
  0
TEXT
  5
13B
330
18
100
AcDbEntity
  8
MOJI2
100
AcDbText
 10
407.7016569050393
 20
2229.262256062834
 30
0.0
 40
40.0
  1
（レンズ160%%Dタイプ）
 41
0.8
  7
EXT08
100
AcDbText
  0
LINE
  5
13C
330
18
100
AcDbEntity
  8
CENTER
100
AcDbLine
 10
1439.316390625516
 20
1932.874056084153
 30
0.0
 11
1304.715158012144
 21
1956.607885030506
 31
0.0
  0
ARC
  5
13E
330
18
100
AcDbEntity
  8
HASEN
100
AcDbCircle
 10
1226.96446643723
 20
1942.898400735986
 30
0.0
 40
44.55
100
AcDbArc
 50
342.3852087947587
 51
37.61470487156613
  0
ARC
  5
13F
330
18
100
AcDbEntity
  8
HASEN
100
AcDbCircle
 10
1382.465849587057
 20
1942.898400735986
 30
0.0
 40
44.55
100
AcDbArc
 50
142.3852951284338
 51
197.6147912052413
  0
LINE
  5
140
330
18
100
AcDbEntity
  8
MOJI
100
AcDbLine
 10
1180.315419249946
 20
1645.495205735485
 30
0.0
 11
1109.489502267769
 21
1645.495205735485
 31
0.0
  0
TEXT
  5
141
330
18
100
AcDbEntity
  8
MOJI
100
AcDbText
 10
1119.460593916738
 20
1655.97845840621
 30
0.0
 40
30.0
  1
裏板
 41
0.8
  7
EXT08
100
AcDbText
  0
ARC
  5
145
330
18
100
AcDbEntity
  8
SJC
100
AcDbCircle
 10
1388.740169042928
 20
1512.057885030506
 30
0.0
 40
44.55
100
AcDbArc
 50
152.3852519616047
 51
207.6147480383951
  0
LINE
  5
146
330
18
100
AcDbEntity
  8
HASEN
100
AcDbLine
 10
1342.990169042928
 20
1532.707885030506
 30
0.0
 11
1342.990169042928
 21
1491.407885030506
 31
0.0
  0
LINE
  5
147
330
18
100
AcDbEntity
  8
HASEN
100
AcDbLine
 10
1342.990169042928
 20
1532.707885030506
 30
0.0
 11
1349.265113628148
 21
1532.707885030506
 31
0.0
  0
LINE
  5
148
330
18
100
AcDbEntity
  8
HASEN
100
AcDbLine
 10
1342.990169042928
 20
1491.407885030506
 30
0.0
 11
1349.265113628148
 21
1491.407885030506
 31
0.0
  0
ARC
  5
149
330
18
100
AcDbEntity
  8
SJC
100
AcDbCircle
 10
1220.690058213367
 20
1512.057885030506
 30
0.0
 40
44.55
100
AcDbArc
 50
332.3852519616048
 51
27.61474803839531
  0
LINE
  5
14A
330
18
100
AcDbEntity
  8
HASEN
100
AcDbLine
 10
1266.440058213367
 20
1532.707885030506
 30
0.0
 11
1266.440058213367
 21
1491.407885030506
 31
0.0
  0
LINE
  5
14B
330
18
100
AcDbEntity
  8
HASEN
100
AcDbLine
 10
1266.440058213367
 20
1532.707885030506
 30
0.0
 11
1260.165113628148
 21
1532.707885030506
 31
0.0
  0
LINE
  5
14C
330
18
100
AcDbEntity
  8
HASEN
100
AcDbLine
 10
1266.440058213367
 20
1491.407885030506
 30
0.0
 11
1260.165113628148
 21
1491.407885030506
 31
0.0
  0
INSERT
  5
166
330
18
100
AcDbEntity
  8
ZWAKU
100
AcDbBlockReference
  2
CALCOMP_TECHJET720A3
 10
0.0
 20
0.0
 30
0.0
 41
10.0
 42
10.0
 43
10.0
  0
LINE
  5
181
330
18
100
AcDbEntity
  8
MOJI2
100
AcDbLine
 10
371.8773092317733
 20
2281.515358324643
 30
0.0
 11
856.439229699121
 21
2281.515358324643
 31
0.0
  0
TEXT
  5
1BA
330
18
100
AcDbEntity
  8
MOJI
100
AcDbText
 10
2344.61397201025
 20
851.4909048963026
 30
0.0
 40
30.0
  1
GL
 41
0.8
  7
EXT08
100
AcDbText
  0
TEXT
  5
1BB
330
18
100
AcDbEntity
  8
MOJI
100
AcDbText
 10
1055.967163457094
 20
856.7808421837654
 30
0.0
 40
30.0
  1
GL
 41
0.8
  7
EXT08
100
AcDbText
  0
DIMENSION
  5
205
330
18
100
AcDbEntity
  8
SUNPOU
100
AcDbDimension
  2
*D4
 10
1702.82393114234
 20
842.0578850305066
 30
0.0
 11
1675.82393114234
 21
642.0578850305068
 31
0.0
 70
    32
 71
     5
 42
-1.0
  3
SJC
100
AcDbAlignedDimension
 13
1454.715113628148
 23
442.0578850305064
 33
0.0
 14
1559.17277081392
 24
842.0578850305066
 34
0.0
 50
90.0
100
AcDbRotatedDimension
1001
ACAD
1000
DSTYLE
1002
{
1070
   287
1070
     5
1070
   287
1070
     5
1070
    40
1040
10.0
1070
    41
1040
2.0
1070
    42
1040
1.0
1070
    43
1040
6.0
1070
    44
1040
1.0
1070
    73
1070
     0
1070
    74
1070
     0
1070
    77
1070
     1
1070
    78
1070
     8
1070
   140
1040
3.0
1070
   147
1040
1.199999999999999
1070
   172
1070
     1
1070
   176
1070
   256
1070
   177
1070
   256
1070
   178
1070
   256
1070
   271
1070
     1
1070
   275
1070
     1
1070
   279
1070
     2
1070
   340
1005
17C
1002
}
  0
DIMENSION
  5
212
330
18
100
AcDbEntity
  8
SUNPOU
100
AcDbDimension
  2
*D5
 10
1604.265099501765
 20
1512.057885030506
 30
0.0
 11
1577.265099501765
 21
1177.057885030506
 31
0.0
 70
    32
 71
     5
 42
-1.0
  3
SJC
100
AcDbAlignedDimension
 13
1559.17277081392
 23
842.0578850305066
 33
0.0
 14
1480.395511289208
 24
1512.057885030506
 34
0.0
 50
90.0
100
AcDbRotatedDimension
1001
ACAD
1000
DSTYLE
1002
{
1070
   287
1070
     5
1070
   287
1070
     5
1070
    40
1040
10.0
1070
    41
1040
2.0
1070
    42
1040
1.0
1070
    43
1040
6.0
1070
    44
1040
1.0
1070
    73
1070
     0
1070
    74
1070
     0
1070
    77
1070
     1
1070
    78
1070
     8
1070
   140
1040
3.0
1070
   147
1040
1.199999999999999
1070
   172
1070
     1
1070
   176
1070
   256
1070
   177
1070
   256
1070
   178
1070
   256
1070
   271
1070
     1
1070
   275
1070
     1
1070
   279
1070
     2
1070
   340
1005
17C
1002
}
  0
DIMENSION
  5
22A
330
18
100
AcDbEntity
  8
SUNPOU
100
AcDbDimension
  2
*D6
 10
1702.82393114234
 20
1642.057885030506
 30
0.0
 11
1675.82393114234
 21
1242.057885030506
 31
0.0
 70
    32
 71
     5
 42
-1.0
  3
SJC
100
AcDbAlignedDimension
 13
1559.17277081392
 23
842.0578850305066
 33
0.0
 14
1314.847800169051
 24
1642.057885030506
 34
0.0
 50
90.0
100
AcDbRotatedDimension
1001
ACAD
1000
DSTYLE
1002
{
1070
   287
1070
     5
1070
   287
1070
     5
1070
    40
1040
10.0
1070
    41
1040
2.0
1070
    42
1040
1.0
1070
    43
1040
6.0
1070
    44
1040
1.0
1070
    73
1070
     0
1070
    74
1070
     0
1070
    77
1070
     1
1070
    78
1070
     8
1070
   140
1040
3.0
1070
   147
1040
1.199999999999999
1070
   172
1070
     1
1070
   176
1070
   256
1070
   177
1070
   256
1070
   178
1070
   256
1070
   271
1070
     1
1070
   275
1070
     1
1070
   279
1070
     2
1070
   340
1005
17C
1002
}
  0
SOLID
  5
26D
330
18
100
AcDbEntity
  8
MOJI
  6
Continuous
100
AcDbTrace
 10
2622.670284371075
 20
1530.075399673957
 30
0.0
 11
2627.323674895426
 21
1525.30147036234
 31
0.0
 12
2610.675191698398
 22
1513.728263445095
 32
0.0
 13
2610.675191698398
 23
1513.728263445095
 33
0.0
  0
LINE
  5
26E
330
18
100
AcDbEntity
  8
MOJI
  6
Continuous
100
AcDbLine
 10
2624.99697963325
 20
1527.688435018148
 30
0.0
 11
2783.365128271502
 21
1682.057885030507
 31
0.0
  0
SOLID
  5
278
330
18
100
AcDbEntity
  8
MOJI
  6
Continuous
100
AcDbTrace
 10
2576.006678979865
 20
1536.498369851925
 30
0.0
 11
2580.68781129768
 21
1541.245099743919
 31
0.0
 12
2592.587434814754
 22
1524.828337844476
 32
0.0
 13
2592.587434814754
 23
1524.828337844476
 33
0.0
  0
LINE
  5
279
330
18
100
AcDbEntity
  8
MOJI
  6
Continuous
100
AcDbLine
 10
2578.347245138772
 20
1538.871734797922
 30
0.0
 11
2473.715128271502
 21
1642.057885030506
 31
0.0
  0
SOLID
  5
27C
330
18
100
AcDbEntity
  8
MOJI
  6
Continuous
100
AcDbTrace
 10
2549.027209350184
 20
1110.321435578009
 30
0.0
 11
2554.18903749606
 21
1114.540437194135
 31
0.0
 12
2564.265128271502
 22
1096.945451948442
 32
0.0
 13
2564.265128271502
 23
1096.945451948442
 33
0.0
  0
LINE
  5
27D
330
18
100
AcDbEntity
  8
MOJI
  6
Continuous
100
AcDbLine
 10
2551.608123423122
 20
1112.430936386072
 30
0.0
 11
2474.265128271502
 21
1207.057885030506
 31
0.0
  0
SOLID
  5
27E
330
18
100
AcDbEntity
  8
MOJI
  6
Continuous
100
AcDbTrace
 10
1251.689540466196
 20
1527.140808483694
 30
0.0
 11
1257.313759842753
 21
1530.720277836658
 31
0.0
 12
1265.240058213367
 22
1512.057885030506
 32
0.0
 13
1265.240058213367
 23
1512.057885030506
 33
0.0
  0
LINE
  5
27F
330
18
100
AcDbEntity
  8
MOJI
  6
Continuous
100
AcDbLine
 10
1254.501650154475
 20
1528.930543160176
 30
0.0
 11
1180.315419249946
 21
1645.495205735485
 31
0.0
  0
LINE
  5
319
330
18
100
AcDbEntity
  8
CENTER
100
AcDbLine
 10
1189.507623218699
 20
1936.293688265513
 30
0.0
 11
1304.715158012144
 21
1956.607885030506
 31
0.0
  0
DIMENSION
  5
32A
330
18
100
AcDbEntity
  8
SUNPOU
100
AcDbDimension
  2
*D7
 10
1304.715158012144
 20
1956.607885030506
 30
0.0
 11
1524.285582027547
 21
1927.705835769312
 31
0.0
 70
   162
 71
     5
 42
-1.0
  3
SJC
100
AcDb2LineAngularDimension
 13
1439.316390625516
 23
1956.607885030506
 33
0.0
 14
1189.507623218699
 24
1956.607885030506
 34
0.0
 15
1451.797768670566
 25
1930.673252378388
 35
0.0
 16
1491.195452380542
 26
1945.746644719697
 36
0.0
1001
ACAD
1000
DSTYLE
1002
{
1070
   287
1070
     5
1070
   271
1070
     1
1070
   287
1070
     5
1070
   271
1070
     1
1070
    40
1040
10.0
1070
    41
1040
2.0
1070
    42
1040
1.0
1070
    43
1040
6.0
1070
    44
1040
1.0
1070
    73
1070
     0
1070
    74
1070
     0
1070
    77
1070
     1
1070
    78
1070
     8
1070
    79
1070
     2
1070
   140
1040
3.0
1070
   147
1040
1.199999999999999
1070
   172
1070
     1
1070
   176
1070
   256
1070
   177
1070
   256
1070
   178
1070
   256
1070
   179
1070
     1
1070
   271
1070
     1
1070
   275
1070
     1
1070
   279
1070
     2
1070
   340
1005
17C
1002
}
  0
DIMENSION
  5
34D
330
18
100
AcDbEntity
  8
SUNPOU
100
AcDbDimension
  2
*D8
 10
1304.715158012144
 20
1956.607885030506
 30
0.0
 11
1102.472866041497
 21
1930.935261107622
 31
0.0
 70
   162
 71
     5
 42
-1.0
  3
SJC
100
AcDb2LineAngularDimension
 13
1439.316390625516
 23
1956.607885030506
 33
0.0
 14
1189.507623218699
 24
1956.607885030506
 34
0.0
 15
1189.5076232187
 25
1936.293688265513
 35
0.0
 16
1141.469867591828
 26
1947.099929592812
 36
0.0
1001
ACAD
1000
DSTYLE
1002
{
1070
   287
1070
     5
1070
   271
1070
     1
1070
   287
1070
     5
1070
   271
1070
     1
1070
    40
1040
10.0
1070
    41
1040
2.0
1070
    42
1040
1.0
1070
    43
1040
6.0
1070
    44
1040
1.0
1070
    73
1070
     0
1070
    74
1070
     0
1070
    77
1070
     1
1070
    78
1070
     8
1070
    79
1070
     2
1070
   140
1040
3.0
1070
   147
1040
1.199999999999999
1070
   172
1070
     1
1070
   176
1070
   256
1070
   177
1070
   256
1070
   178
1070
   256
1070
   179
1070
     1
1070
   271
1070
     1
1070
   275
1070
     1
1070
   279
1070
     2
1070
   340
1005
17C
1002
}
  0
DIMENSION
  5
35A
330
18
100
AcDbEntity
  8
SUNPOU
100
AcDbDimension
  2
*D9
 10
1304.715158012144
 20
1956.607885030507
 30
0.0
 11
1302.874308300532
 21
1829.20840025031
 31
0.0
 70
   162
 71
     5
 42
-1.0
  3
SJC
100
AcDb2LineAngularDimension
 13
1189.507623218699
 23
1936.293688265513
 33
0.0
 14
1304.715158012144
 24
1956.607885030506
 34
0.0
 15
1439.316390625516
 25
1932.874056084154
 35
0.0
 16
1346.956612656003
 26
1872.498233520822
 36
0.0
1001
ACAD
1000
DSTYLE
1002
{
1070
   287
1070
     5
1070
   271
1070
     1
1070
   287
1070
     5
1070
   271
1070
     1
1070
    40
1040
10.0
1070
    41
1040
2.0
1070
    42
1040
1.0
1070
    43
1040
6.0
1070
    44
1040
1.0
1070
    73
1070
     0
1070
    74
1070
     0
1070
    77
1070
     1
1070
    78
1070
     8
1070
    79
1070
     2
1070
   140
1040
3.0
1070
   147
1040
1.199999999999999
1070
   172
1070
     1
1070
   176
1070
   256
1070
   177
1070
   256
1070
   178
1070
   256
1070
   179
1070
     1
1070
   271
1070
     1
1070
   275
1070
     1
1070
   279
1070
     2
1070
   340
1005
17C
1002
}
  0
INSERT
  5
DD1
330
18
100
AcDbEntity
  8
HATCH
100
AcDbBlockReference
  2
B0040021
 10
2841.199722219948
 20
842.0578850305064
 30
0.0
 41
-0.5
 42
0.5
 43
0.5
  0
INSERT
  5
DD2
330
18
100
AcDbEntity
  8
HATCH
100
AcDbBlockReference
  2
B0040021
 10
1533.036249965174
 20
842.0578850305062
 30
0.0
 41
-0.5
 42
0.5
 43
0.5
  0
ARC
  5
DFD
330
18
100
AcDbEntity
  8
SJC
100
AcDbCircle
 10
2608.815128271501
 20
1596.065755162582
 30
0.0
 40
45.99212961094803
100
AcDbArc
 50
14.21291118959998
 51
165.8933012099
  0
LINE
  5
DFE
330
18
100
AcDbEntity
  8
SJC
100
AcDbLine
 10
2608.815033510182
 20
1589.439915262045
 30
0.0
 11
2653.638077310919
 21
1589.439915262045
 31
0.0
  0
LINE
  5
DFF
330
18
100
AcDbEntity
  8
SJC
100
AcDbLine
 10
2608.815033510182
 20
1586.711283273097
 30
0.0
 11
2653.638077310919
 21
1586.711283273097
 31
0.0
  0
LINE
  5
E00
330
18
100
AcDbEntity
  8
SJC
100
AcDbLine
 10
2652.663459684031
 20
1585.737111695468
 30
0.0
 11
2564.966607336407
 21
1585.737111695468
 31
0.0
  0
LINE
  5
E01
330
18
100
AcDbEntity
  8
SJC
100
AcDbLine
 10
2652.663459684031
 20
1590.414086839677
 30
0.0
 11
2564.966607336407
 21
1590.414086839677
 31
0.0
  0
LINE
  5
E02
330
18
100
AcDbEntity
  8
SJC
100
AcDbLine
 10
2653.638077310919
 20
1591.388258417229
 30
0.0
 11
2563.992287075668
 21
1591.388258417229
 31
0.0
  0
LINE
  5
E03
330
18
100
AcDbEntity
  8
SJC
100
AcDbLine
 10
2564.966607336407
 20
1595.091061983885
 30
0.0
 11
2652.663459684031
 21
1595.091061983885
 31
0.0
  0
LINE
  5
E04
330
18
100
AcDbEntity
  8
SJC
100
AcDbLine
 10
2653.638077310919
 20
1596.065828293801
 30
0.0
 11
2563.992287075668
 21
1596.065828293801
 31
0.0
  0
LINE
  5
E05
330
18
100
AcDbEntity
  8
SJC
100
AcDbLine
 10
2563.992287075668
 20
1594.116890406253
 30
0.0
 11
2653.638077310919
 21
1594.116890406253
 31
0.0
  0
LINE
  5
E06
330
18
100
AcDbEntity
  8
SJC
100
AcDbLine
 10
2562.043349188197
 20
1583.98265128407
 30
0.0
 11
2655.586717832246
 21
1583.98265128407
 31
0.0
  0
LINE
  5
E08
330
18
100
AcDbEntity
  8
SJC
100
AcDbLine
 10
2655.586717832246
 20
1571.120969637516
 30
0.0
 11
2562.043349188197
 21
1571.120969637516
 31
0.0
  0
LINE
  5
E09
330
18
100
AcDbEntity
  8
SJC
100
AcDbLine
 10
2655.586717832246
 20
1571.120969637516
 30
0.0
 11
2655.586717832246
 21
1583.98265128407
 31
0.0
  0
ARC
  5
E0A
330
18
100
AcDbEntity
  8
SJC
100
AcDbCircle
 10
2645.842800851901
 20
1605.443977482115
 30
0.0
 40
7.7952764612
100
AcDbArc
 50
0.0013606890000396
 51
14.21360894980001
  0
LINE
  5
E0B
330
18
100
AcDbEntity
  8
SJC
100
AcDbLine
 10
2653.638077310919
 20
1596.065828293801
 30
0.0
 11
2653.638077310919
 21
1605.444162608218
 31
0.0
  0
LINE
  5
E0C
330
18
100
AcDbEntity
  8
SJC
100
AcDbLine
 10
2653.638077310919
 20
1596.065828293801
 30
0.0
 11
2652.663459684031
 21
1595.091061983885
 31
0.0
  0
LINE
  5
E0D
330
18
100
AcDbEntity
  8
SJC
100
AcDbLine
 10
2653.638077310919
 20
1591.388258417229
 30
0.0
 11
2652.663459684031
 21
1590.414086839677
 31
0.0
  0
LINE
  5
E0E
330
18
100
AcDbEntity
  8
SJC
100
AcDbLine
 10
2653.638077310919
 20
1594.116890406253
 30
0.0
 11
2653.638077310919
 21
1591.388258417229
 31
0.0
  0
LINE
  5
E0F
330
18
100
AcDbEntity
  8
SJC
100
AcDbLine
 10
2653.638077310919
 20
1589.439915262045
 30
0.0
 11
2652.663459684031
 21
1590.414086839677
 31
0.0
  0
LWPOLYLINE
  5
E10
330
18
100
AcDbEntity
  8
SJC
100
AcDbPolyline
 90
        3
 70
     0
 43
0.0
 10
2655.586717832246
 20
1583.98265128407
 10
2652.663459684031
 20
1585.737111695468
 10
2653.638077310919
 20
1586.711283273097
  0
LINE
  5
E15
330
18
100
AcDbEntity
  8
SJC
100
AcDbLine
 10
2653.638077310919
 20
1589.439915262045
 30
0.0
 11
2653.638077310919
 21
1586.711283273097
 31
0.0
  0
LINE
  5
E16
330
18
100
AcDbEntity
  8
SJC
100
AcDbLine
 10
2655.586717832246
 20
1583.98265128407
 30
0.0
 11
2655.586717832246
 21
1571.120969637516
 31
0.0
  0
LINE
  5
E18
330
18
100
AcDbEntity
  8
SJC
100
AcDbLine
 10
2608.815033510182
 20
1586.711283273097
 30
0.0
 11
2563.992287075668
 21
1586.711283273097
 31
0.0
  0
LINE
  5
E19
330
18
100
AcDbEntity
  8
SJC
100
AcDbLine
 10
2608.815033510182
 20
1589.439915262045
 30
0.0
 11
2563.992287075668
 21
1589.439915262045
 31
0.0
  0
ARC
  5
E1A
330
18
100
AcDbEntity
  8
SJC
100
AcDbCircle
 10
2571.770154130797
 20
1605.375399702789
 30
0.0
 40
7.7952764612
100
AcDbArc
 50
165.893198888
 51
180.1065732127
  0
LWPOLYLINE
  5
E1B
330
18
100
AcDbEntity
  8
SJC
100
AcDbPolyline
 90
        3
 70
     0
 43
0.0
 10
2562.043349188197
 20
1583.98265128407
 10
2564.966607336407
 20
1585.737111695468
 10
2563.992287075668
 20
1586.711283273097
  0
LINE
  5
E20
330
18
100
AcDbEntity
  8
SJC
100
AcDbLine
 10
2563.992287075668
 20
1591.388258417229
 30
0.0
 11
2564.966607336407
 21
1590.414086839677
 31
0.0
  0
LINE
  5
E21
330
18
100
AcDbEntity
  8
SJC
100
AcDbLine
 10
2563.992287075668
 20
1589.439915262045
 30
0.0
 11
2563.992287075668
 21
1586.711283273097
 31
0.0
  0
LINE
  5
E22
330
18
100
AcDbEntity
  8
SJC
100
AcDbLine
 10
2563.992287075668
 20
1591.388258417229
 30
0.0
 11
2563.992287075668
 21
1594.116890406253
 31
0.0
  0
LINE
  5
E23
330
18
100
AcDbEntity
  8
SJC
100
AcDbLine
 10
2563.992287075668
 20
1596.065828293801
 30
0.0
 11
2563.974891154643
 21
1605.360900080237
 31
0.0
  0
LINE
  5
E24
330
18
100
AcDbEntity
  8
SJC
100
AcDbLine
 10
2562.043349188197
 20
1571.120969637516
 30
0.0
 11
2562.043349188197
 21
1583.98265128407
 31
0.0
  0
SOLID
  5
E25
330
18
100
AcDbEntity
  8
MOJI
  6
Continuous
100
AcDbTrace
 10
2591.89379352456
 20
1653.228361663189
 30
0.0
 11
2596.431317543199
 21
1658.112552509657
 31
0.0
 12
2608.815128073282
 22
1642.057885030506
 32
0.0
 13
2608.815128073282
 23
1642.057885030506
 33
0.0
  0
LINE
  5
E26
330
18
100
AcDbEntity
  8
MOJI
  6
Continuous
100
AcDbLine
 10
2594.162555533879
 20
1655.670457086423
 30
0.0
 11
2474.265128271502
 21
1767.057885030506
 31
0.0
  0
DIMENSION
  5
E35
330
18
100
AcDbEntity
  8
SUNPOU
100
AcDbDimension
  2
*D11
 10
2710.8150524313
 20
1532.707885030506
 30
0.0
 11
2744.879113515726
 21
1512.057885030506
 31
0.0
 70
   160
  1
%%c<>
 71
     5
 42
-1.0
  3
SJC
100
AcDbAlignedDimension
 13
2608.815128271501
 23
1491.407885030506
 33
0.0
 14
2608.815128271501
 24
1532.707885030506
 34
0.0
 50
90.0
100
AcDbRotatedDimension
1001
ACAD
1000
DSTYLE
1002
{
1070
   287
1070
     5
1070
   287
1070
     5
1070
    40
1040
10.0
1070
    41
1040
2.0
1070
    42
1040
1.0
1070
    43
1040
6.0
1070
    44
1040
1.0
1070
    73
1070
     0
1070
    74
1070
     0
1070
    77
1070
     1
1070
    78
1070
     8
1070
   140
1040
3.0
1070
   147
1040
1.199999999999999
1070
   172
1070
     1
1070
   176
1070
   256
1070
   177
1070
   256
1070
   178
1070
   256
1070
   271
1070
     1
1070
   275
1070
     1
1070
   279
1070
     2
1070
   340
1005
17C
1002
}
  0
ARC
  5
E64
330
18
100
AcDbEntity
  8
SJC
100
AcDbCircle
 10
1267.670139296388
 20
1605.375399702789
 30
0.0
 40
7.7952764612
100
AcDbArc
 50
165.893198888
 51
180.1065732127
  0
ARC
  5
E65
330
18
100
AcDbEntity
  8
SJC
100
AcDbCircle
 10
1341.742786017493
 20
1605.443977482115
 30
0.0
 40
7.7952764612
100
AcDbArc
 50
0.0013606890000396
 51
14.21360894980001
  0
ARC
  5
E66
330
18
100
AcDbEntity
  8
SJC
100
AcDbCircle
 10
1304.715113437093
 20
1596.065755162582
 30
0.0
 40
45.99212961094803
100
AcDbArc
 50
14.21291118959998
 51
165.8933012099
  0
LWPOLYLINE
  5
E67
330
18
100
AcDbEntity
  8
SJC
100
AcDbPolyline
 90
        3
 70
     0
 43
0.0
 10
1257.943334353788
 20
1583.98265128407
 10
1260.866592502
 20
1585.737111695468
 10
1259.892272241259
 20
1586.711283273097
  0
LINE
  5
E6C
330
18
100
AcDbEntity
  8
SJC
100
AcDbLine
 10
1257.943334353788
 20
1583.98265128407
 30
0.0
 11
1351.486702997837
 21
1583.98265128407
 31
0.0
  0
LINE
  5
E6D
330
18
100
AcDbEntity
  8
SJC
100
AcDbLine
 10
1351.486702997837
 20
1571.120969637516
 30
0.0
 11
1257.943334353788
 21
1571.120969637516
 31
0.0
  0
LINE
  5
E6E
330
18
100
AcDbEntity
  8
SJC
100
AcDbLine
 10
1304.715018675773
 20
1586.711283273097
 30
0.0
 11
1259.892272241259
 21
1586.711283273097
 31
0.0
  0
LINE
  5
E6F
330
18
100
AcDbEntity
  8
SJC
100
AcDbLine
 10
1304.715018675773
 20
1589.439915262045
 30
0.0
 11
1259.892272241259
 21
1589.439915262045
 31
0.0
  0
LINE
  5
E70
330
18
100
AcDbEntity
  8
SJC
100
AcDbLine
 10
1259.892272241259
 20
1591.388258417229
 30
0.0
 11
1260.866592502
 21
1590.414086839677
 31
0.0
  0
LINE
  5
E71
330
18
100
AcDbEntity
  8
SJC
100
AcDbLine
 10
1259.892272241259
 20
1589.439915262045
 30
0.0
 11
1259.892272241259
 21
1586.711283273097
 31
0.0
  0
LINE
  5
E72
330
18
100
AcDbEntity
  8
SJC
100
AcDbLine
 10
1259.892272241259
 20
1591.388258417229
 30
0.0
 11
1259.892272241259
 21
1594.116890406253
 31
0.0
  0
LINE
  5
E73
330
18
100
AcDbEntity
  8
SJC
100
AcDbLine
 10
1351.486702997837
 20
1571.120969637516
 30
0.0
 11
1351.486702997837
 21
1583.98265128407
 31
0.0
  0
LINE
  5
E74
330
18
100
AcDbEntity
  8
SJC
100
AcDbLine
 10
1349.538062476511
 20
1591.388258417229
 30
0.0
 11
1348.563444849623
 21
1590.414086839677
 31
0.0
  0
LINE
  5
E75
330
18
100
AcDbEntity
  8
SJC
100
AcDbLine
 10
1349.538062476511
 20
1594.116890406253
 30
0.0
 11
1349.538062476511
 21
1591.388258417229
 31
0.0
  0
LINE
  5
E76
330
18
100
AcDbEntity
  8
SJC
100
AcDbLine
 10
1349.538062476511
 20
1589.439915262045
 30
0.0
 11
1348.563444849623
 21
1590.414086839677
 31
0.0
  0
LWPOLYLINE
  5
E77
330
18
100
AcDbEntity
  8
SJC
100
AcDbPolyline
 90
        3
 70
     0
 43
0.0
 10
1351.486702997837
 20
1583.98265128407
 10
1348.563444849623
 20
1585.737111695468
 10
1349.538062476511
 20
1586.711283273097
  0
LINE
  5
E7C
330
18
100
AcDbEntity
  8
SJC
100
AcDbLine
 10
1349.538062476511
 20
1589.439915262045
 30
0.0
 11
1349.538062476511
 21
1586.711283273097
 31
0.0
  0
LINE
  5
E7D
330
18
100
AcDbEntity
  8
SJC
100
AcDbLine
 10
1351.486702997837
 20
1583.98265128407
 30
0.0
 11
1351.486702997837
 21
1571.120969637516
 31
0.0
  0
LINE
  5
E7E
330
18
100
AcDbEntity
  8
SJC
100
AcDbLine
 10
1304.715018675773
 20
1589.439915262045
 30
0.0
 11
1349.538062476511
 21
1589.439915262045
 31
0.0
  0
LINE
  5
E7F
330
18
100
AcDbEntity
  8
SJC
100
AcDbLine
 10
1304.715018675773
 20
1586.711283273097
 30
0.0
 11
1349.538062476511
 21
1586.711283273097
 31
0.0
  0
LINE
  5
E80
330
18
100
AcDbEntity
  8
SJC
100
AcDbLine
 10
1348.563444849623
 20
1585.737111695468
 30
0.0
 11
1260.866592502
 21
1585.737111695468
 31
0.0
  0
LINE
  5
E81
330
18
100
AcDbEntity
  8
SJC
100
AcDbLine
 10
1348.563444849623
 20
1590.414086839677
 30
0.0
 11
1260.866592502
 21
1590.414086839677
 31
0.0
  0
LINE
  5
E82
330
18
100
AcDbEntity
  8
SJC
100
AcDbLine
 10
1349.538062476511
 20
1591.388258417229
 30
0.0
 11
1259.892272241259
 21
1591.388258417229
 31
0.0
  0
LINE
  5
E83
330
18
100
AcDbEntity
  8
SJC
100
AcDbLine
 10
1259.892272241259
 20
1594.116890406253
 30
0.0
 11
1349.538062476511
 21
1594.116890406253
 31
0.0
  0
LINE
  5
E84
330
18
100
AcDbEntity
  8
SJC
100
AcDbLine
 10
1257.943334353788
 20
1571.120969637516
 30
0.0
 11
1257.943334353788
 21
1583.98265128407
 31
0.0
  0
LINE
  5
E85
330
18
100
AcDbEntity
  8
SJC
100
AcDbLine
 10
1349.538062476511
 20
1596.065828293801
 30
0.0
 11
1348.563444849623
 21
1595.091061983885
 31
0.0
  0
LINE
  5
E86
330
18
100
AcDbEntity
  8
SJC
100
AcDbLine
 10
1260.866592502
 20
1595.091061983885
 30
0.0
 11
1348.563444849623
 21
1595.091061983885
 31
0.0
  0
LINE
  5
E87
330
18
100
AcDbEntity
  8
SJC
100
AcDbLine
 10
1349.538062476511
 20
1596.065828293801
 30
0.0
 11
1259.892272241259
 21
1596.065828293801
 31
0.0
  0
LINE
  5
E88
330
18
100
AcDbEntity
  8
SJC
100
AcDbLine
 10
1259.892272241259
 20
1596.065828293801
 30
0.0
 11
1259.874876320234
 21
1605.360900080237
 31
0.0
  0
LINE
  5
E89
330
18
100
AcDbEntity
  8
SJC
100
AcDbLine
 10
1349.538062476511
 20
1596.065828293801
 30
0.0
 11
1349.538062476511
 21
1605.444162608218
 31
0.0
  0
INSERT
  5
EBE
330
18
100
AcDbEntity
  8
ZWAKU
100
AcDbBlockReference
  2
CALCOMP_TECHJET720A3
 10
0.0
 20
0.0
 30
0.0
 41
10.0
 42
10.0
 43
10.0
  0
TEXT
  5
EBF
330
18
100
AcDbEntity
  8
INFORMATION
100
AcDbText
 10
1.0
 20
2.0
 30
0.0
 40
0.8
  1
PLOTTER=CALCOMP_TECHJET720
 41
0.8
  7
EXT08
100
AcDbText
  0
TEXT
  5
EC0
330
18
100
AcDbEntity
  8
INFORMATION
100
AcDbText
 10
1.0
 20
3.0
 30
0.0
 40
0.8
  1
PAPER=A3
 41
0.8
  7
EXT08
100
AcDbText
  0
INSERT
  5
1314
330
18
100
AcDbEntity
  8
HATCH
100
AcDbBlockReference
  2
B0040021
 10
1113.952106500208
 20
842.0578850305062
 30
0.0
 41
-0.5
 42
0.5
 43
0.5
  0
INSERT
  5
1327
330
18
100
AcDbEntity
  8
HATCH
100
AcDbBlockReference
  2
B0040021
 10
2418.31485930713
 20
842.0578850305064
 30
0.0
 41
-0.5
 42
0.5
 43
0.5
  0
INSERT
  5
134E
330
18
100
AcDbEntity
  8
HATCH
  6
Continuous
100
AcDbBlockReference
  2
*X14
 10
0.0
 20
0.0
 30
0.0
1001
ACAD
1000
HATCH
1002
{
1070
    19
1000
PLAST
1040
500.0
1040
0.7853981633974483
1000
ASC_BOUNDS
1070
     2
1070
     1
1070
     4
1005
100
1005
FE
1005
128
1005
FF
1070
     1
1070
     4
1005
139
1005
FE
1005
109
1005
FD
1000
ASC_SEEDPOINT
1011
1230.253079845715
1021
753.712515165601
1031
0.0
1000
R14_HATCH_DATA
1000
134E
1011
1.0
1021
0.0
1031
0.0
1011
0.0
1021
1.0
1031
0.0
1011
0.0
1021
0.0
1031
1.0
1040
0.0
1010
0.0
1020
0.0
1030
1.0
1000
PLAST
1070
     0
1070
     1
1071
        2
1071
        7
1070
     0
1070
     1
1071
        4
1040
1260.165113628148
1040
842.0578850305064
1040
1154.715113628148
1040
842.0578850305064
1040
1154.715113628148
1040
442.0578850305065
1040
1260.165113628148
1040
442.0578850305065
1071
        4
1005
FD
1005
109
1005
FE
1005
139
1071
        7
1070
     0
1070
     1
1071
        4
1040
1349.265113628148
1040
442.0578850305064
1040
1454.715113628148
1040
442.0578850305063
1040
1454.715113628148
1040
842.0578850305064
1040
1349.265113628148
1040
842.0578850305062
1071
        4
1005
FF
1005
128
1005
FE
1005
100
1070
     0
1070
     1
1040
0.7853981633974483
1040
500.0
1070
     0
1070
     3
1040
0.7853981633974483
1040
0.0
1040
104.6470034577205
1040
-88.38834764831842
1040
88.38834764831844
1070
     0
1040
0.7853981633974483
1040
-11.0485434560398
1040
115.6955469137603
1040
-88.38834764831842
1040
88.38834764831844
1070
     0
1040
0.7853981633974483
1040
-22.0970869120796
1040
126.7440903698001
1040
-88.38834764831842
1040
88.38834764831844
1070
     0
1040
1.071077421467151
1071
        2
1040
1230.253079845715
1040
753.712515165601
1040
0.0
1040
1385.669845836129
1040
749.428202932424
1040
0.0
1002
}
  0
INSERT
  5
1370
330
18
100
AcDbEntity
  8
HATCH
  6
Continuous
100
AcDbBlockReference
  2
*X15
 10
0.0
 20
0.0
 30
0.0
1001
ACAD
1000
HATCH
1002
{
1070
    19
1000
PLAST
1040
500.0
1040
0.7853981633974483
1000
ASC_BOUNDS
1070
     2
1070
     1
1070
     4
1005
B7
1005
BA
1005
E5
1005
B9
1070
     1
1070
     4
1005
E6
1005
BA
1005
B8
1005
BB
1000
ASC_SEEDPOINT
1011
2540.471303303993
1021
801.4496007052821
1031
0.0
1000
R14_HATCH_DATA
1000
1370
1011
1.0
1021
0.0
1031
0.0
1011
0.0
1021
1.0
1031
0.0
1011
0.0
1021
0.0
1031
1.0
1040
0.0
1010
0.0
1020
0.0
1030
1.0
1000
PLAST
1070
     0
1070
     1
1071
        2
1071
        7
1070
     0
1070
     1
1071
        4
1040
2564.265128271502
1040
842.0578850305062
1040
2458.815128271502
1040
842.0578850305062
1040
2458.815128271502
1040
442.0578850305065
1040
2564.265128271502
1040
442.0578850305064
1071
        4
1005
BB
1005
B8
1005
BA
1005
E6
1071
        7
1070
     0
1070
     1
1071
        4
1040
2758.815128271502
1040
842.0578850305064
1040
2653.365128271502
1040
842.0578850305062
1040
2653.365128271502
1040
442.0578850305065
1040
2758.815128271502
1040
442.0578850305063
1071
        4
1005
B9
1005
E5
1005
BA
1005
B7
1070
     0
1070
     1
1040
0.7853981633974483
1040
500.0
1070
     0
1070
     3
1040
0.7853981633974483
1040
0.0
1040
104.6470034577205
1040
-88.38834764831842
1040
88.38834764831844
1070
     0
1040
0.7853981633974483
1040
-11.0485434560398
1040
115.6955469137603
1040
-88.38834764831842
1040
88.38834764831844
1070
     0
1040
0.7853981633974483
1040
-22.0970869120796
1040
126.7440903698001
1040
-88.38834764831842
1040
88.38834764831844
1070
     0
1040
1.349679617122233
1071
        2
1040
2540.471303303993
1040
801.4496007052821
1040
0.0
1040
2718.755820847056
1040
774.4560062678547
1040
0.0
1002
}
  0
TEXT
  5
13D5
330
18
100
AcDbEntity
  8
INFORMATION
100
AcDbText
 10
1.0
 20
1.0
 30
0.0
 40
0.8
  1
VERSION=3.0
100
AcDbText
  0
ENDSEC
  0
SECTION
  2
OBJECTS
  0
DICTIONARY
  5
C
330
0
100
AcDbDictionary
281
     1
  3
ACAD_GROUP
350
D
  3
ACAD_LAYOUT
350
EE6
  3
ACAD_MLINESTYLE
350
E
  3
ACAD_PLOTSETTINGS
350
EE7
  3
ACAD_PLOTSTYLENAME
350
EE4
  3
AcDbVariableDictionary
350
1328
  0
DICTIONARY
  5
11F2
330
18
100
AcDbDictionary
280
     1
281
     1
  3
ACAD_LAYOUTSELFREF
360
1698
  0
DICTIONARY
  5
11F0
330
15
100
AcDbDictionary
280
     1
281
     1
  3
ACAD_LAYOUTSELFREF
360
1697
  0
DICTIONARY
  5
D
102
{ACAD_REACTORS
330
C
102
}
330
C
100
AcDbDictionary
281
     1
  0
DICTIONARY
  5
EE6
102
{ACAD_REACTORS
330
C
102
}
330
C
100
AcDbDictionary
281
     1
  3
Model
350
EE8
  3
ﾚｲｱｳﾄ1
350
EE9
  0
DICTIONARY
  5
E
102
{ACAD_REACTORS
330
C
102
}
330
C
100
AcDbDictionary
281
     1
  3
STANDARD
350
1B
  0
DICTIONARY
  5
EE7
102
{ACAD_REACTORS
330
C
102
}
330
C
100
AcDbDictionary
281
     1
  0
ACDBDICTIONARYWDFLT
  5
EE4
102
{ACAD_REACTORS
330
C
102
}
330
C
100
AcDbDictionary
281
     1
  3
Normal
350
EE5
100
AcDbDictionaryWithDefault
340
EE5
1001
ACAD
1000
TREAT_AS_HARD
1070
     0
1000
TREAT_AS_HARD
1070
     0
  0
DICTIONARY
  5
1328
102
{ACAD_REACTORS
330
C
102
}
330
C
100
AcDbDictionary
281
     1
  3
SORTENTS
350
1329
  0
XRECORD
  5
1698
102
{ACAD_REACTORS
330
11F2
102
}
330
11F2
100
AcDbXrecord
280
     1
340
18
  0
XRECORD
  5
1697
102
{ACAD_REACTORS
330
11F0
102
}
330
11F0
100
AcDbXrecord
280
     1
340
15
  0
LAYOUT
  5
EE8
102
{ACAD_REACTORS
330
EE6
102
}
330
EE6
100
AcDbPlotSettings
  1

  2
CNSAcrobat PDFWriter.pc3
  4
User256
  6

 40
3.174999952316284
 41
3.174999952316284
 42
3.175003051757812
 43
3.17498779296875
 44
210.0
 45
297.0
 46
5.0
 47
5.0
 48
0.0
 49
0.0
140
19775.0
141
14100.0
142
1.0
143
10.0
 70
 11952
 72
     1
 73
     0
 74
     2
  7
CALCOMP_TECHJET720.CTB
 75
    20
147
0.1
148
0.0
149
0.0
100
AcDbLayout
  1
Model
 70
     1
 71
     0
 10
0.0
 20
0.0
 11
12.0
 21
9.0
 12
0.0
 22
0.0
 32
0.0
 14
0.0
 24
0.0
 34
0.0
 15
0.0
 25
0.0
 35
0.0
146
0.0
 13
0.0
 23
0.0
 33
0.0
 16
1.0
 26
0.0
 36
0.0
 17
0.0
 27
1.0
 37
0.0
 76
     0
330
18
  0
LAYOUT
  5
EE9
102
{ACAD_REACTORS
330
EE6
102
}
330
EE6
100
AcDbPlotSettings
  1

  2
C:\Program Files\AutoCAD 2000i\plotters\DWF Classic.pc3
  4

  6

 40
0.0
 41
0.0
 42
0.0
 43
0.0
 44
0.0
 45
0.0
 46
0.0
 47
0.0
 48
0.0
 49
0.0
140
0.0
141
0.0
142
1.0
143
1.0
 70
   688
 72
     0
 73
     0
 74
     5
  7

 75
    16
147
1.0
148
0.0
149
0.0
100
AcDbLayout
  1
ﾚｲｱｳﾄ1
 70
     1
 71
     1
 10
0.0
 20
0.0
 11
12.0
 21
9.0
 12
0.0
 22
0.0
 32
0.0
 14
1.000000000000000E+20
 24
1.000000000000000E+20
 34
1.000000000000000E+20
 15
-1.000000000000000E+20
 25
-1.000000000000000E+20
 35
-1.000000000000000E+20
146
0.0
 13
0.0
 23
0.0
 33
0.0
 16
1.0
 26
0.0
 36
0.0
 17
0.0
 27
1.0
 37
0.0
 76
     0
330
15
  0
MLINESTYLE
  5
1B
102
{ACAD_REACTORS
330
E
102
}
330
E
100
AcDbMlineStyle
  2
STANDARD
 70
     0
  3

 62
     0
 51
90.0
 52
90.0
 71
     2
 49
0.5
 62
   256
  6
BYLAYER
 49
-0.5
 62
   256
  6
BYLAYER
  0
ACDBPLACEHOLDER
  5
EE5
102
{ACAD_REACTORS
330
EE4
102
}
330
EE4
  0
DICTIONARYVAR
  5
1329
102
{ACAD_REACTORS
330
1328
102
}
330
1328
100
DictionaryVariables
280
     0
  1
96
  0
ENDSEC
  0
EOF
