  0
SECTION
  2
HEADER
  9
$ACADVER
  1
AC1015
  9
$ACADMAINTVER
 70
    11
  9
$DWGCODEPAGE
  3
ANSI_932
  9
$INSBASE
 10
0.0
 20
0.0
 30
0.0
  9
$EXTMIN
 10
0.0
 20
0.0
 30
0.0
  9
$EXTMAX
 10
7400.0
 20
5340.0
 30
0.0
  9
$LIMMIN
 10
0.0
 20
0.0
  9
$LIMMAX
 10
8400.0
 20
5940.0
  9
$ORTHOMODE
 70
     1
  9
$REGENMODE
 70
     1
  9
$FILLMODE
 70
     1
  9
$QTEXTMODE
 70
     0
  9
$MIRRTEXT
 70
     0
  9
$LTSCALE
 40
200.0
  9
$ATTMODE
 70
     1
  9
$TEXTSIZE
 40
60.0
  9
$TRACEWID
 40
0.05
  9
$TEXTSTYLE
  7
KANJI08
  9
$CLAYER
  8
MOJI
  9
$CELTYPE
  6
BYLAYER
  9
$CECOLOR
 62
   256
  9
$CELTSCALE
 40
1.0
  9
$DISPSILH
 70
     0
  9
$DIMSCALE
 40
20.0
  9
$DIMASZ
 40
2.0
  9
$DIMEXO
 40
1.0
  9
$DIMDLI
 40
6.0
  9
$DIMRND
 40
0.0
  9
$DIMDLE
 40
0.0
  9
$DIMEXE
 40
1.0
  9
$DIMTP
 40
0.0
  9
$DIMTM
 40
0.0
  9
$DIMTXT
 40
3.0
  9
$DIMCEN
 40
0.09
  9
$DIMTSZ
 40
0.0
  9
$DIMTOL
 70
     0
  9
$DIMLIM
 70
     0
  9
$DIMTIH
 70
     0
  9
$DIMTOH
 70
     0
  9
$DIMSE1
 70
     0
  9
$DIMSE2
 70
     0
  9
$DIMTAD
 70
     1
  9
$DIMZIN
 70
     8
  9
$DIMBLK
  1

  9
$DIMASO
 70
     1
  9
$DIMSHO
 70
     1
  9
$DIMPOST
  1

  9
$DIMAPOST
  1

  9
$DIMALT
 70
     0
  9
$DIMALTD
 70
     2
  9
$DIMALTF
 40
25.4
  9
$DIMLFAC
 40
0.5
  9
$DIMTOFL
 70
     1
  9
$DIMTVP
 40
0.0
  9
$DIMTIX
 70
     0
  9
$DIMSOXD
 70
     0
  9
$DIMSAH
 70
     0
  9
$DIMBLK1
  1

  9
$DIMBLK2
  1

  9
$DIMSTYLE
  2
SJC
  9
$DIMCLRD
 70
   256
  9
$DIMCLRE
 70
   256
  9
$DIMCLRT
 70
   256
  9
$DIMTFAC
 40
1.0
  9
$DIMGAP
 40
1.199999999999999
  9
$DIMJUST
 70
     0
  9
$DIMSD1
 70
     0
  9
$DIMSD2
 70
     0
  9
$DIMTOLJ
 70
     1
  9
$DIMTZIN
 70
     0
  9
$DIMALTZ
 70
     0
  9
$DIMALTTZ
 70
     0
  9
$DIMUPT
 70
     0
  9
$DIMDEC
 70
     1
  9
$DIMTDEC
 70
     4
  9
$DIMALTU
 70
     2
  9
$DIMALTTD
 70
     2
  9
$DIMTXSTY
  7
KANJI08
  9
$DIMAUNIT
 70
     1
  9
$DIMADEC
 70
     0
  9
$DIMALTRND
 40
0.0
  9
$DIMAZIN
 70
     0
  9
$DIMDSEP
 70
    46
  9
$DIMATFIT
 70
     3
  9
$DIMFRAC
 70
     0
  9
$DIMLDRBLK
  1

  9
$DIMLUNIT
 70
     2
  9
$DIMLWD
 70
    -2
  9
$DIMLWE
 70
    -2
  9
$DIMTMOVE
 70
     2
  9
$LUNITS
 70
     2
  9
$LUPREC
 70
     2
  9
$SKETCHINC
 40
0.1
  9
$FILLETRAD
 40
0.0
  9
$AUNITS
 70
     1
  9
$AUPREC
 70
     2
  9
$MENU
  1
C:\r13\win\SUPPORT\sjc
  9
$ELEVATION
 40
0.0
  9
$PELEVATION
 40
0.0
  9
$THICKNESS
 40
0.0
  9
$LIMCHECK
 70
     0
  9
$CHAMFERA
 40
0.0
  9
$CHAMFERB
 40
0.0
  9
$CHAMFERC
 40
0.0
  9
$CHAMFERD
 40
0.0
  9
$SKPOLY
 70
     0
  9
$TDCREATE
 40
2450336.684158680
  9
$TDUCREATE
 40
2450336.309158680
  9
$TDUPDATE
 40
2452424.653839513
  9
$TDUUPDATE
 40
2452424.278839513
  9
$TDINDWG
 40
0.0335637731
  9
$TDUSRTIMER
 40
0.0335637731
  9
$USRTIMER
 70
     1
  9
$ANGBASE
 50
0.0
  9
$ANGDIR
 70
     0
  9
$PDMODE
 70
     0
  9
$PDSIZE
 40
0.0
  9
$PLINEWID
 40
0.0
  9
$SPLFRAME
 70
     0
  9
$SPLINETYPE
 70
     6
  9
$SPLINESEGS
 70
     8
  9
$HANDSEED
  5
B70
  9
$SURFTAB1
 70
     6
  9
$SURFTAB2
 70
     6
  9
$SURFTYPE
 70
     6
  9
$SURFU
 70
     6
  9
$SURFV
 70
     6
  9
$UCSBASE
  2

  9
$UCSNAME
  2

  9
$UCSORG
 10
0.0
 20
0.0
 30
0.0
  9
$UCSXDIR
 10
1.0
 20
0.0
 30
0.0
  9
$UCSYDIR
 10
0.0
 20
1.0
 30
0.0
  9
$UCSORTHOREF
  2

  9
$UCSORTHOVIEW
 70
     0
  9
$UCSORGTOP
 10
0.0
 20
0.0
 30
0.0
  9
$UCSORGBOTTOM
 10
0.0
 20
0.0
 30
0.0
  9
$UCSORGLEFT
 10
0.0
 20
0.0
 30
0.0
  9
$UCSORGRIGHT
 10
0.0
 20
0.0
 30
0.0
  9
$UCSORGFRONT
 10
0.0
 20
0.0
 30
0.0
  9
$UCSORGBACK
 10
0.0
 20
0.0
 30
0.0
  9
$PUCSBASE
  2

  9
$PUCSNAME
  2

  9
$PUCSORG
 10
0.0
 20
0.0
 30
0.0
  9
$PUCSXDIR
 10
1.0
 20
0.0
 30
0.0
  9
$PUCSYDIR
 10
0.0
 20
1.0
 30
0.0
  9
$PUCSORTHOREF
  2

  9
$PUCSORTHOVIEW
 70
     0
  9
$PUCSORGTOP
 10
0.0
 20
0.0
 30
0.0
  9
$PUCSORGBOTTOM
 10
0.0
 20
0.0
 30
0.0
  9
$PUCSORGLEFT
 10
0.0
 20
0.0
 30
0.0
  9
$PUCSORGRIGHT
 10
0.0
 20
0.0
 30
0.0
  9
$PUCSORGFRONT
 10
0.0
 20
0.0
 30
0.0
  9
$PUCSORGBACK
 10
0.0
 20
0.0
 30
0.0
  9
$USERI1
 70
     3
  9
$USERI2
 70
    20
  9
$USERI3
 70
     0
  9
$USERI4
 70
     0
  9
$USERI5
 70
     0
  9
$USERR1
 40
0.0
  9
$USERR2
 40
0.0
  9
$USERR3
 40
0.0
  9
$USERR4
 40
0.0
  9
$USERR5
 40
0.0
  9
$WORLDVIEW
 70
     1
  9
$SHADEDGE
 70
     3
  9
$SHADEDIF
 70
    70
  9
$TILEMODE
 70
     1
  9
$MAXACTVP
 70
    16
  9
$PINSBASE
 10
0.0
 20
0.0
 30
0.0
  9
$PLIMCHECK
 70
     0
  9
$PEXTMIN
 10
1.000000000000000E+20
 20
1.000000000000000E+20
 30
1.000000000000000E+20
  9
$PEXTMAX
 10
-1.000000000000000E+20
 20
-1.000000000000000E+20
 30
-1.000000000000000E+20
  9
$PLIMMIN
 10
0.0
 20
0.0
  9
$PLIMMAX
 10
12.0
 20
9.0
  9
$UNITMODE
 70
     0
  9
$VISRETAIN
 70
     0
  9
$PLINEGEN
 70
     0
  9
$PSLTSCALE
 70
     1
  9
$TREEDEPTH
 70
  3020
  9
$CMLSTYLE
  2
STANDARD
  9
$CMLJUST
 70
     0
  9
$CMLSCALE
 40
1.0
  9
$PROXYGRAPHICS
 70
     1
  9
$MEASUREMENT
 70
     0
  9
$CELWEIGHT
370
    -1
  9
$ENDCAPS
280
     0
  9
$JOINSTYLE
280
     0
  9
$LWDISPLAY
290
     0
  9
$INSUNITS
 70
     0
  9
$HYPERLINKBASE
  1

  9
$STYLESHEET
  1
CALCOMP_TECHJET720.ctb
  9
$XEDIT
290
     1
  9
$CEPSNTYPE
380
     0
  9
$PSTYLEMODE
290
     1
  9
$FINGERPRINTGUID
  2
{E5B551FB-52DF-4378-BD04-B46CBE68F753}
  9
$VERSIONGUID
  2
{257108BA-8E97-4FC4-8418-010FD1432D0F}
  9
$EXTNAMES
290
     1
  9
$PSVPSCALE
 40
0.0
  9
$OLESTARTUP
290
     0
  0
ENDSEC
  0
SECTION
  2
CLASSES
  0
CLASS
  1
ACDBDICTIONARYWDFLT
  2
AcDbDictionaryWithDefault
  3
AutoCAD 2000
 90
        0
280
     0
281
     0
  0
CLASS
  1
ACDBPLACEHOLDER
  2
AcDbPlaceHolder
  3
AutoCAD 2000
 90
        0
280
     0
281
     0
  0
CLASS
  1
LAYOUT
  2
AcDbLayout
  3
AutoCAD 2000
 90
        0
280
     0
281
     0
  0
ENDSEC
  0
SECTION
  2
TABLES
  0
TABLE
  2
VPORT
  5
8
330
0
100
AcDbSymbolTable
 70
     4
  0
VPORT
  5
B6F
330
8
100
AcDbSymbolTableRecord
100
AcDbViewportTableRecord
  2
*Active
 70
     0
 10
0.0
 20
0.0
 11
1.0
 21
1.0
 12
4199.871835950612
 22
2969.909369707932
 13
0.0
 23
0.0
 14
10.0
 24
10.0
 15
0.0
 25
0.0
 16
0.0
 26
0.0
 36
1.0
 17
0.0
 27
0.0
 37
0.0
 40
6005.818622579539
 41
1.856088560885608
 42
50.0
 43
0.0
 44
0.0
 50
0.0
 51
0.0
 71
     0
 72
   100
 73
     1
 74
     1
 75
     0
 76
     0
 77
     0
 78
     0
281
     0
 65
     1
110
0.0
120
0.0
130
0.0
111
1.0
121
0.0
131
0.0
112
0.0
122
1.0
132
0.0
 79
     0
146
0.0
  0
ENDTAB
  0
TABLE
  2
LTYPE
  5
5
330
0
100
AcDbSymbolTable
 70
     5
  0
LTYPE
  5
12
330
5
100
AcDbSymbolTableRecord
100
AcDbLinetypeTableRecord
  2
BYBLOCK
 70
     0
  3

 72
    65
 73
     0
 40
0.0
  0
LTYPE
  5
13
330
5
100
AcDbSymbolTableRecord
100
AcDbLinetypeTableRecord
  2
BYLAYER
 70
     0
  3

 72
    65
 73
     0
 40
0.0
  0
LTYPE
  5
14
330
5
100
AcDbSymbolTableRecord
100
AcDbLinetypeTableRecord
  2
CONTINUOUS
 70
     0
  3
Solid line
 72
    65
 73
     0
 40
0.0
  0
LTYPE
  5
3B
330
5
100
AcDbSymbolTableRecord
100
AcDbLinetypeTableRecord
  2
CENTER
 70
     0
  3
____ _ ____ _ ____ _ ____ _ ____ _ ____ _ ____ 
 72
    65
 73
     4
 40
2.0
 49
1.25
 74
     0
 49
-0.25
 74
     0
 49
0.25
 74
     0
 49
-0.25
 74
     0
  0
LTYPE
  5
3C
330
5
100
AcDbSymbolTableRecord
100
AcDbLinetypeTableRecord
  2
HIDDEN
 70
     0
  3
__ __ __ __ __ __ __ __ __ __ __ __ __ __ __ __
 72
    65
 73
     2
 40
0.375
 49
0.25
 74
     0
 49
-0.125
 74
     0
  0
LTYPE
  5
3D
330
5
100
AcDbSymbolTableRecord
100
AcDbLinetypeTableRecord
  2
HIDDEN2
 70
     0
  3
_ _ _ _ _ _ _ _ _ _ _ _ _ _ _ _ _ _ _ _ _ _ _ _
 72
    65
 73
     2
 40
0.1875
 49
0.125
 74
     0
 49
-0.0625
 74
     0
  0
LTYPE
  5
3E
330
5
100
AcDbSymbolTableRecord
100
AcDbLinetypeTableRecord
  2
PHANTOM
 70
     0
  3
______  __  __  ______  __  __  ______  __  __ 
 72
    65
 73
     6
 40
2.5
 49
1.25
 74
     0
 49
-0.25
 74
     0
 49
0.25
 74
     0
 49
-0.25
 74
     0
 49
0.25
 74
     0
 49
-0.25
 74
     0
  0
ENDTAB
  0
TABLE
  2
LAYER
  5
2
330
0
100
AcDbSymbolTable
 70
    15
  0
LAYER
  5
F
330
2
100
AcDbSymbolTableRecord
100
AcDbLayerTableRecord
  2
0
 70
     0
 62
     7
  6
CONTINUOUS
370
    -3
390
9DF
  0
LAYER
  5
44
330
2
100
AcDbSymbolTableRecord
100
AcDbLayerTableRecord
  2
CENTER
 70
     0
 62
     3
  6
CENTER
370
    -3
390
9DF
  0
LAYER
  5
45
330
2
100
AcDbSymbolTableRecord
100
AcDbLayerTableRecord
  2
HASEN
 70
     0
 62
     7
  6
HIDDEN
370
    -3
390
9DF
  0
LAYER
  5
46
330
2
100
AcDbSymbolTableRecord
100
AcDbLayerTableRecord
  2
HOJO
 70
     0
 62
     8
  6
CONTINUOUS
370
    -3
390
9DF
  0
LAYER
  5
47
330
2
100
AcDbSymbolTableRecord
100
AcDbLayerTableRecord
  2
KASOU
 70
     0
 62
     2
  6
PHANTOM
370
    -3
390
9DF
  0
LAYER
  5
48
330
2
100
AcDbSymbolTableRecord
100
AcDbLayerTableRecord
  2
MOJI
 70
     0
 62
     6
  6
CONTINUOUS
370
    -3
390
9DF
  0
LAYER
  5
49
330
2
100
AcDbSymbolTableRecord
100
AcDbLayerTableRecord
  2
SJC
 70
     0
 62
     1
  6
CONTINUOUS
370
    -3
390
9DF
  0
LAYER
  5
4A
330
2
100
AcDbSymbolTableRecord
100
AcDbLayerTableRecord
  2
SUNPOU
 70
     0
 62
     4
  6
CONTINUOUS
370
    -3
390
9DF
  0
LAYER
  5
4B
330
2
100
AcDbSymbolTableRecord
100
AcDbLayerTableRecord
  2
WAKU
 70
     0
 62
     5
  6
CONTINUOUS
370
    -3
390
9DF
  0
LAYER
  5
4C
330
2
100
AcDbSymbolTableRecord
100
AcDbLayerTableRecord
  2
ZWAKU
 70
     0
 62
    -7
  6
CONTINUOUS
370
    -3
390
9DF
  0
LAYER
  5
4D
330
2
100
AcDbSymbolTableRecord
100
AcDbLayerTableRecord
  2
DEFPOINTS
 70
     0
 62
     7
  6
CONTINUOUS
290
     0
370
    -3
390
9DF
  0
LAYER
  5
5ED
330
2
100
AcDbSymbolTableRecord
100
AcDbLayerTableRecord
  2
INFORMATION
 70
     1
 62
     7
  6
CONTINUOUS
370
    -3
390
9DF
  0
LAYER
  5
5F0
330
2
100
AcDbSymbolTableRecord
100
AcDbLayerTableRecord
  2
SJC2
 70
     0
 62
     7
  6
CONTINUOUS
370
    -3
390
9DF
  0
LAYER
  5
5F1
330
2
100
AcDbSymbolTableRecord
100
AcDbLayerTableRecord
  2
MOJI2
 70
     0
 62
     1
  6
CONTINUOUS
370
    -3
390
9DF
  0
LAYER
  5
5F2
330
2
100
AcDbSymbolTableRecord
100
AcDbLayerTableRecord
  2
HATCH
 70
     0
 62
     2
  6
CONTINUOUS
370
    -3
390
9DF
  0
ENDTAB
  0
TABLE
  2
STYLE
  5
3
330
0
100
AcDbSymbolTable
 70
     9
  0
STYLE
  5
10
330
3
100
AcDbSymbolTableRecord
100
AcDbTextStyleTableRecord
  2
STANDARD
 70
     0
 40
0.0
 41
1.0
 50
0.0
 71
     0
 42
60.0
  3
romans
  4
bigfont
  0
STYLE
  5
39
330
3
100
AcDbSymbolTableRecord
100
AcDbTextStyleTableRecord
  2
SIMPLEX
 70
     0
 40
0.0
 41
1.0
 50
0.0
 71
     0
 42
60.0
  3
scripts
  4

  0
STYLE
  5
3A
330
3
100
AcDbSymbolTableRecord
100
AcDbTextStyleTableRecord
  2
KANJI
 70
     0
 40
0.0
 41
1.0
 50
0.0
 71
     0
 42
60.0
  3
romans
  4
bigfont
  0
STYLE
  5
602
330
3
100
AcDbSymbolTableRecord
100
AcDbTextStyleTableRecord
  2
TATEEXT
 70
     4
 40
0.0
 41
1.0
 50
0.0
 71
     0
 42
60.0
  3
ROMANS
  4
EXTFONT
  0
STYLE
  5
603
330
3
100
AcDbSymbolTableRecord
100
AcDbTextStyleTableRecord
  2
TATEBIG
 70
     4
 40
0.0
 41
1.0
 50
0.0
 71
     0
 42
60.0
  3
ROMANS
  4
BIGFONT
  0
STYLE
  5
604
330
3
100
AcDbSymbolTableRecord
100
AcDbTextStyleTableRecord
  2
EXT08
 70
     0
 40
0.0
 41
0.8
 50
0.0
 71
     0
 42
60.0
  3
ROMANS
  4
EXTFONT
  0
STYLE
  5
605
330
3
100
AcDbSymbolTableRecord
100
AcDbTextStyleTableRecord
  2
EXT
 70
     0
 40
0.0
 41
1.0
 50
0.0
 71
     0
 42
60.0
  3
ROMANS
  4
EXTFONT
  0
STYLE
  5
606
330
3
100
AcDbSymbolTableRecord
100
AcDbTextStyleTableRecord
  2
KANJI08
 70
     0
 40
0.0
 41
0.8
 50
0.0
 71
     0
 42
60.0
  3
ROMANS
  4
BIGFONT
  0
STYLE
  5
76D
330
3
100
AcDbSymbolTableRecord
100
AcDbTextStyleTableRecord
  2
TEXT3030
 70
     0
 40
30.0
 41
1.0
 50
0.0
 71
     0
 42
30.0
  3
TXT
  4
BIGFONT
  0
ENDTAB
  0
TABLE
  2
VIEW
  5
6
330
0
100
AcDbSymbolTable
 70
     0
  0
ENDTAB
  0
TABLE
  2
UCS
  5
7
330
0
100
AcDbSymbolTable
 70
     0
  0
ENDTAB
  0
TABLE
  2
APPID
  5
9
330
0
100
AcDbSymbolTable
 70
     1
  0
APPID
  5
11
330
9
100
AcDbSymbolTableRecord
100
AcDbRegAppTableRecord
  2
ACAD
 70
     0
  0
ENDTAB
  0
TABLE
  2
DIMSTYLE
  5
A
330
0
100
AcDbSymbolTable
 70
     2
100
AcDbDimStyleTable
 71
     0
  0
DIMSTYLE
105
41
330
A
100
AcDbSymbolTableRecord
100
AcDbDimStyleTableRecord
  2
S01-20AX
 70
     0
 41
40.0
 42
20.0
 43
0.4
 44
20.0
 73
     0
 74
     0
 77
     1
 78
     8
140
50.0
141
0.1
146
0.004
147
0.1
172
     1
176
   256
177
   256
178
   256
271
     1
272
     1
275
     1
279
     2
284
     8
285
     8
286
     8
340
3A
  0
DIMSTYLE
105
607
102
{ACAD_REACTORS
330
40F
330
410
330
413
330
414
330
415
330
416
330
417
330
431
330
433
330
434
330
54A
330
68A
330
6C5
330
6C6
102
}
330
A
100
AcDbSymbolTableRecord
100
AcDbDimStyleTableRecord
  2
SJC
 70
     0
340
10
  0
ENDTAB
  0
TABLE
  2
BLOCK_RECORD
  5
1
330
0
100
AcDbSymbolTable
 70
    17
  0
BLOCK_RECORD
  5
18
330
1
100
AcDbSymbolTableRecord
100
AcDbBlockTableRecord
  2
*MODEL_SPACE
340
9E2
  0
BLOCK_RECORD
  5
15
330
1
100
AcDbSymbolTableRecord
100
AcDbBlockTableRecord
  2
*PAPER_SPACE
340
9E3
  0
BLOCK_RECORD
  5
5E3
330
1
100
AcDbSymbolTableRecord
100
AcDbBlockTableRecord
  2
CALCOMP_TECHJET720A3
340
0
102
{BLKREFS
331
5EC
102
}
  0
BLOCK_RECORD
  5
60D
330
1
100
AcDbSymbolTableRecord
100
AcDbBlockTableRecord
  2
*D1
340
0
  0
BLOCK_RECORD
  5
619
330
1
100
AcDbSymbolTableRecord
100
AcDbBlockTableRecord
  2
*D2
340
0
  0
BLOCK_RECORD
  5
631
330
1
100
AcDbSymbolTableRecord
100
AcDbBlockTableRecord
  2
*D3
340
0
  0
BLOCK_RECORD
  5
67E
330
1
100
AcDbSymbolTableRecord
100
AcDbBlockTableRecord
  2
*D4
340
0
  0
BLOCK_RECORD
  5
6B9
330
1
100
AcDbSymbolTableRecord
100
AcDbBlockTableRecord
  2
*D5
340
0
  0
BLOCK_RECORD
  5
6C7
330
1
100
AcDbSymbolTableRecord
100
AcDbBlockTableRecord
  2
*D6
340
0
  0
BLOCK_RECORD
  5
6D3
330
1
100
AcDbSymbolTableRecord
100
AcDbBlockTableRecord
  2
*D7
340
0
  0
BLOCK_RECORD
  5
708
330
1
100
AcDbSymbolTableRecord
100
AcDbBlockTableRecord
  2
*D8
340
0
  0
BLOCK_RECORD
  5
716
330
1
100
AcDbSymbolTableRecord
100
AcDbBlockTableRecord
  2
*D9
340
0
  0
BLOCK_RECORD
  5
76E
330
1
100
AcDbSymbolTableRecord
100
AcDbBlockTableRecord
  2
B0040021
340
0
102
{BLKREFS
331
77E
331
7D1
331
928
102
}
  0
BLOCK_RECORD
  5
7BC
330
1
100
AcDbSymbolTableRecord
100
AcDbBlockTableRecord
  2
*X11
340
0
102
{BLKREFS
331
7BE
102
}
  0
BLOCK_RECORD
  5
7EE
330
1
100
AcDbSymbolTableRecord
100
AcDbBlockTableRecord
  2
*D12
340
0
  0
BLOCK_RECORD
  5
7FA
330
1
100
AcDbSymbolTableRecord
100
AcDbBlockTableRecord
  2
*D13
340
0
  0
BLOCK_RECORD
  5
806
330
1
100
AcDbSymbolTableRecord
100
AcDbBlockTableRecord
  2
*D14
340
0
  0
BLOCK_RECORD
  5
828
330
1
100
AcDbSymbolTableRecord
100
AcDbBlockTableRecord
  2
*D15
340
0
  0
BLOCK_RECORD
  5
836
330
1
100
AcDbSymbolTableRecord
100
AcDbBlockTableRecord
  2
*D16
340
0
  0
ENDTAB
  0
ENDSEC
  0
SECTION
  2
BLOCKS
  0
BLOCK
  5
50
330
18
100
AcDbEntity
  8
0
100
AcDbBlockBegin
  2
*MODEL_SPACE
 70
     0
 10
0.0
 20
0.0
 30
0.0
  3
*MODEL_SPACE
  1

  0
ENDBLK
  5
51
330
18
100
AcDbEntity
  8
0
100
AcDbBlockEnd
  0
BLOCK
  5
4E
330
15
100
AcDbEntity
 67
     1
  8
0
100
AcDbBlockBegin
  2
*PAPER_SPACE
 70
     0
 10
0.0
 20
0.0
 30
0.0
  3
*PAPER_SPACE
  1

  0
ENDBLK
  5
4F
330
15
100
AcDbEntity
 67
     1
  8
0
100
AcDbBlockEnd
  0
BLOCK
  5
5EA
330
5E3
100
AcDbEntity
  8
0
100
AcDbBlockBegin
  2
CALCOMP_TECHJET720A3
 70
     0
 10
0.0
 20
0.0
 30
0.0
  3
CALCOMP_TECHJET720A3
  1

  0
LWPOLYLINE
  5
5E4
330
5E3
100
AcDbEntity
  8
ZWAKU
100
AcDbPolyline
 90
        4
 70
     1
 43
0.0
 10
0.0
 20
0.0
 10
0.0
 20
267.0
 10
370.0
 20
267.0
 10
370.0
 20
0.0
  0
ENDBLK
  5
5EB
330
5E3
100
AcDbEntity
  8
0
100
AcDbBlockEnd
  0
BLOCK
  5
978
330
60D
100
AcDbEntity
  8
0
100
AcDbBlockBegin
  2
*D1
 70
     1
 10
0.0
 20
0.0
 30
0.0
  3
*D1
  1

  0
LINE
  5
979
330
60D
100
AcDbEntity
  8
0
  6
ByBlock
100
AcDbLine
 10
6141.8572085819
 20
4657.64708382078
 30
0.0
 11
6639.442034487458
 21
4657.64708382078
 31
0.0
  0
LINE
  5
97A
330
60D
100
AcDbEntity
  8
0
  6
ByBlock
100
AcDbLine
 10
6470.457057499
 20
3627.64708382078
 30
0.0
 11
6639.442034487458
 21
3627.64708382078
 31
0.0
  0
LINE
  5
97B
330
60D
100
AcDbEntity
  8
0
  6
ByBlock
100
AcDbLine
 10
6619.442034487459
 20
4617.64708382078
 30
0.0
 11
6619.442034487459
 21
3667.64708382078
 31
0.0
  0
SOLID
  5
97C
330
60D
100
AcDbEntity
  8
0
  6
ByBlock
100
AcDbTrace
 10
6612.775367820792
 20
4617.64708382078
 30
0.0
 11
6626.108701154127
 21
4617.64708382078
 31
0.0
 12
6619.442034487459
 22
4657.64708382078
 32
0.0
 13
6619.442034487459
 23
4657.64708382078
 33
0.0
  0
SOLID
  5
97D
330
60D
100
AcDbEntity
  8
0
  6
ByBlock
100
AcDbTrace
 10
6612.775367820792
 20
3667.64708382078
 30
0.0
 11
6626.108701154127
 21
3667.64708382078
 31
0.0
 12
6619.442034487459
 22
3627.64708382078
 32
0.0
 13
6619.442034487459
 23
3627.64708382078
 33
0.0
  0
MTEXT
  5
97E
330
60D
100
AcDbEntity
  8
0
  6
ByBlock
100
AcDbMText
 10
6565.442034487459
 20
4142.64708382078
 30
0.0
 40
60.0
 41
0.0
 71
     5
 72
     5
  1
\A1;1030
  7
KANJI08
 11
0.0
 21
1.0
 31
0.0
 73
     1
 44
1.0
  0
POINT
  5
97F
330
60D
100
AcDbEntity
  8
DEFPOINTS
  6
ByBlock
 62
     0
100
AcDbPoint
 10
6121.8572085819
 20
4657.64708382078
 30
0.0
  0
POINT
  5
980
330
60D
100
AcDbEntity
  8
DEFPOINTS
  6
ByBlock
 62
     0
100
AcDbPoint
 10
6450.457057499
 20
3627.64708382078
 30
0.0
  0
POINT
  5
981
330
60D
100
AcDbEntity
  8
DEFPOINTS
  6
ByBlock
 62
     0
100
AcDbPoint
 10
6619.442034487459
 20
3627.64708382078
 30
0.0
  0
ENDBLK
  5
982
330
60D
100
AcDbEntity
  8
0
100
AcDbBlockEnd
  0
BLOCK
  5
983
330
619
100
AcDbEntity
  8
0
100
AcDbBlockBegin
  2
*D2
 70
     1
 10
0.0
 20
0.0
 30
0.0
  3
*D2
  1

  0
LINE
  5
984
330
619
100
AcDbEntity
  8
0
  6
ByBlock
100
AcDbLine
 10
6161.857208581899
 20
4657.64645812098
 30
0.0
 11
6765.137500576772
 21
4657.64645812098
 31
0.0
  0
LINE
  5
985
330
619
100
AcDbEntity
  8
0
  6
ByBlock
100
AcDbLine
 10
6291.8572085819
 20
3227.647089781179
 30
0.0
 11
6765.137500576772
 21
3227.647089781179
 31
0.0
  0
LINE
  5
986
330
619
100
AcDbEntity
  8
0
  6
ByBlock
100
AcDbLine
 10
6745.137500576773
 20
4617.64645812098
 30
0.0
 11
6745.137500576773
 21
3267.64708978118
 31
0.0
  0
SOLID
  5
987
330
619
100
AcDbEntity
  8
0
  6
ByBlock
100
AcDbTrace
 10
6738.470833910105
 20
4617.64645812098
 30
0.0
 11
6751.804167243439
 21
4617.64645812098
 31
0.0
 12
6745.137500576773
 22
4657.64645812098
 32
0.0
 13
6745.137500576773
 23
4657.64645812098
 33
0.0
  0
SOLID
  5
988
330
619
100
AcDbEntity
  8
0
  6
ByBlock
100
AcDbTrace
 10
6738.470833910105
 20
3267.64708978118
 30
0.0
 11
6751.804167243439
 21
3267.64708978118
 31
0.0
 12
6745.137500576773
 22
3227.647089781179
 32
0.0
 13
6745.137500576773
 23
3227.647089781179
 33
0.0
  0
MTEXT
  5
989
330
619
100
AcDbEntity
  8
0
  6
ByBlock
100
AcDbMText
 10
6691.137500576772
 20
3942.646773951079
 30
0.0
 40
60.0
 41
0.0
 71
     5
 72
     5
  1
\A1;1430
  7
KANJI08
 11
0.0
 21
1.0
 31
0.0
 73
     1
 44
1.0
  0
POINT
  5
98A
330
619
100
AcDbEntity
  8
DEFPOINTS
  6
ByBlock
 62
     0
100
AcDbPoint
 10
6141.8572085819
 20
4657.64645812098
 30
0.0
  0
POINT
  5
98B
330
619
100
AcDbEntity
  8
DEFPOINTS
  6
ByBlock
 62
     0
100
AcDbPoint
 10
6271.857208581899
 20
3227.647089781179
 30
0.0
  0
POINT
  5
98C
330
619
100
AcDbEntity
  8
DEFPOINTS
  6
ByBlock
 62
     0
100
AcDbPoint
 10
6745.137500576773
 20
3227.647089781179
 30
0.0
  0
ENDBLK
  5
98D
330
619
100
AcDbEntity
  8
0
100
AcDbBlockEnd
  0
BLOCK
  5
96D
330
631
100
AcDbEntity
  8
0
100
AcDbBlockBegin
  2
*D3
 70
     1
 10
0.0
 20
0.0
 30
0.0
  3
*D3
  1

  0
LINE
  5
96E
330
631
100
AcDbEntity
  8
0
  6
ByBlock
100
AcDbLine
 10
6450.457057499
 20
3627.64708382078
 30
0.0
 11
6639.442034487458
 21
3627.64708382078
 31
0.0
  0
LINE
  5
96F
330
631
100
AcDbEntity
  8
0
  6
ByBlock
100
AcDbLine
 10
6291.8572085819
 20
3227.647089781179
 30
0.0
 11
6639.442034487458
 21
3227.647089781179
 31
0.0
  0
LINE
  5
970
330
631
100
AcDbEntity
  8
0
  6
ByBlock
100
AcDbLine
 10
6619.442034487459
 20
3587.64708382078
 30
0.0
 11
6619.442034487459
 21
3267.64708978118
 31
0.0
  0
SOLID
  5
971
330
631
100
AcDbEntity
  8
0
  6
ByBlock
100
AcDbTrace
 10
6612.775367820792
 20
3587.64708382078
 30
0.0
 11
6626.108701154127
 21
3587.64708382078
 31
0.0
 12
6619.442034487459
 22
3627.64708382078
 32
0.0
 13
6619.442034487459
 23
3627.64708382078
 33
0.0
  0
SOLID
  5
972
330
631
100
AcDbEntity
  8
0
  6
ByBlock
100
AcDbTrace
 10
6612.775367820792
 20
3267.64708978118
 30
0.0
 11
6626.108701154127
 21
3267.64708978118
 31
0.0
 12
6619.442034487459
 22
3227.647089781179
 32
0.0
 13
6619.442034487459
 23
3227.647089781179
 33
0.0
  0
MTEXT
  5
973
330
631
100
AcDbEntity
  8
0
  6
ByBlock
100
AcDbMText
 10
6565.442034487459
 20
3427.64708680098
 30
0.0
 40
60.0
 41
0.0
 71
     5
 72
     5
  1
\A1;400
  7
KANJI08
 11
0.0
 21
1.0
 31
0.0
 73
     1
 44
1.0
  0
POINT
  5
974
330
631
100
AcDbEntity
  8
DEFPOINTS
  6
ByBlock
 62
     0
100
AcDbPoint
 10
6430.457057499001
 20
3627.64708382078
 30
0.0
  0
POINT
  5
975
330
631
100
AcDbEntity
  8
DEFPOINTS
  6
ByBlock
 62
     0
100
AcDbPoint
 10
6271.857208581899
 20
3227.647089781179
 30
0.0
  0
POINT
  5
976
330
631
100
AcDbEntity
  8
DEFPOINTS
  6
ByBlock
 62
     0
100
AcDbPoint
 10
6619.442034487459
 20
3227.647089781179
 30
0.0
  0
ENDBLK
  5
977
330
631
100
AcDbEntity
  8
0
100
AcDbBlockEnd
  0
BLOCK
  5
957
330
67E
100
AcDbEntity
  8
0
100
AcDbBlockBegin
  2
*D4
 70
     1
 10
0.0
 20
0.0
 30
0.0
  3
*D4
  1

  0
LINE
  5
958
330
67E
100
AcDbEntity
  8
0
  6
ByBlock
100
AcDbLine
 10
5971.8572085819
 20
3207.64708978118
 30
0.0
 11
5971.8572085819
 21
3042.333662712326
 31
0.0
  0
LINE
  5
959
330
67E
100
AcDbEntity
  8
0
  6
ByBlock
100
AcDbLine
 10
6271.857208581899
 20
3207.64708978118
 30
0.0
 11
6271.857208581899
 21
3042.333662712326
 31
0.0
  0
LINE
  5
95A
330
67E
100
AcDbEntity
  8
0
  6
ByBlock
100
AcDbLine
 10
6011.8572085819
 20
3062.333662712326
 30
0.0
 11
6231.857208581899
 21
3062.333662712326
 31
0.0
  0
MTEXT
  5
95B
330
67E
100
AcDbEntity
  8
0
  6
ByBlock
100
AcDbMText
 10
6121.8572085819
 20
3118.360854935237
 30
0.0
 40
60.0
 41
0.0
 71
     5
 72
     5
  1
\A1;□300
  7
KANJI08
 73
     1
 44
1.0
  0
SOLID
  5
95C
330
67E
100
AcDbEntity
  8
0
  6
ByBlock
100
AcDbTrace
 10
6011.8572085819
 20
3069.000329378992
 30
0.0
 11
6011.8572085819
 21
3055.66699604566
 31
0.0
 12
5971.8572085819
 22
3062.333662712326
 32
0.0
 13
5971.8572085819
 23
3062.333662712326
 33
0.0
  0
SOLID
  5
95D
330
67E
100
AcDbEntity
  8
0
  6
ByBlock
100
AcDbTrace
 10
6231.857208581899
 20
3069.000329378992
 30
0.0
 11
6231.857208581899
 21
3055.66699604566
 31
0.0
 12
6271.857208581899
 22
3062.333662712326
 32
0.0
 13
6271.857208581899
 23
3062.333662712326
 33
0.0
  0
POINT
  5
95E
330
67E
100
AcDbEntity
  8
DEFPOINTS
  6
ByBlock
 62
     0
100
AcDbPoint
 10
5971.8572085819
 20
3227.647089781179
 30
0.0
  0
POINT
  5
95F
330
67E
100
AcDbEntity
  8
DEFPOINTS
  6
ByBlock
 62
     0
100
AcDbPoint
 10
6271.857208581899
 20
3227.647089781179
 30
0.0
  0
POINT
  5
960
330
67E
100
AcDbEntity
  8
DEFPOINTS
  6
ByBlock
 62
     0
100
AcDbPoint
 10
6271.857208581899
 20
3062.333662712326
 30
0.0
  0
ENDBLK
  5
961
330
67E
100
AcDbEntity
  8
0
100
AcDbBlockEnd
  0
BLOCK
  5
94C
330
6B9
100
AcDbEntity
  8
0
100
AcDbBlockBegin
  2
*D5
 70
     1
 10
0.0
 20
0.0
 30
0.0
  3
*D5
  1

  0
LINE
  5
94D
330
6B9
100
AcDbEntity
  8
0
  6
ByBlock
100
AcDbLine
 10
1021.857742341499
 20
4729.508877030427
 30
0.0
 11
1021.857742341499
 21
4957.020165121203
 31
0.0
  0
LINE
  5
94E
330
6B9
100
AcDbEntity
  8
0
  6
ByBlock
100
AcDbLine
 10
3021.857254775499
 20
4729.508877030427
 30
0.0
 11
3021.857254775499
 21
4957.020165121203
 31
0.0
  0
LINE
  5
94F
330
6B9
100
AcDbEntity
  8
0
  6
ByBlock
100
AcDbLine
 10
1061.857742341499
 20
4937.020165121203
 30
0.0
 11
2981.857254775499
 21
4937.020165121203
 31
0.0
  0
SOLID
  5
950
330
6B9
100
AcDbEntity
  8
0
  6
ByBlock
100
AcDbTrace
 10
1061.857742341499
 20
4943.68683178787
 30
0.0
 11
1061.857742341499
 21
4930.353498454536
 31
0.0
 12
1021.857742341499
 22
4937.020165121203
 32
0.0
 13
1021.857742341499
 23
4937.020165121203
 33
0.0
  0
SOLID
  5
951
330
6B9
100
AcDbEntity
  8
0
  6
ByBlock
100
AcDbTrace
 10
2981.857254775499
 20
4943.68683178787
 30
0.0
 11
2981.857254775499
 21
4930.353498454536
 31
0.0
 12
3021.857254775499
 22
4937.020165121203
 32
0.0
 13
3021.857254775499
 23
4937.020165121203
 33
0.0
  0
MTEXT
  5
952
330
6B9
100
AcDbEntity
  8
0
  6
ByBlock
100
AcDbMText
 10
2021.857498558499
 20
4991.020165121202
 30
0.0
 40
60.0
 41
0.0
 71
     5
 72
     5
  1
\A1;2000
  7
KANJI08
 73
     1
 44
1.0
  0
POINT
  5
953
330
6B9
100
AcDbEntity
  8
DEFPOINTS
  6
ByBlock
 62
     0
100
AcDbPoint
 10
1021.857742341499
 20
4709.508877030427
 30
0.0
  0
POINT
  5
954
330
6B9
100
AcDbEntity
  8
DEFPOINTS
  6
ByBlock
 62
     0
100
AcDbPoint
 10
3021.857254775499
 20
4709.508877030427
 30
0.0
  0
POINT
  5
955
330
6B9
100
AcDbEntity
  8
DEFPOINTS
  6
ByBlock
 62
     0
100
AcDbPoint
 10
3021.857254775499
 20
4937.020165121203
 30
0.0
  0
ENDBLK
  5
956
330
6B9
100
AcDbEntity
  8
0
100
AcDbBlockEnd
  0
BLOCK
  5
941
330
6C7
100
AcDbEntity
  8
0
100
AcDbBlockBegin
  2
*D6
 70
     1
 10
0.0
 20
0.0
 30
0.0
  3
*D6
  1

  0
LINE
  5
942
330
6C7
100
AcDbEntity
  8
0
  6
ByBlock
100
AcDbLine
 10
3021.857254775499
 20
4729.508877030427
 30
0.0
 11
3021.857254775499
 21
4957.020165121203
 31
0.0
  0
LINE
  5
943
330
6C7
100
AcDbEntity
  8
0
  6
ByBlock
100
AcDbLine
 10
5021.8567672095
 20
4729.508877030427
 30
0.0
 11
5021.8567672095
 21
4957.020165121203
 31
0.0
  0
LINE
  5
944
330
6C7
100
AcDbEntity
  8
0
  6
ByBlock
100
AcDbLine
 10
3061.857254775499
 20
4937.020165121203
 30
0.0
 11
4981.856767209499
 21
4937.020165121203
 31
0.0
  0
SOLID
  5
945
330
6C7
100
AcDbEntity
  8
0
  6
ByBlock
100
AcDbTrace
 10
3061.857254775499
 20
4943.68683178787
 30
0.0
 11
3061.857254775499
 21
4930.353498454536
 31
0.0
 12
3021.857254775499
 22
4937.020165121203
 32
0.0
 13
3021.857254775499
 23
4937.020165121203
 33
0.0
  0
SOLID
  5
946
330
6C7
100
AcDbEntity
  8
0
  6
ByBlock
100
AcDbTrace
 10
4981.856767209499
 20
4943.68683178787
 30
0.0
 11
4981.856767209499
 21
4930.353498454536
 31
0.0
 12
5021.8567672095
 22
4937.020165121203
 32
0.0
 13
5021.8567672095
 23
4937.020165121203
 33
0.0
  0
MTEXT
  5
947
330
6C7
100
AcDbEntity
  8
0
  6
ByBlock
100
AcDbMText
 10
4021.8570109925
 20
4991.020165121202
 30
0.0
 40
60.0
 41
0.0
 71
     5
 72
     5
  1
\A1;2000
  7
KANJI08
 73
     1
 44
1.0
  0
POINT
  5
948
330
6C7
100
AcDbEntity
  8
DEFPOINTS
  6
ByBlock
 62
     0
100
AcDbPoint
 10
3021.857254775499
 20
4709.508877030427
 30
0.0
  0
POINT
  5
949
330
6C7
100
AcDbEntity
  8
DEFPOINTS
  6
ByBlock
 62
     0
100
AcDbPoint
 10
5021.8567672095
 20
4709.508877030427
 30
0.0
  0
POINT
  5
94A
330
6C7
100
AcDbEntity
  8
DEFPOINTS
  6
ByBlock
 62
     0
100
AcDbPoint
 10
5021.8567672095
 20
4937.020165121203
 30
0.0
  0
ENDBLK
  5
94B
330
6C7
100
AcDbEntity
  8
0
100
AcDbBlockEnd
  0
BLOCK
  5
9D0
330
6D3
100
AcDbEntity
  8
0
100
AcDbBlockBegin
  2
*D7
 70
     1
 10
0.0
 20
0.0
 30
0.0
  3
*D7
  1

  0
LINE
  5
9D1
330
6D3
100
AcDbEntity
  8
0
  6
ByBlock
100
AcDbLine
 10
6051.9573072797
 20
4650.268571923485
 30
0.0
 11
6051.9573072797
 21
4775.516643787591
 31
0.0
  0
LINE
  5
9D2
330
6D3
100
AcDbEntity
  8
0
  6
ByBlock
100
AcDbLine
 10
6191.7571098841
 20
4650.268571923485
 30
0.0
 11
6191.7571098841
 21
4775.516643787591
 31
0.0
  0
LINE
  5
9D3
330
6D3
100
AcDbEntity
  8
0
  6
ByBlock
100
AcDbLine
 10
6091.957307279699
 20
4755.516643787592
 30
0.0
 11
6151.7571098841
 21
4755.516643787592
 31
0.0
  0
MTEXT
  5
9D4
330
6D3
100
AcDbEntity
  8
0
  6
ByBlock
100
AcDbMText
 10
6099.724722359077
 20
4833.483037179648
 30
0.0
 40
60.0
 41
0.0
 71
     5
 72
     5
  1
\A1;φ139.8
  7
KANJI08
 73
     1
 44
1.0
  0
SOLID
  5
9D5
330
6D3
100
AcDbEntity
  8
0
  6
ByBlock
100
AcDbTrace
 10
6091.957307279699
 20
4762.183310454258
 30
0.0
 11
6091.957307279699
 21
4748.849977120925
 31
0.0
 12
6051.9573072797
 22
4755.516643787592
 32
0.0
 13
6051.9573072797
 23
4755.516643787592
 33
0.0
  0
SOLID
  5
9D6
330
6D3
100
AcDbEntity
  8
0
  6
ByBlock
100
AcDbTrace
 10
6151.7571098841
 20
4762.183310454258
 30
0.0
 11
6151.7571098841
 21
4748.849977120925
 31
0.0
 12
6191.7571098841
 22
4755.516643787592
 32
0.0
 13
6191.7571098841
 23
4755.516643787592
 33
0.0
  0
POINT
  5
9D7
330
6D3
100
AcDbEntity
  8
DEFPOINTS
  6
ByBlock
 62
     0
100
AcDbPoint
 10
6051.9573072797
 20
4630.268571923485
 30
0.0
  0
POINT
  5
9D8
330
6D3
100
AcDbEntity
  8
DEFPOINTS
  6
ByBlock
 62
     0
100
AcDbPoint
 10
6191.7571098841
 20
4630.268571923485
 30
0.0
  0
POINT
  5
9D9
330
6D3
100
AcDbEntity
  8
DEFPOINTS
  6
ByBlock
 62
     0
100
AcDbPoint
 10
6191.7571098841
 20
4755.516643787592
 30
0.0
  0
ENDBLK
  5
9DA
330
6D3
100
AcDbEntity
  8
0
100
AcDbBlockEnd
  0
BLOCK
  5
9C5
330
708
100
AcDbEntity
  8
0
100
AcDbBlockBegin
  2
*D8
 70
     1
 10
0.0
 20
0.0
 30
0.0
  3
*D8
  1

  0
LINE
  5
9C6
330
708
100
AcDbEntity
  8
0
  6
ByBlock
100
AcDbLine
 10
6161.857208581899
 20
4657.64645812098
 30
0.0
 11
6506.359766626999
 21
4657.64645812098
 31
0.0
  0
LINE
  5
9C7
330
708
100
AcDbEntity
  8
0
  6
ByBlock
100
AcDbLine
 10
6231.7571098841
 20
4527.64646005818
 30
0.0
 11
6506.359766626999
 21
4527.64646005818
 31
0.0
  0
LINE
  5
9C8
330
708
100
AcDbEntity
  8
0
  6
ByBlock
100
AcDbLine
 10
6486.359766627
 20
4617.64645812098
 30
0.0
 11
6486.359766627
 21
4567.64646005818
 31
0.0
  0
MTEXT
  5
9C9
330
708
100
AcDbEntity
  8
0
  6
ByBlock
100
AcDbMText
 10
6431.647529459758
 20
4590.412261048198
 30
0.0
 40
60.0
 41
0.0
 71
     5
 72
     5
  1
\A1;130
  7
KANJI08
 11
0.0
 21
1.0
 31
0.0
 73
     1
 44
1.0
  0
SOLID
  5
9CA
330
708
100
AcDbEntity
  8
0
  6
ByBlock
100
AcDbTrace
 10
6479.693099960333
 20
4617.64645812098
 30
0.0
 11
6493.026433293668
 21
4617.64645812098
 31
0.0
 12
6486.359766627
 22
4657.64645812098
 32
0.0
 13
6486.359766627
 23
4657.64645812098
 33
0.0
  0
SOLID
  5
9CB
330
708
100
AcDbEntity
  8
0
  6
ByBlock
100
AcDbTrace
 10
6479.693099960333
 20
4567.64646005818
 30
0.0
 11
6493.026433293668
 21
4567.64646005818
 31
0.0
 12
6486.359766627
 22
4527.64646005818
 32
0.0
 13
6486.359766627
 23
4527.64646005818
 33
0.0
  0
POINT
  5
9CC
330
708
100
AcDbEntity
  8
DEFPOINTS
  6
ByBlock
 62
     0
100
AcDbPoint
 10
6141.8572085819
 20
4657.64645812098
 30
0.0
  0
POINT
  5
9CD
330
708
100
AcDbEntity
  8
DEFPOINTS
  6
ByBlock
 62
     0
100
AcDbPoint
 10
6211.7571098841
 20
4527.64646005818
 30
0.0
  0
POINT
  5
9CE
330
708
100
AcDbEntity
  8
DEFPOINTS
  6
ByBlock
 62
     0
100
AcDbPoint
 10
6486.359766627
 20
4527.64646005818
 30
0.0
  0
ENDBLK
  5
9CF
330
708
100
AcDbEntity
  8
0
100
AcDbBlockEnd
  0
BLOCK
  5
962
330
716
100
AcDbEntity
  8
0
100
AcDbBlockBegin
  2
*D9
 70
     1
 10
0.0
 20
0.0
 30
0.0
  3
*D9
  1

  0
LINE
  5
963
330
716
100
AcDbEntity
  8
0
  6
ByBlock
100
AcDbLine
 10
6141.8572085819
 20
4527.64646005818
 30
0.0
 11
6506.359766626999
 21
4527.64646005818
 31
0.0
  0
LINE
  5
964
330
716
100
AcDbEntity
  8
0
  6
ByBlock
100
AcDbLine
 10
6450.457057499
 20
3627.64708382078
 30
0.0
 11
6506.359766626999
 21
3627.64708382078
 31
0.0
  0
LINE
  5
965
330
716
100
AcDbEntity
  8
0
  6
ByBlock
100
AcDbLine
 10
6486.359766627
 20
4487.64646005818
 30
0.0
 11
6486.359766627
 21
3667.64708382078
 31
0.0
  0
SOLID
  5
966
330
716
100
AcDbEntity
  8
0
  6
ByBlock
100
AcDbTrace
 10
6479.693099960333
 20
4487.64646005818
 30
0.0
 11
6493.026433293668
 21
4487.64646005818
 31
0.0
 12
6486.359766627
 22
4527.64646005818
 32
0.0
 13
6486.359766627
 23
4527.64646005818
 33
0.0
  0
SOLID
  5
967
330
716
100
AcDbEntity
  8
0
  6
ByBlock
100
AcDbTrace
 10
6479.693099960333
 20
3667.64708382078
 30
0.0
 11
6493.026433293668
 21
3667.64708382078
 31
0.0
 12
6486.359766627
 22
3627.64708382078
 32
0.0
 13
6486.359766627
 23
3627.64708382078
 33
0.0
  0
MTEXT
  5
968
330
716
100
AcDbEntity
  8
0
  6
ByBlock
100
AcDbMText
 10
6432.359766627
 20
4077.64677193948
 30
0.0
 40
60.0
 41
0.0
 71
     5
 72
     5
  1
\A1;900
  7
KANJI08
 11
0.0
 21
1.0
 31
0.0
 73
     1
 44
1.0
  0
POINT
  5
969
330
716
100
AcDbEntity
  8
DEFPOINTS
  6
ByBlock
 62
     0
100
AcDbPoint
 10
6121.8572085819
 20
4527.64646005818
 30
0.0
  0
POINT
  5
96A
330
716
100
AcDbEntity
  8
DEFPOINTS
  6
ByBlock
 62
     0
100
AcDbPoint
 10
6430.457057499001
 20
3627.64708382078
 30
0.0
  0
POINT
  5
96B
330
716
100
AcDbEntity
  8
DEFPOINTS
  6
ByBlock
 62
     0
100
AcDbPoint
 10
6486.359766627
 20
3627.64708382078
 30
0.0
  0
ENDBLK
  5
96C
330
716
100
AcDbEntity
  8
0
100
AcDbBlockEnd
  0
BLOCK
  5
77B
330
76E
100
AcDbEntity
  8
0
100
AcDbBlockBegin
  2
B0040021
 70
     0
 10
0.0
 20
0.0
 30
0.0
  3
B0040021
  1

  0
LINE
  5
76F
330
76E
100
AcDbEntity
  8
HATCH
100
AcDbLine
 10
90.53459680887726
 20
-7.500000000000227
 30
0.0
 11
117.0518952133159
 21
-34.01729840443886
 31
0.0
  0
LINE
  5
770
330
76E
100
AcDbEntity
  8
HATCH
100
AcDbLine
 10
98.03459680887726
 20
0.0
 30
0.0
 11
132.0518952133159
 21
-34.01729840443886
 31
0.0
  0
LINE
  5
771
330
76E
100
AcDbEntity
  8
HATCH
100
AcDbLine
 10
22.5
 20
-7.500000000000227
 30
0.0
 11
49.01729840443863
 21
-34.01729840443886
 31
0.0
  0
LINE
  5
772
330
76E
100
AcDbEntity
  8
HATCH
100
AcDbLine
 10
30.0
 20
0.0
 30
0.0
 11
-4.017298404438633
 21
-34.01729840443886
 31
0.0
  0
LINE
  5
773
330
76E
100
AcDbEntity
  8
HATCH
100
AcDbLine
 10
15.0
 20
-15.00000000000022
 30
0.0
 11
34.01729840443863
 21
-34.01729840443886
 31
0.0
  0
LINE
  5
774
330
76E
100
AcDbEntity
  8
HATCH
100
AcDbLine
 10
0.0
 20
0.0
 30
0.0
 11
-34.01729840443863
 21
-34.01729840443886
 31
0.0
  0
LINE
  5
775
330
76E
100
AcDbEntity
  8
HATCH
100
AcDbLine
 10
15.0
 20
0.0
 30
0.0
 11
-19.01729840443863
 21
-34.01729840443886
 31
0.0
  0
LINE
  5
776
330
76E
100
AcDbEntity
  8
HATCH
100
AcDbLine
 10
83.03459680887726
 20
0.0
 30
0.0
 11
56.51729840443886
 21
-26.51729840443863
 31
0.0
  0
LINE
  5
777
330
76E
100
AcDbEntity
  8
HATCH
100
AcDbLine
 10
98.03459680887726
 20
0.0
 30
0.0
 11
64.01729840443863
 21
-34.01729840443886
 31
0.0
  0
LINE
  5
778
330
76E
100
AcDbEntity
  8
HATCH
100
AcDbLine
 10
68.03459680887726
 20
0.0
 30
0.0
 11
49.01729840443886
 21
-19.01729840443863
 31
0.0
  0
LINE
  5
779
330
76E
100
AcDbEntity
  8
HATCH
100
AcDbLine
 10
30.0
 20
0.0
 30
0.0
 11
64.01729840443863
 21
-34.01729840443886
 31
0.0
  0
LINE
  5
77A
330
76E
100
AcDbEntity
  8
HATCH
100
AcDbLine
 10
83.03459680887726
 20
-15.00000000000022
 30
0.0
 11
102.0518952133159
 21
-34.01729840443886
 31
0.0
  0
ENDBLK
  5
77C
330
76E
100
AcDbEntity
  8
0
100
AcDbBlockEnd
  0
BLOCK
  5
7BD
330
7BC
100
AcDbEntity
  8
0
100
AcDbBlockBegin
  2
*X11
 70
     1
 10
0.0
 20
0.0
 30
0.0
  3
*X11
  1

  0
LINE
  5
7BF
330
7BC
100
AcDbEntity
  8
0
 62
     0
100
AcDbLine
 10
5971.8572085819
 20
3320.206779132347
 30
0.0
 11
6051.9573072797
 21
3400.306877830146
 31
0.0
  0
LINE
  5
7C0
330
7BC
100
AcDbEntity
  8
0
 62
     0
100
AcDbLine
 10
6191.7571098841
 20
3540.106680434547
 30
0.0
 11
6271.857208581899
 21
3620.206779132346
 31
0.0
  0
LINE
  5
7C1
330
7BC
100
AcDbEntity
  8
0
 62
     0
100
AcDbLine
 10
5971.8572085819
 20
3496.983474428984
 30
0.0
 11
6051.9573072797
 21
3577.083573126783
 31
0.0
  0
LINE
  5
7C2
330
7BC
100
AcDbEntity
  8
0
 62
     0
100
AcDbLine
 10
6191.7571098841
 20
3363.32998513791
 30
0.0
 11
6271.857208581899
 21
3443.430083835709
 31
0.0
  0
LINE
  5
7C3
330
7BC
100
AcDbEntity
  8
0
 62
     0
100
AcDbLine
 10
6232.850909824007
 20
3227.647089781179
 30
0.0
 11
6271.857208581899
 21
3266.653388539072
 31
0.0
  0
LINE
  5
7C4
330
7BC
100
AcDbEntity
  8
0
 62
     0
100
AcDbLine
 10
5971.8572085819
 20
3342.303866044427
 30
0.0
 11
6051.9573072797
 21
3422.403964742226
 31
0.0
  0
LINE
  5
7C5
330
7BC
100
AcDbEntity
  8
0
 62
     0
100
AcDbLine
 10
6191.7571098841
 20
3562.203767346628
 30
0.0
 11
6257.200426358252
 21
3627.64708382078
 31
0.0
  0
LINE
  5
7C6
330
7BC
100
AcDbEntity
  8
0
 62
     0
100
AcDbLine
 10
5971.8572085819
 20
3519.080561341064
 30
0.0
 11
6051.9573072797
 21
3599.180660038863
 31
0.0
  0
LINE
  5
7C7
330
7BC
100
AcDbEntity
  8
0
 62
     0
100
AcDbLine
 10
6033.97712761529
 20
3227.647089781179
 30
0.0
 11
6051.9573072797
 21
3245.627269445589
 31
0.0
  0
LINE
  5
7C8
330
7BC
100
AcDbEntity
  8
0
 62
     0
100
AcDbLine
 10
6191.7571098841
 20
3385.42707204999
 30
0.0
 11
6271.857208581899
 21
3465.527170747789
 31
0.0
  0
LINE
  5
7C9
330
7BC
100
AcDbEntity
  8
0
 62
     0
100
AcDbLine
 10
6210.753822911927
 20
3227.647089781179
 30
0.0
 11
6271.857208581899
 21
3288.750475451152
 31
0.0
  0
LINE
  5
7CA
330
7BC
100
AcDbEntity
  8
0
 62
     0
100
AcDbLine
 10
5971.8572085819
 20
3364.400952956506
 30
0.0
 11
6051.9573072797
 21
3444.501051654305
 31
0.0
  0
LINE
  5
7CB
330
7BC
100
AcDbEntity
  8
0
 62
     0
100
AcDbLine
 10
6191.757109884101
 20
3584.300854258708
 30
0.0
 11
6235.103339446173
 21
3627.64708382078
 31
0.0
  0
LINE
  5
7CC
330
7BC
100
AcDbEntity
  8
0
 62
     0
100
AcDbLine
 10
5971.8572085819
 20
3541.177648253142
 30
0.0
 11
6051.9573072797
 21
3621.277746950942
 31
0.0
  0
LINE
  5
7CD
330
7BC
100
AcDbEntity
  8
0
 62
     0
100
AcDbLine
 10
6011.880040703211
 20
3227.647089781179
 30
0.0
 11
6051.9573072797
 21
3267.724356357669
 31
0.0
  0
LINE
  5
7CE
330
7BC
100
AcDbEntity
  8
0
 62
     0
100
AcDbLine
 10
6191.7571098841
 20
3407.52415896207
 30
0.0
 11
6271.857208581899
 21
3487.624257659869
 31
0.0
  0
LINE
  5
7CF
330
7BC
100
AcDbEntity
  8
0
 62
     0
100
AcDbLine
 10
6191.7571098841
 20
3230.747463665432
 30
0.0
 11
6271.857208581899
 21
3310.847562363232
 31
0.0
  0
ENDBLK
  5
7D0
330
7BC
100
AcDbEntity
  8
0
100
AcDbBlockEnd
  0
BLOCK
  5
98E
330
7EE
100
AcDbEntity
  8
0
100
AcDbBlockBegin
  2
*D12
 70
     1
 10
0.0
 20
0.0
 30
0.0
  3
*D12
  1

  0
LINE
  5
98F
330
7EE
100
AcDbEntity
  8
0
  6
ByBlock
100
AcDbLine
 10
1220.237904702695
 20
2755.669636679099
 30
0.0
 11
2353.858472962913
 21
2755.669636679099
 31
0.0
  0
LINE
  5
990
330
7EE
100
AcDbEntity
  8
0
  6
ByBlock
100
AcDbLine
 10
1530.952011400795
 20
695.7693377767999
 30
0.0
 11
2353.858472962913
 21
695.7693377767999
 31
0.0
  0
LINE
  5
991
330
7EE
100
AcDbEntity
  8
0
  6
ByBlock
100
AcDbLine
 10
2333.858472962913
 20
2715.6696366791
 30
0.0
 11
2333.858472962913
 21
735.7693377767999
 31
0.0
  0
SOLID
  5
992
330
7EE
100
AcDbEntity
  8
0
  6
ByBlock
100
AcDbTrace
 10
2327.191806296247
 20
2715.6696366791
 30
0.0
 11
2340.52513962958
 21
2715.6696366791
 31
0.0
 12
2333.858472962913
 22
2755.669636679099
 32
0.0
 13
2333.858472962913
 23
2755.669636679099
 33
0.0
  0
SOLID
  5
993
330
7EE
100
AcDbEntity
  8
0
  6
ByBlock
100
AcDbTrace
 10
2327.191806296247
 20
735.7693377767999
 30
0.0
 11
2340.52513962958
 21
735.7693377767999
 31
0.0
 12
2333.858472962913
 22
695.7693377767999
 32
0.0
 13
2333.858472962913
 23
695.7693377767999
 33
0.0
  0
MTEXT
  5
994
330
7EE
100
AcDbEntity
  8
0
  6
ByBlock
100
AcDbMText
 10
2279.858472962913
 20
1725.71948722795
 30
0.0
 40
60.0
 41
0.0
 71
     5
 72
     5
  1
\A1;1030
  7
KANJI08
 11
0.0
 21
1.0
 31
0.0
 73
     1
 44
1.0
  0
POINT
  5
995
330
7EE
100
AcDbEntity
  8
DEFPOINTS
  6
ByBlock
 62
     0
100
AcDbPoint
 10
1200.237904702695
 20
2755.669636679099
 30
0.0
  0
POINT
  5
996
330
7EE
100
AcDbEntity
  8
DEFPOINTS
  6
ByBlock
 62
     0
100
AcDbPoint
 10
1510.952011400795
 20
695.7693377767999
 30
0.0
  0
POINT
  5
997
330
7EE
100
AcDbEntity
  8
DEFPOINTS
  6
ByBlock
 62
     0
100
AcDbPoint
 10
2333.858472962913
 20
695.7693377767999
 30
0.0
  0
ENDBLK
  5
998
330
7EE
100
AcDbEntity
  8
0
100
AcDbBlockEnd
  0
BLOCK
  5
999
330
7FA
100
AcDbEntity
  8
0
100
AcDbBlockBegin
  2
*D13
 70
     1
 10
0.0
 20
0.0
 30
0.0
  3
*D13
  1

  0
LINE
  5
99A
330
7FA
100
AcDbEntity
  8
0
  6
ByBlock
100
AcDbLine
 10
1309.337939996095
 20
2615.6696387653
 30
0.0
 11
2236.565689066213
 21
2615.6696387653
 31
0.0
  0
LINE
  5
99B
330
7FA
100
AcDbEntity
  8
0
  6
ByBlock
100
AcDbLine
 10
1530.952011400795
 20
695.7693377767999
 30
0.0
 11
2236.565689066213
 21
695.7693377767999
 31
0.0
  0
LINE
  5
99C
330
7FA
100
AcDbEntity
  8
0
  6
ByBlock
100
AcDbLine
 10
2216.565689066213
 20
2575.6696387653
 30
0.0
 11
2216.565689066213
 21
735.7693377767999
 31
0.0
  0
SOLID
  5
99D
330
7FA
100
AcDbEntity
  8
0
  6
ByBlock
100
AcDbTrace
 10
2209.899022399546
 20
2575.6696387653
 30
0.0
 11
2223.232355732879
 21
2575.6696387653
 31
0.0
 12
2216.565689066213
 22
2615.6696387653
 32
0.0
 13
2216.565689066213
 23
2615.6696387653
 33
0.0
  0
SOLID
  5
99E
330
7FA
100
AcDbEntity
  8
0
  6
ByBlock
100
AcDbTrace
 10
2209.899022399546
 20
735.7693377767999
 30
0.0
 11
2223.232355732879
 21
735.7693377767999
 31
0.0
 12
2216.565689066213
 22
695.7693377767999
 32
0.0
 13
2216.565689066213
 23
695.7693377767999
 33
0.0
  0
MTEXT
  5
99F
330
7FA
100
AcDbEntity
  8
0
  6
ByBlock
100
AcDbMText
 10
2162.565689066213
 20
1655.71948827105
 30
0.0
 40
60.0
 41
0.0
 71
     5
 72
     5
  1
\A1;960
  7
KANJI08
 11
0.0
 21
1.0
 31
0.0
 73
     1
 44
1.0
  0
POINT
  5
9A0
330
7FA
100
AcDbEntity
  8
DEFPOINTS
  6
ByBlock
 62
     0
100
AcDbPoint
 10
1289.337939996095
 20
2615.6696387653
 30
0.0
  0
POINT
  5
9A1
330
7FA
100
AcDbEntity
  8
DEFPOINTS
  6
ByBlock
 62
     0
100
AcDbPoint
 10
1510.952011400795
 20
695.7693377767999
 30
0.0
  0
POINT
  5
9A2
330
7FA
100
AcDbEntity
  8
DEFPOINTS
  6
ByBlock
 62
     0
100
AcDbPoint
 10
2216.565689066213
 20
695.7693377767999
 30
0.0
  0
ENDBLK
  5
9A3
330
7FA
100
AcDbEntity
  8
0
100
AcDbBlockEnd
  0
BLOCK
  5
9A4
330
806
100
AcDbEntity
  8
0
100
AcDbBlockBegin
  2
*D14
 70
     1
 10
0.0
 20
0.0
 30
0.0
  3
*D14
  1

  0
LINE
  5
9A5
330
806
100
AcDbEntity
  8
0
  6
ByBlock
100
AcDbLine
 10
1293.337879199295
 20
2495.769310954699
 30
0.0
 11
2097.363420632613
 21
2495.769310954699
 31
0.0
  0
LINE
  5
9A6
330
806
100
AcDbEntity
  8
0
  6
ByBlock
100
AcDbLine
 10
1530.952011400795
 20
695.7693377767999
 30
0.0
 11
2097.363420632613
 21
695.7693377767999
 31
0.0
  0
LINE
  5
9A7
330
806
100
AcDbEntity
  8
0
  6
ByBlock
100
AcDbLine
 10
2077.363420632613
 20
2455.7693109547
 30
0.0
 11
2077.363420632613
 21
735.7693377767999
 31
0.0
  0
SOLID
  5
9A8
330
806
100
AcDbEntity
  8
0
  6
ByBlock
100
AcDbTrace
 10
2070.696753965946
 20
2455.7693109547
 30
0.0
 11
2084.03008729928
 21
2455.7693109547
 31
0.0
 12
2077.363420632613
 22
2495.769310954699
 32
0.0
 13
2077.363420632613
 23
2495.769310954699
 33
0.0
  0
SOLID
  5
9A9
330
806
100
AcDbEntity
  8
0
  6
ByBlock
100
AcDbTrace
 10
2070.696753965946
 20
735.7693377767999
 30
0.0
 11
2084.03008729928
 21
735.7693377767999
 31
0.0
 12
2077.363420632613
 22
695.7693377767999
 32
0.0
 13
2077.363420632613
 23
695.7693377767999
 33
0.0
  0
MTEXT
  5
9AA
330
806
100
AcDbEntity
  8
0
  6
ByBlock
100
AcDbMText
 10
2023.363420632613
 20
1595.76932436575
 30
0.0
 40
60.0
 41
0.0
 71
     5
 72
     5
  1
\A1;900
  7
KANJI08
 11
0.0
 21
1.0
 31
0.0
 73
     1
 44
1.0
  0
POINT
  5
9AB
330
806
100
AcDbEntity
  8
DEFPOINTS
  6
ByBlock
 62
     0
100
AcDbPoint
 10
1273.337879199295
 20
2495.769310954699
 30
0.0
  0
POINT
  5
9AC
330
806
100
AcDbEntity
  8
DEFPOINTS
  6
ByBlock
 62
     0
100
AcDbPoint
 10
1510.952011400795
 20
695.7693377767999
 30
0.0
  0
POINT
  5
9AD
330
806
100
AcDbEntity
  8
DEFPOINTS
  6
ByBlock
 62
     0
100
AcDbPoint
 10
2077.363420632613
 20
695.7693377767999
 30
0.0
  0
ENDBLK
  5
9AE
330
806
100
AcDbEntity
  8
0
100
AcDbBlockEnd
  0
BLOCK
  5
9AF
330
828
100
AcDbEntity
  8
0
100
AcDbBlockBegin
  2
*D15
 70
     1
 10
0.0
 20
0.0
 30
0.0
  3
*D15
  1

  0
LINE
  5
9B0
330
828
100
AcDbEntity
  8
0
  6
ByBlock
100
AcDbLine
 10
1220.237904702695
 20
2755.669636679099
 30
0.0
 11
2236.565689066213
 21
2755.669636679099
 31
0.0
  0
LINE
  5
9B1
330
828
100
AcDbEntity
  8
0
  6
ByBlock
100
AcDbLine
 10
1309.337939996095
 20
2615.6696387653
 30
0.0
 11
2236.565689066213
 21
2615.6696387653
 31
0.0
  0
LINE
  5
9B2
330
828
100
AcDbEntity
  8
0
  6
ByBlock
100
AcDbLine
 10
2216.565689066213
 20
2715.6696366791
 30
0.0
 11
2216.565689066213
 21
2655.6696387653
 31
0.0
  0
MTEXT
  5
9B3
330
828
100
AcDbEntity
  8
0
  6
ByBlock
100
AcDbMText
 10
2163.805393394417
 20
2685.060992218609
 30
0.0
 40
60.0
 41
0.0
 71
     5
 72
     5
  1
\A1;70
  7
KANJI08
 11
0.0
 21
1.0
 31
0.0
 73
     1
 44
1.0
  0
SOLID
  5
9B4
330
828
100
AcDbEntity
  8
0
  6
ByBlock
100
AcDbTrace
 10
2209.899022399546
 20
2715.6696366791
 30
0.0
 11
2223.232355732879
 21
2715.6696366791
 31
0.0
 12
2216.565689066213
 22
2755.669636679099
 32
0.0
 13
2216.565689066213
 23
2755.669636679099
 33
0.0
  0
SOLID
  5
9B5
330
828
100
AcDbEntity
  8
0
  6
ByBlock
100
AcDbTrace
 10
2209.899022399546
 20
2655.6696387653
 30
0.0
 11
2223.232355732879
 21
2655.6696387653
 31
0.0
 12
2216.565689066213
 22
2615.6696387653
 32
0.0
 13
2216.565689066213
 23
2615.6696387653
 33
0.0
  0
POINT
  5
9B6
330
828
100
AcDbEntity
  8
DEFPOINTS
  6
ByBlock
 62
     0
100
AcDbPoint
 10
1200.237904702695
 20
2755.669636679099
 30
0.0
  0
POINT
  5
9B7
330
828
100
AcDbEntity
  8
DEFPOINTS
  6
ByBlock
 62
     0
100
AcDbPoint
 10
1289.337939996095
 20
2615.6696387653
 30
0.0
  0
POINT
  5
9B8
330
828
100
AcDbEntity
  8
DEFPOINTS
  6
ByBlock
 62
     0
100
AcDbPoint
 10
2216.565689066213
 20
2615.6696387653
 30
0.0
  0
ENDBLK
  5
9B9
330
828
100
AcDbEntity
  8
0
100
AcDbBlockEnd
  0
BLOCK
  5
9BA
330
836
100
AcDbEntity
  8
0
100
AcDbBlockBegin
  2
*D16
 70
     1
 10
0.0
 20
0.0
 30
0.0
  3
*D16
  1

  0
LINE
  5
9BB
330
836
100
AcDbEntity
  8
0
  6
ByBlock
100
AcDbLine
 10
961.0553212987952
 20
2659.461234538187
 30
0.0
 11
961.0553212987952
 21
2893.340915277241
 31
0.0
  0
LINE
  5
9BC
330
836
100
AcDbEntity
  8
0
  6
ByBlock
100
AcDbLine
 10
1240.655536858995
 20
2659.461234538187
 30
0.0
 11
1240.655536858995
 21
2893.340915277241
 31
0.0
  0
LINE
  5
9BD
330
836
100
AcDbEntity
  8
0
  6
ByBlock
100
AcDbLine
 10
1001.055321298795
 20
2873.340915277241
 30
0.0
 11
1200.655536858995
 21
2873.340915277241
 31
0.0
  0
MTEXT
  5
9BE
330
836
100
AcDbEntity
  8
0
  6
ByBlock
100
AcDbMText
 10
1088.056105199678
 20
2942.478361108257
 30
0.0
 40
60.0
 41
0.0
 71
     5
 72
     5
  1
\A1;φ139.8
  7
KANJI08
 73
     1
 44
1.0
  0
SOLID
  5
9BF
330
836
100
AcDbEntity
  8
0
  6
ByBlock
100
AcDbTrace
 10
1001.055321298795
 20
2880.007581943907
 30
0.0
 11
1001.055321298795
 21
2866.674248610575
 31
0.0
 12
961.0553212987952
 22
2873.340915277241
 32
0.0
 13
961.0553212987952
 23
2873.340915277241
 33
0.0
  0
SOLID
  5
9C0
330
836
100
AcDbEntity
  8
0
  6
ByBlock
100
AcDbTrace
 10
1200.655536858995
 20
2880.007581943907
 30
0.0
 11
1200.655536858995
 21
2866.674248610575
 31
0.0
 12
1240.655536858995
 22
2873.340915277241
 32
0.0
 13
1240.655536858995
 23
2873.340915277241
 33
0.0
  0
POINT
  5
9C1
330
836
100
AcDbEntity
  8
DEFPOINTS
  6
ByBlock
 62
     0
100
AcDbPoint
 10
961.0553212987952
 20
2639.461234538186
 30
0.0
  0
POINT
  5
9C2
330
836
100
AcDbEntity
  8
DEFPOINTS
  6
ByBlock
 62
     0
100
AcDbPoint
 10
1240.655536858995
 20
2639.461234538186
 30
0.0
  0
POINT
  5
9C3
330
836
100
AcDbEntity
  8
DEFPOINTS
  6
ByBlock
 62
     0
100
AcDbPoint
 10
1240.655536858995
 20
2873.340915277241
 30
0.0
  0
ENDBLK
  5
9C4
330
836
100
AcDbEntity
  8
0
100
AcDbBlockEnd
  0
ENDSEC
  0
SECTION
  2
ENTITIES
  0
LINE
  5
10D
330
18
100
AcDbEntity
  8
SJC
100
AcDbLine
 10
3326.36667760392
 20
695.7693377767999
 30
0.0
 11
2505.377108566214
 21
695.7693377767999
 31
0.0
  0
CIRCLE
  5
10E
330
18
100
AcDbEntity
  8
SJC2
100
AcDbCircle
 10
3023.862288865464
 20
2495.769310954699
 30
0.0
 40
59.9999991059
  0
LINE
  5
10F
330
18
100
AcDbEntity
  8
SJC2
100
AcDbLine
 10
3015.862411055064
 20
2537.9693225329
 30
0.0
 11
3031.862166675963
 21
2537.9693225329
 31
0.0
  0
LINE
  5
110
330
18
100
AcDbEntity
  8
SJC2
100
AcDbLine
 10
3023.862288865464
 20
2529.9694447224
 30
0.0
 11
3023.862288865464
 21
2545.9692003434
 31
0.0
  0
LINE
  5
111
330
18
100
AcDbEntity
  8
SJC2
100
AcDbLine
 10
3015.862411055064
 20
2453.5692993765
 30
0.0
 11
3031.862166675963
 21
2453.5692993765
 31
0.0
  0
LINE
  5
112
330
18
100
AcDbEntity
  8
SJC2
100
AcDbLine
 10
3023.862288865464
 20
2461.5691771869
 30
0.0
 11
3023.862288865464
 21
2445.569421566
 31
0.0
  0
LINE
  5
113
330
18
100
AcDbEntity
  8
SJC2
100
AcDbLine
 10
3015.862411055064
 20
2507.5692375367
 30
0.0
 11
3031.862166675963
 21
2507.5692375367
 31
0.0
  0
LINE
  5
114
330
18
100
AcDbEntity
  8
SJC2
100
AcDbLine
 10
3015.862411055064
 20
2483.9693843727
 30
0.0
 11
3031.862166675963
 21
2483.9693843727
 31
0.0
  0
LINE
  5
115
330
18
100
AcDbEntity
  8
SJC2
100
AcDbLine
 10
3031.862166675963
 20
2507.5692375367
 30
0.0
 11
3031.862166675963
 21
2483.9693843727
 31
0.0
  0
LINE
  5
116
330
18
100
AcDbEntity
  8
SJC2
100
AcDbLine
 10
3015.862411055064
 20
2507.5692375367
 30
0.0
 11
3015.862411055064
 21
2483.9693843727
 31
0.0
  0
TEXT
  5
117
330
18
100
AcDbEntity
  8
MOJI
100
AcDbText
 10
4112.1798880092
 20
1245.349085372443
 30
0.0
 40
60.0
  1
1
 41
0.8
  7
KANJI08
100
AcDbText
  0
TEXT
  5
118
330
18
100
AcDbEntity
  8
MOJI
100
AcDbText
 10
4087.876765457127
 20
1350.742557109221
 30
0.0
 40
60.0
  1
部番
 41
0.8
  7
KANJI08
100
AcDbText
  0
TEXT
  5
119
330
18
100
AcDbEntity
  8
MOJI
100
AcDbText
 10
4112.1798880092
 20
1145.348747778331
 30
0.0
 40
60.0
  1
2
 41
0.8
  7
KANJI08
100
AcDbText
  0
TEXT
  5
11A
330
18
100
AcDbEntity
  8
MOJI
100
AcDbText
 10
4112.1798880092
 20
1045.348749268443
 30
0.0
 40
60.0
  1
3
 41
0.8
  7
KANJI08
100
AcDbText
  0
TEXT
  5
11B
330
18
100
AcDbEntity
  8
MOJI
100
AcDbText
 10
4112.1798880092
 20
945.3487507585538
 30
0.0
 40
60.0
  1
4
 41
0.8
  7
KANJI08
100
AcDbText
  0
TEXT
  5
11C
330
18
100
AcDbEntity
  8
MOJI
100
AcDbText
 10
4112.1798880092
 20
845.3487522486655
 30
0.0
 40
60.0
  1
5
 41
0.8
  7
KANJI08
100
AcDbText
  0
TEXT
  5
11D
330
18
100
AcDbEntity
  8
MOJI
100
AcDbText
 10
4112.1798880092
 20
745.348753738776
 30
0.0
 40
60.0
  1
6
 41
0.8
  7
KANJI08
100
AcDbText
  0
TEXT
  5
11E
330
18
100
AcDbEntity
  8
MOJI
100
AcDbText
 10
4667.917905568925
 20
1349.661217607109
 30
0.0
 40
60.0
  1
材　　 質
 41
0.8
  7
KANJI08
100
AcDbText
  0
TEXT
  5
11F
330
18
100
AcDbEntity
  8
MOJI
100
AcDbText
 10
5184.499142101559
 20
1349.661217607109
 30
0.0
 40
60.0
  1
摘　　　要
 41
0.8
  7
KANJI08
100
AcDbText
  0
TEXT
  5
120
330
18
100
AcDbEntity
  8
MOJI
100
AcDbText
 10
4342.014390416892
 20
1350.742557109221
 30
0.0
 40
60.0
  1
品　名
 41
0.8
  7
KANJI08
100
AcDbText
  0
TEXT
  5
121
330
18
100
AcDbEntity
  8
MOJI
100
AcDbText
 10
4971.660583043211
 20
1252.356938458109
 30
0.0
 40
60.0
  1
亜鉛めっき＋静電粉体塗装
 41
0.8
  7
KANJI08
100
AcDbText
  0
LINE
  5
122
330
18
100
AcDbEntity
  8
MOJI
100
AcDbLine
 10
4076.810349693698
 20
728.8160255781098
 30
0.0
 11
5667.735433984847
 21
728.8160255781098
 31
0.0
  0
LINE
  5
123
330
18
100
AcDbEntity
  8
MOJI
100
AcDbLine
 10
4076.810349693698
 20
828.8160240879982
 30
0.0
 11
5667.735433984847
 21
828.8160240879982
 31
0.0
  0
LINE
  5
124
330
18
100
AcDbEntity
  8
MOJI
100
AcDbLine
 10
4076.810349693698
 20
928.8156835136652
 30
0.0
 11
5667.735433984847
 21
928.8156835136652
 31
0.0
  0
LINE
  5
125
330
18
100
AcDbEntity
  8
MOJI
100
AcDbLine
 10
4076.810349693698
 20
1128.815680533443
 30
0.0
 11
5667.735433984847
 21
1128.815680533443
 31
0.0
  0
LINE
  5
126
330
18
100
AcDbEntity
  8
MOJI
100
AcDbLine
 10
4076.810349693698
 20
1228.816018127443
 30
0.0
 11
5667.735433984847
 21
1228.816018127443
 31
0.0
  0
LINE
  5
127
330
18
100
AcDbEntity
  8
MOJI
100
AcDbLine
 10
4076.810349693698
 20
1328.816016637331
 30
0.0
 11
5667.735433984847
 21
1328.816016637331
 31
0.0
  0
LINE
  5
128
330
18
100
AcDbEntity
  8
MOJI
100
AcDbLine
 10
4076.810349693698
 20
1028.815682023554
 30
0.0
 11
5667.735433984847
 21
1028.815682023554
 31
0.0
  0
LINE
  5
129
330
18
100
AcDbEntity
  8
MOJI
100
AcDbLine
 10
4076.810349693698
 20
1428.81601514722
 30
0.0
 11
5667.735433984847
 21
1428.81601514722
 31
0.0
  0
LINE
  5
12A
330
18
100
AcDbEntity
  8
MOJI
100
AcDbLine
 10
4634.28962753216
 20
728.8160255781098
 30
0.0
 11
4634.28962753216
 21
1428.81601514722
 31
0.0
  0
LINE
  5
12B
330
18
100
AcDbEntity
  8
MOJI
100
AcDbLine
 10
4200.108528105459
 20
728.8160255781098
 30
0.0
 11
4200.108528105459
 21
1428.81601514722
 31
0.0
  0
LINE
  5
12C
330
18
100
AcDbEntity
  8
MOJI
100
AcDbLine
 10
4950.693626234068
 20
1428.81601514722
 30
0.0
 11
4950.693626234068
 21
728.8160255781098
 31
0.0
  0
LINE
  5
12D
330
18
100
AcDbEntity
  8
MOJI
100
AcDbLine
 10
5667.735433984847
 20
728.8160255781098
 30
0.0
 11
5667.735433984847
 21
1428.81601514722
 31
0.0
  0
LINE
  5
12E
330
18
100
AcDbEntity
  8
MOJI
100
AcDbLine
 10
4076.810349693698
 20
728.8160255781098
 30
0.0
 11
4076.810349693698
 21
1428.81601514722
 31
0.0
  0
TEXT
  5
12F
330
18
100
AcDbEntity
  8
MOJI
100
AcDbText
 10
5153.679517245745
 20
1152.35693994822
 30
0.0
 40
60.0
  1
静電粉体塗装
 41
0.8
  7
KANJI08
100
AcDbText
  0
TEXT
  5
130
330
18
100
AcDbEntity
  8
MOJI
100
AcDbText
 10
5171.490968398412
 20
1052.356941438332
 30
0.0
 40
60.0
  1
　焼付塗装
 41
0.8
  7
KANJI08
100
AcDbText
  0
TEXT
  5
131
330
18
100
AcDbEntity
  8
MOJI
100
AcDbText
 10
4656.767814016244
 20
1249.674443380887
 30
0.0
 40
60.0
  1
STK400
 41
0.8
  7
KANJI08
100
AcDbText
  0
TEXT
  5
132
330
18
100
AcDbEntity
  8
MOJI
100
AcDbText
 10
4732.56218861205
 20
849.6744493413316
 30
0.0
 40
60.0
  1
SUS
 41
0.8
  7
KANJI08
100
AcDbText
  0
TEXT
  5
133
330
18
100
AcDbEntity
  8
MOJI
100
AcDbText
 10
5282.13779251325
 20
945.4002915564428
 30
0.0
 40
60.0
  1
φ6
 41
0.8
  7
KANJI08
100
AcDbText
  0
TEXT
  5
134
330
18
100
AcDbEntity
  8
MOJI
100
AcDbText
 10
4337.343124236382
 20
1245.349085372443
 30
0.0
 40
60.0
  1
支　柱
 41
0.8
  7
KANJI08
100
AcDbText
  0
TEXT
  5
135
330
18
100
AcDbEntity
  8
MOJI
100
AcDbText
 10
4337.343124236382
 20
1145.348747778331
 30
0.0
 40
60.0
  1
擬宝珠
 41
0.8
  7
KANJI08
100
AcDbText
  0
TEXT
  5
136
330
18
100
AcDbEntity
  8
MOJI
100
AcDbText
 10
4241.727862498529
 20
1052.42055637081
 30
0.0
 40
60.0
  1
チェーン金具
 41
0.8
  7
KANJI08
100
AcDbText
  0
TEXT
  5
137
330
18
100
AcDbEntity
  8
MOJI
100
AcDbText
 10
4313.989213427528
 20
952.4205578609214
 30
0.0
 40
60.0
  1
チェーン　
 41
0.8
  7
KANJI08
100
AcDbText
  0
TEXT
  5
138
330
18
100
AcDbEntity
  8
MOJI
100
AcDbText
 10
4229.451783201493
 20
747.70601816285
 30
0.0
 40
60.0
  1
六角穴付ボルト
 41
0.8
  7
KANJI08
100
AcDbText
  0
LINE
  5
139
330
18
100
AcDbEntity
  8
SJC2
100
AcDbLine
 10
724.466427119195
 20
2432.6205081847
 30
0.0
 11
790.1494095388953
 21
2450.2203004029
 31
0.0
  0
ARC
  5
13A
330
18
100
AcDbEntity
  8
SJC2
100
AcDbCircle
 10
788.5965225990949
 20
2456.0158935783
 30
0.0
 40
6.000029841799999
100
AcDbArc
 50
284.9996534479
 51
104.9996534479
  0
LINE
  5
13B
330
18
100
AcDbEntity
  8
SJC2
100
AcDbLine
 10
721.3606532396952
 20
2444.2116945354
 30
0.0
 11
787.043635659395
 21
2461.8114867537
 31
0.0
  0
ARC
  5
13C
330
18
100
AcDbEntity
  8
SJC2
100
AcDbCircle
 10
722.9135401793951
 20
2438.4161013601
 30
0.0
 40
6.000029841799999
100
AcDbArc
 50
104.9996534479
 51
284.9996534479
  0
ARC
  5
13D
330
18
100
AcDbEntity
  8
SJC2
100
AcDbCircle
 10
722.9136355901951
 20
2438.4164032793
 30
0.0
 40
19.999999702
100
AcDbArc
 50
284.9997487593999
 51
357.541698455
  0
ARC
  5
13E
330
18
100
AcDbEntity
  8
SJC2
100
AcDbCircle
 10
684.2764092399952
 20
2428.0635821911
 30
0.0
 40
19.999999702
100
AcDbArc
 50
212.4579211158999
 51
285.0001698059999
  0
LINE
  5
13F
330
18
100
AcDbEntity
  8
SJC2
100
AcDbLine
 10
689.4528473186952
 20
2408.7450812944
 30
0.0
 11
728.0899317038952
 21
2419.097864343299
 31
0.0
  0
ARC
  5
140
330
18
100
AcDbEntity
  8
SJC2
100
AcDbCircle
 10
722.9138193891949
 20
2438.416555502
 30
0.0
 40
8.0
100
AcDbArc
 50
284.9972824591
 51
326.4061388733999
  0
LINE
  5
141
330
18
100
AcDbEntity
  8
SJC2
100
AcDbLine
 10
686.3470734391949
 20
2420.3362676451
 30
0.0
 11
724.9840052364952
 21
2430.689050694
 31
0.0
  0
ARC
  5
142
330
18
100
AcDbEntity
  8
SJC2
100
AcDbCircle
 10
684.2763052237951
 20
2428.0636164142
 30
0.0
 40
8.0
100
AcDbArc
 50
243.5922840349
 51
285.0016004850999
  0
LINE
  5
143
330
18
100
AcDbEntity
  8
SJC2
100
AcDbLine
 10
682.2059907371949
 20
2435.7906741531
 30
0.0
 11
720.843075122395
 21
2446.143457202
 31
0.0
  0
ARC
  5
144
330
18
100
AcDbEntity
  8
SJC2
100
AcDbCircle
 10
722.9137442320952
 20
2438.416081875399
 30
0.0
 40
8.0
100
AcDbArc
 50
63.5927116986
 51
105.0008656504
  0
ARC
  5
145
330
18
100
AcDbEntity
  8
SJC2
100
AcDbCircle
 10
684.276362204795
 20
2428.0632190749
 30
0.0
 40
8.0
100
AcDbArc
 50
104.9986587501
 51
146.4065664493
  0
ARC
  5
146
330
18
100
AcDbEntity
  8
SJC2
100
AcDbCircle
 10
684.2763603834951
 20
2428.063321567799
 30
0.0
 40
19.999999702
100
AcDbArc
 50
104.9997487594
 51
177.5416984549999
  0
LINE
  5
147
330
18
100
AcDbEntity
  8
SJC2
100
AcDbLine
 10
679.100064269795
 20
2447.3818605038
 30
0.0
 11
717.737148654995
 21
2457.734643552699
 31
0.0
  0
ARC
  5
148
330
18
100
AcDbEntity
  8
SJC2
100
AcDbCircle
 10
722.913586733695
 20
2438.416142656
 30
0.0
 40
19.999999702
100
AcDbArc
 50
32.4579211159
 51
105.000169806
  0
LINE
  5
149
330
18
100
AcDbEntity
  8
SJC2
100
AcDbLine
 10
616.2825298054949
 20
2403.6327766831
 30
0.0
 11
681.9655122251951
 21
2421.2325689013
 31
0.0
  0
ARC
  5
14A
330
18
100
AcDbEntity
  8
SJC2
100
AcDbCircle
 10
614.7295665717952
 20
2409.4283698584
 30
0.0
 40
6.000049588099999
100
AcDbArc
 50
105.0003571717999
 51
285.0003571717999
  0
ARC
  5
14B
330
18
100
AcDbEntity
  8
SJC2
100
AcDbCircle
 10
614.729572436795
 20
2409.4283630511
 30
0.0
 40
19.999999702
100
AcDbArc
 50
284.9997880622
 51
357.5425837057
  0
ARC
  5
14C
330
18
100
AcDbEntity
  8
SJC2
100
AcDbCircle
 10
576.0925119262951
 20
2399.0755455137
 30
0.0
 40
19.999999702
100
AcDbArc
 50
212.4579211158999
 51
285.0001698059999
  0
LINE
  5
14D
330
18
100
AcDbEntity
  8
SJC2
100
AcDbLine
 10
581.268950004995
 20
2379.757044617
 30
0.0
 11
619.9058818022949
 21
2390.1098276658
 31
0.0
  0
ARC
  5
14E
330
18
100
AcDbEntity
  8
SJC2
100
AcDbCircle
 10
614.7294898772952
 20
2409.4284030264
 30
0.0
 40
8.0
100
AcDbArc
 50
285.0004870268
 51
326.4097583339999
  0
LINE
  5
14F
330
18
100
AcDbEntity
  8
SJC2
100
AcDbLine
 10
578.1630235375951
 20
2391.348230967699
 30
0.0
 11
616.8001079227951
 21
2401.7010140166
 31
0.0
  0
ARC
  5
150
330
18
100
AcDbEntity
  8
SJC2
100
AcDbCircle
 10
576.0927535928949
 20
2399.0757132457
 30
0.0
 40
8.0
100
AcDbArc
 50
243.5895197909
 51
284.9979060018999
  0
LINE
  5
151
330
18
100
AcDbEntity
  8
SJC2
100
AcDbLine
 10
613.176603338095
 20
2415.223963033799
 30
0.0
 11
678.8595857577952
 21
2432.823755252
 31
0.0
  0
ARC
  5
152
330
18
100
AcDbEntity
  8
SJC2
100
AcDbCircle
 10
614.7297934360949
 20
2409.4283769313
 30
0.0
 40
8.0
100
AcDbArc
 50
63.5922840349
 51
105.0016004851
  0
ARC
  5
153
330
18
100
AcDbEntity
  8
SJC2
100
AcDbCircle
 10
614.7296894199953
 20
2409.4284111543
 30
0.0
 40
19.999999702
100
AcDbArc
 50
32.4579211159
 51
105.000169806
  0
LINE
  5
154
330
18
100
AcDbEntity
  8
SJC2
100
AcDbLine
 10
574.0220934234948
 20
2406.8029426515
 30
0.0
 11
612.6590252207952
 21
2417.1557257003
 31
0.0
  0
ARC
  5
155
330
18
100
AcDbEntity
  8
SJC2
100
AcDbCircle
 10
576.0924630696949
 20
2399.075590066199
 30
0.0
 40
19.999999702
100
AcDbArc
 50
104.9997487594
 51
177.5416984549999
  0
LINE
  5
156
330
18
100
AcDbEntity
  8
SJC2
100
AcDbLine
 10
570.9161669560954
 20
2418.3941290022
 30
0.0
 11
609.5532513412949
 21
2428.746912051
 31
0.0
  0
ARC
  5
157
330
18
100
AcDbEntity
  8
SJC2
100
AcDbCircle
 10
576.0922792707951
 20
2399.075437843499
 30
0.0
 40
8.0
100
AcDbArc
 50
104.9972824591
 51
146.4061388734
  0
ARC
  5
158
330
18
100
AcDbEntity
  8
SJC2
100
AcDbCircle
 10
680.412548991495
 20
2427.0281620767
 30
0.0
 40
6.000049588099999
100
AcDbArc
 50
285.0003571717999
 51
105.0003571717999
  0
ARC
  5
159
330
18
100
AcDbEntity
  8
SJC2
100
AcDbCircle
 10
572.228575383795
 20
2398.040430575
 30
0.0
 40
6.000029841799999
100
AcDbArc
 50
284.9996534479
 51
104.9996534479
  0
ARC
  5
15A
330
18
100
AcDbEntity
  8
SJC2
100
AcDbCircle
 10
828.820311258195
 20
2466.4315395806
 30
0.0
 40
19.999999702
100
AcDbArc
 50
284.9997487593999
 51
357.541698455
  0
LINE
  5
15B
330
18
100
AcDbEntity
  8
SJC2
100
AcDbLine
 10
795.3596755744952
 20
2436.7602175957
 30
0.0
 11
833.9966073717951
 21
2447.1130006446
 31
0.0
  0
LINE
  5
15C
330
18
100
AcDbEntity
  8
SJC2
100
AcDbLine
 10
792.2537491070952
 20
2448.3514039464
 30
0.0
 11
830.8908334922953
 21
2458.7041869953
 31
0.0
  0
ARC
  5
15D
330
18
100
AcDbEntity
  8
SJC2
100
AcDbCircle
 10
790.1832018910949
 20
2456.0787665956
 30
0.0
 40
19.999999702
100
AcDbArc
 50
104.9997880622
 51
177.5425837056999
  0
ARC
  5
15E
330
18
100
AcDbEntity
  8
SJC2
100
AcDbCircle
 10
790.183079997395
 20
2456.078779272999
 30
0.0
 40
8.0
100
AcDbArc
 50
243.5927116985999
 51
285.0008656504
  0
ARC
  5
15F
330
18
100
AcDbEntity
  8
SJC2
100
AcDbCircle
 10
790.1832374957948
 20
2456.0787184924
 30
0.0
 40
19.999999702
100
AcDbArc
 50
212.4579211158999
 51
285.0001698059999
  0
LINE
  5
160
330
18
100
AcDbEntity
  8
SJC2
100
AcDbLine
 10
895.227532973095
 20
2490.7992182553
 30
0.0
 11
829.5445505533953
 21
2473.1997312129
 31
0.0
  0
LINE
  5
161
330
18
100
AcDbEntity
  8
SJC2
100
AcDbLine
 10
898.3334594404951
 20
2479.2080319046
 30
0.0
 11
832.6504770207948
 21
2461.608544862099
 31
0.0
  0
ARC
  5
162
330
18
100
AcDbEntity
  8
SJC2
100
AcDbCircle
 10
831.0975137870951
 20
2467.4041380375
 30
0.0
 40
6.000049588099999
100
AcDbArc
 50
105.0003571717999
 51
285.0003571717999
  0
ARC
  5
163
330
18
100
AcDbEntity
  8
SJC2
100
AcDbCircle
 10
896.7804962067948
 20
2485.0036250799
 30
0.0
 40
6.000049588099999
100
AcDbArc
 50
285.0003571717999
 51
105.0003571717999
  0
ARC
  5
164
330
18
100
AcDbEntity
  8
SJC2
100
AcDbCircle
 10
898.3671348095949
 20
2485.0664499941
 30
0.0
 40
19.999999702
100
AcDbArc
 50
212.4579211158999
 51
285.0001698059999
  0
ARC
  5
165
330
18
100
AcDbEntity
  8
SJC2
100
AcDbCircle
 10
898.3670307933953
 20
2485.066484217099
 30
0.0
 40
8.0
100
AcDbArc
 50
243.5922840349
 51
285.0016004850999
  0
ARC
  5
166
330
18
100
AcDbEntity
  8
SJC2
100
AcDbCircle
 10
898.367148731595
 20
2485.0664083858
 30
0.0
 40
8.0
100
AcDbArc
 50
104.9991107220999
 51
146.4093307188
  0
ARC
  5
167
330
18
100
AcDbEntity
  8
SJC2
100
AcDbCircle
 10
898.3670992047951
 20
2485.0664980973
 30
0.0
 40
19.999999702
100
AcDbArc
 50
104.9997880622
 51
177.5425837056999
  0
ARC
  5
168
330
18
100
AcDbEntity
  8
SJC2
100
AcDbCircle
 10
828.8204620246952
 20
2466.4316420735
 30
0.0
 40
8.0
100
AcDbArc
 50
284.9986587500999
 51
326.4065664492999
  0
LINE
  5
169
330
18
100
AcDbEntity
  8
SJC2
100
AcDbLine
 10
788.1126664051953
 20
2463.8061156302
 30
0.0
 11
826.749750790395
 21
2474.158898679
 31
0.0
  0
ARC
  5
16A
330
18
100
AcDbEntity
  8
SJC2
100
AcDbCircle
 10
828.820414989495
 20
2466.431584132999
 30
0.0
 40
19.999999702
100
AcDbArc
 50
32.4579211159
 51
105.000169806
  0
LINE
  5
16B
330
18
100
AcDbEntity
  8
SJC2
100
AcDbLine
 10
785.0068925256951
 20
2475.397301980899
 30
0.0
 11
823.6439769108951
 21
2485.7500850298
 31
0.0
  0
ARC
  5
16C
330
18
100
AcDbEntity
  8
SJC2
100
AcDbCircle
 10
828.8205190056951
 20
2466.43154991
 30
0.0
 40
8.0
100
AcDbArc
 50
63.5922840349
 51
105.0016004851
  0
ARC
  5
16D
330
18
100
AcDbEntity
  8
SJC2
100
AcDbCircle
 10
790.1832844505952
 20
2456.0787266203
 30
0.0
 40
8.0
100
AcDbArc
 50
105.0004870267999
 51
146.409758334
  0
LINE
  5
16E
330
18
100
AcDbEntity
  8
SJC2
100
AcDbLine
 10
526.140624410395
 20
2391.9030405297
 30
0.0
 11
570.6756884440951
 21
2403.8360237504
 31
0.0
  0
LINE
  5
16F
330
18
100
AcDbEntity
  8
SJC2
100
AcDbLine
 10
526.9030297945951
 20
2379.683802430599
 30
0.0
 11
573.7814623235949
 21
2392.244837399599
 31
0.0
  0
ARC
  5
170
330
18
100
AcDbEntity
  8
SJC
100
AcDbCircle
 10
900.5864160637953
 20
2495.769310954699
 30
0.0
 40
83.6691176345
100
AcDbArc
 50
316.2792234647
 51
43.72077653529999
  0
ARC
  5
171
330
18
100
AcDbEntity
  8
SJC
100
AcDbCircle
 10
977.0550239107951
 20
2495.769310954699
 30
0.0
 40
59.9999991059
100
AcDbArc
 50
105.4655643504
 51
254.5344356495999
  0
CIRCLE
  5
172
330
18
100
AcDbEntity
  8
SJC2
100
AcDbCircle
 10
937.055535279495
 20
2495.769310954699
 30
0.0
 40
4.9999999255
  0
LINE
  5
173
330
18
100
AcDbEntity
  8
SJC2
100
AcDbLine
 10
900.437799008695
 20
2477.3391354481
 30
0.0
 11
918.6082699293951
 21
2482.207909789599
 31
0.0
  0
LINE
  5
174
330
18
100
AcDbEntity
  8
SJC2
100
AcDbLine
 10
903.5435728881948
 20
2465.7479490973
 30
0.0
 11
922.4870540512952
 21
2470.8239377912
 31
0.0
  0
LINE
  5
175
330
18
100
AcDbEntity
  8
SJC2
100
AcDbLine
 10
896.2967163067951
 20
2492.7938471318
 30
0.0
 11
917.111993096195
 21
2498.3715448026
 31
0.0
  0
LINE
  5
176
330
18
100
AcDbEntity
  8
SJC2
100
AcDbLine
 10
893.1907898393951
 20
2504.3850334825
 30
0.0
 11
919.108300439495
 21
2511.3296134572
 31
0.0
  0
LINE
  5
177
330
18
100
AcDbEntity
  8
SJC2
100
AcDbLine
 10
1306.483477772595
 20
2490.7992182553
 30
0.0
 11
1372.166460192295
 21
2473.1997312129
 31
0.0
  0
LINE
  5
178
330
18
100
AcDbEntity
  8
SJC2
100
AcDbLine
 10
1303.377551305195
 20
2479.2080319046
 30
0.0
 11
1369.060533724895
 21
2461.608544862099
 31
0.0
  0
ARC
  5
179
330
18
100
AcDbEntity
  8
SJC2
100
AcDbCircle
 10
1370.613496958595
 20
2467.4041380375
 30
0.0
 40
6.000049588099999
100
AcDbArc
 50
254.9996428281999
 51
74.99964282819999
  0
ARC
  5
17A
330
18
100
AcDbEntity
  8
SJC2
100
AcDbCircle
 10
1304.930514538895
 20
2485.0036250799
 30
0.0
 40
6.000049588099999
100
AcDbArc
 50
74.99964282819999
 51
254.9996428281999
  0
LINE
  5
17B
330
18
100
AcDbEntity
  8
SJC2
100
AcDbLine
 10
1477.244583626495
 20
2432.6205081847
 30
0.0
 11
1411.561601206795
 21
2450.2203004029
 31
0.0
  0
ARC
  5
17C
330
18
100
AcDbEntity
  8
SJC2
100
AcDbCircle
 10
1413.114488146595
 20
2456.0158935783
 30
0.0
 40
6.000029841799999
100
AcDbArc
 50
75.0003465521
 51
255.0003465520999
  0
LINE
  5
17D
330
18
100
AcDbEntity
  8
SJC2
100
AcDbLine
 10
1480.350357505995
 20
2444.2116945354
 30
0.0
 11
1414.667375086295
 21
2461.8114867537
 31
0.0
  0
ARC
  5
17E
330
18
100
AcDbEntity
  8
SJC2
100
AcDbCircle
 10
1478.797470566295
 20
2438.4161013601
 30
0.0
 40
6.000029841799999
100
AcDbArc
 50
255.0003465520999
 51
75.0003465521
  0
ARC
  5
17F
330
18
100
AcDbEntity
  8
SJC2
100
AcDbCircle
 10
1478.797375155495
 20
2438.4164032793
 30
0.0
 40
19.999999702
100
AcDbArc
 50
182.458301545
 51
255.0002512406
  0
ARC
  5
180
330
18
100
AcDbEntity
  8
SJC2
100
AcDbCircle
 10
1517.434601505694
 20
2428.0635821911
 30
0.0
 40
19.999999702
100
AcDbArc
 50
254.999830194
 51
327.5420788841
  0
LINE
  5
181
330
18
100
AcDbEntity
  8
SJC2
100
AcDbLine
 10
1512.258163427095
 20
2408.7450812944
 30
0.0
 11
1473.621079041895
 21
2419.097864343299
 31
0.0
  0
ARC
  5
182
330
18
100
AcDbEntity
  8
SJC2
100
AcDbCircle
 10
1478.797191356595
 20
2438.416555502
 30
0.0
 40
8.0
100
AcDbArc
 50
213.5938611265999
 51
255.0027175408999
  0
LINE
  5
183
330
18
100
AcDbEntity
  8
SJC2
100
AcDbLine
 10
1515.363937306595
 20
2420.3362676451
 30
0.0
 11
1476.727005509195
 21
2430.689050694
 31
0.0
  0
ARC
  5
184
330
18
100
AcDbEntity
  8
SJC2
100
AcDbCircle
 10
1517.434705521895
 20
2428.0636164142
 30
0.0
 40
8.0
100
AcDbArc
 50
254.9983995149
 51
296.4077159650999
  0
LINE
  5
185
330
18
100
AcDbEntity
  8
SJC2
100
AcDbLine
 10
1519.505020008494
 20
2435.7906741531
 30
0.0
 11
1480.867935623295
 21
2446.143457202
 31
0.0
  0
ARC
  5
186
330
18
100
AcDbEntity
  8
SJC2
100
AcDbCircle
 10
1478.797266513595
 20
2438.416081875399
 30
0.0
 40
8.0
100
AcDbArc
 50
74.99913434959999
 51
116.4072883014
  0
ARC
  5
187
330
18
100
AcDbEntity
  8
SJC2
100
AcDbCircle
 10
1517.434648540895
 20
2428.0632190749
 30
0.0
 40
8.0
100
AcDbArc
 50
33.5934335507
 51
75.00134124989999
  0
ARC
  5
188
330
18
100
AcDbEntity
  8
SJC2
100
AcDbCircle
 10
1517.434650362295
 20
2428.063321567799
 30
0.0
 40
19.999999702
100
AcDbArc
 50
2.458301544999999
 51
75.00025124060001
  0
LINE
  5
189
330
18
100
AcDbEntity
  8
SJC2
100
AcDbLine
 10
1522.610946475895
 20
2447.3818605038
 30
0.0
 11
1483.973862090695
 21
2457.734643552699
 31
0.0
  0
ARC
  5
18A
330
18
100
AcDbEntity
  8
SJC2
100
AcDbCircle
 10
1478.797424011995
 20
2438.416142656
 30
0.0
 40
19.999999702
100
AcDbArc
 50
74.999830194
 51
147.5420788841
  0
LINE
  5
18B
330
18
100
AcDbEntity
  8
SJC2
100
AcDbLine
 10
1585.428480940195
 20
2403.6327766831
 30
0.0
 11
1519.745498520595
 21
2421.2325689013
 31
0.0
  0
ARC
  5
18C
330
18
100
AcDbEntity
  8
SJC2
100
AcDbCircle
 10
1586.981444173895
 20
2409.4283698584
 30
0.0
 40
6.000049588099999
100
AcDbArc
 50
254.9996428281999
 51
74.99964282819999
  0
ARC
  5
18D
330
18
100
AcDbEntity
  8
SJC2
100
AcDbCircle
 10
1586.981438308895
 20
2409.4283630511
 30
0.0
 40
19.999999702
100
AcDbArc
 50
182.4574162943
 51
255.0002119378
  0
ARC
  5
18E
330
18
100
AcDbEntity
  8
SJC2
100
AcDbCircle
 10
1625.618498819495
 20
2399.0755455137
 30
0.0
 40
19.999999702
100
AcDbArc
 50
254.999830194
 51
327.5420788841
  0
LINE
  5
18F
330
18
100
AcDbEntity
  8
SJC2
100
AcDbLine
 10
1620.442060740795
 20
2379.757044617
 30
0.0
 11
1581.805128943495
 21
2390.1098276658
 31
0.0
  0
ARC
  5
190
330
18
100
AcDbEntity
  8
SJC2
100
AcDbCircle
 10
1586.981520868395
 20
2409.4284030264
 30
0.0
 40
8.0
100
AcDbArc
 50
213.590241666
 51
254.9995129731999
  0
LINE
  5
191
330
18
100
AcDbEntity
  8
SJC2
100
AcDbLine
 10
1623.547987208195
 20
2391.348230967699
 30
0.0
 11
1584.910902822995
 21
2401.7010140166
 31
0.0
  0
ARC
  5
192
330
18
100
AcDbEntity
  8
SJC2
100
AcDbCircle
 10
1625.618257152795
 20
2399.0757132457
 30
0.0
 40
8.0
100
AcDbArc
 50
255.0020939981
 51
296.4104802091
  0
LINE
  5
193
330
18
100
AcDbEntity
  8
SJC2
100
AcDbLine
 10
1588.534407407594
 20
2415.223963033799
 30
0.0
 11
1522.851424987995
 21
2432.823755252
 31
0.0
  0
ARC
  5
194
330
18
100
AcDbEntity
  8
SJC2
100
AcDbCircle
 10
1586.981217309595
 20
2409.4283769313
 30
0.0
 40
8.0
100
AcDbArc
 50
74.9983995149
 51
116.4077159651
  0
ARC
  5
195
330
18
100
AcDbEntity
  8
SJC2
100
AcDbCircle
 10
1586.981321325695
 20
2409.4284111543
 30
0.0
 40
19.999999702
100
AcDbArc
 50
74.999830194
 51
147.5420788841
  0
LINE
  5
196
330
18
100
AcDbEntity
  8
SJC2
100
AcDbLine
 10
1627.688917322195
 20
2406.8029426515
 30
0.0
 11
1589.051985524895
 21
2417.1557257003
 31
0.0
  0
ARC
  5
197
330
18
100
AcDbEntity
  8
SJC2
100
AcDbCircle
 10
1625.618547675995
 20
2399.075590066199
 30
0.0
 40
19.999999702
100
AcDbArc
 50
2.458301544999999
 51
75.00025124060001
  0
LINE
  5
198
330
18
100
AcDbEntity
  8
SJC2
100
AcDbLine
 10
1630.794843789595
 20
2418.3941290022
 30
0.0
 11
1592.157759404394
 21
2428.746912051
 31
0.0
  0
ARC
  5
199
330
18
100
AcDbEntity
  8
SJC2
100
AcDbCircle
 10
1625.618731474895
 20
2399.075437843499
 30
0.0
 40
8.0
100
AcDbArc
 50
33.59386112659999
 51
75.0027175409
  0
ARC
  5
19A
330
18
100
AcDbEntity
  8
SJC2
100
AcDbCircle
 10
1521.298461754295
 20
2427.0281620767
 30
0.0
 40
6.000049588099999
100
AcDbArc
 50
74.99964282819999
 51
254.9996428281999
  0
ARC
  5
19B
330
18
100
AcDbEntity
  8
SJC2
100
AcDbCircle
 10
1629.482435361895
 20
2398.040430575
 30
0.0
 40
6.000029841799999
100
AcDbArc
 50
75.0003465521
 51
255.0003465520999
  0
LINE
  5
19C
330
18
100
AcDbEntity
  8
SJC2
100
AcDbLine
 10
1693.612530841895
 20
2374.6450451814
 30
0.0
 11
1627.929548422195
 21
2392.244837399599
 31
0.0
  0
LINE
  5
19D
330
18
100
AcDbEntity
  8
SJC2
100
AcDbLine
 10
1696.718304721395
 20
2386.2362315322
 30
0.0
 11
1631.035322301695
 21
2403.8360237504
 31
0.0
  0
ARC
  5
19E
330
18
100
AcDbEntity
  8
SJC2
100
AcDbCircle
 10
1303.343875936195
 20
2485.0664499941
 30
0.0
 40
19.999999702
100
AcDbArc
 50
254.999830194
 51
327.5420788841
  0
ARC
  5
19F
330
18
100
AcDbEntity
  8
SJC2
100
AcDbCircle
 10
1303.343979952295
 20
2485.066484217099
 30
0.0
 40
8.0
100
AcDbArc
 50
254.9983995149
 51
296.4077159650999
  0
ARC
  5
1A0
330
18
100
AcDbEntity
  8
SJC2
100
AcDbCircle
 10
1303.343862014095
 20
2485.0664083858
 30
0.0
 40
8.0
100
AcDbArc
 50
33.5906692812
 51
75.0008892779
  0
ARC
  5
1A1
330
18
100
AcDbEntity
  8
SJC2
100
AcDbCircle
 10
1303.343911540895
 20
2485.0664980973
 30
0.0
 40
19.999999702
100
AcDbArc
 50
2.4574162943
 51
75.0002119378
  0
ARC
  5
1A2
330
18
100
AcDbEntity
  8
SJC2
100
AcDbCircle
 10
1372.890699487495
 20
2466.4315395806
 30
0.0
 40
19.999999702
100
AcDbArc
 50
182.458301545
 51
255.0002512406
  0
LINE
  5
1A3
330
18
100
AcDbEntity
  8
SJC2
100
AcDbLine
 10
1406.351335171194
 20
2436.7602175957
 30
0.0
 11
1367.714403373895
 21
2447.1130006446
 31
0.0
  0
LINE
  5
1A4
330
18
100
AcDbEntity
  8
SJC2
100
AcDbLine
 10
1409.457261638595
 20
2448.3514039464
 30
0.0
 11
1370.820177253395
 21
2458.7041869953
 31
0.0
  0
ARC
  5
1A5
330
18
100
AcDbEntity
  8
SJC2
100
AcDbCircle
 10
1372.890548720995
 20
2466.4316420735
 30
0.0
 40
8.0
100
AcDbArc
 50
213.5934335507
 51
255.0013412499
  0
LINE
  5
1A6
330
18
100
AcDbEntity
  8
SJC2
100
AcDbLine
 10
1413.598344340595
 20
2463.8061156302
 30
0.0
 11
1374.961259955395
 21
2474.158898679
 31
0.0
  0
ARC
  5
1A7
330
18
100
AcDbEntity
  8
SJC2
100
AcDbCircle
 10
1372.890491739995
 20
2466.43154991
 30
0.0
 40
8.0
100
AcDbArc
 50
74.9983995149
 51
116.4077159651
  0
ARC
  5
1A8
330
18
100
AcDbEntity
  8
SJC2
100
AcDbCircle
 10
1372.890595756195
 20
2466.431584132999
 30
0.0
 40
19.999999702
100
AcDbArc
 50
74.999830194
 51
147.5420788841
  0
LINE
  5
1A9
330
18
100
AcDbEntity
  8
SJC2
100
AcDbLine
 10
1416.704118220095
 20
2475.397301980899
 30
0.0
 11
1378.067033834895
 21
2485.7500850298
 31
0.0
  0
ARC
  5
1AA
330
18
100
AcDbEntity
  8
SJC2
100
AcDbCircle
 10
1411.527808854595
 20
2456.0787665956
 30
0.0
 40
19.999999702
100
AcDbArc
 50
2.4574162943
 51
75.0002119378
  0
ARC
  5
1AB
330
18
100
AcDbEntity
  8
SJC2
100
AcDbCircle
 10
1411.527726295095
 20
2456.0787266203
 30
0.0
 40
8.0
100
AcDbArc
 50
33.59024166599999
 51
74.99951297319999
  0
ARC
  5
1AC
330
18
100
AcDbEntity
  8
SJC2
100
AcDbCircle
 10
1411.527930748295
 20
2456.078779272999
 30
0.0
 40
8.0
100
AcDbArc
 50
254.9991343495999
 51
296.4072883013999
  0
ARC
  5
1AD
330
18
100
AcDbEntity
  8
SJC2
100
AcDbCircle
 10
1411.527773249895
 20
2456.0787184924
 30
0.0
 40
19.999999702
100
AcDbArc
 50
254.999830194
 51
327.5420788841
  0
ARC
  5
1AE
330
18
100
AcDbEntity
  8
SJC
100
AcDbCircle
 10
1224.655986834894
 20
2495.769310954699
 30
0.0
 40
59.9999991059
100
AcDbArc
 50
285.4655643504
 51
74.5344356496
  0
ARC
  5
1AF
330
18
100
AcDbEntity
  8
SJC
100
AcDbCircle
 10
1301.124594681895
 20
2495.769310954699
 30
0.0
 40
83.6691176345
100
AcDbArc
 50
136.2792234646999
 51
223.7207765352999
  0
LINE
  5
1B0
330
18
100
AcDbEntity
  8
SJC2
100
AcDbLine
 10
1308.520220906295
 20
2504.3850334825
 30
0.0
 11
1282.602710306195
 21
2511.3296134572
 31
0.0
  0
LINE
  5
1B1
330
18
100
AcDbEntity
  8
SJC2
100
AcDbLine
 10
1305.414294438995
 20
2492.7938471318
 30
0.0
 11
1284.599017649495
 21
2498.371239626799
 31
0.0
  0
LINE
  5
1B2
330
18
100
AcDbEntity
  8
SJC2
100
AcDbLine
 10
1301.273211736995
 20
2477.3391354481
 30
0.0
 11
1283.102740816295
 21
2482.207909789599
 31
0.0
  0
LINE
  5
1B3
330
18
100
AcDbEntity
  8
SJC2
100
AcDbLine
 10
1298.167437857495
 20
2465.7479490973
 30
0.0
 11
1279.224109282295
 21
2470.8239377912
 31
0.0
  0
LINE
  5
1B4
330
18
100
AcDbEntity
  8
SJC
100
AcDbLine
 10
2884.061875909664
 20
695.7693377767999
 30
0.0
 11
2884.061875909664
 21
2615.1696387653
 31
0.0
  0
LINE
  5
1B5
330
18
100
AcDbEntity
  8
SJC
100
AcDbLine
 10
3163.662091469864
 20
695.7693377767999
 30
0.0
 11
3163.662091469864
 21
2615.1696387653
 31
0.0
  0
ARC
  5
1B6
330
18
100
AcDbEntity
  8
SJC
100
AcDbCircle
 10
3023.862288865464
 20
2615.1328943678
 30
0.0
 40
139.8000028758999
100
AcDbArc
 50
0.0969825903
 51
179.9030174097
  0
LINE
  5
1B7
330
18
100
AcDbEntity
  8
SJC
100
AcDbLine
 10
2884.062486261164
 20
2615.3695288991
 30
0.0
 11
3163.662091469864
 21
2615.3695288991
 31
0.0
  0
ARC
  5
1B8
330
18
100
AcDbEntity
  8
SJC
100
AcDbCircle
 10
1100.855734254695
 20
2615.4330042341
 30
0.0
 40
139.8000028758999
100
AcDbArc
 50
0.0969825903
 51
179.9030174097
  0
LINE
  5
1B9
330
18
100
AcDbEntity
  8
SJC
100
AcDbLine
 10
961.055931650395
 20
2615.6696387653
 30
0.0
 11
1240.655536858995
 21
2615.6696387653
 31
0.0
  0
LINE
  5
1BB
330
18
100
AcDbEntity
  8
SJC
100
AcDbLine
 10
961.0553212987952
 20
2553.5967637063
 30
0.0
 11
961.0553212987952
 21
2615.6696387653
 31
0.0
  0
LINE
  5
1BD
330
18
100
AcDbEntity
  8
SJC
100
AcDbLine
 10
1240.655536858995
 20
2553.5967637063
 30
0.0
 11
1240.655536858995
 21
2615.6696387653
 31
0.0
  0
LINE
  5
1BE
330
18
100
AcDbEntity
  8
CENTER
100
AcDbLine
 10
1021.857742341499
 20
3627.64708382078
 30
0.0
 11
1021.857742341499
 21
4709.508877030427
 31
0.0
  0
LINE
  5
1C0
330
18
100
AcDbEntity
  8
CENTER
100
AcDbLine
 10
3021.857254775499
 20
3627.64708382078
 30
0.0
 11
3021.857254775499
 21
4709.508877030427
 31
0.0
  0
LINE
  5
1C2
330
18
100
AcDbEntity
  8
CENTER
100
AcDbLine
 10
5021.857224973199
 20
3627.64708382078
 30
0.0
 11
5021.857224973199
 21
4709.508877030427
 31
0.0
  0
LINE
  5
1C4
330
18
100
AcDbEntity
  8
SJC
100
AcDbLine
 10
5971.8572085819
 20
3227.647089781179
 30
0.0
 11
5971.8572085819
 21
3627.64708382078
 31
0.0
1001
ACAD
1000
ASC_BOUNDS
1002
{
1070
    19
1005
7BE
1002
}
  0
LINE
  5
1C5
330
18
100
AcDbEntity
  8
SJC
100
AcDbLine
 10
6271.857208581899
 20
3227.647089781179
 30
0.0
 11
6271.857208581899
 21
3627.64708382078
 31
0.0
1001
ACAD
1000
ASC_BOUNDS
1002
{
1070
    19
1005
7BE
1002
}
  0
LINE
  5
1C6
330
18
100
AcDbEntity
  8
SJC
100
AcDbLine
 10
5971.8572085819
 20
3227.647089781179
 30
0.0
 11
6271.857208581899
 21
3227.647089781179
 31
0.0
1001
ACAD
1000
ASC_BOUNDS
1002
{
1070
    19
1005
0
1005
7BE
1005
7BE
1002
}
  0
CIRCLE
  5
1D9
330
18
100
AcDbEntity
  8
SJC
100
AcDbCircle
 10
6121.8572085819
 20
4527.64646005818
 30
0.0
 40
29.999999553
  0
ARC
  5
1DA
330
18
100
AcDbEntity
  8
SJC
100
AcDbCircle
 10
6121.8572085819
 20
4587.628239553179
 30
0.0
 40
69.900001438
100
AcDbArc
 50
0.0969825903
 51
179.9030174097
  0
LINE
  5
1DB
330
18
100
AcDbEntity
  8
SJC
100
AcDbLine
 10
6051.9573072797
 20
4587.74655681878
 30
0.0
 11
6191.7571098841
 21
4587.74655681878
 31
0.0
  0
LINE
  5
1DC
330
18
100
AcDbEntity
  8
SJC
100
AcDbLine
 10
6051.9573072797
 20
3227.74657708438
 30
0.0
 11
6051.9573072797
 21
4587.74655681878
 31
0.0
1001
ACAD
1000
ASC_BOUNDS
1002
{
1070
    19
1005
7BE
1002
}
  0
LINE
  5
1DD
330
18
100
AcDbEntity
  8
SJC
100
AcDbLine
 10
6191.7571098841
 20
3227.74657708438
 30
0.0
 11
6191.7571098841
 21
4587.74655681878
 31
0.0
1001
ACAD
1000
ASC_BOUNDS
1002
{
1070
    19
1005
7BE
1002
}
  0
ARC
  5
1F0
330
18
100
AcDbEntity
  8
SJC
100
AcDbCircle
 10
4918.8095893476
 20
4527.64707040968
 30
0.0
 40
44.70717840329999
100
AcDbArc
 50
317.8531446412999
 51
42.1468553587
  0
ARC
  5
1F1
330
18
100
AcDbEntity
  8
SJC
100
AcDbCircle
 10
4962.4333985647
 20
4527.64707040968
 30
0.0
 40
31.77673530909999
100
AcDbArc
 50
109.2503683671999
 51
250.7496316327999
  0
LINE
  5
1F2
330
18
100
AcDbEntity
  8
SJC2
100
AcDbLine
 10
4830.532154582
 20
4509.79489782418
 30
0.0
 11
4864.221118923699
 21
4514.37985869328
 31
0.0
  0
ARC
  5
1F3
330
18
100
AcDbEntity
  8
SJC2
100
AcDbCircle
 10
4863.8480198886
 20
4517.35656787578
 30
0.0
 40
3.000000074499999
100
AcDbArc
 50
277.1441643105
 51
98.3609663832
  0
LINE
  5
1F4
330
18
100
AcDbEntity
  8
SJC2
100
AcDbLine
 10
4829.7228284221
 20
4515.73972195428
 30
0.0
 11
4863.4117927639
 21
4520.32468282348
 31
0.0
  0
ARC
  5
1F5
330
18
100
AcDbEntity
  8
SJC2
100
AcDbCircle
 10
4830.095927457199
 20
4512.76301277178
 30
0.0
 40
3.000000074499999
100
AcDbArc
 50
97.14416431020001
 51
278.3609663835
  0
ARC
  5
1F6
330
18
100
AcDbEntity
  8
SJC2
100
AcDbCircle
 10
4830.1272129768
 20
4512.76751672198
 30
0.0
 40
9.999999851
100
AcDbArc
 50
277.750207149
 51
350.2935824344
  0
ARC
  5
1F7
330
18
100
AcDbEntity
  8
SJC2
100
AcDbCircle
 10
4830.1288181504
 20
4512.76800403208
 30
0.0
 40
4.0
100
AcDbArc
 50
277.7241253315
 51
319.1436168229
  0
LINE
  5
1F8
330
18
100
AcDbEntity
  8
SJC2
100
AcDbLine
 10
4810.849537687801
 20
4506.10715373848
 30
0.0
 11
4830.6664319237
 21
4508.80429725298
 31
0.0
  0
LINE
  5
1F9
330
18
100
AcDbEntity
  8
SJC2
100
AcDbLine
 10
4809.7704361413
 20
4514.033789362581
 30
0.0
 11
4829.5885510804
 21
4516.73093287708
 31
0.0
  0
ARC
  5
1FA
330
18
100
AcDbEntity
  8
SJC2
100
AcDbCircle
 10
4830.1285537778
 20
4512.767550850679
 30
0.0
 40
4.0
100
AcDbArc
 50
56.35220042330001
 51
97.75865888230001
  0
ARC
  5
1FB
330
18
100
AcDbEntity
  8
SJC2
100
AcDbCircle
 10
4810.309433078099
 20
4510.07027043338
 30
0.0
 40
4.0
100
AcDbArc
 50
97.74411957190002
 51
139.1471742678
  0
ARC
  5
1FC
330
18
100
AcDbEntity
  8
SJC2
100
AcDbCircle
 10
4810.3096550882
 20
4510.07056989358
 30
0.0
 40
9.999999851
100
AcDbArc
 50
97.750207149
 51
170.2935824344
  0
LINE
  5
1FD
330
18
100
AcDbEntity
  8
SJC2
100
AcDbLine
 10
4808.9611099815
 20
4519.97922384428
 30
0.0
 11
4828.779224920601
 21
4522.67575700718
 31
0.0
  0
ARC
  5
1FE
330
18
100
AcDbEntity
  8
SJC2
100
AcDbCircle
 10
4830.127181022001
 20
4512.76702291208
 30
0.0
 40
9.999999851
100
AcDbArc
 50
25.20967138359999
 51
97.74680129970001
  0
ARC
  5
1FF
330
18
100
AcDbEntity
  8
SJC2
100
AcDbCircle
 10
4808.3597394655
 20
4509.80529845708
 30
0.0
 40
3.000000074499999
100
AcDbArc
 50
277.1441643099
 51
98.36096638389999
  0
ARC
  5
200
330
18
100
AcDbEntity
  8
SJC2
100
AcDbCircle
 10
4884.425414779499
 20
4519.98066592958
 30
0.0
 40
9.999999851
100
AcDbArc
 50
277.7495889608
 51
350.2899499962
  0
LINE
  5
201
330
18
100
AcDbEntity
  8
SJC2
100
AcDbLine
 10
4865.9557380385
 20
4507.37424356338
 30
0.0
 11
4885.7738529775
 21
4510.071997429379
 31
0.0
  0
LINE
  5
202
330
18
100
AcDbEntity
  8
SJC2
100
AcDbLine
 10
4865.1476325818
 20
4513.32028839658
 30
0.0
 11
4884.9645268177
 21
4516.01682155958
 31
0.0
  0
ARC
  5
203
330
18
100
AcDbEntity
  8
SJC2
100
AcDbCircle
 10
4884.4249318224
 20
4519.98025911308
 30
0.0
 40
4.0
100
AcDbArc
 50
277.7527650665999
 51
319.1602723427
  0
ARC
  5
204
330
18
100
AcDbEntity
  8
SJC2
100
AcDbCircle
 10
4864.607749982299
 20
4517.28370455168
 30
0.0
 40
9.999999851
100
AcDbArc
 50
97.750207149
 51
170.2935824344
  0
ARC
  5
205
330
18
100
AcDbEntity
  8
SJC2
100
AcDbCircle
 10
4864.606929690499
 20
4517.28271342588
 30
0.0
 40
4.0
100
AcDbArc
 50
97.73547102930001
 51
139.1340747698
  0
ARC
  5
206
330
18
100
AcDbEntity
  8
SJC2
100
AcDbCircle
 10
4864.6076298844
 20
4517.28367042298
 30
0.0
 40
4.0
100
AcDbArc
 50
236.3522004233
 51
277.7586588824
  0
ARC
  5
207
330
18
100
AcDbEntity
  8
SJC2
100
AcDbCircle
 10
4864.608321943101
 20
4517.283051104381
 30
0.0
 40
9.999999851
100
AcDbArc
 50
205.2024063202999
 51
277.7436788070999
  0
ARC
  5
208
330
18
100
AcDbEntity
  8
SJC2
100
AcDbCircle
 10
4884.425275916
 20
4519.98015757018
 30
0.0
 40
9.999999851
100
AcDbArc
 50
25.20967138359999
 51
97.74680129970001
  0
LINE
  5
209
330
18
100
AcDbEntity
  8
SJC2
100
AcDbLine
 10
4918.901293890201
 20
4527.87717294528
 30
0.0
 11
4885.2111088453
 21
4523.292212076181
 31
0.0
  0
LINE
  5
20A
330
18
100
AcDbEntity
  8
SJC2
100
AcDbLine
 10
4919.71062005
 20
4521.93112811208
 30
0.0
 11
4886.0204350051
 21
4517.346777594379
 31
0.0
  0
ARC
  5
20B
330
18
100
AcDbEntity
  8
SJC2
100
AcDbCircle
 10
4885.6157719252
 20
4520.31949483528
 30
0.0
 40
3.000133330799999
100
AcDbArc
 50
97.75177915429999
 51
277.7517791543
  0
LINE
  5
20C
330
18
100
AcDbEntity
  8
SJC2
100
AcDbLine
 10
4863.259204875499
 20
4527.19235850238
 30
0.0
 11
4883.077319814599
 21
4529.888891665381
 31
0.0
  0
LINE
  5
20D
330
18
100
AcDbEntity
  8
SJC2
100
AcDbLine
 10
4864.0685310354
 20
4521.24631366908
 30
0.0
 11
4883.8854252713
 21
4523.944067535181
 31
0.0
  0
ARC
  5
20E
330
18
100
AcDbEntity
  8
SJC2
100
AcDbCircle
 10
4920.0964058567
 20
4524.83473805648
 30
0.0
 40
9.999999851
100
AcDbArc
 50
205.2050503210999
 51
277.751873647
  0
ARC
  5
20F
330
18
100
AcDbEntity
  8
SJC2
100
AcDbCircle
 10
4920.0959103076
 20
4524.834939841681
 30
0.0
 40
4.0
100
AcDbArc
 50
236.3522004233
 51
277.7586588824
  0
ARC
  5
210
330
18
100
AcDbEntity
  8
SJC2
100
AcDbCircle
 10
4920.096406453801
 20
4524.83536623738
 30
0.0
 40
4.0
100
AcDbArc
 50
97.75276506659999
 51
139.1602723427
  0
ARC
  5
211
330
18
100
AcDbEntity
  8
SJC2
100
AcDbCircle
 10
4920.0960304054
 20
4524.834973970381
 30
0.0
 40
9.999999851
100
AcDbArc
 50
97.750207149
 51
170.2935824344
  0
ARC
  5
212
330
18
100
AcDbEntity
  8
SJC2
100
AcDbCircle
 10
4884.4254279687
 20
4519.980685508779
 30
0.0
 40
4.0
100
AcDbArc
 50
56.35220042330001
 51
97.75865888230001
  0
LINE
  5
213
330
18
100
AcDbEntity
  8
SJC2
100
AcDbLine
 10
4918.7474852987
 20
4534.74362792108
 30
0.0
 11
4933.3495358624
 21
4536.73093257898
 31
0.0
  0
LINE
  5
214
330
18
100
AcDbEntity
  8
SJC2
100
AcDbLine
 10
4919.556811458499
 20
4528.798803790981
 30
0.0
 11
4931.4794187027
 21
4530.421118219879
 31
0.0
  0
ARC
  5
215
330
18
100
AcDbEntity
  8
SJC2
100
AcDbCircle
 10
4919.3059569701
 20
4524.90415052868
 30
0.0
 40
3.000435718
100
AcDbArc
 50
277.7509931202
 51
97.75099312020003
  0
LINE
  5
216
330
18
100
AcDbEntity
  8
SJC2
100
AcDbLine
 10
4920.635913004899
 20
4520.871557815381
 30
0.0
 11
4931.1046628489
 21
4522.296118340981
 31
0.0
  0
LINE
  5
217
330
18
100
AcDbEntity
  8
SJC2
100
AcDbLine
 10
4921.4452391648
 20
4514.926123333579
 30
0.0
 11
4932.2191647855
 21
4516.392798116481
 31
0.0
  0
LINE
  5
218
330
18
100
AcDbEntity
  8
SJC2
100
AcDbLine
 10
4811.6588638476
 20
4500.161719256779
 30
0.0
 11
4831.475758083499
 21
4502.85886277128
 31
0.0
  0
ARC
  5
219
330
18
100
AcDbEntity
  8
SJC2
100
AcDbCircle
 10
4810.309534990399
 20
4510.07053576478
 30
0.0
 40
4.0
100
AcDbArc
 50
236.3522004233
 51
277.7586588824
  0
ARC
  5
21A
330
18
100
AcDbEntity
  8
SJC2
100
AcDbCircle
 10
4810.310030539501
 20
4510.07033397968
 30
0.0
 40
9.999999851
100
AcDbArc
 50
205.2050503210999
 51
277.751873647
  0
LINE
  5
21B
330
18
100
AcDbEntity
  8
SJC2
100
AcDbLine
 10
4773.216481607899
 20
4508.48386268738
 30
0.0
 11
4806.9054459497
 21
4513.06882355658
 31
0.0
  0
LINE
  5
21C
330
18
100
AcDbEntity
  8
SJC2
100
AcDbLine
 10
4774.025807767699
 20
4502.538428205681
 30
0.0
 11
4807.7147721095
 21
4507.123999426481
 31
0.0
  0
ARC
  5
21D
330
18
100
AcDbEntity
  8
SJC
100
AcDbCircle
 10
5124.9042502473
 20
4527.64707040968
 30
0.0
 40
44.70717840329999
100
AcDbArc
 50
137.8531446412999
 51
222.1468553587
  0
ARC
  5
21E
330
18
100
AcDbEntity
  8
SJC
100
AcDbCircle
 10
5081.2804410301
 20
4527.64707040968
 30
0.0
 40
31.77673530909999
100
AcDbArc
 50
289.2503683672
 51
70.7496316328
  0
LINE
  5
21F
330
18
100
AcDbEntity
  8
SJC2
100
AcDbLine
 10
5213.1822953644
 20
4509.79489782418
 30
0.0
 11
5179.4927206711
 21
4514.37985869328
 31
0.0
  0
ARC
  5
220
330
18
100
AcDbEntity
  8
SJC2
100
AcDbCircle
 10
5179.8658197062
 20
4517.35656787578
 30
0.0
 40
3.000000074499999
100
AcDbArc
 50
81.6390336168
 51
262.8558356894
  0
LINE
  5
221
330
18
100
AcDbEntity
  8
SJC2
100
AcDbLine
 10
5213.991011172701
 20
4515.73972195428
 30
0.0
 11
5180.302046830901
 21
4520.32468282348
 31
0.0
  0
ARC
  5
222
330
18
100
AcDbEntity
  8
SJC2
100
AcDbCircle
 10
5213.6218487776
 20
4512.76252199908
 30
0.0
 40
3.000000074499999
100
AcDbArc
 50
261.5748184386999
 51
82.93160198770001
  0
ARC
  5
223
330
18
100
AcDbEntity
  8
SJC2
100
AcDbCircle
 10
5213.586626618
 20
4512.76751672198
 30
0.0
 40
9.999999851
100
AcDbArc
 50
189.7064175656
 51
262.249792851
  0
ARC
  5
224
330
18
100
AcDbEntity
  8
SJC2
100
AcDbCircle
 10
5213.5857129688
 20
4512.767910176381
 30
0.0
 40
4.0
100
AcDbArc
 50
220.8546057418999
 51
262.2658784953999
  0
LINE
  5
225
330
18
100
AcDbEntity
  8
SJC2
100
AcDbLine
 10
5232.864301907101
 20
4506.10715373848
 30
0.0
 11
5213.047407671099
 21
4508.80429725298
 31
0.0
  0
LINE
  5
226
330
18
100
AcDbEntity
  8
SJC2
100
AcDbLine
 10
5233.943403453499
 20
4514.033789362581
 30
0.0
 11
5214.125898866001
 21
4516.73093287708
 31
0.0
  0
ARC
  5
227
330
18
100
AcDbEntity
  8
SJC2
100
AcDbCircle
 10
5213.585896168599
 20
4512.767550850679
 30
0.0
 40
4.0
100
AcDbArc
 50
82.24134111759999
 51
123.6477995767
  0
ARC
  5
228
330
18
100
AcDbEntity
  8
SJC2
100
AcDbCircle
 10
5233.4044065167
 20
4510.07027043338
 30
0.0
 40
4.0
100
AcDbArc
 50
40.85282573219999
 51
82.2558804281
  0
ARC
  5
229
330
18
100
AcDbEntity
  8
SJC2
100
AcDbCircle
 10
5233.4041845066
 20
4510.07056989358
 30
0.0
 40
9.999999851
100
AcDbArc
 50
9.706417565599998
 51
82.24979285100001
  0
LINE
  5
22A
330
18
100
AcDbEntity
  8
SJC2
100
AcDbLine
 10
5234.7527296133
 20
4519.97922384428
 30
0.0
 11
5214.9352250258
 21
4522.67575700718
 31
0.0
  0
ARC
  5
22B
330
18
100
AcDbEntity
  8
SJC2
100
AcDbCircle
 10
5213.5866953156
 20
4512.76710096108
 30
0.0
 40
9.999999851
100
AcDbArc
 50
82.2498818799
 51
154.7908228795
  0
ARC
  5
22C
330
18
100
AcDbEntity
  8
SJC2
100
AcDbCircle
 10
5235.354100129399
 20
4509.80529845708
 30
0.0
 40
3.000000074499999
100
AcDbArc
 50
81.6390336172
 51
262.855835689
  0
ARC
  5
22D
330
18
100
AcDbEntity
  8
SJC2
100
AcDbCircle
 10
5159.2890351668
 20
4519.98066592958
 30
0.0
 40
9.999999851
100
AcDbArc
 50
189.7100500038
 51
262.2504110392
  0
LINE
  5
22E
330
18
100
AcDbEntity
  8
SJC2
100
AcDbLine
 10
5177.7581015563
 20
4507.37424356338
 30
0.0
 11
5157.9405969688
 21
4510.071997429379
 31
0.0
  0
LINE
  5
22F
330
18
100
AcDbEntity
  8
SJC2
100
AcDbLine
 10
5178.5668173646
 20
4513.32028839658
 30
0.0
 11
5158.7493127771
 21
4516.01682155958
 31
0.0
  0
ARC
  5
230
330
18
100
AcDbEntity
  8
SJC2
100
AcDbCircle
 10
5159.2889077724
 20
4519.98025911308
 30
0.0
 40
4.0
100
AcDbArc
 50
220.8397276572999
 51
262.2472349334
  0
ARC
  5
231
330
18
100
AcDbEntity
  8
SJC2
100
AcDbCircle
 10
5179.106089612599
 20
4517.28370455168
 30
0.0
 40
9.999999851
100
AcDbArc
 50
9.706417565599998
 51
82.24979285100001
  0
ARC
  5
232
330
18
100
AcDbEntity
  8
SJC2
100
AcDbCircle
 10
5179.1075202559
 20
4517.28271342588
 30
0.0
 40
4.0
100
AcDbArc
 50
40.8659252302
 51
82.2645289707
  0
ARC
  5
233
330
18
100
AcDbEntity
  8
SJC2
100
AcDbCircle
 10
5179.1068200619
 20
4517.28367042298
 30
0.0
 40
4.0
100
AcDbArc
 50
262.2413411175999
 51
303.6477995767
  0
ARC
  5
234
330
18
100
AcDbEntity
  8
SJC2
100
AcDbCircle
 10
5179.1055176518
 20
4517.283051104381
 30
0.0
 40
9.999999851
100
AcDbArc
 50
262.2563211929
 51
334.7975936797
  0
ARC
  5
235
330
18
100
AcDbEntity
  8
SJC2
100
AcDbCircle
 10
5159.2886004216
 20
4519.98023561918
 30
0.0
 40
9.999999851
100
AcDbArc
 50
82.2498818799
 51
154.7908228795
  0
LINE
  5
236
330
18
100
AcDbEntity
  8
SJC2
100
AcDbLine
 10
5124.8131560562
 20
4527.87717294528
 30
0.0
 11
5158.5027307495
 21
4523.292212076181
 31
0.0
  0
LINE
  5
237
330
18
100
AcDbEntity
  8
SJC2
100
AcDbLine
 10
5124.0038298964
 20
4521.93112811208
 30
0.0
 11
5157.6934045897
 21
4517.346777594379
 31
0.0
  0
ARC
  5
238
330
18
100
AcDbEntity
  8
SJC2
100
AcDbCircle
 10
5158.0980676696
 20
4520.31949483528
 30
0.0
 40
3.000133330799999
100
AcDbArc
 50
262.2482208457
 51
82.24822084569998
  0
LINE
  5
239
330
18
100
AcDbEntity
  8
SJC2
100
AcDbLine
 10
5180.4546347193
 20
4527.19235850238
 30
0.0
 11
5160.637130131799
 21
4529.888891665381
 31
0.0
  0
LINE
  5
23A
330
18
100
AcDbEntity
  8
SJC2
100
AcDbLine
 10
5179.645918911
 20
4521.24631366908
 30
0.0
 11
5159.8284143235
 21
4523.944067535181
 31
0.0
  0
ARC
  5
23B
330
18
100
AcDbEntity
  8
SJC2
100
AcDbCircle
 10
5123.6174704823
 20
4524.83481612328
 30
0.0
 40
9.999999851
100
AcDbArc
 50
262.2514431788999
 51
334.7944553205
  0
ARC
  5
23C
330
18
100
AcDbEntity
  8
SJC2
100
AcDbCircle
 10
5123.617929287199
 20
4524.834939841681
 30
0.0
 40
4.0
100
AcDbArc
 50
262.2413411175999
 51
303.6477995767
  0
ARC
  5
23D
330
18
100
AcDbEntity
  8
SJC2
100
AcDbCircle
 10
5123.617433140999
 20
4524.83536623738
 30
0.0
 40
4.0
100
AcDbArc
 50
40.8397276573
 51
82.2472349334
  0
ARC
  5
23E
330
18
100
AcDbEntity
  8
SJC2
100
AcDbCircle
 10
5123.6178091894
 20
4524.834973970381
 30
0.0
 40
9.999999851
100
AcDbArc
 50
9.706417565599998
 51
82.24979285100001
  0
ARC
  5
23F
330
18
100
AcDbEntity
  8
SJC2
100
AcDbCircle
 10
5159.2884116261
 20
4519.980685508779
 30
0.0
 40
4.0
100
AcDbArc
 50
82.24134111759999
 51
123.6477995767
  0
LINE
  5
240
330
18
100
AcDbEntity
  8
SJC2
100
AcDbLine
 10
5124.9663542961
 20
4534.74362792108
 30
0.0
 11
5110.3643037325
 21
4536.73093257898
 31
0.0
  0
LINE
  5
241
330
18
100
AcDbEntity
  8
SJC2
100
AcDbLine
 10
5124.1570281363
 20
4528.798803790981
 30
0.0
 11
5112.2344208921
 21
4530.421118219879
 31
0.0
  0
ARC
  5
242
330
18
100
AcDbEntity
  8
SJC2
100
AcDbCircle
 10
5124.4084929763
 20
4524.90415052868
 30
0.0
 40
3.000435718
100
AcDbArc
 50
82.24900687979999
 51
262.2490068798
  0
LINE
  5
243
330
18
100
AcDbEntity
  8
SJC2
100
AcDbLine
 10
5123.0779265899
 20
4520.871557815381
 30
0.0
 11
5112.6091767459
 21
4522.296118340981
 31
0.0
  0
LINE
  5
244
330
18
100
AcDbEntity
  8
SJC2
100
AcDbLine
 10
5122.2692107816
 20
4514.926123333579
 30
0.0
 11
5111.4952851609
 21
4516.392798116481
 31
0.0
  0
LINE
  5
245
330
18
100
AcDbEntity
  8
SJC2
100
AcDbLine
 10
5232.0555860988
 20
4500.161719256779
 30
0.0
 11
5212.2380815113
 21
4502.85886277128
 31
0.0
  0
ARC
  5
246
330
18
100
AcDbEntity
  8
SJC2
100
AcDbCircle
 10
5233.4048112086
 20
4510.070466708079
 30
0.0
 40
4.0
100
AcDbArc
 50
262.2340174397999
 51
303.6495847539
  0
ARC
  5
247
330
18
100
AcDbEntity
  8
SJC2
100
AcDbCircle
 10
5233.4038457995
 20
4510.07041204638
 30
0.0
 40
9.999999851
100
AcDbArc
 50
262.2514431788999
 51
334.7944553205
  0
LINE
  5
248
330
18
100
AcDbEntity
  8
SJC2
100
AcDbLine
 10
5270.497357986901
 20
4508.48386268738
 30
0.0
 11
5236.8083936452
 21
4513.06882355658
 31
0.0
  0
LINE
  5
249
330
18
100
AcDbEntity
  8
SJC2
100
AcDbLine
 10
5269.6886421786
 20
4502.538428205681
 30
0.0
 11
5235.999067485301
 21
4507.123999426481
 31
0.0
  0
LINE
  5
24A
330
18
100
AcDbEntity
  8
SJC2
100
AcDbLine
 10
5324.159466562299
 20
4494.69174863518
 30
0.0
 11
5290.469891869
 21
4499.27731985588
 31
0.0
  0
ARC
  5
24B
330
18
100
AcDbEntity
  8
SJC2
100
AcDbCircle
 10
5290.9061189938
 20
4502.24543480358
 30
0.0
 40
3.000000074499999
100
AcDbArc
 50
82.85583569059999
 51
261.6390336155999
  0
LINE
  5
24C
330
18
100
AcDbEntity
  8
SJC2
100
AcDbLine
 10
5324.9681823705
 20
4500.63718311688
 30
0.0
 11
5291.2792180288
 21
4505.222143986079
 31
0.0
  0
ARC
  5
24D
330
18
100
AcDbEntity
  8
SJC2
100
AcDbCircle
 10
5324.563824466401
 20
4497.66446587598
 30
0.0
 40
3.000092183399999
100
AcDbArc
 50
262.2539958343999
 51
82.25399583439999
  0
ARC
  5
24E
330
18
100
AcDbEntity
  8
SJC2
100
AcDbCircle
 10
5324.563690907201
 20
4497.66438208238
 30
0.0
 40
9.999999851
100
AcDbArc
 50
189.7100500038
 51
262.2504110392
  0
ARC
  5
24F
330
18
100
AcDbEntity
  8
SJC2
100
AcDbCircle
 10
5324.5634821636
 20
4497.66467972638
 30
0.0
 40
4.0
100
AcDbArc
 50
220.8415094862
 51
262.2572340959
  0
LINE
  5
250
330
18
100
AcDbEntity
  8
SJC2
100
AcDbLine
 10
5343.8414731049
 20
4491.004004549481
 30
0.0
 11
5324.024578869
 21
4493.70114806398
 31
0.0
  0
LINE
  5
251
330
18
100
AcDbEntity
  8
SJC2
100
AcDbLine
 10
5344.9205746514
 20
4498.93064017358
 30
0.0
 11
5325.1030700638
 21
4501.62717333648
 31
0.0
  0
ARC
  5
252
330
18
100
AcDbEntity
  8
SJC2
100
AcDbCircle
 10
5324.563067366501
 20
4497.66379131008
 30
0.0
 40
4.0
100
AcDbArc
 50
82.24134111759999
 51
123.6477995767
  0
ARC
  5
253
330
18
100
AcDbEntity
  8
SJC2
100
AcDbCircle
 10
5324.5638665135
 20
4497.66456212358
 30
0.0
 40
9.999999851
100
AcDbArc
 50
82.2498818799
 51
154.7908228795
  0
LINE
  5
254
330
18
100
AcDbEntity
  8
SJC2
100
AcDbLine
 10
5288.7352727542
 20
4492.271704725879
 30
0.0
 11
5268.9177681667
 21
4494.968237888779
 31
0.0
  0
LINE
  5
255
330
18
100
AcDbEntity
  8
SJC2
100
AcDbLine
 10
5289.5439885625
 20
4498.21713920758
 30
0.0
 11
5269.726483974999
 21
4500.914282722081
 31
0.0
  0
ARC
  5
256
330
18
100
AcDbEntity
  8
SJC2
100
AcDbCircle
 10
5290.0834746694
 20
4502.17991590778
 30
0.0
 40
9.999999851
100
AcDbArc
 50
9.713682507599999
 51
82.25102946680001
  0
ARC
  5
257
330
18
100
AcDbEntity
  8
SJC2
100
AcDbCircle
 10
5290.0834951136
 20
4502.180337278081
 30
0.0
 40
4.0
100
AcDbArc
 50
40.8397276573
 51
82.2472349334
  0
ARC
  5
258
330
18
100
AcDbEntity
  8
SJC2
100
AcDbCircle
 10
5290.083991259799
 20
4502.18052123398
 30
0.0
 40
4.0
100
AcDbArc
 50
262.2413411175999
 51
303.6477995767
  0
ARC
  5
259
330
18
100
AcDbEntity
  8
SJC2
100
AcDbCircle
 10
5290.0832288556
 20
4502.18043882108
 30
0.0
 40
9.999999851
100
AcDbArc
 50
262.2531987003
 51
334.7903286164
  0
LINE
  5
25A
330
18
100
AcDbEntity
  8
SJC2
100
AcDbLine
 10
5291.4318059171
 20
4512.08859896188
 30
0.0
 11
5271.6143013296
 21
4514.78635282788
 31
0.0
  0
LINE
  5
25B
330
18
100
AcDbEntity
  8
SJC2
100
AcDbLine
 10
5290.6230901089
 20
4506.14377483168
 30
0.0
 11
5270.8055855214
 21
4508.840918346179
 31
0.0
  0
ARC
  5
25C
330
18
100
AcDbEntity
  8
SJC2
100
AcDbCircle
 10
5270.2660416289
 20
4504.877660038281
 30
0.0
 40
9.999999851
100
AcDbArc
 50
82.2514431789
 51
154.7944553205
  0
ARC
  5
25D
330
18
100
AcDbEntity
  8
SJC2
100
AcDbCircle
 10
5270.266313273401
 20
4504.876891839581
 30
0.0
 40
9.999999851
100
AcDbArc
 50
189.7064175656
 51
262.249792851
  0
ARC
  5
25E
330
18
100
AcDbEntity
  8
SJC2
100
AcDbCircle
 10
5270.2660789703
 20
4504.87772027568
 30
0.0
 40
4.0
100
AcDbArc
 50
220.8397276572999
 51
262.2472349334
  0
ARC
  5
25F
330
18
100
AcDbEntity
  8
SJC2
100
AcDbCircle
 10
5270.2663439399
 20
4504.87743269378
 30
0.0
 40
4.0
100
AcDbArc
 50
82.25234388199998
 51
123.6608969281
  0
ARC
  5
260
330
18
100
AcDbEntity
  8
SJC2
100
AcDbCircle
 10
5269.8659493049
 20
4505.28531537178
 30
0.0
 40
3.000092183399999
100
AcDbArc
 50
262.2539958343999
 51
82.25399583439999
  0
LINE
  5
261
330
18
100
AcDbEntity
  8
SJC2
100
AcDbLine
 10
5335.7695738112
 20
4486.04733958428
 30
0.0
 11
5323.2152527092
 21
4487.755713582281
 31
0.0
  0
LINE
  5
262
330
18
100
AcDbEntity
  8
SJC2
100
AcDbLine
 10
5338.466717325601
 20
4505.86423382018
 30
0.0
 11
5325.912396223699
 21
4507.57321816978
 31
0.0
  0
ARC
  5
263
330
18
100
AcDbEntity
  8
SJC
100
AcDbCircle
 10
3124.9045852254
 20
4527.64707040968
 30
0.0
 40
44.70717840329999
100
AcDbArc
 50
137.8531446412999
 51
222.1468553587
  0
ARC
  5
264
330
18
100
AcDbEntity
  8
SJC
100
AcDbCircle
 10
3081.280776008199
 20
4527.64707040968
 30
0.0
 40
31.77673530909999
100
AcDbArc
 50
289.2503683672
 51
70.7496316328
  0
ARC
  5
265
330
18
100
AcDbEntity
  8
SJC2
100
AcDbCircle
 10
3179.9322162864
 20
4517.347721402581
 30
0.0
 40
3.000000074499999
100
AcDbArc
 50
82.8946762744
 51
261.6059685523
  0
ARC
  5
266
330
18
100
AcDbEntity
  8
SJC2
100
AcDbCircle
 10
3159.290590848
 20
4519.98066592958
 30
0.0
 40
9.999999851
100
AcDbArc
 50
189.7100500038
 51
262.2504110392
  0
LINE
  5
267
330
18
100
AcDbEntity
  8
SJC2
100
AcDbLine
 10
3177.759352061799
 20
4507.37424356338
 30
0.0
 11
3157.94215265
 21
4510.071997429379
 31
0.0
  0
LINE
  5
268
330
18
100
AcDbEntity
  8
SJC2
100
AcDbLine
 10
3178.5683730458
 20
4513.32028839658
 30
0.0
 11
3158.750868458301
 21
4516.01682155958
 31
0.0
  0
ARC
  5
269
330
18
100
AcDbEntity
  8
SJC2
100
AcDbCircle
 10
3159.290463453599
 20
4519.98025911308
 30
0.0
 40
4.0
100
AcDbArc
 50
220.8397276572999
 51
262.2472349334
  0
ARC
  5
26A
330
18
100
AcDbEntity
  8
SJC2
100
AcDbCircle
 10
3179.107645293799
 20
4517.28370455168
 30
0.0
 40
9.999999851
100
AcDbArc
 50
9.706417565599998
 51
82.24979285100001
  0
ARC
  5
26B
330
18
100
AcDbEntity
  8
SJC2
100
AcDbCircle
 10
3179.1090759371
 20
4517.28271342588
 30
0.0
 40
4.0
100
AcDbArc
 50
40.8659252302
 51
82.2645289707
  0
ARC
  5
26C
330
18
100
AcDbEntity
  8
SJC2
100
AcDbCircle
 10
3179.108375743201
 20
4517.28367042298
 30
0.0
 40
4.0
100
AcDbArc
 50
262.2413411177
 51
303.6477995767
  0
ARC
  5
26D
330
18
100
AcDbEntity
  8
SJC2
100
AcDbCircle
 10
3179.1073417914
 20
4517.28297308378
 30
0.0
 40
9.999999851
100
AcDbArc
 50
262.2530042499
 51
334.7980877336
  0
ARC
  5
26E
330
18
100
AcDbEntity
  8
SJC2
100
AcDbCircle
 10
3159.2901561028
 20
4519.98023561918
 30
0.0
 40
9.999999851
100
AcDbArc
 50
82.2498818799
 51
154.7908228795
  0
LINE
  5
26F
330
18
100
AcDbEntity
  8
SJC2
100
AcDbLine
 10
3124.8147117374
 20
4527.87717294528
 30
0.0
 11
3158.5042864307
 21
4523.292212076181
 31
0.0
  0
LINE
  5
270
330
18
100
AcDbEntity
  8
SJC2
100
AcDbLine
 10
3124.0053855776
 20
4521.93112811208
 30
0.0
 11
3157.6949602709
 21
4517.346777594379
 31
0.0
  0
ARC
  5
271
330
18
100
AcDbEntity
  8
SJC2
100
AcDbCircle
 10
3158.0996233508
 20
4520.31949483528
 30
0.0
 40
3.000133330799999
100
AcDbArc
 50
262.2482208457
 51
82.24822084569998
  0
LINE
  5
272
330
18
100
AcDbEntity
  8
SJC2
100
AcDbLine
 10
3180.4561904005
 20
4527.19235850238
 30
0.0
 11
3160.638685813
 21
4529.888891665381
 31
0.0
  0
LINE
  5
273
330
18
100
AcDbEntity
  8
SJC2
100
AcDbLine
 10
3179.647474592199
 20
4521.24631366908
 30
0.0
 11
3159.829970004699
 21
4523.944067535181
 31
0.0
  0
ARC
  5
274
330
18
100
AcDbEntity
  8
SJC2
100
AcDbCircle
 10
3123.6190261635
 20
4524.83481612328
 30
0.0
 40
9.999999851
100
AcDbArc
 50
262.2514431788999
 51
334.7944553205
  0
ARC
  5
275
330
18
100
AcDbEntity
  8
SJC2
100
AcDbCircle
 10
3123.619790144199
 20
4524.834939841681
 30
0.0
 40
4.0
100
AcDbArc
 50
262.2413411177
 51
303.6477995767
  0
ARC
  5
276
330
18
100
AcDbEntity
  8
SJC2
100
AcDbCircle
 10
3123.618988822199
 20
4524.83536623738
 30
0.0
 40
4.0
100
AcDbArc
 50
40.8397276573
 51
82.2472349334
  0
ARC
  5
277
330
18
100
AcDbEntity
  8
SJC2
100
AcDbCircle
 10
3123.619364870599
 20
4524.834973970381
 30
0.0
 40
9.999999851
100
AcDbArc
 50
9.706417565599998
 51
82.24979285100001
  0
ARC
  5
278
330
18
100
AcDbEntity
  8
SJC2
100
AcDbCircle
 10
3159.289967307399
 20
4519.980685508779
 30
0.0
 40
4.0
100
AcDbArc
 50
82.24134111759999
 51
123.6477995767
  0
LINE
  5
279
330
18
100
AcDbEntity
  8
SJC2
100
AcDbLine
 10
3124.9679099773
 20
4534.74362792108
 30
0.0
 11
3110.3655542379
 21
4536.73093257898
 31
0.0
  0
LINE
  5
27A
330
18
100
AcDbEntity
  8
SJC2
100
AcDbLine
 10
3124.1585838175
 20
4528.798803790981
 30
0.0
 11
3112.2356713975
 21
4530.421118219879
 31
0.0
  0
ARC
  5
27B
330
18
100
AcDbEntity
  8
SJC2
100
AcDbCircle
 10
3124.4100486575
 20
4524.90415052868
 30
0.0
 40
3.000435718
100
AcDbArc
 50
82.24900687979999
 51
262.2490068798
  0
LINE
  5
27C
330
18
100
AcDbEntity
  8
SJC2
100
AcDbLine
 10
3123.0797874469
 20
4520.871557815381
 30
0.0
 11
3112.6104272513
 21
4522.296118340981
 31
0.0
  0
LINE
  5
27D
330
18
100
AcDbEntity
  8
SJC2
100
AcDbLine
 10
3122.270766462799
 20
4514.926123333579
 30
0.0
 11
3111.4968408421
 21
4516.392798116481
 31
0.0
  0
ARC
  5
27E
330
18
100
AcDbEntity
  8
CENTER
100
AcDbCircle
 10
4021.856348422399
 20
10989.85080647758
 30
0.0
 40
6530.7738284651
100
AcDbArc
 50
263.1488601392999
 51
276.8444033178
  0
ARC
  5
27F
330
18
100
AcDbEntity
  8
SJC2
100
AcDbCircle
 10
3213.987726088499
 20
4512.359386123381
 30
0.0
 40
9.999999851
100
AcDbArc
 50
82.2498818799
 51
154.7908228795
  0
LINE
  5
280
330
18
100
AcDbEntity
  8
SJC2
100
AcDbLine
 10
3235.1537603862
 20
4519.57150900658
 30
0.0
 11
3215.3362557987
 21
4522.26804216948
 31
0.0
  0
LINE
  5
281
330
18
100
AcDbEntity
  8
SJC2
100
AcDbLine
 10
3234.345044577899
 20
4513.62546417328
 30
0.0
 11
3214.5275399904
 21
4516.32321803938
 31
0.0
  0
ARC
  5
282
330
18
100
AcDbEntity
  8
SJC2
100
AcDbCircle
 10
3213.9875372931
 20
4512.359836012979
 30
0.0
 40
4.0
100
AcDbArc
 50
82.2413411177
 51
123.6477995767
  0
ARC
  5
283
330
18
100
AcDbEntity
  8
SJC2
100
AcDbCircle
 10
3233.805215279501
 20
4509.662855055881
 30
0.0
 40
9.999999851
100
AcDbArc
 50
9.706417565599998
 51
82.24979285100001
  0
LINE
  5
284
330
18
100
AcDbEntity
  8
SJC2
100
AcDbLine
 10
3232.4569220475
 20
4499.75339406748
 30
0.0
 11
3212.6397226358
 21
4502.451147933579
 31
0.0
  0
ARC
  5
285
330
18
100
AcDbEntity
  8
SJC2
100
AcDbCircle
 10
3233.804911777101
 20
4509.662123587879
 30
0.0
 40
9.999999851
100
AcDbArc
 50
262.2530042499
 51
334.7980877336
  0
LINE
  5
286
330
18
100
AcDbEntity
  8
SJC2
100
AcDbLine
 10
3233.265943031499
 20
4505.69943890078
 30
0.0
 11
3213.448438444
 21
4508.39597206378
 31
0.0
  0
ARC
  5
287
330
18
100
AcDbEntity
  8
SJC2
100
AcDbCircle
 10
3213.9881608338
 20
4512.359816433679
 30
0.0
 40
9.999999851
100
AcDbArc
 50
189.7100500038
 51
262.2504110392
  0
ARC
  5
288
330
18
100
AcDbEntity
  8
SJC2
100
AcDbCircle
 10
3213.988033439299
 20
4512.359409617281
 30
0.0
 40
4.0
100
AcDbArc
 50
220.8397276572999
 51
262.2472349334
  0
ARC
  5
289
330
18
100
AcDbEntity
  8
SJC2
100
AcDbCircle
 10
3233.805945728899
 20
4509.66282092718
 30
0.0
 40
4.0
100
AcDbArc
 50
262.2413411177
 51
303.6477995767
  0
ARC
  5
28A
330
18
100
AcDbEntity
  8
SJC2
100
AcDbCircle
 10
3234.6297862721
 20
4509.72687190678
 30
0.0
 40
3.000000074499999
100
AcDbArc
 50
82.8946762742
 51
261.6059685524999
  0
ARC
  5
28B
330
18
100
AcDbEntity
  8
SJC2
100
AcDbCircle
 10
3233.8066459228
 20
4509.66186393008
 30
0.0
 40
4.0
100
AcDbArc
 50
40.8659252302
 51
82.2645289707
  0
LINE
  5
28C
330
18
100
AcDbEntity
  8
SJC2
100
AcDbLine
 10
3179.5122817231
 20
4520.25632344948
 30
0.0
 11
3213.2018564164
 21
4515.67136258028
 31
0.0
  0
LINE
  5
28D
330
18
100
AcDbEntity
  8
SJC2
100
AcDbLine
 10
3178.702955563299
 20
4514.31027861628
 30
0.0
 11
3212.3925302566
 21
4509.72592809858
 31
0.0
  0
ARC
  5
28E
330
18
100
AcDbEntity
  8
SJC2
100
AcDbCircle
 10
3212.7971933365
 20
4512.698645339479
 30
0.0
 40
3.000133330799999
100
AcDbArc
 50
262.2482208457
 51
82.24822084569998
  0
LINE
  5
28F
330
18
100
AcDbEntity
  8
SJC2
100
AcDbLine
 10
3233.400525548999
 20
4506.68942912038
 30
0.0
 11
3246.997632279999
 21
4504.83884321048
 31
0.0
  0
LINE
  5
290
330
18
100
AcDbEntity
  8
SJC2
100
AcDbLine
 10
3234.2098517089
 20
4512.63547395368
 30
0.0
 11
3247.8069584398
 21
4510.78488804378
 31
0.0
  0
ARC
  5
291
330
18
100
AcDbEntity
  8
SJC
100
AcDbCircle
 10
5021.857224973199
 20
4587.628239553179
 30
0.0
 40
69.900001438
100
AcDbArc
 50
0.0969825903
 51
179.9030174097
  0
LINE
  5
292
330
18
100
AcDbEntity
  8
SJC
100
AcDbLine
 10
4951.957323670999
 20
4587.74655681878
 30
0.0
 11
5091.7571262753
 21
4587.74655681878
 31
0.0
  0
ARC
  5
293
330
18
100
AcDbEntity
  8
SJC
100
AcDbCircle
 10
3021.857254775499
 20
4587.628239553179
 30
0.0
 40
69.900001438
100
AcDbArc
 50
0.0969825903
 51
179.9030174097
  0
LINE
  5
294
330
18
100
AcDbEntity
  8
SJC
100
AcDbLine
 10
2951.9573534733
 20
4587.74655681878
 30
0.0
 11
3091.757156077699
 21
4587.74655681878
 31
0.0
  0
ARC
  5
295
330
18
100
AcDbEntity
  8
SJC
100
AcDbCircle
 10
1021.857894929399
 20
4587.628239553179
 30
0.0
 40
69.900001438
100
AcDbArc
 50
0.0969825903
 51
179.9030174097
  0
LINE
  5
296
330
18
100
AcDbEntity
  8
SJC
100
AcDbLine
 10
951.9579936272002
 20
4587.74655681878
 30
0.0
 11
1091.757796231499
 21
4587.74655681878
 31
0.0
  0
LINE
  5
297
330
18
100
AcDbEntity
  8
SJC
100
AcDbLine
 10
951.9579936272002
 20
3627.64708382078
 30
0.0
 11
951.9579936272002
 21
4587.74655681878
 31
0.0
  0
ARC
  5
298
330
18
100
AcDbEntity
  8
SJC
100
AcDbCircle
 10
2918.8099243257
 20
4527.64707040968
 30
0.0
 40
44.70717840329999
100
AcDbArc
 50
317.8531446412999
 51
42.1468553587
  0
ARC
  5
299
330
18
100
AcDbEntity
  8
SJC
100
AcDbCircle
 10
2962.4337335428
 20
4527.64707040968
 30
0.0
 40
31.77673530909999
100
AcDbArc
 50
109.2503683671999
 51
250.7496316327999
  0
LINE
  5
29A
330
18
100
AcDbEntity
  8
SJC2
100
AcDbLine
 10
2830.5324895601
 20
4509.79489782418
 30
0.0
 11
2864.2214539018
 21
4514.37985869328
 31
0.0
  0
ARC
  5
29B
330
18
100
AcDbEntity
  8
SJC2
100
AcDbCircle
 10
2863.8483548668
 20
4517.35656787578
 30
0.0
 40
3.000000074499999
100
AcDbArc
 50
277.1441643098
 51
98.36096638389999
  0
LINE
  5
29C
330
18
100
AcDbEntity
  8
SJC2
100
AcDbLine
 10
2829.7231634002
 20
4515.73972195428
 30
0.0
 11
2863.412127742
 21
4520.32468282348
 31
0.0
  0
ARC
  5
29D
330
18
100
AcDbEntity
  8
SJC2
100
AcDbCircle
 10
2830.096262435299
 20
4512.76301277178
 30
0.0
 40
3.000000074499999
100
AcDbArc
 50
97.1441643098
 51
278.3609663838999
  0
ARC
  5
29E
330
18
100
AcDbEntity
  8
SJC2
100
AcDbCircle
 10
2830.1275479549
 20
4512.76751672198
 30
0.0
 40
9.999999851
100
AcDbArc
 50
277.750207149
 51
350.2935824344
  0
ARC
  5
29F
330
18
100
AcDbEntity
  8
SJC2
100
AcDbCircle
 10
2830.129153128499
 20
4512.76800403208
 30
0.0
 40
4.0
100
AcDbArc
 50
277.7241253315
 51
319.1436168229
  0
LINE
  5
2A0
330
18
100
AcDbEntity
  8
SJC2
100
AcDbLine
 10
2810.8498726659
 20
4506.10715373848
 30
0.0
 11
2830.666766901799
 21
4508.80429725298
 31
0.0
  0
LINE
  5
2A1
330
18
100
AcDbEntity
  8
SJC2
100
AcDbLine
 10
2809.770771119399
 20
4514.033789362581
 30
0.0
 11
2829.5888860585
 21
4516.73093287708
 31
0.0
  0
ARC
  5
2A2
330
18
100
AcDbEntity
  8
SJC2
100
AcDbCircle
 10
2830.1288887559
 20
4512.767550850679
 30
0.0
 40
4.0
100
AcDbArc
 50
56.35220042330001
 51
97.75865888230001
  0
ARC
  5
2A3
330
18
100
AcDbEntity
  8
SJC2
100
AcDbCircle
 10
2810.3097680562
 20
4510.07027043338
 30
0.0
 40
4.0
100
AcDbArc
 50
97.74411957190002
 51
139.1471742678
  0
ARC
  5
2A4
330
18
100
AcDbEntity
  8
SJC2
100
AcDbCircle
 10
2810.3099900663
 20
4510.07056989358
 30
0.0
 40
9.999999851
100
AcDbArc
 50
97.750207149
 51
170.2935824344
  0
LINE
  5
2A5
330
18
100
AcDbEntity
  8
SJC2
100
AcDbLine
 10
2808.9614449596
 20
4519.97922384428
 30
0.0
 11
2828.779559898699
 21
4522.67575700718
 31
0.0
  0
ARC
  5
2A6
330
18
100
AcDbEntity
  8
SJC2
100
AcDbCircle
 10
2830.1275160001
 20
4512.76702291208
 30
0.0
 40
9.999999851
100
AcDbArc
 50
25.20967138359999
 51
97.74680129970001
  0
ARC
  5
2A7
330
18
100
AcDbEntity
  8
SJC2
100
AcDbCircle
 10
2808.3600744436
 20
4509.80529845708
 30
0.0
 40
3.000000074499999
100
AcDbArc
 50
277.1441643102999
 51
98.36096638349999
  0
ARC
  5
2A8
330
18
100
AcDbEntity
  8
SJC2
100
AcDbCircle
 10
2884.4257497576
 20
4519.98066592958
 30
0.0
 40
9.999999851
100
AcDbArc
 50
277.7495889608
 51
350.2899499962
  0
LINE
  5
2A9
330
18
100
AcDbEntity
  8
SJC2
100
AcDbLine
 10
2865.956073016599
 20
4507.37424356338
 30
0.0
 11
2885.7741879556
 21
4510.071997429379
 31
0.0
  0
LINE
  5
2AA
330
18
100
AcDbEntity
  8
SJC2
100
AcDbLine
 10
2865.1479675599
 20
4513.32028839658
 30
0.0
 11
2884.9648617958
 21
4516.01682155958
 31
0.0
  0
ARC
  5
2AB
330
18
100
AcDbEntity
  8
SJC2
100
AcDbCircle
 10
2884.425266800499
 20
4519.98025911308
 30
0.0
 40
4.0
100
AcDbArc
 50
277.7527650665999
 51
319.1602723427
  0
ARC
  5
2AC
330
18
100
AcDbEntity
  8
SJC2
100
AcDbCircle
 10
2864.6080849604
 20
4517.28370455168
 30
0.0
 40
9.999999851
100
AcDbArc
 50
97.750207149
 51
170.2935824344
  0
ARC
  5
2AD
330
18
100
AcDbEntity
  8
SJC2
100
AcDbCircle
 10
2864.607264668599
 20
4517.28271342588
 30
0.0
 40
4.0
100
AcDbArc
 50
97.73547102930001
 51
139.1340747698
  0
ARC
  5
2AE
330
18
100
AcDbEntity
  8
SJC2
100
AcDbCircle
 10
2864.6079648625
 20
4517.28367042298
 30
0.0
 40
4.0
100
AcDbArc
 50
236.3522004233
 51
277.7586588823
  0
ARC
  5
2AF
330
18
100
AcDbEntity
  8
SJC2
100
AcDbCircle
 10
2864.6086569212
 20
4517.283051104381
 30
0.0
 40
9.999999851
100
AcDbArc
 50
205.2024063202999
 51
277.7436788070999
  0
ARC
  5
2B0
330
18
100
AcDbEntity
  8
SJC2
100
AcDbCircle
 10
2884.425610894099
 20
4519.98015757018
 30
0.0
 40
9.999999851
100
AcDbArc
 50
25.20967138359999
 51
97.74680129970001
  0
LINE
  5
2B1
330
18
100
AcDbEntity
  8
SJC2
100
AcDbLine
 10
2918.901628868299
 20
4527.87717294528
 30
0.0
 11
2885.2114438234
 21
4523.292212076181
 31
0.0
  0
LINE
  5
2B2
330
18
100
AcDbEntity
  8
SJC2
100
AcDbLine
 10
2919.7109550281
 20
4521.93112811208
 30
0.0
 11
2886.0207699832
 21
4517.346777594379
 31
0.0
  0
ARC
  5
2B3
330
18
100
AcDbEntity
  8
SJC2
100
AcDbCircle
 10
2885.616106903301
 20
4520.31949483528
 30
0.0
 40
3.000133330799999
100
AcDbArc
 50
97.75177915429999
 51
277.7517791543
  0
LINE
  5
2B4
330
18
100
AcDbEntity
  8
SJC2
100
AcDbLine
 10
2863.259539853599
 20
4527.19235850238
 30
0.0
 11
2883.0776547927
 21
4529.888891665381
 31
0.0
  0
LINE
  5
2B5
330
18
100
AcDbEntity
  8
SJC2
100
AcDbLine
 10
2864.0688660135
 20
4521.24631366908
 30
0.0
 11
2883.8857602494
 21
4523.944067535181
 31
0.0
  0
ARC
  5
2B6
330
18
100
AcDbEntity
  8
SJC2
100
AcDbCircle
 10
2920.096740834799
 20
4524.83473805648
 30
0.0
 40
9.999999851
100
AcDbArc
 50
205.2050503210999
 51
277.751873647
  0
ARC
  5
2B7
330
18
100
AcDbEntity
  8
SJC2
100
AcDbCircle
 10
2920.0962452857
 20
4524.834939841681
 30
0.0
 40
4.0
100
AcDbArc
 50
236.3522004233
 51
277.7586588823
  0
ARC
  5
2B8
330
18
100
AcDbEntity
  8
SJC2
100
AcDbCircle
 10
2920.0967414319
 20
4524.83536623738
 30
0.0
 40
4.0
100
AcDbArc
 50
97.75276506659999
 51
139.1602723427
  0
ARC
  5
2B9
330
18
100
AcDbEntity
  8
SJC2
100
AcDbCircle
 10
2920.0963653835
 20
4524.834973970381
 30
0.0
 40
9.999999851
100
AcDbArc
 50
97.750207149
 51
170.2935824344
  0
ARC
  5
2BA
330
18
100
AcDbEntity
  8
SJC2
100
AcDbCircle
 10
2884.425762946799
 20
4519.980685508779
 30
0.0
 40
4.0
100
AcDbArc
 50
56.35220042330001
 51
97.75865888230001
  0
LINE
  5
2BB
330
18
100
AcDbEntity
  8
SJC2
100
AcDbLine
 10
2918.7478202768
 20
4534.74362792108
 30
0.0
 11
2933.3498708405
 21
4536.73093257898
 31
0.0
  0
LINE
  5
2BC
330
18
100
AcDbEntity
  8
SJC2
100
AcDbLine
 10
2919.5571464366
 20
4528.798803790981
 30
0.0
 11
2931.4797536808
 21
4530.421118219879
 31
0.0
  0
ARC
  5
2BD
330
18
100
AcDbEntity
  8
SJC2
100
AcDbCircle
 10
2919.306291948199
 20
4524.90415052868
 30
0.0
 40
3.000435718
100
AcDbArc
 50
277.7509931202
 51
97.75099312020003
  0
LINE
  5
2BE
330
18
100
AcDbEntity
  8
SJC2
100
AcDbLine
 10
2920.636247983
 20
4520.871557815381
 30
0.0
 11
2931.104997827
 21
4522.296118340981
 31
0.0
  0
LINE
  5
2BF
330
18
100
AcDbEntity
  8
SJC2
100
AcDbLine
 10
2921.445574142899
 20
4514.926123333579
 30
0.0
 11
2932.219499763599
 21
4516.392798116481
 31
0.0
  0
LINE
  5
2C0
330
18
100
AcDbEntity
  8
SJC2
100
AcDbLine
 10
2811.659198825701
 20
4500.161719256779
 30
0.0
 11
2831.476093061599
 21
4502.85886277128
 31
0.0
  0
ARC
  5
2C1
330
18
100
AcDbEntity
  8
SJC2
100
AcDbCircle
 10
2810.3098699685
 20
4510.07053576478
 30
0.0
 40
4.0
100
AcDbArc
 50
236.3522004233
 51
277.7586588823
  0
ARC
  5
2C2
330
18
100
AcDbEntity
  8
SJC2
100
AcDbCircle
 10
2810.310365517599
 20
4510.07033397968
 30
0.0
 40
9.999999851
100
AcDbArc
 50
205.2050503210999
 51
277.751873647
  0
LINE
  5
2C3
330
18
100
AcDbEntity
  8
SJC2
100
AcDbLine
 10
2773.216816586
 20
4508.48386268738
 30
0.0
 11
2806.9057809278
 21
4513.06882355658
 31
0.0
  0
LINE
  5
2C4
330
18
100
AcDbEntity
  8
SJC2
100
AcDbLine
 10
2774.026142745801
 20
4502.538428205681
 30
0.0
 11
2807.7151070876
 21
4507.123999426481
 31
0.0
  0
ARC
  5
2C5
330
18
100
AcDbEntity
  8
SJC
100
AcDbCircle
 10
1124.9049202035
 20
4527.64707040968
 30
0.0
 40
44.70717840329999
100
AcDbArc
 50
137.8531446412999
 51
222.1468553587
  0
ARC
  5
2C6
330
18
100
AcDbEntity
  8
SJC
100
AcDbCircle
 10
1081.281110986299
 20
4527.64707040968
 30
0.0
 40
31.77673530909999
100
AcDbArc
 50
289.2503683672
 51
70.7496316328
  0
ARC
  5
2C7
330
18
100
AcDbEntity
  8
SJC2
100
AcDbCircle
 10
1179.9325512645
 20
4517.347721402581
 30
0.0
 40
3.000000074499999
100
AcDbArc
 50
82.8946762742
 51
261.6059685524999
  0
ARC
  5
2C8
330
18
100
AcDbEntity
  8
SJC2
100
AcDbCircle
 10
1159.290925826099
 20
4519.98066592958
 30
0.0
 40
9.999999851
100
AcDbArc
 50
189.7100500038
 51
262.2504110392
  0
LINE
  5
2C9
330
18
100
AcDbEntity
  8
SJC2
100
AcDbLine
 10
1177.7596870399
 20
4507.37424356338
 30
0.0
 11
1157.9424876281
 21
4510.071997429379
 31
0.0
  0
LINE
  5
2CA
330
18
100
AcDbEntity
  8
SJC2
100
AcDbLine
 10
1178.5687080239
 20
4513.32028839658
 30
0.0
 11
1158.7512034364
 21
4516.01682155958
 31
0.0
  0
ARC
  5
2CB
330
18
100
AcDbEntity
  8
SJC2
100
AcDbCircle
 10
1159.290798431699
 20
4519.98025911308
 30
0.0
 40
4.0
100
AcDbArc
 50
220.8397276572999
 51
262.2472349334
  0
ARC
  5
2CC
330
18
100
AcDbEntity
  8
SJC2
100
AcDbCircle
 10
1179.107980271899
 20
4517.28370455168
 30
0.0
 40
9.999999851
100
AcDbArc
 50
9.706417565599998
 51
82.24979285100001
  0
ARC
  5
2CD
330
18
100
AcDbEntity
  8
SJC2
100
AcDbCircle
 10
1179.1094109152
 20
4517.28271342588
 30
0.0
 40
4.0
100
AcDbArc
 50
40.8659252302
 51
82.2645289707
  0
ARC
  5
2CE
330
18
100
AcDbEntity
  8
SJC2
100
AcDbCircle
 10
1179.108710721299
 20
4517.28367042298
 30
0.0
 40
4.0
100
AcDbArc
 50
262.2413411177
 51
303.6477995767
  0
ARC
  5
2CF
330
18
100
AcDbEntity
  8
SJC2
100
AcDbCircle
 10
1179.107676769499
 20
4517.28297308378
 30
0.0
 40
9.999999851
100
AcDbArc
 50
262.2530042499
 51
334.7980877336
  0
ARC
  5
2D0
330
18
100
AcDbEntity
  8
SJC2
100
AcDbCircle
 10
1159.2904910809
 20
4519.98023561918
 30
0.0
 40
9.999999851
100
AcDbArc
 50
82.2498818799
 51
154.7908228795
  0
LINE
  5
2D1
330
18
100
AcDbEntity
  8
SJC2
100
AcDbLine
 10
1124.8150467155
 20
4527.87717294528
 30
0.0
 11
1158.504621408799
 21
4523.292212076181
 31
0.0
  0
LINE
  5
2D2
330
18
100
AcDbEntity
  8
SJC2
100
AcDbLine
 10
1124.0057205557
 20
4521.93112811208
 30
0.0
 11
1157.695295249
 21
4517.346777594379
 31
0.0
  0
ARC
  5
2D3
330
18
100
AcDbEntity
  8
SJC2
100
AcDbCircle
 10
1158.099958328899
 20
4520.31949483528
 30
0.0
 40
3.000133330799999
100
AcDbArc
 50
262.2482208457
 51
82.24822084569998
  0
LINE
  5
2D4
330
18
100
AcDbEntity
  8
SJC2
100
AcDbLine
 10
1180.4565253786
 20
4527.19235850238
 30
0.0
 11
1160.639020791099
 21
4529.888891665381
 31
0.0
  0
LINE
  5
2D5
330
18
100
AcDbEntity
  8
SJC2
100
AcDbLine
 10
1179.6478095703
 20
4521.24631366908
 30
0.0
 11
1159.8303049828
 21
4523.944067535181
 31
0.0
  0
ARC
  5
2D6
330
18
100
AcDbEntity
  8
SJC2
100
AcDbCircle
 10
1123.6193611416
 20
4524.83481612328
 30
0.0
 40
9.999999851
100
AcDbArc
 50
262.2514431788999
 51
334.7944553205
  0
ARC
  5
2D7
330
18
100
AcDbEntity
  8
SJC2
100
AcDbCircle
 10
1123.6201251223
 20
4524.834939841681
 30
0.0
 40
4.0
100
AcDbArc
 50
262.2413411177
 51
303.6477995767
  0
ARC
  5
2D8
330
18
100
AcDbEntity
  8
SJC2
100
AcDbCircle
 10
1123.619323800299
 20
4524.83536623738
 30
0.0
 40
4.0
100
AcDbArc
 50
40.8397276573
 51
82.2472349334
  0
ARC
  5
2D9
330
18
100
AcDbEntity
  8
SJC2
100
AcDbCircle
 10
1123.619699848699
 20
4524.834973970381
 30
0.0
 40
9.999999851
100
AcDbArc
 50
9.706417565599998
 51
82.24979285100001
  0
ARC
  5
2DA
330
18
100
AcDbEntity
  8
SJC2
100
AcDbCircle
 10
1159.290302285399
 20
4519.980685508779
 30
0.0
 40
4.0
100
AcDbArc
 50
82.2413411177
 51
123.6477995767
  0
LINE
  5
2DB
330
18
100
AcDbEntity
  8
SJC2
100
AcDbLine
 10
1124.9682449554
 20
4534.74362792108
 30
0.0
 11
1110.365889216
 21
4536.73093257898
 31
0.0
  0
LINE
  5
2DC
330
18
100
AcDbEntity
  8
SJC2
100
AcDbLine
 10
1124.158918795599
 20
4528.798803790981
 30
0.0
 11
1112.2360063756
 21
4530.421118219879
 31
0.0
  0
ARC
  5
2DD
330
18
100
AcDbEntity
  8
SJC2
100
AcDbCircle
 10
1124.410383635599
 20
4524.90415052868
 30
0.0
 40
3.000435718
100
AcDbArc
 50
82.24900687979999
 51
262.2490068798
  0
LINE
  5
2DE
330
18
100
AcDbEntity
  8
SJC2
100
AcDbLine
 10
1123.080122424999
 20
4520.871557815381
 30
0.0
 11
1112.6107622294
 21
4522.296118340981
 31
0.0
  0
LINE
  5
2DF
330
18
100
AcDbEntity
  8
SJC2
100
AcDbLine
 10
1122.271101440899
 20
4514.926123333579
 30
0.0
 11
1111.4971758202
 21
4516.392798116481
 31
0.0
  0
ARC
  5
2E0
330
18
100
AcDbEntity
  8
CENTER
100
AcDbCircle
 10
2021.856683400499
 20
10989.85080647758
 30
0.0
 40
6530.7738284651
100
AcDbArc
 50
263.1488601392999
 51
276.8444033178
  0
ARC
  5
2E1
330
18
100
AcDbEntity
  8
SJC2
100
AcDbCircle
 10
1213.9880610666
 20
4512.359386123381
 30
0.0
 40
9.999999851
100
AcDbArc
 50
82.2498818799
 51
154.7908228795
  0
LINE
  5
2E2
330
18
100
AcDbEntity
  8
SJC2
100
AcDbLine
 10
1235.154095364299
 20
4519.57150900658
 30
0.0
 11
1215.3365907768
 21
4522.26804216948
 31
0.0
  0
LINE
  5
2E3
330
18
100
AcDbEntity
  8
SJC2
100
AcDbLine
 10
1234.345379555999
 20
4513.62546417328
 30
0.0
 11
1214.5278749685
 21
4516.32321803938
 31
0.0
  0
ARC
  5
2E4
330
18
100
AcDbEntity
  8
SJC2
100
AcDbCircle
 10
1213.9878722712
 20
4512.359836012979
 30
0.0
 40
4.0
100
AcDbArc
 50
82.2413411177
 51
123.6477995767
  0
ARC
  5
2E5
330
18
100
AcDbEntity
  8
SJC2
100
AcDbCircle
 10
1233.805550257599
 20
4509.662855055881
 30
0.0
 40
9.999999851
100
AcDbArc
 50
9.706417565599998
 51
82.24979285100001
  0
LINE
  5
2E6
330
18
100
AcDbEntity
  8
SJC2
100
AcDbLine
 10
1232.4572570256
 20
4499.75339406748
 30
0.0
 11
1212.6400576138
 21
4502.451147933579
 31
0.0
  0
ARC
  5
2E7
330
18
100
AcDbEntity
  8
SJC2
100
AcDbCircle
 10
1233.805246755199
 20
4509.662123587879
 30
0.0
 40
9.999999851
100
AcDbArc
 50
262.2530042499
 51
334.7980877336
  0
LINE
  5
2E8
330
18
100
AcDbEntity
  8
SJC2
100
AcDbLine
 10
1233.266278009599
 20
4505.69943890078
 30
0.0
 11
1213.4487734221
 21
4508.39597206378
 31
0.0
  0
ARC
  5
2E9
330
18
100
AcDbEntity
  8
SJC2
100
AcDbCircle
 10
1213.9884958119
 20
4512.359816433679
 30
0.0
 40
9.999999851
100
AcDbArc
 50
189.7100500038
 51
262.2504110392
  0
ARC
  5
2EA
330
18
100
AcDbEntity
  8
SJC2
100
AcDbCircle
 10
1213.9883684174
 20
4512.359409617281
 30
0.0
 40
4.0
100
AcDbArc
 50
220.8397276572999
 51
262.2472349334
  0
ARC
  5
2EB
330
18
100
AcDbEntity
  8
SJC2
100
AcDbCircle
 10
1233.806280707
 20
4509.66282092718
 30
0.0
 40
4.0
100
AcDbArc
 50
262.2413411177
 51
303.6477995767
  0
ARC
  5
2EC
330
18
100
AcDbEntity
  8
SJC2
100
AcDbCircle
 10
1234.6301212502
 20
4509.72687190678
 30
0.0
 40
3.000000074499999
100
AcDbArc
 50
82.894676275
 51
261.6059685516999
  0
ARC
  5
2ED
330
18
100
AcDbEntity
  8
SJC2
100
AcDbCircle
 10
1233.8069809009
 20
4509.66186393008
 30
0.0
 40
4.0
100
AcDbArc
 50
40.8659252302
 51
82.2645289707
  0
LINE
  5
2EE
330
18
100
AcDbEntity
  8
SJC2
100
AcDbLine
 10
1179.5126167012
 20
4520.25632344948
 30
0.0
 11
1213.2021913945
 21
4515.67136258028
 31
0.0
  0
LINE
  5
2EF
330
18
100
AcDbEntity
  8
SJC2
100
AcDbLine
 10
1178.703290541399
 20
4514.31027861628
 30
0.0
 11
1212.3928652347
 21
4509.72592809858
 31
0.0
  0
ARC
  5
2F0
330
18
100
AcDbEntity
  8
SJC2
100
AcDbCircle
 10
1212.797528314599
 20
4512.698645339479
 30
0.0
 40
3.000133330799999
100
AcDbArc
 50
262.2482208457
 51
82.24822084569998
  0
LINE
  5
2F1
330
18
100
AcDbEntity
  8
SJC2
100
AcDbLine
 10
1233.4008605271
 20
4506.68942912038
 30
0.0
 11
1246.9979672581
 21
4504.83884321048
 31
0.0
  0
LINE
  5
2F2
330
18
100
AcDbEntity
  8
SJC2
100
AcDbLine
 10
1234.210186686999
 20
4512.63547395368
 30
0.0
 11
1247.8072934179
 21
4510.78488804378
 31
0.0
  0
LINE
  5
2F4
330
18
100
AcDbEntity
  8
SJC
100
AcDbLine
 10
1091.757796231499
 20
4557.647069962681
 30
0.0
 11
1091.757796231499
 21
4587.74655681878
 31
0.0
  0
LINE
  5
2F6
330
18
100
AcDbEntity
  8
SJC
100
AcDbLine
 10
2951.9573534733
 20
4557.647069962681
 30
0.0
 11
2951.9573534733
 21
4587.74655681878
 31
0.0
  0
LINE
  5
2F8
330
18
100
AcDbEntity
  8
SJC
100
AcDbLine
 10
3091.757156077699
 20
4557.647069962681
 30
0.0
 11
3091.757156077699
 21
4587.74655681878
 31
0.0
  0
LINE
  5
2FA
330
18
100
AcDbEntity
  8
SJC
100
AcDbLine
 10
4951.957323670999
 20
4557.647069962681
 30
0.0
 11
4951.957323670999
 21
4587.74655681878
 31
0.0
  0
LINE
  5
2FC
330
18
100
AcDbEntity
  8
SJC
100
AcDbLine
 10
5091.7571262753
 20
4557.647069962681
 30
0.0
 11
5091.7571262753
 21
4587.74655681878
 31
0.0
  0
LINE
  5
339
330
18
100
AcDbEntity
  8
SJC
100
AcDbLine
 10
5404.339727613276
 20
3627.64708382078
 30
0.0
 11
695.0991717711003
 21
3627.64708382078
 31
0.0
  0
LINE
  5
33D
330
18
100
AcDbEntity
  8
SJC
100
AcDbLine
 10
4678.665117877107
 20
2113.845183345
 30
0.0
 11
4842.872268750507
 21
2069.846313151
 31
0.0
  0
LINE
  5
33E
330
18
100
AcDbEntity
  8
SJC
100
AcDbLine
 10
4670.899615063109
 20
2084.866912292399
 30
0.0
 11
4835.107376288108
 21
2040.8683472742
 31
0.0
  0
ARC
  5
33F
330
18
100
AcDbEntity
  8
SJC
100
AcDbCircle
 10
4838.989822519309
 20
2055.3573302126
 30
0.0
 40
15.00013384359999
100
AcDbArc
 50
254.9995020838999
 51
74.9995020839
  0
ARC
  5
340
330
18
100
AcDbEntity
  8
SJC
100
AcDbCircle
 10
4674.782366470108
 20
2099.356047818699
 30
0.0
 40
15.0003602219
100
AcDbArc
 50
74.99852699989999
 51
254.9985269998999
  0
LINE
  5
341
330
18
100
AcDbEntity
  8
SJC
100
AcDbLine
 10
5105.567577336108
 20
1968.398408168599
 30
0.0
 11
4941.360426462608
 21
2012.3978887141
 31
0.0
  0
ARC
  5
342
330
18
100
AcDbEntity
  8
SJC
100
AcDbCircle
 10
4945.242567518107
 20
2026.8868716525
 30
0.0
 40
15.0000548587
100
AcDbArc
 50
75.000628043
 51
255.0006280429999
  0
LINE
  5
343
330
18
100
AcDbEntity
  8
SJC
100
AcDbLine
 10
5113.332469798508
 20
1997.3762214575
 30
0.0
 11
4949.124708573507
 21
2041.3758545909
 31
0.0
  0
ARC
  5
344
330
18
100
AcDbEntity
  8
SJC
100
AcDbCircle
 10
5109.450023567308
 20
1982.887314813
 30
0.0
 40
15.0000601495
100
AcDbArc
 50
254.9994266564
 51
74.9994266564
  0
ARC
  5
345
330
18
100
AcDbEntity
  8
SJC
100
AcDbCircle
 10
4670.815399266007
 20
2099.5132196529
 30
0.0
 40
49.9999992549
100
AcDbArc
 50
255.0003152216
 51
327.5421373337999
  0
ARC
  5
346
330
18
100
AcDbEntity
  8
SJC
100
AcDbCircle
 10
4670.816275455007
 20
2099.5131098813
 30
0.0
 40
19.999999702
100
AcDbArc
 50
254.9991421145
 51
296.4092495966999
  0
ARC
  5
347
330
18
100
AcDbEntity
  8
SJC
100
AcDbCircle
 10
4670.815729067408
 20
2099.5131503908
 30
0.0
 40
19.999999702
100
AcDbArc
 50
33.5896488085
 51
75.0009841227
  0
ARC
  5
348
330
18
100
AcDbEntity
  8
SJC
100
AcDbCircle
 10
4670.816212473108
 20
2099.5129932784
 30
0.0
 40
49.9999992549
100
AcDbArc
 50
2.457688222199999
 51
75.0005860505
  0
ARC
  5
349
330
18
100
AcDbEntity
  8
SJC
100
AcDbCircle
 10
4844.683557185408
 20
2052.9259039354
 30
0.0
 40
49.9999992549
100
AcDbArc
 50
182.4582066644
 51
254.9998849856
  0
LINE
  5
34A
330
18
100
AcDbEntity
  8
SJC
100
AcDbLine
 10
4928.334913961407
 20
1978.7475291081
 30
0.0
 11
4831.742508174208
 21
2004.629639318099
 31
0.0
  0
LINE
  5
34B
330
18
100
AcDbEntity
  8
SJC
100
AcDbLine
 10
4936.099196072308
 20
2007.7256475728
 30
0.0
 11
4839.506179933508
 21
2033.607605194899
 31
0.0
  0
ARC
  5
34C
330
18
100
AcDbEntity
  8
SJC
100
AcDbCircle
 10
4844.681985118907
 20
2052.9262756658
 30
0.0
 40
19.999999702
100
AcDbArc
 50
213.5940716186
 51
255.0017072523
  0
LINE
  5
34D
330
18
100
AcDbEntity
  8
SJC
100
AcDbLine
 10
4946.451979121108
 20
2046.3624267822
 30
0.0
 11
4849.859573333908
 21
2072.2443844044
 31
0.0
  0
ARC
  5
34E
330
18
100
AcDbEntity
  8
SJC
100
AcDbCircle
 10
4844.682900528008
 20
2052.9259464049
 30
0.0
 40
19.999999702
100
AcDbArc
 50
74.99913402689999
 51
116.4072886241
  0
ARC
  5
34F
330
18
100
AcDbEntity
  8
SJC
100
AcDbCircle
 10
4844.682730532507
 20
2052.9262585896
 30
0.0
 40
49.9999992549
100
AcDbArc
 50
74.99979494119999
 51
147.5425041449
  0
LINE
  5
350
330
18
100
AcDbEntity
  8
SJC
100
AcDbLine
 10
4954.216871583607
 20
2075.340392659
 30
0.0
 11
4857.623855444808
 21
2101.222502869
 31
0.0
  0
ARC
  5
351
330
18
100
AcDbEntity
  8
SJC
100
AcDbCircle
 10
4941.275782819908
 20
2027.044138693399
 30
0.0
 40
49.9999992549
100
AcDbArc
 50
2.457144364199999
 51
74.9998378258
  0
ARC
  5
352
330
18
100
AcDbEntity
  8
SJC
100
AcDbCircle
 10
4941.275434193507
 20
2027.043954516199
 30
0.0
 40
19.999999702
100
AcDbArc
 50
33.5902413433
 51
74.9995132959
  0
ARC
  5
353
330
18
100
AcDbEntity
  8
SJC
100
AcDbCircle
 10
4941.275868878207
 20
2027.0440855723
 30
0.0
 40
19.999999702
100
AcDbArc
 50
254.9991340268999
 51
296.4072886241
  0
ARC
  5
354
330
18
100
AcDbEntity
  8
SJC
100
AcDbCircle
 10
4941.276204711908
 20
2027.043728950399
 30
0.0
 40
49.9999992549
100
AcDbArc
 50
254.9995982006
 51
327.5421500459999
  0
ARC
  5
355
330
18
100
AcDbEntity
  8
SJC
100
AcDbCircle
 10
4474.097094625807
 20
2126.2704150934
 30
0.0
 40
149.9999977647999
100
AcDbArc
 50
285.4653457766999
 51
74.53465422329999
  0
ARC
  5
356
330
18
100
AcDbEntity
  8
SJC
100
AcDbCircle
 10
4665.267923413908
 20
2126.2704150934
 30
0.0
 40
209.1727988545
100
AcDbArc
 50
136.2791668816
 51
223.7208331184
  0
LINE
  5
357
330
18
100
AcDbEntity
  8
SJC
100
AcDbLine
 10
4683.756670535607
 20
2147.8094162373
 30
0.0
 11
4618.963580680808
 21
2165.1708661739
 31
0.0
  0
LINE
  5
358
330
18
100
AcDbEntity
  8
SJC
100
AcDbLine
 10
4675.991778073209
 20
2118.831755536299
 30
0.0
 11
4623.953814981407
 21
2132.7752367739
 31
0.0
  0
LINE
  5
359
330
18
100
AcDbEntity
  8
SJC
100
AcDbLine
 10
4665.639605375907
 20
2080.1946711511
 30
0.0
 11
4620.212970310609
 21
2092.3669121807
 31
0.0
  0
LINE
  5
35A
330
18
100
AcDbEntity
  8
SJC
100
AcDbLine
 10
4657.874712913508
 20
2051.2168578622
 30
0.0
 11
4610.516315181707
 21
2063.9069821848
 31
0.0
  0
LINE
  5
35B
330
18
100
AcDbEntity
  8
HASEN
100
AcDbLine
 10
4618.963580680808
 20
2165.1708661739
 30
0.0
 11
4587.164264748408
 21
2173.691984211
 31
0.0
  0
LINE
  5
35C
330
18
100
AcDbEntity
  8
HASEN
100
AcDbLine
 10
4610.516315181707
 20
2063.9069821848
 30
0.0
 11
4561.282917477807
 21
2077.099273248
 31
0.0
  0
LINE
  5
35D
330
18
100
AcDbEntity
  8
HASEN
100
AcDbLine
 10
4623.953814981407
 20
2132.7752367739
 30
0.0
 11
4579.399982637508
 21
2144.7131028069
 31
0.0
  0
LINE
  5
35E
330
18
100
AcDbEntity
  8
HASEN
100
AcDbLine
 10
4620.212970310609
 20
2092.3669121807
 30
0.0
 11
4569.046589237108
 21
2106.076628773299
 31
0.0
  0
CIRCLE
  5
35F
330
18
100
AcDbEntity
  8
HASEN
100
AcDbCircle
 10
4574.094806935308
 20
2126.270109917699
 30
0.0
 40
12.4999998137
  0
ARC
  5
360
330
18
100
AcDbEntity
  8
HASEN
100
AcDbCircle
 10
4574.223285937308
 20
2125.395170965899
 30
0.0
 40
20.00010652899999
100
AcDbArc
 50
74.9991451672
 51
254.9991451672
  0
ARC
  5
361
330
18
100
AcDbEntity
  8
HASEN
100
AcDbCircle
 10
4574.223591113108
 20
2125.3953998477
 30
0.0
 40
50.0002109526
100
AcDbArc
 50
75.00039530800001
 51
255.000395308
  0
LINE
  5
362
330
18
100
AcDbEntity
  8
HASEN
100
AcDbLine
 10
4544.095417733907
 20
2201.3390785256
 30
0.0
 11
4603.959003267608
 21
2201.3390785256
 31
0.0
  0
LINE
  5
363
330
18
100
AcDbEntity
  8
HASEN
100
AcDbLine
 10
4544.095417733907
 20
2251.339077780599
 30
0.0
 11
4544.095417733907
 21
2201.3390785256
 31
0.0
  0
LINE
  5
364
330
18
100
AcDbEntity
  8
HASEN
100
AcDbLine
 10
4544.095417733907
 20
2251.339077780599
 30
0.0
 11
4556.907002015708
 21
2251.339077780599
 31
0.0
  0
LINE
  5
365
330
18
100
AcDbEntity
  8
HASEN
100
AcDbLine
 10
4531.095539997908
 20
2210.0890783952
 30
0.0
 11
4531.095539997908
 21
2242.5890779109
 31
0.0
  0
LINE
  5
366
330
18
100
AcDbEntity
  8
HASEN
100
AcDbLine
 10
4473.623006674607
 20
2210.0890783952
 30
0.0
 11
4531.095539997908
 21
2210.0890783952
 31
0.0
  0
LINE
  5
367
330
18
100
AcDbEntity
  8
HASEN
100
AcDbLine
 10
4473.623006674607
 20
2242.5890779109
 30
0.0
 11
4531.095539997908
 21
2242.5890779109
 31
0.0
  0
LINE
  5
368
330
18
100
AcDbEntity
  8
HASEN
100
AcDbLine
 10
4531.095539997908
 20
2242.5890779109
 30
0.0
 11
4544.095417733907
 21
2251.339077780599
 31
0.0
  0
LINE
  5
369
330
18
100
AcDbEntity
  8
HASEN
100
AcDbLine
 10
4531.095539997908
 20
2210.0890783952
 30
0.0
 11
4544.095417733907
 21
2201.3390785256
 31
0.0
  0
LINE
  5
36A
330
18
100
AcDbEntity
  8
HASEN
100
AcDbLine
 10
4473.623006674607
 20
2210.0890783952
 30
0.0
 11
4473.623006674607
 21
2242.5890779109
 31
0.0
  0
LINE
  5
36B
330
18
100
AcDbEntity
  8
HASEN
100
AcDbLine
 10
4544.095417733907
 20
2049.451415994
 30
0.0
 11
4603.959003267608
 21
2049.451415994
 31
0.0
  0
LINE
  5
36C
330
18
100
AcDbEntity
  8
HASEN
100
AcDbLine
 10
4544.095417733907
 20
1999.451416739099
 30
0.0
 11
4544.095417733907
 21
2049.451415994
 31
0.0
  0
LINE
  5
36D
330
18
100
AcDbEntity
  8
HASEN
100
AcDbLine
 10
4544.095417733907
 20
1999.451416739099
 30
0.0
 11
4556.907002015708
 21
1999.451416739099
 31
0.0
  0
LINE
  5
36E
330
18
100
AcDbEntity
  8
HASEN
100
AcDbLine
 10
4531.095539997908
 20
2040.7014161244
 30
0.0
 11
4531.095539997908
 21
2008.2014166087
 31
0.0
  0
LINE
  5
36F
330
18
100
AcDbEntity
  8
HASEN
100
AcDbLine
 10
4473.623006674607
 20
2040.7014161244
 30
0.0
 11
4531.095539997908
 21
2040.7014161244
 31
0.0
  0
LINE
  5
370
330
18
100
AcDbEntity
  8
HASEN
100
AcDbLine
 10
4473.623006674607
 20
2008.2014166087
 30
0.0
 11
4531.095539997908
 21
2008.2014166087
 31
0.0
  0
LINE
  5
371
330
18
100
AcDbEntity
  8
HASEN
100
AcDbLine
 10
4531.095539997908
 20
2008.2014166087
 30
0.0
 11
4544.095417733907
 21
1999.451416739099
 31
0.0
  0
LINE
  5
372
330
18
100
AcDbEntity
  8
HASEN
100
AcDbLine
 10
4531.095539997908
 20
2040.7014161244
 30
0.0
 11
4544.095417733907
 21
2049.451415994
 31
0.0
  0
LINE
  5
373
330
18
100
AcDbEntity
  8
HASEN
100
AcDbLine
 10
4473.623006674607
 20
2040.7014161244
 30
0.0
 11
4473.623006674607
 21
2008.2014166087
 31
0.0
  0
ARC
  5
374
330
18
100
AcDbEntity
  8
SJC
100
AcDbCircle
 10
4339.345359749807
 20
1469.4286665197
 30
0.0
 40
458.4328010912
100
AcDbArc
 50
67.5925785358
 51
112.4074214641999
  0
ARC
  5
375
330
18
100
AcDbEntity
  8
SJC
100
AcDbCircle
 10
4339.345359749807
 20
2317.067859088399
 30
0.0
 40
458.4328010912
100
AcDbArc
 50
247.5925785358
 51
292.4074214641999
  0
LINE
  5
376
330
18
100
AcDbEntity
  8
SJC
100
AcDbLine
 10
4514.095418180907
 20
2270.8391995603
 30
0.0
 11
4514.095418180907
 21
2425.270349602799
 31
0.0
  0
LINE
  5
377
330
18
100
AcDbEntity
  8
SJC
100
AcDbLine
 10
3815.095184456207
 20
2270.8391995603
 30
0.0
 11
3815.095184456207
 21
2425.270349602799
 31
0.0
  0
ARC
  5
378
330
18
100
AcDbEntity
  8
SJC
100
AcDbCircle
 10
3663.922679223307
 20
2126.2704150934
 30
0.0
 40
209.1727988545
100
AcDbArc
 50
316.2791668816
 51
43.72083311839999
  0
ARC
  5
379
330
18
100
AcDbEntity
  8
SJC
100
AcDbCircle
 10
3855.093508011408
 20
2126.2704150934
 30
0.0
 40
149.9999977647999
100
AcDbArc
 50
105.4653457767
 51
254.5346542233
  0
ARC
  5
37A
330
18
100
AcDbEntity
  8
SJC
100
AcDbCircle
 10
3989.845242887408
 20
2317.067859088399
 30
0.0
 40
458.4328010912
100
AcDbArc
 50
247.5925785358
 51
292.4074214641999
  0
LINE
  5
37B
330
18
100
AcDbEntity
  8
SJC
100
AcDbLine
 10
3815.095184456207
 20
2425.270349602799
 30
0.0
 11
4514.094807829407
 21
2425.270349602799
 31
0.0
  0
ARC
  5
37C
330
18
100
AcDbEntity
  8
SJC
100
AcDbCircle
 10
4164.594996142808
 20
2424.905214515499
 30
0.0
 40
349.5000024213999
100
AcDbArc
 50
0.0598589503
 51
179.9401410496999
  0
CIRCLE
  5
37D
330
18
100
AcDbEntity
  8
SJC
100
AcDbCircle
 10
3755.095490526108
 20
2126.270109917699
 30
0.0
 40
12.4999998137
  0
LINE
  5
37E
330
18
100
AcDbEntity
  8
SJC
100
AcDbLine
 10
3650.525484760108
 20
2113.845183345
 30
0.0
 11
3486.318333886607
 21
2069.846313151
 31
0.0
  0
LINE
  5
37F
330
18
100
AcDbEntity
  8
SJC
100
AcDbLine
 10
3658.290987574007
 20
2084.866912292399
 30
0.0
 11
3494.083226349108
 21
2040.8683472742
 31
0.0
  0
ARC
  5
380
330
18
100
AcDbEntity
  8
SJC
100
AcDbCircle
 10
3654.408236167108
 20
2099.356047818699
 30
0.0
 40
15.0003602219
100
AcDbArc
 50
285.0014730000999
 51
105.0014730001
  0
ARC
  5
381
330
18
100
AcDbEntity
  8
SJC
100
AcDbCircle
 10
3658.375203371107
 20
2099.5132196529
 30
0.0
 40
49.9999992549
100
AcDbArc
 50
212.4578626661999
 51
284.9996847784
  0
ARC
  5
382
330
18
100
AcDbEntity
  8
SJC
100
AcDbCircle
 10
3658.374327182208
 20
2099.5131098813
 30
0.0
 40
19.999999702
100
AcDbArc
 50
243.5907504033
 51
285.0008578855
  0
ARC
  5
383
330
18
100
AcDbEntity
  8
SJC
100
AcDbCircle
 10
3658.374873569808
 20
2099.5131503908
 30
0.0
 40
19.999999702
100
AcDbArc
 50
104.9990158773
 51
146.4103511914999
  0
ARC
  5
384
330
18
100
AcDbEntity
  8
SJC
100
AcDbCircle
 10
3658.374390164107
 20
2099.5129932784
 30
0.0
 40
49.9999992549
100
AcDbArc
 50
104.9994139495
 51
177.5423117777999
  0
LINE
  5
385
330
18
100
AcDbEntity
  8
SJC
100
AcDbLine
 10
3645.433932101608
 20
2147.8094162373
 30
0.0
 11
3710.227021956407
 21
2165.1708661739
 31
0.0
  0
LINE
  5
386
330
18
100
AcDbEntity
  8
SJC
100
AcDbLine
 10
3653.198824564007
 20
2118.831755536299
 30
0.0
 11
3705.236787655708
 21
2132.7752367739
 31
0.0
  0
LINE
  5
387
330
18
100
AcDbEntity
  8
SJC
100
AcDbLine
 10
3663.550997261308
 20
2080.1946711511
 30
0.0
 11
3708.977632326607
 21
2092.3669121807
 31
0.0
  0
LINE
  5
388
330
18
100
AcDbEntity
  8
SJC
100
AcDbLine
 10
3671.315889723707
 20
2051.2168578622
 30
0.0
 11
3718.674287455508
 21
2063.9069821848
 31
0.0
  0
CIRCLE
  5
389
330
18
100
AcDbEntity
  8
SJC
100
AcDbCircle
 10
5681.584807444397
 20
2168.920383470883
 30
0.0
 40
149.9999977647999
  0
CIRCLE
  5
38A
330
18
100
AcDbEntity
  8
SJC
100
AcDbCircle
 10
5681.583586741297
 20
2274.420412416483
 30
0.0
 40
24.9999996275
  0
CIRCLE
  5
38B
330
18
100
AcDbEntity
  8
SJC
100
AcDbCircle
 10
5681.583586741297
 20
2063.420354525383
 30
0.0
 40
24.9999996275
  0
ARC
  5
38C
330
18
100
AcDbEntity
  8
SJC
100
AcDbCircle
 10
5681.583586741297
 20
2198.420199925883
 30
0.0
 40
19.999999702
100
AcDbArc
 50
0.0
 51
180.0
  0
LINE
  5
38D
330
18
100
AcDbEntity
  8
SJC
100
AcDbLine
 10
5661.584807742396
 20
2198.420199925883
 30
0.0
 11
5661.584807742396
 21
2078.421575004983
 31
0.0
  0
LINE
  5
38E
330
18
100
AcDbEntity
  8
SJC
100
AcDbLine
 10
5701.584196794796
 20
2198.420199925883
 30
0.0
 11
5701.584196794796
 21
2078.419896538283
 31
0.0
  0
LINE
  5
38F
330
18
100
AcDbEntity
  8
HASEN
100
AcDbLine
 10
5616.584808412997
 20
2181.420383284683
 30
0.0
 11
5661.584807742396
 21
2181.420383284683
 31
0.0
  0
LINE
  5
390
330
18
100
AcDbEntity
  8
HASEN
100
AcDbLine
 10
5616.584808412997
 20
2181.420383284683
 30
0.0
 11
5616.584808412997
 21
2156.420383657183
 31
0.0
  0
LINE
  5
391
330
18
100
AcDbEntity
  8
HASEN
100
AcDbLine
 10
5616.584808412997
 20
2156.420383657183
 30
0.0
 11
5661.584807742396
 21
2156.420383657183
 31
0.0
  0
LINE
  5
392
330
18
100
AcDbEntity
  8
HASEN
100
AcDbLine
 10
5701.584196794796
 20
2156.420383657183
 30
0.0
 11
5791.584805805297
 21
2156.420383657183
 31
0.0
  0
LINE
  5
393
330
18
100
AcDbEntity
  8
CENTER
100
AcDbLine
 10
5681.583586741297
 20
2528.780455012883
 30
0.0
 11
5681.583586741297
 21
1820.304666009483
 31
0.0
  0
LINE
  5
394
330
18
100
AcDbEntity
  8
SJC
100
AcDbLine
 10
5661.584807742396
 20
2181.420383284683
 30
0.0
 11
5701.584196794796
 21
2181.420383284683
 31
0.0
  0
LINE
  5
395
330
18
100
AcDbEntity
  8
SJC
100
AcDbLine
 10
5661.584807742396
 20
2156.420383657183
 30
0.0
 11
5701.584196794796
 21
2156.420383657183
 31
0.0
  0
ARC
  5
396
330
18
100
AcDbEntity
  8
SJC
100
AcDbCircle
 10
5856.333645172496
 20
2304.354974286883
 30
0.0
 40
458.4328010912
100
AcDbArc
 50
247.5925785358
 51
292.4074214641999
  0
ARC
  5
397
330
18
100
AcDbEntity
  8
SJC
100
AcDbCircle
 10
5506.833528310097
 20
2304.354974286883
 30
0.0
 40
458.4328010912
100
AcDbArc
 50
247.5925785358
 51
292.4074214641999
  0
ARC
  5
398
330
18
100
AcDbEntity
  8
SJC
100
AcDbCircle
 10
5856.333645172496
 20
1456.715781718283
 30
0.0
 40
458.4328010912
100
AcDbArc
 50
67.5925785358
 51
112.4074214641999
  0
ARC
  5
399
330
18
100
AcDbEntity
  8
SJC
100
AcDbCircle
 10
5506.833833485896
 20
2891.240646693983
 30
0.0
 40
458.4328010912
100
AcDbArc
 50
247.5925785358
 51
292.4074214641999
  0
ARC
  5
39A
330
18
100
AcDbEntity
  8
SJC
100
AcDbCircle
 10
5506.833833485896
 20
2043.601454125283
 30
0.0
 40
458.4328010912
100
AcDbArc
 50
67.5925785358
 51
112.4074214641999
  0
ARC
  5
39B
330
18
100
AcDbEntity
  8
SJC
100
AcDbCircle
 10
5856.334135383196
 20
2043.601530419283
 30
0.0
 40
458.4328010912
100
AcDbArc
 50
67.5926035505
 51
112.4074464789
  0
LINE
  5
39C
330
18
100
AcDbEntity
  8
SJC
100
AcDbLine
 10
5332.083469878897
 20
1880.535378002583
 30
0.0
 11
5332.083469878897
 21
2467.421050409683
 31
0.0
  0
LINE
  5
39D
330
18
100
AcDbEntity
  8
SJC
100
AcDbLine
 10
3815.095184456207
 20
1893.248262803999
 30
0.0
 11
3815.095184456207
 21
1981.7016306266
 31
0.0
  0
LINE
  5
39E
330
18
100
AcDbEntity
  8
SJC
100
AcDbLine
 10
6031.083703603596
 20
1880.535378002583
 30
0.0
 11
6031.083703603596
 21
2467.421050409683
 31
0.0
  0
LINE
  5
39F
330
18
100
AcDbEntity
  8
SJC
100
AcDbLine
 10
4514.095418180907
 20
1893.248262803999
 30
0.0
 11
4514.095418180907
 21
1981.7016306266
 31
0.0
  0
LINE
  5
3A0
330
18
100
AcDbEntity
  8
CENTER
100
AcDbLine
 10
4164.595301318608
 20
2825.5413397321
 30
0.0
 11
4164.595301318608
 21
1835.0593293449
 31
0.0
  0
LINE
  5
3A1
330
18
100
AcDbEntity
  8
CENTER
100
AcDbLine
 10
3023.861983689764
 20
2821.1538275904
 30
0.0
 11
3023.861983689764
 21
633.4615231535
 31
0.0
  0
TEXT
  5
3A2
330
18
100
AcDbEntity
  8
MOJI
100
AcDbText
 10
4313.989213427528
 20
852.420559351033
 30
0.0
 40
60.0
  1
平行ピン
 41
0.8
  7
KANJI08
100
AcDbText
  0
ARC
  5
3A3
330
18
100
AcDbEntity
  8
KASOU
100
AcDbCircle
 10
2021.857403965599
 20
10979.85078364098
 30
0.0
 40
6530.7738284651
100
AcDbArc
 50
263.1546514771
 51
276.8572436556
  0
ARC
  5
3A4
330
18
100
AcDbEntity
  8
KASOU
100
AcDbCircle
 10
2021.8583210364
 20
10999.85059013528
 30
0.0
 40
6530.7738284651
100
AcDbArc
 50
263.1593111492
 51
276.8477434110999
  0
ARC
  5
3A5
330
18
100
AcDbEntity
  8
KASOU
100
AcDbCircle
 10
4021.857068987499
 20
10979.85078364098
 30
0.0
 40
6530.7738284651
100
AcDbArc
 50
263.1546514771
 51
276.8572436556
  0
ARC
  5
3A6
330
18
100
AcDbEntity
  8
KASOU
100
AcDbCircle
 10
4021.857986058299
 20
10999.85059013528
 30
0.0
 40
6530.7738284651
100
AcDbArc
 50
263.1593111492
 51
276.8477434110999
  0
LINE
  5
3A7
330
18
100
AcDbEntity
  8
SJC
100
AcDbLine
 10
1494.851089711795
 20
695.7693377767999
 30
0.0
 11
529.4263757041949
 21
695.7693377767999
 31
0.0
  0
LINE
  5
3A8
330
18
100
AcDbEntity
  8
SJC
100
AcDbLine
 10
6051.9573072797
 20
3627.64708382078
 30
0.0
 11
5786.658351912741
 21
3627.64708382078
 31
0.0
1001
ACAD
1000
ASC_BOUNDS
1002
{
1070
    19
1005
7BE
1002
}
  0
LINE
  5
3A9
330
18
100
AcDbEntity
  8
SJC
100
AcDbLine
 10
6191.7571098841
 20
3627.64708382078
 30
0.0
 11
6430.457057499001
 21
3627.64708382078
 31
0.0
1001
ACAD
1000
ASC_BOUNDS
1002
{
1070
    19
1005
7BE
1002
}
  0
TEXT
  5
3AA
330
18
100
AcDbEntity
  8
MOJI
100
AcDbText
 10
560.0225294339634
 20
721.8792541415226
 30
0.0
 40
60.0
  1
GL
 41
0.8
  7
KANJI08
100
AcDbText
  0
TEXT
  5
3B2
330
18
100
AcDbEntity
  8
MOJI
100
AcDbText
 10
3235.382357785772
 20
4809.475917439194
 30
0.0
 40
60.0
  1
擬宝珠
 41
0.8
  7
KANJI08
100
AcDbText
  0
TEXT
  5
3BB
330
18
100
AcDbEntity
  8
MOJI
100
AcDbText
 10
1505.005058363651
 20
539.4346405242843
 30
0.0
 40
60.0
  1
1
 41
0.8
  7
KANJI08
100
AcDbText
  0
TEXT
  5
3C4
330
18
100
AcDbEntity
  8
MOJI
100
AcDbText
 10
1391.997736992079
 20
2152.24248437299
 30
0.0
 40
60.0
  1
3
 41
0.8
  7
KANJI08
100
AcDbText
  0
TEXT
  5
3CC
330
18
100
AcDbEntity
  8
MOJI
100
AcDbText
 10
286.4894945210426
 20
2154.145780889
 30
0.0
 40
60.0
  1
チェーンφ6
 41
0.8
  7
KANJI08
100
AcDbText
  0
TEXT
  5
3CE
330
18
100
AcDbEntity
  8
MOJI
100
AcDbText
 10
197.3417917964302
 20
2158.685756532976
 30
0.0
 40
60.0
  1
4
 41
0.8
  7
KANJI08
100
AcDbText
  0
TEXT
  5
3CF
330
18
100
AcDbEntity
  8
MOJI
100
AcDbText
 10
388.0858435954523
 20
2890.890567388591
 30
0.0
 40
60.0
  1
平行ピンφ5
 41
0.8
  7
KANJI08
100
AcDbText
  0
TEXT
  5
3D8
330
18
100
AcDbEntity
  8
MOJI
100
AcDbText
 10
306.2299232301179
 20
2898.846271257055
 30
0.0
 40
60.0
  1
5
 41
0.8
  7
KANJI08
100
AcDbText
  0
TEXT
  5
3DA
330
18
100
AcDbEntity
  8
MOJI
100
AcDbText
 10
1464.379271407774
 20
2894.986303301386
 30
0.0
 40
60.0
  1
擬宝珠
 41
0.8
  7
KANJI08
100
AcDbText
  0
TEXT
  5
3DB
330
18
100
AcDbEntity
  8
MOJI
100
AcDbText
 10
1385.910214327035
 20
2898.198015903
 30
0.0
 40
60.0
  1
2
 41
0.8
  7
KANJI08
100
AcDbText
  0
TEXT
  5
3F1
330
18
100
AcDbEntity
  8
MOJI
100
AcDbText
 10
3286.6482054197
 20
4306.716846105412
 30
0.0
 40
60.0
  1
チェーン金具
 41
0.8
  7
KANJI08
100
AcDbText
  0
TEXT
  5
3F9
330
18
100
AcDbEntity
  8
MOJI
100
AcDbText
 10
3282.065753357512
 20
4658.637581586808
 30
0.0
 40
60.0
  1
チェーンφ6
 41
0.8
  7
KANJI08
100
AcDbText
  0
TEXT
  5
401
330
18
100
AcDbEntity
  8
MOJI
100
AcDbText
 10
4704.889256625786
 20
2365.675499192092
 30
0.0
 40
60.0
  1
6
 41
0.8
  7
KANJI08
100
AcDbText
  0
LINE
  5
403
330
18
100
AcDbEntity
  8
HASEN
100
AcDbLine
 10
5701.584196794796
 20
2181.420383284683
 30
0.0
 11
5791.584805805297
 21
2181.420383284683
 31
0.0
  0
CIRCLE
  5
404
330
18
100
AcDbEntity
  8
HASEN
100
AcDbCircle
 10
5791.584805805297
 20
2168.920383470883
 30
0.0
 40
12.4999998137
  0
TEXT
  5
405
330
18
100
AcDbEntity
  8
MOJI
100
AcDbText
 10
5204.789466895857
 20
848.0780409449982
 30
0.0
 40
60.0
  1
φ5×30
 41
0.8
  7
KANJI08
100
AcDbText
  0
TEXT
  5
406
330
18
100
AcDbEntity
  8
MOJI
100
AcDbText
 10
5205.827440104171
 20
748.5927722452209
 30
0.0
 40
60.0
  1
M5×15
 41
0.8
  7
KANJI08
100
AcDbText
  0
TEXT
  5
407
330
18
100
AcDbEntity
  8
MOJI
100
AcDbText
 10
4650.49381158674
 20
1149.674105786776
 30
0.0
 40
60.0
  1
アルミ合金
 41
0.8
  7
KANJI08
100
AcDbText
  0
LINE
  5
408
330
18
100
AcDbEntity
  8
CENTER
100
AcDbLine
 10
6121.8572085819
 20
3185.490626314018
 30
0.0
 11
6121.8572085819
 21
4682.656833724879
 31
0.0
  0
TEXT
  5
409
330
18
100
AcDbEntity
  8
MOJI
100
AcDbText
 10
1585.142398205471
 20
536.5861273803393
 30
0.0
 40
60.0
  1
支柱
 41
0.8
  7
KANJI08
100
AcDbText
  0
TEXT
  5
40A
330
18
100
AcDbEntity
  8
MOJI
100
AcDbText
 10
1357.331013213656
 20
442.930203124075
 30
0.0
 40
60.0
  1
φ139.8×t4.5
 41
0.8
  7
KANJI08
100
AcDbText
  0
TEXT
  5
40B
330
18
100
AcDbEntity
  8
MOJI
100
AcDbText
 10
4780.330546887639
 20
2361.614413759661
 30
0.0
 40
60.0
  1
M5×15
 41
0.8
  7
KANJI08
100
AcDbText
  0
TEXT
  5
40C
330
18
100
AcDbEntity
  8
MOJI
100
AcDbText
 10
3209.070355865073
 20
3480.391211583952
 30
0.0
 40
60.0
  1
支柱φ139.8×t4.5
 41
0.8
  7
KANJI08
100
AcDbText
  0
TEXT
  5
40D
330
18
100
AcDbEntity
  8
MOJI
100
AcDbText
 10
740.1237384714749
 20
3658.665236681173
 30
0.0
 40
60.0
  1
GL
 41
0.8
  7
KANJI08
100
AcDbText
  0
LINE
  5
40E
330
18
100
AcDbEntity
  8
SJC
100
AcDbLine
 10
3474.096654381308
 20
2115.4580373249
 30
0.0
 11
3503.886692999808
 21
2004.2806708175
 31
0.0
  0
DIMENSION
  5
40F
330
18
100
AcDbEntity
  8
SUNPOU
100
AcDbDimension
  2
*D7
 10
6191.7571098841
 20
4755.516643787592
 30
0.0
 11
6099.724722359077
 21
4833.483037179648
 31
0.0
 70
   160
  1
φ139.8
 71
     5
 42
-1.0
  3
SJC
100
AcDbAlignedDimension
 13
6051.9573072797
 23
4630.268571923485
 33
0.0
 14
6191.7571098841
 24
4630.268571923485
 34
0.0
100
AcDbRotatedDimension
1001
ACAD
1000
DSTYLE
1002
{
1070
    40
1040
20.0
1070
    41
1040
2.0
1070
    42
1040
1.0
1070
    43
1040
6.0
1070
    44
1040
1.0
1070
    73
1070
     0
1070
    74
1070
     0
1070
    77
1070
     1
1070
    78
1070
     8
1070
   140
1040
3.0
1070
   147
1040
1.199999999999999
1070
   172
1070
     1
1070
   176
1070
   256
1070
   177
1070
   256
1070
   178
1070
   256
1070
   271
1070
     1
1070
   275
1070
     1
1070
   279
1070
     2
1070
   340
1005
606
1002
}
  0
DIMENSION
  5
410
330
18
100
AcDbEntity
  8
SUNPOU
100
AcDbDimension
  2
*D8
 10
6486.359766627
 20
4527.64646005818
 30
0.0
 11
6431.647529459758
 21
4590.412261048198
 31
0.0
 70
   160
 71
     5
 42
-1.0
  3
SJC
100
AcDbAlignedDimension
 13
6141.8572085819
 23
4657.64645812098
 33
0.0
 14
6211.7571098841
 24
4527.64646005818
 34
0.0
 50
90.0
100
AcDbRotatedDimension
1001
ACAD
1000
DSTYLE
1002
{
1070
    40
1040
20.0
1070
    41
1040
2.0
1070
    42
1040
1.0
1070
    43
1040
6.0
1070
    44
1040
1.0
1070
    73
1070
     0
1070
    74
1070
     0
1070
    77
1070
     1
1070
    78
1070
     8
1070
   140
1040
3.0
1070
   147
1040
1.199999999999999
1070
   172
1070
     1
1070
   176
1070
   256
1070
   177
1070
   256
1070
   178
1070
   256
1070
   271
1070
     1
1070
   275
1070
     1
1070
   279
1070
     2
1070
   340
1005
606
1002
}
  0
DIMENSION
  5
413
330
18
100
AcDbEntity
  8
SUNPOU
100
AcDbDimension
  2
*D16
 10
1240.655536858995
 20
2873.340915277241
 30
0.0
 11
1088.056105199678
 21
2942.478361108257
 31
0.0
 70
   160
  1
φ139.8
 71
     5
 42
-1.0
  3
SJC
100
AcDbAlignedDimension
 13
961.0553212987952
 23
2639.461234538186
 33
0.0
 14
1240.655536858995
 24
2639.461234538186
 34
0.0
100
AcDbRotatedDimension
1001
ACAD
1000
DSTYLE
1002
{
1070
    40
1040
20.0
1070
    41
1040
2.0
1070
    42
1040
1.0
1070
    43
1040
6.0
1070
    44
1040
1.0
1070
    73
1070
     0
1070
    74
1070
     0
1070
    77
1070
     1
1070
    78
1070
     8
1070
   140
1040
3.0
1070
   144
1040
0.5
1070
   147
1040
1.199999999999999
1070
   172
1070
     1
1070
   176
1070
   256
1070
   177
1070
   256
1070
   178
1070
   256
1070
   271
1070
     1
1070
   275
1070
     1
1070
   279
1070
     2
1070
   340
1005
606
1002
}
  0
DIMENSION
  5
414
330
18
100
AcDbEntity
  8
SUNPOU
100
AcDbDimension
  2
*D15
 10
2216.565689066213
 20
2615.6696387653
 30
0.0
 11
2163.805393394417
 21
2685.060992218609
 31
0.0
 70
   160
 71
     5
 42
-1.0
  3
SJC
100
AcDbAlignedDimension
 13
1200.237904702695
 23
2755.669636679099
 33
0.0
 14
1289.337939996095
 24
2615.6696387653
 34
0.0
 50
90.0
100
AcDbRotatedDimension
1001
ACAD
1000
DSTYLE
1002
{
1070
    40
1040
20.0
1070
    41
1040
2.0
1070
    42
1040
1.0
1070
    43
1040
6.0
1070
    44
1040
1.0
1070
    73
1070
     0
1070
    74
1070
     0
1070
    77
1070
     1
1070
    78
1070
     8
1070
   140
1040
3.0
1070
   144
1040
0.5
1070
   147
1040
1.199999999999999
1070
   172
1070
     1
1070
   176
1070
   256
1070
   177
1070
   256
1070
   178
1070
   256
1070
   271
1070
     1
1070
   275
1070
     1
1070
   279
1070
     2
1070
   340
1005
606
1002
}
  0
DIMENSION
  5
415
330
18
100
AcDbEntity
  8
SUNPOU
100
AcDbDimension
  2
*D14
 10
2077.363420632613
 20
695.7693377767999
 30
0.0
 11
2023.363420632613
 21
1595.76932436575
 31
0.0
 70
    32
 71
     5
 42
-1.0
  3
SJC
100
AcDbAlignedDimension
 13
1273.337879199295
 23
2495.769310954699
 33
0.0
 14
1510.952011400795
 24
695.7693377767999
 34
0.0
 50
90.0
100
AcDbRotatedDimension
1001
ACAD
1000
DSTYLE
1002
{
1070
    40
1040
20.0
1070
    41
1040
2.0
1070
    42
1040
1.0
1070
    43
1040
6.0
1070
    44
1040
1.0
1070
    73
1070
     0
1070
    74
1070
     0
1070
    77
1070
     1
1070
    78
1070
     8
1070
   140
1040
3.0
1070
   144
1040
0.5
1070
   147
1040
1.199999999999999
1070
   172
1070
     1
1070
   176
1070
   256
1070
   177
1070
   256
1070
   178
1070
   256
1070
   271
1070
     1
1070
   275
1070
     1
1070
   279
1070
     2
1070
   340
1005
606
1002
}
  0
DIMENSION
  5
416
330
18
100
AcDbEntity
  8
SUNPOU
100
AcDbDimension
  2
*D13
 10
2216.565689066213
 20
695.7693377767999
 30
0.0
 11
2162.565689066213
 21
1655.71948827105
 31
0.0
 70
    32
 71
     5
 42
-1.0
  3
SJC
100
AcDbAlignedDimension
 13
1289.337939996095
 23
2615.6696387653
 33
0.0
 14
1510.952011400795
 24
695.7693377767999
 34
0.0
 50
90.0
100
AcDbRotatedDimension
1001
ACAD
1000
DSTYLE
1002
{
1070
    40
1040
20.0
1070
    41
1040
2.0
1070
    42
1040
1.0
1070
    43
1040
6.0
1070
    44
1040
1.0
1070
    73
1070
     0
1070
    74
1070
     0
1070
    77
1070
     1
1070
    78
1070
     8
1070
   140
1040
3.0
1070
   144
1040
0.5
1070
   147
1040
1.199999999999999
1070
   172
1070
     1
1070
   176
1070
   256
1070
   177
1070
   256
1070
   178
1070
   256
1070
   271
1070
     1
1070
   275
1070
     1
1070
   279
1070
     2
1070
   340
1005
606
1002
}
  0
DIMENSION
  5
417
330
18
100
AcDbEntity
  8
SUNPOU
100
AcDbDimension
  2
*D12
 10
2333.858472962913
 20
695.7693377767999
 30
0.0
 11
2279.858472962913
 21
1725.71948722795
 31
0.0
 70
    32
 71
     5
 42
-1.0
  3
SJC
100
AcDbAlignedDimension
 13
1200.237904702695
 23
2755.669636679099
 33
0.0
 14
1510.952011400795
 24
695.7693377767999
 34
0.0
 50
90.0
100
AcDbRotatedDimension
1001
ACAD
1000
DSTYLE
1002
{
1070
    40
1040
20.0
1070
    41
1040
2.0
1070
    42
1040
1.0
1070
    43
1040
6.0
1070
    44
1040
1.0
1070
    73
1070
     0
1070
    74
1070
     0
1070
    77
1070
     1
1070
    78
1070
     8
1070
   140
1040
3.0
1070
   144
1040
0.5
1070
   147
1040
1.199999999999999
1070
   172
1070
     1
1070
   176
1070
   256
1070
   177
1070
   256
1070
   178
1070
   256
1070
   271
1070
     1
1070
   275
1070
     1
1070
   279
1070
     2
1070
   340
1005
606
1002
}
  0
TEXT
  5
418
330
18
100
AcDbEntity
  8
ZWAKU
100
AcDbText
 10
763.4015747673213
 20
5078.716638030427
 30
0.0
 40
60.0
  1
(1/20)
 41
0.8
  7
KANJI08
100
AcDbText
  0
TEXT
  5
419
330
18
100
AcDbEntity
  8
ZWAKU
100
AcDbText
 10
1950.648355597259
 20
3152.107495912399
 30
0.0
 40
60.0
  1
(1/10)
 41
0.8
  7
KANJI08
100
AcDbText
  0
LINE
  5
41A
330
18
100
AcDbEntity
  8
CENTER
100
AcDbLine
 10
5681.583586741297
 20
2324.420412416483
 30
0.0
 11
5681.583586741297
 21
2224.420412416483
 31
0.0
  0
LWPOLYLINE
  5
41B
330
18
100
AcDbEntity
  8
SJC
100
AcDbPolyline
 90
        6
 70
     1
 43
0.0
 10
5666.583586741296
 20
2265.760158378638
 10
5681.583586741297
 20
2257.099904340793
 10
5696.583586741296
 20
2265.760158378638
 10
5696.583586741296
 20
2283.080666454327
 10
5681.583586741297
 20
2291.740920492171
 10
5666.583586741296
 20
2283.080666454327
  0
LINE
  5
423
330
18
100
AcDbEntity
  8
CENTER
100
AcDbLine
 10
5681.583586741297
 20
2113.420354525383
 30
0.0
 11
5681.583586741297
 21
2013.420354525383
 31
0.0
  0
LWPOLYLINE
  5
424
330
18
100
AcDbEntity
  8
SJC
100
AcDbPolyline
 90
        6
 70
     1
 43
0.0
 10
5666.583586741296
 20
2054.760100487538
 10
5681.583586741297
 20
2046.099846449694
 10
5696.583586741296
 20
2054.760100487538
 10
5696.583586741296
 20
2072.080608563227
 10
5681.583586741297
 20
2080.740862601071
 10
5666.583586741296
 20
2072.080608563227
  0
TEXT
  5
42F
330
18
100
AcDbEntity
  8
MOJI
100
AcDbText
 10
6162.760510446151
 20
2390.962090252241
 30
0.0
 40
60.0
  1
5
 41
0.8
  7
KANJI08
100
AcDbText
  0
TEXT
  5
430
330
18
100
AcDbEntity
  8
MOJI
100
AcDbText
 10
4650.49381158674
 20
1048.157323542657
 30
0.0
 40
60.0
  1
アルミ合金
 41
0.8
  7
KANJI08
100
AcDbText
  0
DIMENSION
  5
431
330
18
100
AcDbEntity
  8
SUNPOU
100
AcDbDimension
  2
*D2
 10
6745.137500576773
 20
3227.647089781179
 30
0.0
 11
6691.137500576772
 21
3942.646773951079
 31
0.0
 70
    32
 71
     5
 42
-1.0
  3
SJC
100
AcDbAlignedDimension
 13
6141.8572085819
 23
4657.64645812098
 33
0.0
 14
6271.857208581899
 24
3227.647089781179
 34
0.0
 50
90.0
100
AcDbRotatedDimension
1001
ACAD
1000
DSTYLE
1002
{
1070
    40
1040
20.0
1070
    41
1040
2.0
1070
    42
1040
1.0
1070
    43
1040
6.0
1070
    44
1040
1.0
1070
    73
1070
     0
1070
    74
1070
     0
1070
    77
1070
     1
1070
    78
1070
     8
1070
   140
1040
3.0
1070
   147
1040
1.199999999999999
1070
   172
1070
     1
1070
   176
1070
   256
1070
   177
1070
   256
1070
   178
1070
   256
1070
   271
1070
     1
1070
   275
1070
     1
1070
   279
1070
     2
1070
   340
1005
606
1002
}
  0
TEXT
  5
432
330
18
100
AcDbEntity
  8
MOJI
100
AcDbText
 10
1475.133091556483
 20
2146.651905442839
 30
0.0
 40
60.0
  1
チェーン金具
 41
0.8
  7
KANJI08
100
AcDbText
  0
DIMENSION
  5
433
330
18
100
AcDbEntity
  8
SUNPOU
100
AcDbDimension
  2
*D1
 10
6619.442034487459
 20
3627.64708382078
 30
0.0
 11
6565.442034487459
 21
4142.64708382078
 31
0.0
 70
    32
 71
     5
 42
-1.0
  3
SJC
100
AcDbAlignedDimension
 13
6121.8572085819
 23
4657.64708382078
 33
0.0
 14
6450.457057499
 24
3627.64708382078
 34
0.0
 50
90.0
100
AcDbRotatedDimension
1001
ACAD
1000
DSTYLE
1002
{
1070
    40
1040
20.0
1070
    41
1040
2.0
1070
    42
1040
1.0
1070
    43
1040
6.0
1070
    44
1040
1.0
1070
    73
1070
     0
1070
    74
1070
     0
1070
    77
1070
     1
1070
    78
1070
     8
1070
   140
1040
3.0
1070
   147
1040
1.199999999999999
1070
   172
1070
     1
1070
   176
1070
   256
1070
   177
1070
   256
1070
   178
1070
   256
1070
   271
1070
     1
1070
   275
1070
     1
1070
   279
1070
     2
1070
   340
1005
606
1002
}
  0
DIMENSION
  5
434
330
18
100
AcDbEntity
  8
SUNPOU
100
AcDbDimension
  2
*D3
 10
6619.442034487459
 20
3227.647089781179
 30
0.0
 11
6565.442034487459
 21
3427.64708680098
 31
0.0
 70
    32
 71
     5
 42
-1.0
  3
SJC
100
AcDbAlignedDimension
 13
6430.457057499001
 23
3627.64708382078
 33
0.0
 14
6271.857208581899
 24
3227.647089781179
 34
0.0
 50
90.0
100
AcDbRotatedDimension
1001
ACAD
1000
DSTYLE
1002
{
1070
    40
1040
20.0
1070
    41
1040
2.0
1070
    42
1040
1.0
1070
    43
1040
6.0
1070
    44
1040
1.0
1070
    73
1070
     0
1070
    74
1070
     0
1070
    77
1070
     1
1070
    78
1070
     8
1070
   140
1040
3.0
1070
   147
1040
1.199999999999999
1070
   172
1070
     1
1070
   176
1070
   256
1070
   177
1070
   256
1070
   178
1070
   256
1070
   271
1070
     1
1070
   275
1070
     1
1070
   279
1070
     2
1070
   340
1005
606
1002
}
  0
TEXT
  5
435
330
18
100
AcDbEntity
  8
MOJI2
100
AcDbText
 10
443.0282175360262
 20
5073.348289585218
 30
0.0
 40
80.0
  1
設置図
 41
0.8
  7
KANJI08
100
AcDbText
  0
LINE
  5
436
330
18
100
AcDbEntity
  8
MOJI2
100
AcDbLine
 10
417.6021226751672
 20
5056.378837344999
 30
0.0
 11
674.0736219556738
 21
5056.378837344999
 31
0.0
  0
LINE
  5
437
330
18
100
AcDbEntity
  8
MOJI2
100
AcDbLine
 10
1621.579516245874
 20
3138.219821298497
 30
0.0
 11
1867.332205148022
 21
3138.219821298497
 31
0.0
  0
TEXT
  5
438
330
18
100
AcDbEntity
  8
MOJI2
100
AcDbText
 10
1636.286800728374
 20
3155.189273538716
 30
0.0
 40
80.0
  1
支柱図
 41
0.8
  7
KANJI08
100
AcDbText
  0
TEXT
  5
439
330
18
100
AcDbEntity
  8
MOJI2
100
AcDbText
 10
3929.486686523194
 20
2995.798884402313
 30
0.0
 40
80.0
  1
取付部詳細図
 41
0.8
  7
KANJI08
100
AcDbText
  0
LINE
  5
43A
330
18
100
AcDbEntity
  8
MOJI2
100
AcDbLine
 10
3912.099693128122
 20
2978.829432162095
 30
0.0
 11
4390.832459592391
 21
2978.829432162095
 31
0.0
  0
TEXT
  5
43B
330
18
100
AcDbEntity
  8
MOJI
100
AcDbText
 10
5881.304217381203
 20
5019.061253085794
 30
0.0
 40
70.0
  1
CR5-1S139
 41
0.8
  7
KANJI08
100
AcDbText
  0
TEXT
  5
43C
330
18
100
AcDbEntity
  8
MOJI
100
AcDbText
 10
4732.56218861205
 20
749.6747899156648
 30
0.0
 40
60.0
  1
SUS
 41
0.8
  7
KANJI08
100
AcDbText
  0
LINE
  5
53B
330
18
100
AcDbEntity
  8
SJC
100
AcDbLine
 10
1091.757796231499
 20
3627.64708382078
 30
0.0
 11
1091.757796231499
 21
4497.64707085668
 31
0.0
  0
LINE
  5
53C
330
18
100
AcDbEntity
  8
SJC
100
AcDbLine
 10
3091.7571560777
 20
3627.64708382078
 30
0.0
 11
3091.757156077699
 21
4497.64707085668
 31
0.0
  0
LINE
  5
53D
330
18
100
AcDbEntity
  8
SJC
100
AcDbLine
 10
2951.9573534733
 20
3627.64708382078
 30
0.0
 11
2951.9573534733
 21
4497.64707085668
 31
0.0
  0
LINE
  5
53E
330
18
100
AcDbEntity
  8
SJC
100
AcDbLine
 10
4951.957323670999
 20
3627.64708382078
 30
0.0
 11
4951.957323670999
 21
4497.64707085668
 31
0.0
  0
LINE
  5
53F
330
18
100
AcDbEntity
  8
SJC
100
AcDbLine
 10
5091.7571262753
 20
3627.64708382078
 30
0.0
 11
5091.7571262753
 21
4497.64707085668
 31
0.0
  0
DIMENSION
  5
54A
330
18
100
AcDbEntity
  8
SUNPOU
100
AcDbDimension
  2
*D9
 10
6486.359766627
 20
3627.64708382078
 30
0.0
 11
6432.359766627
 21
4077.64677193948
 31
0.0
 70
    32
 71
     5
 42
-1.0
  3
SJC
100
AcDbAlignedDimension
 13
6121.8572085819
 23
4527.64646005818
 33
0.0
 14
6430.457057499001
 24
3627.64708382078
 34
0.0
 50
90.0
100
AcDbRotatedDimension
1001
ACAD
1000
DSTYLE
1002
{
1070
    40
1040
20.0
1070
    41
1040
2.0
1070
    42
1040
1.0
1070
    43
1040
6.0
1070
    44
1040
1.0
1070
    73
1070
     0
1070
    74
1070
     0
1070
    77
1070
     1
1070
    78
1070
     8
1070
   140
1040
3.0
1070
   147
1040
1.199999999999999
1070
   172
1070
     1
1070
   176
1070
   256
1070
   177
1070
   256
1070
   178
1070
   256
1070
   271
1070
     1
1070
   275
1070
     1
1070
   279
1070
     2
1070
   340
1005
606
1002
}
  0
LINE
  5
5BE
330
18
100
AcDbEntity
  8
SJC
100
AcDbLine
 10
1240.655536858994
 20
695.7693377767998
 30
0.0
 11
1240.655536858995
 21
2437.9418582031
 31
0.0
  0
LINE
  5
5BF
330
18
100
AcDbEntity
  8
SJC
100
AcDbLine
 10
961.0553212987952
 20
695.7693377767998
 30
0.0
 11
961.0553212987952
 21
2437.9418582031
 31
0.0
  0
TEXT
  5
5CC
330
18
100
AcDbEntity
  8
MOJI
100
AcDbText
 10
4732.56218861205
 20
949.6744478512205
 30
0.0
 40
60.0
  1
SUS
 41
0.8
  7
KANJI08
100
AcDbText
  0
INSERT
  5
5EC
330
18
100
AcDbEntity
  8
ZWAKU
100
AcDbBlockReference
  2
CALCOMP_TECHJET720A3
 10
0.0
 20
0.0
 30
0.0
 41
20.0
 42
20.0
 43
20.0
  0
TEXT
  5
5EE
330
18
100
AcDbEntity
  8
INFORMATION
100
AcDbText
 10
1.0
 20
2.0
 30
0.0
 40
0.8
  1
PLOTTER=CALCOMP_TECHJET720
100
AcDbText
  0
TEXT
  5
5EF
330
18
100
AcDbEntity
  8
INFORMATION
100
AcDbText
 10
1.0
 20
3.0
 30
0.0
 40
0.8
  1
PAPER=A3
100
AcDbText
  0
LINE
  5
609
330
18
100
AcDbEntity
  8
MOJI2
100
AcDbLine
 10
417.6021226751672
 20
5036.378837344999
 30
0.0
 11
674.0736219556738
 21
5036.378837344999
 31
0.0
  0
LINE
  5
60A
330
18
100
AcDbEntity
  8
MOJI2
100
AcDbLine
 10
1621.579516245874
 20
3118.219821298497
 30
0.0
 11
1867.332205148022
 21
3118.219821298497
 31
0.0
  0
LINE
  5
60B
330
18
100
AcDbEntity
  8
MOJI2
100
AcDbLine
 10
3912.099693128122
 20
2958.829432162095
 30
0.0
 11
4390.832459592391
 21
2958.829432162095
 31
0.0
  0
TEXT
  5
60C
330
18
100
AcDbEntity
  8
MOJI
100
AcDbText
 10
5810.032570415397
 20
3644.21080427708
 30
0.0
 40
60.0
  1
GL
 41
0.8
  7
KANJI08
100
AcDbText
  0
DIMENSION
  5
68A
330
18
100
AcDbEntity
  8
SUNPOU
100
AcDbDimension
  2
*D4
 10
6271.857208581899
 20
3062.333662712326
 30
0.0
 11
6121.8572085819
 21
3118.360854935237
 31
0.0
 70
   160
  1
□<>
 71
     5
 42
-1.0
  3
SJC
100
AcDbAlignedDimension
 13
5971.8572085819
 23
3227.647089781179
 33
0.0
 14
6271.857208581899
 24
3227.647089781179
 34
0.0
100
AcDbRotatedDimension
1001
ACAD
1000
DSTYLE
1002
{
1070
    40
1040
20.0
1070
    41
1040
2.0
1070
    42
1040
1.0
1070
    43
1040
6.0
1070
    44
1040
1.0
1070
    73
1070
     0
1070
    74
1070
     0
1070
    77
1070
     1
1070
    78
1070
     8
1070
   140
1040
3.0
1070
   147
1040
1.199999999999999
1070
   172
1070
     1
1070
   176
1070
   256
1070
   177
1070
   256
1070
   178
1070
   256
1070
   271
1070
     1
1070
   275
1070
     1
1070
   279
1070
     2
1070
   340
1005
606
1002
}
  0
DIMENSION
  5
6C5
330
18
100
AcDbEntity
  8
SUNPOU
100
AcDbDimension
  2
*D5
 10
3021.857254775499
 20
4937.020165121203
 30
0.0
 11
2021.857498558499
 21
4991.020165121202
 31
0.0
 70
    32
 71
     5
 42
-1.0
  3
SJC
100
AcDbAlignedDimension
 13
1021.857742341499
 23
4709.508877030427
 33
0.0
 14
3021.857254775499
 24
4709.508877030427
 34
0.0
100
AcDbRotatedDimension
1001
ACAD
1000
DSTYLE
1002
{
1070
    40
1040
20.0
1070
    41
1040
2.0
1070
    42
1040
1.0
1070
    43
1040
6.0
1070
    44
1040
1.0
1070
    73
1070
     0
1070
    74
1070
     0
1070
    77
1070
     1
1070
    78
1070
     8
1070
   140
1040
3.0
1070
   147
1040
1.199999999999999
1070
   172
1070
     1
1070
   176
1070
   256
1070
   177
1070
   256
1070
   178
1070
   256
1070
   271
1070
     1
1070
   275
1070
     1
1070
   279
1070
     2
1070
   340
1005
606
1002
}
  0
DIMENSION
  5
6C6
330
18
100
AcDbEntity
  8
SUNPOU
100
AcDbDimension
  2
*D6
 10
5021.8567672095
 20
4937.020165121203
 30
0.0
 11
4021.8570109925
 21
4991.020165121202
 31
0.0
 70
    32
 71
     5
 42
-1.0
  3
SJC
100
AcDbAlignedDimension
 13
3021.857254775499
 23
4709.508877030427
 33
0.0
 14
5021.8567672095
 24
4709.508877030427
 34
0.0
100
AcDbRotatedDimension
1001
ACAD
1000
DSTYLE
1002
{
1070
    40
1040
20.0
1070
    41
1040
2.0
1070
    42
1040
1.0
1070
    43
1040
6.0
1070
    44
1040
1.0
1070
    73
1070
     0
1070
    74
1070
     0
1070
    77
1070
     1
1070
    78
1070
     8
1070
   140
1040
3.0
1070
   147
1040
1.199999999999999
1070
   172
1070
     1
1070
   176
1070
   256
1070
   177
1070
   256
1070
   178
1070
   256
1070
   271
1070
     1
1070
   275
1070
     1
1070
   279
1070
     2
1070
   340
1005
606
1002
}
  0
SOLID
  5
749
330
18
100
AcDbEntity
  8
MOJI
  6
Continuous
100
AcDbTrace
 10
3096.145226009217
 20
3728.481031424653
 30
0.0
 11
3108.982725954305
 21
3732.083304726006
 31
0.0
 12
3091.757156077699
 22
3768.794667910593
 32
0.0
 13
3091.757156077699
 23
3768.794667910593
 33
0.0
  0
LINE
  5
74A
330
18
100
AcDbEntity
  8
MOJI
  6
Continuous
100
AcDbLine
 10
3102.563975981762
 20
3730.28216807533
 30
0.0
 11
3179.90704262265
 21
3454.652994302708
 31
0.0
  0
LINE
  5
74B
330
18
100
AcDbEntity
  8
MOJI
  6
Continuous
100
AcDbLine
 10
3179.90704262265
 20
3454.652994302708
 30
0.0
 11
3784.184317623458
 21
3454.652994302708
 31
0.0
  0
LINE
  5
74E
330
18
100
AcDbEntity
  8
MOJI
  6
Continuous
100
AcDbLine
 10
3267.074295219471
 20
4288.356789362948
 30
0.0
 11
3624.529896474519
 21
4288.356789362948
 31
0.0
  0
SOLID
  5
74F
330
18
100
AcDbEntity
  8
MOJI
  6
Continuous
100
AcDbTrace
 10
3125.76634385358
 20
4473.850247131203
 30
0.0
 11
3136.599325141183
 21
4481.623553647753
 31
0.0
 12
3107.862914947734
 22
4510.235844252285
 32
0.0
 13
3107.862914947734
 23
4510.235844252285
 33
0.0
  0
LINE
  5
750
330
18
100
AcDbEntity
  8
MOJI
  6
Continuous
100
AcDbLine
 10
3131.182834497382
 20
4477.736900389478
 30
0.0
 11
3267.074295219471
 21
4288.356789362948
 31
0.0
  0
SOLID
  5
751
330
18
100
AcDbEntity
  8
MOJI
  6
Continuous
100
AcDbTrace
 10
3243.264774357962
 20
4556.323950945212
 30
0.0
 11
3230.78542251792
 21
4561.019007433715
 31
0.0
 12
3222.939928972432
 22
4521.233423669339
 32
0.0
 13
3222.939928972432
 23
4521.233423669339
 33
0.0
  0
LINE
  5
752
330
18
100
AcDbEntity
  8
MOJI
  6
Continuous
100
AcDbLine
 10
3237.025098437941
 20
4558.671479189465
 30
0.0
 11
3269.096302199192
 21
4643.915998962629
 31
0.0
  0
LINE
  5
753
330
18
100
AcDbEntity
  8
MOJI
  6
Continuous
100
AcDbLine
 10
3269.096302199192
 20
4643.915998962629
 30
0.0
 11
3628.573910433966
 21
4643.915998962629
 31
0.0
  0
LINE
  5
76C
330
18
100
AcDbEntity
  8
MOJI
  6
Continuous
100
AcDbLine
 10
3208.050221810796
 20
4787.285815153537
 30
0.0
 11
3410.686983213168
 21
4787.285815153537
 31
0.0
  0
INSERT
  5
77E
330
18
100
AcDbEntity
  8
MOJI
100
AcDbBlockReference
  2
B0040021
 10
5835.766128886251
 20
3627.64708382078
 30
0.0
  0
INSERT
  5
7BE
330
18
100
AcDbEntity
  8
HATCH
100
AcDbBlockReference
  2
*X11
 10
0.0
 20
0.0
 30
0.0
1001
ACAD
1000
HATCH
1002
{
1070
    19
1000
PLAST
1040
500.0
1040
0.7853981633974483
1000
ASC_BOUNDS
1070
     2
1070
     1
1070
     4
1005
3A8
1005
1C4
1005
1C6
1005
1DC
1070
     1
1070
     4
1005
3A9
1005
1DD
1005
1C6
1005
1C5
1000
ASC_SEEDPOINT
1011
6227.804270080869
1021
3475.418307409078
1031
0.0
1002
}
  0
INSERT
  5
7D1
330
18
100
AcDbEntity
  8
MOJI
100
AcDbBlockReference
  2
B0040021
 10
648.4165468946084
 20
693.4311019027555
 30
0.0
 41
2.0
 42
2.0
 43
2.0
  0
SOLID
  5
8B5
330
18
100
AcDbEntity
  8
MOJI
  6
Continuous
100
AcDbTrace
 10
1240.401441310869
 20
932.8141064555778
 30
0.0
 11
1253.566837000456
 21
934.9236405544671
 31
0.0
 12
1240.655536858995
 22
973.3650605737841
 32
0.0
 13
1240.655536858995
 23
973.3650605737841
 33
0.0
  0
LINE
  5
8B6
330
18
100
AcDbEntity
  8
MOJI
  6
Continuous
100
AcDbLine
 10
1246.984139155663
 20
933.8688735050224
 30
0.0
 11
1330.668486247788
 21
411.6030598958986
 31
0.0
  0
LINE
  5
8B7
330
18
100
AcDbEntity
  8
MOJI
  6
Continuous
100
AcDbLine
 10
1330.668486247788
 20
411.6030598958986
 30
0.0
 11
1844.921769881777
 21
411.6030598958986
 31
0.0
  0
SOLID
  5
8B8
330
18
100
AcDbEntity
  8
MOJI
  6
Continuous
100
AcDbTrace
 10
716.1572405456945
 20
2386.893595536295
 30
0.0
 11
728.7926962864057
 21
2382.636479610895
 31
0.0
 12
735.2463161922523
 22
2422.67140479573
 32
0.0
 13
735.2463161922523
 23
2422.67140479573
 33
0.0
  0
LINE
  5
8B9
330
18
100
AcDbEntity
  8
MOJI
  6
Continuous
100
AcDbLine
 10
722.4749684160497
 20
2384.765037573595
 30
0.0
 11
635.8825258761862
 21
2127.751840290384
 31
0.0
  0
LINE
  5
8BA
330
18
100
AcDbEntity
  8
MOJI
  6
Continuous
100
AcDbLine
 10
635.8825258761862
 20
2127.751840290384
 30
0.0
 11
178.8962909147267
 21
2127.751840290384
 31
0.0
  0
SOLID
  5
8BD
330
18
100
AcDbEntity
  8
MOJI
  6
Continuous
100
AcDbTrace
 10
1278.434949859026
 20
2421.524446539709
 30
0.0
 11
1291.281396067252
 21
2425.094684290466
 31
0.0
 12
1274.147459710869
 22
2461.848904039766
 32
0.0
 13
1274.147459710869
 23
2461.848904039766
 33
0.0
  0
LINE
  5
8BE
330
18
100
AcDbEntity
  8
MOJI
  6
Continuous
100
AcDbLine
 10
1284.858172963139
 20
2423.309565415087
 30
0.0
 11
1367.266989484273
 21
2126.785775564413
 31
0.0
  0
LINE
  5
8BF
330
18
100
AcDbEntity
  8
MOJI
  6
Continuous
100
AcDbLine
 10
1367.266989484272
 20
2126.785775564413
 30
0.0
 11
1798.086316122986
 21
2126.785775564413
 31
0.0
  0
SOLID
  5
8C0
330
18
100
AcDbEntity
  8
MOJI
  6
Continuous
100
AcDbTrace
 10
926.7760071042689
 20
2537.628690973016
 30
0.0
 11
915.1319669334329
 21
2531.132991913043
 31
0.0
 12
940.441084198771
 22
2499.448720930522
 32
0.0
 13
940.441084198771
 23
2499.448720930522
 33
0.0
  0
LINE
  5
8C1
330
18
100
AcDbEntity
  8
MOJI
  6
Continuous
100
AcDbLine
 10
920.9539870188509
 20
2534.380841443029
 30
0.0
 11
732.2075165710957
 21
2872.723406839856
 31
0.0
  0
LINE
  5
8C2
330
18
100
AcDbEntity
  8
MOJI
  6
Continuous
100
AcDbLine
 10
732.2075165710957
 20
2872.723406839856
 30
0.0
 11
282.4236548028165
 21
2872.723406839856
 31
0.0
  0
SOLID
  5
8C3
330
18
100
AcDbEntity
  8
MOJI
  6
Continuous
100
AcDbTrace
 10
1216.675643506351
 20
2748.496486270372
 30
0.0
 11
1208.84808833154
 21
2759.290334414712
 31
0.0
 12
1180.380321485926
 22
2730.41074481811
 32
0.0
 13
1180.380321485926
 23
2730.41074481811
 33
0.0
  0
LINE
  5
8C4
330
18
100
AcDbEntity
  8
MOJI
  6
Continuous
100
AcDbLine
 10
1212.761865918945
 20
2753.893410342542
 30
0.0
 11
1373.869078565596
 21
2870.726219104348
 31
0.0
  0
LINE
  5
8C5
330
18
100
AcDbEntity
  8
MOJI
  6
Continuous
100
AcDbLine
 10
1373.869078565596
 20
2870.726219104348
 30
0.0
 11
1635.75205970183
 21
2870.726219104348
 31
0.0
  0
SOLID
  5
8EA
330
18
100
AcDbEntity
  8
MOJI
  6
Continuous
100
AcDbTrace
 10
4618.220548391515
 20
2250.805739349906
 30
0.0
 11
4608.444090519544
 21
2259.872086423305
 31
0.0
 12
4586.133278235329
 22
2226.009539270692
 32
0.0
 13
4586.133278235329
 23
2226.009539270692
 33
0.0
  0
LINE
  5
8EB
330
18
100
AcDbEntity
  8
MOJI
  6
Continuous
100
AcDbLine
 10
4613.332319455529
 20
2255.338912886606
 30
0.0
 11
4684.371997907932
 21
2331.942689248306
 31
0.0
  0
LINE
  5
8EC
330
18
100
AcDbEntity
  8
MOJI
  6
Continuous
100
AcDbLine
 10
4684.371997907932
 20
2331.942689248306
 30
0.0
 11
5031.287764580524
 21
2331.942689248306
 31
0.0
  0
INSERT
  5
928
330
18
100
AcDbEntity
  8
MOJI
100
AcDbBlockReference
  2
B0040021
 10
2613.314856150682
 20
693.4311019027555
 30
0.0
 41
2.0
 42
2.0
 43
2.0
  0
TEXT
  5
929
330
18
100
AcDbEntity
  8
MOJI
100
AcDbText
 10
2524.920838690037
 20
721.8792541415226
 30
0.0
 40
60.0
  1
GL
 41
0.8
  7
KANJI08
100
AcDbText
  0
SOLID
  5
92A
330
18
100
AcDbEntity
  8
MOJI
  6
Continuous
100
AcDbTrace
 10
3058.485968010829
 20
4674.928867737599
 30
0.0
 11
3050.862591053324
 21
4685.867875989791
 31
0.0
 12
3021.857254775498
 22
4657.528240991177
 32
0.0
 13
3021.857254775498
 23
4657.528240991177
 33
0.0
  0
LINE
  5
92B
330
18
100
AcDbEntity
  8
MOJI
  6
Continuous
100
AcDbLine
 10
3054.674279532077
 20
4680.398371863695
 30
0.0
 11
3208.050221810796
 21
4787.285815153537
 31
0.0
  0
CIRCLE
  5
933
330
18
100
AcDbEntity
  8
MOJI
100
AcDbCircle
 10
4729.152998965288
 20
2391.388858180854
 30
0.0
 40
48.0
  0
CIRCLE
  5
934
330
18
100
AcDbEntity
  8
MOJI
100
AcDbCircle
 10
6182.717948956621
 20
2422.486043052163
 30
0.0
 40
48.0
  0
CIRCLE
  5
935
330
18
100
AcDbEntity
  8
MOJI
100
AcDbCircle
 10
1529.486840898305
 20
571.8765563395573
 30
0.0
 40
48.0
  0
CIRCLE
  5
936
330
18
100
AcDbEntity
  8
MOJI
100
AcDbCircle
 10
327.7297426508848
 20
2927.925114252535
 30
0.0
 40
48.0
  0
CIRCLE
  5
937
330
18
100
AcDbEntity
  8
MOJI
100
AcDbCircle
 10
223.826643658489
 20
2189.033211044998
 30
0.0
 40
48.0
  0
CIRCLE
  5
938
330
18
100
AcDbEntity
  8
MOJI
100
AcDbCircle
 10
1415.65643995524
 20
2182.926678720794
 30
0.0
 40
48.0
  0
CIRCLE
  5
939
330
18
100
AcDbEntity
  8
MOJI
100
AcDbCircle
 10
1407.50716714725
 20
2925.88959518903
 30
0.0
 40
48.0
  0
TEXT
  5
9DB
330
18
100
AcDbEntity
  8
INFORMATION
100
AcDbText
 10
1.0
 20
1.0
 30
0.0
 40
0.8
  1
VERSION=3.0
100
AcDbText
  0
SOLID
  5
9EA
330
18
100
AcDbEntity
  8
MOJI
100
AcDbTrace
 10
5837.105375133859
 20
2194.244680143051
 30
0.0
 11
5829.930390044536
 21
2205.48289026503
 31
0.0
 12
5799.803252223259
 22
2178.338829936069
 32
0.0
 13
5799.803252223259
 23
2178.338829936069
 33
0.0
  0
LINE
  5
9EB
330
18
100
AcDbEntity
  8
MOJI
100
AcDbLine
 10
5833.517882589198
 20
2199.86378520404
 30
0.0
 11
6142.11455674541
 21
2396.885954362033
 31
0.0
  0
ENDSEC
  0
SECTION
  2
OBJECTS
  0
DICTIONARY
  5
C
330
0
100
AcDbDictionary
281
     1
  3
ACAD_GROUP
350
D
  3
ACAD_LAYOUT
350
9E0
  3
ACAD_MLINESTYLE
350
E
  3
ACAD_PLOTSETTINGS
350
9E1
  3
ACAD_PLOTSTYLENAME
350
9DE
  0
DICTIONARY
  5
D
102
{ACAD_REACTORS
330
C
102
}
330
C
100
AcDbDictionary
281
     1
  0
DICTIONARY
  5
9E0
102
{ACAD_REACTORS
330
C
102
}
330
C
100
AcDbDictionary
281
     1
  3
Model
350
9E2
  3
ﾚｲｱｳﾄ1
350
9E3
  0
DICTIONARY
  5
E
102
{ACAD_REACTORS
330
C
102
}
330
C
100
AcDbDictionary
281
     1
  3
STANDARD
350
1B
  0
DICTIONARY
  5
9E1
102
{ACAD_REACTORS
330
C
102
}
330
C
100
AcDbDictionary
281
     1
  0
ACDBDICTIONARYWDFLT
  5
9DE
102
{ACAD_REACTORS
330
C
102
}
330
C
100
AcDbDictionary
281
     1
  3
Normal
350
9DF
100
AcDbDictionaryWithDefault
340
9DF
  0
LAYOUT
  5
9E2
102
{ACAD_REACTORS
330
9E0
102
}
330
9E0
100
AcDbPlotSettings
  1

  2
DWF Classic.pc3
  4
ISO_A3_(297.00_x_420.00_MM)
  6

 40
5.793749809265136
 41
17.79375076293945
 42
5.79376220703125
 43
17.79376220703125
 44
297.0
 45
420.0
 46
0.0
 47
0.0
 48
0.0
 49
0.0
140
0.0
141
0.0
142
1.0
143
20.0
 70
 11792
 72
     1
 73
     1
 74
     2
  7

 75
    22
147
0.05
148
0.0
149
0.0
100
AcDbLayout
  1
Model
 70
     1
 71
     0
 10
0.0
 20
0.0
 11
12.0
 21
9.0
 12
0.0
 22
0.0
 32
0.0
 14
0.0
 24
0.0
 34
0.0
 15
0.0
 25
0.0
 35
0.0
146
0.0
 13
0.0
 23
0.0
 33
0.0
 16
1.0
 26
0.0
 36
0.0
 17
0.0
 27
1.0
 37
0.0
 76
     0
330
18
  0
LAYOUT
  5
9E3
102
{ACAD_REACTORS
330
9E0
102
}
330
9E0
100
AcDbPlotSettings
  1

  2
\\DV150105\DocuCentre 707
  4

  6

 40
0.0
 41
0.0
 42
0.0
 43
0.0
 44
0.0
 45
0.0
 46
0.0
 47
0.0
 48
0.0
 49
0.0
140
0.0
141
0.0
142
1.0
143
1.0
 70
   688
 72
     0
 73
     0
 74
     5
  7
SJCCAD.ctb
 75
    16
147
1.0
148
0.0
149
0.0
100
AcDbLayout
  1
ﾚｲｱｳﾄ1
 70
     1
 71
     1
 10
0.0
 20
0.0
 11
12.0
 21
9.0
 12
0.0
 22
0.0
 32
0.0
 14
1.000000000000000E+20
 24
1.000000000000000E+20
 34
1.000000000000000E+20
 15
-1.000000000000000E+20
 25
-1.000000000000000E+20
 35
-1.000000000000000E+20
146
0.0
 13
0.0
 23
0.0
 33
0.0
 16
1.0
 26
0.0
 36
0.0
 17
0.0
 27
1.0
 37
0.0
 76
     0
330
15
  0
MLINESTYLE
  5
1B
102
{ACAD_REACTORS
330
E
102
}
330
E
100
AcDbMlineStyle
  2
STANDARD
 70
     0
  3

 62
     0
 51
90.0
 52
90.0
 71
     2
 49
0.5
 62
   256
  6
BYLAYER
 49
-0.5
 62
   256
  6
BYLAYER
  0
ACDBPLACEHOLDER
  5
9DF
102
{ACAD_REACTORS
330
9DE
102
}
330
9DE
  0
ENDSEC
  0
EOF
