  0
SECTION
  2
HEADER
  9
$ACADVER
  1
AC1018
  9
$ACADMAINTVER
 70
    39
  9
$DWGCODEPAGE
  3
ANSI_932
  9
$INSBASE
 10
0.0
 20
0.0
 30
0.0
  9
$EXTMIN
 10
0.0
 20
0.0
 30
0.0
  9
$EXTMAX
 10
7400.0
 20
5340.0
 30
0.0
  9
$LIMMIN
 10
0.0
 20
0.0
  9
$LIMMAX
 10
8400.0
 20
5940.0
  9
$ORTHOMODE
 70
     1
  9
$REGENMODE
 70
     1
  9
$FILLMODE
 70
     1
  9
$QTEXTMODE
 70
     0
  9
$MIRRTEXT
 70
     0
  9
$LTSCALE
 40
200.0
  9
$ATTMODE
 70
     1
  9
$TEXTSIZE
 40
60.0
  9
$TRACEWID
 40
0.05
  9
$TEXTSTYLE
  7
EXT08
  9
$CLAYER
  8
SJC
  9
$CELTYPE
  6
ByLayer
  9
$CECOLOR
 62
   256
  9
$CELTSCALE
 40
1.0
  9
$DISPSILH
 70
     0
  9
$DIMSCALE
 40
20.0
  9
$DIMASZ
 40
2.0
  9
$DIMEXO
 40
1.0
  9
$DIMDLI
 40
6.0
  9
$DIMRND
 40
0.0
  9
$DIMDLE
 40
0.0
  9
$DIMEXE
 40
1.0
  9
$DIMTP
 40
0.0
  9
$DIMTM
 40
0.0
  9
$DIMTXT
 40
3.0
  9
$DIMCEN
 40
0.1
  9
$DIMTSZ
 40
0.0
  9
$DIMTOL
 70
     0
  9
$DIMLIM
 70
     0
  9
$DIMTIH
 70
     0
  9
$DIMTOH
 70
     0
  9
$DIMSE1
 70
     0
  9
$DIMSE2
 70
     0
  9
$DIMTAD
 70
     1
  9
$DIMZIN
 70
     8
  9
$DIMBLK
  1

  9
$DIMASO
 70
     1
  9
$DIMSHO
 70
     1
  9
$DIMPOST
  1

  9
$DIMAPOST
  1

  9
$DIMALT
 70
     0
  9
$DIMALTD
 70
     2
  9
$DIMALTF
 40
25.4
  9
$DIMLFAC
 40
1.0
  9
$DIMTOFL
 70
     1
  9
$DIMTVP
 40
0.0
  9
$DIMTIX
 70
     0
  9
$DIMSOXD
 70
     0
  9
$DIMSAH
 70
     0
  9
$DIMBLK1
  1

  9
$DIMBLK2
  1

  9
$DIMSTYLE
  2
SJC
  9
$DIMCLRD
 70
     0
  9
$DIMCLRE
 70
     0
  9
$DIMCLRT
 70
     0
  9
$DIMTFAC
 40
0.004
  9
$DIMGAP
 40
1.199999999999999
  9
$DIMJUST
 70
     0
  9
$DIMSD1
 70
     0
  9
$DIMSD2
 70
     0
  9
$DIMTOLJ
 70
     1
  9
$DIMTZIN
 70
     8
  9
$DIMALTZ
 70
     8
  9
$DIMALTTZ
 70
     8
  9
$DIMUPT
 70
     0
  9
$DIMDEC
 70
     2
  9
$DIMTDEC
 70
     1
  9
$DIMALTU
 70
     2
  9
$DIMALTTD
 70
     2
  9
$DIMTXSTY
  7
EXT08
  9
$DIMAUNIT
 70
     1
  9
$DIMADEC
 70
     2
  9
$DIMALTRND
 40
0.0
  9
$DIMAZIN
 70
     0
  9
$DIMDSEP
 70
    46
  9
$DIMATFIT
 70
     3
  9
$DIMFRAC
 70
     0
  9
$DIMLDRBLK
  1

  9
$DIMLUNIT
 70
     2
  9
$DIMLWD
 70
    -2
  9
$DIMLWE
 70
    -2
  9
$DIMTMOVE
 70
     2
  9
$LUNITS
 70
     2
  9
$LUPREC
 70
     2
  9
$SKETCHINC
 40
0.1
  9
$FILLETRAD
 40
0.0
  9
$AUNITS
 70
     1
  9
$AUPREC
 70
     2
  9
$MENU
  1
sjc
  9
$ELEVATION
 40
0.0
  9
$PELEVATION
 40
0.0
  9
$THICKNESS
 40
0.0
  9
$LIMCHECK
 70
     0
  9
$CHAMFERA
 40
0.0
  9
$CHAMFERB
 40
0.0
  9
$CHAMFERC
 40
0.0
  9
$CHAMFERD
 40
0.0
  9
$SKPOLY
 70
     0
  9
$TDCREATE
 40
2449299.044180671
  9
$TDUCREATE
 40
2449298.669180671
  9
$TDUPDATE
 40
2455021.403497894
  9
$TDUUPDATE
 40
2455021.028497893
  9
$TDINDWG
 40
0.2182862269
  9
$TDUSRTIMER
 40
0.2182862269
  9
$USRTIMER
 70
     1
  9
$ANGBASE
 50
0.0
  9
$ANGDIR
 70
     0
  9
$PDMODE
 70
    33
  9
$PDSIZE
 40
5.0
  9
$PLINEWID
 40
0.0
  9
$SPLFRAME
 70
     0
  9
$SPLINETYPE
 70
     6
  9
$SPLINESEGS
 70
     8
  9
$HANDSEED
  5
BB9
  9
$SURFTAB1
 70
     6
  9
$SURFTAB2
 70
     6
  9
$SURFTYPE
 70
     6
  9
$SURFU
 70
     6
  9
$SURFV
 70
     6
  9
$UCSBASE
  2

  9
$UCSNAME
  2

  9
$UCSORG
 10
0.0
 20
0.0
 30
0.0
  9
$UCSXDIR
 10
1.0
 20
0.0
 30
0.0
  9
$UCSYDIR
 10
0.0
 20
1.0
 30
0.0
  9
$UCSORTHOREF
  2

  9
$UCSORTHOVIEW
 70
     0
  9
$UCSORGTOP
 10
0.0
 20
0.0
 30
0.0
  9
$UCSORGBOTTOM
 10
0.0
 20
0.0
 30
0.0
  9
$UCSORGLEFT
 10
0.0
 20
0.0
 30
0.0
  9
$UCSORGRIGHT
 10
0.0
 20
0.0
 30
0.0
  9
$UCSORGFRONT
 10
0.0
 20
0.0
 30
0.0
  9
$UCSORGBACK
 10
0.0
 20
0.0
 30
0.0
  9
$PUCSBASE
  2

  9
$PUCSNAME
  2

  9
$PUCSORG
 10
0.0
 20
0.0
 30
0.0
  9
$PUCSXDIR
 10
1.0
 20
0.0
 30
0.0
  9
$PUCSYDIR
 10
0.0
 20
1.0
 30
0.0
  9
$PUCSORTHOREF
  2

  9
$PUCSORTHOVIEW
 70
     0
  9
$PUCSORGTOP
 10
0.0
 20
0.0
 30
0.0
  9
$PUCSORGBOTTOM
 10
0.0
 20
0.0
 30
0.0
  9
$PUCSORGLEFT
 10
0.0
 20
0.0
 30
0.0
  9
$PUCSORGRIGHT
 10
0.0
 20
0.0
 30
0.0
  9
$PUCSORGFRONT
 10
0.0
 20
0.0
 30
0.0
  9
$PUCSORGBACK
 10
0.0
 20
0.0
 30
0.0
  9
$USERI1
 70
     3
  9
$USERI2
 70
    20
  9
$USERI3
 70
     0
  9
$USERI4
 70
     0
  9
$USERI5
 70
     0
  9
$USERR1
 40
0.0
  9
$USERR2
 40
0.0
  9
$USERR3
 40
0.0
  9
$USERR4
 40
0.0
  9
$USERR5
 40
0.0
  9
$WORLDVIEW
 70
     1
  9
$SHADEDGE
 70
     3
  9
$SHADEDIF
 70
    70
  9
$TILEMODE
 70
     1
  9
$MAXACTVP
 70
    16
  9
$PINSBASE
 10
0.0
 20
0.0
 30
0.0
  9
$PLIMCHECK
 70
     0
  9
$PEXTMIN
 10
1.000000000000000E+20
 20
1.000000000000000E+20
 30
1.000000000000000E+20
  9
$PEXTMAX
 10
-1.000000000000000E+20
 20
-1.000000000000000E+20
 30
-1.000000000000000E+20
  9
$PLIMMIN
 10
0.0
 20
0.0
  9
$PLIMMAX
 10
12.0
 20
9.0
  9
$UNITMODE
 70
     0
  9
$VISRETAIN
 70
     0
  9
$PLINEGEN
 70
     0
  9
$PSLTSCALE
 70
     1
  9
$TREEDEPTH
 70
  3020
  9
$CMLSTYLE
  2
Standard
  9
$CMLJUST
 70
     0
  9
$CMLSCALE
 40
1.0
  9
$PROXYGRAPHICS
 70
     1
  9
$MEASUREMENT
 70
     0
  9
$CELWEIGHT
370
    -1
  9
$ENDCAPS
280
     0
  9
$JOINSTYLE
280
     0
  9
$LWDISPLAY
290
     0
  9
$INSUNITS
 70
     0
  9
$HYPERLINKBASE
  1

  9
$STYLESHEET
  1
CALCOMP_TECHJET720.CTB
  9
$XEDIT
290
     1
  9
$CEPSNTYPE
380
     0
  9
$PSTYLEMODE
290
     1
  9
$FINGERPRINTGUID
  2
{1E429891-EA4D-4901-8778-FCCF25FBD64A}
  9
$VERSIONGUID
  2
{BB8657F7-4030-4C05-8871-BF2DDB38883E}
  9
$EXTNAMES
290
     1
  9
$PSVPSCALE
 40
0.0
  9
$OLESTARTUP
290
     0
  9
$SORTENTS
280
    96
  9
$INDEXCTL
280
     0
  9
$HIDETEXT
280
     0
  9
$XCLIPFRAME
290
     0
  9
$HALOGAP
280
     0
  9
$OBSCOLOR
 70
   257
  9
$OBSLTYPE
280
     0
  9
$INTERSECTIONDISPLAY
280
     0
  9
$INTERSECTIONCOLOR
 70
   257
  9
$DIMASSOC
280
     1
  9
$PROJECTNAME
  1

  0
ENDSEC
  0
SECTION
  2
CLASSES
  0
CLASS
  1
ACDBDICTIONARYWDFLT
  2
AcDbDictionaryWithDefault
  3
ObjectDBX Classes
 90
        0
 91
        1
280
     0
281
     0
  0
CLASS
  1
DICTIONARYVAR
  2
AcDbDictionaryVar
  3
ObjectDBX Classes
 90
        0
 91
        2
280
     0
281
     0
  0
CLASS
  1
TABLESTYLE
  2
AcDbTableStyle
  3
ObjectDBX Classes
 90
     2047
 91
        1
280
     0
281
     0
  0
ENDSEC
  0
SECTION
  2
TABLES
  0
TABLE
  2
VPORT
  5
8
330
0
100
AcDbSymbolTable
 70
     2
  0
VPORT
  5
BB8
330
8
100
AcDbSymbolTableRecord
100
AcDbViewportTableRecord
  2
*Active
 70
     0
 10
0.0
 20
0.0
 11
1.0
 21
1.0
 12
4199.871835950612
 22
3046.514585855253
 13
0.0
 23
0.0
 14
10.0
 24
10.0
 15
0.0
 25
0.0
 16
0.0
 26
0.0
 36
1.0
 17
0.0
 27
0.0
 37
0.0
 40
6154.109048182873
 41
1.673984632272228
 42
50.0
 43
0.0
 44
0.0
 50
0.0
 51
0.0
 71
     0
 72
   100
 73
     1
 74
     1
 75
     0
 76
     0
 77
     0
 78
     0
281
     0
 65
     1
110
0.0
120
0.0
130
0.0
111
1.0
121
0.0
131
0.0
112
0.0
122
1.0
132
0.0
 79
     0
146
0.0
  0
ENDTAB
  0
TABLE
  2
LTYPE
  5
5
330
0
100
AcDbSymbolTable
 70
     5
  0
LTYPE
  5
13
330
5
100
AcDbSymbolTableRecord
100
AcDbLinetypeTableRecord
  2
ByBlock
 70
     0
  3

 72
    65
 73
     0
 40
0.0
  0
LTYPE
  5
14
330
5
100
AcDbSymbolTableRecord
100
AcDbLinetypeTableRecord
  2
ByLayer
 70
     0
  3

 72
    65
 73
     0
 40
0.0
  0
LTYPE
  5
15
330
5
100
AcDbSymbolTableRecord
100
AcDbLinetypeTableRecord
  2
CONTINUOUS
 70
     0
  3
Solid line
 72
    65
 73
     0
 40
0.0
  0
LTYPE
  5
35
330
5
100
AcDbSymbolTableRecord
100
AcDbLinetypeTableRecord
  2
CENTER
 70
     0
  3
____ _ ____ _ ____ _ ____ _ ____ _ ____ _ ____ 
 72
    65
 73
     4
 40
2.0
 49
1.25
 74
     0
 49
-0.25
 74
     0
 49
0.25
 74
     0
 49
-0.25
 74
     0
  0
LTYPE
  5
36
330
5
100
AcDbSymbolTableRecord
100
AcDbLinetypeTableRecord
  2
HIDDEN
 70
     0
  3
__ __ __ __ __ __ __ __ __ __ __ __ __ __ __ __
 72
    65
 73
     2
 40
0.375
 49
0.25
 74
     0
 49
-0.125
 74
     0
  0
LTYPE
  5
37
330
5
100
AcDbSymbolTableRecord
100
AcDbLinetypeTableRecord
  2
HIDDEN2
 70
     0
  3
_ _ _ _ _ _ _ _ _ _ _ _ _ _ _ _ _ _ _ _ _ _ _ _
 72
    65
 73
     2
 40
0.1875
 49
0.125
 74
     0
 49
-0.0625
 74
     0
  0
LTYPE
  5
38
330
5
100
AcDbSymbolTableRecord
100
AcDbLinetypeTableRecord
  2
PHANTOM
 70
     0
  3
______  __  __  ______  __  __  ______  __  __ 
 72
    65
 73
     6
 40
2.5
 49
1.25
 74
     0
 49
-0.25
 74
     0
 49
0.25
 74
     0
 49
-0.25
 74
     0
 49
0.25
 74
     0
 49
-0.25
 74
     0
  0
ENDTAB
  0
TABLE
  2
LAYER
  5
2
330
0
100
AcDbSymbolTable
 70
    15
  0
LAYER
  5
10
330
2
100
AcDbSymbolTableRecord
100
AcDbLayerTableRecord
  2
0
 70
     0
 62
     7
  6
CONTINUOUS
370
    -3
390
F
  0
LAYER
  5
3E
330
2
100
AcDbSymbolTableRecord
100
AcDbLayerTableRecord
  2
CENTER
 70
     0
 62
     3
  6
CENTER
370
    -3
390
F
  0
LAYER
  5
3F
330
2
100
AcDbSymbolTableRecord
100
AcDbLayerTableRecord
  2
HASEN
 70
     0
 62
     7
  6
HIDDEN
370
    -3
390
F
  0
LAYER
  5
40
330
2
100
AcDbSymbolTableRecord
100
AcDbLayerTableRecord
  2
HOJO
 70
     0
 62
     8
  6
CONTINUOUS
370
    -3
390
F
  0
LAYER
  5
41
330
2
100
AcDbSymbolTableRecord
100
AcDbLayerTableRecord
  2
KASOU
 70
     0
 62
     2
  6
PHANTOM
370
    -3
390
F
  0
LAYER
  5
42
330
2
100
AcDbSymbolTableRecord
100
AcDbLayerTableRecord
  2
MOJI
 70
     0
 62
     6
  6
CONTINUOUS
370
    -3
390
F
  0
LAYER
  5
43
330
2
100
AcDbSymbolTableRecord
100
AcDbLayerTableRecord
  2
SJC
 70
     0
 62
     1
  6
CONTINUOUS
370
    -3
390
F
  0
LAYER
  5
44
330
2
100
AcDbSymbolTableRecord
100
AcDbLayerTableRecord
  2
SUNPOU
 70
     0
 62
     4
  6
CONTINUOUS
370
    -3
390
F
  0
LAYER
  5
45
330
2
100
AcDbSymbolTableRecord
100
AcDbLayerTableRecord
  2
WAKU
 70
     0
 62
    -5
  6
CONTINUOUS
370
    -3
390
F
  0
LAYER
  5
46
330
2
100
AcDbSymbolTableRecord
100
AcDbLayerTableRecord
  2
ZWAKU
 70
     0
 62
    -7
  6
CONTINUOUS
370
    -3
390
F
  0
LAYER
  5
47
330
2
100
AcDbSymbolTableRecord
100
AcDbLayerTableRecord
  2
DEFPOINTS
 70
     0
 62
     7
  6
CONTINUOUS
290
     0
370
    -3
390
F
  0
LAYER
  5
4BD
330
2
100
AcDbSymbolTableRecord
100
AcDbLayerTableRecord
  2
SJC2
 70
     0
 62
     7
  6
CONTINUOUS
370
    -3
390
F
  0
LAYER
  5
4BE
330
2
100
AcDbSymbolTableRecord
100
AcDbLayerTableRecord
  2
MOJI2
 70
     0
 62
     1
  6
CONTINUOUS
370
    -3
390
F
  0
LAYER
  5
4BF
330
2
100
AcDbSymbolTableRecord
100
AcDbLayerTableRecord
  2
HATCH
 70
     0
 62
     2
  6
CONTINUOUS
370
    -3
390
F
  0
LAYER
  5
4D1
330
2
100
AcDbSymbolTableRecord
100
AcDbLayerTableRecord
  2
INFORMATION
 70
     1
 62
     7
  6
CONTINUOUS
370
    -3
390
F
  0
ENDTAB
  0
TABLE
  2
STYLE
  5
3
330
0
100
AcDbSymbolTable
 70
     8
  0
STYLE
  5
11
330
3
100
AcDbSymbolTableRecord
100
AcDbTextStyleTableRecord
  2
STANDARD
 70
     0
 40
0.0
 41
1.0
 50
0.0
 71
     0
 42
3.0
  3
romans
  4
bigfont
  0
STYLE
  5
33
330
3
100
AcDbSymbolTableRecord
100
AcDbTextStyleTableRecord
  2
SIMPLEX
 70
     0
 40
0.0
 41
1.0
 50
0.0
 71
     0
 42
0.0
  3
scripts
  4

  0
STYLE
  5
34
330
3
100
AcDbSymbolTableRecord
100
AcDbTextStyleTableRecord
  2
KANJI
 70
     0
 40
0.0
 41
1.0
 50
0.0
 71
     0
 42
0.0
  3
romans
  4
bigfont
  0
STYLE
  5
4CA
330
3
100
AcDbSymbolTableRecord
100
AcDbTextStyleTableRecord
  2
TATEEXT
 70
     4
 40
0.0
 41
1.0
 50
0.0
 71
     0
 42
0.0
  3
ROMANS.shx
  4
EXTFONT.shx
  0
STYLE
  5
4CC
330
3
100
AcDbSymbolTableRecord
100
AcDbTextStyleTableRecord
  2
TATEBIG
 70
     4
 40
0.0
 41
1.0
 50
0.0
 71
     0
 42
0.0
  3
ROMANS.shx
  4
BIGFONT.shx
  0
STYLE
  5
4CD
330
3
100
AcDbSymbolTableRecord
100
AcDbTextStyleTableRecord
  2
EXT08
 70
     0
 40
0.0
 41
0.8
 50
0.0
 71
     0
 42
60.0
  3
ROMANS.shx
  4
EXTFONT.shx
  0
STYLE
  5
4CE
330
3
100
AcDbSymbolTableRecord
100
AcDbTextStyleTableRecord
  2
EXT
 70
     0
 40
0.0
 41
1.0
 50
0.0
 71
     0
 42
0.0
  3
ROMANS.shx
  4
EXTFONT.shx
  0
STYLE
  5
4CF
330
3
100
AcDbSymbolTableRecord
100
AcDbTextStyleTableRecord
  2
KANJI08
 70
     0
 40
0.0
 41
0.8
 50
0.0
 71
     0
 42
0.0
  3
ROMANS.shx
  4
BIGFONT.shx
  0
ENDTAB
  0
TABLE
  2
VIEW
  5
6
330
0
100
AcDbSymbolTable
 70
     0
  0
ENDTAB
  0
TABLE
  2
UCS
  5
7
330
0
100
AcDbSymbolTable
 70
     0
  0
ENDTAB
  0
TABLE
  2
APPID
  5
9
330
0
100
AcDbSymbolTable
 70
     1
  0
APPID
  5
12
330
9
100
AcDbSymbolTableRecord
100
AcDbRegAppTableRecord
  2
ACAD
 70
     0
  0
ENDTAB
  0
TABLE
  2
DIMSTYLE
  5
A
330
0
100
AcDbSymbolTable
 70
     7
100
AcDbDimStyleTable
 71
     0
  0
DIMSTYLE
105
3B
330
A
100
AcDbSymbolTableRecord
100
AcDbDimStyleTableRecord
  2
S01-20AX
 70
     0
 41
40.0
 42
20.0
 43
0.4
 44
20.0
 73
     0
 74
     0
 77
     1
 78
     8
140
50.0
141
0.1
146
0.004
147
0.1
172
     1
176
   256
177
   256
178
   256
271
     1
272
     1
275
     1
279
     2
284
     8
285
     8
286
     8
340
11
  0
DIMSTYLE
105
3C
330
A
100
AcDbSymbolTableRecord
100
AcDbDimStyleTableRecord
  2
S01-10AX
 70
     0
 41
40.0
 42
20.0
 43
0.4
 44
20.0
 73
     0
 74
     0
 77
     1
 78
     8
140
50.0
141
0.1
144
0.5
146
0.004
147
0.1
172
     1
176
   256
177
   256
178
   256
271
     1
272
     1
275
     1
279
     2
284
     8
285
     8
286
     8
340
11
  0
DIMSTYLE
105
3D
330
A
100
AcDbSymbolTableRecord
100
AcDbDimStyleTableRecord
  2
S01-20DX
 70
     0
 41
40.0
 42
20.0
 43
0.4
 44
20.0
 73
     0
 74
     0
 75
     1
 76
     1
 77
     1
 78
     8
140
50.0
141
0.1
146
0.004
147
0.1
172
     1
176
   256
177
   256
178
   256
271
     1
272
     1
275
     1
279
     2
284
     8
285
     8
286
     8
340
11
  0
DIMSTYLE
105
4BC
330
A
100
AcDbSymbolTableRecord
100
AcDbDimStyleTableRecord
  2
STANDARD
 70
     0
 41
40.0
 42
20.0
 43
0.4
 44
20.0
 73
     0
 74
     0
 77
     1
 78
     8
140
50.0
141
0.1
146
0.004
147
0.1
172
     1
176
   256
177
   256
178
   256
179
     2
271
     1
272
     1
275
     1
279
     2
284
     8
285
     8
286
     8
340
11
  0
DIMSTYLE
105
4C5
330
A
100
AcDbSymbolTableRecord
100
AcDbDimStyleTableRecord
  2
RUISEKI1
 70
     0
 40
20.0
 41
2.0
 42
1.0
 43
6.0
 44
30.0
 73
     0
 74
     0
 77
     1
 78
     8
140
50.0
141
0.1
146
0.004
147
1.5
172
     1
173
     1
176
   256
177
   256
178
   256
179
     2
271
     1
272
     1
275
     1
279
     2
284
     8
285
     8
286
     8
340
11
341
4C0
343
4C0
  0
DIMSTYLE
105
4C9
330
A
100
AcDbSymbolTableRecord
100
AcDbDimStyleTableRecord
  2
RUISEKI2
 70
     0
 40
20.0
 41
2.0
 42
1.0
 43
6.0
 44
30.0
 73
     0
 74
     0
 77
     1
 78
     8
140
50.0
141
0.1
146
0.004
147
1.5
172
     1
173
     1
176
   256
177
   256
178
   256
179
     2
271
     1
272
     1
275
     1
279
     2
284
     8
285
     8
286
     8
340
11
341
4C6
343
4C6
  0
DIMSTYLE
105
4D0
102
{ACAD_REACTORS
330
4B3
330
4A7
330
489
330
488
330
487
330
4B4
330
48C
330
490
330
48F
330
48B
330
48A
330
65E
330
651
330
AB0
102
}
330
A
100
AcDbSymbolTableRecord
100
AcDbDimStyleTableRecord
  2
SJC
 70
     0
 41
40.0
 42
20.0
 43
0.4
 44
20.0
 73
     0
 74
     0
 77
     1
 78
     8
140
50.0
141
0.1
146
0.004
147
0.1
172
     1
176
   256
177
   256
178
   256
179
     2
271
     1
272
     1
275
     1
279
     2
284
     8
285
     8
286
     8
340
11
  0
ENDTAB
  0
TABLE
  2
BLOCK_RECORD
  5
1
330
0
100
AcDbSymbolTable
 70
    25
  0
BLOCK_RECORD
  5
1E
102
{ACAD_XDICTIONARY
360
9ED
102
}
330
1
100
AcDbSymbolTableRecord
100
AcDbBlockTableRecord
  2
*Model_Space
340
21
  0
BLOCK_RECORD
  5
1A
102
{ACAD_XDICTIONARY
360
9EF
102
}
330
1
100
AcDbSymbolTableRecord
100
AcDbBlockTableRecord
  2
*Paper_Space
340
1D
  0
BLOCK_RECORD
  5
4C0
330
1
100
AcDbSymbolTableRecord
100
AcDbBlockTableRecord
  2
_Dot
340
0
  0
BLOCK_RECORD
  5
4C6
330
1
100
AcDbSymbolTableRecord
100
AcDbBlockTableRecord
  2
_None
340
0
  0
BLOCK_RECORD
  5
4E7
330
1
100
AcDbSymbolTableRecord
100
AcDbBlockTableRecord
  2
*D4
340
0
  0
BLOCK_RECORD
  5
4F3
330
1
100
AcDbSymbolTableRecord
100
AcDbBlockTableRecord
  2
*D5
340
0
  0
BLOCK_RECORD
  5
4FF
330
1
100
AcDbSymbolTableRecord
100
AcDbBlockTableRecord
  2
*D6
340
0
  0
BLOCK_RECORD
  5
50B
330
1
100
AcDbSymbolTableRecord
100
AcDbBlockTableRecord
  2
*D7
340
0
  0
BLOCK_RECORD
  5
517
330
1
100
AcDbSymbolTableRecord
100
AcDbBlockTableRecord
  2
*D8
340
0
  0
BLOCK_RECORD
  5
525
330
1
100
AcDbSymbolTableRecord
100
AcDbBlockTableRecord
  2
*D9
340
0
  0
BLOCK_RECORD
  5
56C
330
1
100
AcDbSymbolTableRecord
100
AcDbBlockTableRecord
  2
*D11
340
0
  0
BLOCK_RECORD
  5
578
330
1
100
AcDbSymbolTableRecord
100
AcDbBlockTableRecord
  2
*D12
340
0
  0
BLOCK_RECORD
  5
584
330
1
100
AcDbSymbolTableRecord
100
AcDbBlockTableRecord
  2
*D13
340
0
  0
BLOCK_RECORD
  5
5A2
330
1
100
AcDbSymbolTableRecord
100
AcDbBlockTableRecord
  2
*D14
340
0
  0
BLOCK_RECORD
  5
5B0
330
1
100
AcDbSymbolTableRecord
100
AcDbBlockTableRecord
  2
*D15
340
0
  0
BLOCK_RECORD
  5
61E
330
1
100
AcDbSymbolTableRecord
100
AcDbBlockTableRecord
  2
B0070019
340
0
102
{BLKREFS
331
62D
102
}
  0
BLOCK_RECORD
  5
652
330
1
100
AcDbSymbolTableRecord
100
AcDbBlockTableRecord
  2
*D17
340
0
  0
BLOCK_RECORD
  5
65F
330
1
100
AcDbSymbolTableRecord
100
AcDbBlockTableRecord
  2
*D18
340
0
  0
BLOCK_RECORD
  5
6C3
330
1
100
AcDbSymbolTableRecord
100
AcDbBlockTableRecord
  2
CALCOMP_TECHJET720A3
340
0
102
{BLKREFS
331
6C7
102
}
  0
BLOCK_RECORD
  5
AB1
330
1
100
AcDbSymbolTableRecord
100
AcDbBlockTableRecord
  2
*D20
340
0
  0
BLOCK_RECORD
  5
B59
330
1
100
AcDbSymbolTableRecord
100
AcDbBlockTableRecord
  2
*X21
340
0
102
{BLKREFS
331
AE9
102
}
  0
BLOCK_RECORD
  5
B6E
330
1
100
AcDbSymbolTableRecord
100
AcDbBlockTableRecord
  2
*X22
340
0
102
{BLKREFS
331
AEA
102
}
  0
BLOCK_RECORD
  5
B83
330
1
100
AcDbSymbolTableRecord
100
AcDbBlockTableRecord
  2
*X23
340
0
102
{BLKREFS
331
AEE
102
}
  0
BLOCK_RECORD
  5
B98
330
1
100
AcDbSymbolTableRecord
100
AcDbBlockTableRecord
  2
*X24
340
0
102
{BLKREFS
331
AF7
102
}
  0
ENDTAB
  0
ENDSEC
  0
SECTION
  2
BLOCKS
  0
BLOCK
  5
4A
330
1E
100
AcDbEntity
  8
0
100
AcDbBlockBegin
  2
*Model_Space
 70
     0
 10
0.0
 20
0.0
 30
0.0
  3
*Model_Space
  1

  0
ENDBLK
  5
4B
330
1E
100
AcDbEntity
  8
0
100
AcDbBlockEnd
  0
BLOCK
  5
48
330
1A
100
AcDbEntity
 67
     1
  8
0
100
AcDbBlockBegin
  2
*Paper_Space
 70
     0
 10
0.0
 20
0.0
 30
0.0
  3
*Paper_Space
  1

  0
ENDBLK
  5
49
330
1A
100
AcDbEntity
 67
     1
  8
0
100
AcDbBlockEnd
  0
BLOCK
  5
4C3
330
4C0
100
AcDbEntity
  8
0
100
AcDbBlockBegin
  2
_Dot
 70
     0
 10
0.0
 20
0.0
 30
0.0
  3
_Dot
  1

  0
LWPOLYLINE
  5
4C1
330
4C0
100
AcDbEntity
  8
0
  6
ByBlock
 62
     0
100
AcDbPolyline
 90
        2
 70
     1
 43
0.5
 10
-0.25
 20
0.0
 42
1.0
 10
0.25
 20
0.0
 42
1.0
  0
LINE
  5
4C2
330
4C0
100
AcDbEntity
  8
0
  6
ByBlock
 62
     0
370
    -2
100
AcDbLine
 10
-0.5
 20
0.0
 30
0.0
 11
-1.0
 21
0.0
 31
0.0
  0
ENDBLK
  5
4C4
330
4C0
100
AcDbEntity
  8
0
100
AcDbBlockEnd
  0
BLOCK
  5
4C7
330
4C6
100
AcDbEntity
  8
0
100
AcDbBlockBegin
  2
_None
 70
     0
 10
0.0
 20
0.0
 30
0.0
  3
_None
  1

  0
ENDBLK
  5
4C8
330
4C6
100
AcDbEntity
  8
0
100
AcDbBlockEnd
  0
BLOCK
  5
4F1
330
4E7
100
AcDbEntity
  8
0
100
AcDbBlockBegin
  2
*D4
 70
     1
 10
0.0
 20
0.0
 30
0.0
  3
*D4
  1

  0
LINE
  5
71E
330
4E7
100
AcDbEntity
  8
SUNPOU
 62
     0
370
    -2
100
AcDbLine
 10
6141.857208581899
 20
4443.315157741731
 30
0.0
 11
6623.833152041473
 21
4443.315157741731
 31
0.0
  0
LINE
  5
71F
330
4E7
100
AcDbEntity
  8
SUNPOU
 62
     0
370
    -2
100
AcDbLine
 10
6450.4582782021
 20
3413.315555796733
 30
0.0
 11
6623.833152041473
 21
3413.315555796733
 31
0.0
  0
LINE
  5
720
330
4E7
100
AcDbEntity
  8
SUNPOU
 62
     0
370
    -2
100
AcDbLine
 10
6603.833152041473
 20
4403.315157741731
 30
0.0
 11
6603.833152041473
 21
3453.315555796733
 31
0.0
  0
SOLID
  5
721
330
4E7
100
AcDbEntity
  8
SUNPOU
 62
     0
100
AcDbTrace
 10
6597.166485374806
 20
4403.315157741731
 30
0.0
 11
6610.499818708141
 21
4403.315157741731
 31
0.0
 12
6603.833152041473
 22
4443.315157741731
 32
0.0
 13
6603.833152041473
 23
4443.315157741731
 33
0.0
  0
SOLID
  5
722
330
4E7
100
AcDbEntity
  8
SUNPOU
 62
     0
100
AcDbTrace
 10
6597.166485374806
 20
3453.315555796733
 30
0.0
 11
6610.499818708141
 21
3453.315555796733
 31
0.0
 12
6603.833152041473
 22
3413.315555796733
 32
0.0
 13
6603.833152041473
 23
3413.315555796733
 33
0.0
  0
MTEXT
  5
723
330
4E7
100
AcDbEntity
  8
SUNPOU
 62
     0
100
AcDbMText
 10
6549.833152041472
 20
3928.315356769233
 30
0.0
 40
60.0
 41
0.0
 71
     5
 72
     5
  1
\A1;1030
  7
EXT08
 11
0.0000000000000001
 21
1.0
 31
0.0
 73
     1
 44
1.0
  0
POINT
  5
724
330
4E7
100
AcDbEntity
  8
DEFPOINTS
 62
     0
100
AcDbPoint
 10
6121.857208581899
 20
4443.315157741731
 30
0.0
  0
POINT
  5
725
330
4E7
100
AcDbEntity
  8
DEFPOINTS
 62
     0
100
AcDbPoint
 10
6430.4582782021
 20
3413.315555796733
 30
0.0
  0
POINT
  5
726
330
4E7
100
AcDbEntity
  8
DEFPOINTS
 62
     0
100
AcDbPoint
 10
6603.833152041473
 20
3413.315555796733
 30
0.0
  0
ENDBLK
  5
4F2
330
4E7
100
AcDbEntity
  8
0
100
AcDbBlockEnd
  0
BLOCK
  5
4FD
330
4F3
100
AcDbEntity
  8
0
100
AcDbBlockBegin
  2
*D5
 70
     1
 10
0.0
 20
0.0
 30
0.0
  3
*D5
  1

  0
LINE
  5
727
330
4F3
100
AcDbEntity
  8
SUNPOU
 62
     0
370
    -2
100
AcDbLine
 10
6161.857208581899
 20
4443.314930096931
 30
0.0
 11
6788.304298808289
 21
4443.314930096931
 31
0.0
  0
LINE
  5
728
330
4F3
100
AcDbEntity
  8
SUNPOU
 62
     0
370
    -2
100
AcDbLine
 10
6290.4576702348
 20
3013.315561757133
 30
0.0
 11
6788.304298808289
 21
3013.315561757133
 31
0.0
  0
LINE
  5
729
330
4F3
100
AcDbEntity
  8
SUNPOU
 62
     0
370
    -2
100
AcDbLine
 10
6768.304298808288
 20
4403.314930096931
 30
0.0
 11
6768.304298808288
 21
3053.315561757133
 31
0.0
  0
SOLID
  5
72A
330
4F3
100
AcDbEntity
  8
SUNPOU
 62
     0
100
AcDbTrace
 10
6761.637632141622
 20
4403.314930096931
 30
0.0
 11
6774.970965474956
 21
4403.314930096931
 31
0.0
 12
6768.304298808288
 22
4443.314930096931
 32
0.0
 13
6768.304298808288
 23
4443.314930096931
 33
0.0
  0
SOLID
  5
72B
330
4F3
100
AcDbEntity
  8
SUNPOU
 62
     0
100
AcDbTrace
 10
6761.637632141622
 20
3053.315561757133
 30
0.0
 11
6774.970965474956
 21
3053.315561757133
 31
0.0
 12
6768.304298808288
 22
3013.315561757133
 32
0.0
 13
6768.304298808288
 23
3013.315561757133
 33
0.0
  0
MTEXT
  5
72C
330
4F3
100
AcDbEntity
  8
SUNPOU
 62
     0
100
AcDbMText
 10
6714.304298808288
 20
3728.315245927034
 30
0.0
 40
60.0
 41
0.0
 71
     5
 72
     5
  1
\A1;1430
  7
EXT08
 11
0.0000000000000001
 21
1.0
 31
0.0
 73
     1
 44
1.0
  0
POINT
  5
72D
330
4F3
100
AcDbEntity
  8
DEFPOINTS
 62
     0
100
AcDbPoint
 10
6141.8572085819
 20
4443.314930096932
 30
0.0
  0
POINT
  5
72E
330
4F3
100
AcDbEntity
  8
DEFPOINTS
 62
     0
100
AcDbPoint
 10
6270.4576702348
 20
3013.315561757133
 30
0.0
  0
POINT
  5
72F
330
4F3
100
AcDbEntity
  8
DEFPOINTS
 62
     0
100
AcDbPoint
 10
6768.304298808288
 20
3013.315561757133
 30
0.0
  0
ENDBLK
  5
4FE
330
4F3
100
AcDbEntity
  8
0
100
AcDbBlockEnd
  0
BLOCK
  5
509
330
4FF
100
AcDbEntity
  8
0
100
AcDbBlockBegin
  2
*D6
 70
     1
 10
0.0
 20
0.0
 30
0.0
  3
*D6
  1

  0
LINE
  5
739
330
4FF
100
AcDbEntity
  8
SUNPOU
 62
     0
370
    -2
100
AcDbLine
 10
6206.4073788165
 20
4313.314932034132
 30
0.0
 11
6484.788111675
 21
4313.314932034132
 31
0.0
  0
LINE
  5
73A
330
4FF
100
AcDbEntity
  8
SUNPOU
 62
     0
370
    -2
100
AcDbLine
 10
6470.458278202099
 20
3413.315555796733
 30
0.0
 11
6484.788111675
 21
3413.315555796733
 31
0.0
  0
LINE
  5
73B
330
4FF
100
AcDbEntity
  8
SUNPOU
 62
     0
370
    -2
100
AcDbLine
 10
6464.788111675
 20
4273.314932034132
 30
0.0
 11
6464.788111675
 21
3453.315555796733
 31
0.0
  0
SOLID
  5
73C
330
4FF
100
AcDbEntity
  8
SUNPOU
 62
     0
100
AcDbTrace
 10
6458.121445008334
 20
4273.314932034132
 30
0.0
 11
6471.454778341668
 21
4273.314932034132
 31
0.0
 12
6464.788111675
 22
4313.314932034132
 32
0.0
 13
6464.788111675
 23
4313.314932034132
 33
0.0
  0
SOLID
  5
73D
330
4FF
100
AcDbEntity
  8
SUNPOU
 62
     0
100
AcDbTrace
 10
6458.121445008334
 20
3453.315555796733
 30
0.0
 11
6471.454778341668
 21
3453.315555796733
 31
0.0
 12
6464.788111675
 22
3413.315555796733
 32
0.0
 13
6464.788111675
 23
3413.315555796733
 33
0.0
  0
MTEXT
  5
73E
330
4FF
100
AcDbEntity
  8
SUNPOU
 62
     0
100
AcDbMText
 10
6410.788111675
 20
3863.315243915434
 30
0.0
 40
60.0
 41
0.0
 71
     5
 72
     5
  1
\A1;900
  7
EXT08
 11
0.0000000000000001
 21
1.0
 31
0.0
 73
     1
 44
1.0
  0
POINT
  5
73F
330
4FF
100
AcDbEntity
  8
DEFPOINTS
 62
     0
100
AcDbPoint
 10
6186.4073788165
 20
4313.314932034132
 30
0.0
  0
POINT
  5
740
330
4FF
100
AcDbEntity
  8
DEFPOINTS
 62
     0
100
AcDbPoint
 10
6450.4582782021
 20
3413.315555796733
 30
0.0
  0
POINT
  5
741
330
4FF
100
AcDbEntity
  8
DEFPOINTS
 62
     0
100
AcDbPoint
 10
6464.788111675
 20
3413.315555796733
 30
0.0
  0
ENDBLK
  5
50A
330
4FF
100
AcDbEntity
  8
0
100
AcDbBlockEnd
  0
BLOCK
  5
515
330
50B
100
AcDbEntity
  8
0
100
AcDbBlockBegin
  2
*D7
 70
     1
 10
0.0
 20
0.0
 30
0.0
  3
*D7
  1

  0
LINE
  5
730
330
50B
100
AcDbEntity
  8
SUNPOU
 62
     0
370
    -2
100
AcDbLine
 10
6161.857208581899
 20
4443.314930096931
 30
0.0
 11
6484.788111675
 21
4443.314930096931
 31
0.0
  0
LINE
  5
731
330
50B
100
AcDbEntity
  8
SUNPOU
 62
     0
370
    -2
100
AcDbLine
 10
6206.4073788165
 20
4313.314932034132
 30
0.0
 11
6484.788111675
 21
4313.314932034132
 31
0.0
  0
LINE
  5
732
330
50B
100
AcDbEntity
  8
SUNPOU
 62
     0
370
    -2
100
AcDbLine
 10
6464.788111675
 20
4403.314930096931
 30
0.0
 11
6464.788111675
 21
4353.314932034133
 31
0.0
  0
MTEXT
  5
733
330
50B
100
AcDbEntity
  8
SUNPOU
 62
     0
100
AcDbMText
 10
6417.300024095585
 20
4372.98195798981
 30
0.0
 40
60.0
 41
0.0
 71
     5
 72
     5
  1
\A1;130
  7
EXT08
 11
0.0000000000000001
 21
1.0
 31
0.0
 73
     1
 44
1.0
  0
SOLID
  5
734
330
50B
100
AcDbEntity
  8
SUNPOU
 62
     0
100
AcDbTrace
 10
6458.121445008334
 20
4403.314930096931
 30
0.0
 11
6471.454778341668
 21
4403.314930096931
 31
0.0
 12
6464.788111675
 22
4443.314930096931
 32
0.0
 13
6464.788111675
 23
4443.314930096931
 33
0.0
  0
SOLID
  5
735
330
50B
100
AcDbEntity
  8
SUNPOU
 62
     0
100
AcDbTrace
 10
6458.121445008334
 20
4353.314932034133
 30
0.0
 11
6471.454778341668
 21
4353.314932034133
 31
0.0
 12
6464.788111675
 22
4313.314932034132
 32
0.0
 13
6464.788111675
 23
4313.314932034132
 33
0.0
  0
POINT
  5
736
330
50B
100
AcDbEntity
  8
DEFPOINTS
 62
     0
100
AcDbPoint
 10
6141.8572085819
 20
4443.314930096932
 30
0.0
  0
POINT
  5
737
330
50B
100
AcDbEntity
  8
DEFPOINTS
 62
     0
100
AcDbPoint
 10
6186.4073788165
 20
4313.314932034132
 30
0.0
  0
POINT
  5
738
330
50B
100
AcDbEntity
  8
DEFPOINTS
 62
     0
100
AcDbPoint
 10
6464.788111675
 20
4313.314932034132
 30
0.0
  0
ENDBLK
  5
516
330
50B
100
AcDbEntity
  8
0
100
AcDbBlockEnd
  0
BLOCK
  5
523
330
517
100
AcDbEntity
  8
0
100
AcDbBlockBegin
  2
*D8
 70
     1
 10
0.0
 20
0.0
 30
0.0
  3
*D8
  1

  0
LINE
  5
80C
330
517
100
AcDbEntity
  8
SUNPOU
 62
     0
370
    -2
100
AcDbLine
 10
6077.773957311283
 20
4430.455433602267
 30
0.0
 11
6077.773957311283
 21
4668.354599893133
 31
0.0
  0
LINE
  5
80D
330
517
100
AcDbEntity
  8
SUNPOU
 62
     0
370
    -2
100
AcDbLine
 10
6165.940459848691
 20
4430.455433615097
 30
0.0
 11
6165.940459848691
 21
4668.354599893133
 31
0.0
  0
LINE
  5
80E
330
517
100
AcDbEntity
  8
SUNPOU
 62
     0
370
    -2
100
AcDbLine
 10
6037.773957311284
 20
4648.354599893133
 30
0.0
 11
5997.773957311284
 21
4648.354599893133
 31
0.0
  0
LINE
  5
80F
330
517
100
AcDbEntity
  8
SUNPOU
 62
     0
370
    -2
100
AcDbLine
 10
6205.940459848692
 20
4648.354599893133
 30
0.0
 11
6245.940459848692
 21
4648.354599893133
 31
0.0
  0
MTEXT
  5
810
330
517
100
AcDbEntity
  8
SUNPOU
 62
     0
100
AcDbMText
 10
6134.32180358671
 20
4704.028730554477
 30
0.0
 40
60.0
 41
0.0
 71
     5
 72
     5
  1
\A1;%%C89
  7
EXT08
 73
     1
 44
1.0
  0
LINE
  5
811
330
517
100
AcDbEntity
  8
SUNPOU
 62
     0
370
    -2
100
AcDbLine
 10
6077.773957311283
 20
4648.354599893133
 30
0.0
 11
6165.940459848691
 21
4648.354599893133
 31
0.0
  0
SOLID
  5
812
330
517
100
AcDbEntity
  8
SUNPOU
 62
     0
100
AcDbTrace
 10
6037.773957311284
 20
4655.0212665598
 30
0.0
 11
6037.773957311284
 21
4641.687933226466
 31
0.0
 12
6077.773957311283
 22
4648.354599893133
 32
0.0
 13
6077.773957311283
 23
4648.354599893133
 33
0.0
  0
SOLID
  5
813
330
517
100
AcDbEntity
  8
SUNPOU
 62
     0
100
AcDbTrace
 10
6205.940459848692
 20
4655.0212665598
 30
0.0
 11
6205.940459848692
 21
4641.687933226466
 31
0.0
 12
6165.940459848691
 22
4648.354599893133
 32
0.0
 13
6165.940459848691
 23
4648.354599893133
 33
0.0
  0
POINT
  5
814
330
517
100
AcDbEntity
  8
DEFPOINTS
 62
     0
100
AcDbPoint
 10
6077.773957311283
 20
4410.455433602266
 30
0.0
  0
POINT
  5
815
330
517
100
AcDbEntity
  8
DEFPOINTS
 62
     0
100
AcDbPoint
 10
6165.940459848691
 20
4410.455433615097
 30
0.0
  0
POINT
  5
816
330
517
100
AcDbEntity
  8
DEFPOINTS
 62
     0
100
AcDbPoint
 10
6165.940459848691
 20
4648.354599893133
 30
0.0
  0
ENDBLK
  5
524
330
517
100
AcDbEntity
  8
0
100
AcDbBlockEnd
  0
BLOCK
  5
52F
330
525
100
AcDbEntity
  8
0
100
AcDbBlockBegin
  2
*D9
 70
     1
 10
0.0
 20
0.0
 30
0.0
  3
*D9
  1

  0
LINE
  5
742
330
525
100
AcDbEntity
  8
SUNPOU
 62
     0
370
    -2
100
AcDbLine
 10
6470.458278202099
 20
3413.315555796733
 30
0.0
 11
6623.833152041473
 21
3413.315555796733
 31
0.0
  0
LINE
  5
743
330
525
100
AcDbEntity
  8
SUNPOU
 62
     0
370
    -2
100
AcDbLine
 10
6290.4576702348
 20
3013.315561757133
 30
0.0
 11
6623.833152041473
 21
3013.315561757133
 31
0.0
  0
LINE
  5
744
330
525
100
AcDbEntity
  8
SUNPOU
 62
     0
370
    -2
100
AcDbLine
 10
6603.833152041473
 20
3373.315555796732
 30
0.0
 11
6603.833152041473
 21
3053.315561757133
 31
0.0
  0
SOLID
  5
745
330
525
100
AcDbEntity
  8
SUNPOU
 62
     0
100
AcDbTrace
 10
6597.166485374806
 20
3373.315555796732
 30
0.0
 11
6610.499818708141
 21
3373.315555796732
 31
0.0
 12
6603.833152041473
 22
3413.315555796733
 32
0.0
 13
6603.833152041473
 23
3413.315555796733
 33
0.0
  0
SOLID
  5
746
330
525
100
AcDbEntity
  8
SUNPOU
 62
     0
100
AcDbTrace
 10
6597.166485374806
 20
3053.315561757133
 30
0.0
 11
6610.499818708141
 21
3053.315561757133
 31
0.0
 12
6603.833152041473
 22
3013.315561757133
 32
0.0
 13
6603.833152041473
 23
3013.315561757133
 33
0.0
  0
MTEXT
  5
747
330
525
100
AcDbEntity
  8
SUNPOU
 62
     0
100
AcDbMText
 10
6549.833152041472
 20
3213.315558776934
 30
0.0
 40
60.0
 41
0.0
 71
     5
 72
     5
  1
\A1;400
  7
EXT08
 11
0.0000000000000001
 21
1.0
 31
0.0
 73
     1
 44
1.0
  0
POINT
  5
748
330
525
100
AcDbEntity
  8
DEFPOINTS
 62
     0
100
AcDbPoint
 10
6450.4582782021
 20
3413.315555796733
 30
0.0
  0
POINT
  5
749
330
525
100
AcDbEntity
  8
DEFPOINTS
 62
     0
100
AcDbPoint
 10
6270.4576702348
 20
3013.315561757133
 30
0.0
  0
POINT
  5
74A
330
525
100
AcDbEntity
  8
DEFPOINTS
 62
     0
100
AcDbPoint
 10
6603.833152041473
 20
3013.315561757133
 30
0.0
  0
ENDBLK
  5
530
330
525
100
AcDbEntity
  8
0
100
AcDbBlockEnd
  0
BLOCK
  5
576
330
56C
100
AcDbEntity
  8
0
100
AcDbBlockBegin
  2
*D11
 70
     1
 10
0.0
 20
0.0
 30
0.0
  3
*D11
  1

  0
LINE
  5
6EF
330
56C
100
AcDbEntity
  8
SUNPOU
 62
     0
370
    -2
100
AcDbLine
 10
1223.442212888
 20
2212.062033665133
 30
0.0
 11
1893.9620692438
 21
2212.062033665133
 31
0.0
  0
LINE
  5
6F0
330
56C
100
AcDbEntity
  8
SUNPOU
 62
     0
370
    -2
100
AcDbLine
 10
1425.0562842927
 20
292.1617326766325
 30
0.0
 11
1893.9620692438
 21
292.1617326766324
 31
0.0
  0
LINE
  5
6F1
330
56C
100
AcDbEntity
  8
SUNPOU
 62
     0
370
    -2
100
AcDbLine
 10
1873.9620692438
 20
2172.062033665133
 30
0.0
 11
1873.9620692438
 21
332.1617326766324
 31
0.0
  0
SOLID
  5
6F2
330
56C
100
AcDbEntity
  8
SUNPOU
 62
     0
100
AcDbTrace
 10
1867.295402577133
 20
2172.062033665133
 30
0.0
 11
1880.628735910467
 21
2172.062033665133
 31
0.0
 12
1873.9620692438
 22
2212.062033665133
 32
0.0
 13
1873.9620692438
 23
2212.062033665133
 33
0.0
  0
SOLID
  5
6F3
330
56C
100
AcDbEntity
  8
SUNPOU
 62
     0
100
AcDbTrace
 10
1867.295402577133
 20
332.1617326766324
 30
0.0
 11
1880.628735910467
 21
332.1617326766324
 31
0.0
 12
1873.9620692438
 22
292.1617326766324
 32
0.0
 13
1873.9620692438
 23
292.1617326766324
 33
0.0
  0
MTEXT
  5
6F4
330
56C
100
AcDbEntity
  8
SUNPOU
 62
     0
100
AcDbMText
 10
1819.9620692438
 20
1252.111883170883
 30
0.0
 40
60.0
 41
0.0
 71
     5
 72
     5
  1
\A1;960
  7
EXT08
 11
0.0000000000000001
 21
1.0
 31
0.0
 73
     1
 44
1.0
  0
POINT
  5
6F5
330
56C
100
AcDbEntity
  8
DEFPOINTS
 62
     0
100
AcDbPoint
 10
1203.442212888
 20
2212.062033665133
 30
0.0
  0
POINT
  5
6F6
330
56C
100
AcDbEntity
  8
DEFPOINTS
 62
     0
100
AcDbPoint
 10
1405.0562842927
 20
292.1617326766326
 30
0.0
  0
POINT
  5
6F7
330
56C
100
AcDbEntity
  8
DEFPOINTS
 62
     0
100
AcDbPoint
 10
1873.9620692438
 20
292.1617326766324
 30
0.0
  0
ENDBLK
  5
577
330
56C
100
AcDbEntity
  8
0
100
AcDbBlockEnd
  0
BLOCK
  5
582
330
578
100
AcDbEntity
  8
0
100
AcDbBlockBegin
  2
*D12
 70
     1
 10
0.0
 20
0.0
 30
0.0
  3
*D12
  1

  0
LINE
  5
6E6
330
578
100
AcDbEntity
  8
SUNPOU
 62
     0
370
    -2
100
AcDbLine
 10
1114.3421775946
 20
2352.062031578933
 30
0.0
 11
2011.254853140501
 21
2352.062031578933
 31
0.0
  0
LINE
  5
6E7
330
578
100
AcDbEntity
  8
SUNPOU
 62
     0
370
    -2
100
AcDbLine
 10
1425.0562842927
 20
292.1617326766325
 30
0.0
 11
2011.2548531405
 21
292.1617326766324
 31
0.0
  0
LINE
  5
6E8
330
578
100
AcDbEntity
  8
SUNPOU
 62
     0
370
    -2
100
AcDbLine
 10
1991.2548531405
 20
2312.062031578932
 30
0.0
 11
1991.2548531405
 21
332.1617326766324
 31
0.0
  0
SOLID
  5
6E9
330
578
100
AcDbEntity
  8
SUNPOU
 62
     0
100
AcDbTrace
 10
1984.588186473833
 20
2312.062031578932
 30
0.0
 11
1997.921519807167
 21
2312.062031578932
 31
0.0
 12
1991.2548531405
 22
2352.062031578933
 32
0.0
 13
1991.2548531405
 23
2352.062031578933
 33
0.0
  0
SOLID
  5
6EA
330
578
100
AcDbEntity
  8
SUNPOU
 62
     0
100
AcDbTrace
 10
1984.588186473833
 20
332.1617326766324
 30
0.0
 11
1997.921519807167
 21
332.1617326766324
 31
0.0
 12
1991.2548531405
 22
292.1617326766324
 32
0.0
 13
1991.2548531405
 23
292.1617326766324
 33
0.0
  0
MTEXT
  5
6EB
330
578
100
AcDbEntity
  8
SUNPOU
 62
     0
100
AcDbMText
 10
1937.2548531405
 20
1322.111882127783
 30
0.0
 40
60.0
 41
0.0
 71
     5
 72
     5
  1
\A1;1030
  7
EXT08
 11
0.0000000000000001
 21
1.0
 31
0.0
 73
     1
 44
1.0
  0
POINT
  5
6EC
330
578
100
AcDbEntity
  8
DEFPOINTS
 62
     0
100
AcDbPoint
 10
1094.3421775946
 20
2352.062031578933
 30
0.0
  0
POINT
  5
6ED
330
578
100
AcDbEntity
  8
DEFPOINTS
 62
     0
100
AcDbPoint
 10
1405.0562842927
 20
292.1617326766326
 30
0.0
  0
POINT
  5
6EE
330
578
100
AcDbEntity
  8
DEFPOINTS
 62
     0
100
AcDbPoint
 10
1991.2548531405
 20
292.1617326766324
 30
0.0
  0
ENDBLK
  5
583
330
578
100
AcDbEntity
  8
0
100
AcDbBlockEnd
  0
BLOCK
  5
58E
330
584
100
AcDbEntity
  8
0
100
AcDbBlockBegin
  2
*D13
 70
     1
 10
0.0
 20
0.0
 30
0.0
  3
*D13
  1

  0
LINE
  5
6F8
330
584
100
AcDbEntity
  8
SUNPOU
 62
     0
370
    -2
100
AcDbLine
 10
1187.4421520912
 20
2092.161705854532
 30
0.0
 11
1754.7598008102
 21
2092.161705854532
 31
0.0
  0
LINE
  5
6F9
330
584
100
AcDbEntity
  8
SUNPOU
 62
     0
370
    -2
100
AcDbLine
 10
1425.0562842927
 20
292.1617326766325
 30
0.0
 11
1754.7598008102
 21
292.1617326766325
 31
0.0
  0
LINE
  5
6FA
330
584
100
AcDbEntity
  8
SUNPOU
 62
     0
370
    -2
100
AcDbLine
 10
1734.7598008102
 20
2052.161705854533
 30
0.0
 11
1734.7598008102
 21
332.1617326766325
 31
0.0
  0
SOLID
  5
6FB
330
584
100
AcDbEntity
  8
SUNPOU
 62
     0
100
AcDbTrace
 10
1728.093134143534
 20
2052.161705854533
 30
0.0
 11
1741.426467476867
 21
2052.161705854533
 31
0.0
 12
1734.7598008102
 22
2092.161705854532
 32
0.0
 13
1734.7598008102
 23
2092.161705854532
 33
0.0
  0
SOLID
  5
6FC
330
584
100
AcDbEntity
  8
SUNPOU
 62
     0
100
AcDbTrace
 10
1728.093134143533
 20
332.1617326766325
 30
0.0
 11
1741.426467476866
 21
332.1617326766325
 31
0.0
 12
1734.7598008102
 22
292.1617326766325
 32
0.0
 13
1734.7598008102
 23
292.1617326766325
 33
0.0
  0
MTEXT
  5
6FD
330
584
100
AcDbEntity
  8
SUNPOU
 62
     0
100
AcDbMText
 10
1680.7598008102
 20
1192.161719265583
 30
0.0
 40
60.0
 41
0.0
 71
     5
 72
     5
  1
\A1;900
  7
EXT08
 11
0.0000000000000001
 21
1.0
 31
0.0
 73
     1
 44
1.0
  0
POINT
  5
6FE
330
584
100
AcDbEntity
  8
DEFPOINTS
 62
     0
100
AcDbPoint
 10
1167.4421520912
 20
2092.161705854532
 30
0.0
  0
POINT
  5
6FF
330
584
100
AcDbEntity
  8
DEFPOINTS
 62
     0
100
AcDbPoint
 10
1405.0562842927
 20
292.1617326766326
 30
0.0
  0
POINT
  5
700
330
584
100
AcDbEntity
  8
DEFPOINTS
 62
     0
100
AcDbPoint
 10
1734.7598008102
 20
292.1617326766325
 30
0.0
  0
ENDBLK
  5
58F
330
584
100
AcDbEntity
  8
0
100
AcDbBlockEnd
  0
BLOCK
  5
5AE
330
5A2
100
AcDbEntity
  8
0
100
AcDbBlockBegin
  2
*D14
 70
     1
 10
0.0
 20
0.0
 30
0.0
  3
*D14
  1

  0
LINE
  5
6DD
330
5A2
100
AcDbEntity
  8
SUNPOU
 62
     0
370
    -2
100
AcDbLine
 10
1114.3421775946
 20
2352.062031578933
 30
0.0
 11
1893.9620692438
 21
2352.062031578933
 31
0.0
  0
LINE
  5
6DE
330
5A2
100
AcDbEntity
  8
SUNPOU
 62
     0
370
    -2
100
AcDbLine
 10
1203.442212888
 20
2212.062033665133
 30
0.0
 11
1893.9620692438
 21
2212.062033665133
 31
0.0
  0
LINE
  5
6DF
330
5A2
100
AcDbEntity
  8
SUNPOU
 62
     0
370
    -2
100
AcDbLine
 10
1873.9620692438
 20
2312.062031578932
 30
0.0
 11
1873.9620692438
 21
2252.062033665133
 31
0.0
  0
MTEXT
  5
6E0
330
5A2
100
AcDbEntity
  8
SUNPOU
 62
     0
100
AcDbMText
 10
1805.421702759693
 20
2284.180012943467
 30
0.0
 40
60.0
 41
0.0
 71
     5
 72
     5
  1
\A1;70
  7
EXT08
 11
0.0000000000000001
 21
1.0
 31
0.0
 73
     1
 44
1.0
  0
SOLID
  5
6E1
330
5A2
100
AcDbEntity
  8
SUNPOU
 62
     0
100
AcDbTrace
 10
1867.295402577133
 20
2312.062031578932
 30
0.0
 11
1880.628735910467
 21
2312.062031578932
 31
0.0
 12
1873.9620692438
 22
2352.062031578933
 32
0.0
 13
1873.9620692438
 23
2352.062031578933
 33
0.0
  0
SOLID
  5
6E2
330
5A2
100
AcDbEntity
  8
SUNPOU
 62
     0
100
AcDbTrace
 10
1867.295402577133
 20
2252.062033665133
 30
0.0
 11
1880.628735910467
 21
2252.062033665133
 31
0.0
 12
1873.9620692438
 22
2212.062033665133
 32
0.0
 13
1873.9620692438
 23
2212.062033665133
 33
0.0
  0
POINT
  5
6E3
330
5A2
100
AcDbEntity
  8
DEFPOINTS
 62
     0
100
AcDbPoint
 10
1094.3421775946
 20
2352.062031578933
 30
0.0
  0
POINT
  5
6E4
330
5A2
100
AcDbEntity
  8
DEFPOINTS
 62
     0
100
AcDbPoint
 10
1183.442212888
 20
2212.062033665133
 30
0.0
  0
POINT
  5
6E5
330
5A2
100
AcDbEntity
  8
DEFPOINTS
 62
     0
100
AcDbPoint
 10
1873.9620692438
 20
2212.062033665133
 30
0.0
  0
ENDBLK
  5
5AF
330
5A2
100
AcDbEntity
  8
0
100
AcDbBlockEnd
  0
BLOCK
  5
5BC
330
5B0
100
AcDbEntity
  8
0
100
AcDbBlockBegin
  2
*D15
 70
     1
 10
0.0
 20
0.0
 30
0.0
  3
*D15
  1

  0
LINE
  5
817
330
5B0
100
AcDbEntity
  8
SUNPOU
 62
     0
370
    -2
100
AcDbLine
 10
957.4932718649897
 20
2306.342122890352
 30
0.0
 11
957.4932718649897
 21
2462.425841372934
 31
0.0
  0
LINE
  5
818
330
5B0
100
AcDbEntity
  8
SUNPOU
 62
     0
370
    -2
100
AcDbLine
 10
1133.82627705001
 20
2306.342122890352
 30
0.0
 11
1133.82627705001
 21
2462.425841372934
 31
0.0
  0
LINE
  5
819
330
5B0
100
AcDbEntity
  8
SUNPOU
 62
     0
370
    -2
100
AcDbLine
 10
997.4932718649895
 20
2442.425841372933
 30
0.0
 11
1093.82627705001
 21
2442.425841372933
 31
0.0
  0
MTEXT
  5
81A
330
5B0
100
AcDbEntity
  8
SUNPOU
 62
     0
100
AcDbMText
 10
1038.855198536858
 20
2502.070976384126
 30
0.0
 40
60.0
 41
0.0
 71
     5
 72
     5
  1
\A1;%%C89
  7
EXT08
 73
     1
 44
1.0
  0
SOLID
  5
81B
330
5B0
100
AcDbEntity
  8
SUNPOU
 62
     0
100
AcDbTrace
 10
997.4932718649895
 20
2449.0925080396
 30
0.0
 11
997.4932718649895
 21
2435.759174706267
 31
0.0
 12
957.4932718649897
 22
2442.425841372933
 32
0.0
 13
957.4932718649897
 23
2442.425841372933
 33
0.0
  0
SOLID
  5
81C
330
5B0
100
AcDbEntity
  8
SUNPOU
 62
     0
100
AcDbTrace
 10
1093.82627705001
 20
2449.0925080396
 30
0.0
 11
1093.82627705001
 21
2435.759174706267
 31
0.0
 12
1133.82627705001
 22
2442.425841372933
 32
0.0
 13
1133.82627705001
 23
2442.425841372933
 33
0.0
  0
POINT
  5
81D
330
5B0
100
AcDbEntity
  8
DEFPOINTS
 62
     0
100
AcDbPoint
 10
957.4932718649897
 20
2286.342122890353
 30
0.0
  0
POINT
  5
81E
330
5B0
100
AcDbEntity
  8
DEFPOINTS
 62
     0
100
AcDbPoint
 10
1133.82627705001
 20
2286.342122890353
 30
0.0
  0
POINT
  5
81F
330
5B0
100
AcDbEntity
  8
DEFPOINTS
 62
     0
100
AcDbPoint
 10
1133.82627705001
 20
2442.425841372933
 30
0.0
  0
ENDBLK
  5
5BD
330
5B0
100
AcDbEntity
  8
0
100
AcDbBlockEnd
  0
BLOCK
  5
62B
330
61E
100
AcDbEntity
  8
0
100
AcDbBlockBegin
  2
B0070019
 70
     0
 10
0.0
 20
0.0
 30
0.0
  3
B0070019
  1

  0
LINE
  5
61F
330
61E
100
AcDbEntity
  8
HATCH
100
AcDbLine
 10
-70.0
 20
-35.0
 30
0.0
 11
-96.25
 21
-8.75
 31
0.0
  0
LINE
  5
620
330
61E
100
AcDbEntity
  8
HATCH
100
AcDbLine
 10
-61.25
 20
-26.25
 30
0.0
 11
-87.5
 21
0.0
 31
0.0
  0
LINE
  5
621
330
61E
100
AcDbEntity
  8
HATCH
100
AcDbLine
 10
-157.5
 20
-35.0
 30
0.0
 11
-122.5
 21
0.0
 31
0.0
  0
LINE
  5
622
330
61E
100
AcDbEntity
  8
HATCH
100
AcDbLine
 10
-140.0
 20
-35.0
 30
0.0
 11
-105.0
 21
0.0
 31
0.0
  0
LINE
  5
623
330
61E
100
AcDbEntity
  8
HATCH
100
AcDbLine
 10
-87.5
 20
-35.0
 30
0.0
 11
-105.0
 21
-17.5
 31
0.0
  0
LINE
  5
624
330
61E
100
AcDbEntity
  8
HATCH
100
AcDbLine
 10
-122.5
 20
-35.0
 30
0.0
 11
-87.5
 21
0.0
 31
0.0
  0
LINE
  5
625
330
61E
100
AcDbEntity
  8
HATCH
100
AcDbLine
 10
26.25
 20
-26.25
 30
0.0
 11
0.0
 21
0.0
 31
0.0
  0
LINE
  5
626
330
61E
100
AcDbEntity
  8
HATCH
100
AcDbLine
 10
17.5
 20
-35.0
 30
0.0
 11
-8.75
 21
-8.75
 31
0.0
  0
LINE
  5
627
330
61E
100
AcDbEntity
  8
HATCH
100
AcDbLine
 10
-52.5
 20
-35.0
 30
0.0
 11
-17.5
 21
0.0
 31
0.0
  0
LINE
  5
628
330
61E
100
AcDbEntity
  8
HATCH
100
AcDbLine
 10
-70.0
 20
-35.0
 30
0.0
 11
-35.0
 21
0.0
 31
0.0
  0
LINE
  5
629
330
61E
100
AcDbEntity
  8
HATCH
100
AcDbLine
 10
-35.0
 20
-35.0
 30
0.0
 11
0.0
 21
0.0
 31
0.0
  0
LINE
  5
62A
330
61E
100
AcDbEntity
  8
HATCH
100
AcDbLine
 10
0.0
 20
-35.0
 30
0.0
 11
-17.5
 21
-17.5
 31
0.0
  0
ENDBLK
  5
62C
330
61E
100
AcDbEntity
  8
0
100
AcDbBlockEnd
  0
BLOCK
  5
65C
330
652
100
AcDbEntity
  8
0
100
AcDbBlockBegin
  2
*D17
 70
     1
 10
0.0
 20
0.0
 30
0.0
  3
*D17
  1

  0
LINE
  5
70A
330
652
100
AcDbEntity
  8
SUNPOU
 62
     0
370
    -2
100
AcDbLine
 10
1021.8577423415
 20
4518.183519177448
 30
0.0
 11
1021.8577423415
 21
4738.876420866203
 31
0.0
  0
LINE
  5
70B
330
652
100
AcDbEntity
  8
SUNPOU
 62
     0
370
    -2
100
AcDbLine
 10
3021.8572547755
 20
4532.226372715136
 30
0.0
 11
3021.8572547755
 21
4738.876420866203
 31
0.0
  0
LINE
  5
70C
330
652
100
AcDbEntity
  8
SUNPOU
 62
     0
370
    -2
100
AcDbLine
 10
1061.8577423415
 20
4718.876420866203
 30
0.0
 11
2981.8572547755
 21
4718.876420866203
 31
0.0
  0
SOLID
  5
70D
330
652
100
AcDbEntity
  8
SUNPOU
 62
     0
100
AcDbTrace
 10
1061.8577423415
 20
4725.54308753287
 30
0.0
 11
1061.8577423415
 21
4712.209754199537
 31
0.0
 12
1021.8577423415
 22
4718.876420866203
 32
0.0
 13
1021.8577423415
 23
4718.876420866203
 33
0.0
  0
SOLID
  5
70E
330
652
100
AcDbEntity
  8
SUNPOU
 62
     0
100
AcDbTrace
 10
2981.8572547755
 20
4725.54308753287
 30
0.0
 11
2981.8572547755
 21
4712.209754199537
 31
0.0
 12
3021.8572547755
 22
4718.876420866203
 32
0.0
 13
3021.8572547755
 23
4718.876420866203
 33
0.0
  0
MTEXT
  5
70F
330
652
100
AcDbEntity
  8
SUNPOU
 62
     0
100
AcDbMText
 10
2021.8574985585
 20
4772.876420866203
 30
0.0
 40
60.0
 41
0.0
 71
     5
 72
     5
  1
\A1;2000
  7
EXT08
 73
     1
 44
1.0
  0
POINT
  5
710
330
652
100
AcDbEntity
  8
DEFPOINTS
 62
     0
100
AcDbPoint
 10
1021.8577423415
 20
4498.183519177447
 30
0.0
  0
POINT
  5
711
330
652
100
AcDbEntity
  8
DEFPOINTS
 62
     0
100
AcDbPoint
 10
3021.8572547755
 20
4512.226372715137
 30
0.0
  0
POINT
  5
712
330
652
100
AcDbEntity
  8
DEFPOINTS
 62
     0
100
AcDbPoint
 10
3021.8572547755
 20
4718.876420866203
 30
0.0
  0
ENDBLK
  5
65D
330
652
100
AcDbEntity
  8
0
100
AcDbBlockEnd
  0
BLOCK
  5
669
330
65F
100
AcDbEntity
  8
0
100
AcDbBlockBegin
  2
*D18
 70
     1
 10
0.0
 20
0.0
 30
0.0
  3
*D18
  1

  0
LINE
  5
6D4
330
65F
100
AcDbEntity
  8
SUNPOU
 62
     0
370
    -2
100
AcDbLine
 10
3021.8572547755
 20
4532.226372715136
 30
0.0
 11
3021.8572547755
 21
4738.876420866203
 31
0.0
  0
LINE
  5
6D5
330
65F
100
AcDbEntity
  8
SUNPOU
 62
     0
370
    -2
100
AcDbLine
 10
5021.857224973199
 20
4537.019775406505
 30
0.0
 11
5021.857224973199
 21
4738.876420866203
 31
0.0
  0
LINE
  5
6D6
330
65F
100
AcDbEntity
  8
SUNPOU
 62
     0
370
    -2
100
AcDbLine
 10
3061.8572547755
 20
4718.876420866203
 30
0.0
 11
4981.8572249732
 21
4718.876420866203
 31
0.0
  0
SOLID
  5
6D7
330
65F
100
AcDbEntity
  8
SUNPOU
 62
     0
100
AcDbTrace
 10
3061.8572547755
 20
4725.54308753287
 30
0.0
 11
3061.8572547755
 21
4712.209754199537
 31
0.0
 12
3021.8572547755
 22
4718.876420866203
 32
0.0
 13
3021.8572547755
 23
4718.876420866203
 33
0.0
  0
SOLID
  5
6D8
330
65F
100
AcDbEntity
  8
SUNPOU
 62
     0
100
AcDbTrace
 10
4981.8572249732
 20
4725.54308753287
 30
0.0
 11
4981.8572249732
 21
4712.209754199537
 31
0.0
 12
5021.857224973199
 22
4718.876420866203
 32
0.0
 13
5021.857224973199
 23
4718.876420866203
 33
0.0
  0
MTEXT
  5
6D9
330
65F
100
AcDbEntity
  8
SUNPOU
 62
     0
100
AcDbMText
 10
4021.857239874349
 20
4772.876420866203
 30
0.0
 40
60.0
 41
0.0
 71
     5
 72
     5
  1
\A1;2000
  7
EXT08
 73
     1
 44
1.0
  0
POINT
  5
6DA
330
65F
100
AcDbEntity
  8
DEFPOINTS
 62
     0
100
AcDbPoint
 10
3021.8572547755
 20
4512.226372715137
 30
0.0
  0
POINT
  5
6DB
330
65F
100
AcDbEntity
  8
DEFPOINTS
 62
     0
100
AcDbPoint
 10
5021.857224973199
 20
4517.019775406505
 30
0.0
  0
POINT
  5
6DC
330
65F
100
AcDbEntity
  8
DEFPOINTS
 62
     0
100
AcDbPoint
 10
5021.857224973199
 20
4718.876420866203
 30
0.0
  0
ENDBLK
  5
66A
330
65F
100
AcDbEntity
  8
0
100
AcDbBlockEnd
  0
BLOCK
  5
6C5
330
6C3
100
AcDbEntity
  8
0
100
AcDbBlockBegin
  2
CALCOMP_TECHJET720A3
 70
     0
 10
0.0
 20
0.0
 30
0.0
  3
CALCOMP_TECHJET720A3
  1

  0
LWPOLYLINE
  5
6C4
330
6C3
100
AcDbEntity
  8
ZWAKU
100
AcDbPolyline
 90
        4
 70
     1
 43
0.0
 10
0.0
 20
0.0
 10
0.0
 20
267.0
 10
370.0
 20
267.0
 10
370.0
 20
0.0
  0
ENDBLK
  5
6C6
330
6C3
100
AcDbEntity
  8
0
100
AcDbBlockEnd
  0
BLOCK
  5
ABB
330
AB1
100
AcDbEntity
  8
0
100
AcDbBlockBegin
  2
*D20
 70
     1
 10
0.0
 20
0.0
 30
0.0
  3
*D20
  1

  0
LINE
  5
AD1
330
AB1
100
AcDbEntity
  8
SUNPOU
 62
     0
370
    -2
100
AcDbLine
 10
5971.857208581899
 20
2993.315561757132
 30
0.0
 11
5971.857208581899
 21
2840.259423568563
 31
0.0
  0
LINE
  5
AD2
330
AB1
100
AcDbEntity
  8
SUNPOU
 62
     0
370
    -2
100
AcDbLine
 10
6271.857208581899
 20
2993.315561757133
 30
0.0
 11
6271.857208581899
 21
2840.259423568563
 31
0.0
  0
LINE
  5
AD3
330
AB1
100
AcDbEntity
  8
SUNPOU
 62
     0
370
    -2
100
AcDbLine
 10
6011.857208581899
 20
2860.259423568563
 30
0.0
 11
6231.857208581899
 21
2860.259423568563
 31
0.0
  0
SOLID
  5
AD4
330
AB1
100
AcDbEntity
  8
SUNPOU
 62
     0
100
AcDbTrace
 10
6011.857208581899
 20
2866.92609023523
 30
0.0
 11
6011.857208581899
 21
2853.592756901896
 31
0.0
 12
5971.857208581899
 22
2860.259423568563
 32
0.0
 13
5971.857208581899
 23
2860.259423568563
 33
0.0
  0
SOLID
  5
AD5
330
AB1
100
AcDbEntity
  8
SUNPOU
 62
     0
100
AcDbTrace
 10
6231.857208581899
 20
2866.92609023523
 30
0.0
 11
6231.857208581899
 21
2853.592756901896
 31
0.0
 12
6271.857208581899
 22
2860.259423568563
 32
0.0
 13
6271.857208581899
 23
2860.259423568563
 33
0.0
  0
MTEXT
  5
AD6
330
AB1
100
AcDbEntity
  8
SUNPOU
 62
     0
100
AcDbMText
 10
6121.8572085819
 20
2914.259423568563
 30
0.0
 40
60.0
 41
0.0
 71
     5
 72
     5
  1
\A1;\U+25a1300
  7
EXT08
 73
     1
 44
1.0
  0
POINT
  5
AD7
330
AB1
100
AcDbEntity
  8
DEFPOINTS
 62
     0
100
AcDbPoint
 10
5971.857208581899
 20
3013.315561757132
 30
0.0
  0
POINT
  5
AD8
330
AB1
100
AcDbEntity
  8
DEFPOINTS
 62
     0
100
AcDbPoint
 10
6271.857208581899
 20
3013.315561757133
 30
0.0
  0
POINT
  5
AD9
330
AB1
100
AcDbEntity
  8
DEFPOINTS
 62
     0
100
AcDbPoint
 10
6271.857208581899
 20
2860.259423568563
 30
0.0
  0
ENDBLK
  5
ABC
330
AB1
100
AcDbEntity
  8
0
100
AcDbBlockEnd
  0
BLOCK
  5
B6C
330
B59
100
AcDbEntity
  8
0
100
AcDbBlockBegin
  2
*X21
 70
     1
 10
0.0
 20
0.0
 30
0.0
  3
*X21
  1

  0
LINE
  5
B5A
330
B59
100
AcDbEntity
  8
0
 62
     0
100
AcDbLine
 10
6166.407378816501
 20
3028.621037301196
 30
0.0
 11
6271.857208581899
 21
3134.070867066594
 31
0.0
  0
LINE
  5
B5B
330
B59
100
AcDbEntity
  8
0
 62
     0
100
AcDbLine
 10
6166.4073788165
 20
3205.397732597832
 30
0.0
 11
6271.857208581899
 21
3310.847562363231
 31
0.0
  0
LINE
  5
B5C
330
B59
100
AcDbEntity
  8
0
 62
     0
100
AcDbLine
 10
5974.325207975799
 20
3013.315561757132
 30
0.0
 11
6077.307038347299
 21
3116.297392128632
 31
0.0
  0
LINE
  5
B5D
330
B59
100
AcDbEntity
  8
0
 62
     0
100
AcDbLine
 10
6166.407378816501
 20
3382.174427894469
 30
0.0
 11
6197.548506718764
 21
3413.315555796732
 31
0.0
  0
LINE
  5
B5E
330
B59
100
AcDbEntity
  8
0
 62
     0
100
AcDbLine
 10
5971.857208581901
 20
3187.62425765987
 30
0.0
 11
6077.307038347299
 21
3293.074087425269
 31
0.0
  0
LINE
  5
B5F
330
B59
100
AcDbEntity
  8
0
 62
     0
100
AcDbLine
 10
5971.857208581901
 20
3364.400952956506
 30
0.0
 11
6020.771811422127
 21
3413.315555796733
 31
0.0
  0
LINE
  5
B60
330
B59
100
AcDbEntity
  8
0
 62
     0
100
AcDbLine
 10
6173.198990184517
 20
3013.315561757133
 30
0.0
 11
6271.857208581899
 21
3111.973780154514
 31
0.0
  0
LINE
  5
B61
330
B59
100
AcDbEntity
  8
0
 62
     0
100
AcDbLine
 10
6166.407378816501
 20
3183.300645685752
 30
0.0
 11
6271.857208581899
 21
3288.750475451151
 31
0.0
  0
LINE
  5
B62
330
B59
100
AcDbEntity
  8
0
 62
     0
100
AcDbLine
 10
5996.42229488788
 20
3013.315561757132
 30
0.0
 11
6077.3070383473
 21
3094.200305216553
 31
0.0
  0
LINE
  5
B63
330
B59
100
AcDbEntity
  8
0
 62
     0
100
AcDbLine
 10
6166.407378816501
 20
3360.077340982389
 30
0.0
 11
6219.645593630843
 21
3413.315555796733
 31
0.0
  0
LINE
  5
B64
330
B59
100
AcDbEntity
  8
0
 62
     0
100
AcDbLine
 10
5971.857208581901
 20
3165.52717074779
 30
0.0
 11
6077.307038347299
 21
3270.977000513189
 31
0.0
  0
LINE
  5
B65
330
B59
100
AcDbEntity
  8
0
 62
     0
100
AcDbLine
 10
5971.857208581901
 20
3342.303866044427
 30
0.0
 11
6042.868898334207
 21
3413.315555796733
 31
0.0
  0
LINE
  5
B66
330
B59
100
AcDbEntity
  8
0
 62
     0
100
AcDbLine
 10
6195.296077096596
 20
3013.315561757132
 30
0.0
 11
6271.857208581899
 21
3089.876693242434
 31
0.0
  0
LINE
  5
B67
330
B59
100
AcDbEntity
  8
0
 62
     0
100
AcDbLine
 10
6166.407378816501
 20
3161.203558773673
 30
0.0
 11
6271.857208581899
 21
3266.653388539072
 31
0.0
  0
LINE
  5
B68
330
B59
100
AcDbEntity
  8
0
 62
     0
100
AcDbLine
 10
6018.51938179996
 20
3013.315561757132
 30
0.0
 11
6077.3070383473
 21
3072.103218304473
 31
0.0
  0
LINE
  5
B69
330
B59
100
AcDbEntity
  8
0
 62
     0
100
AcDbLine
 10
6166.4073788165
 20
3337.98025407031
 30
0.0
 11
6241.742680542923
 21
3413.315555796733
 31
0.0
  0
LINE
  5
B6A
330
B59
100
AcDbEntity
  8
0
 62
     0
100
AcDbLine
 10
5971.857208581901
 20
3143.43008383571
 30
0.0
 11
6077.307038347299
 21
3248.879913601109
 31
0.0
  0
LINE
  5
B6B
330
B59
100
AcDbEntity
  8
0
 62
     0
100
AcDbLine
 10
5971.857208581901
 20
3320.206779132347
 30
0.0
 11
6064.965985246287
 21
3413.315555796732
 31
0.0
  0
ENDBLK
  5
B6D
330
B59
100
AcDbEntity
  8
0
100
AcDbBlockEnd
  0
BLOCK
  5
B81
330
B6E
100
AcDbEntity
  8
0
100
AcDbBlockBegin
  2
*X22
 70
     1
 10
0.0
 20
0.0
 30
0.0
  3
*X22
  1

  0
LINE
  5
B6F
330
B6E
100
AcDbEntity
  8
0
 62
     0
100
AcDbLine
 10
5066.406174504702
 20
3028.621037301196
 30
0.0
 11
5171.856004270101
 21
3134.070867066595
 31
0.0
  0
LINE
  5
B70
330
B6E
100
AcDbEntity
  8
0
 62
     0
100
AcDbLine
 10
5066.406174504701
 20
3205.397732597832
 30
0.0
 11
5171.8560042701
 21
3310.847562363231
 31
0.0
  0
LINE
  5
B71
330
B6E
100
AcDbEntity
  8
0
 62
     0
100
AcDbLine
 10
4874.324003664001
 20
3013.315561757132
 30
0.0
 11
4977.305834035502
 21
3116.297392128633
 31
0.0
  0
LINE
  5
B72
330
B6E
100
AcDbEntity
  8
0
 62
     0
100
AcDbLine
 10
5066.406174504702
 20
3382.174427894469
 30
0.0
 11
5097.547302406966
 21
3413.315555796733
 31
0.0
  0
LINE
  5
B73
330
B6E
100
AcDbEntity
  8
0
 62
     0
100
AcDbLine
 10
4871.856004270102
 20
3187.62425765987
 30
0.0
 11
4977.305834035501
 21
3293.074087425269
 31
0.0
  0
LINE
  5
B74
330
B6E
100
AcDbEntity
  8
0
 62
     0
100
AcDbLine
 10
4871.856004270102
 20
3364.400952956506
 30
0.0
 11
4920.770607110329
 21
3413.315555796733
 31
0.0
  0
LINE
  5
B75
330
B6E
100
AcDbEntity
  8
0
 62
     0
100
AcDbLine
 10
5073.197785872719
 20
3013.315561757133
 30
0.0
 11
5171.8560042701
 21
3111.973780154514
 31
0.0
  0
LINE
  5
B76
330
B6E
100
AcDbEntity
  8
0
 62
     0
100
AcDbLine
 10
5066.406174504702
 20
3183.300645685752
 30
0.0
 11
5171.856004270101
 21
3288.750475451151
 31
0.0
  0
LINE
  5
B77
330
B6E
100
AcDbEntity
  8
0
 62
     0
100
AcDbLine
 10
4896.42109057608
 20
3013.315561757132
 30
0.0
 11
4977.305834035502
 21
3094.200305216553
 31
0.0
  0
LINE
  5
B78
330
B6E
100
AcDbEntity
  8
0
 62
     0
100
AcDbLine
 10
5066.406174504702
 20
3360.077340982389
 30
0.0
 11
5119.644389319045
 21
3413.315555796733
 31
0.0
  0
LINE
  5
B79
330
B6E
100
AcDbEntity
  8
0
 62
     0
100
AcDbLine
 10
4871.856004270102
 20
3165.52717074779
 30
0.0
 11
4977.305834035501
 21
3270.977000513189
 31
0.0
  0
LINE
  5
B7A
330
B6E
100
AcDbEntity
  8
0
 62
     0
100
AcDbLine
 10
4871.856004270103
 20
3342.303866044427
 30
0.0
 11
4942.867694022408
 21
3413.315555796733
 31
0.0
  0
LINE
  5
B7B
330
B6E
100
AcDbEntity
  8
0
 62
     0
100
AcDbLine
 10
5095.294872784798
 20
3013.315561757132
 30
0.0
 11
5171.856004270101
 21
3089.876693242434
 31
0.0
  0
LINE
  5
B7C
330
B6E
100
AcDbEntity
  8
0
 62
     0
100
AcDbLine
 10
5066.406174504702
 20
3161.203558773673
 30
0.0
 11
5171.856004270101
 21
3266.653388539072
 31
0.0
  0
LINE
  5
B7D
330
B6E
100
AcDbEntity
  8
0
 62
     0
100
AcDbLine
 10
4918.518177488161
 20
3013.315561757132
 30
0.0
 11
4977.305834035502
 21
3072.103218304473
 31
0.0
  0
LINE
  5
B7E
330
B6E
100
AcDbEntity
  8
0
 62
     0
100
AcDbLine
 10
5066.406174504701
 20
3337.98025407031
 30
0.0
 11
5141.741476231125
 21
3413.315555796733
 31
0.0
  0
LINE
  5
B7F
330
B6E
100
AcDbEntity
  8
0
 62
     0
100
AcDbLine
 10
4871.856004270102
 20
3143.43008383571
 30
0.0
 11
4977.305834035501
 21
3248.879913601109
 31
0.0
  0
LINE
  5
B80
330
B6E
100
AcDbEntity
  8
0
 62
     0
100
AcDbLine
 10
4871.856004270103
 20
3320.206779132347
 30
0.0
 11
4964.964780934487
 21
3413.315555796732
 31
0.0
  0
ENDBLK
  5
B82
330
B6E
100
AcDbEntity
  8
0
100
AcDbBlockEnd
  0
BLOCK
  5
B96
330
B83
100
AcDbEntity
  8
0
100
AcDbBlockBegin
  2
*X23
 70
     1
 10
0.0
 20
0.0
 30
0.0
  3
*X23
  1

  0
LINE
  5
B84
330
B83
100
AcDbEntity
  8
0
 62
     0
100
AcDbLine
 10
3066.406204307002
 20
3028.621037301197
 30
0.0
 11
3171.856034072401
 21
3134.070867066595
 31
0.0
  0
LINE
  5
B85
330
B83
100
AcDbEntity
  8
0
 62
     0
100
AcDbLine
 10
3066.406204307002
 20
3205.397732597833
 30
0.0
 11
3171.856034072401
 21
3310.847562363232
 31
0.0
  0
LINE
  5
B86
330
B83
100
AcDbEntity
  8
0
 62
     0
100
AcDbLine
 10
2874.324033466301
 20
3013.315561757132
 30
0.0
 11
2977.305863837802
 21
3116.297392128633
 31
0.0
  0
LINE
  5
B87
330
B83
100
AcDbEntity
  8
0
 62
     0
100
AcDbLine
 10
3066.406204307003
 20
3382.17442789447
 30
0.0
 11
3097.547332209265
 21
3413.315555796732
 31
0.0
  0
LINE
  5
B88
330
B83
100
AcDbEntity
  8
0
 62
     0
100
AcDbLine
 10
2871.856034072402
 20
3187.62425765987
 30
0.0
 11
2977.305863837801
 21
3293.074087425269
 31
0.0
  0
LINE
  5
B89
330
B83
100
AcDbEntity
  8
0
 62
     0
100
AcDbLine
 10
2871.856034072403
 20
3364.400952956507
 30
0.0
 11
2920.770636912628
 21
3413.315555796733
 31
0.0
  0
LINE
  5
B8A
330
B83
100
AcDbEntity
  8
0
 62
     0
100
AcDbLine
 10
3073.197815675019
 20
3013.315561757133
 30
0.0
 11
3171.8560340724
 21
3111.973780154514
 31
0.0
  0
LINE
  5
B8B
330
B83
100
AcDbEntity
  8
0
 62
     0
100
AcDbLine
 10
3066.406204307002
 20
3183.300645685752
 30
0.0
 11
3171.856034072401
 21
3288.750475451151
 31
0.0
  0
LINE
  5
B8C
330
B83
100
AcDbEntity
  8
0
 62
     0
100
AcDbLine
 10
2896.421120378381
 20
3013.315561757132
 30
0.0
 11
2977.305863837802
 21
3094.200305216552
 31
0.0
  0
LINE
  5
B8D
330
B83
100
AcDbEntity
  8
0
 62
     0
100
AcDbLine
 10
3066.406204307002
 20
3360.077340982389
 30
0.0
 11
3119.644419121345
 21
3413.315555796733
 31
0.0
  0
LINE
  5
B8E
330
B83
100
AcDbEntity
  8
0
 62
     0
100
AcDbLine
 10
2871.856034072402
 20
3165.52717074779
 30
0.0
 11
2977.305863837801
 21
3270.977000513189
 31
0.0
  0
LINE
  5
B8F
330
B83
100
AcDbEntity
  8
0
 62
     0
100
AcDbLine
 10
2871.856034072403
 20
3342.303866044427
 30
0.0
 11
2942.867723824708
 21
3413.315555796733
 31
0.0
  0
LINE
  5
B90
330
B83
100
AcDbEntity
  8
0
 62
     0
100
AcDbLine
 10
3095.294902587098
 20
3013.315561757132
 30
0.0
 11
3171.8560340724
 21
3089.876693242434
 31
0.0
  0
LINE
  5
B91
330
B83
100
AcDbEntity
  8
0
 62
     0
100
AcDbLine
 10
3066.406204307003
 20
3161.203558773674
 30
0.0
 11
3171.856034072402
 21
3266.653388539073
 31
0.0
  0
LINE
  5
B92
330
B83
100
AcDbEntity
  8
0
 62
     0
100
AcDbLine
 10
2918.518207290461
 20
3013.315561757132
 30
0.0
 11
2977.305863837802
 21
3072.103218304473
 31
0.0
  0
LINE
  5
B93
330
B83
100
AcDbEntity
  8
0
 62
     0
100
AcDbLine
 10
3066.406204307002
 20
3337.98025407031
 30
0.0
 11
3141.741506033425
 21
3413.315555796733
 31
0.0
  0
LINE
  5
B94
330
B83
100
AcDbEntity
  8
0
 62
     0
100
AcDbLine
 10
2871.856034072402
 20
3143.43008383571
 30
0.0
 11
2977.305863837801
 21
3248.879913601109
 31
0.0
  0
LINE
  5
B95
330
B83
100
AcDbEntity
  8
0
 62
     0
100
AcDbLine
 10
2871.856034072403
 20
3320.206779132347
 30
0.0
 11
2964.964810736788
 21
3413.315555796732
 31
0.0
  0
ENDBLK
  5
B97
330
B83
100
AcDbEntity
  8
0
100
AcDbBlockEnd
  0
BLOCK
  5
BAB
330
B98
100
AcDbEntity
  8
0
100
AcDbBlockBegin
  2
*X24
 70
     1
 10
0.0
 20
0.0
 30
0.0
  3
*X24
  1

  0
LINE
  5
B99
330
B98
100
AcDbEntity
  8
0
 62
     0
100
AcDbLine
 10
1066.406539285101
 20
3028.621037301197
 30
0.0
 11
1171.8563690505
 21
3134.070867066595
 31
0.0
  0
LINE
  5
B9A
330
B98
100
AcDbEntity
  8
0
 62
     0
100
AcDbLine
 10
1066.406539285102
 20
3205.397732597834
 30
0.0
 11
1171.856369050501
 21
3310.847562363232
 31
0.0
  0
LINE
  5
B9B
330
B98
100
AcDbEntity
  8
0
 62
     0
100
AcDbLine
 10
874.3243684444005
 20
3013.315561757132
 30
0.0
 11
977.3061988159016
 21
3116.297392128633
 31
0.0
  0
LINE
  5
B9C
330
B98
100
AcDbEntity
  8
0
 62
     0
100
AcDbLine
 10
1066.406539285101
 20
3382.17442789447
 30
0.0
 11
1097.547667187364
 21
3413.315555796732
 31
0.0
  0
LINE
  5
B9D
330
B98
100
AcDbEntity
  8
0
 62
     0
100
AcDbLine
 10
871.8563690505016
 20
3187.62425765987
 30
0.0
 11
977.3061988158998
 21
3293.074087425269
 31
0.0
  0
LINE
  5
B9E
330
B98
100
AcDbEntity
  8
0
 62
     0
100
AcDbLine
 10
871.8563690505025
 20
3364.400952956508
 30
0.0
 11
920.7709718907281
 21
3413.315555796733
 31
0.0
  0
LINE
  5
B9F
330
B98
100
AcDbEntity
  8
0
 62
     0
100
AcDbLine
 10
1073.198150653118
 20
3013.315561757133
 30
0.0
 11
1171.8563690505
 21
3111.973780154514
 31
0.0
  0
LINE
  5
BA0
330
B98
100
AcDbEntity
  8
0
 62
     0
100
AcDbLine
 10
1066.406539285102
 20
3183.300645685753
 30
0.0
 11
1171.856369050501
 21
3288.750475451152
 31
0.0
  0
LINE
  5
BA1
330
B98
100
AcDbEntity
  8
0
 62
     0
100
AcDbLine
 10
896.4214553564806
 20
3013.315561757132
 30
0.0
 11
977.3061988159016
 21
3094.200305216553
 31
0.0
  0
LINE
  5
BA2
330
B98
100
AcDbEntity
  8
0
 62
     0
100
AcDbLine
 10
1066.406539285101
 20
3360.077340982389
 30
0.0
 11
1119.644754099445
 21
3413.315555796733
 31
0.0
  0
LINE
  5
BA3
330
B98
100
AcDbEntity
  8
0
 62
     0
100
AcDbLine
 10
871.8563690505016
 20
3165.52717074779
 30
0.0
 11
977.3061988159007
 21
3270.977000513189
 31
0.0
  0
LINE
  5
BA4
330
B98
100
AcDbEntity
  8
0
 62
     0
100
AcDbLine
 10
871.8563690505025
 20
3342.303866044427
 30
0.0
 11
942.8680588028083
 21
3413.315555796733
 31
0.0
  0
LINE
  5
BA5
330
B98
100
AcDbEntity
  8
0
 62
     0
100
AcDbLine
 10
1095.295237565198
 20
3013.315561757132
 30
0.0
 11
1171.8563690505
 21
3089.876693242434
 31
0.0
  0
LINE
  5
BA6
330
B98
100
AcDbEntity
  8
0
 62
     0
100
AcDbLine
 10
1066.406539285102
 20
3161.203558773674
 30
0.0
 11
1171.856369050501
 21
3266.653388539073
 31
0.0
  0
LINE
  5
BA7
330
B98
100
AcDbEntity
  8
0
 62
     0
100
AcDbLine
 10
918.5185422685608
 20
3013.315561757132
 30
0.0
 11
977.3061988159016
 21
3072.103218304473
 31
0.0
  0
LINE
  5
BA8
330
B98
100
AcDbEntity
  8
0
 62
     0
100
AcDbLine
 10
1066.4065392851
 20
3337.98025407031
 30
0.0
 11
1141.741841011524
 21
3413.315555796733
 31
0.0
  0
LINE
  5
BA9
330
B98
100
AcDbEntity
  8
0
 62
     0
100
AcDbLine
 10
871.8563690505016
 20
3143.43008383571
 30
0.0
 11
977.3061988159007
 21
3248.879913601109
 31
0.0
  0
LINE
  5
BAA
330
B98
100
AcDbEntity
  8
0
 62
     0
100
AcDbLine
 10
871.8563690505025
 20
3320.206779132347
 30
0.0
 11
964.9651457148875
 21
3413.315555796732
 31
0.0
  0
ENDBLK
  5
BAC
330
B98
100
AcDbEntity
  8
0
100
AcDbBlockEnd
  0
ENDSEC
  0
SECTION
  2
ENTITIES
  0
LINE
  5
10E
330
1E
100
AcDbEntity
  8
SJC
100
AcDbLine
 10
1200.5877506645
 20
2087.191613155133
 30
0.0
 11
1266.2707330842
 21
2069.592126112733
 31
0.0
  0
LINE
  5
10F
330
1E
100
AcDbEntity
  8
SJC
100
AcDbLine
 10
1197.481824197099
 20
2075.600426804433
 30
0.0
 11
1263.1648066168
 21
2058.000939761932
 31
0.0
  0
ARC
  5
110
330
1E
100
AcDbEntity
  8
SJC
100
AcDbCircle
 10
1264.7177698505
 20
2063.796532937333
 30
0.0
 40
6.000049588099999
100
AcDbArc
 50
254.9996428282
 51
74.99964282819999
  0
ARC
  5
111
330
1E
100
AcDbEntity
  8
SJC
100
AcDbCircle
 10
1199.0347874308
 20
2081.396019979733
 30
0.0
 40
6.000049588099999
100
AcDbArc
 50
74.99964282819999
 51
254.9996428282
  0
LINE
  5
112
330
1E
100
AcDbEntity
  8
SJC
100
AcDbLine
 10
1371.348856518399
 20
2029.012903084533
 30
0.0
 11
1305.6658740988
 21
2046.612695302733
 31
0.0
  0
ARC
  5
113
330
1E
100
AcDbEntity
  8
SJC
100
AcDbCircle
 10
1307.2187610385
 20
2052.408288478133
 30
0.0
 40
6.000029841799999
100
AcDbArc
 50
75.0003465521
 51
255.0003465521
  0
LINE
  5
114
330
1E
100
AcDbEntity
  8
SJC
100
AcDbLine
 10
1374.4546303979
 20
2040.604089435233
 30
0.0
 11
1308.7716479783
 21
2058.203881653533
 31
0.0
  0
ARC
  5
115
330
1E
100
AcDbEntity
  8
SJC
100
AcDbCircle
 10
1372.9017434582
 20
2034.808496259933
 30
0.0
 40
6.000029841799999
100
AcDbArc
 50
255.0003465521
 51
75.0003465521
  0
ARC
  5
116
330
1E
100
AcDbEntity
  8
SJC
100
AcDbCircle
 10
1372.9016480474
 20
2034.808798179133
 30
0.0
 40
19.999999702
100
AcDbArc
 50
182.458301545
 51
255.0002512406
  0
ARC
  5
117
330
1E
100
AcDbEntity
  8
SJC
100
AcDbCircle
 10
1411.5388743976
 20
2024.455977090933
 30
0.0
 40
19.999999702
100
AcDbArc
 50
254.999830194
 51
327.5420788841
  0
LINE
  5
118
330
1E
100
AcDbEntity
  8
SJC
100
AcDbLine
 10
1406.362436319
 20
2005.137476194232
 30
0.0
 11
1367.7253519338
 21
2015.490259243133
 31
0.0
  0
ARC
  5
119
330
1E
100
AcDbEntity
  8
SJC
100
AcDbCircle
 10
1372.9014642485
 20
2034.808950401833
 30
0.0
 40
8.0
100
AcDbArc
 50
213.5938611266
 51
255.0027175409
  0
LINE
  5
11A
330
1E
100
AcDbEntity
  8
SJC
100
AcDbLine
 10
1409.4682101985
 20
2016.728662544933
 30
0.0
 11
1370.8312784011
 21
2027.081445593832
 31
0.0
  0
ARC
  5
11B
330
1E
100
AcDbEntity
  8
SJC
100
AcDbCircle
 10
1411.5389784138
 20
2024.456011314033
 30
0.0
 40
8.0
100
AcDbArc
 50
254.9983995149
 51
296.4077159651
  0
LINE
  5
11C
330
1E
100
AcDbEntity
  8
SJC
100
AcDbLine
 10
1413.6092929004
 20
2032.183069052933
 30
0.0
 11
1374.9722085152
 21
2042.535852101833
 31
0.0
  0
ARC
  5
11D
330
1E
100
AcDbEntity
  8
SJC
100
AcDbCircle
 10
1372.9015394055
 20
2034.808476775233
 30
0.0
 40
8.0
100
AcDbArc
 50
74.99913434959999
 51
116.4072883014
  0
ARC
  5
11E
330
1E
100
AcDbEntity
  8
SJC
100
AcDbCircle
 10
1411.5389214328
 20
2024.455613974732
 30
0.0
 40
8.0
100
AcDbArc
 50
33.5934335507
 51
75.00134124989999
  0
ARC
  5
11F
330
1E
100
AcDbEntity
  8
SJC
100
AcDbCircle
 10
1411.5389232542
 20
2024.455716467633
 30
0.0
 40
19.999999702
100
AcDbArc
 50
2.458301544999999
 51
75.00025124060001
  0
LINE
  5
120
330
1E
100
AcDbEntity
  8
SJC
100
AcDbLine
 10
1416.7152193678
 20
2043.774255403633
 30
0.0
 11
1378.0781349826
 21
2054.127038452532
 31
0.0
  0
ARC
  5
121
330
1E
100
AcDbEntity
  8
SJC
100
AcDbCircle
 10
1372.9016969039
 20
2034.808537555833
 30
0.0
 40
19.999999702
100
AcDbArc
 50
74.999830194
 51
147.5420788841
  0
LINE
  5
122
330
1E
100
AcDbEntity
  8
SJC
100
AcDbLine
 10
1479.5327538322
 20
2000.025171582933
 30
0.0
 11
1413.8497714125
 21
2017.624963801133
 31
0.0
  0
ARC
  5
123
330
1E
100
AcDbEntity
  8
SJC
100
AcDbCircle
 10
1481.0857170658
 20
2005.820764758233
 30
0.0
 40
6.000049588099999
100
AcDbArc
 50
254.9996428282
 51
74.99964282819999
  0
ARC
  5
124
330
1E
100
AcDbEntity
  8
SJC
100
AcDbCircle
 10
1481.085711200799
 20
2005.820757950933
 30
0.0
 40
19.999999702
100
AcDbArc
 50
182.4574162943
 51
255.0002119378
  0
ARC
  5
125
330
1E
100
AcDbEntity
  8
SJC
100
AcDbCircle
 10
1519.7227717114
 20
1995.467940413533
 30
0.0
 40
19.999999702
100
AcDbArc
 50
254.999830194
 51
327.5420788841
  0
LINE
  5
126
330
1E
100
AcDbEntity
  8
SJC
100
AcDbLine
 10
1514.5463336327
 20
1976.149439516833
 30
0.0
 11
1475.9094018354
 21
1986.502222565632
 31
0.0
  0
ARC
  5
127
330
1E
100
AcDbEntity
  8
SJC
100
AcDbCircle
 10
1481.0857937603
 20
2005.820797926233
 30
0.0
 40
8.0
100
AcDbArc
 50
213.590241666
 51
254.9995129732
  0
LINE
  5
128
330
1E
100
AcDbEntity
  8
SJC
100
AcDbLine
 10
1517.6522601001
 20
1987.740625867532
 30
0.0
 11
1479.0151757149
 21
1998.093408916432
 31
0.0
  0
ARC
  5
129
330
1E
100
AcDbEntity
  8
SJC
100
AcDbCircle
 10
1519.7225300447
 20
1995.468108145533
 30
0.0
 40
8.0
100
AcDbArc
 50
255.0020939981
 51
296.4104802091
  0
LINE
  5
12A
330
1E
100
AcDbEntity
  8
SJC
100
AcDbLine
 10
1482.6386802995
 20
2011.616357933633
 30
0.0
 11
1416.9556978799
 21
2029.216150151833
 31
0.0
  0
ARC
  5
12B
330
1E
100
AcDbEntity
  8
SJC
100
AcDbCircle
 10
1481.0854902015
 20
2005.820771831133
 30
0.0
 40
8.0
100
AcDbArc
 50
74.9983995149
 51
116.4077159651
  0
ARC
  5
12C
330
1E
100
AcDbEntity
  8
SJC
100
AcDbCircle
 10
1481.0855942177
 20
2005.820806054133
 30
0.0
 40
19.999999702
100
AcDbArc
 50
74.999830194
 51
147.5420788841
  0
LINE
  5
12D
330
1E
100
AcDbEntity
  8
SJC
100
AcDbLine
 10
1521.7931902141
 20
2003.195337551332
 30
0.0
 11
1483.1562584168
 21
2013.548120600133
 31
0.0
  0
ARC
  5
12E
330
1E
100
AcDbEntity
  8
SJC
100
AcDbCircle
 10
1519.7228205679
 20
1995.467984966032
 30
0.0
 40
19.999999702
100
AcDbArc
 50
2.458301544999999
 51
75.00025124060001
  0
LINE
  5
12F
330
1E
100
AcDbEntity
  8
SJC
100
AcDbLine
 10
1524.8991166815
 20
2014.786523902033
 30
0.0
 11
1486.2620322963
 21
2025.139306950833
 31
0.0
  0
ARC
  5
130
330
1E
100
AcDbEntity
  8
SJC
100
AcDbCircle
 10
1519.7230043668
 20
1995.467832743332
 30
0.0
 40
8.0
100
AcDbArc
 50
33.5938611266
 51
75.0027175409
  0
ARC
  5
131
330
1E
100
AcDbEntity
  8
SJC
100
AcDbCircle
 10
1415.4027346462
 20
2023.420556976533
 30
0.0
 40
6.000049588099999
100
AcDbArc
 50
74.99964282819999
 51
254.9996428282
  0
ARC
  5
132
330
1E
100
AcDbEntity
  8
SJC
100
AcDbCircle
 10
1523.5867082538
 20
1994.432825474832
 30
0.0
 40
6.000029841799999
100
AcDbArc
 50
75.0003465521
 51
255.0003465521
  0
LINE
  5
133
330
1E
100
AcDbEntity
  8
SJC
100
AcDbLine
 10
1587.7168037338
 20
1971.037440081233
 30
0.0
 11
1522.0338213141
 21
1988.637232299432
 31
0.0
  0
LINE
  5
134
330
1E
100
AcDbEntity
  8
SJC
100
AcDbLine
 10
1590.8225776133
 20
1982.628626432033
 30
0.0
 11
1525.1395951936
 21
2000.228418650233
 31
0.0
  0
ARC
  5
135
330
1E
100
AcDbEntity
  8
SJC
100
AcDbCircle
 10
1197.4481488281
 20
2081.458844893933
 30
0.0
 40
19.999999702
100
AcDbArc
 50
254.999830194
 51
327.5420788841
  0
ARC
  5
136
330
1E
100
AcDbEntity
  8
SJC
100
AcDbCircle
 10
1197.4482528442
 20
2081.458879116933
 30
0.0
 40
8.0
100
AcDbArc
 50
254.9983995149
 51
296.4077159651
  0
ARC
  5
137
330
1E
100
AcDbEntity
  8
SJC
100
AcDbCircle
 10
1197.448134905999
 20
2081.458803285633
 30
0.0
 40
8.0
100
AcDbArc
 50
33.5906692812
 51
75.0008892779
  0
ARC
  5
138
330
1E
100
AcDbEntity
  8
SJC
100
AcDbCircle
 10
1197.4481844328
 20
2081.458892997133
 30
0.0
 40
19.999999702
100
AcDbArc
 50
2.4574162943
 51
75.0002119378
  0
ARC
  5
139
330
1E
100
AcDbEntity
  8
SJC
100
AcDbCircle
 10
1266.9949723794
 20
2062.823934480433
 30
0.0
 40
19.999999702
100
AcDbArc
 50
182.458301545
 51
255.0002512406
  0
LINE
  5
13A
330
1E
100
AcDbEntity
  8
SJC
100
AcDbLine
 10
1300.4556080631
 20
2033.152612495533
 30
0.0
 11
1261.818676265799
 21
2043.505395544433
 31
0.0
  0
LINE
  5
13B
330
1E
100
AcDbEntity
  8
SJC
100
AcDbLine
 10
1303.5615345305
 20
2044.743798846233
 30
0.0
 11
1264.9244501453
 21
2055.096581895133
 31
0.0
  0
ARC
  5
13C
330
1E
100
AcDbEntity
  8
SJC
100
AcDbCircle
 10
1266.9948216129
 20
2062.824036973333
 30
0.0
 40
8.0
100
AcDbArc
 50
213.5934335507
 51
255.0013412499
  0
LINE
  5
13D
330
1E
100
AcDbEntity
  8
SJC
100
AcDbLine
 10
1307.7026172325
 20
2060.198510530033
 30
0.0
 11
1269.0655328473
 21
2070.551293578832
 31
0.0
  0
ARC
  5
13E
330
1E
100
AcDbEntity
  8
SJC
100
AcDbCircle
 10
1266.9947646319
 20
2062.823944809832
 30
0.0
 40
8.0
100
AcDbArc
 50
74.9983995149
 51
116.4077159651
  0
ARC
  5
13F
330
1E
100
AcDbEntity
  8
SJC
100
AcDbCircle
 10
1266.9948686481
 20
2062.823979032833
 30
0.0
 40
19.999999702
100
AcDbArc
 50
74.999830194
 51
147.5420788841
  0
LINE
  5
140
330
1E
100
AcDbEntity
  8
SJC
100
AcDbLine
 10
1310.808391112
 20
2071.789696880733
 30
0.0
 11
1272.1713067268
 21
2082.142479929633
 31
0.0
  0
ARC
  5
141
330
1E
100
AcDbEntity
  8
SJC
100
AcDbCircle
 10
1305.6320817465
 20
2052.471161495433
 30
0.0
 40
19.999999702
100
AcDbArc
 50
2.4574162943
 51
75.0002119378
  0
ARC
  5
142
330
1E
100
AcDbEntity
  8
SJC
100
AcDbCircle
 10
1305.631999187
 20
2052.471121520133
 30
0.0
 40
8.0
100
AcDbArc
 50
33.590241666
 51
74.99951297319999
  0
ARC
  5
143
330
1E
100
AcDbEntity
  8
SJC
100
AcDbCircle
 10
1305.6322036402
 20
2052.471174172833
 30
0.0
 40
8.0
100
AcDbArc
 50
254.9991343496
 51
296.4072883014
  0
ARC
  5
144
330
1E
100
AcDbEntity
  8
SJC
100
AcDbCircle
 10
1305.6320461418
 20
2052.471113392233
 30
0.0
 40
19.999999702
100
AcDbArc
 50
254.999830194
 51
327.5420788841
  0
LINE
  5
145
330
1E
100
AcDbEntity
  8
SJC
100
AcDbLine
 10
719.9706923966
 20
2029.012903084533
 30
0.0
 11
785.6536748162998
 21
2046.612695302733
 31
0.0
  0
ARC
  5
146
330
1E
100
AcDbEntity
  8
SJC
100
AcDbCircle
 10
784.1007878764998
 20
2052.408288478133
 30
0.0
 40
6.000029841799999
100
AcDbArc
 50
284.9996534479
 51
104.9996534479
  0
LINE
  5
147
330
1E
100
AcDbEntity
  8
SJC
100
AcDbLine
 10
716.8649185171
 20
2040.604089435233
 30
0.0
 11
782.5479009368
 21
2058.203881653533
 31
0.0
  0
ARC
  5
148
330
1E
100
AcDbEntity
  8
SJC
100
AcDbCircle
 10
718.4178054567999
 20
2034.808496259933
 30
0.0
 40
6.000029841799999
100
AcDbArc
 50
104.9996534479
 51
284.9996534479
  0
ARC
  5
149
330
1E
100
AcDbEntity
  8
SJC
100
AcDbCircle
 10
718.4179008676001
 20
2034.808798179133
 30
0.0
 40
19.999999702
100
AcDbArc
 50
284.9997487594
 51
357.541698455
  0
ARC
  5
14A
330
1E
100
AcDbEntity
  8
SJC
100
AcDbCircle
 10
679.7806745174
 20
2024.455977090933
 30
0.0
 40
19.999999702
100
AcDbArc
 50
212.4579211159
 51
285.000169806
  0
LINE
  5
14B
330
1E
100
AcDbEntity
  8
SJC
100
AcDbLine
 10
684.9571125961001
 20
2005.137476194232
 30
0.0
 11
723.5941969813
 21
2015.490259243133
 31
0.0
  0
ARC
  5
14C
330
1E
100
AcDbEntity
  8
SJC
100
AcDbCircle
 10
718.4180846665999
 20
2034.808950401833
 30
0.0
 40
8.0
100
AcDbArc
 50
284.9972824591
 51
326.4061388734
  0
LINE
  5
14D
330
1E
100
AcDbEntity
  8
SJC
100
AcDbLine
 10
681.8513387165999
 20
2016.728662544933
 30
0.0
 11
720.4882705139
 21
2027.081445593832
 31
0.0
  0
ARC
  5
14E
330
1E
100
AcDbEntity
  8
SJC
100
AcDbCircle
 10
679.7805705012001
 20
2024.456011314033
 30
0.0
 40
8.0
100
AcDbArc
 50
243.5922840349
 51
285.0016004851
  0
LINE
  5
14F
330
1E
100
AcDbEntity
  8
SJC
100
AcDbLine
 10
677.7102560145999
 20
2032.183069052933
 30
0.0
 11
716.3473403998
 21
2042.535852101833
 31
0.0
  0
ARC
  5
150
330
1E
100
AcDbEntity
  8
SJC
100
AcDbCircle
 10
718.4180095094998
 20
2034.808476775233
 30
0.0
 40
8.0
100
AcDbArc
 50
63.5927116986
 51
105.0008656504
  0
ARC
  5
151
330
1E
100
AcDbEntity
  8
SJC
100
AcDbCircle
 10
679.7806274822001
 20
2024.455613974732
 30
0.0
 40
8.0
100
AcDbArc
 50
104.9986587501
 51
146.4065664493
  0
ARC
  5
152
330
1E
100
AcDbEntity
  8
SJC
100
AcDbCircle
 10
679.7806256609001
 20
2024.455716467633
 30
0.0
 40
19.999999702
100
AcDbArc
 50
104.9997487594
 51
177.541698455
  0
LINE
  5
153
330
1E
100
AcDbEntity
  8
SJC
100
AcDbLine
 10
674.6043295471999
 20
2043.774255403633
 30
0.0
 11
713.2414139324001
 21
2054.127038452532
 31
0.0
  0
ARC
  5
154
330
1E
100
AcDbEntity
  8
SJC
100
AcDbCircle
 10
718.4178520110999
 20
2034.808537555833
 30
0.0
 40
19.999999702
100
AcDbArc
 50
32.4579211159
 51
105.000169806
  0
LINE
  5
155
330
1E
100
AcDbEntity
  8
SJC
100
AcDbLine
 10
611.7867950828999
 20
2000.025171582933
 30
0.0
 11
677.4697775025999
 21
2017.624963801133
 31
0.0
  0
ARC
  5
156
330
1E
100
AcDbEntity
  8
SJC
100
AcDbCircle
 10
610.2338318492
 20
2005.820764758233
 30
0.0
 40
6.000049588099999
100
AcDbArc
 50
105.0003571718
 51
285.0003571718
  0
ARC
  5
157
330
1E
100
AcDbEntity
  8
SJC
100
AcDbCircle
 10
610.2338377142
 20
2005.820757950933
 30
0.0
 40
19.999999702
100
AcDbArc
 50
284.9997880622
 51
357.5425837057
  0
ARC
  5
158
330
1E
100
AcDbEntity
  8
SJC
100
AcDbCircle
 10
571.5967772037002
 20
1995.467940413533
 30
0.0
 40
19.999999702
100
AcDbArc
 50
212.4579211159
 51
285.000169806
  0
LINE
  5
159
330
1E
100
AcDbEntity
  8
SJC
100
AcDbLine
 10
576.7732152824001
 20
1976.149439516833
 30
0.0
 11
615.4101470797
 21
1986.502222565632
 31
0.0
  0
ARC
  5
15A
330
1E
100
AcDbEntity
  8
SJC
100
AcDbCircle
 10
610.2337551548
 20
2005.820797926233
 30
0.0
 40
8.0
100
AcDbArc
 50
285.0004870268
 51
326.409758334
  0
LINE
  5
15B
330
1E
100
AcDbEntity
  8
SJC
100
AcDbLine
 10
573.6672888150001
 20
1987.740625867532
 30
0.0
 11
612.3043732001999
 21
1998.093408916432
 31
0.0
  0
ARC
  5
15C
330
1E
100
AcDbEntity
  8
SJC
100
AcDbCircle
 10
571.5970188702999
 20
1995.468108145533
 30
0.0
 40
8.0
100
AcDbArc
 50
243.5895197909
 51
284.9979060019
  0
LINE
  5
15D
330
1E
100
AcDbEntity
  8
SJC
100
AcDbLine
 10
608.6808686154999
 20
2011.616357933633
 30
0.0
 11
674.3638510352
 21
2029.216150151833
 31
0.0
  0
ARC
  5
15E
330
1E
100
AcDbEntity
  8
SJC
100
AcDbCircle
 10
610.2340587135
 20
2005.820771831133
 30
0.0
 40
8.0
100
AcDbArc
 50
63.5922840349
 51
105.0016004851
  0
ARC
  5
15F
330
1E
100
AcDbEntity
  8
SJC
100
AcDbCircle
 10
610.2339546973999
 20
2005.820806054133
 30
0.0
 40
19.999999702
100
AcDbArc
 50
32.4579211159
 51
105.000169806
  0
LINE
  5
160
330
1E
100
AcDbEntity
  8
SJC
100
AcDbLine
 10
569.5263587008999
 20
2003.195337551332
 30
0.0
 11
608.1632904982
 21
2013.548120600133
 31
0.0
  0
ARC
  5
161
330
1E
100
AcDbEntity
  8
SJC
100
AcDbCircle
 10
571.5967283471
 20
1995.467984966032
 30
0.0
 40
19.999999702
100
AcDbArc
 50
104.9997487594
 51
177.541698455
  0
LINE
  5
162
330
1E
100
AcDbEntity
  8
SJC
100
AcDbLine
 10
566.4204322334999
 20
2014.786523902033
 30
0.0
 11
605.0575166187
 21
2025.139306950833
 31
0.0
  0
ARC
  5
163
330
1E
100
AcDbEntity
  8
SJC
100
AcDbCircle
 10
571.5965445481999
 20
1995.467832743332
 30
0.0
 40
8.0
100
AcDbArc
 50
104.9972824591
 51
146.4061388734
  0
ARC
  5
164
330
1E
100
AcDbEntity
  8
SJC
100
AcDbCircle
 10
675.9168142689
 20
2023.420556976533
 30
0.0
 40
6.000049588099999
100
AcDbArc
 50
285.0003571718
 51
105.0003571718
  0
ARC
  5
165
330
1E
100
AcDbEntity
  8
SJC
100
AcDbCircle
 10
567.7328406612
 20
1994.432825474832
 30
0.0
 40
6.000029841799999
100
AcDbArc
 50
284.9996534479
 51
104.9996534479
  0
ARC
  5
166
330
1E
100
AcDbEntity
  8
SJC
100
AcDbCircle
 10
824.3245765356
 20
2062.823934480433
 30
0.0
 40
19.999999702
100
AcDbArc
 50
284.9997487594
 51
357.541698455
  0
LINE
  5
167
330
1E
100
AcDbEntity
  8
SJC
100
AcDbLine
 10
790.8639408519002
 20
2033.152612495533
 30
0.0
 11
829.5008726492001
 21
2043.505395544433
 31
0.0
  0
LINE
  5
168
330
1E
100
AcDbEntity
  8
SJC
100
AcDbLine
 10
787.7580143844998
 20
2044.743798846233
 30
0.0
 11
826.3950987696999
 21
2055.096581895133
 31
0.0
  0
ARC
  5
169
330
1E
100
AcDbEntity
  8
SJC
100
AcDbCircle
 10
785.6874671685
 20
2052.471161495433
 30
0.0
 40
19.999999702
100
AcDbArc
 50
104.9997880622
 51
177.5425837057
  0
ARC
  5
16A
330
1E
100
AcDbEntity
  8
SJC
100
AcDbCircle
 10
785.6873452748
 20
2052.471174172833
 30
0.0
 40
8.0
100
AcDbArc
 50
243.5927116986
 51
285.0008656504
  0
ARC
  5
16B
330
1E
100
AcDbEntity
  8
SJC
100
AcDbCircle
 10
785.6875027732002
 20
2052.471113392233
 30
0.0
 40
19.999999702
100
AcDbArc
 50
212.4579211159
 51
285.000169806
  0
LINE
  5
16C
330
1E
100
AcDbEntity
  8
SJC
100
AcDbLine
 10
890.7317982505
 20
2087.191613155133
 30
0.0
 11
825.0488158307998
 21
2069.592126112733
 31
0.0
  0
LINE
  5
16D
330
1E
100
AcDbEntity
  8
SJC
100
AcDbLine
 10
893.8377247179001
 20
2075.600426804433
 30
0.0
 11
828.1547422982002
 21
2058.000939761932
 31
0.0
  0
ARC
  5
16E
330
1E
100
AcDbEntity
  8
SJC
100
AcDbCircle
 10
826.6017790645001
 20
2063.796532937333
 30
0.0
 40
6.000049588099999
100
AcDbArc
 50
105.0003571718
 51
285.0003571718
  0
ARC
  5
16F
330
1E
100
AcDbEntity
  8
SJC
100
AcDbCircle
 10
892.2847614841998
 20
2081.396019979733
 30
0.0
 40
6.000049588099999
100
AcDbArc
 50
285.0003571718
 51
105.0003571718
  0
ARC
  5
170
330
1E
100
AcDbEntity
  8
SJC
100
AcDbCircle
 10
893.871400087
 20
2081.458844893933
 30
0.0
 40
19.999999702
100
AcDbArc
 50
212.4579211159
 51
285.000169806
  0
ARC
  5
171
330
1E
100
AcDbEntity
  8
SJC
100
AcDbCircle
 10
893.8712960707999
 20
2081.458879116933
 30
0.0
 40
8.0
100
AcDbArc
 50
243.5922840349
 51
285.0016004851
  0
ARC
  5
172
330
1E
100
AcDbEntity
  8
SJC
100
AcDbCircle
 10
893.871414009
 20
2081.458803285633
 30
0.0
 40
8.0
100
AcDbArc
 50
104.9991107221
 51
146.4093307188
  0
ARC
  5
173
330
1E
100
AcDbEntity
  8
SJC
100
AcDbCircle
 10
893.8713644822
 20
2081.458892997133
 30
0.0
 40
19.999999702
100
AcDbArc
 50
104.9997880622
 51
177.5425837057
  0
ARC
  5
174
330
1E
100
AcDbEntity
  8
SJC
100
AcDbCircle
 10
824.3247273021001
 20
2062.824036973333
 30
0.0
 40
8.0
100
AcDbArc
 50
284.9986587501
 51
326.4065664493
  0
LINE
  5
175
330
1E
100
AcDbEntity
  8
SJC
100
AcDbLine
 10
783.6169316825999
 20
2060.198510530033
 30
0.0
 11
822.2540160677999
 21
2070.551293578832
 31
0.0
  0
ARC
  5
176
330
1E
100
AcDbEntity
  8
SJC
100
AcDbCircle
 10
824.324680267
 20
2062.823979032833
 30
0.0
 40
19.999999702
100
AcDbArc
 50
32.4579211159
 51
105.000169806
  0
LINE
  5
177
330
1E
100
AcDbEntity
  8
SJC
100
AcDbLine
 10
780.5111578031
 20
2071.789696880733
 30
0.0
 11
819.1482421883002
 21
2082.142479929633
 31
0.0
  0
ARC
  5
178
330
1E
100
AcDbEntity
  8
SJC
100
AcDbCircle
 10
824.3247842831001
 20
2062.823944809832
 30
0.0
 40
8.0
100
AcDbArc
 50
63.5922840349
 51
105.0016004851
  0
ARC
  5
179
330
1E
100
AcDbEntity
  8
SJC
100
AcDbCircle
 10
785.6875497279998
 20
2052.471121520133
 30
0.0
 40
8.0
100
AcDbArc
 50
105.0004870268
 51
146.409758334
  0
LINE
  5
17A
330
1E
100
AcDbEntity
  8
SJC
100
AcDbLine
 10
521.6448896878
 20
1988.295435429532
 30
0.0
 11
566.1799537215001
 21
2000.228418650233
 31
0.0
  0
LINE
  5
17B
330
1E
100
AcDbEntity
  8
SJC
100
AcDbLine
 10
522.407295072
 20
1976.076197330433
 30
0.0
 11
569.2857276009999
 21
1988.637232299432
 31
0.0
  0
LINE
  5
17C
330
1E
100
AcDbEntity
  8
SJC
100
AcDbLine
 10
2903.1249567401
 20
292.1617326766326
 30
0.0
 11
2307.795986119
 21
292.1617326766326
 31
0.0
  0
LINE
  5
17D
330
1E
100
AcDbEntity
  8
SJC
100
AcDbLine
 10
956.5597391640999
 20
292.1617326766326
 30
0.0
 11
956.5597391640999
 21
2034.334253102933
 31
0.0
  0
ARC
  5
17E
330
1E
100
AcDbEntity
  8
SJC
100
AcDbCircle
 10
896.0906813411998
 20
2092.161705854532
 30
0.0
 40
83.6691176345
100
AcDbArc
 50
316.2792234647
 51
43.72077653529999
  0
ARC
  5
17F
330
1E
100
AcDbEntity
  8
SJC
100
AcDbCircle
 10
972.5592891882998
 20
2092.161705854532
 30
0.0
 40
59.9999991059
100
AcDbArc
 50
105.4655643504
 51
254.5344356496
  0
CIRCLE
  5
180
330
1E
100
AcDbEntity
  8
SJC
100
AcDbCircle
 10
932.5598005569
 20
2092.161705854532
 30
0.0
 40
4.9999999255
  0
LINE
  5
181
330
1E
100
AcDbEntity
  8
SJC
100
AcDbLine
 10
895.9420642861001
 20
2073.731530347933
 30
0.0
 11
914.1125352068002
 21
2078.600304689433
 31
0.0
  0
LINE
  5
182
330
1E
100
AcDbEntity
  8
SJC
100
AcDbLine
 10
899.0478381655998
 20
2062.140343997133
 30
0.0
 11
917.9913193287003
 21
2067.216332691033
 31
0.0
  0
LINE
  5
183
330
1E
100
AcDbEntity
  8
SJC
100
AcDbLine
 10
891.8009815842001
 20
2089.186242031633
 30
0.0
 11
912.6162583736
 21
2094.763939702433
 31
0.0
  0
LINE
  5
184
330
1E
100
AcDbEntity
  8
SJC
100
AcDbLine
 10
888.6950551168002
 20
2100.777428382333
 30
0.0
 11
914.6125657168999
 21
2107.722008357033
 31
0.0
  0
ARC
  5
185
330
1E
100
AcDbEntity
  8
SJC
100
AcDbCircle
 10
1118.7602597268
 20
2092.161705854532
 30
0.0
 40
59.9999991059
100
AcDbArc
 50
285.4655643504001
 51
74.5344356496
  0
ARC
  5
186
330
1E
100
AcDbEntity
  8
SJC
100
AcDbCircle
 10
1195.2288675738
 20
2092.161705854532
 30
0.0
 40
83.6691176345
100
AcDbArc
 50
136.2792234647
 51
223.7207765353
  0
LINE
  5
187
330
1E
100
AcDbEntity
  8
SJC
100
AcDbLine
 10
1134.7598097509
 20
292.1617326766326
 30
0.0
 11
1134.7598097509
 21
2034.334253102933
 31
0.0
  0
LINE
  5
188
330
1E
100
AcDbEntity
  8
SJC
100
AcDbLine
 10
1202.6244937982
 20
2100.777428382333
 30
0.0
 11
1176.7069831981
 21
2107.722008357033
 31
0.0
  0
LINE
  5
189
330
1E
100
AcDbEntity
  8
SJC
100
AcDbLine
 10
1199.518567330899
 20
2089.186242031633
 30
0.0
 11
1178.7032905414
 21
2094.763634526632
 31
0.0
  0
LINE
  5
18A
330
1E
100
AcDbEntity
  8
SJC
100
AcDbLine
 10
1195.3774846289
 20
2073.731530347933
 30
0.0
 11
1177.2070137082
 21
2078.600304689433
 31
0.0
  0
LINE
  5
18B
330
1E
100
AcDbEntity
  8
SJC
100
AcDbLine
 10
1192.2717107494
 20
2062.140343997133
 30
0.0
 11
1173.328382174199
 21
2067.216332691033
 31
0.0
  0
LINE
  5
18C
330
1E
100
AcDbEntity
  8
SJC
100
AcDbLine
 10
956.5597391640999
 20
2149.989158606133
 30
0.0
 11
956.5597391640999
 21
2212.062033665133
 31
0.0
  0
LINE
  5
18D
330
1E
100
AcDbEntity
  8
SJC
100
AcDbLine
 10
1134.7598097509
 20
2149.989158606133
 30
0.0
 11
1134.7598097509
 21
2212.062033665133
 31
0.0
  0
LINE
  5
18E
330
1E
100
AcDbEntity
  8
SJC
100
AcDbLine
 10
2566.559409997501
 20
292.1617326766326
 30
0.0
 11
2566.559409997501
 21
2211.562033665133
 31
0.0
  0
LINE
  5
18F
330
1E
100
AcDbEntity
  8
SJC
100
AcDbLine
 10
2744.7594805843
 20
292.1617326766326
 30
0.0
 11
2744.7594805843
 21
2211.562033665133
 31
0.0
  0
CIRCLE
  5
190
330
1E
100
AcDbEntity
  8
SJC
100
AcDbCircle
 10
2655.6597504666
 20
2092.161705854532
 30
0.0
 40
59.9999991059
  0
LINE
  5
191
330
1E
100
AcDbEntity
  8
SJC
100
AcDbLine
 10
2647.659872656201
 20
2134.361717432733
 30
0.0
 11
2663.6596282771
 21
2134.361717432733
 31
0.0
  0
LINE
  5
192
330
1E
100
AcDbEntity
  8
SJC
100
AcDbLine
 10
2655.6597504666
 20
2126.361839622233
 30
0.0
 11
2655.6597504666
 21
2142.361595243233
 31
0.0
  0
LINE
  5
193
330
1E
100
AcDbEntity
  8
SJC
100
AcDbLine
 10
2647.659872656201
 20
2049.961694276333
 30
0.0
 11
2663.6596282771
 21
2049.961694276333
 31
0.0
  0
LINE
  5
194
330
1E
100
AcDbEntity
  8
SJC
100
AcDbLine
 10
2655.6597504666
 20
2057.961572086733
 30
0.0
 11
2655.6597504666
 21
2041.961816465833
 31
0.0
  0
LINE
  5
195
330
1E
100
AcDbEntity
  8
SJC
100
AcDbLine
 10
2647.659872656201
 20
2103.961632436533
 30
0.0
 11
2663.6596282771
 21
2103.961632436533
 31
0.0
  0
LINE
  5
196
330
1E
100
AcDbEntity
  8
SJC
100
AcDbLine
 10
2647.659872656201
 20
2080.361779272533
 30
0.0
 11
2663.6596282771
 21
2080.361779272533
 31
0.0
  0
LINE
  5
197
330
1E
100
AcDbEntity
  8
SJC
100
AcDbLine
 10
2663.6596282771
 20
2103.961632436533
 30
0.0
 11
2663.6596282771
 21
2080.361779272533
 31
0.0
  0
LINE
  5
198
330
1E
100
AcDbEntity
  8
SJC
100
AcDbLine
 10
2647.659872656201
 20
2103.961632436533
 30
0.0
 11
2647.659872656201
 21
2080.361779272533
 31
0.0
  0
TEXT
  5
199
330
1E
100
AcDbEntity
  8
MOJI
100
AcDbText
 10
5537.725001574312
 20
1084.680898938996
 30
0.0
 40
60.0
  1
1
 41
0.8
  7
EXT08
100
AcDbText
  0
TEXT
  5
19A
330
1E
100
AcDbEntity
  8
MOJI
100
AcDbText
 10
5509.922810148311
 20
1190.074370675774
 30
0.0
 40
60.0
  1
部番
 41
0.8
  7
EXT08
100
AcDbText
  0
TEXT
  5
19B
330
1E
100
AcDbEntity
  8
MOJI
100
AcDbText
 10
5537.725001574312
 20
984.680561344885
 30
0.0
 40
60.0
  1
2
 41
0.8
  7
EXT08
100
AcDbText
  0
TEXT
  5
19C
330
1E
100
AcDbEntity
  8
MOJI
100
AcDbText
 10
5537.725001574312
 20
884.6805628349956
 30
0.0
 40
60.0
  1
3
 41
0.8
  7
EXT08
100
AcDbText
  0
TEXT
  5
19D
330
1E
100
AcDbEntity
  8
MOJI
100
AcDbText
 10
5537.725001574312
 20
784.6805643251068
 30
0.0
 40
60.0
  1
4
 41
0.8
  7
EXT08
100
AcDbText
  0
TEXT
  5
19E
330
1E
100
AcDbEntity
  8
MOJI
100
AcDbText
 10
5537.725001574312
 20
684.6805658152188
 30
0.0
 40
60.0
  1
5
 41
0.8
  7
EXT08
100
AcDbText
  0
TEXT
  5
19F
330
1E
100
AcDbEntity
  8
MOJI
100
AcDbText
 10
5537.725001574312
 20
584.6805673053291
 30
0.0
 40
60.0
  1
6
 41
0.8
  7
EXT08
100
AcDbText
  0
TEXT
  5
1A0
330
1E
100
AcDbEntity
  8
MOJI
100
AcDbText
 10
6151.162119109791
 20
1188.993031173663
 30
0.0
 40
60.0
  1
材　　質
 41
0.8
  7
EXT08
100
AcDbText
  0
TEXT
  5
1A1
330
1E
100
AcDbEntity
  8
MOJI
100
AcDbText
 10
6688.094425999207
 20
1188.993031173663
 30
0.0
 40
60.0
  1
摘　　　要
 41
0.8
  7
EXT08
100
AcDbText
  0
TEXT
  5
1A2
330
1E
100
AcDbEntity
  8
MOJI
100
AcDbText
 10
5798.811694732421
 20
1190.074370675774
 30
0.0
 40
60.0
  1
品　名
 41
0.8
  7
EXT08
100
AcDbText
  0
TEXT
  5
1A3
330
1E
100
AcDbEntity
  8
MOJI
100
AcDbText
 10
6516.185988743102
 20
1091.688752024662
 30
0.0
 40
60.0
  1
亜鉛めっき＋静電粉体塗装
 41
0.8
  7
EXT08
100
AcDbText
  0
LINE
  5
1A4
330
1E
100
AcDbEntity
  8
MOJI
100
AcDbLine
 10
5481.281046252199
 20
568.147839144663
 30
0.0
 11
7254.065842719383
 21
568.147839144663
 31
0.0
  0
LINE
  5
1A5
330
1E
100
AcDbEntity
  8
MOJI
100
AcDbLine
 10
5481.281046252199
 20
668.1478376545515
 30
0.0
 11
7254.065842719383
 21
668.1478376545515
 31
0.0
  0
LINE
  5
1A6
330
1E
100
AcDbEntity
  8
MOJI
100
AcDbLine
 10
5481.281046252199
 20
768.1474970802183
 30
0.0
 11
7254.065842719383
 21
768.1474970802183
 31
0.0
  0
LINE
  5
1A7
330
1E
100
AcDbEntity
  8
MOJI
100
AcDbLine
 10
5481.281046252199
 20
968.147494099996
 30
0.0
 11
7254.065842719383
 21
968.147494099996
 31
0.0
  0
LINE
  5
1A8
330
1E
100
AcDbEntity
  8
MOJI
100
AcDbLine
 10
5481.281046252199
 20
1068.147831693996
 30
0.0
 11
7254.065842719383
 21
1068.147831693996
 31
0.0
  0
LINE
  5
1A9
330
1E
100
AcDbEntity
  8
MOJI
100
AcDbLine
 10
5481.281046252199
 20
1168.147830203885
 30
0.0
 11
7254.065842719383
 21
1168.147830203885
 31
0.0
  0
LINE
  5
1AA
330
1E
100
AcDbEntity
  8
MOJI
100
AcDbLine
 10
5481.281046252199
 20
868.1474955901071
 30
0.0
 11
7254.065842719383
 21
868.1474955901071
 31
0.0
  0
LINE
  5
1AB
330
1E
100
AcDbEntity
  8
MOJI
100
AcDbLine
 10
5481.281046252199
 20
1268.147828713774
 30
0.0
 11
7254.065842719383
 21
1268.147828713774
 31
0.0
  0
LINE
  5
1AC
330
1E
100
AcDbEntity
  8
MOJI
100
AcDbLine
 10
6107.824731473776
 20
568.147839144663
 30
0.0
 11
6107.824731473776
 21
1268.147828713774
 31
0.0
  0
LINE
  5
1AD
330
1E
100
AcDbEntity
  8
MOJI
100
AcDbLine
 10
5647.947710435421
 20
568.147839144663
 30
0.0
 11
5647.947710435421
 21
1268.147828713774
 31
0.0
  0
LINE
  5
1AE
330
1E
100
AcDbEntity
  8
MOJI
100
AcDbLine
 10
6467.226299802546
 20
1268.147828713774
 30
0.0
 11
6467.226299802546
 21
568.147839144663
 31
0.0
  0
LINE
  5
1AF
330
1E
100
AcDbEntity
  8
MOJI
100
AcDbLine
 10
7254.065842719383
 20
568.147839144663
 30
0.0
 11
7254.065842719383
 21
1268.147828713774
 31
0.0
  0
LINE
  5
1B0
330
1E
100
AcDbEntity
  8
MOJI
100
AcDbLine
 10
5481.281046252199
 20
568.147839144663
 30
0.0
 11
5481.281046252199
 21
1268.147828713774
 31
0.0
  0
TEXT
  5
1B1
330
1E
100
AcDbEntity
  8
MOJI
100
AcDbText
 10
6651.921457553608
 20
991.6887535147735
 30
0.0
 40
60.0
  1
静電粉体塗装
 41
0.8
  7
EXT08
100
AcDbText
  0
TEXT
  5
1B2
330
1E
100
AcDbEntity
  8
MOJI
100
AcDbText
 10
6178.178126044129
 20
1089.00625694744
 30
0.0
 40
60.0
  1
STK400
 41
0.8
  7
EXT08
100
AcDbText
  0
TEXT
  5
1B3
330
1E
100
AcDbEntity
  8
MOJI
100
AcDbText
 10
6170.266783709507
 20
989.0059193533293
 30
0.0
 40
60.0
  1
アルミ合金
 41
0.8
  7
EXT08
100
AcDbText
  0
TEXT
  5
1B4
330
1E
100
AcDbEntity
  8
MOJI
100
AcDbText
 10
6249.021268955665
 20
789.0059223336621
 30
0.0
 40
60.0
  1
AL
 41
0.8
  7
EXT08
100
AcDbText
  0
TEXT
  5
1B5
330
1E
100
AcDbEntity
  8
MOJI
100
AcDbText
 10
6229.393146343365
 20
689.0062629078848
 30
0.0
 40
60.0
  1
SUS
 41
0.8
  7
EXT08
100
AcDbText
  0
TEXT
  5
1B6
330
1E
100
AcDbEntity
  8
MOJI
100
AcDbText
 10
6740.244897227319
 20
784.732105122996
 30
0.0
 40
60.0
  1
%%c6
 41
0.8
  7
EXT08
100
AcDbText
  0
TEXT
  5
1B7
330
1E
100
AcDbEntity
  8
MOJI
100
AcDbText
 10
5682.169443866422
 20
1084.680898938996
 30
0.0
 40
60.0
  1
支　　　　　柱
 41
0.8
  7
EXT08
100
AcDbText
  0
TEXT
  5
1B8
330
1E
100
AcDbEntity
  8
MOJI
100
AcDbText
 10
5682.169443866422
 20
984.680561344885
 30
0.0
 40
60.0
  1
擬　　宝　　珠
 41
0.8
  7
EXT08
100
AcDbText
  0
TEXT
  5
1B9
330
1E
100
AcDbEntity
  8
MOJI
100
AcDbText
 10
5703.597453753022
 20
884.6805628349956
 30
0.0
 40
60.0
  1
チェーン金具
 41
0.8
  7
EXT08
100
AcDbText
  0
TEXT
  5
1BA
330
1E
100
AcDbEntity
  8
MOJI
100
AcDbText
 10
5682.169443866422
 20
784.6805643251068
 30
0.0
 40
60.0
  1
チ　ェ　ー　ン　
 41
0.8
  7
EXT08
100
AcDbText
  0
TEXT
  5
1BB
330
1E
100
AcDbEntity
  8
MOJI
100
AcDbText
 10
5682.169443866422
 20
584.6805673053291
 30
0.0
 40
60.0
  1
取 付 ボ ル ト
 41
0.8
  7
EXT08
100
AcDbText
  0
ARC
  5
1BC
330
1E
100
AcDbEntity
  8
SJC
100
AcDbCircle
 10
976.6598365199001
 20
2280.628736205633
 30
0.0
 40
19.999999702
100
AcDbArc
 50
163.4011376891
 51
179.9994529139
  0
ARC
  5
1BD
330
1E
100
AcDbEntity
  8
SJC
100
AcDbCircle
 10
1045.6597744575
 20
2260.061574619533
 30
0.0
 40
91.99999672169999
100
AcDbArc
 50
16.598192998
 51
163.401807002
  0
LINE
  5
1BE
330
1E
100
AcDbEntity
  8
SJC
100
AcDbLine
 10
956.6598368188998
 20
2262.062032920133
 30
0.0
 11
1134.659712096199
 21
2262.062032920133
 31
0.0
  0
LINE
  5
1BF
330
1E
100
AcDbEntity
  8
SJC
100
AcDbLine
 10
956.6598368188998
 20
2242.062033218132
 30
0.0
 11
1134.659712096199
 21
2242.062033218132
 31
0.0
  0
LINE
  5
1C0
330
1E
100
AcDbEntity
  8
SJC
100
AcDbLine
 10
956.6598368188998
 20
2248.062094163833
 30
0.0
 11
1134.659712096199
 21
2248.062094163833
 31
0.0
  0
LINE
  5
1C1
330
1E
100
AcDbEntity
  8
SJC
100
AcDbLine
 10
956.6598368188998
 20
2252.062033069133
 30
0.0
 11
1134.659712096199
 21
2252.062033069133
 31
0.0
  0
LINE
  5
1C2
330
1E
100
AcDbEntity
  8
SJC
100
AcDbLine
 10
956.6598368188998
 20
2258.062094014833
 30
0.0
 11
1134.659712096199
 21
2258.062094014833
 31
0.0
  0
LINE
  5
1C3
330
1E
100
AcDbEntity
  8
SJC
100
AcDbLine
 10
956.6598368188998
 20
2242.062033218132
 30
0.0
 11
956.6598368188998
 21
2248.062094163833
 31
0.0
  0
LINE
  5
1C4
330
1E
100
AcDbEntity
  8
SJC
100
AcDbLine
 10
956.6598368188998
 20
2252.062033069133
 30
0.0
 11
956.6598368188998
 21
2258.062094014833
 31
0.0
  0
LINE
  5
1C5
330
1E
100
AcDbEntity
  8
SJC
100
AcDbLine
 10
956.6598368188998
 20
2262.062032920133
 30
0.0
 11
958.6599588593999
 21
2260.061910879533
 31
0.0
  0
LINE
  5
1C6
330
1E
100
AcDbEntity
  8
SJC
100
AcDbLine
 10
956.6598368188998
 20
2262.062032920133
 30
0.0
 11
956.6598368188998
 21
2280.628927174633
 31
0.0
  0
LINE
  5
1C7
330
1E
100
AcDbEntity
  8
SJC
100
AcDbLine
 10
956.6598368188998
 20
2258.061788839033
 30
0.0
 11
958.6599588593999
 21
2260.061910879533
 31
0.0
  0
LINE
  5
1C8
330
1E
100
AcDbEntity
  8
SJC
100
AcDbLine
 10
956.6598368188998
 20
2252.062033069133
 30
0.0
 11
958.6599588593999
 21
2250.061911028633
 31
0.0
  0
LINE
  5
1C9
330
1E
100
AcDbEntity
  8
SJC
100
AcDbLine
 10
956.6598368188998
 20
2248.061788988033
 30
0.0
 11
958.6599588593999
 21
2250.061911028633
 31
0.0
  0
LINE
  5
1CA
330
1E
100
AcDbEntity
  8
SJC
100
AcDbLine
 10
958.6599588593999
 20
2260.061910879533
 30
0.0
 11
1132.6595900557
 21
2260.061910879533
 31
0.0
  0
LINE
  5
1CB
330
1E
100
AcDbEntity
  8
SJC
100
AcDbLine
 10
958.6599588593999
 20
2250.061911028633
 30
0.0
 11
1132.6595900557
 21
2250.061911028633
 31
0.0
  0
LINE
  5
1CC
330
1E
100
AcDbEntity
  8
SJC
100
AcDbLine
 10
953.6596537580999
 20
2238.062094312832
 30
0.0
 11
1137.6598951569
 21
2238.062094312832
 31
0.0
  0
LINE
  5
1CD
330
1E
100
AcDbEntity
  8
SJC
100
AcDbLine
 10
953.6596537580999
 20
2238.062094312832
 30
0.0
 11
953.6596537580999
 21
2212.062033665133
 31
0.0
  0
LINE
  5
1CE
330
1E
100
AcDbEntity
  8
SJC
100
AcDbLine
 10
956.6598368188998
 20
2242.062033218132
 30
0.0
 11
953.6596537580999
 21
2238.062094312832
 31
0.0
  0
ARC
  5
1CF
330
1E
100
AcDbEntity
  8
SJC
100
AcDbCircle
 10
1114.659712395099
 20
2280.628736205633
 30
0.0
 40
19.999999702
100
AcDbArc
 50
0.0005470861
 51
16.5988623109
  0
LINE
  5
1D0
330
1E
100
AcDbEntity
  8
SJC
100
AcDbLine
 10
1134.659712096199
 20
2262.062032920133
 30
0.0
 11
1134.659712096199
 21
2280.628927174633
 31
0.0
  0
LINE
  5
1D1
330
1E
100
AcDbEntity
  8
SJC
100
AcDbLine
 10
1134.659712096199
 20
2252.062033069133
 30
0.0
 11
1134.659712096199
 21
2258.062094014833
 31
0.0
  0
LINE
  5
1D2
330
1E
100
AcDbEntity
  8
SJC
100
AcDbLine
 10
1134.659712096199
 20
2242.062033218132
 30
0.0
 11
1134.659712096199
 21
2248.062094163833
 31
0.0
  0
LINE
  5
1D3
330
1E
100
AcDbEntity
  8
SJC
100
AcDbLine
 10
1134.659712096199
 20
2262.062032920133
 30
0.0
 11
1132.6595900557
 21
2260.061910879533
 31
0.0
  0
LINE
  5
1D4
330
1E
100
AcDbEntity
  8
SJC
100
AcDbLine
 10
1134.659712096199
 20
2258.061788839033
 30
0.0
 11
1132.6595900557
 21
2260.061910879533
 31
0.0
  0
LINE
  5
1D5
330
1E
100
AcDbEntity
  8
SJC
100
AcDbLine
 10
1134.659712096199
 20
2252.062033069133
 30
0.0
 11
1132.6595900557
 21
2250.061911028633
 31
0.0
  0
LINE
  5
1D6
330
1E
100
AcDbEntity
  8
SJC
100
AcDbLine
 10
1134.659712096199
 20
2248.061788988033
 30
0.0
 11
1132.6595900557
 21
2250.061911028633
 31
0.0
  0
LINE
  5
1D7
330
1E
100
AcDbEntity
  8
SJC
100
AcDbLine
 10
1137.6598951569
 20
2238.062094312832
 30
0.0
 11
1137.6598951569
 21
2212.062033665133
 31
0.0
  0
LINE
  5
1D8
330
1E
100
AcDbEntity
  8
SJC
100
AcDbLine
 10
1134.659712096199
 20
2242.062033218132
 30
0.0
 11
1137.6598951569
 21
2238.062094312832
 31
0.0
  0
LINE
  5
1D9
330
1E
100
AcDbEntity
  8
SJC
100
AcDbLine
 10
953.6596537580999
 20
2212.062033665133
 30
0.0
 11
1137.6598951569
 21
2212.062033665133
 31
0.0
  0
ARC
  5
1DA
330
1E
100
AcDbEntity
  8
SJC
100
AcDbCircle
 10
2586.6598125291
 20
2280.128736205632
 30
0.0
 40
19.999999702
100
AcDbArc
 50
163.4011376891
 51
179.9994529139
  0
ARC
  5
1DB
330
1E
100
AcDbEntity
  8
SJC
100
AcDbCircle
 10
2655.6597504666
 20
2259.561574619533
 30
0.0
 40
91.99999672169999
100
AcDbArc
 50
16.598192998
 51
163.401807002
  0
LINE
  5
1DC
330
1E
100
AcDbEntity
  8
SJC
100
AcDbLine
 10
2566.659812828
 20
2261.562032920132
 30
0.0
 11
2744.6596881053
 21
2261.562032920132
 31
0.0
  0
LINE
  5
1DD
330
1E
100
AcDbEntity
  8
SJC
100
AcDbLine
 10
2566.659812828
 20
2241.562033218133
 30
0.0
 11
2744.6596881053
 21
2241.562033218133
 31
0.0
  0
LINE
  5
1DE
330
1E
100
AcDbEntity
  8
SJC
100
AcDbLine
 10
2566.659812828
 20
2247.562094163833
 30
0.0
 11
2744.6596881053
 21
2247.562094163833
 31
0.0
  0
LINE
  5
1DF
330
1E
100
AcDbEntity
  8
SJC
100
AcDbLine
 10
2566.659812828
 20
2251.562033069133
 30
0.0
 11
2744.6596881053
 21
2251.562033069133
 31
0.0
  0
LINE
  5
1E0
330
1E
100
AcDbEntity
  8
SJC
100
AcDbLine
 10
2566.659812828
 20
2257.562094014833
 30
0.0
 11
2744.6596881053
 21
2257.562094014833
 31
0.0
  0
LINE
  5
1E1
330
1E
100
AcDbEntity
  8
SJC
100
AcDbLine
 10
2566.659812828
 20
2241.562033218133
 30
0.0
 11
2566.659812828
 21
2247.562094163833
 31
0.0
  0
LINE
  5
1E2
330
1E
100
AcDbEntity
  8
SJC
100
AcDbLine
 10
2566.659812828
 20
2251.562033069133
 30
0.0
 11
2566.659812828
 21
2257.562094014833
 31
0.0
  0
LINE
  5
1E3
330
1E
100
AcDbEntity
  8
SJC
100
AcDbLine
 10
2566.659812828
 20
2261.562032920132
 30
0.0
 11
2568.6599348685
 21
2259.561910879533
 31
0.0
  0
LINE
  5
1E4
330
1E
100
AcDbEntity
  8
SJC
100
AcDbLine
 10
2566.659812828
 20
2261.562032920132
 30
0.0
 11
2566.659812828
 21
2280.128927174633
 31
0.0
  0
LINE
  5
1E5
330
1E
100
AcDbEntity
  8
SJC
100
AcDbLine
 10
2566.659812828
 20
2257.561788839033
 30
0.0
 11
2568.6599348685
 21
2259.561910879533
 31
0.0
  0
LINE
  5
1E6
330
1E
100
AcDbEntity
  8
SJC
100
AcDbLine
 10
2566.659812828
 20
2251.562033069133
 30
0.0
 11
2568.6599348685
 21
2249.561911028632
 31
0.0
  0
LINE
  5
1E7
330
1E
100
AcDbEntity
  8
SJC
100
AcDbLine
 10
2566.659812828
 20
2247.561788988033
 30
0.0
 11
2568.6599348685
 21
2249.561911028632
 31
0.0
  0
LINE
  5
1E8
330
1E
100
AcDbEntity
  8
SJC
100
AcDbLine
 10
2568.6599348685
 20
2259.561910879533
 30
0.0
 11
2742.6595660648
 21
2259.561910879533
 31
0.0
  0
LINE
  5
1E9
330
1E
100
AcDbEntity
  8
SJC
100
AcDbLine
 10
2568.6599348685
 20
2249.561911028632
 30
0.0
 11
2742.6595660648
 21
2249.561911028632
 31
0.0
  0
LINE
  5
1EA
330
1E
100
AcDbEntity
  8
SJC
100
AcDbLine
 10
2563.6596297672
 20
2237.562094312833
 30
0.0
 11
2747.6598711661
 21
2237.562094312833
 31
0.0
  0
LINE
  5
1EB
330
1E
100
AcDbEntity
  8
SJC
100
AcDbLine
 10
2563.6596297672
 20
2237.562094312833
 30
0.0
 11
2563.6596297672
 21
2211.562033665133
 31
0.0
  0
LINE
  5
1EC
330
1E
100
AcDbEntity
  8
SJC
100
AcDbLine
 10
2566.659812828
 20
2241.562033218133
 30
0.0
 11
2563.6596297672
 21
2237.562094312833
 31
0.0
  0
ARC
  5
1ED
330
1E
100
AcDbEntity
  8
SJC
100
AcDbCircle
 10
2724.6596884042
 20
2280.128736205632
 30
0.0
 40
19.999999702
100
AcDbArc
 50
0.0005470861
 51
16.5988623109
  0
LINE
  5
1EE
330
1E
100
AcDbEntity
  8
SJC
100
AcDbLine
 10
2744.6596881053
 20
2261.562032920132
 30
0.0
 11
2744.6596881053
 21
2280.128927174633
 31
0.0
  0
LINE
  5
1EF
330
1E
100
AcDbEntity
  8
SJC
100
AcDbLine
 10
2744.6596881053
 20
2251.562033069133
 30
0.0
 11
2744.6596881053
 21
2257.562094014833
 31
0.0
  0
LINE
  5
1F0
330
1E
100
AcDbEntity
  8
SJC
100
AcDbLine
 10
2744.6596881053
 20
2241.562033218133
 30
0.0
 11
2744.6596881053
 21
2247.562094163833
 31
0.0
  0
LINE
  5
1F1
330
1E
100
AcDbEntity
  8
SJC
100
AcDbLine
 10
2744.6596881053
 20
2261.562032920132
 30
0.0
 11
2742.6595660648
 21
2259.561910879533
 31
0.0
  0
LINE
  5
1F2
330
1E
100
AcDbEntity
  8
SJC
100
AcDbLine
 10
2744.6596881053
 20
2257.561788839033
 30
0.0
 11
2742.6595660648
 21
2259.561910879533
 31
0.0
  0
LINE
  5
1F3
330
1E
100
AcDbEntity
  8
SJC
100
AcDbLine
 10
2744.6596881053
 20
2251.562033069133
 30
0.0
 11
2742.6595660648
 21
2249.561911028632
 31
0.0
  0
LINE
  5
1F4
330
1E
100
AcDbEntity
  8
SJC
100
AcDbLine
 10
2744.6596881053
 20
2247.561788988033
 30
0.0
 11
2742.6595660648
 21
2249.561911028632
 31
0.0
  0
LINE
  5
1F5
330
1E
100
AcDbEntity
  8
SJC
100
AcDbLine
 10
2747.6598711661
 20
2237.562094312833
 30
0.0
 11
2747.6598711661
 21
2211.562033665133
 31
0.0
  0
LINE
  5
1F6
330
1E
100
AcDbEntity
  8
SJC
100
AcDbLine
 10
2744.6596881053
 20
2241.562033218133
 30
0.0
 11
2747.6598711661
 21
2237.562094312833
 31
0.0
  0
LINE
  5
1F7
330
1E
100
AcDbEntity
  8
SJC
100
AcDbLine
 10
2563.6596297672
 20
2211.562033665133
 30
0.0
 11
2747.6598711661
 21
2211.562033665133
 31
0.0
  0
ARC
  5
1F8
330
1E
100
AcDbEntity
  8
SJC
100
AcDbCircle
 10
1099.5548839601
 20
4313.315542385632
 30
0.0
 40
44.70717840329999
100
AcDbArc
 50
137.8531446413
 51
222.1468553587
  0
ARC
  5
1F9
330
1E
100
AcDbEntity
  8
SJC
100
AcDbCircle
 10
1055.931074743
 20
4313.315542385632
 30
0.0
 40
31.7767353091
100
AcDbArc
 50
289.2503683672
 51
70.7496316328
  0
LINE
  5
1FA
330
1E
100
AcDbEntity
  8
SJC
100
AcDbLine
 10
1066.4077599882
 20
3013.315561757133
 30
0.0
 11
1066.4077599882
 21
4283.315542832633
 31
0.0
  0
LINE
  5
1FB
330
1E
100
AcDbEntity
  8
CENTER
100
AcDbLine
 10
1021.8577423415
 20
2927.109508354233
 30
0.0
 11
1021.8577423415
 21
4498.183519177447
 31
0.0
  0
LINE
  5
1FF
330
1E
100
AcDbEntity
  8
SJC
100
AcDbLine
 10
977.3077246948
 20
3413.315555796733
 30
0.0
 11
695.0991717710999
 21
3413.315555796733
 31
0.0
  0
ARC
  5
200
330
1E
100
AcDbEntity
  8
SJC
100
AcDbCircle
 10
3099.554548982
 20
4313.315542385632
 30
0.0
 40
44.70717840329999
100
AcDbArc
 50
137.8531446413
 51
222.1468553587
  0
ARC
  5
201
330
1E
100
AcDbEntity
  8
SJC
100
AcDbCircle
 10
3055.9307397649
 20
4313.315542385632
 30
0.0
 40
31.7767353091
100
AcDbArc
 50
289.2503683672
 51
70.7496316328
  0
LINE
  5
202
330
1E
100
AcDbEntity
  8
CENTER
100
AcDbLine
 10
3021.8572547755
 20
2927.109508354233
 30
0.0
 11
3021.8572547755
 21
4512.226372715137
 31
0.0
  0
ARC
  5
206
330
1E
100
AcDbEntity
  8
SJC
100
AcDbCircle
 10
5099.5545191797
 20
4313.315542385632
 30
0.0
 40
44.70717840329999
100
AcDbArc
 50
137.8531446413
 51
222.1468553587
  0
ARC
  5
207
330
1E
100
AcDbEntity
  8
SJC
100
AcDbCircle
 10
5055.9307099625
 20
4313.315542385632
 30
0.0
 40
31.7767353091
100
AcDbArc
 50
289.2503683672
 51
70.7496316328
  0
LINE
  5
208
330
1E
100
AcDbEntity
  8
SJC
100
AcDbLine
 10
5066.4073952078
 20
3013.315561757133
 30
0.0
 11
5066.4073952078
 21
4283.315542832633
 31
0.0
  0
LINE
  5
209
330
1E
100
AcDbEntity
  8
CENTER
100
AcDbLine
 10
5021.857224973199
 20
2927.109508354233
 30
0.0
 11
5021.857224973199
 21
4517.019775406505
 31
0.0
  0
LINE
  5
20D
330
1E
100
AcDbEntity
  8
SJC
100
AcDbLine
 10
5066.4073952078
 20
3413.315555796733
 30
0.0
 11
5503.7145175976
 21
3413.315555796733
 31
0.0
  0
LINE
  5
20E
330
1E
100
AcDbEntity
  8
SJC
100
AcDbLine
 10
1066.4077599882
 20
3413.315555796733
 30
0.0
 11
2977.307389716699
 21
3413.315555796733
 31
0.0
  0
LINE
  5
20F
330
1E
100
AcDbEntity
  8
SJC
100
AcDbLine
 10
3066.4074250101
 20
3413.315555796733
 30
0.0
 11
4977.3070547386
 21
3413.315555796733
 31
0.0
  0
ARC
  5
210
330
1E
100
AcDbEntity
  8
SJC
100
AcDbCircle
 10
2944.159960569001
 20
4313.315542385632
 30
0.0
 40
44.70717840329999
100
AcDbArc
 50
317.8531446413
 51
42.1468553587
  0
ARC
  5
211
330
1E
100
AcDbEntity
  8
SJC
100
AcDbCircle
 10
2987.7837697861
 20
4313.315542385632
 30
0.0
 40
31.7767353091
100
AcDbArc
 50
109.2503683672
 51
250.7496316328
  0
ARC
  5
212
330
1E
100
AcDbEntity
  8
SJC
100
AcDbCircle
 10
4944.159930766701
 20
4313.315542385632
 30
0.0
 40
44.70717840329999
100
AcDbArc
 50
317.8531446413
 51
42.1468553587
  0
ARC
  5
213
330
1E
100
AcDbEntity
  8
SJC
100
AcDbCircle
 10
4987.7837399838
 20
4313.315542385632
 30
0.0
 40
31.7767353091
100
AcDbArc
 50
109.2503683672
 51
250.7496316328
  0
LINE
  5
214
330
1E
100
AcDbEntity
  8
SJC
100
AcDbLine
 10
4977.3070547386
 20
3013.315561757133
 30
0.0
 11
4977.3070547386
 21
4283.315542832633
 31
0.0
  0
LINE
  5
217
330
1E
100
AcDbEntity
  8
SJC
100
AcDbLine
 10
5971.857208581899
 20
3013.315561757132
 30
0.0
 11
6271.857208581899
 21
3013.315561757133
 31
0.0
1001
ACAD
1000
ASC_BOUNDS
1002
{
1070
    19
1005
AE9
1005
AE9
1002
}
  0
LINE
  5
218
330
1E
100
AcDbEntity
  8
SJC
100
AcDbLine
 10
1187.8336920167
 20
4295.463369800132
 30
0.0
 11
1154.1442699113
 21
4300.048330669233
 31
0.0
  0
ARC
  5
219
330
1E
100
AcDbEntity
  8
SJC
100
AcDbCircle
 10
1154.5153509613
 20
4303.025292090133
 30
0.0
 40
3.000000074499999
100
AcDbArc
 50
81.60596855199999
 51
262.8946762747
  0
LINE
  5
21A
330
1E
100
AcDbEntity
  8
SJC
100
AcDbLine
 10
1188.6427130007
 20
4301.408193930232
 30
0.0
 11
1154.953290895299
 21
4305.993154799433
 31
0.0
  0
ARC
  5
21B
330
1E
100
AcDbEntity
  8
SJC
100
AcDbCircle
 10
1188.2716319507
 20
4298.431232509432
 30
0.0
 40
3.000000074499999
100
AcDbArc
 50
261.6059685522
 51
82.8946762744
  0
ARC
  5
21C
330
1E
100
AcDbEntity
  8
SJC
100
AcDbCircle
 10
1188.2381722216
 20
4298.436009958432
 30
0.0
 40
9.999999851
100
AcDbArc
 50
189.7065411486999
 51
262.2506962022
  0
ARC
  5
21D
330
1E
100
AcDbEntity
  8
SJC
100
AcDbCircle
 10
1188.237435108
 20
4298.436358666732
 30
0.0
 40
4.0
100
AcDbArc
 50
220.8541609809
 51
262.2633791562
  0
LINE
  5
21E
330
1E
100
AcDbEntity
  8
SJC
100
AcDbLine
 10
1207.516156323
 20
4291.775625714432
 30
0.0
 11
1187.6989569113
 21
4294.472769228932
 31
0.0
  0
LINE
  5
21F
330
1E
100
AcDbEntity
  8
SJC
100
AcDbLine
 10
1208.5948001058
 20
4299.702261338532
 30
0.0
 11
1188.777600694
 21
4302.399404853033
 31
0.0
  0
ARC
  5
220
330
1E
100
AcDbEntity
  8
SJC
100
AcDbCircle
 10
1188.237471338499
 20
4298.436040085633
 30
0.0
 40
4.0
100
AcDbArc
 50
82.23951010649999
 51
123.6482457442
  0
ARC
  5
221
330
1E
100
AcDbEntity
  8
SJC
100
AcDbCircle
 10
1208.055803169
 20
4295.738742409333
 30
0.0
 40
4.0
100
AcDbArc
 50
40.85282573219999
 51
82.2558804281
  0
ARC
  5
222
330
1E
100
AcDbEntity
  8
SJC
100
AcDbCircle
 10
1208.0555847955
 20
4295.739020608932
 30
0.0
 40
9.999999851
100
AcDbArc
 50
9.706541148699999
 51
82.25069620220001
  0
LINE
  5
223
330
1E
100
AcDbEntity
  8
SJC
100
AcDbLine
 10
1209.4039736777
 20
4305.647695820232
 30
0.0
 11
1189.586774266
 21
4308.344228983133
 31
0.0
  0
ARC
  5
224
330
1E
100
AcDbEntity
  8
SJC
100
AcDbCircle
 10
1188.2381011558
 20
4298.435592454232
 30
0.0
 40
9.999999851
100
AcDbArc
 50
82.24905268349999
 51
154.7909464765
  0
ARC
  5
225
330
1E
100
AcDbEntity
  8
SJC
100
AcDbCircle
 10
1210.0047795013
 20
4295.473898408732
 30
0.0
 40
3.000000074499999
100
AcDbArc
 50
81.6222415268
 51
262.8755155298
  0
ARC
  5
226
330
1E
100
AcDbEntity
  8
SJC
100
AcDbCircle
 10
1133.9405880451
 20
4305.649116643933
 30
0.0
 40
9.999999851
100
AcDbArc
 50
189.7099264137
 51
262.2495076787
  0
LINE
  5
227
330
1E
100
AcDbEntity
  8
SJC
100
AcDbLine
 10
1152.4093456207
 20
4293.042715539332
 30
0.0
 11
1132.5919936211
 21
4295.740469405332
 31
0.0
  0
LINE
  5
228
330
1E
100
AcDbEntity
  8
SJC
100
AcDbLine
 10
1153.2182140169
 20
4298.988760372533
 30
0.0
 11
1133.4010146051
 21
4301.685293535533
 31
0.0
  0
ARC
  5
229
330
1E
100
AcDbEntity
  8
SJC
100
AcDbCircle
 10
1133.9406096004
 20
4305.648731089032
 30
0.0
 40
4.0
100
AcDbArc
 50
220.8397276573
 51
262.2472349334
  0
ARC
  5
22A
330
1E
100
AcDbEntity
  8
SJC
100
AcDbCircle
 10
1153.7576388527
 20
4302.952176527633
 30
0.0
 40
9.999999851
100
AcDbArc
 50
9.706417565599998
 51
82.24979285100001
  0
ARC
  5
22B
330
1E
100
AcDbEntity
  8
SJC
100
AcDbCircle
 10
1153.7590898133
 20
4302.951161919032
 30
0.0
 40
4.0
100
AcDbArc
 50
40.866370019
 51
82.2670283911
  0
ARC
  5
22C
330
1E
100
AcDbEntity
  8
SJC
100
AcDbCircle
 10
1153.7583433724
 20
4302.952125139933
 30
0.0
 40
4.0
100
AcDbArc
 50
262.2395101065
 51
303.6482457442
  0
ARC
  5
22D
330
1E
100
AcDbEntity
  8
SJC
100
AcDbCircle
 10
1153.7573353504
 20
4302.951445059732
 30
0.0
 40
9.999999851
100
AcDbArc
 50
262.2530042499
 51
334.7980877336
  0
ARC
  5
22E
330
1E
100
AcDbEntity
  8
SJC
100
AcDbCircle
 10
1133.9403022496
 20
4305.648707595133
 30
0.0
 40
9.999999851
100
AcDbArc
 50
82.2498818799
 51
154.7908228795
  0
LINE
  5
22F
330
1E
100
AcDbEntity
  8
SJC
100
AcDbLine
 10
1099.4648578843
 20
4313.545644921233
 30
0.0
 11
1133.1541274018
 21
4308.960684052133
 31
0.0
  0
LINE
  5
230
330
1E
100
AcDbEntity
  8
SJC
100
AcDbLine
 10
1098.6555317245
 20
4307.599600088032
 30
0.0
 11
1132.3449538299
 21
4303.015249570332
 31
0.0
  0
ARC
  5
231
330
1E
100
AcDbEntity
  8
SJC
100
AcDbCircle
 10
1132.7495406158
 20
4305.987966811232
 30
0.0
 40
3.0001230411
100
AcDbArc
 50
262.249664578
 51
82.249664578
  0
LINE
  5
232
330
1E
100
AcDbEntity
  8
SJC
100
AcDbLine
 10
1155.1061839595
 20
4312.860830478332
 30
0.0
 11
1135.2888319598
 21
4315.557363641333
 31
0.0
  0
LINE
  5
233
330
1E
100
AcDbEntity
  8
SJC
100
AcDbLine
 10
1154.2973155633
 20
4306.914785645033
 30
0.0
 11
1134.4798109758
 21
4309.612539511133
 31
0.0
  0
ARC
  5
234
330
1E
100
AcDbEntity
  8
SJC
100
AcDbCircle
 10
1098.2690197225
 20
4310.503288099233
 30
0.0
 40
9.999999851
100
AcDbArc
 50
262.2514431789
 51
334.7944553205
  0
ARC
  5
235
330
1E
100
AcDbEntity
  8
SJC
100
AcDbCircle
 10
1098.2697837032
 20
4310.503411817633
 30
0.0
 40
4.0
100
AcDbArc
 50
262.2413411177
 51
303.6477995767
  0
ARC
  5
236
330
1E
100
AcDbEntity
  8
SJC
100
AcDbCircle
 10
1098.2690027292
 20
4310.503814673133
 30
0.0
 40
4.0
100
AcDbArc
 50
40.840173356
 51
82.24973490169999
  0
ARC
  5
237
330
1E
100
AcDbEntity
  8
SJC
100
AcDbCircle
 10
1098.2692058417
 20
4310.503445946333
 30
0.0
 40
9.999999851
100
AcDbArc
 50
9.706417565599998
 51
82.24979285100001
  0
ARC
  5
238
330
1E
100
AcDbEntity
  8
SJC
100
AcDbCircle
 10
1133.9398082784
 20
4305.649157484732
 30
0.0
 40
4.0
100
AcDbArc
 50
82.24134111759999
 51
123.6477995767
  0
ARC
  5
239
330
1E
100
AcDbEntity
  8
SJC
100
AcDbCircle
 10
1099.0601948044
 20
4310.572622504633
 30
0.0
 40
3.000435718
100
AcDbArc
 50
82.24900687979999
 51
262.2490068798
  0
LINE
  5
23A
330
1E
100
AcDbEntity
  8
SJC
100
AcDbLine
 10
1097.7297810058
 20
4306.540029791332
 30
0.0
 11
1087.2604208103
 21
4307.964590316933
 31
0.0
  0
LINE
  5
23B
330
1E
100
AcDbEntity
  8
SJC
100
AcDbLine
 10
1096.9207600218
 20
4300.594595309532
 30
0.0
 11
1086.1466818132
 21
4302.061270092432
 31
0.0
  0
LINE
  5
23C
330
1E
100
AcDbEntity
  8
SJC
100
AcDbLine
 10
1206.707135339
 20
4285.830191232732
 30
0.0
 11
1186.8897833394
 21
4288.527334747232
 31
0.0
  0
ARC
  5
23D
330
1E
100
AcDbEntity
  8
SJC
100
AcDbCircle
 10
1208.0562856786
 20
4295.738990481832
 30
0.0
 40
4.0
100
AcDbArc
 50
262.2395101065
 51
303.6482457442
  0
ARC
  5
23E
330
1E
100
AcDbEntity
  8
SJC
100
AcDbCircle
 10
1208.0553950397
 20
4295.738884022333
 30
0.0
 40
9.999999851
100
AcDbArc
 50
262.2514431789
 51
334.7944553205
  0
LINE
  5
23F
330
1E
100
AcDbEntity
  8
SJC
100
AcDbLine
 10
1245.1492124029
 20
4294.152334663333
 30
0.0
 11
1211.4597902975
 21
4298.737295532532
 31
0.0
  0
LINE
  5
240
330
1E
100
AcDbEntity
  8
SJC
100
AcDbLine
 10
1244.3401914188
 20
4288.206900181632
 30
0.0
 11
1210.6507693134
 21
4292.792471402433
 31
0.0
  0
LINE
  5
241
330
1E
100
AcDbEntity
  8
SJC
100
AcDbLine
 10
2855.881915451901
 20
4295.463369800132
 30
0.0
 11
2889.5714901452
 21
4300.048330669233
 31
0.0
  0
ARC
  5
242
330
1E
100
AcDbEntity
  8
SJC
100
AcDbCircle
 10
2889.1335502111
 20
4303.016193378533
 30
0.0
 40
3.000000074499999
100
AcDbArc
 50
278.3940314481
 51
97.10532372520001
  0
LINE
  5
243
330
1E
100
AcDbEntity
  8
SJC
100
AcDbLine
 10
2855.0731996436
 20
4301.408193930232
 30
0.0
 11
2888.7624691611
 21
4305.993154799433
 31
0.0
  0
ARC
  5
244
330
1E
100
AcDbEntity
  8
SJC
100
AcDbCircle
 10
2855.4423620386
 20
4298.430993975033
 30
0.0
 40
3.000000074499999
100
AcDbArc
 50
97.0683980125
 51
278.4251815611
  0
ARC
  5
245
330
1E
100
AcDbEntity
  8
SJC
100
AcDbCircle
 10
2855.4775841983
 20
4298.435988697932
 30
0.0
 40
9.999999851
100
AcDbArc
 50
277.750207149
 51
350.2935824344
  0
ARC
  5
246
330
1E
100
AcDbEntity
  8
SJC
100
AcDbCircle
 10
2855.4784978475
 20
4298.436382152333
 30
0.0
 40
4.0
100
AcDbArc
 50
277.7341215046
 51
319.1453942581
  0
LINE
  5
247
330
1E
100
AcDbEntity
  8
SJC
100
AcDbLine
 10
2836.1996037334
 20
4291.775625714432
 30
0.0
 11
2856.0168031452
 21
4294.472769228932
 31
0.0
  0
LINE
  5
248
330
1E
100
AcDbEntity
  8
SJC
100
AcDbLine
 10
2835.1208073628
 20
4299.702261338532
 30
0.0
 11
2854.9383119503
 21
4302.399404853033
 31
0.0
  0
ARC
  5
249
330
1E
100
AcDbEntity
  8
SJC
100
AcDbCircle
 10
2855.4783146476
 20
4298.436022826632
 30
0.0
 40
4.0
100
AcDbArc
 50
56.35220042330001
 51
97.75865888230001
  0
ARC
  5
24A
330
1E
100
AcDbEntity
  8
SJC
100
AcDbCircle
 10
2835.659804299501
 20
4295.738742409333
 30
0.0
 40
4.0
100
AcDbArc
 50
97.74411957190002
 51
139.1471742678
  0
ARC
  5
24B
330
1E
100
AcDbEntity
  8
SJC
100
AcDbCircle
 10
2835.6600190369
 20
4295.738999350932
 30
0.0
 40
9.999999851
100
AcDbArc
 50
97.74840045080001
 51
170.2933352831
  0
LINE
  5
24C
330
1E
100
AcDbEntity
  8
SJC
100
AcDbLine
 10
2834.3117863787
 20
4305.647695820232
 30
0.0
 11
2854.1289857905
 21
4308.344228983133
 31
0.0
  0
ARC
  5
24D
330
1E
100
AcDbEntity
  8
SJC
100
AcDbCircle
 10
2855.4775155007
 20
4298.435572937033
 30
0.0
 40
9.999999851
100
AcDbArc
 50
25.2091771205
 51
97.75011812009999
  0
ARC
  5
24E
330
1E
100
AcDbEntity
  8
SJC
100
AcDbCircle
 10
2833.710110686899
 20
4295.473770433033
 30
0.0
 40
3.000000074499999
100
AcDbArc
 50
277.1441643106
 51
98.3609663832
  0
ARC
  5
24F
330
1E
100
AcDbEntity
  8
SJC
100
AcDbCircle
 10
2909.7751756494
 20
4305.649137905532
 30
0.0
 40
9.999999851
100
AcDbArc
 50
277.7495889608
 51
350.2899499962
  0
LINE
  5
250
330
1E
100
AcDbEntity
  8
SJC
100
AcDbLine
 10
2891.3064144357
 20
4293.042715539332
 30
0.0
 11
2911.1236138474
 21
4295.740469405332
 31
0.0
  0
LINE
  5
251
330
1E
100
AcDbEntity
  8
SJC
100
AcDbLine
 10
2890.4973934517
 20
4298.988760372533
 30
0.0
 11
2910.3148980392
 21
4301.685293535533
 31
0.0
  0
ARC
  5
252
330
1E
100
AcDbEntity
  8
SJC
100
AcDbCircle
 10
2909.7753030439
 20
4305.648731089032
 30
0.0
 40
4.0
100
AcDbArc
 50
277.7527650666
 51
319.1602723427
  0
ARC
  5
253
330
1E
100
AcDbEntity
  8
SJC
100
AcDbCircle
 10
2889.9581212037
 20
4302.952176527633
 30
0.0
 40
9.999999851
100
AcDbArc
 50
97.750207149
 51
170.2935824344
  0
ARC
  5
254
330
1E
100
AcDbEntity
  8
SJC
100
AcDbCircle
 10
2889.9566905604
 20
4302.951185401833
 30
0.0
 40
4.0
100
AcDbArc
 50
97.73547102930001
 51
139.1340747698
  0
ARC
  5
255
330
1E
100
AcDbEntity
  8
SJC
100
AcDbCircle
 10
2889.9573907543
 20
4302.952142398932
 30
0.0
 40
4.0
100
AcDbArc
 50
236.3522004233
 51
277.7586588823
  0
ARC
  5
256
330
1E
100
AcDbEntity
  8
SJC
100
AcDbCircle
 10
2889.958424706
 20
4302.951445059732
 30
0.0
 40
9.999999851
100
AcDbArc
 50
205.2019122664
 51
277.7469957501
  0
ARC
  5
257
330
1E
100
AcDbEntity
  8
SJC
100
AcDbCircle
 10
2909.7756103947
 20
4305.648707595133
 30
0.0
 40
9.999999851
100
AcDbArc
 50
25.2091771205
 51
97.75011812009999
  0
LINE
  5
258
330
1E
100
AcDbEntity
  8
SJC
100
AcDbLine
 10
2944.2510547601
 20
4313.545644921233
 30
0.0
 11
2910.5614800668
 21
4308.960684052133
 31
0.0
  0
LINE
  5
259
330
1E
100
AcDbEntity
  8
SJC
100
AcDbLine
 10
2945.0603809199
 20
4307.599600088032
 30
0.0
 11
2911.3708062266
 21
4303.015249570332
 31
0.0
  0
ARC
  5
25A
330
1E
100
AcDbEntity
  8
SJC
100
AcDbCircle
 10
2910.966143146699
 20
4305.987966811232
 30
0.0
 40
3.000133330799999
100
AcDbArc
 50
97.75177915429999
 51
277.7517791543
  0
LINE
  5
25B
330
1E
100
AcDbEntity
  8
SJC
100
AcDbLine
 10
2888.609576097
 20
4312.860830478332
 30
0.0
 11
2908.4270806845
 21
4315.557363641333
 31
0.0
  0
LINE
  5
25C
330
1E
100
AcDbEntity
  8
SJC
100
AcDbLine
 10
2889.4182919053
 20
4306.914785645033
 30
0.0
 11
2909.2357964928
 21
4309.612539511133
 31
0.0
  0
ARC
  5
25D
330
1E
100
AcDbEntity
  8
SJC
100
AcDbCircle
 10
2945.446740333901
 20
4310.503288099233
 30
0.0
 40
9.999999851
100
AcDbArc
 50
205.2055446795
 51
277.7485568211
  0
ARC
  5
25E
330
1E
100
AcDbEntity
  8
SJC
100
AcDbCircle
 10
2945.4459763533
 20
4310.503411817633
 30
0.0
 40
4.0
100
AcDbArc
 50
236.3522004233
 51
277.7586588823
  0
ARC
  5
25F
330
1E
100
AcDbEntity
  8
SJC
100
AcDbCircle
 10
2945.446777675301
 20
4310.503838213332
 30
0.0
 40
4.0
100
AcDbArc
 50
97.75276506659999
 51
139.1602723427
  0
ARC
  5
260
330
1E
100
AcDbEntity
  8
SJC
100
AcDbCircle
 10
2945.446401626899
 20
4310.503445946333
 30
0.0
 40
9.999999851
100
AcDbArc
 50
97.750207149
 51
170.2935824344
  0
ARC
  5
261
330
1E
100
AcDbEntity
  8
SJC
100
AcDbCircle
 10
2909.7757991901
 20
4305.649157484732
 30
0.0
 40
4.0
100
AcDbArc
 50
56.35220042330001
 51
97.75865888230001
  0
LINE
  5
262
330
1E
100
AcDbEntity
  8
SJC
100
AcDbLine
 10
2944.0978565201
 20
4320.412099897032
 30
0.0
 11
2958.7002122596
 21
4322.399404554932
 31
0.0
  0
LINE
  5
263
330
1E
100
AcDbEntity
  8
SJC
100
AcDbLine
 10
2944.90718268
 20
4314.467275766933
 30
0.0
 11
2956.8300951
 21
4316.089590195832
 31
0.0
  0
ARC
  5
264
330
1E
100
AcDbEntity
  8
SJC
100
AcDbCircle
 10
2944.65571784
 20
4310.572622504633
 30
0.0
 40
3.000435718
100
AcDbArc
 50
277.7509931202
 51
97.75099312020003
  0
LINE
  5
265
330
1E
100
AcDbEntity
  8
SJC
100
AcDbLine
 10
2945.9859790506
 20
4306.540029791332
 30
0.0
 11
2956.4553392462
 21
4307.964590316933
 31
0.0
  0
LINE
  5
266
330
1E
100
AcDbEntity
  8
SJC
100
AcDbLine
 10
2946.795000034601
 20
4300.594595309532
 30
0.0
 11
2957.568925655399
 21
4302.061270092432
 31
0.0
  0
LINE
  5
267
330
1E
100
AcDbEntity
  8
SJC
100
AcDbLine
 10
2837.008624717501
 20
4285.830191232732
 30
0.0
 11
2856.826129305
 21
4288.527334747232
 31
0.0
  0
ARC
  5
268
330
1E
100
AcDbEntity
  8
SJC
100
AcDbCircle
 10
2835.6593477244
 20
4295.738973219332
 30
0.0
 40
4.0
100
AcDbArc
 50
236.3513080036999
 51
277.7623208435
  0
ARC
  5
269
330
1E
100
AcDbEntity
  8
SJC
100
AcDbCircle
 10
2835.6603650168
 20
4295.738884022333
 30
0.0
 40
9.999999851
100
AcDbArc
 50
205.2055446795
 51
277.7485568211
  0
LINE
  5
26A
330
1E
100
AcDbEntity
  8
SJC
100
AcDbLine
 10
2798.5665476536
 20
4294.152334663333
 30
0.0
 11
2832.2558171711
 21
4298.737295532532
 31
0.0
  0
LINE
  5
26B
330
1E
100
AcDbEntity
  8
SJC
100
AcDbLine
 10
2799.3755686376
 20
4288.206900181632
 30
0.0
 11
2833.0651433309
 21
4292.792471402433
 31
0.0
  0
ARC
  5
26C
330
1E
100
AcDbEntity
  8
CENTER
100
AcDbCircle
 10
2021.8560732005
 20
10775.51931510163
 30
0.0
 40
6530.7738284651
100
AcDbArc
 50
263.1488628346
 51
276.8444006199
  0
LINE
  5
26D
330
1E
100
AcDbEntity
  8
SJC
100
AcDbLine
 10
3187.8338148023
 20
4295.463369800132
 30
0.0
 11
3154.144240109001
 21
4300.048330669233
 31
0.0
  0
ARC
  5
26E
330
1E
100
AcDbEntity
  8
SJC
100
AcDbCircle
 10
3154.582180043
 20
4303.016193378533
 30
0.0
 40
3.000000074499999
100
AcDbArc
 50
82.89467627449999
 51
261.6059685522
  0
LINE
  5
26F
330
1E
100
AcDbEntity
  8
SJC
100
AcDbLine
 10
3188.642530610499
 20
4301.408193930232
 30
0.0
 11
3154.953261093
 21
4305.993154799433
 31
0.0
  0
ARC
  5
270
330
1E
100
AcDbEntity
  8
SJC
100
AcDbCircle
 10
3188.2733682155
 20
4298.430993975033
 30
0.0
 40
3.000000074499999
100
AcDbArc
 50
261.5748184387
 51
82.93160198770001
  0
ARC
  5
271
330
1E
100
AcDbEntity
  8
SJC
100
AcDbCircle
 10
3188.238146055901
 20
4298.435988697932
 30
0.0
 40
9.999999851
100
AcDbArc
 50
189.7064175656
 51
262.249792851
  0
ARC
  5
272
330
1E
100
AcDbEntity
  8
SJC
100
AcDbCircle
 10
3188.2372324067
 20
4298.436382152333
 30
0.0
 40
4.0
100
AcDbArc
 50
220.8546057419
 51
262.2658784954
  0
LINE
  5
273
330
1E
100
AcDbEntity
  8
SJC
100
AcDbLine
 10
3207.516126520701
 20
4291.775625714432
 30
0.0
 11
3187.698927109001
 21
4294.472769228932
 31
0.0
  0
LINE
  5
274
330
1E
100
AcDbEntity
  8
SJC
100
AcDbLine
 10
3208.594922891299
 20
4299.702261338532
 30
0.0
 11
3188.7774183038
 21
4302.399404853033
 31
0.0
  0
ARC
  5
275
330
1E
100
AcDbEntity
  8
SJC
100
AcDbCircle
 10
3188.2374156065
 20
4298.436022826632
 30
0.0
 40
4.0
100
AcDbArc
 50
82.2413411177
 51
123.6477995767
  0
ARC
  5
276
330
1E
100
AcDbEntity
  8
SJC
100
AcDbCircle
 10
3208.055925954601
 20
4295.738742409333
 30
0.0
 40
4.0
100
AcDbArc
 50
40.85282573219999
 51
82.2558804281
  0
ARC
  5
277
330
1E
100
AcDbEntity
  8
SJC
100
AcDbCircle
 10
3208.055711217299
 20
4295.738999350932
 30
0.0
 40
9.999999851
100
AcDbArc
 50
9.7066647169
 51
82.2515995492
  0
LINE
  5
278
330
1E
100
AcDbEntity
  8
SJC
100
AcDbLine
 10
3209.4039438754
 20
4305.647695820232
 30
0.0
 11
3189.5867444636
 21
4308.344228983133
 31
0.0
  0
ARC
  5
279
330
1E
100
AcDbEntity
  8
SJC
100
AcDbCircle
 10
3188.2382147535
 20
4298.435572937033
 30
0.0
 40
9.999999851
100
AcDbArc
 50
82.2498818799
 51
154.7908228795
  0
ARC
  5
27A
330
1E
100
AcDbEntity
  8
SJC
100
AcDbCircle
 10
3210.0056195672
 20
4295.473770433033
 30
0.0
 40
3.000000074499999
100
AcDbArc
 50
81.63903361619999
 51
262.8558356901
  0
ARC
  5
27B
330
1E
100
AcDbEntity
  8
SJC
100
AcDbCircle
 10
3133.9405546047
 20
4305.649137905532
 30
0.0
 40
9.999999851
100
AcDbArc
 50
189.7100500038
 51
262.2504110392
  0
LINE
  5
27C
330
1E
100
AcDbEntity
  8
SJC
100
AcDbLine
 10
3152.409315818401
 20
4293.042715539332
 30
0.0
 11
3132.5921164067
 21
4295.740469405332
 31
0.0
  0
LINE
  5
27D
330
1E
100
AcDbEntity
  8
SJC
100
AcDbLine
 10
3153.2183368024
 20
4298.988760372533
 30
0.0
 11
3133.4008322149
 21
4301.685293535533
 31
0.0
  0
ARC
  5
27E
330
1E
100
AcDbEntity
  8
SJC
100
AcDbCircle
 10
3133.9404272102
 20
4305.648731089032
 30
0.0
 40
4.0
100
AcDbArc
 50
220.8397276573
 51
262.2472349334
  0
ARC
  5
27F
330
1E
100
AcDbEntity
  8
SJC
100
AcDbCircle
 10
3153.7576090504
 20
4302.952176527633
 30
0.0
 40
9.999999851
100
AcDbArc
 50
9.706417565599998
 51
82.24979285100001
  0
ARC
  5
280
330
1E
100
AcDbEntity
  8
SJC
100
AcDbCircle
 10
3153.759039693799
 20
4302.951185401833
 30
0.0
 40
4.0
100
AcDbArc
 50
40.8659252302
 51
82.2645289707
  0
ARC
  5
281
330
1E
100
AcDbEntity
  8
SJC
100
AcDbCircle
 10
3153.758339499801
 20
4302.952142398932
 30
0.0
 40
4.0
100
AcDbArc
 50
262.2413411177
 51
303.6477995767
  0
ARC
  5
282
330
1E
100
AcDbEntity
  8
SJC
100
AcDbCircle
 10
3153.7573055481
 20
4302.951445059732
 30
0.0
 40
9.999999851
100
AcDbArc
 50
262.2530042499
 51
334.7980877336
  0
ARC
  5
283
330
1E
100
AcDbEntity
  8
SJC
100
AcDbCircle
 10
3133.940119859401
 20
4305.648707595133
 30
0.0
 40
9.999999851
100
AcDbArc
 50
82.2498818799
 51
154.7908228795
  0
LINE
  5
284
330
1E
100
AcDbEntity
  8
SJC
100
AcDbLine
 10
3099.464675494099
 20
4313.545644921233
 30
0.0
 11
3133.1542501874
 21
4308.960684052133
 31
0.0
  0
LINE
  5
285
330
1E
100
AcDbEntity
  8
SJC
100
AcDbLine
 10
3098.6553493342
 20
4307.599600088032
 30
0.0
 11
3132.3449240275
 21
4303.015249570332
 31
0.0
  0
ARC
  5
286
330
1E
100
AcDbEntity
  8
SJC
100
AcDbCircle
 10
3132.7495871075
 20
4305.987966811232
 30
0.0
 40
3.000133330799999
100
AcDbArc
 50
262.2482208457
 51
82.24822084569998
  0
LINE
  5
287
330
1E
100
AcDbEntity
  8
SJC
100
AcDbLine
 10
3155.1061541571
 20
4312.860830478332
 30
0.0
 11
3135.2886495696
 21
4315.557363641333
 31
0.0
  0
LINE
  5
288
330
1E
100
AcDbEntity
  8
SJC
100
AcDbLine
 10
3154.2974383489
 20
4306.914785645033
 30
0.0
 11
3134.479933761401
 21
4309.612539511133
 31
0.0
  0
ARC
  5
289
330
1E
100
AcDbEntity
  8
SJC
100
AcDbCircle
 10
3098.2689899202
 20
4310.503288099233
 30
0.0
 40
9.999999851
100
AcDbArc
 50
262.2514431789
 51
334.7944553205
  0
ARC
  5
28A
330
1E
100
AcDbEntity
  8
SJC
100
AcDbCircle
 10
3098.269753900901
 20
4310.503411817633
 30
0.0
 40
4.0
100
AcDbArc
 50
262.2413411177
 51
303.6477995767
  0
ARC
  5
28B
330
1E
100
AcDbEntity
  8
SJC
100
AcDbCircle
 10
3098.2689525789
 20
4310.503838213332
 30
0.0
 40
4.0
100
AcDbArc
 50
40.8397276573
 51
82.2472349334
  0
ARC
  5
28C
330
1E
100
AcDbEntity
  8
SJC
100
AcDbCircle
 10
3098.2693286273
 20
4310.503445946333
 30
0.0
 40
9.999999851
100
AcDbArc
 50
9.706417565599998
 51
82.24979285100001
  0
ARC
  5
28D
330
1E
100
AcDbEntity
  8
SJC
100
AcDbCircle
 10
3133.939931064
 20
4305.649157484732
 30
0.0
 40
4.0
100
AcDbArc
 50
82.2413411177
 51
123.6477995767
  0
LINE
  5
28E
330
1E
100
AcDbEntity
  8
SJC
100
AcDbLine
 10
3099.617873734
 20
4320.412099897032
 30
0.0
 11
3085.0155179945
 21
4322.399404554932
 31
0.0
  0
LINE
  5
28F
330
1E
100
AcDbEntity
  8
SJC
100
AcDbLine
 10
3098.8085475742
 20
4314.467275766933
 30
0.0
 11
3086.8856351542
 21
4316.089590195832
 31
0.0
  0
ARC
  5
290
330
1E
100
AcDbEntity
  8
SJC
100
AcDbCircle
 10
3099.0600124142
 20
4310.572622504633
 30
0.0
 40
3.000435718
100
AcDbArc
 50
82.24900687979999
 51
262.2490068798
  0
LINE
  5
291
330
1E
100
AcDbEntity
  8
SJC
100
AcDbLine
 10
3097.7297512035
 20
4306.540029791332
 30
0.0
 11
3087.260391008
 21
4307.964590316933
 31
0.0
  0
LINE
  5
292
330
1E
100
AcDbEntity
  8
SJC
100
AcDbLine
 10
3096.9207302195
 20
4300.594595309532
 30
0.0
 11
3086.146804598801
 21
4302.061270092432
 31
0.0
  0
LINE
  5
293
330
1E
100
AcDbEntity
  8
SJC
100
AcDbLine
 10
3206.7071055367
 20
4285.830191232732
 30
0.0
 11
3186.8896009491
 21
4288.527334747232
 31
0.0
  0
ARC
  5
294
330
1E
100
AcDbEntity
  8
SJC
100
AcDbCircle
 10
3208.0563825297
 20
4295.738973219332
 30
0.0
 40
4.0
100
AcDbArc
 50
262.2376791565
 51
303.6486919963
  0
ARC
  5
295
330
1E
100
AcDbEntity
  8
SJC
100
AcDbCircle
 10
3208.0553652374
 20
4295.738884022333
 30
0.0
 40
9.999999851
100
AcDbArc
 50
262.2514431789
 51
334.7944553205
  0
LINE
  5
296
330
1E
100
AcDbEntity
  8
SJC
100
AcDbLine
 10
3245.149182600501
 20
4294.152334663333
 30
0.0
 11
3211.459913082999
 21
4298.737295532532
 31
0.0
  0
LINE
  5
297
330
1E
100
AcDbEntity
  8
SJC
100
AcDbLine
 10
3244.340161616501
 20
4288.206900181632
 30
0.0
 11
3210.650586923201
 21
4292.792471402433
 31
0.0
  0
LINE
  5
298
330
1E
100
AcDbEntity
  8
SJC
100
AcDbLine
 10
4855.8818856495
 20
4295.463369800132
 30
0.0
 11
4889.5714603428
 21
4300.048330669233
 31
0.0
  0
ARC
  5
299
330
1E
100
AcDbEntity
  8
SJC
100
AcDbCircle
 10
4889.135233218099
 20
4303.016445616933
 30
0.0
 40
3.000000074499999
100
AcDbArc
 50
278.360966384
 51
97.1441643098
  0
LINE
  5
29A
330
1E
100
AcDbEntity
  8
SJC
100
AcDbLine
 10
4855.0731698413
 20
4301.408193930232
 30
0.0
 11
4888.762134183
 21
4305.993154799433
 31
0.0
  0
ARC
  5
29B
330
1E
100
AcDbEntity
  8
SJC
100
AcDbCircle
 10
4855.4423322363
 20
4298.430993975033
 30
0.0
 40
3.000000074499999
100
AcDbArc
 50
97.06839801260001
 51
278.425181561
  0
ARC
  5
29C
330
1E
100
AcDbEntity
  8
SJC
100
AcDbCircle
 10
4855.4775543959
 20
4298.435988697932
 30
0.0
 40
9.999999851
100
AcDbArc
 50
277.750207149
 51
350.2935824344
  0
ARC
  5
29D
330
1E
100
AcDbEntity
  8
SJC
100
AcDbCircle
 10
4855.478468045101
 20
4298.436382152333
 30
0.0
 40
4.0
100
AcDbArc
 50
277.7341215046
 51
319.1453942581
  0
LINE
  5
29E
330
1E
100
AcDbEntity
  8
SJC
100
AcDbLine
 10
4836.199879106899
 20
4291.775625714432
 30
0.0
 11
4856.016773342801
 21
4294.472769228932
 31
0.0
  0
LINE
  5
29F
330
1E
100
AcDbEntity
  8
SJC
100
AcDbLine
 10
4835.1207775605
 20
4299.702261338532
 30
0.0
 11
4854.938282148
 21
4302.399404853033
 31
0.0
  0
ARC
  5
2A0
330
1E
100
AcDbEntity
  8
SJC
100
AcDbCircle
 10
4855.4782848453
 20
4298.436022826632
 30
0.0
 40
4.0
100
AcDbArc
 50
56.35220042330001
 51
97.75865888230001
  0
ARC
  5
2A1
330
1E
100
AcDbEntity
  8
SJC
100
AcDbCircle
 10
4835.6597744972
 20
4295.738742409333
 30
0.0
 40
4.0
100
AcDbArc
 50
97.74411957190002
 51
139.1471742678
  0
ARC
  5
2A2
330
1E
100
AcDbEntity
  8
SJC
100
AcDbCircle
 10
4835.6599965074
 20
4295.739041869532
 30
0.0
 40
9.999999851
100
AcDbArc
 50
97.750207149
 51
170.2935824344
  0
LINE
  5
2A3
330
1E
100
AcDbEntity
  8
SJC
100
AcDbLine
 10
4834.3114514006
 20
4305.647695820232
 30
0.0
 11
4854.128955988199
 21
4308.344228983133
 31
0.0
  0
ARC
  5
2A4
330
1E
100
AcDbEntity
  8
SJC
100
AcDbCircle
 10
4855.4774856983
 20
4298.435572937033
 30
0.0
 40
9.999999851
100
AcDbArc
 50
25.2091771205
 51
97.75011812009999
  0
ARC
  5
2A5
330
1E
100
AcDbEntity
  8
SJC
100
AcDbCircle
 10
4833.6469527949
 20
4295.465176198233
 30
0.0
 40
3.000000074499999
100
AcDbArc
 50
278.3609663836
 51
97.14416431020001
  0
ARC
  5
2A6
330
1E
100
AcDbEntity
  8
SJC
100
AcDbCircle
 10
4909.7751458471
 20
4305.649137905532
 30
0.0
 40
9.999999851
100
AcDbArc
 50
277.7495889608
 51
350.2899499962
  0
LINE
  5
2A7
330
1E
100
AcDbEntity
  8
SJC
100
AcDbLine
 10
4891.3060794576
 20
4293.042715539332
 30
0.0
 11
4911.1235840451
 21
4295.740469405332
 31
0.0
  0
LINE
  5
2A8
330
1E
100
AcDbEntity
  8
SJC
100
AcDbLine
 10
4890.497363649299
 20
4298.988760372533
 30
0.0
 11
4910.3148682369
 21
4301.685293535533
 31
0.0
  0
ARC
  5
2A9
330
1E
100
AcDbEntity
  8
SJC
100
AcDbCircle
 10
4909.775273241599
 20
4305.648731089032
 30
0.0
 40
4.0
100
AcDbArc
 50
277.7527650666
 51
319.1602723427
  0
ARC
  5
2AA
330
1E
100
AcDbEntity
  8
SJC
100
AcDbCircle
 10
4889.9580914014
 20
4302.952176527633
 30
0.0
 40
9.999999851
100
AcDbArc
 50
97.750207149
 51
170.2935824344
  0
ARC
  5
2AB
330
1E
100
AcDbEntity
  8
SJC
100
AcDbCircle
 10
4889.956660758
 20
4302.951185401833
 30
0.0
 40
4.0
100
AcDbArc
 50
97.73547102930001
 51
139.1340747698
  0
ARC
  5
2AC
330
1E
100
AcDbEntity
  8
SJC
100
AcDbCircle
 10
4889.957360952
 20
4302.952142398932
 30
0.0
 40
4.0
100
AcDbArc
 50
236.3522004233
 51
277.7586588824
  0
ARC
  5
2AD
330
1E
100
AcDbEntity
  8
SJC
100
AcDbCircle
 10
4889.958663362199
 20
4302.951523080333
 30
0.0
 40
9.999999851
100
AcDbArc
 50
205.2024063203
 51
277.7436788071
  0
ARC
  5
2AE
330
1E
100
AcDbEntity
  8
SJC
100
AcDbCircle
 10
4909.7755805924
 20
4305.648707595133
 30
0.0
 40
9.999999851
100
AcDbArc
 50
25.2091771205
 51
97.75011812009999
  0
LINE
  5
2AF
330
1E
100
AcDbEntity
  8
SJC
100
AcDbLine
 10
4944.2510249577
 20
4313.545644921233
 30
0.0
 11
4910.5614502644
 21
4308.960684052133
 31
0.0
  0
LINE
  5
2B0
330
1E
100
AcDbEntity
  8
SJC
100
AcDbLine
 10
4945.060351117501
 20
4307.599600088032
 30
0.0
 11
4911.3707764242
 21
4303.015249570332
 31
0.0
  0
ARC
  5
2B1
330
1E
100
AcDbEntity
  8
SJC
100
AcDbCircle
 10
4910.9661133443
 20
4305.987966811232
 30
0.0
 40
3.000133330799999
100
AcDbArc
 50
97.75177915429999
 51
277.7517791543
  0
LINE
  5
2B2
330
1E
100
AcDbEntity
  8
SJC
100
AcDbLine
 10
4888.609546294699
 20
4312.860830478332
 30
0.0
 11
4908.4270508822
 21
4315.557363641333
 31
0.0
  0
LINE
  5
2B3
330
1E
100
AcDbEntity
  8
SJC
100
AcDbLine
 10
4889.4182621029
 20
4306.914785645033
 30
0.0
 11
4909.2357666904
 21
4309.612539511133
 31
0.0
  0
ARC
  5
2B4
330
1E
100
AcDbEntity
  8
SJC
100
AcDbCircle
 10
4945.4467105316
 20
4310.503288099233
 30
0.0
 40
9.999999851
100
AcDbArc
 50
205.2055446795
 51
277.7485568211
  0
ARC
  5
2B5
330
1E
100
AcDbEntity
  8
SJC
100
AcDbCircle
 10
4945.4462517267
 20
4310.503411817633
 30
0.0
 40
4.0
100
AcDbArc
 50
236.3522004233
 51
277.7586588824
  0
ARC
  5
2B6
330
1E
100
AcDbEntity
  8
SJC
100
AcDbCircle
 10
4945.4467478729
 20
4310.503838213332
 30
0.0
 40
4.0
100
AcDbArc
 50
97.75276506659999
 51
139.1602723427
  0
ARC
  5
2B7
330
1E
100
AcDbEntity
  8
SJC
100
AcDbCircle
 10
4945.446371824499
 20
4310.503445946333
 30
0.0
 40
9.999999851
100
AcDbArc
 50
97.750207149
 51
170.2935824344
  0
ARC
  5
2B8
330
1E
100
AcDbEntity
  8
SJC
100
AcDbCircle
 10
4909.7757693878
 20
4305.649157484732
 30
0.0
 40
4.0
100
AcDbArc
 50
56.35220042330001
 51
97.75865888230001
  0
LINE
  5
2B9
330
1E
100
AcDbEntity
  8
SJC
100
AcDbLine
 10
4944.097826717801
 20
4320.412099897032
 30
0.0
 11
4958.6998772815
 21
4322.399404554932
 31
0.0
  0
LINE
  5
2BA
330
1E
100
AcDbEntity
  8
SJC
100
AcDbLine
 10
4944.9071528776
 20
4314.467275766933
 30
0.0
 11
4956.8297601219
 21
4316.089590195832
 31
0.0
  0
ARC
  5
2BB
330
1E
100
AcDbEntity
  8
SJC
100
AcDbCircle
 10
4944.6556880376
 20
4310.572622504633
 30
0.0
 40
3.000435718
100
AcDbArc
 50
277.7509931202
 51
97.75099312020003
  0
LINE
  5
2BC
330
1E
100
AcDbEntity
  8
SJC
100
AcDbLine
 10
4945.9862544241
 20
4306.540029791332
 30
0.0
 11
4956.4550042681
 21
4307.964590316933
 31
0.0
  0
LINE
  5
2BD
330
1E
100
AcDbEntity
  8
SJC
100
AcDbLine
 10
4946.7949702323
 20
4300.594595309532
 30
0.0
 11
4957.568895853
 21
4302.061270092432
 31
0.0
  0
LINE
  5
2BE
330
1E
100
AcDbEntity
  8
SJC
100
AcDbLine
 10
4837.0085949151
 20
4285.830191232732
 30
0.0
 11
4856.826099502701
 21
4288.527334747232
 31
0.0
  0
ARC
  5
2BF
330
1E
100
AcDbEntity
  8
SJC
100
AcDbCircle
 10
4835.659369805399
 20
4295.738938684032
 30
0.0
 40
4.0
100
AcDbArc
 50
236.3504152461
 51
277.7659825602
  0
ARC
  5
2C0
330
1E
100
AcDbEntity
  8
SJC
100
AcDbCircle
 10
4835.6603352144
 20
4295.738884022333
 30
0.0
 40
9.999999851
100
AcDbArc
 50
205.2055446795
 51
277.7485568211
  0
LINE
  5
2C1
330
1E
100
AcDbEntity
  8
SJC
100
AcDbLine
 10
4798.566823027
 20
4294.152334663333
 30
0.0
 11
4832.255787368801
 21
4298.737295532532
 31
0.0
  0
LINE
  5
2C2
330
1E
100
AcDbEntity
  8
SJC
100
AcDbLine
 10
4799.3755388353
 20
4288.206900181632
 30
0.0
 11
4833.0651135286
 21
4292.792471402433
 31
0.0
  0
ARC
  5
2C3
330
1E
100
AcDbEntity
  8
CENTER
100
AcDbCircle
 10
4021.856043398201
 20
10775.51931510163
 30
0.0
 40
6530.7738284651
100
AcDbArc
 50
263.1488628346
 51
276.8444006199
  0
LINE
  5
2C4
330
1E
100
AcDbEntity
  8
SJC
100
AcDbLine
 10
5187.8325642968
 20
4295.463369800132
 30
0.0
 11
5154.142989603499
 21
4300.048330669233
 31
0.0
  0
ARC
  5
2C5
330
1E
100
AcDbEntity
  8
SJC
100
AcDbCircle
 10
5154.5160886386
 20
4303.025039851733
 30
0.0
 40
3.000000074499999
100
AcDbArc
 50
81.6390336171
 51
262.8558356891
  0
LINE
  5
2C6
330
1E
100
AcDbEntity
  8
SJC
100
AcDbLine
 10
5188.6412801051
 20
4301.408193930232
 30
0.0
 11
5154.9523157633
 21
4305.993154799433
 31
0.0
  0
ARC
  5
2C7
330
1E
100
AcDbEntity
  8
SJC
100
AcDbCircle
 10
5188.27211771
 20
4298.430993975133
 30
0.0
 40
3.000000074499999
100
AcDbArc
 50
261.5748184398
 51
82.9316019866
  0
ARC
  5
2C8
330
1E
100
AcDbEntity
  8
SJC
100
AcDbCircle
 10
5188.236895550399
 20
4298.435988697932
 30
0.0
 40
9.999999851
100
AcDbArc
 50
189.7064175656
 51
262.249792851
  0
ARC
  5
2C9
330
1E
100
AcDbEntity
  8
SJC
100
AcDbCircle
 10
5188.2359819012
 20
4298.436382152333
 30
0.0
 40
4.0
100
AcDbArc
 50
220.8546057419
 51
262.2658784954
  0
LINE
  5
2CA
330
1E
100
AcDbEntity
  8
SJC
100
AcDbLine
 10
5207.5145708395
 20
4291.775625714432
 30
0.0
 11
5187.6976766035
 21
4294.472769228932
 31
0.0
  0
LINE
  5
2CB
330
1E
100
AcDbEntity
  8
SJC
100
AcDbLine
 10
5208.593672385901
 20
4299.702261338532
 30
0.0
 11
5188.7761677984
 21
4302.399404853033
 31
0.0
  0
ARC
  5
2CC
330
1E
100
AcDbEntity
  8
SJC
100
AcDbCircle
 10
5188.236165101
 20
4298.436022826632
 30
0.0
 40
4.0
100
AcDbArc
 50
82.24134111759999
 51
123.6477995767
  0
ARC
  5
2CD
330
1E
100
AcDbEntity
  8
SJC
100
AcDbCircle
 10
5208.054675449099
 20
4295.738742409333
 30
0.0
 40
4.0
100
AcDbArc
 50
40.85282573219999
 51
82.2558804281
  0
ARC
  5
2CE
330
1E
100
AcDbEntity
  8
SJC
100
AcDbCircle
 10
5208.054453439
 20
4295.739041869532
 30
0.0
 40
9.999999851
100
AcDbArc
 50
9.706417565599998
 51
82.24979285100001
  0
LINE
  5
2CF
330
1E
100
AcDbEntity
  8
SJC
100
AcDbLine
 10
5209.4029985457
 20
4305.647695820232
 30
0.0
 11
5189.585493958201
 21
4308.344228983133
 31
0.0
  0
ARC
  5
2D0
330
1E
100
AcDbEntity
  8
SJC
100
AcDbCircle
 10
5188.236964248
 20
4298.435572937033
 30
0.0
 40
9.999999851
100
AcDbArc
 50
82.2498818799
 51
154.7908228795
  0
ARC
  5
2D1
330
1E
100
AcDbEntity
  8
SJC
100
AcDbCircle
 10
5210.067497151499
 20
4295.465176198233
 30
0.0
 40
3.000000074499999
100
AcDbArc
 50
82.85583569079999
 51
261.6390336155
  0
ARC
  5
2D2
330
1E
100
AcDbEntity
  8
SJC
100
AcDbCircle
 10
5133.9393040993
 20
4305.649137905532
 30
0.0
 40
9.999999851
100
AcDbArc
 50
189.7100500038
 51
262.2504110392
  0
LINE
  5
2D3
330
1E
100
AcDbEntity
  8
SJC
100
AcDbLine
 10
5152.408370488799
 20
4293.042715539332
 30
0.0
 11
5132.5908659012
 21
4295.740469405332
 31
0.0
  0
LINE
  5
2D4
330
1E
100
AcDbEntity
  8
SJC
100
AcDbLine
 10
5153.217086297
 20
4298.988760372533
 30
0.0
 11
5133.3995817095
 21
4301.685293535533
 31
0.0
  0
ARC
  5
2D5
330
1E
100
AcDbEntity
  8
SJC
100
AcDbCircle
 10
5133.939176704799
 20
4305.648731089032
 30
0.0
 40
4.0
100
AcDbArc
 50
220.8397276573
 51
262.2472349334
  0
ARC
  5
2D6
330
1E
100
AcDbEntity
  8
SJC
100
AcDbCircle
 10
5153.756358545
 20
4302.952176527633
 30
0.0
 40
9.999999851
100
AcDbArc
 50
9.706417565599998
 51
82.24979285100001
  0
ARC
  5
2D7
330
1E
100
AcDbEntity
  8
SJC
100
AcDbCircle
 10
5153.757789188301
 20
4302.951185401833
 30
0.0
 40
4.0
100
AcDbArc
 50
40.8659252302
 51
82.2645289707
  0
ARC
  5
2D8
330
1E
100
AcDbEntity
  8
SJC
100
AcDbCircle
 10
5153.757088994399
 20
4302.952142398932
 30
0.0
 40
4.0
100
AcDbArc
 50
262.2413411176
 51
303.6477995767
  0
ARC
  5
2D9
330
1E
100
AcDbEntity
  8
SJC
100
AcDbCircle
 10
5153.7557865842
 20
4302.951523080333
 30
0.0
 40
9.999999851
100
AcDbArc
 50
262.2563211929
 51
334.7975936797
  0
ARC
  5
2DA
330
1E
100
AcDbEntity
  8
SJC
100
AcDbCircle
 10
5133.938869354
 20
4305.648707595133
 30
0.0
 40
9.999999851
100
AcDbArc
 50
82.2498818799
 51
154.7908228795
  0
LINE
  5
2DB
330
1E
100
AcDbEntity
  8
SJC
100
AcDbLine
 10
5099.463424988599
 20
4313.545644921233
 30
0.0
 11
5133.1529996819
 21
4308.960684052133
 31
0.0
  0
LINE
  5
2DC
330
1E
100
AcDbEntity
  8
SJC
100
AcDbLine
 10
5098.6540988288
 20
4307.599600088032
 30
0.0
 11
5132.3436735221
 21
4303.015249570332
 31
0.0
  0
ARC
  5
2DD
330
1E
100
AcDbEntity
  8
SJC
100
AcDbCircle
 10
5132.748336602
 20
4305.987966811232
 30
0.0
 40
3.000133330799999
100
AcDbArc
 50
262.2482208457
 51
82.24822084569998
  0
LINE
  5
2DE
330
1E
100
AcDbEntity
  8
SJC
100
AcDbLine
 10
5155.1049036517
 20
4312.860830478332
 30
0.0
 11
5135.2873990642
 21
4315.557363641333
 31
0.0
  0
LINE
  5
2DF
330
1E
100
AcDbEntity
  8
SJC
100
AcDbLine
 10
5154.296187843399
 20
4306.914785645033
 30
0.0
 11
5134.4786832559
 21
4309.612539511133
 31
0.0
  0
ARC
  5
2E0
330
1E
100
AcDbEntity
  8
SJC
100
AcDbCircle
 10
5098.2677394148
 20
4310.503288099233
 30
0.0
 40
9.999999851
100
AcDbArc
 50
262.2514431789
 51
334.7944553205
  0
ARC
  5
2E1
330
1E
100
AcDbEntity
  8
SJC
100
AcDbCircle
 10
5098.2681982197
 20
4310.503411817633
 30
0.0
 40
4.0
100
AcDbArc
 50
262.2413411177
 51
303.6477995767
  0
ARC
  5
2E2
330
1E
100
AcDbEntity
  8
SJC
100
AcDbCircle
 10
5098.2677020734
 20
4310.503838213332
 30
0.0
 40
4.0
100
AcDbArc
 50
40.8397276573
 51
82.2472349334
  0
ARC
  5
2E3
330
1E
100
AcDbEntity
  8
SJC
100
AcDbCircle
 10
5098.268078121799
 20
4310.503445946333
 30
0.0
 40
9.999999851
100
AcDbArc
 50
9.706417565599998
 51
82.24979285100001
  0
ARC
  5
2E4
330
1E
100
AcDbEntity
  8
SJC
100
AcDbCircle
 10
5133.9386805586
 20
4305.649157484732
 30
0.0
 40
4.0
100
AcDbArc
 50
82.24134111759999
 51
123.6477995767
  0
LINE
  5
2E5
330
1E
100
AcDbEntity
  8
SJC
100
AcDbLine
 10
5099.6166232285
 20
4320.412099897032
 30
0.0
 11
5085.014572664899
 21
4322.399404554932
 31
0.0
  0
LINE
  5
2E6
330
1E
100
AcDbEntity
  8
SJC
100
AcDbLine
 10
5098.8072970687
 20
4314.467275766933
 30
0.0
 11
5086.884689824501
 21
4316.089590195832
 31
0.0
  0
ARC
  5
2E7
330
1E
100
AcDbEntity
  8
SJC
100
AcDbCircle
 10
5099.0587619087
 20
4310.572622504633
 30
0.0
 40
3.000435718
100
AcDbArc
 50
82.24900687979999
 51
262.2490068798
  0
LINE
  5
2E8
330
1E
100
AcDbEntity
  8
SJC
100
AcDbLine
 10
5097.7281955223
 20
4306.540029791332
 30
0.0
 11
5087.2594456783
 21
4307.964590316933
 31
0.0
  0
LINE
  5
2E9
330
1E
100
AcDbEntity
  8
SJC
100
AcDbLine
 10
5096.919479713999
 20
4300.594595309532
 30
0.0
 11
5086.1455540933
 21
4302.061270092432
 31
0.0
  0
LINE
  5
2EA
330
1E
100
AcDbEntity
  8
SJC
100
AcDbLine
 10
5206.7058550312
 20
4285.830191232732
 30
0.0
 11
5186.8883504437
 21
4288.527334747232
 31
0.0
  0
ARC
  5
2EB
330
1E
100
AcDbEntity
  8
SJC
100
AcDbCircle
 10
5208.055080141
 20
4295.738938684032
 30
0.0
 40
4.0
100
AcDbArc
 50
262.2340174397
 51
303.6495847538
  0
ARC
  5
2EC
330
1E
100
AcDbEntity
  8
SJC
100
AcDbCircle
 10
5208.054114731901
 20
4295.738884022333
 30
0.0
 40
9.999999851
100
AcDbArc
 50
262.2514431789
 51
334.7944553205
  0
LINE
  5
2ED
330
1E
100
AcDbEntity
  8
SJC
100
AcDbLine
 10
5245.1476269193
 20
4294.152334663333
 30
0.0
 11
5211.4586625776
 21
4298.737295532532
 31
0.0
  0
LINE
  5
2EE
330
1E
100
AcDbEntity
  8
SJC
100
AcDbLine
 10
5244.3389111111
 20
4288.206900181632
 30
0.0
 11
5210.649336417801
 21
4292.792471402433
 31
0.0
  0
LINE
  5
2EF
330
1E
100
AcDbEntity
  8
SJC
100
AcDbLine
 10
5298.8097354947
 20
4280.360220611132
 30
0.0
 11
5265.1201608014
 21
4284.945791831833
 31
0.0
  0
ARC
  5
2F0
330
1E
100
AcDbEntity
  8
SJC
100
AcDbCircle
 10
5265.556387926199
 20
4287.913906779531
 30
0.0
 40
3.000000074499999
100
AcDbArc
 50
82.8558356903
 51
261.6390336159
  0
LINE
  5
2F1
330
1E
100
AcDbEntity
  8
SJC
100
AcDbLine
 10
5299.618451303
 20
4286.305655092832
 30
0.0
 11
5265.929486961201
 21
4290.890615962032
 31
0.0
  0
ARC
  5
2F2
330
1E
100
AcDbEntity
  8
SJC
100
AcDbCircle
 10
5299.2140933988
 20
4283.332937851933
 30
0.0
 40
3.000092183399999
100
AcDbArc
 50
262.2539958344
 51
82.25399583439999
  0
ARC
  5
2F3
330
1E
100
AcDbEntity
  8
SJC
100
AcDbCircle
 10
5299.213959839601
 20
4283.332854058332
 30
0.0
 40
9.999999851
100
AcDbArc
 50
189.7100500038
 51
262.2504110392
  0
ARC
  5
2F4
330
1E
100
AcDbEntity
  8
SJC
100
AcDbCircle
 10
5299.2137510961
 20
4283.333151702332
 30
0.0
 40
4.0
100
AcDbArc
 50
220.8415094862
 51
262.2572340959
  0
LINE
  5
2F5
330
1E
100
AcDbEntity
  8
SJC
100
AcDbLine
 10
5318.4917420374
 20
4276.672476525432
 30
0.0
 11
5298.6748478014
 21
4279.369620039932
 31
0.0
  0
LINE
  5
2F6
330
1E
100
AcDbEntity
  8
SJC
100
AcDbLine
 10
5319.5708435838
 20
4284.599112149532
 30
0.0
 11
5299.7533389963
 21
4287.295645312432
 31
0.0
  0
ARC
  5
2F7
330
1E
100
AcDbEntity
  8
SJC
100
AcDbCircle
 10
5299.2133362989
 20
4283.332263286033
 30
0.0
 40
4.0
100
AcDbArc
 50
82.24134111759999
 51
123.6477995767
  0
ARC
  5
2F8
330
1E
100
AcDbEntity
  8
SJC
100
AcDbCircle
 10
5299.2141354459
 20
4283.333034099532
 30
0.0
 40
9.999999851
100
AcDbArc
 50
82.2498818799
 51
154.7908228795
  0
LINE
  5
2F9
330
1E
100
AcDbEntity
  8
SJC
100
AcDbLine
 10
5263.385541686599
 20
4277.940176701832
 30
0.0
 11
5243.568037099099
 21
4280.636709864732
 31
0.0
  0
LINE
  5
2FA
330
1E
100
AcDbEntity
  8
SJC
100
AcDbLine
 10
5264.194257494899
 20
4283.885611183533
 30
0.0
 11
5244.3767529074
 21
4286.582754698033
 31
0.0
  0
ARC
  5
2FB
330
1E
100
AcDbEntity
  8
SJC
100
AcDbCircle
 10
5264.7337436018
 20
4287.848387883732
 30
0.0
 40
9.999999851
100
AcDbArc
 50
9.713682507599999
 51
82.25102946680001
  0
ARC
  5
2FC
330
1E
100
AcDbEntity
  8
SJC
100
AcDbCircle
 10
5264.733764046
 20
4287.848809254033
 30
0.0
 40
4.0
100
AcDbArc
 50
40.8397276573
 51
82.2472349334
  0
ARC
  5
2FD
330
1E
100
AcDbEntity
  8
SJC
100
AcDbCircle
 10
5264.7342601923
 20
4287.848993209933
 30
0.0
 40
4.0
100
AcDbArc
 50
262.2413411176
 51
303.6477995767
  0
ARC
  5
2FE
330
1E
100
AcDbEntity
  8
SJC
100
AcDbCircle
 10
5264.733497788
 20
4287.848910797032
 30
0.0
 40
9.999999851
100
AcDbArc
 50
262.2531987003
 51
334.7903286164
  0
LINE
  5
2FF
330
1E
100
AcDbEntity
  8
SJC
100
AcDbLine
 10
5266.0820748496
 20
4297.757070937833
 30
0.0
 11
5246.2645702621
 21
4300.454824803832
 31
0.0
  0
LINE
  5
300
330
1E
100
AcDbEntity
  8
SJC
100
AcDbLine
 10
5265.2733590413
 20
4291.812246807633
 30
0.0
 11
5245.4558544538
 21
4294.509390322132
 31
0.0
  0
ARC
  5
301
330
1E
100
AcDbEntity
  8
SJC
100
AcDbCircle
 10
5244.9163105614
 20
4290.546132014233
 30
0.0
 40
9.999999851
100
AcDbArc
 50
82.2514431789
 51
154.7944553205
  0
ARC
  5
302
330
1E
100
AcDbEntity
  8
SJC
100
AcDbCircle
 10
5244.9165822058
 20
4290.545363815533
 30
0.0
 40
9.999999851
100
AcDbArc
 50
189.7064175656
 51
262.249792851
  0
ARC
  5
303
330
1E
100
AcDbEntity
  8
SJC
100
AcDbCircle
 10
5244.9163479027
 20
4290.546192251632
 30
0.0
 40
4.0
100
AcDbArc
 50
220.8397276573
 51
262.2472349334
  0
ARC
  5
304
330
1E
100
AcDbEntity
  8
SJC
100
AcDbCircle
 10
5244.9166128723
 20
4290.545904669732
 30
0.0
 40
4.0
100
AcDbArc
 50
82.25234388199998
 51
123.6608969281
  0
ARC
  5
305
330
1E
100
AcDbEntity
  8
SJC
100
AcDbCircle
 10
5244.5162182373
 20
4290.953787347731
 30
0.0
 40
3.000092183399999
100
AcDbArc
 50
262.2539958344
 51
82.25399583439999
  0
LINE
  5
306
330
1E
100
AcDbEntity
  8
SJC
100
AcDbLine
 10
5310.419842743599
 20
4271.715811560232
 30
0.0
 11
5297.8655216416
 21
4273.424185558233
 31
0.0
  0
LINE
  5
307
330
1E
100
AcDbEntity
  8
SJC
100
AcDbLine
 10
5313.1169862581
 20
4291.532705796133
 30
0.0
 11
5300.5626651561
 21
4293.241690145733
 31
0.0
  0
LINE
  5
31A
330
1E
100
AcDbEntity
  8
SJC
100
AcDbLine
 10
1099.6177509484
 20
4320.412099897032
 30
0.0
 11
1086.4390402073
 21
4322.205312761032
 31
0.0
  0
LINE
  5
31B
330
1E
100
AcDbEntity
  8
SJC
100
AcDbLine
 10
1098.8084247886
 20
4314.467275766933
 30
0.0
 11
1087.5948934615
 21
4315.993154650432
 31
0.0
  0
LINE
  5
31C
330
1E
100
AcDbEntity
  8
SJC
100
AcDbLine
 10
977.3077246948
 20
3013.315561757133
 30
0.0
 11
977.3077246948
 21
4373.315541491533
 31
0.0
  0
LINE
  5
31D
330
1E
100
AcDbEntity
  8
SJC
100
AcDbLine
 10
1066.4077599882
 20
4343.315541938633
 30
0.0
 11
1066.4077599882
 21
4373.315541491533
 31
0.0
  0
ARC
  5
31E
330
1E
100
AcDbEntity
  8
SJC
100
AcDbCircle
 10
987.3577733700999
 20
4407.598740165132
 30
0.0
 40
9.999999851
100
AcDbArc
 50
163.4011376365
 51
179.9985785993
  0
ARC
  5
31F
330
1E
100
AcDbEntity
  8
SJC
100
AcDbCircle
 10
1021.8577423415
 20
4397.315159380832
 30
0.0
 40
45.9999983609
100
AcDbArc
 50
16.598192998
 51
163.401807002
  0
LINE
  5
320
330
1E
100
AcDbEntity
  8
SJC
100
AcDbLine
 10
977.3577735221998
 20
4388.315541268032
 30
0.0
 11
1066.3577111608
 21
4388.315541268032
 31
0.0
  0
LINE
  5
321
330
1E
100
AcDbEntity
  8
SJC
100
AcDbLine
 10
977.3577735221998
 20
4388.315541268032
 30
0.0
 11
977.3577735221998
 21
4391.315419153033
 31
0.0
  0
LINE
  5
322
330
1E
100
AcDbEntity
  8
SJC
100
AcDbLine
 10
977.3577735221998
 20
4393.315541193532
 30
0.0
 11
977.3577735221998
 21
4396.315419078532
 31
0.0
  0
LINE
  5
323
330
1E
100
AcDbEntity
  8
SJC
100
AcDbLine
 10
977.3577735221998
 20
4398.315541119033
 30
0.0
 11
978.3578345424002
 21
4397.315174923033
 31
0.0
  0
LINE
  5
324
330
1E
100
AcDbEntity
  8
SJC
100
AcDbLine
 10
977.3577735221998
 20
4398.315541119033
 30
0.0
 11
977.3577735221998
 21
4407.598988246332
 31
0.0
  0
LINE
  5
325
330
1E
100
AcDbEntity
  8
SJC
100
AcDbLine
 10
977.3577735221998
 20
4396.315419078532
 30
0.0
 11
978.3578345424002
 21
4397.315174923033
 31
0.0
  0
LINE
  5
326
330
1E
100
AcDbEntity
  8
SJC
100
AcDbLine
 10
977.3577735221998
 20
4393.315541193532
 30
0.0
 11
978.3578345424002
 21
4392.315174997533
 31
0.0
  0
LINE
  5
327
330
1E
100
AcDbEntity
  8
SJC
100
AcDbLine
 10
977.3577735221998
 20
4391.315419153033
 30
0.0
 11
978.3578345424002
 21
4392.315174997533
 31
0.0
  0
LINE
  5
328
330
1E
100
AcDbEntity
  8
SJC
100
AcDbLine
 10
978.3578345424002
 20
4397.315174923033
 30
0.0
 11
1065.3576501406
 21
4397.315174923033
 31
0.0
  0
LINE
  5
329
330
1E
100
AcDbEntity
  8
SJC
100
AcDbLine
 10
978.3578345424002
 20
4392.315174997533
 30
0.0
 11
1065.3576501406
 21
4392.315174997533
 31
0.0
  0
LINE
  5
32A
330
1E
100
AcDbEntity
  8
SJC
100
AcDbLine
 10
975.8576819917998
 20
4386.315419227532
 30
0.0
 11
1067.8578026912
 21
4386.315419227532
 31
0.0
  0
LINE
  5
32B
330
1E
100
AcDbEntity
  8
SJC
100
AcDbLine
 10
975.8576819917998
 20
4386.315419227532
 30
0.0
 11
975.8576819917998
 21
4373.315541491533
 31
0.0
  0
LINE
  5
32C
330
1E
100
AcDbEntity
  8
SJC
100
AcDbLine
 10
977.3577735221998
 20
4388.315541268032
 30
0.0
 11
975.8576819917998
 21
4386.315419227532
 31
0.0
  0
ARC
  5
32D
330
1E
100
AcDbEntity
  8
SJC
100
AcDbCircle
 10
1056.3577113129
 20
4407.598740165132
 30
0.0
 40
9.999999851
100
AcDbArc
 50
0.0014214007
 51
16.5988623635
  0
LINE
  5
32E
330
1E
100
AcDbEntity
  8
SJC
100
AcDbLine
 10
1066.3577111608
 20
4398.315541119033
 30
0.0
 11
1066.3577111608
 21
4407.598988246332
 31
0.0
  0
LINE
  5
32F
330
1E
100
AcDbEntity
  8
SJC
100
AcDbLine
 10
1066.3577111608
 20
4393.315541193532
 30
0.0
 11
1066.3577111608
 21
4396.315419078532
 31
0.0
  0
LINE
  5
330
330
1E
100
AcDbEntity
  8
SJC
100
AcDbLine
 10
1066.3577111608
 20
4388.315541268032
 30
0.0
 11
1066.3577111608
 21
4391.315419153033
 31
0.0
  0
LINE
  5
331
330
1E
100
AcDbEntity
  8
SJC
100
AcDbLine
 10
1066.3577111608
 20
4398.315541119033
 30
0.0
 11
1065.3576501406
 21
4397.315174923033
 31
0.0
  0
LINE
  5
332
330
1E
100
AcDbEntity
  8
SJC
100
AcDbLine
 10
1066.3577111608
 20
4396.315419078532
 30
0.0
 11
1065.3576501406
 21
4397.315174923033
 31
0.0
  0
LINE
  5
333
330
1E
100
AcDbEntity
  8
SJC
100
AcDbLine
 10
1066.3577111608
 20
4393.315541193532
 30
0.0
 11
1065.3576501406
 21
4392.315174997533
 31
0.0
  0
LINE
  5
334
330
1E
100
AcDbEntity
  8
SJC
100
AcDbLine
 10
1066.3577111608
 20
4391.315419153033
 30
0.0
 11
1065.3576501406
 21
4392.315174997533
 31
0.0
  0
LINE
  5
335
330
1E
100
AcDbEntity
  8
SJC
100
AcDbLine
 10
1067.8578026912
 20
4386.315419227532
 30
0.0
 11
1067.8578026912
 21
4373.315541491533
 31
0.0
  0
LINE
  5
336
330
1E
100
AcDbEntity
  8
SJC
100
AcDbLine
 10
1066.3577111608
 20
4388.315541268032
 30
0.0
 11
1067.8578026912
 21
4386.315419227532
 31
0.0
  0
LINE
  5
337
330
1E
100
AcDbEntity
  8
SJC
100
AcDbLine
 10
975.8576819917998
 20
4373.315541491533
 30
0.0
 11
1067.8578026912
 21
4373.315541491533
 31
0.0
  0
LINE
  5
338
330
1E
100
AcDbEntity
  8
SJC
100
AcDbLine
 10
2977.307389716699
 20
3013.315561757133
 30
0.0
 11
2977.307389716699
 21
4283.315542832633
 31
0.0
  0
LINE
  5
339
330
1E
100
AcDbEntity
  8
SJC
100
AcDbLine
 10
2977.307389716699
 20
4343.315541938633
 30
0.0
 11
2977.307389716699
 21
4373.315541491533
 31
0.0
  0
LINE
  5
33A
330
1E
100
AcDbEntity
  8
SJC
100
AcDbLine
 10
3066.4074250101
 20
3013.315561757133
 30
0.0
 11
3066.4074250101
 21
4283.315542832633
 31
0.0
  0
LINE
  5
33B
330
1E
100
AcDbEntity
  8
SJC
100
AcDbLine
 10
3066.4074250101
 20
4343.315541938633
 30
0.0
 11
3066.4074250101
 21
4373.315541491533
 31
0.0
  0
ARC
  5
33C
330
1E
100
AcDbEntity
  8
SJC
100
AcDbCircle
 10
2987.3571331904
 20
4407.598228245532
 30
0.0
 40
9.999999851
100
AcDbArc
 50
163.3980769871
 51
179.9956455158
  0
ARC
  5
33D
330
1E
100
AcDbEntity
  8
SJC
100
AcDbCircle
 10
3021.8572547755
 20
4397.315159380832
 30
0.0
 40
45.9999983609
100
AcDbArc
 50
16.598192998
 51
163.401807002
  0
LINE
  5
33E
330
1E
100
AcDbEntity
  8
SJC
100
AcDbLine
 10
2977.357133368301
 20
4388.315541268032
 30
0.0
 11
3066.3573761827
 21
4388.315541268032
 31
0.0
  0
LINE
  5
33F
330
1E
100
AcDbEntity
  8
SJC
100
AcDbLine
 10
2977.357133368301
 20
4388.315541268032
 30
0.0
 11
2977.357133368301
 21
4391.315419153033
 31
0.0
  0
LINE
  5
340
330
1E
100
AcDbEntity
  8
SJC
100
AcDbLine
 10
2977.357133368301
 20
4393.315541193532
 30
0.0
 11
2977.357133368301
 21
4396.315419078532
 31
0.0
  0
LINE
  5
341
330
1E
100
AcDbEntity
  8
SJC
100
AcDbLine
 10
2977.357133368301
 20
4398.315541119033
 30
0.0
 11
2978.3574995643
 21
4397.315174923033
 31
0.0
  0
LINE
  5
342
330
1E
100
AcDbEntity
  8
SJC
100
AcDbLine
 10
2977.357133368301
 20
4398.315541119033
 30
0.0
 11
2977.357133368301
 21
4407.598988246332
 31
0.0
  0
LINE
  5
343
330
1E
100
AcDbEntity
  8
SJC
100
AcDbLine
 10
2977.357133368301
 20
4396.315419078532
 30
0.0
 11
2978.3574995643
 21
4397.315174923033
 31
0.0
  0
LINE
  5
344
330
1E
100
AcDbEntity
  8
SJC
100
AcDbLine
 10
2977.357133368301
 20
4393.315541193532
 30
0.0
 11
2978.3574995643
 21
4392.315174997533
 31
0.0
  0
LINE
  5
345
330
1E
100
AcDbEntity
  8
SJC
100
AcDbLine
 10
2977.357133368301
 20
4391.315419153033
 30
0.0
 11
2978.3574995643
 21
4392.315174997533
 31
0.0
  0
LINE
  5
346
330
1E
100
AcDbEntity
  8
SJC
100
AcDbLine
 10
2978.3574995643
 20
4397.315174923033
 30
0.0
 11
3065.3570099867
 21
4397.315174923033
 31
0.0
  0
LINE
  5
347
330
1E
100
AcDbEntity
  8
SJC
100
AcDbLine
 10
2978.3574995643
 20
4392.315174997533
 30
0.0
 11
3065.3570099867
 21
4392.315174997533
 31
0.0
  0
LINE
  5
348
330
1E
100
AcDbEntity
  8
SJC
100
AcDbLine
 10
2975.8571944258
 20
4386.315419227532
 30
0.0
 11
3067.857315125201
 21
4386.315419227532
 31
0.0
  0
LINE
  5
349
330
1E
100
AcDbEntity
  8
SJC
100
AcDbLine
 10
2975.8571944258
 20
4386.315419227532
 30
0.0
 11
2975.8571944258
 21
4373.315541491533
 31
0.0
  0
LINE
  5
34A
330
1E
100
AcDbEntity
  8
SJC
100
AcDbLine
 10
2977.357133368301
 20
4388.315541268032
 30
0.0
 11
2975.8571944258
 21
4386.315419227532
 31
0.0
  0
ARC
  5
34B
330
1E
100
AcDbEntity
  8
SJC
100
AcDbCircle
 10
3056.3573763606
 20
4407.598228245532
 30
0.0
 40
9.999999851
100
AcDbArc
 50
0.0043544842
 51
16.6019230129
  0
LINE
  5
34C
330
1E
100
AcDbEntity
  8
SJC
100
AcDbLine
 10
3066.3573761827
 20
4398.315541119033
 30
0.0
 11
3066.3573761827
 21
4407.598988246332
 31
0.0
  0
LINE
  5
34D
330
1E
100
AcDbEntity
  8
SJC
100
AcDbLine
 10
3066.3573761827
 20
4393.315541193532
 30
0.0
 11
3066.3573761827
 21
4396.315419078532
 31
0.0
  0
LINE
  5
34E
330
1E
100
AcDbEntity
  8
SJC
100
AcDbLine
 10
3066.3573761827
 20
4388.315541268032
 30
0.0
 11
3066.3573761827
 21
4391.315419153033
 31
0.0
  0
LINE
  5
34F
330
1E
100
AcDbEntity
  8
SJC
100
AcDbLine
 10
3066.3573761827
 20
4398.315541119033
 30
0.0
 11
3065.3570099867
 21
4397.315174923033
 31
0.0
  0
LINE
  5
350
330
1E
100
AcDbEntity
  8
SJC
100
AcDbLine
 10
3066.3573761827
 20
4396.315419078532
 30
0.0
 11
3065.3570099867
 21
4397.315174923033
 31
0.0
  0
LINE
  5
351
330
1E
100
AcDbEntity
  8
SJC
100
AcDbLine
 10
3066.3573761827
 20
4393.315541193532
 30
0.0
 11
3065.3570099867
 21
4392.315174997533
 31
0.0
  0
LINE
  5
352
330
1E
100
AcDbEntity
  8
SJC
100
AcDbLine
 10
3066.3573761827
 20
4391.315419153033
 30
0.0
 11
3065.3570099867
 21
4392.315174997533
 31
0.0
  0
LINE
  5
353
330
1E
100
AcDbEntity
  8
SJC
100
AcDbLine
 10
3067.857315125201
 20
4386.315419227532
 30
0.0
 11
3067.857315125201
 21
4373.315541491533
 31
0.0
  0
LINE
  5
354
330
1E
100
AcDbEntity
  8
SJC
100
AcDbLine
 10
3066.3573761827
 20
4388.315541268032
 30
0.0
 11
3067.857315125201
 21
4386.315419227532
 31
0.0
  0
LINE
  5
355
330
1E
100
AcDbEntity
  8
SJC
100
AcDbLine
 10
2975.8571944258
 20
4373.315541491533
 30
0.0
 11
3067.857315125201
 21
4373.315541491533
 31
0.0
  0
LINE
  5
356
330
1E
100
AcDbEntity
  8
SJC
100
AcDbLine
 10
5066.4073952078
 20
4343.315541938633
 30
0.0
 11
5066.4073952078
 21
4373.315541491533
 31
0.0
  0
LINE
  5
357
330
1E
100
AcDbEntity
  8
SJC
100
AcDbLine
 10
4977.3070547386
 20
4343.315541938633
 30
0.0
 11
4977.3070547386
 21
4373.315541491533
 31
0.0
  0
ARC
  5
358
330
1E
100
AcDbEntity
  8
SJC
100
AcDbCircle
 10
4987.3571033881
 20
4407.598228245532
 30
0.0
 40
9.999999851
100
AcDbArc
 50
163.3980769871
 51
179.9956455159
  0
ARC
  5
359
330
1E
100
AcDbEntity
  8
SJC
100
AcDbCircle
 10
5021.857224973199
 20
4397.315159380832
 30
0.0
 40
45.9999983609
100
AcDbArc
 50
16.598192998
 51
163.401807002
  0
LINE
  5
35A
330
1E
100
AcDbEntity
  8
SJC
100
AcDbLine
 10
4977.357103565999
 20
4388.315541268032
 30
0.0
 11
5066.357346380399
 21
4388.315541268032
 31
0.0
  0
LINE
  5
35B
330
1E
100
AcDbEntity
  8
SJC
100
AcDbLine
 10
4977.357103565999
 20
4388.315541268032
 30
0.0
 11
4977.357103565999
 21
4391.315419153033
 31
0.0
  0
LINE
  5
35C
330
1E
100
AcDbEntity
  8
SJC
100
AcDbLine
 10
4977.357103565999
 20
4393.315541193532
 30
0.0
 11
4977.357103565999
 21
4396.315419078532
 31
0.0
  0
LINE
  5
35D
330
1E
100
AcDbEntity
  8
SJC
100
AcDbLine
 10
4977.357103565999
 20
4398.315541119033
 30
0.0
 11
4978.357469761999
 21
4397.315174923033
 31
0.0
  0
LINE
  5
35E
330
1E
100
AcDbEntity
  8
SJC
100
AcDbLine
 10
4977.357103565999
 20
4398.315541119033
 30
0.0
 11
4977.357103565999
 21
4407.598988246332
 31
0.0
  0
LINE
  5
35F
330
1E
100
AcDbEntity
  8
SJC
100
AcDbLine
 10
4977.357103565999
 20
4396.315419078532
 30
0.0
 11
4978.357469761999
 21
4397.315174923033
 31
0.0
  0
LINE
  5
360
330
1E
100
AcDbEntity
  8
SJC
100
AcDbLine
 10
4977.357103565999
 20
4393.315541193532
 30
0.0
 11
4978.357469761999
 21
4392.315174997533
 31
0.0
  0
LINE
  5
361
330
1E
100
AcDbEntity
  8
SJC
100
AcDbLine
 10
4977.357103565999
 20
4391.315419153033
 30
0.0
 11
4978.357469761999
 21
4392.315174997533
 31
0.0
  0
LINE
  5
362
330
1E
100
AcDbEntity
  8
SJC
100
AcDbLine
 10
4978.357469761999
 20
4397.315174923033
 30
0.0
 11
5065.3569801844
 21
4397.315174923033
 31
0.0
  0
LINE
  5
363
330
1E
100
AcDbEntity
  8
SJC
100
AcDbLine
 10
4978.357469761999
 20
4392.315174997533
 30
0.0
 11
5065.3569801844
 21
4392.315174997533
 31
0.0
  0
LINE
  5
364
330
1E
100
AcDbEntity
  8
SJC
100
AcDbLine
 10
4975.8568594477
 20
4386.315419227532
 30
0.0
 11
5067.8575904987
 21
4386.315419227532
 31
0.0
  0
LINE
  5
365
330
1E
100
AcDbEntity
  8
SJC
100
AcDbLine
 10
4975.8568594477
 20
4386.315419227532
 30
0.0
 11
4975.8568594477
 21
4373.315541491533
 31
0.0
  0
LINE
  5
366
330
1E
100
AcDbEntity
  8
SJC
100
AcDbLine
 10
4977.357103565999
 20
4388.315541268032
 30
0.0
 11
4975.8568594477
 21
4386.315419227532
 31
0.0
  0
ARC
  5
367
330
1E
100
AcDbEntity
  8
SJC
100
AcDbCircle
 10
5056.3573465583
 20
4407.598228245532
 30
0.0
 40
9.999999851
100
AcDbArc
 50
0.0043544842
 51
16.6019230129
  0
LINE
  5
368
330
1E
100
AcDbEntity
  8
SJC
100
AcDbLine
 10
5066.357346380399
 20
4398.315541119033
 30
0.0
 11
5066.357346380399
 21
4407.598988246332
 31
0.0
  0
LINE
  5
369
330
1E
100
AcDbEntity
  8
SJC
100
AcDbLine
 10
5066.357346380399
 20
4393.315541193532
 30
0.0
 11
5066.357346380399
 21
4396.315419078532
 31
0.0
  0
LINE
  5
36A
330
1E
100
AcDbEntity
  8
SJC
100
AcDbLine
 10
5066.357346380399
 20
4388.315541268032
 30
0.0
 11
5066.357346380399
 21
4391.315419153033
 31
0.0
  0
LINE
  5
36B
330
1E
100
AcDbEntity
  8
SJC
100
AcDbLine
 10
5066.357346380399
 20
4398.315541119033
 30
0.0
 11
5065.3569801844
 21
4397.315174923033
 31
0.0
  0
LINE
  5
36C
330
1E
100
AcDbEntity
  8
SJC
100
AcDbLine
 10
5066.357346380399
 20
4396.315419078532
 30
0.0
 11
5065.3569801844
 21
4397.315174923033
 31
0.0
  0
LINE
  5
36D
330
1E
100
AcDbEntity
  8
SJC
100
AcDbLine
 10
5066.357346380399
 20
4393.315541193532
 30
0.0
 11
5065.3569801844
 21
4392.315174997533
 31
0.0
  0
LINE
  5
36E
330
1E
100
AcDbEntity
  8
SJC
100
AcDbLine
 10
5066.357346380399
 20
4391.315419153033
 30
0.0
 11
5065.3569801844
 21
4392.315174997533
 31
0.0
  0
LINE
  5
36F
330
1E
100
AcDbEntity
  8
SJC
100
AcDbLine
 10
5067.8575904987
 20
4386.315419227532
 30
0.0
 11
5067.8575904987
 21
4373.315541491533
 31
0.0
  0
LINE
  5
370
330
1E
100
AcDbEntity
  8
SJC
100
AcDbLine
 10
5066.357346380399
 20
4388.315541268032
 30
0.0
 11
5067.8575904987
 21
4386.315419227532
 31
0.0
  0
LINE
  5
371
330
1E
100
AcDbEntity
  8
SJC
100
AcDbLine
 10
4975.8568594477
 20
4373.315541491533
 30
0.0
 11
5067.8575904987
 21
4373.315541491533
 31
0.0
  0
LINE
  5
372
330
1E
100
AcDbEntity
  8
SJC
100
AcDbLine
 10
6077.307038347299
 20
3013.315561757133
 30
0.0
 11
6077.307038347299
 21
4373.315541491533
 31
0.0
1001
ACAD
1000
ASC_BOUNDS
1002
{
1070
    19
1005
AEE
1005
AEA
1005
AE9
1002
}
  0
ARC
  5
373
330
1E
100
AcDbEntity
  8
SJC
100
AcDbCircle
 10
6087.3570869968
 20
4407.598228245532
 30
0.0
 40
9.999999851
100
AcDbArc
 50
163.3980769871
 51
179.9956455158
  0
ARC
  5
374
330
1E
100
AcDbEntity
  8
SJC
100
AcDbCircle
 10
6121.8572085819
 20
4397.315159380832
 30
0.0
 40
45.9999983609
100
AcDbArc
 50
16.598192998
 51
163.401807002
  0
LINE
  5
375
330
1E
100
AcDbEntity
  8
SJC
100
AcDbLine
 10
6077.3570871747
 20
4388.315541268032
 30
0.0
 11
6166.3573299891
 21
4388.315541268032
 31
0.0
  0
LINE
  5
376
330
1E
100
AcDbEntity
  8
SJC
100
AcDbLine
 10
6077.3570871747
 20
4388.315541268032
 30
0.0
 11
6077.3570871747
 21
4391.315419153033
 31
0.0
  0
LINE
  5
377
330
1E
100
AcDbEntity
  8
SJC
100
AcDbLine
 10
6077.3570871747
 20
4393.315541193532
 30
0.0
 11
6077.3570871747
 21
4396.315419078532
 31
0.0
  0
LINE
  5
378
330
1E
100
AcDbEntity
  8
SJC
100
AcDbLine
 10
6077.3570871747
 20
4398.315541119033
 30
0.0
 11
6078.357453370699
 21
4397.315174923033
 31
0.0
  0
LINE
  5
379
330
1E
100
AcDbEntity
  8
SJC
100
AcDbLine
 10
6077.3570871747
 20
4398.315541119033
 30
0.0
 11
6077.3570871747
 21
4407.598988246332
 31
0.0
  0
LINE
  5
37A
330
1E
100
AcDbEntity
  8
SJC
100
AcDbLine
 10
6077.3570871747
 20
4396.315419078532
 30
0.0
 11
6078.357453370699
 21
4397.315174923033
 31
0.0
  0
LINE
  5
37B
330
1E
100
AcDbEntity
  8
SJC
100
AcDbLine
 10
6077.3570871747
 20
4393.315541193532
 30
0.0
 11
6078.357453370699
 21
4392.315174997533
 31
0.0
  0
LINE
  5
37C
330
1E
100
AcDbEntity
  8
SJC
100
AcDbLine
 10
6077.3570871747
 20
4391.315419153033
 30
0.0
 11
6078.357453370699
 21
4392.315174997533
 31
0.0
  0
LINE
  5
37D
330
1E
100
AcDbEntity
  8
SJC
100
AcDbLine
 10
6078.357453370699
 20
4397.315174923033
 30
0.0
 11
6165.356963793101
 21
4397.315174923033
 31
0.0
  0
LINE
  5
37E
330
1E
100
AcDbEntity
  8
SJC
100
AcDbLine
 10
6078.357453370699
 20
4392.315174997533
 30
0.0
 11
6165.356963793101
 21
4392.315174997533
 31
0.0
  0
LINE
  5
37F
330
1E
100
AcDbEntity
  8
SJC
100
AcDbLine
 10
6075.8568430564
 20
4386.315419227532
 30
0.0
 11
6167.8575741074
 21
4386.315419227532
 31
0.0
  0
LINE
  5
380
330
1E
100
AcDbEntity
  8
SJC
100
AcDbLine
 10
6075.8568430564
 20
4386.315419227532
 30
0.0
 11
6075.8568430564
 21
4373.315541491533
 31
0.0
  0
LINE
  5
381
330
1E
100
AcDbEntity
  8
SJC
100
AcDbLine
 10
6077.3570871747
 20
4388.315541268032
 30
0.0
 11
6075.8568430564
 21
4386.315419227532
 31
0.0
  0
ARC
  5
382
330
1E
100
AcDbEntity
  8
SJC
100
AcDbCircle
 10
6156.357330167
 20
4407.598228245532
 30
0.0
 40
9.999999851
100
AcDbArc
 50
0.0043544842
 51
16.6019230129
  0
LINE
  5
383
330
1E
100
AcDbEntity
  8
SJC
100
AcDbLine
 10
6166.3573299891
 20
4398.315541119033
 30
0.0
 11
6166.3573299891
 21
4407.598988246332
 31
0.0
  0
LINE
  5
384
330
1E
100
AcDbEntity
  8
SJC
100
AcDbLine
 10
6166.3573299891
 20
4393.315541193532
 30
0.0
 11
6166.3573299891
 21
4396.315419078532
 31
0.0
  0
LINE
  5
385
330
1E
100
AcDbEntity
  8
SJC
100
AcDbLine
 10
6166.3573299891
 20
4388.315541268032
 30
0.0
 11
6166.3573299891
 21
4391.315419153033
 31
0.0
  0
LINE
  5
386
330
1E
100
AcDbEntity
  8
SJC
100
AcDbLine
 10
6166.3573299891
 20
4398.315541119033
 30
0.0
 11
6165.356963793101
 21
4397.315174923033
 31
0.0
  0
LINE
  5
387
330
1E
100
AcDbEntity
  8
SJC
100
AcDbLine
 10
6166.3573299891
 20
4396.315419078532
 30
0.0
 11
6165.356963793101
 21
4397.315174923033
 31
0.0
  0
LINE
  5
388
330
1E
100
AcDbEntity
  8
SJC
100
AcDbLine
 10
6166.3573299891
 20
4393.315541193532
 30
0.0
 11
6165.356963793101
 21
4392.315174997533
 31
0.0
  0
LINE
  5
389
330
1E
100
AcDbEntity
  8
SJC
100
AcDbLine
 10
6166.3573299891
 20
4391.315419153033
 30
0.0
 11
6165.356963793101
 21
4392.315174997533
 31
0.0
  0
LINE
  5
38A
330
1E
100
AcDbEntity
  8
SJC
100
AcDbLine
 10
6167.8575741074
 20
4386.315419227532
 30
0.0
 11
6167.8575741074
 21
4373.315541491533
 31
0.0
  0
LINE
  5
38B
330
1E
100
AcDbEntity
  8
SJC
100
AcDbLine
 10
6166.3573299891
 20
4388.315541268032
 30
0.0
 11
6167.8575741074
 21
4386.315419227532
 31
0.0
  0
LINE
  5
38C
330
1E
100
AcDbEntity
  8
SJC
100
AcDbLine
 10
6075.8568430564
 20
4373.315541491533
 30
0.0
 11
6167.8575741074
 21
4373.315541491533
 31
0.0
  0
LINE
  5
38D
330
1E
100
AcDbEntity
  8
SJC
100
AcDbLine
 10
6166.407378816501
 20
3013.315561757133
 30
0.0
 11
6166.407378816501
 21
4373.315541491533
 31
0.0
1001
ACAD
1000
ASC_BOUNDS
1002
{
1070
    19
1005
AEE
1005
AEA
1005
AE9
1002
}
  0
CIRCLE
  5
38E
330
1E
100
AcDbEntity
  8
SJC
100
AcDbCircle
 10
6121.8572085819
 20
4313.314932034132
 30
0.0
 40
29.999999553
  0
LINE
  5
38F
330
1E
100
AcDbEntity
  8
SJC
100
AcDbLine
 10
4477.814874681599
 20
1745.698393146132
 30
0.0
 11
4642.022025555
 21
1701.699675540032
 31
0.0
  0
LINE
  5
390
330
1E
100
AcDbEntity
  8
SJC
100
AcDbLine
 10
4470.0493718676
 20
1716.720427269333
 30
0.0
 11
4634.2571330926
 21
1672.721709663233
 31
0.0
  0
ARC
  5
391
330
1E
100
AcDbEntity
  8
SJC
100
AcDbCircle
 10
4638.1395793238
 20
1687.210692601632
 30
0.0
 40
15.0001338436
100
AcDbArc
 50
254.9995020838999
 51
74.9995020839
  0
ARC
  5
392
330
1E
100
AcDbEntity
  8
SJC
100
AcDbCircle
 10
4473.9321232746
 20
1731.209410207733
 30
0.0
 40
15.0002128344
100
AcDbArc
 50
74.9983761367
 51
254.9983761367
  0
LINE
  5
393
330
1E
100
AcDbEntity
  8
SJC
100
AcDbLine
 10
4904.717334140599
 20
1600.251617969732
 30
0.0
 11
4740.5101832671
 21
1644.251098515233
 31
0.0
  0
ARC
  5
394
330
1E
100
AcDbEntity
  8
SJC
100
AcDbCircle
 10
4744.3923243226
 20
1658.740081453633
 30
0.0
 40
15.0000548587
100
AcDbArc
 50
75.000628043
 51
255.000628043
  0
LINE
  5
395
330
1E
100
AcDbEntity
  8
SJC
100
AcDbLine
 10
4912.482226603
 20
1629.229583846433
 30
0.0
 11
4748.274465378
 21
1673.229064392033
 31
0.0
  0
ARC
  5
396
330
1E
100
AcDbEntity
  8
SJC
100
AcDbCircle
 10
4908.5997803718
 20
1614.740600908132
 30
0.0
 40
15.0001338436
100
AcDbArc
 50
254.9995020838999
 51
74.9995020839
  0
ARC
  5
397
330
1E
100
AcDbEntity
  8
SJC
100
AcDbCircle
 10
4908.5989279418
 20
1614.741438426833
 30
0.0
 40
49.9999992549
100
AcDbArc
 50
182.4583964233
 51
255.000617495
  0
ARC
  5
398
330
1E
100
AcDbEntity
  8
SJC
100
AcDbCircle
 10
4908.5993173305
 20
1614.741611679633
 30
0.0
 40
19.999999702
100
AcDbArc
 50
213.593433228
 51
255.0013415726
  0
ARC
  5
399
330
1E
100
AcDbEntity
  8
SJC
100
AcDbCircle
 10
4908.5994990903
 20
1614.740552513332
 30
0.0
 40
19.999999702
100
AcDbArc
 50
74.99913402689999
 51
116.4072886241
  0
ARC
  5
39A
330
1E
100
AcDbEntity
  8
SJC
100
AcDbCircle
 10
4908.599684734199
 20
1614.740616816932
 30
0.0
 40
49.9999992549
100
AcDbArc
 50
75.0002168501
 51
147.5419602829999
  0
ARC
  5
39B
330
1E
100
AcDbEntity
  8
SJC
100
AcDbCircle
 10
4469.965156070499
 20
1731.366582041932
 30
0.0
 40
49.9999992549
100
AcDbArc
 50
255.0003152216
 51
327.5421373338
  0
ARC
  5
39C
330
1E
100
AcDbEntity
  8
SJC
100
AcDbCircle
 10
4469.9664314075
 20
1731.366517895932
 30
0.0
 40
19.999999702
100
AcDbArc
 50
254.9979582942
 51
296.4079728912
  0
ARC
  5
39D
330
1E
100
AcDbEntity
  8
SJC
100
AcDbCircle
 10
4469.9657324286
 20
1731.366294133432
 30
0.0
 40
19.999999702
100
AcDbArc
 50
33.5909255054
 51
75.0017153678
  0
ARC
  5
39E
330
1E
100
AcDbEntity
  8
SJC
100
AcDbCircle
 10
4469.9659560277
 20
1731.366511805433
 30
0.0
 40
49.9999992549
100
AcDbArc
 50
2.457334122599999
 51
75.0005703317
  0
ARC
  5
39F
330
1E
100
AcDbEntity
  8
SJC
100
AcDbCircle
 10
4643.8333073629
 20
1684.779115512232
 30
0.0
 40
49.9999992549
100
AcDbArc
 50
182.458383715
 51
254.9998928476
  0
LINE
  5
3A0
330
1E
100
AcDbEntity
  8
SJC
100
AcDbLine
 10
4727.4846707659
 20
1610.600891497133
 30
0.0
 11
4630.8922649787
 21
1636.482849119232
 31
0.0
  0
LINE
  5
3A1
330
1E
100
AcDbEntity
  8
SJC
100
AcDbLine
 10
4735.2489528768
 20
1639.578857373933
 30
0.0
 11
4638.655936738
 21
1665.460814996033
 31
0.0
  0
ARC
  5
3A2
330
1E
100
AcDbEntity
  8
SJC
100
AcDbCircle
 10
4643.8318652212
 20
1684.779452432932
 30
0.0
 40
19.999999702
100
AcDbArc
 50
213.593433228
 51
255.0013415726
  0
LINE
  5
3A3
330
1E
100
AcDbEntity
  8
SJC
100
AcDbLine
 10
4745.6017359256
 20
1678.215483995433
 30
0.0
 11
4649.0093301384
 21
1704.097441617532
 31
0.0
  0
ARC
  5
3A4
330
1E
100
AcDbEntity
  8
SJC
100
AcDbCircle
 10
4643.8322581623
 20
1684.779110586332
 30
0.0
 40
19.999999702
100
AcDbArc
 50
74.9979501408
 51
116.4060118693
  0
ARC
  5
3A5
330
1E
100
AcDbEntity
  8
SJC
100
AcDbCircle
 10
4643.8324044181
 20
1684.779490609132
 30
0.0
 40
49.9999992549
100
AcDbArc
 50
74.9996965711
 51
147.5423270954
  0
LINE
  5
3A6
330
1E
100
AcDbEntity
  8
SJC
100
AcDbLine
 10
4753.3666283881
 20
1707.193755048033
 30
0.0
 11
4656.773612249299
 21
1733.075712670133
 31
0.0
  0
ARC
  5
3A7
330
1E
100
AcDbEntity
  8
SJC
100
AcDbCircle
 10
4740.425539624399
 20
1658.897501082433
 30
0.0
 40
49.9999992549
100
AcDbArc
 50
2.457144364199999
 51
74.9998378258
  0
ARC
  5
3A8
330
1E
100
AcDbEntity
  8
SJC
100
AcDbCircle
 10
4740.425314280999
 20
1658.896978695132
 30
0.0
 40
19.999999702
100
AcDbArc
 50
33.5908797112
 51
74.999878935
  0
ARC
  5
3A9
330
1E
100
AcDbEntity
  8
SJC
100
AcDbCircle
 10
4740.4256256827
 20
1658.897295373333
 30
0.0
 40
19.999999702
100
AcDbArc
 50
254.9991340268999
 51
296.4072886241
  0
ARC
  5
3AA
330
1E
100
AcDbEntity
  8
SJC
100
AcDbCircle
 10
4740.425961516399
 20
1658.897091339432
 30
0.0
 40
49.9999992549
100
AcDbArc
 50
254.9995982006
 51
327.542150046
  0
ARC
  5
3AB
330
1E
100
AcDbEntity
  8
SJC
100
AcDbCircle
 10
3707.057592465601
 20
1731.209410207733
 30
0.0
 40
15.0001733383
100
AcDbArc
 50
285.0010608912
 51
105.0010608912
  0
ARC
  5
3AC
330
1E
100
AcDbEntity
  8
SJC
100
AcDbCircle
 10
3711.0244070818
 20
1731.366582041932
 30
0.0
 40
49.9999992549
100
AcDbArc
 50
212.4578626662
 51
284.9996847784
  0
ARC
  5
3AD
330
1E
100
AcDbEntity
  8
SJC
100
AcDbCircle
 10
3711.0234369207
 20
1731.366517895932
 30
0.0
 40
19.999999702
100
AcDbArc
 50
243.5920271088
 51
285.0020417058
  0
ARC
  5
3AE
330
1E
100
AcDbEntity
  8
SJC
100
AcDbCircle
 10
3711.0241358995
 20
1731.366294133432
 30
0.0
 40
19.999999702
100
AcDbArc
 50
104.9982846322
 51
146.4090744946
  0
ARC
  5
3AF
330
1E
100
AcDbEntity
  8
SJC
100
AcDbCircle
 10
3711.023915850301
 20
1731.366594526033
 30
0.0
 40
49.9999992549
100
AcDbArc
 50
104.999795921
 51
177.5427607554
  0
ARC
  5
3B0
330
1E
100
AcDbEntity
  8
SJC
100
AcDbCircle
 10
3716.5721151486
 20
1758.123701188533
 30
0.0
 40
209.1727988545
100
AcDbArc
 50
316.2791957977
 51
43.72080420229999
  0
ARC
  5
3B1
330
1E
100
AcDbEntity
  8
SJC
100
AcDbCircle
 10
3907.7432926515
 20
1758.123701188533
 30
0.0
 40
149.9999977648
100
AcDbArc
 50
105.465455064
 51
254.534544936
  0
CIRCLE
  5
3B2
330
1E
100
AcDbEntity
  8
SJC
100
AcDbCircle
 10
3807.7449994125
 20
1758.123624894532
 30
0.0
 40
12.4999998137
  0
LINE
  5
3B3
330
1E
100
AcDbEntity
  8
SJC
100
AcDbLine
 10
3716.2005061477
 20
1712.048186128033
 30
0.0
 11
3761.6268360372
 21
1724.220121981832
 31
0.0
  0
LINE
  5
3B4
330
1E
100
AcDbEntity
  8
SJC
100
AcDbLine
 10
3723.9650934344
 20
1683.070220251233
 30
0.0
 11
3771.323796342
 21
1695.760039398033
 31
0.0
  0
LINE
  5
3B5
330
1E
100
AcDbEntity
  8
SJC
100
AcDbLine
 10
3705.8483334504
 20
1750.684965337432
 30
0.0
 11
3757.8862965422
 21
1764.629056926533
 31
0.0
  0
LINE
  5
3B6
330
1E
100
AcDbEntity
  8
SJC
100
AcDbLine
 10
3698.0831358122
 20
1779.662931214232
 30
0.0
 11
3762.8765308428
 21
1797.024381150832
 31
0.0
  0
ARC
  5
3B7
330
1E
100
AcDbEntity
  8
SJC
100
AcDbCircle
 10
4273.2465756767
 20
1758.123701188533
 30
0.0
 40
149.9999977648
100
AcDbArc
 50
285.465455064
 51
74.534544936
  0
ARC
  5
3B8
330
1E
100
AcDbEntity
  8
SJC
100
AcDbCircle
 10
4464.4177531795
 20
1758.123701188533
 30
0.0
 40
209.1727988545
100
AcDbArc
 50
136.2791957977
 51
223.7208042023
  0
LINE
  5
3B9
330
1E
100
AcDbEntity
  8
SJC
100
AcDbLine
 10
4482.9064273401
 20
1779.662931214232
 30
0.0
 11
4418.1133374853
 21
1797.024381150832
 31
0.0
  0
LINE
  5
3BA
330
1E
100
AcDbEntity
  8
SJC
100
AcDbLine
 10
4475.1415348777
 20
1750.684965337432
 30
0.0
 11
4423.1035717859
 21
1764.628446574933
 31
0.0
  0
LINE
  5
3BB
330
1E
100
AcDbEntity
  8
SJC
100
AcDbLine
 10
4464.7893621804
 20
1712.048186128033
 30
0.0
 11
4419.3627271151
 21
1724.220121981832
 31
0.0
  0
LINE
  5
3BC
330
1E
100
AcDbEntity
  8
SJC
100
AcDbLine
 10
4457.024469717999
 20
1683.070220251233
 30
0.0
 11
4409.6660719862
 21
1695.760039398033
 31
0.0
  0
LINE
  5
3BD
330
1E
100
AcDbEntity
  8
SJC
100
AcDbLine
 10
3867.7446933427
 20
1902.692409361432
 30
0.0
 11
3867.7446933427
 21
2056.624291833233
 31
0.0
  0
LINE
  5
3BE
330
1E
100
AcDbEntity
  8
SJC
100
AcDbLine
 10
4313.2451749855
 20
1902.692409361432
 30
0.0
 11
4313.2451749855
 21
2056.624291833233
 31
0.0
  0
LINE
  5
3BF
330
1E
100
AcDbEntity
  8
SJC
100
AcDbLine
 10
4977.4462148928
 20
1544.530030665233
 30
0.0
 11
4895.6584963849
 21
1566.445008366033
 31
0.0
  0
LINE
  5
3C0
330
1E
100
AcDbEntity
  8
SJC
100
AcDbLine
 10
4985.2104970036
 20
1573.508301717833
 30
0.0
 11
4903.4233888474
 21
1595.422974242832
 31
0.0
  0
LINE
  5
3C1
330
1E
100
AcDbEntity
  8
SJC
100
AcDbLine
 10
4995.5632800525
 20
1612.144165399932
 30
0.0
 11
4913.7761718962
 21
1634.058990512832
 31
0.0
  0
LINE
  5
3C2
330
1E
100
AcDbEntity
  8
SJC
100
AcDbLine
 10
5003.3281725149
 20
1641.122131276732
 30
0.0
 11
4921.5404540071
 21
1663.036956389633
 31
0.0
  0
LINE
  5
3C3
330
1E
100
AcDbEntity
  8
SJC
100
AcDbLine
 10
3703.174993646501
 20
1745.698393146132
 30
0.0
 11
3622.982123747701
 21
1724.210966708532
 31
0.0
  0
LINE
  5
3C4
330
1E
100
AcDbEntity
  8
SJC
100
AcDbLine
 10
3710.9401912847
 20
1716.720427269333
 30
0.0
 11
3630.746711034401
 21
1695.232695655933
 31
0.0
  0
LINE
  5
3C5
330
1E
100
AcDbEntity
  8
SJC
100
AcDbLine
 10
3867.7446933427
 20
1525.101625193032
 30
0.0
 11
3867.7446933427
 21
1613.554993015632
 31
0.0
  0
LINE
  5
3C6
330
1E
100
AcDbEntity
  8
SJC
100
AcDbLine
 10
4313.2451749855
 20
1525.101625193032
 30
0.0
 11
4313.2451749855
 21
1613.554993015632
 31
0.0
  0
ARC
  5
3C7
330
1E
100
AcDbEntity
  8
SJC
100
AcDbCircle
 10
3979.119813753401
 20
1700.777051311233
 30
0.0
 40
208.0054633617
100
AcDbArc
 50
237.6260237668001
 51
302.3739762332
  0
ARC
  5
3C8
330
1E
100
AcDbEntity
  8
SJC
100
AcDbCircle
 10
4201.8700545748
 20
1700.777051311233
 30
0.0
 40
208.0054633617
100
AcDbArc
 50
237.6260237668001
 51
302.3739762332
  0
ARC
  5
3C9
330
1E
100
AcDbEntity
  8
SJC
100
AcDbCircle
 10
4201.8700545748
 20
1349.426199074832
 30
0.0
 40
208.0054633617
100
AcDbArc
 50
57.62602376680001
 51
122.3739762332
  0
LINE
  5
3CA
330
1E
100
AcDbEntity
  8
SJC
100
AcDbLine
 10
3610.170539466
 20
1772.024686699132
 30
0.0
 11
3638.7072211697
 21
1665.523986381833
 31
0.0
  0
LINE
  5
3CB
330
1E
100
AcDbEntity
  8
SJC
100
AcDbLine
 10
5013.8018051713
 20
1680.210723223532
 30
0.0
 11
4968.114549992801
 21
1509.704744318933
 31
0.0
  0
LINE
  5
3CC
330
1E
100
AcDbEntity
  8
HASEN
100
AcDbLine
 10
4418.1133374853
 20
1797.024381150832
 30
0.0
 11
4386.3140215529
 21
1805.545194012133
 31
0.0
  0
LINE
  5
3CD
330
1E
100
AcDbEntity
  8
HASEN
100
AcDbLine
 10
4409.6660719862
 20
1695.760039398033
 30
0.0
 11
4360.432674282299
 21
1708.952788224933
 31
0.0
  0
LINE
  5
3CE
330
1E
100
AcDbEntity
  8
HASEN
100
AcDbLine
 10
4423.1035717859
 20
1764.628446574933
 30
0.0
 11
4378.549739441999
 21
1776.566617783833
 31
0.0
  0
LINE
  5
3CF
330
1E
100
AcDbEntity
  8
HASEN
100
AcDbLine
 10
4419.3627271151
 20
1724.220121981832
 30
0.0
 11
4368.1963460416
 21
1737.929838574333
 31
0.0
  0
CIRCLE
  5
3D0
330
1E
100
AcDbEntity
  8
HASEN
100
AcDbCircle
 10
4373.244563739799
 20
1758.123624894532
 30
0.0
 40
12.4999998137
  0
ARC
  5
3D1
330
1E
100
AcDbEntity
  8
HASEN
100
AcDbCircle
 10
4373.373042741799
 20
1757.248685942732
 30
0.0
 40
20.000106529
100
AcDbArc
 50
74.9991451672
 51
254.9991451672
  0
ARC
  5
3D2
330
1E
100
AcDbEntity
  8
HASEN
100
AcDbCircle
 10
4373.3733479176
 20
1757.248685942732
 30
0.0
 40
50.0001372581
100
AcDbArc
 50
75.000372681
 51
255.0003726809999
  0
LINE
  5
3D3
330
1E
100
AcDbEntity
  8
HASEN
100
AcDbLine
 10
4343.245174538401
 20
1833.192288326732
 30
0.0
 11
4403.1090652479
 21
1833.192288326732
 31
0.0
  0
LINE
  5
3D4
330
1E
100
AcDbEntity
  8
HASEN
100
AcDbLine
 10
4343.245174538401
 20
1883.192287581633
 30
0.0
 11
4343.245174538401
 21
1833.192288326732
 31
0.0
  0
LINE
  5
3D5
330
1E
100
AcDbEntity
  8
HASEN
100
AcDbLine
 10
4343.245174538401
 20
1883.192287581633
 30
0.0
 11
4356.0570639959
 21
1883.192287581633
 31
0.0
  0
LINE
  5
3D6
330
1E
100
AcDbEntity
  8
HASEN
100
AcDbLine
 10
4330.2452968024
 20
1841.942288196333
 30
0.0
 11
4330.2452968024
 21
1874.442287712033
 31
0.0
  0
LINE
  5
3D7
330
1E
100
AcDbEntity
  8
HASEN
100
AcDbLine
 10
4272.7730686549
 20
1841.942288196333
 30
0.0
 11
4330.2452968024
 21
1841.942288196333
 31
0.0
  0
LINE
  5
3D8
330
1E
100
AcDbEntity
  8
HASEN
100
AcDbLine
 10
4272.7730686549
 20
1874.442287712033
 30
0.0
 11
4330.2452968024
 21
1874.442287712033
 31
0.0
  0
LINE
  5
3D9
330
1E
100
AcDbEntity
  8
HASEN
100
AcDbLine
 10
4330.2452968024
 20
1874.442287712033
 30
0.0
 11
4343.245174538401
 21
1883.192287581633
 31
0.0
  0
LINE
  5
3DA
330
1E
100
AcDbEntity
  8
HASEN
100
AcDbLine
 10
4330.2452968024
 20
1841.942288196333
 30
0.0
 11
4343.245174538401
 21
1833.192288326732
 31
0.0
  0
LINE
  5
3DB
330
1E
100
AcDbEntity
  8
HASEN
100
AcDbLine
 10
4272.7730686549
 20
1841.942288196333
 30
0.0
 11
4272.7730686549
 21
1874.442287712033
 31
0.0
  0
LINE
  5
3DC
330
1E
100
AcDbEntity
  8
HASEN
100
AcDbLine
 10
4343.245174538401
 20
1681.304778383032
 30
0.0
 11
4403.1090652479
 21
1681.304778383032
 31
0.0
  0
LINE
  5
3DD
330
1E
100
AcDbEntity
  8
HASEN
100
AcDbLine
 10
4343.245174538401
 20
1631.304779128033
 30
0.0
 11
4343.245174538401
 21
1681.304778383032
 31
0.0
  0
LINE
  5
3DE
330
1E
100
AcDbEntity
  8
HASEN
100
AcDbLine
 10
4343.245174538401
 20
1631.304779128033
 30
0.0
 11
4356.0570639959
 21
1631.304779128033
 31
0.0
  0
LINE
  5
3DF
330
1E
100
AcDbEntity
  8
HASEN
100
AcDbLine
 10
4330.2452968024
 20
1672.554778513433
 30
0.0
 11
4330.2452968024
 21
1640.054778997632
 31
0.0
  0
LINE
  5
3E0
330
1E
100
AcDbEntity
  8
HASEN
100
AcDbLine
 10
4272.7730686549
 20
1672.554778513433
 30
0.0
 11
4330.2452968024
 21
1672.554778513433
 31
0.0
  0
LINE
  5
3E1
330
1E
100
AcDbEntity
  8
HASEN
100
AcDbLine
 10
4272.7730686549
 20
1640.054778997632
 30
0.0
 11
4330.2452968024
 21
1640.054778997632
 31
0.0
  0
LINE
  5
3E2
330
1E
100
AcDbEntity
  8
HASEN
100
AcDbLine
 10
4330.2452968024
 20
1640.054778997632
 30
0.0
 11
4343.245174538401
 21
1631.304779128033
 31
0.0
  0
LINE
  5
3E3
330
1E
100
AcDbEntity
  8
HASEN
100
AcDbLine
 10
4330.2452968024
 20
1672.554778513433
 30
0.0
 11
4343.245174538401
 21
1681.304778383032
 31
0.0
  0
LINE
  5
3E4
330
1E
100
AcDbEntity
  8
HASEN
100
AcDbLine
 10
4272.7730686549
 20
1672.554778513433
 30
0.0
 11
4272.7730686549
 21
1640.054778997632
 31
0.0
  0
ARC
  5
3E5
330
1E
100
AcDbEntity
  8
SJC
100
AcDbCircle
 10
3917.994936727501
 20
2228.040688883433
 30
0.0
 40
49.9999992549
100
AcDbArc
 50
163.4005255999
 51
179.9990411853
  0
ARC
  5
3E6
330
1E
100
AcDbEntity
  8
SJC
100
AcDbCircle
 10
4090.494934164099
 20
2176.623280114533
 30
0.0
 40
229.9999965727
100
AcDbArc
 50
16.5981969831
 51
163.4018030169
  0
LINE
  5
3E7
330
1E
100
AcDbEntity
  8
SJC
100
AcDbLine
 10
3867.9949374796
 20
2181.624289970633
 30
0.0
 11
4312.9949308486
 21
2181.624289970633
 31
0.0
  0
LINE
  5
3E8
330
1E
100
AcDbEntity
  8
SJC
100
AcDbLine
 10
3867.9949374796
 20
2131.624290715732
 30
0.0
 11
4312.9949308486
 21
2131.624290715732
 31
0.0
  0
LINE
  5
3E9
330
1E
100
AcDbEntity
  8
SJC
100
AcDbLine
 10
3867.9949374796
 20
2146.624595667933
 30
0.0
 11
4312.9949308486
 21
2146.624595667933
 31
0.0
  0
LINE
  5
3EA
330
1E
100
AcDbEntity
  8
SJC
100
AcDbLine
 10
3867.9949374796
 20
2156.624290343133
 30
0.0
 11
4312.9949308486
 21
2156.624290343133
 31
0.0
  0
LINE
  5
3EB
330
1E
100
AcDbEntity
  8
SJC
100
AcDbLine
 10
3867.9949374796
 20
2171.624595295433
 30
0.0
 11
4312.9949308486
 21
2171.624595295433
 31
0.0
  0
LINE
  5
3EC
330
1E
100
AcDbEntity
  8
SJC
100
AcDbLine
 10
3867.9949374796
 20
2131.624290715732
 30
0.0
 11
3867.9949374796
 21
2146.624595667933
 31
0.0
  0
LINE
  5
3ED
330
1E
100
AcDbEntity
  8
SJC
100
AcDbLine
 10
3867.9949374796
 20
2156.624290343133
 30
0.0
 11
3867.9949374796
 21
2171.624595295433
 31
0.0
  0
LINE
  5
3EE
330
1E
100
AcDbEntity
  8
SJC
100
AcDbLine
 10
3867.9949374796
 20
2181.624289970633
 30
0.0
 11
3872.9955477566
 21
2176.624290045133
 31
0.0
  0
LINE
  5
3EF
330
1E
100
AcDbEntity
  8
SJC
100
AcDbLine
 10
3867.9949374796
 20
2181.624289970633
 30
0.0
 11
3867.9949374796
 21
2228.041525607033
 31
0.0
  0
LINE
  5
3F0
330
1E
100
AcDbEntity
  8
SJC
100
AcDbLine
 10
3867.9949374796
 20
2171.623679768133
 30
0.0
 11
3872.9955477566
 21
2176.624290045133
 31
0.0
  0
LINE
  5
3F1
330
1E
100
AcDbEntity
  8
SJC
100
AcDbLine
 10
3867.9949374796
 20
2156.624290343133
 30
0.0
 11
3872.9955477566
 21
2151.624290417633
 31
0.0
  0
LINE
  5
3F2
330
1E
100
AcDbEntity
  8
SJC
100
AcDbLine
 10
3867.9949374796
 20
2146.623680140633
 30
0.0
 11
3872.9955477566
 21
2151.624290417633
 31
0.0
  0
LINE
  5
3F3
330
1E
100
AcDbEntity
  8
SJC
100
AcDbLine
 10
3872.9955477566
 20
2176.624290045133
 30
0.0
 11
4307.994320571499
 21
2176.624290045133
 31
0.0
  0
LINE
  5
3F4
330
1E
100
AcDbEntity
  8
SJC
100
AcDbLine
 10
3872.9955477566
 20
2151.624290417633
 30
0.0
 11
4307.994320571499
 21
2151.624290417633
 31
0.0
  0
LINE
  5
3F5
330
1E
100
AcDbEntity
  8
SJC
100
AcDbLine
 10
3860.4946324156
 20
2121.624596040433
 30
0.0
 11
4320.4952359126
 21
2121.624596040433
 31
0.0
  0
LINE
  5
3F6
330
1E
100
AcDbEntity
  8
SJC
100
AcDbLine
 10
3860.4946324156
 20
2121.624596040433
 30
0.0
 11
3860.4946324156
 21
2056.624291833233
 31
0.0
  0
LINE
  5
3F7
330
1E
100
AcDbEntity
  8
SJC
100
AcDbLine
 10
3867.9949374796
 20
2131.624290715732
 30
0.0
 11
3860.4946324156
 21
2121.624596040433
 31
0.0
  0
ARC
  5
3F8
330
1E
100
AcDbEntity
  8
SJC
100
AcDbCircle
 10
4262.9949316006
 20
2228.040688883433
 30
0.0
 40
49.9999992549
100
AcDbArc
 50
0.0009588147
 51
16.5994744001
  0
LINE
  5
3F9
330
1E
100
AcDbEntity
  8
SJC
100
AcDbLine
 10
4312.9949308486
 20
2181.624289970633
 30
0.0
 11
4312.9949308486
 21
2228.041525607033
 31
0.0
  0
LINE
  5
3FA
330
1E
100
AcDbEntity
  8
SJC
100
AcDbLine
 10
4312.9949308486
 20
2156.624290343133
 30
0.0
 11
4312.9949308486
 21
2171.624595295433
 31
0.0
  0
LINE
  5
3FB
330
1E
100
AcDbEntity
  8
SJC
100
AcDbLine
 10
4312.9949308486
 20
2131.624290715732
 30
0.0
 11
4312.9949308486
 21
2146.624595667933
 31
0.0
  0
LINE
  5
3FC
330
1E
100
AcDbEntity
  8
SJC
100
AcDbLine
 10
4312.9949308486
 20
2181.624289970633
 30
0.0
 11
4307.994320571499
 21
2176.624290045133
 31
0.0
  0
LINE
  5
3FD
330
1E
100
AcDbEntity
  8
SJC
100
AcDbLine
 10
4312.9949308486
 20
2171.623679768133
 30
0.0
 11
4307.994320571499
 21
2176.624290045133
 31
0.0
  0
LINE
  5
3FE
330
1E
100
AcDbEntity
  8
SJC
100
AcDbLine
 10
4312.9949308486
 20
2156.624290343133
 30
0.0
 11
4307.994320571499
 21
2151.624290417633
 31
0.0
  0
LINE
  5
3FF
330
1E
100
AcDbEntity
  8
SJC
100
AcDbLine
 10
4312.9949308486
 20
2146.623680140633
 30
0.0
 11
4307.994320571499
 21
2151.624290417633
 31
0.0
  0
LINE
  5
400
330
1E
100
AcDbEntity
  8
SJC
100
AcDbLine
 10
4320.4952359126
 20
2121.624596040433
 30
0.0
 11
4320.4952359126
 21
2056.624291833233
 31
0.0
  0
LINE
  5
401
330
1E
100
AcDbEntity
  8
SJC
100
AcDbLine
 10
4312.9949308486
 20
2131.624290715732
 30
0.0
 11
4320.4952359126
 21
2121.624596040433
 31
0.0
  0
LINE
  5
402
330
1E
100
AcDbEntity
  8
SJC
100
AcDbLine
 10
3860.4946324156
 20
2056.624291833233
 30
0.0
 11
4320.4952359126
 21
2056.624291833233
 31
0.0
  0
CIRCLE
  5
403
330
1E
100
AcDbEntity
  8
SJC
100
AcDbCircle
 10
4090.4955445156
 20
904.9939073825326
 30
0.0
 40
149.9999977648
  0
LINE
  5
404
330
1E
100
AcDbEntity
  8
SJC
100
AcDbLine
 10
3867.7446933427
 20
616.6089019142326
 30
0.0
 11
3867.7446933427
 21
1203.494726909132
 31
0.0
  0
LINE
  5
405
330
1E
100
AcDbEntity
  8
SJC
100
AcDbLine
 10
4313.2445646339
 20
616.6089019142326
 30
0.0
 11
4313.2445646339
 21
1203.494726909132
 31
0.0
  0
ARC
  5
406
330
1E
100
AcDbEntity
  8
SJC
100
AcDbCircle
 10
3979.119813753401
 20
792.2843280324325
 30
0.0
 40
208.0054633617
100
AcDbArc
 50
237.6260237668001
 51
302.3739762332
  0
ARC
  5
407
330
1E
100
AcDbEntity
  8
SJC
100
AcDbCircle
 10
4201.8700545748
 20
792.2843280324325
 30
0.0
 40
208.0054633617
100
AcDbArc
 50
237.6260237668001
 51
302.3739762332
  0
ARC
  5
408
330
1E
100
AcDbEntity
  8
SJC
100
AcDbCircle
 10
4201.8700545748
 20
440.9334757960325
 30
0.0
 40
208.0054633617
100
AcDbArc
 50
57.62602376680001
 51
122.3739762332
  0
ARC
  5
409
330
1E
100
AcDbEntity
  8
SJC
100
AcDbCircle
 10
3979.1204241049
 20
1027.819300791033
 30
0.0
 40
208.0054633617
100
AcDbArc
 50
57.62602376680001
 51
122.3739762332
  0
ARC
  5
40A
330
1E
100
AcDbEntity
  8
SJC
100
AcDbCircle
 10
3979.1204241049
 20
1379.170153027333
 30
0.0
 40
208.0054633617
100
AcDbArc
 50
237.6260237668001
 51
302.3739762332
  0
ARC
  5
40B
330
1E
100
AcDbEntity
  8
SJC
100
AcDbCircle
 10
4201.8703597505
 20
1027.819107315332
 30
0.0
 40
208.0054633617
100
AcDbArc
 50
57.62612329850001
 51
122.3738767015
  0
CIRCLE
  5
40C
330
1E
100
AcDbEntity
  8
SJC
100
AcDbCircle
 10
4090.494934164099
 20
1010.493936328033
 30
0.0
 40
24.9999996275
  0
CIRCLE
  5
40D
330
1E
100
AcDbEntity
  8
SJC
100
AcDbCircle
 10
4090.494934164099
 20
799.4938784370327
 30
0.0
 40
24.9999996275
  0
ARC
  5
40E
330
1E
100
AcDbEntity
  8
SJC
100
AcDbCircle
 10
4090.494934164099
 20
934.4937238375328
 30
0.0
 40
19.999999702
100
AcDbArc
 50
0.0
 51
180.0
  0
LINE
  5
40F
330
1E
100
AcDbEntity
  8
SJC
100
AcDbLine
 10
4070.4961551652
 20
934.4937238375328
 30
0.0
 11
4070.4961551652
 21
814.4950989166325
 31
0.0
  0
LINE
  5
410
330
1E
100
AcDbEntity
  8
SJC
100
AcDbLine
 10
4110.4955442176
 20
934.4937238375328
 30
0.0
 11
4110.4955442176
 21
814.4935730377326
 31
0.0
  0
LINE
  5
411
330
1E
100
AcDbEntity
  8
HASEN
100
AcDbLine
 10
4025.4961558357
 20
917.4939071963326
 30
0.0
 11
4070.4961551652
 21
917.4939071963326
 31
0.0
  0
LINE
  5
412
330
1E
100
AcDbEntity
  8
HASEN
100
AcDbLine
 10
4025.4961558357
 20
917.4939071963326
 30
0.0
 11
4025.4961558357
 21
892.4939075688326
 31
0.0
  0
LINE
  5
413
330
1E
100
AcDbEntity
  8
HASEN
100
AcDbLine
 10
4025.4961558357
 20
892.4939075688326
 30
0.0
 11
4070.4961551652
 21
892.4939075688326
 31
0.0
  0
LINE
  5
414
330
1E
100
AcDbEntity
  8
HASEN
100
AcDbLine
 10
4110.4955442176
 20
892.4939075688326
 30
0.0
 11
4200.496153227999
 21
892.4939075688326
 31
0.0
  0
LINE
  5
415
330
1E
100
AcDbEntity
  8
HASEN
100
AcDbLine
 10
4110.4955442176
 20
917.4939071963326
 30
0.0
 11
4200.496153227999
 21
917.4939071963326
 31
0.0
  0
LINE
  5
416
330
1E
100
AcDbEntity
  8
CENTER
100
AcDbLine
 10
4090.494934164099
 20
1264.853978924532
 30
0.0
 11
4090.494934164099
 21
556.3781899211327
 31
0.0
  0
LINE
  5
417
330
1E
100
AcDbEntity
  8
SJC
100
AcDbLine
 10
4070.4961551652
 20
917.4939071963326
 30
0.0
 11
4110.4955442176
 21
917.4939071963326
 31
0.0
  0
LINE
  5
418
330
1E
100
AcDbEntity
  8
SJC
100
AcDbLine
 10
4070.4961551652
 20
892.4939075688326
 30
0.0
 11
4110.4955442176
 21
892.4939075688326
 31
0.0
  0
LINE
  5
419
330
1E
100
AcDbEntity
  8
CENTER
100
AcDbLine
 10
4090.494934164099
 20
2457.394549533233
 30
0.0
 11
4090.494934164099
 21
1441.392367407232
 31
0.0
  0
TEXT
  5
41A
330
1E
100
AcDbEntity
  8
MOJI
100
AcDbText
 10
5682.169443866422
 20
684.6805658152188
 30
0.0
 40
60.0
  1
平　行　ピ　ン　
 41
0.8
  7
EXT08
100
AcDbText
  0
ARC
  5
41B
330
1E
100
AcDbEntity
  8
KASOU
100
AcDbCircle
 10
2021.857710526
 20
10785.51909874013
 30
0.0
 40
6530.7738284651
100
AcDbArc
 50
263.1593138472
 51
276.8477407159
  0
ARC
  5
41C
330
1E
100
AcDbEntity
  8
KASOU
100
AcDbCircle
 10
2021.8572515114
 20
10765.51923728343
 30
0.0
 40
6530.7738284651
100
AcDbArc
 50
263.1546501276
 51
276.8572450027
  0
ARC
  5
41D
330
1E
100
AcDbEntity
  8
KASOU
100
AcDbCircle
 10
4021.857680723701
 20
10785.51909874013
 30
0.0
 40
6530.7738284651
100
AcDbArc
 50
263.1593138472
 51
276.8477407159
  0
ARC
  5
41E
330
1E
100
AcDbEntity
  8
KASOU
100
AcDbCircle
 10
4021.857068987499
 20
10765.51925561693
 30
0.0
 40
6530.7738284651
100
AcDbArc
 50
263.1546514771
 51
276.8572436556
  0
LINE
  5
41F
330
1E
100
AcDbEntity
  8
SJC
100
AcDbLine
 10
1404.8812656867
 20
292.1617326766326
 30
0.0
 11
474.2307210827998
 21
292.1617326766326
 31
0.0
  0
LINE
  5
420
330
1E
100
AcDbEntity
  8
SJC
100
AcDbLine
 10
6077.307038347299
 20
3413.315555796733
 30
0.0
 11
5813.2573596648
 21
3413.315555796733
 31
0.0
1001
ACAD
1000
ASC_BOUNDS
1002
{
1070
    19
1005
AEE
1005
AEA
1005
AE9
1002
}
  0
LINE
  5
421
330
1E
100
AcDbEntity
  8
SJC
100
AcDbLine
 10
6166.408599519599
 20
3413.315555796733
 30
0.0
 11
6430.4582782021
 21
3413.315555796733
 31
0.0
1001
ACAD
1000
ASC_BOUNDS
1002
{
1070
    19
1005
AEE
1005
AEA
1005
AE9
1002
}
  0
CIRCLE
  5
429
330
1E
100
AcDbEntity
  8
MOJI
100
AcDbCircle
 10
167.8440240875927
 20
1802.136349204076
 30
0.0
 40
42.0
  0
TEXT
  5
42A
330
1E
100
AcDbEntity
  8
MOJI
100
AcDbText
 10
140.1002410131384
 20
1773.103177894032
 30
0.0
 40
60.0
  1
4
 41
0.8
  7
EXT08
100
AcDbText
  0
CIRCLE
  5
432
330
1E
100
AcDbEntity
  8
MOJI
100
AcDbCircle
 10
1306.3924976231
 20
1501.419829414165
 30
0.0
 40
42.0
  0
CIRCLE
  5
433
330
1E
100
AcDbEntity
  8
MOJI
100
AcDbCircle
 10
1290.356259559745
 20
1896.562551568709
 30
0.0
 40
42.0
  0
TEXT
  5
43B
330
1E
100
AcDbEntity
  8
MOJI
100
AcDbText
 10
1235.0460631393
 20
1381.457065565932
 30
0.0
 40
60.0
  1
%%C89.1×t3.2
 41
0.8
  7
EXT08
100
AcDbText
  0
TEXT
  5
43C
330
1E
100
AcDbEntity
  8
MOJI
100
AcDbText
 10
1437.6658416142
 20
1457.902682102532
 30
0.0
 40
60.0
  1
支柱
 41
0.8
  7
EXT08
100
AcDbText
  0
TEXT
  5
43D
330
1E
100
AcDbEntity
  8
MOJI
100
AcDbText
 10
1280.219606741218
 20
1470.310152185895
 30
0.0
 40
60.0
  1
1
 41
0.8
  7
EXT08
100
AcDbText
  0
TEXT
  5
43E
330
1E
100
AcDbEntity
  8
MOJI
100
AcDbText
 10
1267.91637421287
 20
1866.80438400404
 30
0.0
 40
60.0
  1
3
 41
0.8
  7
EXT08
100
AcDbText
  0
CIRCLE
  5
43F
330
1E
100
AcDbEntity
  8
MOJI
100
AcDbCircle
 10
321.1951680410366
 20
2472.079728055864
 30
0.0
 40
42.0
  0
TEXT
  5
447
330
1E
100
AcDbEntity
  8
MOJI
100
AcDbText
 10
298.5829110655
 20
2441.632220666533
 30
0.0
 40
60.0
  1
5
 41
0.8
  7
EXT08
100
AcDbText
  0
TEXT
  5
44F
330
1E
100
AcDbEntity
  8
MOJI
100
AcDbText
 10
3330.829723315999
 20
4413.014637579732
 30
0.0
 40
60.0
  1
チェーン%%C6
 41
0.8
  7
EXT08
100
AcDbText
  0
TEXT
  5
45E
330
1E
100
AcDbEntity
  8
MOJI
100
AcDbText
 10
557.4839699643
 20
315.9333998028327
 30
0.0
 40
60.0
  1
GL
 41
0.8
  7
EXT08
100
AcDbText
  0
TEXT
  5
45F
330
1E
100
AcDbEntity
  8
MOJI
100
AcDbText
 10
5325.6456725948
 20
3435.415775193933
 30
0.0
 40
60.0
  1
GL
 41
0.8
  7
EXT08
100
AcDbText
  0
CIRCLE
  5
460
330
1E
100
AcDbEntity
  8
MOJI
100
AcDbCircle
 10
1349.556027100447
 20
2518.608116328691
 30
0.0
 40
42.0
  0
TEXT
  5
461
330
1E
100
AcDbEntity
  8
MOJI
100
AcDbText
 10
1418.1423738876
 20
2481.540179063633
 30
0.0
 40
60.0
  1
擬宝珠
 41
0.8
  7
EXT08
100
AcDbText
  0
TEXT
  5
462
330
1E
100
AcDbEntity
  8
MOJI
100
AcDbText
 10
1331.677531426
 20
2491.183908004802
 30
0.0
 40
60.0
  1
2
 41
0.8
  7
EXT08
100
AcDbText
  0
TEXT
  5
46A
330
1E
100
AcDbEntity
  8
MOJI
100
AcDbText
 10
3274.9764526639
 20
3905.286678836833
 30
0.0
 40
60.0
  1
支柱%%C89.1×t3.2
 41
0.8
  7
EXT08
100
AcDbText
  0
TEXT
  5
46B
330
1E
100
AcDbEntity
  8
MOJI
100
AcDbText
 10
3261.0335817779
 20
4109.586602550332
 30
0.0
 40
60.0
  1
チェーン金具
 41
0.8
  7
EXT08
100
AcDbText
  0
TEXT
  5
473
330
1E
100
AcDbEntity
  8
MOJI
100
AcDbText
 10
3167.2292618866
 20
4528.338732540932
 30
0.0
 40
60.0
  1
擬宝珠
 41
0.8
  7
EXT08
100
AcDbText
  0
TEXT
  5
47B
330
1E
100
AcDbEntity
  8
MOJI
100
AcDbText
 10
4635.152341947991
 20
1966.916651568432
 30
0.0
 40
60.0
  1
M5×15
 41
0.8
  7
EXT08
100
AcDbText
  0
TEXT
  5
47C
330
1E
100
AcDbEntity
  8
MOJI
100
AcDbText
 10
4557.0089042632
 20
1977.032051917906
 30
0.0
 40
60.0
  1
6
 41
0.8
  7
EXT08
100
AcDbText
  0
CIRCLE
  5
47D
330
1E
100
AcDbEntity
  8
MOJI
100
AcDbCircle
 10
4581.005525900224
 20
2008.221033964315
 30
0.0
 40
42.0
  0
CIRCLE
  5
47E
330
1E
100
AcDbEntity
  8
HASEN
100
AcDbCircle
 10
4200.496153227999
 20
904.9939073825326
 30
0.0
 40
12.4999998137
  0
TEXT
  5
47F
330
1E
100
AcDbEntity
  8
MOJI
100
AcDbText
 10
6655.898381557097
 20
687.4098545115511
 30
0.0
 40
60.0
  1
%%C5×30
 41
0.8
  7
EXT08
100
AcDbText
  0
TEXT
  5
480
330
1E
100
AcDbEntity
  8
MOJI
100
AcDbText
 10
6636.603586599019
 20
587.9245858117737
 30
0.0
 40
60.0
  1
M5×15六角穴付
 41
0.8
  7
EXT08
100
AcDbText
  0
LINE
  5
481
330
1E
100
AcDbEntity
  8
CENTER
100
AcDbLine
 10
6121.8572085819
 20
4486.226306410633
 30
0.0
 11
6121.8572085819
 21
2990.053843353733
 31
0.0
  0
LINE
  5
482
330
1E
100
AcDbEntity
  8
CENTER
100
AcDbLine
 10
2655.6597504666
 20
2405.699298838633
 30
0.0
 11
2655.6597504666
 21
252.2732750190327
 31
0.0
  0
TEXT
  5
483
330
1E
100
AcDbEntity
  8
MOJI
100
AcDbText
 10
374.4419797593
 20
2423.690631578433
 30
0.0
 40
60.0
  1
平行ピン%%C5
 41
0.8
  7
EXT08
100
AcDbText
  0
TEXT
  5
484
330
1E
100
AcDbEntity
  8
MOJI
100
AcDbText
 10
233.6482132520384
 20
1753.948820269233
 30
0.0
 40
60.0
  1
チェーン%%C6
 41
0.8
  7
EXT08
100
AcDbText
  0
DIMENSION
  5
487
330
1E
100
AcDbEntity
  8
SUNPOU
100
AcDbDimension
  2
*D8
 10
6165.940459848691
 20
4648.354599893133
 30
0.0
 11
6134.32180358671
 21
4704.028730554477
 31
0.0
 70
   160
  1
%%C89
 71
     5
 42
-1.0
  3
SJC
100
AcDbAlignedDimension
 13
6077.773957311283
 23
4410.455433602266
 33
0.0
 14
6165.940459848691
 24
4410.455433615097
 34
0.0
100
AcDbRotatedDimension
1001
ACAD
1000
DSTYLE
1002
{
1070
    40
1040
20.0
1070
    41
1040
2.0
1070
    42
1040
1.0
1070
    43
1040
6.0
1070
    44
1040
1.0
1070
   140
1040
3.0
1070
   147
1040
1.199999999999999
1070
   176
1070
     0
1070
   177
1070
     0
1070
   178
1070
     0
1070
   271
1070
     2
1070
   340
1005
4CD
1002
}
  0
DIMENSION
  5
488
330
1E
100
AcDbEntity
  8
SUNPOU
100
AcDbDimension
  2
*D7
 10
6464.788111675
 20
4313.314932034132
 30
0.0
 11
6417.300024095585
 21
4372.98195798981
 31
0.0
 70
   160
 71
     5
 42
-1.0
  3
SJC
100
AcDbAlignedDimension
 13
6141.8572085819
 23
4443.314930096932
 33
0.0
 14
6186.4073788165
 24
4313.314932034132
 34
0.0
 50
90.0
100
AcDbRotatedDimension
1001
ACAD
1000
DSTYLE
1002
{
1070
    40
1040
20.0
1070
    41
1040
2.0
1070
    42
1040
1.0
1070
    43
1040
6.0
1070
    44
1040
1.0
1070
   140
1040
3.0
1070
   147
1040
1.199999999999999
1070
   176
1070
     0
1070
   177
1070
     0
1070
   178
1070
     0
1070
   271
1070
     2
1070
   340
1005
4CD
1002
}
  0
DIMENSION
  5
489
330
1E
100
AcDbEntity
  8
SUNPOU
100
AcDbDimension
  2
*D6
 10
6464.788111675
 20
3413.315555796733
 30
0.0
 11
6410.788111675
 21
3863.315243915434
 31
0.0
 70
    32
 71
     5
 42
-1.0
  3
SJC
100
AcDbAlignedDimension
 13
6186.4073788165
 23
4313.314932034132
 33
0.0
 14
6450.4582782021
 24
3413.315555796733
 34
0.0
 50
90.0
100
AcDbRotatedDimension
1001
ACAD
1000
DSTYLE
1002
{
1070
    40
1040
20.0
1070
    41
1040
2.0
1070
    42
1040
1.0
1070
    43
1040
6.0
1070
    44
1040
1.0
1070
   140
1040
3.0
1070
   147
1040
1.199999999999999
1070
   176
1070
     0
1070
   177
1070
     0
1070
   178
1070
     0
1070
   271
1070
     2
1070
   340
1005
4CD
1002
}
  0
DIMENSION
  5
48A
330
1E
100
AcDbEntity
  8
SUNPOU
100
AcDbDimension
  2
*D15
 10
1133.82627705001
 20
2442.425841372933
 30
0.0
 11
1038.855198536858
 21
2502.070976384126
 31
0.0
 70
   160
  1
%%C89
 71
     5
 42
-1.0
  3
SJC
100
AcDbAlignedDimension
 13
957.4932718649897
 23
2286.342122890353
 33
0.0
 14
1133.82627705001
 24
2286.342122890353
 34
0.0
100
AcDbRotatedDimension
1001
ACAD
1000
DSTYLE
1002
{
1070
    40
1040
20.0
1070
    41
1040
2.0
1070
    42
1040
1.0
1070
    43
1040
6.0
1070
    44
1040
1.0
1070
   140
1040
3.0
1070
   144
1040
0.5
1070
   147
1040
1.199999999999999
1070
   176
1070
     0
1070
   177
1070
     0
1070
   178
1070
     0
1070
   271
1070
     2
1070
   340
1005
4CD
1002
}
  0
DIMENSION
  5
48B
330
1E
100
AcDbEntity
  8
SUNPOU
100
AcDbDimension
  2
*D14
 10
1873.9620692438
 20
2212.062033665133
 30
0.0
 11
1805.421702759693
 21
2284.180012943467
 31
0.0
 70
   160
 71
     5
 42
-1.0
  3
SJC
100
AcDbAlignedDimension
 13
1094.3421775946
 23
2352.062031578933
 33
0.0
 14
1183.442212888
 24
2212.062033665133
 34
0.0
 50
90.0
100
AcDbRotatedDimension
1001
ACAD
1000
DSTYLE
1002
{
1070
    40
1040
20.0
1070
    41
1040
2.0
1070
    42
1040
1.0
1070
    43
1040
6.0
1070
    44
1040
1.0
1070
   140
1040
3.0
1070
   144
1040
0.5
1070
   147
1040
1.199999999999999
1070
   176
1070
     0
1070
   177
1070
     0
1070
   178
1070
     0
1070
   271
1070
     2
1070
   340
1005
4CD
1002
}
  0
DIMENSION
  5
48C
330
1E
100
AcDbEntity
  8
SUNPOU
100
AcDbDimension
  2
*D13
 10
1734.7598008102
 20
292.1617326766325
 30
0.0
 11
1680.7598008102
 21
1192.161719265583
 31
0.0
 70
    32
 71
     5
 42
-1.0
  3
SJC
100
AcDbAlignedDimension
 13
1167.4421520912
 23
2092.161705854532
 33
0.0
 14
1405.0562842927
 24
292.1617326766326
 34
0.0
 50
90.0
100
AcDbRotatedDimension
1001
ACAD
1000
DSTYLE
1002
{
1070
    40
1040
20.0
1070
    41
1040
2.0
1070
    42
1040
1.0
1070
    43
1040
6.0
1070
    44
1040
1.0
1070
   140
1040
3.0
1070
   144
1040
0.5
1070
   147
1040
1.199999999999999
1070
   176
1070
     0
1070
   177
1070
     0
1070
   178
1070
     0
1070
   271
1070
     2
1070
   340
1005
4CD
1002
}
  0
DIMENSION
  5
48F
330
1E
100
AcDbEntity
  8
SUNPOU
100
AcDbDimension
  2
*D12
 10
1991.2548531405
 20
292.1617326766324
 30
0.0
 11
1937.2548531405
 21
1322.111882127783
 31
0.0
 70
    32
  1
1030
 71
     5
 42
-1.0
  3
SJC
100
AcDbAlignedDimension
 13
1094.3421775946
 23
2352.062031578933
 33
0.0
 14
1405.0562842927
 24
292.1617326766326
 34
0.0
 50
90.0
100
AcDbRotatedDimension
1001
ACAD
1000
DSTYLE
1002
{
1070
    40
1040
20.0
1070
    41
1040
2.0
1070
    42
1040
1.0
1070
    43
1040
6.0
1070
    44
1040
1.0
1070
   140
1040
3.0
1070
   144
1040
0.5
1070
   147
1040
1.199999999999999
1070
   176
1070
     0
1070
   177
1070
     0
1070
   178
1070
     0
1070
   271
1070
     2
1070
   340
1005
4CD
1002
}
  0
DIMENSION
  5
490
330
1E
100
AcDbEntity
  8
SUNPOU
100
AcDbDimension
  2
*D11
 10
1873.9620692438
 20
292.1617326766324
 30
0.0
 11
1819.9620692438
 21
1252.111883170883
 31
0.0
 70
    32
  1
960
 71
     5
 42
-1.0
  3
SJC
100
AcDbAlignedDimension
 13
1203.442212888
 23
2212.062033665133
 33
0.0
 14
1405.0562842927
 24
292.1617326766326
 34
0.0
 50
90.0
100
AcDbRotatedDimension
1001
ACAD
1000
DSTYLE
1002
{
1070
    40
1040
20.0
1070
    41
1040
2.0
1070
    42
1040
1.0
1070
    43
1040
6.0
1070
    44
1040
1.0
1070
   140
1040
3.0
1070
   144
1040
0.5
1070
   147
1040
1.199999999999999
1070
   176
1070
     0
1070
   177
1070
     0
1070
   178
1070
     0
1070
   271
1070
     2
1070
   340
1005
4CD
1002
}
  0
LINE
  5
491
330
1E
100
AcDbEntity
  8
CENTER
100
AcDbLine
 10
4090.494934164099
 20
1060.493936328033
 30
0.0
 11
4090.494934164099
 21
960.4939363280328
 31
0.0
  0
LWPOLYLINE
  5
492
330
1E
100
AcDbEntity
  8
SJC
100
AcDbPolyline
 90
        6
 70
     1
 43
0.0
 10
4075.494934164099
 20
790.8336243991882
 10
4090.494934164099
 20
782.1733703613438
 10
4105.4949341641
 20
790.8336243991882
 10
4105.4949341641
 20
808.1541324748771
 10
4090.494934164099
 20
816.8143865127214
 10
4075.494934164099
 20
808.1541324748771
  0
LINE
  5
49A
330
1E
100
AcDbEntity
  8
CENTER
100
AcDbLine
 10
4090.494934164099
 20
849.4938784370326
 30
0.0
 11
4090.494934164099
 21
749.4938784370326
 31
0.0
  0
LWPOLYLINE
  5
49B
330
1E
100
AcDbEntity
  8
SJC
100
AcDbPolyline
 90
        6
 70
     1
 43
0.0
 10
4075.494934164099
 20
1001.833682290188
 10
4090.494934164099
 20
993.1734282523439
 10
4105.4949341641
 20
1001.833682290188
 10
4105.4949341641
 20
1019.154190365877
 10
4090.494934164099
 20
1027.814444403722
 10
4075.494934164099
 20
1019.154190365877
  0
SOLID
  5
4A3
330
1E
100
AcDbEntity
  8
MOJI
100
AcDbTrace
 10
4249.184312505406
 20
885.8361954884772
 30
0.0
 11
4253.139107199372
 21
898.5695130729228
 31
0.0
 12
4212.961757099053
 22
904.0672383626001
 32
0.0
 13
4212.961757099053
 23
904.0672383626001
 33
0.0
  0
LINE
  5
4A4
330
1E
100
AcDbEntity
  8
MOJI
100
AcDbLine
 10
4251.161709852389
 20
892.2028542807
 30
0.0
 11
4472.527680130586
 21
823.4496044795307
 31
0.0
  0
CIRCLE
  5
4A5
330
1E
100
AcDbEntity
  8
MOJI
100
AcDbCircle
 10
4513.652061093936
 20
814.9181749169503
 30
0.0
 40
42.0
  0
TEXT
  5
4A6
330
1E
100
AcDbEntity
  8
MOJI
100
AcDbText
 10
4493.652061391935
 20
787.2122701055807
 30
0.0
 40
60.0
  1
5
 41
0.8
  7
EXT08
100
AcDbText
  0
DIMENSION
  5
4A7
330
1E
100
AcDbEntity
  8
SUNPOU
100
AcDbDimension
  2
*D5
 10
6768.304298808288
 20
3013.315561757133
 30
0.0
 11
6714.304298808288
 21
3728.315245927034
 31
0.0
 70
    32
 71
     5
 42
-1.0
  3
SJC
100
AcDbAlignedDimension
 13
6141.8572085819
 23
4443.314930096932
 33
0.0
 14
6270.4576702348
 24
3013.315561757133
 34
0.0
 50
90.0
100
AcDbRotatedDimension
1001
ACAD
1000
DSTYLE
1002
{
1070
    40
1040
20.0
1070
    41
1040
2.0
1070
    42
1040
1.0
1070
    43
1040
6.0
1070
    44
1040
1.0
1070
   140
1040
3.0
1070
   147
1040
1.199999999999999
1070
   176
1070
     0
1070
   177
1070
     0
1070
   178
1070
     0
1070
   271
1070
     2
1070
   340
1005
4CD
1002
}
  0
TEXT
  5
4A9
330
1E
100
AcDbEntity
  8
MOJI
100
AcDbText
 10
6167.862755933103
 20
888.084853725677
 30
0.0
 40
60.0
  1
アルミ合金
 41
0.8
  7
EXT08
100
AcDbText
  0
TEXT
  5
4AA
330
1E
100
AcDbEntity
  8
MOJI
100
AcDbText
 10
6712.993129191625
 20
885.961934089863
 30
0.0
 40
60.0
  1
焼付塗装
 41
0.8
  7
EXT08
100
AcDbText
  0
TEXT
  5
4AB
330
1E
100
AcDbEntity
  8
MOJI2
100
AcDbText
 10
751.6151313034519
 20
4866.413411801893
 30
0.0
 40
80.0
  1
設置図 (1/20)
 41
0.8
  7
EXT08
100
AcDbText
  0
LINE
  5
4AF
330
1E
100
AcDbEntity
  8
MOJI2
100
AcDbLine
 10
3851.24488998071
 20
2607.586976384311
 30
0.0
 11
4327.130315115858
 21
2607.586976384311
 31
0.0
  0
TEXT
  5
4B0
330
1E
100
AcDbEntity
  8
MOJI2
100
AcDbText
 10
3875.194785224563
 20
2622.080608305768
 30
0.0
 40
80.0
  1
取付部詳細図 (1/4)
 41
0.8
  7
EXT08
100
AcDbText
  0
TEXT
  5
4B1
330
1E
100
AcDbEntity
  8
MOJI
100
AcDbText
 10
5883.267428734156
 20
4889.229037059378
 30
0.0
 40
60.0
  1
CR3-A89
 41
0.8
  7
EXT08
100
AcDbText
  0
TEXT
  5
4B2
330
1E
100
AcDbEntity
  8
MOJI
100
AcDbText
 10
1335.80165816948
 20
1862.582993711785
 30
0.0
 40
60.0
  1
チェーン金具
 41
0.8
  7
EXT08
100
AcDbText
  0
DIMENSION
  5
4B3
330
1E
100
AcDbEntity
  8
SUNPOU
100
AcDbDimension
  2
*D4
 10
6603.833152041473
 20
3413.315555796733
 30
0.0
 11
6549.833152041472
 21
3928.315356769233
 31
0.0
 70
    32
 71
     5
 42
-1.0
  3
SJC
100
AcDbAlignedDimension
 13
6121.857208581899
 23
4443.315157741731
 33
0.0
 14
6430.4582782021
 24
3413.315555796733
 34
0.0
 50
90.0
100
AcDbRotatedDimension
1001
ACAD
1000
DSTYLE
1002
{
1070
    40
1040
20.0
1070
    41
1040
2.0
1070
    42
1040
1.0
1070
    43
1040
6.0
1070
    44
1040
1.0
1070
   140
1040
3.0
1070
   147
1040
1.199999999999999
1070
   176
1070
     0
1070
   177
1070
     0
1070
   178
1070
     0
1070
   271
1070
     2
1070
   340
1005
4CD
1002
}
  0
DIMENSION
  5
4B4
330
1E
100
AcDbEntity
  8
SUNPOU
100
AcDbDimension
  2
*D9
 10
6603.833152041473
 20
3013.315561757133
 30
0.0
 11
6549.833152041472
 21
3213.315558776934
 31
0.0
 70
    32
 71
     5
 42
-1.0
  3
SJC
100
AcDbAlignedDimension
 13
6450.4582782021
 23
3413.315555796733
 33
0.0
 14
6270.4576702348
 24
3013.315561757133
 34
0.0
 50
90.0
100
AcDbRotatedDimension
1001
ACAD
1000
DSTYLE
1002
{
1070
    40
1040
20.0
1070
    41
1040
2.0
1070
    42
1040
1.0
1070
    43
1040
6.0
1070
    44
1040
1.0
1070
   140
1040
3.0
1070
   147
1040
1.199999999999999
1070
   176
1070
     0
1070
   177
1070
     0
1070
   178
1070
     0
1070
   271
1070
     2
1070
   340
1005
4CD
1002
}
  0
TEXT
  5
4B5
330
1E
100
AcDbEntity
  8
MOJI
100
AcDbText
 10
6229.393146343365
 20
589.0066034822179
 30
0.0
 40
60.0
  1
SUS
 41
0.8
  7
EXT08
100
AcDbText
  0
LINE
  5
53D
330
1E
100
AcDbEntity
  8
MOJI2
100
AcDbLine
 10
742.2616592027988
 20
4849.94168848916
 30
0.0
 11
981.150004519708
 21
4849.94168848916
 31
0.0
  0
LINE
  5
53E
330
1E
100
AcDbEntity
  8
MOJI2
100
AcDbLine
 10
742.2616592027988
 20
4829.94168848916
 30
0.0
 11
981.150004519708
 21
4829.94168848916
 31
0.0
  0
TEXT
  5
53F
330
1E
100
AcDbEntity
  8
MOJI2
100
AcDbText
 10
950.6205970752331
 20
2693.82585992075
 30
0.0
 40
80.0
  1
支柱図 (1/10)
 41
0.8
  7
EXT08
100
AcDbText
  0
LINE
  5
540
330
1E
100
AcDbEntity
  8
MOJI2
100
AcDbLine
 10
941.2671249745798
 20
2657.354136608017
 30
0.0
 11
1157.010697667683
 21
2657.354136608017
 31
0.0
  0
LINE
  5
541
330
1E
100
AcDbEntity
  8
MOJI2
100
AcDbLine
 10
941.2671249745798
 20
2677.354136608017
 30
0.0
 11
1157.010697667683
 21
2677.354136608017
 31
0.0
  0
LINE
  5
56B
330
1E
100
AcDbEntity
  8
MOJI2
100
AcDbLine
 10
3851.24488998071
 20
2587.586976384311
 30
0.0
 11
4327.130315115858
 21
2587.586976384311
 31
0.0
  0
LEADER
  5
5D9
330
1E
100
AcDbEntity
  8
MOJI
100
AcDbLeader
  3
SJC
 76
     2
 10
1134.7598097509
 20
1360.309153783033
 30
0.0
 10
1231.907017190017
 20
1449.89092052725
 30
0.0
1001
ACAD
1000
DSTYLE
1002
{
1070
     5
1000

1070
    40
1040
20.0
1070
    41
1040
2.0
1070
    42
1040
1.0
1070
    43
1040
6.0
1070
    44
1040
1.0
1070
   140
1040
3.0
1070
   147
1040
1.199999999999999
1070
   176
1070
     0
1070
   177
1070
     0
1070
   178
1070
     0
1070
   271
1070
     2
1070
   340
1005
4CD
1070
   342
1005
0
1002
}
  0
LINE
  5
5DA
330
1E
100
AcDbEntity
  8
MOJI
100
AcDbLine
 10
1231.907017190017
 20
1449.89092052725
 30
0.0
 11
1667.970826977333
 21
1449.89092052725
 31
0.0
  0
LINE
  5
5DC
330
1E
100
AcDbEntity
  8
MOJI
100
AcDbLine
 10
1248.207192813241
 20
1849.193972139831
 30
0.0
 11
1680.929289717114
 21
1849.193972139831
 31
0.0
  0
LEADER
  5
5DD
330
1E
100
AcDbEntity
  8
MOJI
100
AcDbLeader
  3
SJC
 76
     2
 10
1156.878118328219
 20
2045.825664284819
 30
0.0
 10
1248.20719281324
 20
1849.193972139831
 30
0.0
1001
ACAD
1000
DSTYLE
1002
{
1070
     5
1000

1070
    40
1040
20.0
1070
    41
1040
2.0
1070
    42
1040
1.0
1070
    43
1040
6.0
1070
    44
1040
1.0
1070
   140
1040
3.0
1070
   147
1040
1.199999999999999
1070
   176
1070
     0
1070
   177
1070
     0
1070
   178
1070
     0
1070
   271
1070
     2
1070
   340
1005
4CD
1070
   342
1005
0
1002
}
  0
LEADER
  5
5DE
330
1E
100
AcDbEntity
  8
MOJI
100
AcDbLeader
  3
SJC
 76
     2
 10
684.9571249240701
 20
2005.137479497505
 30
0.0
 10
594.1562564052
 20
1742.629545535632
 30
0.0
1001
ACAD
1000
DSTYLE
1002
{
1070
     5
1000

1070
    40
1040
20.0
1070
    41
1040
2.0
1070
    42
1040
1.0
1070
    43
1040
6.0
1070
    44
1040
1.0
1070
   140
1040
3.0
1070
   147
1040
1.199999999999999
1070
   176
1070
     0
1070
   177
1070
     0
1070
   178
1070
     0
1070
   271
1070
     2
1070
   340
1005
4CD
1070
   342
1005
0
1002
}
  0
LINE
  5
5E0
330
1E
100
AcDbEntity
  8
MOJI
100
AcDbLine
 10
594.1562564052
 20
1742.629545535632
 30
0.0
 11
114.0567762544999
 21
1742.629545535632
 31
0.0
  0
LINE
  5
5E2
330
1E
100
AcDbEntity
  8
MOJI
100
AcDbLine
 10
722.5759017084001
 20
2411.297443286533
 30
0.0
 11
269.399485597
 21
2411.297443286533
 31
0.0
  0
LEADER
  5
5E3
330
1E
100
AcDbEntity
  8
MOJI
100
AcDbLeader
  3
SJC
 76
     2
 10
929.8114789805836
 20
2096.338633884576
 30
0.0
 10
722.5759017084
 20
2411.297443286533
 30
0.0
1001
ACAD
1000
DSTYLE
1002
{
1070
     5
1000

1070
    40
1040
20.0
1070
    41
1040
2.0
1070
    42
1040
1.0
1070
    43
1040
6.0
1070
    44
1040
1.0
1070
   140
1040
3.0
1070
   147
1040
1.199999999999999
1070
   176
1070
     0
1070
   177
1070
     0
1070
   178
1070
     0
1070
   271
1070
     2
1070
   340
1005
4CD
1070
   342
1005
0
1002
}
  0
LINE
  5
60D
330
1E
100
AcDbEntity
  8
MOJI
100
AcDbLine
 10
1308.870372342
 20
2469.538226117533
 30
0.0
 11
1624.5158144159
 21
2469.538226117533
 31
0.0
  0
LEADER
  5
60E
330
1E
100
AcDbEntity
  8
MOJI
100
AcDbLeader
  3
SJC
 76
     2
 10
1117.8915238695
 20
2319.672810870233
 30
0.0
 10
1308.870372342
 20
2469.538226117533
 30
0.0
1001
ACAD
1000
DSTYLE
1002
{
1070
     5
1000

1070
    40
1040
20.0
1070
    41
1040
2.0
1070
    42
1040
1.0
1070
    43
1040
6.0
1070
    44
1040
1.0
1070
   140
1040
3.0
1070
   147
1040
1.199999999999999
1070
   176
1070
     0
1070
   177
1070
     0
1070
   178
1070
     0
1070
   271
1070
     2
1070
   340
1005
4CD
1070
   342
1005
0
1002
}
  0
LINE
  5
610
330
1E
100
AcDbEntity
  8
MOJI
100
AcDbLine
 10
4542.9943170697
 20
1951.493372989732
 30
0.0
 11
4890.615952225205
 21
1951.493372989732
 31
0.0
  0
LEADER
  5
611
330
1E
100
AcDbEntity
  8
MOJI
100
AcDbLeader
  3
SJC
 76
     2
 10
4361.611517264149
 20
1853.764870241775
 30
0.0
 10
4542.9943170697
 20
1951.493372989732
 30
0.0
1001
ACAD
1000
DSTYLE
1002
{
1070
     5
1000

1070
    40
1040
20.0
1070
    41
1040
2.0
1070
    42
1040
1.0
1070
    43
1040
6.0
1070
    44
1040
1.0
1070
   140
1040
3.0
1070
   147
1040
1.199999999999999
1070
   176
1070
     0
1070
   177
1070
     0
1070
   178
1070
     0
1070
   271
1070
     2
1070
   340
1005
4CD
1070
   342
1005
0
1002
}
  0
LEADER
  5
612
330
1E
100
AcDbEntity
  8
MOJI
100
AcDbLeader
  3
SJC
 76
     2
 10
3067.980606139001
 20
3742.958495220533
 30
0.0
 10
3213.5171029938
 20
3892.509579417833
 30
0.0
1001
ACAD
1000
DSTYLE
1002
{
1070
     5
1000

1070
    40
1040
20.0
1070
    41
1040
2.0
1070
    42
1040
1.0
1070
    43
1040
6.0
1070
    44
1040
1.0
1070
   140
1040
3.0
1070
   147
1040
1.199999999999999
1070
   176
1070
     0
1070
   177
1070
     0
1070
   178
1070
     0
1070
   271
1070
     2
1070
   340
1005
4CD
1070
   342
1005
0
1002
}
  0
LINE
  5
614
330
1E
100
AcDbEntity
  8
MOJI
100
AcDbLine
 10
3213.5171029938
 20
3892.509579417833
 30
0.0
 11
3805.550475996503
 21
3892.509579417833
 31
0.0
  0
LINE
  5
616
330
1E
100
AcDbEntity
  8
MOJI
100
AcDbLine
 10
3228.5726447616
 20
4096.260797084833
 30
0.0
 11
3641.78880680435
 21
4096.260797084833
 31
0.0
  0
LEADER
  5
617
330
1E
100
AcDbEntity
  8
MOJI
100
AcDbLeader
  3
SJC
 76
     2
 10
3079.22813175267
 20
4291.705534669927
 30
0.0
 10
3228.5726447616
 20
4096.260797084833
 30
0.0
1001
ACAD
1000
DSTYLE
1002
{
1070
     5
1000

1070
    40
1040
20.0
1070
    41
1040
2.0
1070
    42
1040
1.0
1070
    43
1040
6.0
1070
    44
1040
1.0
1070
   140
1040
3.0
1070
   147
1040
1.199999999999999
1070
   176
1070
     0
1070
   177
1070
     0
1070
   178
1070
     0
1070
   271
1070
     2
1070
   340
1005
4CD
1070
   342
1005
0
1002
}
  0
LINE
  5
619
330
1E
100
AcDbEntity
  8
MOJI
100
AcDbLine
 10
3325.9313469241
 20
4402.389027386433
 30
0.0
 11
3701.3149472875
 21
4402.389027386433
 31
0.0
  0
LEADER
  5
61A
330
1E
100
AcDbEntity
  8
MOJI
100
AcDbLeader
  3
SJC
 76
     2
 10
3199.4953441695
 20
4306.995962401683
 30
0.0
 10
3325.9313469241
 20
4402.389027386433
 30
0.0
1001
ACAD
1000
DSTYLE
1002
{
1070
     5
1000

1070
    40
1040
20.0
1070
    41
1040
2.0
1070
    42
1040
1.0
1070
    43
1040
6.0
1070
    44
1040
1.0
1070
   140
1040
3.0
1070
   147
1040
1.199999999999999
1070
   176
1070
     0
1070
   177
1070
     0
1070
   178
1070
     0
1070
   271
1070
     2
1070
   340
1005
4CD
1070
   342
1005
0
1002
}
  0
LINE
  5
61C
330
1E
100
AcDbEntity
  8
MOJI
100
AcDbLine
 10
3152.8039080977
 20
4517.533068639433
 30
0.0
 11
3354.670055439001
 21
4517.533068639433
 31
0.0
  0
LEADER
  5
61D
330
1E
100
AcDbEntity
  8
MOJI
100
AcDbLeader
  3
SJC
 76
     2
 10
3052.426303218882
 20
4431.688595730272
 30
0.0
 10
3152.803908097701
 20
4517.533068639433
 30
0.0
1001
ACAD
1000
DSTYLE
1002
{
1070
     5
1000

1070
    40
1040
20.0
1070
    41
1040
2.0
1070
    42
1040
1.0
1070
    43
1040
6.0
1070
    44
1040
1.0
1070
   140
1040
3.0
1070
   147
1040
1.199999999999999
1070
   176
1070
     0
1070
   177
1070
     0
1070
   178
1070
     0
1070
   271
1070
     2
1070
   340
1005
4CD
1070
   342
1005
0
1002
}
  0
INSERT
  5
62D
330
1E
100
AcDbEntity
  8
MOJI
100
AcDbBlockReference
  2
B0070019
 10
2021.85757485245
 20
3413.315555796733
 30
0.0
  0
DIMENSION
  5
651
330
1E
100
AcDbEntity
  8
SUNPOU
100
AcDbDimension
  2
*D17
 10
3021.8572547755
 20
4718.876420866203
 30
0.0
 11
2021.8574985585
 21
4772.876420866203
 31
0.0
 70
    32
 71
     5
 42
-1.0
  3
SJC
100
AcDbAlignedDimension
 13
1021.8577423415
 23
4498.183519177447
 33
0.0
 14
3021.8572547755
 24
4512.226372715137
 34
0.0
100
AcDbRotatedDimension
1001
ACAD
1000
DSTYLE
1002
{
1070
    40
1040
20.0
1070
    41
1040
2.0
1070
    42
1040
1.0
1070
    43
1040
6.0
1070
    44
1040
1.0
1070
   140
1040
3.0
1070
   147
1040
1.199999999999999
1070
   176
1070
     0
1070
   177
1070
     0
1070
   178
1070
     0
1070
   271
1070
     2
1070
   340
1005
4CD
1002
}
  0
DIMENSION
  5
65E
330
1E
100
AcDbEntity
  8
SUNPOU
100
AcDbDimension
  2
*D18
 10
5021.857224973199
 20
4718.876420866203
 30
0.0
 11
4021.857239874349
 21
4772.876420866203
 31
0.0
 70
    32
 71
     5
 42
-1.0
  3
SJC
100
AcDbAlignedDimension
 13
3021.8572547755
 23
4512.226372715137
 33
0.0
 14
5021.857224973199
 24
4517.019775406505
 34
0.0
100
AcDbRotatedDimension
1001
ACAD
1000
DSTYLE
1002
{
1070
    40
1040
20.0
1070
    41
1040
2.0
1070
    42
1040
1.0
1070
    43
1040
6.0
1070
    44
1040
1.0
1070
   140
1040
3.0
1070
   147
1040
1.199999999999999
1070
   176
1070
     0
1070
   177
1070
     0
1070
   178
1070
     0
1070
   271
1070
     2
1070
   340
1005
4CD
1002
}
  0
INSERT
  5
6C7
330
1E
100
AcDbEntity
  8
ZWAKU
100
AcDbBlockReference
  2
CALCOMP_TECHJET720A3
 10
0.0
 20
0.0
 30
0.0
 41
20.0
 42
20.0
 43
20.0
  0
TEXT
  5
6C8
330
1E
100
AcDbEntity
  8
INFORMATION
100
AcDbText
 10
1.0
 20
2.0
 30
0.0
 40
0.8
  1
PLOTTER=CALCOMP_TECHJET720
100
AcDbText
  0
TEXT
  5
6C9
330
1E
100
AcDbEntity
  8
INFORMATION
100
AcDbText
 10
1.0
 20
3.0
 30
0.0
 40
0.8
  1
PAPER=A3
100
AcDbText
  0
DIMENSION
  5
AB0
330
1E
100
AcDbEntity
  8
SUNPOU
100
AcDbDimension
  2
*D20
 10
6271.857208581899
 20
2860.259423568563
 30
0.0
 11
6121.8572085819
 21
2914.259423568563
 31
0.0
 70
    32
  1
□<>
 71
     5
 42
-1.0
  3
SJC
100
AcDbAlignedDimension
 13
5971.857208581899
 23
3013.315561757132
 33
0.0
 14
6271.857208581899
 24
3013.315561757133
 34
0.0
100
AcDbRotatedDimension
1001
ACAD
1000
DSTYLE
1002
{
1070
    40
1040
20.0
1070
    41
1040
2.0
1070
    42
1040
1.0
1070
    43
1040
6.0
1070
    44
1040
1.0
1070
   140
1040
3.0
1070
   147
1040
1.199999999999999
1070
   176
1070
     0
1070
   177
1070
     0
1070
   178
1070
     0
1070
   271
1070
     2
1070
   340
1005
4CD
1002
}
  0
LINE
  5
ABD
330
1E
100
AcDbEntity
  8
SJC
100
AcDbLine
 10
6271.857208581899
 20
3413.315555796733
 30
0.0
 11
6271.857208581899
 21
3013.315561757133
 31
0.0
1001
ACAD
1000
ASC_BOUNDS
1002
{
1070
    19
1005
AE9
1002
}
  0
LINE
  5
ABE
330
1E
100
AcDbEntity
  8
SJC
100
AcDbLine
 10
5971.857208581901
 20
3413.315555796733
 30
0.0
 11
5971.857208581901
 21
3013.315561757133
 31
0.0
1001
ACAD
1000
ASC_BOUNDS
1002
{
1070
    19
1005
AE9
1002
}
  0
INSERT
  5
AE9
330
1E
100
AcDbEntity
  8
HATCH
  6
Continuous
100
AcDbBlockReference
  2
*X21
 10
0.0
 20
0.0
 30
0.0
1001
ACAD
1000
HATCH
1002
{
1070
    19
1000
PLAST
1040
500.0
1040
0.7853981633974483
1000
ASC_BOUNDS
1070
     2
1070
     1
1070
     4
1005
ABD
1005
217
1005
38D
1005
421
1070
     1
1070
     4
1005
372
1005
217
1005
ABE
1005
420
1000
ASC_SEEDPOINT
1011
6049.483399395937
1021
3142.611873490807
1031
0.0
1000
R14_HATCH_DATA
1000
AE9
1011
1.0
1021
0.0
1031
0.0
1011
0.0
1021
1.0
1031
0.0
1011
0.0
1021
0.0
1031
1.0
1040
0.0
1010
0.0
1020
0.0
1030
1.0
1000
PLAST
1070
     0
1070
     1
1071
        2
1071
        7
1070
     0
1070
     1
1071
        4
1040
6077.307038347299
1040
3413.315555796733
1040
5971.857208581901
1040
3413.315555796733
1040
5971.857208581901
1040
3013.315561757132
1040
6077.3070383473
1040
3013.315561757133
1071
        4
1005
420
1005
ABE
1005
217
1005
372
1071
        7
1070
     0
1070
     1
1071
        4
1040
6271.857208581899
1040
3413.315555796733
1040
6166.407378816501
1040
3413.315555796733
1040
6166.407378816501
1040
3013.315561757133
1040
6271.857208581899
1040
3013.315561757133
1071
        4
1005
421
1005
38D
1005
217
1005
ABD
1070
     0
1070
     1
1040
0.7853981633974483
1040
500.0
1070
     0
1070
     3
1040
0.7853981633974483
1040
0.0
1040
0.0
1040
-88.38834764831842
1040
88.38834764831844
1070
     0
1040
0.7853981633974483
1040
-11.0485434560398
1040
11.0485434560398
1040
-88.38834764831842
1040
88.38834764831844
1070
     0
1040
0.7853981633974483
1040
-22.09708691207961
1040
22.09708691207961
1040
-88.38834764831842
1040
88.38834764831844
1070
     0
1040
1.579780732984066
1071
        2
1040
6049.483399395937
1040
3142.611873490807
1040
0.0
1040
6175.955806894621
1040
3159.989462529524
1040
0.0
1002
}
  0
INSERT
  5
AEA
330
1E
100
AcDbEntity
  8
HATCH
  6
Continuous
100
AcDbBlockReference
  2
*X22
 10
0.0
 20
0.0
 30
0.0
1001
ACAD
1000
HATCH
1002
{
1070
    19
1000
PLAST
1040
500.0
1040
0.7853981633974483
1000
ASC_BOUNDS
1070
     2
1070
     1
1070
     4
1005
AEB
1005
AEC
1005
38D
1005
421
1070
     1
1070
     4
1005
372
1005
AEC
1005
AED
1005
420
1000
ASC_SEEDPOINT
1011
4949.482195084137
1021
3142.611873490807
1031
0.0
1000
R14_HATCH_DATA
1000
AEA
1011
1.0
1021
0.0
1031
0.0
1011
0.0
1021
1.0
1031
0.0
1011
0.0
1021
0.0
1031
1.0
1040
0.0
1010
0.0
1020
0.0
1030
1.0
1000
PLAST
1070
     0
1070
     1
1071
        2
1071
        7
1070
     0
1070
     1
1071
        4
1040
4977.305834035501
1040
3413.315555796733
1040
4871.856004270103
1040
3413.315555796733
1040
4871.856004270102
1040
3013.315561757132
1040
4977.305834035502
1040
3013.315561757133
1071
        4
1005
420
1005
AED
1005
AEC
1005
372
1071
        7
1070
     0
1070
     1
1071
        4
1040
5171.856004270101
1040
3413.315555796733
1040
5066.406174504702
1040
3413.315555796733
1040
5066.406174504702
1040
3013.315561757133
1040
5171.8560042701
1040
3013.315561757133
1071
        4
1005
421
1005
38D
1005
AEC
1005
AEB
1070
     0
1070
     1
1040
0.7853981633974483
1040
500.0
1070
     0
1070
     3
1040
0.7853981633974483
1040
-1100.001204311798
1040
0.0
1040
-88.38834764831842
1040
88.38834764831844
1070
     0
1040
0.7853981633974483
1040
-1111.049747767838
1040
11.0485434560398
1040
-88.38834764831842
1040
88.38834764831844
1070
     0
1040
0.7853981633974483
1040
-1122.098291223878
1040
22.09708691207961
1040
-88.38834764831842
1040
88.38834764831844
1070
     0
1040
1.579780732984066
1071
        2
1040
4949.482195084137
1040
3142.611873490807
1040
0.0
1040
5075.954602582822
1040
3159.989462529524
1040
0.0
1002
}
  0
LINE
  5
AEB
330
1E
100
AcDbEntity
  8
SJC
100
AcDbLine
 10
5171.856004270101
 20
3413.315555796733
 30
0.0
 11
5171.856004270101
 21
3013.315561757133
 31
0.0
1001
ACAD
1000
ASC_BOUNDS
1002
{
1070
    19
1005
AEA
1002
}
  0
LINE
  5
AEC
330
1E
100
AcDbEntity
  8
SJC
100
AcDbLine
 10
4871.8560042701
 20
3013.315561757132
 30
0.0
 11
5171.856004270101
 21
3013.315561757133
 31
0.0
1001
ACAD
1000
ASC_BOUNDS
1002
{
1070
    19
1005
AEA
1005
AEA
1002
}
  0
LINE
  5
AED
330
1E
100
AcDbEntity
  8
SJC
100
AcDbLine
 10
4871.856004270102
 20
3413.315555796733
 30
0.0
 11
4871.856004270102
 21
3013.315561757133
 31
0.0
1001
ACAD
1000
ASC_BOUNDS
1002
{
1070
    19
1005
AEA
1002
}
  0
INSERT
  5
AEE
330
1E
100
AcDbEntity
  8
HATCH
  6
Continuous
100
AcDbBlockReference
  2
*X23
 10
0.0
 20
0.0
 30
0.0
1001
ACAD
1000
HATCH
1002
{
1070
    19
1000
PLAST
1040
500.0
1040
0.7853981633974483
1000
ASC_BOUNDS
1070
     2
1070
     1
1070
     4
1005
AEF
1005
AF0
1005
38D
1005
421
1070
     1
1070
     4
1005
372
1005
AF0
1005
AF1
1005
420
1000
ASC_SEEDPOINT
1011
2949.482224886438
1021
3142.611873490807
1031
0.0
1000
R14_HATCH_DATA
1000
AEE
1011
1.0
1021
0.0
1031
0.0
1011
0.0
1021
1.0
1031
0.0
1011
0.0
1021
0.0
1031
1.0
1040
0.0
1010
0.0
1020
0.0
1030
1.0
1000
PLAST
1070
     0
1070
     1
1071
        2
1071
        7
1070
     0
1070
     1
1071
        4
1040
2977.305863837801
1040
3413.315555796733
1040
2871.856034072403
1040
3413.315555796733
1040
2871.856034072402
1040
3013.315561757132
1040
2977.305863837802
1040
3013.315561757133
1071
        4
1005
420
1005
AF1
1005
AF0
1005
372
1071
        7
1070
     0
1070
     1
1071
        4
1040
3171.856034072401
1040
3413.315555796733
1040
3066.406204307002
1040
3413.315555796733
1040
3066.406204307002
1040
3013.315561757133
1040
3171.8560340724
1040
3013.315561757133
1071
        4
1005
421
1005
38D
1005
AF0
1005
AEF
1070
     0
1070
     1
1040
0.7853981633974483
1040
500.0
1070
     0
1070
     3
1040
0.7853981633974483
1040
-3100.001174509499
1040
0.0
1040
-88.38834764831842
1040
88.38834764831844
1070
     0
1040
0.7853981633974483
1040
-3111.049717965539
1040
11.0485434560398
1040
-88.38834764831842
1040
88.38834764831844
1070
     0
1040
0.7853981633974483
1040
-3122.098261421579
1040
22.09708691207961
1040
-88.38834764831842
1040
88.38834764831844
1070
     0
1040
1.579780732984066
1071
        2
1040
2949.482224886438
1040
3142.611873490807
1040
0.0
1040
3075.954632385122
1040
3159.989462529524
1040
0.0
1002
}
  0
LINE
  5
AEF
330
1E
100
AcDbEntity
  8
SJC
100
AcDbLine
 10
3171.856034072401
 20
3413.315555796733
 30
0.0
 11
3171.856034072401
 21
3013.315561757133
 31
0.0
1001
ACAD
1000
ASC_BOUNDS
1002
{
1070
    19
1005
AEE
1002
}
  0
LINE
  5
AF0
330
1E
100
AcDbEntity
  8
SJC
100
AcDbLine
 10
2871.8560340724
 20
3013.315561757132
 30
0.0
 11
3171.856034072401
 21
3013.315561757133
 31
0.0
1001
ACAD
1000
ASC_BOUNDS
1002
{
1070
    19
1005
AEE
1005
AEE
1002
}
  0
LINE
  5
AF1
330
1E
100
AcDbEntity
  8
SJC
100
AcDbLine
 10
2871.856034072402
 20
3413.315555796733
 30
0.0
 11
2871.856034072402
 21
3013.315561757133
 31
0.0
1001
ACAD
1000
ASC_BOUNDS
1002
{
1070
    19
1005
AEE
1002
}
  0
LINE
  5
AF6
330
1E
100
AcDbEntity
  8
SJC
100
AcDbLine
 10
871.8563690504998
 20
3013.315561757132
 30
0.0
 11
1171.856369050501
 21
3013.315561757133
 31
0.0
  0
INSERT
  5
AF7
330
1E
100
AcDbEntity
  8
HATCH
  6
Continuous
100
AcDbBlockReference
  2
*X24
 10
0.0
 20
0.0
 30
0.0
1001
ACAD
1000
HATCH
1002
{
1070
    19
1000
PLAST
1040
500.0
1040
0.7853981633974483
1000
R14_HATCH_DATA
1000
AF7
1011
1.0
1021
0.0
1031
0.0
1011
0.0
1021
1.0
1031
0.0
1011
0.0
1021
0.0
1031
1.0
1040
0.0
1010
0.0
1020
0.0
1030
1.0
1000
PLAST
1070
     0
1070
     0
1071
        2
1071
        7
1070
     0
1070
     1
1071
        4
1040
977.3061988159007
1040
3413.315555796733
1040
871.8563690505025
1040
3413.315555796733
1040
871.8563690505016
1040
3013.315561757132
1040
977.3061988159016
1040
3013.315561757133
1071
        0
1071
        7
1070
     0
1070
     1
1071
        4
1040
1171.856369050501
1040
3413.315555796733
1040
1066.406539285101
1040
3413.315555796733
1040
1066.406539285101
1040
3013.315561757133
1040
1171.8563690505
1040
3013.315561757133
1071
        0
1070
     0
1070
     1
1040
0.7853981633974483
1040
500.0
1070
     0
1070
     3
1040
0.7853981633974483
1040
-5100.000839531399
1040
0.0
1040
-88.38834764831842
1040
88.38834764831844
1070
     0
1040
0.7853981633974483
1040
-5111.049382987438
1040
11.0485434560398
1040
-88.38834764831842
1040
88.38834764831844
1070
     0
1040
0.7853981633974483
1040
-5122.097926443479
1040
22.09708691207961
1040
-88.38834764831842
1040
88.38834764831844
1070
     0
1040
1.579780732984066
1071
        2
1040
949.4825598645375
1040
3142.611873490807
1040
0.0
1040
1075.954967363222
1040
3159.989462529524
1040
0.0
1002
}
  0
LINE
  5
AF8
330
1E
100
AcDbEntity
  8
SJC
100
AcDbLine
 10
1171.856369050501
 20
3413.315555796733
 30
0.0
 11
1171.856369050501
 21
3013.315561757133
 31
0.0
  0
LINE
  5
AF9
330
1E
100
AcDbEntity
  8
SJC
100
AcDbLine
 10
871.8563690505016
 20
3413.315555796733
 30
0.0
 11
871.8563690505016
 21
3013.315561757133
 31
0.0
  0
TEXT
  5
AFA
330
1E
100
AcDbEntity
  8
INFORMATION
100
AcDbText
 10
1.0
 20
1.0
 30
0.0
 40
0.8
  1
VERSION=3.0
100
AcDbText
  0
ENDSEC
  0
SECTION
  2
OBJECTS
  0
DICTIONARY
  5
C
330
0
100
AcDbDictionary
281
     1
  3
ACAD_COLOR
350
BAF
  3
ACAD_GROUP
350
D
  3
ACAD_LAYOUT
350
19
  3
ACAD_MATERIAL
350
BAE
  3
ACAD_MLINESTYLE
350
16
  3
ACAD_PLOTSETTINGS
350
18
  3
ACAD_PLOTSTYLENAME
350
E
  3
ACAD_TABLESTYLE
350
BB0
  3
AcDbVariableDictionary
350
ADA
  0
DICTIONARY
  5
9ED
330
1E
100
AcDbDictionary
280
     1
281
     1
  3
ACAD_LAYOUTSELFREF
360
B32
  0
DICTIONARY
  5
9EF
330
1A
100
AcDbDictionary
280
     1
281
     1
  3
ACAD_LAYOUTSELFREF
360
B31
  0
DICTIONARY
  5
BAF
102
{ACAD_REACTORS
330
C
102
}
330
C
100
AcDbDictionary
281
     1
  0
DICTIONARY
  5
D
102
{ACAD_REACTORS
330
C
102
}
330
C
100
AcDbDictionary
281
     1
  0
DICTIONARY
  5
19
102
{ACAD_REACTORS
330
C
102
}
330
C
100
AcDbDictionary
281
     1
  3
Model
350
21
  3
ﾚｲｱｳﾄ1
350
1D
  0
DICTIONARY
  5
BAE
102
{ACAD_REACTORS
330
C
102
}
330
C
100
AcDbDictionary
281
     1
  0
DICTIONARY
  5
16
102
{ACAD_REACTORS
330
C
102
}
330
C
100
AcDbDictionary
281
     1
  3
Standard
350
17
  0
DICTIONARY
  5
18
102
{ACAD_REACTORS
330
C
102
}
330
C
100
AcDbDictionary
281
     1
  0
ACDBDICTIONARYWDFLT
  5
E
102
{ACAD_REACTORS
330
C
102
}
330
C
100
AcDbDictionary
281
     1
  3
Normal
350
F
100
AcDbDictionaryWithDefault
340
F
1001
ACAD
1000
TREAT_AS_HARD
1070
     0
1000
TREAT_AS_HARD
1070
     0
1000
TREAT_AS_HARD
1070
     0
  0
DICTIONARY
  5
BB0
102
{ACAD_REACTORS
330
C
102
}
330
C
100
AcDbDictionary
281
     1
  3
Standard
350
BB1
  0
DICTIONARY
  5
ADA
102
{ACAD_REACTORS
330
C
102
}
330
C
100
AcDbDictionary
281
     1
  3
CTABLESTYLE
350
BB7
  3
SORTENTS
350
ADB
  0
XRECORD
  5
B32
102
{ACAD_REACTORS
330
9ED
102
}
330
9ED
100
AcDbXrecord
280
     1
340
1E
  0
XRECORD
  5
B31
102
{ACAD_REACTORS
330
9EF
102
}
330
9EF
100
AcDbXrecord
280
     1
340
1A
  0
LAYOUT
  5
21
102
{ACAD_REACTORS
330
19
102
}
330
19
100
AcDbPlotSettings
  1

  2
sjchpgl.pc3
  4
ISO_A3_(297.00_x_420.00_MM)
  6

 40
5.793749809265136
 41
17.79375076293945
 42
5.79376220703125
 43
17.79376220703125
 44
297.0
 45
420.0
 46
0.0
 47
0.0
 48
0.0
 49
0.0
140
0.0
141
0.0
142
1.0
143
20.0
 70
 11952
 72
     1
 73
     1
 74
     2
  7
CALCOMP_TECHJET720.CTB
 75
    22
147
0.05
 76
     0
 77
     2
 78
   300
148
0.0
149
0.0
100
AcDbLayout
  1
Model
 70
     1
 71
     0
 10
0.0
 20
0.0
 11
12.0
 21
9.0
 12
0.0
 22
0.0
 32
0.0
 14
0.0
 24
0.0
 34
0.0
 15
0.0
 25
0.0
 35
0.0
146
0.0
 13
0.0
 23
0.0
 33
0.0
 16
1.0
 26
0.0
 36
0.0
 17
0.0
 27
1.0
 37
0.0
 76
     0
330
1E
  0
LAYOUT
  5
1D
102
{ACAD_REACTORS
330
19
102
}
330
19
100
AcDbPlotSettings
  1

  2
C:\Program Files\AutoCAD 2000i\plotters\DWF Classic.pc3
  4

  6

 40
0.0
 41
0.0
 42
0.0
 43
0.0
 44
0.0
 45
0.0
 46
0.0
 47
0.0
 48
0.0
 49
0.0
140
0.0
141
0.0
142
1.0
143
1.0
 70
   688
 72
     0
 73
     0
 74
     5
  7
SJCCAD.ctb
 75
    16
147
1.0
 76
     0
 77
     2
 78
   300
148
0.0
149
0.0
100
AcDbLayout
  1
ﾚｲｱｳﾄ1
 70
     1
 71
     1
 10
0.0
 20
0.0
 11
12.0
 21
9.0
 12
0.0
 22
0.0
 32
0.0
 14
1.000000000000000E+20
 24
1.000000000000000E+20
 34
1.000000000000000E+20
 15
-1.000000000000000E+20
 25
-1.000000000000000E+20
 35
-1.000000000000000E+20
146
0.0
 13
0.0
 23
0.0
 33
0.0
 16
1.0
 26
0.0
 36
0.0
 17
0.0
 27
1.0
 37
0.0
 76
     0
330
1A
  0
MLINESTYLE
  5
17
102
{ACAD_REACTORS
330
16
102
}
330
16
100
AcDbMlineStyle
  2
STANDARD
 70
     0
  3

 62
   256
 51
90.0
 52
90.0
 71
     2
 49
0.5
 62
   256
  6
BYLAYER
 49
-0.5
 62
   256
  6
BYLAYER
  0
ACDBPLACEHOLDER
  5
F
102
{ACAD_REACTORS
330
E
102
}
330
E
  0
TABLESTYLE
  5
BB1
102
{ACAD_REACTORS
330
BB0
102
}
330
BB0
100
AcDbTableStyle
  3
Standard
 70
     0
 71
     0
 40
0.06
 41
0.06
280
     0
281
     0
  7
STANDARD
140
0.18
170
     2
 62
     0
 63
     7
283
     0
274
    -2
284
     1
 64
     0
275
    -2
285
     1
 65
     0
276
    -2
286
     1
 66
     0
277
    -2
287
     1
 67
     0
278
    -2
288
     1
 68
     0
279
    -2
289
     1
 69
     0
  7
STANDARD
140
0.25
170
     5
 62
     0
 63
     7
283
     0
274
    -2
284
     1
 64
     0
275
    -2
285
     1
 65
     0
276
    -2
286
     1
 66
     0
277
    -2
287
     1
 67
     0
278
    -2
288
     1
 68
     0
279
    -2
289
     1
 69
     0
  7
STANDARD
140
0.18
170
     5
 62
     0
 63
     7
283
     0
274
    -2
284
     1
 64
     0
275
    -2
285
     1
 65
     0
276
    -2
286
     1
 66
     0
277
    -2
287
     1
 67
     0
278
    -2
288
     1
 68
     0
279
    -2
289
     1
 69
     0
  0
DICTIONARYVAR
  5
BB7
102
{ACAD_REACTORS
330
ADA
102
}
330
ADA
100
DictionaryVariables
280
     0
  1
STANDARD
  0
DICTIONARYVAR
  5
ADB
102
{ACAD_REACTORS
330
ADA
102
}
330
ADA
100
DictionaryVariables
280
     0
  1
96
  0
ENDSEC
  0
EOF
