  0
SECTION
  2
HEADER
  9
$ACADVER
  1
AC1018
  9
$ACADMAINTVER
 70
    39
  9
$DWGCODEPAGE
  3
ANSI_932
  9
$INSBASE
 10
0.0
 20
0.0
 30
0.0
  9
$EXTMIN
 10
0.0
 20
0.0
 30
0.0
  9
$EXTMAX
 10
7400.0
 20
5340.0
 30
0.0
  9
$LIMMIN
 10
0.0
 20
0.0
  9
$LIMMAX
 10
8400.0
 20
5940.0
  9
$ORTHOMODE
 70
     0
  9
$REGENMODE
 70
     1
  9
$FILLMODE
 70
     1
  9
$QTEXTMODE
 70
     0
  9
$MIRRTEXT
 70
     0
  9
$LTSCALE
 40
200.0
  9
$ATTMODE
 70
     1
  9
$TEXTSIZE
 40
60.0
  9
$TRACEWID
 40
0.05
  9
$TEXTSTYLE
  7
EXT08
  9
$CLAYER
  8
MOJI
  9
$CELTYPE
  6
BYLAYER
  9
$CECOLOR
 62
   256
  9
$CELTSCALE
 40
1.0
  9
$DISPSILH
 70
     0
  9
$DIMSCALE
 40
20.0
  9
$DIMASZ
 40
2.0
  9
$DIMEXO
 40
1.0
  9
$DIMDLI
 40
6.0
  9
$DIMRND
 40
0.0
  9
$DIMDLE
 40
0.0
  9
$DIMEXE
 40
1.0
  9
$DIMTP
 40
0.0
  9
$DIMTM
 40
0.0
  9
$DIMTXT
 40
3.0
  9
$DIMCEN
 40
0.09
  9
$DIMTSZ
 40
0.0
  9
$DIMTOL
 70
     0
  9
$DIMLIM
 70
     0
  9
$DIMTIH
 70
     0
  9
$DIMTOH
 70
     0
  9
$DIMSE1
 70
     0
  9
$DIMSE2
 70
     0
  9
$DIMTAD
 70
     1
  9
$DIMZIN
 70
     8
  9
$DIMBLK
  1

  9
$DIMASO
 70
     1
  9
$DIMSHO
 70
     1
  9
$DIMPOST
  1

  9
$DIMAPOST
  1

  9
$DIMALT
 70
     0
  9
$DIMALTD
 70
     2
  9
$DIMALTF
 40
25.4
  9
$DIMLFAC
 40
0.5
  9
$DIMTOFL
 70
     1
  9
$DIMTVP
 40
0.0
  9
$DIMTIX
 70
     0
  9
$DIMSOXD
 70
     0
  9
$DIMSAH
 70
     0
  9
$DIMBLK1
  1

  9
$DIMBLK2
  1

  9
$DIMSTYLE
  2
SJC
  9
$DIMCLRD
 70
   256
  9
$DIMCLRE
 70
   256
  9
$DIMCLRT
 70
   256
  9
$DIMTFAC
 40
1.0
  9
$DIMGAP
 40
1.199999999999999
  9
$DIMJUST
 70
     0
  9
$DIMSD1
 70
     0
  9
$DIMSD2
 70
     0
  9
$DIMTOLJ
 70
     1
  9
$DIMTZIN
 70
     0
  9
$DIMALTZ
 70
     0
  9
$DIMALTTZ
 70
     0
  9
$DIMUPT
 70
     0
  9
$DIMDEC
 70
     2
  9
$DIMTDEC
 70
     4
  9
$DIMALTU
 70
     2
  9
$DIMALTTD
 70
     2
  9
$DIMTXSTY
  7
EXT08
  9
$DIMAUNIT
 70
     1
  9
$DIMADEC
 70
     0
  9
$DIMALTRND
 40
0.0
  9
$DIMAZIN
 70
     0
  9
$DIMDSEP
 70
    46
  9
$DIMATFIT
 70
     3
  9
$DIMFRAC
 70
     0
  9
$DIMLDRBLK
  1

  9
$DIMLUNIT
 70
     2
  9
$DIMLWD
 70
    -2
  9
$DIMLWE
 70
    -2
  9
$DIMTMOVE
 70
     2
  9
$LUNITS
 70
     2
  9
$LUPREC
 70
     2
  9
$SKETCHINC
 40
0.1
  9
$FILLETRAD
 40
0.0
  9
$AUNITS
 70
     1
  9
$AUPREC
 70
     2
  9
$MENU
  1
sjc
  9
$ELEVATION
 40
0.0
  9
$PELEVATION
 40
0.0
  9
$THICKNESS
 40
0.0
  9
$LIMCHECK
 70
     0
  9
$CHAMFERA
 40
0.0
  9
$CHAMFERB
 40
0.0
  9
$CHAMFERC
 40
0.0
  9
$CHAMFERD
 40
0.0
  9
$SKPOLY
 70
     0
  9
$TDCREATE
 40
2449299.044180671
  9
$TDUCREATE
 40
2449298.669180671
  9
$TDUPDATE
 40
2455021.403976054
  9
$TDUUPDATE
 40
2455021.028976054
  9
$TDINDWG
 40
0.2411045718
  9
$TDUSRTIMER
 40
0.2411045718
  9
$USRTIMER
 70
     1
  9
$ANGBASE
 50
0.0
  9
$ANGDIR
 70
     0
  9
$PDMODE
 70
     0
  9
$PDSIZE
 40
0.0
  9
$PLINEWID
 40
0.0
  9
$SPLFRAME
 70
     0
  9
$SPLINETYPE
 70
     6
  9
$SPLINESEGS
 70
     8
  9
$HANDSEED
  5
C09
  9
$SURFTAB1
 70
     6
  9
$SURFTAB2
 70
     6
  9
$SURFTYPE
 70
     6
  9
$SURFU
 70
     6
  9
$SURFV
 70
     6
  9
$UCSBASE
  2

  9
$UCSNAME
  2

  9
$UCSORG
 10
0.0
 20
0.0
 30
0.0
  9
$UCSXDIR
 10
1.0
 20
0.0
 30
0.0
  9
$UCSYDIR
 10
0.0
 20
1.0
 30
0.0
  9
$UCSORTHOREF
  2

  9
$UCSORTHOVIEW
 70
     0
  9
$UCSORGTOP
 10
0.0
 20
0.0
 30
0.0
  9
$UCSORGBOTTOM
 10
0.0
 20
0.0
 30
0.0
  9
$UCSORGLEFT
 10
0.0
 20
0.0
 30
0.0
  9
$UCSORGRIGHT
 10
0.0
 20
0.0
 30
0.0
  9
$UCSORGFRONT
 10
0.0
 20
0.0
 30
0.0
  9
$UCSORGBACK
 10
0.0
 20
0.0
 30
0.0
  9
$PUCSBASE
  2

  9
$PUCSNAME
  2

  9
$PUCSORG
 10
0.0
 20
0.0
 30
0.0
  9
$PUCSXDIR
 10
1.0
 20
0.0
 30
0.0
  9
$PUCSYDIR
 10
0.0
 20
1.0
 30
0.0
  9
$PUCSORTHOREF
  2

  9
$PUCSORTHOVIEW
 70
     0
  9
$PUCSORGTOP
 10
0.0
 20
0.0
 30
0.0
  9
$PUCSORGBOTTOM
 10
0.0
 20
0.0
 30
0.0
  9
$PUCSORGLEFT
 10
0.0
 20
0.0
 30
0.0
  9
$PUCSORGRIGHT
 10
0.0
 20
0.0
 30
0.0
  9
$PUCSORGFRONT
 10
0.0
 20
0.0
 30
0.0
  9
$PUCSORGBACK
 10
0.0
 20
0.0
 30
0.0
  9
$USERI1
 70
     3
  9
$USERI2
 70
    20
  9
$USERI3
 70
     0
  9
$USERI4
 70
     0
  9
$USERI5
 70
     0
  9
$USERR1
 40
0.0
  9
$USERR2
 40
0.0
  9
$USERR3
 40
0.0
  9
$USERR4
 40
0.0
  9
$USERR5
 40
0.0
  9
$WORLDVIEW
 70
     1
  9
$SHADEDGE
 70
     3
  9
$SHADEDIF
 70
    70
  9
$TILEMODE
 70
     1
  9
$MAXACTVP
 70
    16
  9
$PINSBASE
 10
0.0
 20
0.0
 30
0.0
  9
$PLIMCHECK
 70
     0
  9
$PEXTMIN
 10
1.000000000000000E+20
 20
1.000000000000000E+20
 30
1.000000000000000E+20
  9
$PEXTMAX
 10
-1.000000000000000E+20
 20
-1.000000000000000E+20
 30
-1.000000000000000E+20
  9
$PLIMMIN
 10
0.0
 20
0.0
  9
$PLIMMAX
 10
12.0
 20
9.0
  9
$UNITMODE
 70
     0
  9
$VISRETAIN
 70
     0
  9
$PLINEGEN
 70
     0
  9
$PSLTSCALE
 70
     1
  9
$TREEDEPTH
 70
  3020
  9
$CMLSTYLE
  2
STANDARD
  9
$CMLJUST
 70
     0
  9
$CMLSCALE
 40
1.0
  9
$PROXYGRAPHICS
 70
     1
  9
$MEASUREMENT
 70
     0
  9
$CELWEIGHT
370
    -1
  9
$ENDCAPS
280
     0
  9
$JOINSTYLE
280
     0
  9
$LWDISPLAY
290
     0
  9
$INSUNITS
 70
     0
  9
$HYPERLINKBASE
  1

  9
$STYLESHEET
  1

  9
$XEDIT
290
     1
  9
$CEPSNTYPE
380
     0
  9
$PSTYLEMODE
290
     1
  9
$FINGERPRINTGUID
  2
{25613948-91DB-486C-88D2-9F73F927DE63}
  9
$VERSIONGUID
  2
{5FD9DAA6-6BF0-4D02-A3A0-16EC1F8790A7}
  9
$EXTNAMES
290
     1
  9
$PSVPSCALE
 40
0.0
  9
$OLESTARTUP
290
     0
  9
$SORTENTS
280
   127
  9
$INDEXCTL
280
     0
  9
$HIDETEXT
280
     0
  9
$XCLIPFRAME
290
     0
  9
$HALOGAP
280
     0
  9
$OBSCOLOR
 70
   257
  9
$OBSLTYPE
280
     0
  9
$INTERSECTIONDISPLAY
280
     0
  9
$INTERSECTIONCOLOR
 70
   257
  9
$DIMASSOC
280
     1
  9
$PROJECTNAME
  1

  0
ENDSEC
  0
SECTION
  2
CLASSES
  0
CLASS
  1
ACDBDICTIONARYWDFLT
  2
AcDbDictionaryWithDefault
  3
ObjectDBX Classes
 90
        0
 91
        1
280
     0
281
     0
  0
CLASS
  1
TABLESTYLE
  2
AcDbTableStyle
  3
ObjectDBX Classes
 90
     2047
 91
        1
280
     0
281
     0
  0
CLASS
  1
DICTIONARYVAR
  2
AcDbDictionaryVar
  3
ObjectDBX Classes
 90
        0
 91
        1
280
     0
281
     0
  0
ENDSEC
  0
SECTION
  2
TABLES
  0
TABLE
  2
VPORT
  5
8
330
0
100
AcDbSymbolTable
 70
     2
  0
VPORT
  5
C08
330
8
100
AcDbSymbolTableRecord
100
AcDbViewportTableRecord
  2
*Active
 70
     0
 10
0.0
 20
0.0
 11
1.0
 21
1.0
 12
5616.203007518798
 22
3237.14258597313
 13
0.0
 23
0.0
 14
10.0
 24
10.0
 15
0.0
 25
0.0
 16
0.0
 26
0.0
 36
1.0
 17
0.0
 27
0.0
 37
0.0
 40
6474.285171946259
 41
1.734926052332195
 42
50.0
 43
0.0
 44
0.0
 50
0.0
 51
0.0
 71
     0
 72
   100
 73
     1
 74
     1
 75
     0
 76
     0
 77
     0
 78
     0
281
     0
 65
     1
110
0.0
120
0.0
130
0.0
111
1.0
121
0.0
131
0.0
112
0.0
122
1.0
132
0.0
 79
     0
146
0.0
  0
ENDTAB
  0
TABLE
  2
LTYPE
  5
5
330
0
100
AcDbSymbolTable
 70
     5
  0
LTYPE
  5
12
330
5
100
AcDbSymbolTableRecord
100
AcDbLinetypeTableRecord
  2
BYBLOCK
 70
     0
  3

 72
    65
 73
     0
 40
0.0
  0
LTYPE
  5
13
330
5
100
AcDbSymbolTableRecord
100
AcDbLinetypeTableRecord
  2
BYLAYER
 70
     0
  3

 72
    65
 73
     0
 40
0.0
  0
LTYPE
  5
14
330
5
100
AcDbSymbolTableRecord
100
AcDbLinetypeTableRecord
  2
CONTINUOUS
 70
     0
  3
Solid line
 72
    65
 73
     0
 40
0.0
  0
LTYPE
  5
2F
330
5
100
AcDbSymbolTableRecord
100
AcDbLinetypeTableRecord
  2
CENTER
 70
     0
  3
____ _ ____ _ ____ _ ____ _ ____ _ ____ _ ____ 
 72
    65
 73
     4
 40
2.0
 49
1.25
 74
     0
 49
-0.25
 74
     0
 49
0.25
 74
     0
 49
-0.25
 74
     0
  0
LTYPE
  5
30
330
5
100
AcDbSymbolTableRecord
100
AcDbLinetypeTableRecord
  2
HIDDEN
 70
     0
  3
__ __ __ __ __ __ __ __ __ __ __ __ __ __ __ __
 72
    65
 73
     2
 40
0.375
 49
0.25
 74
     0
 49
-0.125
 74
     0
  0
LTYPE
  5
31
330
5
100
AcDbSymbolTableRecord
100
AcDbLinetypeTableRecord
  2
HIDDEN2
 70
     0
  3
_ _ _ _ _ _ _ _ _ _ _ _ _ _ _ _ _ _ _ _ _ _ _ _
 72
    65
 73
     2
 40
0.1875
 49
0.125
 74
     0
 49
-0.0625
 74
     0
  0
LTYPE
  5
32
330
5
100
AcDbSymbolTableRecord
100
AcDbLinetypeTableRecord
  2
PHANTOM
 70
     0
  3
______  __  __  ______  __  __  ______  __  __ 
 72
    65
 73
     6
 40
2.5
 49
1.25
 74
     0
 49
-0.25
 74
     0
 49
0.25
 74
     0
 49
-0.25
 74
     0
 49
0.25
 74
     0
 49
-0.25
 74
     0
  0
ENDTAB
  0
TABLE
  2
LAYER
  5
2
330
0
100
AcDbSymbolTable
 70
    15
  0
LAYER
  5
F
330
2
100
AcDbSymbolTableRecord
100
AcDbLayerTableRecord
  2
0
 70
     0
 62
     7
  6
CONTINUOUS
370
    -3
390
ABB
  0
LAYER
  5
38
330
2
100
AcDbSymbolTableRecord
100
AcDbLayerTableRecord
  2
CENTER
 70
     0
 62
     3
  6
CENTER
370
    -3
390
ABB
  0
LAYER
  5
39
330
2
100
AcDbSymbolTableRecord
100
AcDbLayerTableRecord
  2
HASEN
 70
     0
 62
     7
  6
HIDDEN
370
    -3
390
ABB
  0
LAYER
  5
3A
330
2
100
AcDbSymbolTableRecord
100
AcDbLayerTableRecord
  2
HOJO
 70
     0
 62
     8
  6
CONTINUOUS
370
    -3
390
ABB
  0
LAYER
  5
3B
330
2
100
AcDbSymbolTableRecord
100
AcDbLayerTableRecord
  2
KASOU
 70
     0
 62
     2
  6
PHANTOM
370
    -3
390
ABB
  0
LAYER
  5
3C
330
2
100
AcDbSymbolTableRecord
100
AcDbLayerTableRecord
  2
MOJI
 70
     0
 62
     6
  6
CONTINUOUS
370
    -3
390
ABB
  0
LAYER
  5
3D
330
2
100
AcDbSymbolTableRecord
100
AcDbLayerTableRecord
  2
SJC
 70
     0
 62
     1
  6
CONTINUOUS
370
    -3
390
ABB
  0
LAYER
  5
3E
330
2
100
AcDbSymbolTableRecord
100
AcDbLayerTableRecord
  2
SUNPOU
 70
     0
 62
     4
  6
CONTINUOUS
370
    -3
390
ABB
  0
LAYER
  5
3F
330
2
100
AcDbSymbolTableRecord
100
AcDbLayerTableRecord
  2
WAKU
 70
     0
 62
     5
  6
CONTINUOUS
370
    -3
390
ABB
  0
LAYER
  5
40
330
2
100
AcDbSymbolTableRecord
100
AcDbLayerTableRecord
  2
ZWAKU
 70
     0
 62
     7
  6
CONTINUOUS
370
    -3
390
ABB
  0
LAYER
  5
41
330
2
100
AcDbSymbolTableRecord
100
AcDbLayerTableRecord
  2
DEFPOINTS
 70
     0
 62
     7
  6
CONTINUOUS
290
     0
370
    -3
390
ABB
  0
LAYER
  5
791
330
2
100
AcDbSymbolTableRecord
100
AcDbLayerTableRecord
  2
INFORMATION
 70
     1
 62
     7
  6
CONTINUOUS
370
    -3
390
ABB
  0
LAYER
  5
794
330
2
100
AcDbSymbolTableRecord
100
AcDbLayerTableRecord
  2
SJC2
 70
     0
 62
     7
  6
CONTINUOUS
370
    -3
390
ABB
  0
LAYER
  5
795
330
2
100
AcDbSymbolTableRecord
100
AcDbLayerTableRecord
  2
MOJI2
 70
     0
 62
     1
  6
CONTINUOUS
370
    -3
390
ABB
  0
LAYER
  5
796
330
2
100
AcDbSymbolTableRecord
100
AcDbLayerTableRecord
  2
HATCH
 70
     0
 62
     2
  6
CONTINUOUS
370
    -3
390
ABB
  0
ENDTAB
  0
TABLE
  2
STYLE
  5
3
330
0
100
AcDbSymbolTable
 70
     8
  0
STYLE
  5
10
330
3
100
AcDbSymbolTableRecord
100
AcDbTextStyleTableRecord
  2
STANDARD
 70
     0
 40
0.0
 41
1.0
 50
0.0
 71
     0
 42
60.0
  3
romans
  4
bigfont
  0
STYLE
  5
2D
330
3
100
AcDbSymbolTableRecord
100
AcDbTextStyleTableRecord
  2
SIMPLEX
 70
     0
 40
0.0
 41
1.0
 50
0.0
 71
     0
 42
60.0
  3
scripts
  4

  0
STYLE
  5
2E
330
3
100
AcDbSymbolTableRecord
100
AcDbTextStyleTableRecord
  2
KANJI
 70
     0
 40
0.0
 41
1.0
 50
0.0
 71
     0
 42
60.0
  3
romans
  4
bigfont
  0
STYLE
  5
7A6
330
3
100
AcDbSymbolTableRecord
100
AcDbTextStyleTableRecord
  2
TATEEXT
 70
     4
 40
0.0
 41
1.0
 50
0.0
 71
     0
 42
60.0
  3
ROMANS
  4
EXTFONT
  0
STYLE
  5
7A7
330
3
100
AcDbSymbolTableRecord
100
AcDbTextStyleTableRecord
  2
TATEBIG
 70
     4
 40
0.0
 41
1.0
 50
0.0
 71
     0
 42
60.0
  3
ROMANS
  4
BIGFONT
  0
STYLE
  5
7A8
330
3
100
AcDbSymbolTableRecord
100
AcDbTextStyleTableRecord
  2
EXT08
 70
     0
 40
0.0
 41
0.8
 50
0.0
 71
     0
 42
60.0
  3
ROMANS
  4
EXTFONT
  0
STYLE
  5
7A9
330
3
100
AcDbSymbolTableRecord
100
AcDbTextStyleTableRecord
  2
EXT
 70
     0
 40
0.0
 41
1.0
 50
0.0
 71
     0
 42
60.0
  3
ROMANS
  4
EXTFONT
  0
STYLE
  5
7AA
330
3
100
AcDbSymbolTableRecord
100
AcDbTextStyleTableRecord
  2
KANJI08
 70
     0
 40
0.0
 41
0.8
 50
0.0
 71
     0
 42
60.0
  3
ROMANS
  4
BIGFONT
  0
ENDTAB
  0
TABLE
  2
VIEW
  5
6
330
0
100
AcDbSymbolTable
 70
     0
  0
ENDTAB
  0
TABLE
  2
UCS
  5
7
330
0
100
AcDbSymbolTable
 70
     0
  0
ENDTAB
  0
TABLE
  2
APPID
  5
9
330
0
100
AcDbSymbolTable
 70
     1
  0
APPID
  5
11
330
9
100
AcDbSymbolTableRecord
100
AcDbRegAppTableRecord
  2
ACAD
 70
     0
  0
ENDTAB
  0
TABLE
  2
DIMSTYLE
  5
A
330
0
100
AcDbSymbolTable
 70
     2
100
AcDbDimStyleTable
 71
     0
  0
DIMSTYLE
105
35
330
A
100
AcDbSymbolTableRecord
100
AcDbDimStyleTableRecord
  2
S01-20AX
 70
     0
 41
40.0
 42
20.0
 43
0.4
 44
20.0
 73
     0
 74
     0
 77
     1
 78
     8
140
50.0
141
0.1
146
0.004
147
0.1
172
     1
176
   256
177
   256
178
   256
271
     1
272
     1
275
     1
279
     2
284
     8
285
     8
286
     8
340
2E
  0
DIMSTYLE
105
7AB
102
{ACAD_REACTORS
330
47F
330
480
330
482
330
483
330
484
330
487
330
488
330
49F
330
4AB
330
4AC
330
5DF
330
605
330
642
330
76D
330
77A
330
7D0
330
7F4
102
}
330
A
100
AcDbSymbolTableRecord
100
AcDbDimStyleTableRecord
  2
SJC
 70
     0
340
10
  0
ENDTAB
  0
TABLE
  2
BLOCK_RECORD
  5
1
330
0
100
AcDbSymbolTable
 70
    19
  0
BLOCK_RECORD
  5
18
330
1
100
AcDbSymbolTableRecord
100
AcDbBlockTableRecord
  2
*MODEL_SPACE
340
AC2
  0
BLOCK_RECORD
  5
15
330
1
100
AcDbSymbolTableRecord
100
AcDbBlockTableRecord
  2
*PAPER_SPACE
340
AC3
  0
BLOCK_RECORD
  5
5D3
330
1
100
AcDbSymbolTableRecord
100
AcDbBlockTableRecord
  2
*D0
340
0
  0
BLOCK_RECORD
  5
5F9
330
1
100
AcDbSymbolTableRecord
100
AcDbBlockTableRecord
  2
*D1
340
0
  0
BLOCK_RECORD
  5
634
330
1
100
AcDbSymbolTableRecord
100
AcDbBlockTableRecord
  2
*D2
340
0
  0
BLOCK_RECORD
  5
6ED
330
1
100
AcDbSymbolTableRecord
100
AcDbBlockTableRecord
  2
*D3
340
0
  0
BLOCK_RECORD
  5
6F9
330
1
100
AcDbSymbolTableRecord
100
AcDbBlockTableRecord
  2
*D4
340
0
  0
BLOCK_RECORD
  5
705
330
1
100
AcDbSymbolTableRecord
100
AcDbBlockTableRecord
  2
*D5
340
0
  0
BLOCK_RECORD
  5
711
330
1
100
AcDbSymbolTableRecord
100
AcDbBlockTableRecord
  2
*D6
340
0
  0
BLOCK_RECORD
  5
761
330
1
100
AcDbSymbolTableRecord
100
AcDbBlockTableRecord
  2
*D7
340
0
  0
BLOCK_RECORD
  5
76E
330
1
100
AcDbSymbolTableRecord
100
AcDbBlockTableRecord
  2
*D8
340
0
  0
BLOCK_RECORD
  5
787
330
1
100
AcDbSymbolTableRecord
100
AcDbBlockTableRecord
  2
CALCOMP_TECHJET720A3
340
0
102
{BLKREFS
331
790
102
}
  0
BLOCK_RECORD
  5
7C4
330
1
100
AcDbSymbolTableRecord
100
AcDbBlockTableRecord
  2
*D10
340
0
  0
BLOCK_RECORD
  5
7E8
330
1
100
AcDbSymbolTableRecord
100
AcDbBlockTableRecord
  2
*D11
340
0
  0
BLOCK_RECORD
  5
830
330
1
100
AcDbSymbolTableRecord
100
AcDbBlockTableRecord
  2
*D12
340
0
  0
BLOCK_RECORD
  5
83C
330
1
100
AcDbSymbolTableRecord
100
AcDbBlockTableRecord
  2
*D13
340
0
  0
BLOCK_RECORD
  5
853
330
1
100
AcDbSymbolTableRecord
100
AcDbBlockTableRecord
  2
*D14
340
0
  0
BLOCK_RECORD
  5
875
330
1
100
AcDbSymbolTableRecord
100
AcDbBlockTableRecord
  2
*D15
340
0
  0
BLOCK_RECORD
  5
899
330
1
100
AcDbSymbolTableRecord
100
AcDbBlockTableRecord
  2
*D16
340
0
  0
BLOCK_RECORD
  5
953
330
1
100
AcDbSymbolTableRecord
100
AcDbBlockTableRecord
  2
*D17
340
0
  0
BLOCK_RECORD
  5
A63
330
1
100
AcDbSymbolTableRecord
100
AcDbBlockTableRecord
  2
*X18
340
0
102
{BLKREFS
331
A65
102
}
  0
ENDTAB
  0
ENDSEC
  0
SECTION
  2
BLOCKS
  0
BLOCK
  5
44
330
18
100
AcDbEntity
  8
0
100
AcDbBlockBegin
  2
*MODEL_SPACE
 70
     0
 10
0.0
 20
0.0
 30
0.0
  3
*MODEL_SPACE
  1

  0
ENDBLK
  5
45
330
18
100
AcDbEntity
  8
0
100
AcDbBlockEnd
  0
BLOCK
  5
42
330
15
100
AcDbEntity
 67
     1
  8
0
100
AcDbBlockBegin
  2
*PAPER_SPACE
 70
     0
 10
0.0
 20
0.0
 30
0.0
  3
*PAPER_SPACE
  1

  0
ENDBLK
  5
43
330
15
100
AcDbEntity
 67
     1
  8
0
100
AcDbBlockEnd
  0
BLOCK
  5
825
330
5D3
100
AcDbEntity
  8
0
100
AcDbBlockBegin
  2
*D0
 70
     1
 10
0.0
 20
0.0
 30
0.0
  3
*D0
  1

  0
LINE
  5
B9D
330
5D3
100
AcDbEntity
  8
SUNPOU
370
    -2
100
AcDbLine
 10
6186.4073788165
 20
4160.900646534989
 30
0.0
 11
6484.788111675
 21
4160.900646534989
 31
0.0
  0
LINE
  5
B9E
330
5D3
100
AcDbEntity
  8
SUNPOU
370
    -2
100
AcDbLine
 10
6450.4582782021
 20
3660.90064653499
 30
0.0
 11
6484.788111675
 21
3660.90064653499
 31
0.0
  0
LINE
  5
B9F
330
5D3
100
AcDbEntity
  8
SUNPOU
370
    -2
100
AcDbLine
 10
6464.788111675
 20
4120.900646534989
 30
0.0
 11
6464.788111675
 21
3700.90064653499
 31
0.0
  0
SOLID
  5
BA0
330
5D3
100
AcDbEntity
  8
SUNPOU
100
AcDbTrace
 10
6458.121445008334
 20
4120.900646534989
 30
0.0
 11
6471.454778341668
 21
4120.900646534989
 31
0.0
 12
6464.788111675
 22
4160.900646534989
 32
0.0
 13
6464.788111675
 23
4160.900646534989
 33
0.0
  0
SOLID
  5
BA1
330
5D3
100
AcDbEntity
  8
SUNPOU
100
AcDbTrace
 10
6458.121445008334
 20
3700.90064653499
 30
0.0
 11
6471.454778341668
 21
3700.90064653499
 31
0.0
 12
6464.788111675
 22
3660.90064653499
 32
0.0
 13
6464.788111675
 23
3660.90064653499
 33
0.0
  0
MTEXT
  5
BA2
330
5D3
100
AcDbEntity
  8
SUNPOU
100
AcDbMText
 10
6410.788111675
 20
3910.900646534991
 30
0.0
 40
60.0
 41
0.0
 71
     5
 72
     1
  1
\A1;500
  7
EXT08
 11
0.0000000000000001
 21
1.0
 31
0.0
 73
     1
 44
1.0
  0
POINT
  5
BA3
330
5D3
100
AcDbEntity
  8
DEFPOINTS
 62
     0
100
AcDbPoint
 10
6166.407378816501
 20
4160.900646534989
 30
0.0
  0
POINT
  5
BA4
330
5D3
100
AcDbEntity
  8
DEFPOINTS
 62
     0
100
AcDbPoint
 10
6430.4582782021
 20
3660.90064653499
 30
0.0
  0
POINT
  5
BA5
330
5D3
100
AcDbEntity
  8
DEFPOINTS
 62
     0
100
AcDbPoint
 10
6464.788111675
 20
3660.90064653499
 30
0.0
  0
ENDBLK
  5
82F
330
5D3
100
AcDbEntity
  8
0
100
AcDbBlockEnd
  0
BLOCK
  5
8FB
330
5F9
100
AcDbEntity
  8
0
100
AcDbBlockBegin
  2
*D1
 70
     1
 10
0.0
 20
0.0
 30
0.0
  3
*D1
  1

  0
LINE
  5
B95
330
5F9
100
AcDbEntity
  8
SUNPOU
370
    -2
100
AcDbLine
 10
6208.520198014459
 20
4560.90002277239
 30
0.0
 11
6484.788111675
 21
4560.90002277239
 31
0.0
  0
LINE
  5
B96
330
5F9
100
AcDbEntity
  8
SUNPOU
370
    -2
100
AcDbLine
 10
6464.788111675
 20
4520.90002277239
 30
0.0
 11
6464.788111675
 21
4200.900646534988
 31
0.0
  0
SOLID
  5
B97
330
5F9
100
AcDbEntity
  8
SUNPOU
100
AcDbTrace
 10
6458.121445008334
 20
4520.90002277239
 30
0.0
 11
6471.454778341668
 21
4520.90002277239
 31
0.0
 12
6464.788111675
 22
4560.90002277239
 32
0.0
 13
6464.788111675
 23
4560.90002277239
 33
0.0
  0
SOLID
  5
B98
330
5F9
100
AcDbEntity
  8
SUNPOU
100
AcDbTrace
 10
6458.121445008334
 20
4200.900646534988
 30
0.0
 11
6471.454778341668
 21
4200.900646534988
 31
0.0
 12
6464.788111675
 22
4160.900646534989
 32
0.0
 13
6464.788111675
 23
4160.900646534989
 33
0.0
  0
MTEXT
  5
B99
330
5F9
100
AcDbEntity
  8
SUNPOU
100
AcDbMText
 10
6410.788111675
 20
4360.900334653692
 30
0.0
 40
60.0
 41
0.0
 71
     5
 72
     1
  1
\A1;400
  7
EXT08
 11
0.0000000000000001
 21
1.0
 31
0.0
 73
     1
 44
1.0
  0
POINT
  5
B9A
330
5F9
100
AcDbEntity
  8
DEFPOINTS
 62
     0
100
AcDbPoint
 10
6188.520198014459
 20
4560.90002277239
 30
0.0
  0
POINT
  5
B9B
330
5F9
100
AcDbEntity
  8
DEFPOINTS
 62
     0
100
AcDbPoint
 10
6464.788111675
 20
4160.900646534989
 30
0.0
  0
POINT
  5
B9C
330
5F9
100
AcDbEntity
  8
DEFPOINTS
 62
     0
100
AcDbPoint
 10
6464.788111675
 20
4160.900646534989
 30
0.0
  0
ENDBLK
  5
905
330
5F9
100
AcDbEntity
  8
0
100
AcDbBlockEnd
  0
BLOCK
  5
8B4
330
634
100
AcDbEntity
  8
0
100
AcDbBlockBegin
  2
*D2
 70
     1
 10
0.0
 20
0.0
 30
0.0
  3
*D2
  1

  0
LINE
  5
B8C
330
634
100
AcDbEntity
  8
SUNPOU
370
    -2
100
AcDbLine
 10
5971.8572085819
 20
3240.90065249539
 30
0.0
 11
5971.8572085819
 21
3018.383420531997
 31
0.0
  0
LINE
  5
B8D
330
634
100
AcDbEntity
  8
SUNPOU
370
    -2
100
AcDbLine
 10
6271.857208581899
 20
3240.90065249539
 30
0.0
 11
6271.857208581899
 21
3018.383420531997
 31
0.0
  0
LINE
  5
B8E
330
634
100
AcDbEntity
  8
SUNPOU
370
    -2
100
AcDbLine
 10
6011.8572085819
 20
3038.383420531996
 30
0.0
 11
6231.857208581899
 21
3038.383420531996
 31
0.0
  0
MTEXT
  5
B8F
330
634
100
AcDbEntity
  8
SUNPOU
100
AcDbMText
 10
6121.8572085819
 20
3098.677291379945
 30
0.0
 40
60.0
 41
0.0
 71
     5
 72
     1
  1
\A1;□300
  7
EXT08
 73
     1
 44
1.0
  0
SOLID
  5
B90
330
634
100
AcDbEntity
  8
SUNPOU
100
AcDbTrace
 10
6011.8572085819
 20
3045.050087198663
 30
0.0
 11
6011.8572085819
 21
3031.71675386533
 31
0.0
 12
5971.8572085819
 22
3038.383420531996
 32
0.0
 13
5971.8572085819
 23
3038.383420531996
 33
0.0
  0
SOLID
  5
B91
330
634
100
AcDbEntity
  8
SUNPOU
100
AcDbTrace
 10
6231.857208581899
 20
3045.050087198663
 30
0.0
 11
6231.857208581899
 21
3031.71675386533
 31
0.0
 12
6271.857208581899
 22
3038.383420531996
 32
0.0
 13
6271.857208581899
 23
3038.383420531996
 33
0.0
  0
POINT
  5
B92
330
634
100
AcDbEntity
  8
DEFPOINTS
 62
     0
100
AcDbPoint
 10
5971.8572085819
 20
3260.90065249539
 30
0.0
  0
POINT
  5
B93
330
634
100
AcDbEntity
  8
DEFPOINTS
 62
     0
100
AcDbPoint
 10
6271.857208581899
 20
3260.90065249539
 30
0.0
  0
POINT
  5
B94
330
634
100
AcDbEntity
  8
DEFPOINTS
 62
     0
100
AcDbPoint
 10
6271.857208581899
 20
3038.383420531996
 30
0.0
  0
ENDBLK
  5
8BE
330
634
100
AcDbEntity
  8
0
100
AcDbBlockEnd
  0
BLOCK
  5
9C0
330
6ED
100
AcDbEntity
  8
0
100
AcDbBlockBegin
  2
*D3
 70
     1
 10
0.0
 20
0.0
 30
0.0
  3
*D3
  1

  0
LINE
  5
BCA
330
6ED
100
AcDbEntity
  8
SUNPOU
370
    -2
100
AcDbLine
 10
1391.170443285325
 20
2441.574831646996
 30
0.0
 11
2475.947891629334
 21
2441.574831646996
 31
0.0
  0
LINE
  5
BCB
330
6ED
100
AcDbEntity
  8
SUNPOU
370
    -2
100
AcDbLine
 10
1701.884549983425
 20
381.6745327446961
 30
0.0
 11
2475.947891629333
 21
381.6745327446959
 31
0.0
  0
LINE
  5
BCC
330
6ED
100
AcDbEntity
  8
SUNPOU
370
    -2
100
AcDbLine
 10
2455.947891629334
 20
2401.574831646996
 30
0.0
 11
2455.947891629333
 21
421.6745327446958
 31
0.0
  0
SOLID
  5
BCD
330
6ED
100
AcDbEntity
  8
SUNPOU
100
AcDbTrace
 10
2449.281224962667
 20
2401.574831646996
 30
0.0
 11
2462.614558296
 21
2401.574831646996
 31
0.0
 12
2455.947891629334
 22
2441.574831646996
 32
0.0
 13
2455.947891629334
 23
2441.574831646996
 33
0.0
  0
SOLID
  5
BCE
330
6ED
100
AcDbEntity
  8
SUNPOU
100
AcDbTrace
 10
2449.281224962666
 20
421.6745327446958
 30
0.0
 11
2462.614558295999
 21
421.6745327446958
 31
0.0
 12
2455.947891629333
 22
381.6745327446959
 32
0.0
 13
2455.947891629333
 23
381.6745327446959
 33
0.0
  0
MTEXT
  5
BCF
330
6ED
100
AcDbEntity
  8
SUNPOU
100
AcDbMText
 10
2401.947891629333
 20
1411.624682195846
 30
0.0
 40
60.0
 41
0.0
 71
     5
 72
     1
  1
\A1;1030
  7
EXT08
 11
0.0000000000000001
 21
1.0
 31
0.0
 73
     1
 44
1.0
  0
POINT
  5
BD0
330
6ED
100
AcDbEntity
  8
DEFPOINTS
 62
     0
100
AcDbPoint
 10
1371.170443285325
 20
2441.574831646996
 30
0.0
  0
POINT
  5
BD1
330
6ED
100
AcDbEntity
  8
DEFPOINTS
 62
     0
100
AcDbPoint
 10
1681.884549983425
 20
381.6745327446961
 30
0.0
  0
POINT
  5
BD2
330
6ED
100
AcDbEntity
  8
DEFPOINTS
 62
     0
100
AcDbPoint
 10
2455.947891629333
 20
381.6745327446959
 30
0.0
  0
ENDBLK
  5
9CA
330
6ED
100
AcDbEntity
  8
0
100
AcDbBlockEnd
  0
BLOCK
  5
9D8
330
6F9
100
AcDbEntity
  8
0
100
AcDbBlockBegin
  2
*D4
 70
     1
 10
0.0
 20
0.0
 30
0.0
  3
*D4
  1

  0
LINE
  5
BDC
330
6F9
100
AcDbEntity
  8
SUNPOU
370
    -2
100
AcDbLine
 10
1436.373044790792
 20
2441.574831646996
 30
0.0
 11
2358.655107732633
 21
2441.574831646996
 31
0.0
  0
LINE
  5
BDD
330
6F9
100
AcDbEntity
  8
SUNPOU
370
    -2
100
AcDbLine
 10
1525.473080084192
 20
2301.574833733196
 30
0.0
 11
2358.655107732633
 21
2301.574833733196
 31
0.0
  0
LINE
  5
BDE
330
6F9
100
AcDbEntity
  8
SUNPOU
370
    -2
100
AcDbLine
 10
2338.655107732633
 20
2481.574831646996
 30
0.0
 11
2338.655107732633
 21
2521.574831646996
 31
0.0
  0
LINE
  5
BDF
330
6F9
100
AcDbEntity
  8
SUNPOU
370
    -2
100
AcDbLine
 10
2338.655107732633
 20
2261.574833733196
 30
0.0
 11
2338.655107732633
 21
2221.574833733196
 31
0.0
  0
MTEXT
  5
BE0
330
6F9
100
AcDbEntity
  8
SUNPOU
100
AcDbMText
 10
2287.617706025532
 20
2371.574832690096
 30
0.0
 40
60.0
 41
0.0
 71
     5
 72
     1
  1
\A1;70
  7
EXT08
 11
0.0000000000000001
 21
1.0
 31
0.0
 73
     1
 44
1.0
  0
LINE
  5
BE1
330
6F9
100
AcDbEntity
  8
SUNPOU
370
    -2
100
AcDbLine
 10
2338.655107732633
 20
2441.574831646996
 30
0.0
 11
2338.655107732633
 21
2301.574833733196
 31
0.0
  0
SOLID
  5
BE2
330
6F9
100
AcDbEntity
  8
SUNPOU
100
AcDbTrace
 10
2331.988441065966
 20
2481.574831646996
 30
0.0
 11
2345.3217743993
 21
2481.574831646996
 31
0.0
 12
2338.655107732633
 22
2441.574831646996
 32
0.0
 13
2338.655107732633
 23
2441.574831646996
 33
0.0
  0
SOLID
  5
BE3
330
6F9
100
AcDbEntity
  8
SUNPOU
100
AcDbTrace
 10
2331.988441065966
 20
2261.574833733196
 30
0.0
 11
2345.3217743993
 21
2261.574833733196
 31
0.0
 12
2338.655107732633
 22
2301.574833733196
 32
0.0
 13
2338.655107732633
 23
2301.574833733196
 33
0.0
  0
POINT
  5
BE4
330
6F9
100
AcDbEntity
  8
DEFPOINTS
 62
     0
100
AcDbPoint
 10
1416.373044790792
 20
2441.574831646996
 30
0.0
  0
POINT
  5
BE5
330
6F9
100
AcDbEntity
  8
DEFPOINTS
 62
     0
100
AcDbPoint
 10
1505.473080084192
 20
2301.574833733196
 30
0.0
  0
POINT
  5
BE6
330
6F9
100
AcDbEntity
  8
DEFPOINTS
 62
     0
100
AcDbPoint
 10
2338.655107732633
 20
2301.574833733196
 30
0.0
  0
ENDBLK
  5
9E4
330
6F9
100
AcDbEntity
  8
0
100
AcDbBlockEnd
  0
BLOCK
  5
9B5
330
705
100
AcDbEntity
  8
0
100
AcDbBlockBegin
  2
*D5
 70
     1
 10
0.0
 20
0.0
 30
0.0
  3
*D5
  1

  0
LINE
  5
BC1
330
705
100
AcDbEntity
  8
SUNPOU
370
    -2
100
AcDbLine
 10
1500.270478578724
 20
2301.574833733196
 30
0.0
 11
2358.655107732634
 21
2301.574833733196
 31
0.0
  0
LINE
  5
BC2
330
705
100
AcDbEntity
  8
SUNPOU
370
    -2
100
AcDbLine
 10
1701.884549983425
 20
381.6745327446961
 30
0.0
 11
2358.655107732633
 21
381.6745327446959
 31
0.0
  0
LINE
  5
BC3
330
705
100
AcDbEntity
  8
SUNPOU
370
    -2
100
AcDbLine
 10
2338.655107732634
 20
2261.574833733196
 30
0.0
 11
2338.655107732633
 21
421.6745327446958
 31
0.0
  0
SOLID
  5
BC4
330
705
100
AcDbEntity
  8
SUNPOU
100
AcDbTrace
 10
2331.988441065967
 20
2261.574833733196
 30
0.0
 11
2345.3217743993
 21
2261.574833733196
 31
0.0
 12
2338.655107732634
 22
2301.574833733196
 32
0.0
 13
2338.655107732634
 23
2301.574833733196
 33
0.0
  0
SOLID
  5
BC5
330
705
100
AcDbEntity
  8
SUNPOU
100
AcDbTrace
 10
2331.988441065966
 20
421.6745327446958
 30
0.0
 11
2345.3217743993
 21
421.6745327446958
 31
0.0
 12
2338.655107732633
 22
381.6745327446959
 32
0.0
 13
2338.655107732633
 23
381.6745327446959
 33
0.0
  0
MTEXT
  5
BC6
330
705
100
AcDbEntity
  8
SUNPOU
100
AcDbMText
 10
2284.655107732633
 20
1341.624683238946
 30
0.0
 40
60.0
 41
0.0
 71
     5
 72
     1
  1
\A1;960
  7
EXT08
 11
0.0000000000000001
 21
1.0
 31
0.0
 73
     1
 44
1.0
  0
POINT
  5
BC7
330
705
100
AcDbEntity
  8
DEFPOINTS
 62
     0
100
AcDbPoint
 10
1480.270478578724
 20
2301.574833733196
 30
0.0
  0
POINT
  5
BC8
330
705
100
AcDbEntity
  8
DEFPOINTS
 62
     0
100
AcDbPoint
 10
1681.884549983425
 20
381.6745327446961
 30
0.0
  0
POINT
  5
BC9
330
705
100
AcDbEntity
  8
DEFPOINTS
 62
     0
100
AcDbPoint
 10
2338.655107732633
 20
381.6745327446959
 30
0.0
  0
ENDBLK
  5
9BF
330
705
100
AcDbEntity
  8
0
100
AcDbBlockEnd
  0
BLOCK
  5
99F
330
711
100
AcDbEntity
  8
0
100
AcDbBlockBegin
  2
*D6
 70
     1
 10
0.0
 20
0.0
 30
0.0
  3
*D6
  1

  0
LINE
  5
BD3
330
711
100
AcDbEntity
  8
SUNPOU
370
    -2
100
AcDbLine
 10
1464.270417781925
 20
2181.674505922596
 30
0.0
 11
2219.452839299033
 21
2181.674505922596
 31
0.0
  0
LINE
  5
BD4
330
711
100
AcDbEntity
  8
SUNPOU
370
    -2
100
AcDbLine
 10
1701.884549983425
 20
381.6745327446961
 30
0.0
 11
2219.452839299032
 21
381.6745327446959
 31
0.0
  0
LINE
  5
BD5
330
711
100
AcDbEntity
  8
SUNPOU
370
    -2
100
AcDbLine
 10
2199.452839299033
 20
2141.674505922596
 30
0.0
 11
2199.452839299032
 21
421.6745327446958
 31
0.0
  0
SOLID
  5
BD6
330
711
100
AcDbEntity
  8
SUNPOU
100
AcDbTrace
 10
2192.786172632366
 20
2141.674505922596
 30
0.0
 11
2206.119505965699
 21
2141.674505922596
 31
0.0
 12
2199.452839299033
 22
2181.674505922596
 32
0.0
 13
2199.452839299033
 23
2181.674505922596
 33
0.0
  0
SOLID
  5
BD7
330
711
100
AcDbEntity
  8
SUNPOU
100
AcDbTrace
 10
2192.786172632366
 20
421.6745327446958
 30
0.0
 11
2206.119505965699
 21
421.6745327446958
 31
0.0
 12
2199.452839299032
 22
381.6745327446959
 32
0.0
 13
2199.452839299032
 23
381.6745327446959
 33
0.0
  0
MTEXT
  5
BD8
330
711
100
AcDbEntity
  8
SUNPOU
100
AcDbMText
 10
2145.452839299032
 20
1281.674519333646
 30
0.0
 40
60.0
 41
0.0
 71
     5
 72
     1
  1
\A1;900
  7
EXT08
 11
0.0000000000000001
 21
1.0
 31
0.0
 73
     1
 44
1.0
  0
POINT
  5
BD9
330
711
100
AcDbEntity
  8
DEFPOINTS
 62
     0
100
AcDbPoint
 10
1444.270417781925
 20
2181.674505922596
 30
0.0
  0
POINT
  5
BDA
330
711
100
AcDbEntity
  8
DEFPOINTS
 62
     0
100
AcDbPoint
 10
1681.884549983425
 20
381.6745327446961
 30
0.0
  0
POINT
  5
BDB
330
711
100
AcDbEntity
  8
DEFPOINTS
 62
     0
100
AcDbPoint
 10
2199.452839299032
 20
381.6745327446959
 30
0.0
  0
ENDBLK
  5
9A9
330
711
100
AcDbEntity
  8
0
100
AcDbBlockEnd
  0
BLOCK
  5
97E
330
761
100
AcDbEntity
  8
0
100
AcDbBlockBegin
  2
*D7
 70
     1
 10
0.0
 20
0.0
 30
0.0
  3
*D7
  1

  0
LINE
  5
B83
330
761
100
AcDbEntity
  8
SUNPOU
370
    -2
100
AcDbLine
 10
1464.270417781925
 20
2181.674505922596
 30
0.0
 11
2092.153513992998
 21
2181.674505922596
 31
0.0
  0
LINE
  5
B84
330
761
100
AcDbEntity
  8
SUNPOU
370
    -2
100
AcDbLine
 10
1415.588525417524
 20
1381.674505922596
 30
0.0
 11
2092.153513992998
 21
1381.674505922595
 31
0.0
  0
LINE
  5
B85
330
761
100
AcDbEntity
  8
SUNPOU
370
    -2
100
AcDbLine
 10
2072.153513992998
 20
2141.674505922596
 30
0.0
 11
2072.153513992998
 21
1421.674505922595
 31
0.0
  0
SOLID
  5
B86
330
761
100
AcDbEntity
  8
SUNPOU
100
AcDbTrace
 10
2065.486847326332
 20
2141.674505922596
 30
0.0
 11
2078.820180659665
 21
2141.674505922596
 31
0.0
 12
2072.153513992998
 22
2181.674505922596
 32
0.0
 13
2072.153513992998
 23
2181.674505922596
 33
0.0
  0
SOLID
  5
B87
330
761
100
AcDbEntity
  8
SUNPOU
100
AcDbTrace
 10
2065.486847326332
 20
1421.674505922595
 30
0.0
 11
2078.820180659665
 21
1421.674505922595
 31
0.0
 12
2072.153513992998
 22
1381.674505922595
 32
0.0
 13
2072.153513992998
 23
1381.674505922595
 33
0.0
  0
MTEXT
  5
B88
330
761
100
AcDbEntity
  8
SUNPOU
100
AcDbMText
 10
2018.153513992998
 20
1781.674505922596
 30
0.0
 40
60.0
 41
0.0
 71
     5
 72
     1
  1
\A1;400
  7
EXT08
 11
0.0000000000000001
 21
1.0
 31
0.0
 73
     1
 44
1.0
  0
POINT
  5
B89
330
761
100
AcDbEntity
  8
DEFPOINTS
 62
     0
100
AcDbPoint
 10
1444.270417781925
 20
2181.674505922596
 30
0.0
  0
POINT
  5
B8A
330
761
100
AcDbEntity
  8
DEFPOINTS
 62
     0
100
AcDbPoint
 10
1395.588525417524
 20
1381.674505922596
 30
0.0
  0
POINT
  5
B8B
330
761
100
AcDbEntity
  8
DEFPOINTS
 62
     0
100
AcDbPoint
 10
2072.153513992998
 20
1381.674505922595
 30
0.0
  0
ENDBLK
  5
988
330
761
100
AcDbEntity
  8
0
100
AcDbBlockEnd
  0
BLOCK
  5
9AA
330
76E
100
AcDbEntity
  8
0
100
AcDbBlockBegin
  2
*D8
 70
     1
 10
0.0
 20
0.0
 30
0.0
  3
*D8
  1

  0
LINE
  5
B7A
330
76E
100
AcDbEntity
  8
SUNPOU
370
    -2
100
AcDbLine
 10
1415.588525417524
 20
1381.674505922596
 30
0.0
 11
2092.153513992999
 21
1381.674505922595
 31
0.0
  0
LINE
  5
B7B
330
76E
100
AcDbEntity
  8
SUNPOU
370
    -2
100
AcDbLine
 10
1701.709531377425
 20
381.6745327446961
 30
0.0
 11
2092.153513992998
 21
381.674532744696
 31
0.0
  0
LINE
  5
B7C
330
76E
100
AcDbEntity
  8
SUNPOU
370
    -2
100
AcDbLine
 10
2072.153513992999
 20
1341.674505922596
 30
0.0
 11
2072.153513992998
 21
421.674532744696
 31
0.0
  0
SOLID
  5
B7D
330
76E
100
AcDbEntity
  8
SUNPOU
100
AcDbTrace
 10
2065.486847326333
 20
1341.674505922596
 30
0.0
 11
2078.820180659665
 21
1341.674505922596
 31
0.0
 12
2072.153513992999
 22
1381.674505922595
 32
0.0
 13
2072.153513992999
 23
1381.674505922595
 33
0.0
  0
SOLID
  5
B7E
330
76E
100
AcDbEntity
  8
SUNPOU
100
AcDbTrace
 10
2065.486847326332
 20
421.674532744696
 30
0.0
 11
2078.820180659665
 21
421.674532744696
 31
0.0
 12
2072.153513992998
 22
381.674532744696
 32
0.0
 13
2072.153513992998
 23
381.674532744696
 33
0.0
  0
MTEXT
  5
B7F
330
76E
100
AcDbEntity
  8
SUNPOU
100
AcDbMText
 10
2018.153513992999
 20
881.6745193336462
 30
0.0
 40
60.0
 41
0.0
 71
     5
 72
     1
  1
\A1;500
  7
EXT08
 11
0.0000000000000001
 21
1.0
 31
0.0
 73
     1
 44
1.0
  0
POINT
  5
B80
330
76E
100
AcDbEntity
  8
DEFPOINTS
 62
     0
100
AcDbPoint
 10
1395.588525417524
 20
1381.674505922596
 30
0.0
  0
POINT
  5
B81
330
76E
100
AcDbEntity
  8
DEFPOINTS
 62
     0
100
AcDbPoint
 10
1681.709531377425
 20
381.6745327446961
 30
0.0
  0
POINT
  5
B82
330
76E
100
AcDbEntity
  8
DEFPOINTS
 62
     0
100
AcDbPoint
 10
2072.153513992998
 20
381.674532744696
 30
0.0
  0
ENDBLK
  5
9B4
330
76E
100
AcDbEntity
  8
0
100
AcDbBlockEnd
  0
BLOCK
  5
78E
330
787
100
AcDbEntity
  8
0
100
AcDbBlockBegin
  2
CALCOMP_TECHJET720A3
 70
     0
 10
0.0
 20
0.0
 30
0.0
  3
CALCOMP_TECHJET720A3
  1

  0
LWPOLYLINE
  5
788
330
787
100
AcDbEntity
  8
ZWAKU
100
AcDbPolyline
 90
        4
 70
     1
 43
0.0
 10
0.0
 20
0.0
 10
0.0
 20
267.0
 10
370.0
 20
267.0
 10
370.0
 20
0.0
  0
ENDBLK
  5
78F
330
787
100
AcDbEntity
  8
0
100
AcDbBlockEnd
  0
BLOCK
  5
7DD
330
7C4
100
AcDbEntity
  8
0
100
AcDbBlockBegin
  2
*D10
 70
     1
 10
0.0
 20
0.0
 30
0.0
  3
*D10
  1

  0
LINE
  5
B71
330
7C4
100
AcDbEntity
  8
SUNPOU
370
    -2
100
AcDbLine
 10
1021.857742341501
 20
4757.640396899218
 30
0.0
 11
1021.857742341501
 21
4917.127140110483
 31
0.0
  0
LINE
  5
B72
330
7C4
100
AcDbEntity
  8
SUNPOU
370
    -2
100
AcDbLine
 10
3021.8572547755
 20
4768.453049486002
 30
0.0
 11
3021.8572547755
 21
4917.127140110483
 31
0.0
  0
LINE
  5
B73
330
7C4
100
AcDbEntity
  8
SUNPOU
370
    -2
100
AcDbLine
 10
1061.8577423415
 20
4897.127140110484
 30
0.0
 11
2981.8572547755
 21
4897.127140110484
 31
0.0
  0
SOLID
  5
B74
330
7C4
100
AcDbEntity
  8
SUNPOU
100
AcDbTrace
 10
1061.8577423415
 20
4903.793806777152
 30
0.0
 11
1061.8577423415
 21
4890.460473443817
 31
0.0
 12
1021.857742341501
 22
4897.127140110484
 32
0.0
 13
1021.857742341501
 23
4897.127140110484
 33
0.0
  0
SOLID
  5
B75
330
7C4
100
AcDbEntity
  8
SUNPOU
100
AcDbTrace
 10
2981.8572547755
 20
4903.793806777152
 30
0.0
 11
2981.8572547755
 21
4890.460473443817
 31
0.0
 12
3021.8572547755
 22
4897.127140110484
 32
0.0
 13
3021.8572547755
 23
4897.127140110484
 33
0.0
  0
MTEXT
  5
B76
330
7C4
100
AcDbEntity
  8
SUNPOU
100
AcDbMText
 10
2021.8574985585
 20
4951.127140110484
 30
0.0
 40
60.0
 41
0.0
 71
     5
 72
     1
  1
\A1;2000
  7
EXT08
 73
     1
 44
1.0
  0
POINT
  5
B77
330
7C4
100
AcDbEntity
  8
DEFPOINTS
 62
     0
100
AcDbPoint
 10
1021.857742341501
 20
4737.640396899218
 30
0.0
  0
POINT
  5
B78
330
7C4
100
AcDbEntity
  8
DEFPOINTS
 62
     0
100
AcDbPoint
 10
3021.8572547755
 20
4748.453049486003
 30
0.0
  0
POINT
  5
B79
330
7C4
100
AcDbEntity
  8
DEFPOINTS
 62
     0
100
AcDbPoint
 10
3021.8572547755
 20
4897.127140110484
 30
0.0
  0
ENDBLK
  5
7E7
330
7C4
100
AcDbEntity
  8
0
100
AcDbBlockEnd
  0
BLOCK
  5
7E9
330
7E8
100
AcDbEntity
  8
0
100
AcDbBlockBegin
  2
*D11
 70
     1
 10
0.0
 20
0.0
 30
0.0
  3
*D11
  1

  0
LINE
  5
B68
330
7E8
100
AcDbEntity
  8
SUNPOU
370
    -2
100
AcDbLine
 10
3021.8572547755
 20
4768.453049486002
 30
0.0
 11
3021.8572547755
 21
4917.127140110483
 31
0.0
  0
LINE
  5
B69
330
7E8
100
AcDbEntity
  8
SUNPOU
370
    -2
100
AcDbLine
 10
5021.857224973199
 20
4779.561003227316
 30
0.0
 11
5021.857224973199
 21
4917.127140110483
 31
0.0
  0
LINE
  5
B6A
330
7E8
100
AcDbEntity
  8
SUNPOU
370
    -2
100
AcDbLine
 10
3061.8572547755
 20
4897.127140110484
 30
0.0
 11
4981.8572249732
 21
4897.127140110484
 31
0.0
  0
SOLID
  5
B6B
330
7E8
100
AcDbEntity
  8
SUNPOU
100
AcDbTrace
 10
3061.8572547755
 20
4903.793806777152
 30
0.0
 11
3061.8572547755
 21
4890.460473443817
 31
0.0
 12
3021.8572547755
 22
4897.127140110484
 32
0.0
 13
3021.8572547755
 23
4897.127140110484
 33
0.0
  0
SOLID
  5
B6C
330
7E8
100
AcDbEntity
  8
SUNPOU
100
AcDbTrace
 10
4981.8572249732
 20
4903.793806777152
 30
0.0
 11
4981.8572249732
 21
4890.460473443817
 31
0.0
 12
5021.857224973199
 22
4897.127140110484
 32
0.0
 13
5021.857224973199
 23
4897.127140110484
 33
0.0
  0
MTEXT
  5
B6D
330
7E8
100
AcDbEntity
  8
SUNPOU
100
AcDbMText
 10
4021.857239874349
 20
4951.127140110484
 30
0.0
 40
60.0
 41
0.0
 71
     5
 72
     1
  1
\A1;2000
  7
EXT08
 73
     1
 44
1.0
  0
POINT
  5
B6E
330
7E8
100
AcDbEntity
  8
DEFPOINTS
 62
     0
100
AcDbPoint
 10
3021.8572547755
 20
4748.453049486003
 30
0.0
  0
POINT
  5
B6F
330
7E8
100
AcDbEntity
  8
DEFPOINTS
 62
     0
100
AcDbPoint
 10
5021.857224973199
 20
4759.561003227316
 30
0.0
  0
POINT
  5
B70
330
7E8
100
AcDbEntity
  8
DEFPOINTS
 62
     0
100
AcDbPoint
 10
5021.857224973199
 20
4897.127140110484
 30
0.0
  0
ENDBLK
  5
7F3
330
7E8
100
AcDbEntity
  8
0
100
AcDbBlockEnd
  0
BLOCK
  5
8D7
330
830
100
AcDbEntity
  8
0
100
AcDbBlockBegin
  2
*D12
 70
     1
 10
0.0
 20
0.0
 30
0.0
  3
*D12
  1

  0
LINE
  5
BB8
330
830
100
AcDbEntity
  8
SUNPOU
370
    -2
100
AcDbLine
 10
6161.857208581899
 20
4690.900020835189
 30
0.0
 11
6756.144253057046
 21
4690.900020835189
 31
0.0
  0
LINE
  5
BB9
330
830
100
AcDbEntity
  8
SUNPOU
370
    -2
100
AcDbLine
 10
6290.4576702348
 20
3260.90065249539
 30
0.0
 11
6756.144253057046
 21
3260.90065249539
 31
0.0
  0
LINE
  5
BBA
330
830
100
AcDbEntity
  8
SUNPOU
370
    -2
100
AcDbLine
 10
6736.144253057045
 20
4650.900020835189
 30
0.0
 11
6736.144253057045
 21
3300.90065249539
 31
0.0
  0
SOLID
  5
BBB
330
830
100
AcDbEntity
  8
SUNPOU
100
AcDbTrace
 10
6729.477586390379
 20
4650.900020835189
 30
0.0
 11
6742.810919723713
 21
4650.900020835189
 31
0.0
 12
6736.144253057045
 22
4690.900020835189
 32
0.0
 13
6736.144253057045
 23
4690.900020835189
 33
0.0
  0
SOLID
  5
BBC
330
830
100
AcDbEntity
  8
SUNPOU
100
AcDbTrace
 10
6729.477586390379
 20
3300.90065249539
 30
0.0
 11
6742.810919723713
 21
3300.90065249539
 31
0.0
 12
6736.144253057045
 22
3260.90065249539
 32
0.0
 13
6736.144253057045
 23
3260.90065249539
 33
0.0
  0
MTEXT
  5
BBD
330
830
100
AcDbEntity
  8
SUNPOU
100
AcDbMText
 10
6682.144253057045
 20
3975.90033666529
 30
0.0
 40
60.0
 41
0.0
 71
     5
 72
     1
  1
\A1;1430
  7
EXT08
 11
0.0000000000000001
 21
1.0
 31
0.0
 73
     1
 44
1.0
  0
POINT
  5
BBE
330
830
100
AcDbEntity
  8
DEFPOINTS
 62
     0
100
AcDbPoint
 10
6141.8572085819
 20
4690.900020835189
 30
0.0
  0
POINT
  5
BBF
330
830
100
AcDbEntity
  8
DEFPOINTS
 62
     0
100
AcDbPoint
 10
6270.4576702348
 20
3260.90065249539
 30
0.0
  0
POINT
  5
BC0
330
830
100
AcDbEntity
  8
DEFPOINTS
 62
     0
100
AcDbPoint
 10
6736.144253057045
 20
3260.90065249539
 30
0.0
  0
ENDBLK
  5
8E1
330
830
100
AcDbEntity
  8
0
100
AcDbBlockEnd
  0
BLOCK
  5
88E
330
83C
100
AcDbEntity
  8
0
100
AcDbBlockBegin
  2
*D13
 70
     1
 10
0.0
 20
0.0
 30
0.0
  3
*D13
  1

  0
LINE
  5
BAF
330
83C
100
AcDbEntity
  8
SUNPOU
370
    -2
100
AcDbLine
 10
6141.857208581899
 20
4690.900248479989
 30
0.0
 11
6623.833152041473
 21
4690.900248479988
 31
0.0
  0
LINE
  5
BB0
330
83C
100
AcDbEntity
  8
SUNPOU
370
    -2
100
AcDbLine
 10
6450.4582782021
 20
3660.90064653499
 30
0.0
 11
6623.833152041473
 21
3660.90064653499
 31
0.0
  0
LINE
  5
BB1
330
83C
100
AcDbEntity
  8
SUNPOU
370
    -2
100
AcDbLine
 10
6603.833152041473
 20
4650.900248479988
 30
0.0
 11
6603.833152041473
 21
3700.90064653499
 31
0.0
  0
SOLID
  5
BB2
330
83C
100
AcDbEntity
  8
SUNPOU
100
AcDbTrace
 10
6597.166485374806
 20
4650.900248479988
 30
0.0
 11
6610.499818708141
 21
4650.900248479988
 31
0.0
 12
6603.833152041473
 22
4690.900248479988
 32
0.0
 13
6603.833152041473
 23
4690.900248479988
 33
0.0
  0
SOLID
  5
BB3
330
83C
100
AcDbEntity
  8
SUNPOU
100
AcDbTrace
 10
6597.166485374806
 20
3700.90064653499
 30
0.0
 11
6610.499818708141
 21
3700.90064653499
 31
0.0
 12
6603.833152041473
 22
3660.90064653499
 32
0.0
 13
6603.833152041473
 23
3660.90064653499
 33
0.0
  0
MTEXT
  5
BB4
330
83C
100
AcDbEntity
  8
SUNPOU
100
AcDbMText
 10
6549.833152041472
 20
4175.900447507491
 30
0.0
 40
60.0
 41
0.0
 71
     5
 72
     1
  1
\A1;1030
  7
EXT08
 11
0.0000000000000001
 21
1.0
 31
0.0
 73
     1
 44
1.0
  0
POINT
  5
BB5
330
83C
100
AcDbEntity
  8
DEFPOINTS
 62
     0
100
AcDbPoint
 10
6121.857208581899
 20
4690.900248479989
 30
0.0
  0
POINT
  5
BB6
330
83C
100
AcDbEntity
  8
DEFPOINTS
 62
     0
100
AcDbPoint
 10
6430.4582782021
 20
3660.90064653499
 30
0.0
  0
POINT
  5
BB7
330
83C
100
AcDbEntity
  8
DEFPOINTS
 62
     0
100
AcDbPoint
 10
6603.833152041473
 20
3660.90064653499
 30
0.0
  0
ENDBLK
  5
898
330
83C
100
AcDbEntity
  8
0
100
AcDbBlockEnd
  0
BLOCK
  5
854
330
853
100
AcDbEntity
  8
0
100
AcDbBlockBegin
  2
*D14
 70
     1
 10
0.0
 20
0.0
 30
0.0
  3
*D14
  1

  0
LINE
  5
BA6
330
853
100
AcDbEntity
  8
SUNPOU
370
    -2
100
AcDbLine
 10
6470.458278202099
 20
3660.90064653499
 30
0.0
 11
6623.833152041473
 21
3660.90064653499
 31
0.0
  0
LINE
  5
BA7
330
853
100
AcDbEntity
  8
SUNPOU
370
    -2
100
AcDbLine
 10
6290.4576702348
 20
3260.90065249539
 30
0.0
 11
6623.833152041473
 21
3260.90065249539
 31
0.0
  0
LINE
  5
BA8
330
853
100
AcDbEntity
  8
SUNPOU
370
    -2
100
AcDbLine
 10
6603.833152041473
 20
3620.90064653499
 30
0.0
 11
6603.833152041473
 21
3300.90065249539
 31
0.0
  0
SOLID
  5
BA9
330
853
100
AcDbEntity
  8
SUNPOU
100
AcDbTrace
 10
6597.166485374806
 20
3620.90064653499
 30
0.0
 11
6610.499818708141
 21
3620.90064653499
 31
0.0
 12
6603.833152041473
 22
3660.90064653499
 32
0.0
 13
6603.833152041473
 23
3660.90064653499
 33
0.0
  0
SOLID
  5
BAA
330
853
100
AcDbEntity
  8
SUNPOU
100
AcDbTrace
 10
6597.166485374806
 20
3300.90065249539
 30
0.0
 11
6610.499818708141
 21
3300.90065249539
 31
0.0
 12
6603.833152041473
 22
3260.90065249539
 32
0.0
 13
6603.833152041473
 23
3260.90065249539
 33
0.0
  0
MTEXT
  5
BAB
330
853
100
AcDbEntity
  8
SUNPOU
100
AcDbMText
 10
6549.833152041472
 20
3460.900649515191
 30
0.0
 40
60.0
 41
0.0
 71
     5
 72
     1
  1
\A1;400
  7
EXT08
 11
0.0000000000000001
 21
1.0
 31
0.0
 73
     1
 44
1.0
  0
POINT
  5
BAC
330
853
100
AcDbEntity
  8
DEFPOINTS
 62
     0
100
AcDbPoint
 10
6450.4582782021
 20
3660.90064653499
 30
0.0
  0
POINT
  5
BAD
330
853
100
AcDbEntity
  8
DEFPOINTS
 62
     0
100
AcDbPoint
 10
6270.4576702348
 20
3260.90065249539
 30
0.0
  0
POINT
  5
BAE
330
853
100
AcDbEntity
  8
DEFPOINTS
 62
     0
100
AcDbPoint
 10
6603.833152041473
 20
3260.90065249539
 30
0.0
  0
ENDBLK
  5
85E
330
853
100
AcDbEntity
  8
0
100
AcDbBlockEnd
  0
BLOCK
  5
A9E
330
875
100
AcDbEntity
  8
0
100
AcDbBlockBegin
  2
*D15
 70
     1
 10
0.0
 20
0.0
 30
0.0
  3
*D15
  1

  0
LINE
  5
BF2
330
875
100
AcDbEntity
  8
SUNPOU
370
    -2
100
AcDbLine
 10
6161.857208581899
 20
4690.900020835189
 30
0.0
 11
6484.788111675
 21
4690.900020835189
 31
0.0
  0
LINE
  5
BF3
330
875
100
AcDbEntity
  8
SUNPOU
370
    -2
100
AcDbLine
 10
6208.520198014459
 20
4560.90002277239
 30
0.0
 11
6484.788111675
 21
4560.90002277239
 31
0.0
  0
LINE
  5
BF4
330
875
100
AcDbEntity
  8
SUNPOU
370
    -2
100
AcDbLine
 10
6464.788111675
 20
4650.900020835189
 30
0.0
 11
6464.788111675
 21
4600.90002277239
 31
0.0
  0
MTEXT
  5
BF5
330
875
100
AcDbEntity
  8
SUNPOU
100
AcDbMText
 10
6404.469392288932
 20
4625.900021803789
 30
0.0
 40
60.0
 41
0.0
 71
     5
 72
     1
  1
\A1;130
  7
EXT08
 11
0.0000000000000001
 21
1.0
 31
0.0
 73
     1
 44
1.0
  0
SOLID
  5
BF6
330
875
100
AcDbEntity
  8
SUNPOU
100
AcDbTrace
 10
6458.121445008334
 20
4650.900020835189
 30
0.0
 11
6471.454778341668
 21
4650.900020835189
 31
0.0
 12
6464.788111675
 22
4690.900020835189
 32
0.0
 13
6464.788111675
 23
4690.900020835189
 33
0.0
  0
SOLID
  5
BF7
330
875
100
AcDbEntity
  8
SUNPOU
100
AcDbTrace
 10
6458.121445008334
 20
4600.90002277239
 30
0.0
 11
6471.454778341668
 21
4600.90002277239
 31
0.0
 12
6464.788111675
 22
4560.90002277239
 32
0.0
 13
6464.788111675
 23
4560.90002277239
 33
0.0
  0
POINT
  5
BF8
330
875
100
AcDbEntity
  8
DEFPOINTS
 62
     0
100
AcDbPoint
 10
6141.8572085819
 20
4690.900020835189
 30
0.0
  0
POINT
  5
BF9
330
875
100
AcDbEntity
  8
DEFPOINTS
 62
     0
100
AcDbPoint
 10
6188.520198014459
 20
4560.90002277239
 30
0.0
  0
POINT
  5
BFA
330
875
100
AcDbEntity
  8
DEFPOINTS
 62
     0
100
AcDbPoint
 10
6464.788111675
 20
4560.90002277239
 30
0.0
  0
ENDBLK
  5
AAA
330
875
100
AcDbEntity
  8
0
100
AcDbBlockEnd
  0
BLOCK
  5
8BF
330
899
100
AcDbEntity
  8
0
100
AcDbBlockBegin
  2
*D16
 70
     1
 10
0.0
 20
0.0
 30
0.0
  3
*D16
  1

  0
LINE
  5
BFB
330
899
100
AcDbEntity
  8
SUNPOU
370
    -2
100
AcDbLine
 10
6077.3570871747
 20
4725.15234025679
 30
0.0
 11
6077.3570871747
 21
4915.939690631391
 31
0.0
  0
LINE
  5
BFC
330
899
100
AcDbEntity
  8
SUNPOU
370
    -2
100
AcDbLine
 10
6166.3573299891
 20
4725.15234025679
 30
0.0
 11
6166.3573299891
 21
4915.939690631391
 31
0.0
  0
LINE
  5
BFD
330
899
100
AcDbEntity
  8
SUNPOU
370
    -2
100
AcDbLine
 10
6037.3570871747
 20
4895.93969063139
 30
0.0
 11
5997.3570871747
 21
4895.93969063139
 31
0.0
  0
LINE
  5
BFE
330
899
100
AcDbEntity
  8
SUNPOU
370
    -2
100
AcDbLine
 10
6206.3573299891
 20
4895.93969063139
 30
0.0
 11
6246.3573299891
 21
4895.93969063139
 31
0.0
  0
MTEXT
  5
BFF
330
899
100
AcDbEntity
  8
SUNPOU
100
AcDbMText
 10
6119.749471153292
 20
4951.613821292735
 30
0.0
 40
60.0
 41
0.0
 71
     5
 72
     1
  1
\A1;φ89
  7
EXT08
 73
     1
 44
1.0
  0
LINE
  5
C00
330
899
100
AcDbEntity
  8
SUNPOU
370
    -2
100
AcDbLine
 10
6077.3570871747
 20
4895.93969063139
 30
0.0
 11
6166.3573299891
 21
4895.93969063139
 31
0.0
  0
SOLID
  5
C01
330
899
100
AcDbEntity
  8
SUNPOU
100
AcDbTrace
 10
6037.3570871747
 20
4902.606357298058
 30
0.0
 11
6037.3570871747
 21
4889.273023964723
 31
0.0
 12
6077.3570871747
 22
4895.93969063139
 32
0.0
 13
6077.3570871747
 23
4895.93969063139
 33
0.0
  0
SOLID
  5
C02
330
899
100
AcDbEntity
  8
SUNPOU
100
AcDbTrace
 10
6206.3573299891
 20
4902.606357298058
 30
0.0
 11
6206.3573299891
 21
4889.273023964723
 31
0.0
 12
6166.3573299891
 22
4895.93969063139
 32
0.0
 13
6166.3573299891
 23
4895.93969063139
 33
0.0
  0
POINT
  5
C03
330
899
100
AcDbEntity
  8
DEFPOINTS
 62
     0
100
AcDbPoint
 10
6077.3570871747
 20
4705.15234025679
 30
0.0
  0
POINT
  5
C04
330
899
100
AcDbEntity
  8
DEFPOINTS
 62
     0
100
AcDbPoint
 10
6166.3573299891
 20
4705.15234025679
 30
0.0
  0
POINT
  5
C05
330
899
100
AcDbEntity
  8
DEFPOINTS
 62
     0
100
AcDbPoint
 10
6166.3573299891
 20
4895.93969063139
 30
0.0
  0
ENDBLK
  5
8CB
330
899
100
AcDbEntity
  8
0
100
AcDbBlockEnd
  0
BLOCK
  5
954
330
953
100
AcDbEntity
  8
0
100
AcDbBlockBegin
  2
*D17
 70
     1
 10
0.0
 20
0.0
 30
0.0
  3
*D17
  1

  0
LINE
  5
BE7
330
953
100
AcDbEntity
  8
SUNPOU
370
    -2
100
AcDbLine
 10
1233.488102509625
 20
2498.356142432096
 30
0.0
 11
1233.488102509625
 21
2635.980041450596
 31
0.0
  0
LINE
  5
BE8
330
953
100
AcDbEntity
  8
SUNPOU
370
    -2
100
AcDbLine
 10
1411.487977786924
 20
2498.356142432096
 30
0.0
 11
1411.487977786924
 21
2635.980041450596
 31
0.0
  0
LINE
  5
BE9
330
953
100
AcDbEntity
  8
SUNPOU
370
    -2
100
AcDbLine
 10
1193.488102509625
 20
2615.980041450596
 30
0.0
 11
1153.488102509625
 21
2615.980041450596
 31
0.0
  0
LINE
  5
BEA
330
953
100
AcDbEntity
  8
SUNPOU
370
    -2
100
AcDbLine
 10
1451.487977786924
 20
2615.980041450596
 30
0.0
 11
1491.487977786924
 21
2615.980041450596
 31
0.0
  0
MTEXT
  5
BEB
330
953
100
AcDbEntity
  8
SUNPOU
100
AcDbMText
 10
1315.683464227583
 20
2664.793184768286
 30
0.0
 40
60.0
 41
0.0
 71
     5
 72
     1
  1
\A1;φ89
  7
EXT08
 73
     1
 44
1.0
  0
LINE
  5
BEC
330
953
100
AcDbEntity
  8
SUNPOU
370
    -2
100
AcDbLine
 10
1233.488102509625
 20
2615.980041450596
 30
0.0
 11
1411.487977786924
 21
2615.980041450596
 31
0.0
  0
SOLID
  5
BED
330
953
100
AcDbEntity
  8
SUNPOU
100
AcDbTrace
 10
1193.488102509625
 20
2622.646708117263
 30
0.0
 11
1193.488102509625
 21
2609.31337478393
 31
0.0
 12
1233.488102509625
 22
2615.980041450596
 32
0.0
 13
1233.488102509625
 23
2615.980041450596
 33
0.0
  0
SOLID
  5
BEE
330
953
100
AcDbEntity
  8
SUNPOU
100
AcDbTrace
 10
1451.487977786924
 20
2622.646708117263
 30
0.0
 11
1451.487977786924
 21
2609.31337478393
 31
0.0
 12
1411.487977786924
 22
2615.980041450596
 32
0.0
 13
1411.487977786924
 23
2615.980041450596
 33
0.0
  0
POINT
  5
BEF
330
953
100
AcDbEntity
  8
DEFPOINTS
 62
     0
100
AcDbPoint
 10
1233.488102509625
 20
2478.356142432096
 30
0.0
  0
POINT
  5
BF0
330
953
100
AcDbEntity
  8
DEFPOINTS
 62
     0
100
AcDbPoint
 10
1411.487977786924
 20
2478.356142432096
 30
0.0
  0
POINT
  5
BF1
330
953
100
AcDbEntity
  8
DEFPOINTS
 62
     0
100
AcDbPoint
 10
1411.487977786924
 20
2615.980041450596
 30
0.0
  0
ENDBLK
  5
95E
330
953
100
AcDbEntity
  8
0
100
AcDbBlockEnd
  0
BLOCK
  5
A64
330
A63
100
AcDbEntity
  8
0
100
AcDbBlockBegin
  2
*X18
 70
     1
 10
0.0
 20
0.0
 30
0.0
  3
*X18
  1

  0
LINE
  5
A66
330
A63
100
AcDbEntity
  8
0
 62
     0
100
AcDbLine
 10
5971.8572085819
 20
3320.206779132347
 30
0.0
 11
6077.307038347299
 21
3425.656608897746
 31
0.0
  0
LINE
  5
A67
330
A63
100
AcDbEntity
  8
0
 62
     0
100
AcDbLine
 10
6166.4073788165
 20
3514.756949366947
 30
0.0
 11
6271.857208581899
 21
3620.206779132347
 31
0.0
  0
LINE
  5
A68
330
A63
100
AcDbEntity
  8
0
 62
     0
100
AcDbLine
 10
5971.8572085819
 20
3496.983474428984
 30
0.0
 11
6077.307038347299
 21
3602.433304194384
 31
0.0
  0
LINE
  5
A69
330
A63
100
AcDbEntity
  8
0
 62
     0
100
AcDbLine
 10
6166.407378816501
 20
3337.98025407031
 30
0.0
 11
6271.857208581899
 21
3443.43008383571
 31
0.0
  0
LINE
  5
A6A
330
A63
100
AcDbEntity
  8
0
 62
     0
100
AcDbLine
 10
6266.104472538218
 20
3260.90065249539
 30
0.0
 11
6271.857208581899
 21
3266.653388539073
 31
0.0
  0
LINE
  5
A6B
330
A63
100
AcDbEntity
  8
0
 62
     0
100
AcDbLine
 10
5971.8572085819
 20
3342.303866044427
 30
0.0
 11
6077.307038347299
 21
3447.753695809826
 31
0.0
  0
LINE
  5
A6C
330
A63
100
AcDbEntity
  8
0
 62
     0
100
AcDbLine
 10
6166.4073788165
 20
3536.854036279026
 30
0.0
 11
6271.857208581899
 21
3642.303866044426
 31
0.0
  0
LINE
  5
A6D
330
A63
100
AcDbEntity
  8
0
 62
     0
100
AcDbLine
 10
5971.8572085819
 20
3519.080561341064
 30
0.0
 11
6077.307038347299
 21
3624.530391106463
 31
0.0
  0
LINE
  5
A6E
330
A63
100
AcDbEntity
  8
0
 62
     0
100
AcDbLine
 10
6067.2306903295
 20
3260.90065249539
 30
0.0
 11
6077.307038347298
 21
3270.977000513189
 31
0.0
  0
LINE
  5
A6F
330
A63
100
AcDbEntity
  8
0
 62
     0
100
AcDbLine
 10
6166.407378816501
 20
3360.077340982389
 30
0.0
 11
6271.857208581899
 21
3465.527170747789
 31
0.0
  0
LINE
  5
A70
330
A63
100
AcDbEntity
  8
0
 62
     0
100
AcDbLine
 10
6244.007385626137
 20
3260.90065249539
 30
0.0
 11
6271.857208581899
 21
3288.750475451152
 31
0.0
  0
LINE
  5
A71
330
A63
100
AcDbEntity
  8
0
 62
     0
100
AcDbLine
 10
5971.8572085819
 20
3364.400952956506
 30
0.0
 11
6077.307038347299
 21
3469.850782721906
 31
0.0
  0
LINE
  5
A72
330
A63
100
AcDbEntity
  8
0
 62
     0
100
AcDbLine
 10
6166.4073788165
 20
3558.951123191106
 30
0.0
 11
6268.356902160384
 21
3660.900646534991
 31
0.0
  0
LINE
  5
A73
330
A63
100
AcDbEntity
  8
0
 62
     0
100
AcDbLine
 10
5971.8572085819
 20
3541.177648253144
 30
0.0
 11
6077.307038347299
 21
3646.627478018543
 31
0.0
  0
LINE
  5
A74
330
A63
100
AcDbEntity
  8
0
 62
     0
100
AcDbLine
 10
6045.13360341742
 20
3260.90065249539
 30
0.0
 11
6077.307038347298
 21
3293.074087425269
 31
0.0
  0
LINE
  5
A75
330
A63
100
AcDbEntity
  8
0
 62
     0
100
AcDbLine
 10
6166.407378816501
 20
3382.174427894469
 30
0.0
 11
6271.857208581899
 21
3487.624257659869
 31
0.0
  0
LINE
  5
A76
330
A63
100
AcDbEntity
  8
0
 62
     0
100
AcDbLine
 10
6221.910298714058
 20
3260.90065249539
 30
0.0
 11
6271.857208581899
 21
3310.847562363232
 31
0.0
  0
ENDBLK
  5
A77
330
A63
100
AcDbEntity
  8
0
100
AcDbBlockEnd
  0
ENDSEC
  0
SECTION
  2
ENTITIES
  0
LINE
  5
106
330
18
100
AcDbEntity
  8
SJC2
100
AcDbLine
 10
1477.416016355225
 20
2176.704413223196
 30
0.0
 11
1543.098998774925
 21
2159.104926180797
 31
0.0
  0
LINE
  5
107
330
18
100
AcDbEntity
  8
SJC2
100
AcDbLine
 10
1474.310089887825
 20
2165.113226872496
 30
0.0
 11
1539.993072307525
 21
2147.513739829996
 31
0.0
  0
ARC
  5
108
330
18
100
AcDbEntity
  8
SJC2
100
AcDbCircle
 10
1541.546035541225
 20
2153.309333005396
 30
0.0
 40
6.000049588099999
100
AcDbArc
 50
254.9996428282
 51
74.99964282819999
  0
ARC
  5
109
330
18
100
AcDbEntity
  8
SJC2
100
AcDbCircle
 10
1475.863053121525
 20
2170.908820047796
 30
0.0
 40
6.000049588099999
100
AcDbArc
 50
74.99964282819999
 51
254.9996428282
  0
LINE
  5
10A
330
18
100
AcDbEntity
  8
SJC2
100
AcDbLine
 10
1648.177122209125
 20
2118.525703152596
 30
0.0
 11
1582.494139789525
 21
2136.125495370796
 31
0.0
  0
ARC
  5
10B
330
18
100
AcDbEntity
  8
SJC2
100
AcDbCircle
 10
1584.047026729225
 20
2141.921088546196
 30
0.0
 40
6.000029841799999
100
AcDbArc
 50
75.0003465521
 51
255.0003465521
  0
LINE
  5
10C
330
18
100
AcDbEntity
  8
SJC2
100
AcDbLine
 10
1651.282896088625
 20
2130.116889503296
 30
0.0
 11
1585.599913669025
 21
2147.716681721596
 31
0.0
  0
ARC
  5
10D
330
18
100
AcDbEntity
  8
SJC2
100
AcDbCircle
 10
1649.730009148925
 20
2124.321296327996
 30
0.0
 40
6.000029841799999
100
AcDbArc
 50
255.0003465521
 51
75.0003465521
  0
ARC
  5
10E
330
18
100
AcDbEntity
  8
SJC2
100
AcDbCircle
 10
1649.729913738125
 20
2124.321598247196
 30
0.0
 40
19.999999702
100
AcDbArc
 50
182.458301545
 51
255.0002512406
  0
ARC
  5
10F
330
18
100
AcDbEntity
  8
SJC2
100
AcDbCircle
 10
1688.367140088325
 20
2113.968777158996
 30
0.0
 40
19.999999702
100
AcDbArc
 50
254.999830194
 51
327.5420788841
  0
LINE
  5
110
330
18
100
AcDbEntity
  8
SJC2
100
AcDbLine
 10
1683.190702009725
 20
2094.650276262296
 30
0.0
 11
1644.553617624525
 21
2105.003059311196
 31
0.0
  0
ARC
  5
111
330
18
100
AcDbEntity
  8
SJC2
100
AcDbCircle
 10
1649.729729939225
 20
2124.321750469896
 30
0.0
 40
8.0
100
AcDbArc
 50
213.5938611266
 51
255.0027175409
  0
LINE
  5
112
330
18
100
AcDbEntity
  8
SJC2
100
AcDbLine
 10
1686.296475889225
 20
2106.241462612996
 30
0.0
 11
1647.659544091824
 21
2116.594245661896
 31
0.0
  0
ARC
  5
113
330
18
100
AcDbEntity
  8
SJC2
100
AcDbCircle
 10
1688.367244104525
 20
2113.968811382096
 30
0.0
 40
8.0
100
AcDbArc
 50
254.9983995149
 51
296.4077159651
  0
LINE
  5
114
330
18
100
AcDbEntity
  8
SJC2
100
AcDbLine
 10
1690.437558591124
 20
2121.695869120996
 30
0.0
 11
1651.800474205925
 21
2132.048652169896
 31
0.0
  0
ARC
  5
115
330
18
100
AcDbEntity
  8
SJC2
100
AcDbCircle
 10
1649.729805096225
 20
2124.321276843296
 30
0.0
 40
8.0
100
AcDbArc
 50
74.99913434959999
 51
116.4072883014
  0
ARC
  5
116
330
18
100
AcDbEntity
  8
SJC2
100
AcDbCircle
 10
1688.367187123525
 20
2113.968414042796
 30
0.0
 40
8.0
100
AcDbArc
 50
33.5934335507
 51
75.00134124989999
  0
ARC
  5
117
330
18
100
AcDbEntity
  8
SJC2
100
AcDbCircle
 10
1688.367188944925
 20
2113.968516535696
 30
0.0
 40
19.999999702
100
AcDbArc
 50
2.458301544999999
 51
75.00025124060001
  0
LINE
  5
118
330
18
100
AcDbEntity
  8
SJC2
100
AcDbLine
 10
1693.543485058525
 20
2133.287055471696
 30
0.0
 11
1654.906400673325
 21
2143.639838520596
 31
0.0
  0
ARC
  5
119
330
18
100
AcDbEntity
  8
SJC2
100
AcDbCircle
 10
1649.729962594625
 20
2124.321337623896
 30
0.0
 40
19.999999702
100
AcDbArc
 50
74.999830194
 51
147.5420788841
  0
LINE
  5
11A
330
18
100
AcDbEntity
  8
SJC2
100
AcDbLine
 10
1756.361019522925
 20
2089.537971650996
 30
0.0
 11
1690.678037103225
 21
2107.137763869196
 31
0.0
  0
ARC
  5
11B
330
18
100
AcDbEntity
  8
SJC2
100
AcDbCircle
 10
1757.913982756525
 20
2095.333564826296
 30
0.0
 40
6.000049588099999
100
AcDbArc
 50
254.9996428282
 51
74.99964282819999
  0
ARC
  5
11C
330
18
100
AcDbEntity
  8
SJC2
100
AcDbCircle
 10
1757.913976891525
 20
2095.333558018996
 30
0.0
 40
19.999999702
100
AcDbArc
 50
182.4574162943
 51
255.0002119378
  0
ARC
  5
11D
330
18
100
AcDbEntity
  8
SJC2
100
AcDbCircle
 10
1796.551037402125
 20
2084.980740481596
 30
0.0
 40
19.999999702
100
AcDbArc
 50
254.999830194
 51
327.5420788841
  0
LINE
  5
11E
330
18
100
AcDbEntity
  8
SJC2
100
AcDbLine
 10
1791.374599323425
 20
2065.662239584896
 30
0.0
 11
1752.737667526124
 21
2076.015022633696
 31
0.0
  0
ARC
  5
11F
330
18
100
AcDbEntity
  8
SJC2
100
AcDbCircle
 10
1757.914059451024
 20
2095.333597994296
 30
0.0
 40
8.0
100
AcDbArc
 50
213.590241666
 51
254.9995129732
  0
LINE
  5
120
330
18
100
AcDbEntity
  8
SJC2
100
AcDbLine
 10
1794.480525790824
 20
2077.253425935596
 30
0.0
 11
1755.843441405624
 21
2087.606208984496
 31
0.0
  0
ARC
  5
121
330
18
100
AcDbEntity
  8
SJC2
100
AcDbCircle
 10
1796.550795735425
 20
2084.980908213596
 30
0.0
 40
8.0
100
AcDbArc
 50
255.0020939981
 51
296.4104802091
  0
LINE
  5
122
330
18
100
AcDbEntity
  8
SJC2
100
AcDbLine
 10
1759.466945990225
 20
2101.129158001696
 30
0.0
 11
1693.783963570625
 21
2118.728950219896
 31
0.0
  0
ARC
  5
123
330
18
100
AcDbEntity
  8
SJC2
100
AcDbCircle
 10
1757.913755892225
 20
2095.333571899196
 30
0.0
 40
8.0
100
AcDbArc
 50
74.9983995149
 51
116.4077159651
  0
ARC
  5
124
330
18
100
AcDbEntity
  8
SJC2
100
AcDbCircle
 10
1757.913859908425
 20
2095.333606122196
 30
0.0
 40
19.999999702
100
AcDbArc
 50
74.999830194
 51
147.5420788841
  0
LINE
  5
125
330
18
100
AcDbEntity
  8
SJC2
100
AcDbLine
 10
1798.621455904825
 20
2092.708137619396
 30
0.0
 11
1759.984524107525
 21
2103.060920668196
 31
0.0
  0
ARC
  5
126
330
18
100
AcDbEntity
  8
SJC2
100
AcDbCircle
 10
1796.551086258625
 20
2084.980785034096
 30
0.0
 40
19.999999702
100
AcDbArc
 50
2.458301544999999
 51
75.00025124060001
  0
LINE
  5
127
330
18
100
AcDbEntity
  8
SJC2
100
AcDbLine
 10
1801.727382372224
 20
2104.299323970096
 30
0.0
 11
1763.090297987025
 21
2114.652107018896
 31
0.0
  0
ARC
  5
128
330
18
100
AcDbEntity
  8
SJC2
100
AcDbCircle
 10
1796.551270057524
 20
2084.980632811396
 30
0.0
 40
8.0
100
AcDbArc
 50
33.5938611266
 51
75.0027175409
  0
ARC
  5
129
330
18
100
AcDbEntity
  8
SJC2
100
AcDbCircle
 10
1692.231000336924
 20
2112.933357044596
 30
0.0
 40
6.000049588099999
100
AcDbArc
 50
74.99964282819999
 51
254.9996428282
  0
ARC
  5
12A
330
18
100
AcDbEntity
  8
SJC2
100
AcDbCircle
 10
1800.414973944524
 20
2083.945625542896
 30
0.0
 40
6.000029841799999
100
AcDbArc
 50
75.0003465521
 51
255.0003465521
  0
LINE
  5
12B
330
18
100
AcDbEntity
  8
SJC2
100
AcDbLine
 10
1864.545069424525
 20
2060.550240149296
 30
0.0
 11
1798.862087004825
 21
2078.150032367496
 31
0.0
  0
LINE
  5
12C
330
18
100
AcDbEntity
  8
SJC2
100
AcDbLine
 10
1867.650843304025
 20
2072.141426500096
 30
0.0
 11
1801.967860884325
 21
2089.741218718296
 31
0.0
  0
ARC
  5
12D
330
18
100
AcDbEntity
  8
SJC2
100
AcDbCircle
 10
1474.276414518825
 20
2170.971644961996
 30
0.0
 40
19.999999702
100
AcDbArc
 50
254.999830194
 51
327.5420788841
  0
ARC
  5
12E
330
18
100
AcDbEntity
  8
SJC2
100
AcDbCircle
 10
1474.276518534925
 20
2170.971679184996
 30
0.0
 40
8.0
100
AcDbArc
 50
254.9983995149
 51
296.4077159651
  0
ARC
  5
12F
330
18
100
AcDbEntity
  8
SJC2
100
AcDbCircle
 10
1474.276400596725
 20
2170.971603353696
 30
0.0
 40
8.0
100
AcDbArc
 50
33.5906692812
 51
75.0008892779
  0
ARC
  5
130
330
18
100
AcDbEntity
  8
SJC2
100
AcDbCircle
 10
1474.276450123525
 20
2170.971693065196
 30
0.0
 40
19.999999702
100
AcDbArc
 50
2.4574162943
 51
75.0002119378
  0
ARC
  5
131
330
18
100
AcDbEntity
  8
SJC2
100
AcDbCircle
 10
1543.823238070125
 20
2152.336734548496
 30
0.0
 40
19.999999702
100
AcDbArc
 50
182.458301545
 51
255.0002512406
  0
LINE
  5
132
330
18
100
AcDbEntity
  8
SJC2
100
AcDbLine
 10
1577.283873753825
 20
2122.665412563596
 30
0.0
 11
1538.646941956525
 21
2133.018195612496
 31
0.0
  0
LINE
  5
133
330
18
100
AcDbEntity
  8
SJC2
100
AcDbLine
 10
1580.389800221224
 20
2134.256598914296
 30
0.0
 11
1541.752715836024
 21
2144.609381963196
 31
0.0
  0
ARC
  5
134
330
18
100
AcDbEntity
  8
SJC2
100
AcDbCircle
 10
1543.823087303624
 20
2152.336837041396
 30
0.0
 40
8.0
100
AcDbArc
 50
213.5934335507
 51
255.0013412499
  0
LINE
  5
135
330
18
100
AcDbEntity
  8
SJC2
100
AcDbLine
 10
1584.530882923225
 20
2149.711310598096
 30
0.0
 11
1545.893798538025
 21
2160.064093646896
 31
0.0
  0
ARC
  5
136
330
18
100
AcDbEntity
  8
SJC2
100
AcDbCircle
 10
1543.823030322625
 20
2152.336744877896
 30
0.0
 40
8.0
100
AcDbArc
 50
74.9983995149
 51
116.4077159651
  0
ARC
  5
137
330
18
100
AcDbEntity
  8
SJC2
100
AcDbCircle
 10
1543.823134338825
 20
2152.336779100896
 30
0.0
 40
19.999999702
100
AcDbArc
 50
74.999830194
 51
147.5420788841
  0
LINE
  5
138
330
18
100
AcDbEntity
  8
SJC2
100
AcDbLine
 10
1587.636656802725
 20
2161.302496948796
 30
0.0
 11
1548.999572417525
 21
2171.655279997696
 31
0.0
  0
ARC
  5
139
330
18
100
AcDbEntity
  8
SJC2
100
AcDbCircle
 10
1582.460347437225
 20
2141.983961563496
 30
0.0
 40
19.999999702
100
AcDbArc
 50
2.4574162943
 51
75.0002119378
  0
ARC
  5
13A
330
18
100
AcDbEntity
  8
SJC2
100
AcDbCircle
 10
1582.460264877725
 20
2141.983921588196
 30
0.0
 40
8.0
100
AcDbArc
 50
33.590241666
 51
74.99951297319999
  0
ARC
  5
13B
330
18
100
AcDbEntity
  8
SJC2
100
AcDbCircle
 10
1582.460469330924
 20
2141.983974240896
 30
0.0
 40
8.0
100
AcDbArc
 50
254.9991343496
 51
296.4072883014
  0
ARC
  5
13C
330
18
100
AcDbEntity
  8
SJC2
100
AcDbCircle
 10
1582.460311832525
 20
2141.983913460296
 30
0.0
 40
19.999999702
100
AcDbArc
 50
254.999830194
 51
327.5420788841
  0
LINE
  5
13D
330
18
100
AcDbEntity
  8
SJC2
100
AcDbLine
 10
996.7989580873254
 20
2118.525703152596
 30
0.0
 11
1062.481940507025
 21
2136.125495370796
 31
0.0
  0
ARC
  5
13E
330
18
100
AcDbEntity
  8
SJC2
100
AcDbCircle
 10
1060.929053567224
 20
2141.921088546196
 30
0.0
 40
6.000029841799999
100
AcDbArc
 50
284.9996534479
 51
104.9996534479
  0
LINE
  5
13F
330
18
100
AcDbEntity
  8
SJC2
100
AcDbLine
 10
993.6931842078248
 20
2130.116889503296
 30
0.0
 11
1059.376166627524
 21
2147.716681721596
 31
0.0
  0
ARC
  5
140
330
18
100
AcDbEntity
  8
SJC2
100
AcDbCircle
 10
995.246071147525
 20
2124.321296327996
 30
0.0
 40
6.000029841799999
100
AcDbArc
 50
104.9996534479
 51
284.9996534479
  0
ARC
  5
141
330
18
100
AcDbEntity
  8
SJC2
100
AcDbCircle
 10
995.246166558325
 20
2124.321598247196
 30
0.0
 40
19.999999702
100
AcDbArc
 50
284.9997487594
 51
357.541698455
  0
ARC
  5
142
330
18
100
AcDbEntity
  8
SJC2
100
AcDbCircle
 10
956.6089402081251
 20
2113.968777158996
 30
0.0
 40
19.999999702
100
AcDbArc
 50
212.4579211159
 51
285.000169806
  0
LINE
  5
143
330
18
100
AcDbEntity
  8
SJC2
100
AcDbLine
 10
961.7853782868261
 20
2094.650276262296
 30
0.0
 11
1000.422462672024
 21
2105.003059311196
 31
0.0
  0
ARC
  5
144
330
18
100
AcDbEntity
  8
SJC2
100
AcDbCircle
 10
995.2463503573254
 20
2124.321750469896
 30
0.0
 40
8.0
100
AcDbArc
 50
284.9972824591
 51
326.4061388734
  0
LINE
  5
145
330
18
100
AcDbEntity
  8
SJC2
100
AcDbLine
 10
958.6796044073253
 20
2106.241462612996
 30
0.0
 11
997.3165362046238
 21
2116.594245661896
 31
0.0
  0
ARC
  5
146
330
18
100
AcDbEntity
  8
SJC2
100
AcDbCircle
 10
956.6088361919247
 20
2113.968811382096
 30
0.0
 40
8.0
100
AcDbArc
 50
243.5922840349
 51
285.0016004851
  0
LINE
  5
147
330
18
100
AcDbEntity
  8
SJC2
100
AcDbLine
 10
954.5385217053244
 20
2121.695869120996
 30
0.0
 11
993.1756060905245
 21
2132.048652169896
 31
0.0
  0
ARC
  5
148
330
18
100
AcDbEntity
  8
SJC2
100
AcDbCircle
 10
995.2462752002247
 20
2124.321276843296
 30
0.0
 40
8.0
100
AcDbArc
 50
63.5927116986
 51
105.0008656504
  0
ARC
  5
149
330
18
100
AcDbEntity
  8
SJC2
100
AcDbCircle
 10
956.6088931729245
 20
2113.968414042796
 30
0.0
 40
8.0
100
AcDbArc
 50
104.9986587501
 51
146.4065664493
  0
ARC
  5
14A
330
18
100
AcDbEntity
  8
SJC2
100
AcDbCircle
 10
956.6088913516251
 20
2113.968516535696
 30
0.0
 40
19.999999702
100
AcDbArc
 50
104.9997487594
 51
177.541698455
  0
LINE
  5
14B
330
18
100
AcDbEntity
  8
SJC2
100
AcDbLine
 10
951.4325952379259
 20
2133.287055471696
 30
0.0
 11
990.069679623124
 21
2143.639838520596
 31
0.0
  0
ARC
  5
14C
330
18
100
AcDbEntity
  8
SJC2
100
AcDbCircle
 10
995.2461177018248
 20
2124.321337623896
 30
0.0
 40
19.999999702
100
AcDbArc
 50
32.4579211159
 51
105.000169806
  0
LINE
  5
14D
330
18
100
AcDbEntity
  8
SJC2
100
AcDbLine
 10
888.6150607736253
 20
2089.537971650996
 30
0.0
 11
954.2980431933246
 21
2107.137763869196
 31
0.0
  0
ARC
  5
14E
330
18
100
AcDbEntity
  8
SJC2
100
AcDbCircle
 10
887.0620975399251
 20
2095.333564826296
 30
0.0
 40
6.000049588099999
100
AcDbArc
 50
105.0003571718
 51
285.0003571718
  0
ARC
  5
14F
330
18
100
AcDbEntity
  8
SJC2
100
AcDbCircle
 10
887.0621034049253
 20
2095.333558018996
 30
0.0
 40
19.999999702
100
AcDbArc
 50
284.9997880622
 51
357.5425837057
  0
ARC
  5
150
330
18
100
AcDbEntity
  8
SJC2
100
AcDbCircle
 10
848.4250428944251
 20
2084.980740481596
 30
0.0
 40
19.999999702
100
AcDbArc
 50
212.4579211159
 51
285.000169806
  0
LINE
  5
151
330
18
100
AcDbEntity
  8
SJC2
100
AcDbLine
 10
853.6014809731241
 20
2065.662239584896
 30
0.0
 11
892.2384127704244
 21
2076.015022633696
 31
0.0
  0
ARC
  5
152
330
18
100
AcDbEntity
  8
SJC2
100
AcDbCircle
 10
887.0620208455257
 20
2095.333597994296
 30
0.0
 40
8.0
100
AcDbArc
 50
285.0004870268
 51
326.409758334
  0
LINE
  5
153
330
18
100
AcDbEntity
  8
SJC2
100
AcDbLine
 10
850.4955545057255
 20
2077.253425935596
 30
0.0
 11
889.1326388909256
 21
2087.606208984496
 31
0.0
  0
ARC
  5
154
330
18
100
AcDbEntity
  8
SJC2
100
AcDbCircle
 10
848.4252845610244
 20
2084.980908213596
 30
0.0
 40
8.0
100
AcDbArc
 50
243.5895197909
 51
284.9979060019
  0
LINE
  5
155
330
18
100
AcDbEntity
  8
SJC2
100
AcDbLine
 10
885.509134306225
 20
2101.129158001696
 30
0.0
 11
951.1921167259243
 21
2118.728950219896
 31
0.0
  0
ARC
  5
156
330
18
100
AcDbEntity
  8
SJC2
100
AcDbCircle
 10
887.0623244042253
 20
2095.333571899196
 30
0.0
 40
8.0
100
AcDbArc
 50
63.5922840349
 51
105.0016004851
  0
ARC
  5
157
330
18
100
AcDbEntity
  8
SJC2
100
AcDbCircle
 10
887.0622203881248
 20
2095.333606122196
 30
0.0
 40
19.999999702
100
AcDbArc
 50
32.4579211159
 51
105.000169806
  0
LINE
  5
158
330
18
100
AcDbEntity
  8
SJC2
100
AcDbLine
 10
846.3546243916244
 20
2092.708137619396
 30
0.0
 11
884.9915561889247
 21
2103.060920668196
 31
0.0
  0
ARC
  5
159
330
18
100
AcDbEntity
  8
SJC2
100
AcDbCircle
 10
848.424994037825
 20
2084.980785034096
 30
0.0
 40
19.999999702
100
AcDbArc
 50
104.9997487594
 51
177.541698455
  0
LINE
  5
15A
330
18
100
AcDbEntity
  8
SJC2
100
AcDbLine
 10
843.248697924224
 20
2104.299323970096
 30
0.0
 11
881.8857823094258
 21
2114.652107018896
 31
0.0
  0
ARC
  5
15B
330
18
100
AcDbEntity
  8
SJC2
100
AcDbCircle
 10
848.4248102389246
 20
2084.980632811396
 30
0.0
 40
8.0
100
AcDbArc
 50
104.9972824591
 51
146.4061388734
  0
ARC
  5
15C
330
18
100
AcDbEntity
  8
SJC2
100
AcDbCircle
 10
952.7450799596245
 20
2112.933357044596
 30
0.0
 40
6.000049588099999
100
AcDbArc
 50
285.0003571718
 51
105.0003571718
  0
ARC
  5
15D
330
18
100
AcDbEntity
  8
SJC2
100
AcDbCircle
 10
844.5611063519246
 20
2083.945625542896
 30
0.0
 40
6.000029841799999
100
AcDbArc
 50
284.9996534479
 51
104.9996534479
  0
ARC
  5
15E
330
18
100
AcDbEntity
  8
SJC2
100
AcDbCircle
 10
1101.152842226325
 20
2152.336734548496
 30
0.0
 40
19.999999702
100
AcDbArc
 50
284.9997487594
 51
357.541698455
  0
LINE
  5
15F
330
18
100
AcDbEntity
  8
SJC2
100
AcDbLine
 10
1067.692206542626
 20
2122.665412563596
 30
0.0
 11
1106.329138339924
 21
2133.018195612496
 31
0.0
  0
LINE
  5
160
330
18
100
AcDbEntity
  8
SJC2
100
AcDbLine
 10
1064.586280075225
 20
2134.256598914296
 30
0.0
 11
1103.223364460424
 21
2144.609381963196
 31
0.0
  0
ARC
  5
161
330
18
100
AcDbEntity
  8
SJC2
100
AcDbCircle
 10
1062.515732859225
 20
2141.983961563496
 30
0.0
 40
19.999999702
100
AcDbArc
 50
104.9997880622
 51
177.5425837057
  0
ARC
  5
162
330
18
100
AcDbEntity
  8
SJC2
100
AcDbCircle
 10
1062.515610965525
 20
2141.983974240896
 30
0.0
 40
8.0
100
AcDbArc
 50
243.5927116986
 51
285.0008656504
  0
ARC
  5
163
330
18
100
AcDbEntity
  8
SJC2
100
AcDbCircle
 10
1062.515768463925
 20
2141.983913460296
 30
0.0
 40
19.999999702
100
AcDbArc
 50
212.4579211159
 51
285.000169806
  0
LINE
  5
164
330
18
100
AcDbEntity
  8
SJC2
100
AcDbLine
 10
1167.560063941225
 20
2176.704413223196
 30
0.0
 11
1101.877081521525
 21
2159.104926180797
 31
0.0
  0
LINE
  5
165
330
18
100
AcDbEntity
  8
SJC2
100
AcDbLine
 10
1170.665990408624
 20
2165.113226872496
 30
0.0
 11
1104.983007988925
 21
2147.513739829996
 31
0.0
  0
ARC
  5
166
330
18
100
AcDbEntity
  8
SJC2
100
AcDbCircle
 10
1103.430044755225
 20
2153.309333005396
 30
0.0
 40
6.000049588099999
100
AcDbArc
 50
105.0003571718
 51
285.0003571718
  0
ARC
  5
167
330
18
100
AcDbEntity
  8
SJC2
100
AcDbCircle
 10
1169.113027174924
 20
2170.908820047796
 30
0.0
 40
6.000049588099999
100
AcDbArc
 50
285.0003571718
 51
105.0003571718
  0
ARC
  5
168
330
18
100
AcDbEntity
  8
SJC2
100
AcDbCircle
 10
1170.699665777725
 20
2170.971644961996
 30
0.0
 40
19.999999702
100
AcDbArc
 50
212.4579211159
 51
285.000169806
  0
ARC
  5
169
330
18
100
AcDbEntity
  8
SJC2
100
AcDbCircle
 10
1170.699561761525
 20
2170.971679184996
 30
0.0
 40
8.0
100
AcDbArc
 50
243.5922840349
 51
285.0016004851
  0
ARC
  5
16A
330
18
100
AcDbEntity
  8
SJC2
100
AcDbCircle
 10
1170.699679699724
 20
2170.971603353696
 30
0.0
 40
8.0
100
AcDbArc
 50
104.9991107221
 51
146.4093307188
  0
ARC
  5
16B
330
18
100
AcDbEntity
  8
SJC2
100
AcDbCircle
 10
1170.699630172925
 20
2170.971693065196
 30
0.0
 40
19.999999702
100
AcDbArc
 50
104.9997880622
 51
177.5425837057
  0
ARC
  5
16C
330
18
100
AcDbEntity
  8
SJC2
100
AcDbCircle
 10
1101.152992992825
 20
2152.336837041396
 30
0.0
 40
8.0
100
AcDbArc
 50
284.9986587501
 51
326.4065664493
  0
LINE
  5
16D
330
18
100
AcDbEntity
  8
SJC2
100
AcDbLine
 10
1060.445197373325
 20
2149.711310598096
 30
0.0
 11
1099.082281758525
 21
2160.064093646896
 31
0.0
  0
ARC
  5
16E
330
18
100
AcDbEntity
  8
SJC2
100
AcDbCircle
 10
1101.152945957725
 20
2152.336779100896
 30
0.0
 40
19.999999702
100
AcDbArc
 50
32.4579211159
 51
105.000169806
  0
LINE
  5
16F
330
18
100
AcDbEntity
  8
SJC2
100
AcDbLine
 10
1057.339423493824
 20
2161.302496948796
 30
0.0
 11
1095.976507879026
 21
2171.655279997696
 31
0.0
  0
ARC
  5
170
330
18
100
AcDbEntity
  8
SJC2
100
AcDbCircle
 10
1101.153049973825
 20
2152.336744877896
 30
0.0
 40
8.0
100
AcDbArc
 50
63.5922840349
 51
105.0016004851
  0
ARC
  5
171
330
18
100
AcDbEntity
  8
SJC2
100
AcDbCircle
 10
1062.515815418724
 20
2141.983921588196
 30
0.0
 40
8.0
100
AcDbArc
 50
105.0004870268
 51
146.409758334
  0
LINE
  5
172
330
18
100
AcDbEntity
  8
SJC2
100
AcDbLine
 10
798.473155378524
 20
2077.808235497596
 30
0.0
 11
843.008219412226
 21
2089.741218718296
 31
0.0
  0
LINE
  5
173
330
18
100
AcDbEntity
  8
SJC2
100
AcDbLine
 10
799.235560762725
 20
2065.588997398496
 30
0.0
 11
846.1139932917248
 21
2078.150032367496
 31
0.0
  0
LINE
  5
174
330
18
100
AcDbEntity
  8
SJC
100
AcDbLine
 10
3478.344347501997
 20
381.6745327446961
 30
0.0
 11
2883.015376880896
 21
381.6745327446961
 31
0.0
  0
LINE
  5
175
330
18
100
AcDbEntity
  8
SJC
100
AcDbLine
 10
1233.388004854825
 20
381.6745327446961
 30
0.0
 11
1233.388004854825
 21
1323.847053170926
 31
0.0
  0
ARC
  5
176
330
18
100
AcDbEntity
  8
SJC
100
AcDbCircle
 10
1172.918947031925
 20
2181.674505922596
 30
0.0
 40
83.6691176345
100
AcDbArc
 50
316.2792234647
 51
43.72077653529999
  0
ARC
  5
177
330
18
100
AcDbEntity
  8
SJC
100
AcDbCircle
 10
1249.387554879025
 20
2181.674505922596
 30
0.0
 40
59.9999991059
100
AcDbArc
 50
105.4655643504
 51
254.5344356496
  0
CIRCLE
  5
178
330
18
100
AcDbEntity
  8
SJC2
100
AcDbCircle
 10
1209.388066247625
 20
2181.674505922596
 30
0.0
 40
4.9999999255
  0
LINE
  5
179
330
18
100
AcDbEntity
  8
SJC2
100
AcDbLine
 10
1172.770329976825
 20
2163.244330415996
 30
0.0
 11
1190.940800897525
 21
2168.113104757496
 31
0.0
  0
LINE
  5
17A
330
18
100
AcDbEntity
  8
SJC2
100
AcDbLine
 10
1175.876103856324
 20
2151.653144065196
 30
0.0
 11
1194.819585019425
 21
2156.729132759096
 31
0.0
  0
LINE
  5
17B
330
18
100
AcDbEntity
  8
SJC2
100
AcDbLine
 10
1168.629247274924
 20
2178.699042099696
 30
0.0
 11
1189.444524064325
 21
2184.276739770496
 31
0.0
  0
LINE
  5
17C
330
18
100
AcDbEntity
  8
SJC2
100
AcDbLine
 10
1165.523320807525
 20
2190.290228450396
 30
0.0
 11
1191.440831407624
 21
2197.234808425096
 31
0.0
  0
ARC
  5
17D
330
18
100
AcDbEntity
  8
SJC
100
AcDbCircle
 10
1395.588525417524
 20
2181.674505922596
 30
0.0
 40
59.9999991059
100
AcDbArc
 50
285.4655643504001
 51
74.5344356496
  0
ARC
  5
17E
330
18
100
AcDbEntity
  8
SJC
100
AcDbCircle
 10
1472.057133264525
 20
2181.674505922596
 30
0.0
 40
83.6691176345
100
AcDbArc
 50
136.2792234647
 51
223.7207765353
  0
LINE
  5
17F
330
18
100
AcDbEntity
  8
SJC
100
AcDbLine
 10
1411.588075441625
 20
381.6745327446961
 30
0.0
 11
1411.588075441625
 21
1323.847053170926
 31
0.0
  0
LINE
  5
180
330
18
100
AcDbEntity
  8
SJC2
100
AcDbLine
 10
1479.452759488925
 20
2190.290228450396
 30
0.0
 11
1453.535248888825
 21
2197.234808425096
 31
0.0
  0
LINE
  5
181
330
18
100
AcDbEntity
  8
SJC2
100
AcDbLine
 10
1476.346833021624
 20
2178.699042099696
 30
0.0
 11
1455.531556232125
 21
2184.276434594696
 31
0.0
  0
LINE
  5
182
330
18
100
AcDbEntity
  8
SJC2
100
AcDbLine
 10
1472.205750319625
 20
2163.244330415996
 30
0.0
 11
1454.035279398925
 21
2168.113104757496
 31
0.0
  0
LINE
  5
183
330
18
100
AcDbEntity
  8
SJC2
100
AcDbLine
 10
1469.099976440125
 20
2151.653144065196
 30
0.0
 11
1450.156647864925
 21
2156.729132759096
 31
0.0
  0
LINE
  5
184
330
18
100
AcDbEntity
  8
SJC
100
AcDbLine
 10
1233.388004854825
 20
2239.501958674196
 30
0.0
 11
1233.388004854825
 21
2301.574833733196
 31
0.0
  0
LINE
  5
185
330
18
100
AcDbEntity
  8
SJC
100
AcDbLine
 10
1411.588075441625
 20
2239.501958674196
 30
0.0
 11
1411.588075441625
 21
2301.574833733196
 31
0.0
  0
LINE
  5
186
330
18
100
AcDbEntity
  8
SJC
100
AcDbLine
 10
3141.778800759397
 20
381.6745327446961
 30
0.0
 11
3141.778800759397
 21
2301.074833733196
 31
0.0
  0
LINE
  5
187
330
18
100
AcDbEntity
  8
SJC
100
AcDbLine
 10
3319.978871346197
 20
381.6745327446961
 30
0.0
 11
3319.978871346197
 21
2301.074833733196
 31
0.0
  0
CIRCLE
  5
188
330
18
100
AcDbEntity
  8
SJC
100
AcDbCircle
 10
3230.879141228498
 20
2181.674505922596
 30
0.0
 40
59.9999991059
  0
LINE
  5
189
330
18
100
AcDbEntity
  8
SJC2
100
AcDbLine
 10
3222.879263418098
 20
2223.874517500796
 30
0.0
 11
3238.879019038996
 21
2223.874517500796
 31
0.0
  0
LINE
  5
18A
330
18
100
AcDbEntity
  8
SJC2
100
AcDbLine
 10
3230.879141228498
 20
2215.874639690296
 30
0.0
 11
3230.879141228498
 21
2231.874395311296
 31
0.0
  0
LINE
  5
18B
330
18
100
AcDbEntity
  8
SJC2
100
AcDbLine
 10
3222.879263418098
 20
2139.474494344396
 30
0.0
 11
3238.879019038996
 21
2139.474494344396
 31
0.0
  0
LINE
  5
18C
330
18
100
AcDbEntity
  8
SJC2
100
AcDbLine
 10
3230.879141228498
 20
2147.474372154796
 30
0.0
 11
3230.879141228498
 21
2131.474616533896
 31
0.0
  0
LINE
  5
18D
330
18
100
AcDbEntity
  8
SJC2
100
AcDbLine
 10
3222.879263418098
 20
2193.474432504596
 30
0.0
 11
3238.879019038996
 21
2193.474432504596
 31
0.0
  0
LINE
  5
18E
330
18
100
AcDbEntity
  8
SJC2
100
AcDbLine
 10
3222.879263418098
 20
2169.874579340596
 30
0.0
 11
3238.879019038996
 21
2169.874579340596
 31
0.0
  0
LINE
  5
18F
330
18
100
AcDbEntity
  8
SJC2
100
AcDbLine
 10
3238.879019038996
 20
2193.474432504596
 30
0.0
 11
3238.879019038996
 21
2169.874579340596
 31
0.0
  0
LINE
  5
190
330
18
100
AcDbEntity
  8
SJC2
100
AcDbLine
 10
3222.879263418098
 20
2193.474432504596
 30
0.0
 11
3222.879263418098
 21
2169.874579340596
 31
0.0
  0
TEXT
  5
191
330
18
100
AcDbEntity
  8
MOJI
100
AcDbText
 10
4287.889859023583
 20
1125.676782708094
 30
0.0
 40
60.0
  1
1
 41
0.8
  7
EXT08
100
AcDbText
  0
TEXT
  5
192
330
18
100
AcDbEntity
  8
MOJI
100
AcDbText
 10
4260.087667597583
 20
1225.853028497253
 30
0.0
 40
60.0
  1
部番
 41
0.8
  7
EXT08
100
AcDbText
  0
TEXT
  5
193
330
18
100
AcDbEntity
  8
MOJI
100
AcDbText
 10
4287.889859023583
 20
1025.676445113982
 30
0.0
 40
60.0
  1
2
 41
0.8
  7
EXT08
100
AcDbText
  0
TEXT
  5
194
330
18
100
AcDbEntity
  8
MOJI
100
AcDbText
 10
4287.889859023583
 20
925.6764466040934
 30
0.0
 40
60.0
  1
3
 41
0.8
  7
EXT08
100
AcDbText
  0
TEXT
  5
195
330
18
100
AcDbEntity
  8
MOJI
100
AcDbText
 10
4287.889859023583
 20
825.6764480942045
 30
0.0
 40
60.0
  1
4
 41
0.8
  7
EXT08
100
AcDbText
  0
TEXT
  5
196
330
18
100
AcDbEntity
  8
MOJI
100
AcDbText
 10
4287.889859023583
 20
725.6764495843166
 30
0.0
 40
60.0
  1
5
 41
0.8
  7
EXT08
100
AcDbText
  0
TEXT
  5
197
330
18
100
AcDbEntity
  8
MOJI
100
AcDbText
 10
4287.889859023583
 20
625.6764510744265
 30
0.0
 40
60.0
  1
6
 41
0.8
  7
EXT08
100
AcDbText
  0
TEXT
  5
198
330
18
100
AcDbEntity
  8
MOJI
100
AcDbText
 10
4844.553307386874
 20
1224.771688995141
 30
0.0
 40
60.0
  1
材　　  質
 41
0.8
  7
EXT08
100
AcDbText
  0
TEXT
  5
199
330
18
100
AcDbEntity
  8
MOJI
100
AcDbText
 10
5369.899230310188
 20
1224.771688995141
 30
0.0
 40
60.0
  1
摘　　　要
 41
0.8
  7
EXT08
100
AcDbText
  0
TEXT
  5
19A
330
18
100
AcDbEntity
  8
MOJI
100
AcDbText
 10
4504.037936623914
 20
1225.853028497253
 30
0.0
 40
60.0
  1
品  名
 41
0.8
  7
EXT08
100
AcDbText
  0
TEXT
  5
19B
330
18
100
AcDbEntity
  8
MOJI
100
AcDbText
 10
5160.796657095647
 20
1127.46740984614
 30
0.0
 40
60.0
  1
亜鉛めっき＋静電粉体塗装
 41
0.8
  7
EXT08
100
AcDbText
  0
LINE
  5
19C
330
18
100
AcDbEntity
  8
MOJI
100
AcDbLine
 10
4244.500497144665
 20
603.9264969661412
 30
0.0
 11
5869.107667123423
 21
603.9264969661412
 31
0.0
  0
LINE
  5
19D
330
18
100
AcDbEntity
  8
MOJI
100
AcDbLine
 10
4244.500497144665
 20
703.9264954760301
 30
0.0
 11
5869.107667123423
 21
703.9264954760301
 31
0.0
  0
LINE
  5
19E
330
18
100
AcDbEntity
  8
MOJI
100
AcDbLine
 10
4244.500497144665
 20
803.9261549016964
 30
0.0
 11
5869.107667123423
 21
803.9261549016964
 31
0.0
  0
LINE
  5
19F
330
18
100
AcDbEntity
  8
MOJI
100
AcDbLine
 10
4244.500497144665
 20
1003.926151921474
 30
0.0
 11
5869.107667123423
 21
1003.926151921474
 31
0.0
  0
LINE
  5
1A0
330
18
100
AcDbEntity
  8
MOJI
100
AcDbLine
 10
4244.500497144665
 20
1103.926489515475
 30
0.0
 11
5869.107667123423
 21
1103.926489515475
 31
0.0
  0
LINE
  5
1A1
330
18
100
AcDbEntity
  8
MOJI
100
AcDbLine
 10
4244.500497144665
 20
1203.926488025362
 30
0.0
 11
5869.107667123423
 21
1203.926488025362
 31
0.0
  0
LINE
  5
1A2
330
18
100
AcDbEntity
  8
MOJI
100
AcDbLine
 10
4244.500497144665
 20
903.9261534115853
 30
0.0
 11
5869.107667123423
 21
903.9261534115853
 31
0.0
  0
LINE
  5
1A3
330
18
100
AcDbEntity
  8
MOJI
100
AcDbLine
 10
4244.500497144665
 20
1303.926486535252
 30
0.0
 11
5869.107667123423
 21
1303.926486535252
 31
0.0
  0
LINE
  5
1A4
330
18
100
AcDbEntity
  8
MOJI
100
AcDbLine
 10
4810.335877674306
 20
603.9264969661412
 30
0.0
 11
4810.335877674306
 21
1303.926486535252
 31
0.0
  0
LINE
  5
1A5
330
18
100
AcDbEntity
  8
MOJI
100
AcDbLine
 10
4377.225180758276
 20
603.9264969661412
 30
0.0
 11
4377.225180758276
 21
1303.926486535252
 31
0.0
  0
LINE
  5
1A6
330
18
100
AcDbEntity
  8
MOJI
100
AcDbLine
 10
5134.153608567607
 20
1303.926486535252
 30
0.0
 11
5134.153608567607
 21
603.9264969661412
 31
0.0
  0
LINE
  5
1A7
330
18
100
AcDbEntity
  8
MOJI
100
AcDbLine
 10
5869.107667123423
 20
603.9264969661412
 30
0.0
 11
5869.107667123423
 21
1303.926486535252
 31
0.0
  0
LINE
  5
1A8
330
18
100
AcDbEntity
  8
MOJI
100
AcDbLine
 10
4244.500497144665
 20
603.9264969661412
 30
0.0
 11
4244.500497144665
 21
1303.926486535252
 31
0.0
  0
TEXT
  5
1A9
330
18
100
AcDbEntity
  8
MOJI
100
AcDbText
 10
5330.219504444318
 20
1027.467411336251
 30
0.0
 40
60.0
  1
静電粉体塗装
 41
0.8
  7
EXT08
100
AcDbText
  0
TEXT
  5
1AA
330
18
100
AcDbEntity
  8
MOJI
100
AcDbText
 10
4845.31743631623
 20
1124.784914768918
 30
0.0
 40
60.0
  1
STK400
 41
0.8
  7
EXT08
100
AcDbText
  0
TEXT
  5
1AB
330
18
100
AcDbEntity
  8
MOJI
100
AcDbText
 10
4837.406093981609
 20
1024.784577174807
 30
0.0
 40
60.0
  1
アルミ合金
 41
0.8
  7
EXT08
100
AcDbText
  0
TEXT
  5
1AC
330
18
100
AcDbEntity
  8
MOJI
100
AcDbText
 10
4921.382426009372
 20
824.7845801551401
 30
0.0
 40
60.0
  1
AL
 41
0.8
  7
EXT08
100
AcDbText
  0
TEXT
  5
1AD
330
18
100
AcDbEntity
  8
MOJI
100
AcDbText
 10
4896.532456615467
 20
724.7849207293625
 30
0.0
 40
60.0
  1
SUS
 41
0.8
  7
EXT08
100
AcDbText
  0
TEXT
  5
1AE
330
18
100
AcDbEntity
  8
MOJI
100
AcDbText
 10
5466.682982363341
 20
820.5107629444748
 30
0.0
 40
60.0
  1
%%c6
 41
0.8
  7
EXT08
100
AcDbText
  0
TEXT
  5
1AF
330
18
100
AcDbEntity
  8
MOJI
100
AcDbText
 10
4500.558798430106
 20
1120.459556760474
 30
0.0
 40
60.0
  1
支　柱
 41
0.8
  7
EXT08
100
AcDbText
  0
TEXT
  5
1B0
330
18
100
AcDbEntity
  8
MOJI
100
AcDbText
 10
4500.558798430106
 20
1020.459219166363
 30
0.0
 40
60.0
  1
擬宝珠
 41
0.8
  7
EXT08
100
AcDbText
  0
TEXT
  5
1B1
330
18
100
AcDbEntity
  8
MOJI
100
AcDbText
 10
4420.070637423338
 20
923.0678336302846
 30
0.0
 40
60.0
  1
チェーン金具
 41
0.8
  7
EXT08
100
AcDbText
  0
TEXT
  5
1B2
330
18
100
AcDbEntity
  8
MOJI
100
AcDbText
 10
4481.202081542318
 20
823.0678351203939
 30
0.0
 40
60.0
  1
チェーン　
 41
0.8
  7
EXT08
100
AcDbText
  0
TEXT
  5
1B3
330
18
100
AcDbEntity
  8
MOJI
100
AcDbText
 10
4411.446914189276
 20
620.4592251268073
 30
0.0
 40
60.0
  1
六角穴付ボルト
 41
0.8
  7
EXT08
100
AcDbText
  0
ARC
  5
1B4
330
18
100
AcDbEntity
  8
SJC
100
AcDbCircle
 10
1253.488102210625
 20
2370.141536273695
 30
0.0
 40
19.999999702
100
AcDbArc
 50
163.4011376891
 51
179.9994529139
  0
ARC
  5
1B5
330
18
100
AcDbEntity
  8
SJC
100
AcDbCircle
 10
1322.488040148225
 20
2349.574374687596
 30
0.0
 40
91.99999672169999
100
AcDbArc
 50
16.598192998
 51
163.401807002
  0
LINE
  5
1B6
330
18
100
AcDbEntity
  8
SJC
100
AcDbLine
 10
1233.488102509625
 20
2351.574832988196
 30
0.0
 11
1411.487977786924
 21
2351.574832988196
 31
0.0
  0
LINE
  5
1B7
330
18
100
AcDbEntity
  8
SJC
100
AcDbLine
 10
1233.488102509625
 20
2331.574833286196
 30
0.0
 11
1411.487977786924
 21
2331.574833286196
 31
0.0
  0
LINE
  5
1B8
330
18
100
AcDbEntity
  8
SJC
100
AcDbLine
 10
1233.488102509625
 20
2337.574894231896
 30
0.0
 11
1411.487977786924
 21
2337.574894231896
 31
0.0
  0
LINE
  5
1B9
330
18
100
AcDbEntity
  8
SJC
100
AcDbLine
 10
1233.488102509625
 20
2341.574833137196
 30
0.0
 11
1411.487977786924
 21
2341.574833137196
 31
0.0
  0
LINE
  5
1BA
330
18
100
AcDbEntity
  8
SJC
100
AcDbLine
 10
1233.488102509625
 20
2347.574894082896
 30
0.0
 11
1411.487977786924
 21
2347.574894082896
 31
0.0
  0
LINE
  5
1BB
330
18
100
AcDbEntity
  8
SJC
100
AcDbLine
 10
1233.488102509625
 20
2331.574833286196
 30
0.0
 11
1233.488102509625
 21
2337.574894231896
 31
0.0
  0
LINE
  5
1BC
330
18
100
AcDbEntity
  8
SJC
100
AcDbLine
 10
1233.488102509625
 20
2341.574833137196
 30
0.0
 11
1233.488102509625
 21
2347.574894082896
 31
0.0
  0
LINE
  5
1BD
330
18
100
AcDbEntity
  8
SJC
100
AcDbLine
 10
1233.488102509625
 20
2351.574832988196
 30
0.0
 11
1235.488224550125
 21
2349.574710947596
 31
0.0
  0
LINE
  5
1BE
330
18
100
AcDbEntity
  8
SJC
100
AcDbLine
 10
1233.488102509625
 20
2351.574832988196
 30
0.0
 11
1233.488102509625
 21
2370.141727242696
 31
0.0
  0
LINE
  5
1BF
330
18
100
AcDbEntity
  8
SJC
100
AcDbLine
 10
1233.488102509625
 20
2347.574588907097
 30
0.0
 11
1235.488224550125
 21
2349.574710947596
 31
0.0
  0
LINE
  5
1C0
330
18
100
AcDbEntity
  8
SJC
100
AcDbLine
 10
1233.488102509625
 20
2341.574833137196
 30
0.0
 11
1235.488224550125
 21
2339.574711096696
 31
0.0
  0
LINE
  5
1C1
330
18
100
AcDbEntity
  8
SJC
100
AcDbLine
 10
1233.488102509625
 20
2337.574589056096
 30
0.0
 11
1235.488224550125
 21
2339.574711096696
 31
0.0
  0
LINE
  5
1C2
330
18
100
AcDbEntity
  8
SJC
100
AcDbLine
 10
1235.488224550125
 20
2349.574710947596
 30
0.0
 11
1409.487855746425
 21
2349.574710947596
 31
0.0
  0
LINE
  5
1C3
330
18
100
AcDbEntity
  8
SJC
100
AcDbLine
 10
1235.488224550125
 20
2339.574711096696
 30
0.0
 11
1409.487855746425
 21
2339.574711096696
 31
0.0
  0
LINE
  5
1C4
330
18
100
AcDbEntity
  8
SJC
100
AcDbLine
 10
1230.487919448825
 20
2327.574894380896
 30
0.0
 11
1414.488160847625
 21
2327.574894380896
 31
0.0
  0
LINE
  5
1C5
330
18
100
AcDbEntity
  8
SJC
100
AcDbLine
 10
1230.487919448825
 20
2327.574894380896
 30
0.0
 11
1230.487919448825
 21
2301.574833733196
 31
0.0
  0
LINE
  5
1C6
330
18
100
AcDbEntity
  8
SJC
100
AcDbLine
 10
1233.488102509625
 20
2331.574833286196
 30
0.0
 11
1230.487919448825
 21
2327.574894380896
 31
0.0
  0
ARC
  5
1C7
330
18
100
AcDbEntity
  8
SJC
100
AcDbCircle
 10
1391.487978085824
 20
2370.141536273695
 30
0.0
 40
19.999999702
100
AcDbArc
 50
0.0005470861
 51
16.5988623109
  0
LINE
  5
1C8
330
18
100
AcDbEntity
  8
SJC
100
AcDbLine
 10
1411.487977786924
 20
2351.574832988196
 30
0.0
 11
1411.487977786924
 21
2370.141727242696
 31
0.0
  0
LINE
  5
1C9
330
18
100
AcDbEntity
  8
SJC
100
AcDbLine
 10
1411.487977786924
 20
2341.574833137196
 30
0.0
 11
1411.487977786924
 21
2347.574894082896
 31
0.0
  0
LINE
  5
1CA
330
18
100
AcDbEntity
  8
SJC
100
AcDbLine
 10
1411.487977786924
 20
2331.574833286196
 30
0.0
 11
1411.487977786924
 21
2337.574894231896
 31
0.0
  0
LINE
  5
1CB
330
18
100
AcDbEntity
  8
SJC
100
AcDbLine
 10
1411.487977786924
 20
2351.574832988196
 30
0.0
 11
1409.487855746425
 21
2349.574710947596
 31
0.0
  0
LINE
  5
1CC
330
18
100
AcDbEntity
  8
SJC
100
AcDbLine
 10
1411.487977786924
 20
2347.574588907097
 30
0.0
 11
1409.487855746425
 21
2349.574710947596
 31
0.0
  0
LINE
  5
1CD
330
18
100
AcDbEntity
  8
SJC
100
AcDbLine
 10
1411.487977786924
 20
2341.574833137196
 30
0.0
 11
1409.487855746425
 21
2339.574711096696
 31
0.0
  0
LINE
  5
1CE
330
18
100
AcDbEntity
  8
SJC
100
AcDbLine
 10
1411.487977786924
 20
2337.574589056096
 30
0.0
 11
1409.487855746425
 21
2339.574711096696
 31
0.0
  0
LINE
  5
1CF
330
18
100
AcDbEntity
  8
SJC
100
AcDbLine
 10
1414.488160847625
 20
2327.574894380896
 30
0.0
 11
1414.488160847625
 21
2301.574833733196
 31
0.0
  0
LINE
  5
1D0
330
18
100
AcDbEntity
  8
SJC
100
AcDbLine
 10
1411.487977786924
 20
2331.574833286196
 30
0.0
 11
1414.488160847625
 21
2327.574894380896
 31
0.0
  0
LINE
  5
1D1
330
18
100
AcDbEntity
  8
SJC
100
AcDbLine
 10
1230.487919448825
 20
2301.574833733196
 30
0.0
 11
1414.488160847625
 21
2301.574833733196
 31
0.0
  0
ARC
  5
1D2
330
18
100
AcDbEntity
  8
SJC
100
AcDbCircle
 10
3161.879203290997
 20
2369.641536273696
 30
0.0
 40
19.999999702
100
AcDbArc
 50
163.4011376891
 51
179.9994529139
  0
ARC
  5
1D3
330
18
100
AcDbEntity
  8
SJC
100
AcDbCircle
 10
3230.879141228498
 20
2349.074374687596
 30
0.0
 40
91.99999672169999
100
AcDbArc
 50
16.598192998
 51
163.401807002
  0
LINE
  5
1D4
330
18
100
AcDbEntity
  8
SJC
100
AcDbLine
 10
3141.879203589897
 20
2351.074832988196
 30
0.0
 11
3319.879078867197
 21
2351.074832988196
 31
0.0
  0
LINE
  5
1D5
330
18
100
AcDbEntity
  8
SJC
100
AcDbLine
 10
3141.879203589897
 20
2331.074833286196
 30
0.0
 11
3319.879078867197
 21
2331.074833286196
 31
0.0
  0
LINE
  5
1D6
330
18
100
AcDbEntity
  8
SJC
100
AcDbLine
 10
3141.879203589897
 20
2337.074894231896
 30
0.0
 11
3319.879078867197
 21
2337.074894231896
 31
0.0
  0
LINE
  5
1D7
330
18
100
AcDbEntity
  8
SJC
100
AcDbLine
 10
3141.879203589897
 20
2341.074833137196
 30
0.0
 11
3319.879078867197
 21
2341.074833137196
 31
0.0
  0
LINE
  5
1D8
330
18
100
AcDbEntity
  8
SJC
100
AcDbLine
 10
3141.879203589897
 20
2347.074894082896
 30
0.0
 11
3319.879078867197
 21
2347.074894082896
 31
0.0
  0
LINE
  5
1D9
330
18
100
AcDbEntity
  8
SJC
100
AcDbLine
 10
3141.879203589897
 20
2331.074833286196
 30
0.0
 11
3141.879203589897
 21
2337.074894231896
 31
0.0
  0
LINE
  5
1DA
330
18
100
AcDbEntity
  8
SJC
100
AcDbLine
 10
3141.879203589897
 20
2341.074833137196
 30
0.0
 11
3141.879203589897
 21
2347.074894082896
 31
0.0
  0
LINE
  5
1DB
330
18
100
AcDbEntity
  8
SJC
100
AcDbLine
 10
3141.879203589897
 20
2351.074832988196
 30
0.0
 11
3143.879325630396
 21
2349.074710947596
 31
0.0
  0
LINE
  5
1DC
330
18
100
AcDbEntity
  8
SJC
100
AcDbLine
 10
3141.879203589897
 20
2351.074832988196
 30
0.0
 11
3141.879203589897
 21
2369.641727242696
 31
0.0
  0
LINE
  5
1DD
330
18
100
AcDbEntity
  8
SJC
100
AcDbLine
 10
3141.879203589897
 20
2347.074588907096
 30
0.0
 11
3143.879325630396
 21
2349.074710947596
 31
0.0
  0
LINE
  5
1DE
330
18
100
AcDbEntity
  8
SJC
100
AcDbLine
 10
3141.879203589897
 20
2341.074833137196
 30
0.0
 11
3143.879325630396
 21
2339.074711096696
 31
0.0
  0
LINE
  5
1DF
330
18
100
AcDbEntity
  8
SJC
100
AcDbLine
 10
3141.879203589897
 20
2337.074589056096
 30
0.0
 11
3143.879325630396
 21
2339.074711096696
 31
0.0
  0
LINE
  5
1E0
330
18
100
AcDbEntity
  8
SJC
100
AcDbLine
 10
3143.879325630396
 20
2349.074710947596
 30
0.0
 11
3317.878956826696
 21
2349.074710947596
 31
0.0
  0
LINE
  5
1E1
330
18
100
AcDbEntity
  8
SJC
100
AcDbLine
 10
3143.879325630396
 20
2339.074711096696
 30
0.0
 11
3317.878956826696
 21
2339.074711096696
 31
0.0
  0
LINE
  5
1E2
330
18
100
AcDbEntity
  8
SJC
100
AcDbLine
 10
3138.879020529097
 20
2327.074894380896
 30
0.0
 11
3322.879261927996
 21
2327.074894380896
 31
0.0
  0
LINE
  5
1E3
330
18
100
AcDbEntity
  8
SJC
100
AcDbLine
 10
3138.879020529097
 20
2327.074894380896
 30
0.0
 11
3138.879020529097
 21
2301.074833733196
 31
0.0
  0
LINE
  5
1E4
330
18
100
AcDbEntity
  8
SJC
100
AcDbLine
 10
3141.879203589897
 20
2331.074833286196
 30
0.0
 11
3138.879020529097
 21
2327.074894380896
 31
0.0
  0
ARC
  5
1E5
330
18
100
AcDbEntity
  8
SJC
100
AcDbCircle
 10
3299.879079166097
 20
2369.641536273696
 30
0.0
 40
19.999999702
100
AcDbArc
 50
0.0005470861
 51
16.5988623109
  0
LINE
  5
1E6
330
18
100
AcDbEntity
  8
SJC
100
AcDbLine
 10
3319.879078867197
 20
2351.074832988196
 30
0.0
 11
3319.879078867197
 21
2369.641727242696
 31
0.0
  0
LINE
  5
1E7
330
18
100
AcDbEntity
  8
SJC
100
AcDbLine
 10
3319.879078867197
 20
2341.074833137196
 30
0.0
 11
3319.879078867197
 21
2347.074894082896
 31
0.0
  0
LINE
  5
1E8
330
18
100
AcDbEntity
  8
SJC
100
AcDbLine
 10
3319.879078867197
 20
2331.074833286196
 30
0.0
 11
3319.879078867197
 21
2337.074894231896
 31
0.0
  0
LINE
  5
1E9
330
18
100
AcDbEntity
  8
SJC
100
AcDbLine
 10
3319.879078867197
 20
2351.074832988196
 30
0.0
 11
3317.878956826696
 21
2349.074710947596
 31
0.0
  0
LINE
  5
1EA
330
18
100
AcDbEntity
  8
SJC
100
AcDbLine
 10
3319.879078867197
 20
2347.074588907096
 30
0.0
 11
3317.878956826696
 21
2349.074710947596
 31
0.0
  0
LINE
  5
1EB
330
18
100
AcDbEntity
  8
SJC
100
AcDbLine
 10
3319.879078867197
 20
2341.074833137196
 30
0.0
 11
3317.878956826696
 21
2339.074711096696
 31
0.0
  0
LINE
  5
1EC
330
18
100
AcDbEntity
  8
SJC
100
AcDbLine
 10
3319.879078867197
 20
2337.074589056096
 30
0.0
 11
3317.878956826696
 21
2339.074711096696
 31
0.0
  0
LINE
  5
1ED
330
18
100
AcDbEntity
  8
SJC
100
AcDbLine
 10
3322.879261927996
 20
2327.074894380896
 30
0.0
 11
3322.879261927996
 21
2301.074833733196
 31
0.0
  0
LINE
  5
1EE
330
18
100
AcDbEntity
  8
SJC
100
AcDbLine
 10
3319.879078867197
 20
2331.074833286196
 30
0.0
 11
3322.879261927996
 21
2327.074894380896
 31
0.0
  0
LINE
  5
1EF
330
18
100
AcDbEntity
  8
SJC
100
AcDbLine
 10
3138.879020529097
 20
2301.074833733196
 30
0.0
 11
3322.879261927996
 21
2301.074833733196
 31
0.0
  0
ARC
  5
1F0
330
18
100
AcDbEntity
  8
SJC
100
AcDbCircle
 10
1099.5548839601
 20
4560.900633123889
 30
0.0
 40
44.70717840329999
100
AcDbArc
 50
137.8531446413
 51
222.1468553587
  0
ARC
  5
1F1
330
18
100
AcDbEntity
  8
SJC
100
AcDbCircle
 10
1055.931074742999
 20
4560.900633123889
 30
0.0
 40
31.7767353091
100
AcDbArc
 50
289.2503683672
 51
70.7496316328
  0
LINE
  5
1F2
330
18
100
AcDbEntity
  8
SJC
100
AcDbLine
 10
1066.4077599882
 20
3660.90064653499
 30
0.0
 11
1066.4077599882
 21
4130.900633570956
 31
0.0
  0
LINE
  5
1F3
330
18
100
AcDbEntity
  8
CENTER
100
AcDbLine
 10
1021.8577423415
 20
3660.90064653499
 30
0.0
 11
1021.857742341501
 21
4737.640396899218
 31
0.0
  0
LINE
  5
1F7
330
18
100
AcDbEntity
  8
SJC
100
AcDbLine
 10
5377.960634298672
 20
3660.90064653499
 30
0.0
 11
695.0991717711003
 21
3660.90064653499
 31
0.0
  0
ARC
  5
1F8
330
18
100
AcDbEntity
  8
SJC
100
AcDbCircle
 10
3099.554548982
 20
4560.900633123889
 30
0.0
 40
44.70717840329999
100
AcDbArc
 50
137.8531446413
 51
222.1468553587
  0
ARC
  5
1F9
330
18
100
AcDbEntity
  8
SJC
100
AcDbCircle
 10
3055.9307397649
 20
4560.900633123889
 30
0.0
 40
31.7767353091
100
AcDbArc
 50
289.2503683672
 51
70.7496316328
  0
LINE
  5
1FA
330
18
100
AcDbEntity
  8
CENTER
100
AcDbLine
 10
3021.8572547755
 20
3660.900646534991
 30
0.0
 11
3021.8572547755
 21
4748.453049486003
 31
0.0
  0
ARC
  5
1FE
330
18
100
AcDbEntity
  8
SJC
100
AcDbCircle
 10
5099.5545191797
 20
4560.900633123889
 30
0.0
 40
44.70717840329999
100
AcDbArc
 50
137.8531446413
 51
222.1468553587
  0
ARC
  5
1FF
330
18
100
AcDbEntity
  8
SJC
100
AcDbCircle
 10
5055.9307099625
 20
4560.900633123889
 30
0.0
 40
31.7767353091
100
AcDbArc
 50
289.2503683672
 51
70.7496316328
  0
LINE
  5
200
330
18
100
AcDbEntity
  8
SJC
100
AcDbLine
 10
5066.4073952078
 20
3660.90064653499
 30
0.0
 11
5066.4073952078
 21
4130.900633570955
 31
0.0
  0
LINE
  5
201
330
18
100
AcDbEntity
  8
CENTER
100
AcDbLine
 10
5021.857224973199
 20
3660.90064653499
 30
0.0
 11
5021.857224973199
 21
4759.561003227316
 31
0.0
  0
ARC
  5
208
330
18
100
AcDbEntity
  8
SJC
100
AcDbCircle
 10
2944.159960569001
 20
4560.900633123889
 30
0.0
 40
44.70717840329999
100
AcDbArc
 50
317.8531446413
 51
42.1468553587
  0
ARC
  5
209
330
18
100
AcDbEntity
  8
SJC
100
AcDbCircle
 10
2987.7837697861
 20
4560.900633123889
 30
0.0
 40
31.7767353091
100
AcDbArc
 50
109.2503683672
 51
250.7496316328
  0
ARC
  5
20A
330
18
100
AcDbEntity
  8
SJC
100
AcDbCircle
 10
4944.159930766701
 20
4560.900633123889
 30
0.0
 40
44.70717840329999
100
AcDbArc
 50
317.8531446413
 51
42.1468553587
  0
ARC
  5
20B
330
18
100
AcDbEntity
  8
SJC
100
AcDbCircle
 10
4987.7837399838
 20
4560.900633123889
 30
0.0
 40
31.7767353091
100
AcDbArc
 50
109.2503683672
 51
250.7496316328
  0
LINE
  5
20C
330
18
100
AcDbEntity
  8
SJC
100
AcDbLine
 10
4977.3070547386
 20
3660.900646534991
 30
0.0
 11
4977.3070547386
 21
4130.900600642304
 31
0.0
  0
LINE
  5
20D
330
18
100
AcDbEntity
  8
SJC
100
AcDbLine
 10
5971.8572085819
 20
3260.90065249539
 30
0.0
 11
5971.8572085819
 21
3660.90064653499
 31
0.0
1001
ACAD
1000
ASC_BOUNDS
1002
{
1070
    19
1005
A65
1002
}
  0
LINE
  5
20F
330
18
100
AcDbEntity
  8
SJC
100
AcDbLine
 10
5971.8572085819
 20
3260.90065249539
 30
0.0
 11
6271.857208581899
 21
3260.90065249539
 31
0.0
1001
ACAD
1000
ASC_BOUNDS
1002
{
1070
    19
1005
A65
1005
0
1005
0
1005
0
1005
0
1005
0
1005
A65
1002
}
  0
LINE
  5
210
330
18
100
AcDbEntity
  8
SJC2
100
AcDbLine
 10
1187.8336920167
 20
4543.04846053839
 30
0.0
 11
1154.144269911299
 21
4547.63342140749
 31
0.0
  0
ARC
  5
211
330
18
100
AcDbEntity
  8
SJC2
100
AcDbCircle
 10
1154.5153509613
 20
4550.610382828391
 30
0.0
 40
3.000000074499999
100
AcDbArc
 50
81.60596855199999
 51
262.8946762747
  0
LINE
  5
212
330
18
100
AcDbEntity
  8
SJC2
100
AcDbLine
 10
1188.6427130007
 20
4548.993284668489
 30
0.0
 11
1154.953290895299
 21
4553.57824553769
 31
0.0
  0
ARC
  5
213
330
18
100
AcDbEntity
  8
SJC2
100
AcDbCircle
 10
1188.2716319507
 20
4546.01632324769
 30
0.0
 40
3.000000074499999
100
AcDbArc
 50
261.6059685522
 51
82.8946762744
  0
ARC
  5
214
330
18
100
AcDbEntity
  8
SJC2
100
AcDbCircle
 10
1188.238172221599
 20
4546.02110069669
 30
0.0
 40
9.999999851
100
AcDbArc
 50
189.7065411486999
 51
262.2506962022
  0
ARC
  5
215
330
18
100
AcDbEntity
  8
SJC2
100
AcDbCircle
 10
1188.237435108
 20
4546.02144940499
 30
0.0
 40
4.0
100
AcDbArc
 50
220.8541609809
 51
262.2633791562
  0
LINE
  5
216
330
18
100
AcDbEntity
  8
SJC2
100
AcDbLine
 10
1207.516156323
 20
4539.36071645269
 30
0.0
 11
1187.6989569113
 21
4542.057859967189
 31
0.0
  0
LINE
  5
217
330
18
100
AcDbEntity
  8
SJC2
100
AcDbLine
 10
1208.5948001058
 20
4547.287352076789
 30
0.0
 11
1188.777600694
 21
4549.98449559129
 31
0.0
  0
ARC
  5
218
330
18
100
AcDbEntity
  8
SJC2
100
AcDbCircle
 10
1188.237471338499
 20
4546.02113082389
 30
0.0
 40
4.0
100
AcDbArc
 50
82.23951010649999
 51
123.6482457442
  0
ARC
  5
219
330
18
100
AcDbEntity
  8
SJC2
100
AcDbCircle
 10
1208.055803169
 20
4543.32383314759
 30
0.0
 40
4.0
100
AcDbArc
 50
40.85282573219999
 51
82.2558804281
  0
ARC
  5
21A
330
18
100
AcDbEntity
  8
SJC2
100
AcDbCircle
 10
1208.0555847955
 20
4543.324111347189
 30
0.0
 40
9.999999851
100
AcDbArc
 50
9.706541148699999
 51
82.25069620220001
  0
LINE
  5
21B
330
18
100
AcDbEntity
  8
SJC2
100
AcDbLine
 10
1209.4039736777
 20
4553.232786558489
 30
0.0
 11
1189.586774266
 21
4555.92931972139
 31
0.0
  0
ARC
  5
21C
330
18
100
AcDbEntity
  8
SJC2
100
AcDbCircle
 10
1188.2381011558
 20
4546.02068319249
 30
0.0
 40
9.999999851
100
AcDbArc
 50
82.24905268349999
 51
154.7909464765
  0
ARC
  5
21D
330
18
100
AcDbEntity
  8
SJC2
100
AcDbCircle
 10
1210.0047795013
 20
4543.05898914699
 30
0.0
 40
3.000000074499999
100
AcDbArc
 50
81.6222415268
 51
262.8755155298
  0
ARC
  5
21E
330
18
100
AcDbEntity
  8
SJC2
100
AcDbCircle
 10
1133.940588045099
 20
4553.23420738219
 30
0.0
 40
9.999999851
100
AcDbArc
 50
189.7099264137
 51
262.2495076787
  0
LINE
  5
21F
330
18
100
AcDbEntity
  8
SJC2
100
AcDbLine
 10
1152.4093456207
 20
4540.62780627759
 30
0.0
 11
1132.591993621099
 21
4543.325560143589
 31
0.0
  0
LINE
  5
220
330
18
100
AcDbEntity
  8
SJC2
100
AcDbLine
 10
1153.2182140169
 20
4546.57385111079
 30
0.0
 11
1133.4010146051
 21
4549.27038427379
 31
0.0
  0
ARC
  5
221
330
18
100
AcDbEntity
  8
SJC2
100
AcDbCircle
 10
1133.9406096004
 20
4553.23382182729
 30
0.0
 40
4.0
100
AcDbArc
 50
220.8397276573
 51
262.2472349334
  0
ARC
  5
222
330
18
100
AcDbEntity
  8
SJC2
100
AcDbCircle
 10
1153.757638852699
 20
4550.53726726589
 30
0.0
 40
9.999999851
100
AcDbArc
 50
9.706417565599998
 51
82.24979285100001
  0
ARC
  5
223
330
18
100
AcDbEntity
  8
SJC2
100
AcDbCircle
 10
1153.7590898133
 20
4550.53625265729
 30
0.0
 40
4.0
100
AcDbArc
 50
40.866370019
 51
82.2670283911
  0
ARC
  5
224
330
18
100
AcDbEntity
  8
SJC2
100
AcDbCircle
 10
1153.7583433724
 20
4550.53721587819
 30
0.0
 40
4.0
100
AcDbArc
 50
262.2395101065
 51
303.6482457442
  0
ARC
  5
225
330
18
100
AcDbEntity
  8
SJC2
100
AcDbCircle
 10
1153.757335350399
 20
4550.53653579799
 30
0.0
 40
9.999999851
100
AcDbArc
 50
262.2530042499
 51
334.7980877336
  0
ARC
  5
226
330
18
100
AcDbEntity
  8
SJC2
100
AcDbCircle
 10
1133.940302249601
 20
4553.23379833339
 30
0.0
 40
9.999999851
100
AcDbArc
 50
82.2498818799
 51
154.7908228795
  0
LINE
  5
227
330
18
100
AcDbEntity
  8
SJC2
100
AcDbLine
 10
1099.4648578843
 20
4561.13073565949
 30
0.0
 11
1133.1541274018
 21
4556.545774790389
 31
0.0
  0
LINE
  5
228
330
18
100
AcDbEntity
  8
SJC2
100
AcDbLine
 10
1098.6555317245
 20
4555.18469082629
 30
0.0
 11
1132.344953829899
 21
4550.60034030859
 31
0.0
  0
ARC
  5
229
330
18
100
AcDbEntity
  8
SJC2
100
AcDbCircle
 10
1132.749540615799
 20
4553.57305754949
 30
0.0
 40
3.0001230411
100
AcDbArc
 50
262.249664578
 51
82.249664578
  0
LINE
  5
22A
330
18
100
AcDbEntity
  8
SJC2
100
AcDbLine
 10
1155.1061839595
 20
4560.445921216589
 30
0.0
 11
1135.2888319598
 21
4563.142454379589
 31
0.0
  0
LINE
  5
22B
330
18
100
AcDbEntity
  8
SJC2
100
AcDbLine
 10
1154.2973155633
 20
4554.49987638329
 30
0.0
 11
1134.479810975799
 21
4557.197630249389
 31
0.0
  0
ARC
  5
22C
330
18
100
AcDbEntity
  8
SJC2
100
AcDbCircle
 10
1098.2690197225
 20
4558.08837883749
 30
0.0
 40
9.999999851
100
AcDbArc
 50
262.2514431789
 51
334.7944553205
  0
ARC
  5
22D
330
18
100
AcDbEntity
  8
SJC2
100
AcDbCircle
 10
1098.269783703199
 20
4558.088502555889
 30
0.0
 40
4.0
100
AcDbArc
 50
262.2413411177
 51
303.6477995767
  0
ARC
  5
22E
330
18
100
AcDbEntity
  8
SJC2
100
AcDbCircle
 10
1098.269002729199
 20
4558.08890541139
 30
0.0
 40
4.0
100
AcDbArc
 50
40.840173356
 51
82.24973490169999
  0
ARC
  5
22F
330
18
100
AcDbEntity
  8
SJC2
100
AcDbCircle
 10
1098.2692058417
 20
4558.08853668459
 30
0.0
 40
9.999999851
100
AcDbArc
 50
9.706417565599998
 51
82.24979285100001
  0
ARC
  5
230
330
18
100
AcDbEntity
  8
SJC2
100
AcDbCircle
 10
1133.939808278399
 20
4553.23424822299
 30
0.0
 40
4.0
100
AcDbArc
 50
82.24134111759999
 51
123.6477995767
  0
ARC
  5
231
330
18
100
AcDbEntity
  8
SJC2
100
AcDbCircle
 10
1099.0601948044
 20
4558.15771324289
 30
0.0
 40
3.000435718
100
AcDbArc
 50
82.24900687979999
 51
262.2490068798
  0
LINE
  5
232
330
18
100
AcDbEntity
  8
SJC2
100
AcDbLine
 10
1097.729781005801
 20
4554.125120529589
 30
0.0
 11
1087.2604208103
 21
4555.54968105519
 31
0.0
  0
LINE
  5
233
330
18
100
AcDbEntity
  8
SJC2
100
AcDbLine
 10
1096.9207600218
 20
4548.17968604779
 30
0.0
 11
1086.146681813199
 21
4549.64636083069
 31
0.0
  0
LINE
  5
234
330
18
100
AcDbEntity
  8
SJC2
100
AcDbLine
 10
1206.707135339
 20
4533.41528197099
 30
0.0
 11
1186.8897833394
 21
4536.11242548549
 31
0.0
  0
ARC
  5
235
330
18
100
AcDbEntity
  8
SJC2
100
AcDbCircle
 10
1208.0562856786
 20
4543.32408122009
 30
0.0
 40
4.0
100
AcDbArc
 50
262.2395101065
 51
303.6482457442
  0
ARC
  5
236
330
18
100
AcDbEntity
  8
SJC2
100
AcDbCircle
 10
1208.0553950397
 20
4543.32397476059
 30
0.0
 40
9.999999851
100
AcDbArc
 50
262.2514431789
 51
334.7944553205
  0
LINE
  5
237
330
18
100
AcDbEntity
  8
SJC2
100
AcDbLine
 10
1245.1492124029
 20
4541.737425401589
 30
0.0
 11
1211.4597902975
 21
4546.32238627079
 31
0.0
  0
LINE
  5
238
330
18
100
AcDbEntity
  8
SJC2
100
AcDbLine
 10
1244.3401914188
 20
4535.791990919889
 30
0.0
 11
1210.6507693134
 21
4540.377562140689
 31
0.0
  0
LINE
  5
239
330
18
100
AcDbEntity
  8
SJC2
100
AcDbLine
 10
2855.881915451901
 20
4543.04846053839
 30
0.0
 11
2889.5714901452
 21
4547.63342140749
 31
0.0
  0
ARC
  5
23A
330
18
100
AcDbEntity
  8
SJC2
100
AcDbCircle
 10
2889.1335502111
 20
4550.601284116789
 30
0.0
 40
3.000000074499999
100
AcDbArc
 50
278.3940314481
 51
97.10532372520001
  0
LINE
  5
23B
330
18
100
AcDbEntity
  8
SJC2
100
AcDbLine
 10
2855.0731996436
 20
4548.993284668489
 30
0.0
 11
2888.7624691611
 21
4553.57824553769
 31
0.0
  0
ARC
  5
23C
330
18
100
AcDbEntity
  8
SJC2
100
AcDbCircle
 10
2855.4423620386
 20
4546.01608471329
 30
0.0
 40
3.000000074499999
100
AcDbArc
 50
97.0683980125
 51
278.4251815611
  0
ARC
  5
23D
330
18
100
AcDbEntity
  8
SJC2
100
AcDbCircle
 10
2855.4775841983
 20
4546.021079436189
 30
0.0
 40
9.999999851
100
AcDbArc
 50
277.750207149
 51
350.2935824344
  0
ARC
  5
23E
330
18
100
AcDbEntity
  8
SJC2
100
AcDbCircle
 10
2855.4784978475
 20
4546.02147289059
 30
0.0
 40
4.0
100
AcDbArc
 50
277.7341215046
 51
319.1453942581
  0
LINE
  5
23F
330
18
100
AcDbEntity
  8
SJC2
100
AcDbLine
 10
2836.1996037334
 20
4539.36071645269
 30
0.0
 11
2856.0168031452
 21
4542.057859967189
 31
0.0
  0
LINE
  5
240
330
18
100
AcDbEntity
  8
SJC2
100
AcDbLine
 10
2835.1208073628
 20
4547.287352076789
 30
0.0
 11
2854.9383119503
 21
4549.98449559129
 31
0.0
  0
ARC
  5
241
330
18
100
AcDbEntity
  8
SJC2
100
AcDbCircle
 10
2855.4783146476
 20
4546.021113564889
 30
0.0
 40
4.0
100
AcDbArc
 50
56.35220042330001
 51
97.75865888230001
  0
ARC
  5
242
330
18
100
AcDbEntity
  8
SJC2
100
AcDbCircle
 10
2835.659804299501
 20
4543.32383314759
 30
0.0
 40
4.0
100
AcDbArc
 50
97.74411957190002
 51
139.1471742678
  0
ARC
  5
243
330
18
100
AcDbEntity
  8
SJC2
100
AcDbCircle
 10
2835.6600190369
 20
4543.324090089189
 30
0.0
 40
9.999999851
100
AcDbArc
 50
97.74840045080001
 51
170.2933352831
  0
LINE
  5
244
330
18
100
AcDbEntity
  8
SJC2
100
AcDbLine
 10
2834.3117863787
 20
4553.232786558489
 30
0.0
 11
2854.1289857905
 21
4555.92931972139
 31
0.0
  0
ARC
  5
245
330
18
100
AcDbEntity
  8
SJC2
100
AcDbCircle
 10
2855.4775155007
 20
4546.02066367529
 30
0.0
 40
9.999999851
100
AcDbArc
 50
25.2091771205
 51
97.75011812009999
  0
ARC
  5
246
330
18
100
AcDbEntity
  8
SJC2
100
AcDbCircle
 10
2833.710110686899
 20
4543.05886117129
 30
0.0
 40
3.000000074499999
100
AcDbArc
 50
277.1441643106
 51
98.3609663832
  0
ARC
  5
247
330
18
100
AcDbEntity
  8
SJC2
100
AcDbCircle
 10
2909.7751756494
 20
4553.234228643789
 30
0.0
 40
9.999999851
100
AcDbArc
 50
277.7495889608
 51
350.2899499962
  0
LINE
  5
248
330
18
100
AcDbEntity
  8
SJC2
100
AcDbLine
 10
2891.3064144357
 20
4540.62780627759
 30
0.0
 11
2911.1236138474
 21
4543.325560143589
 31
0.0
  0
LINE
  5
249
330
18
100
AcDbEntity
  8
SJC2
100
AcDbLine
 10
2890.4973934517
 20
4546.57385111079
 30
0.0
 11
2910.3148980392
 21
4549.27038427379
 31
0.0
  0
ARC
  5
24A
330
18
100
AcDbEntity
  8
SJC2
100
AcDbCircle
 10
2909.7753030439
 20
4553.23382182729
 30
0.0
 40
4.0
100
AcDbArc
 50
277.7527650666
 51
319.1602723427
  0
ARC
  5
24B
330
18
100
AcDbEntity
  8
SJC2
100
AcDbCircle
 10
2889.9581212037
 20
4550.53726726589
 30
0.0
 40
9.999999851
100
AcDbArc
 50
97.750207149
 51
170.2935824344
  0
ARC
  5
24C
330
18
100
AcDbEntity
  8
SJC2
100
AcDbCircle
 10
2889.9566905604
 20
4550.53627614009
 30
0.0
 40
4.0
100
AcDbArc
 50
97.73547102930001
 51
139.1340747698
  0
ARC
  5
24D
330
18
100
AcDbEntity
  8
SJC2
100
AcDbCircle
 10
2889.9573907543
 20
4550.53723313719
 30
0.0
 40
4.0
100
AcDbArc
 50
236.3522004233
 51
277.7586588823
  0
ARC
  5
24E
330
18
100
AcDbEntity
  8
SJC2
100
AcDbCircle
 10
2889.958424706
 20
4550.53653579799
 30
0.0
 40
9.999999851
100
AcDbArc
 50
205.2019122664
 51
277.7469957501
  0
ARC
  5
24F
330
18
100
AcDbEntity
  8
SJC2
100
AcDbCircle
 10
2909.7756103947
 20
4553.23379833339
 30
0.0
 40
9.999999851
100
AcDbArc
 50
25.2091771205
 51
97.75011812009999
  0
LINE
  5
250
330
18
100
AcDbEntity
  8
SJC2
100
AcDbLine
 10
2944.2510547601
 20
4561.13073565949
 30
0.0
 11
2910.5614800668
 21
4556.545774790389
 31
0.0
  0
LINE
  5
251
330
18
100
AcDbEntity
  8
SJC2
100
AcDbLine
 10
2945.0603809199
 20
4555.18469082629
 30
0.0
 11
2911.3708062266
 21
4550.60034030859
 31
0.0
  0
ARC
  5
252
330
18
100
AcDbEntity
  8
SJC2
100
AcDbCircle
 10
2910.966143146699
 20
4553.57305754949
 30
0.0
 40
3.000133330799999
100
AcDbArc
 50
97.75177915429999
 51
277.7517791543
  0
LINE
  5
253
330
18
100
AcDbEntity
  8
SJC2
100
AcDbLine
 10
2888.609576097
 20
4560.445921216589
 30
0.0
 11
2908.4270806845
 21
4563.142454379589
 31
0.0
  0
LINE
  5
254
330
18
100
AcDbEntity
  8
SJC2
100
AcDbLine
 10
2889.4182919053
 20
4554.49987638329
 30
0.0
 11
2909.2357964928
 21
4557.197630249389
 31
0.0
  0
ARC
  5
255
330
18
100
AcDbEntity
  8
SJC2
100
AcDbCircle
 10
2945.446740333901
 20
4558.08837883749
 30
0.0
 40
9.999999851
100
AcDbArc
 50
205.2055446795
 51
277.7485568211
  0
ARC
  5
256
330
18
100
AcDbEntity
  8
SJC2
100
AcDbCircle
 10
2945.4459763533
 20
4558.088502555889
 30
0.0
 40
4.0
100
AcDbArc
 50
236.3522004233
 51
277.7586588823
  0
ARC
  5
257
330
18
100
AcDbEntity
  8
SJC2
100
AcDbCircle
 10
2945.446777675301
 20
4558.08892895159
 30
0.0
 40
4.0
100
AcDbArc
 50
97.75276506659999
 51
139.1602723427
  0
ARC
  5
258
330
18
100
AcDbEntity
  8
SJC2
100
AcDbCircle
 10
2945.446401626899
 20
4558.08853668459
 30
0.0
 40
9.999999851
100
AcDbArc
 50
97.750207149
 51
170.2935824344
  0
ARC
  5
259
330
18
100
AcDbEntity
  8
SJC2
100
AcDbCircle
 10
2909.7757991901
 20
4553.23424822299
 30
0.0
 40
4.0
100
AcDbArc
 50
56.35220042330001
 51
97.75865888230001
  0
LINE
  5
25A
330
18
100
AcDbEntity
  8
SJC2
100
AcDbLine
 10
2944.0978565201
 20
4567.997190635289
 30
0.0
 11
2958.7002122596
 21
4569.98449529319
 31
0.0
  0
LINE
  5
25B
330
18
100
AcDbEntity
  8
SJC2
100
AcDbLine
 10
2944.90718268
 20
4562.052366505191
 30
0.0
 11
2956.8300951
 21
4563.674680934089
 31
0.0
  0
ARC
  5
25C
330
18
100
AcDbEntity
  8
SJC2
100
AcDbCircle
 10
2944.65571784
 20
4558.15771324289
 30
0.0
 40
3.000435718
100
AcDbArc
 50
277.7509931202
 51
97.75099312020003
  0
LINE
  5
25D
330
18
100
AcDbEntity
  8
SJC2
100
AcDbLine
 10
2945.9859790506
 20
4554.125120529589
 30
0.0
 11
2956.4553392462
 21
4555.54968105519
 31
0.0
  0
LINE
  5
25E
330
18
100
AcDbEntity
  8
SJC2
100
AcDbLine
 10
2946.795000034601
 20
4548.17968604779
 30
0.0
 11
2957.568925655399
 21
4549.64636083069
 31
0.0
  0
LINE
  5
25F
330
18
100
AcDbEntity
  8
SJC2
100
AcDbLine
 10
2837.008624717501
 20
4533.41528197099
 30
0.0
 11
2856.826129305
 21
4536.11242548549
 31
0.0
  0
ARC
  5
260
330
18
100
AcDbEntity
  8
SJC2
100
AcDbCircle
 10
2835.6593477244
 20
4543.32406395759
 30
0.0
 40
4.0
100
AcDbArc
 50
236.3513080036999
 51
277.7623208435
  0
ARC
  5
261
330
18
100
AcDbEntity
  8
SJC2
100
AcDbCircle
 10
2835.6603650168
 20
4543.32397476059
 30
0.0
 40
9.999999851
100
AcDbArc
 50
205.2055446795
 51
277.7485568211
  0
LINE
  5
262
330
18
100
AcDbEntity
  8
SJC2
100
AcDbLine
 10
2798.5665476536
 20
4541.737425401589
 30
0.0
 11
2832.2558171711
 21
4546.32238627079
 31
0.0
  0
LINE
  5
263
330
18
100
AcDbEntity
  8
SJC2
100
AcDbLine
 10
2799.375568637601
 20
4535.791990919889
 30
0.0
 11
2833.0651433309
 21
4540.377562140689
 31
0.0
  0
ARC
  5
264
330
18
100
AcDbEntity
  8
CENTER
100
AcDbCircle
 10
2021.8560732005
 20
11023.10440583989
 30
0.0
 40
6530.7738284651
100
AcDbArc
 50
263.1488628346
 51
276.8444006199
  0
LINE
  5
265
330
18
100
AcDbEntity
  8
SJC2
100
AcDbLine
 10
3187.8338148023
 20
4543.04846053839
 30
0.0
 11
3154.144240109001
 21
4547.63342140749
 31
0.0
  0
ARC
  5
266
330
18
100
AcDbEntity
  8
SJC2
100
AcDbCircle
 10
3154.582180043
 20
4550.601284116789
 30
0.0
 40
3.000000074499999
100
AcDbArc
 50
82.89467627449999
 51
261.6059685522
  0
LINE
  5
267
330
18
100
AcDbEntity
  8
SJC2
100
AcDbLine
 10
3188.642530610499
 20
4548.993284668489
 30
0.0
 11
3154.953261093
 21
4553.57824553769
 31
0.0
  0
ARC
  5
268
330
18
100
AcDbEntity
  8
SJC2
100
AcDbCircle
 10
3188.2733682155
 20
4546.01608471329
 30
0.0
 40
3.000000074499999
100
AcDbArc
 50
261.5748184387
 51
82.93160198770001
  0
ARC
  5
269
330
18
100
AcDbEntity
  8
SJC2
100
AcDbCircle
 10
3188.238146055901
 20
4546.021079436189
 30
0.0
 40
9.999999851
100
AcDbArc
 50
189.7064175656
 51
262.249792851
  0
ARC
  5
26A
330
18
100
AcDbEntity
  8
SJC2
100
AcDbCircle
 10
3188.2372324067
 20
4546.02147289059
 30
0.0
 40
4.0
100
AcDbArc
 50
220.8546057419
 51
262.2658784954
  0
LINE
  5
26B
330
18
100
AcDbEntity
  8
SJC2
100
AcDbLine
 10
3207.516126520701
 20
4539.36071645269
 30
0.0
 11
3187.698927109001
 21
4542.057859967189
 31
0.0
  0
LINE
  5
26C
330
18
100
AcDbEntity
  8
SJC2
100
AcDbLine
 10
3208.594922891299
 20
4547.287352076789
 30
0.0
 11
3188.7774183038
 21
4549.98449559129
 31
0.0
  0
ARC
  5
26D
330
18
100
AcDbEntity
  8
SJC2
100
AcDbCircle
 10
3188.2374156065
 20
4546.021113564889
 30
0.0
 40
4.0
100
AcDbArc
 50
82.2413411177
 51
123.6477995767
  0
ARC
  5
26E
330
18
100
AcDbEntity
  8
SJC2
100
AcDbCircle
 10
3208.055925954601
 20
4543.32383314759
 30
0.0
 40
4.0
100
AcDbArc
 50
40.85282573219999
 51
82.2558804281
  0
ARC
  5
26F
330
18
100
AcDbEntity
  8
SJC2
100
AcDbCircle
 10
3208.055711217299
 20
4543.324090089189
 30
0.0
 40
9.999999851
100
AcDbArc
 50
9.7066647169
 51
82.2515995492
  0
LINE
  5
270
330
18
100
AcDbEntity
  8
SJC2
100
AcDbLine
 10
3209.4039438754
 20
4553.232786558489
 30
0.0
 11
3189.5867444636
 21
4555.92931972139
 31
0.0
  0
ARC
  5
271
330
18
100
AcDbEntity
  8
SJC2
100
AcDbCircle
 10
3188.2382147535
 20
4546.02066367529
 30
0.0
 40
9.999999851
100
AcDbArc
 50
82.2498818799
 51
154.7908228795
  0
ARC
  5
272
330
18
100
AcDbEntity
  8
SJC2
100
AcDbCircle
 10
3210.0056195672
 20
4543.05886117129
 30
0.0
 40
3.000000074499999
100
AcDbArc
 50
81.63903361619999
 51
262.8558356901
  0
ARC
  5
273
330
18
100
AcDbEntity
  8
SJC2
100
AcDbCircle
 10
3133.9405546047
 20
4553.234228643789
 30
0.0
 40
9.999999851
100
AcDbArc
 50
189.7100500038
 51
262.2504110392
  0
LINE
  5
274
330
18
100
AcDbEntity
  8
SJC2
100
AcDbLine
 10
3152.409315818401
 20
4540.62780627759
 30
0.0
 11
3132.5921164067
 21
4543.325560143589
 31
0.0
  0
LINE
  5
275
330
18
100
AcDbEntity
  8
SJC2
100
AcDbLine
 10
3153.2183368024
 20
4546.57385111079
 30
0.0
 11
3133.4008322149
 21
4549.27038427379
 31
0.0
  0
ARC
  5
276
330
18
100
AcDbEntity
  8
SJC2
100
AcDbCircle
 10
3133.9404272102
 20
4553.23382182729
 30
0.0
 40
4.0
100
AcDbArc
 50
220.8397276573
 51
262.2472349334
  0
ARC
  5
277
330
18
100
AcDbEntity
  8
SJC2
100
AcDbCircle
 10
3153.7576090504
 20
4550.53726726589
 30
0.0
 40
9.999999851
100
AcDbArc
 50
9.706417565599998
 51
82.24979285100001
  0
ARC
  5
278
330
18
100
AcDbEntity
  8
SJC2
100
AcDbCircle
 10
3153.759039693799
 20
4550.53627614009
 30
0.0
 40
4.0
100
AcDbArc
 50
40.8659252302
 51
82.2645289707
  0
ARC
  5
279
330
18
100
AcDbEntity
  8
SJC2
100
AcDbCircle
 10
3153.758339499801
 20
4550.53723313719
 30
0.0
 40
4.0
100
AcDbArc
 50
262.2413411177
 51
303.6477995767
  0
ARC
  5
27A
330
18
100
AcDbEntity
  8
SJC2
100
AcDbCircle
 10
3153.7573055481
 20
4550.53653579799
 30
0.0
 40
9.999999851
100
AcDbArc
 50
262.2530042499
 51
334.7980877336
  0
ARC
  5
27B
330
18
100
AcDbEntity
  8
SJC2
100
AcDbCircle
 10
3133.940119859401
 20
4553.23379833339
 30
0.0
 40
9.999999851
100
AcDbArc
 50
82.2498818799
 51
154.7908228795
  0
LINE
  5
27C
330
18
100
AcDbEntity
  8
SJC2
100
AcDbLine
 10
3099.464675494099
 20
4561.13073565949
 30
0.0
 11
3133.1542501874
 21
4556.545774790389
 31
0.0
  0
LINE
  5
27D
330
18
100
AcDbEntity
  8
SJC2
100
AcDbLine
 10
3098.6553493342
 20
4555.18469082629
 30
0.0
 11
3132.3449240275
 21
4550.60034030859
 31
0.0
  0
ARC
  5
27E
330
18
100
AcDbEntity
  8
SJC2
100
AcDbCircle
 10
3132.7495871075
 20
4553.57305754949
 30
0.0
 40
3.000133330799999
100
AcDbArc
 50
262.2482208457
 51
82.24822084569998
  0
LINE
  5
27F
330
18
100
AcDbEntity
  8
SJC2
100
AcDbLine
 10
3155.1061541571
 20
4560.445921216589
 30
0.0
 11
3135.2886495696
 21
4563.142454379589
 31
0.0
  0
LINE
  5
280
330
18
100
AcDbEntity
  8
SJC2
100
AcDbLine
 10
3154.2974383489
 20
4554.49987638329
 30
0.0
 11
3134.479933761401
 21
4557.197630249389
 31
0.0
  0
ARC
  5
281
330
18
100
AcDbEntity
  8
SJC2
100
AcDbCircle
 10
3098.2689899202
 20
4558.08837883749
 30
0.0
 40
9.999999851
100
AcDbArc
 50
262.2514431789
 51
334.7944553205
  0
ARC
  5
282
330
18
100
AcDbEntity
  8
SJC2
100
AcDbCircle
 10
3098.269753900901
 20
4558.088502555889
 30
0.0
 40
4.0
100
AcDbArc
 50
262.2413411177
 51
303.6477995767
  0
ARC
  5
283
330
18
100
AcDbEntity
  8
SJC2
100
AcDbCircle
 10
3098.2689525789
 20
4558.08892895159
 30
0.0
 40
4.0
100
AcDbArc
 50
40.8397276573
 51
82.2472349334
  0
ARC
  5
284
330
18
100
AcDbEntity
  8
SJC2
100
AcDbCircle
 10
3098.2693286273
 20
4558.08853668459
 30
0.0
 40
9.999999851
100
AcDbArc
 50
9.706417565599998
 51
82.24979285100001
  0
ARC
  5
285
330
18
100
AcDbEntity
  8
SJC2
100
AcDbCircle
 10
3133.939931064
 20
4553.23424822299
 30
0.0
 40
4.0
100
AcDbArc
 50
82.2413411177
 51
123.6477995767
  0
LINE
  5
286
330
18
100
AcDbEntity
  8
SJC2
100
AcDbLine
 10
3099.617873734
 20
4567.997190635289
 30
0.0
 11
3085.0155179945
 21
4569.98449529319
 31
0.0
  0
LINE
  5
287
330
18
100
AcDbEntity
  8
SJC2
100
AcDbLine
 10
3098.8085475742
 20
4562.052366505191
 30
0.0
 11
3086.8856351542
 21
4563.674680934089
 31
0.0
  0
ARC
  5
288
330
18
100
AcDbEntity
  8
SJC2
100
AcDbCircle
 10
3099.0600124142
 20
4558.15771324289
 30
0.0
 40
3.000435718
100
AcDbArc
 50
82.24900687979999
 51
262.2490068798
  0
LINE
  5
289
330
18
100
AcDbEntity
  8
SJC2
100
AcDbLine
 10
3097.7297512035
 20
4554.125120529589
 30
0.0
 11
3087.260391008
 21
4555.54968105519
 31
0.0
  0
LINE
  5
28A
330
18
100
AcDbEntity
  8
SJC2
100
AcDbLine
 10
3096.9207302195
 20
4548.17968604779
 30
0.0
 11
3086.146804598801
 21
4549.64636083069
 31
0.0
  0
LINE
  5
28B
330
18
100
AcDbEntity
  8
SJC2
100
AcDbLine
 10
3206.7071055367
 20
4533.41528197099
 30
0.0
 11
3186.8896009491
 21
4536.11242548549
 31
0.0
  0
ARC
  5
28C
330
18
100
AcDbEntity
  8
SJC2
100
AcDbCircle
 10
3208.0563825297
 20
4543.32406395759
 30
0.0
 40
4.0
100
AcDbArc
 50
262.2376791565
 51
303.6486919963
  0
ARC
  5
28D
330
18
100
AcDbEntity
  8
SJC2
100
AcDbCircle
 10
3208.0553652374
 20
4543.32397476059
 30
0.0
 40
9.999999851
100
AcDbArc
 50
262.2514431789
 51
334.7944553205
  0
LINE
  5
28E
330
18
100
AcDbEntity
  8
SJC2
100
AcDbLine
 10
3245.149182600501
 20
4541.737425401589
 30
0.0
 11
3211.459913082999
 21
4546.32238627079
 31
0.0
  0
LINE
  5
28F
330
18
100
AcDbEntity
  8
SJC2
100
AcDbLine
 10
3244.340161616501
 20
4535.791990919889
 30
0.0
 11
3210.650586923201
 21
4540.377562140689
 31
0.0
  0
LINE
  5
290
330
18
100
AcDbEntity
  8
SJC2
100
AcDbLine
 10
4855.8818856495
 20
4543.04846053839
 30
0.0
 11
4889.5714603428
 21
4547.63342140749
 31
0.0
  0
ARC
  5
291
330
18
100
AcDbEntity
  8
SJC2
100
AcDbCircle
 10
4889.135233218099
 20
4550.60153635519
 30
0.0
 40
3.000000074499999
100
AcDbArc
 50
278.360966384
 51
97.1441643098
  0
LINE
  5
292
330
18
100
AcDbEntity
  8
SJC2
100
AcDbLine
 10
4855.0731698413
 20
4548.993284668489
 30
0.0
 11
4888.762134183
 21
4553.57824553769
 31
0.0
  0
ARC
  5
293
330
18
100
AcDbEntity
  8
SJC2
100
AcDbCircle
 10
4855.4423322363
 20
4546.01608471329
 30
0.0
 40
3.000000074499999
100
AcDbArc
 50
97.06839801260001
 51
278.425181561
  0
ARC
  5
294
330
18
100
AcDbEntity
  8
SJC2
100
AcDbCircle
 10
4855.4775543959
 20
4546.021079436189
 30
0.0
 40
9.999999851
100
AcDbArc
 50
277.750207149
 51
350.2935824344
  0
ARC
  5
295
330
18
100
AcDbEntity
  8
SJC2
100
AcDbCircle
 10
4855.478468045101
 20
4546.02147289059
 30
0.0
 40
4.0
100
AcDbArc
 50
277.7341215046
 51
319.1453942581
  0
LINE
  5
296
330
18
100
AcDbEntity
  8
SJC2
100
AcDbLine
 10
4836.199879106899
 20
4539.36071645269
 30
0.0
 11
4856.016773342801
 21
4542.057859967189
 31
0.0
  0
LINE
  5
297
330
18
100
AcDbEntity
  8
SJC2
100
AcDbLine
 10
4835.1207775605
 20
4547.287352076789
 30
0.0
 11
4854.938282148
 21
4549.98449559129
 31
0.0
  0
ARC
  5
298
330
18
100
AcDbEntity
  8
SJC2
100
AcDbCircle
 10
4855.4782848453
 20
4546.021113564889
 30
0.0
 40
4.0
100
AcDbArc
 50
56.35220042330001
 51
97.75865888230001
  0
ARC
  5
299
330
18
100
AcDbEntity
  8
SJC2
100
AcDbCircle
 10
4835.6597744972
 20
4543.32383314759
 30
0.0
 40
4.0
100
AcDbArc
 50
97.74411957190002
 51
139.1471742678
  0
ARC
  5
29A
330
18
100
AcDbEntity
  8
SJC2
100
AcDbCircle
 10
4835.6599965074
 20
4543.324132607789
 30
0.0
 40
9.999999851
100
AcDbArc
 50
97.750207149
 51
170.2935824344
  0
LINE
  5
29B
330
18
100
AcDbEntity
  8
SJC2
100
AcDbLine
 10
4834.3114514006
 20
4553.232786558489
 30
0.0
 11
4854.128955988199
 21
4555.92931972139
 31
0.0
  0
ARC
  5
29C
330
18
100
AcDbEntity
  8
SJC2
100
AcDbCircle
 10
4855.4774856983
 20
4546.02066367529
 30
0.0
 40
9.999999851
100
AcDbArc
 50
25.2091771205
 51
97.75011812009999
  0
ARC
  5
29D
330
18
100
AcDbEntity
  8
SJC2
100
AcDbCircle
 10
4833.6469527949
 20
4543.05026693649
 30
0.0
 40
3.000000074499999
100
AcDbArc
 50
278.3609663836
 51
97.14416431020001
  0
ARC
  5
29E
330
18
100
AcDbEntity
  8
SJC2
100
AcDbCircle
 10
4909.7751458471
 20
4553.234228643789
 30
0.0
 40
9.999999851
100
AcDbArc
 50
277.7495889608
 51
350.2899499962
  0
LINE
  5
29F
330
18
100
AcDbEntity
  8
SJC2
100
AcDbLine
 10
4891.3060794576
 20
4540.62780627759
 30
0.0
 11
4911.1235840451
 21
4543.325560143589
 31
0.0
  0
LINE
  5
2A0
330
18
100
AcDbEntity
  8
SJC2
100
AcDbLine
 10
4890.497363649299
 20
4546.57385111079
 30
0.0
 11
4910.3148682369
 21
4549.27038427379
 31
0.0
  0
ARC
  5
2A1
330
18
100
AcDbEntity
  8
SJC2
100
AcDbCircle
 10
4909.775273241599
 20
4553.23382182729
 30
0.0
 40
4.0
100
AcDbArc
 50
277.7527650666
 51
319.1602723427
  0
ARC
  5
2A2
330
18
100
AcDbEntity
  8
SJC2
100
AcDbCircle
 10
4889.9580914014
 20
4550.53726726589
 30
0.0
 40
9.999999851
100
AcDbArc
 50
97.750207149
 51
170.2935824344
  0
ARC
  5
2A3
330
18
100
AcDbEntity
  8
SJC2
100
AcDbCircle
 10
4889.956660758
 20
4550.53627614009
 30
0.0
 40
4.0
100
AcDbArc
 50
97.73547102930001
 51
139.1340747698
  0
ARC
  5
2A4
330
18
100
AcDbEntity
  8
SJC2
100
AcDbCircle
 10
4889.957360952
 20
4550.53723313719
 30
0.0
 40
4.0
100
AcDbArc
 50
236.3522004233
 51
277.7586588824
  0
ARC
  5
2A5
330
18
100
AcDbEntity
  8
SJC2
100
AcDbCircle
 10
4889.958663362199
 20
4550.536613818589
 30
0.0
 40
9.999999851
100
AcDbArc
 50
205.2024063203
 51
277.7436788071
  0
ARC
  5
2A6
330
18
100
AcDbEntity
  8
SJC2
100
AcDbCircle
 10
4909.7755805924
 20
4553.23379833339
 30
0.0
 40
9.999999851
100
AcDbArc
 50
25.2091771205
 51
97.75011812009999
  0
LINE
  5
2A7
330
18
100
AcDbEntity
  8
SJC2
100
AcDbLine
 10
4944.2510249577
 20
4561.13073565949
 30
0.0
 11
4910.5614502644
 21
4556.545774790389
 31
0.0
  0
LINE
  5
2A8
330
18
100
AcDbEntity
  8
SJC2
100
AcDbLine
 10
4945.060351117501
 20
4555.18469082629
 30
0.0
 11
4911.3707764242
 21
4550.60034030859
 31
0.0
  0
ARC
  5
2A9
330
18
100
AcDbEntity
  8
SJC2
100
AcDbCircle
 10
4910.9661133443
 20
4553.57305754949
 30
0.0
 40
3.000133330799999
100
AcDbArc
 50
97.75177915429999
 51
277.7517791543
  0
LINE
  5
2AA
330
18
100
AcDbEntity
  8
SJC2
100
AcDbLine
 10
4888.609546294699
 20
4560.445921216589
 30
0.0
 11
4908.4270508822
 21
4563.142454379589
 31
0.0
  0
LINE
  5
2AB
330
18
100
AcDbEntity
  8
SJC2
100
AcDbLine
 10
4889.4182621029
 20
4554.49987638329
 30
0.0
 11
4909.2357666904
 21
4557.197630249389
 31
0.0
  0
ARC
  5
2AC
330
18
100
AcDbEntity
  8
SJC2
100
AcDbCircle
 10
4945.4467105316
 20
4558.08837883749
 30
0.0
 40
9.999999851
100
AcDbArc
 50
205.2055446795
 51
277.7485568211
  0
ARC
  5
2AD
330
18
100
AcDbEntity
  8
SJC2
100
AcDbCircle
 10
4945.4462517267
 20
4558.088502555889
 30
0.0
 40
4.0
100
AcDbArc
 50
236.3522004233
 51
277.7586588824
  0
ARC
  5
2AE
330
18
100
AcDbEntity
  8
SJC2
100
AcDbCircle
 10
4945.4467478729
 20
4558.08892895159
 30
0.0
 40
4.0
100
AcDbArc
 50
97.75276506659999
 51
139.1602723427
  0
ARC
  5
2AF
330
18
100
AcDbEntity
  8
SJC2
100
AcDbCircle
 10
4945.446371824499
 20
4558.08853668459
 30
0.0
 40
9.999999851
100
AcDbArc
 50
97.750207149
 51
170.2935824344
  0
ARC
  5
2B0
330
18
100
AcDbEntity
  8
SJC2
100
AcDbCircle
 10
4909.7757693878
 20
4553.23424822299
 30
0.0
 40
4.0
100
AcDbArc
 50
56.35220042330001
 51
97.75865888230001
  0
LINE
  5
2B1
330
18
100
AcDbEntity
  8
SJC2
100
AcDbLine
 10
4944.097826717801
 20
4567.997190635289
 30
0.0
 11
4958.6998772815
 21
4569.98449529319
 31
0.0
  0
LINE
  5
2B2
330
18
100
AcDbEntity
  8
SJC2
100
AcDbLine
 10
4944.9071528776
 20
4562.052366505191
 30
0.0
 11
4956.8297601219
 21
4563.674680934089
 31
0.0
  0
ARC
  5
2B3
330
18
100
AcDbEntity
  8
SJC2
100
AcDbCircle
 10
4944.6556880376
 20
4558.15771324289
 30
0.0
 40
3.000435718
100
AcDbArc
 50
277.7509931202
 51
97.75099312020003
  0
LINE
  5
2B4
330
18
100
AcDbEntity
  8
SJC2
100
AcDbLine
 10
4945.9862544241
 20
4554.125120529589
 30
0.0
 11
4956.4550042681
 21
4555.54968105519
 31
0.0
  0
LINE
  5
2B5
330
18
100
AcDbEntity
  8
SJC2
100
AcDbLine
 10
4946.7949702323
 20
4548.17968604779
 30
0.0
 11
4957.568895853
 21
4549.64636083069
 31
0.0
  0
LINE
  5
2B6
330
18
100
AcDbEntity
  8
SJC2
100
AcDbLine
 10
4837.0085949151
 20
4533.41528197099
 30
0.0
 11
4856.826099502701
 21
4536.11242548549
 31
0.0
  0
ARC
  5
2B7
330
18
100
AcDbEntity
  8
SJC2
100
AcDbCircle
 10
4835.659369805399
 20
4543.324029422289
 30
0.0
 40
4.0
100
AcDbArc
 50
236.3504152461
 51
277.7659825602
  0
ARC
  5
2B8
330
18
100
AcDbEntity
  8
SJC2
100
AcDbCircle
 10
4835.6603352144
 20
4543.32397476059
 30
0.0
 40
9.999999851
100
AcDbArc
 50
205.2055446795
 51
277.7485568211
  0
LINE
  5
2B9
330
18
100
AcDbEntity
  8
SJC2
100
AcDbLine
 10
4798.566823027
 20
4541.737425401589
 30
0.0
 11
4832.255787368801
 21
4546.32238627079
 31
0.0
  0
LINE
  5
2BA
330
18
100
AcDbEntity
  8
SJC2
100
AcDbLine
 10
4799.3755388353
 20
4535.791990919889
 30
0.0
 11
4833.0651135286
 21
4540.377562140689
 31
0.0
  0
ARC
  5
2BB
330
18
100
AcDbEntity
  8
CENTER
100
AcDbCircle
 10
4021.856043398201
 20
11023.10440583989
 30
0.0
 40
6530.7738284651
100
AcDbArc
 50
263.1488628346
 51
276.8444006199
  0
LINE
  5
2BC
330
18
100
AcDbEntity
  8
SJC2
100
AcDbLine
 10
5187.8325642968
 20
4543.04846053839
 30
0.0
 11
5154.142989603499
 21
4547.63342140749
 31
0.0
  0
ARC
  5
2BD
330
18
100
AcDbEntity
  8
SJC2
100
AcDbCircle
 10
5154.5160886386
 20
4550.61013058999
 30
0.0
 40
3.000000074499999
100
AcDbArc
 50
81.6390336171
 51
262.8558356891
  0
LINE
  5
2BE
330
18
100
AcDbEntity
  8
SJC2
100
AcDbLine
 10
5188.6412801051
 20
4548.993284668489
 30
0.0
 11
5154.9523157633
 21
4553.57824553769
 31
0.0
  0
ARC
  5
2BF
330
18
100
AcDbEntity
  8
SJC2
100
AcDbCircle
 10
5188.27211771
 20
4546.01608471339
 30
0.0
 40
3.000000074499999
100
AcDbArc
 50
261.5748184398
 51
82.9316019866
  0
ARC
  5
2C0
330
18
100
AcDbEntity
  8
SJC2
100
AcDbCircle
 10
5188.236895550399
 20
4546.021079436189
 30
0.0
 40
9.999999851
100
AcDbArc
 50
189.7064175656
 51
262.249792851
  0
ARC
  5
2C1
330
18
100
AcDbEntity
  8
SJC2
100
AcDbCircle
 10
5188.2359819012
 20
4546.02147289059
 30
0.0
 40
4.0
100
AcDbArc
 50
220.8546057419
 51
262.2658784954
  0
LINE
  5
2C2
330
18
100
AcDbEntity
  8
SJC2
100
AcDbLine
 10
5207.5145708395
 20
4539.36071645269
 30
0.0
 11
5187.6976766035
 21
4542.057859967189
 31
0.0
  0
LINE
  5
2C3
330
18
100
AcDbEntity
  8
SJC2
100
AcDbLine
 10
5208.593672385901
 20
4547.287352076789
 30
0.0
 11
5188.7761677984
 21
4549.98449559129
 31
0.0
  0
ARC
  5
2C4
330
18
100
AcDbEntity
  8
SJC2
100
AcDbCircle
 10
5188.236165101
 20
4546.021113564889
 30
0.0
 40
4.0
100
AcDbArc
 50
82.24134111759999
 51
123.6477995767
  0
ARC
  5
2C5
330
18
100
AcDbEntity
  8
SJC2
100
AcDbCircle
 10
5208.054675449099
 20
4543.32383314759
 30
0.0
 40
4.0
100
AcDbArc
 50
40.85282573219999
 51
82.2558804281
  0
ARC
  5
2C6
330
18
100
AcDbEntity
  8
SJC2
100
AcDbCircle
 10
5208.054453439
 20
4543.324132607789
 30
0.0
 40
9.999999851
100
AcDbArc
 50
9.706417565599998
 51
82.24979285100001
  0
LINE
  5
2C7
330
18
100
AcDbEntity
  8
SJC2
100
AcDbLine
 10
5209.4029985457
 20
4553.232786558489
 30
0.0
 11
5189.585493958201
 21
4555.92931972139
 31
0.0
  0
ARC
  5
2C8
330
18
100
AcDbEntity
  8
SJC2
100
AcDbCircle
 10
5188.236964248
 20
4546.02066367529
 30
0.0
 40
9.999999851
100
AcDbArc
 50
82.2498818799
 51
154.7908228795
  0
ARC
  5
2C9
330
18
100
AcDbEntity
  8
SJC2
100
AcDbCircle
 10
5210.067497151499
 20
4543.05026693649
 30
0.0
 40
3.000000074499999
100
AcDbArc
 50
82.85583569079999
 51
261.6390336155
  0
ARC
  5
2CA
330
18
100
AcDbEntity
  8
SJC2
100
AcDbCircle
 10
5133.9393040993
 20
4553.234228643789
 30
0.0
 40
9.999999851
100
AcDbArc
 50
189.7100500038
 51
262.2504110392
  0
LINE
  5
2CB
330
18
100
AcDbEntity
  8
SJC2
100
AcDbLine
 10
5152.408370488799
 20
4540.62780627759
 30
0.0
 11
5132.5908659012
 21
4543.325560143589
 31
0.0
  0
LINE
  5
2CC
330
18
100
AcDbEntity
  8
SJC2
100
AcDbLine
 10
5153.217086297
 20
4546.57385111079
 30
0.0
 11
5133.3995817095
 21
4549.27038427379
 31
0.0
  0
ARC
  5
2CD
330
18
100
AcDbEntity
  8
SJC2
100
AcDbCircle
 10
5133.939176704799
 20
4553.23382182729
 30
0.0
 40
4.0
100
AcDbArc
 50
220.8397276573
 51
262.2472349334
  0
ARC
  5
2CE
330
18
100
AcDbEntity
  8
SJC2
100
AcDbCircle
 10
5153.756358545
 20
4550.53726726589
 30
0.0
 40
9.999999851
100
AcDbArc
 50
9.706417565599998
 51
82.24979285100001
  0
ARC
  5
2CF
330
18
100
AcDbEntity
  8
SJC2
100
AcDbCircle
 10
5153.757789188301
 20
4550.53627614009
 30
0.0
 40
4.0
100
AcDbArc
 50
40.8659252302
 51
82.2645289707
  0
ARC
  5
2D0
330
18
100
AcDbEntity
  8
SJC2
100
AcDbCircle
 10
5153.757088994399
 20
4550.53723313719
 30
0.0
 40
4.0
100
AcDbArc
 50
262.2413411176
 51
303.6477995767
  0
ARC
  5
2D1
330
18
100
AcDbEntity
  8
SJC2
100
AcDbCircle
 10
5153.7557865842
 20
4550.536613818589
 30
0.0
 40
9.999999851
100
AcDbArc
 50
262.2563211929
 51
334.7975936797
  0
ARC
  5
2D2
330
18
100
AcDbEntity
  8
SJC2
100
AcDbCircle
 10
5133.938869354
 20
4553.23379833339
 30
0.0
 40
9.999999851
100
AcDbArc
 50
82.2498818799
 51
154.7908228795
  0
LINE
  5
2D3
330
18
100
AcDbEntity
  8
SJC2
100
AcDbLine
 10
5099.463424988599
 20
4561.13073565949
 30
0.0
 11
5133.1529996819
 21
4556.545774790389
 31
0.0
  0
LINE
  5
2D4
330
18
100
AcDbEntity
  8
SJC2
100
AcDbLine
 10
5098.6540988288
 20
4555.18469082629
 30
0.0
 11
5132.3436735221
 21
4550.60034030859
 31
0.0
  0
ARC
  5
2D5
330
18
100
AcDbEntity
  8
SJC2
100
AcDbCircle
 10
5132.748336602
 20
4553.57305754949
 30
0.0
 40
3.000133330799999
100
AcDbArc
 50
262.2482208457
 51
82.24822084569998
  0
LINE
  5
2D6
330
18
100
AcDbEntity
  8
SJC2
100
AcDbLine
 10
5155.1049036517
 20
4560.445921216589
 30
0.0
 11
5135.2873990642
 21
4563.142454379589
 31
0.0
  0
LINE
  5
2D7
330
18
100
AcDbEntity
  8
SJC2
100
AcDbLine
 10
5154.296187843399
 20
4554.49987638329
 30
0.0
 11
5134.4786832559
 21
4557.197630249389
 31
0.0
  0
ARC
  5
2D8
330
18
100
AcDbEntity
  8
SJC2
100
AcDbCircle
 10
5098.2677394148
 20
4558.08837883749
 30
0.0
 40
9.999999851
100
AcDbArc
 50
262.2514431789
 51
334.7944553205
  0
ARC
  5
2D9
330
18
100
AcDbEntity
  8
SJC2
100
AcDbCircle
 10
5098.2681982197
 20
4558.088502555889
 30
0.0
 40
4.0
100
AcDbArc
 50
262.2413411177
 51
303.6477995767
  0
ARC
  5
2DA
330
18
100
AcDbEntity
  8
SJC2
100
AcDbCircle
 10
5098.2677020734
 20
4558.08892895159
 30
0.0
 40
4.0
100
AcDbArc
 50
40.8397276573
 51
82.2472349334
  0
ARC
  5
2DB
330
18
100
AcDbEntity
  8
SJC2
100
AcDbCircle
 10
5098.268078121799
 20
4558.08853668459
 30
0.0
 40
9.999999851
100
AcDbArc
 50
9.706417565599998
 51
82.24979285100001
  0
ARC
  5
2DC
330
18
100
AcDbEntity
  8
SJC
100
AcDbCircle
 10
5133.9386805586
 20
4553.23424822299
 30
0.0
 40
4.0
100
AcDbArc
 50
82.24134111759999
 51
123.6477995767
  0
LINE
  5
2DD
330
18
100
AcDbEntity
  8
SJC2
100
AcDbLine
 10
5099.6166232285
 20
4567.997190635289
 30
0.0
 11
5085.014572664899
 21
4569.98449529319
 31
0.0
  0
LINE
  5
2DE
330
18
100
AcDbEntity
  8
SJC2
100
AcDbLine
 10
5098.8072970687
 20
4562.052366505191
 30
0.0
 11
5086.884689824501
 21
4563.674680934089
 31
0.0
  0
ARC
  5
2DF
330
18
100
AcDbEntity
  8
SJC2
100
AcDbCircle
 10
5099.0587619087
 20
4558.15771324289
 30
0.0
 40
3.000435718
100
AcDbArc
 50
82.24900687979999
 51
262.2490068798
  0
LINE
  5
2E0
330
18
100
AcDbEntity
  8
SJC2
100
AcDbLine
 10
5097.7281955223
 20
4554.125120529589
 30
0.0
 11
5087.2594456783
 21
4555.54968105519
 31
0.0
  0
LINE
  5
2E1
330
18
100
AcDbEntity
  8
SJC2
100
AcDbLine
 10
5096.919479713999
 20
4548.17968604779
 30
0.0
 11
5086.1455540933
 21
4549.64636083069
 31
0.0
  0
LINE
  5
2E2
330
18
100
AcDbEntity
  8
SJC2
100
AcDbLine
 10
5206.7058550312
 20
4533.41528197099
 30
0.0
 11
5186.8883504437
 21
4536.11242548549
 31
0.0
  0
ARC
  5
2E3
330
18
100
AcDbEntity
  8
SJC2
100
AcDbCircle
 10
5208.055080141
 20
4543.324029422289
 30
0.0
 40
4.0
100
AcDbArc
 50
262.2340174397
 51
303.6495847538
  0
ARC
  5
2E4
330
18
100
AcDbEntity
  8
SJC2
100
AcDbCircle
 10
5208.054114731901
 20
4543.32397476059
 30
0.0
 40
9.999999851
100
AcDbArc
 50
262.2514431789
 51
334.7944553205
  0
LINE
  5
2E5
330
18
100
AcDbEntity
  8
SJC2
100
AcDbLine
 10
5245.1476269193
 20
4541.737425401589
 30
0.0
 11
5211.4586625776
 21
4546.32238627079
 31
0.0
  0
LINE
  5
2E6
330
18
100
AcDbEntity
  8
SJC2
100
AcDbLine
 10
5244.3389111111
 20
4535.791990919889
 30
0.0
 11
5210.649336417801
 21
4540.377562140689
 31
0.0
  0
LINE
  5
2E7
330
18
100
AcDbEntity
  8
SJC2
100
AcDbLine
 10
5298.8097354947
 20
4527.94531134939
 30
0.0
 11
5265.1201608014
 21
4532.530882570091
 31
0.0
  0
ARC
  5
2E8
330
18
100
AcDbEntity
  8
SJC2
100
AcDbCircle
 10
5265.556387926199
 20
4535.498997517789
 30
0.0
 40
3.000000074499999
100
AcDbArc
 50
82.8558356903
 51
261.6390336159
  0
LINE
  5
2E9
330
18
100
AcDbEntity
  8
SJC2
100
AcDbLine
 10
5299.618451303
 20
4533.890745831089
 30
0.0
 11
5265.929486961201
 21
4538.475706700289
 31
0.0
  0
ARC
  5
2EA
330
18
100
AcDbEntity
  8
SJC2
100
AcDbCircle
 10
5299.2140933988
 20
4530.91802859019
 30
0.0
 40
3.000092183399999
100
AcDbArc
 50
262.2539958344
 51
82.25399583439999
  0
ARC
  5
2EB
330
18
100
AcDbEntity
  8
SJC2
100
AcDbCircle
 10
5299.213959839601
 20
4530.917944796589
 30
0.0
 40
9.999999851
100
AcDbArc
 50
189.7100500038
 51
262.2504110392
  0
ARC
  5
2EC
330
18
100
AcDbEntity
  8
SJC2
100
AcDbCircle
 10
5299.2137510961
 20
4530.91824244059
 30
0.0
 40
4.0
100
AcDbArc
 50
220.8415094862
 51
262.2572340959
  0
LINE
  5
2ED
330
18
100
AcDbEntity
  8
SJC2
100
AcDbLine
 10
5318.4917420374
 20
4524.25756726369
 30
0.0
 11
5298.6748478014
 21
4526.95471077819
 31
0.0
  0
LINE
  5
2EE
330
18
100
AcDbEntity
  8
SJC2
100
AcDbLine
 10
5319.5708435838
 20
4532.18420288779
 30
0.0
 11
5299.7533389963
 21
4534.880736050689
 31
0.0
  0
ARC
  5
2EF
330
18
100
AcDbEntity
  8
SJC2
100
AcDbCircle
 10
5299.2133362989
 20
4530.91735402429
 30
0.0
 40
4.0
100
AcDbArc
 50
82.24134111759999
 51
123.6477995767
  0
ARC
  5
2F0
330
18
100
AcDbEntity
  8
SJC2
100
AcDbCircle
 10
5299.2141354459
 20
4530.91812483779
 30
0.0
 40
9.999999851
100
AcDbArc
 50
82.2498818799
 51
154.7908228795
  0
LINE
  5
2F1
330
18
100
AcDbEntity
  8
SJC2
100
AcDbLine
 10
5263.385541686599
 20
4525.52526744009
 30
0.0
 11
5243.568037099099
 21
4528.22180060299
 31
0.0
  0
LINE
  5
2F2
330
18
100
AcDbEntity
  8
SJC2
100
AcDbLine
 10
5264.194257494899
 20
4531.47070192179
 30
0.0
 11
5244.3767529074
 21
4534.167845436289
 31
0.0
  0
ARC
  5
2F3
330
18
100
AcDbEntity
  8
SJC2
100
AcDbCircle
 10
5264.7337436018
 20
4535.43347862199
 30
0.0
 40
9.999999851
100
AcDbArc
 50
9.713682507599999
 51
82.25102946680001
  0
ARC
  5
2F4
330
18
100
AcDbEntity
  8
SJC2
100
AcDbCircle
 10
5264.733764046
 20
4535.43389999229
 30
0.0
 40
4.0
100
AcDbArc
 50
40.8397276573
 51
82.2472349334
  0
ARC
  5
2F5
330
18
100
AcDbEntity
  8
SJC2
100
AcDbCircle
 10
5264.7342601923
 20
4535.43408394819
 30
0.0
 40
4.0
100
AcDbArc
 50
262.2413411176
 51
303.6477995767
  0
ARC
  5
2F6
330
18
100
AcDbEntity
  8
SJC2
100
AcDbCircle
 10
5264.733497788
 20
4535.43400153529
 30
0.0
 40
9.999999851
100
AcDbArc
 50
262.2531987003
 51
334.7903286164
  0
LINE
  5
2F7
330
18
100
AcDbEntity
  8
SJC2
100
AcDbLine
 10
5266.0820748496
 20
4545.34216167609
 30
0.0
 11
5246.2645702621
 21
4548.03991554209
 31
0.0
  0
LINE
  5
2F8
330
18
100
AcDbEntity
  8
SJC2
100
AcDbLine
 10
5265.2733590413
 20
4539.39733754589
 30
0.0
 11
5245.4558544538
 21
4542.09448106039
 31
0.0
  0
ARC
  5
2F9
330
18
100
AcDbEntity
  8
SJC2
100
AcDbCircle
 10
5244.9163105614
 20
4538.131222752491
 30
0.0
 40
9.999999851
100
AcDbArc
 50
82.2514431789
 51
154.7944553205
  0
ARC
  5
2FA
330
18
100
AcDbEntity
  8
SJC2
100
AcDbCircle
 10
5244.9165822058
 20
4538.13045455379
 30
0.0
 40
9.999999851
100
AcDbArc
 50
189.7064175656
 51
262.249792851
  0
ARC
  5
2FB
330
18
100
AcDbEntity
  8
SJC2
100
AcDbCircle
 10
5244.9163479027
 20
4538.13128298989
 30
0.0
 40
4.0
100
AcDbArc
 50
220.8397276573
 51
262.2472349334
  0
ARC
  5
2FC
330
18
100
AcDbEntity
  8
SJC2
100
AcDbCircle
 10
5244.9166128723
 20
4538.130995407989
 30
0.0
 40
4.0
100
AcDbArc
 50
82.25234388199998
 51
123.6608969281
  0
ARC
  5
2FD
330
18
100
AcDbEntity
  8
SJC2
100
AcDbCircle
 10
5244.5162182373
 20
4538.538878085989
 30
0.0
 40
3.000092183399999
100
AcDbArc
 50
262.2539958344
 51
82.25399583439999
  0
LINE
  5
2FE
330
18
100
AcDbEntity
  8
SJC2
100
AcDbLine
 10
5310.419842743599
 20
4519.300902298489
 30
0.0
 11
5297.8655216416
 21
4521.00927629649
 31
0.0
  0
LINE
  5
2FF
330
18
100
AcDbEntity
  8
SJC2
100
AcDbLine
 10
5313.1169862581
 20
4539.11779653439
 30
0.0
 11
5300.5626651561
 21
4540.82678088399
 31
0.0
  0
LINE
  5
312
330
18
100
AcDbEntity
  8
SJC2
100
AcDbLine
 10
1099.6177509484
 20
4567.997190635289
 30
0.0
 11
1086.4390402073
 21
4569.79040349929
 31
0.0
  0
LINE
  5
313
330
18
100
AcDbEntity
  8
SJC2
100
AcDbLine
 10
1098.8084247886
 20
4562.052366505191
 30
0.0
 11
1087.594893461501
 21
4563.578245388689
 31
0.0
  0
LINE
  5
314
330
18
100
AcDbEntity
  8
SJC
100
AcDbLine
 10
977.3077246947996
 20
3660.900646534991
 30
0.0
 11
977.3077246947996
 21
4620.90063222979
 31
0.0
  0
LINE
  5
315
330
18
100
AcDbEntity
  8
SJC
100
AcDbLine
 10
1066.4077599882
 20
4590.90063267689
 30
0.0
 11
1066.4077599882
 21
4620.90063222979
 31
0.0
  0
ARC
  5
316
330
18
100
AcDbEntity
  8
SJC
100
AcDbCircle
 10
987.3577733701004
 20
4655.18383090339
 30
0.0
 40
9.999999851
100
AcDbArc
 50
163.4011376365
 51
179.9985785993
  0
ARC
  5
317
330
18
100
AcDbEntity
  8
SJC
100
AcDbCircle
 10
1021.857742341501
 20
4644.900250119089
 30
0.0
 40
45.9999983609
100
AcDbArc
 50
16.598192998
 51
163.401807002
  0
LINE
  5
318
330
18
100
AcDbEntity
  8
SJC
100
AcDbLine
 10
977.3577735222007
 20
4635.90063200629
 30
0.0
 11
1066.357711160799
 21
4635.90063200629
 31
0.0
  0
LINE
  5
319
330
18
100
AcDbEntity
  8
SJC
100
AcDbLine
 10
977.3577735222007
 20
4635.90063200629
 30
0.0
 11
977.3577735222007
 21
4638.90050989129
 31
0.0
  0
LINE
  5
31A
330
18
100
AcDbEntity
  8
SJC
100
AcDbLine
 10
977.3577735222007
 20
4640.900631931789
 30
0.0
 11
977.3577735222007
 21
4643.90050981679
 31
0.0
  0
LINE
  5
31B
330
18
100
AcDbEntity
  8
SJC
100
AcDbLine
 10
977.3577735222007
 20
4645.90063185729
 30
0.0
 11
978.3578345423993
 21
4644.90026566129
 31
0.0
  0
LINE
  5
31C
330
18
100
AcDbEntity
  8
SJC
100
AcDbLine
 10
977.3577735222007
 20
4645.90063185729
 30
0.0
 11
977.3577735222007
 21
4655.18407898459
 31
0.0
  0
LINE
  5
31D
330
18
100
AcDbEntity
  8
SJC
100
AcDbLine
 10
977.3577735222007
 20
4643.90050981679
 30
0.0
 11
978.3578345423993
 21
4644.90026566129
 31
0.0
  0
LINE
  5
31E
330
18
100
AcDbEntity
  8
SJC
100
AcDbLine
 10
977.3577735222007
 20
4640.900631931789
 30
0.0
 11
978.3578345423993
 21
4639.90026573579
 31
0.0
  0
LINE
  5
31F
330
18
100
AcDbEntity
  8
SJC
100
AcDbLine
 10
977.3577735222007
 20
4638.90050989129
 30
0.0
 11
978.3578345423993
 21
4639.90026573579
 31
0.0
  0
LINE
  5
320
330
18
100
AcDbEntity
  8
SJC
100
AcDbLine
 10
978.3578345423993
 20
4644.90026566129
 30
0.0
 11
1065.3576501406
 21
4644.90026566129
 31
0.0
  0
LINE
  5
321
330
18
100
AcDbEntity
  8
SJC
100
AcDbLine
 10
978.3578345423993
 20
4639.90026573579
 30
0.0
 11
1065.3576501406
 21
4639.90026573579
 31
0.0
  0
LINE
  5
322
330
18
100
AcDbEntity
  8
SJC
100
AcDbLine
 10
975.8576819917998
 20
4633.90050996579
 30
0.0
 11
1067.8578026912
 21
4633.90050996579
 31
0.0
  0
LINE
  5
323
330
18
100
AcDbEntity
  8
SJC
100
AcDbLine
 10
975.8576819917998
 20
4633.90050996579
 30
0.0
 11
975.8576819917998
 21
4620.90063222979
 31
0.0
  0
LINE
  5
324
330
18
100
AcDbEntity
  8
SJC
100
AcDbLine
 10
977.3577735222007
 20
4635.90063200629
 30
0.0
 11
975.8576819917998
 21
4633.90050996579
 31
0.0
  0
ARC
  5
325
330
18
100
AcDbEntity
  8
SJC
100
AcDbCircle
 10
1056.357711312899
 20
4655.18383090339
 30
0.0
 40
9.999999851
100
AcDbArc
 50
0.0014214007
 51
16.5988623635
  0
LINE
  5
326
330
18
100
AcDbEntity
  8
SJC
100
AcDbLine
 10
1066.357711160799
 20
4645.90063185729
 30
0.0
 11
1066.357711160799
 21
4655.18407898459
 31
0.0
  0
LINE
  5
327
330
18
100
AcDbEntity
  8
SJC
100
AcDbLine
 10
1066.357711160799
 20
4640.900631931789
 30
0.0
 11
1066.357711160799
 21
4643.90050981679
 31
0.0
  0
LINE
  5
328
330
18
100
AcDbEntity
  8
SJC
100
AcDbLine
 10
1066.357711160799
 20
4635.90063200629
 30
0.0
 11
1066.357711160799
 21
4638.90050989129
 31
0.0
  0
LINE
  5
329
330
18
100
AcDbEntity
  8
SJC
100
AcDbLine
 10
1066.357711160799
 20
4645.90063185729
 30
0.0
 11
1065.3576501406
 21
4644.90026566129
 31
0.0
  0
LINE
  5
32A
330
18
100
AcDbEntity
  8
SJC
100
AcDbLine
 10
1066.357711160799
 20
4643.90050981679
 30
0.0
 11
1065.3576501406
 21
4644.90026566129
 31
0.0
  0
LINE
  5
32B
330
18
100
AcDbEntity
  8
SJC
100
AcDbLine
 10
1066.357711160799
 20
4640.900631931789
 30
0.0
 11
1065.3576501406
 21
4639.90026573579
 31
0.0
  0
LINE
  5
32C
330
18
100
AcDbEntity
  8
SJC
100
AcDbLine
 10
1066.357711160799
 20
4638.90050989129
 30
0.0
 11
1065.3576501406
 21
4639.90026573579
 31
0.0
  0
LINE
  5
32D
330
18
100
AcDbEntity
  8
SJC
100
AcDbLine
 10
1067.8578026912
 20
4633.90050996579
 30
0.0
 11
1067.8578026912
 21
4620.90063222979
 31
0.0
  0
LINE
  5
32E
330
18
100
AcDbEntity
  8
SJC
100
AcDbLine
 10
1066.357711160799
 20
4635.90063200629
 30
0.0
 11
1067.8578026912
 21
4633.90050996579
 31
0.0
  0
LINE
  5
32F
330
18
100
AcDbEntity
  8
SJC
100
AcDbLine
 10
975.8576819917998
 20
4620.90063222979
 30
0.0
 11
1067.8578026912
 21
4620.90063222979
 31
0.0
  0
LINE
  5
330
330
18
100
AcDbEntity
  8
SJC
100
AcDbLine
 10
2977.3073897167
 20
3660.90064653499
 30
0.0
 11
2977.307389716699
 21
4130.90097076441
 31
0.0
  0
LINE
  5
331
330
18
100
AcDbEntity
  8
SJC
100
AcDbLine
 10
2977.307389716699
 20
4590.90063267689
 30
0.0
 11
2977.307389716699
 21
4620.90063222979
 31
0.0
  0
LINE
  5
332
330
18
100
AcDbEntity
  8
SJC
100
AcDbLine
 10
3066.407425010101
 20
3660.90064653499
 30
0.0
 11
3066.4074250101
 21
4130.901003693802
 31
0.0
  0
LINE
  5
333
330
18
100
AcDbEntity
  8
SJC
100
AcDbLine
 10
3066.4074250101
 20
4590.90063267689
 30
0.0
 11
3066.4074250101
 21
4620.90063222979
 31
0.0
  0
ARC
  5
334
330
18
100
AcDbEntity
  8
SJC
100
AcDbCircle
 10
2987.3571331904
 20
4655.18331898379
 30
0.0
 40
9.999999851
100
AcDbArc
 50
163.3980769871
 51
179.9956455158
  0
ARC
  5
335
330
18
100
AcDbEntity
  8
SJC
100
AcDbCircle
 10
3021.8572547755
 20
4644.900250119089
 30
0.0
 40
45.9999983609
100
AcDbArc
 50
16.598192998
 51
163.401807002
  0
LINE
  5
336
330
18
100
AcDbEntity
  8
SJC
100
AcDbLine
 10
2977.357133368301
 20
4635.90063200629
 30
0.0
 11
3066.3573761827
 21
4635.90063200629
 31
0.0
  0
LINE
  5
337
330
18
100
AcDbEntity
  8
SJC
100
AcDbLine
 10
2977.357133368301
 20
4635.90063200629
 30
0.0
 11
2977.357133368301
 21
4638.90050989129
 31
0.0
  0
LINE
  5
338
330
18
100
AcDbEntity
  8
SJC
100
AcDbLine
 10
2977.357133368301
 20
4640.900631931789
 30
0.0
 11
2977.357133368301
 21
4643.90050981679
 31
0.0
  0
LINE
  5
339
330
18
100
AcDbEntity
  8
SJC
100
AcDbLine
 10
2977.357133368301
 20
4645.90063185729
 30
0.0
 11
2978.3574995643
 21
4644.90026566129
 31
0.0
  0
LINE
  5
33A
330
18
100
AcDbEntity
  8
SJC
100
AcDbLine
 10
2977.357133368301
 20
4645.90063185729
 30
0.0
 11
2977.357133368301
 21
4655.18407898459
 31
0.0
  0
LINE
  5
33B
330
18
100
AcDbEntity
  8
SJC
100
AcDbLine
 10
2977.357133368301
 20
4643.90050981679
 30
0.0
 11
2978.3574995643
 21
4644.90026566129
 31
0.0
  0
LINE
  5
33C
330
18
100
AcDbEntity
  8
SJC
100
AcDbLine
 10
2977.357133368301
 20
4640.900631931789
 30
0.0
 11
2978.3574995643
 21
4639.90026573579
 31
0.0
  0
LINE
  5
33D
330
18
100
AcDbEntity
  8
SJC
100
AcDbLine
 10
2977.357133368301
 20
4638.90050989129
 30
0.0
 11
2978.3574995643
 21
4639.90026573579
 31
0.0
  0
LINE
  5
33E
330
18
100
AcDbEntity
  8
SJC
100
AcDbLine
 10
2978.3574995643
 20
4644.90026566129
 30
0.0
 11
3065.3570099867
 21
4644.90026566129
 31
0.0
  0
LINE
  5
33F
330
18
100
AcDbEntity
  8
SJC
100
AcDbLine
 10
2978.3574995643
 20
4639.90026573579
 30
0.0
 11
3065.3570099867
 21
4639.90026573579
 31
0.0
  0
LINE
  5
340
330
18
100
AcDbEntity
  8
SJC
100
AcDbLine
 10
2975.8571944258
 20
4633.90050996579
 30
0.0
 11
3067.857315125201
 21
4633.90050996579
 31
0.0
  0
LINE
  5
341
330
18
100
AcDbEntity
  8
SJC
100
AcDbLine
 10
2975.8571944258
 20
4633.90050996579
 30
0.0
 11
2975.8571944258
 21
4620.90063222979
 31
0.0
  0
LINE
  5
342
330
18
100
AcDbEntity
  8
SJC
100
AcDbLine
 10
2977.357133368301
 20
4635.90063200629
 30
0.0
 11
2975.8571944258
 21
4633.90050996579
 31
0.0
  0
ARC
  5
343
330
18
100
AcDbEntity
  8
SJC
100
AcDbCircle
 10
3056.3573763606
 20
4655.18331898379
 30
0.0
 40
9.999999851
100
AcDbArc
 50
0.0043544842
 51
16.6019230129
  0
LINE
  5
344
330
18
100
AcDbEntity
  8
SJC
100
AcDbLine
 10
3066.3573761827
 20
4645.90063185729
 30
0.0
 11
3066.3573761827
 21
4655.18407898459
 31
0.0
  0
LINE
  5
345
330
18
100
AcDbEntity
  8
SJC
100
AcDbLine
 10
3066.3573761827
 20
4640.900631931789
 30
0.0
 11
3066.3573761827
 21
4643.90050981679
 31
0.0
  0
LINE
  5
346
330
18
100
AcDbEntity
  8
SJC
100
AcDbLine
 10
3066.3573761827
 20
4635.90063200629
 30
0.0
 11
3066.3573761827
 21
4638.90050989129
 31
0.0
  0
LINE
  5
347
330
18
100
AcDbEntity
  8
SJC
100
AcDbLine
 10
3066.3573761827
 20
4645.90063185729
 30
0.0
 11
3065.3570099867
 21
4644.90026566129
 31
0.0
  0
LINE
  5
348
330
18
100
AcDbEntity
  8
SJC
100
AcDbLine
 10
3066.3573761827
 20
4643.90050981679
 30
0.0
 11
3065.3570099867
 21
4644.90026566129
 31
0.0
  0
LINE
  5
349
330
18
100
AcDbEntity
  8
SJC
100
AcDbLine
 10
3066.3573761827
 20
4640.900631931789
 30
0.0
 11
3065.3570099867
 21
4639.90026573579
 31
0.0
  0
LINE
  5
34A
330
18
100
AcDbEntity
  8
SJC
100
AcDbLine
 10
3066.3573761827
 20
4638.90050989129
 30
0.0
 11
3065.3570099867
 21
4639.90026573579
 31
0.0
  0
LINE
  5
34B
330
18
100
AcDbEntity
  8
SJC
100
AcDbLine
 10
3067.857315125201
 20
4633.90050996579
 30
0.0
 11
3067.857315125201
 21
4620.90063222979
 31
0.0
  0
LINE
  5
34C
330
18
100
AcDbEntity
  8
SJC
100
AcDbLine
 10
3066.3573761827
 20
4635.90063200629
 30
0.0
 11
3067.857315125201
 21
4633.90050996579
 31
0.0
  0
LINE
  5
34D
330
18
100
AcDbEntity
  8
SJC
100
AcDbLine
 10
2975.8571944258
 20
4620.90063222979
 30
0.0
 11
3067.857315125201
 21
4620.90063222979
 31
0.0
  0
LINE
  5
34E
330
18
100
AcDbEntity
  8
SJC
100
AcDbLine
 10
5066.4073952078
 20
4590.90063267689
 30
0.0
 11
5066.4073952078
 21
4620.90063222979
 31
0.0
  0
LINE
  5
34F
330
18
100
AcDbEntity
  8
SJC
100
AcDbLine
 10
4977.3070547386
 20
4590.90063267689
 30
0.0
 11
4977.3070547386
 21
4620.90063222979
 31
0.0
  0
ARC
  5
350
330
18
100
AcDbEntity
  8
SJC
100
AcDbCircle
 10
4987.3571033881
 20
4655.18331898379
 30
0.0
 40
9.999999851
100
AcDbArc
 50
163.3980769871
 51
179.9956455159
  0
ARC
  5
351
330
18
100
AcDbEntity
  8
SJC
100
AcDbCircle
 10
5021.857224973199
 20
4644.900250119089
 30
0.0
 40
45.9999983609
100
AcDbArc
 50
16.598192998
 51
163.401807002
  0
LINE
  5
352
330
18
100
AcDbEntity
  8
SJC
100
AcDbLine
 10
4977.357103565999
 20
4635.90063200629
 30
0.0
 11
5066.357346380399
 21
4635.90063200629
 31
0.0
  0
LINE
  5
353
330
18
100
AcDbEntity
  8
SJC
100
AcDbLine
 10
4977.357103565999
 20
4635.90063200629
 30
0.0
 11
4977.357103565999
 21
4638.90050989129
 31
0.0
  0
LINE
  5
354
330
18
100
AcDbEntity
  8
SJC
100
AcDbLine
 10
4977.357103565999
 20
4640.900631931789
 30
0.0
 11
4977.357103565999
 21
4643.90050981679
 31
0.0
  0
LINE
  5
355
330
18
100
AcDbEntity
  8
SJC
100
AcDbLine
 10
4977.357103565999
 20
4645.90063185729
 30
0.0
 11
4978.357469761999
 21
4644.90026566129
 31
0.0
  0
LINE
  5
356
330
18
100
AcDbEntity
  8
SJC
100
AcDbLine
 10
4977.357103565999
 20
4645.90063185729
 30
0.0
 11
4977.357103565999
 21
4655.18407898459
 31
0.0
  0
LINE
  5
357
330
18
100
AcDbEntity
  8
SJC
100
AcDbLine
 10
4977.357103565999
 20
4643.90050981679
 30
0.0
 11
4978.357469761999
 21
4644.90026566129
 31
0.0
  0
LINE
  5
358
330
18
100
AcDbEntity
  8
SJC
100
AcDbLine
 10
4977.357103565999
 20
4640.900631931789
 30
0.0
 11
4978.357469761999
 21
4639.90026573579
 31
0.0
  0
LINE
  5
359
330
18
100
AcDbEntity
  8
SJC
100
AcDbLine
 10
4977.357103565999
 20
4638.90050989129
 30
0.0
 11
4978.357469761999
 21
4639.90026573579
 31
0.0
  0
LINE
  5
35A
330
18
100
AcDbEntity
  8
SJC
100
AcDbLine
 10
4978.357469761999
 20
4644.90026566129
 30
0.0
 11
5065.3569801844
 21
4644.90026566129
 31
0.0
  0
LINE
  5
35B
330
18
100
AcDbEntity
  8
SJC
100
AcDbLine
 10
4978.357469761999
 20
4639.90026573579
 30
0.0
 11
5065.3569801844
 21
4639.90026573579
 31
0.0
  0
LINE
  5
35C
330
18
100
AcDbEntity
  8
SJC
100
AcDbLine
 10
4975.8568594477
 20
4633.90050996579
 30
0.0
 11
5067.8575904987
 21
4633.90050996579
 31
0.0
  0
LINE
  5
35D
330
18
100
AcDbEntity
  8
SJC
100
AcDbLine
 10
4975.8568594477
 20
4633.90050996579
 30
0.0
 11
4975.8568594477
 21
4620.90063222979
 31
0.0
  0
LINE
  5
35E
330
18
100
AcDbEntity
  8
SJC
100
AcDbLine
 10
4977.357103565999
 20
4635.90063200629
 30
0.0
 11
4975.8568594477
 21
4633.90050996579
 31
0.0
  0
ARC
  5
35F
330
18
100
AcDbEntity
  8
SJC
100
AcDbCircle
 10
5056.3573465583
 20
4655.18331898379
 30
0.0
 40
9.999999851
100
AcDbArc
 50
0.0043544842
 51
16.6019230129
  0
LINE
  5
360
330
18
100
AcDbEntity
  8
SJC
100
AcDbLine
 10
5066.357346380399
 20
4645.90063185729
 30
0.0
 11
5066.357346380399
 21
4655.18407898459
 31
0.0
  0
LINE
  5
361
330
18
100
AcDbEntity
  8
SJC
100
AcDbLine
 10
5066.357346380399
 20
4640.900631931789
 30
0.0
 11
5066.357346380399
 21
4643.90050981679
 31
0.0
  0
LINE
  5
362
330
18
100
AcDbEntity
  8
SJC
100
AcDbLine
 10
5066.357346380399
 20
4635.90063200629
 30
0.0
 11
5066.357346380399
 21
4638.90050989129
 31
0.0
  0
LINE
  5
363
330
18
100
AcDbEntity
  8
SJC
100
AcDbLine
 10
5066.357346380399
 20
4645.90063185729
 30
0.0
 11
5065.3569801844
 21
4644.90026566129
 31
0.0
  0
LINE
  5
364
330
18
100
AcDbEntity
  8
SJC
100
AcDbLine
 10
5066.357346380399
 20
4643.90050981679
 30
0.0
 11
5065.3569801844
 21
4644.90026566129
 31
0.0
  0
LINE
  5
365
330
18
100
AcDbEntity
  8
SJC
100
AcDbLine
 10
5066.357346380399
 20
4640.900631931789
 30
0.0
 11
5065.3569801844
 21
4639.90026573579
 31
0.0
  0
LINE
  5
366
330
18
100
AcDbEntity
  8
SJC
100
AcDbLine
 10
5066.357346380399
 20
4638.90050989129
 30
0.0
 11
5065.3569801844
 21
4639.90026573579
 31
0.0
  0
LINE
  5
367
330
18
100
AcDbEntity
  8
SJC
100
AcDbLine
 10
5067.8575904987
 20
4633.90050996579
 30
0.0
 11
5067.8575904987
 21
4620.90063222979
 31
0.0
  0
LINE
  5
368
330
18
100
AcDbEntity
  8
SJC
100
AcDbLine
 10
5066.357346380399
 20
4635.90063200629
 30
0.0
 11
5067.8575904987
 21
4633.90050996579
 31
0.0
  0
LINE
  5
369
330
18
100
AcDbEntity
  8
SJC
100
AcDbLine
 10
4975.8568594477
 20
4620.90063222979
 30
0.0
 11
5067.8575904987
 21
4620.90063222979
 31
0.0
  0
LINE
  5
36A
330
18
100
AcDbEntity
  8
SJC
100
AcDbLine
 10
6077.307038347299
 20
3260.90065249539
 30
0.0
 11
6077.307038347299
 21
4620.90063222979
 31
0.0
1001
ACAD
1000
ASC_BOUNDS
1002
{
1070
    19
1005
A65
1002
}
  0
ARC
  5
36B
330
18
100
AcDbEntity
  8
SJC
100
AcDbCircle
 10
6087.3570869968
 20
4655.18331898379
 30
0.0
 40
9.999999851
100
AcDbArc
 50
163.3980769871
 51
179.9956455158
  0
ARC
  5
36C
330
18
100
AcDbEntity
  8
SJC
100
AcDbCircle
 10
6121.8572085819
 20
4644.900250119089
 30
0.0
 40
45.9999983609
100
AcDbArc
 50
16.598192998
 51
163.401807002
  0
LINE
  5
36D
330
18
100
AcDbEntity
  8
SJC
100
AcDbLine
 10
6077.3570871747
 20
4635.90063200629
 30
0.0
 11
6166.3573299891
 21
4635.90063200629
 31
0.0
  0
LINE
  5
36E
330
18
100
AcDbEntity
  8
SJC
100
AcDbLine
 10
6077.3570871747
 20
4635.90063200629
 30
0.0
 11
6077.3570871747
 21
4638.90050989129
 31
0.0
  0
LINE
  5
36F
330
18
100
AcDbEntity
  8
SJC
100
AcDbLine
 10
6077.3570871747
 20
4640.900631931789
 30
0.0
 11
6077.3570871747
 21
4643.90050981679
 31
0.0
  0
LINE
  5
370
330
18
100
AcDbEntity
  8
SJC
100
AcDbLine
 10
6077.3570871747
 20
4645.90063185729
 30
0.0
 11
6078.357453370699
 21
4644.90026566129
 31
0.0
  0
LINE
  5
371
330
18
100
AcDbEntity
  8
SJC
100
AcDbLine
 10
6077.3570871747
 20
4645.90063185729
 30
0.0
 11
6077.3570871747
 21
4655.18407898459
 31
0.0
  0
LINE
  5
372
330
18
100
AcDbEntity
  8
SJC
100
AcDbLine
 10
6077.3570871747
 20
4643.90050981679
 30
0.0
 11
6078.357453370699
 21
4644.90026566129
 31
0.0
  0
LINE
  5
373
330
18
100
AcDbEntity
  8
SJC
100
AcDbLine
 10
6077.3570871747
 20
4640.900631931789
 30
0.0
 11
6078.357453370699
 21
4639.90026573579
 31
0.0
  0
LINE
  5
374
330
18
100
AcDbEntity
  8
SJC
100
AcDbLine
 10
6077.3570871747
 20
4638.90050989129
 30
0.0
 11
6078.357453370699
 21
4639.90026573579
 31
0.0
  0
LINE
  5
375
330
18
100
AcDbEntity
  8
SJC
100
AcDbLine
 10
6078.357453370699
 20
4644.90026566129
 30
0.0
 11
6165.356963793101
 21
4644.90026566129
 31
0.0
  0
LINE
  5
376
330
18
100
AcDbEntity
  8
SJC
100
AcDbLine
 10
6078.357453370699
 20
4639.90026573579
 30
0.0
 11
6165.356963793101
 21
4639.90026573579
 31
0.0
  0
LINE
  5
377
330
18
100
AcDbEntity
  8
SJC
100
AcDbLine
 10
6075.8568430564
 20
4633.90050996579
 30
0.0
 11
6167.8575741074
 21
4633.90050996579
 31
0.0
  0
LINE
  5
378
330
18
100
AcDbEntity
  8
SJC
100
AcDbLine
 10
6075.8568430564
 20
4633.90050996579
 30
0.0
 11
6075.8568430564
 21
4620.90063222979
 31
0.0
  0
LINE
  5
379
330
18
100
AcDbEntity
  8
SJC
100
AcDbLine
 10
6077.3570871747
 20
4635.90063200629
 30
0.0
 11
6075.8568430564
 21
4633.90050996579
 31
0.0
  0
ARC
  5
37A
330
18
100
AcDbEntity
  8
SJC
100
AcDbCircle
 10
6156.357330167
 20
4655.18331898379
 30
0.0
 40
9.999999851
100
AcDbArc
 50
0.0043544842
 51
16.6019230129
  0
LINE
  5
37B
330
18
100
AcDbEntity
  8
SJC
100
AcDbLine
 10
6166.3573299891
 20
4645.90063185729
 30
0.0
 11
6166.3573299891
 21
4655.18407898459
 31
0.0
  0
LINE
  5
37C
330
18
100
AcDbEntity
  8
SJC
100
AcDbLine
 10
6166.3573299891
 20
4640.900631931789
 30
0.0
 11
6166.3573299891
 21
4643.90050981679
 31
0.0
  0
LINE
  5
37D
330
18
100
AcDbEntity
  8
SJC
100
AcDbLine
 10
6166.3573299891
 20
4635.90063200629
 30
0.0
 11
6166.3573299891
 21
4638.90050989129
 31
0.0
  0
LINE
  5
37E
330
18
100
AcDbEntity
  8
SJC
100
AcDbLine
 10
6166.3573299891
 20
4645.90063185729
 30
0.0
 11
6165.356963793101
 21
4644.90026566129
 31
0.0
  0
LINE
  5
37F
330
18
100
AcDbEntity
  8
SJC
100
AcDbLine
 10
6166.3573299891
 20
4643.90050981679
 30
0.0
 11
6165.356963793101
 21
4644.90026566129
 31
0.0
  0
LINE
  5
380
330
18
100
AcDbEntity
  8
SJC
100
AcDbLine
 10
6166.3573299891
 20
4640.900631931789
 30
0.0
 11
6165.356963793101
 21
4639.90026573579
 31
0.0
  0
LINE
  5
381
330
18
100
AcDbEntity
  8
SJC
100
AcDbLine
 10
6166.3573299891
 20
4638.90050989129
 30
0.0
 11
6165.356963793101
 21
4639.90026573579
 31
0.0
  0
LINE
  5
382
330
18
100
AcDbEntity
  8
SJC
100
AcDbLine
 10
6167.8575741074
 20
4633.90050996579
 30
0.0
 11
6167.8575741074
 21
4620.90063222979
 31
0.0
  0
LINE
  5
383
330
18
100
AcDbEntity
  8
SJC
100
AcDbLine
 10
6166.3573299891
 20
4635.90063200629
 30
0.0
 11
6167.8575741074
 21
4633.90050996579
 31
0.0
  0
LINE
  5
384
330
18
100
AcDbEntity
  8
SJC
100
AcDbLine
 10
6075.8568430564
 20
4620.90063222979
 30
0.0
 11
6167.8575741074
 21
4620.90063222979
 31
0.0
  0
LINE
  5
385
330
18
100
AcDbEntity
  8
SJC
100
AcDbLine
 10
6166.407378816501
 20
3260.90065249539
 30
0.0
 11
6166.407378816501
 21
4620.90063222979
 31
0.0
1001
ACAD
1000
ASC_BOUNDS
1002
{
1070
    19
1005
A65
1002
}
  0
CIRCLE
  5
386
330
18
100
AcDbEntity
  8
SJC
100
AcDbCircle
 10
6121.8572085819
 20
4560.90002277239
 30
0.0
 40
29.999999553
  0
LINE
  5
387
330
18
100
AcDbEntity
  8
SJC
100
AcDbLine
 10
4795.529110941889
 20
1963.644931889568
 30
0.0
 11
4959.73626181529
 21
1919.646214283468
 31
0.0
  0
LINE
  5
388
330
18
100
AcDbEntity
  8
SJC
100
AcDbLine
 10
4787.76360812789
 20
1934.666966012769
 30
0.0
 11
4951.971369352889
 21
1890.668248406668
 31
0.0
  0
ARC
  5
389
330
18
100
AcDbEntity
  8
SJC
100
AcDbCircle
 10
4955.85381558409
 20
1905.157231345068
 30
0.0
 40
15.0001338436
100
AcDbArc
 50
254.9995020838999
 51
74.9995020839
  0
ARC
  5
38A
330
18
100
AcDbEntity
  8
SJC
100
AcDbCircle
 10
4791.64635953489
 20
1949.155948951168
 30
0.0
 40
15.0002128344
100
AcDbArc
 50
74.9983761367
 51
254.9983761367
  0
LINE
  5
38B
330
18
100
AcDbEntity
  8
SJC
100
AcDbLine
 10
5222.431570400889
 20
1818.198156713168
 30
0.0
 11
5058.22441952739
 21
1862.197637258669
 31
0.0
  0
ARC
  5
38C
330
18
100
AcDbEntity
  8
SJC
100
AcDbCircle
 10
5062.10656058289
 20
1876.686620197068
 30
0.0
 40
15.0000548587
100
AcDbArc
 50
75.000628043
 51
255.000628043
  0
LINE
  5
38D
330
18
100
AcDbEntity
  8
SJC
100
AcDbLine
 10
5230.19646286329
 20
1847.176122589868
 30
0.0
 11
5065.98870163829
 21
1891.175603135468
 31
0.0
  0
ARC
  5
38E
330
18
100
AcDbEntity
  8
SJC
100
AcDbCircle
 10
5226.31401663209
 20
1832.687139651568
 30
0.0
 40
15.0001338436
100
AcDbArc
 50
254.9995020838999
 51
74.9995020839
  0
ARC
  5
38F
330
18
100
AcDbEntity
  8
SJC
100
AcDbCircle
 10
5226.31316420209
 20
1832.687977170268
 30
0.0
 40
49.9999992549
100
AcDbArc
 50
182.4583964233
 51
255.000617495
  0
ARC
  5
390
330
18
100
AcDbEntity
  8
SJC
100
AcDbCircle
 10
5226.31355359079
 20
1832.688150423068
 30
0.0
 40
19.999999702
100
AcDbArc
 50
213.593433228
 51
255.0013415726
  0
ARC
  5
391
330
18
100
AcDbEntity
  8
SJC
100
AcDbCircle
 10
5226.31373535059
 20
1832.687091256768
 30
0.0
 40
19.999999702
100
AcDbArc
 50
74.99913402689999
 51
116.4072886241
  0
ARC
  5
392
330
18
100
AcDbEntity
  8
SJC
100
AcDbCircle
 10
5226.313920994489
 20
1832.687155560368
 30
0.0
 40
49.9999992549
100
AcDbArc
 50
75.0002168501
 51
147.5419602829999
  0
ARC
  5
393
330
18
100
AcDbEntity
  8
SJC
100
AcDbCircle
 10
4787.679392330789
 20
1949.313120785368
 30
0.0
 40
49.9999992549
100
AcDbArc
 50
255.0003152216
 51
327.5421373338
  0
ARC
  5
394
330
18
100
AcDbEntity
  8
SJC
100
AcDbCircle
 10
4787.68066766779
 20
1949.313056639368
 30
0.0
 40
19.999999702
100
AcDbArc
 50
254.9979582942
 51
296.4079728912
  0
ARC
  5
395
330
18
100
AcDbEntity
  8
SJC
100
AcDbCircle
 10
4787.67996868889
 20
1949.312832876868
 30
0.0
 40
19.999999702
100
AcDbArc
 50
33.5909255054
 51
75.0017153678
  0
ARC
  5
396
330
18
100
AcDbEntity
  8
SJC
100
AcDbCircle
 10
4787.68019228799
 20
1949.313050548868
 30
0.0
 40
49.9999992549
100
AcDbArc
 50
2.457334122599999
 51
75.0005703317
  0
ARC
  5
397
330
18
100
AcDbEntity
  8
SJC
100
AcDbCircle
 10
4961.54754362319
 20
1902.725654255668
 30
0.0
 40
49.9999992549
100
AcDbArc
 50
182.458383715
 51
254.9998928476
  0
LINE
  5
398
330
18
100
AcDbEntity
  8
SJC
100
AcDbLine
 10
5045.19890702619
 20
1828.547430240568
 30
0.0
 11
4948.60650123899
 21
1854.429387862668
 31
0.0
  0
LINE
  5
399
330
18
100
AcDbEntity
  8
SJC
100
AcDbLine
 10
5052.96318913709
 20
1857.525396117368
 30
0.0
 11
4956.37017299829
 21
1883.407353739468
 31
0.0
  0
ARC
  5
39A
330
18
100
AcDbEntity
  8
SJC
100
AcDbCircle
 10
4961.546101481491
 20
1902.725991176368
 30
0.0
 40
19.999999702
100
AcDbArc
 50
213.593433228
 51
255.0013415726
  0
LINE
  5
39B
330
18
100
AcDbEntity
  8
SJC
100
AcDbLine
 10
5063.31597218589
 20
1896.162022738868
 30
0.0
 11
4966.72356639869
 21
1922.043980360968
 31
0.0
  0
ARC
  5
39C
330
18
100
AcDbEntity
  8
SJC
100
AcDbCircle
 10
4961.54649442259
 20
1902.725649329768
 30
0.0
 40
19.999999702
100
AcDbArc
 50
74.9979501408
 51
116.4060118693
  0
ARC
  5
39D
330
18
100
AcDbEntity
  8
SJC
100
AcDbCircle
 10
4961.54664067839
 20
1902.726029352568
 30
0.0
 40
49.9999992549
100
AcDbArc
 50
74.9996965711
 51
147.5423270954
  0
LINE
  5
39E
330
18
100
AcDbEntity
  8
SJC
100
AcDbLine
 10
5071.08086464839
 20
1925.140293791469
 30
0.0
 11
4974.487848509589
 21
1951.022251413568
 31
0.0
  0
ARC
  5
39F
330
18
100
AcDbEntity
  8
SJC
100
AcDbCircle
 10
5058.13977588469
 20
1876.844039825868
 30
0.0
 40
49.9999992549
100
AcDbArc
 50
2.457144364199999
 51
74.9998378258
  0
ARC
  5
3A0
330
18
100
AcDbEntity
  8
SJC
100
AcDbCircle
 10
5058.139550541289
 20
1876.843517438569
 30
0.0
 40
19.999999702
100
AcDbArc
 50
33.5908797112
 51
74.999878935
  0
ARC
  5
3A1
330
18
100
AcDbEntity
  8
SJC
100
AcDbCircle
 10
5058.13986194299
 20
1876.843834116768
 30
0.0
 40
19.999999702
100
AcDbArc
 50
254.9991340268999
 51
296.4072886241
  0
ARC
  5
3A2
330
18
100
AcDbEntity
  8
SJC
100
AcDbCircle
 10
5058.14019777669
 20
1876.843630082869
 30
0.0
 40
49.9999992549
100
AcDbArc
 50
254.9995982006
 51
327.542150046
  0
ARC
  5
3A3
330
18
100
AcDbEntity
  8
SJC
100
AcDbCircle
 10
4024.77182872589
 20
1949.155948951168
 30
0.0
 40
15.0001733383
100
AcDbArc
 50
285.0010608912
 51
105.0010608912
  0
ARC
  5
3A4
330
18
100
AcDbEntity
  8
SJC
100
AcDbCircle
 10
4028.73864334209
 20
1949.313120785368
 30
0.0
 40
49.9999992549
100
AcDbArc
 50
212.4578626662
 51
284.9996847784
  0
ARC
  5
3A5
330
18
100
AcDbEntity
  8
SJC
100
AcDbCircle
 10
4028.73767318099
 20
1949.313056639368
 30
0.0
 40
19.999999702
100
AcDbArc
 50
243.5920271088
 51
285.0020417058
  0
ARC
  5
3A6
330
18
100
AcDbEntity
  8
SJC
100
AcDbCircle
 10
4028.738372159789
 20
1949.312832876868
 30
0.0
 40
19.999999702
100
AcDbArc
 50
104.9982846322
 51
146.4090744946
  0
ARC
  5
3A7
330
18
100
AcDbEntity
  8
SJC
100
AcDbCircle
 10
4028.73815211059
 20
1949.313133269468
 30
0.0
 40
49.9999992549
100
AcDbArc
 50
104.999795921
 51
177.5427607554
  0
ARC
  5
3A8
330
18
100
AcDbEntity
  8
SJC
100
AcDbCircle
 10
4034.28635140889
 20
1976.070239931968
 30
0.0
 40
209.1727988545
100
AcDbArc
 50
316.2791957977
 51
43.72080420229999
  0
ARC
  5
3A9
330
18
100
AcDbEntity
  8
SJC
100
AcDbCircle
 10
4225.45752891179
 20
1976.070239931968
 30
0.0
 40
149.9999977648
100
AcDbArc
 50
105.465455064
 51
254.534544936
  0
CIRCLE
  5
3AA
330
18
100
AcDbEntity
  8
SJC
100
AcDbCircle
 10
4125.459235672789
 20
1976.070163637968
 30
0.0
 40
12.4999998137
  0
LINE
  5
3AB
330
18
100
AcDbEntity
  8
SJC
100
AcDbLine
 10
4033.91474240799
 20
1929.994724871468
 30
0.0
 11
4079.34107229749
 21
1942.166660725268
 31
0.0
  0
LINE
  5
3AC
330
18
100
AcDbEntity
  8
SJC
100
AcDbLine
 10
4041.67932969469
 20
1901.016758994668
 30
0.0
 11
4089.03803260229
 21
1913.706578141469
 31
0.0
  0
LINE
  5
3AD
330
18
100
AcDbEntity
  8
SJC
100
AcDbLine
 10
4023.56256971069
 20
1968.631504080869
 30
0.0
 11
4075.600532802489
 21
1982.575595669969
 31
0.0
  0
LINE
  5
3AE
330
18
100
AcDbEntity
  8
SJC
100
AcDbLine
 10
4015.79737207249
 20
1997.609469957668
 30
0.0
 11
4080.59076710309
 21
2014.970919894269
 31
0.0
  0
ARC
  5
3AF
330
18
100
AcDbEntity
  8
SJC
100
AcDbCircle
 10
4590.96081193699
 20
1976.070239931968
 30
0.0
 40
149.9999977648
100
AcDbArc
 50
285.465455064
 51
74.534544936
  0
ARC
  5
3B0
330
18
100
AcDbEntity
  8
SJC
100
AcDbCircle
 10
4782.13198943979
 20
1976.070239931968
 30
0.0
 40
209.1727988545
100
AcDbArc
 50
136.2791957977
 51
223.7208042023
  0
LINE
  5
3B1
330
18
100
AcDbEntity
  8
SJC
100
AcDbLine
 10
4800.62066360039
 20
1997.609469957668
 30
0.0
 11
4735.827573745591
 21
2014.970919894269
 31
0.0
  0
LINE
  5
3B2
330
18
100
AcDbEntity
  8
SJC
100
AcDbLine
 10
4792.85577113799
 20
1968.631504080869
 30
0.0
 11
4740.81780804619
 21
1982.574985318368
 31
0.0
  0
LINE
  5
3B3
330
18
100
AcDbEntity
  8
SJC
100
AcDbLine
 10
4782.50359844069
 20
1929.994724871468
 30
0.0
 11
4737.07696337539
 21
1942.166660725268
 31
0.0
  0
LINE
  5
3B4
330
18
100
AcDbEntity
  8
SJC
100
AcDbLine
 10
4774.738705978289
 20
1901.016758994668
 30
0.0
 11
4727.38030824649
 21
1913.706578141469
 31
0.0
  0
LINE
  5
3B5
330
18
100
AcDbEntity
  8
SJC
100
AcDbLine
 10
4185.458929602989
 20
2120.638948104868
 30
0.0
 11
4185.458929602989
 21
2274.570830576668
 31
0.0
  0
LINE
  5
3B6
330
18
100
AcDbEntity
  8
SJC
100
AcDbLine
 10
4630.95941124579
 20
2120.638948104868
 30
0.0
 11
4630.95941124579
 21
2274.570830576668
 31
0.0
  0
LINE
  5
3B7
330
18
100
AcDbEntity
  8
SJC
100
AcDbLine
 10
5295.16045115309
 20
1762.476569408668
 30
0.0
 11
5213.37273264519
 21
1784.391547109468
 31
0.0
  0
LINE
  5
3B8
330
18
100
AcDbEntity
  8
SJC
100
AcDbLine
 10
5302.924733263889
 20
1791.454840461269
 30
0.0
 11
5221.13762510769
 21
1813.369512986268
 31
0.0
  0
LINE
  5
3B9
330
18
100
AcDbEntity
  8
SJC
100
AcDbLine
 10
5313.27751631279
 20
1830.090704143368
 30
0.0
 11
5231.49040815649
 21
1852.005529256268
 31
0.0
  0
LINE
  5
3BA
330
18
100
AcDbEntity
  8
SJC
100
AcDbLine
 10
5321.04240877519
 20
1859.068670020169
 30
0.0
 11
5239.25469026739
 21
1880.983495133068
 31
0.0
  0
LINE
  5
3BB
330
18
100
AcDbEntity
  8
SJC
100
AcDbLine
 10
4020.88922990679
 20
1963.644931889568
 30
0.0
 11
3940.69636000799
 21
1942.157505451968
 31
0.0
  0
LINE
  5
3BC
330
18
100
AcDbEntity
  8
SJC
100
AcDbLine
 10
4028.65442754499
 20
1934.666966012769
 30
0.0
 11
3948.460947294691
 21
1913.179234399368
 31
0.0
  0
LINE
  5
3BD
330
18
100
AcDbEntity
  8
SJC
100
AcDbLine
 10
4185.458929602989
 20
1743.048163936468
 30
0.0
 11
4185.458929602989
 21
1831.501531759068
 31
0.0
  0
LINE
  5
3BE
330
18
100
AcDbEntity
  8
SJC
100
AcDbLine
 10
4630.95941124579
 20
1743.048163936468
 30
0.0
 11
4630.95941124579
 21
1831.501531759068
 31
0.0
  0
ARC
  5
3BF
330
18
100
AcDbEntity
  8
SJC
100
AcDbCircle
 10
4296.83405001369
 20
1918.723590054668
 30
0.0
 40
208.0054633617
100
AcDbArc
 50
237.6260237668001
 51
302.3739762332
  0
ARC
  5
3C0
330
18
100
AcDbEntity
  8
SJC
100
AcDbCircle
 10
4519.58429083509
 20
1918.723590054668
 30
0.0
 40
208.0054633617
100
AcDbArc
 50
237.6260237668001
 51
302.3739762332
  0
ARC
  5
3C1
330
18
100
AcDbEntity
  8
SJC
100
AcDbCircle
 10
4519.58429083509
 20
1567.372737818268
 30
0.0
 40
208.0054633617
100
AcDbArc
 50
57.62602376680001
 51
122.3739762332
  0
LINE
  5
3C2
330
18
100
AcDbEntity
  8
SJC
100
AcDbLine
 10
3927.88477572629
 20
1989.971225442568
 30
0.0
 11
3956.421457429989
 21
1883.470525125268
 31
0.0
  0
LINE
  5
3C3
330
18
100
AcDbEntity
  8
SJC
100
AcDbLine
 10
5331.51604143159
 20
1898.157261966968
 30
0.0
 11
5285.828786253091
 21
1727.651283062369
 31
0.0
  0
LINE
  5
3C4
330
18
100
AcDbEntity
  8
HASEN
100
AcDbLine
 10
4735.827573745591
 20
2014.970919894269
 30
0.0
 11
4704.02825781319
 21
2023.491732755569
 31
0.0
  0
LINE
  5
3C5
330
18
100
AcDbEntity
  8
HASEN
100
AcDbLine
 10
4727.38030824649
 20
1913.706578141469
 30
0.0
 11
4678.146910542589
 21
1926.899326968368
 31
0.0
  0
LINE
  5
3C6
330
18
100
AcDbEntity
  8
HASEN
100
AcDbLine
 10
4740.81780804619
 20
1982.574985318368
 30
0.0
 11
4696.263975702289
 21
1994.513156527268
 31
0.0
  0
LINE
  5
3C7
330
18
100
AcDbEntity
  8
HASEN
100
AcDbLine
 10
4737.07696337539
 20
1942.166660725268
 30
0.0
 11
4685.91058230189
 21
1955.876377317768
 31
0.0
  0
CIRCLE
  5
3C8
330
18
100
AcDbEntity
  8
HASEN
100
AcDbCircle
 10
4690.958800000089
 20
1976.070163637968
 30
0.0
 40
12.4999998137
  0
ARC
  5
3C9
330
18
100
AcDbEntity
  8
HASEN
100
AcDbCircle
 10
4691.087279002089
 20
1975.195224686168
 30
0.0
 40
20.000106529
100
AcDbArc
 50
74.9991451672
 51
254.9991451672
  0
ARC
  5
3CA
330
18
100
AcDbEntity
  8
HASEN
100
AcDbCircle
 10
4691.087584177889
 20
1975.195224686168
 30
0.0
 40
50.0001372581
100
AcDbArc
 50
75.000372681
 51
255.0003726809999
  0
LINE
  5
3CB
330
18
100
AcDbEntity
  8
HASEN
100
AcDbLine
 10
4660.959410798691
 20
2051.138827070168
 30
0.0
 11
4720.823301508189
 21
2051.138827070168
 31
0.0
  0
LINE
  5
3CC
330
18
100
AcDbEntity
  8
HASEN
100
AcDbLine
 10
4660.959410798691
 20
2101.138826325068
 30
0.0
 11
4660.959410798691
 21
2051.138827070168
 31
0.0
  0
LINE
  5
3CD
330
18
100
AcDbEntity
  8
HASEN
100
AcDbLine
 10
4660.959410798691
 20
2101.138826325068
 30
0.0
 11
4673.77130025619
 21
2101.138826325068
 31
0.0
  0
LINE
  5
3CE
330
18
100
AcDbEntity
  8
HASEN
100
AcDbLine
 10
4647.95953306269
 20
2059.888826939769
 30
0.0
 11
4647.95953306269
 21
2092.388826455469
 31
0.0
  0
LINE
  5
3CF
330
18
100
AcDbEntity
  8
HASEN
100
AcDbLine
 10
4590.48730491519
 20
2059.888826939769
 30
0.0
 11
4647.95953306269
 21
2059.888826939769
 31
0.0
  0
LINE
  5
3D0
330
18
100
AcDbEntity
  8
HASEN
100
AcDbLine
 10
4590.48730491519
 20
2092.388826455469
 30
0.0
 11
4647.95953306269
 21
2092.388826455469
 31
0.0
  0
LINE
  5
3D1
330
18
100
AcDbEntity
  8
HASEN
100
AcDbLine
 10
4647.95953306269
 20
2092.388826455469
 30
0.0
 11
4660.959410798691
 21
2101.138826325068
 31
0.0
  0
LINE
  5
3D2
330
18
100
AcDbEntity
  8
HASEN
100
AcDbLine
 10
4647.95953306269
 20
2059.888826939769
 30
0.0
 11
4660.959410798691
 21
2051.138827070168
 31
0.0
  0
LINE
  5
3D3
330
18
100
AcDbEntity
  8
HASEN
100
AcDbLine
 10
4590.48730491519
 20
2059.888826939769
 30
0.0
 11
4590.48730491519
 21
2092.388826455469
 31
0.0
  0
LINE
  5
3D4
330
18
100
AcDbEntity
  8
HASEN
100
AcDbLine
 10
4660.959410798691
 20
1899.251317126468
 30
0.0
 11
4720.823301508189
 21
1899.251317126468
 31
0.0
  0
LINE
  5
3D5
330
18
100
AcDbEntity
  8
HASEN
100
AcDbLine
 10
4660.959410798691
 20
1849.251317871469
 30
0.0
 11
4660.959410798691
 21
1899.251317126468
 31
0.0
  0
LINE
  5
3D6
330
18
100
AcDbEntity
  8
HASEN
100
AcDbLine
 10
4660.959410798691
 20
1849.251317871469
 30
0.0
 11
4673.77130025619
 21
1849.251317871469
 31
0.0
  0
LINE
  5
3D7
330
18
100
AcDbEntity
  8
HASEN
100
AcDbLine
 10
4647.95953306269
 20
1890.501317256868
 30
0.0
 11
4647.95953306269
 21
1858.001317741068
 31
0.0
  0
LINE
  5
3D8
330
18
100
AcDbEntity
  8
HASEN
100
AcDbLine
 10
4590.48730491519
 20
1890.501317256868
 30
0.0
 11
4647.95953306269
 21
1890.501317256868
 31
0.0
  0
LINE
  5
3D9
330
18
100
AcDbEntity
  8
HASEN
100
AcDbLine
 10
4590.48730491519
 20
1858.001317741068
 30
0.0
 11
4647.95953306269
 21
1858.001317741068
 31
0.0
  0
LINE
  5
3DA
330
18
100
AcDbEntity
  8
HASEN
100
AcDbLine
 10
4647.95953306269
 20
1858.001317741068
 30
0.0
 11
4660.959410798691
 21
1849.251317871469
 31
0.0
  0
LINE
  5
3DB
330
18
100
AcDbEntity
  8
HASEN
100
AcDbLine
 10
4647.95953306269
 20
1890.501317256868
 30
0.0
 11
4660.959410798691
 21
1899.251317126468
 31
0.0
  0
LINE
  5
3DC
330
18
100
AcDbEntity
  8
HASEN
100
AcDbLine
 10
4590.48730491519
 20
1890.501317256868
 30
0.0
 11
4590.48730491519
 21
1858.001317741068
 31
0.0
  0
ARC
  5
3DD
330
18
100
AcDbEntity
  8
SJC
100
AcDbCircle
 10
4235.70917298779
 20
2445.987227626869
 30
0.0
 40
49.9999992549
100
AcDbArc
 50
163.4005255999
 51
179.9990411853
  0
ARC
  5
3DE
330
18
100
AcDbEntity
  8
SJC
100
AcDbCircle
 10
4408.209170424389
 20
2394.569818857968
 30
0.0
 40
229.9999965727
100
AcDbArc
 50
16.5981969831
 51
163.4018030169
  0
LINE
  5
3DF
330
18
100
AcDbEntity
  8
SJC
100
AcDbLine
 10
4185.70917373989
 20
2399.570828714068
 30
0.0
 11
4630.70916710889
 21
2399.570828714068
 31
0.0
  0
LINE
  5
3E0
330
18
100
AcDbEntity
  8
SJC
100
AcDbLine
 10
4185.70917373989
 20
2349.570829459168
 30
0.0
 11
4630.70916710889
 21
2349.570829459168
 31
0.0
  0
LINE
  5
3E1
330
18
100
AcDbEntity
  8
SJC
100
AcDbLine
 10
4185.70917373989
 20
2364.571134411368
 30
0.0
 11
4630.70916710889
 21
2364.571134411368
 31
0.0
  0
LINE
  5
3E2
330
18
100
AcDbEntity
  8
SJC
100
AcDbLine
 10
4185.70917373989
 20
2374.570829086568
 30
0.0
 11
4630.70916710889
 21
2374.570829086568
 31
0.0
  0
LINE
  5
3E3
330
18
100
AcDbEntity
  8
SJC
100
AcDbLine
 10
4185.70917373989
 20
2389.571134038869
 30
0.0
 11
4630.70916710889
 21
2389.571134038869
 31
0.0
  0
LINE
  5
3E4
330
18
100
AcDbEntity
  8
SJC
100
AcDbLine
 10
4185.70917373989
 20
2349.570829459168
 30
0.0
 11
4185.70917373989
 21
2364.571134411368
 31
0.0
  0
LINE
  5
3E5
330
18
100
AcDbEntity
  8
SJC
100
AcDbLine
 10
4185.70917373989
 20
2374.570829086568
 30
0.0
 11
4185.70917373989
 21
2389.571134038869
 31
0.0
  0
LINE
  5
3E6
330
18
100
AcDbEntity
  8
SJC
100
AcDbLine
 10
4185.70917373989
 20
2399.570828714068
 30
0.0
 11
4190.70978401689
 21
2394.570828788568
 31
0.0
  0
LINE
  5
3E7
330
18
100
AcDbEntity
  8
SJC
100
AcDbLine
 10
4185.70917373989
 20
2399.570828714068
 30
0.0
 11
4185.70917373989
 21
2445.988064350469
 31
0.0
  0
LINE
  5
3E8
330
18
100
AcDbEntity
  8
SJC
100
AcDbLine
 10
4185.70917373989
 20
2389.570218511568
 30
0.0
 11
4190.70978401689
 21
2394.570828788568
 31
0.0
  0
LINE
  5
3E9
330
18
100
AcDbEntity
  8
SJC
100
AcDbLine
 10
4185.70917373989
 20
2374.570829086568
 30
0.0
 11
4190.70978401689
 21
2369.570829161068
 31
0.0
  0
LINE
  5
3EA
330
18
100
AcDbEntity
  8
SJC
100
AcDbLine
 10
4185.70917373989
 20
2364.570218884068
 30
0.0
 11
4190.70978401689
 21
2369.570829161068
 31
0.0
  0
LINE
  5
3EB
330
18
100
AcDbEntity
  8
SJC
100
AcDbLine
 10
4190.70978401689
 20
2394.570828788568
 30
0.0
 11
4625.708556831789
 21
2394.570828788568
 31
0.0
  0
LINE
  5
3EC
330
18
100
AcDbEntity
  8
SJC
100
AcDbLine
 10
4190.70978401689
 20
2369.570829161068
 30
0.0
 11
4625.708556831789
 21
2369.570829161068
 31
0.0
  0
LINE
  5
3ED
330
18
100
AcDbEntity
  8
SJC
100
AcDbLine
 10
4178.20886867589
 20
2339.571134783868
 30
0.0
 11
4638.209472172889
 21
2339.571134783868
 31
0.0
  0
LINE
  5
3EE
330
18
100
AcDbEntity
  8
SJC
100
AcDbLine
 10
4178.20886867589
 20
2339.571134783868
 30
0.0
 11
4178.20886867589
 21
2274.570830576668
 31
0.0
  0
LINE
  5
3EF
330
18
100
AcDbEntity
  8
SJC
100
AcDbLine
 10
4185.70917373989
 20
2349.570829459168
 30
0.0
 11
4178.20886867589
 21
2339.571134783868
 31
0.0
  0
ARC
  5
3F0
330
18
100
AcDbEntity
  8
SJC
100
AcDbCircle
 10
4580.70916786089
 20
2445.987227626869
 30
0.0
 40
49.9999992549
100
AcDbArc
 50
0.0009588147
 51
16.5994744001
  0
LINE
  5
3F1
330
18
100
AcDbEntity
  8
SJC
100
AcDbLine
 10
4630.70916710889
 20
2399.570828714068
 30
0.0
 11
4630.70916710889
 21
2445.988064350469
 31
0.0
  0
LINE
  5
3F2
330
18
100
AcDbEntity
  8
SJC
100
AcDbLine
 10
4630.70916710889
 20
2374.570829086568
 30
0.0
 11
4630.70916710889
 21
2389.571134038869
 31
0.0
  0
LINE
  5
3F3
330
18
100
AcDbEntity
  8
SJC
100
AcDbLine
 10
4630.70916710889
 20
2349.570829459168
 30
0.0
 11
4630.70916710889
 21
2364.571134411368
 31
0.0
  0
LINE
  5
3F4
330
18
100
AcDbEntity
  8
SJC
100
AcDbLine
 10
4630.70916710889
 20
2399.570828714068
 30
0.0
 11
4625.708556831789
 21
2394.570828788568
 31
0.0
  0
LINE
  5
3F5
330
18
100
AcDbEntity
  8
SJC
100
AcDbLine
 10
4630.70916710889
 20
2389.570218511568
 30
0.0
 11
4625.708556831789
 21
2394.570828788568
 31
0.0
  0
LINE
  5
3F6
330
18
100
AcDbEntity
  8
SJC
100
AcDbLine
 10
4630.70916710889
 20
2374.570829086568
 30
0.0
 11
4625.708556831789
 21
2369.570829161068
 31
0.0
  0
LINE
  5
3F7
330
18
100
AcDbEntity
  8
SJC
100
AcDbLine
 10
4630.70916710889
 20
2364.570218884068
 30
0.0
 11
4625.708556831789
 21
2369.570829161068
 31
0.0
  0
LINE
  5
3F8
330
18
100
AcDbEntity
  8
SJC
100
AcDbLine
 10
4638.209472172889
 20
2339.571134783868
 30
0.0
 11
4638.209472172889
 21
2274.570830576668
 31
0.0
  0
LINE
  5
3F9
330
18
100
AcDbEntity
  8
SJC
100
AcDbLine
 10
4630.70916710889
 20
2349.570829459168
 30
0.0
 11
4638.209472172889
 21
2339.571134783868
 31
0.0
  0
LINE
  5
3FA
330
18
100
AcDbEntity
  8
SJC
100
AcDbLine
 10
4178.20886867589
 20
2274.570830576668
 30
0.0
 11
4638.209472172889
 21
2274.570830576668
 31
0.0
  0
CIRCLE
  5
3FB
330
18
100
AcDbEntity
  8
SJC
100
AcDbCircle
 10
5813.720246546461
 20
1975.195224686118
 30
0.0
 40
149.9999977648
  0
LINE
  5
3FC
330
18
100
AcDbEntity
  8
SJC
100
AcDbLine
 10
5590.96939537356
 20
1686.810219217818
 30
0.0
 11
5590.96939537356
 21
2273.696044212718
 31
0.0
  0
LINE
  5
3FD
330
18
100
AcDbEntity
  8
SJC
100
AcDbLine
 10
6036.46926666476
 20
1686.810219217818
 30
0.0
 11
6036.46926666476
 21
2273.696044212718
 31
0.0
  0
ARC
  5
3FE
330
18
100
AcDbEntity
  8
SJC
100
AcDbCircle
 10
5702.344515784261
 20
1862.485645336018
 30
0.0
 40
208.0054633617
100
AcDbArc
 50
237.6260237668001
 51
302.3739762332
  0
ARC
  5
3FF
330
18
100
AcDbEntity
  8
SJC
100
AcDbCircle
 10
5925.09475660566
 20
1862.485645336018
 30
0.0
 40
208.0054633617
100
AcDbArc
 50
237.6260237668001
 51
302.3739762332
  0
ARC
  5
400
330
18
100
AcDbEntity
  8
SJC
100
AcDbCircle
 10
5925.09475660566
 20
1511.134793099618
 30
0.0
 40
208.0054633617
100
AcDbArc
 50
57.62602376680001
 51
122.3739762332
  0
ARC
  5
401
330
18
100
AcDbEntity
  8
SJC
100
AcDbCircle
 10
5702.34512613576
 20
2098.020618094619
 30
0.0
 40
208.0054633617
100
AcDbArc
 50
57.62602376680001
 51
122.3739762332
  0
ARC
  5
402
330
18
100
AcDbEntity
  8
SJC
100
AcDbCircle
 10
5702.34512613576
 20
2449.371470330918
 30
0.0
 40
208.0054633617
100
AcDbArc
 50
237.6260237668001
 51
302.3739762332
  0
ARC
  5
403
330
18
100
AcDbEntity
  8
SJC
100
AcDbCircle
 10
5925.095061781361
 20
2098.020424618918
 30
0.0
 40
208.0054633617
100
AcDbArc
 50
57.62612329850001
 51
122.3738767015
  0
CIRCLE
  5
404
330
18
100
AcDbEntity
  8
SJC2
100
AcDbCircle
 10
5813.71963619496
 20
2080.695253631619
 30
0.0
 40
24.9999996275
  0
CIRCLE
  5
405
330
18
100
AcDbEntity
  8
SJC2
100
AcDbCircle
 10
5813.71963619496
 20
1869.695195740618
 30
0.0
 40
24.9999996275
  0
ARC
  5
406
330
18
100
AcDbEntity
  8
SJC2
100
AcDbCircle
 10
5813.71963619496
 20
2004.695041141118
 30
0.0
 40
19.999999702
100
AcDbArc
 50
0.0
 51
180.0
  0
LINE
  5
407
330
18
100
AcDbEntity
  8
SJC2
100
AcDbLine
 10
5793.72085719606
 20
2004.695041141118
 30
0.0
 11
5793.72085719606
 21
1884.696416220218
 31
0.0
  0
LINE
  5
408
330
18
100
AcDbEntity
  8
SJC2
100
AcDbLine
 10
5833.720246248461
 20
2004.695041141118
 30
0.0
 11
5833.720246248461
 21
1884.694890341318
 31
0.0
  0
LINE
  5
409
330
18
100
AcDbEntity
  8
HASEN
100
AcDbLine
 10
5748.720857866561
 20
1987.695224499918
 30
0.0
 11
5793.72085719606
 21
1987.695224499918
 31
0.0
  0
LINE
  5
40A
330
18
100
AcDbEntity
  8
HASEN
100
AcDbLine
 10
5748.720857866561
 20
1987.695224499918
 30
0.0
 11
5748.720857866561
 21
1962.695224872418
 31
0.0
  0
LINE
  5
40B
330
18
100
AcDbEntity
  8
HASEN
100
AcDbLine
 10
5748.720857866561
 20
1962.695224872418
 30
0.0
 11
5793.72085719606
 21
1962.695224872418
 31
0.0
  0
LINE
  5
40C
330
18
100
AcDbEntity
  8
HASEN
100
AcDbLine
 10
5833.720246248461
 20
1962.695224872418
 30
0.0
 11
5923.72085525886
 21
1962.695224872418
 31
0.0
  0
LINE
  5
40D
330
18
100
AcDbEntity
  8
HASEN
100
AcDbLine
 10
5833.720246248461
 20
1987.695224499918
 30
0.0
 11
5923.72085525886
 21
1987.695224499918
 31
0.0
  0
LINE
  5
40E
330
18
100
AcDbEntity
  8
CENTER
100
AcDbLine
 10
5813.71963619496
 20
2335.055296228118
 30
0.0
 11
5813.71963619496
 21
1626.579507224718
 31
0.0
  0
LINE
  5
40F
330
18
100
AcDbEntity
  8
SJC2
100
AcDbLine
 10
5793.72085719606
 20
1987.695224499918
 30
0.0
 11
5833.720246248461
 21
1987.695224499918
 31
0.0
  0
LINE
  5
410
330
18
100
AcDbEntity
  8
SJC2
100
AcDbLine
 10
5793.72085719606
 20
1962.695224872418
 30
0.0
 11
5833.720246248461
 21
1962.695224872418
 31
0.0
  0
LINE
  5
411
330
18
100
AcDbEntity
  8
CENTER
100
AcDbLine
 10
4408.209170424389
 20
2675.341088276669
 30
0.0
 11
4408.209170424389
 21
1659.338906150668
 31
0.0
  0
TEXT
  5
412
330
18
100
AcDbEntity
  8
MOJI
100
AcDbText
 10
4481.202081542318
 20
723.0678366105061
 30
0.0
 40
60.0
  1
平行ピン　
 41
0.8
  7
EXT08
100
AcDbText
  0
ARC
  5
413
330
18
100
AcDbEntity
  8
KASOU
100
AcDbCircle
 10
2021.857710526
 20
11033.10418947839
 30
0.0
 40
6530.7738284651
100
AcDbArc
 50
263.1593138472
 51
276.8477407159
  0
ARC
  5
414
330
18
100
AcDbEntity
  8
KASOU
100
AcDbCircle
 10
2021.8572515114
 20
11013.10432802169
 30
0.0
 40
6530.7738284651
100
AcDbArc
 50
263.1546501276
 51
276.8572450027
  0
ARC
  5
415
330
18
100
AcDbEntity
  8
KASOU
100
AcDbCircle
 10
4021.857680723701
 20
11033.10418947839
 30
0.0
 40
6530.7738284651
100
AcDbArc
 50
263.1593138472
 51
276.8477407159
  0
ARC
  5
416
330
18
100
AcDbEntity
  8
KASOU
100
AcDbCircle
 10
4021.857068987499
 20
11013.10434635519
 30
0.0
 40
6530.7738284651
100
AcDbArc
 50
263.1546514771
 51
276.8572436556
  0
LINE
  5
417
330
18
100
AcDbEntity
  8
SJC
100
AcDbLine
 10
1681.709531377425
 20
381.6745327446961
 30
0.0
 11
751.0589867735252
 21
381.6745327446961
 31
0.0
  0
LINE
  5
418
330
18
100
AcDbEntity
  8
SJC
100
AcDbLine
 10
6077.307038347299
 20
3660.90064653499
 30
0.0
 11
5774.445106296759
 21
3660.90064653499
 31
0.0
1001
ACAD
1000
ASC_BOUNDS
1002
{
1070
    19
1005
A65
1002
}
  0
LINE
  5
419
330
18
100
AcDbEntity
  8
SJC
100
AcDbLine
 10
6166.408599519599
 20
3660.90064653499
 30
0.0
 11
6430.4582782021
 21
3660.90064653499
 31
0.0
1001
ACAD
1000
ASC_BOUNDS
1002
{
1070
    19
1005
A65
1002
}
  0
TEXT
  5
422
330
18
100
AcDbEntity
  8
MOJI
100
AcDbText
 10
576.1420074317084
 20
1862.615977962096
 30
0.0
 40
60.0
  1
4
 41
0.8
  7
EXT08
100
AcDbText
  0
TEXT
  5
433
330
18
100
AcDbEntity
  8
MOJI
100
AcDbText
 10
1506.482788383025
 20
1546.189913094251
 30
0.0
 40
60.0
  1
φ89.1×t3.2
 41
0.8
  7
EXT08
100
AcDbText
  0
TEXT
  5
434
330
18
100
AcDbEntity
  8
MOJI
100
AcDbText
 10
1635.068178564434
 20
1633.210001218699
 30
0.0
 40
60.0
  1
支柱
 41
0.8
  7
EXT08
100
AcDbText
  0
TEXT
  5
435
330
18
100
AcDbEntity
  8
MOJI
100
AcDbText
 10
1541.585474397905
 20
1647.219793120164
 30
0.0
 40
60.0
  1
1
 41
0.8
  7
EXT08
100
AcDbText
  0
TEXT
  5
436
330
18
100
AcDbEntity
  8
MOJI
100
AcDbText
 10
1538.644937262969
 20
1973.393967808413
 30
0.0
 40
60.0
  1
3
 41
0.8
  7
EXT08
100
AcDbText
  0
TEXT
  5
43F
330
18
100
AcDbEntity
  8
MOJI
100
AcDbText
 10
575.4111767562244
 20
2522.569656105253
 30
0.0
 40
60.0
  1
5
 41
0.8
  7
EXT08
100
AcDbText
  0
TEXT
  5
447
330
18
100
AcDbEntity
  8
MOJI
100
AcDbText
 10
3333.127294520864
 20
4665.190808077021
 30
0.0
 40
60.0
  1
%%c6チェーン
 41
0.8
  7
EXT08
100
AcDbText
  0
TEXT
  5
457
330
18
100
AcDbEntity
  8
MOJI
100
AcDbText
 10
709.2036024432664
 20
3683.00086593219
 30
0.0
 40
60.0
  1
GL
 41
0.8
  7
EXT08
100
AcDbText
  0
TEXT
  5
459
330
18
100
AcDbEntity
  8
MOJI
100
AcDbText
 10
1694.970639578325
 20
2576.270205079318
 30
0.0
 40
60.0
  1
擬宝珠
 41
0.8
  7
EXT08
100
AcDbText
  0
TEXT
  5
45A
330
18
100
AcDbEntity
  8
MOJI
100
AcDbText
 10
1603.283950335123
 20
2582.416287873567
 30
0.0
 40
60.0
  1
2
 41
0.8
  7
EXT08
100
AcDbText
  0
TEXT
  5
462
330
18
100
AcDbEntity
  8
MOJI
100
AcDbText
 10
3216.644067132031
 20
3513.096931029004
 30
0.0
 40
60.0
  1
支柱φ89.1×t3.2
 41
0.8
  7
EXT08
100
AcDbText
  0
TEXT
  5
463
330
18
100
AcDbEntity
  8
MOJI
100
AcDbText
 10
3166.07800999647
 20
4373.808306082608
 30
0.0
 40
60.0
  1
チェーン金具
 41
0.8
  7
EXT08
100
AcDbText
  0
TEXT
  5
46B
330
18
100
AcDbEntity
  8
MOJI
100
AcDbText
 10
3161.485333874435
 20
4780.514903038219
 30
0.0
 40
60.0
  1
擬宝珠
 41
0.8
  7
EXT08
100
AcDbText
  0
TEXT
  5
473
330
18
100
AcDbEntity
  8
MOJI
100
AcDbText
 10
4972.84966494029
 20
2184.863190311868
 30
0.0
 40
60.0
  1
M5×15
 41
0.8
  7
EXT08
100
AcDbText
  0
TEXT
  5
474
330
18
100
AcDbEntity
  8
MOJI
100
AcDbText
 10
4874.72314052349
 20
2201.238312138168
 30
0.0
 40
60.0
  1
6
 41
0.8
  7
EXT08
100
AcDbText
  0
CIRCLE
  5
476
330
18
100
AcDbEntity
  8
HASEN
100
AcDbCircle
 10
5923.72085525886
 20
1975.195224686118
 30
0.0
 40
12.4999998137
  0
TEXT
  5
477
330
18
100
AcDbEntity
  8
MOJI
100
AcDbText
 10
5400.657356365275
 20
723.1885123330301
 30
0.0
 40
60.0
  1
%%C5×30
 41
0.8
  7
EXT08
100
AcDbText
  0
TEXT
  5
478
330
18
100
AcDbEntity
  8
MOJI
100
AcDbText
 10
5390.022665651291
 20
623.7032436332523
 30
0.0
 40
60.0
  1
M5×15
 41
0.8
  7
EXT08
100
AcDbText
  0
LINE
  5
479
330
18
100
AcDbEntity
  8
CENTER
100
AcDbLine
 10
6121.8572085819
 20
4733.811397148889
 30
0.0
 11
6121.8572085819
 21
3237.63893409199
 31
0.0
  0
TEXT
  5
47B
330
18
100
AcDbEntity
  8
MOJI
100
AcDbText
 10
656.4920922316304
 20
2523.637883541737
 30
0.0
 40
60.0
  1
平行ピンφ5
 41
0.8
  7
EXT08
100
AcDbText
  0
TEXT
  5
47C
330
18
100
AcDbEntity
  8
MOJI
100
AcDbText
 10
660.1000732838019
 20
1862.6245105305
 30
0.0
 40
60.0
  1
%%c6チェーン
 41
0.8
  7
EXT08
100
AcDbText
  0
DIMENSION
  5
47F
330
18
100
AcDbEntity
  8
SUNPOU
100
AcDbDimension
  2
*D16
 10
6166.3573299891
 20
4895.93969063139
 30
0.0
 11
6119.749471153292
 21
4951.613821292735
 31
0.0
 70
   160
  1
φ89
 71
     5
 42
89.00024281440073
  3
SJC
100
AcDbAlignedDimension
 13
6077.3570871747
 23
4705.15234025679
 33
0.0
 14
6166.3573299891
 24
4705.15234025679
 34
0.0
100
AcDbRotatedDimension
1001
ACAD
1000
DSTYLE
1002
{
1070
    40
1040
20.0
1070
    41
1040
2.0
1070
    42
1040
1.0
1070
    43
1040
6.0
1070
    44
1040
1.0
1070
    73
1070
     0
1070
    74
1070
     0
1070
    77
1070
     1
1070
    78
1070
     8
1070
   140
1040
3.0
1070
   147
1040
1.199999999999999
1070
   172
1070
     1
1070
   176
1070
   256
1070
   177
1070
   256
1070
   178
1070
   256
1070
   271
1070
     1
1070
   275
1070
     1
1070
   279
1070
     2
1070
   340
1005
7A8
1002
}
  0
DIMENSION
  5
480
330
18
100
AcDbEntity
  8
SUNPOU
100
AcDbDimension
  2
*D15
 10
6464.788111675
 20
4560.90002277239
 30
0.0
 11
6404.469392288932
 21
4625.900021803789
 31
0.0
 70
   160
 71
     5
 42
129.999998062799
  3
SJC
100
AcDbAlignedDimension
 13
6141.8572085819
 23
4690.900020835189
 33
0.0
 14
6188.520198014459
 24
4560.90002277239
 34
0.0
 50
90.0
100
AcDbRotatedDimension
1001
ACAD
1000
DSTYLE
1002
{
1070
    40
1040
20.0
1070
    41
1040
2.0
1070
    42
1040
1.0
1070
    43
1040
6.0
1070
    44
1040
1.0
1070
    73
1070
     0
1070
    74
1070
     0
1070
    77
1070
     1
1070
    78
1070
     8
1070
   140
1040
3.0
1070
   147
1040
1.199999999999999
1070
   172
1070
     1
1070
   176
1070
   256
1070
   177
1070
   256
1070
   178
1070
   256
1070
   271
1070
     1
1070
   275
1070
     1
1070
   279
1070
     2
1070
   340
1005
7A8
1002
}
  0
DIMENSION
  5
482
330
18
100
AcDbEntity
  8
SUNPOU
100
AcDbDimension
  2
*D17
 10
1411.487977786924
 20
2615.980041450596
 30
0.0
 11
1315.683464227583
 21
2664.793184768286
 31
0.0
 70
   160
  1
φ89
 71
     5
 42
88.99993763864996
  3
SJC
100
AcDbAlignedDimension
 13
1233.488102509625
 23
2478.356142432096
 33
0.0
 14
1411.487977786924
 24
2478.356142432096
 34
0.0
100
AcDbRotatedDimension
1001
ACAD
1000
DSTYLE
1002
{
1070
    40
1040
20.0
1070
    41
1040
2.0
1070
    42
1040
1.0
1070
    43
1040
6.0
1070
    44
1040
1.0
1070
    73
1070
     0
1070
    74
1070
     0
1070
    77
1070
     1
1070
    78
1070
     8
1070
   140
1040
3.0
1070
   144
1040
0.5
1070
   147
1040
1.199999999999999
1070
   172
1070
     1
1070
   176
1070
   256
1070
   177
1070
   256
1070
   178
1070
   256
1070
   271
1070
     1
1070
   275
1070
     1
1070
   279
1070
     2
1070
   340
1005
7A8
1002
}
  0
DIMENSION
  5
483
330
18
100
AcDbEntity
  8
SUNPOU
100
AcDbDimension
  2
*D4
 10
2338.655107732633
 20
2301.574833733196
 30
0.0
 11
2287.617706025532
 21
2371.574832690096
 31
0.0
 70
   160
 71
     5
 42
69.99999895689985
  3
SJC
100
AcDbAlignedDimension
 13
1416.373044790792
 23
2441.574831646996
 33
0.0
 14
1505.473080084192
 24
2301.574833733196
 34
0.0
 50
90.0
100
AcDbRotatedDimension
1001
ACAD
1000
DSTYLE
1002
{
1070
    40
1040
20.0
1070
    41
1040
2.0
1070
    42
1040
1.0
1070
    43
1040
6.0
1070
    44
1040
1.0
1070
    73
1070
     0
1070
    74
1070
     0
1070
    77
1070
     1
1070
    78
1070
     8
1070
   140
1040
3.0
1070
   144
1040
0.5
1070
   147
1040
1.199999999999999
1070
   172
1070
     1
1070
   176
1070
   256
1070
   177
1070
   256
1070
   178
1070
   256
1070
   271
1070
     1
1070
   275
1070
     1
1070
   279
1070
     2
1070
   340
1005
7A8
1002
}
  0
DIMENSION
  5
484
330
18
100
AcDbEntity
  8
SUNPOU
100
AcDbDimension
  2
*D6
 10
2199.452839299032
 20
381.6745327446959
 30
0.0
 11
2145.452839299032
 21
1281.674519333646
 31
0.0
 70
    32
 71
     5
 42
899.9999865889499
  3
SJC
100
AcDbAlignedDimension
 13
1444.270417781925
 23
2181.674505922596
 33
0.0
 14
1681.884549983425
 24
381.6745327446961
 34
0.0
 50
90.0
100
AcDbRotatedDimension
1001
ACAD
1000
DSTYLE
1002
{
1070
    40
1040
20.0
1070
    41
1040
2.0
1070
    42
1040
1.0
1070
    43
1040
6.0
1070
    44
1040
1.0
1070
    73
1070
     0
1070
    74
1070
     0
1070
    77
1070
     1
1070
    78
1070
     8
1070
   140
1040
3.0
1070
   144
1040
0.5
1070
   147
1040
1.199999999999999
1070
   172
1070
     1
1070
   176
1070
   256
1070
   177
1070
   256
1070
   178
1070
   256
1070
   271
1070
     1
1070
   275
1070
     1
1070
   279
1070
     2
1070
   340
1005
7A8
1002
}
  0
TEXT
  5
485
330
18
100
AcDbEntity
  8
ZWAKU
100
AcDbText
 10
1091.984225245143
 20
5064.020912366464
 30
0.0
 40
60.0
  1
(1/20)
 41
0.8
  7
EXT08
100
AcDbText
  0
TEXT
  5
486
330
18
100
AcDbEntity
  8
ZWAKU
100
AcDbText
 10
2366.553596955763
 20
2806.205670083326
 30
0.0
 40
60.0
  1
(1/10)
 41
0.8
  7
EXT08
100
AcDbText
  0
DIMENSION
  5
487
330
18
100
AcDbEntity
  8
SUNPOU
100
AcDbDimension
  2
*D3
 10
2455.947891629333
 20
381.6745327446959
 30
0.0
 11
2401.947891629333
 21
1411.624682195846
 31
0.0
 70
    32
  1
1030
 71
     5
 42
1029.95014945115
  3
SJC
100
AcDbAlignedDimension
 13
1371.170443285325
 23
2441.574831646996
 33
0.0
 14
1681.884549983425
 24
381.6745327446961
 34
0.0
 50
90.0
100
AcDbRotatedDimension
1001
ACAD
1000
DSTYLE
1002
{
1070
    40
1040
20.0
1070
    41
1040
2.0
1070
    42
1040
1.0
1070
    43
1040
6.0
1070
    44
1040
1.0
1070
    73
1070
     0
1070
    74
1070
     0
1070
    77
1070
     1
1070
    78
1070
     8
1070
   140
1040
3.0
1070
   144
1040
0.5
1070
   147
1040
1.199999999999999
1070
   172
1070
     1
1070
   176
1070
   256
1070
   177
1070
   256
1070
   178
1070
   256
1070
   271
1070
     1
1070
   275
1070
     1
1070
   279
1070
     2
1070
   340
1005
7A8
1002
}
  0
DIMENSION
  5
488
330
18
100
AcDbEntity
  8
SUNPOU
100
AcDbDimension
  2
*D5
 10
2338.655107732633
 20
381.6745327446959
 30
0.0
 11
2284.655107732633
 21
1341.624683238946
 31
0.0
 70
    32
  1
960
 71
     5
 42
959.95015049425
  3
SJC
100
AcDbAlignedDimension
 13
1480.270478578724
 23
2301.574833733196
 33
0.0
 14
1681.884549983425
 24
381.6745327446961
 34
0.0
 50
90.0
100
AcDbRotatedDimension
1001
ACAD
1000
DSTYLE
1002
{
1070
    40
1040
20.0
1070
    41
1040
2.0
1070
    42
1040
1.0
1070
    43
1040
6.0
1070
    44
1040
1.0
1070
    73
1070
     0
1070
    74
1070
     0
1070
    77
1070
     1
1070
    78
1070
     8
1070
   140
1040
3.0
1070
   144
1040
0.5
1070
   147
1040
1.199999999999999
1070
   172
1070
     1
1070
   176
1070
   256
1070
   177
1070
   256
1070
   178
1070
   256
1070
   271
1070
     1
1070
   275
1070
     1
1070
   279
1070
     2
1070
   340
1005
7A8
1002
}
  0
LINE
  5
489
330
18
100
AcDbEntity
  8
CENTER
100
AcDbLine
 10
5813.71963619496
 20
2130.695253631619
 30
0.0
 11
5813.71963619496
 21
2030.695253631618
 31
0.0
  0
LWPOLYLINE
  5
48A
330
18
100
AcDbEntity
  8
SJC2
100
AcDbPolyline
 90
        6
 70
     1
 43
0.0
 10
5798.71963619496
 20
1861.034941702774
 10
5813.71963619496
 20
1852.374687664929
 10
5828.719636194961
 20
1861.034941702774
 10
5828.719636194961
 20
1878.355449778462
 10
5813.71963619496
 20
1887.015703816307
 10
5798.71963619496
 20
1878.355449778462
  0
LINE
  5
492
330
18
100
AcDbEntity
  8
CENTER
100
AcDbLine
 10
5813.71963619496
 20
1919.695195740618
 30
0.0
 11
5813.71963619496
 21
1819.695195740618
 31
0.0
  0
LWPOLYLINE
  5
493
330
18
100
AcDbEntity
  8
SJC2
100
AcDbPolyline
 90
        6
 70
     1
 43
0.0
 10
5798.71963619496
 20
2072.034999593774
 10
5813.71963619496
 20
2063.37474555593
 10
5828.719636194961
 20
2072.034999593774
 10
5828.719636194961
 20
2089.355507669463
 10
5813.71963619496
 20
2098.015761707307
 10
5798.71963619496
 20
2089.355507669463
  0
SOLID
  5
49B
330
18
100
AcDbEntity
  8
MOJI
100
AcDbTrace
 10
5972.409014536268
 20
1956.037512792063
 30
0.0
 11
5976.363809230234
 21
1968.770830376508
 31
0.0
 12
5936.186459129913
 22
1974.268555666186
 32
0.0
 13
5936.186459129913
 23
1974.268555666186
 33
0.0
  0
LINE
  5
49C
330
18
100
AcDbEntity
  8
MOJI
100
AcDbLine
 10
5974.38641188325
 20
1962.404171584286
 30
0.0
 11
6193.838767790111
 21
1894.245264295338
 31
0.0
  0
TEXT
  5
49E
330
18
100
AcDbEntity
  8
MOJI
100
AcDbText
 10
6216.876763422796
 20
1865.119492518535
 30
0.0
 40
60.0
  1
5
 41
0.8
  7
EXT08
100
AcDbText
  0
DIMENSION
  5
49F
330
18
100
AcDbEntity
  8
SUNPOU
100
AcDbDimension
  2
*D12
 10
6736.144253057045
 20
3260.90065249539
 30
0.0
 11
6682.144253057045
 21
3975.90033666529
 31
0.0
 70
    32
 71
     5
 42
1429.9993683398
  3
SJC
100
AcDbAlignedDimension
 13
6141.8572085819
 23
4690.900020835189
 33
0.0
 14
6270.4576702348
 24
3260.90065249539
 34
0.0
 50
90.0
100
AcDbRotatedDimension
1001
ACAD
1000
DSTYLE
1002
{
1070
    40
1040
20.0
1070
    41
1040
2.0
1070
    42
1040
1.0
1070
    43
1040
6.0
1070
    44
1040
1.0
1070
    73
1070
     0
1070
    74
1070
     0
1070
    77
1070
     1
1070
    78
1070
     8
1070
   140
1040
3.0
1070
   147
1040
1.199999999999999
1070
   172
1070
     1
1070
   176
1070
   256
1070
   177
1070
   256
1070
   178
1070
   256
1070
   271
1070
     1
1070
   275
1070
     1
1070
   279
1070
     2
1070
   340
1005
7A8
1002
}
  0
TEXT
  5
4A1
330
18
100
AcDbEntity
  8
MOJI
100
AcDbText
 10
4835.002066205205
 20
923.863511547155
 30
0.0
 40
60.0
  1
アルミ合金
 41
0.8
  7
EXT08
100
AcDbText
  0
TEXT
  5
4A2
330
18
100
AcDbEntity
  8
MOJI
100
AcDbText
 10
5401.668278026533
 20
921.7405919113414
 30
0.0
 40
60.0
  1
焼付塗装
 41
0.8
  7
EXT08
100
AcDbText
  0
TEXT
  5
4A3
330
18
100
AcDbEntity
  8
MOJI2
100
AcDbText
 10
837.8787349190442
 20
5060.122093803154
 30
0.0
 40
80.0
  1
設置図
 41
0.8
  7
EXT08
100
AcDbText
  0
LINE
  5
4A4
330
18
100
AcDbEntity
  8
MOJI2
100
AcDbLine
 10
813.9288396751908
 20
5045.628461881697
 30
0.0
 11
1066.177613830165
 21
5045.628461881697
 31
0.0
  0
LINE
  5
4A5
330
18
100
AcDbEntity
  8
MOJI2
100
AcDbLine
 10
2038.297585373595
 20
2781.332719019883
 30
0.0
 11
2297.844556141816
 21
2781.332719019883
 31
0.0
  0
TEXT
  5
4A6
330
18
100
AcDbEntity
  8
MOJI2
100
AcDbText
 10
2064.815994454582
 20
2795.826350941341
 30
0.0
 40
80.0
  1
支柱図
 41
0.8
  7
EXT08
100
AcDbText
  0
LINE
  5
4A7
330
18
100
AcDbEntity
  8
MOJI2
100
AcDbLine
 10
4989.63709726679
 20
2734.397938637392
 30
0.0
 11
5398.387617950379
 21
2734.397938637392
 31
0.0
  0
TEXT
  5
4A8
330
18
100
AcDbEntity
  8
MOJI2
100
AcDbText
 10
5013.586992510643
 20
2748.891570558849
 30
0.0
 40
80.0
  1
取付詳細図
 41
0.8
  7
EXT08
100
AcDbText
  0
TEXT
  5
4A9
330
18
100
AcDbEntity
  8
MOJI
100
AcDbText
 10
5883.267428734156
 20
5041.887960497187
 30
0.0
 40
70.0
  1
CR3-2A89
 41
0.8
  7
EXT08
100
AcDbText
  0
TEXT
  5
4AA
330
18
100
AcDbEntity
  8
MOJI
100
AcDbText
 10
1628.63633375397
 20
1969.456751507953
 30
0.0
 40
60.0
  1
チェーン金具
 41
0.8
  7
EXT08
100
AcDbText
  0
DIMENSION
  5
4AB
330
18
100
AcDbEntity
  8
SUNPOU
100
AcDbDimension
  2
*D13
 10
6603.833152041473
 20
3660.90064653499
 30
0.0
 11
6549.833152041472
 21
4175.900447507491
 31
0.0
 70
    32
 71
     5
 42
1029.999601944999
  3
SJC
100
AcDbAlignedDimension
 13
6121.857208581899
 23
4690.900248479989
 33
0.0
 14
6430.4582782021
 24
3660.90064653499
 34
0.0
 50
90.0
100
AcDbRotatedDimension
1001
ACAD
1000
DSTYLE
1002
{
1070
    40
1040
20.0
1070
    41
1040
2.0
1070
    42
1040
1.0
1070
    43
1040
6.0
1070
    44
1040
1.0
1070
    73
1070
     0
1070
    74
1070
     0
1070
    77
1070
     1
1070
    78
1070
     8
1070
   140
1040
3.0
1070
   147
1040
1.199999999999999
1070
   172
1070
     1
1070
   176
1070
   256
1070
   177
1070
   256
1070
   178
1070
   256
1070
   271
1070
     1
1070
   275
1070
     1
1070
   279
1070
     2
1070
   340
1005
7A8
1002
}
  0
DIMENSION
  5
4AC
330
18
100
AcDbEntity
  8
SUNPOU
100
AcDbDimension
  2
*D14
 10
6603.833152041473
 20
3260.90065249539
 30
0.0
 11
6549.833152041472
 21
3460.900649515191
 31
0.0
 70
    32
 71
     5
 42
399.9999940396001
  3
SJC
100
AcDbAlignedDimension
 13
6450.4582782021
 23
3660.90064653499
 33
0.0
 14
6270.4576702348
 24
3260.90065249539
 34
0.0
 50
90.0
100
AcDbRotatedDimension
1001
ACAD
1000
DSTYLE
1002
{
1070
    40
1040
20.0
1070
    41
1040
2.0
1070
    42
1040
1.0
1070
    43
1040
6.0
1070
    44
1040
1.0
1070
    73
1070
     0
1070
    74
1070
     0
1070
    77
1070
     1
1070
    78
1070
     8
1070
   140
1040
3.0
1070
   147
1040
1.199999999999999
1070
   172
1070
     1
1070
   176
1070
   256
1070
   177
1070
   256
1070
   178
1070
   256
1070
   271
1070
     1
1070
   275
1070
     1
1070
   279
1070
     2
1070
   340
1005
7A8
1002
}
  0
TEXT
  5
4AD
330
18
100
AcDbEntity
  8
MOJI
100
AcDbText
 10
4896.532456615467
 20
624.7852613036961
 30
0.0
 40
60.0
  1
SUS
 41
0.8
  7
EXT08
100
AcDbText
  0
LINE
  5
4BB
330
18
100
AcDbEntity
  8
SJC2
100
AcDbLine
 10
1154.2973155633
 20
4154.499876383289
 30
0.0
 11
1134.479810975799
 21
4157.19763024939
 31
0.0
  0
LINE
  5
4BC
330
18
100
AcDbEntity
  8
SJC2
100
AcDbLine
 10
1155.1061839595
 20
4160.445921216589
 30
0.0
 11
1135.2888319598
 21
4163.14245437959
 31
0.0
  0
LINE
  5
4BD
330
18
100
AcDbEntity
  8
SJC2
100
AcDbLine
 10
1153.2182140169
 20
4146.573851110789
 30
0.0
 11
1133.4010146051
 21
4149.27038427379
 31
0.0
  0
LINE
  5
4BE
330
18
100
AcDbEntity
  8
SJC2
100
AcDbLine
 10
1152.4093456207
 20
4140.62780627759
 30
0.0
 11
1132.591993621099
 21
4143.32556014359
 31
0.0
  0
ARC
  5
4BF
330
18
100
AcDbEntity
  8
SJC
100
AcDbCircle
 10
1099.5548839601
 20
4160.90063312389
 30
0.0
 40
44.70717840329999
100
AcDbArc
 50
137.8531446413
 51
222.1468553587
  0
LINE
  5
4C0
330
18
100
AcDbEntity
  8
SJC2
100
AcDbLine
 10
1098.8084247886
 20
4162.05236650519
 30
0.0
 11
1087.594893461501
 21
4163.57824538869
 31
0.0
  0
LINE
  5
4C1
330
18
100
AcDbEntity
  8
SJC2
100
AcDbLine
 10
1099.6177509484
 20
4167.997190635289
 30
0.0
 11
1086.4390402073
 21
4169.79040349929
 31
0.0
  0
LINE
  5
4C2
330
18
100
AcDbEntity
  8
SJC
100
AcDbLine
 10
1096.9207600218
 20
4148.179686047789
 30
0.0
 11
1086.146681813199
 21
4149.64636083069
 31
0.0
  0
LINE
  5
4C3
330
18
100
AcDbEntity
  8
SJC2
100
AcDbLine
 10
1097.729781005801
 20
4154.12512052959
 30
0.0
 11
1087.2604208103
 21
4155.54968105519
 31
0.0
  0
ARC
  5
4C4
330
18
100
AcDbEntity
  8
SJC2
100
AcDbCircle
 10
1099.0601948044
 20
4158.15771324289
 30
0.0
 40
3.000435718
100
AcDbArc
 50
82.24900687979999
 51
262.2490068798
  0
ARC
  5
4C5
330
18
100
AcDbEntity
  8
SJC2
100
AcDbCircle
 10
1133.939808278399
 20
4153.23424822299
 30
0.0
 40
4.0
100
AcDbArc
 50
82.24134111759999
 51
123.6477995767
  0
ARC
  5
4C6
330
18
100
AcDbEntity
  8
SJC2
100
AcDbCircle
 10
1098.2692058417
 20
4158.08853668459
 30
0.0
 40
9.999999851
100
AcDbArc
 50
9.706417565599998
 51
82.24979285100001
  0
ARC
  5
4C7
330
18
100
AcDbEntity
  8
SJC2
100
AcDbCircle
 10
1098.269002729199
 20
4158.08890541139
 30
0.0
 40
4.0
100
AcDbArc
 50
40.840173356
 51
82.24973490169999
  0
ARC
  5
4C8
330
18
100
AcDbEntity
  8
SJC2
100
AcDbCircle
 10
1098.269783703199
 20
4158.08850255589
 30
0.0
 40
4.0
100
AcDbArc
 50
262.2413411177
 51
303.6477995767
  0
ARC
  5
4C9
330
18
100
AcDbEntity
  8
SJC2
100
AcDbCircle
 10
1098.2690197225
 20
4158.08837883749
 30
0.0
 40
9.999999851
100
AcDbArc
 50
262.2514431789
 51
334.7944553205
  0
ARC
  5
4CA
330
18
100
AcDbEntity
  8
SJC2
100
AcDbCircle
 10
1132.749540615799
 20
4153.57305754949
 30
0.0
 40
3.0001230411
100
AcDbArc
 50
262.249664578
 51
82.249664578
  0
LINE
  5
4CB
330
18
100
AcDbEntity
  8
SJC2
100
AcDbLine
 10
1098.6555317245
 20
4155.184690826289
 30
0.0
 11
1132.344953829899
 21
4150.60034030859
 31
0.0
  0
LINE
  5
4CC
330
18
100
AcDbEntity
  8
SJC2
100
AcDbLine
 10
1099.4648578843
 20
4161.130735659489
 30
0.0
 11
1133.1541274018
 21
4156.54577479039
 31
0.0
  0
ARC
  5
4CD
330
18
100
AcDbEntity
  8
SJC2
100
AcDbCircle
 10
1133.940302249601
 20
4153.23379833339
 30
0.0
 40
9.999999851
100
AcDbArc
 50
82.2498818799
 51
154.7908228795
  0
ARC
  5
4CE
330
18
100
AcDbEntity
  8
SJC2
100
AcDbCircle
 10
1133.9406096004
 20
4153.233821827289
 30
0.0
 40
4.0
100
AcDbArc
 50
220.8397276573
 51
262.2472349334
  0
ARC
  5
4CF
330
18
100
AcDbEntity
  8
SJC2
100
AcDbCircle
 10
1133.940588045099
 20
4153.234207382189
 30
0.0
 40
9.999999851
100
AcDbArc
 50
189.7099264137
 51
262.2495076787
  0
ARC
  5
4D0
330
18
100
AcDbEntity
  8
SJC
100
AcDbCircle
 10
1055.931074742999
 20
4160.90063312389
 30
0.0
 40
31.7767353091
100
AcDbArc
 50
289.2503683672
 51
70.7496316328
  0
LINE
  5
4D1
330
18
100
AcDbEntity
  8
SJC2
100
AcDbLine
 10
1244.3401914188
 20
4135.79199091989
 30
0.0
 11
1210.6507693134
 21
4140.37756214069
 31
0.0
  0
LINE
  5
4D2
330
18
100
AcDbEntity
  8
SJC2
100
AcDbLine
 10
1245.1492124029
 20
4141.737425401589
 30
0.0
 11
1211.4597902975
 21
4146.32238627079
 31
0.0
  0
ARC
  5
4D3
330
18
100
AcDbEntity
  8
SJC2
100
AcDbCircle
 10
1208.0553950397
 20
4143.32397476059
 30
0.0
 40
9.999999851
100
AcDbArc
 50
262.2514431789
 51
334.7944553205
  0
ARC
  5
4D4
330
18
100
AcDbEntity
  8
SJC2
100
AcDbCircle
 10
1210.0047795013
 20
4143.05898914699
 30
0.0
 40
3.000000074499999
100
AcDbArc
 50
81.6222415268
 51
262.8755155298
  0
ARC
  5
4D5
330
18
100
AcDbEntity
  8
SJC2
100
AcDbCircle
 10
1208.0555847955
 20
4143.324111347189
 30
0.0
 40
9.999999851
100
AcDbArc
 50
9.706541148699999
 51
82.25069620220001
  0
ARC
  5
4D6
330
18
100
AcDbEntity
  8
SJC2
100
AcDbCircle
 10
1208.0562856786
 20
4143.324081220089
 30
0.0
 40
4.0
100
AcDbArc
 50
262.2395101065
 51
303.6482457442
  0
LINE
  5
4D7
330
18
100
AcDbEntity
  8
SJC2
100
AcDbLine
 10
1206.707135339
 20
4133.415281970989
 30
0.0
 11
1186.8897833394
 21
4136.112425485491
 31
0.0
  0
ARC
  5
4D8
330
18
100
AcDbEntity
  8
SJC2
100
AcDbCircle
 10
1153.757335350399
 20
4150.536535797989
 30
0.0
 40
9.999999851
100
AcDbArc
 50
262.2530042499
 51
334.7980877336
  0
ARC
  5
4D9
330
18
100
AcDbEntity
  8
SJC2
100
AcDbCircle
 10
1153.7583433724
 20
4150.53721587819
 30
0.0
 40
4.0
100
AcDbArc
 50
262.2395101065
 51
303.6482457442
  0
ARC
  5
4DA
330
18
100
AcDbEntity
  8
SJC2
100
AcDbCircle
 10
1153.7590898133
 20
4150.53625265729
 30
0.0
 40
4.0
100
AcDbArc
 50
40.866370019
 51
82.2670283911
  0
ARC
  5
4DB
330
18
100
AcDbEntity
  8
SJC2
100
AcDbCircle
 10
1153.757638852699
 20
4150.537267265891
 30
0.0
 40
9.999999851
100
AcDbArc
 50
9.706417565599998
 51
82.24979285100001
  0
ARC
  5
4DC
330
18
100
AcDbEntity
  8
SJC2
100
AcDbCircle
 10
1188.2381011558
 20
4146.02068319249
 30
0.0
 40
9.999999851
100
AcDbArc
 50
82.24905268349999
 51
154.7909464765
  0
LINE
  5
4DD
330
18
100
AcDbEntity
  8
SJC2
100
AcDbLine
 10
1209.4039736777
 20
4153.232786558489
 30
0.0
 11
1189.586774266
 21
4155.92931972139
 31
0.0
  0
ARC
  5
4DE
330
18
100
AcDbEntity
  8
SJC2
100
AcDbCircle
 10
1208.055803169
 20
4143.32383314759
 30
0.0
 40
4.0
100
AcDbArc
 50
40.85282573219999
 51
82.2558804281
  0
ARC
  5
4DF
330
18
100
AcDbEntity
  8
SJC2
100
AcDbCircle
 10
1188.237471338499
 20
4146.02113082389
 30
0.0
 40
4.0
100
AcDbArc
 50
82.23951010649999
 51
123.6482457442
  0
LINE
  5
4E0
330
18
100
AcDbEntity
  8
SJC2
100
AcDbLine
 10
1208.5948001058
 20
4147.28735207679
 30
0.0
 11
1188.777600694
 21
4149.98449559129
 31
0.0
  0
LINE
  5
4E1
330
18
100
AcDbEntity
  8
SJC2
100
AcDbLine
 10
1207.516156323
 20
4139.36071645269
 30
0.0
 11
1187.6989569113
 21
4142.05785996719
 31
0.0
  0
ARC
  5
4E2
330
18
100
AcDbEntity
  8
SJC2
100
AcDbCircle
 10
1188.237435108
 20
4146.021449404989
 30
0.0
 40
4.0
100
AcDbArc
 50
220.8541609809
 51
262.2633791562
  0
ARC
  5
4E3
330
18
100
AcDbEntity
  8
SJC2
100
AcDbCircle
 10
1188.238172221599
 20
4146.02110069669
 30
0.0
 40
9.999999851
100
AcDbArc
 50
189.7065411486999
 51
262.2506962022
  0
ARC
  5
4E4
330
18
100
AcDbEntity
  8
SJC2
100
AcDbCircle
 10
1188.2716319507
 20
4146.01632324769
 30
0.0
 40
3.000000074499999
100
AcDbArc
 50
261.6059685522
 51
82.8946762744
  0
LINE
  5
4E5
330
18
100
AcDbEntity
  8
SJC2
100
AcDbLine
 10
1188.6427130007
 20
4148.993284668489
 30
0.0
 11
1154.953290895299
 21
4153.57824553769
 31
0.0
  0
ARC
  5
4E6
330
18
100
AcDbEntity
  8
SJC2
100
AcDbCircle
 10
1154.5153509613
 20
4150.61038282839
 30
0.0
 40
3.000000074499999
100
AcDbArc
 50
81.60596855199999
 51
262.8946762747
  0
LINE
  5
4E7
330
18
100
AcDbEntity
  8
SJC2
100
AcDbLine
 10
1187.8336920167
 20
4143.04846053839
 30
0.0
 11
1154.144269911299
 21
4147.63342140749
 31
0.0
  0
ARC
  5
4E8
330
18
100
AcDbEntity
  8
KASOU
100
AcDbCircle
 10
2021.8572515114
 20
10613.10432802169
 30
0.0
 40
6530.7738284651
100
AcDbArc
 50
263.1546501276
 51
276.8572450027
  0
ARC
  5
4E9
330
18
100
AcDbEntity
  8
KASOU
100
AcDbCircle
 10
2021.857710526
 20
10633.10418947839
 30
0.0
 40
6530.7738284651
100
AcDbArc
 50
263.1593138472
 51
276.8477407159
  0
ARC
  5
4EA
330
18
100
AcDbEntity
  8
CENTER
100
AcDbCircle
 10
2021.8560732005
 20
10623.10440583989
 30
0.0
 40
6530.7738284651
100
AcDbArc
 50
263.1488628346
 51
276.8444006199
  0
LINE
  5
4EB
330
18
100
AcDbEntity
  8
SJC2
100
AcDbLine
 10
2945.0603809199
 20
4155.184690826289
 30
0.0
 11
2911.3708062266
 21
4150.60034030859
 31
0.0
  0
LINE
  5
4EC
330
18
100
AcDbEntity
  8
SJC2
100
AcDbLine
 10
2944.2510547601
 20
4161.130735659489
 30
0.0
 11
2910.5614800668
 21
4156.54577479039
 31
0.0
  0
ARC
  5
4ED
330
18
100
AcDbEntity
  8
SJC2
100
AcDbCircle
 10
2855.4775155007
 20
4146.020663675289
 30
0.0
 40
9.999999851
100
AcDbArc
 50
25.2091771205
 51
97.75011812009999
  0
ARC
  5
4EE
330
18
100
AcDbEntity
  8
SJC2
100
AcDbCircle
 10
2855.4783146476
 20
4146.02111356489
 30
0.0
 40
4.0
100
AcDbArc
 50
56.35220042330001
 51
97.75865888230001
  0
ARC
  5
4EF
330
18
100
AcDbEntity
  8
SJC2
100
AcDbCircle
 10
2855.4784978475
 20
4146.02147289059
 30
0.0
 40
4.0
100
AcDbArc
 50
277.7341215046
 51
319.1453942581
  0
ARC
  5
4F0
330
18
100
AcDbEntity
  8
SJC2
100
AcDbCircle
 10
2855.4775841983
 20
4146.02107943619
 30
0.0
 40
9.999999851
100
AcDbArc
 50
277.750207149
 51
350.2935824344
  0
ARC
  5
4F1
330
18
100
AcDbEntity
  8
SJC2
100
AcDbCircle
 10
2855.4423620386
 20
4146.01608471329
 30
0.0
 40
3.000000074499999
100
AcDbArc
 50
97.0683980125
 51
278.4251815611
  0
LINE
  5
4F2
330
18
100
AcDbEntity
  8
SJC2
100
AcDbLine
 10
2855.0731996436
 20
4148.993284668489
 30
0.0
 11
2888.7624691611
 21
4153.57824553769
 31
0.0
  0
LINE
  5
4F3
330
18
100
AcDbEntity
  8
SJC2
100
AcDbLine
 10
2855.881915451901
 20
4143.04846053839
 30
0.0
 11
2889.5714901452
 21
4147.63342140749
 31
0.0
  0
LINE
  5
4F4
330
18
100
AcDbEntity
  8
SJC2
100
AcDbLine
 10
2799.375568637601
 20
4135.79199091989
 30
0.0
 11
2833.0651433309
 21
4140.37756214069
 31
0.0
  0
LINE
  5
4F5
330
18
100
AcDbEntity
  8
SJC2
100
AcDbLine
 10
2798.5665476536
 20
4141.737425401589
 30
0.0
 11
2832.2558171711
 21
4146.32238627079
 31
0.0
  0
ARC
  5
4F6
330
18
100
AcDbEntity
  8
SJC2
100
AcDbCircle
 10
2835.6603650168
 20
4143.32397476059
 30
0.0
 40
9.999999851
100
AcDbArc
 50
205.2055446795
 51
277.7485568211
  0
ARC
  5
4F7
330
18
100
AcDbEntity
  8
SJC2
100
AcDbCircle
 10
2835.6593477244
 20
4143.32406395759
 30
0.0
 40
4.0
100
AcDbArc
 50
236.3513080036999
 51
277.7623208435
  0
LINE
  5
4F8
330
18
100
AcDbEntity
  8
SJC2
100
AcDbLine
 10
2837.008624717501
 20
4133.415281970989
 30
0.0
 11
2856.826129305
 21
4136.112425485491
 31
0.0
  0
ARC
  5
4F9
330
18
100
AcDbEntity
  8
SJC2
100
AcDbCircle
 10
2833.710110686899
 20
4143.058861171289
 30
0.0
 40
3.000000074499999
100
AcDbArc
 50
277.1441643106
 51
98.3609663832
  0
LINE
  5
4FA
330
18
100
AcDbEntity
  8
SJC2
100
AcDbLine
 10
2834.3117863787
 20
4153.232786558489
 30
0.0
 11
2854.1289857905
 21
4155.92931972139
 31
0.0
  0
ARC
  5
4FB
330
18
100
AcDbEntity
  8
SJC2
100
AcDbCircle
 10
2835.6600190369
 20
4143.32409008919
 30
0.0
 40
9.999999851
100
AcDbArc
 50
97.74840045080001
 51
170.2933352831
  0
ARC
  5
4FC
330
18
100
AcDbEntity
  8
SJC2
100
AcDbCircle
 10
2835.659804299501
 20
4143.32383314759
 30
0.0
 40
4.0
100
AcDbArc
 50
97.74411957190002
 51
139.1471742678
  0
LINE
  5
4FD
330
18
100
AcDbEntity
  8
SJC2
100
AcDbLine
 10
2835.1208073628
 20
4147.28735207679
 30
0.0
 11
2854.9383119503
 21
4149.98449559129
 31
0.0
  0
LINE
  5
4FE
330
18
100
AcDbEntity
  8
SJC2
100
AcDbLine
 10
2836.1996037334
 20
4139.36071645269
 30
0.0
 11
2856.0168031452
 21
4142.05785996719
 31
0.0
  0
ARC
  5
4FF
330
18
100
AcDbEntity
  8
SJC2
100
AcDbCircle
 10
2909.7757991901
 20
4153.23424822299
 30
0.0
 40
4.0
100
AcDbArc
 50
56.35220042330001
 51
97.75865888230001
  0
LINE
  5
500
330
18
100
AcDbEntity
  8
SJC2
100
AcDbLine
 10
2889.4182919053
 20
4154.499876383289
 30
0.0
 11
2909.2357964928
 21
4157.19763024939
 31
0.0
  0
LINE
  5
501
330
18
100
AcDbEntity
  8
SJC2
100
AcDbLine
 10
2888.609576097
 20
4160.445921216589
 30
0.0
 11
2908.4270806845
 21
4163.14245437959
 31
0.0
  0
ARC
  5
502
330
18
100
AcDbEntity
  8
SJC2
100
AcDbCircle
 10
2910.966143146699
 20
4153.57305754949
 30
0.0
 40
3.000133330799999
100
AcDbArc
 50
97.75177915429999
 51
277.7517791543
  0
ARC
  5
503
330
18
100
AcDbEntity
  8
SJC2
100
AcDbCircle
 10
2909.7756103947
 20
4153.23379833339
 30
0.0
 40
9.999999851
100
AcDbArc
 50
25.2091771205
 51
97.75011812009999
  0
ARC
  5
504
330
18
100
AcDbEntity
  8
SJC2
100
AcDbCircle
 10
2889.958424706
 20
4150.536535797989
 30
0.0
 40
9.999999851
100
AcDbArc
 50
205.2019122664
 51
277.7469957501
  0
ARC
  5
505
330
18
100
AcDbEntity
  8
SJC2
100
AcDbCircle
 10
2889.9573907543
 20
4150.53723313719
 30
0.0
 40
4.0
100
AcDbArc
 50
236.3522004233
 51
277.7586588823
  0
ARC
  5
506
330
18
100
AcDbEntity
  8
SJC2
100
AcDbCircle
 10
2889.9566905604
 20
4150.53627614009
 30
0.0
 40
4.0
100
AcDbArc
 50
97.73547102930001
 51
139.1340747698
  0
ARC
  5
507
330
18
100
AcDbEntity
  8
SJC2
100
AcDbCircle
 10
2889.9581212037
 20
4150.537267265891
 30
0.0
 40
9.999999851
100
AcDbArc
 50
97.750207149
 51
170.2935824344
  0
ARC
  5
508
330
18
100
AcDbEntity
  8
SJC2
100
AcDbCircle
 10
2909.7753030439
 20
4153.233821827289
 30
0.0
 40
4.0
100
AcDbArc
 50
277.7527650666
 51
319.1602723427
  0
LINE
  5
509
330
18
100
AcDbEntity
  8
SJC2
100
AcDbLine
 10
2890.4973934517
 20
4146.573851110789
 30
0.0
 11
2910.3148980392
 21
4149.27038427379
 31
0.0
  0
LINE
  5
50A
330
18
100
AcDbEntity
  8
SJC2
100
AcDbLine
 10
2891.3064144357
 20
4140.62780627759
 30
0.0
 11
2911.1236138474
 21
4143.32556014359
 31
0.0
  0
ARC
  5
50B
330
18
100
AcDbEntity
  8
SJC2
100
AcDbCircle
 10
2909.7751756494
 20
4153.234228643789
 30
0.0
 40
9.999999851
100
AcDbArc
 50
277.7495889608
 51
350.2899499962
  0
ARC
  5
50C
330
18
100
AcDbEntity
  8
SJC2
100
AcDbCircle
 10
2889.1335502111
 20
4150.60128411679
 30
0.0
 40
3.000000074499999
100
AcDbArc
 50
278.3940314481
 51
97.10532372520001
  0
LINE
  5
50D
330
18
100
AcDbEntity
  8
SJC2
100
AcDbLine
 10
2946.795000034601
 20
4148.179686047789
 30
0.0
 11
2957.568925655399
 21
4149.64636083069
 31
0.0
  0
LINE
  5
50E
330
18
100
AcDbEntity
  8
SJC2
100
AcDbLine
 10
2945.9859790506
 20
4154.12512052959
 30
0.0
 11
2956.4553392462
 21
4155.54968105519
 31
0.0
  0
ARC
  5
50F
330
18
100
AcDbEntity
  8
SJC2
100
AcDbCircle
 10
2944.65571784
 20
4158.15771324289
 30
0.0
 40
3.000435718
100
AcDbArc
 50
277.7509931202
 51
97.75099312020003
  0
LINE
  5
510
330
18
100
AcDbEntity
  8
SJC2
100
AcDbLine
 10
2944.90718268
 20
4162.05236650519
 30
0.0
 11
2956.8300951
 21
4163.674680934088
 31
0.0
  0
LINE
  5
511
330
18
100
AcDbEntity
  8
SJC2
100
AcDbLine
 10
2944.0978565201
 20
4167.997190635289
 30
0.0
 11
2958.7002122596
 21
4169.984495293189
 31
0.0
  0
ARC
  5
512
330
18
100
AcDbEntity
  8
SJC2
100
AcDbCircle
 10
2945.446401626899
 20
4158.08853668459
 30
0.0
 40
9.999999851
100
AcDbArc
 50
97.750207149
 51
170.2935824344
  0
ARC
  5
513
330
18
100
AcDbEntity
  8
SJC2
100
AcDbCircle
 10
2945.446777675301
 20
4158.08892895159
 30
0.0
 40
4.0
100
AcDbArc
 50
97.75276506659999
 51
139.1602723427
  0
ARC
  5
514
330
18
100
AcDbEntity
  8
SJC2
100
AcDbCircle
 10
2945.4459763533
 20
4158.08850255589
 30
0.0
 40
4.0
100
AcDbArc
 50
236.3522004233
 51
277.7586588823
  0
ARC
  5
515
330
18
100
AcDbEntity
  8
SJC2
100
AcDbCircle
 10
2945.446740333901
 20
4158.08837883749
 30
0.0
 40
9.999999851
100
AcDbArc
 50
205.2055446795
 51
277.7485568211
  0
ARC
  5
516
330
18
100
AcDbEntity
  8
SJC
100
AcDbCircle
 10
2987.7837697861
 20
4160.90063312389
 30
0.0
 40
31.7767353091
100
AcDbArc
 50
109.2503683672
 51
250.7496316328
  0
ARC
  5
517
330
18
100
AcDbEntity
  8
SJC
100
AcDbCircle
 10
2944.159960569001
 20
4160.90063312389
 30
0.0
 40
44.70717840329999
100
AcDbArc
 50
317.8531446413
 51
42.1468553587
  0
LINE
  5
518
330
18
100
AcDbEntity
  8
SJC
100
AcDbLine
 10
2977.307389716699
 20
4190.900295483369
 30
0.0
 11
2977.307389716699
 21
4530.900633570889
 31
0.0
  0
LINE
  5
519
330
18
100
AcDbEntity
  8
SJC
100
AcDbLine
 10
1066.4077599882
 20
4190.900632676823
 30
0.0
 11
1066.4077599882
 21
4530.900633570889
 31
0.0
  0
ARC
  5
51A
330
18
100
AcDbEntity
  8
CENTER
100
AcDbCircle
 10
4021.8560732005
 20
10623.10440583989
 30
0.0
 40
6530.7738284651
100
AcDbArc
 50
263.1488628346
 51
276.8444006199
  0
ARC
  5
51B
330
18
100
AcDbEntity
  8
KASOU
100
AcDbCircle
 10
4021.857710526
 20
10633.10418947839
 30
0.0
 40
6530.7738284651
100
AcDbArc
 50
263.1593138472
 51
276.8477407159
  0
ARC
  5
51C
330
18
100
AcDbEntity
  8
KASOU
100
AcDbCircle
 10
4021.8572515114
 20
10613.10432802169
 30
0.0
 40
6530.7738284651
100
AcDbArc
 50
263.1546501276
 51
276.8572450027
  0
LINE
  5
51D
330
18
100
AcDbEntity
  8
SJC2
100
AcDbLine
 10
3152.4093456207
 20
4140.62780627759
 30
0.0
 11
3132.591993621101
 21
4143.32556014359
 31
0.0
  0
LINE
  5
51E
330
18
100
AcDbEntity
  8
SJC2
100
AcDbLine
 10
3153.2182140169
 20
4146.573851110789
 30
0.0
 11
3133.401014605101
 21
4149.27038427379
 31
0.0
  0
LINE
  5
51F
330
18
100
AcDbEntity
  8
SJC2
100
AcDbLine
 10
3155.1061839595
 20
4160.445921216589
 30
0.0
 11
3135.288831959801
 21
4163.14245437959
 31
0.0
  0
LINE
  5
520
330
18
100
AcDbEntity
  8
SJC2
100
AcDbLine
 10
3154.2973155633
 20
4154.499876383289
 30
0.0
 11
3134.4798109758
 21
4157.19763024939
 31
0.0
  0
ARC
  5
521
330
18
100
AcDbEntity
  8
SJC
100
AcDbCircle
 10
3055.931074743
 20
4160.90063312389
 30
0.0
 40
31.7767353091
100
AcDbArc
 50
289.2503683672
 51
70.7496316328
  0
ARC
  5
522
330
18
100
AcDbEntity
  8
SJC
100
AcDbCircle
 10
3099.5548839601
 20
4160.90063312389
 30
0.0
 40
44.70717840329999
100
AcDbArc
 50
137.8531446413
 51
222.1468553587
  0
ARC
  5
523
330
18
100
AcDbEntity
  8
SJC2
100
AcDbCircle
 10
3133.9405880451
 20
4153.234207382189
 30
0.0
 40
9.999999851
100
AcDbArc
 50
189.7099264137
 51
262.2495076787
  0
ARC
  5
524
330
18
100
AcDbEntity
  8
SJC2
100
AcDbCircle
 10
3133.940609600401
 20
4153.233821827289
 30
0.0
 40
4.0
100
AcDbArc
 50
220.8397276573
 51
262.2472349334
  0
ARC
  5
525
330
18
100
AcDbEntity
  8
SJC2
100
AcDbCircle
 10
3133.9403022496
 20
4153.23379833339
 30
0.0
 40
9.999999851
100
AcDbArc
 50
82.2498818799
 51
154.7908228795
  0
LINE
  5
526
330
18
100
AcDbEntity
  8
SJC2
100
AcDbLine
 10
3099.4648578843
 20
4161.130735659489
 30
0.0
 11
3133.1541274018
 21
4156.54577479039
 31
0.0
  0
LINE
  5
527
330
18
100
AcDbEntity
  8
SJC2
100
AcDbLine
 10
3098.6555317245
 20
4155.184690826289
 30
0.0
 11
3132.3449538299
 21
4150.60034030859
 31
0.0
  0
ARC
  5
528
330
18
100
AcDbEntity
  8
SJC2
100
AcDbCircle
 10
3132.7495406158
 20
4153.57305754949
 30
0.0
 40
3.0001230411
100
AcDbArc
 50
262.249664578
 51
82.249664578
  0
ARC
  5
529
330
18
100
AcDbEntity
  8
SJC2
100
AcDbCircle
 10
3098.2690197225
 20
4158.08837883749
 30
0.0
 40
9.999999851
100
AcDbArc
 50
262.2514431789
 51
334.7944553205
  0
ARC
  5
52A
330
18
100
AcDbEntity
  8
SJC2
100
AcDbCircle
 10
3098.2697837032
 20
4158.08850255589
 30
0.0
 40
4.0
100
AcDbArc
 50
262.2413411177
 51
303.6477995767
  0
ARC
  5
52B
330
18
100
AcDbEntity
  8
SJC2
100
AcDbCircle
 10
3098.2690027292
 20
4158.08890541139
 30
0.0
 40
4.0
100
AcDbArc
 50
40.840173356
 51
82.24973490169999
  0
ARC
  5
52C
330
18
100
AcDbEntity
  8
SJC2
100
AcDbCircle
 10
3098.2692058417
 20
4158.08853668459
 30
0.0
 40
9.999999851
100
AcDbArc
 50
9.706417565599998
 51
82.24979285100001
  0
ARC
  5
52D
330
18
100
AcDbEntity
  8
SJC2
100
AcDbCircle
 10
3133.9398082784
 20
4153.23424822299
 30
0.0
 40
4.0
100
AcDbArc
 50
82.24134111759999
 51
123.6477995767
  0
ARC
  5
52E
330
18
100
AcDbEntity
  8
SJC2
100
AcDbCircle
 10
3099.060194804401
 20
4158.15771324289
 30
0.0
 40
3.000435718
100
AcDbArc
 50
82.24900687979999
 51
262.2490068798
  0
LINE
  5
52F
330
18
100
AcDbEntity
  8
SJC2
100
AcDbLine
 10
3097.7297810058
 20
4154.12512052959
 30
0.0
 11
3087.2604208103
 21
4155.54968105519
 31
0.0
  0
LINE
  5
530
330
18
100
AcDbEntity
  8
SJC2
100
AcDbLine
 10
3096.9207600218
 20
4148.179686047789
 30
0.0
 11
3086.146681813201
 21
4149.64636083069
 31
0.0
  0
LINE
  5
531
330
18
100
AcDbEntity
  8
SJC2
100
AcDbLine
 10
3099.617750948401
 20
4167.997190635289
 30
0.0
 11
3086.439040207301
 21
4169.79040349929
 31
0.0
  0
LINE
  5
532
330
18
100
AcDbEntity
  8
SJC2
100
AcDbLine
 10
3098.8084247886
 20
4162.05236650519
 30
0.0
 11
3087.5948934615
 21
4163.57824538869
 31
0.0
  0
ARC
  5
533
330
18
100
AcDbEntity
  8
SJC2
100
AcDbCircle
 10
3208.055584795501
 20
4143.324111347189
 30
0.0
 40
9.999999851
100
AcDbArc
 50
9.706541148699999
 51
82.25069620220001
  0
ARC
  5
534
330
18
100
AcDbEntity
  8
SJC2
100
AcDbCircle
 10
3210.0047795013
 20
4143.05898914699
 30
0.0
 40
3.000000074499999
100
AcDbArc
 50
81.6222415268
 51
262.8755155298
  0
ARC
  5
535
330
18
100
AcDbEntity
  8
SJC2
100
AcDbCircle
 10
3208.0553950397
 20
4143.32397476059
 30
0.0
 40
9.999999851
100
AcDbArc
 50
262.2514431789
 51
334.7944553205
  0
LINE
  5
536
330
18
100
AcDbEntity
  8
SJC2
100
AcDbLine
 10
3245.1492124029
 20
4141.737425401589
 30
0.0
 11
3211.4597902975
 21
4146.32238627079
 31
0.0
  0
LINE
  5
537
330
18
100
AcDbEntity
  8
SJC2
100
AcDbLine
 10
3244.3401914188
 20
4135.79199091989
 30
0.0
 11
3210.6507693134
 21
4140.37756214069
 31
0.0
  0
LINE
  5
538
330
18
100
AcDbEntity
  8
SJC2
100
AcDbLine
 10
3187.833692016701
 20
4143.04846053839
 30
0.0
 11
3154.1442699113
 21
4147.63342140749
 31
0.0
  0
ARC
  5
539
330
18
100
AcDbEntity
  8
SJC2
100
AcDbCircle
 10
3154.5153509613
 20
4150.61038282839
 30
0.0
 40
3.000000074499999
100
AcDbArc
 50
81.60596855199999
 51
262.8946762747
  0
LINE
  5
53A
330
18
100
AcDbEntity
  8
SJC2
100
AcDbLine
 10
3188.6427130007
 20
4148.993284668489
 30
0.0
 11
3154.9532908953
 21
4153.57824553769
 31
0.0
  0
ARC
  5
53B
330
18
100
AcDbEntity
  8
SJC2
100
AcDbCircle
 10
3188.2716319507
 20
4146.01632324769
 30
0.0
 40
3.000000074499999
100
AcDbArc
 50
261.6059685522
 51
82.8946762744
  0
ARC
  5
53C
330
18
100
AcDbEntity
  8
SJC2
100
AcDbCircle
 10
3188.2381722216
 20
4146.02110069669
 30
0.0
 40
9.999999851
100
AcDbArc
 50
189.7065411486999
 51
262.2506962022
  0
ARC
  5
53D
330
18
100
AcDbEntity
  8
SJC2
100
AcDbCircle
 10
3188.237435108
 20
4146.021449404989
 30
0.0
 40
4.0
100
AcDbArc
 50
220.8541609809
 51
262.2633791562
  0
LINE
  5
53E
330
18
100
AcDbEntity
  8
SJC2
100
AcDbLine
 10
3207.516156323001
 20
4139.36071645269
 30
0.0
 11
3187.698956911301
 21
4142.05785996719
 31
0.0
  0
LINE
  5
53F
330
18
100
AcDbEntity
  8
SJC2
100
AcDbLine
 10
3208.594800105801
 20
4147.28735207679
 30
0.0
 11
3188.777600694001
 21
4149.98449559129
 31
0.0
  0
ARC
  5
540
330
18
100
AcDbEntity
  8
SJC2
100
AcDbCircle
 10
3188.2374713385
 20
4146.02113082389
 30
0.0
 40
4.0
100
AcDbArc
 50
82.23951010649999
 51
123.6482457442
  0
ARC
  5
541
330
18
100
AcDbEntity
  8
SJC2
100
AcDbCircle
 10
3208.055803169
 20
4143.32383314759
 30
0.0
 40
4.0
100
AcDbArc
 50
40.85282573219999
 51
82.2558804281
  0
LINE
  5
542
330
18
100
AcDbEntity
  8
SJC2
100
AcDbLine
 10
3209.403973677701
 20
4153.232786558489
 30
0.0
 11
3189.586774266
 21
4155.92931972139
 31
0.0
  0
ARC
  5
543
330
18
100
AcDbEntity
  8
SJC2
100
AcDbCircle
 10
3188.2381011558
 20
4146.02068319249
 30
0.0
 40
9.999999851
100
AcDbArc
 50
82.24905268349999
 51
154.7909464765
  0
ARC
  5
544
330
18
100
AcDbEntity
  8
SJC2
100
AcDbCircle
 10
3153.7576388527
 20
4150.537267265891
 30
0.0
 40
9.999999851
100
AcDbArc
 50
9.706417565599998
 51
82.24979285100001
  0
ARC
  5
545
330
18
100
AcDbEntity
  8
SJC2
100
AcDbCircle
 10
3153.759089813301
 20
4150.53625265729
 30
0.0
 40
4.0
100
AcDbArc
 50
40.866370019
 51
82.2670283911
  0
ARC
  5
546
330
18
100
AcDbEntity
  8
SJC2
100
AcDbCircle
 10
3153.758343372401
 20
4150.53721587819
 30
0.0
 40
4.0
100
AcDbArc
 50
262.2395101065
 51
303.6482457442
  0
ARC
  5
547
330
18
100
AcDbEntity
  8
SJC2
100
AcDbCircle
 10
3153.7573353504
 20
4150.536535797989
 30
0.0
 40
9.999999851
100
AcDbArc
 50
262.2530042499
 51
334.7980877336
  0
LINE
  5
548
330
18
100
AcDbEntity
  8
SJC2
100
AcDbLine
 10
3206.707135339001
 20
4133.415281970989
 30
0.0
 11
3186.889783339401
 21
4136.112425485491
 31
0.0
  0
ARC
  5
549
330
18
100
AcDbEntity
  8
SJC2
100
AcDbCircle
 10
3208.0562856786
 20
4143.324081220089
 30
0.0
 40
4.0
100
AcDbArc
 50
262.2395101065
 51
303.6482457442
  0
LINE
  5
54A
330
18
100
AcDbEntity
  8
SJC2
100
AcDbLine
 10
4944.251054760099
 20
4161.130735659489
 30
0.0
 11
4910.5614800668
 21
4156.54577479039
 31
0.0
  0
LINE
  5
54B
330
18
100
AcDbEntity
  8
SJC2
100
AcDbLine
 10
4945.0603809199
 20
4155.184690826289
 30
0.0
 11
4911.370806226599
 21
4150.60034030859
 31
0.0
  0
LINE
  5
54C
330
18
100
AcDbEntity
  8
SJC2
100
AcDbLine
 10
4855.881915451901
 20
4143.04846053839
 30
0.0
 11
4889.5714901452
 21
4147.63342140749
 31
0.0
  0
LINE
  5
54D
330
18
100
AcDbEntity
  8
SJC2
100
AcDbLine
 10
4855.0731996436
 20
4148.993284668489
 30
0.0
 11
4888.7624691611
 21
4153.57824553769
 31
0.0
  0
ARC
  5
54E
330
18
100
AcDbEntity
  8
SJC2
100
AcDbCircle
 10
4855.4423620386
 20
4146.01608471329
 30
0.0
 40
3.000000074499999
100
AcDbArc
 50
97.0683980125
 51
278.4251815611
  0
ARC
  5
54F
330
18
100
AcDbEntity
  8
SJC2
100
AcDbCircle
 10
4855.4775841983
 20
4146.02107943619
 30
0.0
 40
9.999999851
100
AcDbArc
 50
277.750207149
 51
350.2935824344
  0
ARC
  5
550
330
18
100
AcDbEntity
  8
SJC2
100
AcDbCircle
 10
4855.478497847499
 20
4146.02147289059
 30
0.0
 40
4.0
100
AcDbArc
 50
277.7341215046
 51
319.1453942581
  0
ARC
  5
551
330
18
100
AcDbEntity
  8
SJC2
100
AcDbCircle
 10
4855.478314647601
 20
4146.02111356489
 30
0.0
 40
4.0
100
AcDbArc
 50
56.35220042330001
 51
97.75865888230001
  0
ARC
  5
552
330
18
100
AcDbEntity
  8
SJC2
100
AcDbCircle
 10
4855.4775155007
 20
4146.020663675289
 30
0.0
 40
9.999999851
100
AcDbArc
 50
25.2091771205
 51
97.75011812009999
  0
LINE
  5
553
330
18
100
AcDbEntity
  8
SJC2
100
AcDbLine
 10
4836.1996037334
 20
4139.36071645269
 30
0.0
 11
4856.016803145201
 21
4142.05785996719
 31
0.0
  0
LINE
  5
554
330
18
100
AcDbEntity
  8
SJC2
100
AcDbLine
 10
4835.120807362801
 20
4147.28735207679
 30
0.0
 11
4854.9383119503
 21
4149.98449559129
 31
0.0
  0
ARC
  5
555
330
18
100
AcDbEntity
  8
SJC2
100
AcDbCircle
 10
4835.6598042995
 20
4143.32383314759
 30
0.0
 40
4.0
100
AcDbArc
 50
97.74411957190002
 51
139.1471742678
  0
ARC
  5
556
330
18
100
AcDbEntity
  8
SJC2
100
AcDbCircle
 10
4835.6600190369
 20
4143.32409008919
 30
0.0
 40
9.999999851
100
AcDbArc
 50
97.74840045080001
 51
170.2933352831
  0
LINE
  5
557
330
18
100
AcDbEntity
  8
SJC2
100
AcDbLine
 10
4834.3117863787
 20
4153.232786558489
 30
0.0
 11
4854.128985790499
 21
4155.92931972139
 31
0.0
  0
ARC
  5
558
330
18
100
AcDbEntity
  8
SJC2
100
AcDbCircle
 10
4833.7101106869
 20
4143.058861171289
 30
0.0
 40
3.000000074499999
100
AcDbArc
 50
277.1441643106
 51
98.3609663832
  0
LINE
  5
559
330
18
100
AcDbEntity
  8
SJC2
100
AcDbLine
 10
4837.0086247175
 20
4133.415281970989
 30
0.0
 11
4856.826129305
 21
4136.112425485491
 31
0.0
  0
ARC
  5
55A
330
18
100
AcDbEntity
  8
SJC2
100
AcDbCircle
 10
4835.6593477244
 20
4143.32406395759
 30
0.0
 40
4.0
100
AcDbArc
 50
236.3513080036999
 51
277.7623208435
  0
ARC
  5
55B
330
18
100
AcDbEntity
  8
SJC2
100
AcDbCircle
 10
4835.660365016799
 20
4143.32397476059
 30
0.0
 40
9.999999851
100
AcDbArc
 50
205.2055446795
 51
277.7485568211
  0
LINE
  5
55C
330
18
100
AcDbEntity
  8
SJC2
100
AcDbLine
 10
4798.566547653599
 20
4141.737425401589
 30
0.0
 11
4832.2558171711
 21
4146.32238627079
 31
0.0
  0
LINE
  5
55D
330
18
100
AcDbEntity
  8
SJC2
100
AcDbLine
 10
4799.3755686376
 20
4135.79199091989
 30
0.0
 11
4833.065143330901
 21
4140.37756214069
 31
0.0
  0
ARC
  5
55E
330
18
100
AcDbEntity
  8
SJC2
100
AcDbCircle
 10
4889.133550211099
 20
4150.60128411679
 30
0.0
 40
3.000000074499999
100
AcDbArc
 50
278.3940314481
 51
97.10532372520001
  0
ARC
  5
55F
330
18
100
AcDbEntity
  8
SJC2
100
AcDbCircle
 10
4909.7751756494
 20
4153.234228643789
 30
0.0
 40
9.999999851
100
AcDbArc
 50
277.7495889608
 51
350.2899499962
  0
LINE
  5
560
330
18
100
AcDbEntity
  8
SJC2
100
AcDbLine
 10
4891.3064144357
 20
4140.62780627759
 30
0.0
 11
4911.1236138474
 21
4143.32556014359
 31
0.0
  0
LINE
  5
561
330
18
100
AcDbEntity
  8
SJC2
100
AcDbLine
 10
4890.4973934517
 20
4146.573851110789
 30
0.0
 11
4910.314898039199
 21
4149.27038427379
 31
0.0
  0
ARC
  5
562
330
18
100
AcDbEntity
  8
SJC2
100
AcDbCircle
 10
4909.7753030439
 20
4153.233821827289
 30
0.0
 40
4.0
100
AcDbArc
 50
277.7527650666
 51
319.1602723427
  0
ARC
  5
563
330
18
100
AcDbEntity
  8
SJC2
100
AcDbCircle
 10
4889.9581212037
 20
4150.537267265891
 30
0.0
 40
9.999999851
100
AcDbArc
 50
97.750207149
 51
170.2935824344
  0
ARC
  5
564
330
18
100
AcDbEntity
  8
SJC2
100
AcDbCircle
 10
4889.956690560399
 20
4150.53627614009
 30
0.0
 40
4.0
100
AcDbArc
 50
97.73547102930001
 51
139.1340747698
  0
ARC
  5
565
330
18
100
AcDbEntity
  8
SJC2
100
AcDbCircle
 10
4889.9573907543
 20
4150.53723313719
 30
0.0
 40
4.0
100
AcDbArc
 50
236.3522004233
 51
277.7586588823
  0
ARC
  5
566
330
18
100
AcDbEntity
  8
SJC2
100
AcDbCircle
 10
4889.958424705999
 20
4150.536535797989
 30
0.0
 40
9.999999851
100
AcDbArc
 50
205.2019122664
 51
277.7469957501
  0
ARC
  5
567
330
18
100
AcDbEntity
  8
SJC2
100
AcDbCircle
 10
4909.775610394699
 20
4153.23379833339
 30
0.0
 40
9.999999851
100
AcDbArc
 50
25.2091771205
 51
97.75011812009999
  0
ARC
  5
568
330
18
100
AcDbEntity
  8
SJC2
100
AcDbCircle
 10
4910.966143146699
 20
4153.57305754949
 30
0.0
 40
3.000133330799999
100
AcDbArc
 50
97.75177915429999
 51
277.7517791543
  0
LINE
  5
569
330
18
100
AcDbEntity
  8
SJC2
100
AcDbLine
 10
4888.609576097
 20
4160.445921216589
 30
0.0
 11
4908.4270806845
 21
4163.14245437959
 31
0.0
  0
LINE
  5
56A
330
18
100
AcDbEntity
  8
SJC2
100
AcDbLine
 10
4889.4182919053
 20
4154.499876383289
 30
0.0
 11
4909.2357964928
 21
4157.19763024939
 31
0.0
  0
ARC
  5
56B
330
18
100
AcDbEntity
  8
SJC2
100
AcDbCircle
 10
4909.7757991901
 20
4153.23424822299
 30
0.0
 40
4.0
100
AcDbArc
 50
56.35220042330001
 51
97.75865888230001
  0
ARC
  5
56C
330
18
100
AcDbEntity
  8
SJC
100
AcDbCircle
 10
4944.159960569001
 20
4160.90063312389
 30
0.0
 40
44.70717840329999
100
AcDbArc
 50
317.8531446413
 51
42.1468553587
  0
ARC
  5
56D
330
18
100
AcDbEntity
  8
SJC
100
AcDbCircle
 10
4987.7837697861
 20
4160.90063312389
 30
0.0
 40
31.7767353091
100
AcDbArc
 50
109.2503683672
 51
250.7496316328
  0
ARC
  5
56E
330
18
100
AcDbEntity
  8
SJC2
100
AcDbCircle
 10
4945.4467403339
 20
4158.08837883749
 30
0.0
 40
9.999999851
100
AcDbArc
 50
205.2055446795
 51
277.7485568211
  0
ARC
  5
56F
330
18
100
AcDbEntity
  8
SJC2
100
AcDbCircle
 10
4945.445976353299
 20
4158.08850255589
 30
0.0
 40
4.0
100
AcDbArc
 50
236.3522004233
 51
277.7586588823
  0
ARC
  5
570
330
18
100
AcDbEntity
  8
SJC2
100
AcDbCircle
 10
4945.4467776753
 20
4158.08892895159
 30
0.0
 40
4.0
100
AcDbArc
 50
97.75276506659999
 51
139.1602723427
  0
ARC
  5
571
330
18
100
AcDbEntity
  8
SJC2
100
AcDbCircle
 10
4945.446401626899
 20
4158.08853668459
 30
0.0
 40
9.999999851
100
AcDbArc
 50
97.750207149
 51
170.2935824344
  0
LINE
  5
572
330
18
100
AcDbEntity
  8
SJC2
100
AcDbLine
 10
4944.097856520101
 20
4167.997190635289
 30
0.0
 11
4958.7002122596
 21
4169.984495293189
 31
0.0
  0
LINE
  5
573
330
18
100
AcDbEntity
  8
SJC2
100
AcDbLine
 10
4944.90718268
 20
4162.05236650519
 30
0.0
 11
4956.8300951
 21
4163.674680934088
 31
0.0
  0
ARC
  5
574
330
18
100
AcDbEntity
  8
SJC2
100
AcDbCircle
 10
4944.655717839999
 20
4158.15771324289
 30
0.0
 40
3.000435718
100
AcDbArc
 50
277.7509931202
 51
97.75099312020003
  0
LINE
  5
575
330
18
100
AcDbEntity
  8
SJC2
100
AcDbLine
 10
4945.9859790506
 20
4154.12512052959
 30
0.0
 11
4956.4553392462
 21
4155.54968105519
 31
0.0
  0
LINE
  5
576
330
18
100
AcDbEntity
  8
SJC2
100
AcDbLine
 10
4946.795000034601
 20
4148.179686047789
 30
0.0
 11
4957.5689256554
 21
4149.64636083069
 31
0.0
  0
LINE
  5
577
330
18
100
AcDbEntity
  8
SJC
100
AcDbLine
 10
4977.3070547386
 20
4190.900665605475
 30
0.0
 11
4977.3070547386
 21
4530.900633570889
 31
0.0
  0
LINE
  5
578
330
18
100
AcDbEntity
  8
SJC
100
AcDbLine
 10
3066.4074250101
 20
4190.900262553977
 30
0.0
 11
3066.4074250101
 21
4530.900633570889
 31
0.0
  0
LINE
  5
579
330
18
100
AcDbEntity
  8
SJC2
100
AcDbLine
 10
5188.6412801051
 20
4148.993284668489
 30
0.0
 11
5154.9523157633
 21
4153.57824553769
 31
0.0
  0
LINE
  5
57A
330
18
100
AcDbEntity
  8
SJC2
100
AcDbLine
 10
5187.8325642968
 20
4143.04846053839
 30
0.0
 11
5154.142989603499
 21
4147.63342140749
 31
0.0
  0
ARC
  5
57B
330
18
100
AcDbEntity
  8
SJC2
100
AcDbCircle
 10
5098.268078121799
 20
4158.08853668459
 30
0.0
 40
9.999999851
100
AcDbArc
 50
9.706417565599998
 51
82.24979285100001
  0
ARC
  5
57C
330
18
100
AcDbEntity
  8
SJC2
100
AcDbCircle
 10
5098.2677394148
 20
4158.08837883749
 30
0.0
 40
9.999999851
100
AcDbArc
 50
262.2514431789
 51
334.7944553205
  0
LINE
  5
57D
330
18
100
AcDbEntity
  8
SJC2
100
AcDbLine
 10
5098.6540988288
 20
4155.184690826289
 30
0.0
 11
5132.3436735221
 21
4150.60034030859
 31
0.0
  0
LINE
  5
57E
330
18
100
AcDbEntity
  8
SJC2
100
AcDbLine
 10
5099.463424988599
 20
4161.130735659489
 30
0.0
 11
5133.1529996819
 21
4156.54577479039
 31
0.0
  0
LINE
  5
57F
330
18
100
AcDbEntity
  8
SJC2
100
AcDbLine
 10
5096.919479713999
 20
4148.179686047789
 30
0.0
 11
5086.1455540933
 21
4149.64636083069
 31
0.0
  0
LINE
  5
580
330
18
100
AcDbEntity
  8
SJC2
100
AcDbLine
 10
5097.7281955223
 20
4154.12512052959
 30
0.0
 11
5087.2594456783
 21
4155.54968105519
 31
0.0
  0
ARC
  5
581
330
18
100
AcDbEntity
  8
SJC2
100
AcDbCircle
 10
5099.0587619087
 20
4158.15771324289
 30
0.0
 40
3.000435718
100
AcDbArc
 50
82.24900687979999
 51
262.2490068798
  0
LINE
  5
582
330
18
100
AcDbEntity
  8
SJC2
100
AcDbLine
 10
5098.8072970687
 20
4162.05236650519
 30
0.0
 11
5086.884689824501
 21
4163.674680934088
 31
0.0
  0
LINE
  5
583
330
18
100
AcDbEntity
  8
SJC2
100
AcDbLine
 10
5099.6166232285
 20
4167.997190635289
 30
0.0
 11
5085.014572664899
 21
4169.984495293189
 31
0.0
  0
ARC
  5
584
330
18
100
AcDbEntity
  8
SJC2
100
AcDbCircle
 10
5098.2677020734
 20
4158.08892895159
 30
0.0
 40
4.0
100
AcDbArc
 50
40.8397276573
 51
82.2472349334
  0
ARC
  5
585
330
18
100
AcDbEntity
  8
SJC2
100
AcDbCircle
 10
5098.2681982197
 20
4158.08850255589
 30
0.0
 40
4.0
100
AcDbArc
 50
262.2413411177
 51
303.6477995767
  0
ARC
  5
586
330
18
100
AcDbEntity
  8
SJC
100
AcDbCircle
 10
5055.9307099625
 20
4160.90063312389
 30
0.0
 40
31.7767353091
100
AcDbArc
 50
289.2503683672
 51
70.7496316328
  0
ARC
  5
587
330
18
100
AcDbEntity
  8
SJC
100
AcDbCircle
 10
5099.5545191797
 20
4160.90063312389
 30
0.0
 40
44.70717840329999
100
AcDbArc
 50
137.8531446413
 51
222.1468553587
  0
ARC
  5
588
330
18
100
AcDbEntity
  8
SJC2
100
AcDbCircle
 10
5133.9386805586
 20
4153.23424822299
 30
0.0
 40
4.0
100
AcDbArc
 50
82.24134111759999
 51
123.6477995767
  0
LINE
  5
589
330
18
100
AcDbEntity
  8
SJC2
100
AcDbLine
 10
5154.296187843399
 20
4154.499876383289
 30
0.0
 11
5134.4786832559
 21
4157.19763024939
 31
0.0
  0
LINE
  5
58A
330
18
100
AcDbEntity
  8
SJC2
100
AcDbLine
 10
5155.1049036517
 20
4160.445921216589
 30
0.0
 11
5135.2873990642
 21
4163.14245437959
 31
0.0
  0
ARC
  5
58B
330
18
100
AcDbEntity
  8
SJC2
100
AcDbCircle
 10
5132.748336602
 20
4153.57305754949
 30
0.0
 40
3.000133330799999
100
AcDbArc
 50
262.2482208457
 51
82.24822084569998
  0
ARC
  5
58C
330
18
100
AcDbEntity
  8
SJC2
100
AcDbCircle
 10
5133.938869354
 20
4153.23379833339
 30
0.0
 40
9.999999851
100
AcDbArc
 50
82.2498818799
 51
154.7908228795
  0
ARC
  5
58D
330
18
100
AcDbEntity
  8
SJC2
100
AcDbCircle
 10
5153.7557865842
 20
4150.53661381859
 30
0.0
 40
9.999999851
100
AcDbArc
 50
262.2563211929
 51
334.7975936797
  0
ARC
  5
58E
330
18
100
AcDbEntity
  8
SJC2
100
AcDbCircle
 10
5153.757088994399
 20
4150.53723313719
 30
0.0
 40
4.0
100
AcDbArc
 50
262.2413411176
 51
303.6477995767
  0
ARC
  5
58F
330
18
100
AcDbEntity
  8
SJC2
100
AcDbCircle
 10
5153.757789188301
 20
4150.53627614009
 30
0.0
 40
4.0
100
AcDbArc
 50
40.8659252302
 51
82.2645289707
  0
ARC
  5
590
330
18
100
AcDbEntity
  8
SJC2
100
AcDbCircle
 10
5153.756358545
 20
4150.537267265891
 30
0.0
 40
9.999999851
100
AcDbArc
 50
9.706417565599998
 51
82.24979285100001
  0
ARC
  5
591
330
18
100
AcDbEntity
  8
SJC2
100
AcDbCircle
 10
5133.939176704799
 20
4153.233821827289
 30
0.0
 40
4.0
100
AcDbArc
 50
220.8397276573
 51
262.2472349334
  0
LINE
  5
592
330
18
100
AcDbEntity
  8
SJC2
100
AcDbLine
 10
5153.217086297
 20
4146.573851110789
 30
0.0
 11
5133.3995817095
 21
4149.27038427379
 31
0.0
  0
LINE
  5
593
330
18
100
AcDbEntity
  8
SJC2
100
AcDbLine
 10
5152.408370488799
 20
4140.62780627759
 30
0.0
 11
5132.5908659012
 21
4143.32556014359
 31
0.0
  0
ARC
  5
594
330
18
100
AcDbEntity
  8
SJC2
100
AcDbCircle
 10
5133.9393040993
 20
4153.234228643789
 30
0.0
 40
9.999999851
100
AcDbArc
 50
189.7100500038
 51
262.2504110392
  0
ARC
  5
595
330
18
100
AcDbEntity
  8
SJC2
100
AcDbCircle
 10
5154.5160886386
 20
4150.61013058999
 30
0.0
 40
3.000000074499999
100
AcDbArc
 50
81.6390336171
 51
262.8558356891
  0
LINE
  5
596
330
18
100
AcDbEntity
  8
SJC2
100
AcDbLine
 10
5265.2733590413
 20
4139.397337545889
 30
0.0
 11
5245.4558544538
 21
4142.094481060389
 31
0.0
  0
LINE
  5
597
330
18
100
AcDbEntity
  8
SJC2
100
AcDbLine
 10
5266.0820748496
 20
4145.342161676089
 30
0.0
 11
5246.2645702621
 21
4148.03991554209
 31
0.0
  0
LINE
  5
598
330
18
100
AcDbEntity
  8
SJC2
100
AcDbLine
 10
5264.194257494899
 20
4131.470701921791
 30
0.0
 11
5244.3767529074
 21
4134.16784543629
 31
0.0
  0
LINE
  5
599
330
18
100
AcDbEntity
  8
SJC2
100
AcDbLine
 10
5263.385541686599
 20
4125.52526744009
 30
0.0
 11
5243.568037099099
 21
4128.22180060299
 31
0.0
  0
ARC
  5
59A
330
18
100
AcDbEntity
  8
SJC2
100
AcDbCircle
 10
5244.5162182373
 20
4138.538878085989
 30
0.0
 40
3.000092183399999
100
AcDbArc
 50
262.2539958344
 51
82.25399583439999
  0
ARC
  5
59B
330
18
100
AcDbEntity
  8
SJC2
100
AcDbCircle
 10
5244.9166128723
 20
4138.13099540799
 30
0.0
 40
4.0
100
AcDbArc
 50
82.25234388199998
 51
123.6608969281
  0
ARC
  5
59C
330
18
100
AcDbEntity
  8
SJC2
100
AcDbCircle
 10
5244.9163479027
 20
4138.131282989889
 30
0.0
 40
4.0
100
AcDbArc
 50
220.8397276573
 51
262.2472349334
  0
ARC
  5
59D
330
18
100
AcDbEntity
  8
SJC2
100
AcDbCircle
 10
5244.9165822058
 20
4138.130454553791
 30
0.0
 40
9.999999851
100
AcDbArc
 50
189.7064175656
 51
262.249792851
  0
ARC
  5
59E
330
18
100
AcDbEntity
  8
SJC2
100
AcDbCircle
 10
5244.9163105614
 20
4138.13122275249
 30
0.0
 40
9.999999851
100
AcDbArc
 50
82.2514431789
 51
154.7944553205
  0
LINE
  5
59F
330
18
100
AcDbEntity
  8
SJC2
100
AcDbLine
 10
5244.3389111111
 20
4135.79199091989
 30
0.0
 11
5210.649336417801
 21
4140.37756214069
 31
0.0
  0
LINE
  5
5A0
330
18
100
AcDbEntity
  8
SJC2
100
AcDbLine
 10
5245.1476269193
 20
4141.737425401589
 30
0.0
 11
5211.4586625776
 21
4146.32238627079
 31
0.0
  0
ARC
  5
5A1
330
18
100
AcDbEntity
  8
SJC2
100
AcDbCircle
 10
5208.054114731901
 20
4143.32397476059
 30
0.0
 40
9.999999851
100
AcDbArc
 50
262.2514431789
 51
334.7944553205
  0
ARC
  5
5A2
330
18
100
AcDbEntity
  8
SJC2
100
AcDbCircle
 10
5208.055080141
 20
4143.32402942229
 30
0.0
 40
4.0
100
AcDbArc
 50
262.2340174397
 51
303.6495847538
  0
LINE
  5
5A3
330
18
100
AcDbEntity
  8
SJC2
100
AcDbLine
 10
5206.7058550312
 20
4133.415281970989
 30
0.0
 11
5186.8883504437
 21
4136.112425485491
 31
0.0
  0
ARC
  5
5A4
330
18
100
AcDbEntity
  8
SJC2
100
AcDbCircle
 10
5210.067497151499
 20
4143.05026693649
 30
0.0
 40
3.000000074499999
100
AcDbArc
 50
82.85583569079999
 51
261.6390336155
  0
ARC
  5
5A5
330
18
100
AcDbEntity
  8
SJC2
100
AcDbCircle
 10
5188.236964248
 20
4146.020663675289
 30
0.0
 40
9.999999851
100
AcDbArc
 50
82.2498818799
 51
154.7908228795
  0
LINE
  5
5A6
330
18
100
AcDbEntity
  8
SJC2
100
AcDbLine
 10
5209.4029985457
 20
4153.232786558489
 30
0.0
 11
5189.585493958201
 21
4155.92931972139
 31
0.0
  0
ARC
  5
5A7
330
18
100
AcDbEntity
  8
SJC2
100
AcDbCircle
 10
5208.054453439
 20
4143.32413260779
 30
0.0
 40
9.999999851
100
AcDbArc
 50
9.706417565599998
 51
82.24979285100001
  0
ARC
  5
5A8
330
18
100
AcDbEntity
  8
SJC2
100
AcDbCircle
 10
5208.054675449099
 20
4143.32383314759
 30
0.0
 40
4.0
100
AcDbArc
 50
40.85282573219999
 51
82.2558804281
  0
ARC
  5
5A9
330
18
100
AcDbEntity
  8
SJC2
100
AcDbCircle
 10
5188.236165101
 20
4146.02111356489
 30
0.0
 40
4.0
100
AcDbArc
 50
82.24134111759999
 51
123.6477995767
  0
LINE
  5
5AA
330
18
100
AcDbEntity
  8
SJC2
100
AcDbLine
 10
5208.593672385901
 20
4147.28735207679
 30
0.0
 11
5188.7761677984
 21
4149.98449559129
 31
0.0
  0
LINE
  5
5AB
330
18
100
AcDbEntity
  8
SJC2
100
AcDbLine
 10
5207.5145708395
 20
4139.36071645269
 30
0.0
 11
5187.6976766035
 21
4142.05785996719
 31
0.0
  0
ARC
  5
5AC
330
18
100
AcDbEntity
  8
SJC2
100
AcDbCircle
 10
5188.2359819012
 20
4146.02147289059
 30
0.0
 40
4.0
100
AcDbArc
 50
220.8546057419
 51
262.2658784954
  0
ARC
  5
5AD
330
18
100
AcDbEntity
  8
SJC2
100
AcDbCircle
 10
5188.236895550399
 20
4146.02107943619
 30
0.0
 40
9.999999851
100
AcDbArc
 50
189.7064175656
 51
262.249792851
  0
ARC
  5
5AE
330
18
100
AcDbEntity
  8
SJC2
100
AcDbCircle
 10
5188.27211771
 20
4146.01608471339
 30
0.0
 40
3.000000074499999
100
AcDbArc
 50
261.5748184398
 51
82.9316019866
  0
LINE
  5
5AF
330
18
100
AcDbEntity
  8
SJC2
100
AcDbLine
 10
5313.1169862581
 20
4139.117796534391
 30
0.0
 11
5300.5626651561
 21
4140.82678088399
 31
0.0
  0
LINE
  5
5B0
330
18
100
AcDbEntity
  8
SJC2
100
AcDbLine
 10
5310.419842743599
 20
4119.30090229849
 30
0.0
 11
5297.8655216416
 21
4121.00927629649
 31
0.0
  0
ARC
  5
5B1
330
18
100
AcDbEntity
  8
SJC2
100
AcDbCircle
 10
5264.733497788
 20
4135.43400153529
 30
0.0
 40
9.999999851
100
AcDbArc
 50
262.2531987003
 51
334.7903286164
  0
ARC
  5
5B2
330
18
100
AcDbEntity
  8
SJC2
100
AcDbCircle
 10
5264.7342601923
 20
4135.434083948189
 30
0.0
 40
4.0
100
AcDbArc
 50
262.2413411176
 51
303.6477995767
  0
ARC
  5
5B3
330
18
100
AcDbEntity
  8
SJC2
100
AcDbCircle
 10
5264.733764046
 20
4135.43389999229
 30
0.0
 40
4.0
100
AcDbArc
 50
40.8397276573
 51
82.2472349334
  0
ARC
  5
5B4
330
18
100
AcDbEntity
  8
SJC2
100
AcDbCircle
 10
5264.7337436018
 20
4135.433478621989
 30
0.0
 40
9.999999851
100
AcDbArc
 50
9.713682507599999
 51
82.25102946680001
  0
ARC
  5
5B5
330
18
100
AcDbEntity
  8
SJC2
100
AcDbCircle
 10
5299.2141354459
 20
4130.91812483779
 30
0.0
 40
9.999999851
100
AcDbArc
 50
82.2498818799
 51
154.7908228795
  0
ARC
  5
5B6
330
18
100
AcDbEntity
  8
SJC2
100
AcDbCircle
 10
5299.2133362989
 20
4130.91735402429
 30
0.0
 40
4.0
100
AcDbArc
 50
82.24134111759999
 51
123.6477995767
  0
LINE
  5
5B7
330
18
100
AcDbEntity
  8
SJC2
100
AcDbLine
 10
5319.5708435838
 20
4132.18420288779
 30
0.0
 11
5299.7533389963
 21
4134.880736050689
 31
0.0
  0
LINE
  5
5B8
330
18
100
AcDbEntity
  8
SJC2
100
AcDbLine
 10
5318.4917420374
 20
4124.25756726369
 30
0.0
 11
5298.6748478014
 21
4126.95471077819
 31
0.0
  0
ARC
  5
5B9
330
18
100
AcDbEntity
  8
SJC2
100
AcDbCircle
 10
5299.2137510961
 20
4130.918242440589
 30
0.0
 40
4.0
100
AcDbArc
 50
220.8415094862
 51
262.2572340959
  0
ARC
  5
5BA
330
18
100
AcDbEntity
  8
SJC2
100
AcDbCircle
 10
5299.213959839601
 20
4130.917944796589
 30
0.0
 40
9.999999851
100
AcDbArc
 50
189.7100500038
 51
262.2504110392
  0
ARC
  5
5BB
330
18
100
AcDbEntity
  8
SJC2
100
AcDbCircle
 10
5299.2140933988
 20
4130.91802859019
 30
0.0
 40
3.000092183399999
100
AcDbArc
 50
262.2539958344
 51
82.25399583439999
  0
LINE
  5
5BC
330
18
100
AcDbEntity
  8
SJC2
100
AcDbLine
 10
5299.618451303
 20
4133.89074583109
 30
0.0
 11
5265.929486961201
 21
4138.475706700289
 31
0.0
  0
ARC
  5
5BD
330
18
100
AcDbEntity
  8
SJC2
100
AcDbCircle
 10
5265.556387926199
 20
4135.498997517789
 30
0.0
 40
3.000000074499999
100
AcDbArc
 50
82.8558356903
 51
261.6390336159
  0
LINE
  5
5BE
330
18
100
AcDbEntity
  8
SJC2
100
AcDbLine
 10
5298.8097354947
 20
4127.94531134939
 30
0.0
 11
5265.1201608014
 21
4132.53088257009
 31
0.0
  0
LINE
  5
5BF
330
18
100
AcDbEntity
  8
SJC
100
AcDbLine
 10
5066.4073952078
 20
4190.900632676824
 30
0.0
 11
5066.4073952078
 21
4530.900633570889
 31
0.0
  0
CIRCLE
  5
5C4
330
18
100
AcDbEntity
  8
SJC
100
AcDbCircle
 10
6121.8572085819
 20
4160.90002277239
 30
0.0
 40
29.999999553
  0
DIMENSION
  5
5DF
330
18
100
AcDbEntity
  8
SUNPOU
100
AcDbDimension
  2
*D0
 10
6464.788111675
 20
3660.90064653499
 30
0.0
 11
6410.788111675
 21
3910.900646534991
 31
0.0
 70
    32
 71
     5
 42
500.0
  3
SJC
100
AcDbAlignedDimension
 13
6166.407378816501
 23
4160.900646534989
 33
0.0
 14
6430.4582782021
 24
3660.90064653499
 34
0.0
 50
90.0
100
AcDbRotatedDimension
1001
ACAD
1000
DSTYLE
1002
{
1070
    40
1040
20.0
1070
    41
1040
2.0
1070
    42
1040
1.0
1070
    43
1040
6.0
1070
    44
1040
1.0
1070
    73
1070
     0
1070
    74
1070
     0
1070
    77
1070
     1
1070
    78
1070
     8
1070
   140
1040
3.0
1070
   147
1040
1.199999999999999
1070
   172
1070
     1
1070
   176
1070
   256
1070
   177
1070
   256
1070
   178
1070
   256
1070
   271
1070
     1
1070
   275
1070
     1
1070
   279
1070
     2
1070
   340
1005
7A8
1002
}
  0
DIMENSION
  5
605
330
18
100
AcDbEntity
  8
SUNPOU
100
AcDbDimension
  2
*D1
 10
6464.788111675
 20
4160.900646534989
 30
0.0
 11
6410.788111675
 21
4360.900334653692
 31
0.0
 70
    32
  1
400
 71
     5
 42
399.9993762374006
  3
SJC
100
AcDbAlignedDimension
 13
6188.520198014459
 23
4560.90002277239
 33
0.0
 14
6464.788111675
 24
4160.900646534989
 34
0.0
 50
90.0
100
AcDbRotatedDimension
1001
ACAD
1000
DSTYLE
1002
{
1070
    40
1040
20.0
1070
    41
1040
2.0
1070
    42
1040
1.0
1070
    43
1040
6.0
1070
    44
1040
1.0
1070
    73
1070
     0
1070
    74
1070
     0
1070
    77
1070
     1
1070
    78
1070
     8
1070
   140
1040
3.0
1070
   147
1040
1.199999999999999
1070
   172
1070
     1
1070
   176
1070
   256
1070
   177
1070
   256
1070
   178
1070
   256
1070
   271
1070
     1
1070
   275
1070
     1
1070
   279
1070
     2
1070
   340
1005
7A8
1002
}
  0
LINE
  5
606
330
18
100
AcDbEntity
  8
CENTER
100
AcDbLine
 10
1322.488345323925
 20
2495.212098906697
 30
0.0
 11
1322.488345323925
 21
341.7860750870959
 31
0.0
  0
LINE
  5
607
330
18
100
AcDbEntity
  8
CENTER
100
AcDbLine
 10
3230.879141228498
 20
2495.212098906697
 30
0.0
 11
3230.879141228498
 21
341.7860750870959
 31
0.0
  0
LINE
  5
609
330
18
100
AcDbEntity
  8
SJC
100
AcDbLine
 10
6271.857208581899
 20
3260.90065249539
 30
0.0
 11
6271.857208581899
 21
3660.90064653499
 31
0.0
1001
ACAD
1000
ASC_BOUNDS
1002
{
1070
    19
1005
A65
1002
}
  0
DIMENSION
  5
642
330
18
100
AcDbEntity
  8
SUNPOU
100
AcDbDimension
  2
*D2
 10
6271.857208581899
 20
3038.383420531996
 30
0.0
 11
6121.8572085819
 21
3098.677291379945
 31
0.0
 70
   161
  1
□300
 71
     5
 42
300.0
  3
SJC
100
AcDbAlignedDimension
 13
5971.8572085819
 23
3260.90065249539
 33
0.0
 14
6271.857208581899
 24
3260.90065249539
 34
0.0
1001
ACAD
1000
DSTYLE
1002
{
1070
    40
1040
20.0
1070
    41
1040
2.0
1070
    42
1040
1.0
1070
    43
1040
6.0
1070
    44
1040
1.0
1070
    73
1070
     0
1070
    74
1070
     0
1070
    77
1070
     1
1070
    78
1070
     8
1070
   140
1040
3.0
1070
   147
1040
1.199999999999999
1070
   172
1070
     1
1070
   176
1070
   256
1070
   177
1070
   256
1070
   178
1070
   256
1070
   271
1070
     1
1070
   275
1070
     1
1070
   279
1070
     2
1070
   340
1005
7A8
1002
}
  0
LINE
  5
643
330
18
100
AcDbEntity
  8
SJC2
100
AcDbLine
 10
3222.879263418098
 20
1423.874517500796
 30
0.0
 11
3238.879019038996
 21
1423.874517500796
 31
0.0
  0
LINE
  5
644
330
18
100
AcDbEntity
  8
SJC2
100
AcDbLine
 10
3222.879263418098
 20
1369.874579340596
 30
0.0
 11
3238.879019038996
 21
1369.874579340596
 31
0.0
  0
LINE
  5
645
330
18
100
AcDbEntity
  8
SJC2
100
AcDbLine
 10
3222.879263418098
 20
1393.474432504596
 30
0.0
 11
3238.879019038996
 21
1393.474432504596
 31
0.0
  0
LINE
  5
646
330
18
100
AcDbEntity
  8
SJC2
100
AcDbLine
 10
3222.879263418098
 20
1339.474494344396
 30
0.0
 11
3238.879019038996
 21
1339.474494344396
 31
0.0
  0
CIRCLE
  5
647
330
18
100
AcDbEntity
  8
SJC
100
AcDbCircle
 10
3230.879141228498
 20
1381.674505922596
 30
0.0
 40
59.9999991059
  0
LINE
  5
648
330
18
100
AcDbEntity
  8
SJC2
100
AcDbLine
 10
3222.879263418098
 20
1393.474432504596
 30
0.0
 11
3222.879263418098
 21
1369.874579340596
 31
0.0
  0
LINE
  5
649
330
18
100
AcDbEntity
  8
SJC2
100
AcDbLine
 10
3230.879141228498
 20
1347.474372154797
 30
0.0
 11
3230.879141228498
 21
1331.474616533896
 31
0.0
  0
LINE
  5
64A
330
18
100
AcDbEntity
  8
SJC2
100
AcDbLine
 10
3238.879019038996
 20
1393.474432504596
 30
0.0
 11
3238.879019038996
 21
1369.874579340596
 31
0.0
  0
LINE
  5
64B
330
18
100
AcDbEntity
  8
SJC2
100
AcDbLine
 10
3230.879141228498
 20
1415.874639690296
 30
0.0
 11
3230.879141228498
 21
1431.874395311296
 31
0.0
  0
ARC
  5
64C
330
18
100
AcDbEntity
  8
SJC
100
AcDbCircle
 10
1395.588525417524
 20
1381.674505922596
 30
0.0
 40
59.9999991059
100
AcDbArc
 50
285.4655643504001
 51
74.5344356496
  0
LINE
  5
64D
330
18
100
AcDbEntity
  8
SJC2
100
AcDbLine
 10
799.235560762725
 20
1265.588997398496
 30
0.0
 11
846.1139932917248
 21
1278.150032367495
 31
0.0
  0
LINE
  5
64E
330
18
100
AcDbEntity
  8
SJC2
100
AcDbLine
 10
798.473155378524
 20
1277.808235497596
 30
0.0
 11
843.008219412226
 21
1289.741218718296
 31
0.0
  0
ARC
  5
64F
330
18
100
AcDbEntity
  8
SJC2
100
AcDbCircle
 10
848.424994037825
 20
1284.980785034096
 30
0.0
 40
19.999999702
100
AcDbArc
 50
104.9997487594
 51
177.541698455
  0
ARC
  5
650
330
18
100
AcDbEntity
  8
SJC2
100
AcDbCircle
 10
848.4250428944251
 20
1284.980740481596
 30
0.0
 40
19.999999702
100
AcDbArc
 50
212.4579211159
 51
285.000169806
  0
LINE
  5
651
330
18
100
AcDbEntity
  8
SJC2
100
AcDbLine
 10
1170.665990408624
 20
1365.113226872496
 30
0.0
 11
1104.983007988925
 21
1347.513739829996
 31
0.0
  0
LINE
  5
652
330
18
100
AcDbEntity
  8
SJC2
100
AcDbLine
 10
1167.560063941225
 20
1376.704413223196
 30
0.0
 11
1101.877081521525
 21
1359.104926180797
 31
0.0
  0
LINE
  5
653
330
18
100
AcDbEntity
  8
SJC2
100
AcDbLine
 10
951.4325952379259
 20
1333.287055471696
 30
0.0
 11
990.069679623124
 21
1343.639838520596
 31
0.0
  0
LINE
  5
654
330
18
100
AcDbEntity
  8
SJC2
100
AcDbLine
 10
954.5385217053244
 20
1321.695869120996
 30
0.0
 11
993.1756060905245
 21
1332.048652169897
 31
0.0
  0
LINE
  5
655
330
18
100
AcDbEntity
  8
SJC2
100
AcDbLine
 10
961.7853782868261
 20
1294.650276262296
 30
0.0
 11
1000.422462672024
 21
1305.003059311196
 31
0.0
  0
LINE
  5
656
330
18
100
AcDbEntity
  8
SJC2
100
AcDbLine
 10
958.6796044073253
 20
1306.241462612996
 30
0.0
 11
997.3165362046238
 21
1316.594245661896
 31
0.0
  0
LINE
  5
657
330
18
100
AcDbEntity
  8
SJC2
100
AcDbLine
 10
888.6150607736253
 20
1289.537971650996
 30
0.0
 11
954.2980431933246
 21
1307.137763869195
 31
0.0
  0
LINE
  5
658
330
18
100
AcDbEntity
  8
SJC2
100
AcDbLine
 10
885.509134306225
 20
1301.129158001696
 30
0.0
 11
951.1921167259243
 21
1318.728950219896
 31
0.0
  0
ARC
  5
659
330
18
100
AcDbEntity
  8
SJC2
100
AcDbCircle
 10
887.0623244042253
 20
1295.333571899196
 30
0.0
 40
8.0
100
AcDbArc
 50
63.5922840349
 51
105.0016004851
  0
ARC
  5
65A
330
18
100
AcDbEntity
  8
SJC2
100
AcDbCircle
 10
887.0620208455257
 20
1295.333597994297
 30
0.0
 40
8.0
100
AcDbArc
 50
285.0004870268
 51
326.409758334
  0
LINE
  5
65B
330
18
100
AcDbEntity
  8
SJC2
100
AcDbLine
 10
853.6014809731241
 20
1265.662239584896
 30
0.0
 11
892.2384127704244
 21
1276.015022633695
 31
0.0
  0
LINE
  5
65C
330
18
100
AcDbEntity
  8
SJC2
100
AcDbLine
 10
850.4955545057255
 20
1277.253425935596
 30
0.0
 11
889.1326388909256
 21
1287.606208984496
 31
0.0
  0
ARC
  5
65D
330
18
100
AcDbEntity
  8
SJC2
100
AcDbCircle
 10
887.0620975399251
 20
1295.333564826296
 30
0.0
 40
6.000049588099999
100
AcDbArc
 50
105.0003571718
 51
285.0003571718
  0
ARC
  5
65E
330
18
100
AcDbEntity
  8
SJC2
100
AcDbCircle
 10
887.0621034049253
 20
1295.333558018996
 30
0.0
 40
19.999999702
100
AcDbArc
 50
284.9997880622
 51
357.5425837057
  0
ARC
  5
65F
330
18
100
AcDbEntity
  8
SJC2
100
AcDbCircle
 10
887.0622203881248
 20
1295.333606122196
 30
0.0
 40
19.999999702
100
AcDbArc
 50
32.4579211159
 51
105.000169806
  0
ARC
  5
660
330
18
100
AcDbEntity
  8
SJC2
100
AcDbCircle
 10
848.4248102389246
 20
1284.980632811395
 30
0.0
 40
8.0
100
AcDbArc
 50
104.9972824591
 51
146.4061388734
  0
LINE
  5
661
330
18
100
AcDbEntity
  8
SJC2
100
AcDbLine
 10
843.248697924224
 20
1304.299323970095
 30
0.0
 11
881.8857823094258
 21
1314.652107018895
 31
0.0
  0
ARC
  5
662
330
18
100
AcDbEntity
  8
SJC2
100
AcDbCircle
 10
844.5611063519246
 20
1283.945625542896
 30
0.0
 40
6.000029841799999
100
AcDbArc
 50
284.9996534479
 51
104.9996534479
  0
LINE
  5
663
330
18
100
AcDbEntity
  8
SJC2
100
AcDbLine
 10
846.3546243916244
 20
1292.708137619396
 30
0.0
 11
884.9915561889247
 21
1303.060920668196
 31
0.0
  0
ARC
  5
664
330
18
100
AcDbEntity
  8
SJC2
100
AcDbCircle
 10
848.4252845610244
 20
1284.980908213596
 30
0.0
 40
8.0
100
AcDbArc
 50
243.5895197909
 51
284.9979060019
  0
ARC
  5
665
330
18
100
AcDbEntity
  8
SJC2
100
AcDbCircle
 10
956.6088913516251
 20
1313.968516535696
 30
0.0
 40
19.999999702
100
AcDbArc
 50
104.9997487594
 51
177.541698455
  0
ARC
  5
666
330
18
100
AcDbEntity
  8
SJC2
100
AcDbCircle
 10
956.6088931729245
 20
1313.968414042796
 30
0.0
 40
8.0
100
AcDbArc
 50
104.9986587501
 51
146.4065664493
  0
ARC
  5
667
330
18
100
AcDbEntity
  8
SJC2
100
AcDbCircle
 10
956.6088361919247
 20
1313.968811382095
 30
0.0
 40
8.0
100
AcDbArc
 50
243.5922840349
 51
285.0016004851
  0
ARC
  5
668
330
18
100
AcDbEntity
  8
SJC2
100
AcDbCircle
 10
956.6089402081251
 20
1313.968777158996
 30
0.0
 40
19.999999702
100
AcDbArc
 50
212.4579211159
 51
285.000169806
  0
ARC
  5
669
330
18
100
AcDbEntity
  8
SJC2
100
AcDbCircle
 10
952.7450799596245
 20
1312.933357044596
 30
0.0
 40
6.000049588099999
100
AcDbArc
 50
285.0003571718
 51
105.0003571718
  0
ARC
  5
66A
330
18
100
AcDbEntity
  8
SJC2
100
AcDbCircle
 10
1103.430044755225
 20
1353.309333005396
 30
0.0
 40
6.000049588099999
100
AcDbArc
 50
105.0003571718
 51
285.0003571718
  0
ARC
  5
66B
330
18
100
AcDbEntity
  8
SJC2
100
AcDbCircle
 10
1062.515732859225
 20
1341.983961563495
 30
0.0
 40
19.999999702
100
AcDbArc
 50
104.9997880622
 51
177.5425837057
  0
LINE
  5
66C
330
18
100
AcDbEntity
  8
SJC2
100
AcDbLine
 10
1060.445197373325
 20
1349.711310598096
 30
0.0
 11
1099.082281758525
 21
1360.064093646895
 31
0.0
  0
ARC
  5
66D
330
18
100
AcDbEntity
  8
SJC2
100
AcDbCircle
 10
1062.515768463925
 20
1341.983913460295
 30
0.0
 40
19.999999702
100
AcDbArc
 50
212.4579211159
 51
285.000169806
  0
ARC
  5
66E
330
18
100
AcDbEntity
  8
SJC2
100
AcDbCircle
 10
1062.515610965525
 20
1341.983974240896
 30
0.0
 40
8.0
100
AcDbArc
 50
243.5927116986
 51
285.0008656504
  0
ARC
  5
66F
330
18
100
AcDbEntity
  8
SJC2
100
AcDbCircle
 10
1060.929053567224
 20
1341.921088546196
 30
0.0
 40
6.000029841799999
100
AcDbArc
 50
284.9996534479
 51
104.9996534479
  0
LINE
  5
670
330
18
100
AcDbEntity
  8
SJC2
100
AcDbLine
 10
996.7989580873254
 20
1318.525703152596
 30
0.0
 11
1062.481940507025
 21
1336.125495370796
 31
0.0
  0
ARC
  5
671
330
18
100
AcDbEntity
  8
SJC2
100
AcDbCircle
 10
995.2463503573254
 20
1324.321750469896
 30
0.0
 40
8.0
100
AcDbArc
 50
284.9972824591
 51
326.4061388734
  0
ARC
  5
672
330
18
100
AcDbEntity
  8
SJC2
100
AcDbCircle
 10
1062.515815418724
 20
1341.983921588197
 30
0.0
 40
8.0
100
AcDbArc
 50
105.0004870268
 51
146.409758334
  0
ARC
  5
673
330
18
100
AcDbEntity
  8
SJC2
100
AcDbCircle
 10
995.246071147525
 20
1324.321296327996
 30
0.0
 40
6.000029841799999
100
AcDbArc
 50
104.9996534479
 51
284.9996534479
  0
LINE
  5
674
330
18
100
AcDbEntity
  8
SJC2
100
AcDbLine
 10
993.6931842078248
 20
1330.116889503296
 30
0.0
 11
1059.376166627524
 21
1347.716681721596
 31
0.0
  0
ARC
  5
675
330
18
100
AcDbEntity
  8
SJC2
100
AcDbCircle
 10
995.2461177018248
 20
1324.321337623896
 30
0.0
 40
19.999999702
100
AcDbArc
 50
32.4579211159
 51
105.000169806
  0
ARC
  5
676
330
18
100
AcDbEntity
  8
SJC2
100
AcDbCircle
 10
995.2462752002247
 20
1324.321276843296
 30
0.0
 40
8.0
100
AcDbArc
 50
63.5927116986
 51
105.0008656504
  0
ARC
  5
677
330
18
100
AcDbEntity
  8
SJC2
100
AcDbCircle
 10
995.246166558325
 20
1324.321598247196
 30
0.0
 40
19.999999702
100
AcDbArc
 50
284.9997487594
 51
357.541698455
  0
ARC
  5
678
330
18
100
AcDbEntity
  8
SJC2
100
AcDbCircle
 10
1101.152842226325
 20
1352.336734548497
 30
0.0
 40
19.999999702
100
AcDbArc
 50
284.9997487594
 51
357.541698455
  0
ARC
  5
679
330
18
100
AcDbEntity
  8
SJC2
100
AcDbCircle
 10
1101.152992992825
 20
1352.336837041395
 30
0.0
 40
8.0
100
AcDbArc
 50
284.9986587501
 51
326.4065664493
  0
LINE
  5
67A
330
18
100
AcDbEntity
  8
SJC2
100
AcDbLine
 10
1064.586280075225
 20
1334.256598914297
 30
0.0
 11
1103.223364460424
 21
1344.609381963196
 31
0.0
  0
LINE
  5
67B
330
18
100
AcDbEntity
  8
SJC2
100
AcDbLine
 10
1067.692206542626
 20
1322.665412563596
 30
0.0
 11
1106.329138339924
 21
1333.018195612496
 31
0.0
  0
LINE
  5
67C
330
18
100
AcDbEntity
  8
SJC2
100
AcDbLine
 10
1057.339423493824
 20
1361.302496948796
 30
0.0
 11
1095.976507879026
 21
1371.655279997696
 31
0.0
  0
ARC
  5
67D
330
18
100
AcDbEntity
  8
SJC2
100
AcDbCircle
 10
1101.152945957725
 20
1352.336779100896
 30
0.0
 40
19.999999702
100
AcDbArc
 50
32.4579211159
 51
105.000169806
  0
ARC
  5
67E
330
18
100
AcDbEntity
  8
SJC2
100
AcDbCircle
 10
1101.153049973825
 20
1352.336744877895
 30
0.0
 40
8.0
100
AcDbArc
 50
63.5922840349
 51
105.0016004851
  0
LINE
  5
67F
330
18
100
AcDbEntity
  8
SJC2
100
AcDbLine
 10
1175.876103856324
 20
1351.653144065196
 30
0.0
 11
1194.819585019425
 21
1356.729132759096
 31
0.0
  0
ARC
  5
680
330
18
100
AcDbEntity
  8
SJC2
100
AcDbCircle
 10
1170.699665777725
 20
1370.971644961995
 30
0.0
 40
19.999999702
100
AcDbArc
 50
212.4579211159
 51
285.000169806
  0
ARC
  5
681
330
18
100
AcDbEntity
  8
SJC
100
AcDbCircle
 10
1249.387554879025
 20
1381.674505922596
 30
0.0
 40
59.9999991059
100
AcDbArc
 50
105.4655643504
 51
254.5344356496
  0
ARC
  5
682
330
18
100
AcDbEntity
  8
SJC
100
AcDbCircle
 10
1172.918947031925
 20
1381.674505922596
 30
0.0
 40
83.6691176345
100
AcDbArc
 50
316.2792234647
 51
43.72077653529999
  0
CIRCLE
  5
683
330
18
100
AcDbEntity
  8
SJC2
100
AcDbCircle
 10
1209.388066247625
 20
1381.674505922596
 30
0.0
 40
4.9999999255
  0
LINE
  5
684
330
18
100
AcDbEntity
  8
SJC2
100
AcDbLine
 10
1165.523320807525
 20
1390.290228450396
 30
0.0
 11
1191.440831407624
 21
1397.234808425096
 31
0.0
  0
LINE
  5
685
330
18
100
AcDbEntity
  8
SJC2
100
AcDbLine
 10
1172.770329976825
 20
1363.244330415996
 30
0.0
 11
1190.940800897525
 21
1368.113104757496
 31
0.0
  0
LINE
  5
686
330
18
100
AcDbEntity
  8
SJC2
100
AcDbLine
 10
1168.629247274924
 20
1378.699042099695
 30
0.0
 11
1189.444524064325
 21
1384.276739770496
 31
0.0
  0
ARC
  5
687
330
18
100
AcDbEntity
  8
SJC2
100
AcDbCircle
 10
1170.699630172925
 20
1370.971693065196
 30
0.0
 40
19.999999702
100
AcDbArc
 50
104.9997880622
 51
177.5425837057
  0
ARC
  5
688
330
18
100
AcDbEntity
  8
SJC2
100
AcDbCircle
 10
1170.699679699724
 20
1370.971603353696
 30
0.0
 40
8.0
100
AcDbArc
 50
104.9991107221
 51
146.4093307188
  0
ARC
  5
689
330
18
100
AcDbEntity
  8
SJC2
100
AcDbCircle
 10
1170.699561761525
 20
1370.971679184996
 30
0.0
 40
8.0
100
AcDbArc
 50
243.5922840349
 51
285.0016004851
  0
ARC
  5
68A
330
18
100
AcDbEntity
  8
SJC2
100
AcDbCircle
 10
1169.113027174924
 20
1370.908820047796
 30
0.0
 40
6.000049588099999
100
AcDbArc
 50
285.0003571718
 51
105.0003571718
  0
ARC
  5
68B
330
18
100
AcDbEntity
  8
SJC
100
AcDbCircle
 10
1472.057133264525
 20
1381.674505922596
 30
0.0
 40
83.6691176345
100
AcDbArc
 50
136.2792234647
 51
223.7207765353
  0
LINE
  5
68C
330
18
100
AcDbEntity
  8
SJC2
100
AcDbLine
 10
1756.361019522925
 20
1289.537971650996
 30
0.0
 11
1690.678037103225
 21
1307.137763869195
 31
0.0
  0
ARC
  5
68D
330
18
100
AcDbEntity
  8
SJC2
100
AcDbCircle
 10
1757.913976891525
 20
1295.333558018996
 30
0.0
 40
19.999999702
100
AcDbArc
 50
182.4574162943
 51
255.0002119378
  0
LINE
  5
68E
330
18
100
AcDbEntity
  8
SJC2
100
AcDbLine
 10
1759.466945990225
 20
1301.129158001696
 30
0.0
 11
1693.783963570625
 21
1318.728950219896
 31
0.0
  0
LINE
  5
68F
330
18
100
AcDbEntity
  8
SJC2
100
AcDbLine
 10
1587.636656802725
 20
1361.302496948796
 30
0.0
 11
1548.999572417525
 21
1371.655279997696
 31
0.0
  0
ARC
  5
690
330
18
100
AcDbEntity
  8
SJC2
100
AcDbCircle
 10
1582.460469330924
 20
1341.983974240896
 30
0.0
 40
8.0
100
AcDbArc
 50
254.9991343496
 51
296.4072883014
  0
ARC
  5
691
330
18
100
AcDbEntity
  8
SJC2
100
AcDbCircle
 10
1582.460264877725
 20
1341.983921588197
 30
0.0
 40
8.0
100
AcDbArc
 50
33.590241666
 51
74.99951297319999
  0
LINE
  5
692
330
18
100
AcDbEntity
  8
SJC2
100
AcDbLine
 10
1651.282896088625
 20
1330.116889503296
 30
0.0
 11
1585.599913669025
 21
1347.716681721596
 31
0.0
  0
LINE
  5
693
330
18
100
AcDbEntity
  8
SJC2
100
AcDbLine
 10
1648.177122209125
 20
1318.525703152596
 30
0.0
 11
1582.494139789525
 21
1336.125495370796
 31
0.0
  0
ARC
  5
694
330
18
100
AcDbEntity
  8
SJC2
100
AcDbCircle
 10
1582.460311832525
 20
1341.983913460295
 30
0.0
 40
19.999999702
100
AcDbArc
 50
254.999830194
 51
327.5420788841
  0
LINE
  5
695
330
18
100
AcDbEntity
  8
SJC2
100
AcDbLine
 10
1584.530882923225
 20
1349.711310598096
 30
0.0
 11
1545.893798538025
 21
1360.064093646895
 31
0.0
  0
ARC
  5
696
330
18
100
AcDbEntity
  8
SJC2
100
AcDbCircle
 10
1541.546035541225
 20
1353.309333005396
 30
0.0
 40
6.000049588099999
100
AcDbArc
 50
254.9996428282
 51
74.99964282819999
  0
ARC
  5
697
330
18
100
AcDbEntity
  8
SJC2
100
AcDbCircle
 10
1474.276414518825
 20
1370.971644961995
 30
0.0
 40
19.999999702
100
AcDbArc
 50
254.999830194
 51
327.5420788841
  0
LINE
  5
698
330
18
100
AcDbEntity
  8
SJC2
100
AcDbLine
 10
1469.099976440125
 20
1351.653144065196
 30
0.0
 11
1450.156647864925
 21
1356.729132759096
 31
0.0
  0
LINE
  5
699
330
18
100
AcDbEntity
  8
SJC2
100
AcDbLine
 10
1474.310089887825
 20
1365.113226872496
 30
0.0
 11
1539.993072307525
 21
1347.513739829996
 31
0.0
  0
LINE
  5
69A
330
18
100
AcDbEntity
  8
SJC2
100
AcDbLine
 10
1580.389800221224
 20
1334.256598914297
 30
0.0
 11
1541.752715836024
 21
1344.609381963196
 31
0.0
  0
LINE
  5
69B
330
18
100
AcDbEntity
  8
SJC2
100
AcDbLine
 10
1577.283873753825
 20
1322.665412563596
 30
0.0
 11
1538.646941956525
 21
1333.018195612496
 31
0.0
  0
ARC
  5
69C
330
18
100
AcDbEntity
  8
SJC2
100
AcDbCircle
 10
1543.823087303624
 20
1352.336837041395
 30
0.0
 40
8.0
100
AcDbArc
 50
213.5934335507
 51
255.0013412499
  0
ARC
  5
69D
330
18
100
AcDbEntity
  8
SJC2
100
AcDbCircle
 10
1584.047026729225
 20
1341.921088546196
 30
0.0
 40
6.000029841799999
100
AcDbArc
 50
75.0003465521
 51
255.0003465521
  0
ARC
  5
69E
330
18
100
AcDbEntity
  8
SJC2
100
AcDbCircle
 10
1543.823238070125
 20
1352.336734548497
 30
0.0
 40
19.999999702
100
AcDbArc
 50
182.458301545
 51
255.0002512406
  0
LINE
  5
69F
330
18
100
AcDbEntity
  8
SJC2
100
AcDbLine
 10
1477.416016355225
 20
1376.704413223196
 30
0.0
 11
1543.098998774925
 21
1359.104926180797
 31
0.0
  0
ARC
  5
6A0
330
18
100
AcDbEntity
  8
SJC2
100
AcDbCircle
 10
1474.276450123525
 20
1370.971693065196
 30
0.0
 40
19.999999702
100
AcDbArc
 50
2.4574162943
 51
75.0002119378
  0
LINE
  5
6A1
330
18
100
AcDbEntity
  8
SJC2
100
AcDbLine
 10
1472.205750319625
 20
1363.244330415996
 30
0.0
 11
1454.035279398925
 21
1368.113104757496
 31
0.0
  0
LINE
  5
6A2
330
18
100
AcDbEntity
  8
SJC2
100
AcDbLine
 10
1476.346833021624
 20
1378.699042099695
 30
0.0
 11
1455.531556232125
 21
1384.276434594696
 31
0.0
  0
LINE
  5
6A3
330
18
100
AcDbEntity
  8
SJC2
100
AcDbLine
 10
1479.452759488925
 20
1390.290228450396
 30
0.0
 11
1453.535248888825
 21
1397.234808425096
 31
0.0
  0
ARC
  5
6A4
330
18
100
AcDbEntity
  8
SJC2
100
AcDbCircle
 10
1474.276400596725
 20
1370.971603353696
 30
0.0
 40
8.0
100
AcDbArc
 50
33.5906692812
 51
75.0008892779
  0
ARC
  5
6A5
330
18
100
AcDbEntity
  8
SJC2
100
AcDbCircle
 10
1474.276518534925
 20
1370.971679184996
 30
0.0
 40
8.0
100
AcDbArc
 50
254.9983995149
 51
296.4077159651
  0
ARC
  5
6A6
330
18
100
AcDbEntity
  8
SJC2
100
AcDbCircle
 10
1475.863053121525
 20
1370.908820047796
 30
0.0
 40
6.000049588099999
100
AcDbArc
 50
74.99964282819999
 51
254.9996428282
  0
ARC
  5
6A7
330
18
100
AcDbEntity
  8
SJC2
100
AcDbCircle
 10
1543.823134338825
 20
1352.336779100896
 30
0.0
 40
19.999999702
100
AcDbArc
 50
74.999830194
 51
147.5420788841
  0
ARC
  5
6A8
330
18
100
AcDbEntity
  8
SJC2
100
AcDbCircle
 10
1543.823030322625
 20
1352.336744877895
 30
0.0
 40
8.0
100
AcDbArc
 50
74.9983995149
 51
116.4077159651
  0
ARC
  5
6A9
330
18
100
AcDbEntity
  8
SJC2
100
AcDbCircle
 10
1582.460347437225
 20
1341.983961563495
 30
0.0
 40
19.999999702
100
AcDbArc
 50
2.4574162943
 51
75.0002119378
  0
LINE
  5
6AA
330
18
100
AcDbEntity
  8
SJC2
100
AcDbLine
 10
1693.543485058525
 20
1333.287055471696
 30
0.0
 11
1654.906400673325
 21
1343.639838520596
 31
0.0
  0
LINE
  5
6AB
330
18
100
AcDbEntity
  8
SJC2
100
AcDbLine
 10
1690.437558591124
 20
1321.695869120996
 30
0.0
 11
1651.800474205925
 21
1332.048652169897
 31
0.0
  0
LINE
  5
6AC
330
18
100
AcDbEntity
  8
SJC2
100
AcDbLine
 10
1683.190702009725
 20
1294.650276262296
 30
0.0
 11
1644.553617624525
 21
1305.003059311196
 31
0.0
  0
LINE
  5
6AD
330
18
100
AcDbEntity
  8
SJC2
100
AcDbLine
 10
1686.296475889225
 20
1306.241462612996
 30
0.0
 11
1647.659544091824
 21
1316.594245661896
 31
0.0
  0
ARC
  5
6AE
330
18
100
AcDbEntity
  8
SJC2
100
AcDbCircle
 10
1649.729962594625
 20
1324.321337623896
 30
0.0
 40
19.999999702
100
AcDbArc
 50
74.999830194
 51
147.5420788841
  0
ARC
  5
6AF
330
18
100
AcDbEntity
  8
SJC2
100
AcDbCircle
 10
1649.729805096225
 20
1324.321276843296
 30
0.0
 40
8.0
100
AcDbArc
 50
74.99913434959999
 51
116.4072883014
  0
ARC
  5
6B0
330
18
100
AcDbEntity
  8
SJC2
100
AcDbCircle
 10
1649.729729939225
 20
1324.321750469896
 30
0.0
 40
8.0
100
AcDbArc
 50
213.5938611266
 51
255.0027175409
  0
ARC
  5
6B1
330
18
100
AcDbEntity
  8
SJC2
100
AcDbCircle
 10
1649.730009148925
 20
1324.321296327996
 30
0.0
 40
6.000029841799999
100
AcDbArc
 50
255.0003465521
 51
75.0003465521
  0
ARC
  5
6B2
330
18
100
AcDbEntity
  8
SJC2
100
AcDbCircle
 10
1649.729913738125
 20
1324.321598247196
 30
0.0
 40
19.999999702
100
AcDbArc
 50
182.458301545
 51
255.0002512406
  0
ARC
  5
6B3
330
18
100
AcDbEntity
  8
SJC2
100
AcDbCircle
 10
1688.367188944925
 20
1313.968516535696
 30
0.0
 40
19.999999702
100
AcDbArc
 50
2.458301544999999
 51
75.00025124060001
  0
ARC
  5
6B4
330
18
100
AcDbEntity
  8
SJC2
100
AcDbCircle
 10
1688.367187123525
 20
1313.968414042796
 30
0.0
 40
8.0
100
AcDbArc
 50
33.5934335507
 51
75.00134124989999
  0
ARC
  5
6B5
330
18
100
AcDbEntity
  8
SJC2
100
AcDbCircle
 10
1688.367244104525
 20
1313.968811382095
 30
0.0
 40
8.0
100
AcDbArc
 50
254.9983995149
 51
296.4077159651
  0
ARC
  5
6B6
330
18
100
AcDbEntity
  8
SJC2
100
AcDbCircle
 10
1688.367140088325
 20
1313.968777158996
 30
0.0
 40
19.999999702
100
AcDbArc
 50
254.999830194
 51
327.5420788841
  0
ARC
  5
6B7
330
18
100
AcDbEntity
  8
SJC2
100
AcDbCircle
 10
1692.231000336924
 20
1312.933357044596
 30
0.0
 40
6.000049588099999
100
AcDbArc
 50
74.99964282819999
 51
254.9996428282
  0
ARC
  5
6B8
330
18
100
AcDbEntity
  8
SJC2
100
AcDbCircle
 10
1796.551086258625
 20
1284.980785034096
 30
0.0
 40
19.999999702
100
AcDbArc
 50
2.458301544999999
 51
75.00025124060001
  0
ARC
  5
6B9
330
18
100
AcDbEntity
  8
SJC2
100
AcDbCircle
 10
1796.551037402125
 20
1284.980740481596
 30
0.0
 40
19.999999702
100
AcDbArc
 50
254.999830194
 51
327.5420788841
  0
LINE
  5
6BA
330
18
100
AcDbEntity
  8
SJC2
100
AcDbLine
 10
1867.650843304025
 20
1272.141426500097
 30
0.0
 11
1801.967860884325
 21
1289.741218718296
 31
0.0
  0
LINE
  5
6BB
330
18
100
AcDbEntity
  8
SJC2
100
AcDbLine
 10
1864.545069424525
 20
1260.550240149296
 30
0.0
 11
1798.862087004825
 21
1278.150032367495
 31
0.0
  0
LINE
  5
6BC
330
18
100
AcDbEntity
  8
SJC2
100
AcDbLine
 10
1798.621455904825
 20
1292.708137619396
 30
0.0
 11
1759.984524107525
 21
1303.060920668196
 31
0.0
  0
LINE
  5
6BD
330
18
100
AcDbEntity
  8
SJC2
100
AcDbLine
 10
1794.480525790824
 20
1277.253425935596
 30
0.0
 11
1755.843441405624
 21
1287.606208984496
 31
0.0
  0
LINE
  5
6BE
330
18
100
AcDbEntity
  8
SJC2
100
AcDbLine
 10
1791.374599323425
 20
1265.662239584896
 30
0.0
 11
1752.737667526124
 21
1276.015022633695
 31
0.0
  0
ARC
  5
6BF
330
18
100
AcDbEntity
  8
SJC2
100
AcDbCircle
 10
1757.913755892225
 20
1295.333571899196
 30
0.0
 40
8.0
100
AcDbArc
 50
74.9983995149
 51
116.4077159651
  0
ARC
  5
6C0
330
18
100
AcDbEntity
  8
SJC2
100
AcDbCircle
 10
1757.914059451024
 20
1295.333597994297
 30
0.0
 40
8.0
100
AcDbArc
 50
213.590241666
 51
254.9995129732
  0
ARC
  5
6C1
330
18
100
AcDbEntity
  8
SJC2
100
AcDbCircle
 10
1757.913982756525
 20
1295.333564826296
 30
0.0
 40
6.000049588099999
100
AcDbArc
 50
254.9996428282
 51
74.99964282819999
  0
ARC
  5
6C2
330
18
100
AcDbEntity
  8
SJC2
100
AcDbCircle
 10
1800.414973944524
 20
1283.945625542896
 30
0.0
 40
6.000029841799999
100
AcDbArc
 50
75.0003465521
 51
255.0003465521
  0
ARC
  5
6C3
330
18
100
AcDbEntity
  8
SJC2
100
AcDbCircle
 10
1796.551270057524
 20
1284.980632811395
 30
0.0
 40
8.0
100
AcDbArc
 50
33.5938611266
 51
75.0027175409
  0
ARC
  5
6C4
330
18
100
AcDbEntity
  8
SJC2
100
AcDbCircle
 10
1796.550795735425
 20
1284.980908213596
 30
0.0
 40
8.0
100
AcDbArc
 50
255.0020939981
 51
296.4104802091
  0
LINE
  5
6C5
330
18
100
AcDbEntity
  8
SJC2
100
AcDbLine
 10
1801.727382372224
 20
1304.299323970095
 30
0.0
 11
1763.090297987025
 21
1314.652107018895
 31
0.0
  0
ARC
  5
6C6
330
18
100
AcDbEntity
  8
SJC2
100
AcDbCircle
 10
1757.913859908425
 20
1295.333606122196
 30
0.0
 40
19.999999702
100
AcDbArc
 50
74.999830194
 51
147.5420788841
  0
LINE
  5
6C7
330
18
100
AcDbEntity
  8
SJC
100
AcDbLine
 10
1233.388004854825
 20
1439.501958674265
 30
0.0
 11
1233.388004854825
 21
2123.847053170996
 31
0.0
  0
LINE
  5
6C8
330
18
100
AcDbEntity
  8
SJC
100
AcDbLine
 10
1411.588075441625
 20
1439.501958674265
 30
0.0
 11
1411.588075441625
 21
2123.847053170996
 31
0.0
  0
DIMENSION
  5
76D
330
18
100
AcDbEntity
  8
SUNPOU
100
AcDbDimension
  2
*D7
 10
2072.153513992998
 20
1381.674505922595
 30
0.0
 11
2018.153513992998
 21
1781.674505922596
 31
0.0
 70
    32
 71
     5
 42
400.0
  3
SJC
100
AcDbAlignedDimension
 13
1444.270417781925
 23
2181.674505922596
 33
0.0
 14
1395.588525417524
 24
1381.674505922596
 34
0.0
 50
90.0
100
AcDbRotatedDimension
1001
ACAD
1000
DSTYLE
1002
{
1070
    40
1040
20.0
1070
    41
1040
2.0
1070
    42
1040
1.0
1070
    43
1040
6.0
1070
    44
1040
1.0
1070
    73
1070
     0
1070
    74
1070
     0
1070
    77
1070
     1
1070
    78
1070
     8
1070
   140
1040
3.0
1070
   144
1040
0.5
1070
   147
1040
1.199999999999999
1070
   172
1070
     1
1070
   176
1070
   256
1070
   177
1070
   256
1070
   178
1070
   256
1070
   271
1070
     1
1070
   275
1070
     1
1070
   279
1070
     2
1070
   340
1005
7A8
1002
}
  0
DIMENSION
  5
77A
330
18
100
AcDbEntity
  8
SUNPOU
100
AcDbDimension
  2
*D8
 10
2072.153513992998
 20
381.674532744696
 30
0.0
 11
2018.153513992999
 21
881.6745193336462
 31
0.0
 70
    32
 71
     5
 42
499.9999865889498
  3
SJC
100
AcDbAlignedDimension
 13
1395.588525417524
 23
1381.674505922596
 33
0.0
 14
1681.709531377425
 24
381.6745327446961
 34
0.0
 50
90.0
100
AcDbRotatedDimension
1001
ACAD
1000
DSTYLE
1002
{
1070
    40
1040
20.0
1070
    41
1040
2.0
1070
    42
1040
1.0
1070
    43
1040
6.0
1070
    44
1040
1.0
1070
    73
1070
     0
1070
    74
1070
     0
1070
    77
1070
     1
1070
    78
1070
     8
1070
   140
1040
3.0
1070
   144
1040
0.5
1070
   147
1040
1.199999999999999
1070
   172
1070
     1
1070
   176
1070
   256
1070
   177
1070
   256
1070
   178
1070
   256
1070
   271
1070
     1
1070
   275
1070
     1
1070
   279
1070
     2
1070
   340
1005
7A8
1002
}
  0
INSERT
  5
790
330
18
100
AcDbEntity
  8
ZWAKU
100
AcDbBlockReference
  2
CALCOMP_TECHJET720A3
 10
0.0
 20
0.0
 30
0.0
 41
20.0
 42
20.0
 43
20.0
  0
TEXT
  5
792
330
18
100
AcDbEntity
  8
INFORMATION
100
AcDbText
 10
1.0
 20
2.0
 30
0.0
 40
0.8
  1
PLOTTER=CALCOMP_TECHJET720
 41
0.8
  7
EXT08
100
AcDbText
  0
TEXT
  5
793
330
18
100
AcDbEntity
  8
INFORMATION
100
AcDbText
 10
1.0
 20
3.0
 30
0.0
 40
0.8
  1
PAPER=A3
 41
0.8
  7
EXT08
100
AcDbText
  0
LINE
  5
7AE
330
18
100
AcDbEntity
  8
MOJI2
100
AcDbLine
 10
813.9288396751908
 20
5025.628461881696
 30
0.0
 11
1066.177613830165
 21
5025.628461881696
 31
0.0
  0
DIMENSION
  5
7D0
330
18
100
AcDbEntity
  8
SUNPOU
100
AcDbDimension
  2
*D10
 10
3021.8572547755
 20
4897.127140110484
 30
0.0
 11
2021.8574985585
 21
4951.127140110484
 31
0.0
 70
    32
  1
2000
 71
     5
 42
1999.999512433998
  3
SJC
100
AcDbAlignedDimension
 13
1021.857742341501
 23
4737.640396899218
 33
0.0
 14
3021.8572547755
 24
4748.453049486003
 34
0.0
100
AcDbRotatedDimension
1001
ACAD
1000
DSTYLE
1002
{
1070
    40
1040
20.0
1070
    41
1040
2.0
1070
    42
1040
1.0
1070
    43
1040
6.0
1070
    44
1040
1.0
1070
    73
1070
     0
1070
    74
1070
     0
1070
    77
1070
     1
1070
    78
1070
     8
1070
   140
1040
3.0
1070
   147
1040
1.199999999999999
1070
   172
1070
     1
1070
   176
1070
   256
1070
   177
1070
   256
1070
   178
1070
   256
1070
   271
1070
     1
1070
   275
1070
     1
1070
   279
1070
     2
1070
   340
1005
7A8
1002
}
  0
DIMENSION
  5
7F4
330
18
100
AcDbEntity
  8
SUNPOU
100
AcDbDimension
  2
*D11
 10
5021.857224973199
 20
4897.127140110484
 30
0.0
 11
4021.857239874349
 21
4951.127140110484
 31
0.0
 70
    32
 71
     5
 42
1999.9999701977
  3
SJC
100
AcDbAlignedDimension
 13
3021.8572547755
 23
4748.453049486003
 33
0.0
 14
5021.857224973199
 24
4759.561003227316
 34
0.0
100
AcDbRotatedDimension
1001
ACAD
1000
DSTYLE
1002
{
1070
    40
1040
20.0
1070
    41
1040
2.0
1070
    42
1040
1.0
1070
    43
1040
6.0
1070
    44
1040
1.0
1070
    73
1070
     0
1070
    74
1070
     0
1070
    77
1070
     1
1070
    78
1070
     8
1070
   140
1040
3.0
1070
   147
1040
1.199999999999999
1070
   172
1070
     1
1070
   176
1070
   256
1070
   177
1070
   256
1070
   178
1070
   256
1070
   271
1070
     1
1070
   275
1070
     1
1070
   279
1070
     2
1070
   340
1005
7A8
1002
}
  0
SOLID
  5
7F5
330
18
100
AcDbEntity
  8
SUNPOU
  6
Continuous
100
AcDbTrace
 10
5061.857224973199
 20
4890.460473443817
 30
0.0
 11
5061.857224973199
 21
4903.793806777152
 31
0.0
 12
5021.857224973199
 22
4897.127140110484
 32
0.0
 13
5021.857224973199
 23
4897.127140110484
 33
0.0
  0
LINE
  5
7F6
330
18
100
AcDbEntity
  8
SUNPOU
  6
Continuous
100
AcDbLine
 10
5061.857224973199
 20
4897.127140110484
 30
0.0
 11
5324.222182997502
 21
4897.127140110484
 31
0.0
  0
TEXT
  5
7F7
330
18
100
AcDbEntity
  8
SUNPOU
100
AcDbText
 10
5110.740665266599
 20
4927.740708750441
 30
0.0
 40
60.0
  1
2000
 41
0.8
  7
EXT08
100
AcDbText
  0
LINE
  5
7F8
330
18
100
AcDbEntity
  8
MOJI
100
AcDbLine
 10
3152.037539309455
 20
4767.682476483931
 30
0.0
 11
3335.992903454513
 21
4767.682476483931
 31
0.0
  0
SOLID
  5
7F9
330
18
100
AcDbEntity
  8
MOJI
  6
Continuous
100
AcDbTrace
 10
3087.245371920599
 20
4700.49753751848
 30
0.0
 11
3078.333527262522
 21
4710.415037332853
 31
0.0
 12
3053.036950148442
 22
4678.720753451436
 32
0.0
 13
3053.036950148442
 23
4678.720753451436
 33
0.0
  0
LINE
  5
7FA
330
18
100
AcDbEntity
  8
MOJI
  6
Continuous
100
AcDbLine
 10
3082.78944959156
 20
4705.456287425668
 30
0.0
 11
3152.037539309455
 21
4767.682476483931
 31
0.0
  0
LINE
  5
7FB
330
18
100
AcDbEntity
  8
MOJI
100
AcDbLine
 10
3332.327083725301
 20
4651.558104983129
 30
0.0
 11
3639.420578359321
 21
4651.558104983129
 31
0.0
  0
SOLID
  5
7FC
330
18
100
AcDbEntity
  8
MOJI
  6
Continuous
100
AcDbTrace
 10
3236.041571721611
 20
4572.788799526887
 30
0.0
 11
3228.164208079601
 21
4583.546351285039
 31
0.0
 12
3199.830234626152
 22
4554.535484479931
 32
0.0
 13
3199.830234626152
 23
4554.535484479931
 33
0.0
  0
LINE
  5
7FD
330
18
100
AcDbEntity
  8
MOJI
  6
Continuous
100
AcDbLine
 10
3232.102889900605
 20
4578.167575405963
 30
0.0
 11
3332.327083725301
 21
4651.558104983129
 31
0.0
  0
LINE
  5
7FE
330
18
100
AcDbEntity
  8
MOJI
100
AcDbLine
 10
3158.760285601424
 20
4356.326810681567
 30
0.0
 11
3507.959278263093
 21
4356.326810681567
 31
0.0
  0
LINE
  5
801
330
18
100
AcDbEntity
  8
MOJI
100
AcDbLine
 10
3195.186254653986
 20
3490.166333713724
 30
0.0
 11
3746.088000421916
 21
3490.166333713724
 31
0.0
  0
TEXT
  5
8B3
330
18
100
AcDbEntity
  8
MOJI
100
AcDbText
 10
5823.20381981241
 20
3681.289241575347
 30
0.0
 40
60.0
  1
GL
 41
0.8
  7
EXT08
100
AcDbText
  0
LINE
  5
93E
330
18
100
AcDbEntity
  8
HATCH
100
AcDbLine
 10
5921.951577027249
 20
3658.067570814764
 30
0.0
 11
5887.93427862281
 21
3624.050272410325
 31
0.0
  0
LINE
  5
93F
330
18
100
AcDbEntity
  8
HATCH
100
AcDbLine
 10
5906.951577027248
 20
3643.067570814764
 30
0.0
 11
5925.968875431688
 21
3624.050272410325
 31
0.0
  0
LINE
  5
940
330
18
100
AcDbEntity
  8
HATCH
100
AcDbLine
 10
5838.916980218371
 20
3658.067570814764
 30
0.0
 11
5804.899681813933
 21
3624.050272410325
 31
0.0
  0
LINE
  5
941
330
18
100
AcDbEntity
  8
HATCH
100
AcDbLine
 10
5853.916980218372
 20
3658.067570814764
 30
0.0
 11
5819.899681813933
 21
3624.050272410325
 31
0.0
  0
LINE
  5
942
330
18
100
AcDbEntity
  8
HATCH
100
AcDbLine
 10
5823.916980218371
 20
3658.067570814764
 30
0.0
 11
5789.899681813933
 21
3624.050272410325
 31
0.0
  0
LINE
  5
943
330
18
100
AcDbEntity
  8
HATCH
100
AcDbLine
 10
5853.916980218372
 20
3658.067570814764
 30
0.0
 11
5887.93427862281
 21
3624.050272410325
 31
0.0
  0
LINE
  5
944
330
18
100
AcDbEntity
  8
HATCH
100
AcDbLine
 10
5891.951577027248
 20
3658.067570814764
 30
0.0
 11
5872.93427862281
 21
3639.050272410326
 31
0.0
  0
LINE
  5
945
330
18
100
AcDbEntity
  8
HATCH
100
AcDbLine
 10
5906.951577027248
 20
3658.067570814764
 30
0.0
 11
5880.43427862281
 21
3631.550272410326
 31
0.0
  0
LINE
  5
946
330
18
100
AcDbEntity
  8
HATCH
100
AcDbLine
 10
5838.916980218371
 20
3643.067570814764
 30
0.0
 11
5857.93427862281
 21
3624.050272410325
 31
0.0
  0
LINE
  5
947
330
18
100
AcDbEntity
  8
HATCH
100
AcDbLine
 10
5846.416980218371
 20
3650.567570814764
 30
0.0
 11
5872.93427862281
 21
3624.050272410325
 31
0.0
  0
LINE
  5
94D
330
18
100
AcDbEntity
  8
HATCH
100
AcDbLine
 10
5921.951577027249
 20
3658.067570814764
 30
0.0
 11
5955.968875431688
 21
3624.050272410325
 31
0.0
  0
LINE
  5
94F
330
18
100
AcDbEntity
  8
HATCH
100
AcDbLine
 10
5914.451577027248
 20
3650.567570814764
 30
0.0
 11
5940.968875431687
 21
3624.050272410325
 31
0.0
  0
LINE
  5
952
330
18
100
AcDbEntity
  8
MOJI2
100
AcDbLine
 10
2038.297585373595
 20
2761.332719019883
 30
0.0
 11
2297.844556141816
 21
2761.332719019883
 31
0.0
  0
CIRCLE
  5
95F
330
18
100
AcDbEntity
  8
MOJI
100
AcDbCircle
 10
1623.776637818722
 20
2611.161861658247
 30
0.0
 40
48.0
  0
LINE
  5
960
330
18
100
AcDbEntity
  8
MOJI
100
AcDbLine
 10
1568.857632618445
 20
2554.89416992282
 30
0.0
 11
1877.580688483587
 21
2554.89416992282
 31
0.0
  0
SOLID
  5
961
330
18
100
AcDbEntity
  8
MOJI
  6
Continuous
100
AcDbTrace
 10
1435.661410067968
 20
2418.435149162145
 30
0.0
 11
1426.451374905986
 21
2428.076364339333
 31
0.0
 12
1402.132746955414
 22
2395.625651264793
 32
0.0
 13
1402.132746955414
 23
2395.625651264793
 33
0.0
  0
LINE
  5
962
330
18
100
AcDbEntity
  8
MOJI
  6
Continuous
100
AcDbLine
 10
1431.056392486977
 20
2423.255756750739
 30
0.0
 11
1568.857632618444
 21
2554.894169922819
 31
0.0
  0
CIRCLE
  5
963
330
18
100
AcDbEntity
  8
MOJI
100
AcDbCircle
 10
594.9330368196606
 20
2554.364309589719
 30
0.0
 40
48.0
  0
LINE
  5
964
330
18
100
AcDbEntity
  8
MOJI
100
AcDbLine
 10
539.7568937999385
 20
2501.68706182082
 30
0.0
 11
993.4273420507524
 21
2501.68706182082
 31
0.0
  0
SOLID
  5
965
330
18
100
AcDbEntity
  8
MOJI
  6
Continuous
100
AcDbTrace
 10
1189.94051892657
 20
2222.835786233421
 30
0.0
 11
1178.893651652803
 21
2215.369562206944
 31
0.0
 12
1206.815757369119
 22
2185.962072398881
 32
0.0
 13
1206.815757369119
 23
2185.962072398881
 33
0.0
  0
LINE
  5
966
330
18
100
AcDbEntity
  8
MOJI
  6
Continuous
100
AcDbLine
 10
1184.417085289686
 20
2219.102674220182
 30
0.0
 11
993.4273420507526
 21
2501.687061820821
 31
0.0
  0
CIRCLE
  5
967
330
18
100
AcDbEntity
  8
MOJI
100
AcDbCircle
 10
601.1289463122957
 20
1892.381023222002
 30
0.0
 40
48.0
  0
LINE
  5
968
330
18
100
AcDbEntity
  8
MOJI
100
AcDbLine
 10
551.4131340405729
 20
1837.505474661015
 30
0.0
 11
979.4723246851972
 21
1837.505474661015
 31
0.0
  0
SOLID
  5
969
330
18
100
AcDbEntity
  8
MOJI
  6
Continuous
100
AcDbTrace
 10
1070.567211798174
 20
2093.968683673456
 30
0.0
 11
1083.018409461468
 21
2089.19946418518
 31
0.0
 12
1091.10046909465
 22
2128.937666919201
 32
0.0
 13
1091.10046909465
 23
2128.937666919201
 33
0.0
  0
LINE
  5
96A
330
18
100
AcDbEntity
  8
MOJI
  6
Continuous
100
AcDbLine
 10
1076.792810629821
 20
2091.584073929318
 30
0.0
 11
979.4723246851972
 21
1837.505474661015
 31
0.0
  0
CIRCLE
  5
96B
330
18
100
AcDbEntity
  8
MOJI
100
AcDbCircle
 10
1560.160728924591
 20
2002.437434520047
 30
0.0
 40
48.0
  0
LINE
  5
96C
330
18
100
AcDbEntity
  8
MOJI
100
AcDbLine
 10
1507.020949012898
 20
1946.126884437282
 30
0.0
 11
1964.345082240695
 21
1946.126884437282
 31
0.0
  0
SOLID
  5
96D
330
18
100
AcDbEntity
  8
MOJI
  6
Continuous
100
AcDbTrace
 10
1440.887947355041
 20
2094.596023946277
 30
0.0
 11
1453.279909738668
 21
2099.517105744069
 31
0.0
 12
1432.320683153478
 22
2134.232451996052
 32
0.0
 13
1432.320683153478
 23
2134.232451996052
 33
0.0
  0
LINE
  5
96E
330
18
100
AcDbEntity
  8
MOJI
  6
Continuous
100
AcDbLine
 10
1447.083928546854
 20
2097.056564845173
 30
0.0
 11
1507.020949012898
 21
1946.126884437282
 31
0.0
  0
CIRCLE
  5
96F
330
18
100
AcDbEntity
  8
MOJI
100
AcDbCircle
 10
1562.919027898489
 20
1673.10823119069
 30
0.0
 40
48.0
  0
LINE
  5
970
330
18
100
AcDbEntity
  8
MOJI
100
AcDbLine
 10
1497.120508040018
 20
1522.662069189975
 30
0.0
 11
1936.595440689336
 21
1522.662069189975
 31
0.0
  0
SOLID
  5
971
330
18
100
AcDbEntity
  8
MOJI
  6
Continuous
100
AcDbTrace
 10
1420.427597075316
 20
1694.225130401109
 30
0.0
 11
1432.785439289188
 21
1699.231277981319
 31
0.0
 12
1411.588075441625
 22
1733.801730832828
 32
0.0
 13
1411.588075441625
 23
1733.801730832828
 33
0.0
  0
LINE
  5
972
330
18
100
AcDbEntity
  8
MOJI
  6
Continuous
100
AcDbLine
 10
1426.606518182252
 20
1696.728204191214
 30
0.0
 11
1497.120508040018
 21
1522.662069189975
 31
0.0
  0
LINE
  5
9E6
330
18
100
AcDbEntity
  8
HATCH
100
AcDbLine
 10
3100.309690771564
 20
378.6389608227382
 30
0.0
 11
3032.275093962686
 21
310.6043640138605
 31
0.0
  0
LINE
  5
9E7
330
18
100
AcDbEntity
  8
HATCH
100
AcDbLine
 10
3070.309690771564
 20
348.6389608227382
 30
0.0
 11
3108.344287580441
 21
310.6043640138605
 31
0.0
  0
LINE
  5
9E8
330
18
100
AcDbEntity
  8
HATCH
100
AcDbLine
 10
2934.240497153809
 20
378.6389608227382
 30
0.0
 11
2866.205900344932
 21
310.6043640138605
 31
0.0
  0
LINE
  5
9E9
330
18
100
AcDbEntity
  8
HATCH
100
AcDbLine
 10
2964.240497153809
 20
378.6389608227382
 30
0.0
 11
2896.205900344932
 21
310.6043640138605
 31
0.0
  0
LINE
  5
9EA
330
18
100
AcDbEntity
  8
HATCH
100
AcDbLine
 10
2904.240497153809
 20
378.6389608227382
 30
0.0
 11
2836.205900344932
 21
310.6043640138605
 31
0.0
  0
LINE
  5
9EB
330
18
100
AcDbEntity
  8
HATCH
100
AcDbLine
 10
2964.240497153809
 20
378.6389608227382
 30
0.0
 11
3032.275093962686
 21
310.6043640138605
 31
0.0
  0
LINE
  5
9EC
330
18
100
AcDbEntity
  8
HATCH
100
AcDbLine
 10
3040.309690771564
 20
378.6389608227382
 30
0.0
 11
3002.275093962687
 21
340.6043640138614
 31
0.0
  0
LINE
  5
9ED
330
18
100
AcDbEntity
  8
HATCH
100
AcDbLine
 10
3070.309690771564
 20
378.6389608227382
 30
0.0
 11
3017.275093962687
 21
325.6043640138614
 31
0.0
  0
LINE
  5
9EE
330
18
100
AcDbEntity
  8
HATCH
100
AcDbLine
 10
2934.240497153809
 20
348.6389608227382
 30
0.0
 11
2972.275093962686
 21
310.6043640138605
 31
0.0
  0
LINE
  5
9EF
330
18
100
AcDbEntity
  8
HATCH
100
AcDbLine
 10
2949.240497153809
 20
363.6389608227382
 30
0.0
 11
3002.275093962686
 21
310.6043640138605
 31
0.0
  0
LINE
  5
9F5
330
18
100
AcDbEntity
  8
HATCH
100
AcDbLine
 10
3100.309690771564
 20
378.6389608227382
 30
0.0
 11
3168.344287580441
 21
310.6043640138605
 31
0.0
  0
LINE
  5
9F7
330
18
100
AcDbEntity
  8
HATCH
100
AcDbLine
 10
3085.309690771564
 20
363.6389608227382
 30
0.0
 11
3138.344287580441
 21
310.6043640138605
 31
0.0
  0
LINE
  5
9F8
330
18
100
AcDbEntity
  8
HATCH
100
AcDbLine
 10
811.9687935093388
 20
378.6389608227382
 30
0.0
 11
743.9341967004621
 21
310.6043640138605
 31
0.0
  0
LINE
  5
9F9
330
18
100
AcDbEntity
  8
HATCH
100
AcDbLine
 10
948.0379871270933
 20
378.6389608227382
 30
0.0
 11
910.0033903182165
 21
340.6043640138614
 31
0.0
  0
LINE
  5
9FA
330
18
100
AcDbEntity
  8
HATCH
100
AcDbLine
 10
978.0379871270934
 20
378.6389608227382
 30
0.0
 11
925.0033903182165
 21
325.6043640138614
 31
0.0
  0
LINE
  5
9FB
330
18
100
AcDbEntity
  8
HATCH
100
AcDbLine
 10
871.9687935093388
 20
378.6389608227382
 30
0.0
 11
940.0033903182157
 21
310.6043640138605
 31
0.0
  0
LINE
  5
9FC
330
18
100
AcDbEntity
  8
HATCH
100
AcDbLine
 10
871.9687935093388
 20
378.6389608227382
 30
0.0
 11
803.934196700462
 21
310.6043640138605
 31
0.0
  0
LINE
  5
9FD
330
18
100
AcDbEntity
  8
HATCH
100
AcDbLine
 10
841.9687935093389
 20
348.6389608227382
 30
0.0
 11
880.0033903182157
 21
310.6043640138605
 31
0.0
  0
LINE
  5
9FE
330
18
100
AcDbEntity
  8
HATCH
100
AcDbLine
 10
841.9687935093389
 20
378.6389608227382
 30
0.0
 11
773.934196700462
 21
310.6043640138605
 31
0.0
  0
LINE
  5
9FF
330
18
100
AcDbEntity
  8
HATCH
100
AcDbLine
 10
856.9687935093389
 20
363.6389608227382
 30
0.0
 11
910.0033903182156
 21
310.6043640138605
 31
0.0
  0
LINE
  5
A00
330
18
100
AcDbEntity
  8
HATCH
100
AcDbLine
 10
978.0379871270934
 20
348.6389608227382
 30
0.0
 11
1016.072583935971
 21
310.6043640138605
 31
0.0
  0
LINE
  5
A01
330
18
100
AcDbEntity
  8
HATCH
100
AcDbLine
 10
993.0379871270934
 20
363.6389608227382
 30
0.0
 11
1046.072583935971
 21
310.6043640138605
 31
0.0
  0
LINE
  5
A02
330
18
100
AcDbEntity
  8
HATCH
100
AcDbLine
 10
1008.037987127093
 20
378.6389608227382
 30
0.0
 11
1076.072583935971
 21
310.6043640138605
 31
0.0
  0
LINE
  5
A03
330
18
100
AcDbEntity
  8
HATCH
100
AcDbLine
 10
1008.037987127093
 20
378.6389608227382
 30
0.0
 11
940.0033903182157
 21
310.6043640138605
 31
0.0
  0
TEXT
  5
A04
330
18
100
AcDbEntity
  8
MOJI
100
AcDbText
 10
797.9497967959341
 20
405.4461998708957
 30
0.0
 40
60.0
  1
GL
 41
0.8
  7
EXT08
100
AcDbText
  0
LINE
  5
A06
330
18
100
AcDbEntity
  8
MOJI2
100
AcDbLine
 10
4989.63709726679
 20
2714.397938637392
 30
0.0
 11
5398.387617950379
 21
2714.397938637392
 31
0.0
  0
CIRCLE
  5
A07
330
18
100
AcDbEntity
  8
MOJI
100
AcDbCircle
 10
4896.484406371983
 20
2232.543736666015
 30
0.0
 40
48.0
  0
LINE
  5
A08
330
18
100
AcDbEntity
  8
MOJI
100
AcDbLine
 10
4843.051614037988
 20
2171.392983250686
 30
0.0
 11
5230.682334643181
 21
2171.392983250686
 31
0.0
  0
SOLID
  5
A09
330
18
100
AcDbEntity
  8
MOJI
  6
Continuous
100
AcDbTrace
 10
4720.085160585913
 20
2085.310740645041
 30
0.0
 11
4712.931327284675
 21
2096.562427046459
 31
0.0
 12
4682.753184731038
 22
2069.475083942034
 32
0.0
 13
4682.753184731038
 23
2069.475083942034
 33
0.0
  0
LINE
  5
A0A
330
18
100
AcDbEntity
  8
MOJI
  6
Continuous
100
AcDbLine
 10
4716.508243935293
 20
2090.93658384575
 30
0.0
 11
4843.051614037988
 21
2171.392983250686
 31
0.0
  0
CIRCLE
  5
A0B
330
18
100
AcDbEntity
  8
MOJI
100
AcDbCircle
 10
6241.835513393711
 20
1894.80420209449
 30
0.0
 40
48.0
  0
TEXT
  5
A14
330
18
100
AcDbEntity
  8
MOJI
100
AcDbText
 10
2906.117345892684
 20
405.4461998708957
 30
0.0
 40
60.0
  1
GL
 41
0.8
  7
EXT08
100
AcDbText
  0
INSERT
  5
A65
330
18
100
AcDbEntity
  8
HATCH
100
AcDbBlockReference
  2
*X18
 10
0.0
 20
0.0
 30
0.0
1001
ACAD
1000
HATCH
1002
{
1070
    19
1000
PLAST
1040
500.0
1040
0.7853981633974483
1000
ASC_BOUNDS
1070
     2
1070
     1
1070
     4
1005
419
1005
385
1005
20F
1005
609
1070
     1
1070
     4
1005
418
1005
20D
1005
20F
1005
36A
1000
ASC_SEEDPOINT
1011
6024.582123464599
1021
3372.931694015047
1031
0.0
1002
}
  0
LINE
  5
A7F
330
18
100
AcDbEntity
  8
HATCH
100
AcDbLine
 10
1358.723685469602
 20
3658.067570814764
 30
0.0
 11
1324.706387065164
 21
3624.050272410325
 31
0.0
  0
LINE
  5
A80
330
18
100
AcDbEntity
  8
HATCH
100
AcDbLine
 10
1343.723685469602
 20
3643.067570814764
 30
0.0
 11
1362.74098387404
 21
3624.050272410325
 31
0.0
  0
LINE
  5
A81
330
18
100
AcDbEntity
  8
HATCH
100
AcDbLine
 10
1328.723685469602
 20
3658.067570814764
 30
0.0
 11
1294.706387065163
 21
3624.050272410325
 31
0.0
  0
LINE
  5
A82
330
18
100
AcDbEntity
  8
HATCH
100
AcDbLine
 10
1343.723685469602
 20
3658.067570814764
 30
0.0
 11
1309.706387065163
 21
3624.050272410325
 31
0.0
  0
LINE
  5
A83
330
18
100
AcDbEntity
  8
HATCH
100
AcDbLine
 10
1411.758282278479
 20
3643.067570814764
 30
0.0
 11
1430.775580682918
 21
3624.050272410325
 31
0.0
  0
LINE
  5
A84
330
18
100
AcDbEntity
  8
HATCH
100
AcDbLine
 10
1419.258282278479
 20
3650.567570814764
 30
0.0
 11
1445.775580682918
 21
3624.050272410325
 31
0.0
  0
LINE
  5
A85
330
18
100
AcDbEntity
  8
HATCH
100
AcDbLine
 10
1426.758282278479
 20
3658.067570814764
 30
0.0
 11
1460.775580682918
 21
3624.050272410325
 31
0.0
  0
LINE
  5
A86
330
18
100
AcDbEntity
  8
HATCH
100
AcDbLine
 10
1411.758282278479
 20
3658.067570814764
 30
0.0
 11
1385.24098387404
 21
3631.550272410326
 31
0.0
  0
LINE
  5
A87
330
18
100
AcDbEntity
  8
HATCH
100
AcDbLine
 10
1426.758282278479
 20
3658.067570814764
 30
0.0
 11
1392.74098387404
 21
3624.050272410325
 31
0.0
  0
LINE
  5
A88
330
18
100
AcDbEntity
  8
HATCH
100
AcDbLine
 10
1396.758282278479
 20
3658.067570814764
 30
0.0
 11
1377.74098387404
 21
3639.050272410326
 31
0.0
  0
LINE
  5
A89
330
18
100
AcDbEntity
  8
HATCH
100
AcDbLine
 10
1351.223685469602
 20
3650.567570814764
 30
0.0
 11
1377.74098387404
 21
3624.050272410325
 31
0.0
  0
LINE
  5
A8A
330
18
100
AcDbEntity
  8
HATCH
100
AcDbLine
 10
1358.723685469602
 20
3658.067570814764
 30
0.0
 11
1392.74098387404
 21
3624.050272410325
 31
0.0
  0
SOLID
  5
AAD
330
18
100
AcDbEntity
  8
MOJI
  6
Continuous
100
AcDbTrace
 10
3075.677090613147
 20
3758.901862216035
 30
0.0
 11
3087.979724889735
 21
3764.042189796481
 31
0.0
 12
3066.407425010102
 22
3798.379928836022
 32
0.0
 13
3066.407425010102
 23
3798.379928836022
 33
0.0
  0
LINE
  5
AAE
330
18
100
AcDbEntity
  8
MOJI
  6
Continuous
100
AcDbLine
 10
3081.828407751441
 20
3761.472026006259
 30
0.0
 11
3195.186254653986
 21
3490.166333713724
 31
0.0
  0
SOLID
  5
AAF
330
18
100
AcDbEntity
  8
MOJI
  6
Continuous
100
AcDbTrace
 10
3088.559332833548
 20
4499.283347465364
 30
0.0
 11
3100.763020156795
 21
4504.654361661417
 31
0.0
 12
3078.548133907013
 22
4538.579916533132
 32
0.0
 13
3078.548133907013
 23
4538.579916533132
 33
0.0
  0
LINE
  5
AB0
330
18
100
AcDbEntity
  8
MOJI
  6
Continuous
100
AcDbLine
 10
3094.661176495171
 20
4501.968854563391
 30
0.0
 11
3158.760285601424
 21
4356.326810681567
 31
0.0
  0
TEXT
  5
B67
330
18
100
AcDbEntity
  8
INFORMATION
100
AcDbText
 10
1.0
 20
1.0
 30
0.0
 40
0.8
  1
VERSION=3.0
 41
0.8
  7
EXT08
100
AcDbText
  0
ENDSEC
  0
SECTION
  2
OBJECTS
  0
DICTIONARY
  5
C
330
0
100
AcDbDictionary
281
     1
  3
ACAD_COLOR
350
ABD
  3
ACAD_GROUP
350
D
  3
ACAD_LAYOUT
350
AC0
  3
ACAD_MATERIAL
350
ABC
  3
ACAD_MLINESTYLE
350
E
  3
ACAD_PLOTSETTINGS
350
AC1
  3
ACAD_PLOTSTYLENAME
350
ABA
  3
ACAD_TABLESTYLE
350
ABE
  3
AcDbVariableDictionary
350
C06
  0
DICTIONARY
  5
ABD
102
{ACAD_REACTORS
330
C
102
}
330
C
100
AcDbDictionary
281
     1
  0
DICTIONARY
  5
D
102
{ACAD_REACTORS
330
C
102
}
330
C
100
AcDbDictionary
281
     1
  0
DICTIONARY
  5
AC0
102
{ACAD_REACTORS
330
C
102
}
330
C
100
AcDbDictionary
281
     1
  3
Model
350
AC2
  3
レイアウト1
350
AC3
  0
DICTIONARY
  5
ABC
102
{ACAD_REACTORS
330
C
102
}
330
C
100
AcDbDictionary
281
     1
  0
DICTIONARY
  5
E
102
{ACAD_REACTORS
330
C
102
}
330
C
100
AcDbDictionary
281
     1
  3
STANDARD
350
1B
  0
DICTIONARY
  5
AC1
102
{ACAD_REACTORS
330
C
102
}
330
C
100
AcDbDictionary
281
     1
  0
ACDBDICTIONARYWDFLT
  5
ABA
102
{ACAD_REACTORS
330
C
102
}
330
C
100
AcDbDictionary
281
     1
  3
Normal
350
ABB
100
AcDbDictionaryWithDefault
340
ABB
  0
DICTIONARY
  5
ABE
102
{ACAD_REACTORS
330
C
102
}
330
C
100
AcDbDictionary
281
     1
  3
Standard
350
ABF
  0
DICTIONARY
  5
C06
102
{ACAD_REACTORS
330
C
102
}
330
C
100
AcDbDictionary
281
     1
  3
CTABLESTYLE
350
C07
  0
LAYOUT
  5
AC2
102
{ACAD_REACTORS
330
AC0
102
}
330
AC0
100
AcDbPlotSettings
  1

  2
FX DocuColor 4055 PSS61 PS J7
  4

  6

 40
0.0
 41
0.0
 42
0.0
 43
0.0
 44
0.0
 45
0.0
 46
0.0
 47
0.0
 48
0.0
 49
0.0
140
0.0
141
0.0
142
1.0
143
1.0
 70
  1712
 72
     0
 73
     0
 74
     0
  7

 75
     0
147
1.0
 76
     0
 77
     2
 78
   300
148
0.0
149
0.0
100
AcDbLayout
  1
Model
 70
     1
 71
     0
 10
0.0
 20
0.0
 11
12.0
 21
9.0
 12
0.0
 22
0.0
 32
0.0
 14
0.0
 24
0.0
 34
0.0
 15
0.0
 25
0.0
 35
0.0
146
0.0
 13
0.0
 23
0.0
 33
0.0
 16
1.0
 26
0.0
 36
0.0
 17
0.0
 27
1.0
 37
0.0
 76
     0
330
18
  0
LAYOUT
  5
AC3
102
{ACAD_REACTORS
330
AC0
102
}
330
AC0
100
AcDbPlotSettings
  1

  2
FX DocuColor 4055 PSS61 PS J7
  4

  6

 40
0.0
 41
0.0
 42
0.0
 43
0.0
 44
0.0
 45
0.0
 46
0.0
 47
0.0
 48
0.0
 49
0.0
140
0.0
141
0.0
142
1.0
143
1.0
 70
   688
 72
     0
 73
     0
 74
     5
  7

 75
    16
147
1.0
 76
     0
 77
     2
 78
   300
148
0.0
149
0.0
100
AcDbLayout
  1
レイアウト1
 70
     1
 71
     1
 10
0.0
 20
0.0
 11
12.0
 21
9.0
 12
0.0
 22
0.0
 32
0.0
 14
1.000000000000000E+20
 24
1.000000000000000E+20
 34
1.000000000000000E+20
 15
-1.000000000000000E+20
 25
-1.000000000000000E+20
 35
-1.000000000000000E+20
146
0.0
 13
0.0
 23
0.0
 33
0.0
 16
1.0
 26
0.0
 36
0.0
 17
0.0
 27
1.0
 37
0.0
 76
     0
330
15
  0
MLINESTYLE
  5
1B
102
{ACAD_REACTORS
330
E
102
}
330
E
100
AcDbMlineStyle
  2
STANDARD
 70
     0
  3

 62
     0
 51
90.0
 52
90.0
 71
     2
 49
0.5
 62
   256
  6
BYLAYER
 49
-0.5
 62
   256
  6
BYLAYER
  0
ACDBPLACEHOLDER
  5
ABB
102
{ACAD_REACTORS
330
ABA
102
}
330
ABA
  0
TABLESTYLE
  5
ABF
102
{ACAD_REACTORS
330
ABE
102
}
330
ABE
100
AcDbTableStyle
  3
Standard
 70
     0
 71
     0
 40
0.06
 41
0.06
280
     0
281
     0
  7
STANDARD
140
0.18
170
     2
 62
     0
 63
     7
283
     0
274
    -2
284
     1
 64
     0
275
    -2
285
     1
 65
     0
276
    -2
286
     1
 66
     0
277
    -2
287
     1
 67
     0
278
    -2
288
     1
 68
     0
279
    -2
289
     1
 69
     0
  7
STANDARD
140
0.25
170
     5
 62
     0
 63
     7
283
     0
274
    -2
284
     1
 64
     0
275
    -2
285
     1
 65
     0
276
    -2
286
     1
 66
     0
277
    -2
287
     1
 67
     0
278
    -2
288
     1
 68
     0
279
    -2
289
     1
 69
     0
  7
STANDARD
140
0.18
170
     5
 62
     0
 63
     7
283
     0
274
    -2
284
     1
 64
     0
275
    -2
285
     1
 65
     0
276
    -2
286
     1
 66
     0
277
    -2
287
     1
 67
     0
278
    -2
288
     1
 68
     0
279
    -2
289
     1
 69
     0
  0
DICTIONARYVAR
  5
C07
102
{ACAD_REACTORS
330
C06
102
}
330
C06
100
DictionaryVariables
280
     0
  1
STANDARD
  0
ENDSEC
  0
EOF
