  0
SECTION
  2
HEADER
  9
$ACADVER
  1
AC1015
  9
$ACADMAINTVER
 70
    10
  9
$DWGCODEPAGE
  3
ANSI_932
  9
$INSBASE
 10
0.0
 20
0.0
 30
0.0
  9
$EXTMIN
 10
-0.2563280987742473
 20
-0.1812605841350887
 30
-0.0015258207003583
  9
$EXTMAX
 10
7400.500506675453
 20
5340.162976999025
 30
0.0000000349246037
  9
$LIMMIN
 10
0.0
 20
0.0
  9
$LIMMAX
 10
8400.0
 20
5940.0
  9
$ORTHOMODE
 70
     1
  9
$REGENMODE
 70
     1
  9
$FILLMODE
 70
     1
  9
$QTEXTMODE
 70
     0
  9
$MIRRTEXT
 70
     0
  9
$LTSCALE
 40
200.0
  9
$ATTMODE
 70
     1
  9
$TEXTSIZE
 40
60.0
  9
$TRACEWID
 40
0.05
  9
$TEXTSTYLE
  7
EXT08
  9
$CLAYER
  8
SJC
  9
$CELTYPE
  6
BYLAYER
  9
$CECOLOR
 62
   256
  9
$CELTSCALE
 40
1.0
  9
$DISPSILH
 70
     0
  9
$DIMSCALE
 40
20.0
  9
$DIMASZ
 40
2.0
  9
$DIMEXO
 40
1.0
  9
$DIMDLI
 40
6.0
  9
$DIMRND
 40
0.0
  9
$DIMDLE
 40
0.0
  9
$DIMEXE
 40
1.0
  9
$DIMTP
 40
0.0
  9
$DIMTM
 40
0.0
  9
$DIMTXT
 40
3.0
  9
$DIMCEN
 40
0.09
  9
$DIMTSZ
 40
0.0
  9
$DIMTOL
 70
     0
  9
$DIMLIM
 70
     0
  9
$DIMTIH
 70
     0
  9
$DIMTOH
 70
     0
  9
$DIMSE1
 70
     0
  9
$DIMSE2
 70
     0
  9
$DIMTAD
 70
     1
  9
$DIMZIN
 70
     8
  9
$DIMBLK
  1

  9
$DIMASO
 70
     1
  9
$DIMSHO
 70
     1
  9
$DIMPOST
  1

  9
$DIMAPOST
  1

  9
$DIMALT
 70
     0
  9
$DIMALTD
 70
     2
  9
$DIMALTF
 40
25.4
  9
$DIMLFAC
 40
1.0
  9
$DIMTOFL
 70
     1
  9
$DIMTVP
 40
0.0
  9
$DIMTIX
 70
     0
  9
$DIMSOXD
 70
     0
  9
$DIMSAH
 70
     0
  9
$DIMBLK1
  1

  9
$DIMBLK2
  1

  9
$DIMSTYLE
  2
SJC
  9
$DIMCLRD
 70
   256
  9
$DIMCLRE
 70
   256
  9
$DIMCLRT
 70
   256
  9
$DIMTFAC
 40
1.0
  9
$DIMGAP
 40
1.199999999999999
  9
$DIMJUST
 70
     0
  9
$DIMSD1
 70
     0
  9
$DIMSD2
 70
     0
  9
$DIMTOLJ
 70
     1
  9
$DIMTZIN
 70
     0
  9
$DIMALTZ
 70
     0
  9
$DIMALTTZ
 70
     0
  9
$DIMUPT
 70
     0
  9
$DIMDEC
 70
     2
  9
$DIMTDEC
 70
     4
  9
$DIMALTU
 70
     2
  9
$DIMALTTD
 70
     2
  9
$DIMTXSTY
  7
EXT08
  9
$DIMAUNIT
 70
     1
  9
$DIMADEC
 70
     0
  9
$DIMALTRND
 40
0.0
  9
$DIMAZIN
 70
     0
  9
$DIMDSEP
 70
    46
  9
$DIMATFIT
 70
     3
  9
$DIMFRAC
 70
     0
  9
$DIMLDRBLK
  1

  9
$DIMLUNIT
 70
     2
  9
$DIMLWD
 70
    -2
  9
$DIMLWE
 70
    -2
  9
$DIMTMOVE
 70
     2
  9
$LUNITS
 70
     2
  9
$LUPREC
 70
     2
  9
$SKETCHINC
 40
0.1
  9
$FILLETRAD
 40
0.0
  9
$AUNITS
 70
     1
  9
$AUPREC
 70
     2
  9
$MENU
  1
sjc
  9
$ELEVATION
 40
0.0
  9
$PELEVATION
 40
0.0
  9
$THICKNESS
 40
0.0
  9
$LIMCHECK
 70
     0
  9
$CHAMFERA
 40
0.0
  9
$CHAMFERB
 40
0.0
  9
$CHAMFERC
 40
0.0
  9
$CHAMFERD
 40
0.0
  9
$SKPOLY
 70
     0
  9
$TDCREATE
 40
2449299.044180671
  9
$TDUCREATE
 40
2449298.669180671
  9
$TDUPDATE
 40
2453388.490969328
  9
$TDUUPDATE
 40
2453388.115969328
  9
$TDINDWG
 40
0.2520467593
  9
$TDUSRTIMER
 40
0.2520467593
  9
$USRTIMER
 70
     1
  9
$ANGBASE
 50
0.0
  9
$ANGDIR
 70
     0
  9
$PDMODE
 70
     0
  9
$PDSIZE
 40
0.0
  9
$PLINEWID
 40
0.0
  9
$SPLFRAME
 70
     0
  9
$SPLINETYPE
 70
     6
  9
$SPLINESEGS
 70
     8
  9
$HANDSEED
  5
7D7
  9
$SURFTAB1
 70
     6
  9
$SURFTAB2
 70
     6
  9
$SURFTYPE
 70
     6
  9
$SURFU
 70
     6
  9
$SURFV
 70
     6
  9
$UCSBASE
  2

  9
$UCSNAME
  2

  9
$UCSORG
 10
0.0
 20
0.0
 30
0.0
  9
$UCSXDIR
 10
1.0
 20
0.0
 30
0.0
  9
$UCSYDIR
 10
0.0
 20
1.0
 30
0.0
  9
$UCSORTHOREF
  2

  9
$UCSORTHOVIEW
 70
     0
  9
$UCSORGTOP
 10
0.0
 20
0.0
 30
0.0
  9
$UCSORGBOTTOM
 10
0.0
 20
0.0
 30
0.0
  9
$UCSORGLEFT
 10
0.0
 20
0.0
 30
0.0
  9
$UCSORGRIGHT
 10
0.0
 20
0.0
 30
0.0
  9
$UCSORGFRONT
 10
0.0
 20
0.0
 30
0.0
  9
$UCSORGBACK
 10
0.0
 20
0.0
 30
0.0
  9
$PUCSBASE
  2

  9
$PUCSNAME
  2

  9
$PUCSORG
 10
0.0
 20
0.0
 30
0.0
  9
$PUCSXDIR
 10
1.0
 20
0.0
 30
0.0
  9
$PUCSYDIR
 10
0.0
 20
1.0
 30
0.0
  9
$PUCSORTHOREF
  2

  9
$PUCSORTHOVIEW
 70
     0
  9
$PUCSORGTOP
 10
0.0
 20
0.0
 30
0.0
  9
$PUCSORGBOTTOM
 10
0.0
 20
0.0
 30
0.0
  9
$PUCSORGLEFT
 10
0.0
 20
0.0
 30
0.0
  9
$PUCSORGRIGHT
 10
0.0
 20
0.0
 30
0.0
  9
$PUCSORGFRONT
 10
0.0
 20
0.0
 30
0.0
  9
$PUCSORGBACK
 10
0.0
 20
0.0
 30
0.0
  9
$USERI1
 70
     3
  9
$USERI2
 70
    20
  9
$USERI3
 70
     0
  9
$USERI4
 70
     0
  9
$USERI5
 70
     0
  9
$USERR1
 40
0.0
  9
$USERR2
 40
0.0
  9
$USERR3
 40
0.0
  9
$USERR4
 40
0.0
  9
$USERR5
 40
0.0
  9
$WORLDVIEW
 70
     1
  9
$SHADEDGE
 70
     3
  9
$SHADEDIF
 70
    70
  9
$TILEMODE
 70
     1
  9
$MAXACTVP
 70
    16
  9
$PINSBASE
 10
0.0
 20
0.0
 30
0.0
  9
$PLIMCHECK
 70
     0
  9
$PEXTMIN
 10
1.000000000000000E+20
 20
1.000000000000000E+20
 30
1.000000000000000E+20
  9
$PEXTMAX
 10
-1.000000000000000E+20
 20
-1.000000000000000E+20
 30
-1.000000000000000E+20
  9
$PLIMMIN
 10
0.0
 20
0.0
  9
$PLIMMAX
 10
12.0
 20
9.0
  9
$UNITMODE
 70
     0
  9
$VISRETAIN
 70
     0
  9
$PLINEGEN
 70
     0
  9
$PSLTSCALE
 70
     1
  9
$TREEDEPTH
 70
  3020
  9
$CMLSTYLE
  2
STANDARD
  9
$CMLJUST
 70
     0
  9
$CMLSCALE
 40
1.0
  9
$PROXYGRAPHICS
 70
     1
  9
$MEASUREMENT
 70
     0
  9
$CELWEIGHT
370
    -1
  9
$ENDCAPS
280
     0
  9
$JOINSTYLE
280
     0
  9
$LWDISPLAY
290
     0
  9
$INSUNITS
 70
     0
  9
$HYPERLINKBASE
  1

  9
$STYLESHEET
  1

  9
$XEDIT
290
     1
  9
$CEPSNTYPE
380
     0
  9
$PSTYLEMODE
290
     1
  9
$FINGERPRINTGUID
  2
{19EEC977-F283-4E5E-A1C4-C807517CDA74}
  9
$VERSIONGUID
  2
{50CE0163-6D55-4B1C-99AF-99AEE492C2EB}
  9
$EXTNAMES
290
     1
  9
$PSVPSCALE
 40
0.0
  9
$OLESTARTUP
290
     0
  0
ENDSEC
  0
SECTION
  2
CLASSES
  0
CLASS
  1
ACDBDICTIONARYWDFLT
  2
AcDbDictionaryWithDefault
  3
AutoCAD 2000
 90
        0
280
     0
281
     0
  0
CLASS
  1
ACDBPLACEHOLDER
  2
AcDbPlaceHolder
  3
AutoCAD 2000
 90
        0
280
     0
281
     0
  0
CLASS
  1
LAYOUT
  2
AcDbLayout
  3
AutoCAD 2000
 90
        0
280
     0
281
     0
  0
ENDSEC
  0
SECTION
  2
TABLES
  0
TABLE
  2
VPORT
  5
8
330
0
100
AcDbSymbolTable
 70
     2
  0
VPORT
  5
7D6
330
8
100
AcDbSymbolTableRecord
100
AcDbViewportTableRecord
  2
*Active
 70
     0
 10
0.0
 20
0.0
 11
1.0
 21
1.0
 12
4199.871835950612
 22
2969.909369707933
 13
0.0
 23
0.0
 14
10.0
 24
10.0
 15
0.0
 25
0.0
 16
0.0
 26
0.0
 36
1.0
 17
0.0
 27
0.0
 37
0.0
 40
6000.898615888233
 41
1.716723549488054
 42
50.0
 43
0.0
 44
0.0
 50
0.0
 51
0.0
 71
     0
 72
   100
 73
     1
 74
     1
 75
     0
 76
     0
 77
     0
 78
     0
281
     0
 65
     1
110
0.0
120
0.0
130
0.0
111
1.0
121
0.0
131
0.0
112
0.0
122
1.0
132
0.0
 79
     0
146
0.0
  0
ENDTAB
  0
TABLE
  2
LTYPE
  5
5
330
0
100
AcDbSymbolTable
 70
     5
  0
LTYPE
  5
12
330
5
100
AcDbSymbolTableRecord
100
AcDbLinetypeTableRecord
  2
BYBLOCK
 70
     0
  3

 72
    65
 73
     0
 40
0.0
  0
LTYPE
  5
13
330
5
100
AcDbSymbolTableRecord
100
AcDbLinetypeTableRecord
  2
BYLAYER
 70
     0
  3

 72
    65
 73
     0
 40
0.0
  0
LTYPE
  5
14
330
5
100
AcDbSymbolTableRecord
100
AcDbLinetypeTableRecord
  2
CONTINUOUS
 70
     0
  3
Solid line
 72
    65
 73
     0
 40
0.0
  0
LTYPE
  5
2F
330
5
100
AcDbSymbolTableRecord
100
AcDbLinetypeTableRecord
  2
CENTER
 70
     0
  3
____ _ ____ _ ____ _ ____ _ ____ _ ____ _ ____ 
 72
    65
 73
     4
 40
2.0
 49
1.25
 74
     0
 49
-0.25
 74
     0
 49
0.25
 74
     0
 49
-0.25
 74
     0
  0
LTYPE
  5
30
330
5
100
AcDbSymbolTableRecord
100
AcDbLinetypeTableRecord
  2
HIDDEN
 70
     0
  3
__ __ __ __ __ __ __ __ __ __ __ __ __ __ __ __
 72
    65
 73
     2
 40
0.375
 49
0.25
 74
     0
 49
-0.125
 74
     0
  0
LTYPE
  5
31
330
5
100
AcDbSymbolTableRecord
100
AcDbLinetypeTableRecord
  2
HIDDEN2
 70
     0
  3
_ _ _ _ _ _ _ _ _ _ _ _ _ _ _ _ _ _ _ _ _ _ _ _
 72
    65
 73
     2
 40
0.1875
 49
0.125
 74
     0
 49
-0.0625
 74
     0
  0
LTYPE
  5
32
330
5
100
AcDbSymbolTableRecord
100
AcDbLinetypeTableRecord
  2
PHANTOM
 70
     0
  3
______  __  __  ______  __  __  ______  __  __ 
 72
    65
 73
     6
 40
2.5
 49
1.25
 74
     0
 49
-0.25
 74
     0
 49
0.25
 74
     0
 49
-0.25
 74
     0
 49
0.25
 74
     0
 49
-0.25
 74
     0
  0
ENDTAB
  0
TABLE
  2
LAYER
  5
2
330
0
100
AcDbSymbolTable
 70
    16
  0
LAYER
  5
F
330
2
100
AcDbSymbolTableRecord
100
AcDbLayerTableRecord
  2
0
 70
     0
 62
     7
  6
CONTINUOUS
370
    -3
390
6C1
  0
LAYER
  5
37
330
2
100
AcDbSymbolTableRecord
100
AcDbLayerTableRecord
  2
CENTER
 70
     0
 62
     3
  6
CENTER
370
    -3
390
6C1
  0
LAYER
  5
38
330
2
100
AcDbSymbolTableRecord
100
AcDbLayerTableRecord
  2
HASEN
 70
     0
 62
     7
  6
HIDDEN
370
    -3
390
6C1
  0
LAYER
  5
39
330
2
100
AcDbSymbolTableRecord
100
AcDbLayerTableRecord
  2
HOJO
 70
     0
 62
     8
  6
CONTINUOUS
370
    -3
390
6C1
  0
LAYER
  5
3A
330
2
100
AcDbSymbolTableRecord
100
AcDbLayerTableRecord
  2
KASOU
 70
     0
 62
     2
  6
PHANTOM
370
    -3
390
6C1
  0
LAYER
  5
3B
330
2
100
AcDbSymbolTableRecord
100
AcDbLayerTableRecord
  2
MOJI
 70
     0
 62
     6
  6
CONTINUOUS
370
    -3
390
6C1
  0
LAYER
  5
3C
330
2
100
AcDbSymbolTableRecord
100
AcDbLayerTableRecord
  2
SJC
 70
     0
 62
     1
  6
CONTINUOUS
370
    -3
390
6C1
  0
LAYER
  5
3D
330
2
100
AcDbSymbolTableRecord
100
AcDbLayerTableRecord
  2
SUNPOU
 70
     0
 62
     4
  6
CONTINUOUS
370
    -3
390
6C1
  0
LAYER
  5
3E
330
2
100
AcDbSymbolTableRecord
100
AcDbLayerTableRecord
  2
WAKU
 70
     0
 62
    -5
  6
CONTINUOUS
370
    -3
390
6C1
  0
LAYER
  5
3F
330
2
100
AcDbSymbolTableRecord
100
AcDbLayerTableRecord
  2
ZWAKU
 70
     0
 62
    -7
  6
CONTINUOUS
370
    -3
390
6C1
  0
LAYER
  5
40
330
2
100
AcDbSymbolTableRecord
100
AcDbLayerTableRecord
  2
1
 70
     0
 62
     7
  6
CONTINUOUS
370
    -3
390
6C1
  0
LAYER
  5
41
330
2
100
AcDbSymbolTableRecord
100
AcDbLayerTableRecord
  2
DEFPOINTS
 70
     0
 62
     7
  6
CONTINUOUS
290
     0
370
    -3
390
6C1
  0
LAYER
  5
4D3
330
2
100
AcDbSymbolTableRecord
100
AcDbLayerTableRecord
  2
INFORMATION
 70
     1
 62
     7
  6
CONTINUOUS
370
    -3
390
6C1
  0
LAYER
  5
4D6
330
2
100
AcDbSymbolTableRecord
100
AcDbLayerTableRecord
  2
SJC2
 70
     0
 62
     7
  6
CONTINUOUS
370
    -3
390
6C1
  0
LAYER
  5
4D7
330
2
100
AcDbSymbolTableRecord
100
AcDbLayerTableRecord
  2
MOJI2
 70
     0
 62
     1
  6
CONTINUOUS
370
    -3
390
6C1
  0
LAYER
  5
4D8
330
2
100
AcDbSymbolTableRecord
100
AcDbLayerTableRecord
  2
HATCH
 70
     0
 62
     2
  6
CONTINUOUS
370
    -3
390
6C1
  0
ENDTAB
  0
TABLE
  2
STYLE
  5
3
330
0
100
AcDbSymbolTable
 70
     8
  0
STYLE
  5
10
330
3
100
AcDbSymbolTableRecord
100
AcDbTextStyleTableRecord
  2
STANDARD
 70
     0
 40
0.0
 41
1.0
 50
0.0
 71
     0
 42
60.0
  3
romans
  4
bigfont
  0
STYLE
  5
2D
330
3
100
AcDbSymbolTableRecord
100
AcDbTextStyleTableRecord
  2
SIMPLEX
 70
     0
 40
0.0
 41
1.0
 50
0.0
 71
     0
 42
60.0
  3
scripts
  4

  0
STYLE
  5
2E
330
3
100
AcDbSymbolTableRecord
100
AcDbTextStyleTableRecord
  2
KANJI
 70
     0
 40
0.0
 41
1.0
 50
0.0
 71
     0
 42
60.0
  3
romans
  4
bigfont
  0
STYLE
  5
4E8
330
3
100
AcDbSymbolTableRecord
100
AcDbTextStyleTableRecord
  2
TATEEXT
 70
     4
 40
0.0
 41
1.0
 50
0.0
 71
     0
 42
60.0
  3
ROMANS
  4
EXTFONT
  0
STYLE
  5
4E9
330
3
100
AcDbSymbolTableRecord
100
AcDbTextStyleTableRecord
  2
TATEBIG
 70
     4
 40
0.0
 41
1.0
 50
0.0
 71
     0
 42
60.0
  3
ROMANS
  4
BIGFONT
  0
STYLE
  5
4EA
330
3
100
AcDbSymbolTableRecord
100
AcDbTextStyleTableRecord
  2
EXT08
 70
     0
 40
0.0
 41
0.8
 50
0.0
 71
     0
 42
60.0
  3
ROMANS
  4
EXTFONT
  0
STYLE
  5
4EB
330
3
100
AcDbSymbolTableRecord
100
AcDbTextStyleTableRecord
  2
EXT
 70
     0
 40
0.0
 41
1.0
 50
0.0
 71
     0
 42
60.0
  3
ROMANS
  4
EXTFONT
  0
STYLE
  5
4EC
330
3
100
AcDbSymbolTableRecord
100
AcDbTextStyleTableRecord
  2
KANJI08
 70
     0
 40
0.0
 41
0.8
 50
0.0
 71
     0
 42
60.0
  3
ROMANS
  4
BIGFONT
  0
ENDTAB
  0
TABLE
  2
VIEW
  5
6
330
0
100
AcDbSymbolTable
 70
     0
  0
ENDTAB
  0
TABLE
  2
UCS
  5
7
330
0
100
AcDbSymbolTable
 70
     0
  0
ENDTAB
  0
TABLE
  2
APPID
  5
9
330
0
100
AcDbSymbolTable
 70
     1
  0
APPID
  5
11
330
9
100
AcDbSymbolTableRecord
100
AcDbRegAppTableRecord
  2
ACAD
 70
     0
  0
ENDTAB
  0
TABLE
  2
DIMSTYLE
  5
A
330
0
100
AcDbSymbolTable
 70
     2
100
AcDbDimStyleTable
 71
     0
  0
DIMSTYLE
105
35
330
A
100
AcDbSymbolTableRecord
100
AcDbDimStyleTableRecord
  2
S01-20AX
 70
     0
 41
40.0
 42
20.0
 43
0.4
 44
20.0
 73
     0
 74
     0
 77
     1
 78
     8
140
50.0
141
0.1
146
0.004
147
0.1
172
     1
176
   256
177
   256
178
   256
271
     1
272
     1
275
     1
279
     2
284
     8
285
     8
286
     8
340
2E
  0
DIMSTYLE
105
4ED
102
{ACAD_REACTORS
330
428
330
429
330
42A
330
42B
330
42C
330
42D
330
42E
330
42F
330
430
330
431
330
44B
330
462
330
463
330
4AC
102
}
330
A
100
AcDbSymbolTableRecord
100
AcDbDimStyleTableRecord
  2
SJC
 70
     0
340
10
  0
ENDTAB
  0
TABLE
  2
BLOCK_RECORD
  5
1
330
0
100
AcDbSymbolTable
 70
    17
  0
BLOCK_RECORD
  5
18
330
1
100
AcDbSymbolTableRecord
100
AcDbBlockTableRecord
  2
*MODEL_SPACE
340
6C4
  0
BLOCK_RECORD
  5
15
330
1
100
AcDbSymbolTableRecord
100
AcDbBlockTableRecord
  2
*PAPER_SPACE
340
6C5
  0
BLOCK_RECORD
  5
488
330
1
100
AcDbSymbolTableRecord
100
AcDbBlockTableRecord
  2
*X0
340
0
102
{BLKREFS
331
48A
102
}
  0
BLOCK_RECORD
  5
49E
330
1
100
AcDbSymbolTableRecord
100
AcDbBlockTableRecord
  2
*D1
340
0
  0
BLOCK_RECORD
  5
4C9
330
1
100
AcDbSymbolTableRecord
100
AcDbBlockTableRecord
  2
CALCOMP_TECHJET720A3
340
0
102
{BLKREFS
331
4D2
102
}
  0
BLOCK_RECORD
  5
4F2
330
1
100
AcDbSymbolTableRecord
100
AcDbBlockTableRecord
  2
*D3
340
0
  0
BLOCK_RECORD
  5
4FE
330
1
100
AcDbSymbolTableRecord
100
AcDbBlockTableRecord
  2
*D4
340
0
  0
BLOCK_RECORD
  5
50A
330
1
100
AcDbSymbolTableRecord
100
AcDbBlockTableRecord
  2
*D5
340
0
  0
BLOCK_RECORD
  5
518
330
1
100
AcDbSymbolTableRecord
100
AcDbBlockTableRecord
  2
*D6
340
0
  0
BLOCK_RECORD
  5
524
330
1
100
AcDbSymbolTableRecord
100
AcDbBlockTableRecord
  2
*D7
340
0
  0
BLOCK_RECORD
  5
546
330
1
100
AcDbSymbolTableRecord
100
AcDbBlockTableRecord
  2
*D8
340
0
  0
BLOCK_RECORD
  5
552
330
1
100
AcDbSymbolTableRecord
100
AcDbBlockTableRecord
  2
*D9
340
0
  0
BLOCK_RECORD
  5
55E
330
1
100
AcDbSymbolTableRecord
100
AcDbBlockTableRecord
  2
*D10
340
0
  0
BLOCK_RECORD
  5
580
330
1
100
AcDbSymbolTableRecord
100
AcDbBlockTableRecord
  2
*D11
340
0
  0
BLOCK_RECORD
  5
58C
330
1
100
AcDbSymbolTableRecord
100
AcDbBlockTableRecord
  2
*D12
340
0
  0
BLOCK_RECORD
  5
598
330
1
100
AcDbSymbolTableRecord
100
AcDbBlockTableRecord
  2
*D13
340
0
  0
BLOCK_RECORD
  5
5A4
330
1
100
AcDbSymbolTableRecord
100
AcDbBlockTableRecord
  2
*D14
340
0
  0
BLOCK_RECORD
  5
5B0
330
1
100
AcDbSymbolTableRecord
100
AcDbBlockTableRecord
  2
*D15
340
0
  0
BLOCK_RECORD
  5
67B
330
1
100
AcDbSymbolTableRecord
100
AcDbBlockTableRecord
  2
B0040021
340
0
102
{BLKREFS
331
68A
331
68C
331
6A2
331
6A3
102
}
  0
ENDTAB
  0
ENDSEC
  0
SECTION
  2
BLOCKS
  0
BLOCK
  5
44
330
18
100
AcDbEntity
  8
0
100
AcDbBlockBegin
  2
*MODEL_SPACE
 70
     0
 10
0.0
 20
0.0
 30
0.0
  3
*MODEL_SPACE
  1

  0
ENDBLK
  5
45
330
18
100
AcDbEntity
  8
0
100
AcDbBlockEnd
  0
BLOCK
  5
42
330
15
100
AcDbEntity
 67
     1
  8
0
100
AcDbBlockBegin
  2
*PAPER_SPACE
 70
     0
 10
0.0
 20
0.0
 30
0.0
  3
*PAPER_SPACE
  1

  0
ENDBLK
  5
43
330
15
100
AcDbEntity
 67
     1
  8
0
100
AcDbBlockEnd
  0
BLOCK
  5
489
330
488
100
AcDbEntity
  8
0
100
AcDbBlockBegin
  2
*X0
 70
     1
 10
0.0
 20
0.0
 30
0.0
  3
*X0
  1

  0
LINE
  5
48B
330
488
100
AcDbEntity
  8
0
 62
     0
100
AcDbLine
 10
5971.8572085819
 20
3496.983474428984
 30
0.0
 11
6077.307038347299
 21
3602.433304194383
 31
0.0
  0
LINE
  5
48C
330
488
100
AcDbEntity
  8
0
 62
     0
100
AcDbLine
 10
6166.407378816501
 20
3691.533644663584
 30
0.0
 11
6271.857208581899
 21
3796.983474428983
 31
0.0
  0
LINE
  5
48D
330
488
100
AcDbEntity
  8
0
 62
     0
100
AcDbLine
 10
5971.857208581899
 20
3673.76016972562
 30
0.0
 11
6077.307038347299
 21
3779.209999491019
 31
0.0
  0
LINE
  5
48E
330
488
100
AcDbEntity
  8
0
 62
     0
100
AcDbLine
 10
6068.573596306853
 20
3416.923166857299
 30
0.0
 11
6077.307038347299
 21
3425.656608897746
 31
0.0
  0
LINE
  5
48F
330
488
100
AcDbEntity
  8
0
 62
     0
100
AcDbLine
 10
6166.407378816501
 20
3514.756949366947
 30
0.0
 11
6271.857208581899
 21
3620.206779132346
 31
0.0
  0
LINE
  5
490
330
488
100
AcDbEntity
  8
0
 62
     0
100
AcDbLine
 10
6245.350291603491
 20
3416.9231668573
 30
0.0
 11
6271.857208581899
 21
3443.430083835709
 31
0.0
  0
LINE
  5
491
330
488
100
AcDbEntity
  8
0
 62
     0
100
AcDbLine
 10
5971.8572085819
 20
3519.080561341064
 30
0.0
 11
6077.307038347299
 21
3624.530391106463
 31
0.0
  0
LINE
  5
492
330
488
100
AcDbEntity
  8
0
 62
     0
100
AcDbLine
 10
6166.407378816501
 20
3713.630731575664
 30
0.0
 11
6269.699808137736
 21
3816.9231608969
 31
0.0
  0
LINE
  5
493
330
488
100
AcDbEntity
  8
0
 62
     0
100
AcDbLine
 10
5971.857208581899
 20
3695.8572566377
 30
0.0
 11
6077.307038347299
 21
3801.3070864031
 31
0.0
  0
LINE
  5
494
330
488
100
AcDbEntity
  8
0
 62
     0
100
AcDbLine
 10
6046.476509394772
 20
3416.923166857299
 30
0.0
 11
6077.307038347299
 21
3447.753695809826
 31
0.0
  0
LINE
  5
495
330
488
100
AcDbEntity
  8
0
 62
     0
100
AcDbLine
 10
6166.407378816501
 20
3536.854036279027
 30
0.0
 11
6271.857208581899
 21
3642.303866044425
 31
0.0
  0
LINE
  5
496
330
488
100
AcDbEntity
  8
0
 62
     0
100
AcDbLine
 10
6223.253204691412
 20
3416.9231668573
 30
0.0
 11
6271.857208581899
 21
3465.527170747789
 31
0.0
  0
LINE
  5
497
330
488
100
AcDbEntity
  8
0
 62
     0
100
AcDbLine
 10
5971.8572085819
 20
3541.177648253142
 30
0.0
 11
6077.307038347299
 21
3646.627478018543
 31
0.0
  0
LINE
  5
498
330
488
100
AcDbEntity
  8
0
 62
     0
100
AcDbLine
 10
6166.407378816501
 20
3735.727818487744
 30
0.0
 11
6247.602721225656
 21
3816.9231608969
 31
0.0
  0
LINE
  5
499
330
488
100
AcDbEntity
  8
0
 62
     0
100
AcDbLine
 10
5971.857208581899
 20
3717.954343549779
 30
0.0
 11
6070.826025929021
 21
3816.9231608969
 31
0.0
  0
LINE
  5
49A
330
488
100
AcDbEntity
  8
0
 62
     0
100
AcDbLine
 10
6024.379422482692
 20
3416.923166857299
 30
0.0
 11
6077.307038347299
 21
3469.850782721905
 31
0.0
  0
LINE
  5
49B
330
488
100
AcDbEntity
  8
0
 62
     0
100
AcDbLine
 10
6166.407378816501
 20
3558.951123191107
 30
0.0
 11
6271.857208581899
 21
3664.400952956505
 31
0.0
  0
LINE
  5
49C
330
488
100
AcDbEntity
  8
0
 62
     0
100
AcDbLine
 10
6201.156117779332
 20
3416.9231668573
 30
0.0
 11
6271.857208581899
 21
3487.624257659869
 31
0.0
  0
ENDBLK
  5
49D
330
488
100
AcDbEntity
  8
0
100
AcDbBlockEnd
  0
BLOCK
  5
53B
330
49E
100
AcDbEntity
  8
0
100
AcDbBlockBegin
  2
*D1
 70
     1
 10
0.0
 20
0.0
 30
0.0
  3
*D1
  1

  0
LINE
  5
751
330
49E
100
AcDbEntity
  8
SUNPOU
370
    -2
100
AcDbLine
 10
5913.219864825908
 20
3244.615469655864
 30
0.0
 11
5913.219864825908
 21
3090.602939078215
 31
0.0
  0
LINE
  5
752
330
49E
100
AcDbEntity
  8
SUNPOU
370
    -2
100
AcDbLine
 10
6213.219864825908
 20
3244.615469655865
 30
0.0
 11
6213.219864825908
 21
3090.602939078215
 31
0.0
  0
LINE
  5
753
330
49E
100
AcDbEntity
  8
SUNPOU
370
    -2
100
AcDbLine
 10
5953.219864825907
 20
3110.602939078215
 30
0.0
 11
6173.219864825907
 21
3110.602939078215
 31
0.0
  0
MTEXT
  5
754
330
49E
100
AcDbEntity
  8
SUNPOU
100
AcDbMText
 10
6060.250229651302
 20
3167.711459847833
 30
0.0
 40
60.0
 41
0.0
 71
     5
 72
     1
  1
\A1;□300
  7
EXT08
 73
     1
 44
1.0
  0
SOLID
  5
755
330
49E
100
AcDbEntity
  8
SUNPOU
100
AcDbTrace
 10
5953.219864825907
 20
3117.269605744882
 30
0.0
 11
5953.219864825907
 21
3103.936272411548
 31
0.0
 12
5913.219864825908
 22
3110.602939078215
 32
0.0
 13
5913.219864825908
 23
3110.602939078215
 33
0.0
  0
SOLID
  5
756
330
49E
100
AcDbEntity
  8
SUNPOU
100
AcDbTrace
 10
6173.219864825907
 20
3117.269605744882
 30
0.0
 11
6173.219864825907
 21
3103.936272411548
 31
0.0
 12
6213.219864825908
 22
3110.602939078215
 32
0.0
 13
6213.219864825908
 23
3110.602939078215
 33
0.0
  0
POINT
  5
757
330
49E
100
AcDbEntity
  8
DEFPOINTS
 62
     0
100
AcDbPoint
 10
5913.219864825908
 20
3264.615469655864
 30
0.0
  0
POINT
  5
758
330
49E
100
AcDbEntity
  8
DEFPOINTS
 62
     0
100
AcDbPoint
 10
6213.219864825908
 20
3264.615469655864
 30
0.0
  0
POINT
  5
759
330
49E
100
AcDbEntity
  8
DEFPOINTS
 62
     0
100
AcDbPoint
 10
6213.219864825908
 20
3110.602939078215
 30
0.0
  0
ENDBLK
  5
545
330
49E
100
AcDbEntity
  8
0
100
AcDbBlockEnd
  0
BLOCK
  5
4D0
330
4C9
100
AcDbEntity
  8
0
100
AcDbBlockBegin
  2
CALCOMP_TECHJET720A3
 70
     0
 10
0.0
 20
0.0
 30
0.0
  3
CALCOMP_TECHJET720A3
  1

  0
LWPOLYLINE
  5
4CA
330
4C9
100
AcDbEntity
  8
ZWAKU
100
AcDbPolyline
 90
        4
 70
     1
 43
0.0
 10
0.0
 20
0.0
 10
0.0
 20
267.0
 10
370.0
 20
267.0
 10
370.0
 20
0.0
  0
ENDBLK
  5
4D1
330
4C9
100
AcDbEntity
  8
0
100
AcDbBlockEnd
  0
BLOCK
  5
640
330
4F2
100
AcDbEntity
  8
0
100
AcDbBlockBegin
  2
*D3
 70
     1
 10
0.0
 20
0.0
 30
0.0
  3
*D3
  1

  0
LINE
  5
7CD
330
4F2
100
AcDbEntity
  8
SUNPOU
370
    -2
100
AcDbLine
 10
963.2203985855076
 20
4823.985563904965
 30
0.0
 11
963.2203985855076
 21
4953.306065833065
 31
0.0
  0
LINE
  5
7CE
330
4F2
100
AcDbEntity
  8
SUNPOU
370
    -2
100
AcDbLine
 10
2963.219911019507
 20
4818.615691534166
 30
0.0
 11
2963.219911019507
 21
4953.306065833065
 31
0.0
  0
LINE
  5
7CF
330
4F2
100
AcDbEntity
  8
SUNPOU
370
    -2
100
AcDbLine
 10
1003.220398585507
 20
4933.306065833065
 30
0.0
 11
2923.219911019506
 21
4933.306065833065
 31
0.0
  0
SOLID
  5
7D0
330
4F2
100
AcDbEntity
  8
SUNPOU
100
AcDbTrace
 10
1003.220398585507
 20
4939.972732499732
 30
0.0
 11
1003.220398585507
 21
4926.639399166398
 31
0.0
 12
963.2203985855076
 22
4933.306065833065
 32
0.0
 13
963.2203985855076
 23
4933.306065833065
 33
0.0
  0
SOLID
  5
7D1
330
4F2
100
AcDbEntity
  8
SUNPOU
100
AcDbTrace
 10
2923.219911019506
 20
4939.972732499732
 30
0.0
 11
2923.219911019506
 21
4926.639399166398
 31
0.0
 12
2963.219911019507
 22
4933.306065833065
 32
0.0
 13
2963.219911019507
 23
4933.306065833065
 33
0.0
  0
MTEXT
  5
7D2
330
4F2
100
AcDbEntity
  8
SUNPOU
100
AcDbMText
 10
1963.220154802507
 20
4987.306065833065
 30
0.0
 40
60.0
 41
0.0
 71
     5
 72
     1
  1
\A1;2000
  7
EXT08
 73
     1
 44
1.0
  0
POINT
  5
7D3
330
4F2
100
AcDbEntity
  8
DEFPOINTS
 62
     0
100
AcDbPoint
 10
963.2203985855076
 20
4803.985563904965
 30
0.0
  0
POINT
  5
7D4
330
4F2
100
AcDbEntity
  8
DEFPOINTS
 62
     0
100
AcDbPoint
 10
2963.219911019507
 20
4798.615691534165
 30
0.0
  0
POINT
  5
7D5
330
4F2
100
AcDbEntity
  8
DEFPOINTS
 62
     0
100
AcDbPoint
 10
2963.219911019507
 20
4933.306065833065
 30
0.0
  0
ENDBLK
  5
64A
330
4F2
100
AcDbEntity
  8
0
100
AcDbBlockEnd
  0
BLOCK
  5
64B
330
4FE
100
AcDbEntity
  8
0
100
AcDbBlockBegin
  2
*D4
 70
     1
 10
0.0
 20
0.0
 30
0.0
  3
*D4
  1

  0
LINE
  5
7C4
330
4FE
100
AcDbEntity
  8
SUNPOU
370
    -2
100
AcDbLine
 10
2963.219911019507
 20
4818.615691534166
 30
0.0
 11
2963.219911019507
 21
4953.306240677965
 31
0.0
  0
LINE
  5
7C5
330
4FE
100
AcDbEntity
  8
SUNPOU
370
    -2
100
AcDbLine
 10
4963.219881217208
 20
4798.615691534165
 30
0.0
 11
4963.219881217208
 21
4953.306240677965
 31
0.0
  0
LINE
  5
7C6
330
4FE
100
AcDbEntity
  8
SUNPOU
370
    -2
100
AcDbLine
 10
3003.219911019507
 20
4933.306240677964
 30
0.0
 11
4923.219881217207
 21
4933.306240677964
 31
0.0
  0
SOLID
  5
7C7
330
4FE
100
AcDbEntity
  8
SUNPOU
100
AcDbTrace
 10
3003.219911019507
 20
4939.972907344632
 30
0.0
 11
3003.219911019507
 21
4926.639574011297
 31
0.0
 12
2963.219911019507
 22
4933.306240677964
 32
0.0
 13
2963.219911019507
 23
4933.306240677964
 33
0.0
  0
SOLID
  5
7C8
330
4FE
100
AcDbEntity
  8
SUNPOU
100
AcDbTrace
 10
4923.219881217207
 20
4939.972907344632
 30
0.0
 11
4923.219881217207
 21
4926.639574011297
 31
0.0
 12
4963.219881217208
 22
4933.306240677964
 32
0.0
 13
4963.219881217208
 23
4933.306240677964
 33
0.0
  0
MTEXT
  5
7C9
330
4FE
100
AcDbEntity
  8
SUNPOU
100
AcDbMText
 10
3963.219896118356
 20
4987.306240677964
 30
0.0
 40
60.0
 41
0.0
 71
     5
 72
     1
  1
\A1;2000
  7
EXT08
 73
     1
 44
1.0
  0
POINT
  5
7CA
330
4FE
100
AcDbEntity
  8
DEFPOINTS
 62
     0
100
AcDbPoint
 10
2963.219911019507
 20
4798.615691534165
 30
0.0
  0
POINT
  5
7CB
330
4FE
100
AcDbEntity
  8
DEFPOINTS
 62
     0
100
AcDbPoint
 10
4963.219881217208
 20
4778.615691534166
 30
0.0
  0
POINT
  5
7CC
330
4FE
100
AcDbEntity
  8
DEFPOINTS
 62
     0
100
AcDbPoint
 10
4963.219881217208
 20
4933.306240677964
 30
0.0
  0
ENDBLK
  5
655
330
4FE
100
AcDbEntity
  8
0
100
AcDbBlockEnd
  0
BLOCK
  5
626
330
50A
100
AcDbEntity
  8
0
100
AcDbBlockBegin
  2
*D5
 70
     1
 10
0.0
 20
0.0
 30
0.0
  3
*D5
  1

  0
LINE
  5
7B9
330
50A
100
AcDbEntity
  8
SUNPOU
370
    -2
100
AcDbLine
 10
6018.219865496508
 20
4795.541961111264
 30
0.0
 11
6018.219865496508
 21
4947.697109913065
 31
0.0
  0
LINE
  5
7BA
330
50A
100
AcDbEntity
  8
SUNPOU
370
    -2
100
AcDbLine
 10
6108.219864155408
 20
4795.541961111264
 30
0.0
 11
6108.219864155408
 21
4947.697109913065
 31
0.0
  0
LINE
  5
7BB
330
50A
100
AcDbEntity
  8
SUNPOU
370
    -2
100
AcDbLine
 10
5978.219865496508
 20
4927.697109913065
 30
0.0
 11
5938.219865496508
 21
4927.697109913065
 31
0.0
  0
LINE
  5
7BC
330
50A
100
AcDbEntity
  8
SUNPOU
370
    -2
100
AcDbLine
 10
6148.219864155407
 20
4927.697109913065
 30
0.0
 11
6188.219864155407
 21
4927.697109913065
 31
0.0
  0
MTEXT
  5
7BD
330
50A
100
AcDbEntity
  8
SUNPOU
100
AcDbMText
 10
6062.344989416449
 20
4991.196851732858
 30
0.0
 40
60.0
 41
0.0
 71
     5
 72
     1
  1
\A1;φ90
  7
EXT08
 73
     1
 44
1.0
  0
LINE
  5
7BE
330
50A
100
AcDbEntity
  8
SUNPOU
370
    -2
100
AcDbLine
 10
6018.219865496508
 20
4927.697109913065
 30
0.0
 11
6108.219864155408
 21
4927.697109913065
 31
0.0
  0
SOLID
  5
7BF
330
50A
100
AcDbEntity
  8
SUNPOU
100
AcDbTrace
 10
5978.219865496508
 20
4934.363776579733
 30
0.0
 11
5978.219865496508
 21
4921.030443246398
 31
0.0
 12
6018.219865496508
 22
4927.697109913065
 32
0.0
 13
6018.219865496508
 23
4927.697109913065
 33
0.0
  0
SOLID
  5
7C0
330
50A
100
AcDbEntity
  8
SUNPOU
100
AcDbTrace
 10
6148.219864155407
 20
4934.363776579733
 30
0.0
 11
6148.219864155407
 21
4921.030443246398
 31
0.0
 12
6108.219864155408
 22
4927.697109913065
 32
0.0
 13
6108.219864155408
 23
4927.697109913065
 33
0.0
  0
POINT
  5
7C1
330
50A
100
AcDbEntity
  8
DEFPOINTS
 62
     0
100
AcDbPoint
 10
6018.219865496508
 20
4775.541961111264
 30
0.0
  0
POINT
  5
7C2
330
50A
100
AcDbEntity
  8
DEFPOINTS
 62
     0
100
AcDbPoint
 10
6108.219864155408
 20
4775.541961111264
 30
0.0
  0
POINT
  5
7C3
330
50A
100
AcDbEntity
  8
DEFPOINTS
 62
     0
100
AcDbPoint
 10
6108.219864155408
 20
4927.697109913065
 30
0.0
  0
ENDBLK
  5
632
330
50A
100
AcDbEntity
  8
0
100
AcDbBlockEnd
  0
BLOCK
  5
5F0
330
518
100
AcDbEntity
  8
0
100
AcDbBlockBegin
  2
*D6
 70
     1
 10
0.0
 20
0.0
 30
0.0
  3
*D6
  1

  0
LINE
  5
7AE
330
518
100
AcDbEntity
  8
SUNPOU
370
    -2
100
AcDbLine
 10
6103.219864825907
 20
4758.615691534165
 30
0.0
 11
6447.878062517109
 21
4758.615691534164
 31
0.0
  0
LINE
  5
7AF
330
518
100
AcDbEntity
  8
SUNPOU
370
    -2
100
AcDbLine
 10
6147.770035060508
 20
4564.615450284363
 30
0.0
 11
6447.878062517109
 21
4564.615450284363
 31
0.0
  0
LINE
  5
7B0
330
518
100
AcDbEntity
  8
SUNPOU
370
    -2
100
AcDbLine
 10
6427.878062517108
 20
4798.615691534164
 30
0.0
 11
6427.878062517108
 21
4838.615691534164
 31
0.0
  0
LINE
  5
7B1
330
518
100
AcDbEntity
  8
SUNPOU
370
    -2
100
AcDbLine
 10
6427.878062517108
 20
4524.615450284364
 30
0.0
 11
6427.878062517108
 21
4484.615450284364
 31
0.0
  0
MTEXT
  5
7B2
330
518
100
AcDbEntity
  8
SUNPOU
100
AcDbMText
 10
6376.75104915546
 20
4658.781197343698
 30
0.0
 40
60.0
 41
0.0
 71
     5
 72
     1
  1
\A1;194
  7
EXT08
 11
0.0000000000000001
 21
1.0
 31
0.0
 73
     1
 44
1.0
  0
LINE
  5
7B3
330
518
100
AcDbEntity
  8
SUNPOU
370
    -2
100
AcDbLine
 10
6427.878062517108
 20
4758.615691534164
 30
0.0
 11
6427.878062517108
 21
4564.615450284363
 31
0.0
  0
SOLID
  5
7B4
330
518
100
AcDbEntity
  8
SUNPOU
100
AcDbTrace
 10
6421.211395850441
 20
4798.615691534164
 30
0.0
 11
6434.544729183776
 21
4798.615691534164
 31
0.0
 12
6427.878062517108
 22
4758.615691534164
 32
0.0
 13
6427.878062517108
 23
4758.615691534164
 33
0.0
  0
SOLID
  5
7B5
330
518
100
AcDbEntity
  8
SUNPOU
100
AcDbTrace
 10
6421.211395850441
 20
4524.615450284364
 30
0.0
 11
6434.544729183776
 21
4524.615450284364
 31
0.0
 12
6427.878062517108
 22
4564.615450284363
 32
0.0
 13
6427.878062517108
 23
4564.615450284363
 33
0.0
  0
POINT
  5
7B6
330
518
100
AcDbEntity
  8
DEFPOINTS
 62
     0
100
AcDbPoint
 10
6083.219864825907
 20
4758.615691534165
 30
0.0
  0
POINT
  5
7B7
330
518
100
AcDbEntity
  8
DEFPOINTS
 62
     0
100
AcDbPoint
 10
6127.770035060508
 20
4564.615450284365
 30
0.0
  0
POINT
  5
7B8
330
518
100
AcDbEntity
  8
DEFPOINTS
 62
     0
100
AcDbPoint
 10
6427.878062517108
 20
4564.615450284363
 30
0.0
  0
ENDBLK
  5
5FA
330
518
100
AcDbEntity
  8
0
100
AcDbBlockEnd
  0
BLOCK
  5
5E5
330
524
100
AcDbEntity
  8
0
100
AcDbBlockBegin
  2
*D7
 70
     1
 10
0.0
 20
0.0
 30
0.0
  3
*D7
  1

  0
LINE
  5
7A5
330
524
100
AcDbEntity
  8
SUNPOU
370
    -2
100
AcDbLine
 10
6147.770035060508
 20
4564.615450284363
 30
0.0
 11
6447.878062517109
 21
4564.615450284363
 31
0.0
  0
LINE
  5
7A6
330
524
100
AcDbEntity
  8
SUNPOU
370
    -2
100
AcDbLine
 10
6411.820324094609
 20
3664.615463695465
 30
0.0
 11
6447.878062517109
 21
3664.615463695465
 31
0.0
  0
LINE
  5
7A7
330
524
100
AcDbEntity
  8
SUNPOU
370
    -2
100
AcDbLine
 10
6427.878062517108
 20
4524.615450284364
 30
0.0
 11
6427.878062517108
 21
3704.615463695464
 31
0.0
  0
SOLID
  5
7A8
330
524
100
AcDbEntity
  8
SUNPOU
100
AcDbTrace
 10
6421.211395850441
 20
4524.615450284364
 30
0.0
 11
6434.544729183776
 21
4524.615450284364
 31
0.0
 12
6427.878062517108
 22
4564.615450284363
 32
0.0
 13
6427.878062517108
 23
4564.615450284363
 33
0.0
  0
SOLID
  5
7A9
330
524
100
AcDbEntity
  8
SUNPOU
100
AcDbTrace
 10
6421.211395850441
 20
3704.615463695464
 30
0.0
 11
6434.544729183776
 21
3704.615463695464
 31
0.0
 12
6427.878062517108
 22
3664.615463695465
 32
0.0
 13
6427.878062517108
 23
3664.615463695465
 33
0.0
  0
MTEXT
  5
7AA
330
524
100
AcDbEntity
  8
SUNPOU
100
AcDbMText
 10
6373.878062517107
 20
4114.615456989915
 30
0.0
 40
60.0
 41
0.0
 71
     5
 72
     1
  1
\A1;900
  7
EXT08
 11
0.0000000000000001
 21
1.0
 31
0.0
 73
     1
 44
1.0
  0
POINT
  5
7AB
330
524
100
AcDbEntity
  8
DEFPOINTS
 62
     0
100
AcDbPoint
 10
6127.770035060508
 20
4564.615450284365
 30
0.0
  0
POINT
  5
7AC
330
524
100
AcDbEntity
  8
DEFPOINTS
 62
     0
100
AcDbPoint
 10
6391.820324094608
 20
3664.615463695465
 30
0.0
  0
POINT
  5
7AD
330
524
100
AcDbEntity
  8
DEFPOINTS
 62
     0
100
AcDbPoint
 10
6427.878062517108
 20
3664.615463695465
 30
0.0
  0
ENDBLK
  5
5EF
330
524
100
AcDbEntity
  8
0
100
AcDbBlockEnd
  0
BLOCK
  5
5DA
330
546
100
AcDbEntity
  8
0
100
AcDbBlockBegin
  2
*D8
 70
     1
 10
0.0
 20
0.0
 30
0.0
  3
*D8
  1

  0
LINE
  5
76C
330
546
100
AcDbEntity
  8
SUNPOU
370
    -2
100
AcDbLine
 10
6103.219864825907
 20
4758.615691534165
 30
0.0
 11
6742.617224679164
 21
4758.615691534164
 31
0.0
  0
LINE
  5
76D
330
546
100
AcDbEntity
  8
SUNPOU
370
    -2
100
AcDbLine
 10
6231.820326478807
 20
3264.615469655864
 30
0.0
 11
6742.617224679164
 21
3264.615469655864
 31
0.0
  0
LINE
  5
76E
330
546
100
AcDbEntity
  8
SUNPOU
370
    -2
100
AcDbLine
 10
6722.617224679163
 20
4718.615691534164
 30
0.0
 11
6722.617224679163
 21
3304.615469655864
 31
0.0
  0
SOLID
  5
76F
330
546
100
AcDbEntity
  8
SUNPOU
100
AcDbTrace
 10
6715.950558012497
 20
4718.615691534164
 30
0.0
 11
6729.283891345831
 21
4718.615691534164
 31
0.0
 12
6722.617224679163
 22
4758.615691534164
 32
0.0
 13
6722.617224679163
 23
4758.615691534164
 33
0.0
  0
SOLID
  5
770
330
546
100
AcDbEntity
  8
SUNPOU
100
AcDbTrace
 10
6715.950558012497
 20
3304.615469655864
 30
0.0
 11
6729.283891345831
 21
3304.615469655864
 31
0.0
 12
6722.617224679163
 22
3264.615469655864
 32
0.0
 13
6722.617224679163
 23
3264.615469655864
 33
0.0
  0
MTEXT
  5
771
330
546
100
AcDbEntity
  8
SUNPOU
100
AcDbMText
 10
6668.617224679163
 20
4011.615580595015
 30
0.0
 40
60.0
 41
0.0
 71
     5
 72
     1
  1
\A1;1494
  7
EXT08
 11
0.0000000000000001
 21
1.0
 31
0.0
 73
     1
 44
1.0
  0
POINT
  5
772
330
546
100
AcDbEntity
  8
DEFPOINTS
 62
     0
100
AcDbPoint
 10
6083.219864825907
 20
4758.615691534165
 30
0.0
  0
POINT
  5
773
330
546
100
AcDbEntity
  8
DEFPOINTS
 62
     0
100
AcDbPoint
 10
6211.820326478807
 20
3264.615469655864
 30
0.0
  0
POINT
  5
774
330
546
100
AcDbEntity
  8
DEFPOINTS
 62
     0
100
AcDbPoint
 10
6722.617224679163
 20
3264.615469655864
 30
0.0
  0
ENDBLK
  5
5E4
330
546
100
AcDbEntity
  8
0
100
AcDbBlockEnd
  0
BLOCK
  5
5CF
330
552
100
AcDbEntity
  8
0
100
AcDbBlockBegin
  2
*D9
 70
     1
 10
0.0
 20
0.0
 30
0.0
  3
*D9
  1

  0
LINE
  5
763
330
552
100
AcDbEntity
  8
SUNPOU
370
    -2
100
AcDbLine
 10
6083.219864825907
 20
4758.615491403864
 30
0.0
 11
6590.946506063906
 21
4758.615491403864
 31
0.0
  0
LINE
  5
764
330
552
100
AcDbEntity
  8
SUNPOU
370
    -2
100
AcDbLine
 10
6411.820324094609
 20
3664.615463695465
 30
0.0
 11
6590.946506063906
 21
3664.615463695465
 31
0.0
  0
LINE
  5
765
330
552
100
AcDbEntity
  8
SUNPOU
370
    -2
100
AcDbLine
 10
6570.946506063906
 20
4718.615491403864
 30
0.0
 11
6570.946506063906
 21
3704.615463695464
 31
0.0
  0
SOLID
  5
766
330
552
100
AcDbEntity
  8
SUNPOU
100
AcDbTrace
 10
6564.279839397238
 20
4718.615491403864
 30
0.0
 11
6577.613172730572
 21
4718.615491403864
 31
0.0
 12
6570.946506063906
 22
4758.615491403864
 32
0.0
 13
6570.946506063906
 23
4758.615491403864
 33
0.0
  0
SOLID
  5
767
330
552
100
AcDbEntity
  8
SUNPOU
100
AcDbTrace
 10
6564.279839397238
 20
3704.615463695464
 30
0.0
 11
6577.613172730572
 21
3704.615463695464
 31
0.0
 12
6570.946506063906
 22
3664.615463695465
 32
0.0
 13
6570.946506063906
 23
3664.615463695465
 33
0.0
  0
MTEXT
  5
768
330
552
100
AcDbEntity
  8
SUNPOU
100
AcDbMText
 10
6516.946506063906
 20
4211.615477549666
 30
0.0
 40
60.0
 41
0.0
 71
     5
 72
     1
  1
\A1;1094
  7
EXT08
 11
0.0000000000000001
 21
1.0
 31
0.0
 73
     1
 44
1.0
  0
POINT
  5
769
330
552
100
AcDbEntity
  8
DEFPOINTS
 62
     0
100
AcDbPoint
 10
6063.219864825907
 20
4758.615491403864
 30
0.0
  0
POINT
  5
76A
330
552
100
AcDbEntity
  8
DEFPOINTS
 62
     0
100
AcDbPoint
 10
6391.820324094608
 20
3664.615463695465
 30
0.0
  0
POINT
  5
76B
330
552
100
AcDbEntity
  8
DEFPOINTS
 62
     0
100
AcDbPoint
 10
6570.946506063906
 20
3664.615463695465
 30
0.0
  0
ENDBLK
  5
5D9
330
552
100
AcDbEntity
  8
0
100
AcDbBlockEnd
  0
BLOCK
  5
5FB
330
55E
100
AcDbEntity
  8
0
100
AcDbBlockBegin
  2
*D10
 70
     1
 10
0.0
 20
0.0
 30
0.0
  3
*D10
  1

  0
LINE
  5
75A
330
55E
100
AcDbEntity
  8
SUNPOU
370
    -2
100
AcDbLine
 10
6411.820324094609
 20
3664.615463695465
 30
0.0
 11
6590.946506063906
 21
3664.615463695465
 31
0.0
  0
LINE
  5
75B
330
55E
100
AcDbEntity
  8
SUNPOU
370
    -2
100
AcDbLine
 10
6231.820326478807
 20
3264.615469655864
 30
0.0
 11
6590.946506063906
 21
3264.615469655864
 31
0.0
  0
LINE
  5
75C
330
55E
100
AcDbEntity
  8
SUNPOU
370
    -2
100
AcDbLine
 10
6570.946506063906
 20
3624.615463695465
 30
0.0
 11
6570.946506063906
 21
3304.615469655864
 31
0.0
  0
SOLID
  5
75D
330
55E
100
AcDbEntity
  8
SUNPOU
100
AcDbTrace
 10
6564.279839397238
 20
3624.615463695465
 30
0.0
 11
6577.613172730572
 21
3624.615463695465
 31
0.0
 12
6570.946506063906
 22
3664.615463695465
 32
0.0
 13
6570.946506063906
 23
3664.615463695465
 33
0.0
  0
SOLID
  5
75E
330
55E
100
AcDbEntity
  8
SUNPOU
100
AcDbTrace
 10
6564.279839397238
 20
3304.615469655864
 30
0.0
 11
6577.613172730572
 21
3304.615469655864
 31
0.0
 12
6570.946506063906
 22
3264.615469655864
 32
0.0
 13
6570.946506063906
 23
3264.615469655864
 33
0.0
  0
MTEXT
  5
75F
330
55E
100
AcDbEntity
  8
SUNPOU
100
AcDbMText
 10
6516.946506063906
 20
3464.615466675665
 30
0.0
 40
60.0
 41
0.0
 71
     5
 72
     1
  1
\A1;400
  7
EXT08
 11
0.0000000000000001
 21
1.0
 31
0.0
 73
     1
 44
1.0
  0
POINT
  5
760
330
55E
100
AcDbEntity
  8
DEFPOINTS
 62
     0
100
AcDbPoint
 10
6391.820324094608
 20
3664.615463695465
 30
0.0
  0
POINT
  5
761
330
55E
100
AcDbEntity
  8
DEFPOINTS
 62
     0
100
AcDbPoint
 10
6211.820326478807
 20
3264.615469655864
 30
0.0
  0
POINT
  5
762
330
55E
100
AcDbEntity
  8
DEFPOINTS
 62
     0
100
AcDbPoint
 10
6570.946506063906
 20
3264.615469655864
 30
0.0
  0
ENDBLK
  5
605
330
55E
100
AcDbEntity
  8
0
100
AcDbBlockEnd
  0
BLOCK
  5
581
330
580
100
AcDbEntity
  8
0
100
AcDbBlockBegin
  2
*D11
 70
     1
 10
0.0
 20
0.0
 30
0.0
  3
*D11
  1

  0
LINE
  5
791
330
580
100
AcDbEntity
  8
SUNPOU
370
    -2
100
AcDbLine
 10
1187.442152091199
 20
2263.175219496619
 30
0.0
 11
1754.7598008102
 21
2263.175219496619
 31
0.0
  0
LINE
  5
792
330
580
100
AcDbEntity
  8
SUNPOU
370
    -2
100
AcDbLine
 10
1425.0562842927
 20
463.1752463187198
 30
0.0
 11
1754.7598008102
 21
463.1752463187198
 31
0.0
  0
LINE
  5
793
330
580
100
AcDbEntity
  8
SUNPOU
370
    -2
100
AcDbLine
 10
1734.7598008102
 20
2223.175219496619
 30
0.0
 11
1734.7598008102
 21
503.1752463187197
 31
0.0
  0
SOLID
  5
794
330
580
100
AcDbEntity
  8
SUNPOU
100
AcDbTrace
 10
1728.093134143533
 20
2223.175219496619
 30
0.0
 11
1741.426467476867
 21
2223.175219496619
 31
0.0
 12
1734.7598008102
 22
2263.175219496619
 32
0.0
 13
1734.7598008102
 23
2263.175219496619
 33
0.0
  0
SOLID
  5
795
330
580
100
AcDbEntity
  8
SUNPOU
100
AcDbTrace
 10
1728.093134143533
 20
503.1752463187197
 30
0.0
 11
1741.426467476866
 21
503.1752463187197
 31
0.0
 12
1734.7598008102
 22
463.1752463187198
 32
0.0
 13
1734.7598008102
 23
463.1752463187198
 33
0.0
  0
MTEXT
  5
796
330
580
100
AcDbEntity
  8
SUNPOU
100
AcDbMText
 10
1680.7598008102
 20
1363.17523290767
 30
0.0
 40
60.0
 41
0.0
 71
     5
 72
     1
  1
\A1;900
  7
EXT08
 11
0.0000000000000001
 21
1.0
 31
0.0
 73
     1
 44
1.0
  0
POINT
  5
797
330
580
100
AcDbEntity
  8
DEFPOINTS
 62
     0
100
AcDbPoint
 10
1167.442152091199
 20
2263.175219496619
 30
0.0
  0
POINT
  5
798
330
580
100
AcDbEntity
  8
DEFPOINTS
 62
     0
100
AcDbPoint
 10
1405.0562842927
 20
463.1752463187199
 30
0.0
  0
POINT
  5
799
330
580
100
AcDbEntity
  8
DEFPOINTS
 62
     0
100
AcDbPoint
 10
1734.7598008102
 20
463.1752463187198
 30
0.0
  0
ENDBLK
  5
58B
330
580
100
AcDbEntity
  8
0
100
AcDbBlockEnd
  0
BLOCK
  5
58D
330
58C
100
AcDbEntity
  8
0
100
AcDbBlockBegin
  2
*D12
 70
     1
 10
0.0
 20
0.0
 30
0.0
  3
*D12
  1

  0
LINE
  5
775
330
58C
100
AcDbEntity
  8
SUNPOU
370
    -2
100
AcDbLine
 10
1203.442212888
 20
2383.075547307219
 30
0.0
 11
1893.9620692438
 21
2383.075547307219
 31
0.0
  0
LINE
  5
776
330
58C
100
AcDbEntity
  8
SUNPOU
370
    -2
100
AcDbLine
 10
1445.056284292699
 20
463.1752463187199
 30
0.0
 11
1893.9620692438
 21
463.1752463187198
 31
0.0
  0
LINE
  5
777
330
58C
100
AcDbEntity
  8
SUNPOU
370
    -2
100
AcDbLine
 10
1873.9620692438
 20
2343.07554730722
 30
0.0
 11
1873.962069243799
 21
503.1752463187198
 31
0.0
  0
SOLID
  5
778
330
58C
100
AcDbEntity
  8
SUNPOU
100
AcDbTrace
 10
1867.295402577133
 20
2343.07554730722
 30
0.0
 11
1880.628735910467
 21
2343.07554730722
 31
0.0
 12
1873.9620692438
 22
2383.075547307219
 32
0.0
 13
1873.9620692438
 23
2383.075547307219
 33
0.0
  0
SOLID
  5
779
330
58C
100
AcDbEntity
  8
SUNPOU
100
AcDbTrace
 10
1867.295402577133
 20
503.1752463187198
 30
0.0
 11
1880.628735910466
 21
503.1752463187198
 31
0.0
 12
1873.962069243799
 22
463.1752463187198
 32
0.0
 13
1873.962069243799
 23
463.1752463187198
 33
0.0
  0
MTEXT
  5
77A
330
58C
100
AcDbEntity
  8
SUNPOU
100
AcDbMText
 10
1819.9620692438
 20
1423.12539681297
 30
0.0
 40
60.0
 41
0.0
 71
     5
 72
     1
  1
\A1;960
  7
EXT08
 11
0.0000000000000001
 21
1.0
 31
0.0
 73
     1
 44
1.0
  0
POINT
  5
77B
330
58C
100
AcDbEntity
  8
DEFPOINTS
 62
     0
100
AcDbPoint
 10
1183.442212888
 20
2383.075547307219
 30
0.0
  0
POINT
  5
77C
330
58C
100
AcDbEntity
  8
DEFPOINTS
 62
     0
100
AcDbPoint
 10
1425.0562842927
 20
463.1752463187199
 30
0.0
  0
POINT
  5
77D
330
58C
100
AcDbEntity
  8
DEFPOINTS
 62
     0
100
AcDbPoint
 10
1873.962069243799
 20
463.1752463187198
 30
0.0
  0
ENDBLK
  5
597
330
58C
100
AcDbEntity
  8
0
100
AcDbBlockEnd
  0
BLOCK
  5
599
330
598
100
AcDbEntity
  8
0
100
AcDbBlockBegin
  2
*D13
 70
     1
 10
0.0
 20
0.0
 30
0.0
  3
*D13
  1

  0
LINE
  5
788
330
598
100
AcDbEntity
  8
SUNPOU
370
    -2
100
AcDbLine
 10
1114.3421775946
 20
2651.17539682042
 30
0.0
 11
2058.6283570732
 21
2651.17539682042
 31
0.0
  0
LINE
  5
789
330
598
100
AcDbEntity
  8
SUNPOU
370
    -2
100
AcDbLine
 10
1425.0562842927
 20
463.1752463187198
 30
0.0
 11
2058.6283570732
 21
463.1752463187196
 31
0.0
  0
LINE
  5
78A
330
598
100
AcDbEntity
  8
SUNPOU
370
    -2
100
AcDbLine
 10
2038.6283570732
 20
2611.175396820419
 30
0.0
 11
2038.6283570732
 21
503.1752463187197
 31
0.0
  0
SOLID
  5
78B
330
598
100
AcDbEntity
  8
SUNPOU
100
AcDbTrace
 10
2031.961690406534
 20
2611.175396820419
 30
0.0
 11
2045.295023739867
 21
2611.175396820419
 31
0.0
 12
2038.6283570732
 22
2651.17539682042
 32
0.0
 13
2038.6283570732
 23
2651.17539682042
 33
0.0
  0
SOLID
  5
78C
330
598
100
AcDbEntity
  8
SUNPOU
100
AcDbTrace
 10
2031.961690406533
 20
503.1752463187197
 30
0.0
 11
2045.295023739866
 21
503.1752463187197
 31
0.0
 12
2038.6283570732
 22
463.1752463187196
 32
0.0
 13
2038.6283570732
 23
463.1752463187196
 33
0.0
  0
MTEXT
  5
78D
330
598
100
AcDbEntity
  8
SUNPOU
100
AcDbMText
 10
1984.6283570732
 20
1557.17532156957
 30
0.0
 40
60.0
 41
0.0
 71
     5
 72
     1
  1
\A1;1094
  7
EXT08
 11
0.0000000000000001
 21
1.0
 31
0.0
 73
     1
 44
1.0
  0
POINT
  5
78E
330
598
100
AcDbEntity
  8
DEFPOINTS
 62
     0
100
AcDbPoint
 10
1094.3421775946
 20
2651.17539682042
 30
0.0
  0
POINT
  5
78F
330
598
100
AcDbEntity
  8
DEFPOINTS
 62
     0
100
AcDbPoint
 10
1405.0562842927
 20
463.1752463187199
 30
0.0
  0
POINT
  5
790
330
598
100
AcDbEntity
  8
DEFPOINTS
 62
     0
100
AcDbPoint
 10
2038.6283570732
 20
463.1752463187196
 30
0.0
  0
ENDBLK
  5
5A3
330
598
100
AcDbEntity
  8
0
100
AcDbBlockEnd
  0
BLOCK
  5
5BC
330
5A4
100
AcDbEntity
  8
0
100
AcDbBlockBegin
  2
*D14
 70
     1
 10
0.0
 20
0.0
 30
0.0
  3
*D14
  1

  0
LINE
  5
77E
330
5A4
100
AcDbEntity
  8
SUNPOU
370
    -2
100
AcDbLine
 10
1114.3421775946
 20
2651.17539682042
 30
0.0
 11
1893.9620692438
 21
2651.17539682042
 31
0.0
  0
LINE
  5
77F
330
5A4
100
AcDbEntity
  8
SUNPOU
370
    -2
100
AcDbLine
 10
1203.442212888
 20
2383.075547307219
 30
0.0
 11
1893.9620692438
 21
2383.075547307219
 31
0.0
  0
LINE
  5
780
330
5A4
100
AcDbEntity
  8
SUNPOU
370
    -2
100
AcDbLine
 10
1873.9620692438
 20
2611.175396820419
 30
0.0
 11
1873.9620692438
 21
2601.496922655493
 31
0.0
  0
LINE
  5
781
330
5A4
100
AcDbEntity
  8
SUNPOU
370
    -2
100
AcDbLine
 10
1873.962069243799
 20
2423.07554730722
 30
0.0
 11
1873.962069243799
 21
2434.639779798351
 31
0.0
  0
MTEXT
  5
782
330
5A4
100
AcDbEntity
  8
SUNPOU
100
AcDbMText
 10
1868.750815258965
 20
2518.068351226922
 30
0.0
 40
60.0
 41
0.0
 71
     5
 72
     1
  1
\A1;134
  7
EXT08
 11
0.0000000000000001
 21
1.0
 31
0.0
 73
     1
 44
1.0
  0
SOLID
  5
783
330
5A4
100
AcDbEntity
  8
SUNPOU
100
AcDbTrace
 10
1867.295402577133
 20
2611.175396820419
 30
0.0
 11
1880.628735910466
 21
2611.175396820419
 31
0.0
 12
1873.9620692438
 22
2651.17539682042
 32
0.0
 13
1873.9620692438
 23
2651.17539682042
 33
0.0
  0
SOLID
  5
784
330
5A4
100
AcDbEntity
  8
SUNPOU
100
AcDbTrace
 10
1867.295402577133
 20
2423.07554730722
 30
0.0
 11
1880.628735910466
 21
2423.07554730722
 31
0.0
 12
1873.962069243799
 22
2383.075547307219
 32
0.0
 13
1873.962069243799
 23
2383.075547307219
 33
0.0
  0
POINT
  5
785
330
5A4
100
AcDbEntity
  8
DEFPOINTS
 62
     0
100
AcDbPoint
 10
1094.3421775946
 20
2651.17539682042
 30
0.0
  0
POINT
  5
786
330
5A4
100
AcDbEntity
  8
DEFPOINTS
 62
     0
100
AcDbPoint
 10
1183.442212888
 20
2383.075547307219
 30
0.0
  0
POINT
  5
787
330
5A4
100
AcDbEntity
  8
DEFPOINTS
 62
     0
100
AcDbPoint
 10
1873.962069243799
 20
2383.075547307219
 30
0.0
  0
ENDBLK
  5
5C6
330
5A4
100
AcDbEntity
  8
0
100
AcDbBlockEnd
  0
BLOCK
  5
5B1
330
5B0
100
AcDbEntity
  8
0
100
AcDbBlockBegin
  2
*D15
 70
     1
 10
0.0
 20
0.0
 30
0.0
  3
*D15
  1

  0
LINE
  5
79A
330
5B0
100
AcDbEntity
  8
SUNPOU
370
    -2
100
AcDbLine
 10
955.6597757986001
 20
2714.438335926919
 30
0.0
 11
955.6597757986001
 21
2894.438332946619
 31
0.0
  0
LINE
  5
79B
330
5B0
100
AcDbEntity
  8
SUNPOU
370
    -2
100
AcDbLine
 10
1135.659773116399
 20
2714.438335926919
 30
0.0
 11
1135.659773116399
 21
2894.438332946619
 31
0.0
  0
LINE
  5
79C
330
5B0
100
AcDbEntity
  8
SUNPOU
370
    -2
100
AcDbLine
 10
915.6597757986
 20
2874.438332946619
 30
0.0
 11
875.6597757986
 21
2874.438332946619
 31
0.0
  0
LINE
  5
79D
330
5B0
100
AcDbEntity
  8
SUNPOU
370
    -2
100
AcDbLine
 10
1175.6597731164
 20
2874.438332946619
 30
0.0
 11
1215.6597731164
 21
2874.438332946619
 31
0.0
  0
MTEXT
  5
79E
330
5B0
100
AcDbEntity
  8
SUNPOU
100
AcDbMText
 10
1040.321082459765
 20
2928.228337406503
 30
0.0
 40
60.0
 41
0.0
 71
     5
 72
     1
  1
\A1;φ90
  7
EXT08
 73
     1
 44
1.0
  0
LINE
  5
79F
330
5B0
100
AcDbEntity
  8
SUNPOU
370
    -2
100
AcDbLine
 10
955.6597757986001
 20
2874.438332946619
 30
0.0
 11
1135.659773116399
 21
2874.438332946619
 31
0.0
  0
SOLID
  5
7A0
330
5B0
100
AcDbEntity
  8
SUNPOU
100
AcDbTrace
 10
915.6597757986
 20
2881.104999613286
 30
0.0
 11
915.6597757986
 21
2867.771666279953
 31
0.0
 12
955.6597757986001
 22
2874.438332946619
 32
0.0
 13
955.6597757986001
 23
2874.438332946619
 33
0.0
  0
SOLID
  5
7A1
330
5B0
100
AcDbEntity
  8
SUNPOU
100
AcDbTrace
 10
1175.6597731164
 20
2881.104999613286
 30
0.0
 11
1175.6597731164
 21
2867.771666279953
 31
0.0
 12
1135.659773116399
 22
2874.438332946619
 32
0.0
 13
1135.659773116399
 23
2874.438332946619
 33
0.0
  0
POINT
  5
7A2
330
5B0
100
AcDbEntity
  8
DEFPOINTS
 62
     0
100
AcDbPoint
 10
955.6597757986001
 20
2694.438335926919
 30
0.0
  0
POINT
  5
7A3
330
5B0
100
AcDbEntity
  8
DEFPOINTS
 62
     0
100
AcDbPoint
 10
1135.659773116399
 20
2694.438335926919
 30
0.0
  0
POINT
  5
7A4
330
5B0
100
AcDbEntity
  8
DEFPOINTS
 62
     0
100
AcDbPoint
 10
1135.659773116399
 20
2874.438332946619
 30
0.0
  0
ENDBLK
  5
5BB
330
5B0
100
AcDbEntity
  8
0
100
AcDbBlockEnd
  0
BLOCK
  5
688
330
67B
100
AcDbEntity
  8
0
100
AcDbBlockBegin
  2
B0040021
 70
     0
 10
0.0
 20
0.0
 30
0.0
  3
B0040021
  1

  0
LINE
  5
67C
330
67B
100
AcDbEntity
  8
HATCH
100
AcDbLine
 10
68.03459680887726
 20
0.0
 30
0.0
 11
49.01729840443886
 21
-19.0172984044384
 31
0.0
  0
LINE
  5
67D
330
67B
100
AcDbEntity
  8
HATCH
100
AcDbLine
 10
30.0
 20
0.0
 30
0.0
 11
64.01729840443841
 21
-34.01729840443886
 31
0.0
  0
LINE
  5
67E
330
67B
100
AcDbEntity
  8
HATCH
100
AcDbLine
 10
22.5
 20
-7.5
 30
0.0
 11
49.01729840443841
 21
-34.01729840443886
 31
0.0
  0
LINE
  5
67F
330
67B
100
AcDbEntity
  8
HATCH
100
AcDbLine
 10
15.0
 20
-15.0
 30
0.0
 11
34.0172984044384
 21
-34.01729840443886
 31
0.0
  0
LINE
  5
680
330
67B
100
AcDbEntity
  8
HATCH
100
AcDbLine
 10
0.0
 20
0.0
 30
0.0
 11
-34.0172984044384
 21
-34.01729840443886
 31
0.0
  0
LINE
  5
681
330
67B
100
AcDbEntity
  8
HATCH
100
AcDbLine
 10
30.0
 20
0.0
 30
0.0
 11
-4.017298404438406
 21
-34.01729840443886
 31
0.0
  0
LINE
  5
682
330
67B
100
AcDbEntity
  8
HATCH
100
AcDbLine
 10
15.0
 20
0.0
 30
0.0
 11
-19.0172984044384
 21
-34.01729840443886
 31
0.0
  0
LINE
  5
683
330
67B
100
AcDbEntity
  8
HATCH
100
AcDbLine
 10
90.53459680887726
 20
-7.5
 30
0.0
 11
117.0518952133161
 21
-34.01729840443886
 31
0.0
  0
LINE
  5
684
330
67B
100
AcDbEntity
  8
HATCH
100
AcDbLine
 10
98.03459680887726
 20
0.0
 30
0.0
 11
132.0518952133161
 21
-34.01729840443886
 31
0.0
  0
LINE
  5
685
330
67B
100
AcDbEntity
  8
HATCH
100
AcDbLine
 10
83.03459680887726
 20
0.0
 30
0.0
 11
56.51729840443886
 21
-26.5172984044384
 31
0.0
  0
LINE
  5
686
330
67B
100
AcDbEntity
  8
HATCH
100
AcDbLine
 10
83.03459680887726
 20
-15.0
 30
0.0
 11
102.0518952133161
 21
-34.01729840443886
 31
0.0
  0
LINE
  5
687
330
67B
100
AcDbEntity
  8
HATCH
100
AcDbLine
 10
98.03459680887726
 20
0.0
 30
0.0
 11
64.01729840443841
 21
-34.01729840443886
 31
0.0
  0
ENDBLK
  5
689
330
67B
100
AcDbEntity
  8
0
100
AcDbBlockEnd
  0
ENDSEC
  0
SECTION
  2
ENTITIES
  0
LINE
  5
10A
330
18
100
AcDbEntity
  8
SJC2
100
AcDbLine
 10
1200.587750664499
 20
2258.205126797219
 30
0.0
 11
1266.2707330842
 21
2240.60563975482
 31
0.0
  0
LINE
  5
10B
330
18
100
AcDbEntity
  8
SJC2
100
AcDbLine
 10
1197.4818241971
 20
2246.61394044652
 30
0.0
 11
1263.164806616799
 21
2229.014453404019
 31
0.0
  0
ARC
  5
10C
330
18
100
AcDbEntity
  8
SJC2
100
AcDbCircle
 10
1264.7177698505
 20
2234.81004657942
 30
0.0
 40
6.000049588099999
100
AcDbArc
 50
254.9996428281999
 51
74.99964282819999
  0
ARC
  5
10D
330
18
100
AcDbEntity
  8
SJC2
100
AcDbCircle
 10
1199.0347874308
 20
2252.40953362182
 30
0.0
 40
6.000049588099999
100
AcDbArc
 50
74.99964282819999
 51
254.9996428281999
  0
LINE
  5
10E
330
18
100
AcDbEntity
  8
SJC2
100
AcDbLine
 10
1371.3488565184
 20
2200.02641672662
 30
0.0
 11
1305.6658740988
 21
2217.62620894482
 31
0.0
  0
ARC
  5
10F
330
18
100
AcDbEntity
  8
SJC2
100
AcDbCircle
 10
1307.2187610385
 20
2223.421802120219
 30
0.0
 40
6.000029841799999
100
AcDbArc
 50
75.0003465521
 51
255.0003465520999
  0
LINE
  5
110
330
18
100
AcDbEntity
  8
SJC2
100
AcDbLine
 10
1374.4546303979
 20
2211.61760307732
 30
0.0
 11
1308.7716479783
 21
2229.21739529562
 31
0.0
  0
ARC
  5
111
330
18
100
AcDbEntity
  8
SJC2
100
AcDbCircle
 10
1372.9017434582
 20
2205.82200990202
 30
0.0
 40
6.000029841799999
100
AcDbArc
 50
255.0003465520999
 51
75.0003465521
  0
ARC
  5
112
330
18
100
AcDbEntity
  8
SJC2
100
AcDbCircle
 10
1372.9016480474
 20
2205.82231182122
 30
0.0
 40
19.999999702
100
AcDbArc
 50
182.458301545
 51
255.0002512406
  0
ARC
  5
113
330
18
100
AcDbEntity
  8
SJC2
100
AcDbCircle
 10
1411.5388743976
 20
2195.46949073302
 30
0.0
 40
19.999999702
100
AcDbArc
 50
254.999830194
 51
327.5420788841
  0
LINE
  5
114
330
18
100
AcDbEntity
  8
SJC2
100
AcDbLine
 10
1406.362436319
 20
2176.150989836319
 30
0.0
 11
1367.7253519338
 21
2186.503772885219
 31
0.0
  0
ARC
  5
115
330
18
100
AcDbEntity
  8
SJC2
100
AcDbCircle
 10
1372.9014642485
 20
2205.82246404392
 30
0.0
 40
8.0
100
AcDbArc
 50
213.5938611265999
 51
255.0027175408999
  0
LINE
  5
116
330
18
100
AcDbEntity
  8
SJC2
100
AcDbLine
 10
1409.4682101985
 20
2187.74217618702
 30
0.0
 11
1370.8312784011
 21
2198.094959235919
 31
0.0
  0
ARC
  5
117
330
18
100
AcDbEntity
  8
SJC2
100
AcDbCircle
 10
1411.5389784138
 20
2195.46952495612
 30
0.0
 40
8.0
100
AcDbArc
 50
254.9983995149
 51
296.4077159650999
  0
LINE
  5
118
330
18
100
AcDbEntity
  8
SJC2
100
AcDbLine
 10
1413.6092929004
 20
2203.196582695019
 30
0.0
 11
1374.972208515199
 21
2213.54936574392
 31
0.0
  0
ARC
  5
119
330
18
100
AcDbEntity
  8
SJC2
100
AcDbCircle
 10
1372.9015394055
 20
2205.821990417319
 30
0.0
 40
8.0
100
AcDbArc
 50
74.99913434959999
 51
116.4072883014
  0
ARC
  5
11A
330
18
100
AcDbEntity
  8
SJC2
100
AcDbCircle
 10
1411.5389214328
 20
2195.469127616819
 30
0.0
 40
8.0
100
AcDbArc
 50
33.5934335507
 51
75.00134124989999
  0
ARC
  5
11B
330
18
100
AcDbEntity
  8
SJC2
100
AcDbCircle
 10
1411.5389232542
 20
2195.469230109719
 30
0.0
 40
19.999999702
100
AcDbArc
 50
2.458301544999999
 51
75.00025124060001
  0
LINE
  5
11C
330
18
100
AcDbEntity
  8
SJC2
100
AcDbLine
 10
1416.7152193678
 20
2214.78776904572
 30
0.0
 11
1378.0781349826
 21
2225.140552094619
 31
0.0
  0
ARC
  5
11D
330
18
100
AcDbEntity
  8
SJC2
100
AcDbCircle
 10
1372.9016969039
 20
2205.822051197919
 30
0.0
 40
19.999999702
100
AcDbArc
 50
74.999830194
 51
147.5420788841
  0
LINE
  5
11E
330
18
100
AcDbEntity
  8
SJC2
100
AcDbLine
 10
1479.5327538322
 20
2171.03868522502
 30
0.0
 11
1413.8497714125
 21
2188.638477443219
 31
0.0
  0
ARC
  5
11F
330
18
100
AcDbEntity
  8
SJC2
100
AcDbCircle
 10
1481.085717065799
 20
2176.83427840032
 30
0.0
 40
6.000049588099999
100
AcDbArc
 50
254.9996428281999
 51
74.99964282819999
  0
ARC
  5
120
330
18
100
AcDbEntity
  8
SJC2
100
AcDbCircle
 10
1481.085711200799
 20
2176.83427159302
 30
0.0
 40
19.999999702
100
AcDbArc
 50
182.4574162943
 51
255.0002119378
  0
ARC
  5
121
330
18
100
AcDbEntity
  8
SJC2
100
AcDbCircle
 10
1519.7227717114
 20
2166.48145405562
 30
0.0
 40
19.999999702
100
AcDbArc
 50
254.999830194
 51
327.5420788841
  0
LINE
  5
122
330
18
100
AcDbEntity
  8
SJC2
100
AcDbLine
 10
1514.5463336327
 20
2147.16295315892
 30
0.0
 11
1475.9094018354
 21
2157.51573620772
 31
0.0
  0
ARC
  5
123
330
18
100
AcDbEntity
  8
SJC2
100
AcDbCircle
 10
1481.0857937603
 20
2176.83431156832
 30
0.0
 40
8.0
100
AcDbArc
 50
213.590241666
 51
254.9995129731999
  0
LINE
  5
124
330
18
100
AcDbEntity
  8
SJC2
100
AcDbLine
 10
1517.6522601001
 20
2158.754139509619
 30
0.0
 11
1479.015175714899
 21
2169.10692255852
 31
0.0
  0
ARC
  5
125
330
18
100
AcDbEntity
  8
SJC2
100
AcDbCircle
 10
1519.7225300447
 20
2166.48162178762
 30
0.0
 40
8.0
100
AcDbArc
 50
255.0020939981
 51
296.4104802091
  0
LINE
  5
126
330
18
100
AcDbEntity
  8
SJC2
100
AcDbLine
 10
1482.6386802995
 20
2182.629871575719
 30
0.0
 11
1416.9556978799
 21
2200.22966379392
 31
0.0
  0
ARC
  5
127
330
18
100
AcDbEntity
  8
SJC2
100
AcDbCircle
 10
1481.0854902015
 20
2176.83428547322
 30
0.0
 40
8.0
100
AcDbArc
 50
74.9983995149
 51
116.4077159651
  0
ARC
  5
128
330
18
100
AcDbEntity
  8
SJC2
100
AcDbCircle
 10
1481.0855942177
 20
2176.834319696219
 30
0.0
 40
19.999999702
100
AcDbArc
 50
74.999830194
 51
147.5420788841
  0
LINE
  5
129
330
18
100
AcDbEntity
  8
SJC2
100
AcDbLine
 10
1521.7931902141
 20
2174.208851193419
 30
0.0
 11
1483.1562584168
 21
2184.56163424222
 31
0.0
  0
ARC
  5
12A
330
18
100
AcDbEntity
  8
SJC2
100
AcDbCircle
 10
1519.7228205679
 20
2166.481498608119
 30
0.0
 40
19.999999702
100
AcDbArc
 50
2.458301544999999
 51
75.00025124060001
  0
LINE
  5
12B
330
18
100
AcDbEntity
  8
SJC2
100
AcDbLine
 10
1524.8991166815
 20
2185.800037544119
 30
0.0
 11
1486.2620322963
 21
2196.152820592919
 31
0.0
  0
ARC
  5
12C
330
18
100
AcDbEntity
  8
SJC2
100
AcDbCircle
 10
1519.7230043668
 20
2166.48134638542
 30
0.0
 40
8.0
100
AcDbArc
 50
33.59386112659999
 51
75.0027175409
  0
ARC
  5
12D
330
18
100
AcDbEntity
  8
SJC2
100
AcDbCircle
 10
1415.4027346462
 20
2194.43407061862
 30
0.0
 40
6.000049588099999
100
AcDbArc
 50
74.99964282819999
 51
254.9996428281999
  0
ARC
  5
12E
330
18
100
AcDbEntity
  8
SJC2
100
AcDbCircle
 10
1523.5867082538
 20
2165.44633911692
 30
0.0
 40
6.000029841799999
100
AcDbArc
 50
75.0003465521
 51
255.0003465520999
  0
LINE
  5
12F
330
18
100
AcDbEntity
  8
SJC2
100
AcDbLine
 10
1587.7168037338
 20
2142.05095372332
 30
0.0
 11
1522.0338213141
 21
2159.650745941519
 31
0.0
  0
LINE
  5
130
330
18
100
AcDbEntity
  8
SJC2
100
AcDbLine
 10
1590.8225776133
 20
2153.64214007412
 30
0.0
 11
1525.139595193599
 21
2171.24193229232
 31
0.0
  0
ARC
  5
131
330
18
100
AcDbEntity
  8
SJC2
100
AcDbCircle
 10
1197.448148828099
 20
2252.47235853602
 30
0.0
 40
19.999999702
100
AcDbArc
 50
254.999830194
 51
327.5420788841
  0
ARC
  5
132
330
18
100
AcDbEntity
  8
SJC2
100
AcDbCircle
 10
1197.4482528442
 20
2252.47239275902
 30
0.0
 40
8.0
100
AcDbArc
 50
254.9983995149
 51
296.4077159650999
  0
ARC
  5
133
330
18
100
AcDbEntity
  8
SJC2
100
AcDbCircle
 10
1197.448134905999
 20
2252.47231692772
 30
0.0
 40
8.0
100
AcDbArc
 50
33.5906692812
 51
75.0008892779
  0
ARC
  5
134
330
18
100
AcDbEntity
  8
SJC2
100
AcDbCircle
 10
1197.448184432799
 20
2252.47240663922
 30
0.0
 40
19.999999702
100
AcDbArc
 50
2.4574162943
 51
75.0002119378
  0
ARC
  5
135
330
18
100
AcDbEntity
  8
SJC2
100
AcDbCircle
 10
1266.9949723794
 20
2233.83744812252
 30
0.0
 40
19.999999702
100
AcDbArc
 50
182.458301545
 51
255.0002512406
  0
LINE
  5
136
330
18
100
AcDbEntity
  8
SJC2
100
AcDbLine
 10
1300.4556080631
 20
2204.166126137619
 30
0.0
 11
1261.818676265799
 21
2214.51890918652
 31
0.0
  0
LINE
  5
137
330
18
100
AcDbEntity
  8
SJC2
100
AcDbLine
 10
1303.5615345305
 20
2215.75731248832
 30
0.0
 11
1264.9244501453
 21
2226.11009553722
 31
0.0
  0
ARC
  5
138
330
18
100
AcDbEntity
  8
SJC2
100
AcDbCircle
 10
1266.994821612899
 20
2233.837550615419
 30
0.0
 40
8.0
100
AcDbArc
 50
213.5934335507
 51
255.0013412499
  0
LINE
  5
139
330
18
100
AcDbEntity
  8
SJC2
100
AcDbLine
 10
1307.7026172325
 20
2231.21202417212
 30
0.0
 11
1269.065532847299
 21
2241.564807220919
 31
0.0
  0
ARC
  5
13A
330
18
100
AcDbEntity
  8
SJC2
100
AcDbCircle
 10
1266.9947646319
 20
2233.837458451919
 30
0.0
 40
8.0
100
AcDbArc
 50
74.9983995149
 51
116.4077159651
  0
ARC
  5
13B
330
18
100
AcDbEntity
  8
SJC2
100
AcDbCircle
 10
1266.9948686481
 20
2233.837492674919
 30
0.0
 40
19.999999702
100
AcDbArc
 50
74.999830194
 51
147.5420788841
  0
LINE
  5
13C
330
18
100
AcDbEntity
  8
SJC2
100
AcDbLine
 10
1310.808391112
 20
2242.803210522819
 30
0.0
 11
1272.171306726799
 21
2253.15599357172
 31
0.0
  0
ARC
  5
13D
330
18
100
AcDbEntity
  8
SJC2
100
AcDbCircle
 10
1305.6320817465
 20
2223.484675137519
 30
0.0
 40
19.999999702
100
AcDbArc
 50
2.4574162943
 51
75.0002119378
  0
ARC
  5
13E
330
18
100
AcDbEntity
  8
SJC2
100
AcDbCircle
 10
1305.631999187
 20
2223.48463516222
 30
0.0
 40
8.0
100
AcDbArc
 50
33.59024166599999
 51
74.99951297319999
  0
ARC
  5
13F
330
18
100
AcDbEntity
  8
SJC2
100
AcDbCircle
 10
1305.6322036402
 20
2223.484687814919
 30
0.0
 40
8.0
100
AcDbArc
 50
254.9991343495999
 51
296.4072883013999
  0
ARC
  5
140
330
18
100
AcDbEntity
  8
SJC2
100
AcDbCircle
 10
1305.6320461418
 20
2223.48462703432
 30
0.0
 40
19.999999702
100
AcDbArc
 50
254.999830194
 51
327.5420788841
  0
LINE
  5
141
330
18
100
AcDbEntity
  8
SJC2
100
AcDbLine
 10
719.9706923966
 20
2200.02641672662
 30
0.0
 11
785.6536748163002
 21
2217.62620894482
 31
0.0
  0
ARC
  5
142
330
18
100
AcDbEntity
  8
SJC2
100
AcDbCircle
 10
784.1007878764998
 20
2223.421802120219
 30
0.0
 40
6.000029841799999
100
AcDbArc
 50
284.9996534479
 51
104.9996534479
  0
LINE
  5
143
330
18
100
AcDbEntity
  8
SJC2
100
AcDbLine
 10
716.8649185171002
 20
2211.61760307732
 30
0.0
 11
782.5479009368
 21
2229.21739529562
 31
0.0
  0
ARC
  5
144
330
18
100
AcDbEntity
  8
SJC2
100
AcDbCircle
 10
718.4178054567996
 20
2205.82200990202
 30
0.0
 40
6.000029841799999
100
AcDbArc
 50
104.9996534479
 51
284.9996534479
  0
ARC
  5
145
330
18
100
AcDbEntity
  8
SJC2
100
AcDbCircle
 10
718.4179008676001
 20
2205.82231182122
 30
0.0
 40
19.999999702
100
AcDbArc
 50
284.9997487593999
 51
357.541698455
  0
ARC
  5
146
330
18
100
AcDbEntity
  8
SJC2
100
AcDbCircle
 10
679.7806745173998
 20
2195.46949073302
 30
0.0
 40
19.999999702
100
AcDbArc
 50
212.4579211158999
 51
285.0001698059999
  0
LINE
  5
147
330
18
100
AcDbEntity
  8
SJC2
100
AcDbLine
 10
684.9571125961001
 20
2176.150989836319
 30
0.0
 11
723.5941969812998
 21
2186.503772885219
 31
0.0
  0
ARC
  5
148
330
18
100
AcDbEntity
  8
SJC2
100
AcDbCircle
 10
718.4180846665999
 20
2205.82246404392
 30
0.0
 40
8.0
100
AcDbArc
 50
284.9972824591
 51
326.4061388733999
  0
LINE
  5
149
330
18
100
AcDbEntity
  8
SJC2
100
AcDbLine
 10
681.8513387165999
 20
2187.74217618702
 30
0.0
 11
720.4882705139002
 21
2198.094959235919
 31
0.0
  0
ARC
  5
14A
330
18
100
AcDbEntity
  8
SJC2
100
AcDbCircle
 10
679.7805705012001
 20
2195.46952495612
 30
0.0
 40
8.0
100
AcDbArc
 50
243.5922840349
 51
285.0016004850999
  0
LINE
  5
14B
330
18
100
AcDbEntity
  8
SJC2
100
AcDbLine
 10
677.7102560145999
 20
2203.196582695019
 30
0.0
 11
716.3473403998
 21
2213.54936574392
 31
0.0
  0
ARC
  5
14C
330
18
100
AcDbEntity
  8
SJC2
100
AcDbCircle
 10
718.4180095094998
 20
2205.821990417319
 30
0.0
 40
8.0
100
AcDbArc
 50
63.5927116986
 51
105.0008656504
  0
ARC
  5
14D
330
18
100
AcDbEntity
  8
SJC2
100
AcDbCircle
 10
679.7806274822001
 20
2195.469127616819
 30
0.0
 40
8.0
100
AcDbArc
 50
104.9986587501
 51
146.4065664493
  0
ARC
  5
14E
330
18
100
AcDbEntity
  8
SJC2
100
AcDbCircle
 10
679.7806256609001
 20
2195.469230109719
 30
0.0
 40
19.999999702
100
AcDbArc
 50
104.9997487594
 51
177.5416984549999
  0
LINE
  5
14F
330
18
100
AcDbEntity
  8
SJC2
100
AcDbLine
 10
674.6043295471999
 20
2214.78776904572
 30
0.0
 11
713.2414139324001
 21
2225.140552094619
 31
0.0
  0
ARC
  5
150
330
18
100
AcDbEntity
  8
SJC2
100
AcDbCircle
 10
718.4178520110999
 20
2205.822051197919
 30
0.0
 40
19.999999702
100
AcDbArc
 50
32.4579211159
 51
105.000169806
  0
LINE
  5
151
330
18
100
AcDbEntity
  8
SJC2
100
AcDbLine
 10
611.7867950828999
 20
2171.03868522502
 30
0.0
 11
677.4697775026002
 21
2188.638477443219
 31
0.0
  0
ARC
  5
152
330
18
100
AcDbEntity
  8
SJC2
100
AcDbCircle
 10
610.2338318491997
 20
2176.83427840032
 30
0.0
 40
6.000049588099999
100
AcDbArc
 50
105.0003571717999
 51
285.0003571717999
  0
ARC
  5
153
330
18
100
AcDbEntity
  8
SJC2
100
AcDbCircle
 10
610.2338377142
 20
2176.83427159302
 30
0.0
 40
19.999999702
100
AcDbArc
 50
284.9997880622
 51
357.5425837057
  0
ARC
  5
154
330
18
100
AcDbEntity
  8
SJC2
100
AcDbCircle
 10
571.5967772037002
 20
2166.48145405562
 30
0.0
 40
19.999999702
100
AcDbArc
 50
212.4579211158999
 51
285.0001698059999
  0
LINE
  5
155
330
18
100
AcDbEntity
  8
SJC2
100
AcDbLine
 10
576.7732152824001
 20
2147.16295315892
 30
0.0
 11
615.4101470797
 21
2157.51573620772
 31
0.0
  0
ARC
  5
156
330
18
100
AcDbEntity
  8
SJC2
100
AcDbCircle
 10
610.2337551548003
 20
2176.83431156832
 30
0.0
 40
8.0
100
AcDbArc
 50
285.0004870268
 51
326.4097583339999
  0
LINE
  5
157
330
18
100
AcDbEntity
  8
SJC2
100
AcDbLine
 10
573.6672888150001
 20
2158.754139509619
 30
0.0
 11
612.3043732002002
 21
2169.10692255852
 31
0.0
  0
ARC
  5
158
330
18
100
AcDbEntity
  8
SJC2
100
AcDbCircle
 10
571.5970188702999
 20
2166.48162178762
 30
0.0
 40
8.0
100
AcDbArc
 50
243.5895197909
 51
284.9979060018999
  0
LINE
  5
159
330
18
100
AcDbEntity
  8
SJC2
100
AcDbLine
 10
608.6808686154999
 20
2182.629871575719
 30
0.0
 11
674.3638510351997
 21
2200.22966379392
 31
0.0
  0
ARC
  5
15A
330
18
100
AcDbEntity
  8
SJC2
100
AcDbCircle
 10
610.2340587135
 20
2176.83428547322
 30
0.0
 40
8.0
100
AcDbArc
 50
63.5922840349
 51
105.0016004851
  0
ARC
  5
15B
330
18
100
AcDbEntity
  8
SJC2
100
AcDbCircle
 10
610.2339546973999
 20
2176.834319696219
 30
0.0
 40
19.999999702
100
AcDbArc
 50
32.4579211159
 51
105.000169806
  0
LINE
  5
15C
330
18
100
AcDbEntity
  8
SJC2
100
AcDbLine
 10
569.5263587008999
 20
2174.208851193419
 30
0.0
 11
608.1632904982002
 21
2184.56163424222
 31
0.0
  0
ARC
  5
15D
330
18
100
AcDbEntity
  8
SJC2
100
AcDbCircle
 10
571.5967283471
 20
2166.481498608119
 30
0.0
 40
19.999999702
100
AcDbArc
 50
104.9997487594
 51
177.5416984549999
  0
LINE
  5
15E
330
18
100
AcDbEntity
  8
SJC2
100
AcDbLine
 10
566.4204322334999
 20
2185.800037544119
 30
0.0
 11
605.0575166187
 21
2196.152820592919
 31
0.0
  0
ARC
  5
15F
330
18
100
AcDbEntity
  8
SJC2
100
AcDbCircle
 10
571.5965445482002
 20
2166.48134638542
 30
0.0
 40
8.0
100
AcDbArc
 50
104.9972824591
 51
146.4061388734
  0
ARC
  5
160
330
18
100
AcDbEntity
  8
SJC2
100
AcDbCircle
 10
675.9168142689
 20
2194.43407061862
 30
0.0
 40
6.000049588099999
100
AcDbArc
 50
285.0003571717999
 51
105.0003571717999
  0
ARC
  5
161
330
18
100
AcDbEntity
  8
SJC2
100
AcDbCircle
 10
567.7328406612
 20
2165.44633911692
 30
0.0
 40
6.000029841799999
100
AcDbArc
 50
284.9996534479
 51
104.9996534479
  0
ARC
  5
162
330
18
100
AcDbEntity
  8
SJC2
100
AcDbCircle
 10
824.3245765356
 20
2233.83744812252
 30
0.0
 40
19.999999702
100
AcDbArc
 50
284.9997487593999
 51
357.541698455
  0
LINE
  5
163
330
18
100
AcDbEntity
  8
SJC2
100
AcDbLine
 10
790.8639408518998
 20
2204.166126137619
 30
0.0
 11
829.5008726492001
 21
2214.51890918652
 31
0.0
  0
LINE
  5
164
330
18
100
AcDbEntity
  8
SJC2
100
AcDbLine
 10
787.7580143844998
 20
2215.75731248832
 30
0.0
 11
826.3950987696999
 21
2226.11009553722
 31
0.0
  0
ARC
  5
165
330
18
100
AcDbEntity
  8
SJC2
100
AcDbCircle
 10
785.6874671685
 20
2223.484675137519
 30
0.0
 40
19.999999702
100
AcDbArc
 50
104.9997880622
 51
177.5425837056999
  0
ARC
  5
166
330
18
100
AcDbEntity
  8
SJC2
100
AcDbCircle
 10
785.6873452748
 20
2223.484687814919
 30
0.0
 40
8.0
100
AcDbArc
 50
243.5927116985999
 51
285.0008656504
  0
ARC
  5
167
330
18
100
AcDbEntity
  8
SJC2
100
AcDbCircle
 10
785.6875027731998
 20
2223.48462703432
 30
0.0
 40
19.999999702
100
AcDbArc
 50
212.4579211158999
 51
285.0001698059999
  0
LINE
  5
168
330
18
100
AcDbEntity
  8
SJC2
100
AcDbLine
 10
890.7317982505
 20
2258.205126797219
 30
0.0
 11
825.0488158307998
 21
2240.60563975482
 31
0.0
  0
LINE
  5
169
330
18
100
AcDbEntity
  8
SJC2
100
AcDbLine
 10
893.8377247179001
 20
2246.61394044652
 30
0.0
 11
828.1547422981997
 21
2229.014453404019
 31
0.0
  0
ARC
  5
16A
330
18
100
AcDbEntity
  8
SJC2
100
AcDbCircle
 10
826.6017790645001
 20
2234.81004657942
 30
0.0
 40
6.000049588099999
100
AcDbArc
 50
105.0003571717999
 51
285.0003571717999
  0
ARC
  5
16B
330
18
100
AcDbEntity
  8
SJC2
100
AcDbCircle
 10
892.2847614841998
 20
2252.40953362182
 30
0.0
 40
6.000049588099999
100
AcDbArc
 50
285.0003571717999
 51
105.0003571717999
  0
ARC
  5
16C
330
18
100
AcDbEntity
  8
SJC2
100
AcDbCircle
 10
893.871400087
 20
2252.47235853602
 30
0.0
 40
19.999999702
100
AcDbArc
 50
212.4579211158999
 51
285.0001698059999
  0
ARC
  5
16D
330
18
100
AcDbEntity
  8
SJC2
100
AcDbCircle
 10
893.8712960707999
 20
2252.47239275902
 30
0.0
 40
8.0
100
AcDbArc
 50
243.5922840349
 51
285.0016004850999
  0
ARC
  5
16E
330
18
100
AcDbEntity
  8
SJC2
100
AcDbCircle
 10
893.871414009
 20
2252.47231692772
 30
0.0
 40
8.0
100
AcDbArc
 50
104.9991107220999
 51
146.4093307188
  0
ARC
  5
16F
330
18
100
AcDbEntity
  8
SJC2
100
AcDbCircle
 10
893.8713644822
 20
2252.47240663922
 30
0.0
 40
19.999999702
100
AcDbArc
 50
104.9997880622
 51
177.5425837056999
  0
ARC
  5
170
330
18
100
AcDbEntity
  8
SJC2
100
AcDbCircle
 10
824.3247273021001
 20
2233.837550615419
 30
0.0
 40
8.0
100
AcDbArc
 50
284.9986587500999
 51
326.4065664492999
  0
LINE
  5
171
330
18
100
AcDbEntity
  8
SJC2
100
AcDbLine
 10
783.6169316825999
 20
2231.21202417212
 30
0.0
 11
822.2540160677999
 21
2241.564807220919
 31
0.0
  0
ARC
  5
172
330
18
100
AcDbEntity
  8
SJC2
100
AcDbCircle
 10
824.324680267
 20
2233.837492674919
 30
0.0
 40
19.999999702
100
AcDbArc
 50
32.4579211159
 51
105.000169806
  0
LINE
  5
173
330
18
100
AcDbEntity
  8
SJC2
100
AcDbLine
 10
780.5111578031
 20
2242.803210522819
 30
0.0
 11
819.1482421883002
 21
2253.15599357172
 31
0.0
  0
ARC
  5
174
330
18
100
AcDbEntity
  8
SJC2
100
AcDbCircle
 10
824.3247842831001
 20
2233.837458451919
 30
0.0
 40
8.0
100
AcDbArc
 50
63.5922840349
 51
105.0016004851
  0
ARC
  5
175
330
18
100
AcDbEntity
  8
SJC2
100
AcDbCircle
 10
785.6875497280002
 20
2223.48463516222
 30
0.0
 40
8.0
100
AcDbArc
 50
105.0004870267999
 51
146.409758334
  0
LINE
  5
176
330
18
100
AcDbEntity
  8
SJC2
100
AcDbLine
 10
521.6448896878
 20
2159.30894907162
 30
0.0
 11
566.1799537215001
 21
2171.24193229232
 31
0.0
  0
LINE
  5
177
330
18
100
AcDbEntity
  8
SJC2
100
AcDbLine
 10
522.407295072
 20
2147.089710972519
 30
0.0
 11
569.2857276009999
 21
2159.650745941519
 31
0.0
  0
LINE
  5
178
330
18
100
AcDbEntity
  8
SJC
100
AcDbLine
 10
2903.1249567401
 20
463.1752463187199
 30
0.0
 11
2200.970702427694
 21
463.1752463187199
 31
0.0
  0
LINE
  5
179
330
18
100
AcDbEntity
  8
SJC
100
AcDbLine
 10
943.220398883508
 20
4661.485566028364
 30
0.0
 11
918.6703809388072
 21
4644.342621947865
 31
0.0
  0
LINE
  5
17A
330
18
100
AcDbEntity
  8
SJC
100
AcDbLine
 10
983.220398287508
 20
4661.485566028364
 30
0.0
 11
1007.770416232208
 21
4644.342621947865
 31
0.0
  0
LINE
  5
17B
330
18
100
AcDbEntity
  8
SJC
100
AcDbLine
 10
918.2203992560079
 20
4644.342621947865
 30
0.0
 11
918.2203992560079
 21
4632.914399461966
 31
0.0
  0
LINE
  5
17C
330
18
100
AcDbEntity
  8
SJC
100
AcDbLine
 10
1008.220397914907
 20
4644.342621947865
 30
0.0
 11
1008.220397914907
 21
4632.914399461966
 31
0.0
  0
LINE
  5
17D
330
18
100
AcDbEntity
  8
SJC
100
AcDbLine
 10
918.2203992560079
 20
4632.914399461966
 30
0.0
 11
1008.220397914907
 21
4632.914399461966
 31
0.0
  0
LINE
  5
17E
330
18
100
AcDbEntity
  8
SJC
100
AcDbLine
 10
918.2203992560079
 20
4644.342621947865
 30
0.0
 11
1008.220397914907
 21
4644.342621947865
 31
0.0
  0
LINE
  5
17F
330
18
100
AcDbEntity
  8
SJC
100
AcDbLine
 10
918.6703809388072
 20
4621.486787327564
 30
0.0
 11
1007.770416232208
 21
4621.486787327564
 31
0.0
  0
LINE
  5
180
330
18
100
AcDbEntity
  8
SJC
100
AcDbLine
 10
943.220398883508
 20
4672.915619568964
 30
0.0
 11
983.220398287508
 21
4672.915619568964
 31
0.0
  0
LINE
  5
181
330
18
100
AcDbEntity
  8
SJC
100
AcDbLine
 10
943.220398883508
 20
4661.485566028364
 30
0.0
 11
983.220398287508
 21
4661.485566028364
 31
0.0
  0
ARC
  5
182
330
18
100
AcDbEntity
  8
SJC
100
AcDbCircle
 10
963.2203985855076
 20
4714.065492830665
 30
0.0
 40
44.54999857319999
100
AcDbArc
 50
296.6752975763999
 51
243.3247024236
  0
LINE
  5
183
330
18
100
AcDbEntity
  8
SJC
100
AcDbLine
 10
943.220398883508
 20
4672.915619568964
 30
0.0
 11
943.220398883508
 21
4661.485566028364
 31
0.0
  0
LINE
  5
184
330
18
100
AcDbEntity
  8
SJC
100
AcDbLine
 10
983.220398287508
 20
4672.915619568964
 30
0.0
 11
983.220398287508
 21
4661.485566028364
 31
0.0
  0
ARC
  5
185
330
18
100
AcDbEntity
  8
SJC
100
AcDbCircle
 10
1040.917540204107
 20
4564.615450284365
 30
0.0
 40
44.70717840329999
100
AcDbArc
 50
137.8531446412999
 51
222.1468553587
  0
ARC
  5
186
330
18
100
AcDbEntity
  8
SJC
100
AcDbCircle
 10
997.2937309870076
 20
4564.615450284365
 30
0.0
 40
31.77673530909999
100
AcDbArc
 50
289.2503683672
 51
70.7496316328
  0
LINE
  5
187
330
18
100
AcDbEntity
  8
SJC
100
AcDbLine
 10
1007.770416232208
 20
4594.615449837365
 30
0.0
 11
1007.770416232208
 21
4632.914399461966
 31
0.0
  0
LINE
  5
188
330
18
100
AcDbEntity
  8
SJC
100
AcDbLine
 10
918.6703809388074
 20
3664.615463695465
 30
0.0
 11
918.6703809388072
 21
4632.914399461966
 31
0.0
  0
LINE
  5
189
330
18
100
AcDbEntity
  8
SJC
100
AcDbLine
 10
1007.770416232208
 20
3664.615463695464
 30
0.0
 11
1007.770416232208
 21
4534.615450731364
 31
0.0
  0
LINE
  5
18D
330
18
100
AcDbEntity
  8
SJC
100
AcDbLine
 10
5293.017764927763
 20
3664.615463695465
 30
0.0
 11
636.461828015108
 21
3664.615463695465
 31
0.0
  0
LINE
  5
18E
330
18
100
AcDbEntity
  8
SJC
100
AcDbLine
 10
2943.219911317507
 20
4661.485566028364
 30
0.0
 11
2918.670045960707
 21
4644.342621947865
 31
0.0
  0
LINE
  5
18F
330
18
100
AcDbEntity
  8
SJC
100
AcDbLine
 10
2983.219910721507
 20
4661.485566028364
 30
0.0
 11
3007.770081254108
 21
4644.342621947865
 31
0.0
  0
LINE
  5
190
330
18
100
AcDbEntity
  8
SJC
100
AcDbLine
 10
2918.219911690107
 20
4644.342621947865
 30
0.0
 11
2918.219911690107
 21
4632.914399461966
 31
0.0
  0
LINE
  5
191
330
18
100
AcDbEntity
  8
SJC
100
AcDbLine
 10
3008.219910349007
 20
4644.342621947865
 30
0.0
 11
3008.219910349007
 21
4632.914399461966
 31
0.0
  0
LINE
  5
192
330
18
100
AcDbEntity
  8
SJC
100
AcDbLine
 10
2918.219911690107
 20
4632.914399461966
 30
0.0
 11
3008.219910349007
 21
4632.914399461966
 31
0.0
  0
LINE
  5
193
330
18
100
AcDbEntity
  8
SJC
100
AcDbLine
 10
2918.219911690107
 20
4644.342621947865
 30
0.0
 11
3008.219910349007
 21
4644.342621947865
 31
0.0
  0
LINE
  5
194
330
18
100
AcDbEntity
  8
SJC
100
AcDbLine
 10
2918.670045960707
 20
4621.486787327564
 30
0.0
 11
3007.770081254108
 21
4621.486787327564
 31
0.0
  0
LINE
  5
195
330
18
100
AcDbEntity
  8
SJC
100
AcDbLine
 10
2943.219911317507
 20
4672.915619568964
 30
0.0
 11
2983.219910721507
 21
4672.915619568964
 31
0.0
  0
LINE
  5
196
330
18
100
AcDbEntity
  8
SJC
100
AcDbLine
 10
2943.219911317507
 20
4661.485566028364
 30
0.0
 11
2983.219910721507
 21
4661.485566028364
 31
0.0
  0
ARC
  5
197
330
18
100
AcDbEntity
  8
SJC
100
AcDbCircle
 10
2963.219911019507
 20
4714.065492830665
 30
0.0
 40
44.54999857319999
100
AcDbArc
 50
296.6752975763999
 51
243.3247024236
  0
LINE
  5
198
330
18
100
AcDbEntity
  8
SJC
100
AcDbLine
 10
2943.219911317507
 20
4672.915619568964
 30
0.0
 11
2943.219911317507
 21
4661.485566028364
 31
0.0
  0
LINE
  5
199
330
18
100
AcDbEntity
  8
SJC
100
AcDbLine
 10
2983.219910721507
 20
4672.915619568964
 30
0.0
 11
2983.219910721507
 21
4661.485566028364
 31
0.0
  0
ARC
  5
19A
330
18
100
AcDbEntity
  8
SJC
100
AcDbCircle
 10
3040.917205226007
 20
4564.615450284365
 30
0.0
 40
44.70717840329999
100
AcDbArc
 50
137.8531446412999
 51
222.1468553587
  0
ARC
  5
19B
330
18
100
AcDbEntity
  8
SJC
100
AcDbCircle
 10
2997.293396008907
 20
4564.615450284365
 30
0.0
 40
31.77673530909999
100
AcDbArc
 50
289.2503683672
 51
70.7496316328
  0
LINE
  5
19C
330
18
100
AcDbEntity
  8
SJC
100
AcDbLine
 10
3007.770081254108
 20
4594.615449837365
 30
0.0
 11
3007.770081254108
 21
4632.914399461966
 31
0.0
  0
LINE
  5
19D
330
18
100
AcDbEntity
  8
SJC
100
AcDbLine
 10
3007.770081254108
 20
3664.615463695464
 30
0.0
 11
3007.770081254108
 21
4534.615450731364
 31
0.0
  0
LINE
  5
1A1
330
18
100
AcDbEntity
  8
SJC
100
AcDbLine
 10
4943.219881515208
 20
4661.485566028364
 30
0.0
 11
4918.669710982607
 21
4644.342621947865
 31
0.0
  0
LINE
  5
1A2
330
18
100
AcDbEntity
  8
SJC
100
AcDbLine
 10
4983.219880919207
 20
4661.485566028364
 30
0.0
 11
5007.770051451808
 21
4644.342621947865
 31
0.0
  0
LINE
  5
1A3
330
18
100
AcDbEntity
  8
SJC
100
AcDbLine
 10
4918.219881887708
 20
4644.342621947865
 30
0.0
 11
4918.219881887708
 21
4632.914399461966
 31
0.0
  0
LINE
  5
1A4
330
18
100
AcDbEntity
  8
SJC
100
AcDbLine
 10
5008.219880546608
 20
4644.342621947865
 30
0.0
 11
5008.219880546608
 21
4632.914399461966
 31
0.0
  0
LINE
  5
1A5
330
18
100
AcDbEntity
  8
SJC
100
AcDbLine
 10
4918.219881887708
 20
4632.914399461966
 30
0.0
 11
5008.219880546608
 21
4632.914399461966
 31
0.0
  0
LINE
  5
1A6
330
18
100
AcDbEntity
  8
SJC
100
AcDbLine
 10
4918.219881887708
 20
4644.342621947865
 30
0.0
 11
5008.219880546608
 21
4644.342621947865
 31
0.0
  0
LINE
  5
1A7
330
18
100
AcDbEntity
  8
SJC
100
AcDbLine
 10
4918.669710982607
 20
4621.486787327564
 30
0.0
 11
5007.770051451808
 21
4621.486787327564
 31
0.0
  0
LINE
  5
1A8
330
18
100
AcDbEntity
  8
SJC
100
AcDbLine
 10
4943.219881515208
 20
4672.915619568964
 30
0.0
 11
4983.219880919207
 21
4672.915619568964
 31
0.0
  0
LINE
  5
1A9
330
18
100
AcDbEntity
  8
SJC
100
AcDbLine
 10
4943.219881515208
 20
4661.485566028364
 30
0.0
 11
4983.219880919207
 21
4661.485566028364
 31
0.0
  0
ARC
  5
1AA
330
18
100
AcDbEntity
  8
SJC
100
AcDbCircle
 10
4963.219881217208
 20
4714.065492830665
 30
0.0
 40
44.54999857319999
100
AcDbArc
 50
296.6752975763999
 51
243.3247024236
  0
LINE
  5
1AB
330
18
100
AcDbEntity
  8
SJC
100
AcDbLine
 10
4943.219881515208
 20
4672.915619568964
 30
0.0
 11
4943.219881515208
 21
4661.485566028364
 31
0.0
  0
LINE
  5
1AC
330
18
100
AcDbEntity
  8
SJC
100
AcDbLine
 10
4983.219880919207
 20
4672.915619568964
 30
0.0
 11
4983.219880919207
 21
4661.485566028364
 31
0.0
  0
ARC
  5
1AD
330
18
100
AcDbEntity
  8
SJC
100
AcDbCircle
 10
5040.917175423707
 20
4564.615450284365
 30
0.0
 40
44.70717840329999
100
AcDbArc
 50
137.8531446412999
 51
222.1468553587
  0
ARC
  5
1AE
330
18
100
AcDbEntity
  8
SJC
100
AcDbCircle
 10
4997.293366206508
 20
4564.615450284365
 30
0.0
 40
31.77673530909999
100
AcDbArc
 50
289.2503683672
 51
70.7496316328
  0
LINE
  5
1AF
330
18
100
AcDbEntity
  8
SJC
100
AcDbLine
 10
5007.770051451808
 20
4594.615449837365
 30
0.0
 11
5007.770051451808
 21
4632.914399461966
 31
0.0
  0
LINE
  5
1B0
330
18
100
AcDbEntity
  8
SJC
100
AcDbLine
 10
5007.770051451808
 20
3664.615463695464
 30
0.0
 11
5007.770051451808
 21
4534.615450731364
 31
0.0
  0
ARC
  5
1B7
330
18
100
AcDbEntity
  8
SJC
100
AcDbCircle
 10
2885.522616813008
 20
4564.615450284365
 30
0.0
 40
44.70717840329999
100
AcDbArc
 50
317.8531446412999
 51
42.1468553587
  0
ARC
  5
1B8
330
18
100
AcDbEntity
  8
SJC
100
AcDbCircle
 10
2929.146426030107
 20
4564.615450284365
 30
0.0
 40
31.77673530909999
100
AcDbArc
 50
109.2503683671999
 51
250.7496316327999
  0
ARC
  5
1B9
330
18
100
AcDbEntity
  8
SJC
100
AcDbCircle
 10
4885.522587010708
 20
4564.615450284365
 30
0.0
 40
44.70717840329999
100
AcDbArc
 50
317.8531446412999
 51
42.1468553587
  0
ARC
  5
1BA
330
18
100
AcDbEntity
  8
SJC
100
AcDbCircle
 10
4929.146396227808
 20
4564.615450284365
 30
0.0
 40
31.77673530909999
100
AcDbArc
 50
109.2503683671999
 51
250.7496316327999
  0
LINE
  5
1BB
330
18
100
AcDbEntity
  8
SJC
100
AcDbLine
 10
4918.669710982607
 20
3664.615463695464
 30
0.0
 11
4918.669710982607
 21
4534.615450731364
 31
0.0
  0
LINE
  5
1BC
330
18
100
AcDbEntity
  8
SJC
100
AcDbLine
 10
4918.669710982607
 20
4594.615449837365
 30
0.0
 11
4918.669710982607
 21
4632.914399461966
 31
0.0
  0
LINE
  5
1BD
330
18
100
AcDbEntity
  8
SJC
100
AcDbLine
 10
2918.670045960707
 20
3664.615463695464
 30
0.0
 11
2918.670045960707
 21
4534.615450731364
 31
0.0
  0
LINE
  5
1BE
330
18
100
AcDbEntity
  8
SJC
100
AcDbLine
 10
2918.670045960707
 20
4594.615449837365
 30
0.0
 11
2918.670045960707
 21
4632.914399461966
 31
0.0
  0
LINE
  5
1BF
330
18
100
AcDbEntity
  8
SJC
100
AcDbLine
 10
6043.219865123908
 20
4661.485566028364
 30
0.0
 11
6018.669694591307
 21
4644.342621947865
 31
0.0
  0
LINE
  5
1C0
330
18
100
AcDbEntity
  8
SJC
100
AcDbLine
 10
6083.219864527908
 20
4661.485566028364
 30
0.0
 11
6107.770035060508
 21
4644.342621947865
 31
0.0
  0
LINE
  5
1C1
330
18
100
AcDbEntity
  8
SJC
100
AcDbLine
 10
6018.219865496508
 20
4644.342621947865
 30
0.0
 11
6018.219865496508
 21
4632.914399461966
 31
0.0
  0
LINE
  5
1C2
330
18
100
AcDbEntity
  8
SJC
100
AcDbLine
 10
6108.219864155408
 20
4644.342621947865
 30
0.0
 11
6108.219864155408
 21
4632.914399461966
 31
0.0
  0
LINE
  5
1C3
330
18
100
AcDbEntity
  8
SJC
100
AcDbLine
 10
6018.219865496508
 20
4632.914399461966
 30
0.0
 11
6108.219864155408
 21
4632.914399461966
 31
0.0
  0
LINE
  5
1C4
330
18
100
AcDbEntity
  8
SJC
100
AcDbLine
 10
6018.219865496508
 20
4644.342621947865
 30
0.0
 11
6108.219864155408
 21
4644.342621947865
 31
0.0
  0
LINE
  5
1C5
330
18
100
AcDbEntity
  8
SJC
100
AcDbLine
 10
6018.669694591307
 20
4621.486787327564
 30
0.0
 11
6107.770035060508
 21
4621.486787327564
 31
0.0
  0
LINE
  5
1C6
330
18
100
AcDbEntity
  8
SJC
100
AcDbLine
 10
6043.219865123908
 20
4672.915619568964
 30
0.0
 11
6083.219864527908
 21
4672.915619568964
 31
0.0
  0
LINE
  5
1C7
330
18
100
AcDbEntity
  8
SJC
100
AcDbLine
 10
6043.219865123908
 20
4661.485566028364
 30
0.0
 11
6083.219864527908
 21
4661.485566028364
 31
0.0
  0
ARC
  5
1C8
330
18
100
AcDbEntity
  8
SJC
100
AcDbCircle
 10
6063.219864825907
 20
4714.065492830665
 30
0.0
 40
44.54999857319999
100
AcDbArc
 50
296.6752975763999
 51
243.3247024236
  0
LINE
  5
1C9
330
18
100
AcDbEntity
  8
SJC
100
AcDbLine
 10
6043.219865123908
 20
4672.915619568964
 30
0.0
 11
6043.219865123908
 21
4661.485566028364
 31
0.0
  0
LINE
  5
1CA
330
18
100
AcDbEntity
  8
SJC
100
AcDbLine
 10
6083.219864527908
 20
4672.915619568964
 30
0.0
 11
6083.219864527908
 21
4661.485566028364
 31
0.0
  0
LINE
  5
1CB
330
18
100
AcDbEntity
  8
SJC
100
AcDbLine
 10
6018.669694591307
 20
3264.615469655864
 30
0.0
 11
6018.669694591307
 21
4632.914399461966
 31
0.0
1001
ACAD
1000
ASC_BOUNDS
1002
{
1070
    19
1005
48A
1002
}
  0
LINE
  5
1CC
330
18
100
AcDbEntity
  8
SJC
100
AcDbLine
 10
5913.219864825908
 20
3264.615469655864
 30
0.0
 11
5913.219864825908
 21
3664.615463695465
 31
0.0
1001
ACAD
1000
ASC_BOUNDS
1002
{
1070
    19
1005
48A
1002
}
  0
LINE
  5
1CD
330
18
100
AcDbEntity
  8
SJC
100
AcDbLine
 10
6213.219864825908
 20
3264.615469655864
 30
0.0
 11
6213.219864825908
 21
3664.615463695465
 31
0.0
1001
ACAD
1000
ASC_BOUNDS
1002
{
1070
    19
1005
48A
1002
}
  0
LINE
  5
1CE
330
18
100
AcDbEntity
  8
SJC
100
AcDbLine
 10
5913.219864825908
 20
3264.615469655864
 30
0.0
 11
6213.219864825908
 21
3264.615469655864
 31
0.0
1001
ACAD
1000
ASC_BOUNDS
1002
{
1070
    19
1005
48A
1005
48A
1002
}
  0
LINE
  5
1CF
330
18
100
AcDbEntity
  8
SJC2
100
AcDbLine
 10
1129.196348260708
 20
4546.763277698865
 30
0.0
 11
1095.506926155307
 21
4551.348238567965
 31
0.0
  0
ARC
  5
1D0
330
18
100
AcDbEntity
  8
SJC2
100
AcDbCircle
 10
1095.878007205307
 20
4554.325199988865
 30
0.0
 40
3.000000074499999
100
AcDbArc
 50
81.60596855199999
 51
262.8946762747
  0
LINE
  5
1D1
330
18
100
AcDbEntity
  8
SJC2
100
AcDbLine
 10
1130.005369244707
 20
4552.708101828964
 30
0.0
 11
1096.315947139307
 21
4557.293062698165
 31
0.0
  0
ARC
  5
1D2
330
18
100
AcDbEntity
  8
SJC2
100
AcDbCircle
 10
1129.634288194707
 20
4549.731140408165
 30
0.0
 40
3.000000074499999
100
AcDbArc
 50
261.6059685521999
 51
82.8946762744
  0
ARC
  5
1D3
330
18
100
AcDbEntity
  8
SJC2
100
AcDbCircle
 10
1129.600828465607
 20
4549.735917857165
 30
0.0
 40
9.999999851
100
AcDbArc
 50
189.7065411486999
 51
262.2506962022
  0
ARC
  5
1D4
330
18
100
AcDbEntity
  8
SJC2
100
AcDbCircle
 10
1129.600091352007
 20
4549.736266565465
 30
0.0
 40
4.0
100
AcDbArc
 50
220.8541609809
 51
262.2633791562
  0
LINE
  5
1D5
330
18
100
AcDbEntity
  8
SJC2
100
AcDbLine
 10
1148.878812567007
 20
4543.075533613165
 30
0.0
 11
1129.061613155307
 21
4545.772677127664
 31
0.0
  0
LINE
  5
1D6
330
18
100
AcDbEntity
  8
SJC2
100
AcDbLine
 10
1149.957456349808
 20
4551.002169237264
 30
0.0
 11
1130.140256938008
 21
4553.699312751765
 31
0.0
  0
ARC
  5
1D7
330
18
100
AcDbEntity
  8
SJC2
100
AcDbCircle
 10
1129.600127582507
 20
4549.735947984365
 30
0.0
 40
4.0
100
AcDbArc
 50
82.23951010649999
 51
123.6482457441999
  0
ARC
  5
1D8
330
18
100
AcDbEntity
  8
SJC2
100
AcDbCircle
 10
1149.418459413007
 20
4547.038650308065
 30
0.0
 40
4.0
100
AcDbArc
 50
40.85282573219999
 51
82.2558804281
  0
ARC
  5
1D9
330
18
100
AcDbEntity
  8
SJC2
100
AcDbCircle
 10
1149.418241039507
 20
4547.038928507664
 30
0.0
 40
9.999999851
100
AcDbArc
 50
9.706541148699999
 51
82.25069620220001
  0
LINE
  5
1DA
330
18
100
AcDbEntity
  8
SJC2
100
AcDbLine
 10
1150.766629921708
 20
4556.947603718964
 30
0.0
 11
1130.949430510008
 21
4559.644136881865
 31
0.0
  0
ARC
  5
1DB
330
18
100
AcDbEntity
  8
SJC2
100
AcDbCircle
 10
1129.600757399807
 20
4549.735500352965
 30
0.0
 40
9.999999851
100
AcDbArc
 50
82.24905268349999
 51
154.7909464764999
  0
ARC
  5
1DC
330
18
100
AcDbEntity
  8
SJC2
100
AcDbCircle
 10
1151.367435745307
 20
4546.773806307465
 30
0.0
 40
3.000000074499999
100
AcDbArc
 50
81.6222415268
 51
262.8755155298
  0
ARC
  5
1DD
330
18
100
AcDbEntity
  8
SJC2
100
AcDbCircle
 10
1075.303244289107
 20
4556.949024542665
 30
0.0
 40
9.999999851
100
AcDbArc
 50
189.7099264137
 51
262.2495076787
  0
LINE
  5
1DE
330
18
100
AcDbEntity
  8
SJC2
100
AcDbLine
 10
1093.772001864707
 20
4544.342623438065
 30
0.0
 11
1073.954649865108
 21
4547.040377304064
 31
0.0
  0
LINE
  5
1DF
330
18
100
AcDbEntity
  8
SJC2
100
AcDbLine
 10
1094.580870260907
 20
4550.288668271265
 30
0.0
 11
1074.763670849108
 21
4552.985201434265
 31
0.0
  0
ARC
  5
1E0
330
18
100
AcDbEntity
  8
SJC2
100
AcDbCircle
 10
1075.303265844408
 20
4556.948638987765
 30
0.0
 40
4.0
100
AcDbArc
 50
220.8397276572999
 51
262.2472349334
  0
ARC
  5
1E1
330
18
100
AcDbEntity
  8
SJC2
100
AcDbCircle
 10
1095.120295096707
 20
4554.252084426365
 30
0.0
 40
9.999999851
100
AcDbArc
 50
9.706417565599998
 51
82.24979285100001
  0
ARC
  5
1E2
330
18
100
AcDbEntity
  8
SJC2
100
AcDbCircle
 10
1095.121746057307
 20
4554.251069817765
 30
0.0
 40
4.0
100
AcDbArc
 50
40.866370019
 51
82.2670283911
  0
ARC
  5
1E3
330
18
100
AcDbEntity
  8
SJC2
100
AcDbCircle
 10
1095.120999616407
 20
4554.252033038665
 30
0.0
 40
4.0
100
AcDbArc
 50
262.2395101064999
 51
303.6482457441999
  0
ARC
  5
1E4
330
18
100
AcDbEntity
  8
SJC2
100
AcDbCircle
 10
1095.119991594407
 20
4554.251352958464
 30
0.0
 40
9.999999851
100
AcDbArc
 50
262.2530042499
 51
334.7980877336
  0
ARC
  5
1E5
330
18
100
AcDbEntity
  8
SJC2
100
AcDbCircle
 10
1075.302958493607
 20
4556.948615493864
 30
0.0
 40
9.999999851
100
AcDbArc
 50
82.2498818799
 51
154.7908228795
  0
LINE
  5
1E6
330
18
100
AcDbEntity
  8
SJC2
100
AcDbLine
 10
1040.827514128307
 20
4564.845552819964
 30
0.0
 11
1074.516783645807
 21
4560.260591950865
 31
0.0
  0
LINE
  5
1E7
330
18
100
AcDbEntity
  8
SJC2
100
AcDbLine
 10
1040.018187968507
 20
4558.899507986764
 30
0.0
 11
1073.707610073907
 21
4554.315157469065
 31
0.0
  0
ARC
  5
1E8
330
18
100
AcDbEntity
  8
SJC2
100
AcDbCircle
 10
1074.112196859807
 20
4557.287874709965
 30
0.0
 40
3.0001230411
100
AcDbArc
 50
262.2496645779999
 51
82.249664578
  0
LINE
  5
1E9
330
18
100
AcDbEntity
  8
SJC2
100
AcDbLine
 10
1096.468840203508
 20
4564.160738377064
 30
0.0
 11
1076.651488203808
 21
4566.857271540064
 31
0.0
  0
LINE
  5
1EA
330
18
100
AcDbEntity
  8
SJC2
100
AcDbLine
 10
1095.659971807307
 20
4558.214693543765
 30
0.0
 11
1075.842467219808
 21
4560.912447409865
 31
0.0
  0
ARC
  5
1EB
330
18
100
AcDbEntity
  8
SJC2
100
AcDbCircle
 10
1039.631675966507
 20
4561.803195997965
 30
0.0
 40
9.999999851
100
AcDbArc
 50
262.2514431788999
 51
334.7944553205
  0
ARC
  5
1EC
330
18
100
AcDbEntity
  8
SJC2
100
AcDbCircle
 10
1039.632439947207
 20
4561.803319716364
 30
0.0
 40
4.0
100
AcDbArc
 50
262.2413411177
 51
303.6477995767
  0
ARC
  5
1ED
330
18
100
AcDbEntity
  8
SJC2
100
AcDbCircle
 10
1039.631658973207
 20
4561.803722571865
 30
0.0
 40
4.0
100
AcDbArc
 50
40.840173356
 51
82.24973490169999
  0
ARC
  5
1EE
330
18
100
AcDbEntity
  8
SJC2
100
AcDbCircle
 10
1039.631862085707
 20
4561.803353845065
 30
0.0
 40
9.999999851
100
AcDbArc
 50
9.706417565599998
 51
82.24979285100001
  0
ARC
  5
1EF
330
18
100
AcDbEntity
  8
SJC2
100
AcDbCircle
 10
1075.302464522407
 20
4556.949065383465
 30
0.0
 40
4.0
100
AcDbArc
 50
82.24134111759999
 51
123.6477995767
  0
LINE
  5
1F0
330
18
100
AcDbEntity
  8
SJC2
100
AcDbLine
 10
1040.980407192408
 20
4571.712007795764
 30
0.0
 11
1026.378204040907
 21
4573.699312453665
 31
0.0
  0
LINE
  5
1F1
330
18
100
AcDbEntity
  8
SJC2
100
AcDbLine
 10
1040.171081032607
 20
4565.767183665665
 30
0.0
 11
1028.248321200508
 21
4567.389498094564
 31
0.0
  0
ARC
  5
1F2
330
18
100
AcDbEntity
  8
SJC2
100
AcDbCircle
 10
1040.422851048408
 20
4561.872530403365
 30
0.0
 40
3.000435718
100
AcDbArc
 50
82.24900687979999
 51
262.2490068798
  0
LINE
  5
1F3
330
18
100
AcDbEntity
  8
SJC2
100
AcDbLine
 10
1039.092437249807
 20
4557.839937690065
 30
0.0
 11
1028.623077054308
 21
4559.264498215665
 31
0.0
  0
LINE
  5
1F4
330
18
100
AcDbEntity
  8
SJC2
100
AcDbLine
 10
1038.283416265807
 20
4551.894503208265
 30
0.0
 11
1027.509338057208
 21
4553.361177991165
 31
0.0
  0
LINE
  5
1F5
330
18
100
AcDbEntity
  8
SJC2
100
AcDbLine
 10
1148.069791583007
 20
4537.130099131465
 30
0.0
 11
1128.252439583408
 21
4539.827242645965
 31
0.0
  0
ARC
  5
1F6
330
18
100
AcDbEntity
  8
SJC2
100
AcDbCircle
 10
1149.418941922607
 20
4547.038898380566
 30
0.0
 40
4.0
100
AcDbArc
 50
262.2395101064999
 51
303.6482457441999
  0
ARC
  5
1F7
330
18
100
AcDbEntity
  8
SJC2
100
AcDbCircle
 10
1149.418051283707
 20
4547.038791921065
 30
0.0
 40
9.999999851
100
AcDbArc
 50
262.2514431788999
 51
334.7944553205
  0
LINE
  5
1F8
330
18
100
AcDbEntity
  8
SJC2
100
AcDbLine
 10
1186.511868646907
 20
4545.452242562064
 30
0.0
 11
1152.822446541508
 21
4550.037203431265
 31
0.0
  0
LINE
  5
1F9
330
18
100
AcDbEntity
  8
SJC2
100
AcDbLine
 10
1185.702847662807
 20
4539.506808080364
 30
0.0
 11
1152.013425557407
 21
4544.092379301165
 31
0.0
  0
LINE
  5
1FA
330
18
100
AcDbEntity
  8
SJC2
100
AcDbLine
 10
2797.244571695908
 20
4546.763277698865
 30
0.0
 11
2830.934146389207
 21
4551.348238567965
 31
0.0
  0
ARC
  5
1FB
330
18
100
AcDbEntity
  8
SJC2
100
AcDbCircle
 10
2830.496206455107
 20
4554.316101277264
 30
0.0
 40
3.000000074499999
100
AcDbArc
 50
278.3940314481
 51
97.10532372520001
  0
LINE
  5
1FC
330
18
100
AcDbEntity
  8
SJC2
100
AcDbLine
 10
2796.435855887607
 20
4552.708101828964
 30
0.0
 11
2830.125125405107
 21
4557.293062698165
 31
0.0
  0
ARC
  5
1FD
330
18
100
AcDbEntity
  8
SJC2
100
AcDbCircle
 10
2796.805018282607
 20
4549.730901873765
 30
0.0
 40
3.000000074499999
100
AcDbArc
 50
97.0683980125
 51
278.4251815611
  0
ARC
  5
1FE
330
18
100
AcDbEntity
  8
SJC2
100
AcDbCircle
 10
2796.840240442307
 20
4549.735896596665
 30
0.0
 40
9.999999851
100
AcDbArc
 50
277.750207149
 51
350.2935824344
  0
ARC
  5
1FF
330
18
100
AcDbEntity
  8
SJC2
100
AcDbCircle
 10
2796.841154091508
 20
4549.736290051065
 30
0.0
 40
4.0
100
AcDbArc
 50
277.7341215045999
 51
319.1453942581
  0
LINE
  5
200
330
18
100
AcDbEntity
  8
SJC2
100
AcDbLine
 10
2777.562259977408
 20
4543.075533613165
 30
0.0
 11
2797.379459389208
 21
4545.772677127664
 31
0.0
  0
LINE
  5
201
330
18
100
AcDbEntity
  8
SJC2
100
AcDbLine
 10
2776.483463606808
 20
4551.002169237264
 30
0.0
 11
2796.300968194307
 21
4553.699312751765
 31
0.0
  0
ARC
  5
202
330
18
100
AcDbEntity
  8
SJC2
100
AcDbCircle
 10
2796.840970891608
 20
4549.735930725364
 30
0.0
 40
4.0
100
AcDbArc
 50
56.35220042330001
 51
97.75865888230001
  0
ARC
  5
203
330
18
100
AcDbEntity
  8
SJC2
100
AcDbCircle
 10
2777.022460543507
 20
4547.038650308065
 30
0.0
 40
4.0
100
AcDbArc
 50
97.74411957190002
 51
139.1471742678
  0
ARC
  5
204
330
18
100
AcDbEntity
  8
SJC2
100
AcDbCircle
 10
2777.022675280907
 20
4547.038907249664
 30
0.0
 40
9.999999851
100
AcDbArc
 50
97.74840045080001
 51
170.2933352830999
  0
LINE
  5
205
330
18
100
AcDbEntity
  8
SJC2
100
AcDbLine
 10
2775.674442622708
 20
4556.947603718964
 30
0.0
 11
2795.491642034507
 21
4559.644136881865
 31
0.0
  0
ARC
  5
206
330
18
100
AcDbEntity
  8
SJC2
100
AcDbCircle
 10
2796.840171744708
 20
4549.735480835765
 30
0.0
 40
9.999999851
100
AcDbArc
 50
25.2091771205
 51
97.75011812009999
  0
ARC
  5
207
330
18
100
AcDbEntity
  8
SJC2
100
AcDbCircle
 10
2775.072766930907
 20
4546.773678331765
 30
0.0
 40
3.000000074499999
100
AcDbArc
 50
277.1441643105999
 51
98.3609663832
  0
ARC
  5
208
330
18
100
AcDbEntity
  8
SJC2
100
AcDbCircle
 10
2851.137831893407
 20
4556.949045804264
 30
0.0
 40
9.999999851
100
AcDbArc
 50
277.7495889608
 51
350.2899499962
  0
LINE
  5
209
330
18
100
AcDbEntity
  8
SJC2
100
AcDbLine
 10
2832.669070679707
 20
4544.342623438065
 30
0.0
 11
2852.486270091407
 21
4547.040377304064
 31
0.0
  0
LINE
  5
20A
330
18
100
AcDbEntity
  8
SJC2
100
AcDbLine
 10
2831.860049695707
 20
4550.288668271265
 30
0.0
 11
2851.677554283207
 21
4552.985201434265
 31
0.0
  0
ARC
  5
20B
330
18
100
AcDbEntity
  8
SJC2
100
AcDbCircle
 10
2851.137959287907
 20
4556.948638987765
 30
0.0
 40
4.0
100
AcDbArc
 50
277.7527650665999
 51
319.1602723427
  0
ARC
  5
20C
330
18
100
AcDbEntity
  8
SJC2
100
AcDbCircle
 10
2831.320777447707
 20
4554.252084426365
 30
0.0
 40
9.999999851
100
AcDbArc
 50
97.750207149
 51
170.2935824344
  0
ARC
  5
20D
330
18
100
AcDbEntity
  8
SJC2
100
AcDbCircle
 10
2831.319346804407
 20
4554.251093300565
 30
0.0
 40
4.0
100
AcDbArc
 50
97.73547102930001
 51
139.1340747698
  0
ARC
  5
20E
330
18
100
AcDbEntity
  8
SJC2
100
AcDbCircle
 10
2831.320046998307
 20
4554.252050297665
 30
0.0
 40
4.0
100
AcDbArc
 50
236.3522004233
 51
277.7586588823
  0
ARC
  5
20F
330
18
100
AcDbEntity
  8
SJC2
100
AcDbCircle
 10
2831.321080950007
 20
4554.251352958464
 30
0.0
 40
9.999999851
100
AcDbArc
 50
205.2019122664
 51
277.7469957500999
  0
ARC
  5
210
330
18
100
AcDbEntity
  8
SJC2
100
AcDbCircle
 10
2851.138266638707
 20
4556.948615493864
 30
0.0
 40
9.999999851
100
AcDbArc
 50
25.2091771205
 51
97.75011812009999
  0
LINE
  5
211
330
18
100
AcDbEntity
  8
SJC2
100
AcDbLine
 10
2885.613711004107
 20
4564.845552819964
 30
0.0
 11
2851.924136310807
 21
4560.260591950865
 31
0.0
  0
LINE
  5
212
330
18
100
AcDbEntity
  8
SJC2
100
AcDbLine
 10
2886.423037163908
 20
4558.899507986764
 30
0.0
 11
2852.733462470607
 21
4554.315157469065
 31
0.0
  0
ARC
  5
213
330
18
100
AcDbEntity
  8
SJC2
100
AcDbCircle
 10
2852.328799390707
 20
4557.287874709965
 30
0.0
 40
3.000133330799999
100
AcDbArc
 50
97.75177915429999
 51
277.7517791543
  0
LINE
  5
214
330
18
100
AcDbEntity
  8
SJC2
100
AcDbLine
 10
2829.972232341008
 20
4564.160738377064
 30
0.0
 11
2849.789736928507
 21
4566.857271540064
 31
0.0
  0
LINE
  5
215
330
18
100
AcDbEntity
  8
SJC2
100
AcDbLine
 10
2830.780948149307
 20
4558.214693543765
 30
0.0
 11
2850.598452736807
 21
4560.912447409865
 31
0.0
  0
ARC
  5
216
330
18
100
AcDbEntity
  8
SJC2
100
AcDbCircle
 10
2886.809396577908
 20
4561.803195997965
 30
0.0
 40
9.999999851
100
AcDbArc
 50
205.2055446795
 51
277.7485568211
  0
ARC
  5
217
330
18
100
AcDbEntity
  8
SJC2
100
AcDbCircle
 10
2886.808632597307
 20
4561.803319716364
 30
0.0
 40
4.0
100
AcDbArc
 50
236.3522004233
 51
277.7586588823
  0
ARC
  5
218
330
18
100
AcDbEntity
  8
SJC2
100
AcDbCircle
 10
2886.809433919308
 20
4561.803746112064
 30
0.0
 40
4.0
100
AcDbArc
 50
97.75276506659999
 51
139.1602723427
  0
ARC
  5
219
330
18
100
AcDbEntity
  8
SJC2
100
AcDbCircle
 10
2886.809057870907
 20
4561.803353845065
 30
0.0
 40
9.999999851
100
AcDbArc
 50
97.750207149
 51
170.2935824344
  0
ARC
  5
21A
330
18
100
AcDbEntity
  8
SJC2
100
AcDbCircle
 10
2851.138455434107
 20
4556.949065383465
 30
0.0
 40
4.0
100
AcDbArc
 50
56.35220042330001
 51
97.75865888230001
  0
LINE
  5
21B
330
18
100
AcDbEntity
  8
SJC2
100
AcDbLine
 10
2885.460512764108
 20
4571.712007795764
 30
0.0
 11
2900.062868503608
 21
4573.699312453665
 31
0.0
  0
LINE
  5
21C
330
18
100
AcDbEntity
  8
SJC2
100
AcDbLine
 10
2886.269838924008
 20
4565.767183665665
 30
0.0
 11
2898.192751344007
 21
4567.389498094564
 31
0.0
  0
ARC
  5
21D
330
18
100
AcDbEntity
  8
SJC2
100
AcDbCircle
 10
2886.018374084007
 20
4561.872530403365
 30
0.0
 40
3.000435718
100
AcDbArc
 50
277.7509931202
 51
97.75099312020003
  0
LINE
  5
21E
330
18
100
AcDbEntity
  8
SJC2
100
AcDbLine
 10
2887.348635294607
 20
4557.839937690065
 30
0.0
 11
2897.817995490208
 21
4559.264498215665
 31
0.0
  0
LINE
  5
21F
330
18
100
AcDbEntity
  8
SJC2
100
AcDbLine
 10
2888.157656278608
 20
4551.894503208265
 30
0.0
 11
2898.931581899407
 21
4553.361177991165
 31
0.0
  0
LINE
  5
220
330
18
100
AcDbEntity
  8
SJC2
100
AcDbLine
 10
2778.371280961508
 20
4537.130099131465
 30
0.0
 11
2798.188785549007
 21
4539.827242645965
 31
0.0
  0
ARC
  5
221
330
18
100
AcDbEntity
  8
SJC2
100
AcDbCircle
 10
2777.022003968408
 20
4547.038881118065
 30
0.0
 40
4.0
100
AcDbArc
 50
236.3513080036999
 51
277.7623208435
  0
ARC
  5
222
330
18
100
AcDbEntity
  8
SJC2
100
AcDbCircle
 10
2777.023021260808
 20
4547.038791921065
 30
0.0
 40
9.999999851
100
AcDbArc
 50
205.2055446795
 51
277.7485568211
  0
LINE
  5
223
330
18
100
AcDbEntity
  8
SJC2
100
AcDbLine
 10
2739.929203897607
 20
4545.452242562064
 30
0.0
 11
2773.618473415107
 21
4550.037203431265
 31
0.0
  0
LINE
  5
224
330
18
100
AcDbEntity
  8
SJC2
100
AcDbLine
 10
2740.738224881608
 20
4539.506808080364
 30
0.0
 11
2774.427799574908
 21
4544.092379301165
 31
0.0
  0
ARC
  5
225
330
18
100
AcDbEntity
  8
CENTER
100
AcDbCircle
 10
1963.218729444507
 20
11026.81922300036
 30
0.0
 40
6530.7738284651
100
AcDbArc
 50
263.1488628345999
 51
276.8444006199
  0
LINE
  5
226
330
18
100
AcDbEntity
  8
SJC2
100
AcDbLine
 10
3129.196471046307
 20
4546.763277698865
 30
0.0
 11
3095.506896353008
 21
4551.348238567965
 31
0.0
  0
ARC
  5
227
330
18
100
AcDbEntity
  8
SJC2
100
AcDbCircle
 10
3095.944836287008
 20
4554.316101277264
 30
0.0
 40
3.000000074499999
100
AcDbArc
 50
82.89467627449999
 51
261.6059685521999
  0
LINE
  5
228
330
18
100
AcDbEntity
  8
SJC2
100
AcDbLine
 10
3130.005186854507
 20
4552.708101828964
 30
0.0
 11
3096.315917337007
 21
4557.293062698165
 31
0.0
  0
ARC
  5
229
330
18
100
AcDbEntity
  8
SJC2
100
AcDbCircle
 10
3129.636024459507
 20
4549.730901873765
 30
0.0
 40
3.000000074499999
100
AcDbArc
 50
261.5748184386999
 51
82.93160198770001
  0
ARC
  5
22A
330
18
100
AcDbEntity
  8
SJC2
100
AcDbCircle
 10
3129.600802299908
 20
4549.735896596665
 30
0.0
 40
9.999999851
100
AcDbArc
 50
189.7064175656
 51
262.249792851
  0
ARC
  5
22B
330
18
100
AcDbEntity
  8
SJC2
100
AcDbCircle
 10
3129.599888650707
 20
4549.736290051065
 30
0.0
 40
4.0
100
AcDbArc
 50
220.8546057418999
 51
262.2658784953999
  0
LINE
  5
22C
330
18
100
AcDbEntity
  8
SJC2
100
AcDbLine
 10
3148.878782764708
 20
4543.075533613165
 30
0.0
 11
3129.061583353008
 21
4545.772677127664
 31
0.0
  0
LINE
  5
22D
330
18
100
AcDbEntity
  8
SJC2
100
AcDbLine
 10
3149.957579135307
 20
4551.002169237264
 30
0.0
 11
3130.140074547807
 21
4553.699312751765
 31
0.0
  0
ARC
  5
22E
330
18
100
AcDbEntity
  8
SJC2
100
AcDbCircle
 10
3129.600071850507
 20
4549.735930725364
 30
0.0
 40
4.0
100
AcDbArc
 50
82.2413411177
 51
123.6477995767
  0
ARC
  5
22F
330
18
100
AcDbEntity
  8
SJC2
100
AcDbCircle
 10
3149.418582198608
 20
4547.038650308065
 30
0.0
 40
4.0
100
AcDbArc
 50
40.85282573219999
 51
82.2558804281
  0
ARC
  5
230
330
18
100
AcDbEntity
  8
SJC2
100
AcDbCircle
 10
3149.418367461306
 20
4547.038907249664
 30
0.0
 40
9.999999851
100
AcDbArc
 50
9.7066647169
 51
82.2515995492
  0
LINE
  5
231
330
18
100
AcDbEntity
  8
SJC2
100
AcDbLine
 10
3150.766600119407
 20
4556.947603718964
 30
0.0
 11
3130.949400707607
 21
4559.644136881865
 31
0.0
  0
ARC
  5
232
330
18
100
AcDbEntity
  8
SJC2
100
AcDbCircle
 10
3129.600870997507
 20
4549.735480835765
 30
0.0
 40
9.999999851
100
AcDbArc
 50
82.2498818799
 51
154.7908228795
  0
ARC
  5
233
330
18
100
AcDbEntity
  8
SJC2
100
AcDbCircle
 10
3151.368275811207
 20
4546.773678331765
 30
0.0
 40
3.000000074499999
100
AcDbArc
 50
81.63903361619999
 51
262.8558356900999
  0
ARC
  5
234
330
18
100
AcDbEntity
  8
SJC2
100
AcDbCircle
 10
3075.303210848708
 20
4556.949045804264
 30
0.0
 40
9.999999851
100
AcDbArc
 50
189.7100500038
 51
262.2504110392
  0
LINE
  5
235
330
18
100
AcDbEntity
  8
SJC2
100
AcDbLine
 10
3093.771972062408
 20
4544.342623438065
 30
0.0
 11
3073.954772650708
 21
4547.040377304064
 31
0.0
  0
LINE
  5
236
330
18
100
AcDbEntity
  8
SJC2
100
AcDbLine
 10
3094.580993046407
 20
4550.288668271265
 30
0.0
 11
3074.763488458907
 21
4552.985201434265
 31
0.0
  0
ARC
  5
237
330
18
100
AcDbEntity
  8
SJC2
100
AcDbCircle
 10
3075.303083454207
 20
4556.948638987765
 30
0.0
 40
4.0
100
AcDbArc
 50
220.8397276572999
 51
262.2472349334
  0
ARC
  5
238
330
18
100
AcDbEntity
  8
SJC2
100
AcDbCircle
 10
3095.120265294407
 20
4554.252084426365
 30
0.0
 40
9.999999851
100
AcDbArc
 50
9.706417565599998
 51
82.24979285100001
  0
ARC
  5
239
330
18
100
AcDbEntity
  8
SJC2
100
AcDbCircle
 10
3095.121695937807
 20
4554.251093300565
 30
0.0
 40
4.0
100
AcDbArc
 50
40.8659252302
 51
82.2645289707
  0
ARC
  5
23A
330
18
100
AcDbEntity
  8
SJC2
100
AcDbCircle
 10
3095.120995743807
 20
4554.252050297665
 30
0.0
 40
4.0
100
AcDbArc
 50
262.2413411177
 51
303.6477995767
  0
ARC
  5
23B
330
18
100
AcDbEntity
  8
SJC2
100
AcDbCircle
 10
3095.119961792107
 20
4554.251352958464
 30
0.0
 40
9.999999851
100
AcDbArc
 50
262.2530042499
 51
334.7980877336
  0
ARC
  5
23C
330
18
100
AcDbEntity
  8
SJC2
100
AcDbCircle
 10
3075.302776103408
 20
4556.948615493864
 30
0.0
 40
9.999999851
100
AcDbArc
 50
82.2498818799
 51
154.7908228795
  0
LINE
  5
23D
330
18
100
AcDbEntity
  8
SJC2
100
AcDbLine
 10
3040.827331738107
 20
4564.845552819964
 30
0.0
 11
3074.516906431407
 21
4560.260591950865
 31
0.0
  0
LINE
  5
23E
330
18
100
AcDbEntity
  8
SJC2
100
AcDbLine
 10
3040.018005578208
 20
4558.899507986764
 30
0.0
 11
3073.707580271508
 21
4554.315157469065
 31
0.0
  0
ARC
  5
23F
330
18
100
AcDbEntity
  8
SJC2
100
AcDbCircle
 10
3074.112243351507
 20
4557.287874709965
 30
0.0
 40
3.000133330799999
100
AcDbArc
 50
262.2482208457
 51
82.24822084569998
  0
LINE
  5
240
330
18
100
AcDbEntity
  8
SJC2
100
AcDbLine
 10
3096.468810401107
 20
4564.160738377064
 30
0.0
 11
3076.651305813608
 21
4566.857271540064
 31
0.0
  0
LINE
  5
241
330
18
100
AcDbEntity
  8
SJC2
100
AcDbLine
 10
3095.660094592907
 20
4558.214693543765
 30
0.0
 11
3075.842590005408
 21
4560.912447409865
 31
0.0
  0
ARC
  5
242
330
18
100
AcDbEntity
  8
SJC2
100
AcDbCircle
 10
3039.631646164207
 20
4561.803195997965
 30
0.0
 40
9.999999851
100
AcDbArc
 50
262.2514431788999
 51
334.7944553205
  0
ARC
  5
243
330
18
100
AcDbEntity
  8
SJC2
100
AcDbCircle
 10
3039.632410144908
 20
4561.803319716364
 30
0.0
 40
4.0
100
AcDbArc
 50
262.2413411177
 51
303.6477995767
  0
ARC
  5
244
330
18
100
AcDbEntity
  8
SJC2
100
AcDbCircle
 10
3039.631608822908
 20
4561.803746112064
 30
0.0
 40
4.0
100
AcDbArc
 50
40.8397276573
 51
82.2472349334
  0
ARC
  5
245
330
18
100
AcDbEntity
  8
SJC2
100
AcDbCircle
 10
3039.631984871307
 20
4561.803353845065
 30
0.0
 40
9.999999851
100
AcDbArc
 50
9.706417565599998
 51
82.24979285100001
  0
ARC
  5
246
330
18
100
AcDbEntity
  8
SJC2
100
AcDbCircle
 10
3075.302587308008
 20
4556.949065383465
 30
0.0
 40
4.0
100
AcDbArc
 50
82.2413411177
 51
123.6477995767
  0
LINE
  5
247
330
18
100
AcDbEntity
  8
SJC2
100
AcDbLine
 10
3040.980529978007
 20
4571.712007795764
 30
0.0
 11
3026.378174238507
 21
4573.699312453665
 31
0.0
  0
LINE
  5
248
330
18
100
AcDbEntity
  8
SJC2
100
AcDbLine
 10
3040.171203818207
 20
4565.767183665665
 30
0.0
 11
3028.248291398207
 21
4567.389498094564
 31
0.0
  0
ARC
  5
249
330
18
100
AcDbEntity
  8
SJC2
100
AcDbCircle
 10
3040.422668658207
 20
4561.872530403365
 30
0.0
 40
3.000435718
100
AcDbArc
 50
82.24900687979999
 51
262.2490068798
  0
LINE
  5
24A
330
18
100
AcDbEntity
  8
SJC2
100
AcDbLine
 10
3039.092407447508
 20
4557.839937690065
 30
0.0
 11
3028.623047252007
 21
4559.264498215665
 31
0.0
  0
LINE
  5
24B
330
18
100
AcDbEntity
  8
SJC2
100
AcDbLine
 10
3038.283386463508
 20
4551.894503208265
 30
0.0
 11
3027.509460842808
 21
4553.361177991165
 31
0.0
  0
LINE
  5
24C
330
18
100
AcDbEntity
  8
SJC2
100
AcDbLine
 10
3148.069761780707
 20
4537.130099131465
 30
0.0
 11
3128.252257193107
 21
4539.827242645965
 31
0.0
  0
ARC
  5
24D
330
18
100
AcDbEntity
  8
SJC2
100
AcDbCircle
 10
3149.419038773707
 20
4547.038881118065
 30
0.0
 40
4.0
100
AcDbArc
 50
262.2376791565
 51
303.6486919963
  0
ARC
  5
24E
330
18
100
AcDbEntity
  8
SJC2
100
AcDbCircle
 10
3149.418021481408
 20
4547.038791921065
 30
0.0
 40
9.999999851
100
AcDbArc
 50
262.2514431788999
 51
334.7944553205
  0
LINE
  5
24F
330
18
100
AcDbEntity
  8
SJC2
100
AcDbLine
 10
3186.511838844507
 20
4545.452242562064
 30
0.0
 11
3152.822569327007
 21
4550.037203431265
 31
0.0
  0
LINE
  5
250
330
18
100
AcDbEntity
  8
SJC2
100
AcDbLine
 10
3185.702817860508
 20
4539.506808080364
 30
0.0
 11
3152.013243167208
 21
4544.092379301165
 31
0.0
  0
LINE
  5
251
330
18
100
AcDbEntity
  8
SJC2
100
AcDbLine
 10
4797.244541893507
 20
4546.763277698865
 30
0.0
 11
4830.934116586808
 21
4551.348238567965
 31
0.0
  0
ARC
  5
252
330
18
100
AcDbEntity
  8
SJC2
100
AcDbCircle
 10
4830.497889462107
 20
4554.316353515665
 30
0.0
 40
3.000000074499999
100
AcDbArc
 50
278.360966384
 51
97.1441643098
  0
LINE
  5
253
330
18
100
AcDbEntity
  8
SJC2
100
AcDbLine
 10
4796.435826085308
 20
4552.708101828964
 30
0.0
 11
4830.124790427007
 21
4557.293062698165
 31
0.0
  0
ARC
  5
254
330
18
100
AcDbEntity
  8
SJC2
100
AcDbCircle
 10
4796.804988480308
 20
4549.730901873765
 30
0.0
 40
3.000000074499999
100
AcDbArc
 50
97.06839801260001
 51
278.4251815609999
  0
ARC
  5
255
330
18
100
AcDbEntity
  8
SJC2
100
AcDbCircle
 10
4796.840210639908
 20
4549.735896596665
 30
0.0
 40
9.999999851
100
AcDbArc
 50
277.750207149
 51
350.2935824344
  0
ARC
  5
256
330
18
100
AcDbEntity
  8
SJC2
100
AcDbCircle
 10
4796.841124289108
 20
4549.736290051065
 30
0.0
 40
4.0
100
AcDbArc
 50
277.7341215045999
 51
319.1453942581
  0
LINE
  5
257
330
18
100
AcDbEntity
  8
SJC2
100
AcDbLine
 10
4777.562535350908
 20
4543.075533613165
 30
0.0
 11
4797.379429586808
 21
4545.772677127664
 31
0.0
  0
LINE
  5
258
330
18
100
AcDbEntity
  8
SJC2
100
AcDbLine
 10
4776.483433804507
 20
4551.002169237264
 30
0.0
 11
4796.300938392008
 21
4553.699312751765
 31
0.0
  0
ARC
  5
259
330
18
100
AcDbEntity
  8
SJC2
100
AcDbCircle
 10
4796.840941089308
 20
4549.735930725364
 30
0.0
 40
4.0
100
AcDbArc
 50
56.35220042330001
 51
97.75865888230001
  0
ARC
  5
25A
330
18
100
AcDbEntity
  8
SJC2
100
AcDbCircle
 10
4777.022430741207
 20
4547.038650308065
 30
0.0
 40
4.0
100
AcDbArc
 50
97.74411957190002
 51
139.1471742678
  0
ARC
  5
25B
330
18
100
AcDbEntity
  8
SJC2
100
AcDbCircle
 10
4777.022652751408
 20
4547.038949768264
 30
0.0
 40
9.999999851
100
AcDbArc
 50
97.750207149
 51
170.2935824344
  0
LINE
  5
25C
330
18
100
AcDbEntity
  8
SJC2
100
AcDbLine
 10
4775.674107644607
 20
4556.947603718964
 30
0.0
 11
4795.491612232207
 21
4559.644136881865
 31
0.0
  0
ARC
  5
25D
330
18
100
AcDbEntity
  8
SJC2
100
AcDbCircle
 10
4796.840141942308
 20
4549.735480835765
 30
0.0
 40
9.999999851
100
AcDbArc
 50
25.2091771205
 51
97.75011812009999
  0
ARC
  5
25E
330
18
100
AcDbEntity
  8
SJC2
100
AcDbCircle
 10
4775.009609038908
 20
4546.765084096965
 30
0.0
 40
3.000000074499999
100
AcDbArc
 50
278.3609663835999
 51
97.14416431020001
  0
ARC
  5
25F
330
18
100
AcDbEntity
  8
SJC2
100
AcDbCircle
 10
4851.137802091108
 20
4556.949045804264
 30
0.0
 40
9.999999851
100
AcDbArc
 50
277.7495889608
 51
350.2899499962
  0
LINE
  5
260
330
18
100
AcDbEntity
  8
SJC2
100
AcDbLine
 10
4832.668735701608
 20
4544.342623438065
 30
0.0
 11
4852.486240289107
 21
4547.040377304064
 31
0.0
  0
LINE
  5
261
330
18
100
AcDbEntity
  8
SJC2
100
AcDbLine
 10
4831.860019893308
 20
4550.288668271265
 30
0.0
 11
4851.677524480908
 21
4552.985201434265
 31
0.0
  0
ARC
  5
262
330
18
100
AcDbEntity
  8
SJC2
100
AcDbCircle
 10
4851.137929485607
 20
4556.948638987765
 30
0.0
 40
4.0
100
AcDbArc
 50
277.7527650665999
 51
319.1602723427
  0
ARC
  5
263
330
18
100
AcDbEntity
  8
SJC2
100
AcDbCircle
 10
4831.320747645408
 20
4554.252084426365
 30
0.0
 40
9.999999851
100
AcDbArc
 50
97.750207149
 51
170.2935824344
  0
ARC
  5
264
330
18
100
AcDbEntity
  8
SJC2
100
AcDbCircle
 10
4831.319317002008
 20
4554.251093300565
 30
0.0
 40
4.0
100
AcDbArc
 50
97.73547102930001
 51
139.1340747698
  0
ARC
  5
265
330
18
100
AcDbEntity
  8
SJC2
100
AcDbCircle
 10
4831.320017196008
 20
4554.252050297665
 30
0.0
 40
4.0
100
AcDbArc
 50
236.3522004233
 51
277.7586588824
  0
ARC
  5
266
330
18
100
AcDbEntity
  8
SJC2
100
AcDbCircle
 10
4831.321319606207
 20
4554.251430979064
 30
0.0
 40
9.999999851
100
AcDbArc
 50
205.2024063202999
 51
277.7436788070999
  0
ARC
  5
267
330
18
100
AcDbEntity
  8
SJC2
100
AcDbCircle
 10
4851.138236836407
 20
4556.948615493864
 30
0.0
 40
9.999999851
100
AcDbArc
 50
25.2091771205
 51
97.75011812009999
  0
LINE
  5
268
330
18
100
AcDbEntity
  8
SJC2
100
AcDbLine
 10
4885.613681201707
 20
4564.845552819964
 30
0.0
 11
4851.924106508408
 21
4560.260591950865
 31
0.0
  0
LINE
  5
269
330
18
100
AcDbEntity
  8
SJC2
100
AcDbLine
 10
4886.423007361508
 20
4558.899507986764
 30
0.0
 11
4852.733432668208
 21
4554.315157469065
 31
0.0
  0
ARC
  5
26A
330
18
100
AcDbEntity
  8
SJC2
100
AcDbCircle
 10
4852.328769588307
 20
4557.287874709965
 30
0.0
 40
3.000133330799999
100
AcDbArc
 50
97.75177915429999
 51
277.7517791543
  0
LINE
  5
26B
330
18
100
AcDbEntity
  8
SJC2
100
AcDbLine
 10
4829.972202538708
 20
4564.160738377064
 30
0.0
 11
4849.789707126208
 21
4566.857271540064
 31
0.0
  0
LINE
  5
26C
330
18
100
AcDbEntity
  8
SJC2
100
AcDbLine
 10
4830.780918346907
 20
4558.214693543765
 30
0.0
 11
4850.598422934408
 21
4560.912447409865
 31
0.0
  0
ARC
  5
26D
330
18
100
AcDbEntity
  8
SJC2
100
AcDbCircle
 10
4886.809366775608
 20
4561.803195997965
 30
0.0
 40
9.999999851
100
AcDbArc
 50
205.2055446795
 51
277.7485568211
  0
ARC
  5
26E
330
18
100
AcDbEntity
  8
SJC2
100
AcDbCircle
 10
4886.808907970708
 20
4561.803319716364
 30
0.0
 40
4.0
100
AcDbArc
 50
236.3522004233
 51
277.7586588824
  0
ARC
  5
26F
330
18
100
AcDbEntity
  8
SJC2
100
AcDbCircle
 10
4886.809404116908
 20
4561.803746112064
 30
0.0
 40
4.0
100
AcDbArc
 50
97.75276506659999
 51
139.1602723427
  0
ARC
  5
270
330
18
100
AcDbEntity
  8
SJC2
100
AcDbCircle
 10
4886.809028068507
 20
4561.803353845065
 30
0.0
 40
9.999999851
100
AcDbArc
 50
97.750207149
 51
170.2935824344
  0
ARC
  5
271
330
18
100
AcDbEntity
  8
SJC2
100
AcDbCircle
 10
4851.138425631808
 20
4556.949065383465
 30
0.0
 40
4.0
100
AcDbArc
 50
56.35220042330001
 51
97.75865888230001
  0
LINE
  5
272
330
18
100
AcDbEntity
  8
SJC2
100
AcDbLine
 10
4885.460482961808
 20
4571.712007795764
 30
0.0
 11
4900.062533525508
 21
4573.699312453665
 31
0.0
  0
LINE
  5
273
330
18
100
AcDbEntity
  8
SJC2
100
AcDbLine
 10
4886.269809121608
 20
4565.767183665665
 30
0.0
 11
4898.192416365908
 21
4567.389498094564
 31
0.0
  0
ARC
  5
274
330
18
100
AcDbEntity
  8
SJC2
100
AcDbCircle
 10
4886.018344281608
 20
4561.872530403365
 30
0.0
 40
3.000435718
100
AcDbArc
 50
277.7509931202
 51
97.75099312020003
  0
LINE
  5
275
330
18
100
AcDbEntity
  8
SJC2
100
AcDbLine
 10
4887.348910668107
 20
4557.839937690065
 30
0.0
 11
4897.817660512107
 21
4559.264498215665
 31
0.0
  0
LINE
  5
276
330
18
100
AcDbEntity
  8
SJC2
100
AcDbLine
 10
4888.157626476306
 20
4551.894503208265
 30
0.0
 11
4898.931552097008
 21
4553.361177991165
 31
0.0
  0
LINE
  5
277
330
18
100
AcDbEntity
  8
SJC2
100
AcDbLine
 10
4778.371251159107
 20
4537.130099131465
 30
0.0
 11
4798.188755746708
 21
4539.827242645965
 31
0.0
  0
ARC
  5
278
330
18
100
AcDbEntity
  8
SJC2
100
AcDbCircle
 10
4777.022026049407
 20
4547.038846582764
 30
0.0
 40
4.0
100
AcDbArc
 50
236.3504152461
 51
277.7659825602
  0
ARC
  5
279
330
18
100
AcDbEntity
  8
SJC2
100
AcDbCircle
 10
4777.022991458408
 20
4547.038791921065
 30
0.0
 40
9.999999851
100
AcDbArc
 50
205.2055446795
 51
277.7485568211
  0
LINE
  5
27A
330
18
100
AcDbEntity
  8
SJC2
100
AcDbLine
 10
4739.929479271007
 20
4545.452242562064
 30
0.0
 11
4773.618443612807
 21
4550.037203431265
 31
0.0
  0
LINE
  5
27B
330
18
100
AcDbEntity
  8
SJC2
100
AcDbLine
 10
4740.738195079308
 20
4539.506808080364
 30
0.0
 11
4774.427769772607
 21
4544.092379301165
 31
0.0
  0
ARC
  5
27C
330
18
100
AcDbEntity
  8
CENTER
100
AcDbCircle
 10
3963.218699642208
 20
11026.81922300036
 30
0.0
 40
6530.7738284651
100
AcDbArc
 50
263.1488628345999
 51
276.8444006199
  0
LINE
  5
27D
330
18
100
AcDbEntity
  8
SJC2
100
AcDbLine
 10
5129.195220540808
 20
4546.763277698865
 30
0.0
 11
5095.505645847508
 21
4551.348238567965
 31
0.0
  0
ARC
  5
27E
330
18
100
AcDbEntity
  8
SJC2
100
AcDbCircle
 10
5095.878744882607
 20
4554.324947750465
 30
0.0
 40
3.000000074499999
100
AcDbArc
 50
81.6390336171
 51
262.8558356890999
  0
LINE
  5
27F
330
18
100
AcDbEntity
  8
SJC2
100
AcDbLine
 10
5130.003936349108
 20
4552.708101828964
 30
0.0
 11
5096.314972007308
 21
4557.293062698165
 31
0.0
  0
ARC
  5
280
330
18
100
AcDbEntity
  8
SJC2
100
AcDbCircle
 10
5129.634773954008
 20
4549.730901873865
 30
0.0
 40
3.000000074499999
100
AcDbArc
 50
261.5748184397999
 51
82.9316019866
  0
ARC
  5
281
330
18
100
AcDbEntity
  8
SJC2
100
AcDbCircle
 10
5129.599551794408
 20
4549.735896596665
 30
0.0
 40
9.999999851
100
AcDbArc
 50
189.7064175656
 51
262.249792851
  0
ARC
  5
282
330
18
100
AcDbEntity
  8
SJC2
100
AcDbCircle
 10
5129.598638145207
 20
4549.736290051065
 30
0.0
 40
4.0
100
AcDbArc
 50
220.8546057418999
 51
262.2658784953999
  0
LINE
  5
283
330
18
100
AcDbEntity
  8
SJC2
100
AcDbLine
 10
5148.877227083508
 20
4543.075533613165
 30
0.0
 11
5129.060332847507
 21
4545.772677127664
 31
0.0
  0
LINE
  5
284
330
18
100
AcDbEntity
  8
SJC2
100
AcDbLine
 10
5149.956328629908
 20
4551.002169237264
 30
0.0
 11
5130.138824042408
 21
4553.699312751765
 31
0.0
  0
ARC
  5
285
330
18
100
AcDbEntity
  8
SJC2
100
AcDbCircle
 10
5129.598821345007
 20
4549.735930725364
 30
0.0
 40
4.0
100
AcDbArc
 50
82.24134111759999
 51
123.6477995767
  0
ARC
  5
286
330
18
100
AcDbEntity
  8
SJC2
100
AcDbCircle
 10
5149.417331693108
 20
4547.038650308065
 30
0.0
 40
4.0
100
AcDbArc
 50
40.85282573219999
 51
82.2558804281
  0
ARC
  5
287
330
18
100
AcDbEntity
  8
SJC2
100
AcDbCircle
 10
5149.417109683008
 20
4547.038949768264
 30
0.0
 40
9.999999851
100
AcDbArc
 50
9.706417565599998
 51
82.24979285100001
  0
LINE
  5
288
330
18
100
AcDbEntity
  8
SJC2
100
AcDbLine
 10
5150.765654789708
 20
4556.947603718964
 30
0.0
 11
5130.948150202208
 21
4559.644136881865
 31
0.0
  0
ARC
  5
289
330
18
100
AcDbEntity
  8
SJC2
100
AcDbCircle
 10
5129.599620492007
 20
4549.735480835765
 30
0.0
 40
9.999999851
100
AcDbArc
 50
82.2498818799
 51
154.7908228795
  0
ARC
  5
28A
330
18
100
AcDbEntity
  8
SJC2
100
AcDbCircle
 10
5151.430153395508
 20
4546.765084096965
 30
0.0
 40
3.000000074499999
100
AcDbArc
 50
82.85583569079999
 51
261.6390336155
  0
ARC
  5
28B
330
18
100
AcDbEntity
  8
SJC2
100
AcDbCircle
 10
5075.301960343307
 20
4556.949045804264
 30
0.0
 40
9.999999851
100
AcDbArc
 50
189.7100500038
 51
262.2504110392
  0
LINE
  5
28C
330
18
100
AcDbEntity
  8
SJC2
100
AcDbLine
 10
5093.771026732808
 20
4544.342623438065
 30
0.0
 11
5073.953522145208
 21
4547.040377304064
 31
0.0
  0
LINE
  5
28D
330
18
100
AcDbEntity
  8
SJC2
100
AcDbLine
 10
5094.579742541007
 20
4550.288668271265
 30
0.0
 11
5074.762237953508
 21
4552.985201434265
 31
0.0
  0
ARC
  5
28E
330
18
100
AcDbEntity
  8
SJC2
100
AcDbCircle
 10
5075.301832948808
 20
4556.948638987765
 30
0.0
 40
4.0
100
AcDbArc
 50
220.8397276572999
 51
262.2472349334
  0
ARC
  5
28F
330
18
100
AcDbEntity
  8
SJC2
100
AcDbCircle
 10
5095.119014789007
 20
4554.252084426365
 30
0.0
 40
9.999999851
100
AcDbArc
 50
9.706417565599998
 51
82.24979285100001
  0
ARC
  5
290
330
18
100
AcDbEntity
  8
SJC2
100
AcDbCircle
 10
5095.120445432308
 20
4554.251093300565
 30
0.0
 40
4.0
100
AcDbArc
 50
40.8659252302
 51
82.2645289707
  0
ARC
  5
291
330
18
100
AcDbEntity
  8
SJC2
100
AcDbCircle
 10
5095.119745238408
 20
4554.252050297665
 30
0.0
 40
4.0
100
AcDbArc
 50
262.2413411175999
 51
303.6477995767
  0
ARC
  5
292
330
18
100
AcDbEntity
  8
SJC2
100
AcDbCircle
 10
5095.118442828208
 20
4554.251430979064
 30
0.0
 40
9.999999851
100
AcDbArc
 50
262.2563211929
 51
334.7975936797
  0
ARC
  5
293
330
18
100
AcDbEntity
  8
SJC2
100
AcDbCircle
 10
5075.301525598008
 20
4556.948615493864
 30
0.0
 40
9.999999851
100
AcDbArc
 50
82.2498818799
 51
154.7908228795
  0
LINE
  5
294
330
18
100
AcDbEntity
  8
SJC2
100
AcDbLine
 10
5040.826081232607
 20
4564.845552819964
 30
0.0
 11
5074.515655925908
 21
4560.260591950865
 31
0.0
  0
LINE
  5
295
330
18
100
AcDbEntity
  8
SJC2
100
AcDbLine
 10
5040.016755072808
 20
4558.899507986764
 30
0.0
 11
5073.706329766108
 21
4554.315157469065
 31
0.0
  0
ARC
  5
296
330
18
100
AcDbEntity
  8
SJC2
100
AcDbCircle
 10
5074.110992846009
 20
4557.287874709965
 30
0.0
 40
3.000133330799999
100
AcDbArc
 50
262.2482208457
 51
82.24822084569998
  0
LINE
  5
297
330
18
100
AcDbEntity
  8
SJC2
100
AcDbLine
 10
5096.467559895707
 20
4564.160738377064
 30
0.0
 11
5076.650055308208
 21
4566.857271540064
 31
0.0
  0
LINE
  5
298
330
18
100
AcDbEntity
  8
SJC2
100
AcDbLine
 10
5095.658844087408
 20
4558.214693543765
 30
0.0
 11
5075.841339499908
 21
4560.912447409865
 31
0.0
  0
ARC
  5
299
330
18
100
AcDbEntity
  8
SJC2
100
AcDbCircle
 10
5039.630395658807
 20
4561.803195997965
 30
0.0
 40
9.999999851
100
AcDbArc
 50
262.2514431788999
 51
334.7944553205
  0
ARC
  5
29A
330
18
100
AcDbEntity
  8
SJC2
100
AcDbCircle
 10
5039.630854463708
 20
4561.803319716364
 30
0.0
 40
4.0
100
AcDbArc
 50
262.2413411177
 51
303.6477995767
  0
ARC
  5
29B
330
18
100
AcDbEntity
  8
SJC2
100
AcDbCircle
 10
5039.630358317407
 20
4561.803746112064
 30
0.0
 40
4.0
100
AcDbArc
 50
40.8397276573
 51
82.2472349334
  0
ARC
  5
29C
330
18
100
AcDbEntity
  8
SJC2
100
AcDbCircle
 10
5039.630734365807
 20
4561.803353845065
 30
0.0
 40
9.999999851
100
AcDbArc
 50
9.706417565599998
 51
82.24979285100001
  0
ARC
  5
29D
330
18
100
AcDbEntity
  8
SJC2
100
AcDbCircle
 10
5075.301336802607
 20
4556.949065383465
 30
0.0
 40
4.0
100
AcDbArc
 50
82.24134111759999
 51
123.6477995767
  0
LINE
  5
29E
330
18
100
AcDbEntity
  8
SJC2
100
AcDbLine
 10
5040.979279472507
 20
4571.712007795764
 30
0.0
 11
5026.377228908907
 21
4573.699312453665
 31
0.0
  0
LINE
  5
29F
330
18
100
AcDbEntity
  8
SJC2
100
AcDbLine
 10
5040.169953312708
 20
4565.767183665665
 30
0.0
 11
5028.247346068508
 21
4567.389498094564
 31
0.0
  0
ARC
  5
2A0
330
18
100
AcDbEntity
  8
SJC2
100
AcDbCircle
 10
5040.421418152708
 20
4561.872530403365
 30
0.0
 40
3.000435718
100
AcDbArc
 50
82.24900687979999
 51
262.2490068798
  0
LINE
  5
2A1
330
18
100
AcDbEntity
  8
SJC2
100
AcDbLine
 10
5039.090851766307
 20
4557.839937690065
 30
0.0
 11
5028.622101922308
 21
4559.264498215665
 31
0.0
  0
LINE
  5
2A2
330
18
100
AcDbEntity
  8
SJC2
100
AcDbLine
 10
5038.282135958008
 20
4551.894503208265
 30
0.0
 11
5027.508210337308
 21
4553.361177991165
 31
0.0
  0
LINE
  5
2A3
330
18
100
AcDbEntity
  8
SJC2
100
AcDbLine
 10
5148.068511275209
 20
4537.130099131465
 30
0.0
 11
5128.251006687708
 21
4539.827242645965
 31
0.0
  0
ARC
  5
2A4
330
18
100
AcDbEntity
  8
SJC2
100
AcDbCircle
 10
5149.417736385007
 20
4547.038846582764
 30
0.0
 40
4.0
100
AcDbArc
 50
262.2340174397
 51
303.6495847538
  0
ARC
  5
2A5
330
18
100
AcDbEntity
  8
SJC2
100
AcDbCircle
 10
5149.416770975907
 20
4547.038791921065
 30
0.0
 40
9.999999851
100
AcDbArc
 50
262.2514431788999
 51
334.7944553205
  0
LINE
  5
2A6
330
18
100
AcDbEntity
  8
SJC2
100
AcDbLine
 10
5186.510283163308
 20
4545.452242562064
 30
0.0
 11
5152.821318821608
 21
4550.037203431265
 31
0.0
  0
LINE
  5
2A7
330
18
100
AcDbEntity
  8
SJC2
100
AcDbLine
 10
5185.701567355107
 20
4539.506808080364
 30
0.0
 11
5152.011992661808
 21
4544.092379301165
 31
0.0
  0
LINE
  5
2A8
330
18
100
AcDbEntity
  8
SJC2
100
AcDbLine
 10
5240.172391738707
 20
4531.660128509865
 30
0.0
 11
5206.482817045408
 21
4536.245699730566
 31
0.0
  0
ARC
  5
2A9
330
18
100
AcDbEntity
  8
SJC2
100
AcDbCircle
 10
5206.919044170208
 20
4539.213814678265
 30
0.0
 40
3.000000074499999
100
AcDbArc
 50
82.8558356903
 51
261.6390336159
  0
LINE
  5
2AA
330
18
100
AcDbEntity
  8
SJC2
100
AcDbLine
 10
5240.981107547008
 20
4537.605562991564
 30
0.0
 11
5207.292143205208
 21
4542.190523860764
 31
0.0
  0
ARC
  5
2AB
330
18
100
AcDbEntity
  8
SJC2
100
AcDbCircle
 10
5240.576749642809
 20
4534.632845750665
 30
0.0
 40
3.000092183399999
100
AcDbArc
 50
262.2539958343999
 51
82.25399583439999
  0
ARC
  5
2AC
330
18
100
AcDbEntity
  8
SJC2
100
AcDbCircle
 10
5240.576616083608
 20
4534.632761957065
 30
0.0
 40
9.999999851
100
AcDbArc
 50
189.7100500038
 51
262.2504110392
  0
ARC
  5
2AD
330
18
100
AcDbEntity
  8
SJC2
100
AcDbCircle
 10
5240.576407340108
 20
4534.633059601065
 30
0.0
 40
4.0
100
AcDbArc
 50
220.8415094862
 51
262.2572340959
  0
LINE
  5
2AE
330
18
100
AcDbEntity
  8
SJC2
100
AcDbLine
 10
5259.854398281407
 20
4527.972384424165
 30
0.0
 11
5240.037504045409
 21
4530.669527938665
 31
0.0
  0
LINE
  5
2AF
330
18
100
AcDbEntity
  8
SJC2
100
AcDbLine
 10
5260.933499827807
 20
4535.899020048264
 30
0.0
 11
5241.115995240307
 21
4538.595553211165
 31
0.0
  0
ARC
  5
2B0
330
18
100
AcDbEntity
  8
SJC2
100
AcDbCircle
 10
5240.575992542908
 20
4534.632171184765
 30
0.0
 40
4.0
100
AcDbArc
 50
82.24134111759999
 51
123.6477995767
  0
ARC
  5
2B1
330
18
100
AcDbEntity
  8
SJC2
100
AcDbCircle
 10
5240.576791689908
 20
4534.632941998265
 30
0.0
 40
9.999999851
100
AcDbArc
 50
82.2498818799
 51
154.7908228795
  0
LINE
  5
2B2
330
18
100
AcDbEntity
  8
SJC2
100
AcDbLine
 10
5204.748197930608
 20
4529.240084600565
 30
0.0
 11
5184.930693343107
 21
4531.936617763465
 31
0.0
  0
LINE
  5
2B3
330
18
100
AcDbEntity
  8
SJC2
100
AcDbLine
 10
5205.556913738908
 20
4535.185519082265
 30
0.0
 11
5185.739409151408
 21
4537.882662596764
 31
0.0
  0
ARC
  5
2B4
330
18
100
AcDbEntity
  8
SJC2
100
AcDbCircle
 10
5206.096399845808
 20
4539.148295782465
 30
0.0
 40
9.999999851
100
AcDbArc
 50
9.713682507599999
 51
82.25102946680001
  0
ARC
  5
2B5
330
18
100
AcDbEntity
  8
SJC2
100
AcDbCircle
 10
5206.096420290008
 20
4539.148717152765
 30
0.0
 40
4.0
100
AcDbArc
 50
40.8397276573
 51
82.2472349334
  0
ARC
  5
2B6
330
18
100
AcDbEntity
  8
SJC2
100
AcDbCircle
 10
5206.096916436308
 20
4539.148901108665
 30
0.0
 40
4.0
100
AcDbArc
 50
262.2413411175999
 51
303.6477995767
  0
ARC
  5
2B7
330
18
100
AcDbEntity
  8
SJC2
100
AcDbCircle
 10
5206.096154032008
 20
4539.148818695765
 30
0.0
 40
9.999999851
100
AcDbArc
 50
262.2531987003
 51
334.7903286164
  0
LINE
  5
2B8
330
18
100
AcDbEntity
  8
SJC2
100
AcDbLine
 10
5207.444731093608
 20
4549.056978836564
 30
0.0
 11
5187.627226506108
 21
4551.754732702565
 31
0.0
  0
LINE
  5
2B9
330
18
100
AcDbEntity
  8
SJC2
100
AcDbLine
 10
5206.636015285308
 20
4543.112154706364
 30
0.0
 11
5186.818510697808
 21
4545.809298220865
 31
0.0
  0
ARC
  5
2BA
330
18
100
AcDbEntity
  8
SJC2
100
AcDbCircle
 10
5186.278966805407
 20
4541.846039912965
 30
0.0
 40
9.999999851
100
AcDbArc
 50
82.2514431789
 51
154.7944553205
  0
ARC
  5
2BB
330
18
100
AcDbEntity
  8
SJC2
100
AcDbCircle
 10
5186.279238449808
 20
4541.845271714265
 30
0.0
 40
9.999999851
100
AcDbArc
 50
189.7064175656
 51
262.249792851
  0
ARC
  5
2BC
330
18
100
AcDbEntity
  8
SJC2
100
AcDbCircle
 10
5186.279004146708
 20
4541.846100150364
 30
0.0
 40
4.0
100
AcDbArc
 50
220.8397276572999
 51
262.2472349334
  0
ARC
  5
2BD
330
18
100
AcDbEntity
  8
SJC2
100
AcDbCircle
 10
5186.279269116308
 20
4541.845812568464
 30
0.0
 40
4.0
100
AcDbArc
 50
82.25234388199998
 51
123.6608969281
  0
ARC
  5
2BE
330
18
100
AcDbEntity
  8
SJC2
100
AcDbCircle
 10
5185.878874481307
 20
4542.253695246464
 30
0.0
 40
3.000092183399999
100
AcDbArc
 50
262.2539958343999
 51
82.25399583439999
  0
LINE
  5
2BF
330
18
100
AcDbEntity
  8
SJC2
100
AcDbLine
 10
5251.782498987608
 20
4523.015719458964
 30
0.0
 11
5239.228177885608
 21
4524.724093456965
 31
0.0
  0
LINE
  5
2C0
330
18
100
AcDbEntity
  8
SJC2
100
AcDbLine
 10
5254.479642502108
 20
4542.832613694865
 30
0.0
 11
5241.925321400107
 21
4544.541598044465
 31
0.0
  0
LINE
  5
2D3
330
18
100
AcDbEntity
  8
SJC
100
AcDbLine
 10
956.5597391640999
 20
463.1752463187199
 30
0.0
 11
956.5597391640999
 21
2205.34776674502
 31
0.0
  0
ARC
  5
2D4
330
18
100
AcDbEntity
  8
SJC
100
AcDbCircle
 10
896.0906813411998
 20
2263.175219496619
 30
0.0
 40
83.6691176345
100
AcDbArc
 50
316.2792234647
 51
43.72077653529999
  0
ARC
  5
2D5
330
18
100
AcDbEntity
  8
SJC
100
AcDbCircle
 10
972.5592891883001
 20
2263.175219496619
 30
0.0
 40
59.9999991059
100
AcDbArc
 50
105.4655643504
 51
254.5344356495999
  0
CIRCLE
  5
2D6
330
18
100
AcDbEntity
  8
SJC2
100
AcDbCircle
 10
932.5598005569
 20
2263.175219496619
 30
0.0
 40
4.9999999255
  0
LINE
  5
2D7
330
18
100
AcDbEntity
  8
SJC2
100
AcDbLine
 10
895.9420642861001
 20
2244.74504399002
 30
0.0
 11
914.1125352067998
 21
2249.613818331519
 31
0.0
  0
LINE
  5
2D8
330
18
100
AcDbEntity
  8
SJC2
100
AcDbLine
 10
899.0478381655998
 20
2233.15385763922
 30
0.0
 11
917.9913193286997
 21
2238.22984633312
 31
0.0
  0
LINE
  5
2D9
330
18
100
AcDbEntity
  8
SJC2
100
AcDbLine
 10
891.8009815842001
 20
2260.199755673719
 30
0.0
 11
912.6162583736
 21
2265.77745334452
 31
0.0
  0
LINE
  5
2DA
330
18
100
AcDbEntity
  8
SJC2
100
AcDbLine
 10
888.6950551167997
 20
2271.79094202442
 30
0.0
 11
914.6125657168999
 21
2278.73552199912
 31
0.0
  0
ARC
  5
2DB
330
18
100
AcDbEntity
  8
SJC
100
AcDbCircle
 10
1118.7602597268
 20
2263.175219496619
 30
0.0
 40
59.9999991059
100
AcDbArc
 50
285.4655643504
 51
74.5344356496
  0
ARC
  5
2DC
330
18
100
AcDbEntity
  8
SJC
100
AcDbCircle
 10
1195.2288675738
 20
2263.175219496619
 30
0.0
 40
83.6691176345
100
AcDbArc
 50
136.2792234646999
 51
223.7207765352999
  0
LINE
  5
2DD
330
18
100
AcDbEntity
  8
SJC
100
AcDbLine
 10
1134.759809750899
 20
463.1752463187199
 30
0.0
 11
1134.759809750899
 21
2205.34776674502
 31
0.0
  0
LINE
  5
2DE
330
18
100
AcDbEntity
  8
SJC2
100
AcDbLine
 10
1202.6244937982
 20
2271.79094202442
 30
0.0
 11
1176.7069831981
 21
2278.73552199912
 31
0.0
  0
LINE
  5
2DF
330
18
100
AcDbEntity
  8
SJC2
100
AcDbLine
 10
1199.518567330899
 20
2260.199755673719
 30
0.0
 11
1178.7032905414
 21
2265.777148168719
 31
0.0
  0
LINE
  5
2E0
330
18
100
AcDbEntity
  8
SJC2
100
AcDbLine
 10
1195.3774846289
 20
2244.74504399002
 30
0.0
 11
1177.2070137082
 21
2249.613818331519
 31
0.0
  0
LINE
  5
2E1
330
18
100
AcDbEntity
  8
SJC2
100
AcDbLine
 10
1192.2717107494
 20
2233.15385763922
 30
0.0
 11
1173.3283821742
 21
2238.22984633312
 31
0.0
  0
LINE
  5
2E2
330
18
100
AcDbEntity
  8
SJC
100
AcDbLine
 10
1005.659775053599
 20
2480.57542377662
 30
0.0
 11
1000.6597751281
 21
2456.57548516942
 31
0.0
  0
LINE
  5
2E3
330
18
100
AcDbEntity
  8
SJC
100
AcDbLine
 10
955.6597757986001
 20
2424.575363575919
 30
0.0
 11
955.6597757986001
 21
2414.57536372492
 31
0.0
  0
LINE
  5
2E4
330
18
100
AcDbEntity
  8
SJC
100
AcDbLine
 10
951.6598368934001
 20
2406.575485914419
 30
0.0
 11
951.6598368934001
 21
2383.075547307219
 31
0.0
  0
ARC
  5
2E5
330
18
100
AcDbEntity
  8
SJC
100
AcDbCircle
 10
1045.659878606099
 20
2561.17547579142
 30
0.0
 40
89.9999986589
100
AcDbArc
 50
296.4200453104999
 51
243.6057279338
  0
LINE
  5
2E6
330
18
100
AcDbEntity
  8
SJC
100
AcDbLine
 10
955.6597757986001
 20
2414.57536372492
 30
0.0
 11
958.6598062714998
 21
2412.575241684419
 31
0.0
  0
LINE
  5
2E7
330
18
100
AcDbEntity
  8
SJC
100
AcDbLine
 10
958.6598062714998
 20
2408.575607954919
 30
0.0
 11
951.6598368934001
 21
2406.575485914419
 31
0.0
  0
LINE
  5
2E8
330
18
100
AcDbEntity
  8
SJC
100
AcDbLine
 10
958.6598062714998
 20
2412.575241684419
 30
0.0
 11
958.6598062714998
 21
2408.575607954919
 31
0.0
  0
LINE
  5
2E9
330
18
100
AcDbEntity
  8
SJC
100
AcDbLine
 10
956.5597391640999
 20
2321.002672248219
 30
0.0
 11
956.5597391640999
 21
2383.075547307219
 31
0.0
  0
LINE
  5
2EA
330
18
100
AcDbEntity
  8
SJC
100
AcDbLine
 10
1132.6597426435
 20
2408.575607954919
 30
0.0
 11
1139.6597120217
 21
2406.575485914419
 31
0.0
  0
LINE
  5
2EB
330
18
100
AcDbEntity
  8
SJC
100
AcDbLine
 10
1135.659773116399
 20
2414.57536372492
 30
0.0
 11
1132.6597426435
 21
2412.575241684419
 31
0.0
  0
LINE
  5
2EC
330
18
100
AcDbEntity
  8
SJC
100
AcDbLine
 10
1132.6597426435
 20
2412.575241684419
 30
0.0
 11
1132.6597426435
 21
2408.575607954919
 31
0.0
  0
LINE
  5
2ED
330
18
100
AcDbEntity
  8
SJC
100
AcDbLine
 10
1135.659773116399
 20
2424.575363575919
 30
0.0
 11
1135.659773116399
 21
2414.57536372492
 31
0.0
  0
LINE
  5
2EE
330
18
100
AcDbEntity
  8
SJC
100
AcDbLine
 10
1085.659773861499
 20
2480.57542377662
 30
0.0
 11
1090.659773787
 21
2456.57548516942
 31
0.0
  0
LINE
  5
2EF
330
18
100
AcDbEntity
  8
SJC
100
AcDbLine
 10
1139.6597120217
 20
2406.575485914419
 30
0.0
 11
1139.6597120217
 21
2383.075547307219
 31
0.0
  0
LINE
  5
2F0
330
18
100
AcDbEntity
  8
SJC
100
AcDbLine
 10
1005.659775053599
 20
2480.57542377662
 30
0.0
 11
1085.659773861499
 21
2480.57542377662
 31
0.0
  0
LINE
  5
2F1
330
18
100
AcDbEntity
  8
SJC
100
AcDbLine
 10
1000.6597751281
 20
2456.57548516942
 30
0.0
 11
1090.659773787
 21
2456.57548516942
 31
0.0
  0
LINE
  5
2F2
330
18
100
AcDbEntity
  8
SJC
100
AcDbLine
 10
955.6597757986001
 20
2424.575363575919
 30
0.0
 11
1135.659773116399
 21
2424.575363575919
 31
0.0
  0
LINE
  5
2F3
330
18
100
AcDbEntity
  8
SJC
100
AcDbLine
 10
955.6597757986001
 20
2414.57536372492
 30
0.0
 11
1135.659773116399
 21
2414.57536372492
 31
0.0
  0
LINE
  5
2F4
330
18
100
AcDbEntity
  8
SJC
100
AcDbLine
 10
951.6598368934001
 20
2406.575485914419
 30
0.0
 11
1139.6597120217
 21
2406.575485914419
 31
0.0
  0
LINE
  5
2F5
330
18
100
AcDbEntity
  8
SJC
100
AcDbLine
 10
951.6598368934001
 20
2383.075547307219
 30
0.0
 11
1139.6597120217
 21
2383.075547307219
 31
0.0
  0
LINE
  5
2F6
330
18
100
AcDbEntity
  8
SJC
100
AcDbLine
 10
958.6598062714998
 20
2412.575241684419
 30
0.0
 11
1132.6597426435
 21
2412.575241684419
 31
0.0
  0
LINE
  5
2F7
330
18
100
AcDbEntity
  8
SJC
100
AcDbLine
 10
958.6598062714998
 20
2408.575607954919
 30
0.0
 11
1132.6597426435
 21
2408.575607954919
 31
0.0
  0
LINE
  5
2F8
330
18
100
AcDbEntity
  8
SJC
100
AcDbLine
 10
1134.759809750899
 20
2321.002672248219
 30
0.0
 11
1134.759809750899
 21
2383.075547307219
 31
0.0
  0
ARC
  5
2F9
330
18
100
AcDbEntity
  8
SJC
100
AcDbCircle
 10
1045.659796289199
 20
2345.65388218322
 30
0.0
 40
119.7021466537999
100
AcDbArc
 50
112.0820072678
 51
138.7523097362999
  0
ARC
  5
2FA
330
18
100
AcDbEntity
  8
SJC
100
AcDbCircle
 10
1045.659752625799
 20
2345.65388218322
 30
0.0
 40
119.7021466537999
100
AcDbArc
 50
41.2476902637
 51
67.9179927322
  0
LINE
  5
2FB
330
18
100
AcDbEntity
  8
SJC
100
AcDbLine
 10
2615.659751062699
 20
2480.57542377662
 30
0.0
 11
2610.6597511372
 21
2456.57548516942
 31
0.0
  0
LINE
  5
2FC
330
18
100
AcDbEntity
  8
SJC
100
AcDbLine
 10
2565.6597518078
 20
2424.575363575919
 30
0.0
 11
2565.6597518078
 21
2414.57536372492
 31
0.0
  0
LINE
  5
2FD
330
18
100
AcDbEntity
  8
SJC
100
AcDbLine
 10
2561.6598129025
 20
2406.575485914419
 30
0.0
 11
2561.6598129025
 21
2382.57554730722
 31
0.0
  0
ARC
  5
2FE
330
18
100
AcDbEntity
  8
SJC
100
AcDbCircle
 10
2655.6597783644
 20
2561.17543790692
 30
0.0
 40
89.9999986589
100
AcDbArc
 50
296.4200995146
 51
243.6056736805999
  0
LINE
  5
2FF
330
18
100
AcDbEntity
  8
SJC
100
AcDbLine
 10
2565.6597518078
 20
2414.57536372492
 30
0.0
 11
2568.6596296927
 21
2412.575241684419
 31
0.0
  0
LINE
  5
300
330
18
100
AcDbEntity
  8
SJC
100
AcDbLine
 10
2568.6596296927
 20
2408.575607954919
 30
0.0
 11
2561.6598129025
 21
2406.575485914419
 31
0.0
  0
LINE
  5
301
330
18
100
AcDbEntity
  8
SJC
100
AcDbLine
 10
2568.6596296927
 20
2412.575241684419
 30
0.0
 11
2568.6596296927
 21
2408.575607954919
 31
0.0
  0
LINE
  5
302
330
18
100
AcDbEntity
  8
SJC
100
AcDbLine
 10
2615.659751062699
 20
2480.57542377662
 30
0.0
 11
2695.6597498706
 21
2480.57542377662
 31
0.0
  0
LINE
  5
303
330
18
100
AcDbEntity
  8
SJC
100
AcDbLine
 10
2610.6597511372
 20
2456.57548516942
 30
0.0
 11
2700.659749796099
 21
2456.57548516942
 31
0.0
  0
LINE
  5
304
330
18
100
AcDbEntity
  8
SJC
100
AcDbLine
 10
2565.6597518078
 20
2424.575363575919
 30
0.0
 11
2745.659749125499
 21
2424.575363575919
 31
0.0
  0
LINE
  5
305
330
18
100
AcDbEntity
  8
SJC
100
AcDbLine
 10
2565.6597518078
 20
2414.57536372492
 30
0.0
 11
2745.659749125499
 21
2414.57536372492
 31
0.0
  0
LINE
  5
306
330
18
100
AcDbEntity
  8
SJC
100
AcDbLine
 10
2561.6598129025
 20
2406.575485914419
 30
0.0
 11
2749.6596880308
 21
2406.575485914419
 31
0.0
  0
LINE
  5
307
330
18
100
AcDbEntity
  8
SJC
100
AcDbLine
 10
2568.6596296927
 20
2412.575241684419
 30
0.0
 11
2742.659871240599
 21
2412.575241684419
 31
0.0
  0
LINE
  5
308
330
18
100
AcDbEntity
  8
SJC
100
AcDbLine
 10
2568.6596296927
 20
2408.575607954919
 30
0.0
 11
2742.659871240599
 21
2408.575607954919
 31
0.0
  0
ARC
  5
309
330
18
100
AcDbEntity
  8
SJC
100
AcDbCircle
 10
2655.6597722984
 20
2345.65388218322
 30
0.0
 40
119.7021466537999
100
AcDbArc
 50
112.0820072678
 51
138.7523097362999
  0
LINE
  5
30A
330
18
100
AcDbEntity
  8
SJC
100
AcDbLine
 10
2695.6597498706
 20
2480.57542377662
 30
0.0
 11
2700.659749796099
 21
2456.57548516942
 31
0.0
  0
LINE
  5
30B
330
18
100
AcDbEntity
  8
SJC
100
AcDbLine
 10
2561.6598129025
 20
2382.57554730722
 30
0.0
 11
2749.6596880308
 21
2382.57554730722
 31
0.0
  0
ARC
  5
30C
330
18
100
AcDbEntity
  8
SJC
100
AcDbCircle
 10
2655.659728634899
 20
2345.65388218322
 30
0.0
 40
119.7021466537999
100
AcDbArc
 50
41.2476902637
 51
67.9179927322
  0
LINE
  5
30D
330
18
100
AcDbEntity
  8
SJC
100
AcDbLine
 10
2742.659871240599
 20
2408.575607954919
 30
0.0
 11
2749.6596880308
 21
2406.575485914419
 31
0.0
  0
LINE
  5
30E
330
18
100
AcDbEntity
  8
SJC
100
AcDbLine
 10
2745.659749125499
 20
2414.57536372492
 30
0.0
 11
2742.659871240599
 21
2412.575241684419
 31
0.0
  0
LINE
  5
30F
330
18
100
AcDbEntity
  8
SJC
100
AcDbLine
 10
2745.659749125499
 20
2424.575363575919
 30
0.0
 11
2745.659749125499
 21
2414.57536372492
 31
0.0
  0
LINE
  5
310
330
18
100
AcDbEntity
  8
SJC
100
AcDbLine
 10
2749.6596880308
 20
2406.575485914419
 30
0.0
 11
2749.6596880308
 21
2382.57554730722
 31
0.0
  0
LINE
  5
311
330
18
100
AcDbEntity
  8
SJC
100
AcDbLine
 10
2742.659871240599
 20
2412.575241684419
 30
0.0
 11
2742.659871240599
 21
2408.575607954919
 31
0.0
  0
LINE
  5
312
330
18
100
AcDbEntity
  8
SJC
100
AcDbLine
 10
2566.5594099975
 20
463.1752463187199
 30
0.0
 11
2566.5594099975
 21
2382.57554730722
 31
0.0
  0
LINE
  5
313
330
18
100
AcDbEntity
  8
SJC
100
AcDbLine
 10
2744.7594805843
 20
463.1752463187199
 30
0.0
 11
2744.7594805843
 21
2382.57554730722
 31
0.0
  0
CIRCLE
  5
314
330
18
100
AcDbEntity
  8
SJC
100
AcDbCircle
 10
2655.6597504666
 20
2263.175219496619
 30
0.0
 40
59.9999991059
  0
LINE
  5
315
330
18
100
AcDbEntity
  8
SJC2
100
AcDbLine
 10
2647.6598726562
 20
2305.37523107482
 30
0.0
 11
2663.6596282771
 21
2305.37523107482
 31
0.0
  0
LINE
  5
316
330
18
100
AcDbEntity
  8
SJC2
100
AcDbLine
 10
2655.6597504666
 20
2297.37535326432
 30
0.0
 11
2655.6597504666
 21
2313.37510888532
 31
0.0
  0
LINE
  5
317
330
18
100
AcDbEntity
  8
SJC2
100
AcDbLine
 10
2647.6598726562
 20
2220.975207918419
 30
0.0
 11
2663.6596282771
 21
2220.975207918419
 31
0.0
  0
LINE
  5
318
330
18
100
AcDbEntity
  8
SJC2
100
AcDbLine
 10
2655.6597504666
 20
2228.97508572882
 30
0.0
 11
2655.6597504666
 21
2212.97533010792
 31
0.0
  0
LINE
  5
319
330
18
100
AcDbEntity
  8
SJC2
100
AcDbLine
 10
2647.6598726562
 20
2274.97514607862
 30
0.0
 11
2663.6596282771
 21
2274.97514607862
 31
0.0
  0
LINE
  5
31A
330
18
100
AcDbEntity
  8
SJC2
100
AcDbLine
 10
2647.6598726562
 20
2251.37529291462
 30
0.0
 11
2663.6596282771
 21
2251.37529291462
 31
0.0
  0
LINE
  5
31B
330
18
100
AcDbEntity
  8
SJC2
100
AcDbLine
 10
2663.6596282771
 20
2274.97514607862
 30
0.0
 11
2663.6596282771
 21
2251.37529291462
 31
0.0
  0
LINE
  5
31C
330
18
100
AcDbEntity
  8
SJC2
100
AcDbLine
 10
2647.6598726562
 20
2274.97514607862
 30
0.0
 11
2647.6598726562
 21
2251.37529291462
 31
0.0
  0
TEXT
  5
31D
330
18
100
AcDbEntity
  8
MOJI
100
AcDbText
 10
4037.234162549313
 20
1029.494111103246
 30
0.0
 40
60.0
  1
1
 41
0.8
  7
EXT08
100
AcDbText
  0
TEXT
  5
31E
330
18
100
AcDbEntity
  8
MOJI
100
AcDbText
 10
4003.893543512839
 20
1134.887582840024
 30
0.0
 40
60.0
  1
部番
 41
0.8
  7
EXT08
100
AcDbText
  0
TEXT
  5
31F
330
18
100
AcDbEntity
  8
MOJI
100
AcDbText
 10
4037.234162549313
 20
929.493773509135
 30
0.0
 40
60.0
  1
2
 41
0.8
  7
EXT08
100
AcDbText
  0
TEXT
  5
320
330
18
100
AcDbEntity
  8
MOJI
100
AcDbText
 10
4037.234162549313
 20
829.4937749992461
 30
0.0
 40
60.0
  1
3
 41
0.8
  7
EXT08
100
AcDbText
  0
TEXT
  5
321
330
18
100
AcDbEntity
  8
MOJI
100
AcDbText
 10
4037.234162549313
 20
729.4937764893573
 30
0.0
 40
60.0
  1
4
 41
0.8
  7
EXT08
100
AcDbText
  0
TEXT
  5
322
330
18
100
AcDbEntity
  8
MOJI
100
AcDbText
 10
4037.234162549313
 20
629.4937779794688
 30
0.0
 40
60.0
  1
5
 41
0.8
  7
EXT08
100
AcDbText
  0
TEXT
  5
323
330
18
100
AcDbEntity
  8
MOJI
100
AcDbText
 10
4037.234162549313
 20
529.4937794695794
 30
0.0
 40
60.0
  1
6
 41
0.8
  7
EXT08
100
AcDbText
  0
TEXT
  5
324
330
18
100
AcDbEntity
  8
MOJI
100
AcDbText
 10
4587.41217124044
 20
1133.806243337913
 30
0.0
 40
60.0
  1
材　　質
 41
0.8
  7
EXT08
100
AcDbText
  0
TEXT
  5
325
330
18
100
AcDbEntity
  8
MOJI
100
AcDbText
 10
5082.116406477172
 20
1133.806243337913
 30
0.0
 40
60.0
  1
摘　　　要
 41
0.8
  7
EXT08
100
AcDbText
  0
TEXT
  5
326
330
18
100
AcDbEntity
  8
MOJI
100
AcDbText
 10
4249.963504855482
 20
1134.887582840024
 30
0.0
 40
60.0
  1
品　名
 41
0.8
  7
EXT08
100
AcDbText
  0
TEXT
  5
327
330
18
100
AcDbEntity
  8
MOJI
100
AcDbText
 10
4889.24343504895
 20
1036.501964188912
 30
0.0
 40
60.0
  1
亜鉛めっき＋静電粉体塗装
 41
0.8
  7
EXT08
100
AcDbText
  0
LINE
  5
328
330
18
100
AcDbEntity
  8
MOJI
100
AcDbLine
 10
3983.559377444962
 20
512.9610513089131
 30
0.0
 11
5589.757379058099
 21
512.9610513089131
 31
0.0
  0
LINE
  5
329
330
18
100
AcDbEntity
  8
MOJI
100
AcDbLine
 10
3983.559377444962
 20
612.9610498188015
 30
0.0
 11
5589.757379058099
 21
612.9610498188015
 31
0.0
  0
LINE
  5
32A
330
18
100
AcDbEntity
  8
MOJI
100
AcDbLine
 10
3983.559377444962
 20
712.9607092444684
 30
0.0
 11
5589.757379058099
 21
712.9607092444684
 31
0.0
  0
LINE
  5
32B
330
18
100
AcDbEntity
  8
MOJI
100
AcDbLine
 10
3983.559377444962
 20
912.9607062642461
 30
0.0
 11
5589.757379058099
 21
912.9607062642461
 31
0.0
  0
LINE
  5
32C
330
18
100
AcDbEntity
  8
MOJI
100
AcDbLine
 10
3983.559377444962
 20
1012.961043858246
 30
0.0
 11
5589.757379058099
 21
1012.961043858246
 31
0.0
  0
LINE
  5
32D
330
18
100
AcDbEntity
  8
MOJI
100
AcDbLine
 10
3983.559377444962
 20
1112.961042368135
 30
0.0
 11
5589.757379058099
 21
1112.961042368135
 31
0.0
  0
LINE
  5
32E
330
18
100
AcDbEntity
  8
MOJI
100
AcDbLine
 10
3983.559377444962
 20
812.9607077543573
 30
0.0
 11
5589.757379058099
 21
812.9607077543573
 31
0.0
  0
LINE
  5
32F
330
18
100
AcDbEntity
  8
MOJI
100
AcDbLine
 10
3983.559377444962
 20
1212.961040878024
 30
0.0
 11
5589.757379058099
 21
1212.961040878024
 31
0.0
  0
LINE
  5
330
330
18
100
AcDbEntity
  8
MOJI
100
AcDbLine
 10
4534.707944200328
 20
512.9610513089131
 30
0.0
 11
4534.707944200328
 21
1212.961040878024
 31
0.0
  0
LINE
  5
331
330
18
100
AcDbEntity
  8
MOJI
100
AcDbLine
 10
4118.858302817876
 20
512.9610513089131
 30
0.0
 11
4118.858302817876
 21
1212.961040878024
 31
0.0
  0
LINE
  5
332
330
18
100
AcDbEntity
  8
MOJI
100
AcDbLine
 10
4856.898941764868
 20
1212.961040878024
 30
0.0
 11
4856.898941764868
 21
512.9610513089131
 31
0.0
  0
LINE
  5
333
330
18
100
AcDbEntity
  8
MOJI
100
AcDbLine
 10
5589.757379058099
 20
512.9610513089131
 30
0.0
 11
5589.757379058099
 21
1212.961040878024
 31
0.0
  0
LINE
  5
334
330
18
100
AcDbEntity
  8
MOJI
100
AcDbLine
 10
3983.559377444962
 20
512.9610513089131
 30
0.0
 11
3983.559377444962
 21
1212.961040878024
 31
0.0
  0
TEXT
  5
335
330
18
100
AcDbEntity
  8
MOJI
100
AcDbText
 10
5074.688612524556
 20
936.5019656790236
 30
0.0
 40
60.0
  1
静電粉体塗装
 41
0.8
  7
EXT08
100
AcDbText
  0
TEXT
  5
336
330
18
100
AcDbEntity
  8
MOJI
100
AcDbText
 10
4561.319050720917
 20
1033.81946911169
 30
0.0
 40
60.0
  1
STK400
 41
0.8
  7
EXT08
100
AcDbText
  0
TEXT
  5
337
330
18
100
AcDbEntity
  8
MOJI
100
AcDbText
 10
4557.55973882045
 20
933.8191315175798
 30
0.0
 40
60.0
  1
アルミ合金
 41
0.8
  7
EXT08
100
AcDbText
  0
TEXT
  5
338
330
18
100
AcDbEntity
  8
MOJI
100
AcDbText
 10
4675.412368141375
 20
733.8191344979125
 30
0.0
 40
60.0
  1
AL
 41
0.8
  7
EXT08
100
AcDbText
  0
TEXT
  5
339
330
18
100
AcDbEntity
  8
MOJI
100
AcDbText
 10
4635.905019154548
 20
633.8194750721349
 30
0.0
 40
60.0
  1
SUS
 41
0.8
  7
EXT08
100
AcDbText
  0
TEXT
  5
33A
330
18
100
AcDbEntity
  8
MOJI
100
AcDbText
 10
5179.048653086086
 20
729.5453172872462
 30
0.0
 40
60.0
  1
%%c6
 41
0.8
  7
EXT08
100
AcDbText
  0
TEXT
  5
33B
330
18
100
AcDbEntity
  8
MOJI
100
AcDbText
 10
4244.089108799384
 20
1029.494111103246
 30
0.0
 40
60.0
  1
支　柱
 41
0.8
  7
EXT08
100
AcDbText
  0
TEXT
  5
33C
330
18
100
AcDbEntity
  8
MOJI
100
AcDbText
 10
4244.089108799384
 20
929.493773509135
 30
0.0
 40
60.0
  1
擬宝珠
 41
0.8
  7
EXT08
100
AcDbText
  0
TEXT
  5
33D
330
18
100
AcDbEntity
  8
MOJI
100
AcDbText
 10
4230.243112418991
 20
729.4937764893573
 30
0.0
 40
60.0
  1
チェーン 　
 41
0.8
  7
EXT08
100
AcDbText
  0
TEXT
  5
33E
330
18
100
AcDbEntity
  8
MOJI
100
AcDbText
 10
4133.695641316324
 20
529.4937794695794
 30
0.0
 40
60.0
  1
六角穴付ボルト
 41
0.8
  7
EXT08
100
AcDbText
  0
LINE
  5
33F
330
18
100
AcDbEntity
  8
SJC
100
AcDbLine
 10
6107.770035060508
 20
3264.615469655864
 30
0.0
 11
6107.770035060508
 21
4632.914399461966
 31
0.0
1001
ACAD
1000
ASC_BOUNDS
1002
{
1070
    19
1005
48A
1002
}
  0
CIRCLE
  5
340
330
18
100
AcDbEntity
  8
SJC
100
AcDbCircle
 10
6063.219864825907
 20
4564.615450284365
 30
0.0
 40
29.999999553
  0
LINE
  5
341
330
18
100
AcDbEntity
  8
CENTER
100
AcDbLine
 10
5993.539079731408
 20
4564.615450284365
 30
0.0
 11
6131.392471231908
 21
4564.615450284365
 31
0.0
  0
LINE
  5
369
330
18
100
AcDbEntity
  8
SJC
100
AcDbLine
 10
4509.679927546591
 20
1814.73117403161
 30
0.0
 11
4673.88707841999
 21
1770.73245642551
 31
0.0
  0
LINE
  5
36A
330
18
100
AcDbEntity
  8
SJC
100
AcDbLine
 10
4501.91442473259
 20
1785.75320815481
 30
0.0
 11
4666.122185957591
 21
1741.75449054871
 31
0.0
  0
ARC
  5
36B
330
18
100
AcDbEntity
  8
SJC
100
AcDbCircle
 10
4670.00463218879
 20
1756.24347348711
 30
0.0
 40
15.00013384359999
100
AcDbArc
 50
254.9995020838999
 51
74.9995020839
  0
ARC
  5
36C
330
18
100
AcDbEntity
  8
SJC
100
AcDbCircle
 10
4505.79717613959
 20
1800.242191093209
 30
0.0
 40
15.0002128344
100
AcDbArc
 50
74.9983761367
 51
254.9983761366999
  0
LINE
  5
36D
330
18
100
AcDbEntity
  8
SJC
100
AcDbLine
 10
4936.58238700549
 20
1669.28439885511
 30
0.0
 11
4772.375236132091
 21
1713.28387940071
 31
0.0
  0
ARC
  5
36E
330
18
100
AcDbEntity
  8
SJC
100
AcDbCircle
 10
4776.25737718749
 20
1727.77286233911
 30
0.0
 40
15.0000548587
100
AcDbArc
 50
75.000628043
 51
255.0006280429999
  0
LINE
  5
36F
330
18
100
AcDbEntity
  8
SJC
100
AcDbLine
 10
4944.34727946799
 20
1698.26236473191
 30
0.0
 11
4780.13951824299
 21
1742.26184527751
 31
0.0
  0
ARC
  5
370
330
18
100
AcDbEntity
  8
SJC
100
AcDbCircle
 10
4940.464833236791
 20
1683.77338179351
 30
0.0
 40
15.00013384359999
100
AcDbArc
 50
254.9995020838999
 51
74.9995020839
  0
ARC
  5
371
330
18
100
AcDbEntity
  8
SJC
100
AcDbCircle
 10
4940.46398080679
 20
1683.77421931231
 30
0.0
 40
49.9999992549
100
AcDbArc
 50
182.4583964232999
 51
255.000617495
  0
ARC
  5
372
330
18
100
AcDbEntity
  8
SJC
100
AcDbCircle
 10
4940.46437019549
 20
1683.77439256511
 30
0.0
 40
19.999999702
100
AcDbArc
 50
213.5934332279999
 51
255.0013415725999
  0
ARC
  5
373
330
18
100
AcDbEntity
  8
SJC
100
AcDbCircle
 10
4940.464551955191
 20
1683.77333339881
 30
0.0
 40
19.999999702
100
AcDbArc
 50
74.99913402689999
 51
116.4072886241
  0
ARC
  5
374
330
18
100
AcDbEntity
  8
SJC
100
AcDbCircle
 10
4940.46473759919
 20
1683.77339770241
 30
0.0
 40
49.9999992549
100
AcDbArc
 50
75.0002168501
 51
147.5419602829999
  0
ARC
  5
375
330
18
100
AcDbEntity
  8
SJC
100
AcDbCircle
 10
4501.83029185579
 20
1800.39934070941
 30
0.0
 40
49.9999992549
100
AcDbArc
 50
255.0002168500999
 51
327.5419602829999
  0
ARC
  5
376
330
18
100
AcDbEntity
  8
SJC
100
AcDbCircle
 10
4501.83148427239
 20
1800.39929878141
 30
0.0
 40
19.999999702
100
AcDbArc
 50
254.9979582942
 51
296.4079728911999
  0
ARC
  5
377
330
18
100
AcDbEntity
  8
SJC
100
AcDbCircle
 10
4501.830785293591
 20
1800.39907501891
 30
0.0
 40
19.999999702
100
AcDbArc
 50
33.5909255054
 51
75.0017153678
  0
ARC
  5
378
330
18
100
AcDbEntity
  8
SJC
100
AcDbCircle
 10
4501.831015517391
 20
1800.39929091591
 30
0.0
 40
49.9999992549
100
AcDbArc
 50
2.457511172299999
 51
75.0005781908
  0
ARC
  5
379
330
18
100
AcDbEntity
  8
SJC
100
AcDbCircle
 10
4675.698366854891
 20
1753.81189462201
 30
0.0
 40
49.9999992549
100
AcDbArc
 50
182.4582066644
 51
254.9998849856
  0
LINE
  5
37A
330
18
100
AcDbEntity
  8
SJC
100
AcDbLine
 10
4759.34972363089
 20
1679.63367238261
 30
0.0
 11
4662.75731784369
 21
1705.51563000471
 31
0.0
  0
LINE
  5
37B
330
18
100
AcDbEntity
  8
SJC
100
AcDbLine
 10
4767.114005741791
 20
1708.61163825941
 30
0.0
 11
4670.52098960299
 21
1734.493595881509
 31
0.0
  0
ARC
  5
37C
330
18
100
AcDbEntity
  8
SJC
100
AcDbCircle
 10
4675.69691808609
 20
1753.81223331831
 30
0.0
 40
19.999999702
100
AcDbArc
 50
213.5934332279999
 51
255.0013415725999
  0
LINE
  5
37D
330
18
100
AcDbEntity
  8
SJC
100
AcDbLine
 10
4777.466788790589
 20
1747.24841746881
 30
0.0
 11
4680.87438300339
 21
1773.13037509091
 31
0.0
  0
ARC
  5
37E
330
18
100
AcDbEntity
  8
SJC
100
AcDbCircle
 10
4675.69771019739
 20
1753.811937091509
 30
0.0
 40
19.999999702
100
AcDbArc
 50
74.99913402689999
 51
116.4072886241
  0
ARC
  5
37F
330
18
100
AcDbEntity
  8
SJC
100
AcDbCircle
 10
4675.69737436379
 20
1753.81214112541
 30
0.0
 40
49.9999992549
100
AcDbArc
 50
74.9995982006
 51
147.542150046
  0
LINE
  5
380
330
18
100
AcDbEntity
  8
SJC
100
AcDbLine
 10
4785.23168125299
 20
1776.226383345609
 30
0.0
 11
4688.63866511429
 21
1802.10834096771
 31
0.0
  0
ARC
  5
381
330
18
100
AcDbEntity
  8
SJC
100
AcDbCircle
 10
4772.29059911359
 20
1727.93012760501
 30
0.0
 40
49.9999992549
100
AcDbArc
 50
2.457321413799999
 51
74.9998456843
  0
ARC
  5
382
330
18
100
AcDbEntity
  8
SJC
100
AcDbCircle
 10
4772.29024386299
 20
1727.92994520281
 30
0.0
 40
19.999999702
100
AcDbArc
 50
33.5902413433
 51
74.9995132959
  0
ARC
  5
383
330
18
100
AcDbEntity
  8
SJC
100
AcDbCircle
 10
4772.29067854769
 20
1727.93007625881
 30
0.0
 40
19.999999702
100
AcDbArc
 50
254.9991340268999
 51
296.4072886241
  0
ARC
  5
384
330
18
100
AcDbEntity
  8
SJC
100
AcDbCircle
 10
4772.29101438139
 20
1727.92987222491
 30
0.0
 40
49.9999992549
100
AcDbArc
 50
254.9995982006
 51
327.5421500459999
  0
ARC
  5
385
330
18
100
AcDbEntity
  8
SJC
100
AcDbCircle
 10
3738.92264533059
 20
1800.242191093209
 30
0.0
 40
15.00017333829999
100
AcDbArc
 50
285.0010608912
 51
105.0010608912
  0
ARC
  5
386
330
18
100
AcDbEntity
  8
SJC
100
AcDbCircle
 10
3742.88937702649
 20
1800.39934070941
 30
0.0
 40
49.9999992549
100
AcDbArc
 50
212.458039717
 51
284.9997831498999
  0
ARC
  5
387
330
18
100
AcDbEntity
  8
SJC
100
AcDbCircle
 10
3742.88848978559
 20
1800.39929878141
 30
0.0
 40
19.999999702
100
AcDbArc
 50
243.5920271088
 51
285.0020417058
  0
ARC
  5
388
330
18
100
AcDbEntity
  8
SJC
100
AcDbCircle
 10
3742.88918876449
 20
1800.39907501891
 30
0.0
 40
19.999999702
100
AcDbArc
 50
104.9982846322
 51
146.4090744945999
  0
ARC
  5
389
330
18
100
AcDbEntity
  8
SJC
100
AcDbCircle
 10
3742.88896209079
 20
1800.399373636509
 30
0.0
 40
49.9999992549
100
AcDbArc
 50
104.9997880622
 51
177.5425837056999
  0
ARC
  5
38A
330
18
100
AcDbEntity
  8
SJC
100
AcDbCircle
 10
3748.43716801349
 20
1827.156482074009
 30
0.0
 40
209.1727988545
100
AcDbArc
 50
316.2791957977
 51
43.72080420229999
  0
ARC
  5
38B
330
18
100
AcDbEntity
  8
SJC
100
AcDbCircle
 10
3939.60834551639
 20
1827.156482074009
 30
0.0
 40
149.9999977647999
100
AcDbArc
 50
105.465455064
 51
254.534544936
  0
CIRCLE
  5
38C
330
18
100
AcDbEntity
  8
SJC2
100
AcDbCircle
 10
3839.61005227749
 20
1827.15640578001
 30
0.0
 40
12.4999998137
  0
LINE
  5
38D
330
18
100
AcDbEntity
  8
SJC
100
AcDbLine
 10
3748.06555901269
 20
1781.08096701351
 30
0.0
 11
3793.49188890219
 21
1793.25290286721
 31
0.0
  0
LINE
  5
38E
330
18
100
AcDbEntity
  8
SJC
100
AcDbLine
 10
3755.83014629929
 20
1752.10300113671
 30
0.0
 11
3803.18884920689
 21
1764.79297287141
 31
0.0
  0
LINE
  5
38F
330
18
100
AcDbEntity
  8
SJC
100
AcDbLine
 10
3737.713386315391
 20
1819.71774622291
 30
0.0
 11
3789.751349407191
 21
1833.66199039991
 31
0.0
  0
LINE
  5
390
330
18
100
AcDbEntity
  8
SJC
100
AcDbLine
 10
3729.948188677191
 20
1848.69571209971
 30
0.0
 11
3794.74158370779
 21
1866.05716203631
 31
0.0
  0
ARC
  5
391
330
18
100
AcDbEntity
  8
SJC
100
AcDbCircle
 10
4305.111628541591
 20
1827.156482074009
 30
0.0
 40
149.9999977647999
100
AcDbArc
 50
285.465455064
 51
74.534544936
  0
ARC
  5
392
330
18
100
AcDbEntity
  8
SJC
100
AcDbCircle
 10
4496.282806044489
 20
1827.156482074009
 30
0.0
 40
209.1727988545
100
AcDbArc
 50
136.2791957977
 51
223.7208042023
  0
LINE
  5
393
330
18
100
AcDbEntity
  8
SJC
100
AcDbLine
 10
4514.77148020509
 20
1848.69571209971
 30
0.0
 11
4449.97839035029
 21
1866.05716203631
 31
0.0
  0
LINE
  5
394
330
18
100
AcDbEntity
  8
SJC
100
AcDbLine
 10
4507.00658774269
 20
1819.71774622291
 30
0.0
 11
4454.968624650891
 21
1833.66122746041
 31
0.0
  0
LINE
  5
395
330
18
100
AcDbEntity
  8
SJC
100
AcDbLine
 10
4496.654415045391
 20
1781.08096701351
 30
0.0
 11
4451.22777998009
 21
1793.25290286721
 31
0.0
  0
LINE
  5
396
330
18
100
AcDbEntity
  8
SJC
100
AcDbLine
 10
4488.889522582891
 20
1752.10300113671
 30
0.0
 11
4441.531124851089
 21
1764.79297287141
 31
0.0
  0
LINE
  5
397
330
18
100
AcDbEntity
  8
SJC
100
AcDbLine
 10
4022.359988519091
 20
2370.65706906791
 30
0.0
 11
4009.85998870539
 21
2310.65706996201
 31
0.0
  0
LINE
  5
398
330
18
100
AcDbEntity
  8
SJC
100
AcDbLine
 10
3897.35999038179
 20
2230.65676597831
 30
0.0
 11
3897.35999038179
 21
2205.65676635091
 31
0.0
  0
LINE
  5
399
330
18
100
AcDbEntity
  8
SJC
100
AcDbLine
 10
3887.35999053079
 20
2185.65707182471
 30
0.0
 11
3887.35999053079
 21
2125.65707271871
 31
0.0
  0
ARC
  5
39A
330
18
100
AcDbEntity
  8
SJC
100
AcDbCircle
 10
4122.35982679159
 20
2572.15706594121
 30
0.0
 40
224.9999966472
100
AcDbArc
 50
296.4201215211999
 51
243.6057390604
  0
LINE
  5
39B
330
18
100
AcDbEntity
  8
SJC
100
AcDbLine
 10
3897.35999038179
 20
2205.65676635091
 30
0.0
 11
3904.85968509429
 21
2200.65646124961
 31
0.0
  0
LINE
  5
39C
330
18
100
AcDbEntity
  8
SJC
100
AcDbLine
 10
3904.85968509429
 20
2190.657376925909
 30
0.0
 11
3887.35999053079
 21
2185.65707182471
 31
0.0
  0
LINE
  5
39D
330
18
100
AcDbEntity
  8
SJC
100
AcDbLine
 10
3904.85968509429
 20
2200.65646124961
 30
0.0
 11
3904.85968509429
 21
2190.657376925909
 31
0.0
  0
LINE
  5
39E
330
18
100
AcDbEntity
  8
SJC
100
AcDbLine
 10
3899.60974620759
 20
1971.72519024691
 30
0.0
 11
3899.60974620759
 21
2125.65707271871
 31
0.0
  0
LINE
  5
39F
330
18
100
AcDbEntity
  8
SJC
100
AcDbLine
 10
4339.86028896379
 20
2190.657376925909
 30
0.0
 11
4357.359983527291
 21
2185.65707182471
 31
0.0
  0
LINE
  5
3A0
330
18
100
AcDbEntity
  8
SJC
100
AcDbLine
 10
4347.35998367629
 20
2205.65676635091
 30
0.0
 11
4339.86028896379
 21
2200.65646124961
 31
0.0
  0
LINE
  5
3A1
330
18
100
AcDbEntity
  8
SJC
100
AcDbLine
 10
4339.86028896379
 20
2200.65646124961
 30
0.0
 11
4339.86028896379
 21
2190.657376925909
 31
0.0
  0
LINE
  5
3A2
330
18
100
AcDbEntity
  8
SJC
100
AcDbLine
 10
4347.35998367629
 20
2230.65676597831
 30
0.0
 11
4347.35998367629
 21
2205.65676635091
 31
0.0
  0
LINE
  5
3A3
330
18
100
AcDbEntity
  8
SJC
100
AcDbLine
 10
4222.35998553889
 20
2370.65706906791
 30
0.0
 11
4234.85998535259
 21
2310.65706996201
 31
0.0
  0
LINE
  5
3A4
330
18
100
AcDbEntity
  8
SJC
100
AcDbLine
 10
4357.359983527291
 20
2185.65707182471
 30
0.0
 11
4357.359983527291
 21
2125.65707271871
 31
0.0
  0
LINE
  5
3A5
330
18
100
AcDbEntity
  8
SJC
100
AcDbLine
 10
4022.359988519091
 20
2370.65706906791
 30
0.0
 11
4222.35998553889
 21
2370.65706906791
 31
0.0
  0
LINE
  5
3A6
330
18
100
AcDbEntity
  8
SJC
100
AcDbLine
 10
4009.85998870539
 20
2310.65706996201
 30
0.0
 11
4234.85998535259
 21
2310.65706996201
 31
0.0
  0
LINE
  5
3A7
330
18
100
AcDbEntity
  8
SJC
100
AcDbLine
 10
3897.35999038179
 20
2230.65676597831
 30
0.0
 11
4347.35998367629
 21
2230.65676597831
 31
0.0
  0
LINE
  5
3A8
330
18
100
AcDbEntity
  8
SJC
100
AcDbLine
 10
3897.35999038179
 20
2205.65676635091
 30
0.0
 11
4347.35998367629
 21
2205.65676635091
 31
0.0
  0
LINE
  5
3A9
330
18
100
AcDbEntity
  8
SJC
100
AcDbLine
 10
3887.35999053079
 20
2185.65707182471
 30
0.0
 11
4357.359983527291
 21
2185.65707182471
 31
0.0
  0
LINE
  5
3AA
330
18
100
AcDbEntity
  8
SJC
100
AcDbLine
 10
3887.35999053079
 20
2125.65707271871
 30
0.0
 11
4357.359983527291
 21
2125.65707271871
 31
0.0
  0
LINE
  5
3AB
330
18
100
AcDbEntity
  8
SJC
100
AcDbLine
 10
3904.85968509429
 20
2200.65646124961
 30
0.0
 11
4339.86028896379
 21
2200.65646124961
 31
0.0
  0
LINE
  5
3AC
330
18
100
AcDbEntity
  8
SJC
100
AcDbLine
 10
3904.85968509429
 20
2190.657376925909
 30
0.0
 11
4339.86028896379
 21
2190.657376925909
 31
0.0
  0
LINE
  5
3AD
330
18
100
AcDbEntity
  8
SJC
100
AcDbLine
 10
4345.11022785039
 20
1971.72519024691
 30
0.0
 11
4345.11022785039
 21
2125.65707271871
 31
0.0
  0
ARC
  5
3AE
330
18
100
AcDbEntity
  8
SJC
100
AcDbCircle
 10
4122.36004160829
 20
2033.35306249661
 30
0.0
 40
299.2553666345
100
AcDbArc
 50
112.0820072678
 51
138.7523097362999
  0
ARC
  5
3AF
330
18
100
AcDbEntity
  8
SJC
100
AcDbCircle
 10
4122.35993244979
 20
2033.35306249661
 30
0.0
 40
299.2553666345
100
AcDbArc
 50
41.2476902637
 51
67.9179927322
  0
LINE
  5
3B0
330
18
100
AcDbEntity
  8
SJC
100
AcDbLine
 10
5009.31126775769
 20
1613.56281155071
 30
0.0
 11
4927.52354924989
 21
1635.47778925151
 31
0.0
  0
LINE
  5
3B1
330
18
100
AcDbEntity
  8
SJC
100
AcDbLine
 10
5017.07554986859
 20
1642.54093001541
 30
0.0
 11
4935.288441712291
 21
1664.45575512831
 31
0.0
  0
LINE
  5
3B2
330
18
100
AcDbEntity
  8
SJC
100
AcDbLine
 10
5027.428332917491
 20
1681.17679369751
 30
0.0
 11
4945.64122476119
 21
1703.09177139831
 31
0.0
  0
LINE
  5
3B3
330
18
100
AcDbEntity
  8
SJC
100
AcDbLine
 10
5035.193225379891
 20
1710.15491216211
 30
0.0
 11
4953.40550687199
 21
1732.06973727501
 31
0.0
  0
LINE
  5
3B4
330
18
100
AcDbEntity
  8
SJC
100
AcDbLine
 10
3735.04004651149
 20
1814.73117403161
 30
0.0
 11
3654.84717661269
 21
1793.24374759391
 31
0.0
  0
LINE
  5
3B5
330
18
100
AcDbEntity
  8
SJC
100
AcDbLine
 10
3742.805244149691
 20
1785.75320815481
 30
0.0
 11
3662.61176389929
 21
1764.26562912931
 31
0.0
  0
LINE
  5
3B6
330
18
100
AcDbEntity
  8
SJC
100
AcDbLine
 10
3899.60974620759
 20
1594.13440607851
 30
0.0
 11
3899.60974620759
 21
1682.58777390111
 31
0.0
  0
LINE
  5
3B7
330
18
100
AcDbEntity
  8
SJC
100
AcDbLine
 10
4345.11022785039
 20
1594.13440607851
 30
0.0
 11
4345.11022785039
 21
1682.58777390111
 31
0.0
  0
LINE
  5
3B8
330
18
100
AcDbEntity
  8
SJC
100
AcDbLine
 10
5045.66685803629
 20
1749.24350410901
 30
0.0
 11
4999.97960285769
 21
1578.73737261651
 31
0.0
  0
ARC
  5
3B9
330
18
100
AcDbEntity
  8
SJC
100
AcDbCircle
 10
4010.98486661829
 20
1769.80983219671
 30
0.0
 40
208.0054633616999
100
AcDbArc
 50
237.6260237668
 51
302.3739762331999
  0
ARC
  5
3BA
330
18
100
AcDbEntity
  8
SJC
100
AcDbCircle
 10
4233.73510743969
 20
1769.80983219671
 30
0.0
 40
208.0054633616999
100
AcDbArc
 50
237.6260237668
 51
302.3739762331999
  0
ARC
  5
3BB
330
18
100
AcDbEntity
  8
SJC
100
AcDbCircle
 10
4233.73510743969
 20
1418.45897996031
 30
0.0
 40
208.0054633616999
100
AcDbArc
 50
57.62602376680001
 51
122.3739762332
  0
LINE
  5
3BC
330
18
100
AcDbEntity
  8
SJC
100
AcDbLine
 10
3642.035592330891
 20
1841.05746758461
 30
0.0
 11
3670.57227403459
 21
1734.55661467941
 31
0.0
  0
LINE
  5
3BD
330
18
100
AcDbEntity
  8
HASEN
100
AcDbLine
 10
4449.97839035029
 20
1866.05716203631
 30
0.0
 11
4418.17907441789
 21
1874.57797489761
 31
0.0
  0
LINE
  5
3BE
330
18
100
AcDbEntity
  8
HASEN
100
AcDbLine
 10
4441.531124851089
 20
1764.79297287141
 30
0.0
 11
4392.29772714729
 21
1777.98526393461
 31
0.0
  0
LINE
  5
3BF
330
18
100
AcDbEntity
  8
HASEN
100
AcDbLine
 10
4454.968624650891
 20
1833.66122746041
 30
0.0
 11
4410.41479230699
 21
1845.59939866931
 31
0.0
  0
LINE
  5
3C0
330
18
100
AcDbEntity
  8
HASEN
100
AcDbLine
 10
4451.22777998009
 20
1793.25290286721
 30
0.0
 11
4400.06139890659
 21
1806.96277204771
 31
0.0
  0
CIRCLE
  5
3C1
330
18
100
AcDbEntity
  8
HASEN
100
AcDbCircle
 10
4405.109616604791
 20
1827.15640578001
 30
0.0
 40
12.4999998137
  0
ARC
  5
3C2
330
18
100
AcDbEntity
  8
HASEN
100
AcDbCircle
 10
4405.238095606789
 20
1826.28139053431
 30
0.0
 40
20.0000328351
100
AcDbArc
 50
74.9990885951
 51
254.9990885950999
  0
ARC
  5
3C3
330
18
100
AcDbEntity
  8
HASEN
100
AcDbCircle
 10
4405.23840078259
 20
1826.28146682821
 30
0.0
 40
50.0001372581
100
AcDbArc
 50
75.000372681
 51
255.0003726809999
  0
LINE
  5
3C4
330
18
100
AcDbEntity
  8
HASEN
100
AcDbLine
 10
4375.11022740339
 20
1902.22506921221
 30
0.0
 11
4434.97411811289
 21
1902.22506921221
 31
0.0
  0
LINE
  5
3C5
330
18
100
AcDbEntity
  8
HASEN
100
AcDbLine
 10
4375.11022740339
 20
1952.22506846711
 30
0.0
 11
4375.11022740339
 21
1902.22506921221
 31
0.0
  0
LINE
  5
3C6
330
18
100
AcDbEntity
  8
HASEN
100
AcDbLine
 10
4375.11022740339
 20
1952.22506846711
 30
0.0
 11
4387.92211686089
 21
1952.22506846711
 31
0.0
  0
LINE
  5
3C7
330
18
100
AcDbEntity
  8
HASEN
100
AcDbLine
 10
4362.11034966739
 20
1910.97506908181
 30
0.0
 11
4362.11034966739
 21
1943.47506859751
 31
0.0
  0
LINE
  5
3C8
330
18
100
AcDbEntity
  8
HASEN
100
AcDbLine
 10
4304.638121519889
 20
1910.97506908181
 30
0.0
 11
4362.11034966739
 21
1910.97506908181
 31
0.0
  0
LINE
  5
3C9
330
18
100
AcDbEntity
  8
HASEN
100
AcDbLine
 10
4304.638121519889
 20
1943.47506859751
 30
0.0
 11
4362.11034966739
 21
1943.47506859751
 31
0.0
  0
LINE
  5
3CA
330
18
100
AcDbEntity
  8
HASEN
100
AcDbLine
 10
4362.11034966739
 20
1943.47506859751
 30
0.0
 11
4375.11022740339
 21
1952.22506846711
 31
0.0
  0
LINE
  5
3CB
330
18
100
AcDbEntity
  8
HASEN
100
AcDbLine
 10
4362.11034966739
 20
1910.97506908181
 30
0.0
 11
4375.11022740339
 21
1902.22506921221
 31
0.0
  0
LINE
  5
3CC
330
18
100
AcDbEntity
  8
HASEN
100
AcDbLine
 10
4304.638121519889
 20
1910.97506908181
 30
0.0
 11
4304.638121519889
 21
1943.47506859751
 31
0.0
  0
LINE
  5
3CD
330
18
100
AcDbEntity
  8
HASEN
100
AcDbLine
 10
4375.11022740339
 20
1750.33755926851
 30
0.0
 11
4434.97411811289
 21
1750.33755926851
 31
0.0
  0
LINE
  5
3CE
330
18
100
AcDbEntity
  8
HASEN
100
AcDbLine
 10
4375.11022740339
 20
1700.33756001351
 30
0.0
 11
4375.11022740339
 21
1750.33755926851
 31
0.0
  0
LINE
  5
3CF
330
18
100
AcDbEntity
  8
HASEN
100
AcDbLine
 10
4375.11022740339
 20
1700.33756001351
 30
0.0
 11
4387.92211686089
 21
1700.33756001351
 31
0.0
  0
LINE
  5
3D0
330
18
100
AcDbEntity
  8
HASEN
100
AcDbLine
 10
4362.11034966739
 20
1741.58755939881
 30
0.0
 11
4362.11034966739
 21
1709.08755988311
 31
0.0
  0
LINE
  5
3D1
330
18
100
AcDbEntity
  8
HASEN
100
AcDbLine
 10
4304.638121519889
 20
1741.58755939881
 30
0.0
 11
4362.11034966739
 21
1741.58755939881
 31
0.0
  0
LINE
  5
3D2
330
18
100
AcDbEntity
  8
HASEN
100
AcDbLine
 10
4304.638121519889
 20
1709.08755988311
 30
0.0
 11
4362.11034966739
 21
1709.08755988311
 31
0.0
  0
LINE
  5
3D3
330
18
100
AcDbEntity
  8
HASEN
100
AcDbLine
 10
4362.11034966739
 20
1709.08755988311
 30
0.0
 11
4375.11022740339
 21
1700.33756001351
 31
0.0
  0
LINE
  5
3D4
330
18
100
AcDbEntity
  8
HASEN
100
AcDbLine
 10
4362.11034966739
 20
1741.58755939881
 30
0.0
 11
4375.11022740339
 21
1750.33755926851
 31
0.0
  0
LINE
  5
3D5
330
18
100
AcDbEntity
  8
HASEN
100
AcDbLine
 10
4304.638121519889
 20
1741.58755939881
 30
0.0
 11
4304.638121519889
 21
1709.08755988311
 31
0.0
  0
CIRCLE
  5
3D6
330
18
100
AcDbEntity
  8
SJC
100
AcDbCircle
 10
5654.802802323232
 20
1826.28139053436
 30
0.0
 40
149.9999977647999
  0
LINE
  5
3D7
330
18
100
AcDbEntity
  8
SJC
100
AcDbLine
 10
5432.051951150233
 20
1537.89638506596
 30
0.0
 11
5432.051951150233
 21
2124.782210060959
 31
0.0
  0
LINE
  5
3D8
330
18
100
AcDbEntity
  8
SJC
100
AcDbLine
 10
5877.551822441533
 20
1537.89638506596
 30
0.0
 11
5877.551822441533
 21
2124.782210060959
 31
0.0
  0
ARC
  5
3D9
330
18
100
AcDbEntity
  8
SJC
100
AcDbCircle
 10
5654.802191971634
 20
1855.78120698926
 30
0.0
 40
19.999999702
100
AcDbArc
 50
0.0
 51
180.0
  0
LINE
  5
3DA
330
18
100
AcDbEntity
  8
SJC
100
AcDbLine
 10
5634.803412972833
 20
1855.78120698926
 30
0.0
 11
5634.803412972833
 21
1735.78258206836
 31
0.0
  0
LINE
  5
3DB
330
18
100
AcDbEntity
  8
SJC
100
AcDbLine
 10
5674.802802025233
 20
1855.78120698926
 30
0.0
 11
5674.802802025233
 21
1735.78090360166
 31
0.0
  0
CIRCLE
  5
3DC
330
18
100
AcDbEntity
  8
SJC2
100
AcDbCircle
 10
5764.803411035632
 20
1826.28139053436
 30
0.0
 40
12.4999998137
  0
LINE
  5
3DD
330
18
100
AcDbEntity
  8
SJC
100
AcDbLine
 10
5634.803412972833
 20
1838.78139034806
 30
0.0
 11
5674.802802025233
 21
1838.78139034806
 31
0.0
  0
LINE
  5
3DE
330
18
100
AcDbEntity
  8
SJC
100
AcDbLine
 10
5634.803412972833
 20
1813.78139072056
 30
0.0
 11
5674.802802025233
 21
1813.78139072056
 31
0.0
  0
ARC
  5
3DF
330
18
100
AcDbEntity
  8
SJC
100
AcDbCircle
 10
5543.427071560933
 20
1713.57181118416
 30
0.0
 40
208.0054633616999
100
AcDbArc
 50
237.6260237668
 51
302.3739762331999
  0
ARC
  5
3E0
330
18
100
AcDbEntity
  8
SJC
100
AcDbCircle
 10
5766.177312382333
 20
1713.57181118416
 30
0.0
 40
208.0054633616999
100
AcDbArc
 50
237.6260237668
 51
302.3739762331999
  0
ARC
  5
3E1
330
18
100
AcDbEntity
  8
SJC
100
AcDbCircle
 10
5766.177312382333
 20
1362.22095894776
 30
0.0
 40
208.0054633616999
100
AcDbArc
 50
57.62602376680001
 51
122.3739762332
  0
ARC
  5
3E2
330
18
100
AcDbEntity
  8
SJC
100
AcDbCircle
 10
5543.427681912533
 20
1949.10678394276
 30
0.0
 40
208.0054633616999
100
AcDbArc
 50
57.62602376680001
 51
122.3739762332
  0
ARC
  5
3E3
330
18
100
AcDbEntity
  8
SJC
100
AcDbCircle
 10
5543.427681912533
 20
2300.45763617906
 30
0.0
 40
208.0054633616999
100
AcDbArc
 50
237.6260237668
 51
302.3739762331999
  0
ARC
  5
3E4
330
18
100
AcDbEntity
  8
SJC
100
AcDbCircle
 10
5766.177617558134
 20
1949.10659046706
 30
0.0
 40
208.0054633616999
100
AcDbArc
 50
57.62612329850001
 51
122.3738767014999
  0
LINE
  5
3E5
330
18
100
AcDbEntity
  8
HASEN
100
AcDbLine
 10
5589.803413643334
 20
1838.78139034806
 30
0.0
 11
5634.803412972833
 21
1838.78139034806
 31
0.0
  0
LINE
  5
3E6
330
18
100
AcDbEntity
  8
HASEN
100
AcDbLine
 10
5589.803413643334
 20
1838.78139034806
 30
0.0
 11
5589.803413643334
 21
1813.78139072056
 31
0.0
  0
LINE
  5
3E7
330
18
100
AcDbEntity
  8
HASEN
100
AcDbLine
 10
5589.803413643334
 20
1813.78139072056
 30
0.0
 11
5634.803412972833
 21
1813.78139072056
 31
0.0
  0
LINE
  5
3E8
330
18
100
AcDbEntity
  8
HASEN
100
AcDbLine
 10
5674.802802025233
 20
1813.78139072056
 30
0.0
 11
5764.803411035632
 21
1813.78139072056
 31
0.0
  0
LINE
  5
3E9
330
18
100
AcDbEntity
  8
HASEN
100
AcDbLine
 10
5674.802802025233
 20
1838.78139034806
 30
0.0
 11
5764.803411035632
 21
1838.78139034806
 31
0.0
  0
LINE
  5
3EA
330
18
100
AcDbEntity
  8
CENTER
100
AcDbLine
 10
5654.802191971634
 20
2182.225182052669
 30
0.0
 11
5654.802191971634
 21
1473.749393049268
 31
0.0
  0
ARC
  5
3EB
330
18
100
AcDbEntity
  8
KASOU
100
AcDbCircle
 10
1963.220366770007
 20
11036.81900663886
 30
0.0
 40
6530.7738284651
100
AcDbArc
 50
263.1593138472
 51
276.8477407159
  0
ARC
  5
3EC
330
18
100
AcDbEntity
  8
KASOU
100
AcDbCircle
 10
1963.219907755407
 20
11016.81914518216
 30
0.0
 40
6530.7738284651
100
AcDbArc
 50
263.1546501275999
 51
276.8572450026999
  0
ARC
  5
3ED
330
18
100
AcDbEntity
  8
KASOU
100
AcDbCircle
 10
3963.220336967708
 20
11036.81900663886
 30
0.0
 40
6530.7738284651
100
AcDbArc
 50
263.1593138472
 51
276.8477407159
  0
ARC
  5
3EE
330
18
100
AcDbEntity
  8
KASOU
100
AcDbCircle
 10
3963.219725231507
 20
11016.81916351566
 30
0.0
 40
6530.7738284651
100
AcDbArc
 50
263.1546514771
 51
276.8572436556
  0
TEXT
  5
3EF
330
18
100
AcDbEntity
  8
MOJI
100
AcDbText
 10
4230.243112418991
 20
629.4937779794688
 30
0.0
 40
60.0
  1
平行ピン　
 41
0.8
  7
EXT08
100
AcDbText
  0
TEXT
  5
3F0
330
18
100
AcDbEntity
  8
MOJI
100
AcDbText
 10
239.2767005562395
 20
1940.814583624744
 30
0.0
 40
60.0
  1
%%c6チェーン
 41
0.8
  7
EXT08
100
AcDbText
  0
TEXT
  5
3F2
330
18
100
AcDbEntity
  8
MOJI
100
AcDbText
 10
157.2972311229473
 20
1938.03845553916
 30
0.0
 40
60.0
  1
4
 41
0.8
  7
EXT08
100
AcDbText
  0
TEXT
  5
3F3
330
18
100
AcDbEntity
  8
MOJI
100
AcDbText
 10
394.0303948277191
 20
2601.26138519745
 30
0.0
 40
60.0
  1
平行ピンφ5
 41
0.8
  7
EXT08
100
AcDbText
  0
TEXT
  5
3FD
330
18
100
AcDbEntity
  8
MOJI
100
AcDbText
 10
1369.649117241467
 20
2813.35797807881
 30
0.0
 40
60.0
  1
擬宝珠
 41
0.8
  7
EXT08
100
AcDbText
  0
TEXT
  5
3FE
330
18
100
AcDbEntity
  8
MOJI
100
AcDbText
 10
312.2025158802175
 20
2612.64573430862
 30
0.0
 40
60.0
  1
5
 41
0.8
  7
EXT08
100
AcDbText
  0
TEXT
  5
3FF
330
18
100
AcDbEntity
  8
MOJI
100
AcDbText
 10
1289.564669965249
 20
2821.391319715543
 30
0.0
 40
60.0
  1
2
 41
0.8
  7
EXT08
100
AcDbText
  0
TEXT
  5
401
330
18
100
AcDbEntity
  8
MOJI
100
AcDbText
 10
1351.635355410062
 20
2043.484019453492
 30
0.0
 40
60.0
  1
チェーン金具
 41
0.8
  7
EXT08
100
AcDbText
  0
TEXT
  5
40A
330
18
100
AcDbEntity
  8
MOJI
100
AcDbText
 10
1235.0460631393
 20
1552.470579208019
 30
0.0
 40
60.0
  1
φ89.1×t3.2
 41
0.8
  7
EXT08
100
AcDbText
  0
TEXT
  5
40B
330
18
100
AcDbEntity
  8
MOJI
100
AcDbText
 10
1356.294272970002
 20
1652.628593552561
 30
0.0
 40
60.0
  1
支柱
 41
0.8
  7
EXT08
100
AcDbText
  0
TEXT
  5
40C
330
18
100
AcDbEntity
  8
MOJI
100
AcDbText
 10
1267.74480972412
 20
1651.801867392829
 30
0.0
 40
60.0
  1
1
 41
0.8
  7
EXT08
100
AcDbText
  0
TEXT
  5
40D
330
18
100
AcDbEntity
  8
MOJI
100
AcDbText
 10
1259.120250587462
 20
2053.705438565385
 30
0.0
 40
60.0
  1
3
 41
0.8
  7
EXT08
100
AcDbText
  0
TEXT
  5
40E
330
18
100
AcDbEntity
  8
MOJI
100
AcDbText
 10
483.0300208162466
 20
489.8839863636003
 30
0.0
 40
60.0
  1
GL
 41
0.8
  7
EXT08
100
AcDbText
  0
LINE
  5
40F
330
18
100
AcDbEntity
  8
SJC
100
AcDbLine
 10
1372.3269448828
 20
463.1752463187199
 30
0.0
 11
474.2307210827998
 21
463.1752463187199
 31
0.0
  0
TEXT
  5
410
330
18
100
AcDbEntity
  8
MOJI
100
AcDbText
 10
3086.651508072248
 20
4831.017917815085
 30
0.0
 40
60.0
  1
擬宝珠
 41
0.8
  7
EXT08
100
AcDbText
  0
TEXT
  5
411
330
18
100
AcDbEntity
  8
MOJI
100
AcDbText
 10
3135.824060242531
 20
3577.507519713877
 30
0.0
 40
60.0
  1
支柱φ89.1×t3.2
 41
0.8
  7
EXT08
100
AcDbText
  0
TEXT
  5
412
330
18
100
AcDbEntity
  8
MOJI
100
AcDbText
 10
3251.012869459884
 20
4685.356287884355
 30
0.0
 40
60.0
  1
%%c6チェーン
 41
0.8
  7
EXT08
100
AcDbText
  0
TEXT
  5
413
330
18
100
AcDbEntity
  8
MOJI
100
AcDbText
 10
669.8389285919429
 20
3681.715683167164
 30
0.0
 40
60.0
  1
GL
 41
0.8
  7
EXT08
100
AcDbText
  0
LINE
  5
414
330
18
100
AcDbEntity
  8
SJC
100
AcDbLine
 10
6107.770035060508
 20
3664.615463695465
 30
0.0
 11
6371.820324094609
 21
3664.615463695465
 31
0.0
1001
ACAD
1000
ASC_BOUNDS
1002
{
1070
    19
1005
48A
1002
}
  0
LINE
  5
415
330
18
100
AcDbEntity
  8
SJC
100
AcDbLine
 10
6018.669694591307
 20
3664.615463695465
 30
0.0
 11
5709.293961574426
 21
3664.615463695465
 31
0.0
1001
ACAD
1000
ASC_BOUNDS
1002
{
1070
    19
1005
48A
1002
}
  0
TEXT
  5
41D
330
18
100
AcDbEntity
  8
MOJI
100
AcDbText
 10
4651.018800426399
 20
2059.524242495643
 30
0.0
 40
60.0
  1
M5×15
 41
0.8
  7
EXT08
100
AcDbText
  0
TEXT
  5
41F
330
18
100
AcDbEntity
  8
MOJI
100
AcDbText
 10
4574.771734265961
 20
2068.245875926817
 30
0.0
 40
60.0
  1
6
 41
0.8
  7
EXT08
100
AcDbText
  0
TEXT
  5
420
330
18
100
AcDbEntity
  8
MOJI
100
AcDbText
 10
5089.891119081887
 20
532.7377979760242
 30
0.0
 40
60.0
  1
M5×15
 41
0.8
  7
EXT08
100
AcDbText
  0
TEXT
  5
421
330
18
100
AcDbEntity
  8
MOJI
100
AcDbText
 10
5094.702137415863
 20
632.2230666758017
 30
0.0
 40
60.0
  1
%%c5×30
 41
0.8
  7
EXT08
100
AcDbText
  0
LINE
  5
422
330
18
100
AcDbEntity
  8
CENTER
100
AcDbLine
 10
4122.359987028991
 20
2856.403826966509
 30
0.0
 11
4122.359987028991
 21
1484.46338720491
 31
0.0
  0
LINE
  5
424
330
18
100
AcDbEntity
  8
CENTER
100
AcDbLine
 10
963.2203985855076
 20
3664.615463695464
 30
0.0
 11
963.2203985855076
 21
4803.985563904965
 31
0.0
  0
LINE
  5
425
330
18
100
AcDbEntity
  8
CENTER
100
AcDbLine
 10
2963.219911019507
 20
3664.615463695464
 30
0.0
 11
2963.219911019507
 21
4803.985563904965
 31
0.0
  0
LINE
  5
426
330
18
100
AcDbEntity
  8
CENTER
100
AcDbLine
 10
4963.219881217208
 20
3664.615463695464
 30
0.0
 11
4963.219881217208
 21
4803.985563904965
 31
0.0
  0
LINE
  5
427
330
18
100
AcDbEntity
  8
CENTER
100
AcDbLine
 10
6063.219864825907
 20
3228.074637680865
 30
0.0
 11
6063.219864825907
 21
4796.266447809064
 31
0.0
  0
DIMENSION
  5
428
330
18
100
AcDbEntity
  8
SUNPOU
100
AcDbDimension
  2
*D3
 10
2963.219911019507
 20
4933.306065833065
 30
0.0
 11
1963.220154802507
 21
4987.306065833065
 31
0.0
 70
    32
 71
     5
 42
1999.999512433999
  3
SJC
100
AcDbAlignedDimension
 13
963.2203985855076
 23
4803.985563904965
 33
0.0
 14
2963.219911019507
 24
4798.615691534165
 34
0.0
100
AcDbRotatedDimension
1001
ACAD
1000
DSTYLE
1002
{
1070
    40
1040
20.0
1070
    41
1040
2.0
1070
    42
1040
1.0
1070
    43
1040
6.0
1070
    44
1040
1.0
1070
    73
1070
     0
1070
    74
1070
     0
1070
    77
1070
     1
1070
    78
1070
     8
1070
   140
1040
3.0
1070
   147
1040
1.199999999999999
1070
   172
1070
     1
1070
   176
1070
   256
1070
   177
1070
   256
1070
   178
1070
   256
1070
   271
1070
     1
1070
   275
1070
     1
1070
   279
1070
     2
1070
   340
1005
4EA
1002
}
  0
DIMENSION
  5
429
330
18
100
AcDbEntity
  8
SUNPOU
100
AcDbDimension
  2
*D4
 10
4963.219881217208
 20
4933.306240677964
 30
0.0
 11
3963.219896118356
 21
4987.306240677964
 31
0.0
 70
    32
 71
     5
 42
1999.9999701977
  3
SJC
100
AcDbAlignedDimension
 13
2963.219911019507
 23
4798.615691534165
 33
0.0
 14
4963.219881217208
 24
4778.615691534166
 34
0.0
100
AcDbRotatedDimension
1001
ACAD
1000
DSTYLE
1002
{
1070
    40
1040
20.0
1070
    41
1040
2.0
1070
    42
1040
1.0
1070
    43
1040
6.0
1070
    44
1040
1.0
1070
    73
1070
     0
1070
    74
1070
     0
1070
    77
1070
     1
1070
    78
1070
     8
1070
   140
1040
3.0
1070
   147
1040
1.199999999999999
1070
   172
1070
     1
1070
   176
1070
   256
1070
   177
1070
   256
1070
   178
1070
   256
1070
   271
1070
     1
1070
   275
1070
     1
1070
   279
1070
     2
1070
   340
1005
4EA
1002
}
  0
DIMENSION
  5
42A
330
18
100
AcDbEntity
  8
SUNPOU
100
AcDbDimension
  2
*D5
 10
6108.219864155408
 20
4927.697109913065
 30
0.0
 11
6062.344989416449
 21
4991.196851732858
 31
0.0
 70
   160
  1
φ90
 71
     5
 42
89.99999865890004
  3
SJC
100
AcDbAlignedDimension
 13
6018.219865496508
 23
4775.541961111264
 33
0.0
 14
6108.219864155408
 24
4775.541961111264
 34
0.0
100
AcDbRotatedDimension
1001
ACAD
1000
DSTYLE
1002
{
1070
    40
1040
20.0
1070
    41
1040
2.0
1070
    42
1040
1.0
1070
    43
1040
6.0
1070
    44
1040
1.0
1070
    73
1070
     0
1070
    74
1070
     0
1070
    77
1070
     1
1070
    78
1070
     8
1070
   140
1040
3.0
1070
   147
1040
1.199999999999999
1070
   172
1070
     1
1070
   176
1070
   256
1070
   177
1070
   256
1070
   178
1070
   256
1070
   271
1070
     1
1070
   275
1070
     1
1070
   279
1070
     2
1070
   340
1005
4EA
1002
}
  0
DIMENSION
  5
42B
330
18
100
AcDbEntity
  8
SUNPOU
100
AcDbDimension
  2
*D6
 10
6427.878062517108
 20
4564.615450284363
 30
0.0
 11
6376.75104915546
 21
4658.781197343698
 31
0.0
 70
   160
 71
     5
 42
194.0002412498006
  3
SJC
100
AcDbAlignedDimension
 13
6083.219864825907
 23
4758.615691534165
 33
0.0
 14
6127.770035060508
 24
4564.615450284365
 34
0.0
 50
90.0
100
AcDbRotatedDimension
1001
ACAD
1000
DSTYLE
1002
{
1070
    40
1040
20.0
1070
    41
1040
2.0
1070
    42
1040
1.0
1070
    43
1040
6.0
1070
    44
1040
1.0
1070
    73
1070
     0
1070
    74
1070
     0
1070
    77
1070
     1
1070
    78
1070
     8
1070
   140
1040
3.0
1070
   147
1040
1.199999999999999
1070
   172
1070
     1
1070
   176
1070
   256
1070
   177
1070
   256
1070
   178
1070
   256
1070
   271
1070
     1
1070
   275
1070
     1
1070
   279
1070
     2
1070
   340
1005
4EA
1002
}
  0
DIMENSION
  5
42C
330
18
100
AcDbEntity
  8
SUNPOU
100
AcDbDimension
  2
*D7
 10
6427.878062517108
 20
3664.615463695465
 30
0.0
 11
6373.878062517107
 21
4114.615456989915
 31
0.0
 70
    32
 71
     5
 42
899.9999865888995
  3
SJC
100
AcDbAlignedDimension
 13
6127.770035060508
 23
4564.615450284365
 33
0.0
 14
6391.820324094608
 24
3664.615463695465
 34
0.0
 50
90.0
100
AcDbRotatedDimension
1001
ACAD
1000
DSTYLE
1002
{
1070
    40
1040
20.0
1070
    41
1040
2.0
1070
    42
1040
1.0
1070
    43
1040
6.0
1070
    44
1040
1.0
1070
    73
1070
     0
1070
    74
1070
     0
1070
    77
1070
     1
1070
    78
1070
     8
1070
   140
1040
3.0
1070
   147
1040
1.199999999999999
1070
   172
1070
     1
1070
   176
1070
   256
1070
   177
1070
   256
1070
   178
1070
   256
1070
   271
1070
     1
1070
   275
1070
     1
1070
   279
1070
     2
1070
   340
1005
4EA
1002
}
  0
DIMENSION
  5
42D
330
18
100
AcDbEntity
  8
SUNPOU
100
AcDbDimension
  2
*D15
 10
1135.659773116399
 20
2874.438332946619
 30
0.0
 11
1040.321082459765
 21
2928.228337406503
 31
0.0
 70
   160
  1
φ90
 71
     5
 42
89.99999865889993
  3
SJC
100
AcDbAlignedDimension
 13
955.6597757986001
 23
2694.438335926919
 33
0.0
 14
1135.659773116399
 24
2694.438335926919
 34
0.0
100
AcDbRotatedDimension
1001
ACAD
1000
DSTYLE
1002
{
1070
    40
1040
20.0
1070
    41
1040
2.0
1070
    42
1040
1.0
1070
    43
1040
6.0
1070
    44
1040
1.0
1070
    73
1070
     0
1070
    74
1070
     0
1070
    77
1070
     1
1070
    78
1070
     8
1070
   140
1040
3.0
1070
   144
1040
0.5
1070
   147
1040
1.199999999999999
1070
   172
1070
     1
1070
   176
1070
   256
1070
   177
1070
   256
1070
   178
1070
   256
1070
   271
1070
     1
1070
   275
1070
     1
1070
   279
1070
     2
1070
   340
1005
4EA
1002
}
  0
DIMENSION
  5
42E
330
18
100
AcDbEntity
  8
SUNPOU
100
AcDbDimension
  2
*D11
 10
1734.7598008102
 20
463.1752463187198
 30
0.0
 11
1680.7598008102
 21
1363.17523290767
 31
0.0
 70
    32
 71
     5
 42
899.9999865889501
  3
SJC
100
AcDbAlignedDimension
 13
1167.442152091199
 23
2263.175219496619
 33
0.0
 14
1405.0562842927
 24
463.1752463187199
 34
0.0
 50
90.0
100
AcDbRotatedDimension
1001
ACAD
1000
DSTYLE
1002
{
1070
    40
1040
20.0
1070
    41
1040
2.0
1070
    42
1040
1.0
1070
    43
1040
6.0
1070
    44
1040
1.0
1070
    73
1070
     0
1070
    74
1070
     0
1070
    77
1070
     1
1070
    78
1070
     8
1070
   140
1040
3.0
1070
   144
1040
0.5
1070
   147
1040
1.199999999999999
1070
   172
1070
     1
1070
   176
1070
   256
1070
   177
1070
   256
1070
   178
1070
   256
1070
   271
1070
     1
1070
   275
1070
     1
1070
   279
1070
     2
1070
   340
1005
4EA
1002
}
  0
DIMENSION
  5
42F
330
18
100
AcDbEntity
  8
SUNPOU
100
AcDbDimension
  2
*D13
 10
2038.6283570732
 20
463.1752463187196
 30
0.0
 11
1984.6283570732
 21
1557.17532156957
 31
0.0
 70
    32
 71
     5
 42
1094.00007525085
  3
SJC
100
AcDbAlignedDimension
 13
1094.3421775946
 23
2651.17539682042
 33
0.0
 14
1405.0562842927
 24
463.1752463187199
 34
0.0
 50
90.0
100
AcDbRotatedDimension
1001
ACAD
1000
DSTYLE
1002
{
1070
    40
1040
20.0
1070
    41
1040
2.0
1070
    42
1040
1.0
1070
    43
1040
6.0
1070
    44
1040
1.0
1070
    73
1070
     0
1070
    74
1070
     0
1070
    77
1070
     1
1070
    78
1070
     8
1070
   140
1040
3.0
1070
   144
1040
0.5
1070
   147
1040
1.199999999999999
1070
   172
1070
     1
1070
   176
1070
   256
1070
   177
1070
   256
1070
   178
1070
   256
1070
   271
1070
     1
1070
   275
1070
     1
1070
   279
1070
     2
1070
   340
1005
4EA
1002
}
  0
DIMENSION
  5
430
330
18
100
AcDbEntity
  8
SUNPOU
100
AcDbDimension
  2
*D14
 10
1873.962069243799
 20
2383.075547307219
 30
0.0
 11
1868.750815258965
 21
2518.068351226922
 31
0.0
 70
   160
 71
     5
 42
134.0499247565999
  3
SJC
100
AcDbAlignedDimension
 13
1094.3421775946
 23
2651.17539682042
 33
0.0
 14
1183.442212888
 24
2383.075547307219
 34
0.0
 50
90.0
100
AcDbRotatedDimension
1001
ACAD
1000
DSTYLE
1002
{
1070
    40
1040
20.0
1070
    41
1040
2.0
1070
    42
1040
1.0
1070
    43
1040
6.0
1070
    44
1040
1.0
1070
    73
1070
     0
1070
    74
1070
     0
1070
    77
1070
     1
1070
    78
1070
     8
1070
   140
1040
3.0
1070
   144
1040
0.5
1070
   147
1040
1.199999999999999
1070
   172
1070
     1
1070
   176
1070
   256
1070
   177
1070
   256
1070
   178
1070
   256
1070
   271
1070
     1
1070
   275
1070
     1
1070
   279
1070
     2
1070
   340
1005
4EA
1002
}
  0
DIMENSION
  5
431
330
18
100
AcDbEntity
  8
SUNPOU
100
AcDbDimension
  2
*D12
 10
1873.962069243799
 20
463.1752463187198
 30
0.0
 11
1819.9620692438
 21
1423.12539681297
 31
0.0
 70
    32
 71
     5
 42
959.95015049425
  3
SJC
100
AcDbAlignedDimension
 13
1183.442212888
 23
2383.075547307219
 33
0.0
 14
1425.0562842927
 24
463.1752463187199
 34
0.0
 50
90.0
100
AcDbRotatedDimension
1001
ACAD
1000
DSTYLE
1002
{
1070
    40
1040
20.0
1070
    41
1040
2.0
1070
    42
1040
1.0
1070
    43
1040
6.0
1070
    44
1040
1.0
1070
    73
1070
     0
1070
    74
1070
     0
1070
    77
1070
     1
1070
    78
1070
     8
1070
   140
1040
3.0
1070
   144
1040
0.5
1070
   147
1040
1.199999999999999
1070
   172
1070
     1
1070
   176
1070
   256
1070
   177
1070
   256
1070
   178
1070
   256
1070
   271
1070
     1
1070
   275
1070
     1
1070
   279
1070
     2
1070
   340
1005
4EA
1002
}
  0
LINE
  5
434
330
18
100
AcDbEntity
  8
CENTER
100
AcDbLine
 10
5654.802191971634
 20
1981.78141947986
 30
0.0
 11
5654.802191971634
 21
1881.78141947986
 31
0.0
  0
LWPOLYLINE
  5
435
330
18
100
AcDbEntity
  8
SJC2
100
AcDbPolyline
 90
        6
 70
     1
 43
0.0
 10
5669.802191971633
 20
1940.441673517704
 10
5654.802191971634
 20
1949.101927555548
 10
5639.802191971634
 20
1940.441673517704
 10
5639.802191971634
 20
1923.121165442015
 10
5654.802191971634
 20
1914.460911404171
 10
5669.802191971633
 20
1923.121165442015
  0
CIRCLE
  5
43D
330
18
100
AcDbEntity
  8
SJC2
100
AcDbCircle
 10
5654.802191971634
 20
1931.78141947986
 30
0.0
 40
25.0
  0
LINE
  5
43E
330
18
100
AcDbEntity
  8
CENTER
100
AcDbLine
 10
5654.802191971634
 20
1976.281388297918
 30
0.0
 11
5654.802191971634
 21
1881.78141947986
 31
0.0
  0
LINE
  5
43F
330
18
100
AcDbEntity
  8
CENTER
100
AcDbLine
 10
5654.802191971634
 20
1770.78136158886
 30
0.0
 11
5654.802191971634
 21
1670.78136158886
 31
0.0
  0
CIRCLE
  5
440
330
18
100
AcDbEntity
  8
SJC2
100
AcDbCircle
 10
5654.802191971634
 20
1720.203064551597
 30
0.0
 40
25.0
  0
LWPOLYLINE
  5
441
330
18
100
AcDbEntity
  8
SJC2
100
AcDbPolyline
 90
        6
 70
     1
 43
0.0
 10
5669.802191971633
 20
1728.863318589442
 10
5654.802191971634
 20
1737.523572627287
 10
5639.802191971634
 20
1728.863318589442
 10
5639.802191971634
 20
1711.542810513753
 10
5654.802191971634
 20
1702.882556475909
 10
5669.802191971633
 20
1711.542810513753
  0
TEXT
  5
449
330
18
100
AcDbEntity
  8
MOJI
100
AcDbText
 10
4557.55973882045
 20
834.9237837754726
 30
0.0
 40
60.0
  1
アルミ合金
 41
0.8
  7
EXT08
100
AcDbText
  0
DIMENSION
  5
44B
330
18
100
AcDbEntity
  8
SUNPOU
100
AcDbDimension
  2
*D8
 10
6722.617224679163
 20
3264.615469655864
 30
0.0
 11
6668.617224679163
 21
4011.615580595015
 31
0.0
 70
    32
 71
     5
 42
1494.0002218783
  3
SJC
100
AcDbAlignedDimension
 13
6083.219864825907
 23
4758.615691534165
 33
0.0
 14
6211.820326478807
 24
3264.615469655864
 34
0.0
 50
90.0
100
AcDbRotatedDimension
1001
ACAD
1000
DSTYLE
1002
{
1070
    40
1040
20.0
1070
    41
1040
2.0
1070
    42
1040
1.0
1070
    43
1040
6.0
1070
    44
1040
1.0
1070
    73
1070
     0
1070
    74
1070
     0
1070
    77
1070
     1
1070
    78
1070
     8
1070
   140
1040
3.0
1070
   147
1040
1.199999999999999
1070
   172
1070
     1
1070
   176
1070
   256
1070
   177
1070
   256
1070
   178
1070
   256
1070
   271
1070
     1
1070
   275
1070
     1
1070
   279
1070
     2
1070
   340
1005
4EA
1002
}
  0
SOLID
  5
44C
330
18
100
AcDbEntity
  8
MOJI
100
AcDbTrace
 10
5812.555740140786
 20
1806.815657673724
 30
0.0
 11
5817.142892662747
 21
1819.335074973185
 31
0.0
 12
5777.291064503385
 22
1826.836823889342
 32
0.0
 13
5777.291064503385
 23
1826.836823889342
 33
0.0
  0
LINE
  5
44D
330
18
100
AcDbEntity
  8
MOJI
100
AcDbLine
 10
5814.849316401767
 20
1813.075366323455
 30
0.0
 11
6030.198040569238
 21
1734.170939740536
 31
0.0
  0
TEXT
  5
44F
330
18
100
AcDbEntity
  8
MOJI
100
AcDbText
 10
6054.143940160046
 20
1690.830887625127
 30
0.0
 40
60.0
  1
5
 41
0.8
  7
EXT08
100
AcDbText
  0
TEXT
  5
450
330
18
100
AcDbEntity
  8
MOJI2
100
AcDbText
 10
553.6640554174082
 20
5069.261535971676
 30
0.0
 40
80.0
  1
設置図
 41
0.8
  7
EXT08
100
AcDbText
  0
LINE
  5
451
330
18
100
AcDbEntity
  8
MOJI2
100
AcDbLine
 10
537.8487956412527
 20
5044.963344962834
 30
0.0
 11
779.1361747904884
 21
5044.963344962834
 31
0.0
  0
TEXT
  5
452
330
18
100
AcDbEntity
  8
MOJI
100
AcDbText
 10
5838.210884007788
 20
5113.975117974132
 30
0.0
 40
70.0
  1
CR1-1A89
 41
0.8
  7
EXT08
100
AcDbText
  0
TEXT
  5
453
330
18
100
AcDbEntity
  8
MOJI2
100
AcDbText
 10
1796.359850830834
 20
2999.118281790054
 30
0.0
 40
80.0
  1
支柱図
 41
0.8
  7
EXT08
100
AcDbText
  0
LINE
  5
454
330
18
100
AcDbEntity
  8
MOJI2
100
AcDbLine
 10
1780.544591054679
 20
2974.820090781211
 30
0.0
 11
2019.911527018797
 21
2974.820090781211
 31
0.0
  0
TEXT
  5
45A
330
18
100
AcDbEntity
  8
MOJI
100
AcDbText
 10
3251.036310038151
 20
4367.475208196633
 30
0.0
 40
60.0
  1
チェーン金具
 41
0.8
  7
EXT08
100
AcDbText
  0
LINE
  5
460
330
18
100
AcDbEntity
  8
MOJI2
100
AcDbLine
 10
4694.710215443147
 20
2959.520625358701
 30
0.0
 11
5155.350586729205
 21
2959.520625358701
 31
0.0
  0
TEXT
  5
461
330
18
100
AcDbEntity
  8
MOJI2
100
AcDbText
 10
4710.525475219303
 20
2983.818816367545
 30
0.0
 40
80.0
  1
取付部詳細図
 41
0.8
  7
EXT08
100
AcDbText
  0
DIMENSION
  5
462
330
18
100
AcDbEntity
  8
SUNPOU
100
AcDbDimension
  2
*D9
 10
6570.946506063906
 20
3664.615463695465
 30
0.0
 11
6516.946506063906
 21
4211.615477549666
 31
0.0
 70
    32
 71
     5
 42
1094.0000277084
  3
SJC
100
AcDbAlignedDimension
 13
6063.219864825907
 23
4758.615491403864
 33
0.0
 14
6391.820324094608
 24
3664.615463695465
 34
0.0
 50
90.0
100
AcDbRotatedDimension
1001
ACAD
1000
DSTYLE
1002
{
1070
    40
1040
20.0
1070
    41
1040
2.0
1070
    42
1040
1.0
1070
    43
1040
6.0
1070
    44
1040
1.0
1070
    73
1070
     0
1070
    74
1070
     0
1070
    77
1070
     1
1070
    78
1070
     8
1070
   140
1040
3.0
1070
   147
1040
1.199999999999999
1070
   172
1070
     1
1070
   176
1070
   256
1070
   177
1070
   256
1070
   178
1070
   256
1070
   271
1070
     1
1070
   275
1070
     1
1070
   279
1070
     2
1070
   340
1005
4EA
1002
}
  0
DIMENSION
  5
463
330
18
100
AcDbEntity
  8
SUNPOU
100
AcDbDimension
  2
*D10
 10
6570.946506063906
 20
3264.615469655864
 30
0.0
 11
6516.946506063906
 21
3464.615466675665
 31
0.0
 70
    32
 71
     5
 42
399.9999940396
  3
SJC
100
AcDbAlignedDimension
 13
6391.820324094608
 23
3664.615463695465
 33
0.0
 14
6211.820326478807
 24
3264.615469655864
 34
0.0
 50
90.0
100
AcDbRotatedDimension
1001
ACAD
1000
DSTYLE
1002
{
1070
    40
1040
20.0
1070
    41
1040
2.0
1070
    42
1040
1.0
1070
    43
1040
6.0
1070
    44
1040
1.0
1070
    73
1070
     0
1070
    74
1070
     0
1070
    77
1070
     1
1070
    78
1070
     8
1070
   140
1040
3.0
1070
   147
1040
1.199999999999999
1070
   172
1070
     1
1070
   176
1070
   256
1070
   177
1070
   256
1070
   178
1070
   256
1070
   271
1070
     1
1070
   275
1070
     1
1070
   279
1070
     2
1070
   340
1005
4EA
1002
}
  0
TEXT
  5
464
330
18
100
AcDbEntity
  8
MOJI
100
AcDbText
 10
4635.905019154548
 20
533.8198156464682
 30
0.0
 40
60.0
  1
SUS
 41
0.8
  7
EXT08
100
AcDbText
  0
TEXT
  5
465
330
18
100
AcDbEntity
  8
MOJI
100
AcDbText
 10
5122.043056535709
 20
836.5016280850236
 30
0.0
 40
60.0
  1
焼付塗装
 41
0.8
  7
EXT08
100
AcDbText
  0
TEXT
  5
466
330
18
100
AcDbEntity
  8
MOJI
100
AcDbText
 10
4162.718042864033
 20
832.4336217288017
 30
0.0
 40
60.0
  1
チェーン金具　
 41
0.8
  7
EXT08
100
AcDbText
  0
SOLID
  5
46E
330
18
100
AcDbEntity
  8
SUNPOU
  6
Continuous
100
AcDbTrace
 10
5003.219881217208
 20
4926.639574011297
 30
0.0
 11
5003.219881217208
 21
4939.972907344632
 31
0.0
 12
4963.219881217208
 22
4933.306240677964
 32
0.0
 13
4963.219881217208
 23
4933.306240677964
 33
0.0
  0
LINE
  5
46F
330
18
100
AcDbEntity
  8
SUNPOU
  6
Continuous
100
AcDbLine
 10
5003.219881217208
 20
4933.306240677964
 30
0.0
 11
5278.542975397191
 21
4933.306240677964
 31
0.0
  0
MTEXT
  5
471
330
18
100
AcDbEntity
  8
SUNPOU
100
AcDbMText
 10
5092.430426535655
 20
4988.306240677964
 30
0.0
 40
60.0
 41
0.8
 71
     4
 72
     5
  1
\A1;2000
  7
EXT08
 73
     1
 44
1.0
  0
INSERT
  5
48A
330
18
100
AcDbEntity
  8
HATCH
100
AcDbBlockReference
  2
*X0
 10
-58.63734375599233
 20
-152.307697201435
 30
0.0
1001
ACAD
1000
HATCH
1002
{
1070
    19
1000
PLAST
1040
1000.0
1040
3.926990816987241
1000
ASC_BOUNDS
1070
     2
1070
     1
1070
     4
1005
414
1005
33F
1005
1CE
1005
1CD
1070
     1
1070
     4
1005
415
1005
1CC
1005
1CE
1005
1CB
1000
ASC_SEEDPOINT
1011
5996.53799198801
1021
3384.053102013705
1031
0.0
1002
}
  0
DIMENSION
  5
4AC
330
18
100
AcDbEntity
  8
SUNPOU
100
AcDbDimension
  2
*D1
 10
6213.219864825908
 20
3110.602939078215
 30
0.0
 11
6060.250229651302
 21
3167.711459847833
 31
0.0
 70
   160
  1
□300
 71
     5
 42
300.0
  3
SJC
100
AcDbAlignedDimension
 13
5913.219864825908
 23
3264.615469655864
 33
0.0
 14
6213.219864825908
 24
3264.615469655864
 34
0.0
100
AcDbRotatedDimension
1001
ACAD
1000
DSTYLE
1002
{
1070
    40
1040
20.0
1070
    41
1040
2.0
1070
    42
1040
1.0
1070
    43
1040
6.0
1070
    44
1040
1.0
1070
    73
1070
     0
1070
    74
1070
     0
1070
    77
1070
     1
1070
    78
1070
     8
1070
   140
1040
3.0
1070
   147
1040
1.199999999999999
1070
   172
1070
     1
1070
   176
1070
   256
1070
   177
1070
   256
1070
   178
1070
   256
1070
   271
1070
     1
1070
   275
1070
     1
1070
   279
1070
     2
1070
   340
1005
4EA
1002
}
  0
LINE
  5
4AE
330
18
100
AcDbEntity
  8
CENTER
100
AcDbLine
 10
1045.6600796332
 20
2693.60673163732
 30
0.0
 11
1045.6600796332
 21
426.8677212249199
 31
0.0
  0
LINE
  5
4AF
330
18
100
AcDbEntity
  8
CENTER
100
AcDbLine
 10
2655.6597504666
 20
2693.60673163732
 30
0.0
 11
2655.6597504666
 21
426.8677212249199
 31
0.0
  0
INSERT
  5
4D2
330
18
100
AcDbEntity
  8
ZWAKU
100
AcDbBlockReference
  2
CALCOMP_TECHJET720A3
 10
0.0
 20
0.0
 30
0.0
 41
20.0
 42
20.0
 43
20.0
  0
TEXT
  5
4D4
330
18
100
AcDbEntity
  8
INFORMATION
100
AcDbText
 10
1.0
 20
2.0
 30
0.0
 40
0.8
  1
PLOTTER=CALCOMP_TECHJET720
 41
0.8
  7
EXT08
100
AcDbText
  0
TEXT
  5
4D5
330
18
100
AcDbEntity
  8
INFORMATION
100
AcDbText
 10
1.0
 20
3.0
 30
0.0
 40
0.8
  1
PAPER=A3
 41
0.8
  7
EXT08
100
AcDbText
  0
LINE
  5
4EF
330
18
100
AcDbEntity
  8
MOJI2
100
AcDbLine
 10
537.8487956412527
 20
5024.963344962833
 30
0.0
 11
779.1361747904884
 21
5024.963344962833
 31
0.0
  0
TEXT
  5
625
330
18
100
AcDbEntity
  8
MOJI
100
AcDbText
 10
5728.536125496717
 20
3681.715683167164
 30
0.0
 40
60.0
  1
GL
 41
0.8
  7
EXT08
100
AcDbText
  0
LINE
  5
633
330
18
100
AcDbEntity
  8
MOJI2
100
AcDbLine
 10
1780.544591054679
 20
2954.820090781211
 30
0.0
 11
2019.911527018797
 21
2954.820090781211
 31
0.0
  0
LINE
  5
634
330
18
100
AcDbEntity
  8
MOJI2
100
AcDbLine
 10
4694.710215443147
 20
2939.520625358701
 30
0.0
 11
5155.350586729205
 21
2939.520625358701
 31
0.0
  0
SOLID
  5
656
330
18
100
AcDbEntity
  8
MOJI
  6
Continuous
100
AcDbTrace
 10
3001.957177449719
 20
4770.610016569913
 30
0.0
 11
2995.973154886124
 21
4782.525101619385
 31
0.0
 12
2963.219911019505
 22
4758.615491403862
 32
0.0
 13
2963.219911019505
 23
4758.615491403862
 33
0.0
  0
LINE
  5
657
330
18
100
AcDbEntity
  8
MOJI
  6
Continuous
100
AcDbLine
 10
2998.965166167922
 20
4776.567559094649
 30
0.0
 11
3079.065468319621
 21
4816.795724771724
 31
0.0
  0
LINE
  5
658
330
18
100
AcDbEntity
  8
MOJI
  6
Continuous
100
AcDbLine
 10
3079.065468319621
 20
4816.795724771724
 30
0.0
 11
3251.950969297016
 21
4816.795724771724
 31
0.0
  0
SOLID
  5
659
330
18
100
AcDbEntity
  8
MOJI
  6
Continuous
100
AcDbTrace
 10
3163.751038061815
 20
4581.454155972231
 30
0.0
 11
3154.85591311135
 21
4591.386654645445
 31
0.0
 12
3129.505979566941
 22
4559.735030457442
 32
0.0
 13
3129.505979566941
 23
4559.735030457442
 33
0.0
  0
LINE
  5
65A
330
18
100
AcDbEntity
  8
MOJI
  6
Continuous
100
AcDbLine
 10
3159.303475586582
 20
4586.420405308838
 30
0.0
 11
3247.703479941821
 21
4665.587703511667
 31
0.0
  0
LINE
  5
65B
330
18
100
AcDbEntity
  8
MOJI
  6
Continuous
100
AcDbLine
 10
3247.703479941821
 20
4665.587703511667
 30
0.0
 11
3557.236045866993
 21
4665.587703511667
 31
0.0
  0
SOLID
  5
65C
330
18
100
AcDbEntity
  8
MOJI
  6
Continuous
100
AcDbTrace
 10
3048.138978573988
 20
4513.764769084868
 30
0.0
 11
3056.885665425238
 21
4523.828230065265
 31
0.0
 12
3022.321939058425
 22
4545.036560128816
 32
0.0
 13
3022.321939058425
 23
4545.036560128816
 33
0.0
  0
LINE
  5
65D
330
18
100
AcDbEntity
  8
MOJI
  6
Continuous
100
AcDbLine
 10
3052.512321999613
 20
4518.796499575067
 30
0.0
 11
3244.820770170957
 21
4351.651043525571
 31
0.0
  0
LINE
  5
65E
330
18
100
AcDbEntity
  8
MOJI
  6
Continuous
100
AcDbLine
 10
3244.820770170959
 20
4351.651043525572
 30
0.0
 11
3585.943888252046
 21
4351.651043525572
 31
0.0
  0
LINE
  5
661
330
18
100
AcDbEntity
  8
MOJI
  6
Continuous
100
AcDbLine
 10
3125.834581769806
 20
3561.245804742208
 30
0.0
 11
3668.659642230169
 21
3561.245804742208
 31
0.0
  0
INSERT
  5
68A
330
18
100
AcDbEntity
  8
MOJI
100
AcDbBlockReference
  2
B0040021
 10
5776.397389171155
 20
3664.615463695465
 30
0.0
  0
INSERT
  5
68C
330
18
100
AcDbEntity
  8
MOJI
100
AcDbBlockReference
  2
B0040021
 10
1269.661743332813
 20
3664.615463695465
 30
0.0
  0
CIRCLE
  5
68D
330
18
100
AcDbEntity
  8
MOJI
100
AcDbCircle
 10
1311.388893385308
 20
2846.283386304305
 30
0.0
 40
48.0
  0
SOLID
  5
68E
330
18
100
AcDbEntity
  8
MOJI
  6
Continuous
100
AcDbTrace
 10
1083.010736868816
 20
2666.967018026067
 30
0.0
 11
1075.870200723332
 21
2678.227147747026
 31
0.0
 12
1045.660079633199
 22
2651.175474450094
 32
0.0
 13
1045.660079633199
 23
2651.175474450094
 33
0.0
  0
LINE
  5
68F
330
18
100
AcDbEntity
  8
MOJI
  6
Continuous
100
AcDbLine
 10
1079.440468796074
 20
2672.597082886547
 30
0.0
 11
1260.345758055521
 21
2787.316965239416
 31
0.0
  0
LINE
  5
690
330
18
100
AcDbEntity
  8
MOJI
  6
Continuous
100
AcDbLine
 10
1260.345758055521
 20
2787.316965239416
 30
0.0
 11
1536.420144538663
 21
2787.316965239416
 31
0.0
  0
CIRCLE
  5
691
330
18
100
AcDbEntity
  8
MOJI
100
AcDbCircle
 10
335.0923719659695
 20
2638.711651902376
 30
0.0
 40
48.0
  0
SOLID
  5
692
330
18
100
AcDbEntity
  8
MOJI
  6
Continuous
100
AcDbTrace
 10
913.1097662113864
 20
2304.334291253099
 30
0.0
 11
902.2502640917391
 21
2296.598078258929
 31
0.0
 12
930.8886541340708
 22
2267.887678397073
 32
0.0
 13
930.8886541340708
 23
2267.887678397073
 33
0.0
  0
LINE
  5
693
330
18
100
AcDbEntity
  8
MOJI
  6
Continuous
100
AcDbLine
 10
907.6800151515628
 20
2300.466184756014
 30
0.0
 11
714.7933981258427
 21
2571.225615503474
 31
0.0
  0
LINE
  5
694
330
18
100
AcDbEntity
  8
MOJI
  6
Continuous
100
AcDbLine
 10
714.7933981258424
 20
2571.225615503474
 30
0.0
 11
291.5255132333618
 21
2571.225615503474
 31
0.0
  0
CIRCLE
  5
695
330
18
100
AcDbEntity
  8
MOJI
100
AcDbCircle
 10
1280.636371402568
 20
2084.930749721763
 30
0.0
 40
48.0
  0
SOLID
  5
696
330
18
100
AcDbEntity
  8
MOJI
  6
Continuous
100
AcDbTrace
 10
1168.162183839268
 20
2182.128868070979
 30
0.0
 11
1180.898252897837
 21
2186.074792894534
 31
0.0
 12
1162.692443897887
 22
2222.310037658462
 32
0.0
 13
1162.692443897887
 23
2222.310037658462
 33
0.0
  0
LINE
  5
697
330
18
100
AcDbEntity
  8
MOJI
  6
Continuous
100
AcDbLine
 10
1174.530218368552
 20
2184.101830482756
 30
0.0
 11
1227.10053828458
 21
2014.423173432633
 31
0.0
  0
LINE
  5
698
330
18
100
AcDbEntity
  8
MOJI
  6
Continuous
100
AcDbLine
 10
1227.10053828458
 20
2014.423173432633
 30
0.0
 11
1686.870124009438
 21
2014.423173432633
 31
0.0
  0
CIRCLE
  5
699
330
18
100
AcDbEntity
  8
MOJI
100
AcDbCircle
 10
181.8512687206639
 20
1965.776318964341
 30
0.0
 40
48.0
  0
SOLID
  5
69A
330
18
100
AcDbEntity
  8
MOJI
  6
Continuous
100
AcDbTrace
 10
690.9651436122602
 20
2153.487179005356
 30
0.0
 11
702.4871169649554
 21
2146.777342357748
 31
0.0
 12
716.8556402314268
 22
2184.698180739637
 32
0.0
 13
716.8556402314268
 23
2184.698180739637
 33
0.0
  0
LINE
  5
69B
330
18
100
AcDbEntity
  8
MOJI
  6
Continuous
100
AcDbLine
 10
696.7261302886076
 20
2150.132260681552
 30
0.0
 11
555.3853562635159
 21
1907.425214669132
 31
0.0
  0
LINE
  5
69C
330
18
100
AcDbEntity
  8
MOJI
  6
Continuous
100
AcDbLine
 10
555.3853562635159
 20
1907.425214669132
 30
0.0
 11
136.9843700458514
 21
1907.425214669132
 31
0.0
  0
CIRCLE
  5
69D
330
18
100
AcDbEntity
  8
MOJI
100
AcDbCircle
 10
1291.477046453143
 20
1683.195311453375
 30
0.0
 40
48.0
  0
SOLID
  5
69E
330
18
100
AcDbEntity
  8
MOJI
  6
Continuous
100
AcDbTrace
 10
1159.266404110547
 20
1397.080791236046
 30
0.0
 11
1147.463129761965
 21
1403.282443631165
 31
0.0
 12
1134.7598097509
 22
1364.77179438786
 32
0.0
 13
1134.7598097509
 23
1364.77179438786
 33
0.0
  0
LINE
  5
69F
330
18
100
AcDbEntity
  8
MOJI
  6
Continuous
100
AcDbLine
 10
1153.364766936256
 20
1400.181617433606
 30
0.0
 11
1221.972219387229
 21
1530.758523722887
 31
0.0
  0
LINE
  5
6A0
330
18
100
AcDbEntity
  8
MOJI
  6
Continuous
100
AcDbLine
 10
1221.972219387229
 20
1530.758523722887
 30
0.0
 11
1650.182348258757
 21
1530.758523722887
 31
0.0
  0
TEXT
  5
6A1
330
18
100
AcDbEntity
  8
MOJI
100
AcDbText
 10
2237.55422424833
 20
489.8839863636003
 30
0.0
 40
60.0
  1
GL
 41
0.8
  7
EXT08
100
AcDbText
  0
INSERT
  5
6A2
330
18
100
AcDbEntity
  8
MOJI
100
AcDbBlockReference
  2
B0040021
 10
599.5751810534602
 20
463.1752463187199
 30
0.0
 41
2.0
 42
2.0
 43
2.0
  0
INSERT
  5
6A3
330
18
100
AcDbEntity
  8
MOJI
100
AcDbBlockReference
  2
B0040021
 10
2282.882563561321
 20
463.1752463187199
 30
0.0
 41
2.0
 42
2.0
 43
2.0
  0
SOLID
  5
6A4
330
18
100
AcDbEntity
  8
MOJI
  6
Continuous
100
AcDbTrace
 10
4411.713421339442
 20
1937.623158547162
 30
0.0
 11
4404.074034382055
 21
1948.550992032948
 31
0.0
 12
4375.11022740339
 22
1920.168914417891
 32
0.0
 13
4375.11022740339
 23
1920.168914417891
 33
0.0
  0
LINE
  5
6A5
330
18
100
AcDbEntity
  8
MOJI
  6
Continuous
100
AcDbLine
 10
4407.893727860748
 20
1943.087075290055
 30
0.0
 11
4542.797464517753
 21
2037.395050211244
 31
0.0
  0
LINE
  5
6A6
330
18
100
AcDbEntity
  8
MOJI
  6
Continuous
100
AcDbLine
 10
4542.797464517753
 20
2037.395050211244
 30
0.0
 11
4897.415290106764
 21
2037.395050211244
 31
0.0
  0
CIRCLE
  5
6A7
330
18
100
AcDbEntity
  8
MOJI
100
AcDbCircle
 10
4596.682302524674
 20
2092.968910213528
 30
0.0
 40
48.0
  0
CIRCLE
  5
6A8
330
18
100
AcDbEntity
  8
MOJI
100
AcDbCircle
 10
6075.42103820213
 20
1718.081176376976
 30
0.0
 40
48.0
  0
SOLID
  5
6B5
330
18
100
AcDbEntity
  8
MOJI
  6
Continuous
100
AcDbTrace
 10
3021.419399890703
 20
3734.905349150444
 30
0.0
 11
3033.066119916412
 21
3741.396242033594
 31
0.0
 12
3007.770081254108
 22
3773.090955669145
 32
0.0
 13
3007.770081254108
 23
3773.090955669145
 33
0.0
  0
LINE
  5
6B6
330
18
100
AcDbEntity
  8
MOJI
  6
Continuous
100
AcDbLine
 10
3027.242759903558
 20
3738.150795592019
 30
0.0
 11
3125.834581769806
 21
3561.245804742208
 31
0.0
  0
TEXT
  5
750
330
18
100
AcDbEntity
  8
INFORMATION
100
AcDbText
 10
1.0
 20
1.0
 30
0.0
 40
0.8
  1
VERSION=3.0
 41
0.8
  7
EXT08
100
AcDbText
  0
ENDSEC
  0
SECTION
  2
OBJECTS
  0
DICTIONARY
  5
C
330
0
100
AcDbDictionary
281
     1
  3
ACAD_GROUP
350
D
  3
ACAD_LAYOUT
350
6C2
  3
ACAD_MLINESTYLE
350
E
  3
ACAD_PLOTSETTINGS
350
6C3
  3
ACAD_PLOTSTYLENAME
350
6C0
  0
DICTIONARY
  5
D
102
{ACAD_REACTORS
330
C
102
}
330
C
100
AcDbDictionary
281
     1
  0
DICTIONARY
  5
6C2
102
{ACAD_REACTORS
330
C
102
}
330
C
100
AcDbDictionary
281
     1
  3
Model
350
6C4
  3
ﾚｲｱｳﾄ1
350
6C5
  0
DICTIONARY
  5
E
102
{ACAD_REACTORS
330
C
102
}
330
C
100
AcDbDictionary
281
     1
  3
STANDARD
350
1B
  0
DICTIONARY
  5
6C3
102
{ACAD_REACTORS
330
C
102
}
330
C
100
AcDbDictionary
281
     1
  0
ACDBDICTIONARYWDFLT
  5
6C0
102
{ACAD_REACTORS
330
C
102
}
330
C
100
AcDbDictionary
281
     1
  3
Normal
350
6C1
100
AcDbDictionaryWithDefault
340
6C1
  0
LAYOUT
  5
6C4
102
{ACAD_REACTORS
330
6C2
102
}
330
6C2
100
AcDbPlotSettings
  1

  2
C:\Program Files\AutoCAD 2000i\plotters\DWF Classic.pc3
  4

  6

 40
0.0
 41
0.0
 42
0.0
 43
0.0
 44
0.0
 45
0.0
 46
0.0
 47
0.0
 48
0.0
 49
0.0
140
0.0
141
0.0
142
1.0
143
1.0
 70
  1712
 72
     0
 73
     0
 74
     0
  7

 75
     0
147
1.0
148
0.0
149
0.0
100
AcDbLayout
  1
Model
 70
     1
 71
     0
 10
0.0
 20
0.0
 11
12.0
 21
9.0
 12
0.0
 22
0.0
 32
0.0
 14
0.0
 24
0.0
 34
0.0
 15
0.0
 25
0.0
 35
0.0
146
0.0
 13
0.0
 23
0.0
 33
0.0
 16
1.0
 26
0.0
 36
0.0
 17
0.0
 27
1.0
 37
0.0
 76
     0
330
18
  0
LAYOUT
  5
6C5
102
{ACAD_REACTORS
330
6C2
102
}
330
6C2
100
AcDbPlotSettings
  1

  2
C:\Program Files\AutoCAD 2000i\plotters\DWF Classic.pc3
  4

  6

 40
0.0
 41
0.0
 42
0.0
 43
0.0
 44
0.0
 45
0.0
 46
0.0
 47
0.0
 48
0.0
 49
0.0
140
0.0
141
0.0
142
1.0
143
1.0
 70
   688
 72
     0
 73
     0
 74
     5
  7

 75
    16
147
1.0
148
0.0
149
0.0
100
AcDbLayout
  1
ﾚｲｱｳﾄ1
 70
     1
 71
     1
 10
0.0
 20
0.0
 11
12.0
 21
9.0
 12
0.0
 22
0.0
 32
0.0
 14
1.000000000000000E+20
 24
1.000000000000000E+20
 34
1.000000000000000E+20
 15
-1.000000000000000E+20
 25
-1.000000000000000E+20
 35
-1.000000000000000E+20
146
0.0
 13
0.0
 23
0.0
 33
0.0
 16
1.0
 26
0.0
 36
0.0
 17
0.0
 27
1.0
 37
0.0
 76
     0
330
15
  0
MLINESTYLE
  5
1B
102
{ACAD_REACTORS
330
E
102
}
330
E
100
AcDbMlineStyle
  2
STANDARD
 70
     0
  3

 62
     0
 51
90.0
 52
90.0
 71
     2
 49
0.5
 62
   256
  6
BYLAYER
 49
-0.5
 62
   256
  6
BYLAYER
  0
ACDBPLACEHOLDER
  5
6C1
102
{ACAD_REACTORS
330
6C0
102
}
330
6C0
  0
ENDSEC
  0
EOF
