  0
SECTION
  2
HEADER
  9
$ACADVER
  1
AC1018
  9
$ACADMAINTVER
 70
    39
  9
$DWGCODEPAGE
  3
ANSI_932
  9
$INSBASE
 10
0.0
 20
0.0
 30
0.0
  9
$EXTMIN
 10
0.0
 20
0.0
 30
0.0
  9
$EXTMAX
 10
7400.0
 20
5340.0
 30
0.0
  9
$LIMMIN
 10
0.0
 20
0.0
  9
$LIMMAX
 10
8400.0
 20
5940.0
  9
$ORTHOMODE
 70
     1
  9
$REGENMODE
 70
     1
  9
$FILLMODE
 70
     1
  9
$QTEXTMODE
 70
     0
  9
$MIRRTEXT
 70
     0
  9
$LTSCALE
 40
200.0
  9
$ATTMODE
 70
     1
  9
$TEXTSIZE
 40
60.0
  9
$TRACEWID
 40
0.05
  9
$TEXTSTYLE
  7
EXT08
  9
$CLAYER
  8
MOJI
  9
$CELTYPE
  6
BYLAYER
  9
$CECOLOR
 62
   256
  9
$CELTSCALE
 40
1.0
  9
$DISPSILH
 70
     0
  9
$DIMSCALE
 40
20.0
  9
$DIMASZ
 40
2.0
  9
$DIMEXO
 40
1.0
  9
$DIMDLI
 40
6.0
  9
$DIMRND
 40
0.0
  9
$DIMDLE
 40
0.0
  9
$DIMEXE
 40
1.0
  9
$DIMTP
 40
0.0
  9
$DIMTM
 40
0.0
  9
$DIMTXT
 40
3.0
  9
$DIMCEN
 40
0.09
  9
$DIMTSZ
 40
0.0
  9
$DIMTOL
 70
     0
  9
$DIMLIM
 70
     0
  9
$DIMTIH
 70
     0
  9
$DIMTOH
 70
     0
  9
$DIMSE1
 70
     0
  9
$DIMSE2
 70
     0
  9
$DIMTAD
 70
     1
  9
$DIMZIN
 70
     8
  9
$DIMBLK
  1

  9
$DIMASO
 70
     1
  9
$DIMSHO
 70
     1
  9
$DIMPOST
  1

  9
$DIMAPOST
  1

  9
$DIMALT
 70
     0
  9
$DIMALTD
 70
     2
  9
$DIMALTF
 40
25.4
  9
$DIMLFAC
 40
0.5
  9
$DIMTOFL
 70
     1
  9
$DIMTVP
 40
0.0
  9
$DIMTIX
 70
     0
  9
$DIMSOXD
 70
     0
  9
$DIMSAH
 70
     0
  9
$DIMBLK1
  1

  9
$DIMBLK2
  1

  9
$DIMSTYLE
  2
SJC
  9
$DIMCLRD
 70
   256
  9
$DIMCLRE
 70
   256
  9
$DIMCLRT
 70
   256
  9
$DIMTFAC
 40
1.0
  9
$DIMGAP
 40
1.199999999999999
  9
$DIMJUST
 70
     0
  9
$DIMSD1
 70
     0
  9
$DIMSD2
 70
     0
  9
$DIMTOLJ
 70
     1
  9
$DIMTZIN
 70
     0
  9
$DIMALTZ
 70
     0
  9
$DIMALTTZ
 70
     0
  9
$DIMUPT
 70
     0
  9
$DIMDEC
 70
     2
  9
$DIMTDEC
 70
     4
  9
$DIMALTU
 70
     2
  9
$DIMALTTD
 70
     2
  9
$DIMTXSTY
  7
EXT08
  9
$DIMAUNIT
 70
     1
  9
$DIMADEC
 70
     0
  9
$DIMALTRND
 40
0.0
  9
$DIMAZIN
 70
     0
  9
$DIMDSEP
 70
    46
  9
$DIMATFIT
 70
     3
  9
$DIMFRAC
 70
     0
  9
$DIMLDRBLK
  1

  9
$DIMLUNIT
 70
     2
  9
$DIMLWD
 70
    -2
  9
$DIMLWE
 70
    -2
  9
$DIMTMOVE
 70
     2
  9
$LUNITS
 70
     2
  9
$LUPREC
 70
     2
  9
$SKETCHINC
 40
0.1
  9
$FILLETRAD
 40
0.0
  9
$AUNITS
 70
     1
  9
$AUPREC
 70
     2
  9
$MENU
  1
sjc
  9
$ELEVATION
 40
0.0
  9
$PELEVATION
 40
0.0
  9
$THICKNESS
 40
0.0
  9
$LIMCHECK
 70
     0
  9
$CHAMFERA
 40
0.0
  9
$CHAMFERB
 40
0.0
  9
$CHAMFERC
 40
0.0
  9
$CHAMFERD
 40
0.0
  9
$SKPOLY
 70
     0
  9
$TDCREATE
 40
2449299.044180671
  9
$TDUCREATE
 40
2449298.669180671
  9
$TDUPDATE
 40
2455021.402902917
  9
$TDUUPDATE
 40
2455021.027902917
  9
$TDINDWG
 40
0.2462302778
  9
$TDUSRTIMER
 40
0.2462302778
  9
$USRTIMER
 70
     1
  9
$ANGBASE
 50
0.0
  9
$ANGDIR
 70
     0
  9
$PDMODE
 70
     0
  9
$PDSIZE
 40
0.0
  9
$PLINEWID
 40
0.0
  9
$SPLFRAME
 70
     0
  9
$SPLINETYPE
 70
     6
  9
$SPLINESEGS
 70
     8
  9
$HANDSEED
  5
12DB
  9
$SURFTAB1
 70
     6
  9
$SURFTAB2
 70
     6
  9
$SURFTYPE
 70
     6
  9
$SURFU
 70
     6
  9
$SURFV
 70
     6
  9
$UCSBASE
  2

  9
$UCSNAME
  2

  9
$UCSORG
 10
0.0
 20
0.0
 30
0.0
  9
$UCSXDIR
 10
1.0
 20
0.0
 30
0.0
  9
$UCSYDIR
 10
0.0
 20
1.0
 30
0.0
  9
$UCSORTHOREF
  2

  9
$UCSORTHOVIEW
 70
     0
  9
$UCSORGTOP
 10
0.0
 20
0.0
 30
0.0
  9
$UCSORGBOTTOM
 10
0.0
 20
0.0
 30
0.0
  9
$UCSORGLEFT
 10
0.0
 20
0.0
 30
0.0
  9
$UCSORGRIGHT
 10
0.0
 20
0.0
 30
0.0
  9
$UCSORGFRONT
 10
0.0
 20
0.0
 30
0.0
  9
$UCSORGBACK
 10
0.0
 20
0.0
 30
0.0
  9
$PUCSBASE
  2

  9
$PUCSNAME
  2

  9
$PUCSORG
 10
0.0
 20
0.0
 30
0.0
  9
$PUCSXDIR
 10
1.0
 20
0.0
 30
0.0
  9
$PUCSYDIR
 10
0.0
 20
1.0
 30
0.0
  9
$PUCSORTHOREF
  2

  9
$PUCSORTHOVIEW
 70
     0
  9
$PUCSORGTOP
 10
0.0
 20
0.0
 30
0.0
  9
$PUCSORGBOTTOM
 10
0.0
 20
0.0
 30
0.0
  9
$PUCSORGLEFT
 10
0.0
 20
0.0
 30
0.0
  9
$PUCSORGRIGHT
 10
0.0
 20
0.0
 30
0.0
  9
$PUCSORGFRONT
 10
0.0
 20
0.0
 30
0.0
  9
$PUCSORGBACK
 10
0.0
 20
0.0
 30
0.0
  9
$USERI1
 70
     3
  9
$USERI2
 70
    20
  9
$USERI3
 70
     0
  9
$USERI4
 70
     0
  9
$USERI5
 70
     0
  9
$USERR1
 40
0.0
  9
$USERR2
 40
0.0
  9
$USERR3
 40
0.0
  9
$USERR4
 40
0.0
  9
$USERR5
 40
0.0
  9
$WORLDVIEW
 70
     1
  9
$SHADEDGE
 70
     3
  9
$SHADEDIF
 70
    70
  9
$TILEMODE
 70
     1
  9
$MAXACTVP
 70
    16
  9
$PINSBASE
 10
0.0
 20
0.0
 30
0.0
  9
$PLIMCHECK
 70
     0
  9
$PEXTMIN
 10
1.000000000000000E+20
 20
1.000000000000000E+20
 30
1.000000000000000E+20
  9
$PEXTMAX
 10
-1.000000000000000E+20
 20
-1.000000000000000E+20
 30
-1.000000000000000E+20
  9
$PLIMMIN
 10
0.0
 20
0.0
  9
$PLIMMAX
 10
12.0
 20
9.0
  9
$UNITMODE
 70
     0
  9
$VISRETAIN
 70
     0
  9
$PLINEGEN
 70
     0
  9
$PSLTSCALE
 70
     1
  9
$TREEDEPTH
 70
  3020
  9
$CMLSTYLE
  2
STANDARD
  9
$CMLJUST
 70
     0
  9
$CMLSCALE
 40
1.0
  9
$PROXYGRAPHICS
 70
     1
  9
$MEASUREMENT
 70
     0
  9
$CELWEIGHT
370
    -1
  9
$ENDCAPS
280
     0
  9
$JOINSTYLE
280
     0
  9
$LWDISPLAY
290
     0
  9
$INSUNITS
 70
     0
  9
$HYPERLINKBASE
  1

  9
$STYLESHEET
  1

  9
$XEDIT
290
     1
  9
$CEPSNTYPE
380
     0
  9
$PSTYLEMODE
290
     1
  9
$FINGERPRINTGUID
  2
{19A8E888-2499-4F98-B891-06CB7B08EEFF}
  9
$VERSIONGUID
  2
{EF3A1019-57E0-40FF-B5D1-8D7E5E11E911}
  9
$EXTNAMES
290
     1
  9
$PSVPSCALE
 40
0.0
  9
$OLESTARTUP
290
     0
  9
$SORTENTS
280
   127
  9
$INDEXCTL
280
     0
  9
$HIDETEXT
280
     0
  9
$XCLIPFRAME
290
     0
  9
$HALOGAP
280
     0
  9
$OBSCOLOR
 70
   257
  9
$OBSLTYPE
280
     0
  9
$INTERSECTIONDISPLAY
280
     0
  9
$INTERSECTIONCOLOR
 70
   257
  9
$DIMASSOC
280
     1
  9
$PROJECTNAME
  1

  0
ENDSEC
  0
SECTION
  2
CLASSES
  0
CLASS
  1
ACDBDICTIONARYWDFLT
  2
AcDbDictionaryWithDefault
  3
ObjectDBX Classes
 90
        0
 91
        1
280
     0
281
     0
  0
CLASS
  1
TABLESTYLE
  2
AcDbTableStyle
  3
ObjectDBX Classes
 90
     2047
 91
        1
280
     0
281
     0
  0
CLASS
  1
DICTIONARYVAR
  2
AcDbDictionaryVar
  3
ObjectDBX Classes
 90
        0
 91
        1
280
     0
281
     0
  0
ENDSEC
  0
SECTION
  2
TABLES
  0
TABLE
  2
VPORT
  5
8
330
0
100
AcDbSymbolTable
 70
     2
  0
VPORT
  5
12DA
330
8
100
AcDbSymbolTableRecord
100
AcDbViewportTableRecord
  2
*Active
 70
     0
 10
0.0
 20
0.0
 11
1.0
 21
1.0
 12
5616.203007518797
 22
3354.990780229262
 13
0.0
 23
0.0
 14
10.0
 24
10.0
 15
0.0
 25
0.0
 16
0.0
 26
0.0
 36
1.0
 17
0.0
 27
0.0
 37
0.0
 40
6709.981560458524
 41
1.673984632272228
 42
50.0
 43
0.0
 44
0.0
 50
0.0
 51
0.0
 71
     0
 72
   100
 73
     1
 74
     1
 75
     0
 76
     0
 77
     0
 78
     0
281
     0
 65
     1
110
0.0
120
0.0
130
0.0
111
1.0
121
0.0
131
0.0
112
0.0
122
1.0
132
0.0
 79
     0
146
0.0
  0
ENDTAB
  0
TABLE
  2
LTYPE
  5
5
330
0
100
AcDbSymbolTable
 70
     5
  0
LTYPE
  5
12
330
5
100
AcDbSymbolTableRecord
100
AcDbLinetypeTableRecord
  2
BYBLOCK
 70
     0
  3

 72
    65
 73
     0
 40
0.0
  0
LTYPE
  5
13
330
5
100
AcDbSymbolTableRecord
100
AcDbLinetypeTableRecord
  2
BYLAYER
 70
     0
  3

 72
    65
 73
     0
 40
0.0
  0
LTYPE
  5
14
330
5
100
AcDbSymbolTableRecord
100
AcDbLinetypeTableRecord
  2
CONTINUOUS
 70
     0
  3
Solid line
 72
    65
 73
     0
 40
0.0
  0
LTYPE
  5
2F
330
5
100
AcDbSymbolTableRecord
100
AcDbLinetypeTableRecord
  2
CENTER
 70
     0
  3
____ _ ____ _ ____ _ ____ _ ____ _ ____ _ ____ 
 72
    65
 73
     4
 40
2.0
 49
1.25
 74
     0
 49
-0.25
 74
     0
 49
0.25
 74
     0
 49
-0.25
 74
     0
  0
LTYPE
  5
30
330
5
100
AcDbSymbolTableRecord
100
AcDbLinetypeTableRecord
  2
HIDDEN
 70
     0
  3
__ __ __ __ __ __ __ __ __ __ __ __ __ __ __ __
 72
    65
 73
     2
 40
0.375
 49
0.25
 74
     0
 49
-0.125
 74
     0
  0
LTYPE
  5
31
330
5
100
AcDbSymbolTableRecord
100
AcDbLinetypeTableRecord
  2
HIDDEN2
 70
     0
  3
_ _ _ _ _ _ _ _ _ _ _ _ _ _ _ _ _ _ _ _ _ _ _ _
 72
    65
 73
     2
 40
0.1875
 49
0.125
 74
     0
 49
-0.0625
 74
     0
  0
LTYPE
  5
32
330
5
100
AcDbSymbolTableRecord
100
AcDbLinetypeTableRecord
  2
PHANTOM
 70
     0
  3
______  __  __  ______  __  __  ______  __  __ 
 72
    65
 73
     6
 40
2.5
 49
1.25
 74
     0
 49
-0.25
 74
     0
 49
0.25
 74
     0
 49
-0.25
 74
     0
 49
0.25
 74
     0
 49
-0.25
 74
     0
  0
ENDTAB
  0
TABLE
  2
LAYER
  5
2
330
0
100
AcDbSymbolTable
 70
    16
  0
LAYER
  5
F
330
2
100
AcDbSymbolTableRecord
100
AcDbLayerTableRecord
  2
0
 70
     0
 62
     7
  6
CONTINUOUS
370
    -3
390
1191
  0
LAYER
  5
38
330
2
100
AcDbSymbolTableRecord
100
AcDbLayerTableRecord
  2
CENTER
 70
     0
 62
     3
  6
CENTER
370
    -3
390
1191
  0
LAYER
  5
39
330
2
100
AcDbSymbolTableRecord
100
AcDbLayerTableRecord
  2
HASEN
 70
     0
 62
     7
  6
HIDDEN
370
    -3
390
1191
  0
LAYER
  5
3A
330
2
100
AcDbSymbolTableRecord
100
AcDbLayerTableRecord
  2
HOJO
 70
     0
 62
     8
  6
CONTINUOUS
370
    -3
390
1191
  0
LAYER
  5
3B
330
2
100
AcDbSymbolTableRecord
100
AcDbLayerTableRecord
  2
KASOU
 70
     0
 62
     2
  6
PHANTOM
370
    -3
390
1191
  0
LAYER
  5
3C
330
2
100
AcDbSymbolTableRecord
100
AcDbLayerTableRecord
  2
MOJI
 70
     0
 62
     6
  6
CONTINUOUS
370
    -3
390
1191
  0
LAYER
  5
3D
330
2
100
AcDbSymbolTableRecord
100
AcDbLayerTableRecord
  2
SJC
 70
     0
 62
     1
  6
CONTINUOUS
370
    -3
390
1191
  0
LAYER
  5
3E
330
2
100
AcDbSymbolTableRecord
100
AcDbLayerTableRecord
  2
SUNPOU
 70
     0
 62
     4
  6
CONTINUOUS
370
    -3
390
1191
  0
LAYER
  5
3F
330
2
100
AcDbSymbolTableRecord
100
AcDbLayerTableRecord
  2
WAKU
 70
     0
 62
     5
  6
CONTINUOUS
370
    -3
390
1191
  0
LAYER
  5
40
330
2
100
AcDbSymbolTableRecord
100
AcDbLayerTableRecord
  2
ZWAKU
 70
     0
 62
     7
  6
CONTINUOUS
370
    -3
390
1191
  0
LAYER
  5
41
330
2
100
AcDbSymbolTableRecord
100
AcDbLayerTableRecord
  2
DEFPOINTS
 70
     0
 62
     7
  6
CONTINUOUS
290
     0
370
    -3
390
1191
  0
LAYER
  5
791
330
2
100
AcDbSymbolTableRecord
100
AcDbLayerTableRecord
  2
INFORMATION
 70
     1
 62
     7
  6
CONTINUOUS
370
    -3
390
1191
  0
LAYER
  5
794
330
2
100
AcDbSymbolTableRecord
100
AcDbLayerTableRecord
  2
SJC2
 70
     0
 62
     7
  6
CONTINUOUS
370
    -3
390
1191
  0
LAYER
  5
795
330
2
100
AcDbSymbolTableRecord
100
AcDbLayerTableRecord
  2
MOJI2
 70
     0
 62
     1
  6
CONTINUOUS
370
    -3
390
1191
  0
LAYER
  5
796
330
2
100
AcDbSymbolTableRecord
100
AcDbLayerTableRecord
  2
HATCH
 70
     0
 62
     2
  6
CONTINUOUS
370
    -3
390
1191
  0
LAYER
  5
B5F
330
2
100
AcDbSymbolTableRecord
100
AcDbLayerTableRecord
  2
1
 70
     0
 62
     7
  6
CONTINUOUS
370
    -3
390
1191
  0
ENDTAB
  0
TABLE
  2
STYLE
  5
3
330
0
100
AcDbSymbolTable
 70
     8
  0
STYLE
  5
10
330
3
100
AcDbSymbolTableRecord
100
AcDbTextStyleTableRecord
  2
STANDARD
 70
     0
 40
0.0
 41
1.0
 50
0.0
 71
     0
 42
60.0
  3
romans
  4
bigfont
  0
STYLE
  5
2D
330
3
100
AcDbSymbolTableRecord
100
AcDbTextStyleTableRecord
  2
SIMPLEX
 70
     0
 40
0.0
 41
1.0
 50
0.0
 71
     0
 42
60.0
  3
scripts
  4

  0
STYLE
  5
2E
330
3
100
AcDbSymbolTableRecord
100
AcDbTextStyleTableRecord
  2
KANJI
 70
     0
 40
0.0
 41
1.0
 50
0.0
 71
     0
 42
60.0
  3
romans
  4
bigfont
  0
STYLE
  5
7A6
330
3
100
AcDbSymbolTableRecord
100
AcDbTextStyleTableRecord
  2
TATEEXT
 70
     4
 40
0.0
 41
1.0
 50
0.0
 71
     0
 42
60.0
  3
ROMANS
  4
EXTFONT
  0
STYLE
  5
7A7
330
3
100
AcDbSymbolTableRecord
100
AcDbTextStyleTableRecord
  2
TATEBIG
 70
     4
 40
0.0
 41
1.0
 50
0.0
 71
     0
 42
60.0
  3
ROMANS
  4
BIGFONT
  0
STYLE
  5
7A8
330
3
100
AcDbSymbolTableRecord
100
AcDbTextStyleTableRecord
  2
EXT08
 70
     0
 40
0.0
 41
0.8
 50
0.0
 71
     0
 42
60.0
  3
ROMANS
  4
EXTFONT
  0
STYLE
  5
7A9
330
3
100
AcDbSymbolTableRecord
100
AcDbTextStyleTableRecord
  2
EXT
 70
     0
 40
0.0
 41
1.0
 50
0.0
 71
     0
 42
60.0
  3
ROMANS
  4
EXTFONT
  0
STYLE
  5
7AA
330
3
100
AcDbSymbolTableRecord
100
AcDbTextStyleTableRecord
  2
KANJI08
 70
     0
 40
0.0
 41
0.8
 50
0.0
 71
     0
 42
60.0
  3
ROMANS
  4
BIGFONT
  0
ENDTAB
  0
TABLE
  2
VIEW
  5
6
330
0
100
AcDbSymbolTable
 70
     0
  0
ENDTAB
  0
TABLE
  2
UCS
  5
7
330
0
100
AcDbSymbolTable
 70
     0
  0
ENDTAB
  0
TABLE
  2
APPID
  5
9
330
0
100
AcDbSymbolTable
 70
     1
  0
APPID
  5
11
330
9
100
AcDbSymbolTableRecord
100
AcDbRegAppTableRecord
  2
ACAD
 70
     0
  0
ENDTAB
  0
TABLE
  2
DIMSTYLE
  5
A
330
0
100
AcDbSymbolTable
 70
     2
100
AcDbDimStyleTable
 71
     0
  0
DIMSTYLE
105
35
330
A
100
AcDbSymbolTableRecord
100
AcDbDimStyleTableRecord
  2
S01-20AX
 70
     0
 41
40.0
 42
20.0
 43
0.4
 44
20.0
 73
     0
 74
     0
 77
     1
 78
     8
140
50.0
141
0.1
146
0.004
147
0.1
172
     1
176
   256
177
   256
178
   256
271
     1
272
     1
275
     1
279
     2
284
     8
285
     8
286
     8
340
2E
  0
DIMSTYLE
105
7AB
102
{ACAD_REACTORS
330
47F
330
482
330
484
330
487
330
488
330
49F
330
4AB
330
4AC
330
5DF
330
605
330
642
330
76D
330
77A
330
7D0
330
7F4
330
F99
330
1000
102
}
330
A
100
AcDbSymbolTableRecord
100
AcDbDimStyleTableRecord
  2
SJC
 70
     0
340
10
  0
ENDTAB
  0
TABLE
  2
BLOCK_RECORD
  5
1
330
0
100
AcDbSymbolTable
 70
    19
  0
BLOCK_RECORD
  5
18
330
1
100
AcDbSymbolTableRecord
100
AcDbBlockTableRecord
  2
*MODEL_SPACE
340
1198
  0
BLOCK_RECORD
  5
15
330
1
100
AcDbSymbolTableRecord
100
AcDbBlockTableRecord
  2
*PAPER_SPACE
340
1199
  0
BLOCK_RECORD
  5
5D3
330
1
100
AcDbSymbolTableRecord
100
AcDbBlockTableRecord
  2
*D0
340
0
  0
BLOCK_RECORD
  5
5F9
330
1
100
AcDbSymbolTableRecord
100
AcDbBlockTableRecord
  2
*D1
340
0
  0
BLOCK_RECORD
  5
634
330
1
100
AcDbSymbolTableRecord
100
AcDbBlockTableRecord
  2
*D2
340
0
  0
BLOCK_RECORD
  5
6ED
330
1
100
AcDbSymbolTableRecord
100
AcDbBlockTableRecord
  2
*D3
340
0
  0
BLOCK_RECORD
  5
705
330
1
100
AcDbSymbolTableRecord
100
AcDbBlockTableRecord
  2
*D4
340
0
  0
BLOCK_RECORD
  5
711
330
1
100
AcDbSymbolTableRecord
100
AcDbBlockTableRecord
  2
*D5
340
0
  0
BLOCK_RECORD
  5
761
330
1
100
AcDbSymbolTableRecord
100
AcDbBlockTableRecord
  2
*D6
340
0
  0
BLOCK_RECORD
  5
76E
330
1
100
AcDbSymbolTableRecord
100
AcDbBlockTableRecord
  2
*D7
340
0
  0
BLOCK_RECORD
  5
787
330
1
100
AcDbSymbolTableRecord
100
AcDbBlockTableRecord
  2
CALCOMP_TECHJET720A3
340
0
102
{BLKREFS
331
790
102
}
  0
BLOCK_RECORD
  5
7C4
330
1
100
AcDbSymbolTableRecord
100
AcDbBlockTableRecord
  2
*D9
340
0
  0
BLOCK_RECORD
  5
7E8
330
1
100
AcDbSymbolTableRecord
100
AcDbBlockTableRecord
  2
*D10
340
0
  0
BLOCK_RECORD
  5
830
330
1
100
AcDbSymbolTableRecord
100
AcDbBlockTableRecord
  2
*D11
340
0
  0
BLOCK_RECORD
  5
83C
330
1
100
AcDbSymbolTableRecord
100
AcDbBlockTableRecord
  2
*D12
340
0
  0
BLOCK_RECORD
  5
853
330
1
100
AcDbSymbolTableRecord
100
AcDbBlockTableRecord
  2
*D13
340
0
  0
BLOCK_RECORD
  5
899
330
1
100
AcDbSymbolTableRecord
100
AcDbBlockTableRecord
  2
*D14
340
0
  0
BLOCK_RECORD
  5
953
330
1
100
AcDbSymbolTableRecord
100
AcDbBlockTableRecord
  2
*D15
340
0
  0
BLOCK_RECORD
  5
F8D
330
1
100
AcDbSymbolTableRecord
100
AcDbBlockTableRecord
  2
*D16
340
0
  0
BLOCK_RECORD
  5
FF4
330
1
100
AcDbSymbolTableRecord
100
AcDbBlockTableRecord
  2
*D17
340
0
  0
BLOCK_RECORD
  5
10ED
330
1
100
AcDbSymbolTableRecord
100
AcDbBlockTableRecord
  2
*X18
340
0
102
{BLKREFS
331
10EF
102
}
  0
ENDTAB
  0
ENDSEC
  0
SECTION
  2
BLOCKS
  0
BLOCK
  5
44
330
18
100
AcDbEntity
  8
0
100
AcDbBlockBegin
  2
*MODEL_SPACE
 70
     0
 10
0.0
 20
0.0
 30
0.0
  3
*MODEL_SPACE
  1

  0
ENDBLK
  5
45
330
18
100
AcDbEntity
  8
0
100
AcDbBlockEnd
  0
BLOCK
  5
42
330
15
100
AcDbEntity
 67
     1
  8
0
100
AcDbBlockBegin
  2
*PAPER_SPACE
 70
     0
 10
0.0
 20
0.0
 30
0.0
  3
*PAPER_SPACE
  1

  0
ENDBLK
  5
43
330
15
100
AcDbEntity
 67
     1
  8
0
100
AcDbBlockEnd
  0
BLOCK
  5
825
330
5D3
100
AcDbEntity
  8
0
100
AcDbBlockBegin
  2
*D0
 70
     1
 10
0.0
 20
0.0
 30
0.0
  3
*D0
  1

  0
LINE
  5
1283
330
5D3
100
AcDbEntity
  8
SUNPOU
370
    -2
100
AcDbLine
 10
6186.4073788165
 20
4016.392053816594
 30
0.0
 11
6484.788111675
 21
4016.392053816594
 31
0.0
  0
LINE
  5
1284
330
5D3
100
AcDbEntity
  8
SUNPOU
370
    -2
100
AcDbLine
 10
6450.4582782021
 20
3516.392053816595
 30
0.0
 11
6484.788111675
 21
3516.392053816595
 31
0.0
  0
LINE
  5
1285
330
5D3
100
AcDbEntity
  8
SUNPOU
370
    -2
100
AcDbLine
 10
6464.788111675
 20
3976.392053816594
 30
0.0
 11
6464.788111675
 21
3556.392053816594
 31
0.0
  0
SOLID
  5
1286
330
5D3
100
AcDbEntity
  8
SUNPOU
100
AcDbTrace
 10
6458.121445008334
 20
3976.392053816594
 30
0.0
 11
6471.454778341668
 21
3976.392053816594
 31
0.0
 12
6464.788111675
 22
4016.392053816594
 32
0.0
 13
6464.788111675
 23
4016.392053816594
 33
0.0
  0
SOLID
  5
1287
330
5D3
100
AcDbEntity
  8
SUNPOU
100
AcDbTrace
 10
6458.121445008334
 20
3556.392053816594
 30
0.0
 11
6471.454778341668
 21
3556.392053816594
 31
0.0
 12
6464.788111675
 22
3516.392053816595
 32
0.0
 13
6464.788111675
 23
3516.392053816595
 33
0.0
  0
MTEXT
  5
1288
330
5D3
100
AcDbEntity
  8
SUNPOU
100
AcDbMText
 10
6410.788111675
 20
3766.392053816595
 30
0.0
 40
60.0
 41
0.0
 71
     5
 72
     1
  1
\A1;500
  7
EXT08
 11
0.0000000000000001
 21
1.0
 31
0.0
 73
     1
 44
1.0
  0
POINT
  5
1289
330
5D3
100
AcDbEntity
  8
DEFPOINTS
 62
     0
100
AcDbPoint
 10
6166.407378816501
 20
4016.392053816594
 30
0.0
  0
POINT
  5
128A
330
5D3
100
AcDbEntity
  8
DEFPOINTS
 62
     0
100
AcDbPoint
 10
6430.4582782021
 20
3516.392053816595
 30
0.0
  0
POINT
  5
128B
330
5D3
100
AcDbEntity
  8
DEFPOINTS
 62
     0
100
AcDbPoint
 10
6464.788111675
 20
3516.392053816595
 30
0.0
  0
ENDBLK
  5
82F
330
5D3
100
AcDbEntity
  8
0
100
AcDbBlockEnd
  0
BLOCK
  5
8FB
330
5F9
100
AcDbEntity
  8
0
100
AcDbBlockBegin
  2
*D1
 70
     1
 10
0.0
 20
0.0
 30
0.0
  3
*D1
  1

  0
LINE
  5
127B
330
5F9
100
AcDbEntity
  8
SUNPOU
370
    -2
100
AcDbLine
 10
6208.520198014459
 20
4416.391430053994
 30
0.0
 11
6484.788111675
 21
4416.391430053994
 31
0.0
  0
LINE
  5
127C
330
5F9
100
AcDbEntity
  8
SUNPOU
370
    -2
100
AcDbLine
 10
6464.788111675
 20
4376.391430053995
 30
0.0
 11
6464.788111675
 21
4056.392053816593
 31
0.0
  0
SOLID
  5
127D
330
5F9
100
AcDbEntity
  8
SUNPOU
100
AcDbTrace
 10
6458.121445008334
 20
4376.391430053995
 30
0.0
 11
6471.454778341668
 21
4376.391430053995
 31
0.0
 12
6464.788111675
 22
4416.391430053994
 32
0.0
 13
6464.788111675
 23
4416.391430053994
 33
0.0
  0
SOLID
  5
127E
330
5F9
100
AcDbEntity
  8
SUNPOU
100
AcDbTrace
 10
6458.121445008334
 20
4056.392053816593
 30
0.0
 11
6471.454778341668
 21
4056.392053816593
 31
0.0
 12
6464.788111675
 22
4016.392053816594
 32
0.0
 13
6464.788111675
 23
4016.392053816594
 33
0.0
  0
MTEXT
  5
127F
330
5F9
100
AcDbEntity
  8
SUNPOU
100
AcDbMText
 10
6410.788111675
 20
4216.391741935296
 30
0.0
 40
60.0
 41
0.0
 71
     5
 72
     1
  1
\A1;400
  7
EXT08
 11
0.0000000000000001
 21
1.0
 31
0.0
 73
     1
 44
1.0
  0
POINT
  5
1280
330
5F9
100
AcDbEntity
  8
DEFPOINTS
 62
     0
100
AcDbPoint
 10
6188.520198014459
 20
4416.391430053994
 30
0.0
  0
POINT
  5
1281
330
5F9
100
AcDbEntity
  8
DEFPOINTS
 62
     0
100
AcDbPoint
 10
6464.788111675
 20
4016.392053816594
 30
0.0
  0
POINT
  5
1282
330
5F9
100
AcDbEntity
  8
DEFPOINTS
 62
     0
100
AcDbPoint
 10
6464.788111675
 20
4016.392053816594
 30
0.0
  0
ENDBLK
  5
905
330
5F9
100
AcDbEntity
  8
0
100
AcDbBlockEnd
  0
BLOCK
  5
111D
330
634
100
AcDbEntity
  8
0
100
AcDbBlockBegin
  2
*D2
 70
     1
 10
0.0
 20
0.0
 30
0.0
  3
*D2
  1

  0
LINE
  5
1272
330
634
100
AcDbEntity
  8
SUNPOU
370
    -2
100
AcDbLine
 10
5971.8572085819
 20
3096.392059776995
 30
0.0
 11
5971.8572085819
 21
2924.518740703265
 31
0.0
  0
LINE
  5
1273
330
634
100
AcDbEntity
  8
SUNPOU
370
    -2
100
AcDbLine
 10
6271.857208581899
 20
3096.392059776995
 30
0.0
 11
6271.857208581899
 21
2924.518740703265
 31
0.0
  0
LINE
  5
1274
330
634
100
AcDbEntity
  8
SUNPOU
370
    -2
100
AcDbLine
 10
6011.8572085819
 20
2944.518740703264
 30
0.0
 11
6231.857208581899
 21
2944.518740703264
 31
0.0
  0
MTEXT
  5
1275
330
634
100
AcDbEntity
  8
SUNPOU
100
AcDbMText
 10
6121.8572085819
 20
3004.812611551213
 30
0.0
 40
60.0
 41
0.0
 71
     5
 72
     1
  1
\A1;□300
  7
EXT08
 73
     1
 44
1.0
  0
SOLID
  5
1276
330
634
100
AcDbEntity
  8
SUNPOU
100
AcDbTrace
 10
6011.8572085819
 20
2951.185407369931
 30
0.0
 11
6011.8572085819
 21
2937.852074036598
 31
0.0
 12
5971.8572085819
 22
2944.518740703264
 32
0.0
 13
5971.8572085819
 23
2944.518740703264
 33
0.0
  0
SOLID
  5
1277
330
634
100
AcDbEntity
  8
SUNPOU
100
AcDbTrace
 10
6231.857208581899
 20
2951.185407369931
 30
0.0
 11
6231.857208581899
 21
2937.852074036598
 31
0.0
 12
6271.857208581899
 22
2944.518740703264
 32
0.0
 13
6271.857208581899
 23
2944.518740703264
 33
0.0
  0
POINT
  5
1278
330
634
100
AcDbEntity
  8
DEFPOINTS
 62
     0
100
AcDbPoint
 10
5971.8572085819
 20
3116.392059776995
 30
0.0
  0
POINT
  5
1279
330
634
100
AcDbEntity
  8
DEFPOINTS
 62
     0
100
AcDbPoint
 10
6271.857208581899
 20
3116.392059776995
 30
0.0
  0
POINT
  5
127A
330
634
100
AcDbEntity
  8
DEFPOINTS
 62
     0
100
AcDbPoint
 10
6271.857208581899
 20
2944.518740703264
 30
0.0
  0
ENDBLK
  5
1127
330
634
100
AcDbEntity
  8
0
100
AcDbBlockEnd
  0
BLOCK
  5
114A
330
6ED
100
AcDbEntity
  8
0
100
AcDbBlockBegin
  2
*D3
 70
     1
 10
0.0
 20
0.0
 30
0.0
  3
*D3
  1

  0
LINE
  5
12B0
330
6ED
100
AcDbEntity
  8
SUNPOU
370
    -2
100
AcDbLine
 10
1342.488345323925
 20
2569.57437140879
 30
0.0
 11
2475.947891629334
 21
2569.57437140879
 31
0.0
  0
LINE
  5
12B1
330
6ED
100
AcDbEntity
  8
SUNPOU
370
    -2
100
AcDbLine
 10
1701.884549983425
 20
381.6745327446961
 30
0.0
 11
2475.947891629333
 21
381.6745327446959
 31
0.0
  0
LINE
  5
12B2
330
6ED
100
AcDbEntity
  8
SUNPOU
370
    -2
100
AcDbLine
 10
2455.947891629334
 20
2529.57437140879
 30
0.0
 11
2455.947891629333
 21
421.6745327446958
 31
0.0
  0
SOLID
  5
12B3
330
6ED
100
AcDbEntity
  8
SUNPOU
100
AcDbTrace
 10
2449.281224962667
 20
2529.57437140879
 30
0.0
 11
2462.614558296
 21
2529.57437140879
 31
0.0
 12
2455.947891629334
 22
2569.57437140879
 32
0.0
 13
2455.947891629334
 23
2569.57437140879
 33
0.0
  0
SOLID
  5
12B4
330
6ED
100
AcDbEntity
  8
SUNPOU
100
AcDbTrace
 10
2449.281224962666
 20
421.6745327446958
 30
0.0
 11
2462.614558295999
 21
421.6745327446958
 31
0.0
 12
2455.947891629333
 22
381.6745327446959
 32
0.0
 13
2455.947891629333
 23
381.6745327446959
 33
0.0
  0
MTEXT
  5
12B5
330
6ED
100
AcDbEntity
  8
SUNPOU
100
AcDbMText
 10
2401.947891629333
 20
1475.624452076743
 30
0.0
 40
60.0
 41
0.0
 71
     5
 72
     1
  1
\A1;1094
  7
EXT08
 11
0.0000000000000001
 21
1.0
 31
0.0
 73
     1
 44
1.0
  0
POINT
  5
12B6
330
6ED
100
AcDbEntity
  8
DEFPOINTS
 62
     0
100
AcDbPoint
 10
1322.488345323925
 20
2569.57437140879
 30
0.0
  0
POINT
  5
12B7
330
6ED
100
AcDbEntity
  8
DEFPOINTS
 62
     0
100
AcDbPoint
 10
1681.884549983425
 20
381.6745327446961
 30
0.0
  0
POINT
  5
12B8
330
6ED
100
AcDbEntity
  8
DEFPOINTS
 62
     0
100
AcDbPoint
 10
2455.947891629333
 20
381.6745327446959
 30
0.0
  0
ENDBLK
  5
1154
330
6ED
100
AcDbEntity
  8
0
100
AcDbBlockEnd
  0
BLOCK
  5
9B5
330
705
100
AcDbEntity
  8
0
100
AcDbBlockBegin
  2
*D4
 70
     1
 10
0.0
 20
0.0
 30
0.0
  3
*D4
  1

  0
LINE
  5
12A7
330
705
100
AcDbEntity
  8
SUNPOU
370
    -2
100
AcDbLine
 10
1500.270478578724
 20
2301.574833733196
 30
0.0
 11
2358.655107732634
 21
2301.574833733196
 31
0.0
  0
LINE
  5
12A8
330
705
100
AcDbEntity
  8
SUNPOU
370
    -2
100
AcDbLine
 10
1701.884549983425
 20
381.6745327446961
 30
0.0
 11
2358.655107732633
 21
381.6745327446959
 31
0.0
  0
LINE
  5
12A9
330
705
100
AcDbEntity
  8
SUNPOU
370
    -2
100
AcDbLine
 10
2338.655107732634
 20
2261.574833733196
 30
0.0
 11
2338.655107732633
 21
421.6745327446958
 31
0.0
  0
SOLID
  5
12AA
330
705
100
AcDbEntity
  8
SUNPOU
100
AcDbTrace
 10
2331.988441065967
 20
2261.574833733196
 30
0.0
 11
2345.3217743993
 21
2261.574833733196
 31
0.0
 12
2338.655107732634
 22
2301.574833733196
 32
0.0
 13
2338.655107732634
 23
2301.574833733196
 33
0.0
  0
SOLID
  5
12AB
330
705
100
AcDbEntity
  8
SUNPOU
100
AcDbTrace
 10
2331.988441065966
 20
421.6745327446958
 30
0.0
 11
2345.3217743993
 21
421.6745327446958
 31
0.0
 12
2338.655107732633
 22
381.6745327446959
 32
0.0
 13
2338.655107732633
 23
381.6745327446959
 33
0.0
  0
MTEXT
  5
12AC
330
705
100
AcDbEntity
  8
SUNPOU
100
AcDbMText
 10
2284.655107732633
 20
1341.624683238946
 30
0.0
 40
60.0
 41
0.0
 71
     5
 72
     1
  1
\A1;960
  7
EXT08
 11
0.0000000000000001
 21
1.0
 31
0.0
 73
     1
 44
1.0
  0
POINT
  5
12AD
330
705
100
AcDbEntity
  8
DEFPOINTS
 62
     0
100
AcDbPoint
 10
1480.270478578724
 20
2301.574833733196
 30
0.0
  0
POINT
  5
12AE
330
705
100
AcDbEntity
  8
DEFPOINTS
 62
     0
100
AcDbPoint
 10
1681.884549983425
 20
381.6745327446961
 30
0.0
  0
POINT
  5
12AF
330
705
100
AcDbEntity
  8
DEFPOINTS
 62
     0
100
AcDbPoint
 10
2338.655107732633
 20
381.6745327446959
 30
0.0
  0
ENDBLK
  5
9BF
330
705
100
AcDbEntity
  8
0
100
AcDbBlockEnd
  0
BLOCK
  5
99F
330
711
100
AcDbEntity
  8
0
100
AcDbBlockBegin
  2
*D5
 70
     1
 10
0.0
 20
0.0
 30
0.0
  3
*D5
  1

  0
LINE
  5
12B9
330
711
100
AcDbEntity
  8
SUNPOU
370
    -2
100
AcDbLine
 10
1464.270417781925
 20
2181.674505922596
 30
0.0
 11
2219.452839299033
 21
2181.674505922596
 31
0.0
  0
LINE
  5
12BA
330
711
100
AcDbEntity
  8
SUNPOU
370
    -2
100
AcDbLine
 10
1701.884549983425
 20
381.6745327446961
 30
0.0
 11
2219.452839299032
 21
381.6745327446959
 31
0.0
  0
LINE
  5
12BB
330
711
100
AcDbEntity
  8
SUNPOU
370
    -2
100
AcDbLine
 10
2199.452839299033
 20
2141.674505922596
 30
0.0
 11
2199.452839299032
 21
421.6745327446958
 31
0.0
  0
SOLID
  5
12BC
330
711
100
AcDbEntity
  8
SUNPOU
100
AcDbTrace
 10
2192.786172632366
 20
2141.674505922596
 30
0.0
 11
2206.119505965699
 21
2141.674505922596
 31
0.0
 12
2199.452839299033
 22
2181.674505922596
 32
0.0
 13
2199.452839299033
 23
2181.674505922596
 33
0.0
  0
SOLID
  5
12BD
330
711
100
AcDbEntity
  8
SUNPOU
100
AcDbTrace
 10
2192.786172632366
 20
421.6745327446958
 30
0.0
 11
2206.119505965699
 21
421.6745327446958
 31
0.0
 12
2199.452839299032
 22
381.6745327446959
 32
0.0
 13
2199.452839299032
 23
381.6745327446959
 33
0.0
  0
MTEXT
  5
12BE
330
711
100
AcDbEntity
  8
SUNPOU
100
AcDbMText
 10
2145.452839299032
 20
1281.674519333646
 30
0.0
 40
60.0
 41
0.0
 71
     5
 72
     1
  1
\A1;900
  7
EXT08
 11
0.0000000000000001
 21
1.0
 31
0.0
 73
     1
 44
1.0
  0
POINT
  5
12BF
330
711
100
AcDbEntity
  8
DEFPOINTS
 62
     0
100
AcDbPoint
 10
1444.270417781925
 20
2181.674505922596
 30
0.0
  0
POINT
  5
12C0
330
711
100
AcDbEntity
  8
DEFPOINTS
 62
     0
100
AcDbPoint
 10
1681.884549983425
 20
381.6745327446961
 30
0.0
  0
POINT
  5
12C1
330
711
100
AcDbEntity
  8
DEFPOINTS
 62
     0
100
AcDbPoint
 10
2199.452839299032
 20
381.6745327446959
 30
0.0
  0
ENDBLK
  5
9A9
330
711
100
AcDbEntity
  8
0
100
AcDbBlockEnd
  0
BLOCK
  5
97E
330
761
100
AcDbEntity
  8
0
100
AcDbBlockBegin
  2
*D6
 70
     1
 10
0.0
 20
0.0
 30
0.0
  3
*D6
  1

  0
LINE
  5
1269
330
761
100
AcDbEntity
  8
SUNPOU
370
    -2
100
AcDbLine
 10
1464.270417781925
 20
2181.674505922596
 30
0.0
 11
2092.153513992998
 21
2181.674505922596
 31
0.0
  0
LINE
  5
126A
330
761
100
AcDbEntity
  8
SUNPOU
370
    -2
100
AcDbLine
 10
1415.588525417524
 20
1381.674505922596
 30
0.0
 11
2092.153513992998
 21
1381.674505922595
 31
0.0
  0
LINE
  5
126B
330
761
100
AcDbEntity
  8
SUNPOU
370
    -2
100
AcDbLine
 10
2072.153513992998
 20
2141.674505922596
 30
0.0
 11
2072.153513992998
 21
1421.674505922595
 31
0.0
  0
SOLID
  5
126C
330
761
100
AcDbEntity
  8
SUNPOU
100
AcDbTrace
 10
2065.486847326332
 20
2141.674505922596
 30
0.0
 11
2078.820180659665
 21
2141.674505922596
 31
0.0
 12
2072.153513992998
 22
2181.674505922596
 32
0.0
 13
2072.153513992998
 23
2181.674505922596
 33
0.0
  0
SOLID
  5
126D
330
761
100
AcDbEntity
  8
SUNPOU
100
AcDbTrace
 10
2065.486847326332
 20
1421.674505922595
 30
0.0
 11
2078.820180659665
 21
1421.674505922595
 31
0.0
 12
2072.153513992998
 22
1381.674505922595
 32
0.0
 13
2072.153513992998
 23
1381.674505922595
 33
0.0
  0
MTEXT
  5
126E
330
761
100
AcDbEntity
  8
SUNPOU
100
AcDbMText
 10
2018.153513992998
 20
1781.674505922596
 30
0.0
 40
60.0
 41
0.0
 71
     5
 72
     1
  1
\A1;400
  7
EXT08
 11
0.0000000000000001
 21
1.0
 31
0.0
 73
     1
 44
1.0
  0
POINT
  5
126F
330
761
100
AcDbEntity
  8
DEFPOINTS
 62
     0
100
AcDbPoint
 10
1444.270417781925
 20
2181.674505922596
 30
0.0
  0
POINT
  5
1270
330
761
100
AcDbEntity
  8
DEFPOINTS
 62
     0
100
AcDbPoint
 10
1395.588525417524
 20
1381.674505922596
 30
0.0
  0
POINT
  5
1271
330
761
100
AcDbEntity
  8
DEFPOINTS
 62
     0
100
AcDbPoint
 10
2072.153513992998
 20
1381.674505922595
 30
0.0
  0
ENDBLK
  5
988
330
761
100
AcDbEntity
  8
0
100
AcDbBlockEnd
  0
BLOCK
  5
9AA
330
76E
100
AcDbEntity
  8
0
100
AcDbBlockBegin
  2
*D7
 70
     1
 10
0.0
 20
0.0
 30
0.0
  3
*D7
  1

  0
LINE
  5
1260
330
76E
100
AcDbEntity
  8
SUNPOU
370
    -2
100
AcDbLine
 10
1415.588525417524
 20
1381.674505922596
 30
0.0
 11
2092.153513992999
 21
1381.674505922595
 31
0.0
  0
LINE
  5
1261
330
76E
100
AcDbEntity
  8
SUNPOU
370
    -2
100
AcDbLine
 10
1701.709531377425
 20
381.6745327446961
 30
0.0
 11
2092.153513992998
 21
381.674532744696
 31
0.0
  0
LINE
  5
1262
330
76E
100
AcDbEntity
  8
SUNPOU
370
    -2
100
AcDbLine
 10
2072.153513992999
 20
1341.674505922596
 30
0.0
 11
2072.153513992998
 21
421.674532744696
 31
0.0
  0
SOLID
  5
1263
330
76E
100
AcDbEntity
  8
SUNPOU
100
AcDbTrace
 10
2065.486847326333
 20
1341.674505922596
 30
0.0
 11
2078.820180659665
 21
1341.674505922596
 31
0.0
 12
2072.153513992999
 22
1381.674505922595
 32
0.0
 13
2072.153513992999
 23
1381.674505922595
 33
0.0
  0
SOLID
  5
1264
330
76E
100
AcDbEntity
  8
SUNPOU
100
AcDbTrace
 10
2065.486847326332
 20
421.674532744696
 30
0.0
 11
2078.820180659665
 21
421.674532744696
 31
0.0
 12
2072.153513992998
 22
381.674532744696
 32
0.0
 13
2072.153513992998
 23
381.674532744696
 33
0.0
  0
MTEXT
  5
1265
330
76E
100
AcDbEntity
  8
SUNPOU
100
AcDbMText
 10
2018.153513992999
 20
881.6745193336462
 30
0.0
 40
60.0
 41
0.0
 71
     5
 72
     1
  1
\A1;500
  7
EXT08
 11
0.0000000000000001
 21
1.0
 31
0.0
 73
     1
 44
1.0
  0
POINT
  5
1266
330
76E
100
AcDbEntity
  8
DEFPOINTS
 62
     0
100
AcDbPoint
 10
1395.588525417524
 20
1381.674505922596
 30
0.0
  0
POINT
  5
1267
330
76E
100
AcDbEntity
  8
DEFPOINTS
 62
     0
100
AcDbPoint
 10
1681.709531377425
 20
381.6745327446961
 30
0.0
  0
POINT
  5
1268
330
76E
100
AcDbEntity
  8
DEFPOINTS
 62
     0
100
AcDbPoint
 10
2072.153513992998
 20
381.674532744696
 30
0.0
  0
ENDBLK
  5
9B4
330
76E
100
AcDbEntity
  8
0
100
AcDbBlockEnd
  0
BLOCK
  5
78E
330
787
100
AcDbEntity
  8
0
100
AcDbBlockBegin
  2
CALCOMP_TECHJET720A3
 70
     0
 10
0.0
 20
0.0
 30
0.0
  3
CALCOMP_TECHJET720A3
  1

  0
LWPOLYLINE
  5
788
330
787
100
AcDbEntity
  8
ZWAKU
100
AcDbPolyline
 90
        4
 70
     1
 43
0.0
 10
0.0
 20
0.0
 10
0.0
 20
267.0
 10
370.0
 20
267.0
 10
370.0
 20
0.0
  0
ENDBLK
  5
78F
330
787
100
AcDbEntity
  8
0
100
AcDbBlockEnd
  0
BLOCK
  5
10C9
330
7C4
100
AcDbEntity
  8
0
100
AcDbBlockBegin
  2
*D9
 70
     1
 10
0.0
 20
0.0
 30
0.0
  3
*D9
  1

  0
LINE
  5
1257
330
7C4
100
AcDbEntity
  8
SUNPOU
370
    -2
100
AcDbLine
 10
1021.857742341501
 20
4677.131804180823
 30
0.0
 11
1021.857742341501
 21
4856.367530721588
 31
0.0
  0
LINE
  5
1258
330
7C4
100
AcDbEntity
  8
SUNPOU
370
    -2
100
AcDbLine
 10
3021.8572547755
 20
4687.944456767607
 30
0.0
 11
3021.8572547755
 21
4856.367530721588
 31
0.0
  0
LINE
  5
1259
330
7C4
100
AcDbEntity
  8
SUNPOU
370
    -2
100
AcDbLine
 10
1061.8577423415
 20
4836.367530721589
 30
0.0
 11
2981.8572547755
 21
4836.367530721589
 31
0.0
  0
SOLID
  5
125A
330
7C4
100
AcDbEntity
  8
SUNPOU
100
AcDbTrace
 10
1061.8577423415
 20
4843.034197388256
 30
0.0
 11
1061.8577423415
 21
4829.700864054922
 31
0.0
 12
1021.857742341501
 22
4836.367530721589
 32
0.0
 13
1021.857742341501
 23
4836.367530721589
 33
0.0
  0
SOLID
  5
125B
330
7C4
100
AcDbEntity
  8
SUNPOU
100
AcDbTrace
 10
2981.8572547755
 20
4843.034197388256
 30
0.0
 11
2981.8572547755
 21
4829.700864054922
 31
0.0
 12
3021.8572547755
 22
4836.367530721589
 32
0.0
 13
3021.8572547755
 23
4836.367530721589
 33
0.0
  0
MTEXT
  5
125C
330
7C4
100
AcDbEntity
  8
SUNPOU
100
AcDbMText
 10
2021.8574985585
 20
4890.367530721589
 30
0.0
 40
60.0
 41
0.0
 71
     5
 72
     1
  1
\A1;2000
  7
EXT08
 73
     1
 44
1.0
  0
POINT
  5
125D
330
7C4
100
AcDbEntity
  8
DEFPOINTS
 62
     0
100
AcDbPoint
 10
1021.857742341501
 20
4657.131804180822
 30
0.0
  0
POINT
  5
125E
330
7C4
100
AcDbEntity
  8
DEFPOINTS
 62
     0
100
AcDbPoint
 10
3021.8572547755
 20
4667.944456767607
 30
0.0
  0
POINT
  5
125F
330
7C4
100
AcDbEntity
  8
DEFPOINTS
 62
     0
100
AcDbPoint
 10
3021.8572547755
 20
4836.367530721589
 30
0.0
  0
ENDBLK
  5
10D3
330
7C4
100
AcDbEntity
  8
0
100
AcDbBlockEnd
  0
BLOCK
  5
10BE
330
7E8
100
AcDbEntity
  8
0
100
AcDbBlockBegin
  2
*D10
 70
     1
 10
0.0
 20
0.0
 30
0.0
  3
*D10
  1

  0
LINE
  5
124E
330
7E8
100
AcDbEntity
  8
SUNPOU
370
    -2
100
AcDbLine
 10
3021.8572547755
 20
4687.944456767607
 30
0.0
 11
3021.8572547755
 21
4856.367530721588
 31
0.0
  0
LINE
  5
124F
330
7E8
100
AcDbEntity
  8
SUNPOU
370
    -2
100
AcDbLine
 10
5021.857224973199
 20
4699.052410508921
 30
0.0
 11
5021.857224973199
 21
4856.367530721588
 31
0.0
  0
LINE
  5
1250
330
7E8
100
AcDbEntity
  8
SUNPOU
370
    -2
100
AcDbLine
 10
3061.8572547755
 20
4836.367530721589
 30
0.0
 11
4981.8572249732
 21
4836.367530721589
 31
0.0
  0
SOLID
  5
1251
330
7E8
100
AcDbEntity
  8
SUNPOU
100
AcDbTrace
 10
3061.8572547755
 20
4843.034197388256
 30
0.0
 11
3061.8572547755
 21
4829.700864054922
 31
0.0
 12
3021.8572547755
 22
4836.367530721589
 32
0.0
 13
3021.8572547755
 23
4836.367530721589
 33
0.0
  0
SOLID
  5
1252
330
7E8
100
AcDbEntity
  8
SUNPOU
100
AcDbTrace
 10
4981.8572249732
 20
4843.034197388256
 30
0.0
 11
4981.8572249732
 21
4829.700864054922
 31
0.0
 12
5021.857224973199
 22
4836.367530721589
 32
0.0
 13
5021.857224973199
 23
4836.367530721589
 33
0.0
  0
MTEXT
  5
1253
330
7E8
100
AcDbEntity
  8
SUNPOU
100
AcDbMText
 10
4021.857239874349
 20
4890.367530721589
 30
0.0
 40
60.0
 41
0.0
 71
     5
 72
     1
  1
\A1;2000
  7
EXT08
 73
     1
 44
1.0
  0
POINT
  5
1254
330
7E8
100
AcDbEntity
  8
DEFPOINTS
 62
     0
100
AcDbPoint
 10
3021.8572547755
 20
4667.944456767607
 30
0.0
  0
POINT
  5
1255
330
7E8
100
AcDbEntity
  8
DEFPOINTS
 62
     0
100
AcDbPoint
 10
5021.857224973199
 20
4679.052410508921
 30
0.0
  0
POINT
  5
1256
330
7E8
100
AcDbEntity
  8
DEFPOINTS
 62
     0
100
AcDbPoint
 10
5021.857224973199
 20
4836.367530721589
 30
0.0
  0
ENDBLK
  5
10C8
330
7E8
100
AcDbEntity
  8
0
100
AcDbBlockEnd
  0
BLOCK
  5
FDE
330
830
100
AcDbEntity
  8
0
100
AcDbBlockBegin
  2
*D11
 70
     1
 10
0.0
 20
0.0
 30
0.0
  3
*D11
  1

  0
LINE
  5
129E
330
830
100
AcDbEntity
  8
SUNPOU
370
    -2
100
AcDbLine
 10
6161.857208581899
 20
4610.391428116794
 30
0.0
 11
6756.144253057046
 21
4610.391428116794
 31
0.0
  0
LINE
  5
129F
330
830
100
AcDbEntity
  8
SUNPOU
370
    -2
100
AcDbLine
 10
6290.4576702348
 20
3116.392059776995
 30
0.0
 11
6756.144253057046
 21
3116.392059776995
 31
0.0
  0
LINE
  5
12A0
330
830
100
AcDbEntity
  8
SUNPOU
370
    -2
100
AcDbLine
 10
6736.144253057045
 20
4570.391428116794
 30
0.0
 11
6736.144253057045
 21
3156.392059776994
 31
0.0
  0
SOLID
  5
12A1
330
830
100
AcDbEntity
  8
SUNPOU
100
AcDbTrace
 10
6729.477586390379
 20
4570.391428116794
 30
0.0
 11
6742.810919723713
 21
4570.391428116794
 31
0.0
 12
6736.144253057045
 22
4610.391428116794
 32
0.0
 13
6736.144253057045
 23
4610.391428116794
 33
0.0
  0
SOLID
  5
12A2
330
830
100
AcDbEntity
  8
SUNPOU
100
AcDbTrace
 10
6729.477586390379
 20
3156.392059776994
 30
0.0
 11
6742.810919723713
 21
3156.392059776994
 31
0.0
 12
6736.144253057045
 22
3116.392059776995
 32
0.0
 13
6736.144253057045
 23
3116.392059776995
 33
0.0
  0
MTEXT
  5
12A3
330
830
100
AcDbEntity
  8
SUNPOU
100
AcDbMText
 10
6682.144253057045
 20
3863.391743946895
 30
0.0
 40
60.0
 41
0.0
 71
     5
 72
     1
  1
\A1;1494
  7
EXT08
 11
0.0000000000000001
 21
1.0
 31
0.0
 73
     1
 44
1.0
  0
POINT
  5
12A4
330
830
100
AcDbEntity
  8
DEFPOINTS
 62
     0
100
AcDbPoint
 10
6141.8572085819
 20
4610.391428116794
 30
0.0
  0
POINT
  5
12A5
330
830
100
AcDbEntity
  8
DEFPOINTS
 62
     0
100
AcDbPoint
 10
6270.4576702348
 20
3116.392059776995
 30
0.0
  0
POINT
  5
12A6
330
830
100
AcDbEntity
  8
DEFPOINTS
 62
     0
100
AcDbPoint
 10
6736.144253057045
 20
3116.392059776995
 30
0.0
  0
ENDBLK
  5
FE8
330
830
100
AcDbEntity
  8
0
100
AcDbBlockEnd
  0
BLOCK
  5
FD3
330
83C
100
AcDbEntity
  8
0
100
AcDbBlockBegin
  2
*D12
 70
     1
 10
0.0
 20
0.0
 30
0.0
  3
*D12
  1

  0
LINE
  5
1295
330
83C
100
AcDbEntity
  8
SUNPOU
370
    -2
100
AcDbLine
 10
6141.857208581899
 20
4610.391655761594
 30
0.0
 11
6623.833152041473
 21
4610.391655761593
 31
0.0
  0
LINE
  5
1296
330
83C
100
AcDbEntity
  8
SUNPOU
370
    -2
100
AcDbLine
 10
6450.4582782021
 20
3516.392053816595
 30
0.0
 11
6623.833152041473
 21
3516.392053816595
 31
0.0
  0
LINE
  5
1297
330
83C
100
AcDbEntity
  8
SUNPOU
370
    -2
100
AcDbLine
 10
6603.833152041473
 20
4570.391655761593
 30
0.0
 11
6603.833152041473
 21
3556.392053816594
 31
0.0
  0
SOLID
  5
1298
330
83C
100
AcDbEntity
  8
SUNPOU
100
AcDbTrace
 10
6597.166485374806
 20
4570.391655761593
 30
0.0
 11
6610.499818708141
 21
4570.391655761593
 31
0.0
 12
6603.833152041473
 22
4610.391655761593
 32
0.0
 13
6603.833152041473
 23
4610.391655761593
 33
0.0
  0
SOLID
  5
1299
330
83C
100
AcDbEntity
  8
SUNPOU
100
AcDbTrace
 10
6597.166485374806
 20
3556.392053816594
 30
0.0
 11
6610.499818708141
 21
3556.392053816594
 31
0.0
 12
6603.833152041473
 22
3516.392053816595
 32
0.0
 13
6603.833152041473
 23
3516.392053816595
 33
0.0
  0
MTEXT
  5
129A
330
83C
100
AcDbEntity
  8
SUNPOU
100
AcDbMText
 10
6549.833152041472
 20
4063.391854789094
 30
0.0
 40
60.0
 41
0.0
 71
     5
 72
     1
  1
\A1;1094
  7
EXT08
 11
0.0000000000000001
 21
1.0
 31
0.0
 73
     1
 44
1.0
  0
POINT
  5
129B
330
83C
100
AcDbEntity
  8
DEFPOINTS
 62
     0
100
AcDbPoint
 10
6121.857208581899
 20
4610.391655761594
 30
0.0
  0
POINT
  5
129C
330
83C
100
AcDbEntity
  8
DEFPOINTS
 62
     0
100
AcDbPoint
 10
6430.4582782021
 20
3516.392053816595
 30
0.0
  0
POINT
  5
129D
330
83C
100
AcDbEntity
  8
DEFPOINTS
 62
     0
100
AcDbPoint
 10
6603.833152041473
 20
3516.392053816595
 30
0.0
  0
ENDBLK
  5
FDD
330
83C
100
AcDbEntity
  8
0
100
AcDbBlockEnd
  0
BLOCK
  5
854
330
853
100
AcDbEntity
  8
0
100
AcDbBlockBegin
  2
*D13
 70
     1
 10
0.0
 20
0.0
 30
0.0
  3
*D13
  1

  0
LINE
  5
128C
330
853
100
AcDbEntity
  8
SUNPOU
370
    -2
100
AcDbLine
 10
6470.458278202099
 20
3516.392053816595
 30
0.0
 11
6623.833152041473
 21
3516.392053816595
 31
0.0
  0
LINE
  5
128D
330
853
100
AcDbEntity
  8
SUNPOU
370
    -2
100
AcDbLine
 10
6290.4576702348
 20
3116.392059776995
 30
0.0
 11
6623.833152041473
 21
3116.392059776995
 31
0.0
  0
LINE
  5
128E
330
853
100
AcDbEntity
  8
SUNPOU
370
    -2
100
AcDbLine
 10
6603.833152041473
 20
3476.392053816595
 30
0.0
 11
6603.833152041473
 21
3156.392059776994
 31
0.0
  0
SOLID
  5
128F
330
853
100
AcDbEntity
  8
SUNPOU
100
AcDbTrace
 10
6597.166485374806
 20
3476.392053816595
 30
0.0
 11
6610.499818708141
 21
3476.392053816595
 31
0.0
 12
6603.833152041473
 22
3516.392053816595
 32
0.0
 13
6603.833152041473
 23
3516.392053816595
 33
0.0
  0
SOLID
  5
1290
330
853
100
AcDbEntity
  8
SUNPOU
100
AcDbTrace
 10
6597.166485374806
 20
3156.392059776994
 30
0.0
 11
6610.499818708141
 21
3156.392059776994
 31
0.0
 12
6603.833152041473
 22
3116.392059776995
 32
0.0
 13
6603.833152041473
 23
3116.392059776995
 33
0.0
  0
MTEXT
  5
1291
330
853
100
AcDbEntity
  8
SUNPOU
100
AcDbMText
 10
6549.833152041472
 20
3316.392056796796
 30
0.0
 40
60.0
 41
0.0
 71
     5
 72
     1
  1
\A1;400
  7
EXT08
 11
0.0000000000000001
 21
1.0
 31
0.0
 73
     1
 44
1.0
  0
POINT
  5
1292
330
853
100
AcDbEntity
  8
DEFPOINTS
 62
     0
100
AcDbPoint
 10
6450.4582782021
 20
3516.392053816595
 30
0.0
  0
POINT
  5
1293
330
853
100
AcDbEntity
  8
DEFPOINTS
 62
     0
100
AcDbPoint
 10
6270.4576702348
 20
3116.392059776995
 30
0.0
  0
POINT
  5
1294
330
853
100
AcDbEntity
  8
DEFPOINTS
 62
     0
100
AcDbPoint
 10
6603.833152041473
 20
3116.392059776995
 30
0.0
  0
ENDBLK
  5
85E
330
853
100
AcDbEntity
  8
0
100
AcDbBlockEnd
  0
BLOCK
  5
1166
330
899
100
AcDbEntity
  8
0
100
AcDbBlockBegin
  2
*D14
 70
     1
 10
0.0
 20
0.0
 30
0.0
  3
*D14
  1

  0
LINE
  5
12CD
330
899
100
AcDbEntity
  8
SUNPOU
370
    -2
100
AcDbLine
 10
6077.3570871747
 20
4644.643747538395
 30
0.0
 11
6077.3570871747
 21
4854.790502603533
 31
0.0
  0
LINE
  5
12CE
330
899
100
AcDbEntity
  8
SUNPOU
370
    -2
100
AcDbLine
 10
6166.3573299891
 20
4644.643747538395
 30
0.0
 11
6166.3573299891
 21
4854.790502603533
 31
0.0
  0
LINE
  5
12CF
330
899
100
AcDbEntity
  8
SUNPOU
370
    -2
100
AcDbLine
 10
6037.3570871747
 20
4834.790502603533
 30
0.0
 11
5997.3570871747
 21
4834.790502603533
 31
0.0
  0
LINE
  5
12D0
330
899
100
AcDbEntity
  8
SUNPOU
370
    -2
100
AcDbLine
 10
6206.3573299891
 20
4834.790502603533
 30
0.0
 11
6246.3573299891
 21
4834.790502603533
 31
0.0
  0
MTEXT
  5
12D1
330
899
100
AcDbEntity
  8
SUNPOU
100
AcDbMText
 10
6108.950901600747
 20
4897.657301962852
 30
0.0
 40
60.0
 41
0.0
 71
     5
 72
     1
  1
\A1;φ90
  7
EXT08
 73
     1
 44
1.0
  0
LINE
  5
12D2
330
899
100
AcDbEntity
  8
SUNPOU
370
    -2
100
AcDbLine
 10
6077.3570871747
 20
4834.790502603533
 30
0.0
 11
6166.3573299891
 21
4834.790502603533
 31
0.0
  0
SOLID
  5
12D3
330
899
100
AcDbEntity
  8
SUNPOU
100
AcDbTrace
 10
6037.3570871747
 20
4841.4571692702
 30
0.0
 11
6037.3570871747
 21
4828.123835936867
 31
0.0
 12
6077.3570871747
 22
4834.790502603533
 32
0.0
 13
6077.3570871747
 23
4834.790502603533
 33
0.0
  0
SOLID
  5
12D4
330
899
100
AcDbEntity
  8
SUNPOU
100
AcDbTrace
 10
6206.3573299891
 20
4841.4571692702
 30
0.0
 11
6206.3573299891
 21
4828.123835936867
 31
0.0
 12
6166.3573299891
 22
4834.790502603533
 32
0.0
 13
6166.3573299891
 23
4834.790502603533
 33
0.0
  0
POINT
  5
12D5
330
899
100
AcDbEntity
  8
DEFPOINTS
 62
     0
100
AcDbPoint
 10
6077.3570871747
 20
4624.643747538395
 30
0.0
  0
POINT
  5
12D6
330
899
100
AcDbEntity
  8
DEFPOINTS
 62
     0
100
AcDbPoint
 10
6166.3573299891
 20
4624.643747538395
 30
0.0
  0
POINT
  5
12D7
330
899
100
AcDbEntity
  8
DEFPOINTS
 62
     0
100
AcDbPoint
 10
6166.3573299891
 20
4834.790502603533
 30
0.0
  0
ENDBLK
  5
1172
330
899
100
AcDbEntity
  8
0
100
AcDbBlockEnd
  0
BLOCK
  5
115B
330
953
100
AcDbEntity
  8
0
100
AcDbBlockBegin
  2
*D15
 70
     1
 10
0.0
 20
0.0
 30
0.0
  3
*D15
  1

  0
LINE
  5
12C2
330
953
100
AcDbEntity
  8
SUNPOU
370
    -2
100
AcDbLine
 10
1233.488102509625
 20
2626.356142432096
 30
0.0
 11
1233.488102509625
 21
2763.980041450596
 31
0.0
  0
LINE
  5
12C3
330
953
100
AcDbEntity
  8
SUNPOU
370
    -2
100
AcDbLine
 10
1411.487977786924
 20
2626.356142432096
 30
0.0
 11
1411.487977786924
 21
2763.980041450596
 31
0.0
  0
LINE
  5
12C4
330
953
100
AcDbEntity
  8
SUNPOU
370
    -2
100
AcDbLine
 10
1193.488102509625
 20
2743.980041450596
 30
0.0
 11
1153.488102509625
 21
2743.980041450596
 31
0.0
  0
LINE
  5
12C5
330
953
100
AcDbEntity
  8
SUNPOU
370
    -2
100
AcDbLine
 10
1451.487977786924
 20
2743.980041450596
 30
0.0
 11
1491.487977786924
 21
2743.980041450596
 31
0.0
  0
MTEXT
  5
12C6
330
953
100
AcDbEntity
  8
SUNPOU
100
AcDbMText
 10
1315.683464227583
 20
2792.793184768286
 30
0.0
 40
60.0
 41
0.0
 71
     5
 72
     1
  1
\A1;φ90
  7
EXT08
 73
     1
 44
1.0
  0
LINE
  5
12C7
330
953
100
AcDbEntity
  8
SUNPOU
370
    -2
100
AcDbLine
 10
1233.488102509625
 20
2743.980041450596
 30
0.0
 11
1411.487977786924
 21
2743.980041450596
 31
0.0
  0
SOLID
  5
12C8
330
953
100
AcDbEntity
  8
SUNPOU
100
AcDbTrace
 10
1193.488102509625
 20
2750.646708117263
 30
0.0
 11
1193.488102509625
 21
2737.31337478393
 31
0.0
 12
1233.488102509625
 22
2743.980041450596
 32
0.0
 13
1233.488102509625
 23
2743.980041450596
 33
0.0
  0
SOLID
  5
12C9
330
953
100
AcDbEntity
  8
SUNPOU
100
AcDbTrace
 10
1451.487977786924
 20
2750.646708117263
 30
0.0
 11
1451.487977786924
 21
2737.31337478393
 31
0.0
 12
1411.487977786924
 22
2743.980041450596
 32
0.0
 13
1411.487977786924
 23
2743.980041450596
 33
0.0
  0
POINT
  5
12CA
330
953
100
AcDbEntity
  8
DEFPOINTS
 62
     0
100
AcDbPoint
 10
1233.488102509625
 20
2606.356142432096
 30
0.0
  0
POINT
  5
12CB
330
953
100
AcDbEntity
  8
DEFPOINTS
 62
     0
100
AcDbPoint
 10
1411.487977786924
 20
2606.356142432096
 30
0.0
  0
POINT
  5
12CC
330
953
100
AcDbEntity
  8
DEFPOINTS
 62
     0
100
AcDbPoint
 10
1411.487977786924
 20
2743.980041450596
 30
0.0
  0
ENDBLK
  5
1165
330
953
100
AcDbEntity
  8
0
100
AcDbBlockEnd
  0
BLOCK
  5
F9A
330
F8D
100
AcDbEntity
  8
0
100
AcDbBlockBegin
  2
*D16
 70
     1
 10
0.0
 20
0.0
 30
0.0
  3
*D16
  1

  0
LINE
  5
1245
330
F8D
100
AcDbEntity
  8
SUNPOU
370
    -2
100
AcDbLine
 10
1520.270478578724
 20
2301.574833733196
 30
0.0
 11
2358.655107732633
 21
2301.574833733196
 31
0.0
  0
LINE
  5
1246
330
F8D
100
AcDbEntity
  8
SUNPOU
370
    -2
100
AcDbLine
 10
1362.488345323925
 20
2569.57437140879
 30
0.0
 11
2358.655107732633
 21
2569.57437140879
 31
0.0
  0
LINE
  5
1247
330
F8D
100
AcDbEntity
  8
SUNPOU
370
    -2
100
AcDbLine
 10
2338.655107732633
 20
2341.574833733196
 30
0.0
 11
2338.655107732633
 21
2529.57437140879
 31
0.0
  0
SOLID
  5
1248
330
F8D
100
AcDbEntity
  8
SUNPOU
100
AcDbTrace
 10
2331.988441065966
 20
2341.574833733196
 30
0.0
 11
2345.3217743993
 21
2341.574833733196
 31
0.0
 12
2338.655107732633
 22
2301.574833733196
 32
0.0
 13
2338.655107732633
 23
2301.574833733196
 33
0.0
  0
SOLID
  5
1249
330
F8D
100
AcDbEntity
  8
SUNPOU
100
AcDbTrace
 10
2331.988441065966
 20
2529.57437140879
 30
0.0
 11
2345.3217743993
 21
2529.57437140879
 31
0.0
 12
2338.655107732633
 22
2569.57437140879
 32
0.0
 13
2338.655107732633
 23
2569.57437140879
 33
0.0
  0
MTEXT
  5
124A
330
F8D
100
AcDbEntity
  8
SUNPOU
100
AcDbMText
 10
2284.655107732632
 20
2435.574602570993
 30
0.0
 40
60.0
 41
0.0
 71
     5
 72
     1
  1
\A1;134
  7
EXT08
 11
0.0000000000000001
 21
1.0
 31
0.0
 73
     1
 44
1.0
  0
POINT
  5
124B
330
F8D
100
AcDbEntity
  8
DEFPOINTS
 62
     0
100
AcDbPoint
 10
1500.270478578724
 20
2301.574833733196
 30
0.0
  0
POINT
  5
124C
330
F8D
100
AcDbEntity
  8
DEFPOINTS
 62
     0
100
AcDbPoint
 10
1342.488345323925
 20
2569.57437140879
 30
0.0
  0
POINT
  5
124D
330
F8D
100
AcDbEntity
  8
DEFPOINTS
 62
     0
100
AcDbPoint
 10
2338.655107732633
 20
2569.57437140879
 30
0.0
  0
ENDBLK
  5
FA4
330
F8D
100
AcDbEntity
  8
0
100
AcDbBlockEnd
  0
BLOCK
  5
1001
330
FF4
100
AcDbEntity
  8
0
100
AcDbBlockBegin
  2
*D17
 70
     1
 10
0.0
 20
0.0
 30
0.0
  3
*D17
  1

  0
LINE
  5
123C
330
FF4
100
AcDbEntity
  8
SUNPOU
370
    -2
100
AcDbLine
 10
6228.520198014459
 20
4416.391430053994
 30
0.0
 11
6484.788111675
 21
4416.391430053994
 31
0.0
  0
LINE
  5
123D
330
FF4
100
AcDbEntity
  8
SUNPOU
370
    -2
100
AcDbLine
 10
6141.8572085819
 20
4610.391655761594
 30
0.0
 11
6484.788111675
 21
4610.391655761593
 31
0.0
  0
LINE
  5
123E
330
FF4
100
AcDbEntity
  8
SUNPOU
370
    -2
100
AcDbLine
 10
6464.788111675
 20
4456.391430053995
 30
0.0
 11
6464.788111675
 21
4570.391655761593
 31
0.0
  0
MTEXT
  5
123F
330
FF4
100
AcDbEntity
  8
SUNPOU
100
AcDbMText
 10
6404.287355419707
 20
4504.993522166825
 30
0.0
 40
60.0
 41
0.0
 71
     5
 72
     1
  1
\A1;194
  7
EXT08
 11
0.0000000000000001
 21
1.0
 31
0.0
 73
     1
 44
1.0
  0
SOLID
  5
1240
330
FF4
100
AcDbEntity
  8
SUNPOU
100
AcDbTrace
 10
6458.121445008334
 20
4456.391430053995
 30
0.0
 11
6471.454778341668
 21
4456.391430053995
 31
0.0
 12
6464.788111675
 22
4416.391430053994
 32
0.0
 13
6464.788111675
 23
4416.391430053994
 33
0.0
  0
SOLID
  5
1241
330
FF4
100
AcDbEntity
  8
SUNPOU
100
AcDbTrace
 10
6458.121445008334
 20
4570.391655761593
 30
0.0
 11
6471.454778341668
 21
4570.391655761593
 31
0.0
 12
6464.788111675
 22
4610.391655761593
 32
0.0
 13
6464.788111675
 23
4610.391655761593
 33
0.0
  0
POINT
  5
1242
330
FF4
100
AcDbEntity
  8
DEFPOINTS
 62
     0
100
AcDbPoint
 10
6208.520198014459
 20
4416.391430053994
 30
0.0
  0
POINT
  5
1243
330
FF4
100
AcDbEntity
  8
DEFPOINTS
 62
     0
100
AcDbPoint
 10
6121.8572085819
 20
4610.391655761594
 30
0.0
  0
POINT
  5
1244
330
FF4
100
AcDbEntity
  8
DEFPOINTS
 62
     0
100
AcDbPoint
 10
6464.788111675
 20
4610.391655761593
 30
0.0
  0
ENDBLK
  5
100B
330
FF4
100
AcDbEntity
  8
0
100
AcDbBlockEnd
  0
BLOCK
  5
10EE
330
10ED
100
AcDbEntity
  8
0
100
AcDbBlockBegin
  2
*X18
 70
     1
 10
0.0
 20
0.0
 30
0.0
  3
*X18
  1

  0
LINE
  5
10F0
330
10ED
100
AcDbEntity
  8
0
 62
     0
100
AcDbLine
 10
5971.857208581901
 20
3320.206779132347
 30
0.0
 11
6077.3070383473
 21
3425.656608897747
 31
0.0
  0
LINE
  5
10F1
330
10ED
100
AcDbEntity
  8
0
 62
     0
100
AcDbLine
 10
6166.407378816501
 20
3514.756949366948
 30
0.0
 11
6268.017303190806
 21
3616.366873741253
 31
0.0
  0
LINE
  5
10F2
330
10ED
100
AcDbEntity
  8
0
 62
     0
100
AcDbLine
 10
5971.857208581901
 20
3496.983474428984
 30
0.0
 11
6077.3070383473
 21
3602.433304194385
 31
0.0
  0
LINE
  5
10F3
330
10ED
100
AcDbEntity
  8
0
 62
     0
100
AcDbLine
 10
6044.794004447844
 20
3216.366879701654
 30
0.0
 11
6077.3070383473
 21
3248.879913601111
 31
0.0
  0
LINE
  5
10F4
330
10ED
100
AcDbEntity
  8
0
 62
     0
100
AcDbLine
 10
6166.407378816501
 20
3337.980254070311
 30
0.0
 11
6271.857208581899
 21
3443.430083835709
 31
0.0
  0
LINE
  5
10F5
330
10ED
100
AcDbEntity
  8
0
 62
     0
100
AcDbLine
 10
6221.57069974448
 20
3216.366879701654
 30
0.0
 11
6271.857208581899
 21
3266.653388539072
 31
0.0
  0
LINE
  5
10F6
330
10ED
100
AcDbEntity
  8
0
 62
     0
100
AcDbLine
 10
5971.857208581901
 20
3342.303866044427
 30
0.0
 11
6077.3070383473
 21
3447.753695809827
 31
0.0
  0
LINE
  5
10F7
330
10ED
100
AcDbEntity
  8
0
 62
     0
100
AcDbLine
 10
6166.407378816501
 20
3536.854036279028
 30
0.0
 11
6245.920216278726
 21
3616.366873741253
 31
0.0
  0
LINE
  5
10F8
330
10ED
100
AcDbEntity
  8
0
 62
     0
100
AcDbLine
 10
5971.857208581901
 20
3519.080561341064
 30
0.0
 11
6069.143520982089
 21
3616.366873741254
 31
0.0
  0
LINE
  5
10F9
330
10ED
100
AcDbEntity
  8
0
 62
     0
100
AcDbLine
 10
6022.696917535764
 20
3216.366879701654
 30
0.0
 11
6077.3070383473
 21
3270.977000513191
 31
0.0
  0
LINE
  5
10FA
330
10ED
100
AcDbEntity
  8
0
 62
     0
100
AcDbLine
 10
6166.407378816501
 20
3360.077340982391
 30
0.0
 11
6271.857208581899
 21
3465.527170747789
 31
0.0
  0
LINE
  5
10FB
330
10ED
100
AcDbEntity
  8
0
 62
     0
100
AcDbLine
 10
6199.473612832401
 20
3216.366879701654
 30
0.0
 11
6271.857208581899
 21
3288.750475451152
 31
0.0
  0
LINE
  5
10FC
330
10ED
100
AcDbEntity
  8
0
 62
     0
100
AcDbLine
 10
5971.857208581901
 20
3364.400952956507
 30
0.0
 11
6077.3070383473
 21
3469.850782721907
 31
0.0
  0
LINE
  5
10FD
330
10ED
100
AcDbEntity
  8
0
 62
     0
100
AcDbLine
 10
6166.407378816501
 20
3558.951123191107
 30
0.0
 11
6223.823129366646
 21
3616.366873741253
 31
0.0
  0
LINE
  5
10FE
330
10ED
100
AcDbEntity
  8
0
 62
     0
100
AcDbLine
 10
5971.857208581901
 20
3541.177648253143
 30
0.0
 11
6047.046434070009
 21
3616.366873741253
 31
0.0
  0
LINE
  5
10FF
330
10ED
100
AcDbEntity
  8
0
 62
     0
100
AcDbLine
 10
6000.599830623684
 20
3216.366879701654
 30
0.0
 11
6077.3070383473
 21
3293.07408742527
 31
0.0
  0
LINE
  5
1100
330
10ED
100
AcDbEntity
  8
0
 62
     0
100
AcDbLine
 10
6166.407378816501
 20
3382.174427894471
 30
0.0
 11
6271.857208581899
 21
3487.624257659869
 31
0.0
  0
LINE
  5
1101
330
10ED
100
AcDbEntity
  8
0
 62
     0
100
AcDbLine
 10
6177.376525920321
 20
3216.366879701654
 30
0.0
 11
6271.857208581899
 21
3310.847562363232
 31
0.0
  0
ENDBLK
  5
1102
330
10ED
100
AcDbEntity
  8
0
100
AcDbBlockEnd
  0
ENDSEC
  0
SECTION
  2
ENTITIES
  0
LINE
  5
106
330
18
100
AcDbEntity
  8
SJC2
100
AcDbLine
 10
1477.416016355225
 20
2176.704413223196
 30
0.0
 11
1543.098998774925
 21
2159.104926180797
 31
0.0
  0
LINE
  5
107
330
18
100
AcDbEntity
  8
SJC2
100
AcDbLine
 10
1474.310089887825
 20
2165.113226872496
 30
0.0
 11
1539.993072307525
 21
2147.513739829996
 31
0.0
  0
ARC
  5
108
330
18
100
AcDbEntity
  8
SJC2
100
AcDbCircle
 10
1541.546035541225
 20
2153.309333005396
 30
0.0
 40
6.000049588099999
100
AcDbArc
 50
254.9996428282
 51
74.99964282819999
  0
ARC
  5
109
330
18
100
AcDbEntity
  8
SJC2
100
AcDbCircle
 10
1475.863053121525
 20
2170.908820047796
 30
0.0
 40
6.000049588099999
100
AcDbArc
 50
74.99964282819999
 51
254.9996428282
  0
LINE
  5
10A
330
18
100
AcDbEntity
  8
SJC2
100
AcDbLine
 10
1648.177122209125
 20
2118.525703152596
 30
0.0
 11
1582.494139789525
 21
2136.125495370796
 31
0.0
  0
ARC
  5
10B
330
18
100
AcDbEntity
  8
SJC2
100
AcDbCircle
 10
1584.047026729225
 20
2141.921088546196
 30
0.0
 40
6.000029841799999
100
AcDbArc
 50
75.0003465521
 51
255.0003465521
  0
LINE
  5
10C
330
18
100
AcDbEntity
  8
SJC2
100
AcDbLine
 10
1651.282896088625
 20
2130.116889503296
 30
0.0
 11
1585.599913669025
 21
2147.716681721596
 31
0.0
  0
ARC
  5
10D
330
18
100
AcDbEntity
  8
SJC2
100
AcDbCircle
 10
1649.730009148925
 20
2124.321296327996
 30
0.0
 40
6.000029841799999
100
AcDbArc
 50
255.0003465521
 51
75.0003465521
  0
ARC
  5
10E
330
18
100
AcDbEntity
  8
SJC2
100
AcDbCircle
 10
1649.729913738125
 20
2124.321598247196
 30
0.0
 40
19.999999702
100
AcDbArc
 50
182.458301545
 51
255.0002512406
  0
ARC
  5
10F
330
18
100
AcDbEntity
  8
SJC2
100
AcDbCircle
 10
1688.367140088325
 20
2113.968777158996
 30
0.0
 40
19.999999702
100
AcDbArc
 50
254.999830194
 51
327.5420788841
  0
LINE
  5
110
330
18
100
AcDbEntity
  8
SJC2
100
AcDbLine
 10
1683.190702009725
 20
2094.650276262296
 30
0.0
 11
1644.553617624525
 21
2105.003059311196
 31
0.0
  0
ARC
  5
111
330
18
100
AcDbEntity
  8
SJC2
100
AcDbCircle
 10
1649.729729939225
 20
2124.321750469896
 30
0.0
 40
8.0
100
AcDbArc
 50
213.5938611266
 51
255.0027175409
  0
LINE
  5
112
330
18
100
AcDbEntity
  8
SJC2
100
AcDbLine
 10
1686.296475889225
 20
2106.241462612996
 30
0.0
 11
1647.659544091824
 21
2116.594245661896
 31
0.0
  0
ARC
  5
113
330
18
100
AcDbEntity
  8
SJC2
100
AcDbCircle
 10
1688.367244104525
 20
2113.968811382096
 30
0.0
 40
8.0
100
AcDbArc
 50
254.9983995149
 51
296.4077159651
  0
LINE
  5
114
330
18
100
AcDbEntity
  8
SJC2
100
AcDbLine
 10
1690.437558591124
 20
2121.695869120996
 30
0.0
 11
1651.800474205925
 21
2132.048652169896
 31
0.0
  0
ARC
  5
115
330
18
100
AcDbEntity
  8
SJC2
100
AcDbCircle
 10
1649.729805096225
 20
2124.321276843296
 30
0.0
 40
8.0
100
AcDbArc
 50
74.99913434959999
 51
116.4072883014
  0
ARC
  5
116
330
18
100
AcDbEntity
  8
SJC2
100
AcDbCircle
 10
1688.367187123525
 20
2113.968414042796
 30
0.0
 40
8.0
100
AcDbArc
 50
33.5934335507
 51
75.00134124989999
  0
ARC
  5
117
330
18
100
AcDbEntity
  8
SJC2
100
AcDbCircle
 10
1688.367188944925
 20
2113.968516535696
 30
0.0
 40
19.999999702
100
AcDbArc
 50
2.458301544999999
 51
75.00025124060001
  0
LINE
  5
118
330
18
100
AcDbEntity
  8
SJC2
100
AcDbLine
 10
1693.543485058525
 20
2133.287055471696
 30
0.0
 11
1654.906400673325
 21
2143.639838520596
 31
0.0
  0
ARC
  5
119
330
18
100
AcDbEntity
  8
SJC2
100
AcDbCircle
 10
1649.729962594625
 20
2124.321337623896
 30
0.0
 40
19.999999702
100
AcDbArc
 50
74.999830194
 51
147.5420788841
  0
LINE
  5
11A
330
18
100
AcDbEntity
  8
SJC2
100
AcDbLine
 10
1756.361019522925
 20
2089.537971650996
 30
0.0
 11
1690.678037103225
 21
2107.137763869196
 31
0.0
  0
ARC
  5
11B
330
18
100
AcDbEntity
  8
SJC2
100
AcDbCircle
 10
1757.913982756525
 20
2095.333564826296
 30
0.0
 40
6.000049588099999
100
AcDbArc
 50
254.9996428282
 51
74.99964282819999
  0
ARC
  5
11C
330
18
100
AcDbEntity
  8
SJC2
100
AcDbCircle
 10
1757.913976891525
 20
2095.333558018996
 30
0.0
 40
19.999999702
100
AcDbArc
 50
182.4574162943
 51
255.0002119378
  0
ARC
  5
11D
330
18
100
AcDbEntity
  8
SJC2
100
AcDbCircle
 10
1796.551037402125
 20
2084.980740481596
 30
0.0
 40
19.999999702
100
AcDbArc
 50
254.999830194
 51
327.5420788841
  0
LINE
  5
11E
330
18
100
AcDbEntity
  8
SJC2
100
AcDbLine
 10
1791.374599323425
 20
2065.662239584896
 30
0.0
 11
1752.737667526124
 21
2076.015022633696
 31
0.0
  0
ARC
  5
11F
330
18
100
AcDbEntity
  8
SJC2
100
AcDbCircle
 10
1757.914059451024
 20
2095.333597994296
 30
0.0
 40
8.0
100
AcDbArc
 50
213.590241666
 51
254.9995129732
  0
LINE
  5
120
330
18
100
AcDbEntity
  8
SJC2
100
AcDbLine
 10
1794.480525790824
 20
2077.253425935596
 30
0.0
 11
1755.843441405624
 21
2087.606208984496
 31
0.0
  0
ARC
  5
121
330
18
100
AcDbEntity
  8
SJC2
100
AcDbCircle
 10
1796.550795735425
 20
2084.980908213596
 30
0.0
 40
8.0
100
AcDbArc
 50
255.0020939981
 51
296.4104802091
  0
LINE
  5
122
330
18
100
AcDbEntity
  8
SJC2
100
AcDbLine
 10
1759.466945990225
 20
2101.129158001696
 30
0.0
 11
1693.783963570625
 21
2118.728950219896
 31
0.0
  0
ARC
  5
123
330
18
100
AcDbEntity
  8
SJC2
100
AcDbCircle
 10
1757.913755892225
 20
2095.333571899196
 30
0.0
 40
8.0
100
AcDbArc
 50
74.9983995149
 51
116.4077159651
  0
ARC
  5
124
330
18
100
AcDbEntity
  8
SJC2
100
AcDbCircle
 10
1757.913859908425
 20
2095.333606122196
 30
0.0
 40
19.999999702
100
AcDbArc
 50
74.999830194
 51
147.5420788841
  0
LINE
  5
125
330
18
100
AcDbEntity
  8
SJC2
100
AcDbLine
 10
1798.621455904825
 20
2092.708137619396
 30
0.0
 11
1759.984524107525
 21
2103.060920668196
 31
0.0
  0
ARC
  5
126
330
18
100
AcDbEntity
  8
SJC2
100
AcDbCircle
 10
1796.551086258625
 20
2084.980785034096
 30
0.0
 40
19.999999702
100
AcDbArc
 50
2.458301544999999
 51
75.00025124060001
  0
LINE
  5
127
330
18
100
AcDbEntity
  8
SJC2
100
AcDbLine
 10
1801.727382372224
 20
2104.299323970096
 30
0.0
 11
1763.090297987025
 21
2114.652107018896
 31
0.0
  0
ARC
  5
128
330
18
100
AcDbEntity
  8
SJC2
100
AcDbCircle
 10
1796.551270057524
 20
2084.980632811396
 30
0.0
 40
8.0
100
AcDbArc
 50
33.5938611266
 51
75.0027175409
  0
ARC
  5
129
330
18
100
AcDbEntity
  8
SJC2
100
AcDbCircle
 10
1692.231000336924
 20
2112.933357044596
 30
0.0
 40
6.000049588099999
100
AcDbArc
 50
74.99964282819999
 51
254.9996428282
  0
ARC
  5
12A
330
18
100
AcDbEntity
  8
SJC2
100
AcDbCircle
 10
1800.414973944524
 20
2083.945625542896
 30
0.0
 40
6.000029841799999
100
AcDbArc
 50
75.0003465521
 51
255.0003465521
  0
LINE
  5
12B
330
18
100
AcDbEntity
  8
SJC2
100
AcDbLine
 10
1864.545069424525
 20
2060.550240149296
 30
0.0
 11
1798.862087004825
 21
2078.150032367496
 31
0.0
  0
LINE
  5
12C
330
18
100
AcDbEntity
  8
SJC2
100
AcDbLine
 10
1867.650843304025
 20
2072.141426500096
 30
0.0
 11
1801.967860884325
 21
2089.741218718296
 31
0.0
  0
ARC
  5
12D
330
18
100
AcDbEntity
  8
SJC2
100
AcDbCircle
 10
1474.276414518825
 20
2170.971644961996
 30
0.0
 40
19.999999702
100
AcDbArc
 50
254.999830194
 51
327.5420788841
  0
ARC
  5
12E
330
18
100
AcDbEntity
  8
SJC2
100
AcDbCircle
 10
1474.276518534925
 20
2170.971679184996
 30
0.0
 40
8.0
100
AcDbArc
 50
254.9983995149
 51
296.4077159651
  0
ARC
  5
12F
330
18
100
AcDbEntity
  8
SJC2
100
AcDbCircle
 10
1474.276400596725
 20
2170.971603353696
 30
0.0
 40
8.0
100
AcDbArc
 50
33.5906692812
 51
75.0008892779
  0
ARC
  5
130
330
18
100
AcDbEntity
  8
SJC2
100
AcDbCircle
 10
1474.276450123525
 20
2170.971693065196
 30
0.0
 40
19.999999702
100
AcDbArc
 50
2.4574162943
 51
75.0002119378
  0
ARC
  5
131
330
18
100
AcDbEntity
  8
SJC2
100
AcDbCircle
 10
1543.823238070125
 20
2152.336734548496
 30
0.0
 40
19.999999702
100
AcDbArc
 50
182.458301545
 51
255.0002512406
  0
LINE
  5
132
330
18
100
AcDbEntity
  8
SJC2
100
AcDbLine
 10
1577.283873753825
 20
2122.665412563596
 30
0.0
 11
1538.646941956525
 21
2133.018195612496
 31
0.0
  0
LINE
  5
133
330
18
100
AcDbEntity
  8
SJC2
100
AcDbLine
 10
1580.389800221224
 20
2134.256598914296
 30
0.0
 11
1541.752715836024
 21
2144.609381963196
 31
0.0
  0
ARC
  5
134
330
18
100
AcDbEntity
  8
SJC2
100
AcDbCircle
 10
1543.823087303624
 20
2152.336837041396
 30
0.0
 40
8.0
100
AcDbArc
 50
213.5934335507
 51
255.0013412499
  0
LINE
  5
135
330
18
100
AcDbEntity
  8
SJC2
100
AcDbLine
 10
1584.530882923225
 20
2149.711310598096
 30
0.0
 11
1545.893798538025
 21
2160.064093646896
 31
0.0
  0
ARC
  5
136
330
18
100
AcDbEntity
  8
SJC2
100
AcDbCircle
 10
1543.823030322625
 20
2152.336744877896
 30
0.0
 40
8.0
100
AcDbArc
 50
74.9983995149
 51
116.4077159651
  0
ARC
  5
137
330
18
100
AcDbEntity
  8
SJC2
100
AcDbCircle
 10
1543.823134338825
 20
2152.336779100896
 30
0.0
 40
19.999999702
100
AcDbArc
 50
74.999830194
 51
147.5420788841
  0
LINE
  5
138
330
18
100
AcDbEntity
  8
SJC2
100
AcDbLine
 10
1587.636656802725
 20
2161.302496948796
 30
0.0
 11
1548.999572417525
 21
2171.655279997696
 31
0.0
  0
ARC
  5
139
330
18
100
AcDbEntity
  8
SJC2
100
AcDbCircle
 10
1582.460347437225
 20
2141.983961563496
 30
0.0
 40
19.999999702
100
AcDbArc
 50
2.4574162943
 51
75.0002119378
  0
ARC
  5
13A
330
18
100
AcDbEntity
  8
SJC2
100
AcDbCircle
 10
1582.460264877725
 20
2141.983921588196
 30
0.0
 40
8.0
100
AcDbArc
 50
33.590241666
 51
74.99951297319999
  0
ARC
  5
13B
330
18
100
AcDbEntity
  8
SJC2
100
AcDbCircle
 10
1582.460469330924
 20
2141.983974240896
 30
0.0
 40
8.0
100
AcDbArc
 50
254.9991343496
 51
296.4072883014
  0
ARC
  5
13C
330
18
100
AcDbEntity
  8
SJC2
100
AcDbCircle
 10
1582.460311832525
 20
2141.983913460296
 30
0.0
 40
19.999999702
100
AcDbArc
 50
254.999830194
 51
327.5420788841
  0
LINE
  5
13D
330
18
100
AcDbEntity
  8
SJC2
100
AcDbLine
 10
996.7989580873254
 20
2118.525703152596
 30
0.0
 11
1062.481940507025
 21
2136.125495370796
 31
0.0
  0
ARC
  5
13E
330
18
100
AcDbEntity
  8
SJC2
100
AcDbCircle
 10
1060.929053567224
 20
2141.921088546196
 30
0.0
 40
6.000029841799999
100
AcDbArc
 50
284.9996534479
 51
104.9996534479
  0
LINE
  5
13F
330
18
100
AcDbEntity
  8
SJC2
100
AcDbLine
 10
993.6931842078248
 20
2130.116889503296
 30
0.0
 11
1059.376166627524
 21
2147.716681721596
 31
0.0
  0
ARC
  5
140
330
18
100
AcDbEntity
  8
SJC2
100
AcDbCircle
 10
995.246071147525
 20
2124.321296327996
 30
0.0
 40
6.000029841799999
100
AcDbArc
 50
104.9996534479
 51
284.9996534479
  0
ARC
  5
141
330
18
100
AcDbEntity
  8
SJC2
100
AcDbCircle
 10
995.246166558325
 20
2124.321598247196
 30
0.0
 40
19.999999702
100
AcDbArc
 50
284.9997487594
 51
357.541698455
  0
ARC
  5
142
330
18
100
AcDbEntity
  8
SJC2
100
AcDbCircle
 10
956.6089402081251
 20
2113.968777158996
 30
0.0
 40
19.999999702
100
AcDbArc
 50
212.4579211159
 51
285.000169806
  0
LINE
  5
143
330
18
100
AcDbEntity
  8
SJC2
100
AcDbLine
 10
961.7853782868261
 20
2094.650276262296
 30
0.0
 11
1000.422462672024
 21
2105.003059311196
 31
0.0
  0
ARC
  5
144
330
18
100
AcDbEntity
  8
SJC2
100
AcDbCircle
 10
995.2463503573254
 20
2124.321750469896
 30
0.0
 40
8.0
100
AcDbArc
 50
284.9972824591
 51
326.4061388734
  0
LINE
  5
145
330
18
100
AcDbEntity
  8
SJC2
100
AcDbLine
 10
958.6796044073253
 20
2106.241462612996
 30
0.0
 11
997.3165362046238
 21
2116.594245661896
 31
0.0
  0
ARC
  5
146
330
18
100
AcDbEntity
  8
SJC2
100
AcDbCircle
 10
956.6088361919247
 20
2113.968811382096
 30
0.0
 40
8.0
100
AcDbArc
 50
243.5922840349
 51
285.0016004851
  0
LINE
  5
147
330
18
100
AcDbEntity
  8
SJC2
100
AcDbLine
 10
954.5385217053244
 20
2121.695869120996
 30
0.0
 11
993.1756060905245
 21
2132.048652169896
 31
0.0
  0
ARC
  5
148
330
18
100
AcDbEntity
  8
SJC2
100
AcDbCircle
 10
995.2462752002247
 20
2124.321276843296
 30
0.0
 40
8.0
100
AcDbArc
 50
63.5927116986
 51
105.0008656504
  0
ARC
  5
149
330
18
100
AcDbEntity
  8
SJC2
100
AcDbCircle
 10
956.6088931729245
 20
2113.968414042796
 30
0.0
 40
8.0
100
AcDbArc
 50
104.9986587501
 51
146.4065664493
  0
ARC
  5
14A
330
18
100
AcDbEntity
  8
SJC2
100
AcDbCircle
 10
956.6088913516251
 20
2113.968516535696
 30
0.0
 40
19.999999702
100
AcDbArc
 50
104.9997487594
 51
177.541698455
  0
LINE
  5
14B
330
18
100
AcDbEntity
  8
SJC2
100
AcDbLine
 10
951.4325952379259
 20
2133.287055471696
 30
0.0
 11
990.069679623124
 21
2143.639838520596
 31
0.0
  0
ARC
  5
14C
330
18
100
AcDbEntity
  8
SJC2
100
AcDbCircle
 10
995.2461177018248
 20
2124.321337623896
 30
0.0
 40
19.999999702
100
AcDbArc
 50
32.4579211159
 51
105.000169806
  0
LINE
  5
14D
330
18
100
AcDbEntity
  8
SJC2
100
AcDbLine
 10
888.6150607736253
 20
2089.537971650996
 30
0.0
 11
954.2980431933246
 21
2107.137763869196
 31
0.0
  0
ARC
  5
14E
330
18
100
AcDbEntity
  8
SJC2
100
AcDbCircle
 10
887.0620975399251
 20
2095.333564826296
 30
0.0
 40
6.000049588099999
100
AcDbArc
 50
105.0003571718
 51
285.0003571718
  0
ARC
  5
14F
330
18
100
AcDbEntity
  8
SJC2
100
AcDbCircle
 10
887.0621034049253
 20
2095.333558018996
 30
0.0
 40
19.999999702
100
AcDbArc
 50
284.9997880622
 51
357.5425837057
  0
ARC
  5
150
330
18
100
AcDbEntity
  8
SJC2
100
AcDbCircle
 10
848.4250428944251
 20
2084.980740481596
 30
0.0
 40
19.999999702
100
AcDbArc
 50
212.4579211159
 51
285.000169806
  0
LINE
  5
151
330
18
100
AcDbEntity
  8
SJC2
100
AcDbLine
 10
853.6014809731241
 20
2065.662239584896
 30
0.0
 11
892.2384127704244
 21
2076.015022633696
 31
0.0
  0
ARC
  5
152
330
18
100
AcDbEntity
  8
SJC2
100
AcDbCircle
 10
887.0620208455257
 20
2095.333597994296
 30
0.0
 40
8.0
100
AcDbArc
 50
285.0004870268
 51
326.409758334
  0
LINE
  5
153
330
18
100
AcDbEntity
  8
SJC2
100
AcDbLine
 10
850.4955545057255
 20
2077.253425935596
 30
0.0
 11
889.1326388909256
 21
2087.606208984496
 31
0.0
  0
ARC
  5
154
330
18
100
AcDbEntity
  8
SJC2
100
AcDbCircle
 10
848.4252845610244
 20
2084.980908213596
 30
0.0
 40
8.0
100
AcDbArc
 50
243.5895197909
 51
284.9979060019
  0
LINE
  5
155
330
18
100
AcDbEntity
  8
SJC2
100
AcDbLine
 10
885.509134306225
 20
2101.129158001696
 30
0.0
 11
951.1921167259243
 21
2118.728950219896
 31
0.0
  0
ARC
  5
156
330
18
100
AcDbEntity
  8
SJC2
100
AcDbCircle
 10
887.0623244042253
 20
2095.333571899196
 30
0.0
 40
8.0
100
AcDbArc
 50
63.5922840349
 51
105.0016004851
  0
ARC
  5
157
330
18
100
AcDbEntity
  8
SJC2
100
AcDbCircle
 10
887.0622203881248
 20
2095.333606122196
 30
0.0
 40
19.999999702
100
AcDbArc
 50
32.4579211159
 51
105.000169806
  0
LINE
  5
158
330
18
100
AcDbEntity
  8
SJC2
100
AcDbLine
 10
846.3546243916244
 20
2092.708137619396
 30
0.0
 11
884.9915561889247
 21
2103.060920668196
 31
0.0
  0
ARC
  5
159
330
18
100
AcDbEntity
  8
SJC2
100
AcDbCircle
 10
848.424994037825
 20
2084.980785034096
 30
0.0
 40
19.999999702
100
AcDbArc
 50
104.9997487594
 51
177.541698455
  0
LINE
  5
15A
330
18
100
AcDbEntity
  8
SJC2
100
AcDbLine
 10
843.248697924224
 20
2104.299323970096
 30
0.0
 11
881.8857823094258
 21
2114.652107018896
 31
0.0
  0
ARC
  5
15B
330
18
100
AcDbEntity
  8
SJC2
100
AcDbCircle
 10
848.4248102389246
 20
2084.980632811396
 30
0.0
 40
8.0
100
AcDbArc
 50
104.9972824591
 51
146.4061388734
  0
ARC
  5
15C
330
18
100
AcDbEntity
  8
SJC2
100
AcDbCircle
 10
952.7450799596245
 20
2112.933357044596
 30
0.0
 40
6.000049588099999
100
AcDbArc
 50
285.0003571718
 51
105.0003571718
  0
ARC
  5
15D
330
18
100
AcDbEntity
  8
SJC2
100
AcDbCircle
 10
844.5611063519246
 20
2083.945625542896
 30
0.0
 40
6.000029841799999
100
AcDbArc
 50
284.9996534479
 51
104.9996534479
  0
ARC
  5
15E
330
18
100
AcDbEntity
  8
SJC2
100
AcDbCircle
 10
1101.152842226325
 20
2152.336734548496
 30
0.0
 40
19.999999702
100
AcDbArc
 50
284.9997487594
 51
357.541698455
  0
LINE
  5
15F
330
18
100
AcDbEntity
  8
SJC2
100
AcDbLine
 10
1067.692206542626
 20
2122.665412563596
 30
0.0
 11
1106.329138339924
 21
2133.018195612496
 31
0.0
  0
LINE
  5
160
330
18
100
AcDbEntity
  8
SJC2
100
AcDbLine
 10
1064.586280075225
 20
2134.256598914296
 30
0.0
 11
1103.223364460424
 21
2144.609381963196
 31
0.0
  0
ARC
  5
161
330
18
100
AcDbEntity
  8
SJC2
100
AcDbCircle
 10
1062.515732859225
 20
2141.983961563496
 30
0.0
 40
19.999999702
100
AcDbArc
 50
104.9997880622
 51
177.5425837057
  0
ARC
  5
162
330
18
100
AcDbEntity
  8
SJC2
100
AcDbCircle
 10
1062.515610965525
 20
2141.983974240896
 30
0.0
 40
8.0
100
AcDbArc
 50
243.5927116986
 51
285.0008656504
  0
ARC
  5
163
330
18
100
AcDbEntity
  8
SJC2
100
AcDbCircle
 10
1062.515768463925
 20
2141.983913460296
 30
0.0
 40
19.999999702
100
AcDbArc
 50
212.4579211159
 51
285.000169806
  0
LINE
  5
164
330
18
100
AcDbEntity
  8
SJC2
100
AcDbLine
 10
1167.560063941225
 20
2176.704413223196
 30
0.0
 11
1101.877081521525
 21
2159.104926180797
 31
0.0
  0
LINE
  5
165
330
18
100
AcDbEntity
  8
SJC2
100
AcDbLine
 10
1170.665990408624
 20
2165.113226872496
 30
0.0
 11
1104.983007988925
 21
2147.513739829996
 31
0.0
  0
ARC
  5
166
330
18
100
AcDbEntity
  8
SJC2
100
AcDbCircle
 10
1103.430044755225
 20
2153.309333005396
 30
0.0
 40
6.000049588099999
100
AcDbArc
 50
105.0003571718
 51
285.0003571718
  0
ARC
  5
167
330
18
100
AcDbEntity
  8
SJC2
100
AcDbCircle
 10
1169.113027174924
 20
2170.908820047796
 30
0.0
 40
6.000049588099999
100
AcDbArc
 50
285.0003571718
 51
105.0003571718
  0
ARC
  5
168
330
18
100
AcDbEntity
  8
SJC2
100
AcDbCircle
 10
1170.699665777725
 20
2170.971644961996
 30
0.0
 40
19.999999702
100
AcDbArc
 50
212.4579211159
 51
285.000169806
  0
ARC
  5
169
330
18
100
AcDbEntity
  8
SJC2
100
AcDbCircle
 10
1170.699561761525
 20
2170.971679184996
 30
0.0
 40
8.0
100
AcDbArc
 50
243.5922840349
 51
285.0016004851
  0
ARC
  5
16A
330
18
100
AcDbEntity
  8
SJC2
100
AcDbCircle
 10
1170.699679699724
 20
2170.971603353696
 30
0.0
 40
8.0
100
AcDbArc
 50
104.9991107221
 51
146.4093307188
  0
ARC
  5
16B
330
18
100
AcDbEntity
  8
SJC2
100
AcDbCircle
 10
1170.699630172925
 20
2170.971693065196
 30
0.0
 40
19.999999702
100
AcDbArc
 50
104.9997880622
 51
177.5425837057
  0
ARC
  5
16C
330
18
100
AcDbEntity
  8
SJC2
100
AcDbCircle
 10
1101.152992992825
 20
2152.336837041396
 30
0.0
 40
8.0
100
AcDbArc
 50
284.9986587501
 51
326.4065664493
  0
LINE
  5
16D
330
18
100
AcDbEntity
  8
SJC2
100
AcDbLine
 10
1060.445197373325
 20
2149.711310598096
 30
0.0
 11
1099.082281758525
 21
2160.064093646896
 31
0.0
  0
ARC
  5
16E
330
18
100
AcDbEntity
  8
SJC2
100
AcDbCircle
 10
1101.152945957725
 20
2152.336779100896
 30
0.0
 40
19.999999702
100
AcDbArc
 50
32.4579211159
 51
105.000169806
  0
LINE
  5
16F
330
18
100
AcDbEntity
  8
SJC2
100
AcDbLine
 10
1057.339423493824
 20
2161.302496948796
 30
0.0
 11
1095.976507879026
 21
2171.655279997696
 31
0.0
  0
ARC
  5
170
330
18
100
AcDbEntity
  8
SJC2
100
AcDbCircle
 10
1101.153049973825
 20
2152.336744877896
 30
0.0
 40
8.0
100
AcDbArc
 50
63.5922840349
 51
105.0016004851
  0
ARC
  5
171
330
18
100
AcDbEntity
  8
SJC2
100
AcDbCircle
 10
1062.515815418724
 20
2141.983921588196
 30
0.0
 40
8.0
100
AcDbArc
 50
105.0004870268
 51
146.409758334
  0
LINE
  5
172
330
18
100
AcDbEntity
  8
SJC2
100
AcDbLine
 10
798.473155378524
 20
2077.808235497596
 30
0.0
 11
843.008219412226
 21
2089.741218718296
 31
0.0
  0
LINE
  5
173
330
18
100
AcDbEntity
  8
SJC2
100
AcDbLine
 10
799.235560762725
 20
2065.588997398496
 30
0.0
 11
846.1139932917248
 21
2078.150032367496
 31
0.0
  0
LINE
  5
174
330
18
100
AcDbEntity
  8
SJC
100
AcDbLine
 10
3478.344347501997
 20
381.6745327446961
 30
0.0
 11
2883.015376880896
 21
381.6745327446961
 31
0.0
  0
LINE
  5
175
330
18
100
AcDbEntity
  8
SJC
100
AcDbLine
 10
1233.388004854825
 20
381.6745327446961
 30
0.0
 11
1233.388004854825
 21
1323.847053170926
 31
0.0
  0
ARC
  5
176
330
18
100
AcDbEntity
  8
SJC
100
AcDbCircle
 10
1172.918947031925
 20
2181.674505922596
 30
0.0
 40
83.6691176345
100
AcDbArc
 50
316.2792234647
 51
43.72077653529999
  0
ARC
  5
177
330
18
100
AcDbEntity
  8
SJC
100
AcDbCircle
 10
1249.387554879025
 20
2181.674505922596
 30
0.0
 40
59.9999991059
100
AcDbArc
 50
105.4655643504
 51
254.5344356496
  0
CIRCLE
  5
178
330
18
100
AcDbEntity
  8
SJC2
100
AcDbCircle
 10
1209.388066247625
 20
2181.674505922596
 30
0.0
 40
4.9999999255
  0
LINE
  5
179
330
18
100
AcDbEntity
  8
SJC2
100
AcDbLine
 10
1172.770329976825
 20
2163.244330415996
 30
0.0
 11
1190.940800897525
 21
2168.113104757496
 31
0.0
  0
LINE
  5
17A
330
18
100
AcDbEntity
  8
SJC2
100
AcDbLine
 10
1175.876103856324
 20
2151.653144065196
 30
0.0
 11
1194.819585019425
 21
2156.729132759096
 31
0.0
  0
LINE
  5
17B
330
18
100
AcDbEntity
  8
SJC2
100
AcDbLine
 10
1168.629247274924
 20
2178.699042099696
 30
0.0
 11
1189.444524064325
 21
2184.276739770496
 31
0.0
  0
LINE
  5
17C
330
18
100
AcDbEntity
  8
SJC2
100
AcDbLine
 10
1165.523320807525
 20
2190.290228450396
 30
0.0
 11
1191.440831407624
 21
2197.234808425096
 31
0.0
  0
ARC
  5
17D
330
18
100
AcDbEntity
  8
SJC
100
AcDbCircle
 10
1395.588525417524
 20
2181.674505922596
 30
0.0
 40
59.9999991059
100
AcDbArc
 50
285.4655643504001
 51
74.5344356496
  0
ARC
  5
17E
330
18
100
AcDbEntity
  8
SJC
100
AcDbCircle
 10
1472.057133264525
 20
2181.674505922596
 30
0.0
 40
83.6691176345
100
AcDbArc
 50
136.2792234647
 51
223.7207765353
  0
LINE
  5
17F
330
18
100
AcDbEntity
  8
SJC
100
AcDbLine
 10
1411.588075441625
 20
381.6745327446961
 30
0.0
 11
1411.588075441625
 21
1323.847053170926
 31
0.0
  0
LINE
  5
180
330
18
100
AcDbEntity
  8
SJC2
100
AcDbLine
 10
1479.452759488925
 20
2190.290228450396
 30
0.0
 11
1453.535248888825
 21
2197.234808425096
 31
0.0
  0
LINE
  5
181
330
18
100
AcDbEntity
  8
SJC2
100
AcDbLine
 10
1476.346833021624
 20
2178.699042099696
 30
0.0
 11
1455.531556232125
 21
2184.276434594696
 31
0.0
  0
LINE
  5
182
330
18
100
AcDbEntity
  8
SJC2
100
AcDbLine
 10
1472.205750319625
 20
2163.244330415996
 30
0.0
 11
1454.035279398925
 21
2168.113104757496
 31
0.0
  0
LINE
  5
183
330
18
100
AcDbEntity
  8
SJC2
100
AcDbLine
 10
1469.099976440125
 20
2151.653144065196
 30
0.0
 11
1450.156647864925
 21
2156.729132759096
 31
0.0
  0
LINE
  5
184
330
18
100
AcDbEntity
  8
SJC
100
AcDbLine
 10
1233.388004854825
 20
2239.501958674196
 30
0.0
 11
1233.388004854825
 21
2300.974482150195
 31
0.0
  0
LINE
  5
185
330
18
100
AcDbEntity
  8
SJC
100
AcDbLine
 10
1411.588075441625
 20
2239.501958674196
 30
0.0
 11
1411.588075441625
 21
2300.974482150195
 31
0.0
  0
LINE
  5
186
330
18
100
AcDbEntity
  8
SJC
100
AcDbLine
 10
3141.778800759397
 20
381.6745327446961
 30
0.0
 11
3141.778800759397
 21
2301.074833733196
 31
0.0
  0
LINE
  5
187
330
18
100
AcDbEntity
  8
SJC
100
AcDbLine
 10
3319.978871346197
 20
381.6745327446961
 30
0.0
 11
3319.978871346197
 21
2301.074833733196
 31
0.0
  0
CIRCLE
  5
188
330
18
100
AcDbEntity
  8
SJC
100
AcDbCircle
 10
3230.879141228498
 20
2181.674505922596
 30
0.0
 40
59.9999991059
  0
LINE
  5
189
330
18
100
AcDbEntity
  8
SJC2
100
AcDbLine
 10
3222.879263418098
 20
2223.874517500796
 30
0.0
 11
3238.879019038996
 21
2223.874517500796
 31
0.0
  0
LINE
  5
18A
330
18
100
AcDbEntity
  8
SJC2
100
AcDbLine
 10
3230.879141228498
 20
2215.874639690296
 30
0.0
 11
3230.879141228498
 21
2231.874395311296
 31
0.0
  0
LINE
  5
18B
330
18
100
AcDbEntity
  8
SJC2
100
AcDbLine
 10
3222.879263418098
 20
2139.474494344396
 30
0.0
 11
3238.879019038996
 21
2139.474494344396
 31
0.0
  0
LINE
  5
18C
330
18
100
AcDbEntity
  8
SJC2
100
AcDbLine
 10
3230.879141228498
 20
2147.474372154796
 30
0.0
 11
3230.879141228498
 21
2131.474616533896
 31
0.0
  0
LINE
  5
18D
330
18
100
AcDbEntity
  8
SJC2
100
AcDbLine
 10
3222.879263418098
 20
2193.474432504596
 30
0.0
 11
3238.879019038996
 21
2193.474432504596
 31
0.0
  0
LINE
  5
18E
330
18
100
AcDbEntity
  8
SJC2
100
AcDbLine
 10
3222.879263418098
 20
2169.874579340596
 30
0.0
 11
3238.879019038996
 21
2169.874579340596
 31
0.0
  0
LINE
  5
18F
330
18
100
AcDbEntity
  8
SJC2
100
AcDbLine
 10
3238.879019038996
 20
2193.474432504596
 30
0.0
 11
3238.879019038996
 21
2169.874579340596
 31
0.0
  0
LINE
  5
190
330
18
100
AcDbEntity
  8
SJC2
100
AcDbLine
 10
3222.879263418098
 20
2193.474432504596
 30
0.0
 11
3222.879263418098
 21
2169.874579340596
 31
0.0
  0
TEXT
  5
191
330
18
100
AcDbEntity
  8
MOJI
100
AcDbText
 10
4090.964967549223
 20
942.5663767252402
 30
0.0
 40
60.0
  1
1
 41
0.8
  7
EXT08
100
AcDbText
  0
TEXT
  5
192
330
18
100
AcDbEntity
  8
MOJI
100
AcDbText
 10
4063.162776126004
 20
1047.959848451479
 30
0.0
 40
60.0
  1
部番
 41
0.8
  7
EXT08
100
AcDbText
  0
TEXT
  5
193
330
18
100
AcDbEntity
  8
MOJI
100
AcDbText
 10
4090.964967549223
 20
842.5660391411286
 30
0.0
 40
60.0
  1
2
 41
0.8
  7
EXT08
100
AcDbText
  0
TEXT
  5
194
330
18
100
AcDbEntity
  8
MOJI
100
AcDbText
 10
4090.964967549223
 20
742.5660406412397
 30
0.0
 40
60.0
  1
3
 41
0.8
  7
EXT08
100
AcDbText
  0
TEXT
  5
195
330
18
100
AcDbEntity
  8
MOJI
100
AcDbText
 10
4090.964967549223
 20
642.5660421413509
 30
0.0
 40
60.0
  1
4
 41
0.8
  7
EXT08
100
AcDbText
  0
TEXT
  5
196
330
18
100
AcDbEntity
  8
MOJI
100
AcDbText
 10
4090.964967549223
 20
542.5660436414629
 30
0.0
 40
60.0
  1
5
 41
0.8
  7
EXT08
100
AcDbText
  0
TEXT
  5
197
330
18
100
AcDbEntity
  8
MOJI
100
AcDbText
 10
4090.964967549223
 20
442.5660451415729
 30
0.0
 40
60.0
  1
6
 41
0.8
  7
EXT08
100
AcDbText
  0
TEXT
  5
198
330
18
100
AcDbEntity
  8
MOJI
100
AcDbText
 10
4668.000585581935
 20
1046.878508949475
 30
0.0
 40
60.0
  1
材　　質
 41
0.8
  7
EXT08
100
AcDbText
  0
TEXT
  5
199
330
18
100
AcDbEntity
  8
MOJI
100
AcDbText
 10
5174.990540902817
 20
1046.878508949475
 30
0.0
 40
60.0
  1
摘　　　要
 41
0.8
  7
EXT08
100
AcDbText
  0
TEXT
  5
19A
330
18
100
AcDbEntity
  8
MOJI
100
AcDbText
 10
4299.556952113086
 20
1047.959848451479
 30
0.0
 40
60.0
  1
品   名
 41
0.8
  7
EXT08
100
AcDbText
  0
TEXT
  5
19B
330
18
100
AcDbEntity
  8
MOJI
100
AcDbText
 10
4965.887967709186
 20
949.5742298102053
 30
0.0
 40
60.0
  1
亜鉛めっき＋静電粉体塗装
 41
0.8
  7
EXT08
100
AcDbText
  0
LINE
  5
19C
330
18
100
AcDbEntity
  8
MOJI
100
AcDbLine
 10
4034.521012232755
 20
426.0333169825599
 30
0.0
 11
5681.516556590993
 21
426.0333169825599
 31
0.0
  0
LINE
  5
19D
330
18
100
AcDbEntity
  8
MOJI
100
AcDbLine
 10
4034.521012232755
 20
526.0333154824488
 30
0.0
 11
5681.516556590993
 21
526.0333154824488
 31
0.0
  0
LINE
  5
19E
330
18
100
AcDbEntity
  8
MOJI
100
AcDbLine
 10
4034.521012232755
 20
626.0329748981153
 30
0.0
 11
5681.516556590993
 21
626.0329748981153
 31
0.0
  0
LINE
  5
19F
330
18
100
AcDbEntity
  8
MOJI
100
AcDbLine
 10
4034.521012232755
 20
826.0329718978931
 30
0.0
 11
5681.516556590993
 21
826.0329718978931
 31
0.0
  0
LINE
  5
1A0
330
18
100
AcDbEntity
  8
MOJI
100
AcDbLine
 10
4034.521012232755
 20
926.0333094818935
 30
0.0
 11
5681.516556590993
 21
926.0333094818935
 31
0.0
  0
LINE
  5
1A1
330
18
100
AcDbEntity
  8
MOJI
100
AcDbLine
 10
4034.521012232755
 20
1026.033307981781
 30
0.0
 11
5681.516556590993
 21
1026.033307981781
 31
0.0
  0
LINE
  5
1A2
330
18
100
AcDbEntity
  8
MOJI
100
AcDbLine
 10
4034.521012232755
 20
726.0329733980043
 30
0.0
 11
5681.516556590993
 21
726.0329733980043
 31
0.0
  0
LINE
  5
1A3
330
18
100
AcDbEntity
  8
MOJI
100
AcDbLine
 10
4034.521012232755
 20
1126.033306481671
 30
0.0
 11
5681.516556590993
 21
1126.033306481671
 31
0.0
  0
LINE
  5
1A4
330
18
100
AcDbEntity
  8
MOJI
100
AcDbLine
 10
4610.284845357917
 20
426.0333169825599
 30
0.0
 11
4610.284845357917
 21
1126.033306481671
 31
0.0
  0
LINE
  5
1A5
330
18
100
AcDbEntity
  8
MOJI
100
AcDbLine
 10
4183.187889822291
 20
426.0333169825599
 30
0.0
 11
4183.187889822291
 21
1126.033306481671
 31
0.0
  0
LINE
  5
1A6
330
18
100
AcDbEntity
  8
MOJI
100
AcDbLine
 10
4939.24491918381
 20
1126.033306481671
 30
0.0
 11
4939.24491918381
 21
426.0333169825599
 31
0.0
  0
LINE
  5
1A7
330
18
100
AcDbEntity
  8
MOJI
100
AcDbLine
 10
5681.516556590993
 20
426.0333169825599
 30
0.0
 11
5681.516556590993
 21
1126.033306481671
 31
0.0
  0
LINE
  5
1A8
330
18
100
AcDbEntity
  8
MOJI
100
AcDbLine
 10
4034.521012232755
 20
426.0333169825599
 30
0.0
 11
4034.521012232755
 21
1126.033306481671
 31
0.0
  0
TEXT
  5
1A9
330
18
100
AcDbEntity
  8
MOJI
100
AcDbText
 10
5135.310815040914
 20
849.5742313103162
 30
0.0
 40
60.0
  1
静電粉体塗装
 41
0.8
  7
EXT08
100
AcDbText
  0
TEXT
  5
1AA
330
18
100
AcDbEntity
  8
MOJI
100
AcDbText
 10
4645.266403996344
 20
946.8917347332512
 30
0.0
 40
60.0
  1
STK400
 41
0.8
  7
EXT08
100
AcDbText
  0
TEXT
  5
1AB
330
18
100
AcDbEntity
  8
MOJI
100
AcDbText
 10
4637.355061662513
 20
846.8913971491407
 30
0.0
 40
60.0
  1
アルミ合金
 41
0.8
  7
EXT08
100
AcDbText
  0
TEXT
  5
1AC
330
18
100
AcDbEntity
  8
MOJI
100
AcDbText
 10
4716.109546900795
 20
646.891400149473
 30
0.0
 40
60.0
  1
AL
 41
0.8
  7
EXT08
100
AcDbText
  0
TEXT
  5
1AD
330
18
100
AcDbEntity
  8
MOJI
100
AcDbText
 10
4696.48142429046
 20
546.8917407336955
 30
0.0
 40
60.0
  1
SUS
 41
0.8
  7
EXT08
100
AcDbText
  0
TEXT
  5
1AE
330
18
100
AcDbEntity
  8
MOJI
100
AcDbText
 10
5271.774292946291
 20
642.6175829392352
 30
0.0
 40
60.0
  1
%%c6
 41
0.8
  7
EXT08
100
AcDbText
  0
TEXT
  5
1AF
330
18
100
AcDbEntity
  8
MOJI
100
AcDbText
 10
4306.521507481789
 20
942.5663767252402
 30
0.0
 40
60.0
  1
支　柱
 41
0.8
  7
EXT08
100
AcDbText
  0
TEXT
  5
1B0
330
18
100
AcDbEntity
  8
MOJI
100
AcDbText
 10
4306.521507481789
 20
842.5660391411286
 30
0.0
 40
60.0
  1
擬宝珠
 41
0.8
  7
EXT08
100
AcDbText
  0
TEXT
  5
1B1
330
18
100
AcDbEntity
  8
MOJI
100
AcDbText
 10
4226.033346483069
 20
742.5660406412397
 30
0.0
 40
60.0
  1
チェーン金具
 41
0.8
  7
EXT08
100
AcDbText
  0
TEXT
  5
1B2
330
18
100
AcDbEntity
  8
MOJI
100
AcDbText
 10
4266.277426982427
 20
642.5660421413509
 30
0.0
 40
60.0
  1
チェーン　
 41
0.8
  7
EXT08
100
AcDbText
  0
TEXT
  5
1B3
330
18
100
AcDbEntity
  8
MOJI
100
AcDbText
 10
4210.209713849558
 20
442.5660451415729
 30
0.0
 40
60.0
  1
六角穴付ボルト
 41
0.8
  7
EXT08
100
AcDbText
  0
ARC
  5
1F0
330
18
100
AcDbEntity
  8
SJC
100
AcDbCircle
 10
1099.5548839601
 20
4416.392040405494
 30
0.0
 40
44.70717840329999
100
AcDbArc
 50
137.8531446413
 51
222.1468553587
  0
ARC
  5
1F1
330
18
100
AcDbEntity
  8
SJC
100
AcDbCircle
 10
1055.931074742999
 20
4416.392040405494
 30
0.0
 40
31.7767353091
100
AcDbArc
 50
289.2503683672
 51
70.7496316328
  0
LINE
  5
1F2
330
18
100
AcDbEntity
  8
SJC
100
AcDbLine
 10
1066.4077599882
 20
3516.392053816595
 30
0.0
 11
1066.4077599882
 21
3986.392040852561
 31
0.0
  0
LINE
  5
1F3
330
18
100
AcDbEntity
  8
CENTER
100
AcDbLine
 10
1021.857742341501
 20
3516.392053816595
 30
0.0
 11
1021.857742341501
 21
4657.131804180822
 31
0.0
  0
LINE
  5
1F7
330
18
100
AcDbEntity
  8
SJC
100
AcDbLine
 10
5377.960634298672
 20
3516.392053816595
 30
0.0
 11
695.0991717711003
 21
3516.392053816595
 31
0.0
  0
ARC
  5
1F8
330
18
100
AcDbEntity
  8
SJC
100
AcDbCircle
 10
3099.554548982
 20
4416.392040405494
 30
0.0
 40
44.70717840329999
100
AcDbArc
 50
137.8531446413
 51
222.1468553587
  0
ARC
  5
1F9
330
18
100
AcDbEntity
  8
SJC
100
AcDbCircle
 10
3055.9307397649
 20
4416.392040405494
 30
0.0
 40
31.7767353091
100
AcDbArc
 50
289.2503683672
 51
70.7496316328
  0
LINE
  5
1FA
330
18
100
AcDbEntity
  8
CENTER
100
AcDbLine
 10
3021.8572547755
 20
3516.392053816595
 30
0.0
 11
3021.8572547755
 21
4667.944456767607
 31
0.0
  0
ARC
  5
1FE
330
18
100
AcDbEntity
  8
SJC
100
AcDbCircle
 10
5099.5545191797
 20
4416.392040405494
 30
0.0
 40
44.70717840329999
100
AcDbArc
 50
137.8531446413
 51
222.1468553587
  0
ARC
  5
1FF
330
18
100
AcDbEntity
  8
SJC
100
AcDbCircle
 10
5055.9307099625
 20
4416.392040405494
 30
0.0
 40
31.7767353091
100
AcDbArc
 50
289.2503683672
 51
70.7496316328
  0
LINE
  5
200
330
18
100
AcDbEntity
  8
SJC
100
AcDbLine
 10
5066.4073952078
 20
3516.392053816595
 30
0.0
 11
5066.4073952078
 21
3986.39204085256
 31
0.0
  0
LINE
  5
201
330
18
100
AcDbEntity
  8
CENTER
100
AcDbLine
 10
5021.857224973199
 20
3516.392053816595
 30
0.0
 11
5021.857224973199
 21
4679.052410508921
 31
0.0
  0
ARC
  5
208
330
18
100
AcDbEntity
  8
SJC
100
AcDbCircle
 10
2944.159960569001
 20
4416.392040405494
 30
0.0
 40
44.70717840329999
100
AcDbArc
 50
317.8531446413
 51
42.1468553587
  0
ARC
  5
209
330
18
100
AcDbEntity
  8
SJC
100
AcDbCircle
 10
2987.7837697861
 20
4416.392040405494
 30
0.0
 40
31.7767353091
100
AcDbArc
 50
109.2503683672
 51
250.7496316328
  0
ARC
  5
20A
330
18
100
AcDbEntity
  8
SJC
100
AcDbCircle
 10
4944.159930766701
 20
4416.392040405494
 30
0.0
 40
44.70717840329999
100
AcDbArc
 50
317.8531446413
 51
42.1468553587
  0
ARC
  5
20B
330
18
100
AcDbEntity
  8
SJC
100
AcDbCircle
 10
4987.7837399838
 20
4416.392040405494
 30
0.0
 40
31.7767353091
100
AcDbArc
 50
109.2503683672
 51
250.7496316328
  0
LINE
  5
20C
330
18
100
AcDbEntity
  8
SJC
100
AcDbLine
 10
4977.3070547386
 20
3516.392053816595
 30
0.0
 11
4977.3070547386
 21
3986.392007923909
 31
0.0
  0
LINE
  5
20D
330
18
100
AcDbEntity
  8
SJC
100
AcDbLine
 10
5971.8572085819
 20
3116.392059776995
 30
0.0
 11
5971.8572085819
 21
3516.392053816595
 31
0.0
1001
ACAD
1000
ASC_BOUNDS
1002
{
1070
    19
1005
10EF
1002
}
  0
LINE
  5
20F
330
18
100
AcDbEntity
  8
SJC
100
AcDbLine
 10
5971.8572085819
 20
3116.392059776995
 30
0.0
 11
6271.857208581899
 21
3116.392059776995
 31
0.0
1001
ACAD
1000
ASC_BOUNDS
1002
{
1070
    19
1005
10EF
1005
0
1005
0
1005
0
1005
0
1005
0
1005
0
1005
10EF
1002
}
  0
LINE
  5
210
330
18
100
AcDbEntity
  8
SJC2
100
AcDbLine
 10
1187.8336920167
 20
4398.539867819994
 30
0.0
 11
1154.144269911299
 21
4403.124828689095
 31
0.0
  0
ARC
  5
211
330
18
100
AcDbEntity
  8
SJC2
100
AcDbCircle
 10
1154.5153509613
 20
4406.101790109995
 30
0.0
 40
3.000000074499999
100
AcDbArc
 50
81.60596855199999
 51
262.8946762747
  0
LINE
  5
212
330
18
100
AcDbEntity
  8
SJC2
100
AcDbLine
 10
1188.6427130007
 20
4404.484691950094
 30
0.0
 11
1154.953290895299
 21
4409.069652819295
 31
0.0
  0
ARC
  5
213
330
18
100
AcDbEntity
  8
SJC2
100
AcDbCircle
 10
1188.2716319507
 20
4401.507730529294
 30
0.0
 40
3.000000074499999
100
AcDbArc
 50
261.6059685522
 51
82.8946762744
  0
ARC
  5
214
330
18
100
AcDbEntity
  8
SJC2
100
AcDbCircle
 10
1188.238172221599
 20
4401.512507978295
 30
0.0
 40
9.999999851
100
AcDbArc
 50
189.7065411486999
 51
262.2506962022
  0
ARC
  5
215
330
18
100
AcDbEntity
  8
SJC2
100
AcDbCircle
 10
1188.237435108
 20
4401.512856686593
 30
0.0
 40
4.0
100
AcDbArc
 50
220.8541609809
 51
262.2633791562
  0
LINE
  5
216
330
18
100
AcDbEntity
  8
SJC2
100
AcDbLine
 10
1207.516156323
 20
4394.852123734295
 30
0.0
 11
1187.6989569113
 21
4397.549267248794
 31
0.0
  0
LINE
  5
217
330
18
100
AcDbEntity
  8
SJC2
100
AcDbLine
 10
1208.5948001058
 20
4402.778759358394
 30
0.0
 11
1188.777600694
 21
4405.475902872895
 31
0.0
  0
ARC
  5
218
330
18
100
AcDbEntity
  8
SJC2
100
AcDbCircle
 10
1188.237471338499
 20
4401.512538105495
 30
0.0
 40
4.0
100
AcDbArc
 50
82.23951010649999
 51
123.6482457442
  0
ARC
  5
219
330
18
100
AcDbEntity
  8
SJC2
100
AcDbCircle
 10
1208.055803169
 20
4398.815240429195
 30
0.0
 40
4.0
100
AcDbArc
 50
40.85282573219999
 51
82.2558804281
  0
ARC
  5
21A
330
18
100
AcDbEntity
  8
SJC2
100
AcDbCircle
 10
1208.0555847955
 20
4398.815518628794
 30
0.0
 40
9.999999851
100
AcDbArc
 50
9.706541148699999
 51
82.25069620220001
  0
LINE
  5
21B
330
18
100
AcDbEntity
  8
SJC2
100
AcDbLine
 10
1209.4039736777
 20
4408.724193840094
 30
0.0
 11
1189.586774266
 21
4411.420727002995
 31
0.0
  0
ARC
  5
21C
330
18
100
AcDbEntity
  8
SJC2
100
AcDbCircle
 10
1188.2381011558
 20
4401.512090474095
 30
0.0
 40
9.999999851
100
AcDbArc
 50
82.24905268349999
 51
154.7909464765
  0
ARC
  5
21D
330
18
100
AcDbEntity
  8
SJC2
100
AcDbCircle
 10
1210.0047795013
 20
4398.550396428595
 30
0.0
 40
3.000000074499999
100
AcDbArc
 50
81.6222415268
 51
262.8755155298
  0
ARC
  5
21E
330
18
100
AcDbEntity
  8
SJC2
100
AcDbCircle
 10
1133.940588045099
 20
4408.725614663794
 30
0.0
 40
9.999999851
100
AcDbArc
 50
189.7099264137
 51
262.2495076787
  0
LINE
  5
21F
330
18
100
AcDbEntity
  8
SJC2
100
AcDbLine
 10
1152.4093456207
 20
4396.119213559194
 30
0.0
 11
1132.591993621099
 21
4398.816967425194
 31
0.0
  0
LINE
  5
220
330
18
100
AcDbEntity
  8
SJC2
100
AcDbLine
 10
1153.2182140169
 20
4402.065258392394
 30
0.0
 11
1133.4010146051
 21
4404.761791555395
 31
0.0
  0
ARC
  5
221
330
18
100
AcDbEntity
  8
SJC2
100
AcDbCircle
 10
1133.9406096004
 20
4408.725229108894
 30
0.0
 40
4.0
100
AcDbArc
 50
220.8397276573
 51
262.2472349334
  0
ARC
  5
222
330
18
100
AcDbEntity
  8
SJC2
100
AcDbCircle
 10
1153.757638852699
 20
4406.028674547495
 30
0.0
 40
9.999999851
100
AcDbArc
 50
9.706417565599998
 51
82.24979285100001
  0
ARC
  5
223
330
18
100
AcDbEntity
  8
SJC2
100
AcDbCircle
 10
1153.7590898133
 20
4406.027659938894
 30
0.0
 40
4.0
100
AcDbArc
 50
40.866370019
 51
82.2670283911
  0
ARC
  5
224
330
18
100
AcDbEntity
  8
SJC2
100
AcDbCircle
 10
1153.7583433724
 20
4406.028623159794
 30
0.0
 40
4.0
100
AcDbArc
 50
262.2395101065
 51
303.6482457442
  0
ARC
  5
225
330
18
100
AcDbEntity
  8
SJC2
100
AcDbCircle
 10
1153.757335350399
 20
4406.027943079594
 30
0.0
 40
9.999999851
100
AcDbArc
 50
262.2530042499
 51
334.7980877336
  0
ARC
  5
226
330
18
100
AcDbEntity
  8
SJC2
100
AcDbCircle
 10
1133.940302249601
 20
4408.725205614994
 30
0.0
 40
9.999999851
100
AcDbArc
 50
82.2498818799
 51
154.7908228795
  0
LINE
  5
227
330
18
100
AcDbEntity
  8
SJC2
100
AcDbLine
 10
1099.4648578843
 20
4416.622142941094
 30
0.0
 11
1133.1541274018
 21
4412.037182071994
 31
0.0
  0
LINE
  5
228
330
18
100
AcDbEntity
  8
SJC2
100
AcDbLine
 10
1098.6555317245
 20
4410.676098107894
 30
0.0
 11
1132.344953829899
 21
4406.091747590195
 31
0.0
  0
ARC
  5
229
330
18
100
AcDbEntity
  8
SJC2
100
AcDbCircle
 10
1132.749540615799
 20
4409.064464831095
 30
0.0
 40
3.0001230411
100
AcDbArc
 50
262.249664578
 51
82.249664578
  0
LINE
  5
22A
330
18
100
AcDbEntity
  8
SJC2
100
AcDbLine
 10
1155.1061839595
 20
4415.937328498194
 30
0.0
 11
1135.2888319598
 21
4418.633861661194
 31
0.0
  0
LINE
  5
22B
330
18
100
AcDbEntity
  8
SJC2
100
AcDbLine
 10
1154.2973155633
 20
4409.991283664894
 30
0.0
 11
1134.479810975799
 21
4412.689037530994
 31
0.0
  0
ARC
  5
22C
330
18
100
AcDbEntity
  8
SJC2
100
AcDbCircle
 10
1098.2690197225
 20
4413.579786119095
 30
0.0
 40
9.999999851
100
AcDbArc
 50
262.2514431789
 51
334.7944553205
  0
ARC
  5
22D
330
18
100
AcDbEntity
  8
SJC2
100
AcDbCircle
 10
1098.269783703199
 20
4413.579909837494
 30
0.0
 40
4.0
100
AcDbArc
 50
262.2413411177
 51
303.6477995767
  0
ARC
  5
22E
330
18
100
AcDbEntity
  8
SJC2
100
AcDbCircle
 10
1098.269002729199
 20
4413.580312692995
 30
0.0
 40
4.0
100
AcDbArc
 50
40.840173356
 51
82.24973490169999
  0
ARC
  5
22F
330
18
100
AcDbEntity
  8
SJC2
100
AcDbCircle
 10
1098.2692058417
 20
4413.579943966195
 30
0.0
 40
9.999999851
100
AcDbArc
 50
9.706417565599998
 51
82.24979285100001
  0
ARC
  5
230
330
18
100
AcDbEntity
  8
SJC2
100
AcDbCircle
 10
1133.939808278399
 20
4408.725655504594
 30
0.0
 40
4.0
100
AcDbArc
 50
82.24134111759999
 51
123.6477995767
  0
ARC
  5
231
330
18
100
AcDbEntity
  8
SJC2
100
AcDbCircle
 10
1099.0601948044
 20
4413.649120524495
 30
0.0
 40
3.000435718
100
AcDbArc
 50
82.24900687979999
 51
262.2490068798
  0
LINE
  5
232
330
18
100
AcDbEntity
  8
SJC2
100
AcDbLine
 10
1097.729781005801
 20
4409.616527811194
 30
0.0
 11
1087.2604208103
 21
4411.041088336794
 31
0.0
  0
LINE
  5
233
330
18
100
AcDbEntity
  8
SJC2
100
AcDbLine
 10
1096.9207600218
 20
4403.671093329394
 30
0.0
 11
1086.146681813199
 21
4405.137768112295
 31
0.0
  0
LINE
  5
234
330
18
100
AcDbEntity
  8
SJC2
100
AcDbLine
 10
1206.707135339
 20
4388.906689252594
 30
0.0
 11
1186.8897833394
 21
4391.603832767095
 31
0.0
  0
ARC
  5
235
330
18
100
AcDbEntity
  8
SJC2
100
AcDbCircle
 10
1208.0562856786
 20
4398.815488501695
 30
0.0
 40
4.0
100
AcDbArc
 50
262.2395101065
 51
303.6482457442
  0
ARC
  5
236
330
18
100
AcDbEntity
  8
SJC2
100
AcDbCircle
 10
1208.0553950397
 20
4398.815382042195
 30
0.0
 40
9.999999851
100
AcDbArc
 50
262.2514431789
 51
334.7944553205
  0
LINE
  5
237
330
18
100
AcDbEntity
  8
SJC2
100
AcDbLine
 10
1245.1492124029
 20
4397.228832683194
 30
0.0
 11
1211.4597902975
 21
4401.813793552395
 31
0.0
  0
LINE
  5
238
330
18
100
AcDbEntity
  8
SJC2
100
AcDbLine
 10
1244.3401914188
 20
4391.283398201494
 30
0.0
 11
1210.6507693134
 21
4395.868969422294
 31
0.0
  0
LINE
  5
239
330
18
100
AcDbEntity
  8
SJC2
100
AcDbLine
 10
2855.881915451901
 20
4398.539867819994
 30
0.0
 11
2889.5714901452
 21
4403.124828689095
 31
0.0
  0
ARC
  5
23A
330
18
100
AcDbEntity
  8
SJC2
100
AcDbCircle
 10
2889.1335502111
 20
4406.092691398394
 30
0.0
 40
3.000000074499999
100
AcDbArc
 50
278.3940314481
 51
97.10532372520001
  0
LINE
  5
23B
330
18
100
AcDbEntity
  8
SJC2
100
AcDbLine
 10
2855.0731996436
 20
4404.484691950094
 30
0.0
 11
2888.7624691611
 21
4409.069652819295
 31
0.0
  0
ARC
  5
23C
330
18
100
AcDbEntity
  8
SJC2
100
AcDbCircle
 10
2855.4423620386
 20
4401.507491994895
 30
0.0
 40
3.000000074499999
100
AcDbArc
 50
97.0683980125
 51
278.4251815611
  0
ARC
  5
23D
330
18
100
AcDbEntity
  8
SJC2
100
AcDbCircle
 10
2855.4775841983
 20
4401.512486717794
 30
0.0
 40
9.999999851
100
AcDbArc
 50
277.750207149
 51
350.2935824344
  0
ARC
  5
23E
330
18
100
AcDbEntity
  8
SJC2
100
AcDbCircle
 10
2855.4784978475
 20
4401.512880172194
 30
0.0
 40
4.0
100
AcDbArc
 50
277.7341215046
 51
319.1453942581
  0
LINE
  5
23F
330
18
100
AcDbEntity
  8
SJC2
100
AcDbLine
 10
2836.1996037334
 20
4394.852123734295
 30
0.0
 11
2856.0168031452
 21
4397.549267248794
 31
0.0
  0
LINE
  5
240
330
18
100
AcDbEntity
  8
SJC2
100
AcDbLine
 10
2835.1208073628
 20
4402.778759358394
 30
0.0
 11
2854.9383119503
 21
4405.475902872895
 31
0.0
  0
ARC
  5
241
330
18
100
AcDbEntity
  8
SJC2
100
AcDbCircle
 10
2855.4783146476
 20
4401.512520846494
 30
0.0
 40
4.0
100
AcDbArc
 50
56.35220042330001
 51
97.75865888230001
  0
ARC
  5
242
330
18
100
AcDbEntity
  8
SJC2
100
AcDbCircle
 10
2835.659804299501
 20
4398.815240429195
 30
0.0
 40
4.0
100
AcDbArc
 50
97.74411957190002
 51
139.1471742678
  0
ARC
  5
243
330
18
100
AcDbEntity
  8
SJC2
100
AcDbCircle
 10
2835.6600190369
 20
4398.815497370794
 30
0.0
 40
9.999999851
100
AcDbArc
 50
97.74840045080001
 51
170.2933352831
  0
LINE
  5
244
330
18
100
AcDbEntity
  8
SJC2
100
AcDbLine
 10
2834.3117863787
 20
4408.724193840094
 30
0.0
 11
2854.1289857905
 21
4411.420727002995
 31
0.0
  0
ARC
  5
245
330
18
100
AcDbEntity
  8
SJC2
100
AcDbCircle
 10
2855.4775155007
 20
4401.512070956894
 30
0.0
 40
9.999999851
100
AcDbArc
 50
25.2091771205
 51
97.75011812009999
  0
ARC
  5
246
330
18
100
AcDbEntity
  8
SJC2
100
AcDbCircle
 10
2833.710110686899
 20
4398.550268452894
 30
0.0
 40
3.000000074499999
100
AcDbArc
 50
277.1441643106
 51
98.3609663832
  0
ARC
  5
247
330
18
100
AcDbEntity
  8
SJC2
100
AcDbCircle
 10
2909.7751756494
 20
4408.725635925394
 30
0.0
 40
9.999999851
100
AcDbArc
 50
277.7495889608
 51
350.2899499962
  0
LINE
  5
248
330
18
100
AcDbEntity
  8
SJC2
100
AcDbLine
 10
2891.3064144357
 20
4396.119213559194
 30
0.0
 11
2911.1236138474
 21
4398.816967425194
 31
0.0
  0
LINE
  5
249
330
18
100
AcDbEntity
  8
SJC2
100
AcDbLine
 10
2890.4973934517
 20
4402.065258392394
 30
0.0
 11
2910.3148980392
 21
4404.761791555395
 31
0.0
  0
ARC
  5
24A
330
18
100
AcDbEntity
  8
SJC2
100
AcDbCircle
 10
2909.7753030439
 20
4408.725229108894
 30
0.0
 40
4.0
100
AcDbArc
 50
277.7527650666
 51
319.1602723427
  0
ARC
  5
24B
330
18
100
AcDbEntity
  8
SJC2
100
AcDbCircle
 10
2889.9581212037
 20
4406.028674547495
 30
0.0
 40
9.999999851
100
AcDbArc
 50
97.750207149
 51
170.2935824344
  0
ARC
  5
24C
330
18
100
AcDbEntity
  8
SJC2
100
AcDbCircle
 10
2889.9566905604
 20
4406.027683421695
 30
0.0
 40
4.0
100
AcDbArc
 50
97.73547102930001
 51
139.1340747698
  0
ARC
  5
24D
330
18
100
AcDbEntity
  8
SJC2
100
AcDbCircle
 10
2889.9573907543
 20
4406.028640418795
 30
0.0
 40
4.0
100
AcDbArc
 50
236.3522004233
 51
277.7586588823
  0
ARC
  5
24E
330
18
100
AcDbEntity
  8
SJC2
100
AcDbCircle
 10
2889.958424706
 20
4406.027943079594
 30
0.0
 40
9.999999851
100
AcDbArc
 50
205.2019122664
 51
277.7469957501
  0
ARC
  5
24F
330
18
100
AcDbEntity
  8
SJC2
100
AcDbCircle
 10
2909.7756103947
 20
4408.725205614994
 30
0.0
 40
9.999999851
100
AcDbArc
 50
25.2091771205
 51
97.75011812009999
  0
LINE
  5
250
330
18
100
AcDbEntity
  8
SJC2
100
AcDbLine
 10
2944.2510547601
 20
4416.622142941094
 30
0.0
 11
2910.5614800668
 21
4412.037182071994
 31
0.0
  0
LINE
  5
251
330
18
100
AcDbEntity
  8
SJC2
100
AcDbLine
 10
2945.0603809199
 20
4410.676098107894
 30
0.0
 11
2911.3708062266
 21
4406.091747590195
 31
0.0
  0
ARC
  5
252
330
18
100
AcDbEntity
  8
SJC2
100
AcDbCircle
 10
2910.966143146699
 20
4409.064464831095
 30
0.0
 40
3.000133330799999
100
AcDbArc
 50
97.75177915429999
 51
277.7517791543
  0
LINE
  5
253
330
18
100
AcDbEntity
  8
SJC2
100
AcDbLine
 10
2888.609576097
 20
4415.937328498194
 30
0.0
 11
2908.4270806845
 21
4418.633861661194
 31
0.0
  0
LINE
  5
254
330
18
100
AcDbEntity
  8
SJC2
100
AcDbLine
 10
2889.4182919053
 20
4409.991283664894
 30
0.0
 11
2909.2357964928
 21
4412.689037530994
 31
0.0
  0
ARC
  5
255
330
18
100
AcDbEntity
  8
SJC2
100
AcDbCircle
 10
2945.446740333901
 20
4413.579786119095
 30
0.0
 40
9.999999851
100
AcDbArc
 50
205.2055446795
 51
277.7485568211
  0
ARC
  5
256
330
18
100
AcDbEntity
  8
SJC2
100
AcDbCircle
 10
2945.4459763533
 20
4413.579909837494
 30
0.0
 40
4.0
100
AcDbArc
 50
236.3522004233
 51
277.7586588823
  0
ARC
  5
257
330
18
100
AcDbEntity
  8
SJC2
100
AcDbCircle
 10
2945.446777675301
 20
4413.580336233194
 30
0.0
 40
4.0
100
AcDbArc
 50
97.75276506659999
 51
139.1602723427
  0
ARC
  5
258
330
18
100
AcDbEntity
  8
SJC2
100
AcDbCircle
 10
2945.446401626899
 20
4413.579943966195
 30
0.0
 40
9.999999851
100
AcDbArc
 50
97.750207149
 51
170.2935824344
  0
ARC
  5
259
330
18
100
AcDbEntity
  8
SJC2
100
AcDbCircle
 10
2909.7757991901
 20
4408.725655504594
 30
0.0
 40
4.0
100
AcDbArc
 50
56.35220042330001
 51
97.75865888230001
  0
LINE
  5
25A
330
18
100
AcDbEntity
  8
SJC2
100
AcDbLine
 10
2944.0978565201
 20
4423.488597916894
 30
0.0
 11
2958.7002122596
 21
4425.475902574794
 31
0.0
  0
LINE
  5
25B
330
18
100
AcDbEntity
  8
SJC2
100
AcDbLine
 10
2944.90718268
 20
4417.543773786795
 30
0.0
 11
2956.8300951
 21
4419.166088215694
 31
0.0
  0
ARC
  5
25C
330
18
100
AcDbEntity
  8
SJC2
100
AcDbCircle
 10
2944.65571784
 20
4413.649120524495
 30
0.0
 40
3.000435718
100
AcDbArc
 50
277.7509931202
 51
97.75099312020003
  0
LINE
  5
25D
330
18
100
AcDbEntity
  8
SJC2
100
AcDbLine
 10
2945.9859790506
 20
4409.616527811194
 30
0.0
 11
2956.4553392462
 21
4411.041088336794
 31
0.0
  0
LINE
  5
25E
330
18
100
AcDbEntity
  8
SJC2
100
AcDbLine
 10
2946.795000034601
 20
4403.671093329394
 30
0.0
 11
2957.568925655399
 21
4405.137768112295
 31
0.0
  0
LINE
  5
25F
330
18
100
AcDbEntity
  8
SJC2
100
AcDbLine
 10
2837.008624717501
 20
4388.906689252594
 30
0.0
 11
2856.826129305
 21
4391.603832767095
 31
0.0
  0
ARC
  5
260
330
18
100
AcDbEntity
  8
SJC2
100
AcDbCircle
 10
2835.6593477244
 20
4398.815471239195
 30
0.0
 40
4.0
100
AcDbArc
 50
236.3513080036999
 51
277.7623208435
  0
ARC
  5
261
330
18
100
AcDbEntity
  8
SJC2
100
AcDbCircle
 10
2835.6603650168
 20
4398.815382042195
 30
0.0
 40
9.999999851
100
AcDbArc
 50
205.2055446795
 51
277.7485568211
  0
LINE
  5
262
330
18
100
AcDbEntity
  8
SJC2
100
AcDbLine
 10
2798.5665476536
 20
4397.228832683194
 30
0.0
 11
2832.2558171711
 21
4401.813793552395
 31
0.0
  0
LINE
  5
263
330
18
100
AcDbEntity
  8
SJC2
100
AcDbLine
 10
2799.375568637601
 20
4391.283398201494
 30
0.0
 11
2833.0651433309
 21
4395.868969422294
 31
0.0
  0
ARC
  5
264
330
18
100
AcDbEntity
  8
CENTER
100
AcDbCircle
 10
2021.8560732005
 20
10878.59581312149
 30
0.0
 40
6530.7738284651
100
AcDbArc
 50
263.1488628346
 51
276.8444006199
  0
LINE
  5
265
330
18
100
AcDbEntity
  8
SJC2
100
AcDbLine
 10
3187.8338148023
 20
4398.539867819994
 30
0.0
 11
3154.144240109001
 21
4403.124828689095
 31
0.0
  0
ARC
  5
266
330
18
100
AcDbEntity
  8
SJC2
100
AcDbCircle
 10
3154.582180043
 20
4406.092691398394
 30
0.0
 40
3.000000074499999
100
AcDbArc
 50
82.89467627449999
 51
261.6059685522
  0
LINE
  5
267
330
18
100
AcDbEntity
  8
SJC2
100
AcDbLine
 10
3188.642530610499
 20
4404.484691950094
 30
0.0
 11
3154.953261093
 21
4409.069652819295
 31
0.0
  0
ARC
  5
268
330
18
100
AcDbEntity
  8
SJC2
100
AcDbCircle
 10
3188.2733682155
 20
4401.507491994895
 30
0.0
 40
3.000000074499999
100
AcDbArc
 50
261.5748184387
 51
82.93160198770001
  0
ARC
  5
269
330
18
100
AcDbEntity
  8
SJC2
100
AcDbCircle
 10
3188.238146055901
 20
4401.512486717794
 30
0.0
 40
9.999999851
100
AcDbArc
 50
189.7064175656
 51
262.249792851
  0
ARC
  5
26A
330
18
100
AcDbEntity
  8
SJC2
100
AcDbCircle
 10
3188.2372324067
 20
4401.512880172194
 30
0.0
 40
4.0
100
AcDbArc
 50
220.8546057419
 51
262.2658784954
  0
LINE
  5
26B
330
18
100
AcDbEntity
  8
SJC2
100
AcDbLine
 10
3207.516126520701
 20
4394.852123734295
 30
0.0
 11
3187.698927109001
 21
4397.549267248794
 31
0.0
  0
LINE
  5
26C
330
18
100
AcDbEntity
  8
SJC2
100
AcDbLine
 10
3208.594922891299
 20
4402.778759358394
 30
0.0
 11
3188.7774183038
 21
4405.475902872895
 31
0.0
  0
ARC
  5
26D
330
18
100
AcDbEntity
  8
SJC2
100
AcDbCircle
 10
3188.2374156065
 20
4401.512520846494
 30
0.0
 40
4.0
100
AcDbArc
 50
82.2413411177
 51
123.6477995767
  0
ARC
  5
26E
330
18
100
AcDbEntity
  8
SJC2
100
AcDbCircle
 10
3208.055925954601
 20
4398.815240429195
 30
0.0
 40
4.0
100
AcDbArc
 50
40.85282573219999
 51
82.2558804281
  0
ARC
  5
26F
330
18
100
AcDbEntity
  8
SJC2
100
AcDbCircle
 10
3208.055711217299
 20
4398.815497370794
 30
0.0
 40
9.999999851
100
AcDbArc
 50
9.7066647169
 51
82.2515995492
  0
LINE
  5
270
330
18
100
AcDbEntity
  8
SJC2
100
AcDbLine
 10
3209.4039438754
 20
4408.724193840094
 30
0.0
 11
3189.5867444636
 21
4411.420727002995
 31
0.0
  0
ARC
  5
271
330
18
100
AcDbEntity
  8
SJC2
100
AcDbCircle
 10
3188.2382147535
 20
4401.512070956894
 30
0.0
 40
9.999999851
100
AcDbArc
 50
82.2498818799
 51
154.7908228795
  0
ARC
  5
272
330
18
100
AcDbEntity
  8
SJC2
100
AcDbCircle
 10
3210.0056195672
 20
4398.550268452894
 30
0.0
 40
3.000000074499999
100
AcDbArc
 50
81.63903361619999
 51
262.8558356901
  0
ARC
  5
273
330
18
100
AcDbEntity
  8
SJC2
100
AcDbCircle
 10
3133.9405546047
 20
4408.725635925394
 30
0.0
 40
9.999999851
100
AcDbArc
 50
189.7100500038
 51
262.2504110392
  0
LINE
  5
274
330
18
100
AcDbEntity
  8
SJC2
100
AcDbLine
 10
3152.409315818401
 20
4396.119213559194
 30
0.0
 11
3132.5921164067
 21
4398.816967425194
 31
0.0
  0
LINE
  5
275
330
18
100
AcDbEntity
  8
SJC2
100
AcDbLine
 10
3153.2183368024
 20
4402.065258392394
 30
0.0
 11
3133.4008322149
 21
4404.761791555395
 31
0.0
  0
ARC
  5
276
330
18
100
AcDbEntity
  8
SJC2
100
AcDbCircle
 10
3133.9404272102
 20
4408.725229108894
 30
0.0
 40
4.0
100
AcDbArc
 50
220.8397276573
 51
262.2472349334
  0
ARC
  5
277
330
18
100
AcDbEntity
  8
SJC2
100
AcDbCircle
 10
3153.7576090504
 20
4406.028674547495
 30
0.0
 40
9.999999851
100
AcDbArc
 50
9.706417565599998
 51
82.24979285100001
  0
ARC
  5
278
330
18
100
AcDbEntity
  8
SJC2
100
AcDbCircle
 10
3153.759039693799
 20
4406.027683421695
 30
0.0
 40
4.0
100
AcDbArc
 50
40.8659252302
 51
82.2645289707
  0
ARC
  5
279
330
18
100
AcDbEntity
  8
SJC2
100
AcDbCircle
 10
3153.758339499801
 20
4406.028640418795
 30
0.0
 40
4.0
100
AcDbArc
 50
262.2413411177
 51
303.6477995767
  0
ARC
  5
27A
330
18
100
AcDbEntity
  8
SJC2
100
AcDbCircle
 10
3153.7573055481
 20
4406.027943079594
 30
0.0
 40
9.999999851
100
AcDbArc
 50
262.2530042499
 51
334.7980877336
  0
ARC
  5
27B
330
18
100
AcDbEntity
  8
SJC2
100
AcDbCircle
 10
3133.940119859401
 20
4408.725205614994
 30
0.0
 40
9.999999851
100
AcDbArc
 50
82.2498818799
 51
154.7908228795
  0
LINE
  5
27C
330
18
100
AcDbEntity
  8
SJC2
100
AcDbLine
 10
3099.464675494099
 20
4416.622142941094
 30
0.0
 11
3133.1542501874
 21
4412.037182071994
 31
0.0
  0
LINE
  5
27D
330
18
100
AcDbEntity
  8
SJC2
100
AcDbLine
 10
3098.6553493342
 20
4410.676098107894
 30
0.0
 11
3132.3449240275
 21
4406.091747590195
 31
0.0
  0
ARC
  5
27E
330
18
100
AcDbEntity
  8
SJC2
100
AcDbCircle
 10
3132.7495871075
 20
4409.064464831095
 30
0.0
 40
3.000133330799999
100
AcDbArc
 50
262.2482208457
 51
82.24822084569998
  0
LINE
  5
27F
330
18
100
AcDbEntity
  8
SJC2
100
AcDbLine
 10
3155.1061541571
 20
4415.937328498194
 30
0.0
 11
3135.2886495696
 21
4418.633861661194
 31
0.0
  0
LINE
  5
280
330
18
100
AcDbEntity
  8
SJC2
100
AcDbLine
 10
3154.2974383489
 20
4409.991283664894
 30
0.0
 11
3134.479933761401
 21
4412.689037530994
 31
0.0
  0
ARC
  5
281
330
18
100
AcDbEntity
  8
SJC2
100
AcDbCircle
 10
3098.2689899202
 20
4413.579786119095
 30
0.0
 40
9.999999851
100
AcDbArc
 50
262.2514431789
 51
334.7944553205
  0
ARC
  5
282
330
18
100
AcDbEntity
  8
SJC2
100
AcDbCircle
 10
3098.269753900901
 20
4413.579909837494
 30
0.0
 40
4.0
100
AcDbArc
 50
262.2413411177
 51
303.6477995767
  0
ARC
  5
283
330
18
100
AcDbEntity
  8
SJC2
100
AcDbCircle
 10
3098.2689525789
 20
4413.580336233194
 30
0.0
 40
4.0
100
AcDbArc
 50
40.8397276573
 51
82.2472349334
  0
ARC
  5
284
330
18
100
AcDbEntity
  8
SJC2
100
AcDbCircle
 10
3098.2693286273
 20
4413.579943966195
 30
0.0
 40
9.999999851
100
AcDbArc
 50
9.706417565599998
 51
82.24979285100001
  0
ARC
  5
285
330
18
100
AcDbEntity
  8
SJC2
100
AcDbCircle
 10
3133.939931064
 20
4408.725655504594
 30
0.0
 40
4.0
100
AcDbArc
 50
82.2413411177
 51
123.6477995767
  0
LINE
  5
286
330
18
100
AcDbEntity
  8
SJC2
100
AcDbLine
 10
3099.617873734
 20
4423.488597916894
 30
0.0
 11
3085.0155179945
 21
4425.475902574794
 31
0.0
  0
LINE
  5
287
330
18
100
AcDbEntity
  8
SJC2
100
AcDbLine
 10
3098.8085475742
 20
4417.543773786795
 30
0.0
 11
3086.8856351542
 21
4419.166088215694
 31
0.0
  0
ARC
  5
288
330
18
100
AcDbEntity
  8
SJC2
100
AcDbCircle
 10
3099.0600124142
 20
4413.649120524495
 30
0.0
 40
3.000435718
100
AcDbArc
 50
82.24900687979999
 51
262.2490068798
  0
LINE
  5
289
330
18
100
AcDbEntity
  8
SJC2
100
AcDbLine
 10
3097.7297512035
 20
4409.616527811194
 30
0.0
 11
3087.260391008
 21
4411.041088336794
 31
0.0
  0
LINE
  5
28A
330
18
100
AcDbEntity
  8
SJC2
100
AcDbLine
 10
3096.9207302195
 20
4403.671093329394
 30
0.0
 11
3086.146804598801
 21
4405.137768112295
 31
0.0
  0
LINE
  5
28B
330
18
100
AcDbEntity
  8
SJC2
100
AcDbLine
 10
3206.7071055367
 20
4388.906689252594
 30
0.0
 11
3186.8896009491
 21
4391.603832767095
 31
0.0
  0
ARC
  5
28C
330
18
100
AcDbEntity
  8
SJC2
100
AcDbCircle
 10
3208.0563825297
 20
4398.815471239195
 30
0.0
 40
4.0
100
AcDbArc
 50
262.2376791565
 51
303.6486919963
  0
ARC
  5
28D
330
18
100
AcDbEntity
  8
SJC2
100
AcDbCircle
 10
3208.0553652374
 20
4398.815382042195
 30
0.0
 40
9.999999851
100
AcDbArc
 50
262.2514431789
 51
334.7944553205
  0
LINE
  5
28E
330
18
100
AcDbEntity
  8
SJC2
100
AcDbLine
 10
3245.149182600501
 20
4397.228832683194
 30
0.0
 11
3211.459913082999
 21
4401.813793552395
 31
0.0
  0
LINE
  5
28F
330
18
100
AcDbEntity
  8
SJC2
100
AcDbLine
 10
3244.340161616501
 20
4391.283398201494
 30
0.0
 11
3210.650586923201
 21
4395.868969422294
 31
0.0
  0
LINE
  5
290
330
18
100
AcDbEntity
  8
SJC2
100
AcDbLine
 10
4855.8818856495
 20
4398.539867819994
 30
0.0
 11
4889.5714603428
 21
4403.124828689095
 31
0.0
  0
ARC
  5
291
330
18
100
AcDbEntity
  8
SJC2
100
AcDbCircle
 10
4889.135233218099
 20
4406.092943636795
 30
0.0
 40
3.000000074499999
100
AcDbArc
 50
278.360966384
 51
97.1441643098
  0
LINE
  5
292
330
18
100
AcDbEntity
  8
SJC2
100
AcDbLine
 10
4855.0731698413
 20
4404.484691950094
 30
0.0
 11
4888.762134183
 21
4409.069652819295
 31
0.0
  0
ARC
  5
293
330
18
100
AcDbEntity
  8
SJC2
100
AcDbCircle
 10
4855.4423322363
 20
4401.507491994895
 30
0.0
 40
3.000000074499999
100
AcDbArc
 50
97.06839801260001
 51
278.425181561
  0
ARC
  5
294
330
18
100
AcDbEntity
  8
SJC2
100
AcDbCircle
 10
4855.4775543959
 20
4401.512486717794
 30
0.0
 40
9.999999851
100
AcDbArc
 50
277.750207149
 51
350.2935824344
  0
ARC
  5
295
330
18
100
AcDbEntity
  8
SJC2
100
AcDbCircle
 10
4855.478468045101
 20
4401.512880172194
 30
0.0
 40
4.0
100
AcDbArc
 50
277.7341215046
 51
319.1453942581
  0
LINE
  5
296
330
18
100
AcDbEntity
  8
SJC2
100
AcDbLine
 10
4836.199879106899
 20
4394.852123734295
 30
0.0
 11
4856.016773342801
 21
4397.549267248794
 31
0.0
  0
LINE
  5
297
330
18
100
AcDbEntity
  8
SJC2
100
AcDbLine
 10
4835.1207775605
 20
4402.778759358394
 30
0.0
 11
4854.938282148
 21
4405.475902872895
 31
0.0
  0
ARC
  5
298
330
18
100
AcDbEntity
  8
SJC2
100
AcDbCircle
 10
4855.4782848453
 20
4401.512520846494
 30
0.0
 40
4.0
100
AcDbArc
 50
56.35220042330001
 51
97.75865888230001
  0
ARC
  5
299
330
18
100
AcDbEntity
  8
SJC2
100
AcDbCircle
 10
4835.6597744972
 20
4398.815240429195
 30
0.0
 40
4.0
100
AcDbArc
 50
97.74411957190002
 51
139.1471742678
  0
ARC
  5
29A
330
18
100
AcDbEntity
  8
SJC2
100
AcDbCircle
 10
4835.6599965074
 20
4398.815539889394
 30
0.0
 40
9.999999851
100
AcDbArc
 50
97.750207149
 51
170.2935824344
  0
LINE
  5
29B
330
18
100
AcDbEntity
  8
SJC2
100
AcDbLine
 10
4834.3114514006
 20
4408.724193840094
 30
0.0
 11
4854.128955988199
 21
4411.420727002995
 31
0.0
  0
ARC
  5
29C
330
18
100
AcDbEntity
  8
SJC2
100
AcDbCircle
 10
4855.4774856983
 20
4401.512070956894
 30
0.0
 40
9.999999851
100
AcDbArc
 50
25.2091771205
 51
97.75011812009999
  0
ARC
  5
29D
330
18
100
AcDbEntity
  8
SJC2
100
AcDbCircle
 10
4833.6469527949
 20
4398.541674218095
 30
0.0
 40
3.000000074499999
100
AcDbArc
 50
278.3609663836
 51
97.14416431020001
  0
ARC
  5
29E
330
18
100
AcDbEntity
  8
SJC2
100
AcDbCircle
 10
4909.7751458471
 20
4408.725635925394
 30
0.0
 40
9.999999851
100
AcDbArc
 50
277.7495889608
 51
350.2899499962
  0
LINE
  5
29F
330
18
100
AcDbEntity
  8
SJC2
100
AcDbLine
 10
4891.3060794576
 20
4396.119213559194
 30
0.0
 11
4911.1235840451
 21
4398.816967425194
 31
0.0
  0
LINE
  5
2A0
330
18
100
AcDbEntity
  8
SJC2
100
AcDbLine
 10
4890.497363649299
 20
4402.065258392394
 30
0.0
 11
4910.3148682369
 21
4404.761791555395
 31
0.0
  0
ARC
  5
2A1
330
18
100
AcDbEntity
  8
SJC2
100
AcDbCircle
 10
4909.775273241599
 20
4408.725229108894
 30
0.0
 40
4.0
100
AcDbArc
 50
277.7527650666
 51
319.1602723427
  0
ARC
  5
2A2
330
18
100
AcDbEntity
  8
SJC2
100
AcDbCircle
 10
4889.9580914014
 20
4406.028674547495
 30
0.0
 40
9.999999851
100
AcDbArc
 50
97.750207149
 51
170.2935824344
  0
ARC
  5
2A3
330
18
100
AcDbEntity
  8
SJC2
100
AcDbCircle
 10
4889.956660758
 20
4406.027683421695
 30
0.0
 40
4.0
100
AcDbArc
 50
97.73547102930001
 51
139.1340747698
  0
ARC
  5
2A4
330
18
100
AcDbEntity
  8
SJC2
100
AcDbCircle
 10
4889.957360952
 20
4406.028640418795
 30
0.0
 40
4.0
100
AcDbArc
 50
236.3522004233
 51
277.7586588824
  0
ARC
  5
2A5
330
18
100
AcDbEntity
  8
SJC2
100
AcDbCircle
 10
4889.958663362199
 20
4406.028021100194
 30
0.0
 40
9.999999851
100
AcDbArc
 50
205.2024063203
 51
277.7436788071
  0
ARC
  5
2A6
330
18
100
AcDbEntity
  8
SJC2
100
AcDbCircle
 10
4909.7755805924
 20
4408.725205614994
 30
0.0
 40
9.999999851
100
AcDbArc
 50
25.2091771205
 51
97.75011812009999
  0
LINE
  5
2A7
330
18
100
AcDbEntity
  8
SJC2
100
AcDbLine
 10
4944.2510249577
 20
4416.622142941094
 30
0.0
 11
4910.5614502644
 21
4412.037182071994
 31
0.0
  0
LINE
  5
2A8
330
18
100
AcDbEntity
  8
SJC2
100
AcDbLine
 10
4945.060351117501
 20
4410.676098107894
 30
0.0
 11
4911.3707764242
 21
4406.091747590195
 31
0.0
  0
ARC
  5
2A9
330
18
100
AcDbEntity
  8
SJC2
100
AcDbCircle
 10
4910.9661133443
 20
4409.064464831095
 30
0.0
 40
3.000133330799999
100
AcDbArc
 50
97.75177915429999
 51
277.7517791543
  0
LINE
  5
2AA
330
18
100
AcDbEntity
  8
SJC2
100
AcDbLine
 10
4888.609546294699
 20
4415.937328498194
 30
0.0
 11
4908.4270508822
 21
4418.633861661194
 31
0.0
  0
LINE
  5
2AB
330
18
100
AcDbEntity
  8
SJC2
100
AcDbLine
 10
4889.4182621029
 20
4409.991283664894
 30
0.0
 11
4909.2357666904
 21
4412.689037530994
 31
0.0
  0
ARC
  5
2AC
330
18
100
AcDbEntity
  8
SJC2
100
AcDbCircle
 10
4945.4467105316
 20
4413.579786119095
 30
0.0
 40
9.999999851
100
AcDbArc
 50
205.2055446795
 51
277.7485568211
  0
ARC
  5
2AD
330
18
100
AcDbEntity
  8
SJC2
100
AcDbCircle
 10
4945.4462517267
 20
4413.579909837494
 30
0.0
 40
4.0
100
AcDbArc
 50
236.3522004233
 51
277.7586588824
  0
ARC
  5
2AE
330
18
100
AcDbEntity
  8
SJC2
100
AcDbCircle
 10
4945.4467478729
 20
4413.580336233194
 30
0.0
 40
4.0
100
AcDbArc
 50
97.75276506659999
 51
139.1602723427
  0
ARC
  5
2AF
330
18
100
AcDbEntity
  8
SJC2
100
AcDbCircle
 10
4945.446371824499
 20
4413.579943966195
 30
0.0
 40
9.999999851
100
AcDbArc
 50
97.750207149
 51
170.2935824344
  0
ARC
  5
2B0
330
18
100
AcDbEntity
  8
SJC2
100
AcDbCircle
 10
4909.7757693878
 20
4408.725655504594
 30
0.0
 40
4.0
100
AcDbArc
 50
56.35220042330001
 51
97.75865888230001
  0
LINE
  5
2B1
330
18
100
AcDbEntity
  8
SJC2
100
AcDbLine
 10
4944.097826717801
 20
4423.488597916894
 30
0.0
 11
4958.6998772815
 21
4425.475902574794
 31
0.0
  0
LINE
  5
2B2
330
18
100
AcDbEntity
  8
SJC2
100
AcDbLine
 10
4944.9071528776
 20
4417.543773786795
 30
0.0
 11
4956.8297601219
 21
4419.166088215694
 31
0.0
  0
ARC
  5
2B3
330
18
100
AcDbEntity
  8
SJC2
100
AcDbCircle
 10
4944.6556880376
 20
4413.649120524495
 30
0.0
 40
3.000435718
100
AcDbArc
 50
277.7509931202
 51
97.75099312020003
  0
LINE
  5
2B4
330
18
100
AcDbEntity
  8
SJC2
100
AcDbLine
 10
4945.9862544241
 20
4409.616527811194
 30
0.0
 11
4956.4550042681
 21
4411.041088336794
 31
0.0
  0
LINE
  5
2B5
330
18
100
AcDbEntity
  8
SJC2
100
AcDbLine
 10
4946.7949702323
 20
4403.671093329394
 30
0.0
 11
4957.568895853
 21
4405.137768112295
 31
0.0
  0
LINE
  5
2B6
330
18
100
AcDbEntity
  8
SJC2
100
AcDbLine
 10
4837.0085949151
 20
4388.906689252594
 30
0.0
 11
4856.826099502701
 21
4391.603832767095
 31
0.0
  0
ARC
  5
2B7
330
18
100
AcDbEntity
  8
SJC2
100
AcDbCircle
 10
4835.659369805399
 20
4398.815436703894
 30
0.0
 40
4.0
100
AcDbArc
 50
236.3504152461
 51
277.7659825602
  0
ARC
  5
2B8
330
18
100
AcDbEntity
  8
SJC2
100
AcDbCircle
 10
4835.6603352144
 20
4398.815382042195
 30
0.0
 40
9.999999851
100
AcDbArc
 50
205.2055446795
 51
277.7485568211
  0
LINE
  5
2B9
330
18
100
AcDbEntity
  8
SJC2
100
AcDbLine
 10
4798.566823027
 20
4397.228832683194
 30
0.0
 11
4832.255787368801
 21
4401.813793552395
 31
0.0
  0
LINE
  5
2BA
330
18
100
AcDbEntity
  8
SJC2
100
AcDbLine
 10
4799.3755388353
 20
4391.283398201494
 30
0.0
 11
4833.0651135286
 21
4395.868969422294
 31
0.0
  0
ARC
  5
2BB
330
18
100
AcDbEntity
  8
CENTER
100
AcDbCircle
 10
4021.856043398201
 20
10878.59581312149
 30
0.0
 40
6530.7738284651
100
AcDbArc
 50
263.1488628346
 51
276.8444006199
  0
LINE
  5
2BC
330
18
100
AcDbEntity
  8
SJC2
100
AcDbLine
 10
5187.8325642968
 20
4398.539867819994
 30
0.0
 11
5154.142989603499
 21
4403.124828689095
 31
0.0
  0
ARC
  5
2BD
330
18
100
AcDbEntity
  8
SJC2
100
AcDbCircle
 10
5154.5160886386
 20
4406.101537871594
 30
0.0
 40
3.000000074499999
100
AcDbArc
 50
81.6390336171
 51
262.8558356891
  0
LINE
  5
2BE
330
18
100
AcDbEntity
  8
SJC2
100
AcDbLine
 10
5188.6412801051
 20
4404.484691950094
 30
0.0
 11
5154.9523157633
 21
4409.069652819295
 31
0.0
  0
ARC
  5
2BF
330
18
100
AcDbEntity
  8
SJC2
100
AcDbCircle
 10
5188.27211771
 20
4401.507491994994
 30
0.0
 40
3.000000074499999
100
AcDbArc
 50
261.5748184398
 51
82.9316019866
  0
ARC
  5
2C0
330
18
100
AcDbEntity
  8
SJC2
100
AcDbCircle
 10
5188.236895550399
 20
4401.512486717794
 30
0.0
 40
9.999999851
100
AcDbArc
 50
189.7064175656
 51
262.249792851
  0
ARC
  5
2C1
330
18
100
AcDbEntity
  8
SJC2
100
AcDbCircle
 10
5188.2359819012
 20
4401.512880172194
 30
0.0
 40
4.0
100
AcDbArc
 50
220.8546057419
 51
262.2658784954
  0
LINE
  5
2C2
330
18
100
AcDbEntity
  8
SJC2
100
AcDbLine
 10
5207.5145708395
 20
4394.852123734295
 30
0.0
 11
5187.6976766035
 21
4397.549267248794
 31
0.0
  0
LINE
  5
2C3
330
18
100
AcDbEntity
  8
SJC2
100
AcDbLine
 10
5208.593672385901
 20
4402.778759358394
 30
0.0
 11
5188.7761677984
 21
4405.475902872895
 31
0.0
  0
ARC
  5
2C4
330
18
100
AcDbEntity
  8
SJC2
100
AcDbCircle
 10
5188.236165101
 20
4401.512520846494
 30
0.0
 40
4.0
100
AcDbArc
 50
82.24134111759999
 51
123.6477995767
  0
ARC
  5
2C5
330
18
100
AcDbEntity
  8
SJC2
100
AcDbCircle
 10
5208.054675449099
 20
4398.815240429195
 30
0.0
 40
4.0
100
AcDbArc
 50
40.85282573219999
 51
82.2558804281
  0
ARC
  5
2C6
330
18
100
AcDbEntity
  8
SJC2
100
AcDbCircle
 10
5208.054453439
 20
4398.815539889394
 30
0.0
 40
9.999999851
100
AcDbArc
 50
9.706417565599998
 51
82.24979285100001
  0
LINE
  5
2C7
330
18
100
AcDbEntity
  8
SJC2
100
AcDbLine
 10
5209.4029985457
 20
4408.724193840094
 30
0.0
 11
5189.585493958201
 21
4411.420727002995
 31
0.0
  0
ARC
  5
2C8
330
18
100
AcDbEntity
  8
SJC2
100
AcDbCircle
 10
5188.236964248
 20
4401.512070956894
 30
0.0
 40
9.999999851
100
AcDbArc
 50
82.2498818799
 51
154.7908228795
  0
ARC
  5
2C9
330
18
100
AcDbEntity
  8
SJC2
100
AcDbCircle
 10
5210.067497151499
 20
4398.541674218095
 30
0.0
 40
3.000000074499999
100
AcDbArc
 50
82.85583569079999
 51
261.6390336155
  0
ARC
  5
2CA
330
18
100
AcDbEntity
  8
SJC2
100
AcDbCircle
 10
5133.9393040993
 20
4408.725635925394
 30
0.0
 40
9.999999851
100
AcDbArc
 50
189.7100500038
 51
262.2504110392
  0
LINE
  5
2CB
330
18
100
AcDbEntity
  8
SJC2
100
AcDbLine
 10
5152.408370488799
 20
4396.119213559194
 30
0.0
 11
5132.5908659012
 21
4398.816967425194
 31
0.0
  0
LINE
  5
2CC
330
18
100
AcDbEntity
  8
SJC2
100
AcDbLine
 10
5153.217086297
 20
4402.065258392394
 30
0.0
 11
5133.3995817095
 21
4404.761791555395
 31
0.0
  0
ARC
  5
2CD
330
18
100
AcDbEntity
  8
SJC2
100
AcDbCircle
 10
5133.939176704799
 20
4408.725229108894
 30
0.0
 40
4.0
100
AcDbArc
 50
220.8397276573
 51
262.2472349334
  0
ARC
  5
2CE
330
18
100
AcDbEntity
  8
SJC2
100
AcDbCircle
 10
5153.756358545
 20
4406.028674547495
 30
0.0
 40
9.999999851
100
AcDbArc
 50
9.706417565599998
 51
82.24979285100001
  0
ARC
  5
2CF
330
18
100
AcDbEntity
  8
SJC2
100
AcDbCircle
 10
5153.757789188301
 20
4406.027683421695
 30
0.0
 40
4.0
100
AcDbArc
 50
40.8659252302
 51
82.2645289707
  0
ARC
  5
2D0
330
18
100
AcDbEntity
  8
SJC2
100
AcDbCircle
 10
5153.757088994399
 20
4406.028640418795
 30
0.0
 40
4.0
100
AcDbArc
 50
262.2413411176
 51
303.6477995767
  0
ARC
  5
2D1
330
18
100
AcDbEntity
  8
SJC2
100
AcDbCircle
 10
5153.7557865842
 20
4406.028021100194
 30
0.0
 40
9.999999851
100
AcDbArc
 50
262.2563211929
 51
334.7975936797
  0
ARC
  5
2D2
330
18
100
AcDbEntity
  8
SJC2
100
AcDbCircle
 10
5133.938869354
 20
4408.725205614994
 30
0.0
 40
9.999999851
100
AcDbArc
 50
82.2498818799
 51
154.7908228795
  0
LINE
  5
2D3
330
18
100
AcDbEntity
  8
SJC2
100
AcDbLine
 10
5099.463424988599
 20
4416.622142941094
 30
0.0
 11
5133.1529996819
 21
4412.037182071994
 31
0.0
  0
LINE
  5
2D4
330
18
100
AcDbEntity
  8
SJC2
100
AcDbLine
 10
5098.6540988288
 20
4410.676098107894
 30
0.0
 11
5132.3436735221
 21
4406.091747590195
 31
0.0
  0
ARC
  5
2D5
330
18
100
AcDbEntity
  8
SJC2
100
AcDbCircle
 10
5132.748336602
 20
4409.064464831095
 30
0.0
 40
3.000133330799999
100
AcDbArc
 50
262.2482208457
 51
82.24822084569998
  0
LINE
  5
2D6
330
18
100
AcDbEntity
  8
SJC2
100
AcDbLine
 10
5155.1049036517
 20
4415.937328498194
 30
0.0
 11
5135.2873990642
 21
4418.633861661194
 31
0.0
  0
LINE
  5
2D7
330
18
100
AcDbEntity
  8
SJC2
100
AcDbLine
 10
5154.296187843399
 20
4409.991283664894
 30
0.0
 11
5134.4786832559
 21
4412.689037530994
 31
0.0
  0
ARC
  5
2D8
330
18
100
AcDbEntity
  8
SJC2
100
AcDbCircle
 10
5098.2677394148
 20
4413.579786119095
 30
0.0
 40
9.999999851
100
AcDbArc
 50
262.2514431789
 51
334.7944553205
  0
ARC
  5
2D9
330
18
100
AcDbEntity
  8
SJC2
100
AcDbCircle
 10
5098.2681982197
 20
4413.579909837494
 30
0.0
 40
4.0
100
AcDbArc
 50
262.2413411177
 51
303.6477995767
  0
ARC
  5
2DA
330
18
100
AcDbEntity
  8
SJC2
100
AcDbCircle
 10
5098.2677020734
 20
4413.580336233194
 30
0.0
 40
4.0
100
AcDbArc
 50
40.8397276573
 51
82.2472349334
  0
ARC
  5
2DB
330
18
100
AcDbEntity
  8
SJC2
100
AcDbCircle
 10
5098.268078121799
 20
4413.579943966195
 30
0.0
 40
9.999999851
100
AcDbArc
 50
9.706417565599998
 51
82.24979285100001
  0
ARC
  5
2DC
330
18
100
AcDbEntity
  8
SJC
100
AcDbCircle
 10
5133.9386805586
 20
4408.725655504594
 30
0.0
 40
4.0
100
AcDbArc
 50
82.24134111759999
 51
123.6477995767
  0
LINE
  5
2DD
330
18
100
AcDbEntity
  8
SJC2
100
AcDbLine
 10
5099.6166232285
 20
4423.488597916894
 30
0.0
 11
5085.014572664899
 21
4425.475902574794
 31
0.0
  0
LINE
  5
2DE
330
18
100
AcDbEntity
  8
SJC2
100
AcDbLine
 10
5098.8072970687
 20
4417.543773786795
 30
0.0
 11
5086.884689824501
 21
4419.166088215694
 31
0.0
  0
ARC
  5
2DF
330
18
100
AcDbEntity
  8
SJC2
100
AcDbCircle
 10
5099.0587619087
 20
4413.649120524495
 30
0.0
 40
3.000435718
100
AcDbArc
 50
82.24900687979999
 51
262.2490068798
  0
LINE
  5
2E0
330
18
100
AcDbEntity
  8
SJC2
100
AcDbLine
 10
5097.7281955223
 20
4409.616527811194
 30
0.0
 11
5087.2594456783
 21
4411.041088336794
 31
0.0
  0
LINE
  5
2E1
330
18
100
AcDbEntity
  8
SJC2
100
AcDbLine
 10
5096.919479713999
 20
4403.671093329394
 30
0.0
 11
5086.1455540933
 21
4405.137768112295
 31
0.0
  0
LINE
  5
2E2
330
18
100
AcDbEntity
  8
SJC2
100
AcDbLine
 10
5206.7058550312
 20
4388.906689252594
 30
0.0
 11
5186.8883504437
 21
4391.603832767095
 31
0.0
  0
ARC
  5
2E3
330
18
100
AcDbEntity
  8
SJC2
100
AcDbCircle
 10
5208.055080141
 20
4398.815436703894
 30
0.0
 40
4.0
100
AcDbArc
 50
262.2340174397
 51
303.6495847538
  0
ARC
  5
2E4
330
18
100
AcDbEntity
  8
SJC2
100
AcDbCircle
 10
5208.054114731901
 20
4398.815382042195
 30
0.0
 40
9.999999851
100
AcDbArc
 50
262.2514431789
 51
334.7944553205
  0
LINE
  5
2E5
330
18
100
AcDbEntity
  8
SJC2
100
AcDbLine
 10
5245.1476269193
 20
4397.228832683194
 30
0.0
 11
5211.4586625776
 21
4401.813793552395
 31
0.0
  0
LINE
  5
2E6
330
18
100
AcDbEntity
  8
SJC2
100
AcDbLine
 10
5244.3389111111
 20
4391.283398201494
 30
0.0
 11
5210.649336417801
 21
4395.868969422294
 31
0.0
  0
LINE
  5
2E7
330
18
100
AcDbEntity
  8
SJC2
100
AcDbLine
 10
5298.8097354947
 20
4383.436718630995
 30
0.0
 11
5265.1201608014
 21
4388.022289851694
 31
0.0
  0
ARC
  5
2E8
330
18
100
AcDbEntity
  8
SJC2
100
AcDbCircle
 10
5265.556387926199
 20
4390.990404799394
 30
0.0
 40
3.000000074499999
100
AcDbArc
 50
82.8558356903
 51
261.6390336159
  0
LINE
  5
2E9
330
18
100
AcDbEntity
  8
SJC2
100
AcDbLine
 10
5299.618451303
 20
4389.382153112694
 30
0.0
 11
5265.929486961201
 21
4393.967113981894
 31
0.0
  0
ARC
  5
2EA
330
18
100
AcDbEntity
  8
SJC2
100
AcDbCircle
 10
5299.2140933988
 20
4386.409435871795
 30
0.0
 40
3.000092183399999
100
AcDbArc
 50
262.2539958344
 51
82.25399583439999
  0
ARC
  5
2EB
330
18
100
AcDbEntity
  8
SJC2
100
AcDbCircle
 10
5299.213959839601
 20
4386.409352078194
 30
0.0
 40
9.999999851
100
AcDbArc
 50
189.7100500038
 51
262.2504110392
  0
ARC
  5
2EC
330
18
100
AcDbEntity
  8
SJC2
100
AcDbCircle
 10
5299.2137510961
 20
4386.409649722194
 30
0.0
 40
4.0
100
AcDbArc
 50
220.8415094862
 51
262.2572340959
  0
LINE
  5
2ED
330
18
100
AcDbEntity
  8
SJC2
100
AcDbLine
 10
5318.4917420374
 20
4379.748974545295
 30
0.0
 11
5298.6748478014
 21
4382.446118059794
 31
0.0
  0
LINE
  5
2EE
330
18
100
AcDbEntity
  8
SJC2
100
AcDbLine
 10
5319.5708435838
 20
4387.675610169394
 30
0.0
 11
5299.7533389963
 21
4390.372143332294
 31
0.0
  0
ARC
  5
2EF
330
18
100
AcDbEntity
  8
SJC2
100
AcDbCircle
 10
5299.2133362989
 20
4386.408761305895
 30
0.0
 40
4.0
100
AcDbArc
 50
82.24134111759999
 51
123.6477995767
  0
ARC
  5
2F0
330
18
100
AcDbEntity
  8
SJC2
100
AcDbCircle
 10
5299.2141354459
 20
4386.409532119394
 30
0.0
 40
9.999999851
100
AcDbArc
 50
82.2498818799
 51
154.7908228795
  0
LINE
  5
2F1
330
18
100
AcDbEntity
  8
SJC2
100
AcDbLine
 10
5263.385541686599
 20
4381.016674721695
 30
0.0
 11
5243.568037099099
 21
4383.713207884595
 31
0.0
  0
LINE
  5
2F2
330
18
100
AcDbEntity
  8
SJC2
100
AcDbLine
 10
5264.194257494899
 20
4386.962109203395
 30
0.0
 11
5244.3767529074
 21
4389.659252717894
 31
0.0
  0
ARC
  5
2F3
330
18
100
AcDbEntity
  8
SJC2
100
AcDbCircle
 10
5264.7337436018
 20
4390.924885903594
 30
0.0
 40
9.999999851
100
AcDbArc
 50
9.713682507599999
 51
82.25102946680001
  0
ARC
  5
2F4
330
18
100
AcDbEntity
  8
SJC2
100
AcDbCircle
 10
5264.733764046
 20
4390.925307273895
 30
0.0
 40
4.0
100
AcDbArc
 50
40.8397276573
 51
82.2472349334
  0
ARC
  5
2F5
330
18
100
AcDbEntity
  8
SJC2
100
AcDbCircle
 10
5264.7342601923
 20
4390.925491229794
 30
0.0
 40
4.0
100
AcDbArc
 50
262.2413411176
 51
303.6477995767
  0
ARC
  5
2F6
330
18
100
AcDbEntity
  8
SJC2
100
AcDbCircle
 10
5264.733497788
 20
4390.925408816894
 30
0.0
 40
9.999999851
100
AcDbArc
 50
262.2531987003
 51
334.7903286164
  0
LINE
  5
2F7
330
18
100
AcDbEntity
  8
SJC2
100
AcDbLine
 10
5266.0820748496
 20
4400.833568957694
 30
0.0
 11
5246.2645702621
 21
4403.531322823694
 31
0.0
  0
LINE
  5
2F8
330
18
100
AcDbEntity
  8
SJC2
100
AcDbLine
 10
5265.2733590413
 20
4394.888744827494
 30
0.0
 11
5245.4558544538
 21
4397.585888341994
 31
0.0
  0
ARC
  5
2F9
330
18
100
AcDbEntity
  8
SJC2
100
AcDbCircle
 10
5244.9163105614
 20
4393.622630034094
 30
0.0
 40
9.999999851
100
AcDbArc
 50
82.2514431789
 51
154.7944553205
  0
ARC
  5
2FA
330
18
100
AcDbEntity
  8
SJC2
100
AcDbCircle
 10
5244.9165822058
 20
4393.621861835395
 30
0.0
 40
9.999999851
100
AcDbArc
 50
189.7064175656
 51
262.249792851
  0
ARC
  5
2FB
330
18
100
AcDbEntity
  8
SJC2
100
AcDbCircle
 10
5244.9163479027
 20
4393.622690271494
 30
0.0
 40
4.0
100
AcDbArc
 50
220.8397276573
 51
262.2472349334
  0
ARC
  5
2FC
330
18
100
AcDbEntity
  8
SJC2
100
AcDbCircle
 10
5244.9166128723
 20
4393.622402689594
 30
0.0
 40
4.0
100
AcDbArc
 50
82.25234388199998
 51
123.6608969281
  0
ARC
  5
2FD
330
18
100
AcDbEntity
  8
SJC2
100
AcDbCircle
 10
5244.5162182373
 20
4394.030285367594
 30
0.0
 40
3.000092183399999
100
AcDbArc
 50
262.2539958344
 51
82.25399583439999
  0
LINE
  5
2FE
330
18
100
AcDbEntity
  8
SJC2
100
AcDbLine
 10
5310.419842743599
 20
4374.792309580094
 30
0.0
 11
5297.8655216416
 21
4376.500683578095
 31
0.0
  0
LINE
  5
2FF
330
18
100
AcDbEntity
  8
SJC2
100
AcDbLine
 10
5313.1169862581
 20
4394.609203815995
 30
0.0
 11
5300.5626651561
 21
4396.318188165595
 31
0.0
  0
LINE
  5
312
330
18
100
AcDbEntity
  8
SJC2
100
AcDbLine
 10
1099.6177509484
 20
4423.488597916894
 30
0.0
 11
1086.4390402073
 21
4425.281810780893
 31
0.0
  0
LINE
  5
313
330
18
100
AcDbEntity
  8
SJC2
100
AcDbLine
 10
1098.8084247886
 20
4417.543773786795
 30
0.0
 11
1087.594893461501
 21
4419.069652670294
 31
0.0
  0
LINE
  5
314
330
18
100
AcDbEntity
  8
SJC
100
AcDbLine
 10
977.3077246947996
 20
3516.392053816595
 30
0.0
 11
977.3077246947996
 21
4476.392039511394
 31
0.0
  0
LINE
  5
330
330
18
100
AcDbEntity
  8
SJC
100
AcDbLine
 10
2977.307389716699
 20
3516.392053816595
 30
0.0
 11
2977.307389716699
 21
3986.392378046016
 31
0.0
  0
LINE
  5
332
330
18
100
AcDbEntity
  8
SJC
100
AcDbLine
 10
3066.4074250101
 20
3516.392053816595
 30
0.0
 11
3066.4074250101
 21
3986.392410975406
 31
0.0
  0
LINE
  5
34E
330
18
100
AcDbEntity
  8
SJC
100
AcDbLine
 10
5066.4073952078
 20
4446.392039958495
 30
0.0
 11
5066.4073952078
 21
4484.690563819694
 31
0.0
  0
LINE
  5
34F
330
18
100
AcDbEntity
  8
SJC
100
AcDbLine
 10
4977.3070547386
 20
4446.392039958495
 30
0.0
 11
4977.3070547386
 21
4484.690563819694
 31
0.0
  0
LINE
  5
36A
330
18
100
AcDbEntity
  8
SJC
100
AcDbLine
 10
6077.307038347299
 20
3116.392059776995
 30
0.0
 11
6077.3070383473
 21
4484.690563819695
 31
0.0
1001
ACAD
1000
ASC_BOUNDS
1002
{
1070
    19
1005
10EF
1002
}
  0
LINE
  5
385
330
18
100
AcDbEntity
  8
SJC
100
AcDbLine
 10
6166.407378816501
 20
3116.392059776995
 30
0.0
 11
6166.407378816501
 21
4484.690563819695
 31
0.0
1001
ACAD
1000
ASC_BOUNDS
1002
{
1070
    19
1005
10EF
1002
}
  0
CIRCLE
  5
386
330
18
100
AcDbEntity
  8
SJC
100
AcDbCircle
 10
6121.8572085819
 20
4416.391430053994
 30
0.0
 40
29.999999553
  0
TEXT
  5
412
330
18
100
AcDbEntity
  8
MOJI
100
AcDbText
 10
4266.277426982427
 20
542.5660436414629
 30
0.0
 40
60.0
  1
平行ピン　
 41
0.8
  7
EXT08
100
AcDbText
  0
ARC
  5
413
330
18
100
AcDbEntity
  8
KASOU
100
AcDbCircle
 10
2021.857710526
 20
10888.59559675999
 30
0.0
 40
6530.7738284651
100
AcDbArc
 50
263.1593138472
 51
276.8477407159
  0
ARC
  5
414
330
18
100
AcDbEntity
  8
KASOU
100
AcDbCircle
 10
2021.8572515114
 20
10868.59573530329
 30
0.0
 40
6530.7738284651
100
AcDbArc
 50
263.1546501276
 51
276.8572450027
  0
ARC
  5
415
330
18
100
AcDbEntity
  8
KASOU
100
AcDbCircle
 10
4021.857680723701
 20
10888.59559675999
 30
0.0
 40
6530.7738284651
100
AcDbArc
 50
263.1593138472
 51
276.8477407159
  0
ARC
  5
416
330
18
100
AcDbEntity
  8
KASOU
100
AcDbCircle
 10
4021.857068987499
 20
10868.59575363679
 30
0.0
 40
6530.7738284651
100
AcDbArc
 50
263.1546514771
 51
276.8572436556
  0
LINE
  5
417
330
18
100
AcDbEntity
  8
SJC
100
AcDbLine
 10
1681.709531377425
 20
381.6745327446961
 30
0.0
 11
751.0589867735252
 21
381.6745327446961
 31
0.0
  0
LINE
  5
418
330
18
100
AcDbEntity
  8
SJC
100
AcDbLine
 10
6077.307038347299
 20
3516.392053816595
 30
0.0
 11
5774.445106296759
 21
3516.392053816595
 31
0.0
1001
ACAD
1000
ASC_BOUNDS
1002
{
1070
    19
1005
10EF
1002
}
  0
LINE
  5
419
330
18
100
AcDbEntity
  8
SJC
100
AcDbLine
 10
6166.408599519599
 20
3516.392053816595
 30
0.0
 11
6430.4582782021
 21
3516.392053816595
 31
0.0
1001
ACAD
1000
ASC_BOUNDS
1002
{
1070
    19
1005
10EF
1002
}
  0
TEXT
  5
422
330
18
100
AcDbEntity
  8
MOJI
100
AcDbText
 10
589.1966008749022
 20
1862.615977962096
 30
0.0
 40
60.0
  1
4
 41
0.8
  7
EXT08
100
AcDbText
  0
TEXT
  5
433
330
18
100
AcDbEntity
  8
MOJI
100
AcDbText
 10
1506.482788383025
 20
1546.189913094251
 30
0.0
 40
60.0
  1
φ89.1×t3.2
 41
0.8
  7
EXT08
100
AcDbText
  0
TEXT
  5
434
330
18
100
AcDbEntity
  8
MOJI
100
AcDbText
 10
1648.122795518445
 20
1643.64445311394
 30
0.0
 40
60.0
  1
支柱
 41
0.8
  7
EXT08
100
AcDbText
  0
TEXT
  5
435
330
18
100
AcDbEntity
  8
MOJI
100
AcDbText
 10
1549.418244570313
 20
1657.654245015405
 30
0.0
 40
60.0
  1
1
 41
0.8
  7
EXT08
100
AcDbText
  0
TEXT
  5
436
330
18
100
AcDbEntity
  8
MOJI
100
AcDbText
 10
1538.644937262969
 20
1973.393967808413
 30
0.0
 40
60.0
  1
3
 41
0.8
  7
EXT08
100
AcDbText
  0
TEXT
  5
43F
330
18
100
AcDbEntity
  8
MOJI
100
AcDbText
 10
575.4111767562244
 20
2522.569656105253
 30
0.0
 40
60.0
  1
5
 41
0.8
  7
EXT08
100
AcDbText
  0
TEXT
  5
447
330
18
100
AcDbEntity
  8
MOJI
100
AcDbText
 10
3330.829723315999
 20
4518.746564017232
 30
0.0
 40
60.0
  1
%%c6チェーン
 41
0.8
  7
EXT08
100
AcDbText
  0
TEXT
  5
457
330
18
100
AcDbEntity
  8
MOJI
100
AcDbText
 10
709.2036024432664
 20
3538.492273213794
 30
0.0
 40
60.0
  1
GL
 41
0.8
  7
EXT08
100
AcDbText
  0
TEXT
  5
459
330
18
100
AcDbEntity
  8
MOJI
100
AcDbText
 10
1694.970639578325
 20
2703.052979131696
 30
0.0
 40
60.0
  1
擬宝珠
 41
0.8
  7
EXT08
100
AcDbText
  0
TEXT
  5
45A
330
18
100
AcDbEntity
  8
MOJI
100
AcDbText
 10
1608.505797116725
 20
2722.242126794996
 30
0.0
 40
60.0
  1
2
 41
0.8
  7
EXT08
100
AcDbText
  0
TEXT
  5
462
330
18
100
AcDbEntity
  8
MOJI
100
AcDbText
 10
3219.823768421651
 20
3400.918455701051
 30
0.0
 40
60.0
  1
支柱φ89.1×t3.2
 41
0.8
  7
EXT08
100
AcDbText
  0
TEXT
  5
463
330
18
100
AcDbEntity
  8
MOJI
100
AcDbText
 10
3171.860021264079
 20
4279.119842611435
 30
0.0
 40
60.0
  1
チェーン金具
 41
0.8
  7
EXT08
100
AcDbText
  0
TEXT
  5
46B
330
18
100
AcDbEntity
  8
MOJI
100
AcDbText
 10
3167.2292618866
 20
4695.415230560794
 30
0.0
 40
60.0
  1
擬宝珠
 41
0.8
  7
EXT08
100
AcDbText
  0
TEXT
  5
477
330
18
100
AcDbEntity
  8
MOJI
100
AcDbText
 10
5205.748666954827
 20
545.2953323375228
 30
0.0
 40
60.0
  1
%%C5×30
 41
0.8
  7
EXT08
100
AcDbText
  0
TEXT
  5
478
330
18
100
AcDbEntity
  8
MOJI
100
AcDbText
 10
5195.76013146753
 20
445.8100636476934
 30
0.0
 40
60.0
  1
M5×15
 41
0.8
  7
EXT08
100
AcDbText
  0
LINE
  5
479
330
18
100
AcDbEntity
  8
CENTER
100
AcDbLine
 10
6121.8572085819
 20
4653.302804430494
 30
0.0
 11
6121.8572085819
 21
3093.130341373595
 31
0.0
  0
TEXT
  5
47B
330
18
100
AcDbEntity
  8
MOJI
100
AcDbText
 10
651.2702454500249
 20
2513.203431646496
 30
0.0
 40
60.0
  1
平行ピンφ5
 41
0.8
  7
EXT08
100
AcDbText
  0
TEXT
  5
47C
330
18
100
AcDbEntity
  8
MOJI
100
AcDbText
 10
673.1546667269959
 20
1862.6245105305
 30
0.0
 40
60.0
  1
%%c6チェーン
 41
0.8
  7
EXT08
100
AcDbText
  0
DIMENSION
  5
47F
330
18
100
AcDbEntity
  8
SUNPOU
100
AcDbDimension
  2
*D14
 10
6166.3573299891
 20
4834.790502603533
 30
0.0
 11
6108.950901600747
 21
4897.657301962852
 31
0.0
 70
   160
  1
φ90
 71
     5
 42
89.00024281440073
  3
SJC
100
AcDbAlignedDimension
 13
6077.3570871747
 23
4624.643747538395
 33
0.0
 14
6166.3573299891
 24
4624.643747538395
 34
0.0
100
AcDbRotatedDimension
1001
ACAD
1000
DSTYLE
1002
{
1070
    40
1040
20.0
1070
    41
1040
2.0
1070
    42
1040
1.0
1070
    43
1040
6.0
1070
    44
1040
1.0
1070
    73
1070
     0
1070
    74
1070
     0
1070
    77
1070
     1
1070
    78
1070
     8
1070
   140
1040
3.0
1070
   147
1040
1.199999999999999
1070
   172
1070
     1
1070
   176
1070
   256
1070
   177
1070
   256
1070
   178
1070
   256
1070
   271
1070
     1
1070
   275
1070
     1
1070
   279
1070
     2
1070
   340
1005
7A8
1002
}
  0
DIMENSION
  5
482
330
18
100
AcDbEntity
  8
SUNPOU
100
AcDbDimension
  2
*D15
 10
1411.487977786924
 20
2743.980041450596
 30
0.0
 11
1315.683464227583
 21
2792.793184768286
 31
0.0
 70
   160
  1
φ90
 71
     5
 42
88.99993763864996
  3
SJC
100
AcDbAlignedDimension
 13
1233.488102509625
 23
2606.356142432096
 33
0.0
 14
1411.487977786924
 24
2606.356142432096
 34
0.0
100
AcDbRotatedDimension
1001
ACAD
1000
DSTYLE
1002
{
1070
    40
1040
20.0
1070
    41
1040
2.0
1070
    42
1040
1.0
1070
    43
1040
6.0
1070
    44
1040
1.0
1070
    73
1070
     0
1070
    74
1070
     0
1070
    77
1070
     1
1070
    78
1070
     8
1070
   140
1040
3.0
1070
   144
1040
0.5
1070
   147
1040
1.199999999999999
1070
   172
1070
     1
1070
   176
1070
   256
1070
   177
1070
   256
1070
   178
1070
   256
1070
   271
1070
     1
1070
   275
1070
     1
1070
   279
1070
     2
1070
   340
1005
7A8
1002
}
  0
DIMENSION
  5
484
330
18
100
AcDbEntity
  8
SUNPOU
100
AcDbDimension
  2
*D5
 10
2199.452839299032
 20
381.6745327446959
 30
0.0
 11
2145.452839299032
 21
1281.674519333646
 31
0.0
 70
    32
 71
     5
 42
899.9999865889499
  3
SJC
100
AcDbAlignedDimension
 13
1444.270417781925
 23
2181.674505922596
 33
0.0
 14
1681.884549983425
 24
381.6745327446961
 34
0.0
 50
90.0
100
AcDbRotatedDimension
1001
ACAD
1000
DSTYLE
1002
{
1070
    40
1040
20.0
1070
    41
1040
2.0
1070
    42
1040
1.0
1070
    43
1040
6.0
1070
    44
1040
1.0
1070
    73
1070
     0
1070
    74
1070
     0
1070
    77
1070
     1
1070
    78
1070
     8
1070
   140
1040
3.0
1070
   144
1040
0.5
1070
   147
1040
1.199999999999999
1070
   172
1070
     1
1070
   176
1070
   256
1070
   177
1070
   256
1070
   178
1070
   256
1070
   271
1070
     1
1070
   275
1070
     1
1070
   279
1070
     2
1070
   340
1005
7A8
1002
}
  0
TEXT
  5
485
330
18
100
AcDbEntity
  8
ZWAKU
100
AcDbText
 10
1091.984225245143
 20
5103.236122902227
 30
0.0
 40
60.0
  1
(1/20)
 41
0.8
  7
EXT08
100
AcDbText
  0
TEXT
  5
486
330
18
100
AcDbEntity
  8
ZWAKU
100
AcDbText
 10
2366.553596955763
 20
2806.205670083326
 30
0.0
 40
80.0
  1
(1/10)
 41
0.8
  7
EXT08
100
AcDbText
  0
DIMENSION
  5
487
330
18
100
AcDbEntity
  8
SUNPOU
100
AcDbDimension
  2
*D3
 10
2455.947891629333
 20
381.6745327446959
 30
0.0
 11
2401.947891629333
 21
1475.624452076743
 31
0.0
 70
    32
  1
1094
 71
     5
 42
1093.949919332047
  3
SJC
100
AcDbAlignedDimension
 13
1322.488345323925
 23
2569.57437140879
 33
0.0
 14
1681.884549983425
 24
381.6745327446961
 34
0.0
 50
90.0
100
AcDbRotatedDimension
1001
ACAD
1000
DSTYLE
1002
{
1070
    40
1040
20.0
1070
    41
1040
2.0
1070
    42
1040
1.0
1070
    43
1040
6.0
1070
    44
1040
1.0
1070
    73
1070
     0
1070
    74
1070
     0
1070
    77
1070
     1
1070
    78
1070
     8
1070
   140
1040
3.0
1070
   144
1040
0.5
1070
   147
1040
1.199999999999999
1070
   172
1070
     1
1070
   176
1070
   256
1070
   177
1070
   256
1070
   178
1070
   256
1070
   271
1070
     1
1070
   275
1070
     1
1070
   279
1070
     2
1070
   340
1005
7A8
1002
}
  0
DIMENSION
  5
488
330
18
100
AcDbEntity
  8
SUNPOU
100
AcDbDimension
  2
*D4
 10
2338.655107732633
 20
381.6745327446959
 30
0.0
 11
2284.655107732633
 21
1341.624683238946
 31
0.0
 70
    32
  1
960
 71
     5
 42
959.95015049425
  3
SJC
100
AcDbAlignedDimension
 13
1480.270478578724
 23
2301.574833733196
 33
0.0
 14
1681.884549983425
 24
381.6745327446961
 34
0.0
 50
90.0
100
AcDbRotatedDimension
1001
ACAD
1000
DSTYLE
1002
{
1070
    40
1040
20.0
1070
    41
1040
2.0
1070
    42
1040
1.0
1070
    43
1040
6.0
1070
    44
1040
1.0
1070
    73
1070
     0
1070
    74
1070
     0
1070
    77
1070
     1
1070
    78
1070
     8
1070
   140
1040
3.0
1070
   144
1040
0.5
1070
   147
1040
1.199999999999999
1070
   172
1070
     1
1070
   176
1070
   256
1070
   177
1070
   256
1070
   178
1070
   256
1070
   271
1070
     1
1070
   275
1070
     1
1070
   279
1070
     2
1070
   340
1005
7A8
1002
}
  0
DIMENSION
  5
49F
330
18
100
AcDbEntity
  8
SUNPOU
100
AcDbDimension
  2
*D11
 10
6736.144253057045
 20
3116.392059776995
 30
0.0
 11
6682.144253057045
 21
3863.391743946895
 31
0.0
 70
    32
 71
     5
 42
1493.9993683398
  3
SJC
100
AcDbAlignedDimension
 13
6141.8572085819
 23
4610.391428116794
 33
0.0
 14
6270.4576702348
 24
3116.392059776995
 34
0.0
 50
90.0
100
AcDbRotatedDimension
1001
ACAD
1000
DSTYLE
1002
{
1070
    40
1040
20.0
1070
    41
1040
2.0
1070
    42
1040
1.0
1070
    43
1040
6.0
1070
    44
1040
1.0
1070
    73
1070
     0
1070
    74
1070
     0
1070
    77
1070
     1
1070
    78
1070
     8
1070
   140
1040
3.0
1070
   147
1040
1.199999999999999
1070
   172
1070
     1
1070
   176
1070
   256
1070
   177
1070
   256
1070
   178
1070
   256
1070
   271
1070
     1
1070
   275
1070
     1
1070
   279
1070
     2
1070
   340
1005
7A8
1002
}
  0
TEXT
  5
4A1
330
18
100
AcDbEntity
  8
MOJI
100
AcDbText
 10
4634.951033886349
 20
745.9703315315802
 30
0.0
 40
60.0
  1
アルミ合金
 41
0.8
  7
EXT08
100
AcDbText
  0
TEXT
  5
4A2
330
18
100
AcDbEntity
  8
MOJI
100
AcDbText
 10
5206.759588615984
 20
743.8474118959788
 30
0.0
 40
60.0
  1
焼付塗装
 41
0.8
  7
EXT08
100
AcDbText
  0
TEXT
  5
4A3
330
18
100
AcDbEntity
  8
MOJI2
100
AcDbText
 10
581.3598713344454
 20
5083.804450095892
 30
0.0
 40
80.0
  1
設置図
 41
0.8
  7
EXT08
100
AcDbText
  0
LINE
  5
4A4
330
18
100
AcDbEntity
  8
MOJI2
100
AcDbLine
 10
557.4099760905919
 20
5069.310818174435
 30
0.0
 11
809.6587502455658
 21
5069.310818174435
 31
0.0
  0
LINE
  5
4A5
330
18
100
AcDbEntity
  8
MOJI2
100
AcDbLine
 10
2038.297585373595
 20
2781.332719019883
 30
0.0
 11
2297.844556141816
 21
2781.332719019883
 31
0.0
  0
TEXT
  5
4A6
330
18
100
AcDbEntity
  8
MOJI2
100
AcDbText
 10
2064.815994454582
 20
2795.826350941341
 30
0.0
 40
80.0
  1
支柱図
 41
0.8
  7
EXT08
100
AcDbText
  0
LINE
  5
4A7
330
18
100
AcDbEntity
  8
MOJI2
100
AcDbLine
 10
4989.63709726679
 20
2734.397938637392
 30
0.0
 11
5477.116661229851
 21
2734.397938637392
 31
0.0
  0
TEXT
  5
4A8
330
18
100
AcDbEntity
  8
MOJI2
100
AcDbText
 10
5013.586992510643
 20
2748.891570558849
 30
0.0
 40
80.0
  1
取付部詳細図
 41
0.8
  7
EXT08
100
AcDbText
  0
TEXT
  5
4A9
330
18
100
AcDbEntity
  8
MOJI
100
AcDbText
 10
5892.619216760993
 20
5074.590295218484
 30
0.0
 40
70.0
  1
CR1-2A89
 41
0.8
  7
EXT08
100
AcDbText
  0
TEXT
  5
4AA
330
18
100
AcDbEntity
  8
MOJI
100
AcDbText
 10
1618.192640190763
 20
1969.456751507953
 30
0.0
 40
60.0
  1
チェーン金具
 41
0.8
  7
EXT08
100
AcDbText
  0
DIMENSION
  5
4AB
330
18
100
AcDbEntity
  8
SUNPOU
100
AcDbDimension
  2
*D12
 10
6603.833152041473
 20
3516.392053816595
 30
0.0
 11
6549.833152041472
 21
4063.391854789094
 31
0.0
 70
    32
 71
     5
 42
1093.999601944999
  3
SJC
100
AcDbAlignedDimension
 13
6121.857208581899
 23
4610.391655761594
 33
0.0
 14
6430.4582782021
 24
3516.392053816595
 34
0.0
 50
90.0
100
AcDbRotatedDimension
1001
ACAD
1000
DSTYLE
1002
{
1070
    40
1040
20.0
1070
    41
1040
2.0
1070
    42
1040
1.0
1070
    43
1040
6.0
1070
    44
1040
1.0
1070
    73
1070
     0
1070
    74
1070
     0
1070
    77
1070
     1
1070
    78
1070
     8
1070
   140
1040
3.0
1070
   147
1040
1.199999999999999
1070
   172
1070
     1
1070
   176
1070
   256
1070
   177
1070
   256
1070
   178
1070
   256
1070
   271
1070
     1
1070
   275
1070
     1
1070
   279
1070
     2
1070
   340
1005
7A8
1002
}
  0
DIMENSION
  5
4AC
330
18
100
AcDbEntity
  8
SUNPOU
100
AcDbDimension
  2
*D13
 10
6603.833152041473
 20
3116.392059776995
 30
0.0
 11
6549.833152041472
 21
3316.392056796796
 31
0.0
 70
    32
 71
     5
 42
399.9999940396001
  3
SJC
100
AcDbAlignedDimension
 13
6450.4582782021
 23
3516.392053816595
 33
0.0
 14
6270.4576702348
 24
3116.392059776995
 34
0.0
 50
90.0
100
AcDbRotatedDimension
1001
ACAD
1000
DSTYLE
1002
{
1070
    40
1040
20.0
1070
    41
1040
2.0
1070
    42
1040
1.0
1070
    43
1040
6.0
1070
    44
1040
1.0
1070
    73
1070
     0
1070
    74
1070
     0
1070
    77
1070
     1
1070
    78
1070
     8
1070
   140
1040
3.0
1070
   147
1040
1.199999999999999
1070
   172
1070
     1
1070
   176
1070
   256
1070
   177
1070
   256
1070
   178
1070
   256
1070
   271
1070
     1
1070
   275
1070
     1
1070
   279
1070
     2
1070
   340
1005
7A8
1002
}
  0
TEXT
  5
4AD
330
18
100
AcDbEntity
  8
MOJI
100
AcDbText
 10
4696.48142429046
 20
446.892081318029
 30
0.0
 40
60.0
  1
SUS
 41
0.8
  7
EXT08
100
AcDbText
  0
LINE
  5
4BB
330
18
100
AcDbEntity
  8
SJC2
100
AcDbLine
 10
1154.2973155633
 20
4009.991283664894
 30
0.0
 11
1134.479810975799
 21
4012.689037530995
 31
0.0
  0
LINE
  5
4BC
330
18
100
AcDbEntity
  8
SJC2
100
AcDbLine
 10
1155.1061839595
 20
4015.937328498194
 30
0.0
 11
1135.2888319598
 21
4018.633861661195
 31
0.0
  0
LINE
  5
4BD
330
18
100
AcDbEntity
  8
SJC2
100
AcDbLine
 10
1153.2182140169
 20
4002.065258392394
 30
0.0
 11
1133.4010146051
 21
4004.761791555394
 31
0.0
  0
LINE
  5
4BE
330
18
100
AcDbEntity
  8
SJC2
100
AcDbLine
 10
1152.4093456207
 20
3996.119213559195
 30
0.0
 11
1132.591993621099
 21
3998.816967425194
 31
0.0
  0
ARC
  5
4BF
330
18
100
AcDbEntity
  8
SJC
100
AcDbCircle
 10
1099.5548839601
 20
4016.392040405494
 30
0.0
 40
44.70717840329999
100
AcDbArc
 50
137.8531446413
 51
222.1468553587
  0
LINE
  5
4C0
330
18
100
AcDbEntity
  8
SJC2
100
AcDbLine
 10
1098.8084247886
 20
4017.543773786795
 30
0.0
 11
1087.594893461501
 21
4019.069652670294
 31
0.0
  0
LINE
  5
4C1
330
18
100
AcDbEntity
  8
SJC2
100
AcDbLine
 10
1099.6177509484
 20
4023.488597916894
 30
0.0
 11
1086.4390402073
 21
4025.281810780894
 31
0.0
  0
LINE
  5
4C2
330
18
100
AcDbEntity
  8
SJC
100
AcDbLine
 10
1096.9207600218
 20
4003.671093329394
 30
0.0
 11
1086.146681813199
 21
4005.137768112295
 31
0.0
  0
LINE
  5
4C3
330
18
100
AcDbEntity
  8
SJC2
100
AcDbLine
 10
1097.729781005801
 20
4009.616527811195
 30
0.0
 11
1087.2604208103
 21
4011.041088336795
 31
0.0
  0
ARC
  5
4C4
330
18
100
AcDbEntity
  8
SJC2
100
AcDbCircle
 10
1099.0601948044
 20
4013.649120524495
 30
0.0
 40
3.000435718
100
AcDbArc
 50
82.24900687979999
 51
262.2490068798
  0
ARC
  5
4C5
330
18
100
AcDbEntity
  8
SJC2
100
AcDbCircle
 10
1133.939808278399
 20
4008.725655504593
 30
0.0
 40
4.0
100
AcDbArc
 50
82.24134111759999
 51
123.6477995767
  0
ARC
  5
4C6
330
18
100
AcDbEntity
  8
SJC2
100
AcDbCircle
 10
1098.2692058417
 20
4013.579943966194
 30
0.0
 40
9.999999851
100
AcDbArc
 50
9.706417565599998
 51
82.24979285100001
  0
ARC
  5
4C7
330
18
100
AcDbEntity
  8
SJC2
100
AcDbCircle
 10
1098.269002729199
 20
4013.580312692995
 30
0.0
 40
4.0
100
AcDbArc
 50
40.840173356
 51
82.24973490169999
  0
ARC
  5
4C8
330
18
100
AcDbEntity
  8
SJC2
100
AcDbCircle
 10
1098.269783703199
 20
4013.579909837495
 30
0.0
 40
4.0
100
AcDbArc
 50
262.2413411177
 51
303.6477995767
  0
ARC
  5
4C9
330
18
100
AcDbEntity
  8
SJC2
100
AcDbCircle
 10
1098.2690197225
 20
4013.579786119095
 30
0.0
 40
9.999999851
100
AcDbArc
 50
262.2514431789
 51
334.7944553205
  0
ARC
  5
4CA
330
18
100
AcDbEntity
  8
SJC2
100
AcDbCircle
 10
1132.749540615799
 20
4009.064464831094
 30
0.0
 40
3.0001230411
100
AcDbArc
 50
262.249664578
 51
82.249664578
  0
LINE
  5
4CB
330
18
100
AcDbEntity
  8
SJC2
100
AcDbLine
 10
1098.6555317245
 20
4010.676098107894
 30
0.0
 11
1132.344953829899
 21
4006.091747590194
 31
0.0
  0
LINE
  5
4CC
330
18
100
AcDbEntity
  8
SJC2
100
AcDbLine
 10
1099.4648578843
 20
4016.622142941094
 30
0.0
 11
1133.1541274018
 21
4012.037182071995
 31
0.0
  0
ARC
  5
4CD
330
18
100
AcDbEntity
  8
SJC2
100
AcDbCircle
 10
1133.940302249601
 20
4008.725205614995
 30
0.0
 40
9.999999851
100
AcDbArc
 50
82.2498818799
 51
154.7908228795
  0
ARC
  5
4CE
330
18
100
AcDbEntity
  8
SJC2
100
AcDbCircle
 10
1133.9406096004
 20
4008.725229108894
 30
0.0
 40
4.0
100
AcDbArc
 50
220.8397276573
 51
262.2472349334
  0
ARC
  5
4CF
330
18
100
AcDbEntity
  8
SJC2
100
AcDbCircle
 10
1133.940588045099
 20
4008.725614663794
 30
0.0
 40
9.999999851
100
AcDbArc
 50
189.7099264137
 51
262.2495076787
  0
ARC
  5
4D0
330
18
100
AcDbEntity
  8
SJC
100
AcDbCircle
 10
1055.931074742999
 20
4016.392040405494
 30
0.0
 40
31.7767353091
100
AcDbArc
 50
289.2503683672
 51
70.7496316328
  0
LINE
  5
4D1
330
18
100
AcDbEntity
  8
SJC2
100
AcDbLine
 10
1244.3401914188
 20
3991.283398201495
 30
0.0
 11
1210.6507693134
 21
3995.868969422295
 31
0.0
  0
LINE
  5
4D2
330
18
100
AcDbEntity
  8
SJC2
100
AcDbLine
 10
1245.1492124029
 20
3997.228832683195
 30
0.0
 11
1211.4597902975
 21
4001.813793552394
 31
0.0
  0
ARC
  5
4D3
330
18
100
AcDbEntity
  8
SJC2
100
AcDbCircle
 10
1208.0553950397
 20
3998.815382042195
 30
0.0
 40
9.999999851
100
AcDbArc
 50
262.2514431789
 51
334.7944553205
  0
ARC
  5
4D4
330
18
100
AcDbEntity
  8
SJC2
100
AcDbCircle
 10
1210.0047795013
 20
3998.550396428595
 30
0.0
 40
3.000000074499999
100
AcDbArc
 50
81.6222415268
 51
262.8755155298
  0
ARC
  5
4D5
330
18
100
AcDbEntity
  8
SJC2
100
AcDbCircle
 10
1208.0555847955
 20
3998.815518628794
 30
0.0
 40
9.999999851
100
AcDbArc
 50
9.706541148699999
 51
82.25069620220001
  0
ARC
  5
4D6
330
18
100
AcDbEntity
  8
SJC2
100
AcDbCircle
 10
1208.0562856786
 20
3998.815488501695
 30
0.0
 40
4.0
100
AcDbArc
 50
262.2395101065
 51
303.6482457442
  0
LINE
  5
4D7
330
18
100
AcDbEntity
  8
SJC2
100
AcDbLine
 10
1206.707135339
 20
3988.906689252594
 30
0.0
 11
1186.8897833394
 21
3991.603832767095
 31
0.0
  0
ARC
  5
4D8
330
18
100
AcDbEntity
  8
SJC2
100
AcDbCircle
 10
1153.757335350399
 20
4006.027943079594
 30
0.0
 40
9.999999851
100
AcDbArc
 50
262.2530042499
 51
334.7980877336
  0
ARC
  5
4D9
330
18
100
AcDbEntity
  8
SJC2
100
AcDbCircle
 10
1153.7583433724
 20
4006.028623159795
 30
0.0
 40
4.0
100
AcDbArc
 50
262.2395101065
 51
303.6482457442
  0
ARC
  5
4DA
330
18
100
AcDbEntity
  8
SJC2
100
AcDbCircle
 10
1153.7590898133
 20
4006.027659938894
 30
0.0
 40
4.0
100
AcDbArc
 50
40.866370019
 51
82.2670283911
  0
ARC
  5
4DB
330
18
100
AcDbEntity
  8
SJC2
100
AcDbCircle
 10
1153.757638852699
 20
4006.028674547495
 30
0.0
 40
9.999999851
100
AcDbArc
 50
9.706417565599998
 51
82.24979285100001
  0
ARC
  5
4DC
330
18
100
AcDbEntity
  8
SJC2
100
AcDbCircle
 10
1188.2381011558
 20
4001.512090474094
 30
0.0
 40
9.999999851
100
AcDbArc
 50
82.24905268349999
 51
154.7909464765
  0
LINE
  5
4DD
330
18
100
AcDbEntity
  8
SJC2
100
AcDbLine
 10
1209.4039736777
 20
4008.724193840094
 30
0.0
 11
1189.586774266
 21
4011.420727002994
 31
0.0
  0
ARC
  5
4DE
330
18
100
AcDbEntity
  8
SJC2
100
AcDbCircle
 10
1208.055803169
 20
3998.815240429195
 30
0.0
 40
4.0
100
AcDbArc
 50
40.85282573219999
 51
82.2558804281
  0
ARC
  5
4DF
330
18
100
AcDbEntity
  8
SJC2
100
AcDbCircle
 10
1188.237471338499
 20
4001.512538105495
 30
0.0
 40
4.0
100
AcDbArc
 50
82.23951010649999
 51
123.6482457442
  0
LINE
  5
4E0
330
18
100
AcDbEntity
  8
SJC2
100
AcDbLine
 10
1208.5948001058
 20
4002.778759358394
 30
0.0
 11
1188.777600694
 21
4005.475902872895
 31
0.0
  0
LINE
  5
4E1
330
18
100
AcDbEntity
  8
SJC2
100
AcDbLine
 10
1207.516156323
 20
3994.852123734295
 30
0.0
 11
1187.6989569113
 21
3997.549267248795
 31
0.0
  0
ARC
  5
4E2
330
18
100
AcDbEntity
  8
SJC2
100
AcDbCircle
 10
1188.237435108
 20
4001.512856686594
 30
0.0
 40
4.0
100
AcDbArc
 50
220.8541609809
 51
262.2633791562
  0
ARC
  5
4E3
330
18
100
AcDbEntity
  8
SJC2
100
AcDbCircle
 10
1188.238172221599
 20
4001.512507978294
 30
0.0
 40
9.999999851
100
AcDbArc
 50
189.7065411486999
 51
262.2506962022
  0
ARC
  5
4E4
330
18
100
AcDbEntity
  8
SJC2
100
AcDbCircle
 10
1188.2716319507
 20
4001.507730529294
 30
0.0
 40
3.000000074499999
100
AcDbArc
 50
261.6059685522
 51
82.8946762744
  0
LINE
  5
4E5
330
18
100
AcDbEntity
  8
SJC2
100
AcDbLine
 10
1188.6427130007
 20
4004.484691950094
 30
0.0
 11
1154.953290895299
 21
4009.069652819294
 31
0.0
  0
ARC
  5
4E6
330
18
100
AcDbEntity
  8
SJC2
100
AcDbCircle
 10
1154.5153509613
 20
4006.101790109995
 30
0.0
 40
3.000000074499999
100
AcDbArc
 50
81.60596855199999
 51
262.8946762747
  0
LINE
  5
4E7
330
18
100
AcDbEntity
  8
SJC2
100
AcDbLine
 10
1187.8336920167
 20
3998.539867819994
 30
0.0
 11
1154.144269911299
 21
4003.124828689094
 31
0.0
  0
ARC
  5
4E8
330
18
100
AcDbEntity
  8
KASOU
100
AcDbCircle
 10
2021.8572515114
 20
10468.59573530329
 30
0.0
 40
6530.7738284651
100
AcDbArc
 50
263.1546501276
 51
276.8572450027
  0
ARC
  5
4E9
330
18
100
AcDbEntity
  8
KASOU
100
AcDbCircle
 10
2021.857710526
 20
10488.59559675999
 30
0.0
 40
6530.7738284651
100
AcDbArc
 50
263.1593138472
 51
276.8477407159
  0
ARC
  5
4EA
330
18
100
AcDbEntity
  8
CENTER
100
AcDbCircle
 10
2021.8560732005
 20
10478.59581312149
 30
0.0
 40
6530.7738284651
100
AcDbArc
 50
263.1488628346
 51
276.8444006199
  0
LINE
  5
4EB
330
18
100
AcDbEntity
  8
SJC2
100
AcDbLine
 10
2945.0603809199
 20
4010.676098107894
 30
0.0
 11
2911.3708062266
 21
4006.091747590194
 31
0.0
  0
LINE
  5
4EC
330
18
100
AcDbEntity
  8
SJC2
100
AcDbLine
 10
2944.2510547601
 20
4016.622142941094
 30
0.0
 11
2910.5614800668
 21
4012.037182071995
 31
0.0
  0
ARC
  5
4ED
330
18
100
AcDbEntity
  8
SJC2
100
AcDbCircle
 10
2855.4775155007
 20
4001.512070956894
 30
0.0
 40
9.999999851
100
AcDbArc
 50
25.2091771205
 51
97.75011812009999
  0
ARC
  5
4EE
330
18
100
AcDbEntity
  8
SJC2
100
AcDbCircle
 10
2855.4783146476
 20
4001.512520846494
 30
0.0
 40
4.0
100
AcDbArc
 50
56.35220042330001
 51
97.75865888230001
  0
ARC
  5
4EF
330
18
100
AcDbEntity
  8
SJC2
100
AcDbCircle
 10
2855.4784978475
 20
4001.512880172195
 30
0.0
 40
4.0
100
AcDbArc
 50
277.7341215046
 51
319.1453942581
  0
ARC
  5
4F0
330
18
100
AcDbEntity
  8
SJC2
100
AcDbCircle
 10
2855.4775841983
 20
4001.512486717794
 30
0.0
 40
9.999999851
100
AcDbArc
 50
277.750207149
 51
350.2935824344
  0
ARC
  5
4F1
330
18
100
AcDbEntity
  8
SJC2
100
AcDbCircle
 10
2855.4423620386
 20
4001.507491994895
 30
0.0
 40
3.000000074499999
100
AcDbArc
 50
97.0683980125
 51
278.4251815611
  0
LINE
  5
4F2
330
18
100
AcDbEntity
  8
SJC2
100
AcDbLine
 10
2855.0731996436
 20
4004.484691950094
 30
0.0
 11
2888.7624691611
 21
4009.069652819294
 31
0.0
  0
LINE
  5
4F3
330
18
100
AcDbEntity
  8
SJC2
100
AcDbLine
 10
2855.881915451901
 20
3998.539867819994
 30
0.0
 11
2889.5714901452
 21
4003.124828689094
 31
0.0
  0
LINE
  5
4F4
330
18
100
AcDbEntity
  8
SJC2
100
AcDbLine
 10
2799.375568637601
 20
3991.283398201495
 30
0.0
 11
2833.0651433309
 21
3995.868969422295
 31
0.0
  0
LINE
  5
4F5
330
18
100
AcDbEntity
  8
SJC2
100
AcDbLine
 10
2798.5665476536
 20
3997.228832683195
 30
0.0
 11
2832.2558171711
 21
4001.813793552394
 31
0.0
  0
ARC
  5
4F6
330
18
100
AcDbEntity
  8
SJC2
100
AcDbCircle
 10
2835.6603650168
 20
3998.815382042195
 30
0.0
 40
9.999999851
100
AcDbArc
 50
205.2055446795
 51
277.7485568211
  0
ARC
  5
4F7
330
18
100
AcDbEntity
  8
SJC2
100
AcDbCircle
 10
2835.6593477244
 20
3998.815471239195
 30
0.0
 40
4.0
100
AcDbArc
 50
236.3513080036999
 51
277.7623208435
  0
LINE
  5
4F8
330
18
100
AcDbEntity
  8
SJC2
100
AcDbLine
 10
2837.008624717501
 20
3988.906689252594
 30
0.0
 11
2856.826129305
 21
3991.603832767095
 31
0.0
  0
ARC
  5
4F9
330
18
100
AcDbEntity
  8
SJC2
100
AcDbCircle
 10
2833.710110686899
 20
3998.550268452895
 30
0.0
 40
3.000000074499999
100
AcDbArc
 50
277.1441643106
 51
98.3609663832
  0
LINE
  5
4FA
330
18
100
AcDbEntity
  8
SJC2
100
AcDbLine
 10
2834.3117863787
 20
4008.724193840094
 30
0.0
 11
2854.1289857905
 21
4011.420727002994
 31
0.0
  0
ARC
  5
4FB
330
18
100
AcDbEntity
  8
SJC2
100
AcDbCircle
 10
2835.6600190369
 20
3998.815497370794
 30
0.0
 40
9.999999851
100
AcDbArc
 50
97.74840045080001
 51
170.2933352831
  0
ARC
  5
4FC
330
18
100
AcDbEntity
  8
SJC2
100
AcDbCircle
 10
2835.659804299501
 20
3998.815240429195
 30
0.0
 40
4.0
100
AcDbArc
 50
97.74411957190002
 51
139.1471742678
  0
LINE
  5
4FD
330
18
100
AcDbEntity
  8
SJC2
100
AcDbLine
 10
2835.1208073628
 20
4002.778759358394
 30
0.0
 11
2854.9383119503
 21
4005.475902872895
 31
0.0
  0
LINE
  5
4FE
330
18
100
AcDbEntity
  8
SJC2
100
AcDbLine
 10
2836.1996037334
 20
3994.852123734295
 30
0.0
 11
2856.0168031452
 21
3997.549267248795
 31
0.0
  0
ARC
  5
4FF
330
18
100
AcDbEntity
  8
SJC2
100
AcDbCircle
 10
2909.7757991901
 20
4008.725655504593
 30
0.0
 40
4.0
100
AcDbArc
 50
56.35220042330001
 51
97.75865888230001
  0
LINE
  5
500
330
18
100
AcDbEntity
  8
SJC2
100
AcDbLine
 10
2889.4182919053
 20
4009.991283664894
 30
0.0
 11
2909.2357964928
 21
4012.689037530995
 31
0.0
  0
LINE
  5
501
330
18
100
AcDbEntity
  8
SJC2
100
AcDbLine
 10
2888.609576097
 20
4015.937328498194
 30
0.0
 11
2908.4270806845
 21
4018.633861661195
 31
0.0
  0
ARC
  5
502
330
18
100
AcDbEntity
  8
SJC2
100
AcDbCircle
 10
2910.966143146699
 20
4009.064464831094
 30
0.0
 40
3.000133330799999
100
AcDbArc
 50
97.75177915429999
 51
277.7517791543
  0
ARC
  5
503
330
18
100
AcDbEntity
  8
SJC2
100
AcDbCircle
 10
2909.7756103947
 20
4008.725205614995
 30
0.0
 40
9.999999851
100
AcDbArc
 50
25.2091771205
 51
97.75011812009999
  0
ARC
  5
504
330
18
100
AcDbEntity
  8
SJC2
100
AcDbCircle
 10
2889.958424706
 20
4006.027943079594
 30
0.0
 40
9.999999851
100
AcDbArc
 50
205.2019122664
 51
277.7469957501
  0
ARC
  5
505
330
18
100
AcDbEntity
  8
SJC2
100
AcDbCircle
 10
2889.9573907543
 20
4006.028640418795
 30
0.0
 40
4.0
100
AcDbArc
 50
236.3522004233
 51
277.7586588823
  0
ARC
  5
506
330
18
100
AcDbEntity
  8
SJC2
100
AcDbCircle
 10
2889.9566905604
 20
4006.027683421694
 30
0.0
 40
4.0
100
AcDbArc
 50
97.73547102930001
 51
139.1340747698
  0
ARC
  5
507
330
18
100
AcDbEntity
  8
SJC2
100
AcDbCircle
 10
2889.9581212037
 20
4006.028674547495
 30
0.0
 40
9.999999851
100
AcDbArc
 50
97.750207149
 51
170.2935824344
  0
ARC
  5
508
330
18
100
AcDbEntity
  8
SJC2
100
AcDbCircle
 10
2909.7753030439
 20
4008.725229108894
 30
0.0
 40
4.0
100
AcDbArc
 50
277.7527650666
 51
319.1602723427
  0
LINE
  5
509
330
18
100
AcDbEntity
  8
SJC2
100
AcDbLine
 10
2890.4973934517
 20
4002.065258392394
 30
0.0
 11
2910.3148980392
 21
4004.761791555394
 31
0.0
  0
LINE
  5
50A
330
18
100
AcDbEntity
  8
SJC2
100
AcDbLine
 10
2891.3064144357
 20
3996.119213559195
 30
0.0
 11
2911.1236138474
 21
3998.816967425194
 31
0.0
  0
ARC
  5
50B
330
18
100
AcDbEntity
  8
SJC2
100
AcDbCircle
 10
2909.7751756494
 20
4008.725635925394
 30
0.0
 40
9.999999851
100
AcDbArc
 50
277.7495889608
 51
350.2899499962
  0
ARC
  5
50C
330
18
100
AcDbEntity
  8
SJC2
100
AcDbCircle
 10
2889.1335502111
 20
4006.092691398395
 30
0.0
 40
3.000000074499999
100
AcDbArc
 50
278.3940314481
 51
97.10532372520001
  0
LINE
  5
50D
330
18
100
AcDbEntity
  8
SJC2
100
AcDbLine
 10
2946.795000034601
 20
4003.671093329394
 30
0.0
 11
2957.568925655399
 21
4005.137768112295
 31
0.0
  0
LINE
  5
50E
330
18
100
AcDbEntity
  8
SJC2
100
AcDbLine
 10
2945.9859790506
 20
4009.616527811195
 30
0.0
 11
2956.4553392462
 21
4011.041088336795
 31
0.0
  0
ARC
  5
50F
330
18
100
AcDbEntity
  8
SJC2
100
AcDbCircle
 10
2944.65571784
 20
4013.649120524495
 30
0.0
 40
3.000435718
100
AcDbArc
 50
277.7509931202
 51
97.75099312020003
  0
LINE
  5
510
330
18
100
AcDbEntity
  8
SJC2
100
AcDbLine
 10
2944.90718268
 20
4017.543773786795
 30
0.0
 11
2956.8300951
 21
4019.166088215693
 31
0.0
  0
LINE
  5
511
330
18
100
AcDbEntity
  8
SJC2
100
AcDbLine
 10
2944.0978565201
 20
4023.488597916894
 30
0.0
 11
2958.7002122596
 21
4025.475902574794
 31
0.0
  0
ARC
  5
512
330
18
100
AcDbEntity
  8
SJC2
100
AcDbCircle
 10
2945.446401626899
 20
4013.579943966194
 30
0.0
 40
9.999999851
100
AcDbArc
 50
97.750207149
 51
170.2935824344
  0
ARC
  5
513
330
18
100
AcDbEntity
  8
SJC2
100
AcDbCircle
 10
2945.446777675301
 20
4013.580336233195
 30
0.0
 40
4.0
100
AcDbArc
 50
97.75276506659999
 51
139.1602723427
  0
ARC
  5
514
330
18
100
AcDbEntity
  8
SJC2
100
AcDbCircle
 10
2945.4459763533
 20
4013.579909837495
 30
0.0
 40
4.0
100
AcDbArc
 50
236.3522004233
 51
277.7586588823
  0
ARC
  5
515
330
18
100
AcDbEntity
  8
SJC2
100
AcDbCircle
 10
2945.446740333901
 20
4013.579786119095
 30
0.0
 40
9.999999851
100
AcDbArc
 50
205.2055446795
 51
277.7485568211
  0
ARC
  5
516
330
18
100
AcDbEntity
  8
SJC
100
AcDbCircle
 10
2987.7837697861
 20
4016.392040405494
 30
0.0
 40
31.7767353091
100
AcDbArc
 50
109.2503683672
 51
250.7496316328
  0
ARC
  5
517
330
18
100
AcDbEntity
  8
SJC
100
AcDbCircle
 10
2944.159960569001
 20
4016.392040405494
 30
0.0
 40
44.70717840329999
100
AcDbArc
 50
317.8531446413
 51
42.1468553587
  0
LINE
  5
518
330
18
100
AcDbEntity
  8
SJC
100
AcDbLine
 10
2977.307389716699
 20
4046.391702764974
 30
0.0
 11
2977.307389716699
 21
4386.392040852494
 31
0.0
  0
LINE
  5
519
330
18
100
AcDbEntity
  8
SJC
100
AcDbLine
 10
1066.4077599882
 20
4046.392039958427
 30
0.0
 11
1066.4077599882
 21
4386.392040852494
 31
0.0
  0
ARC
  5
51A
330
18
100
AcDbEntity
  8
CENTER
100
AcDbCircle
 10
4021.8560732005
 20
10478.59581312149
 30
0.0
 40
6530.7738284651
100
AcDbArc
 50
263.1488628346
 51
276.8444006199
  0
ARC
  5
51B
330
18
100
AcDbEntity
  8
KASOU
100
AcDbCircle
 10
4021.857710526
 20
10488.59559675999
 30
0.0
 40
6530.7738284651
100
AcDbArc
 50
263.1593138472
 51
276.8477407159
  0
ARC
  5
51C
330
18
100
AcDbEntity
  8
KASOU
100
AcDbCircle
 10
4021.8572515114
 20
10468.59573530329
 30
0.0
 40
6530.7738284651
100
AcDbArc
 50
263.1546501276
 51
276.8572450027
  0
LINE
  5
51D
330
18
100
AcDbEntity
  8
SJC2
100
AcDbLine
 10
3152.4093456207
 20
3996.119213559195
 30
0.0
 11
3132.591993621101
 21
3998.816967425194
 31
0.0
  0
LINE
  5
51E
330
18
100
AcDbEntity
  8
SJC2
100
AcDbLine
 10
3153.2182140169
 20
4002.065258392394
 30
0.0
 11
3133.401014605101
 21
4004.761791555394
 31
0.0
  0
LINE
  5
51F
330
18
100
AcDbEntity
  8
SJC2
100
AcDbLine
 10
3155.1061839595
 20
4015.937328498194
 30
0.0
 11
3135.288831959801
 21
4018.633861661195
 31
0.0
  0
LINE
  5
520
330
18
100
AcDbEntity
  8
SJC2
100
AcDbLine
 10
3154.2973155633
 20
4009.991283664894
 30
0.0
 11
3134.4798109758
 21
4012.689037530995
 31
0.0
  0
ARC
  5
521
330
18
100
AcDbEntity
  8
SJC
100
AcDbCircle
 10
3055.931074743
 20
4016.392040405494
 30
0.0
 40
31.7767353091
100
AcDbArc
 50
289.2503683672
 51
70.7496316328
  0
ARC
  5
522
330
18
100
AcDbEntity
  8
SJC
100
AcDbCircle
 10
3099.5548839601
 20
4016.392040405494
 30
0.0
 40
44.70717840329999
100
AcDbArc
 50
137.8531446413
 51
222.1468553587
  0
ARC
  5
523
330
18
100
AcDbEntity
  8
SJC2
100
AcDbCircle
 10
3133.9405880451
 20
4008.725614663794
 30
0.0
 40
9.999999851
100
AcDbArc
 50
189.7099264137
 51
262.2495076787
  0
ARC
  5
524
330
18
100
AcDbEntity
  8
SJC2
100
AcDbCircle
 10
3133.940609600401
 20
4008.725229108894
 30
0.0
 40
4.0
100
AcDbArc
 50
220.8397276573
 51
262.2472349334
  0
ARC
  5
525
330
18
100
AcDbEntity
  8
SJC2
100
AcDbCircle
 10
3133.9403022496
 20
4008.725205614995
 30
0.0
 40
9.999999851
100
AcDbArc
 50
82.2498818799
 51
154.7908228795
  0
LINE
  5
526
330
18
100
AcDbEntity
  8
SJC2
100
AcDbLine
 10
3099.4648578843
 20
4016.622142941094
 30
0.0
 11
3133.1541274018
 21
4012.037182071995
 31
0.0
  0
LINE
  5
527
330
18
100
AcDbEntity
  8
SJC2
100
AcDbLine
 10
3098.6555317245
 20
4010.676098107894
 30
0.0
 11
3132.3449538299
 21
4006.091747590194
 31
0.0
  0
ARC
  5
528
330
18
100
AcDbEntity
  8
SJC2
100
AcDbCircle
 10
3132.7495406158
 20
4009.064464831094
 30
0.0
 40
3.0001230411
100
AcDbArc
 50
262.249664578
 51
82.249664578
  0
ARC
  5
529
330
18
100
AcDbEntity
  8
SJC2
100
AcDbCircle
 10
3098.2690197225
 20
4013.579786119095
 30
0.0
 40
9.999999851
100
AcDbArc
 50
262.2514431789
 51
334.7944553205
  0
ARC
  5
52A
330
18
100
AcDbEntity
  8
SJC2
100
AcDbCircle
 10
3098.2697837032
 20
4013.579909837495
 30
0.0
 40
4.0
100
AcDbArc
 50
262.2413411177
 51
303.6477995767
  0
ARC
  5
52B
330
18
100
AcDbEntity
  8
SJC2
100
AcDbCircle
 10
3098.2690027292
 20
4013.580312692995
 30
0.0
 40
4.0
100
AcDbArc
 50
40.840173356
 51
82.24973490169999
  0
ARC
  5
52C
330
18
100
AcDbEntity
  8
SJC2
100
AcDbCircle
 10
3098.2692058417
 20
4013.579943966194
 30
0.0
 40
9.999999851
100
AcDbArc
 50
9.706417565599998
 51
82.24979285100001
  0
ARC
  5
52D
330
18
100
AcDbEntity
  8
SJC2
100
AcDbCircle
 10
3133.9398082784
 20
4008.725655504593
 30
0.0
 40
4.0
100
AcDbArc
 50
82.24134111759999
 51
123.6477995767
  0
ARC
  5
52E
330
18
100
AcDbEntity
  8
SJC2
100
AcDbCircle
 10
3099.060194804401
 20
4013.649120524495
 30
0.0
 40
3.000435718
100
AcDbArc
 50
82.24900687979999
 51
262.2490068798
  0
LINE
  5
52F
330
18
100
AcDbEntity
  8
SJC2
100
AcDbLine
 10
3097.7297810058
 20
4009.616527811195
 30
0.0
 11
3087.2604208103
 21
4011.041088336795
 31
0.0
  0
LINE
  5
530
330
18
100
AcDbEntity
  8
SJC2
100
AcDbLine
 10
3096.9207600218
 20
4003.671093329394
 30
0.0
 11
3086.146681813201
 21
4005.137768112295
 31
0.0
  0
LINE
  5
531
330
18
100
AcDbEntity
  8
SJC2
100
AcDbLine
 10
3099.617750948401
 20
4023.488597916894
 30
0.0
 11
3086.439040207301
 21
4025.281810780894
 31
0.0
  0
LINE
  5
532
330
18
100
AcDbEntity
  8
SJC2
100
AcDbLine
 10
3098.8084247886
 20
4017.543773786795
 30
0.0
 11
3087.5948934615
 21
4019.069652670294
 31
0.0
  0
ARC
  5
533
330
18
100
AcDbEntity
  8
SJC2
100
AcDbCircle
 10
3208.055584795501
 20
3998.815518628794
 30
0.0
 40
9.999999851
100
AcDbArc
 50
9.706541148699999
 51
82.25069620220001
  0
ARC
  5
534
330
18
100
AcDbEntity
  8
SJC2
100
AcDbCircle
 10
3210.0047795013
 20
3998.550396428595
 30
0.0
 40
3.000000074499999
100
AcDbArc
 50
81.6222415268
 51
262.8755155298
  0
ARC
  5
535
330
18
100
AcDbEntity
  8
SJC2
100
AcDbCircle
 10
3208.0553950397
 20
3998.815382042195
 30
0.0
 40
9.999999851
100
AcDbArc
 50
262.2514431789
 51
334.7944553205
  0
LINE
  5
536
330
18
100
AcDbEntity
  8
SJC2
100
AcDbLine
 10
3245.1492124029
 20
3997.228832683195
 30
0.0
 11
3211.4597902975
 21
4001.813793552394
 31
0.0
  0
LINE
  5
537
330
18
100
AcDbEntity
  8
SJC2
100
AcDbLine
 10
3244.3401914188
 20
3991.283398201495
 30
0.0
 11
3210.6507693134
 21
3995.868969422295
 31
0.0
  0
LINE
  5
538
330
18
100
AcDbEntity
  8
SJC2
100
AcDbLine
 10
3187.833692016701
 20
3998.539867819994
 30
0.0
 11
3154.1442699113
 21
4003.124828689094
 31
0.0
  0
ARC
  5
539
330
18
100
AcDbEntity
  8
SJC2
100
AcDbCircle
 10
3154.5153509613
 20
4006.101790109995
 30
0.0
 40
3.000000074499999
100
AcDbArc
 50
81.60596855199999
 51
262.8946762747
  0
LINE
  5
53A
330
18
100
AcDbEntity
  8
SJC2
100
AcDbLine
 10
3188.6427130007
 20
4004.484691950094
 30
0.0
 11
3154.9532908953
 21
4009.069652819294
 31
0.0
  0
ARC
  5
53B
330
18
100
AcDbEntity
  8
SJC2
100
AcDbCircle
 10
3188.2716319507
 20
4001.507730529294
 30
0.0
 40
3.000000074499999
100
AcDbArc
 50
261.6059685522
 51
82.8946762744
  0
ARC
  5
53C
330
18
100
AcDbEntity
  8
SJC2
100
AcDbCircle
 10
3188.2381722216
 20
4001.512507978294
 30
0.0
 40
9.999999851
100
AcDbArc
 50
189.7065411486999
 51
262.2506962022
  0
ARC
  5
53D
330
18
100
AcDbEntity
  8
SJC2
100
AcDbCircle
 10
3188.237435108
 20
4001.512856686594
 30
0.0
 40
4.0
100
AcDbArc
 50
220.8541609809
 51
262.2633791562
  0
LINE
  5
53E
330
18
100
AcDbEntity
  8
SJC2
100
AcDbLine
 10
3207.516156323001
 20
3994.852123734295
 30
0.0
 11
3187.698956911301
 21
3997.549267248795
 31
0.0
  0
LINE
  5
53F
330
18
100
AcDbEntity
  8
SJC2
100
AcDbLine
 10
3208.594800105801
 20
4002.778759358394
 30
0.0
 11
3188.777600694001
 21
4005.475902872895
 31
0.0
  0
ARC
  5
540
330
18
100
AcDbEntity
  8
SJC2
100
AcDbCircle
 10
3188.2374713385
 20
4001.512538105495
 30
0.0
 40
4.0
100
AcDbArc
 50
82.23951010649999
 51
123.6482457442
  0
ARC
  5
541
330
18
100
AcDbEntity
  8
SJC2
100
AcDbCircle
 10
3208.055803169
 20
3998.815240429195
 30
0.0
 40
4.0
100
AcDbArc
 50
40.85282573219999
 51
82.2558804281
  0
LINE
  5
542
330
18
100
AcDbEntity
  8
SJC2
100
AcDbLine
 10
3209.403973677701
 20
4008.724193840094
 30
0.0
 11
3189.586774266
 21
4011.420727002994
 31
0.0
  0
ARC
  5
543
330
18
100
AcDbEntity
  8
SJC2
100
AcDbCircle
 10
3188.2381011558
 20
4001.512090474094
 30
0.0
 40
9.999999851
100
AcDbArc
 50
82.24905268349999
 51
154.7909464765
  0
ARC
  5
544
330
18
100
AcDbEntity
  8
SJC2
100
AcDbCircle
 10
3153.7576388527
 20
4006.028674547495
 30
0.0
 40
9.999999851
100
AcDbArc
 50
9.706417565599998
 51
82.24979285100001
  0
ARC
  5
545
330
18
100
AcDbEntity
  8
SJC2
100
AcDbCircle
 10
3153.759089813301
 20
4006.027659938894
 30
0.0
 40
4.0
100
AcDbArc
 50
40.866370019
 51
82.2670283911
  0
ARC
  5
546
330
18
100
AcDbEntity
  8
SJC2
100
AcDbCircle
 10
3153.758343372401
 20
4006.028623159795
 30
0.0
 40
4.0
100
AcDbArc
 50
262.2395101065
 51
303.6482457442
  0
ARC
  5
547
330
18
100
AcDbEntity
  8
SJC2
100
AcDbCircle
 10
3153.7573353504
 20
4006.027943079594
 30
0.0
 40
9.999999851
100
AcDbArc
 50
262.2530042499
 51
334.7980877336
  0
LINE
  5
548
330
18
100
AcDbEntity
  8
SJC2
100
AcDbLine
 10
3206.707135339001
 20
3988.906689252594
 30
0.0
 11
3186.889783339401
 21
3991.603832767095
 31
0.0
  0
ARC
  5
549
330
18
100
AcDbEntity
  8
SJC2
100
AcDbCircle
 10
3208.0562856786
 20
3998.815488501695
 30
0.0
 40
4.0
100
AcDbArc
 50
262.2395101065
 51
303.6482457442
  0
LINE
  5
54A
330
18
100
AcDbEntity
  8
SJC2
100
AcDbLine
 10
4944.251054760099
 20
4016.622142941094
 30
0.0
 11
4910.5614800668
 21
4012.037182071995
 31
0.0
  0
LINE
  5
54B
330
18
100
AcDbEntity
  8
SJC2
100
AcDbLine
 10
4945.0603809199
 20
4010.676098107894
 30
0.0
 11
4911.370806226599
 21
4006.091747590194
 31
0.0
  0
LINE
  5
54C
330
18
100
AcDbEntity
  8
SJC2
100
AcDbLine
 10
4855.881915451901
 20
3998.539867819994
 30
0.0
 11
4889.5714901452
 21
4003.124828689094
 31
0.0
  0
LINE
  5
54D
330
18
100
AcDbEntity
  8
SJC2
100
AcDbLine
 10
4855.0731996436
 20
4004.484691950094
 30
0.0
 11
4888.7624691611
 21
4009.069652819294
 31
0.0
  0
ARC
  5
54E
330
18
100
AcDbEntity
  8
SJC2
100
AcDbCircle
 10
4855.4423620386
 20
4001.507491994895
 30
0.0
 40
3.000000074499999
100
AcDbArc
 50
97.0683980125
 51
278.4251815611
  0
ARC
  5
54F
330
18
100
AcDbEntity
  8
SJC2
100
AcDbCircle
 10
4855.4775841983
 20
4001.512486717794
 30
0.0
 40
9.999999851
100
AcDbArc
 50
277.750207149
 51
350.2935824344
  0
ARC
  5
550
330
18
100
AcDbEntity
  8
SJC2
100
AcDbCircle
 10
4855.478497847499
 20
4001.512880172195
 30
0.0
 40
4.0
100
AcDbArc
 50
277.7341215046
 51
319.1453942581
  0
ARC
  5
551
330
18
100
AcDbEntity
  8
SJC2
100
AcDbCircle
 10
4855.478314647601
 20
4001.512520846494
 30
0.0
 40
4.0
100
AcDbArc
 50
56.35220042330001
 51
97.75865888230001
  0
ARC
  5
552
330
18
100
AcDbEntity
  8
SJC2
100
AcDbCircle
 10
4855.4775155007
 20
4001.512070956894
 30
0.0
 40
9.999999851
100
AcDbArc
 50
25.2091771205
 51
97.75011812009999
  0
LINE
  5
553
330
18
100
AcDbEntity
  8
SJC2
100
AcDbLine
 10
4836.1996037334
 20
3994.852123734295
 30
0.0
 11
4856.016803145201
 21
3997.549267248795
 31
0.0
  0
LINE
  5
554
330
18
100
AcDbEntity
  8
SJC2
100
AcDbLine
 10
4835.120807362801
 20
4002.778759358394
 30
0.0
 11
4854.9383119503
 21
4005.475902872895
 31
0.0
  0
ARC
  5
555
330
18
100
AcDbEntity
  8
SJC2
100
AcDbCircle
 10
4835.6598042995
 20
3998.815240429195
 30
0.0
 40
4.0
100
AcDbArc
 50
97.74411957190002
 51
139.1471742678
  0
ARC
  5
556
330
18
100
AcDbEntity
  8
SJC2
100
AcDbCircle
 10
4835.6600190369
 20
3998.815497370794
 30
0.0
 40
9.999999851
100
AcDbArc
 50
97.74840045080001
 51
170.2933352831
  0
LINE
  5
557
330
18
100
AcDbEntity
  8
SJC2
100
AcDbLine
 10
4834.3117863787
 20
4008.724193840094
 30
0.0
 11
4854.128985790499
 21
4011.420727002994
 31
0.0
  0
ARC
  5
558
330
18
100
AcDbEntity
  8
SJC2
100
AcDbCircle
 10
4833.7101106869
 20
3998.550268452895
 30
0.0
 40
3.000000074499999
100
AcDbArc
 50
277.1441643106
 51
98.3609663832
  0
LINE
  5
559
330
18
100
AcDbEntity
  8
SJC2
100
AcDbLine
 10
4837.0086247175
 20
3988.906689252594
 30
0.0
 11
4856.826129305
 21
3991.603832767095
 31
0.0
  0
ARC
  5
55A
330
18
100
AcDbEntity
  8
SJC2
100
AcDbCircle
 10
4835.6593477244
 20
3998.815471239195
 30
0.0
 40
4.0
100
AcDbArc
 50
236.3513080036999
 51
277.7623208435
  0
ARC
  5
55B
330
18
100
AcDbEntity
  8
SJC2
100
AcDbCircle
 10
4835.660365016799
 20
3998.815382042195
 30
0.0
 40
9.999999851
100
AcDbArc
 50
205.2055446795
 51
277.7485568211
  0
LINE
  5
55C
330
18
100
AcDbEntity
  8
SJC2
100
AcDbLine
 10
4798.566547653599
 20
3997.228832683195
 30
0.0
 11
4832.2558171711
 21
4001.813793552394
 31
0.0
  0
LINE
  5
55D
330
18
100
AcDbEntity
  8
SJC2
100
AcDbLine
 10
4799.3755686376
 20
3991.283398201495
 30
0.0
 11
4833.065143330901
 21
3995.868969422295
 31
0.0
  0
ARC
  5
55E
330
18
100
AcDbEntity
  8
SJC2
100
AcDbCircle
 10
4889.133550211099
 20
4006.092691398395
 30
0.0
 40
3.000000074499999
100
AcDbArc
 50
278.3940314481
 51
97.10532372520001
  0
ARC
  5
55F
330
18
100
AcDbEntity
  8
SJC2
100
AcDbCircle
 10
4909.7751756494
 20
4008.725635925394
 30
0.0
 40
9.999999851
100
AcDbArc
 50
277.7495889608
 51
350.2899499962
  0
LINE
  5
560
330
18
100
AcDbEntity
  8
SJC2
100
AcDbLine
 10
4891.3064144357
 20
3996.119213559195
 30
0.0
 11
4911.1236138474
 21
3998.816967425194
 31
0.0
  0
LINE
  5
561
330
18
100
AcDbEntity
  8
SJC2
100
AcDbLine
 10
4890.4973934517
 20
4002.065258392394
 30
0.0
 11
4910.314898039199
 21
4004.761791555394
 31
0.0
  0
ARC
  5
562
330
18
100
AcDbEntity
  8
SJC2
100
AcDbCircle
 10
4909.7753030439
 20
4008.725229108894
 30
0.0
 40
4.0
100
AcDbArc
 50
277.7527650666
 51
319.1602723427
  0
ARC
  5
563
330
18
100
AcDbEntity
  8
SJC2
100
AcDbCircle
 10
4889.9581212037
 20
4006.028674547495
 30
0.0
 40
9.999999851
100
AcDbArc
 50
97.750207149
 51
170.2935824344
  0
ARC
  5
564
330
18
100
AcDbEntity
  8
SJC2
100
AcDbCircle
 10
4889.956690560399
 20
4006.027683421694
 30
0.0
 40
4.0
100
AcDbArc
 50
97.73547102930001
 51
139.1340747698
  0
ARC
  5
565
330
18
100
AcDbEntity
  8
SJC2
100
AcDbCircle
 10
4889.9573907543
 20
4006.028640418795
 30
0.0
 40
4.0
100
AcDbArc
 50
236.3522004233
 51
277.7586588823
  0
ARC
  5
566
330
18
100
AcDbEntity
  8
SJC2
100
AcDbCircle
 10
4889.958424705999
 20
4006.027943079594
 30
0.0
 40
9.999999851
100
AcDbArc
 50
205.2019122664
 51
277.7469957501
  0
ARC
  5
567
330
18
100
AcDbEntity
  8
SJC2
100
AcDbCircle
 10
4909.775610394699
 20
4008.725205614995
 30
0.0
 40
9.999999851
100
AcDbArc
 50
25.2091771205
 51
97.75011812009999
  0
ARC
  5
568
330
18
100
AcDbEntity
  8
SJC2
100
AcDbCircle
 10
4910.966143146699
 20
4009.064464831094
 30
0.0
 40
3.000133330799999
100
AcDbArc
 50
97.75177915429999
 51
277.7517791543
  0
LINE
  5
569
330
18
100
AcDbEntity
  8
SJC2
100
AcDbLine
 10
4888.609576097
 20
4015.937328498194
 30
0.0
 11
4908.4270806845
 21
4018.633861661195
 31
0.0
  0
LINE
  5
56A
330
18
100
AcDbEntity
  8
SJC2
100
AcDbLine
 10
4889.4182919053
 20
4009.991283664894
 30
0.0
 11
4909.2357964928
 21
4012.689037530995
 31
0.0
  0
ARC
  5
56B
330
18
100
AcDbEntity
  8
SJC2
100
AcDbCircle
 10
4909.7757991901
 20
4008.725655504593
 30
0.0
 40
4.0
100
AcDbArc
 50
56.35220042330001
 51
97.75865888230001
  0
ARC
  5
56C
330
18
100
AcDbEntity
  8
SJC
100
AcDbCircle
 10
4944.159960569001
 20
4016.392040405494
 30
0.0
 40
44.70717840329999
100
AcDbArc
 50
317.8531446413
 51
42.1468553587
  0
ARC
  5
56D
330
18
100
AcDbEntity
  8
SJC
100
AcDbCircle
 10
4987.7837697861
 20
4016.392040405494
 30
0.0
 40
31.7767353091
100
AcDbArc
 50
109.2503683672
 51
250.7496316328
  0
ARC
  5
56E
330
18
100
AcDbEntity
  8
SJC2
100
AcDbCircle
 10
4945.4467403339
 20
4013.579786119095
 30
0.0
 40
9.999999851
100
AcDbArc
 50
205.2055446795
 51
277.7485568211
  0
ARC
  5
56F
330
18
100
AcDbEntity
  8
SJC2
100
AcDbCircle
 10
4945.445976353299
 20
4013.579909837495
 30
0.0
 40
4.0
100
AcDbArc
 50
236.3522004233
 51
277.7586588823
  0
ARC
  5
570
330
18
100
AcDbEntity
  8
SJC2
100
AcDbCircle
 10
4945.4467776753
 20
4013.580336233195
 30
0.0
 40
4.0
100
AcDbArc
 50
97.75276506659999
 51
139.1602723427
  0
ARC
  5
571
330
18
100
AcDbEntity
  8
SJC2
100
AcDbCircle
 10
4945.446401626899
 20
4013.579943966194
 30
0.0
 40
9.999999851
100
AcDbArc
 50
97.750207149
 51
170.2935824344
  0
LINE
  5
572
330
18
100
AcDbEntity
  8
SJC2
100
AcDbLine
 10
4944.097856520101
 20
4023.488597916894
 30
0.0
 11
4958.7002122596
 21
4025.475902574794
 31
0.0
  0
LINE
  5
573
330
18
100
AcDbEntity
  8
SJC2
100
AcDbLine
 10
4944.90718268
 20
4017.543773786795
 30
0.0
 11
4956.8300951
 21
4019.166088215693
 31
0.0
  0
ARC
  5
574
330
18
100
AcDbEntity
  8
SJC2
100
AcDbCircle
 10
4944.655717839999
 20
4013.649120524495
 30
0.0
 40
3.000435718
100
AcDbArc
 50
277.7509931202
 51
97.75099312020003
  0
LINE
  5
575
330
18
100
AcDbEntity
  8
SJC2
100
AcDbLine
 10
4945.9859790506
 20
4009.616527811195
 30
0.0
 11
4956.4553392462
 21
4011.041088336795
 31
0.0
  0
LINE
  5
576
330
18
100
AcDbEntity
  8
SJC2
100
AcDbLine
 10
4946.795000034601
 20
4003.671093329394
 30
0.0
 11
4957.5689256554
 21
4005.137768112295
 31
0.0
  0
LINE
  5
577
330
18
100
AcDbEntity
  8
SJC
100
AcDbLine
 10
4977.3070547386
 20
4046.392072887079
 30
0.0
 11
4977.3070547386
 21
4386.392040852494
 31
0.0
  0
LINE
  5
578
330
18
100
AcDbEntity
  8
SJC
100
AcDbLine
 10
3066.4074250101
 20
4046.391669835582
 30
0.0
 11
3066.4074250101
 21
4386.392040852494
 31
0.0
  0
LINE
  5
579
330
18
100
AcDbEntity
  8
SJC2
100
AcDbLine
 10
5188.6412801051
 20
4004.484691950094
 30
0.0
 11
5154.9523157633
 21
4009.069652819294
 31
0.0
  0
LINE
  5
57A
330
18
100
AcDbEntity
  8
SJC2
100
AcDbLine
 10
5187.8325642968
 20
3998.539867819994
 30
0.0
 11
5154.142989603499
 21
4003.124828689094
 31
0.0
  0
ARC
  5
57B
330
18
100
AcDbEntity
  8
SJC2
100
AcDbCircle
 10
5098.268078121799
 20
4013.579943966194
 30
0.0
 40
9.999999851
100
AcDbArc
 50
9.706417565599998
 51
82.24979285100001
  0
ARC
  5
57C
330
18
100
AcDbEntity
  8
SJC2
100
AcDbCircle
 10
5098.2677394148
 20
4013.579786119095
 30
0.0
 40
9.999999851
100
AcDbArc
 50
262.2514431789
 51
334.7944553205
  0
LINE
  5
57D
330
18
100
AcDbEntity
  8
SJC2
100
AcDbLine
 10
5098.6540988288
 20
4010.676098107894
 30
0.0
 11
5132.3436735221
 21
4006.091747590194
 31
0.0
  0
LINE
  5
57E
330
18
100
AcDbEntity
  8
SJC2
100
AcDbLine
 10
5099.463424988599
 20
4016.622142941094
 30
0.0
 11
5133.1529996819
 21
4012.037182071995
 31
0.0
  0
LINE
  5
57F
330
18
100
AcDbEntity
  8
SJC2
100
AcDbLine
 10
5096.919479713999
 20
4003.671093329394
 30
0.0
 11
5086.1455540933
 21
4005.137768112295
 31
0.0
  0
LINE
  5
580
330
18
100
AcDbEntity
  8
SJC2
100
AcDbLine
 10
5097.7281955223
 20
4009.616527811195
 30
0.0
 11
5087.2594456783
 21
4011.041088336795
 31
0.0
  0
ARC
  5
581
330
18
100
AcDbEntity
  8
SJC2
100
AcDbCircle
 10
5099.0587619087
 20
4013.649120524495
 30
0.0
 40
3.000435718
100
AcDbArc
 50
82.24900687979999
 51
262.2490068798
  0
LINE
  5
582
330
18
100
AcDbEntity
  8
SJC2
100
AcDbLine
 10
5098.8072970687
 20
4017.543773786795
 30
0.0
 11
5086.884689824501
 21
4019.166088215693
 31
0.0
  0
LINE
  5
583
330
18
100
AcDbEntity
  8
SJC2
100
AcDbLine
 10
5099.6166232285
 20
4023.488597916894
 30
0.0
 11
5085.014572664899
 21
4025.475902574794
 31
0.0
  0
ARC
  5
584
330
18
100
AcDbEntity
  8
SJC2
100
AcDbCircle
 10
5098.2677020734
 20
4013.580336233195
 30
0.0
 40
4.0
100
AcDbArc
 50
40.8397276573
 51
82.2472349334
  0
ARC
  5
585
330
18
100
AcDbEntity
  8
SJC2
100
AcDbCircle
 10
5098.2681982197
 20
4013.579909837495
 30
0.0
 40
4.0
100
AcDbArc
 50
262.2413411177
 51
303.6477995767
  0
ARC
  5
586
330
18
100
AcDbEntity
  8
SJC
100
AcDbCircle
 10
5055.9307099625
 20
4016.392040405494
 30
0.0
 40
31.7767353091
100
AcDbArc
 50
289.2503683672
 51
70.7496316328
  0
ARC
  5
587
330
18
100
AcDbEntity
  8
SJC
100
AcDbCircle
 10
5099.5545191797
 20
4016.392040405494
 30
0.0
 40
44.70717840329999
100
AcDbArc
 50
137.8531446413
 51
222.1468553587
  0
ARC
  5
588
330
18
100
AcDbEntity
  8
SJC2
100
AcDbCircle
 10
5133.9386805586
 20
4008.725655504593
 30
0.0
 40
4.0
100
AcDbArc
 50
82.24134111759999
 51
123.6477995767
  0
LINE
  5
589
330
18
100
AcDbEntity
  8
SJC2
100
AcDbLine
 10
5154.296187843399
 20
4009.991283664894
 30
0.0
 11
5134.4786832559
 21
4012.689037530995
 31
0.0
  0
LINE
  5
58A
330
18
100
AcDbEntity
  8
SJC2
100
AcDbLine
 10
5155.1049036517
 20
4015.937328498194
 30
0.0
 11
5135.2873990642
 21
4018.633861661195
 31
0.0
  0
ARC
  5
58B
330
18
100
AcDbEntity
  8
SJC2
100
AcDbCircle
 10
5132.748336602
 20
4009.064464831094
 30
0.0
 40
3.000133330799999
100
AcDbArc
 50
262.2482208457
 51
82.24822084569998
  0
ARC
  5
58C
330
18
100
AcDbEntity
  8
SJC2
100
AcDbCircle
 10
5133.938869354
 20
4008.725205614995
 30
0.0
 40
9.999999851
100
AcDbArc
 50
82.2498818799
 51
154.7908228795
  0
ARC
  5
58D
330
18
100
AcDbEntity
  8
SJC2
100
AcDbCircle
 10
5153.7557865842
 20
4006.028021100195
 30
0.0
 40
9.999999851
100
AcDbArc
 50
262.2563211929
 51
334.7975936797
  0
ARC
  5
58E
330
18
100
AcDbEntity
  8
SJC2
100
AcDbCircle
 10
5153.757088994399
 20
4006.028640418795
 30
0.0
 40
4.0
100
AcDbArc
 50
262.2413411176
 51
303.6477995767
  0
ARC
  5
58F
330
18
100
AcDbEntity
  8
SJC2
100
AcDbCircle
 10
5153.757789188301
 20
4006.027683421694
 30
0.0
 40
4.0
100
AcDbArc
 50
40.8659252302
 51
82.2645289707
  0
ARC
  5
590
330
18
100
AcDbEntity
  8
SJC2
100
AcDbCircle
 10
5153.756358545
 20
4006.028674547495
 30
0.0
 40
9.999999851
100
AcDbArc
 50
9.706417565599998
 51
82.24979285100001
  0
ARC
  5
591
330
18
100
AcDbEntity
  8
SJC2
100
AcDbCircle
 10
5133.939176704799
 20
4008.725229108894
 30
0.0
 40
4.0
100
AcDbArc
 50
220.8397276573
 51
262.2472349334
  0
LINE
  5
592
330
18
100
AcDbEntity
  8
SJC2
100
AcDbLine
 10
5153.217086297
 20
4002.065258392394
 30
0.0
 11
5133.3995817095
 21
4004.761791555394
 31
0.0
  0
LINE
  5
593
330
18
100
AcDbEntity
  8
SJC2
100
AcDbLine
 10
5152.408370488799
 20
3996.119213559195
 30
0.0
 11
5132.5908659012
 21
3998.816967425194
 31
0.0
  0
ARC
  5
594
330
18
100
AcDbEntity
  8
SJC2
100
AcDbCircle
 10
5133.9393040993
 20
4008.725635925394
 30
0.0
 40
9.999999851
100
AcDbArc
 50
189.7100500038
 51
262.2504110392
  0
ARC
  5
595
330
18
100
AcDbEntity
  8
SJC2
100
AcDbCircle
 10
5154.5160886386
 20
4006.101537871595
 30
0.0
 40
3.000000074499999
100
AcDbArc
 50
81.6390336171
 51
262.8558356891
  0
LINE
  5
596
330
18
100
AcDbEntity
  8
SJC2
100
AcDbLine
 10
5265.2733590413
 20
3994.888744827495
 30
0.0
 11
5245.4558544538
 21
3997.585888341994
 31
0.0
  0
LINE
  5
597
330
18
100
AcDbEntity
  8
SJC2
100
AcDbLine
 10
5266.0820748496
 20
4000.833568957694
 30
0.0
 11
5246.2645702621
 21
4003.531322823694
 31
0.0
  0
LINE
  5
598
330
18
100
AcDbEntity
  8
SJC2
100
AcDbLine
 10
5264.194257494899
 20
3986.962109203395
 30
0.0
 11
5244.3767529074
 21
3989.659252717895
 31
0.0
  0
LINE
  5
599
330
18
100
AcDbEntity
  8
SJC2
100
AcDbLine
 10
5263.385541686599
 20
3981.016674721695
 30
0.0
 11
5243.568037099099
 21
3983.713207884595
 31
0.0
  0
ARC
  5
59A
330
18
100
AcDbEntity
  8
SJC2
100
AcDbCircle
 10
5244.5162182373
 20
3994.030285367594
 30
0.0
 40
3.000092183399999
100
AcDbArc
 50
262.2539958344
 51
82.25399583439999
  0
ARC
  5
59B
330
18
100
AcDbEntity
  8
SJC2
100
AcDbCircle
 10
5244.9166128723
 20
3993.622402689594
 30
0.0
 40
4.0
100
AcDbArc
 50
82.25234388199998
 51
123.6608969281
  0
ARC
  5
59C
330
18
100
AcDbEntity
  8
SJC2
100
AcDbCircle
 10
5244.9163479027
 20
3993.622690271494
 30
0.0
 40
4.0
100
AcDbArc
 50
220.8397276573
 51
262.2472349334
  0
ARC
  5
59D
330
18
100
AcDbEntity
  8
SJC2
100
AcDbCircle
 10
5244.9165822058
 20
3993.621861835396
 30
0.0
 40
9.999999851
100
AcDbArc
 50
189.7064175656
 51
262.249792851
  0
ARC
  5
59E
330
18
100
AcDbEntity
  8
SJC2
100
AcDbCircle
 10
5244.9163105614
 20
3993.622630034095
 30
0.0
 40
9.999999851
100
AcDbArc
 50
82.2514431789
 51
154.7944553205
  0
LINE
  5
59F
330
18
100
AcDbEntity
  8
SJC2
100
AcDbLine
 10
5244.3389111111
 20
3991.283398201495
 30
0.0
 11
5210.649336417801
 21
3995.868969422295
 31
0.0
  0
LINE
  5
5A0
330
18
100
AcDbEntity
  8
SJC2
100
AcDbLine
 10
5245.1476269193
 20
3997.228832683195
 30
0.0
 11
5211.4586625776
 21
4001.813793552394
 31
0.0
  0
ARC
  5
5A1
330
18
100
AcDbEntity
  8
SJC2
100
AcDbCircle
 10
5208.054114731901
 20
3998.815382042195
 30
0.0
 40
9.999999851
100
AcDbArc
 50
262.2514431789
 51
334.7944553205
  0
ARC
  5
5A2
330
18
100
AcDbEntity
  8
SJC2
100
AcDbCircle
 10
5208.055080141
 20
3998.815436703895
 30
0.0
 40
4.0
100
AcDbArc
 50
262.2340174397
 51
303.6495847538
  0
LINE
  5
5A3
330
18
100
AcDbEntity
  8
SJC2
100
AcDbLine
 10
5206.7058550312
 20
3988.906689252594
 30
0.0
 11
5186.8883504437
 21
3991.603832767095
 31
0.0
  0
ARC
  5
5A4
330
18
100
AcDbEntity
  8
SJC2
100
AcDbCircle
 10
5210.067497151499
 20
3998.541674218095
 30
0.0
 40
3.000000074499999
100
AcDbArc
 50
82.85583569079999
 51
261.6390336155
  0
ARC
  5
5A5
330
18
100
AcDbEntity
  8
SJC2
100
AcDbCircle
 10
5188.236964248
 20
4001.512070956894
 30
0.0
 40
9.999999851
100
AcDbArc
 50
82.2498818799
 51
154.7908228795
  0
LINE
  5
5A6
330
18
100
AcDbEntity
  8
SJC2
100
AcDbLine
 10
5209.4029985457
 20
4008.724193840094
 30
0.0
 11
5189.585493958201
 21
4011.420727002994
 31
0.0
  0
ARC
  5
5A7
330
18
100
AcDbEntity
  8
SJC2
100
AcDbCircle
 10
5208.054453439
 20
3998.815539889394
 30
0.0
 40
9.999999851
100
AcDbArc
 50
9.706417565599998
 51
82.24979285100001
  0
ARC
  5
5A8
330
18
100
AcDbEntity
  8
SJC2
100
AcDbCircle
 10
5208.054675449099
 20
3998.815240429195
 30
0.0
 40
4.0
100
AcDbArc
 50
40.85282573219999
 51
82.2558804281
  0
ARC
  5
5A9
330
18
100
AcDbEntity
  8
SJC2
100
AcDbCircle
 10
5188.236165101
 20
4001.512520846494
 30
0.0
 40
4.0
100
AcDbArc
 50
82.24134111759999
 51
123.6477995767
  0
LINE
  5
5AA
330
18
100
AcDbEntity
  8
SJC2
100
AcDbLine
 10
5208.593672385901
 20
4002.778759358394
 30
0.0
 11
5188.7761677984
 21
4005.475902872895
 31
0.0
  0
LINE
  5
5AB
330
18
100
AcDbEntity
  8
SJC2
100
AcDbLine
 10
5207.5145708395
 20
3994.852123734295
 30
0.0
 11
5187.6976766035
 21
3997.549267248795
 31
0.0
  0
ARC
  5
5AC
330
18
100
AcDbEntity
  8
SJC2
100
AcDbCircle
 10
5188.2359819012
 20
4001.512880172195
 30
0.0
 40
4.0
100
AcDbArc
 50
220.8546057419
 51
262.2658784954
  0
ARC
  5
5AD
330
18
100
AcDbEntity
  8
SJC2
100
AcDbCircle
 10
5188.236895550399
 20
4001.512486717794
 30
0.0
 40
9.999999851
100
AcDbArc
 50
189.7064175656
 51
262.249792851
  0
ARC
  5
5AE
330
18
100
AcDbEntity
  8
SJC2
100
AcDbCircle
 10
5188.27211771
 20
4001.507491994995
 30
0.0
 40
3.000000074499999
100
AcDbArc
 50
261.5748184398
 51
82.9316019866
  0
LINE
  5
5AF
330
18
100
AcDbEntity
  8
SJC2
100
AcDbLine
 10
5313.1169862581
 20
3994.609203815996
 30
0.0
 11
5300.5626651561
 21
3996.318188165595
 31
0.0
  0
LINE
  5
5B0
330
18
100
AcDbEntity
  8
SJC2
100
AcDbLine
 10
5310.419842743599
 20
3974.792309580094
 30
0.0
 11
5297.8655216416
 21
3976.500683578095
 31
0.0
  0
ARC
  5
5B1
330
18
100
AcDbEntity
  8
SJC2
100
AcDbCircle
 10
5264.733497788
 20
3990.925408816894
 30
0.0
 40
9.999999851
100
AcDbArc
 50
262.2531987003
 51
334.7903286164
  0
ARC
  5
5B2
330
18
100
AcDbEntity
  8
SJC2
100
AcDbCircle
 10
5264.7342601923
 20
3990.925491229795
 30
0.0
 40
4.0
100
AcDbArc
 50
262.2413411176
 51
303.6477995767
  0
ARC
  5
5B3
330
18
100
AcDbEntity
  8
SJC2
100
AcDbCircle
 10
5264.733764046
 20
3990.925307273895
 30
0.0
 40
4.0
100
AcDbArc
 50
40.8397276573
 51
82.2472349334
  0
ARC
  5
5B4
330
18
100
AcDbEntity
  8
SJC2
100
AcDbCircle
 10
5264.7337436018
 20
3990.924885903594
 30
0.0
 40
9.999999851
100
AcDbArc
 50
9.713682507599999
 51
82.25102946680001
  0
ARC
  5
5B5
330
18
100
AcDbEntity
  8
SJC2
100
AcDbCircle
 10
5299.2141354459
 20
3986.409532119394
 30
0.0
 40
9.999999851
100
AcDbArc
 50
82.2498818799
 51
154.7908228795
  0
ARC
  5
5B6
330
18
100
AcDbEntity
  8
SJC2
100
AcDbCircle
 10
5299.2133362989
 20
3986.408761305895
 30
0.0
 40
4.0
100
AcDbArc
 50
82.24134111759999
 51
123.6477995767
  0
LINE
  5
5B7
330
18
100
AcDbEntity
  8
SJC2
100
AcDbLine
 10
5319.5708435838
 20
3987.675610169395
 30
0.0
 11
5299.7533389963
 21
3990.372143332294
 31
0.0
  0
LINE
  5
5B8
330
18
100
AcDbEntity
  8
SJC2
100
AcDbLine
 10
5318.4917420374
 20
3979.748974545295
 30
0.0
 11
5298.6748478014
 21
3982.446118059794
 31
0.0
  0
ARC
  5
5B9
330
18
100
AcDbEntity
  8
SJC2
100
AcDbCircle
 10
5299.2137510961
 20
3986.409649722194
 30
0.0
 40
4.0
100
AcDbArc
 50
220.8415094862
 51
262.2572340959
  0
ARC
  5
5BA
330
18
100
AcDbEntity
  8
SJC2
100
AcDbCircle
 10
5299.213959839601
 20
3986.409352078194
 30
0.0
 40
9.999999851
100
AcDbArc
 50
189.7100500038
 51
262.2504110392
  0
ARC
  5
5BB
330
18
100
AcDbEntity
  8
SJC2
100
AcDbCircle
 10
5299.2140933988
 20
3986.409435871795
 30
0.0
 40
3.000092183399999
100
AcDbArc
 50
262.2539958344
 51
82.25399583439999
  0
LINE
  5
5BC
330
18
100
AcDbEntity
  8
SJC2
100
AcDbLine
 10
5299.618451303
 20
3989.382153112694
 30
0.0
 11
5265.929486961201
 21
3993.967113981894
 31
0.0
  0
ARC
  5
5BD
330
18
100
AcDbEntity
  8
SJC2
100
AcDbCircle
 10
5265.556387926199
 20
3990.990404799394
 30
0.0
 40
3.000000074499999
100
AcDbArc
 50
82.8558356903
 51
261.6390336159
  0
LINE
  5
5BE
330
18
100
AcDbEntity
  8
SJC2
100
AcDbLine
 10
5298.8097354947
 20
3983.436718630995
 30
0.0
 11
5265.1201608014
 21
3988.022289851695
 31
0.0
  0
LINE
  5
5BF
330
18
100
AcDbEntity
  8
SJC
100
AcDbLine
 10
5066.4073952078
 20
4046.392039958429
 30
0.0
 11
5066.4073952078
 21
4386.392040852494
 31
0.0
  0
CIRCLE
  5
5C4
330
18
100
AcDbEntity
  8
SJC
100
AcDbCircle
 10
6121.8572085819
 20
4016.391430053994
 30
0.0
 40
29.999999553
  0
DIMENSION
  5
5DF
330
18
100
AcDbEntity
  8
SUNPOU
100
AcDbDimension
  2
*D0
 10
6464.788111675
 20
3516.392053816595
 30
0.0
 11
6410.788111675
 21
3766.392053816595
 31
0.0
 70
    32
 71
     5
 42
499.9999999999995
  3
SJC
100
AcDbAlignedDimension
 13
6166.407378816501
 23
4016.392053816594
 33
0.0
 14
6430.4582782021
 24
3516.392053816595
 34
0.0
 50
90.0
100
AcDbRotatedDimension
1001
ACAD
1000
DSTYLE
1002
{
1070
    40
1040
20.0
1070
    41
1040
2.0
1070
    42
1040
1.0
1070
    43
1040
6.0
1070
    44
1040
1.0
1070
    73
1070
     0
1070
    74
1070
     0
1070
    77
1070
     1
1070
    78
1070
     8
1070
   140
1040
3.0
1070
   147
1040
1.199999999999999
1070
   172
1070
     1
1070
   176
1070
   256
1070
   177
1070
   256
1070
   178
1070
   256
1070
   271
1070
     1
1070
   275
1070
     1
1070
   279
1070
     2
1070
   340
1005
7A8
1002
}
  0
DIMENSION
  5
605
330
18
100
AcDbEntity
  8
SUNPOU
100
AcDbDimension
  2
*D1
 10
6464.788111675
 20
4016.392053816594
 30
0.0
 11
6410.788111675
 21
4216.391741935296
 31
0.0
 70
    32
  1
400
 71
     5
 42
399.9993762374011
  3
SJC
100
AcDbAlignedDimension
 13
6188.520198014459
 23
4416.391430053994
 33
0.0
 14
6464.788111675
 24
4016.392053816594
 34
0.0
 50
90.0
100
AcDbRotatedDimension
1001
ACAD
1000
DSTYLE
1002
{
1070
    40
1040
20.0
1070
    41
1040
2.0
1070
    42
1040
1.0
1070
    43
1040
6.0
1070
    44
1040
1.0
1070
    73
1070
     0
1070
    74
1070
     0
1070
    77
1070
     1
1070
    78
1070
     8
1070
   140
1040
3.0
1070
   147
1040
1.199999999999999
1070
   172
1070
     1
1070
   176
1070
   256
1070
   177
1070
   256
1070
   178
1070
   256
1070
   271
1070
     1
1070
   275
1070
     1
1070
   279
1070
     2
1070
   340
1005
7A8
1002
}
  0
LINE
  5
606
330
18
100
AcDbEntity
  8
CENTER
100
AcDbLine
 10
1322.488345323925
 20
2648.360256312502
 30
0.0
 11
1322.488345323925
 21
341.7860750870959
 31
0.0
  0
LINE
  5
607
330
18
100
AcDbEntity
  8
CENTER
100
AcDbLine
 10
3230.879141228498
 20
2637.849167352153
 30
0.0
 11
3230.879141228498
 21
341.7860750870959
 31
0.0
  0
LINE
  5
609
330
18
100
AcDbEntity
  8
SJC
100
AcDbLine
 10
6271.857208581899
 20
3116.392059776995
 30
0.0
 11
6271.857208581899
 21
3516.392053816595
 31
0.0
1001
ACAD
1000
ASC_BOUNDS
1002
{
1070
    19
1005
10EF
1002
}
  0
DIMENSION
  5
642
330
18
100
AcDbEntity
  8
SUNPOU
100
AcDbDimension
  2
*D2
 10
6271.857208581899
 20
2944.518740703264
 30
0.0
 11
6121.8572085819
 21
3004.812611551213
 31
0.0
 70
   161
  1
□300
 71
     5
 42
300.0
  3
SJC
100
AcDbAlignedDimension
 13
5971.8572085819
 23
3116.392059776995
 33
0.0
 14
6271.857208581899
 24
3116.392059776995
 34
0.0
1001
ACAD
1000
DSTYLE
1002
{
1070
    40
1040
20.0
1070
    41
1040
2.0
1070
    42
1040
1.0
1070
    43
1040
6.0
1070
    44
1040
1.0
1070
    73
1070
     0
1070
    74
1070
     0
1070
    77
1070
     1
1070
    78
1070
     8
1070
   140
1040
3.0
1070
   147
1040
1.199999999999999
1070
   172
1070
     1
1070
   176
1070
   256
1070
   177
1070
   256
1070
   178
1070
   256
1070
   271
1070
     1
1070
   275
1070
     1
1070
   279
1070
     2
1070
   340
1005
7A8
1002
}
  0
LINE
  5
643
330
18
100
AcDbEntity
  8
SJC2
100
AcDbLine
 10
3222.879263418098
 20
1423.874517500796
 30
0.0
 11
3238.879019038996
 21
1423.874517500796
 31
0.0
  0
LINE
  5
644
330
18
100
AcDbEntity
  8
SJC2
100
AcDbLine
 10
3222.879263418098
 20
1369.874579340596
 30
0.0
 11
3238.879019038996
 21
1369.874579340596
 31
0.0
  0
LINE
  5
645
330
18
100
AcDbEntity
  8
SJC2
100
AcDbLine
 10
3222.879263418098
 20
1393.474432504596
 30
0.0
 11
3238.879019038996
 21
1393.474432504596
 31
0.0
  0
LINE
  5
646
330
18
100
AcDbEntity
  8
SJC2
100
AcDbLine
 10
3222.879263418098
 20
1339.474494344396
 30
0.0
 11
3238.879019038996
 21
1339.474494344396
 31
0.0
  0
CIRCLE
  5
647
330
18
100
AcDbEntity
  8
SJC
100
AcDbCircle
 10
3230.879141228498
 20
1381.674505922596
 30
0.0
 40
59.9999991059
  0
LINE
  5
648
330
18
100
AcDbEntity
  8
SJC2
100
AcDbLine
 10
3222.879263418098
 20
1393.474432504596
 30
0.0
 11
3222.879263418098
 21
1369.874579340596
 31
0.0
  0
LINE
  5
649
330
18
100
AcDbEntity
  8
SJC2
100
AcDbLine
 10
3230.879141228498
 20
1347.474372154797
 30
0.0
 11
3230.879141228498
 21
1331.474616533896
 31
0.0
  0
LINE
  5
64A
330
18
100
AcDbEntity
  8
SJC2
100
AcDbLine
 10
3238.879019038996
 20
1393.474432504596
 30
0.0
 11
3238.879019038996
 21
1369.874579340596
 31
0.0
  0
LINE
  5
64B
330
18
100
AcDbEntity
  8
SJC2
100
AcDbLine
 10
3230.879141228498
 20
1415.874639690296
 30
0.0
 11
3230.879141228498
 21
1431.874395311296
 31
0.0
  0
ARC
  5
64C
330
18
100
AcDbEntity
  8
SJC
100
AcDbCircle
 10
1395.588525417524
 20
1381.674505922596
 30
0.0
 40
59.9999991059
100
AcDbArc
 50
285.4655643504001
 51
74.5344356496
  0
LINE
  5
64D
330
18
100
AcDbEntity
  8
SJC2
100
AcDbLine
 10
799.235560762725
 20
1265.588997398496
 30
0.0
 11
846.1139932917248
 21
1278.150032367495
 31
0.0
  0
LINE
  5
64E
330
18
100
AcDbEntity
  8
SJC2
100
AcDbLine
 10
798.473155378524
 20
1277.808235497596
 30
0.0
 11
843.008219412226
 21
1289.741218718296
 31
0.0
  0
ARC
  5
64F
330
18
100
AcDbEntity
  8
SJC2
100
AcDbCircle
 10
848.424994037825
 20
1284.980785034096
 30
0.0
 40
19.999999702
100
AcDbArc
 50
104.9997487594
 51
177.541698455
  0
ARC
  5
650
330
18
100
AcDbEntity
  8
SJC2
100
AcDbCircle
 10
848.4250428944251
 20
1284.980740481596
 30
0.0
 40
19.999999702
100
AcDbArc
 50
212.4579211159
 51
285.000169806
  0
LINE
  5
651
330
18
100
AcDbEntity
  8
SJC2
100
AcDbLine
 10
1170.665990408624
 20
1365.113226872496
 30
0.0
 11
1104.983007988925
 21
1347.513739829996
 31
0.0
  0
LINE
  5
652
330
18
100
AcDbEntity
  8
SJC2
100
AcDbLine
 10
1167.560063941225
 20
1376.704413223196
 30
0.0
 11
1101.877081521525
 21
1359.104926180797
 31
0.0
  0
LINE
  5
653
330
18
100
AcDbEntity
  8
SJC2
100
AcDbLine
 10
951.4325952379259
 20
1333.287055471696
 30
0.0
 11
990.069679623124
 21
1343.639838520596
 31
0.0
  0
LINE
  5
654
330
18
100
AcDbEntity
  8
SJC2
100
AcDbLine
 10
954.5385217053244
 20
1321.695869120996
 30
0.0
 11
993.1756060905245
 21
1332.048652169897
 31
0.0
  0
LINE
  5
655
330
18
100
AcDbEntity
  8
SJC2
100
AcDbLine
 10
961.7853782868261
 20
1294.650276262296
 30
0.0
 11
1000.422462672024
 21
1305.003059311196
 31
0.0
  0
LINE
  5
656
330
18
100
AcDbEntity
  8
SJC2
100
AcDbLine
 10
958.6796044073253
 20
1306.241462612996
 30
0.0
 11
997.3165362046238
 21
1316.594245661896
 31
0.0
  0
LINE
  5
657
330
18
100
AcDbEntity
  8
SJC2
100
AcDbLine
 10
888.6150607736253
 20
1289.537971650996
 30
0.0
 11
954.2980431933246
 21
1307.137763869195
 31
0.0
  0
LINE
  5
658
330
18
100
AcDbEntity
  8
SJC2
100
AcDbLine
 10
885.509134306225
 20
1301.129158001696
 30
0.0
 11
951.1921167259243
 21
1318.728950219896
 31
0.0
  0
ARC
  5
659
330
18
100
AcDbEntity
  8
SJC2
100
AcDbCircle
 10
887.0623244042253
 20
1295.333571899196
 30
0.0
 40
8.0
100
AcDbArc
 50
63.5922840349
 51
105.0016004851
  0
ARC
  5
65A
330
18
100
AcDbEntity
  8
SJC2
100
AcDbCircle
 10
887.0620208455257
 20
1295.333597994297
 30
0.0
 40
8.0
100
AcDbArc
 50
285.0004870268
 51
326.409758334
  0
LINE
  5
65B
330
18
100
AcDbEntity
  8
SJC2
100
AcDbLine
 10
853.6014809731241
 20
1265.662239584896
 30
0.0
 11
892.2384127704244
 21
1276.015022633695
 31
0.0
  0
LINE
  5
65C
330
18
100
AcDbEntity
  8
SJC2
100
AcDbLine
 10
850.4955545057255
 20
1277.253425935596
 30
0.0
 11
889.1326388909256
 21
1287.606208984496
 31
0.0
  0
ARC
  5
65D
330
18
100
AcDbEntity
  8
SJC2
100
AcDbCircle
 10
887.0620975399251
 20
1295.333564826296
 30
0.0
 40
6.000049588099999
100
AcDbArc
 50
105.0003571718
 51
285.0003571718
  0
ARC
  5
65E
330
18
100
AcDbEntity
  8
SJC2
100
AcDbCircle
 10
887.0621034049253
 20
1295.333558018996
 30
0.0
 40
19.999999702
100
AcDbArc
 50
284.9997880622
 51
357.5425837057
  0
ARC
  5
65F
330
18
100
AcDbEntity
  8
SJC2
100
AcDbCircle
 10
887.0622203881248
 20
1295.333606122196
 30
0.0
 40
19.999999702
100
AcDbArc
 50
32.4579211159
 51
105.000169806
  0
ARC
  5
660
330
18
100
AcDbEntity
  8
SJC2
100
AcDbCircle
 10
848.4248102389246
 20
1284.980632811395
 30
0.0
 40
8.0
100
AcDbArc
 50
104.9972824591
 51
146.4061388734
  0
LINE
  5
661
330
18
100
AcDbEntity
  8
SJC2
100
AcDbLine
 10
843.248697924224
 20
1304.299323970095
 30
0.0
 11
881.8857823094258
 21
1314.652107018895
 31
0.0
  0
ARC
  5
662
330
18
100
AcDbEntity
  8
SJC2
100
AcDbCircle
 10
844.5611063519246
 20
1283.945625542896
 30
0.0
 40
6.000029841799999
100
AcDbArc
 50
284.9996534479
 51
104.9996534479
  0
LINE
  5
663
330
18
100
AcDbEntity
  8
SJC2
100
AcDbLine
 10
846.3546243916244
 20
1292.708137619396
 30
0.0
 11
884.9915561889247
 21
1303.060920668196
 31
0.0
  0
ARC
  5
664
330
18
100
AcDbEntity
  8
SJC2
100
AcDbCircle
 10
848.4252845610244
 20
1284.980908213596
 30
0.0
 40
8.0
100
AcDbArc
 50
243.5895197909
 51
284.9979060019
  0
ARC
  5
665
330
18
100
AcDbEntity
  8
SJC2
100
AcDbCircle
 10
956.6088913516251
 20
1313.968516535696
 30
0.0
 40
19.999999702
100
AcDbArc
 50
104.9997487594
 51
177.541698455
  0
ARC
  5
666
330
18
100
AcDbEntity
  8
SJC2
100
AcDbCircle
 10
956.6088931729245
 20
1313.968414042796
 30
0.0
 40
8.0
100
AcDbArc
 50
104.9986587501
 51
146.4065664493
  0
ARC
  5
667
330
18
100
AcDbEntity
  8
SJC2
100
AcDbCircle
 10
956.6088361919247
 20
1313.968811382095
 30
0.0
 40
8.0
100
AcDbArc
 50
243.5922840349
 51
285.0016004851
  0
ARC
  5
668
330
18
100
AcDbEntity
  8
SJC2
100
AcDbCircle
 10
956.6089402081251
 20
1313.968777158996
 30
0.0
 40
19.999999702
100
AcDbArc
 50
212.4579211159
 51
285.000169806
  0
ARC
  5
669
330
18
100
AcDbEntity
  8
SJC2
100
AcDbCircle
 10
952.7450799596245
 20
1312.933357044596
 30
0.0
 40
6.000049588099999
100
AcDbArc
 50
285.0003571718
 51
105.0003571718
  0
ARC
  5
66A
330
18
100
AcDbEntity
  8
SJC2
100
AcDbCircle
 10
1103.430044755225
 20
1353.309333005396
 30
0.0
 40
6.000049588099999
100
AcDbArc
 50
105.0003571718
 51
285.0003571718
  0
ARC
  5
66B
330
18
100
AcDbEntity
  8
SJC2
100
AcDbCircle
 10
1062.515732859225
 20
1341.983961563495
 30
0.0
 40
19.999999702
100
AcDbArc
 50
104.9997880622
 51
177.5425837057
  0
LINE
  5
66C
330
18
100
AcDbEntity
  8
SJC2
100
AcDbLine
 10
1060.445197373325
 20
1349.711310598096
 30
0.0
 11
1099.082281758525
 21
1360.064093646895
 31
0.0
  0
ARC
  5
66D
330
18
100
AcDbEntity
  8
SJC2
100
AcDbCircle
 10
1062.515768463925
 20
1341.983913460295
 30
0.0
 40
19.999999702
100
AcDbArc
 50
212.4579211159
 51
285.000169806
  0
ARC
  5
66E
330
18
100
AcDbEntity
  8
SJC2
100
AcDbCircle
 10
1062.515610965525
 20
1341.983974240896
 30
0.0
 40
8.0
100
AcDbArc
 50
243.5927116986
 51
285.0008656504
  0
ARC
  5
66F
330
18
100
AcDbEntity
  8
SJC2
100
AcDbCircle
 10
1060.929053567224
 20
1341.921088546196
 30
0.0
 40
6.000029841799999
100
AcDbArc
 50
284.9996534479
 51
104.9996534479
  0
LINE
  5
670
330
18
100
AcDbEntity
  8
SJC2
100
AcDbLine
 10
996.7989580873254
 20
1318.525703152596
 30
0.0
 11
1062.481940507025
 21
1336.125495370796
 31
0.0
  0
ARC
  5
671
330
18
100
AcDbEntity
  8
SJC2
100
AcDbCircle
 10
995.2463503573254
 20
1324.321750469896
 30
0.0
 40
8.0
100
AcDbArc
 50
284.9972824591
 51
326.4061388734
  0
ARC
  5
672
330
18
100
AcDbEntity
  8
SJC2
100
AcDbCircle
 10
1062.515815418724
 20
1341.983921588197
 30
0.0
 40
8.0
100
AcDbArc
 50
105.0004870268
 51
146.409758334
  0
ARC
  5
673
330
18
100
AcDbEntity
  8
SJC2
100
AcDbCircle
 10
995.246071147525
 20
1324.321296327996
 30
0.0
 40
6.000029841799999
100
AcDbArc
 50
104.9996534479
 51
284.9996534479
  0
LINE
  5
674
330
18
100
AcDbEntity
  8
SJC2
100
AcDbLine
 10
993.6931842078248
 20
1330.116889503296
 30
0.0
 11
1059.376166627524
 21
1347.716681721596
 31
0.0
  0
ARC
  5
675
330
18
100
AcDbEntity
  8
SJC2
100
AcDbCircle
 10
995.2461177018248
 20
1324.321337623896
 30
0.0
 40
19.999999702
100
AcDbArc
 50
32.4579211159
 51
105.000169806
  0
ARC
  5
676
330
18
100
AcDbEntity
  8
SJC2
100
AcDbCircle
 10
995.2462752002247
 20
1324.321276843296
 30
0.0
 40
8.0
100
AcDbArc
 50
63.5927116986
 51
105.0008656504
  0
ARC
  5
677
330
18
100
AcDbEntity
  8
SJC2
100
AcDbCircle
 10
995.246166558325
 20
1324.321598247196
 30
0.0
 40
19.999999702
100
AcDbArc
 50
284.9997487594
 51
357.541698455
  0
ARC
  5
678
330
18
100
AcDbEntity
  8
SJC2
100
AcDbCircle
 10
1101.152842226325
 20
1352.336734548497
 30
0.0
 40
19.999999702
100
AcDbArc
 50
284.9997487594
 51
357.541698455
  0
ARC
  5
679
330
18
100
AcDbEntity
  8
SJC2
100
AcDbCircle
 10
1101.152992992825
 20
1352.336837041395
 30
0.0
 40
8.0
100
AcDbArc
 50
284.9986587501
 51
326.4065664493
  0
LINE
  5
67A
330
18
100
AcDbEntity
  8
SJC2
100
AcDbLine
 10
1064.586280075225
 20
1334.256598914297
 30
0.0
 11
1103.223364460424
 21
1344.609381963196
 31
0.0
  0
LINE
  5
67B
330
18
100
AcDbEntity
  8
SJC2
100
AcDbLine
 10
1067.692206542626
 20
1322.665412563596
 30
0.0
 11
1106.329138339924
 21
1333.018195612496
 31
0.0
  0
LINE
  5
67C
330
18
100
AcDbEntity
  8
SJC2
100
AcDbLine
 10
1057.339423493824
 20
1361.302496948796
 30
0.0
 11
1095.976507879026
 21
1371.655279997696
 31
0.0
  0
ARC
  5
67D
330
18
100
AcDbEntity
  8
SJC2
100
AcDbCircle
 10
1101.152945957725
 20
1352.336779100896
 30
0.0
 40
19.999999702
100
AcDbArc
 50
32.4579211159
 51
105.000169806
  0
ARC
  5
67E
330
18
100
AcDbEntity
  8
SJC2
100
AcDbCircle
 10
1101.153049973825
 20
1352.336744877895
 30
0.0
 40
8.0
100
AcDbArc
 50
63.5922840349
 51
105.0016004851
  0
LINE
  5
67F
330
18
100
AcDbEntity
  8
SJC2
100
AcDbLine
 10
1175.876103856324
 20
1351.653144065196
 30
0.0
 11
1194.819585019425
 21
1356.729132759096
 31
0.0
  0
ARC
  5
680
330
18
100
AcDbEntity
  8
SJC2
100
AcDbCircle
 10
1170.699665777725
 20
1370.971644961995
 30
0.0
 40
19.999999702
100
AcDbArc
 50
212.4579211159
 51
285.000169806
  0
ARC
  5
681
330
18
100
AcDbEntity
  8
SJC
100
AcDbCircle
 10
1249.387554879025
 20
1381.674505922596
 30
0.0
 40
59.9999991059
100
AcDbArc
 50
105.4655643504
 51
254.5344356496
  0
ARC
  5
682
330
18
100
AcDbEntity
  8
SJC
100
AcDbCircle
 10
1172.918947031925
 20
1381.674505922596
 30
0.0
 40
83.6691176345
100
AcDbArc
 50
316.2792234647
 51
43.72077653529999
  0
CIRCLE
  5
683
330
18
100
AcDbEntity
  8
SJC2
100
AcDbCircle
 10
1209.388066247625
 20
1381.674505922596
 30
0.0
 40
4.9999999255
  0
LINE
  5
684
330
18
100
AcDbEntity
  8
SJC2
100
AcDbLine
 10
1165.523320807525
 20
1390.290228450396
 30
0.0
 11
1191.440831407624
 21
1397.234808425096
 31
0.0
  0
LINE
  5
685
330
18
100
AcDbEntity
  8
SJC2
100
AcDbLine
 10
1172.770329976825
 20
1363.244330415996
 30
0.0
 11
1190.940800897525
 21
1368.113104757496
 31
0.0
  0
LINE
  5
686
330
18
100
AcDbEntity
  8
SJC2
100
AcDbLine
 10
1168.629247274924
 20
1378.699042099695
 30
0.0
 11
1189.444524064325
 21
1384.276739770496
 31
0.0
  0
ARC
  5
687
330
18
100
AcDbEntity
  8
SJC2
100
AcDbCircle
 10
1170.699630172925
 20
1370.971693065196
 30
0.0
 40
19.999999702
100
AcDbArc
 50
104.9997880622
 51
177.5425837057
  0
ARC
  5
688
330
18
100
AcDbEntity
  8
SJC2
100
AcDbCircle
 10
1170.699679699724
 20
1370.971603353696
 30
0.0
 40
8.0
100
AcDbArc
 50
104.9991107221
 51
146.4093307188
  0
ARC
  5
689
330
18
100
AcDbEntity
  8
SJC2
100
AcDbCircle
 10
1170.699561761525
 20
1370.971679184996
 30
0.0
 40
8.0
100
AcDbArc
 50
243.5922840349
 51
285.0016004851
  0
ARC
  5
68A
330
18
100
AcDbEntity
  8
SJC2
100
AcDbCircle
 10
1169.113027174924
 20
1370.908820047796
 30
0.0
 40
6.000049588099999
100
AcDbArc
 50
285.0003571718
 51
105.0003571718
  0
ARC
  5
68B
330
18
100
AcDbEntity
  8
SJC
100
AcDbCircle
 10
1472.057133264525
 20
1381.674505922596
 30
0.0
 40
83.6691176345
100
AcDbArc
 50
136.2792234647
 51
223.7207765353
  0
LINE
  5
68C
330
18
100
AcDbEntity
  8
SJC2
100
AcDbLine
 10
1756.361019522925
 20
1289.537971650996
 30
0.0
 11
1690.678037103225
 21
1307.137763869195
 31
0.0
  0
ARC
  5
68D
330
18
100
AcDbEntity
  8
SJC2
100
AcDbCircle
 10
1757.913976891525
 20
1295.333558018996
 30
0.0
 40
19.999999702
100
AcDbArc
 50
182.4574162943
 51
255.0002119378
  0
LINE
  5
68E
330
18
100
AcDbEntity
  8
SJC2
100
AcDbLine
 10
1759.466945990225
 20
1301.129158001696
 30
0.0
 11
1693.783963570625
 21
1318.728950219896
 31
0.0
  0
LINE
  5
68F
330
18
100
AcDbEntity
  8
SJC2
100
AcDbLine
 10
1587.636656802725
 20
1361.302496948796
 30
0.0
 11
1548.999572417525
 21
1371.655279997696
 31
0.0
  0
ARC
  5
690
330
18
100
AcDbEntity
  8
SJC2
100
AcDbCircle
 10
1582.460469330924
 20
1341.983974240896
 30
0.0
 40
8.0
100
AcDbArc
 50
254.9991343496
 51
296.4072883014
  0
ARC
  5
691
330
18
100
AcDbEntity
  8
SJC2
100
AcDbCircle
 10
1582.460264877725
 20
1341.983921588197
 30
0.0
 40
8.0
100
AcDbArc
 50
33.590241666
 51
74.99951297319999
  0
LINE
  5
692
330
18
100
AcDbEntity
  8
SJC2
100
AcDbLine
 10
1651.282896088625
 20
1330.116889503296
 30
0.0
 11
1585.599913669025
 21
1347.716681721596
 31
0.0
  0
LINE
  5
693
330
18
100
AcDbEntity
  8
SJC2
100
AcDbLine
 10
1648.177122209125
 20
1318.525703152596
 30
0.0
 11
1582.494139789525
 21
1336.125495370796
 31
0.0
  0
ARC
  5
694
330
18
100
AcDbEntity
  8
SJC2
100
AcDbCircle
 10
1582.460311832525
 20
1341.983913460295
 30
0.0
 40
19.999999702
100
AcDbArc
 50
254.999830194
 51
327.5420788841
  0
LINE
  5
695
330
18
100
AcDbEntity
  8
SJC2
100
AcDbLine
 10
1584.530882923225
 20
1349.711310598096
 30
0.0
 11
1545.893798538025
 21
1360.064093646895
 31
0.0
  0
ARC
  5
696
330
18
100
AcDbEntity
  8
SJC2
100
AcDbCircle
 10
1541.546035541225
 20
1353.309333005396
 30
0.0
 40
6.000049588099999
100
AcDbArc
 50
254.9996428282
 51
74.99964282819999
  0
ARC
  5
697
330
18
100
AcDbEntity
  8
SJC2
100
AcDbCircle
 10
1474.276414518825
 20
1370.971644961995
 30
0.0
 40
19.999999702
100
AcDbArc
 50
254.999830194
 51
327.5420788841
  0
LINE
  5
698
330
18
100
AcDbEntity
  8
SJC2
100
AcDbLine
 10
1469.099976440125
 20
1351.653144065196
 30
0.0
 11
1450.156647864925
 21
1356.729132759096
 31
0.0
  0
LINE
  5
699
330
18
100
AcDbEntity
  8
SJC2
100
AcDbLine
 10
1474.310089887825
 20
1365.113226872496
 30
0.0
 11
1539.993072307525
 21
1347.513739829996
 31
0.0
  0
LINE
  5
69A
330
18
100
AcDbEntity
  8
SJC2
100
AcDbLine
 10
1580.389800221224
 20
1334.256598914297
 30
0.0
 11
1541.752715836024
 21
1344.609381963196
 31
0.0
  0
LINE
  5
69B
330
18
100
AcDbEntity
  8
SJC2
100
AcDbLine
 10
1577.283873753825
 20
1322.665412563596
 30
0.0
 11
1538.646941956525
 21
1333.018195612496
 31
0.0
  0
ARC
  5
69C
330
18
100
AcDbEntity
  8
SJC2
100
AcDbCircle
 10
1543.823087303624
 20
1352.336837041395
 30
0.0
 40
8.0
100
AcDbArc
 50
213.5934335507
 51
255.0013412499
  0
ARC
  5
69D
330
18
100
AcDbEntity
  8
SJC2
100
AcDbCircle
 10
1584.047026729225
 20
1341.921088546196
 30
0.0
 40
6.000029841799999
100
AcDbArc
 50
75.0003465521
 51
255.0003465521
  0
ARC
  5
69E
330
18
100
AcDbEntity
  8
SJC2
100
AcDbCircle
 10
1543.823238070125
 20
1352.336734548497
 30
0.0
 40
19.999999702
100
AcDbArc
 50
182.458301545
 51
255.0002512406
  0
LINE
  5
69F
330
18
100
AcDbEntity
  8
SJC2
100
AcDbLine
 10
1477.416016355225
 20
1376.704413223196
 30
0.0
 11
1543.098998774925
 21
1359.104926180797
 31
0.0
  0
ARC
  5
6A0
330
18
100
AcDbEntity
  8
SJC2
100
AcDbCircle
 10
1474.276450123525
 20
1370.971693065196
 30
0.0
 40
19.999999702
100
AcDbArc
 50
2.4574162943
 51
75.0002119378
  0
LINE
  5
6A1
330
18
100
AcDbEntity
  8
SJC2
100
AcDbLine
 10
1472.205750319625
 20
1363.244330415996
 30
0.0
 11
1454.035279398925
 21
1368.113104757496
 31
0.0
  0
LINE
  5
6A2
330
18
100
AcDbEntity
  8
SJC2
100
AcDbLine
 10
1476.346833021624
 20
1378.699042099695
 30
0.0
 11
1455.531556232125
 21
1384.276434594696
 31
0.0
  0
LINE
  5
6A3
330
18
100
AcDbEntity
  8
SJC2
100
AcDbLine
 10
1479.452759488925
 20
1390.290228450396
 30
0.0
 11
1453.535248888825
 21
1397.234808425096
 31
0.0
  0
ARC
  5
6A4
330
18
100
AcDbEntity
  8
SJC2
100
AcDbCircle
 10
1474.276400596725
 20
1370.971603353696
 30
0.0
 40
8.0
100
AcDbArc
 50
33.5906692812
 51
75.0008892779
  0
ARC
  5
6A5
330
18
100
AcDbEntity
  8
SJC2
100
AcDbCircle
 10
1474.276518534925
 20
1370.971679184996
 30
0.0
 40
8.0
100
AcDbArc
 50
254.9983995149
 51
296.4077159651
  0
ARC
  5
6A6
330
18
100
AcDbEntity
  8
SJC2
100
AcDbCircle
 10
1475.863053121525
 20
1370.908820047796
 30
0.0
 40
6.000049588099999
100
AcDbArc
 50
74.99964282819999
 51
254.9996428282
  0
ARC
  5
6A7
330
18
100
AcDbEntity
  8
SJC2
100
AcDbCircle
 10
1543.823134338825
 20
1352.336779100896
 30
0.0
 40
19.999999702
100
AcDbArc
 50
74.999830194
 51
147.5420788841
  0
ARC
  5
6A8
330
18
100
AcDbEntity
  8
SJC2
100
AcDbCircle
 10
1543.823030322625
 20
1352.336744877895
 30
0.0
 40
8.0
100
AcDbArc
 50
74.9983995149
 51
116.4077159651
  0
ARC
  5
6A9
330
18
100
AcDbEntity
  8
SJC2
100
AcDbCircle
 10
1582.460347437225
 20
1341.983961563495
 30
0.0
 40
19.999999702
100
AcDbArc
 50
2.4574162943
 51
75.0002119378
  0
LINE
  5
6AA
330
18
100
AcDbEntity
  8
SJC2
100
AcDbLine
 10
1693.543485058525
 20
1333.287055471696
 30
0.0
 11
1654.906400673325
 21
1343.639838520596
 31
0.0
  0
LINE
  5
6AB
330
18
100
AcDbEntity
  8
SJC2
100
AcDbLine
 10
1690.437558591124
 20
1321.695869120996
 30
0.0
 11
1651.800474205925
 21
1332.048652169897
 31
0.0
  0
LINE
  5
6AC
330
18
100
AcDbEntity
  8
SJC2
100
AcDbLine
 10
1683.190702009725
 20
1294.650276262296
 30
0.0
 11
1644.553617624525
 21
1305.003059311196
 31
0.0
  0
LINE
  5
6AD
330
18
100
AcDbEntity
  8
SJC2
100
AcDbLine
 10
1686.296475889225
 20
1306.241462612996
 30
0.0
 11
1647.659544091824
 21
1316.594245661896
 31
0.0
  0
ARC
  5
6AE
330
18
100
AcDbEntity
  8
SJC2
100
AcDbCircle
 10
1649.729962594625
 20
1324.321337623896
 30
0.0
 40
19.999999702
100
AcDbArc
 50
74.999830194
 51
147.5420788841
  0
ARC
  5
6AF
330
18
100
AcDbEntity
  8
SJC2
100
AcDbCircle
 10
1649.729805096225
 20
1324.321276843296
 30
0.0
 40
8.0
100
AcDbArc
 50
74.99913434959999
 51
116.4072883014
  0
ARC
  5
6B0
330
18
100
AcDbEntity
  8
SJC2
100
AcDbCircle
 10
1649.729729939225
 20
1324.321750469896
 30
0.0
 40
8.0
100
AcDbArc
 50
213.5938611266
 51
255.0027175409
  0
ARC
  5
6B1
330
18
100
AcDbEntity
  8
SJC2
100
AcDbCircle
 10
1649.730009148925
 20
1324.321296327996
 30
0.0
 40
6.000029841799999
100
AcDbArc
 50
255.0003465521
 51
75.0003465521
  0
ARC
  5
6B2
330
18
100
AcDbEntity
  8
SJC2
100
AcDbCircle
 10
1649.729913738125
 20
1324.321598247196
 30
0.0
 40
19.999999702
100
AcDbArc
 50
182.458301545
 51
255.0002512406
  0
ARC
  5
6B3
330
18
100
AcDbEntity
  8
SJC2
100
AcDbCircle
 10
1688.367188944925
 20
1313.968516535696
 30
0.0
 40
19.999999702
100
AcDbArc
 50
2.458301544999999
 51
75.00025124060001
  0
ARC
  5
6B4
330
18
100
AcDbEntity
  8
SJC2
100
AcDbCircle
 10
1688.367187123525
 20
1313.968414042796
 30
0.0
 40
8.0
100
AcDbArc
 50
33.5934335507
 51
75.00134124989999
  0
ARC
  5
6B5
330
18
100
AcDbEntity
  8
SJC2
100
AcDbCircle
 10
1688.367244104525
 20
1313.968811382095
 30
0.0
 40
8.0
100
AcDbArc
 50
254.9983995149
 51
296.4077159651
  0
ARC
  5
6B6
330
18
100
AcDbEntity
  8
SJC2
100
AcDbCircle
 10
1688.367140088325
 20
1313.968777158996
 30
0.0
 40
19.999999702
100
AcDbArc
 50
254.999830194
 51
327.5420788841
  0
ARC
  5
6B7
330
18
100
AcDbEntity
  8
SJC2
100
AcDbCircle
 10
1692.231000336924
 20
1312.933357044596
 30
0.0
 40
6.000049588099999
100
AcDbArc
 50
74.99964282819999
 51
254.9996428282
  0
ARC
  5
6B8
330
18
100
AcDbEntity
  8
SJC2
100
AcDbCircle
 10
1796.551086258625
 20
1284.980785034096
 30
0.0
 40
19.999999702
100
AcDbArc
 50
2.458301544999999
 51
75.00025124060001
  0
ARC
  5
6B9
330
18
100
AcDbEntity
  8
SJC2
100
AcDbCircle
 10
1796.551037402125
 20
1284.980740481596
 30
0.0
 40
19.999999702
100
AcDbArc
 50
254.999830194
 51
327.5420788841
  0
LINE
  5
6BA
330
18
100
AcDbEntity
  8
SJC2
100
AcDbLine
 10
1867.650843304025
 20
1272.141426500097
 30
0.0
 11
1801.967860884325
 21
1289.741218718296
 31
0.0
  0
LINE
  5
6BB
330
18
100
AcDbEntity
  8
SJC2
100
AcDbLine
 10
1864.545069424525
 20
1260.550240149296
 30
0.0
 11
1798.862087004825
 21
1278.150032367495
 31
0.0
  0
LINE
  5
6BC
330
18
100
AcDbEntity
  8
SJC2
100
AcDbLine
 10
1798.621455904825
 20
1292.708137619396
 30
0.0
 11
1759.984524107525
 21
1303.060920668196
 31
0.0
  0
LINE
  5
6BD
330
18
100
AcDbEntity
  8
SJC2
100
AcDbLine
 10
1794.480525790824
 20
1277.253425935596
 30
0.0
 11
1755.843441405624
 21
1287.606208984496
 31
0.0
  0
LINE
  5
6BE
330
18
100
AcDbEntity
  8
SJC2
100
AcDbLine
 10
1791.374599323425
 20
1265.662239584896
 30
0.0
 11
1752.737667526124
 21
1276.015022633695
 31
0.0
  0
ARC
  5
6BF
330
18
100
AcDbEntity
  8
SJC2
100
AcDbCircle
 10
1757.913755892225
 20
1295.333571899196
 30
0.0
 40
8.0
100
AcDbArc
 50
74.9983995149
 51
116.4077159651
  0
ARC
  5
6C0
330
18
100
AcDbEntity
  8
SJC2
100
AcDbCircle
 10
1757.914059451024
 20
1295.333597994297
 30
0.0
 40
8.0
100
AcDbArc
 50
213.590241666
 51
254.9995129732
  0
ARC
  5
6C1
330
18
100
AcDbEntity
  8
SJC2
100
AcDbCircle
 10
1757.913982756525
 20
1295.333564826296
 30
0.0
 40
6.000049588099999
100
AcDbArc
 50
254.9996428282
 51
74.99964282819999
  0
ARC
  5
6C2
330
18
100
AcDbEntity
  8
SJC2
100
AcDbCircle
 10
1800.414973944524
 20
1283.945625542896
 30
0.0
 40
6.000029841799999
100
AcDbArc
 50
75.0003465521
 51
255.0003465521
  0
ARC
  5
6C3
330
18
100
AcDbEntity
  8
SJC2
100
AcDbCircle
 10
1796.551270057524
 20
1284.980632811395
 30
0.0
 40
8.0
100
AcDbArc
 50
33.5938611266
 51
75.0027175409
  0
ARC
  5
6C4
330
18
100
AcDbEntity
  8
SJC2
100
AcDbCircle
 10
1796.550795735425
 20
1284.980908213596
 30
0.0
 40
8.0
100
AcDbArc
 50
255.0020939981
 51
296.4104802091
  0
LINE
  5
6C5
330
18
100
AcDbEntity
  8
SJC2
100
AcDbLine
 10
1801.727382372224
 20
1304.299323970095
 30
0.0
 11
1763.090297987025
 21
1314.652107018895
 31
0.0
  0
ARC
  5
6C6
330
18
100
AcDbEntity
  8
SJC2
100
AcDbCircle
 10
1757.913859908425
 20
1295.333606122196
 30
0.0
 40
19.999999702
100
AcDbArc
 50
74.999830194
 51
147.5420788841
  0
LINE
  5
6C7
330
18
100
AcDbEntity
  8
SJC
100
AcDbLine
 10
1233.388004854825
 20
1439.501958674265
 30
0.0
 11
1233.388004854825
 21
2123.847053170996
 31
0.0
  0
LINE
  5
6C8
330
18
100
AcDbEntity
  8
SJC
100
AcDbLine
 10
1411.588075441625
 20
1439.501958674265
 30
0.0
 11
1411.588075441625
 21
2123.847053170996
 31
0.0
  0
DIMENSION
  5
76D
330
18
100
AcDbEntity
  8
SUNPOU
100
AcDbDimension
  2
*D6
 10
2072.153513992998
 20
1381.674505922595
 30
0.0
 11
2018.153513992998
 21
1781.674505922596
 31
0.0
 70
    32
 71
     5
 42
400.0
  3
SJC
100
AcDbAlignedDimension
 13
1444.270417781925
 23
2181.674505922596
 33
0.0
 14
1395.588525417524
 24
1381.674505922596
 34
0.0
 50
90.0
100
AcDbRotatedDimension
1001
ACAD
1000
DSTYLE
1002
{
1070
    40
1040
20.0
1070
    41
1040
2.0
1070
    42
1040
1.0
1070
    43
1040
6.0
1070
    44
1040
1.0
1070
    73
1070
     0
1070
    74
1070
     0
1070
    77
1070
     1
1070
    78
1070
     8
1070
   140
1040
3.0
1070
   144
1040
0.5
1070
   147
1040
1.199999999999999
1070
   172
1070
     1
1070
   176
1070
   256
1070
   177
1070
   256
1070
   178
1070
   256
1070
   271
1070
     1
1070
   275
1070
     1
1070
   279
1070
     2
1070
   340
1005
7A8
1002
}
  0
DIMENSION
  5
77A
330
18
100
AcDbEntity
  8
SUNPOU
100
AcDbDimension
  2
*D7
 10
2072.153513992998
 20
381.674532744696
 30
0.0
 11
2018.153513992999
 21
881.6745193336462
 31
0.0
 70
    32
 71
     5
 42
499.9999865889498
  3
SJC
100
AcDbAlignedDimension
 13
1395.588525417524
 23
1381.674505922596
 33
0.0
 14
1681.709531377425
 24
381.6745327446961
 34
0.0
 50
90.0
100
AcDbRotatedDimension
1001
ACAD
1000
DSTYLE
1002
{
1070
    40
1040
20.0
1070
    41
1040
2.0
1070
    42
1040
1.0
1070
    43
1040
6.0
1070
    44
1040
1.0
1070
    73
1070
     0
1070
    74
1070
     0
1070
    77
1070
     1
1070
    78
1070
     8
1070
   140
1040
3.0
1070
   144
1040
0.5
1070
   147
1040
1.199999999999999
1070
   172
1070
     1
1070
   176
1070
   256
1070
   177
1070
   256
1070
   178
1070
   256
1070
   271
1070
     1
1070
   275
1070
     1
1070
   279
1070
     2
1070
   340
1005
7A8
1002
}
  0
INSERT
  5
790
330
18
100
AcDbEntity
  8
ZWAKU
100
AcDbBlockReference
  2
CALCOMP_TECHJET720A3
 10
0.0
 20
0.0
 30
0.0
 41
20.0
 42
20.0
 43
20.0
  0
TEXT
  5
792
330
18
100
AcDbEntity
  8
INFORMATION
100
AcDbText
 10
1.0
 20
2.0
 30
0.0
 40
0.8
  1
PLOTTER=CALCOMP_TECHJET720
 41
0.8
  7
EXT08
100
AcDbText
  0
TEXT
  5
793
330
18
100
AcDbEntity
  8
INFORMATION
100
AcDbText
 10
1.0
 20
3.0
 30
0.0
 40
0.8
  1
PAPER=A3
 41
0.8
  7
EXT08
100
AcDbText
  0
TEXT
  5
7AC
330
18
100
AcDbEntity
  8
INFORMATION
100
AcDbText
 10
1.0
 20
1.0
 30
0.0
 40
0.8
  1
VERSION=2.1
 41
0.8
  7
EXT08
100
AcDbText
  0
LINE
  5
7AE
330
18
100
AcDbEntity
  8
MOJI2
100
AcDbLine
 10
557.4099760905919
 20
5049.310818174435
 30
0.0
 11
809.6587502455658
 21
5049.310818174435
 31
0.0
  0
DIMENSION
  5
7D0
330
18
100
AcDbEntity
  8
SUNPOU
100
AcDbDimension
  2
*D9
 10
3021.8572547755
 20
4836.367530721589
 30
0.0
 11
2021.8574985585
 21
4890.367530721589
 31
0.0
 70
    32
  1
2000
 71
     5
 42
1999.999512433998
  3
SJC
100
AcDbAlignedDimension
 13
1021.857742341501
 23
4657.131804180822
 33
0.0
 14
3021.8572547755
 24
4667.944456767607
 34
0.0
100
AcDbRotatedDimension
1001
ACAD
1000
DSTYLE
1002
{
1070
    40
1040
20.0
1070
    41
1040
2.0
1070
    42
1040
1.0
1070
    43
1040
6.0
1070
    44
1040
1.0
1070
    73
1070
     0
1070
    74
1070
     0
1070
    77
1070
     1
1070
    78
1070
     8
1070
   140
1040
3.0
1070
   147
1040
1.199999999999999
1070
   172
1070
     1
1070
   176
1070
   256
1070
   177
1070
   256
1070
   178
1070
   256
1070
   271
1070
     1
1070
   275
1070
     1
1070
   279
1070
     2
1070
   340
1005
7A8
1002
}
  0
DIMENSION
  5
7F4
330
18
100
AcDbEntity
  8
SUNPOU
100
AcDbDimension
  2
*D10
 10
5021.857224973199
 20
4836.367530721589
 30
0.0
 11
4021.857239874349
 21
4890.367530721589
 31
0.0
 70
    32
 71
     5
 42
1999.9999701977
  3
SJC
100
AcDbAlignedDimension
 13
3021.8572547755
 23
4667.944456767607
 33
0.0
 14
5021.857224973199
 24
4679.052410508921
 34
0.0
100
AcDbRotatedDimension
1001
ACAD
1000
DSTYLE
1002
{
1070
    40
1040
20.0
1070
    41
1040
2.0
1070
    42
1040
1.0
1070
    43
1040
6.0
1070
    44
1040
1.0
1070
    73
1070
     0
1070
    74
1070
     0
1070
    77
1070
     1
1070
    78
1070
     8
1070
   140
1040
3.0
1070
   147
1040
1.199999999999999
1070
   172
1070
     1
1070
   176
1070
   256
1070
   177
1070
   256
1070
   178
1070
   256
1070
   271
1070
     1
1070
   275
1070
     1
1070
   279
1070
     2
1070
   340
1005
7A8
1002
}
  0
SOLID
  5
7F5
330
18
100
AcDbEntity
  8
SUNPOU
  6
Continuous
100
AcDbTrace
 10
5061.857224973199
 20
4829.700864054922
 30
0.0
 11
5061.857224973199
 21
4843.034197388256
 31
0.0
 12
5021.857224973199
 22
4836.367530721589
 32
0.0
 13
5021.857224973199
 23
4836.367530721589
 33
0.0
  0
LINE
  5
7F6
330
18
100
AcDbEntity
  8
SUNPOU
  6
Continuous
100
AcDbLine
 10
5061.857224973199
 20
4836.367530721589
 30
0.0
 11
5324.222182997502
 21
4836.367530721589
 31
0.0
  0
TEXT
  5
7F7
330
18
100
AcDbEntity
  8
SUNPOU
100
AcDbText
 10
5110.740665266599
 20
4866.981099361546
 30
0.0
 40
60.0
  1
2000
 41
0.8
  7
EXT08
100
AcDbText
  0
LINE
  5
7F8
330
18
100
AcDbEntity
  8
MOJI
100
AcDbLine
 10
3152.037539309455
 20
4687.173883765535
 30
0.0
 11
3335.992903454513
 21
4687.173883765535
 31
0.0
  0
LINE
  5
7FB
330
18
100
AcDbEntity
  8
MOJI
100
AcDbLine
 10
3332.327083725301
 20
4507.049512264734
 30
0.0
 11
3639.420578359321
 21
4507.049512264734
 31
0.0
  0
SOLID
  5
7FC
330
18
100
AcDbEntity
  8
MOJI
  6
Continuous
100
AcDbTrace
 10
3236.041571721611
 20
4428.280206808492
 30
0.0
 11
3228.164208079601
 21
4439.037758566644
 31
0.0
 12
3199.830234626152
 22
4410.026891761535
 32
0.0
 13
3199.830234626152
 23
4410.026891761535
 33
0.0
  0
LINE
  5
7FD
330
18
100
AcDbEntity
  8
MOJI
  6
Continuous
100
AcDbLine
 10
3232.102889900605
 20
4433.658982687568
 30
0.0
 11
3332.327083725301
 21
4507.049512264734
 31
0.0
  0
LINE
  5
7FE
330
18
100
AcDbEntity
  8
MOJI
100
AcDbLine
 10
3159.226726191632
 20
4264.001974476871
 30
0.0
 11
3508.425718853301
 21
4264.001974476871
 31
0.0
  0
SOLID
  5
7FF
330
18
100
AcDbEntity
  8
MOJI
  6
Continuous
100
AcDbTrace
 10
3094.565567425245
 20
4357.402213113244
 30
0.0
 11
3105.954659408932
 21
4364.335203922766
 31
0.0
 12
3079.461140988521
 22
4395.035984469063
 32
0.0
 13
3079.461140988521
 23
4395.035984469063
 33
0.0
  0
LINE
  5
800
330
18
100
AcDbEntity
  8
MOJI
  6
Continuous
100
AcDbLine
 10
3100.260113417089
 20
4360.868708518006
 30
0.0
 11
3159.226726191631
 21
4264.001974476871
 31
0.0
  0
LINE
  5
801
330
18
100
AcDbEntity
  8
MOJI
100
AcDbLine
 10
3204.598015564746
 20
3381.101133177156
 30
0.0
 11
3755.499761332675
 21
3381.101133177156
 31
0.0
  0
TEXT
  5
8B3
330
18
100
AcDbEntity
  8
MOJI
100
AcDbText
 10
5823.20381981241
 20
3536.780648856951
 30
0.0
 40
60.0
  1
GL
 41
0.8
  7
EXT08
100
AcDbText
  0
LINE
  5
93E
330
18
100
AcDbEntity
  8
HATCH
100
AcDbLine
 10
5921.951577027249
 20
3513.558978096368
 30
0.0
 11
5887.93427862281
 21
3479.54167969193
 31
0.0
  0
LINE
  5
93F
330
18
100
AcDbEntity
  8
HATCH
100
AcDbLine
 10
5906.951577027248
 20
3498.558978096369
 30
0.0
 11
5925.968875431688
 21
3479.54167969193
 31
0.0
  0
LINE
  5
940
330
18
100
AcDbEntity
  8
HATCH
100
AcDbLine
 10
5838.916980218371
 20
3513.558978096368
 30
0.0
 11
5804.899681813933
 21
3479.54167969193
 31
0.0
  0
LINE
  5
941
330
18
100
AcDbEntity
  8
HATCH
100
AcDbLine
 10
5853.916980218372
 20
3513.558978096368
 30
0.0
 11
5819.899681813933
 21
3479.54167969193
 31
0.0
  0
LINE
  5
942
330
18
100
AcDbEntity
  8
HATCH
100
AcDbLine
 10
5823.916980218371
 20
3513.558978096368
 30
0.0
 11
5789.899681813933
 21
3479.54167969193
 31
0.0
  0
LINE
  5
943
330
18
100
AcDbEntity
  8
HATCH
100
AcDbLine
 10
5853.916980218372
 20
3513.558978096368
 30
0.0
 11
5887.93427862281
 21
3479.54167969193
 31
0.0
  0
LINE
  5
944
330
18
100
AcDbEntity
  8
HATCH
100
AcDbLine
 10
5891.951577027248
 20
3513.558978096368
 30
0.0
 11
5872.93427862281
 21
3494.54167969193
 31
0.0
  0
LINE
  5
945
330
18
100
AcDbEntity
  8
HATCH
100
AcDbLine
 10
5906.951577027248
 20
3513.558978096368
 30
0.0
 11
5880.43427862281
 21
3487.04167969193
 31
0.0
  0
LINE
  5
946
330
18
100
AcDbEntity
  8
HATCH
100
AcDbLine
 10
5838.916980218371
 20
3498.558978096369
 30
0.0
 11
5857.93427862281
 21
3479.54167969193
 31
0.0
  0
LINE
  5
947
330
18
100
AcDbEntity
  8
HATCH
100
AcDbLine
 10
5846.416980218371
 20
3506.058978096368
 30
0.0
 11
5872.93427862281
 21
3479.54167969193
 31
0.0
  0
LINE
  5
94D
330
18
100
AcDbEntity
  8
HATCH
100
AcDbLine
 10
5921.951577027249
 20
3513.558978096368
 30
0.0
 11
5955.968875431688
 21
3479.54167969193
 31
0.0
  0
LINE
  5
94F
330
18
100
AcDbEntity
  8
HATCH
100
AcDbLine
 10
5914.451577027248
 20
3506.058978096368
 30
0.0
 11
5940.968875431687
 21
3479.54167969193
 31
0.0
  0
LINE
  5
952
330
18
100
AcDbEntity
  8
MOJI2
100
AcDbLine
 10
2038.297585373595
 20
2761.332719019883
 30
0.0
 11
2297.844556141816
 21
2761.332719019883
 31
0.0
  0
CIRCLE
  5
95F
330
18
100
AcDbEntity
  8
MOJI
100
AcDbCircle
 10
1628.998484600324
 20
2750.987700579677
 30
0.0
 40
48.0
  0
LINE
  5
960
330
18
100
AcDbEntity
  8
MOJI
100
AcDbLine
 10
1568.857632618445
 20
2686.89416992282
 30
0.0
 11
1877.580688483587
 21
2686.89416992282
 31
0.0
  0
SOLID
  5
961
330
18
100
AcDbEntity
  8
MOJI
  6
Continuous
100
AcDbTrace
 10
1435.661410067968
 20
2550.435149162145
 30
0.0
 11
1426.451374905986
 21
2560.076364339332
 31
0.0
 12
1402.132746955414
 22
2527.625651264793
 32
0.0
 13
1402.132746955414
 23
2527.625651264793
 33
0.0
  0
LINE
  5
962
330
18
100
AcDbEntity
  8
MOJI
  6
Continuous
100
AcDbLine
 10
1431.056392486977
 20
2555.255756750739
 30
0.0
 11
1568.857632618444
 21
2686.894169922819
 31
0.0
  0
CIRCLE
  5
963
330
18
100
AcDbEntity
  8
MOJI
100
AcDbCircle
 10
594.9330368196606
 20
2554.364309589719
 30
0.0
 40
48.0
  0
LINE
  5
964
330
18
100
AcDbEntity
  8
MOJI
100
AcDbLine
 10
539.7568937999385
 20
2501.68706182082
 30
0.0
 11
993.4273420507524
 21
2501.68706182082
 31
0.0
  0
SOLID
  5
965
330
18
100
AcDbEntity
  8
MOJI
  6
Continuous
100
AcDbTrace
 10
1189.94051892657
 20
2222.835786233421
 30
0.0
 11
1178.893651652803
 21
2215.369562206944
 31
0.0
 12
1206.815757369119
 22
2185.962072398881
 32
0.0
 13
1206.815757369119
 23
2185.962072398881
 33
0.0
  0
LINE
  5
966
330
18
100
AcDbEntity
  8
MOJI
  6
Continuous
100
AcDbLine
 10
1184.417085289686
 20
2219.102674220182
 30
0.0
 11
993.4273420507526
 21
2501.687061820821
 31
0.0
  0
CIRCLE
  5
967
330
18
100
AcDbEntity
  8
MOJI
100
AcDbCircle
 10
614.1835397554896
 20
1892.381023222002
 30
0.0
 40
48.0
  0
LINE
  5
968
330
18
100
AcDbEntity
  8
MOJI
100
AcDbLine
 10
551.4131340405729
 20
1837.505474661015
 30
0.0
 11
979.4723246851972
 21
1837.505474661015
 31
0.0
  0
SOLID
  5
969
330
18
100
AcDbEntity
  8
MOJI
  6
Continuous
100
AcDbTrace
 10
1070.567211798174
 20
2093.968683673456
 30
0.0
 11
1083.018409461468
 21
2089.19946418518
 31
0.0
 12
1091.10046909465
 22
2128.937666919201
 32
0.0
 13
1091.10046909465
 23
2128.937666919201
 33
0.0
  0
LINE
  5
96A
330
18
100
AcDbEntity
  8
MOJI
  6
Continuous
100
AcDbLine
 10
1076.792810629821
 20
2091.584073929318
 30
0.0
 11
979.4723246851972
 21
1837.505474661015
 31
0.0
  0
CIRCLE
  5
96B
330
18
100
AcDbEntity
  8
MOJI
100
AcDbCircle
 10
1560.160728924591
 20
2002.437434520047
 30
0.0
 40
48.0
  0
LINE
  5
96C
330
18
100
AcDbEntity
  8
MOJI
100
AcDbLine
 10
1507.020949012898
 20
1946.126884437282
 30
0.0
 11
1964.345082240695
 21
1946.126884437282
 31
0.0
  0
SOLID
  5
96D
330
18
100
AcDbEntity
  8
MOJI
  6
Continuous
100
AcDbTrace
 10
1440.887947355041
 20
2094.596023946277
 30
0.0
 11
1453.279909738668
 21
2099.517105744069
 31
0.0
 12
1432.320683153478
 22
2134.232451996052
 32
0.0
 13
1432.320683153478
 23
2134.232451996052
 33
0.0
  0
LINE
  5
96E
330
18
100
AcDbEntity
  8
MOJI
  6
Continuous
100
AcDbLine
 10
1447.083928546854
 20
2097.056564845173
 30
0.0
 11
1507.020949012898
 21
1946.126884437282
 31
0.0
  0
CIRCLE
  5
96F
330
18
100
AcDbEntity
  8
MOJI
100
AcDbCircle
 10
1575.9736448525
 20
1683.54268308593
 30
0.0
 40
48.0
  0
LINE
  5
970
330
18
100
AcDbEntity
  8
MOJI
100
AcDbLine
 10
1497.120508040018
 20
1522.662069189975
 30
0.0
 11
1936.595440689336
 21
1522.662069189975
 31
0.0
  0
SOLID
  5
971
330
18
100
AcDbEntity
  8
MOJI
  6
Continuous
100
AcDbTrace
 10
1420.427597075316
 20
1694.225130401109
 30
0.0
 11
1432.785439289188
 21
1699.231277981319
 31
0.0
 12
1411.588075441625
 22
1733.801730832828
 32
0.0
 13
1411.588075441625
 23
1733.801730832828
 33
0.0
  0
LINE
  5
972
330
18
100
AcDbEntity
  8
MOJI
  6
Continuous
100
AcDbLine
 10
1426.606518182252
 20
1696.728204191214
 30
0.0
 11
1497.120508040018
 21
1522.662069189975
 31
0.0
  0
LINE
  5
9E6
330
18
100
AcDbEntity
  8
HATCH
100
AcDbLine
 10
3100.309690771564
 20
381.674532744696
 30
0.0
 11
3032.275093962686
 21
313.6399359358183
 31
0.0
  0
LINE
  5
9E7
330
18
100
AcDbEntity
  8
HATCH
100
AcDbLine
 10
3070.309690771564
 20
348.6389608227382
 30
0.0
 11
3108.344287580441
 21
310.6043640138605
 31
0.0
  0
LINE
  5
9E8
330
18
100
AcDbEntity
  8
HATCH
100
AcDbLine
 10
2934.240497153809
 20
381.674532744696
 30
0.0
 11
2866.205900344932
 21
313.6399359358183
 31
0.0
  0
LINE
  5
9E9
330
18
100
AcDbEntity
  8
HATCH
100
AcDbLine
 10
2964.240497153809
 20
381.674532744696
 30
0.0
 11
2896.205900344932
 21
313.6399359358183
 31
0.0
  0
LINE
  5
9EA
330
18
100
AcDbEntity
  8
HATCH
100
AcDbLine
 10
2904.240497153809
 20
381.674532744696
 30
0.0
 11
2836.205900344932
 21
313.6399359358183
 31
0.0
  0
LINE
  5
9EB
330
18
100
AcDbEntity
  8
HATCH
100
AcDbLine
 10
2964.240497153809
 20
381.674532744696
 30
0.0
 11
3032.275093962686
 21
313.6399359358183
 31
0.0
  0
LINE
  5
9EC
330
18
100
AcDbEntity
  8
HATCH
100
AcDbLine
 10
3040.309690771564
 20
381.674532744696
 30
0.0
 11
3002.275093962687
 21
343.6399359358192
 31
0.0
  0
LINE
  5
9ED
330
18
100
AcDbEntity
  8
HATCH
100
AcDbLine
 10
3070.309690771564
 20
381.674532744696
 30
0.0
 11
3017.275093962687
 21
328.6399359358192
 31
0.0
  0
LINE
  5
9EE
330
18
100
AcDbEntity
  8
HATCH
100
AcDbLine
 10
2934.240497153809
 20
348.6389608227382
 30
0.0
 11
2972.275093962686
 21
310.6043640138605
 31
0.0
  0
LINE
  5
9EF
330
18
100
AcDbEntity
  8
HATCH
100
AcDbLine
 10
2949.240497153809
 20
366.674532744696
 30
0.0
 11
3002.275093962686
 21
313.6399359358183
 31
0.0
  0
LINE
  5
9F5
330
18
100
AcDbEntity
  8
HATCH
100
AcDbLine
 10
3100.309690771564
 20
381.674532744696
 30
0.0
 11
3168.344287580441
 21
313.6399359358183
 31
0.0
  0
LINE
  5
9F7
330
18
100
AcDbEntity
  8
HATCH
100
AcDbLine
 10
3085.309690771564
 20
366.674532744696
 30
0.0
 11
3138.344287580441
 21
313.6399359358183
 31
0.0
  0
LINE
  5
9F8
330
18
100
AcDbEntity
  8
HATCH
100
AcDbLine
 10
811.9687935093388
 20
381.6745327446961
 30
0.0
 11
743.9341967004621
 21
313.6399359358184
 31
0.0
  0
LINE
  5
9F9
330
18
100
AcDbEntity
  8
HATCH
100
AcDbLine
 10
948.0379871270933
 20
381.6745327446961
 30
0.0
 11
910.0033903182165
 21
343.6399359358193
 31
0.0
  0
LINE
  5
9FA
330
18
100
AcDbEntity
  8
HATCH
100
AcDbLine
 10
978.0379871270934
 20
381.6745327446961
 30
0.0
 11
925.0033903182165
 21
328.6399359358193
 31
0.0
  0
LINE
  5
9FB
330
18
100
AcDbEntity
  8
HATCH
100
AcDbLine
 10
871.9687935093388
 20
381.6745327446961
 30
0.0
 11
940.0033903182157
 21
313.6399359358184
 31
0.0
  0
LINE
  5
9FC
330
18
100
AcDbEntity
  8
HATCH
100
AcDbLine
 10
871.9687935093388
 20
381.6745327446961
 30
0.0
 11
803.934196700462
 21
313.6399359358184
 31
0.0
  0
LINE
  5
9FD
330
18
100
AcDbEntity
  8
HATCH
100
AcDbLine
 10
841.9687935093389
 20
348.6389608227382
 30
0.0
 11
880.0033903182157
 21
310.6043640138605
 31
0.0
  0
LINE
  5
9FE
330
18
100
AcDbEntity
  8
HATCH
100
AcDbLine
 10
841.9687935093389
 20
381.6745327446961
 30
0.0
 11
773.934196700462
 21
313.6399359358184
 31
0.0
  0
LINE
  5
9FF
330
18
100
AcDbEntity
  8
HATCH
100
AcDbLine
 10
856.9687935093389
 20
366.6745327446961
 30
0.0
 11
910.0033903182156
 21
313.6399359358184
 31
0.0
  0
LINE
  5
A00
330
18
100
AcDbEntity
  8
HATCH
100
AcDbLine
 10
978.0379871270934
 20
348.6389608227382
 30
0.0
 11
1016.072583935971
 21
310.6043640138605
 31
0.0
  0
LINE
  5
A01
330
18
100
AcDbEntity
  8
HATCH
100
AcDbLine
 10
993.0379871270934
 20
366.6745327446961
 30
0.0
 11
1046.072583935971
 21
313.6399359358184
 31
0.0
  0
LINE
  5
A02
330
18
100
AcDbEntity
  8
HATCH
100
AcDbLine
 10
1008.037987127093
 20
381.6745327446961
 30
0.0
 11
1076.072583935971
 21
313.6399359358184
 31
0.0
  0
LINE
  5
A03
330
18
100
AcDbEntity
  8
HATCH
100
AcDbLine
 10
1008.037987127093
 20
381.6745327446961
 30
0.0
 11
940.0033903182157
 21
313.6399359358184
 31
0.0
  0
TEXT
  5
A04
330
18
100
AcDbEntity
  8
MOJI
100
AcDbText
 10
797.9497967959341
 20
405.4461998708957
 30
0.0
 40
60.0
  1
GL
 41
0.8
  7
EXT08
100
AcDbText
  0
LINE
  5
A06
330
18
100
AcDbEntity
  8
MOJI2
100
AcDbLine
 10
4989.63709726679
 20
2714.397938637392
 30
0.0
 11
5477.116661229851
 21
2714.397938637392
 31
0.0
  0
TEXT
  5
A14
330
18
100
AcDbEntity
  8
MOJI
100
AcDbText
 10
2906.117345892684
 20
405.4461998708957
 30
0.0
 40
60.0
  1
GL
 41
0.8
  7
EXT08
100
AcDbText
  0
LINE
  5
A7F
330
18
100
AcDbEntity
  8
HATCH
100
AcDbLine
 10
1358.723685469602
 20
3513.558978096368
 30
0.0
 11
1324.706387065164
 21
3479.54167969193
 31
0.0
  0
LINE
  5
A80
330
18
100
AcDbEntity
  8
HATCH
100
AcDbLine
 10
1343.723685469602
 20
3498.558978096369
 30
0.0
 11
1362.74098387404
 21
3479.54167969193
 31
0.0
  0
LINE
  5
A81
330
18
100
AcDbEntity
  8
HATCH
100
AcDbLine
 10
1328.723685469602
 20
3513.558978096368
 30
0.0
 11
1294.706387065163
 21
3479.54167969193
 31
0.0
  0
LINE
  5
A82
330
18
100
AcDbEntity
  8
HATCH
100
AcDbLine
 10
1343.723685469602
 20
3513.558978096368
 30
0.0
 11
1309.706387065163
 21
3479.54167969193
 31
0.0
  0
LINE
  5
A83
330
18
100
AcDbEntity
  8
HATCH
100
AcDbLine
 10
1411.758282278479
 20
3498.558978096369
 30
0.0
 11
1430.775580682918
 21
3479.54167969193
 31
0.0
  0
LINE
  5
A84
330
18
100
AcDbEntity
  8
HATCH
100
AcDbLine
 10
1419.258282278479
 20
3506.058978096368
 30
0.0
 11
1445.775580682918
 21
3479.54167969193
 31
0.0
  0
LINE
  5
A85
330
18
100
AcDbEntity
  8
HATCH
100
AcDbLine
 10
1426.758282278479
 20
3513.558978096368
 30
0.0
 11
1460.775580682918
 21
3479.54167969193
 31
0.0
  0
LINE
  5
A86
330
18
100
AcDbEntity
  8
HATCH
100
AcDbLine
 10
1411.758282278479
 20
3513.558978096368
 30
0.0
 11
1385.24098387404
 21
3487.04167969193
 31
0.0
  0
LINE
  5
A87
330
18
100
AcDbEntity
  8
HATCH
100
AcDbLine
 10
1426.758282278479
 20
3513.558978096368
 30
0.0
 11
1392.74098387404
 21
3479.54167969193
 31
0.0
  0
LINE
  5
A88
330
18
100
AcDbEntity
  8
HATCH
100
AcDbLine
 10
1396.758282278479
 20
3513.558978096368
 30
0.0
 11
1377.74098387404
 21
3494.54167969193
 31
0.0
  0
LINE
  5
A89
330
18
100
AcDbEntity
  8
HATCH
100
AcDbLine
 10
1351.223685469602
 20
3506.058978096368
 30
0.0
 11
1377.74098387404
 21
3479.54167969193
 31
0.0
  0
LINE
  5
A8A
330
18
100
AcDbEntity
  8
HATCH
100
AcDbLine
 10
1358.723685469602
 20
3513.558978096368
 30
0.0
 11
1392.74098387404
 21
3479.54167969193
 31
0.0
  0
LINE
  5
D7A
330
18
100
AcDbEntity
  8
SJC
100
AcDbLine
 10
4509.679927546591
 20
1733.958992123221
 30
0.0
 11
4673.88707841999
 21
1689.960274517121
 31
0.0
  0
LINE
  5
D7B
330
18
100
AcDbEntity
  8
SJC
100
AcDbLine
 10
4501.914424732589
 20
1704.981026246421
 30
0.0
 11
4666.122185957591
 21
1660.982308640321
 31
0.0
  0
ARC
  5
D7C
330
18
100
AcDbEntity
  8
SJC
100
AcDbCircle
 10
4670.004632188789
 20
1675.471291578721
 30
0.0
 40
15.0001338436
100
AcDbArc
 50
254.9995020838999
 51
74.9995020839
  0
ARC
  5
D7D
330
18
100
AcDbEntity
  8
SJC
100
AcDbCircle
 10
4505.797176139589
 20
1719.470009184821
 30
0.0
 40
15.0002128344
100
AcDbArc
 50
74.9983761367
 51
254.9983761367
  0
LINE
  5
D7E
330
18
100
AcDbEntity
  8
SJC
100
AcDbLine
 10
4936.58238700549
 20
1588.512216946721
 30
0.0
 11
4772.375236132091
 21
1632.511697492321
 31
0.0
  0
ARC
  5
D7F
330
18
100
AcDbEntity
  8
SJC
100
AcDbCircle
 10
4776.25737718749
 20
1647.000680430721
 30
0.0
 40
15.0000548587
100
AcDbArc
 50
75.000628043
 51
255.000628043
  0
LINE
  5
D80
330
18
100
AcDbEntity
  8
SJC
100
AcDbLine
 10
4944.347279467991
 20
1617.490182823521
 30
0.0
 11
4780.139518242991
 21
1661.489663369121
 31
0.0
  0
ARC
  5
D81
330
18
100
AcDbEntity
  8
SJC
100
AcDbCircle
 10
4940.464833236791
 20
1603.001199885121
 30
0.0
 40
15.0001338436
100
AcDbArc
 50
254.9995020838999
 51
74.9995020839
  0
ARC
  5
D82
330
18
100
AcDbEntity
  8
SJC
100
AcDbCircle
 10
4940.463980806791
 20
1603.002037403921
 30
0.0
 40
49.9999992549
100
AcDbArc
 50
182.4583964233
 51
255.000617495
  0
ARC
  5
D83
330
18
100
AcDbEntity
  8
SJC
100
AcDbCircle
 10
4940.46437019549
 20
1603.002210656721
 30
0.0
 40
19.999999702
100
AcDbArc
 50
213.593433228
 51
255.0013415726
  0
ARC
  5
D84
330
18
100
AcDbEntity
  8
SJC
100
AcDbCircle
 10
4940.464551955191
 20
1603.001151490421
 30
0.0
 40
19.999999702
100
AcDbArc
 50
74.99913402689999
 51
116.4072886241
  0
ARC
  5
D85
330
18
100
AcDbEntity
  8
SJC
100
AcDbCircle
 10
4940.46473759919
 20
1603.001215794021
 30
0.0
 40
49.9999992549
100
AcDbArc
 50
75.0002168501
 51
147.5419602829999
  0
ARC
  5
D86
330
18
100
AcDbEntity
  8
SJC
100
AcDbCircle
 10
4501.830291855789
 20
1719.627158801021
 30
0.0
 40
49.9999992549
100
AcDbArc
 50
255.0002168501
 51
327.541960283
  0
ARC
  5
D87
330
18
100
AcDbEntity
  8
SJC
100
AcDbCircle
 10
4501.83148427239
 20
1719.627116873021
 30
0.0
 40
19.999999702
100
AcDbArc
 50
254.9979582942
 51
296.4079728912
  0
ARC
  5
D88
330
18
100
AcDbEntity
  8
SJC
100
AcDbCircle
 10
4501.830785293591
 20
1719.626893110521
 30
0.0
 40
19.999999702
100
AcDbArc
 50
33.5909255054
 51
75.0017153678
  0
ARC
  5
D89
330
18
100
AcDbEntity
  8
SJC
100
AcDbCircle
 10
4501.831015517389
 20
1719.627109007521
 30
0.0
 40
49.9999992549
100
AcDbArc
 50
2.457511172299999
 51
75.0005781908
  0
ARC
  5
D8A
330
18
100
AcDbEntity
  8
SJC
100
AcDbCircle
 10
4675.698366854889
 20
1673.039712713621
 30
0.0
 40
49.9999992549
100
AcDbArc
 50
182.4582066644
 51
254.9998849856
  0
LINE
  5
D8B
330
18
100
AcDbEntity
  8
SJC
100
AcDbLine
 10
4759.34972363089
 20
1598.861490474221
 30
0.0
 11
4662.75731784369
 21
1624.743448096321
 31
0.0
  0
LINE
  5
D8C
330
18
100
AcDbEntity
  8
SJC
100
AcDbLine
 10
4767.114005741791
 20
1627.839456351021
 30
0.0
 11
4670.52098960299
 21
1653.721413973121
 31
0.0
  0
ARC
  5
D8D
330
18
100
AcDbEntity
  8
SJC
100
AcDbCircle
 10
4675.696918086091
 20
1673.040051409921
 30
0.0
 40
19.999999702
100
AcDbArc
 50
213.593433228
 51
255.0013415726
  0
LINE
  5
D8E
330
18
100
AcDbEntity
  8
SJC
100
AcDbLine
 10
4777.466788790589
 20
1666.476235560421
 30
0.0
 11
4680.87438300339
 21
1692.358193182521
 31
0.0
  0
ARC
  5
D8F
330
18
100
AcDbEntity
  8
SJC
100
AcDbCircle
 10
4675.69771019739
 20
1673.039755183121
 30
0.0
 40
19.999999702
100
AcDbArc
 50
74.99913402689999
 51
116.4072886241
  0
ARC
  5
D90
330
18
100
AcDbEntity
  8
SJC
100
AcDbCircle
 10
4675.69737436379
 20
1673.039959217021
 30
0.0
 40
49.9999992549
100
AcDbArc
 50
74.9995982006
 51
147.542150046
  0
LINE
  5
D91
330
18
100
AcDbEntity
  8
SJC
100
AcDbLine
 10
4785.23168125299
 20
1695.454201437221
 30
0.0
 11
4688.638665114289
 21
1721.336159059321
 31
0.0
  0
ARC
  5
D92
330
18
100
AcDbEntity
  8
SJC
100
AcDbCircle
 10
4772.29059911359
 20
1647.157945696621
 30
0.0
 40
49.9999992549
100
AcDbArc
 50
2.457321413799999
 51
74.9998456843
  0
ARC
  5
D93
330
18
100
AcDbEntity
  8
SJC
100
AcDbCircle
 10
4772.29024386299
 20
1647.157763294421
 30
0.0
 40
19.999999702
100
AcDbArc
 50
33.5902413433
 51
74.9995132959
  0
ARC
  5
D94
330
18
100
AcDbEntity
  8
SJC
100
AcDbCircle
 10
4772.290678547691
 20
1647.157894350421
 30
0.0
 40
19.999999702
100
AcDbArc
 50
254.9991340268999
 51
296.4072886241
  0
ARC
  5
D95
330
18
100
AcDbEntity
  8
SJC
100
AcDbCircle
 10
4772.29101438139
 20
1647.157690316521
 30
0.0
 40
49.9999992549
100
AcDbArc
 50
254.9995982006
 51
327.542150046
  0
ARC
  5
D96
330
18
100
AcDbEntity
  8
SJC
100
AcDbCircle
 10
3738.922645330589
 20
1719.470009184821
 30
0.0
 40
15.0001733383
100
AcDbArc
 50
285.0010608912
 51
105.0010608912
  0
ARC
  5
D97
330
18
100
AcDbEntity
  8
SJC
100
AcDbCircle
 10
3742.889377026492
 20
1719.627158801021
 30
0.0
 40
49.9999992549
100
AcDbArc
 50
212.458039717
 51
284.9997831499
  0
ARC
  5
D98
330
18
100
AcDbEntity
  8
SJC
100
AcDbCircle
 10
3742.88848978559
 20
1719.627116873021
 30
0.0
 40
19.999999702
100
AcDbArc
 50
243.5920271088
 51
285.0020417058
  0
ARC
  5
D99
330
18
100
AcDbEntity
  8
SJC
100
AcDbCircle
 10
3742.88918876449
 20
1719.626893110521
 30
0.0
 40
19.999999702
100
AcDbArc
 50
104.9982846322
 51
146.4090744946
  0
ARC
  5
D9A
330
18
100
AcDbEntity
  8
SJC
100
AcDbCircle
 10
3742.88896209079
 20
1719.627191728121
 30
0.0
 40
49.9999992549
100
AcDbArc
 50
104.9997880622
 51
177.5425837057
  0
ARC
  5
D9B
330
18
100
AcDbEntity
  8
SJC
100
AcDbCircle
 10
3748.43716801349
 20
1746.384300165621
 30
0.0
 40
209.1727988545
100
AcDbArc
 50
316.2791957977
 51
43.72080420229999
  0
ARC
  5
D9C
330
18
100
AcDbEntity
  8
SJC
100
AcDbCircle
 10
3939.60834551639
 20
1746.384300165621
 30
0.0
 40
149.9999977648
100
AcDbArc
 50
105.465455064
 51
254.534544936
  0
CIRCLE
  5
D9D
330
18
100
AcDbEntity
  8
SJC2
100
AcDbCircle
 10
3839.610052277491
 20
1746.384223871621
 30
0.0
 40
12.4999998137
  0
LINE
  5
D9E
330
18
100
AcDbEntity
  8
SJC
100
AcDbLine
 10
3748.06555901269
 20
1700.308785105121
 30
0.0
 11
3793.49188890219
 21
1712.480720958821
 31
0.0
  0
LINE
  5
D9F
330
18
100
AcDbEntity
  8
SJC
100
AcDbLine
 10
3755.83014629929
 20
1671.330819228321
 30
0.0
 11
3803.18884920689
 21
1684.020790963021
 31
0.0
  0
LINE
  5
DA0
330
18
100
AcDbEntity
  8
SJC
100
AcDbLine
 10
3737.713386315391
 20
1738.945564314521
 30
0.0
 11
3789.75134940719
 21
1752.889808491521
 31
0.0
  0
LINE
  5
DA1
330
18
100
AcDbEntity
  8
SJC
100
AcDbLine
 10
3729.94818867719
 20
1767.923530191321
 30
0.0
 11
3794.74158370779
 21
1785.284980127921
 31
0.0
  0
ARC
  5
DA2
330
18
100
AcDbEntity
  8
SJC
100
AcDbCircle
 10
4305.111628541592
 20
1746.384300165621
 30
0.0
 40
149.9999977648
100
AcDbArc
 50
285.465455064
 51
74.534544936
  0
ARC
  5
DA3
330
18
100
AcDbEntity
  8
SJC
100
AcDbCircle
 10
4496.282806044489
 20
1746.384300165621
 30
0.0
 40
209.1727988545
100
AcDbArc
 50
136.2791957977
 51
223.7208042023
  0
LINE
  5
DA4
330
18
100
AcDbEntity
  8
SJC
100
AcDbLine
 10
4514.77148020509
 20
1767.923530191321
 30
0.0
 11
4449.97839035029
 21
1785.284980127921
 31
0.0
  0
LINE
  5
DA5
330
18
100
AcDbEntity
  8
SJC
100
AcDbLine
 10
4507.006587742689
 20
1738.945564314521
 30
0.0
 11
4454.96862465089
 21
1752.889045552021
 31
0.0
  0
LINE
  5
DA6
330
18
100
AcDbEntity
  8
SJC
100
AcDbLine
 10
4496.654415045392
 20
1700.308785105121
 30
0.0
 11
4451.22777998009
 21
1712.480720958821
 31
0.0
  0
LINE
  5
DA7
330
18
100
AcDbEntity
  8
SJC
100
AcDbLine
 10
4488.889522582891
 20
1671.330819228321
 30
0.0
 11
4441.531124851089
 21
1684.020790963021
 31
0.0
  0
LINE
  5
DA8
330
18
100
AcDbEntity
  8
SJC
100
AcDbLine
 10
4022.359988519091
 20
2289.884887159521
 30
0.0
 11
4009.85998870539
 21
2229.884888053621
 31
0.0
  0
LINE
  5
DA9
330
18
100
AcDbEntity
  8
SJC
100
AcDbLine
 10
3897.35999038179
 20
2149.884584069921
 30
0.0
 11
3897.35999038179
 21
2124.884584442521
 31
0.0
  0
LINE
  5
DAA
330
18
100
AcDbEntity
  8
SJC
100
AcDbLine
 10
3887.359990530791
 20
2104.884889916321
 30
0.0
 11
3887.359990530791
 21
2044.884890810321
 31
0.0
  0
ARC
  5
DAB
330
18
100
AcDbEntity
  8
SJC
100
AcDbCircle
 10
4122.359826791591
 20
2491.384884032822
 30
0.0
 40
224.9999966472
100
AcDbArc
 50
296.4201215212
 51
243.6057390604
  0
LINE
  5
DAC
330
18
100
AcDbEntity
  8
SJC
100
AcDbLine
 10
3897.35999038179
 20
2124.884584442521
 30
0.0
 11
3904.859685094291
 21
2119.884279341222
 31
0.0
  0
LINE
  5
DAD
330
18
100
AcDbEntity
  8
SJC
100
AcDbLine
 10
3904.859685094291
 20
2109.885195017521
 30
0.0
 11
3887.359990530791
 21
2104.884889916321
 31
0.0
  0
LINE
  5
DAE
330
18
100
AcDbEntity
  8
SJC
100
AcDbLine
 10
3904.859685094291
 20
2119.884279341222
 30
0.0
 11
3904.859685094291
 21
2109.885195017521
 31
0.0
  0
LINE
  5
DAF
330
18
100
AcDbEntity
  8
SJC
100
AcDbLine
 10
3899.60974620759
 20
1890.953008338521
 30
0.0
 11
3899.60974620759
 21
2044.884890810321
 31
0.0
  0
LINE
  5
DB0
330
18
100
AcDbEntity
  8
SJC
100
AcDbLine
 10
4339.860288963791
 20
2109.885195017521
 30
0.0
 11
4357.359983527291
 21
2104.884889916321
 31
0.0
  0
LINE
  5
DB1
330
18
100
AcDbEntity
  8
SJC
100
AcDbLine
 10
4347.359983676291
 20
2124.884584442521
 30
0.0
 11
4339.860288963791
 21
2119.884279341222
 31
0.0
  0
LINE
  5
DB2
330
18
100
AcDbEntity
  8
SJC
100
AcDbLine
 10
4339.860288963791
 20
2119.884279341222
 30
0.0
 11
4339.860288963791
 21
2109.885195017521
 31
0.0
  0
LINE
  5
DB3
330
18
100
AcDbEntity
  8
SJC
100
AcDbLine
 10
4347.359983676291
 20
2149.884584069921
 30
0.0
 11
4347.359983676291
 21
2124.884584442521
 31
0.0
  0
LINE
  5
DB4
330
18
100
AcDbEntity
  8
SJC
100
AcDbLine
 10
4222.359985538889
 20
2289.884887159521
 30
0.0
 11
4234.85998535259
 21
2229.884888053621
 31
0.0
  0
LINE
  5
DB5
330
18
100
AcDbEntity
  8
SJC
100
AcDbLine
 10
4357.359983527291
 20
2104.884889916321
 30
0.0
 11
4357.359983527291
 21
2044.884890810321
 31
0.0
  0
LINE
  5
DB6
330
18
100
AcDbEntity
  8
SJC
100
AcDbLine
 10
4022.359988519091
 20
2289.884887159521
 30
0.0
 11
4222.359985538889
 21
2289.884887159521
 31
0.0
  0
LINE
  5
DB7
330
18
100
AcDbEntity
  8
SJC
100
AcDbLine
 10
4009.85998870539
 20
2229.884888053621
 30
0.0
 11
4234.85998535259
 21
2229.884888053621
 31
0.0
  0
LINE
  5
DB8
330
18
100
AcDbEntity
  8
SJC
100
AcDbLine
 10
3897.35999038179
 20
2149.884584069921
 30
0.0
 11
4347.359983676291
 21
2149.884584069921
 31
0.0
  0
LINE
  5
DB9
330
18
100
AcDbEntity
  8
SJC
100
AcDbLine
 10
3897.35999038179
 20
2124.884584442521
 30
0.0
 11
4347.359983676291
 21
2124.884584442521
 31
0.0
  0
LINE
  5
DBA
330
18
100
AcDbEntity
  8
SJC
100
AcDbLine
 10
3887.359990530791
 20
2104.884889916321
 30
0.0
 11
4357.359983527291
 21
2104.884889916321
 31
0.0
  0
LINE
  5
DBB
330
18
100
AcDbEntity
  8
SJC
100
AcDbLine
 10
3887.359990530791
 20
2044.884890810321
 30
0.0
 11
4357.359983527291
 21
2044.884890810321
 31
0.0
  0
LINE
  5
DBC
330
18
100
AcDbEntity
  8
SJC
100
AcDbLine
 10
3904.859685094291
 20
2119.884279341222
 30
0.0
 11
4339.860288963791
 21
2119.884279341222
 31
0.0
  0
LINE
  5
DBD
330
18
100
AcDbEntity
  8
SJC
100
AcDbLine
 10
3904.859685094291
 20
2109.885195017521
 30
0.0
 11
4339.860288963791
 21
2109.885195017521
 31
0.0
  0
LINE
  5
DBE
330
18
100
AcDbEntity
  8
SJC
100
AcDbLine
 10
4345.11022785039
 20
1890.953008338521
 30
0.0
 11
4345.11022785039
 21
2044.884890810321
 31
0.0
  0
ARC
  5
DBF
330
18
100
AcDbEntity
  8
SJC
100
AcDbCircle
 10
4122.36004160829
 20
1952.580880588221
 30
0.0
 40
299.2553666345001
100
AcDbArc
 50
112.0820072678
 51
138.7523097363
  0
ARC
  5
DC0
330
18
100
AcDbEntity
  8
SJC
100
AcDbCircle
 10
4122.35993244979
 20
1952.580880588221
 30
0.0
 40
299.2553666345001
100
AcDbArc
 50
41.2476902637
 51
67.9179927322
  0
LINE
  5
DC1
330
18
100
AcDbEntity
  8
SJC
100
AcDbLine
 10
5009.31126775769
 20
1532.790629642321
 30
0.0
 11
4927.52354924989
 21
1554.705607343121
 31
0.0
  0
LINE
  5
DC2
330
18
100
AcDbEntity
  8
SJC
100
AcDbLine
 10
5017.07554986859
 20
1561.768748107021
 30
0.0
 11
4935.288441712291
 21
1583.683573219921
 31
0.0
  0
LINE
  5
DC3
330
18
100
AcDbEntity
  8
SJC
100
AcDbLine
 10
5027.428332917491
 20
1600.404611789121
 30
0.0
 11
4945.64122476119
 21
1622.319589489921
 31
0.0
  0
LINE
  5
DC4
330
18
100
AcDbEntity
  8
SJC
100
AcDbLine
 10
5035.193225379892
 20
1629.382730253721
 30
0.0
 11
4953.40550687199
 21
1651.297555366621
 31
0.0
  0
LINE
  5
DC5
330
18
100
AcDbEntity
  8
SJC
100
AcDbLine
 10
3735.040046511491
 20
1733.958992123221
 30
0.0
 11
3654.847176612689
 21
1712.471565685521
 31
0.0
  0
LINE
  5
DC6
330
18
100
AcDbEntity
  8
SJC
100
AcDbLine
 10
3742.805244149691
 20
1704.981026246421
 30
0.0
 11
3662.611763899291
 21
1683.493447220921
 31
0.0
  0
LINE
  5
DC7
330
18
100
AcDbEntity
  8
SJC
100
AcDbLine
 10
3899.60974620759
 20
1513.362224170121
 30
0.0
 11
3899.60974620759
 21
1601.815591992721
 31
0.0
  0
LINE
  5
DC8
330
18
100
AcDbEntity
  8
SJC
100
AcDbLine
 10
4345.11022785039
 20
1513.362224170121
 30
0.0
 11
4345.11022785039
 21
1601.815591992721
 31
0.0
  0
LINE
  5
DC9
330
18
100
AcDbEntity
  8
SJC
100
AcDbLine
 10
5045.666858036289
 20
1668.471322200621
 30
0.0
 11
4999.979602857689
 21
1497.965190708121
 31
0.0
  0
ARC
  5
DCA
330
18
100
AcDbEntity
  8
SJC
100
AcDbCircle
 10
4010.984866618289
 20
1689.037650288321
 30
0.0
 40
208.0054633617
100
AcDbArc
 50
237.6260237668001
 51
302.3739762332
  0
ARC
  5
DCB
330
18
100
AcDbEntity
  8
SJC
100
AcDbCircle
 10
4233.73510743969
 20
1689.037650288321
 30
0.0
 40
208.0054633617
100
AcDbArc
 50
237.6260237668001
 51
302.3739762332
  0
ARC
  5
DCC
330
18
100
AcDbEntity
  8
SJC
100
AcDbCircle
 10
4233.73510743969
 20
1337.686798051921
 30
0.0
 40
208.0054633617
100
AcDbArc
 50
57.62602376680001
 51
122.3739762332
  0
LINE
  5
DCD
330
18
100
AcDbEntity
  8
SJC
100
AcDbLine
 10
3642.035592330891
 20
1760.285285676221
 30
0.0
 11
3670.57227403459
 21
1653.784432771021
 31
0.0
  0
LINE
  5
DCE
330
18
100
AcDbEntity
  8
HASEN
100
AcDbLine
 10
4449.97839035029
 20
1785.284980127921
 30
0.0
 11
4418.17907441789
 21
1793.805792989221
 31
0.0
  0
LINE
  5
DCF
330
18
100
AcDbEntity
  8
HASEN
100
AcDbLine
 10
4441.531124851089
 20
1684.020790963021
 30
0.0
 11
4392.297727147291
 21
1697.213082026221
 31
0.0
  0
LINE
  5
DD0
330
18
100
AcDbEntity
  8
HASEN
100
AcDbLine
 10
4454.96862465089
 20
1752.889045552021
 30
0.0
 11
4410.41479230699
 21
1764.827216760921
 31
0.0
  0
LINE
  5
DD1
330
18
100
AcDbEntity
  8
HASEN
100
AcDbLine
 10
4451.22777998009
 20
1712.480720958821
 30
0.0
 11
4400.061398906589
 21
1726.190590139321
 31
0.0
  0
CIRCLE
  5
DD2
330
18
100
AcDbEntity
  8
HASEN
100
AcDbCircle
 10
4405.109616604789
 20
1746.384223871621
 30
0.0
 40
12.4999998137
  0
ARC
  5
DD3
330
18
100
AcDbEntity
  8
HASEN
100
AcDbCircle
 10
4405.238095606789
 20
1745.509208625921
 30
0.0
 40
20.0000328351
100
AcDbArc
 50
74.9990885951
 51
254.9990885951
  0
ARC
  5
DD4
330
18
100
AcDbEntity
  8
HASEN
100
AcDbCircle
 10
4405.238400782589
 20
1745.509284919821
 30
0.0
 40
50.0001372581
100
AcDbArc
 50
75.000372681
 51
255.0003726809999
  0
LINE
  5
DD5
330
18
100
AcDbEntity
  8
HASEN
100
AcDbLine
 10
4375.110227403391
 20
1821.452887303821
 30
0.0
 11
4434.97411811289
 21
1821.452887303821
 31
0.0
  0
LINE
  5
DD6
330
18
100
AcDbEntity
  8
HASEN
100
AcDbLine
 10
4375.110227403391
 20
1871.452886558721
 30
0.0
 11
4375.110227403391
 21
1821.452887303821
 31
0.0
  0
LINE
  5
DD7
330
18
100
AcDbEntity
  8
HASEN
100
AcDbLine
 10
4375.110227403391
 20
1871.452886558721
 30
0.0
 11
4387.922116860889
 21
1871.452886558721
 31
0.0
  0
LINE
  5
DD8
330
18
100
AcDbEntity
  8
HASEN
100
AcDbLine
 10
4362.110349667389
 20
1830.202887173421
 30
0.0
 11
4362.110349667389
 21
1862.702886689121
 31
0.0
  0
LINE
  5
DD9
330
18
100
AcDbEntity
  8
HASEN
100
AcDbLine
 10
4304.638121519889
 20
1830.202887173421
 30
0.0
 11
4362.110349667389
 21
1830.202887173421
 31
0.0
  0
LINE
  5
DDA
330
18
100
AcDbEntity
  8
HASEN
100
AcDbLine
 10
4304.638121519889
 20
1862.702886689121
 30
0.0
 11
4362.110349667389
 21
1862.702886689121
 31
0.0
  0
LINE
  5
DDB
330
18
100
AcDbEntity
  8
HASEN
100
AcDbLine
 10
4362.110349667389
 20
1862.702886689121
 30
0.0
 11
4375.110227403391
 21
1871.452886558721
 31
0.0
  0
LINE
  5
DDC
330
18
100
AcDbEntity
  8
HASEN
100
AcDbLine
 10
4362.110349667389
 20
1830.202887173421
 30
0.0
 11
4375.110227403391
 21
1821.452887303821
 31
0.0
  0
LINE
  5
DDD
330
18
100
AcDbEntity
  8
HASEN
100
AcDbLine
 10
4304.638121519889
 20
1830.202887173421
 30
0.0
 11
4304.638121519889
 21
1862.702886689121
 31
0.0
  0
LINE
  5
DDE
330
18
100
AcDbEntity
  8
HASEN
100
AcDbLine
 10
4375.110227403391
 20
1669.565377360121
 30
0.0
 11
4434.97411811289
 21
1669.565377360121
 31
0.0
  0
LINE
  5
DDF
330
18
100
AcDbEntity
  8
HASEN
100
AcDbLine
 10
4375.110227403391
 20
1619.565378105121
 30
0.0
 11
4375.110227403391
 21
1669.565377360121
 31
0.0
  0
LINE
  5
DE0
330
18
100
AcDbEntity
  8
HASEN
100
AcDbLine
 10
4375.110227403391
 20
1619.565378105121
 30
0.0
 11
4387.922116860889
 21
1619.565378105121
 31
0.0
  0
LINE
  5
DE1
330
18
100
AcDbEntity
  8
HASEN
100
AcDbLine
 10
4362.110349667389
 20
1660.815377490421
 30
0.0
 11
4362.110349667389
 21
1628.315377974721
 31
0.0
  0
LINE
  5
DE2
330
18
100
AcDbEntity
  8
HASEN
100
AcDbLine
 10
4304.638121519889
 20
1660.815377490421
 30
0.0
 11
4362.110349667389
 21
1660.815377490421
 31
0.0
  0
LINE
  5
DE3
330
18
100
AcDbEntity
  8
HASEN
100
AcDbLine
 10
4304.638121519889
 20
1628.315377974721
 30
0.0
 11
4362.110349667389
 21
1628.315377974721
 31
0.0
  0
LINE
  5
DE4
330
18
100
AcDbEntity
  8
HASEN
100
AcDbLine
 10
4362.110349667389
 20
1628.315377974721
 30
0.0
 11
4375.110227403391
 21
1619.565378105121
 31
0.0
  0
LINE
  5
DE5
330
18
100
AcDbEntity
  8
HASEN
100
AcDbLine
 10
4362.110349667389
 20
1660.815377490421
 30
0.0
 11
4375.110227403391
 21
1669.565377360121
 31
0.0
  0
LINE
  5
DE6
330
18
100
AcDbEntity
  8
HASEN
100
AcDbLine
 10
4304.638121519889
 20
1660.815377490421
 30
0.0
 11
4304.638121519889
 21
1628.315377974721
 31
0.0
  0
CIRCLE
  5
DE7
330
18
100
AcDbEntity
  8
SJC
100
AcDbCircle
 10
5654.802802323232
 20
1745.509208625971
 30
0.0
 40
149.9999977648
  0
LINE
  5
DE8
330
18
100
AcDbEntity
  8
SJC
100
AcDbLine
 10
5432.051951150233
 20
1457.124203157571
 30
0.0
 11
5432.051951150233
 21
2044.010028152571
 31
0.0
  0
LINE
  5
DE9
330
18
100
AcDbEntity
  8
SJC
100
AcDbLine
 10
5877.551822441533
 20
1457.124203157571
 30
0.0
 11
5877.551822441533
 21
2044.010028152571
 31
0.0
  0
ARC
  5
DEA
330
18
100
AcDbEntity
  8
SJC
100
AcDbCircle
 10
5654.802191971634
 20
1775.00902508087
 30
0.0
 40
19.999999702
100
AcDbArc
 50
0.0
 51
180.0
  0
LINE
  5
DEB
330
18
100
AcDbEntity
  8
SJC
100
AcDbLine
 10
5634.803412972833
 20
1775.00902508087
 30
0.0
 11
5634.803412972833
 21
1655.010400159971
 31
0.0
  0
LINE
  5
DEC
330
18
100
AcDbEntity
  8
SJC
100
AcDbLine
 10
5674.802802025233
 20
1775.00902508087
 30
0.0
 11
5674.802802025233
 21
1655.008721693271
 31
0.0
  0
CIRCLE
  5
DED
330
18
100
AcDbEntity
  8
SJC2
100
AcDbCircle
 10
5764.803411035632
 20
1745.509208625971
 30
0.0
 40
12.4999998137
  0
LINE
  5
DEE
330
18
100
AcDbEntity
  8
SJC
100
AcDbLine
 10
5634.803412972833
 20
1758.009208439671
 30
0.0
 11
5674.802802025233
 21
1758.009208439671
 31
0.0
  0
LINE
  5
DEF
330
18
100
AcDbEntity
  8
SJC
100
AcDbLine
 10
5634.803412972833
 20
1733.009208812171
 30
0.0
 11
5674.802802025233
 21
1733.009208812171
 31
0.0
  0
ARC
  5
DF0
330
18
100
AcDbEntity
  8
SJC
100
AcDbCircle
 10
5543.427071560933
 20
1632.799629275771
 30
0.0
 40
208.0054633617
100
AcDbArc
 50
237.6260237668001
 51
302.3739762332
  0
ARC
  5
DF1
330
18
100
AcDbEntity
  8
SJC
100
AcDbCircle
 10
5766.177312382333
 20
1632.799629275771
 30
0.0
 40
208.0054633617
100
AcDbArc
 50
237.6260237668001
 51
302.3739762332
  0
ARC
  5
DF2
330
18
100
AcDbEntity
  8
SJC
100
AcDbCircle
 10
5766.177312382333
 20
1281.44877703937
 30
0.0
 40
208.0054633617
100
AcDbArc
 50
57.62602376680001
 51
122.3739762332
  0
ARC
  5
DF3
330
18
100
AcDbEntity
  8
SJC
100
AcDbCircle
 10
5543.427681912533
 20
1868.334602034371
 30
0.0
 40
208.0054633617
100
AcDbArc
 50
57.62602376680001
 51
122.3739762332
  0
ARC
  5
DF4
330
18
100
AcDbEntity
  8
SJC
100
AcDbCircle
 10
5543.427681912533
 20
2219.685454270671
 30
0.0
 40
208.0054633617
100
AcDbArc
 50
237.6260237668001
 51
302.3739762332
  0
ARC
  5
DF5
330
18
100
AcDbEntity
  8
SJC
100
AcDbCircle
 10
5766.177617558133
 20
1868.334408558671
 30
0.0
 40
208.0054633617
100
AcDbArc
 50
57.62612329850001
 51
122.3738767015
  0
LINE
  5
DF6
330
18
100
AcDbEntity
  8
HASEN
100
AcDbLine
 10
5589.803413643334
 20
1758.009208439671
 30
0.0
 11
5634.803412972833
 21
1758.009208439671
 31
0.0
  0
LINE
  5
DF7
330
18
100
AcDbEntity
  8
HASEN
100
AcDbLine
 10
5589.803413643334
 20
1758.009208439671
 30
0.0
 11
5589.803413643334
 21
1733.009208812171
 31
0.0
  0
LINE
  5
DF8
330
18
100
AcDbEntity
  8
HASEN
100
AcDbLine
 10
5589.803413643334
 20
1733.009208812171
 30
0.0
 11
5634.803412972833
 21
1733.009208812171
 31
0.0
  0
LINE
  5
DF9
330
18
100
AcDbEntity
  8
HASEN
100
AcDbLine
 10
5674.802802025233
 20
1733.009208812171
 30
0.0
 11
5764.803411035632
 21
1733.009208812171
 31
0.0
  0
LINE
  5
DFA
330
18
100
AcDbEntity
  8
HASEN
100
AcDbLine
 10
5674.802802025233
 20
1758.009208439671
 30
0.0
 11
5764.803411035632
 21
1758.009208439671
 31
0.0
  0
LINE
  5
DFB
330
18
100
AcDbEntity
  8
CENTER
100
AcDbLine
 10
5654.802191971634
 20
2101.45300014428
 30
0.0
 11
5654.802191971634
 21
1392.97721114088
 31
0.0
  0
TEXT
  5
E14
330
18
100
AcDbEntity
  8
MOJI
100
AcDbText
 10
4651.018800426398
 20
1978.752060587254
 30
0.0
 40
60.0
  1
M5×15
 41
0.8
  7
EXT08
100
AcDbText
  0
TEXT
  5
E15
330
18
100
AcDbEntity
  8
MOJI
100
AcDbText
 10
4574.771734265961
 20
1987.473694018428
 30
0.0
 40
60.0
  1
6
 41
0.8
  7
EXT08
100
AcDbText
  0
LINE
  5
E18
330
18
100
AcDbEntity
  8
CENTER
100
AcDbLine
 10
4122.359987028991
 20
2775.631645058121
 30
0.0
 11
4122.359987028991
 21
1403.691205296521
 31
0.0
  0
LINE
  5
E27
330
18
100
AcDbEntity
  8
CENTER
100
AcDbLine
 10
5654.802191971634
 20
1901.009237571471
 30
0.0
 11
5654.802191971634
 21
1801.009237571471
 31
0.0
  0
LWPOLYLINE
  5
E28
330
18
100
AcDbEntity
  8
SJC2
100
AcDbPolyline
 90
        6
 70
     1
 43
0.0
 10
5669.802191971633
 20
1859.669491609315
 10
5654.802191971634
 20
1868.32974564716
 10
5639.802191971634
 20
1859.669491609315
 10
5639.802191971634
 20
1842.348983533627
 10
5654.802191971634
 20
1833.688729495782
 10
5669.802191971633
 20
1842.348983533627
  0
CIRCLE
  5
E30
330
18
100
AcDbEntity
  8
SJC2
100
AcDbCircle
 10
5654.802191971634
 20
1851.009237571471
 30
0.0
 40
25.0
  0
LINE
  5
E31
330
18
100
AcDbEntity
  8
CENTER
100
AcDbLine
 10
5654.802191971634
 20
1895.509206389529
 30
0.0
 11
5654.802191971634
 21
1801.009237571471
 31
0.0
  0
LINE
  5
E32
330
18
100
AcDbEntity
  8
CENTER
100
AcDbLine
 10
5654.802191971634
 20
1690.009179680471
 30
0.0
 11
5654.802191971634
 21
1590.009179680471
 31
0.0
  0
CIRCLE
  5
E33
330
18
100
AcDbEntity
  8
SJC2
100
AcDbCircle
 10
5654.802191971634
 20
1639.430882643209
 30
0.0
 40
25.0
  0
LWPOLYLINE
  5
E34
330
18
100
AcDbEntity
  8
SJC2
100
AcDbPolyline
 90
        6
 70
     1
 43
0.0
 10
5669.802191971633
 20
1648.091136681053
 10
5654.802191971634
 20
1656.751390718898
 10
5639.802191971634
 20
1648.091136681053
 10
5639.802191971634
 20
1630.770628605364
 10
5654.802191971634
 20
1622.11037456752
 10
5669.802191971633
 20
1630.770628605364
  0
SOLID
  5
E3E
330
18
100
AcDbEntity
  8
MOJI
100
AcDbTrace
 10
5812.555740140786
 20
1726.043475765336
 30
0.0
 11
5817.142892662748
 21
1738.562893064796
 31
0.0
 12
5777.291064503384
 22
1746.064641980953
 32
0.0
 13
5777.291064503384
 23
1746.064641980953
 33
0.0
  0
LINE
  5
E3F
330
18
100
AcDbEntity
  8
MOJI
100
AcDbLine
 10
5814.849316401767
 20
1732.303184415066
 30
0.0
 11
6030.198040569238
 21
1653.398757832147
 31
0.0
  0
TEXT
  5
E40
330
18
100
AcDbEntity
  8
MOJI
100
AcDbText
 10
6054.143940160048
 20
1610.058705716738
 30
0.0
 40
60.0
  1
5
 41
0.8
  7
EXT08
100
AcDbText
  0
TEXT
  5
E56
330
18
100
AcDbEntity
  8
INFORMATION
100
AcDbText
 10
7502.284055591248
 20
152.4502830891324
 30
0.0
 40
0.8
  1
PLOTTER=CALCOMP_TECHJET720
 41
0.8
  7
EXT08
100
AcDbText
  0
TEXT
  5
E57
330
18
100
AcDbEntity
  8
INFORMATION
100
AcDbText
 10
7502.284055591248
 20
153.4502830891324
 30
0.0
 40
0.8
  1
PAPER=A3
 41
0.8
  7
EXT08
100
AcDbText
  0
SOLID
  5
E82
330
18
100
AcDbEntity
  8
MOJI
  6
Continuous
100
AcDbTrace
 10
4411.713421339442
 20
1856.850976638773
 30
0.0
 11
4404.074034382055
 21
1867.778810124559
 31
0.0
 12
4375.110227403391
 22
1839.396732509502
 32
0.0
 13
4375.110227403391
 23
1839.396732509502
 33
0.0
  0
LINE
  5
E83
330
18
100
AcDbEntity
  8
MOJI
  6
Continuous
100
AcDbLine
 10
4407.893727860748
 20
1862.314893381666
 30
0.0
 11
4542.797464517753
 21
1956.622868302854
 31
0.0
  0
LINE
  5
E84
330
18
100
AcDbEntity
  8
MOJI
  6
Continuous
100
AcDbLine
 10
4542.797464517753
 20
1956.622868302854
 30
0.0
 11
4897.415290106764
 21
1956.622868302854
 31
0.0
  0
CIRCLE
  5
E85
330
18
100
AcDbEntity
  8
MOJI
100
AcDbCircle
 10
4596.682302524674
 20
2012.19672830514
 30
0.0
 40
48.0
  0
CIRCLE
  5
E86
330
18
100
AcDbEntity
  8
MOJI
100
AcDbCircle
 10
6075.42103820213
 20
1637.308994468587
 30
0.0
 40
48.0
  0
DIMENSION
  5
F99
330
18
100
AcDbEntity
  8
SUNPOU
100
AcDbDimension
  2
*D16
 10
2338.655107732633
 20
2569.57437140879
 30
0.0
 11
2284.655107732632
 21
2435.574602570993
 31
0.0
 70
    32
 71
     5
 42
133.9997688377968
  3
SJC
100
AcDbAlignedDimension
 13
1500.270478578724
 23
2301.574833733196
 33
0.0
 14
1342.488345323925
 24
2569.57437140879
 34
0.0
 50
90.0
100
AcDbRotatedDimension
1001
ACAD
1000
DSTYLE
1002
{
1070
    40
1040
20.0
1070
    41
1040
2.0
1070
    42
1040
1.0
1070
    43
1040
6.0
1070
    44
1040
1.0
1070
    73
1070
     0
1070
    74
1070
     0
1070
    77
1070
     1
1070
    78
1070
     8
1070
   140
1040
3.0
1070
   144
1040
0.5
1070
   147
1040
1.199999999999999
1070
   172
1070
     1
1070
   176
1070
   256
1070
   177
1070
   256
1070
   178
1070
   256
1070
   271
1070
     1
1070
   275
1070
     1
1070
   279
1070
     2
1070
   340
1005
7A8
1002
}
  0
LINE
  5
FA5
330
18
100
AcDbEntity
  8
SJC
100
AcDbLine
 10
3136.879203664398
 20
2300.974482150195
 30
0.0
 11
3324.879078792697
 21
2300.974482150195
 31
0.0
  0
ARC
  5
FA6
330
18
100
AcDbEntity
  8
SJC
100
AcDbCircle
 10
3230.879163060297
 20
2264.052817026195
 30
0.0
 40
119.7021466538
100
AcDbArc
 50
112.0820072678
 51
138.7523097363
  0
LINE
  5
FA7
330
18
100
AcDbEntity
  8
SJC
100
AcDbLine
 10
3143.879020454597
 20
2326.974542797894
 30
0.0
 11
3317.879262002497
 21
2326.974542797894
 31
0.0
  0
LINE
  5
FA8
330
18
100
AcDbEntity
  8
SJC
100
AcDbLine
 10
3143.879020454597
 20
2330.974176527394
 30
0.0
 11
3317.879262002497
 21
2330.974176527394
 31
0.0
  0
LINE
  5
FA9
330
18
100
AcDbEntity
  8
SJC
100
AcDbLine
 10
3136.879203664398
 20
2324.974420757394
 30
0.0
 11
3324.879078792697
 21
2324.974420757394
 31
0.0
  0
LINE
  5
FAA
330
18
100
AcDbEntity
  8
SJC
100
AcDbLine
 10
3140.879142569696
 20
2332.974298567894
 30
0.0
 11
3320.879139887396
 21
2332.974298567894
 31
0.0
  0
LINE
  5
FAB
330
18
100
AcDbEntity
  8
SJC
100
AcDbLine
 10
3140.879142569696
 20
2342.974298418894
 30
0.0
 11
3320.879139887396
 21
2342.974298418894
 31
0.0
  0
ARC
  5
FAC
330
18
100
AcDbEntity
  8
SJC
100
AcDbCircle
 10
3230.879169126296
 20
2479.574372749894
 30
0.0
 40
89.9999986589
100
AcDbArc
 50
296.4200995146
 51
243.6056736806
  0
LINE
  5
FAD
330
18
100
AcDbEntity
  8
SJC
100
AcDbLine
 10
3143.879020454597
 20
2330.974176527394
 30
0.0
 11
3143.879020454597
 21
2326.974542797894
 31
0.0
  0
LINE
  5
FAE
330
18
100
AcDbEntity
  8
SJC
100
AcDbLine
 10
3143.879020454597
 20
2326.974542797894
 30
0.0
 11
3136.879203664398
 21
2324.974420757394
 31
0.0
  0
LINE
  5
FAF
330
18
100
AcDbEntity
  8
SJC
100
AcDbLine
 10
3140.879142569696
 20
2332.974298567894
 30
0.0
 11
3143.879020454597
 21
2330.974176527394
 31
0.0
  0
LINE
  5
FB0
330
18
100
AcDbEntity
  8
SJC
100
AcDbLine
 10
3136.879203664398
 20
2324.974420757394
 30
0.0
 11
3136.879203664398
 21
2300.974482150195
 31
0.0
  0
LINE
  5
FB1
330
18
100
AcDbEntity
  8
SJC
100
AcDbLine
 10
3140.879142569696
 20
2342.974298418894
 30
0.0
 11
3140.879142569696
 21
2332.974298567894
 31
0.0
  0
LINE
  5
FB2
330
18
100
AcDbEntity
  8
SJC
100
AcDbLine
 10
3270.879140632497
 20
2398.974358619595
 30
0.0
 11
3275.879140557997
 21
2374.974420012395
 31
0.0
  0
LINE
  5
FB3
330
18
100
AcDbEntity
  8
SJC
100
AcDbLine
 10
3190.879141824597
 20
2398.974358619595
 30
0.0
 11
3185.879141899097
 21
2374.974420012395
 31
0.0
  0
LINE
  5
FB4
330
18
100
AcDbEntity
  8
SJC
100
AcDbLine
 10
3185.879141899097
 20
2374.974420012395
 30
0.0
 11
3275.879140557997
 21
2374.974420012395
 31
0.0
  0
LINE
  5
FB5
330
18
100
AcDbEntity
  8
SJC
100
AcDbLine
 10
3317.879262002497
 20
2330.974176527394
 30
0.0
 11
3317.879262002497
 21
2326.974542797894
 31
0.0
  0
LINE
  5
FB6
330
18
100
AcDbEntity
  8
SJC
100
AcDbLine
 10
3324.879078792697
 20
2324.974420757394
 30
0.0
 11
3324.879078792697
 21
2300.974482150195
 31
0.0
  0
LINE
  5
FB7
330
18
100
AcDbEntity
  8
SJC
100
AcDbLine
 10
3320.879139887396
 20
2342.974298418894
 30
0.0
 11
3320.879139887396
 21
2332.974298567894
 31
0.0
  0
LINE
  5
FB8
330
18
100
AcDbEntity
  8
SJC
100
AcDbLine
 10
3320.879139887396
 20
2332.974298567894
 30
0.0
 11
3317.879262002497
 21
2330.974176527394
 31
0.0
  0
LINE
  5
FB9
330
18
100
AcDbEntity
  8
SJC
100
AcDbLine
 10
3317.879262002497
 20
2326.974542797894
 30
0.0
 11
3324.879078792697
 21
2324.974420757394
 31
0.0
  0
ARC
  5
FBA
330
18
100
AcDbEntity
  8
SJC
100
AcDbCircle
 10
3230.879119396796
 20
2264.052817026195
 30
0.0
 40
119.7021466538
100
AcDbArc
 50
41.2476902637
 51
67.9179927322
  0
LINE
  5
FBB
330
18
100
AcDbEntity
  8
SJC
100
AcDbLine
 10
3190.879141824597
 20
2398.974358619595
 30
0.0
 11
3270.879140632497
 21
2398.974358619595
 31
0.0
  0
ARC
  5
FBC
330
18
100
AcDbEntity
  8
SJC
100
AcDbCircle
 10
1322.488373221724
 20
2479.574372749894
 30
0.0
 40
89.9999986589
100
AcDbArc
 50
296.4200995146
 51
243.6056736806
  0
LINE
  5
FBD
330
18
100
AcDbEntity
  8
SJC
100
AcDbLine
 10
1282.488345920024
 20
2398.974358619595
 30
0.0
 11
1362.488344727924
 21
2398.974358619595
 31
0.0
  0
LINE
  5
FBE
330
18
100
AcDbEntity
  8
SJC
100
AcDbLine
 10
1277.488345994525
 20
2374.974420012395
 30
0.0
 11
1367.488344653424
 21
2374.974420012395
 31
0.0
  0
LINE
  5
FBF
330
18
100
AcDbEntity
  8
SJC
100
AcDbLine
 10
1232.488346665124
 20
2342.974298418894
 30
0.0
 11
1412.488343982824
 21
2342.974298418894
 31
0.0
  0
LINE
  5
FC0
330
18
100
AcDbEntity
  8
SJC
100
AcDbLine
 10
1232.488346665124
 20
2332.974298567894
 30
0.0
 11
1412.488343982824
 21
2332.974298567894
 31
0.0
  0
LINE
  5
FC1
330
18
100
AcDbEntity
  8
SJC
100
AcDbLine
 10
1228.488407759825
 20
2324.974420757394
 30
0.0
 11
1416.488282888125
 21
2324.974420757394
 31
0.0
  0
LINE
  5
FC2
330
18
100
AcDbEntity
  8
SJC
100
AcDbLine
 10
1235.488224550025
 20
2330.974176527394
 30
0.0
 11
1409.488466097924
 21
2330.974176527394
 31
0.0
  0
LINE
  5
FC3
330
18
100
AcDbEntity
  8
SJC
100
AcDbLine
 10
1235.488224550025
 20
2326.974542797894
 30
0.0
 11
1409.488466097924
 21
2326.974542797894
 31
0.0
  0
LINE
  5
FC4
330
18
100
AcDbEntity
  8
SJC
100
AcDbLine
 10
1228.488407759825
 20
2300.974482150195
 30
0.0
 11
1416.488282888125
 21
2300.974482150195
 31
0.0
  0
LINE
  5
FC5
330
18
100
AcDbEntity
  8
SJC
100
AcDbLine
 10
1282.488345920024
 20
2398.974358619595
 30
0.0
 11
1277.488345994525
 21
2374.974420012395
 31
0.0
  0
LINE
  5
FC6
330
18
100
AcDbEntity
  8
SJC
100
AcDbLine
 10
1232.488346665124
 20
2342.974298418894
 30
0.0
 11
1232.488346665124
 21
2332.974298567894
 31
0.0
  0
LINE
  5
FC7
330
18
100
AcDbEntity
  8
SJC
100
AcDbLine
 10
1228.488407759825
 20
2324.974420757394
 30
0.0
 11
1228.488407759825
 21
2300.974482150195
 31
0.0
  0
LINE
  5
FC8
330
18
100
AcDbEntity
  8
SJC
100
AcDbLine
 10
1232.488346665124
 20
2332.974298567894
 30
0.0
 11
1235.488224550025
 21
2330.974176527394
 31
0.0
  0
LINE
  5
FC9
330
18
100
AcDbEntity
  8
SJC
100
AcDbLine
 10
1235.488224550025
 20
2326.974542797894
 30
0.0
 11
1228.488407759825
 21
2324.974420757394
 31
0.0
  0
LINE
  5
FCA
330
18
100
AcDbEntity
  8
SJC
100
AcDbLine
 10
1235.488224550025
 20
2330.974176527394
 30
0.0
 11
1235.488224550025
 21
2326.974542797894
 31
0.0
  0
ARC
  5
FCB
330
18
100
AcDbEntity
  8
SJC
100
AcDbCircle
 10
1322.488367155725
 20
2264.052817026195
 30
0.0
 40
119.7021466538
100
AcDbArc
 50
112.0820072678
 51
138.7523097363
  0
LINE
  5
FCC
330
18
100
AcDbEntity
  8
SJC
100
AcDbLine
 10
1362.488344727924
 20
2398.974358619595
 30
0.0
 11
1367.488344653424
 21
2374.974420012395
 31
0.0
  0
ARC
  5
FCD
330
18
100
AcDbEntity
  8
SJC
100
AcDbCircle
 10
1322.488323492224
 20
2264.052817026195
 30
0.0
 40
119.7021466538
100
AcDbArc
 50
41.2476902637
 51
67.9179927322
  0
LINE
  5
FCE
330
18
100
AcDbEntity
  8
SJC
100
AcDbLine
 10
1409.488466097924
 20
2326.974542797894
 30
0.0
 11
1416.488282888125
 21
2324.974420757394
 31
0.0
  0
LINE
  5
FCF
330
18
100
AcDbEntity
  8
SJC
100
AcDbLine
 10
1412.488343982824
 20
2332.974298567894
 30
0.0
 11
1409.488466097924
 21
2330.974176527394
 31
0.0
  0
LINE
  5
FD0
330
18
100
AcDbEntity
  8
SJC
100
AcDbLine
 10
1412.488343982824
 20
2342.974298418894
 30
0.0
 11
1412.488343982824
 21
2332.974298567894
 31
0.0
  0
LINE
  5
FD1
330
18
100
AcDbEntity
  8
SJC
100
AcDbLine
 10
1416.488282888125
 20
2324.974420757394
 30
0.0
 11
1416.488282888125
 21
2300.974482150195
 31
0.0
  0
LINE
  5
FD2
330
18
100
AcDbEntity
  8
SJC
100
AcDbLine
 10
1409.488466097924
 20
2330.974176527394
 30
0.0
 11
1409.488466097924
 21
2326.974542797894
 31
0.0
  0
DIMENSION
  5
1000
330
18
100
AcDbEntity
  8
SUNPOU
100
AcDbDimension
  2
*D17
 10
6464.788111675
 20
4610.391655761593
 30
0.0
 11
6404.287355419707
 21
4504.993522166825
 31
0.0
 70
   160
 71
     5
 42
194.0002257075984
  3
SJC
100
AcDbAlignedDimension
 13
6208.520198014459
 23
4416.391430053994
 33
0.0
 14
6121.8572085819
 24
4610.391655761594
 34
0.0
 50
90.0
100
AcDbRotatedDimension
1001
ACAD
1000
DSTYLE
1002
{
1070
    40
1040
20.0
1070
    41
1040
2.0
1070
    42
1040
1.0
1070
    43
1040
6.0
1070
    44
1040
1.0
1070
    73
1070
     0
1070
    74
1070
     0
1070
    77
1070
     1
1070
    78
1070
     8
1070
   140
1040
3.0
1070
   147
1040
1.199999999999999
1070
   172
1070
     1
1070
   176
1070
   256
1070
   177
1070
   256
1070
   178
1070
   256
1070
   271
1070
     1
1070
   275
1070
     1
1070
   279
1070
     2
1070
   340
1005
7A8
1002
}
  0
ARC
  5
1088
330
18
100
AcDbEntity
  8
SJC
100
AcDbCircle
 10
5021.857224973199
 20
4565.841657188394
 30
0.0
 40
44.54999857319999
100
AcDbArc
 50
296.6752975764
 51
243.3247024236
  0
LINE
  5
1089
330
18
100
AcDbEntity
  8
SJC
100
AcDbLine
 10
4977.3070547386
 20
4473.262951685294
 30
0.0
 11
5066.4073952078
 21
4473.262951685294
 31
0.0
  0
LINE
  5
108A
330
18
100
AcDbEntity
  8
SJC
100
AcDbLine
 10
4976.857225643701
 20
4496.118786305594
 30
0.0
 11
5066.857224302601
 21
4496.118786305594
 31
0.0
  0
LINE
  5
108B
330
18
100
AcDbEntity
  8
SJC
100
AcDbLine
 10
4976.857225643701
 20
4484.690563819694
 30
0.0
 11
5066.857224302601
 21
4484.690563819694
 31
0.0
  0
LINE
  5
108C
330
18
100
AcDbEntity
  8
SJC
100
AcDbLine
 10
5041.857224675202
 20
4513.261730386093
 30
0.0
 11
5066.4073952078
 21
4496.118786305594
 31
0.0
  0
LINE
  5
108D
330
18
100
AcDbEntity
  8
SJC
100
AcDbLine
 10
5041.857224675202
 20
4524.691783926694
 30
0.0
 11
5041.857224675202
 21
4513.261730386093
 31
0.0
  0
LINE
  5
108E
330
18
100
AcDbEntity
  8
SJC
100
AcDbLine
 10
5001.857225271201
 20
4524.691783926694
 30
0.0
 11
5001.857225271201
 21
4513.261730386093
 31
0.0
  0
LINE
  5
108F
330
18
100
AcDbEntity
  8
SJC
100
AcDbLine
 10
5001.857225271201
 20
4513.261730386093
 30
0.0
 11
5041.857224675202
 21
4513.261730386093
 31
0.0
  0
LINE
  5
1090
330
18
100
AcDbEntity
  8
SJC
100
AcDbLine
 10
5001.857225271201
 20
4524.691783926694
 30
0.0
 11
5041.857224675202
 21
4524.691783926694
 31
0.0
  0
LINE
  5
1091
330
18
100
AcDbEntity
  8
SJC
100
AcDbLine
 10
4976.857225643701
 20
4496.118786305594
 30
0.0
 11
4976.857225643701
 21
4484.690563819694
 31
0.0
  0
LINE
  5
1092
330
18
100
AcDbEntity
  8
SJC
100
AcDbLine
 10
5001.857225271201
 20
4513.261730386093
 30
0.0
 11
4977.3070547386
 21
4496.118786305594
 31
0.0
  0
LINE
  5
1093
330
18
100
AcDbEntity
  8
SJC
100
AcDbLine
 10
5066.857224302601
 20
4496.118786305594
 30
0.0
 11
5066.857224302601
 21
4484.690563819694
 31
0.0
  0
LINE
  5
1094
330
18
100
AcDbEntity
  8
SJC
100
AcDbLine
 10
6101.857208879901
 20
4524.691783926694
 30
0.0
 11
6141.857208283902
 21
4524.691783926694
 31
0.0
  0
LINE
  5
1095
330
18
100
AcDbEntity
  8
SJC
100
AcDbLine
 10
6101.857208879901
 20
4513.261730386093
 30
0.0
 11
6141.857208283902
 21
4513.261730386093
 31
0.0
  0
LINE
  5
1096
330
18
100
AcDbEntity
  8
SJC
100
AcDbLine
 10
6076.857209252401
 20
4484.690563819694
 30
0.0
 11
6166.8572079113
 21
4484.690563819694
 31
0.0
  0
LINE
  5
1097
330
18
100
AcDbEntity
  8
SJC
100
AcDbLine
 10
6076.857209252401
 20
4496.118786305594
 30
0.0
 11
6166.8572079113
 21
4496.118786305594
 31
0.0
  0
LINE
  5
1098
330
18
100
AcDbEntity
  8
SJC
100
AcDbLine
 10
6077.3070383473
 20
4473.262951685294
 30
0.0
 11
6166.407378816501
 21
4473.262951685294
 31
0.0
  0
ARC
  5
1099
330
18
100
AcDbEntity
  8
SJC
100
AcDbCircle
 10
6121.8572085819
 20
4565.841657188394
 30
0.0
 40
44.54999857319999
100
AcDbArc
 50
296.6752975764
 51
243.3247024236
  0
LINE
  5
109A
330
18
100
AcDbEntity
  8
SJC
100
AcDbLine
 10
6101.857208879901
 20
4513.261730386093
 30
0.0
 11
6077.3070383473
 21
4496.118786305594
 31
0.0
  0
LINE
  5
109B
330
18
100
AcDbEntity
  8
SJC
100
AcDbLine
 10
6076.857209252401
 20
4496.118786305594
 30
0.0
 11
6076.857209252401
 21
4484.690563819694
 31
0.0
  0
LINE
  5
109C
330
18
100
AcDbEntity
  8
SJC
100
AcDbLine
 10
6101.857208879901
 20
4524.691783926694
 30
0.0
 11
6101.857208879901
 21
4513.261730386093
 31
0.0
  0
LINE
  5
109D
330
18
100
AcDbEntity
  8
SJC
100
AcDbLine
 10
6166.8572079113
 20
4496.118786305594
 30
0.0
 11
6166.8572079113
 21
4484.690563819694
 31
0.0
  0
LINE
  5
109E
330
18
100
AcDbEntity
  8
SJC
100
AcDbLine
 10
6141.857208283902
 20
4524.691783926694
 30
0.0
 11
6141.857208283902
 21
4513.261730386093
 31
0.0
  0
LINE
  5
109F
330
18
100
AcDbEntity
  8
SJC
100
AcDbLine
 10
6141.857208283902
 20
4513.261730386093
 30
0.0
 11
6166.407378816501
 21
4496.118786305594
 31
0.0
  0
LINE
  5
10A0
330
18
100
AcDbEntity
  8
SJC
100
AcDbLine
 10
3001.857225271201
 20
4524.691783926694
 30
0.0
 11
3041.857224675202
 21
4524.691783926694
 31
0.0
  0
LINE
  5
10A1
330
18
100
AcDbEntity
  8
SJC
100
AcDbLine
 10
3001.857225271201
 20
4513.261730386093
 30
0.0
 11
3041.857224675202
 21
4513.261730386093
 31
0.0
  0
LINE
  5
10A2
330
18
100
AcDbEntity
  8
SJC
100
AcDbLine
 10
2976.857225643701
 20
4484.690563819694
 30
0.0
 11
3066.8572243026
 21
4484.690563819694
 31
0.0
  0
LINE
  5
10A3
330
18
100
AcDbEntity
  8
SJC
100
AcDbLine
 10
2976.857225643701
 20
4496.118786305594
 30
0.0
 11
3066.8572243026
 21
4496.118786305594
 31
0.0
  0
LINE
  5
10A4
330
18
100
AcDbEntity
  8
SJC
100
AcDbLine
 10
2977.307054738601
 20
4473.262951685294
 30
0.0
 11
3066.407395207801
 21
4473.262951685294
 31
0.0
  0
ARC
  5
10A5
330
18
100
AcDbEntity
  8
SJC
100
AcDbCircle
 10
3021.8572249732
 20
4565.841657188394
 30
0.0
 40
44.54999857319999
100
AcDbArc
 50
296.6752975764
 51
243.3247024236
  0
LINE
  5
10A6
330
18
100
AcDbEntity
  8
SJC
100
AcDbLine
 10
3001.857225271201
 20
4513.261730386093
 30
0.0
 11
2977.307054738601
 21
4496.118786305594
 31
0.0
  0
LINE
  5
10A7
330
18
100
AcDbEntity
  8
SJC
100
AcDbLine
 10
2976.857225643701
 20
4496.118786305594
 30
0.0
 11
2976.857225643701
 21
4484.690563819694
 31
0.0
  0
LINE
  5
10A8
330
18
100
AcDbEntity
  8
SJC
100
AcDbLine
 10
3001.857225271201
 20
4524.691783926694
 30
0.0
 11
3001.857225271201
 21
4513.261730386093
 31
0.0
  0
LINE
  5
10A9
330
18
100
AcDbEntity
  8
SJC
100
AcDbLine
 10
3066.8572243026
 20
4496.118786305594
 30
0.0
 11
3066.8572243026
 21
4484.690563819694
 31
0.0
  0
LINE
  5
10AA
330
18
100
AcDbEntity
  8
SJC
100
AcDbLine
 10
3041.857224675202
 20
4524.691783926694
 30
0.0
 11
3041.857224675202
 21
4513.261730386093
 31
0.0
  0
LINE
  5
10AB
330
18
100
AcDbEntity
  8
SJC
100
AcDbLine
 10
3041.857224675202
 20
4513.261730386093
 30
0.0
 11
3066.407395207801
 21
4496.118786305594
 31
0.0
  0
LINE
  5
10AC
330
18
100
AcDbEntity
  8
SJC
100
AcDbLine
 10
3066.407395207801
 20
4446.392039958495
 30
0.0
 11
3066.407395207801
 21
4484.690563819694
 31
0.0
  0
LINE
  5
10AD
330
18
100
AcDbEntity
  8
SJC
100
AcDbLine
 10
2977.3070547386
 20
4446.392039958495
 30
0.0
 11
2977.3070547386
 21
4484.690563819694
 31
0.0
  0
LINE
  5
10AE
330
18
100
AcDbEntity
  8
SJC
100
AcDbLine
 10
1001.857225271201
 20
4524.691783926694
 30
0.0
 11
1041.857224675202
 21
4524.691783926694
 31
0.0
  0
LINE
  5
10AF
330
18
100
AcDbEntity
  8
SJC
100
AcDbLine
 10
1001.857225271201
 20
4513.261730386093
 30
0.0
 11
1041.857224675202
 21
4513.261730386093
 31
0.0
  0
LINE
  5
10B0
330
18
100
AcDbEntity
  8
SJC
100
AcDbLine
 10
976.8572256437009
 20
4484.690563819694
 30
0.0
 11
1066.8572243026
 21
4484.690563819694
 31
0.0
  0
LINE
  5
10B1
330
18
100
AcDbEntity
  8
SJC
100
AcDbLine
 10
976.8572256437009
 20
4496.118786305594
 30
0.0
 11
1066.8572243026
 21
4496.118786305594
 31
0.0
  0
LINE
  5
10B2
330
18
100
AcDbEntity
  8
SJC
100
AcDbLine
 10
977.3070547386005
 20
4473.262951685294
 30
0.0
 11
1066.4073952078
 21
4473.262951685294
 31
0.0
  0
ARC
  5
10B3
330
18
100
AcDbEntity
  8
SJC
100
AcDbCircle
 10
1021.857224973199
 20
4565.841657188394
 30
0.0
 40
44.54999857319999
100
AcDbArc
 50
296.6752975764
 51
243.3247024236
  0
LINE
  5
10B4
330
18
100
AcDbEntity
  8
SJC
100
AcDbLine
 10
1001.857225271201
 20
4513.261730386093
 30
0.0
 11
977.3070547386005
 21
4496.118786305594
 31
0.0
  0
LINE
  5
10B5
330
18
100
AcDbEntity
  8
SJC
100
AcDbLine
 10
976.8572256437009
 20
4496.118786305594
 30
0.0
 11
976.8572256437009
 21
4484.690563819694
 31
0.0
  0
LINE
  5
10B6
330
18
100
AcDbEntity
  8
SJC
100
AcDbLine
 10
1001.857225271201
 20
4524.691783926694
 30
0.0
 11
1001.857225271201
 21
4513.261730386093
 31
0.0
  0
LINE
  5
10B7
330
18
100
AcDbEntity
  8
SJC
100
AcDbLine
 10
1066.8572243026
 20
4496.118786305594
 30
0.0
 11
1066.8572243026
 21
4484.690563819694
 31
0.0
  0
LINE
  5
10B8
330
18
100
AcDbEntity
  8
SJC
100
AcDbLine
 10
1041.857224675202
 20
4524.691783926694
 30
0.0
 11
1041.857224675202
 21
4513.261730386093
 31
0.0
  0
LINE
  5
10B9
330
18
100
AcDbEntity
  8
SJC
100
AcDbLine
 10
1041.857224675202
 20
4513.261730386093
 30
0.0
 11
1066.4073952078
 21
4496.118786305594
 31
0.0
  0
LINE
  5
10BA
330
18
100
AcDbEntity
  8
SJC
100
AcDbLine
 10
1066.4073952078
 20
4446.392039958495
 30
0.0
 11
1066.4073952078
 21
4484.690563819694
 31
0.0
  0
LINE
  5
10BB
330
18
100
AcDbEntity
  8
SJC
100
AcDbLine
 10
977.3070547385996
 20
4446.392039958495
 30
0.0
 11
977.3070547385996
 21
4484.690563819694
 31
0.0
  0
SOLID
  5
10BC
330
18
100
AcDbEntity
  8
MOJI
  6
Continuous
100
AcDbTrace
 10
3059.697690047331
 20
4624.970609869568
 30
0.0
 11
3052.923951673292
 21
4636.455131897839
 31
0.0
 12
3021.8572547755
 22
4610.391655761583
 32
0.0
 13
3021.8572547755
 23
4610.391655761583
 33
0.0
  0
LINE
  5
10BD
330
18
100
AcDbEntity
  8
MOJI
  6
Continuous
100
AcDbLine
 10
3056.310820860311
 20
4630.712870883702
 30
0.0
 11
3152.037539309454
 21
4687.173883765535
 31
0.0
  0
INSERT
  5
10EF
330
18
100
AcDbEntity
  8
HATCH
100
AcDbBlockReference
  2
*X18
 10
0.0
 20
-99.97481992465873
 30
0.0
1001
ACAD
1000
HATCH
1002
{
1070
    19
1000
PLAST
1040
1000.0
1040
3.926990816987241
1000
ASC_BOUNDS
1070
     2
1070
     1
1070
     4
1005
419
1005
385
1005
20F
1005
609
1070
     1
1070
     4
1005
418
1005
20D
1005
20F
1005
36A
1000
ASC_SEEDPOINT
1011
6024.5821234646
1021
3272.956874090389
1031
0.0
1002
}
  0
SOLID
  5
117F
330
18
100
AcDbEntity
  8
MOJI
  6
Continuous
100
AcDbTrace
 10
3077.625286827912
 20
3631.574334977732
 30
0.0
 11
3089.657598149032
 21
3637.319007470523
 31
0.0
 12
3066.407425010102
 22
3670.543605187488
 32
0.0
 13
3066.407425010102
 23
3670.543605187488
 33
0.0
  0
LINE
  5
1180
330
18
100
AcDbEntity
  8
MOJI
  6
Continuous
100
AcDbLine
 10
3083.641442488472
 20
3634.446671224128
 30
0.0
 11
3204.598015564746
 21
3381.101133177156
 31
0.0
  0
TEXT
  5
123B
330
18
100
AcDbEntity
  8
INFORMATION
100
AcDbText
 10
1.0
 20
1.0
 30
0.0
 40
0.8
  1
VERSION=3.0
 41
0.8
  7
EXT08
100
AcDbText
  0
ENDSEC
  0
SECTION
  2
OBJECTS
  0
DICTIONARY
  5
C
330
0
100
AcDbDictionary
281
     1
  3
ACAD_COLOR
350
1193
  3
ACAD_GROUP
350
D
  3
ACAD_LAYOUT
350
1196
  3
ACAD_MATERIAL
350
1192
  3
ACAD_MLINESTYLE
350
E
  3
ACAD_PLOTSETTINGS
350
1197
  3
ACAD_PLOTSTYLENAME
350
1190
  3
ACAD_TABLESTYLE
350
1194
  3
AcDbVariableDictionary
350
12D8
  0
DICTIONARY
  5
1193
102
{ACAD_REACTORS
330
C
102
}
330
C
100
AcDbDictionary
281
     1
  0
DICTIONARY
  5
D
102
{ACAD_REACTORS
330
C
102
}
330
C
100
AcDbDictionary
281
     1
  0
DICTIONARY
  5
1196
102
{ACAD_REACTORS
330
C
102
}
330
C
100
AcDbDictionary
281
     1
  3
Model
350
1198
  3
レイアウト1
350
1199
  0
DICTIONARY
  5
1192
102
{ACAD_REACTORS
330
C
102
}
330
C
100
AcDbDictionary
281
     1
  0
DICTIONARY
  5
E
102
{ACAD_REACTORS
330
C
102
}
330
C
100
AcDbDictionary
281
     1
  3
STANDARD
350
1B
  0
DICTIONARY
  5
1197
102
{ACAD_REACTORS
330
C
102
}
330
C
100
AcDbDictionary
281
     1
  0
ACDBDICTIONARYWDFLT
  5
1190
102
{ACAD_REACTORS
330
C
102
}
330
C
100
AcDbDictionary
281
     1
  3
Normal
350
1191
100
AcDbDictionaryWithDefault
340
1191
  0
DICTIONARY
  5
1194
102
{ACAD_REACTORS
330
C
102
}
330
C
100
AcDbDictionary
281
     1
  3
Standard
350
1195
  0
DICTIONARY
  5
12D8
102
{ACAD_REACTORS
330
C
102
}
330
C
100
AcDbDictionary
281
     1
  3
CTABLESTYLE
350
12D9
  0
LAYOUT
  5
1198
102
{ACAD_REACTORS
330
1196
102
}
330
1196
100
AcDbPlotSettings
  1

  2
FX DocuColor 4055 PSS61 PS J7
  4

  6

 40
0.0
 41
0.0
 42
0.0
 43
0.0
 44
0.0
 45
0.0
 46
0.0
 47
0.0
 48
0.0
 49
0.0
140
0.0
141
0.0
142
1.0
143
1.0
 70
  1712
 72
     0
 73
     0
 74
     0
  7

 75
     0
147
1.0
 76
     0
 77
     2
 78
   300
148
0.0
149
0.0
100
AcDbLayout
  1
Model
 70
     1
 71
     0
 10
0.0
 20
0.0
 11
12.0
 21
9.0
 12
0.0
 22
0.0
 32
0.0
 14
0.0
 24
0.0
 34
0.0
 15
0.0
 25
0.0
 35
0.0
146
0.0
 13
0.0
 23
0.0
 33
0.0
 16
1.0
 26
0.0
 36
0.0
 17
0.0
 27
1.0
 37
0.0
 76
     0
330
18
  0
LAYOUT
  5
1199
102
{ACAD_REACTORS
330
1196
102
}
330
1196
100
AcDbPlotSettings
  1

  2
FX DocuColor 4055 PSS61 PS J7
  4

  6

 40
0.0
 41
0.0
 42
0.0
 43
0.0
 44
0.0
 45
0.0
 46
0.0
 47
0.0
 48
0.0
 49
0.0
140
0.0
141
0.0
142
1.0
143
1.0
 70
   688
 72
     0
 73
     0
 74
     5
  7

 75
    16
147
1.0
 76
     0
 77
     2
 78
   300
148
0.0
149
0.0
100
AcDbLayout
  1
レイアウト1
 70
     1
 71
     1
 10
0.0
 20
0.0
 11
12.0
 21
9.0
 12
0.0
 22
0.0
 32
0.0
 14
1.000000000000000E+20
 24
1.000000000000000E+20
 34
1.000000000000000E+20
 15
-1.000000000000000E+20
 25
-1.000000000000000E+20
 35
-1.000000000000000E+20
146
0.0
 13
0.0
 23
0.0
 33
0.0
 16
1.0
 26
0.0
 36
0.0
 17
0.0
 27
1.0
 37
0.0
 76
     0
330
15
  0
MLINESTYLE
  5
1B
102
{ACAD_REACTORS
330
E
102
}
330
E
100
AcDbMlineStyle
  2
STANDARD
 70
     0
  3

 62
     0
 51
90.0
 52
90.0
 71
     2
 49
0.5
 62
   256
  6
BYLAYER
 49
-0.5
 62
   256
  6
BYLAYER
  0
ACDBPLACEHOLDER
  5
1191
102
{ACAD_REACTORS
330
1190
102
}
330
1190
  0
TABLESTYLE
  5
1195
102
{ACAD_REACTORS
330
1194
102
}
330
1194
100
AcDbTableStyle
  3
Standard
 70
     0
 71
     0
 40
0.06
 41
0.06
280
     0
281
     0
  7
STANDARD
140
0.18
170
     2
 62
     0
 63
     7
283
     0
274
    -2
284
     1
 64
     0
275
    -2
285
     1
 65
     0
276
    -2
286
     1
 66
     0
277
    -2
287
     1
 67
     0
278
    -2
288
     1
 68
     0
279
    -2
289
     1
 69
     0
  7
STANDARD
140
0.25
170
     5
 62
     0
 63
     7
283
     0
274
    -2
284
     1
 64
     0
275
    -2
285
     1
 65
     0
276
    -2
286
     1
 66
     0
277
    -2
287
     1
 67
     0
278
    -2
288
     1
 68
     0
279
    -2
289
     1
 69
     0
  7
STANDARD
140
0.18
170
     5
 62
     0
 63
     7
283
     0
274
    -2
284
     1
 64
     0
275
    -2
285
     1
 65
     0
276
    -2
286
     1
 66
     0
277
    -2
287
     1
 67
     0
278
    -2
288
     1
 68
     0
279
    -2
289
     1
 69
     0
  0
DICTIONARYVAR
  5
12D9
102
{ACAD_REACTORS
330
12D8
102
}
330
12D8
100
DictionaryVariables
280
     0
  1
STANDARD
  0
ENDSEC
  0
EOF
