  0
SECTION
  2
HEADER
  9
$ACADVER
  1
AC1009
  9
$INSBASE
 10
0.0
 20
0.0
 30
0.0
  9
$EXTMIN
 10
0.0
 20
0.0
 30
0.0
  9
$EXTMAX
 10
3700.0
 20
2670.0
 30
0.0
  9
$LIMMIN
 10
0.0
 20
0.0
  9
$LIMMAX
 10
4200.0
 20
2970.0
  9
$ORTHOMODE
 70
     1
  9
$REGENMODE
 70
     1
  9
$FILLMODE
 70
     1
  9
$QTEXTMODE
 70
     0
  9
$MIRRTEXT
 70
     0
  9
$DRAGMODE
 70
     2
  9
$LTSCALE
 40
100.0
  9
$OSMODE
 70
    37
  9
$ATTMODE
 70
     1
  9
$TEXTSIZE
 40
30.0
  9
$TRACEWID
 40
0.05
  9
$TEXTSTYLE
  7
EXT08
  9
$CLAYER
  8
0
  9
$CELTYPE
  6
BYLAYER
  9
$CECOLOR
 62
   256
  9
$DIMSCALE
 40
10.0
  9
$DIMASZ
 40
2.0
  9
$DIMEXO
 40
1.0
  9
$DIMDLI
 40
6.0
  9
$DIMRND
 40
0.0
  9
$DIMDLE
 40
0.0
  9
$DIMEXE
 40
1.0
  9
$DIMTP
 40
0.0
  9
$DIMTM
 40
0.0
  9
$DIMTXT
 40
3.0
  9
$DIMCEN
 40
0.09
  9
$DIMTSZ
 40
0.0
  9
$DIMTOL
 70
     0
  9
$DIMLIM
 70
     0
  9
$DIMTIH
 70
     0
  9
$DIMTOH
 70
     0
  9
$DIMSE1
 70
     0
  9
$DIMSE2
 70
     0
  9
$DIMTAD
 70
     1
  9
$DIMZIN
 70
     8
  9
$DIMBLK
  1

  9
$DIMASO
 70
     1
  9
$DIMSHO
 70
     1
  9
$DIMPOST
  1

  9
$DIMAPOST
  1

  9
$DIMALT
 70
     0
  9
$DIMALTD
 70
     2
  9
$DIMALTF
 40
25.399999999999999
  9
$DIMLFAC
 40
1.0
  9
$DIMTOFL
 70
     1
  9
$DIMTVP
 40
0.0
  9
$DIMTIX
 70
     0
  9
$DIMSOXD
 70
     0
  9
$DIMSAH
 70
     0
  9
$DIMBLK1
  1

  9
$DIMBLK2
  1

  9
$DIMSTYLE
  2
SJC
  9
$DIMCLRD
 70
     0
  9
$DIMCLRE
 70
     0
  9
$DIMCLRT
 70
     0
  9
$DIMTFAC
 40
1.0
  9
$DIMGAP
 40
1.1999999999999991
  9
$LUNITS
 70
     2
  9
$LUPREC
 70
     2
  9
$SKETCHINC
 40
0.1
  9
$FILLETRAD
 40
0.0
  9
$AUNITS
 70
     1
  9
$AUPREC
 70
     2
  9
$MENU
  1
acad
  9
$ELEVATION
 40
0.0
  9
$PELEVATION
 40
0.0
  9
$THICKNESS
 40
0.0
  9
$LIMCHECK
 70
     0
  9
$BLIPMODE
 70
     0
  9
$CHAMFERA
 40
0.0
  9
$CHAMFERB
 40
0.0
  9
$SKPOLY
 70
     0
  9
$TDCREATE
 40
2449302.4370930558
  9
$TDUPDATE
 40
2454228.5778318401
  9
$TDINDWG
 40
0.5936445486
  9
$TDUSRTIMER
 40
0.5936445486
  9
$USRTIMER
 70
     1
  9
$ANGBASE
 50
0.0
  9
$ANGDIR
 70
     0
  9
$PDMODE
 70
    33
  9
$PDSIZE
 40
5.0
  9
$PLINEWID
 40
0.0
  9
$COORDS
 70
     1
  9
$SPLFRAME
 70
     0
  9
$SPLINETYPE
 70
     6
  9
$SPLINESEGS
 70
     8
  9
$ATTDIA
 70
     0
  9
$ATTREQ
 70
     1
  9
$HANDLING
 70
     1
  9
$HANDSEED
  5
1447
  9
$SURFTAB1
 70
     6
  9
$SURFTAB2
 70
     6
  9
$SURFTYPE
 70
     6
  9
$SURFU
 70
     6
  9
$SURFV
 70
     6
  9
$UCSNAME
  2

  9
$UCSORG
 10
0.0
 20
0.0
 30
0.0
  9
$UCSXDIR
 10
1.0
 20
0.0
 30
0.0
  9
$UCSYDIR
 10
0.0
 20
1.0
 30
0.0
  9
$PUCSNAME
  2

  9
$PUCSORG
 10
0.0
 20
0.0
 30
0.0
  9
$PUCSXDIR
 10
1.0
 20
0.0
 30
0.0
  9
$PUCSYDIR
 10
0.0
 20
1.0
 30
0.0
  9
$USERI1
 70
     3
  9
$USERI2
 70
    10
  9
$USERI3
 70
     0
  9
$USERI4
 70
     0
  9
$USERI5
 70
     0
  9
$USERR1
 40
0.0
  9
$USERR2
 40
0.0
  9
$USERR3
 40
0.0
  9
$USERR4
 40
0.0
  9
$USERR5
 40
0.0
  9
$WORLDVIEW
 70
     1
  9
$SHADEDGE
 70
     3
  9
$SHADEDIF
 70
    70
  9
$TILEMODE
 70
     1
  9
$MAXACTVP
 70
    16
  9
$PLIMCHECK
 70
     0
  9
$PEXTMIN
 10
1.0000000000000000E+020
 20
1.0000000000000000E+020
 30
1.0000000000000000E+020
  9
$PEXTMAX
 10
-1.0000000000000000E+020
 20
-1.0000000000000000E+020
 30
-1.0000000000000000E+020
  9
$PLIMMIN
 10
0.0
 20
0.0
  9
$PLIMMAX
 10
12.0
 20
9.0
  9
$UNITMODE
 70
     0
  9
$VISRETAIN
 70
     0
  9
$PLINEGEN
 70
     0
  9
$PSLTSCALE
 70
     1
  0
ENDSEC
  0
SECTION
  2
TABLES
  0
TABLE
  2
VPORT
 70
     2
  0
VPORT
  2
*ACTIVE
 70
     0
 10
0.0
 20
0.0
 11
1.0
 21
1.0
 12
2099.9038481415419
 22
1693.9400030302149
 13
0.0
 23
0.0
 14
10.0
 24
10.0
 15
0.0
 25
0.0
 16
0.0
 26
0.0
 36
1.0
 17
0.0
 27
0.0
 37
0.0
 40
3424.0588853758359
 41
1.7716981132075471
 42
50.0
 43
0.0
 44
0.0
 50
0.0
 51
0.0
 71
     0
 72
   100
 73
     1
 74
     1
 75
     0
 76
     0
 77
     0
 78
     0
  0
ENDTAB
  0
TABLE
  2
LTYPE
 70
     5
  0
LTYPE
  2
CONTINUOUS
 70
     0
  3
Solid line
 72
    65
 73
     0
 40
0.0
  0
LTYPE
  2
CENTER
 70
     0
  3
____ _ ____ _ ____ _ ____ _ ____ _ ____ _ ____ 
 72
    65
 73
     4
 40
2.0
 49
1.25
 49
-0.25
 49
0.25
 49
-0.25
  0
LTYPE
  2
HIDDEN
 70
     0
  3
__ __ __ __ __ __ __ __ __ __ __ __ __ __ __ __
 72
    65
 73
     2
 40
0.375
 49
0.25
 49
-0.125
  0
LTYPE
  2
HIDDEN2
 70
     0
  3
_ _ _ _ _ _ _ _ _ _ _ _ _ _ _ _ _ _ _ _ _ _ _ _
 72
    65
 73
     2
 40
0.1875
 49
0.125
 49
-0.0625
  0
LTYPE
  2
PHANTOM
 70
     0
  3
______  __  __  ______  __  __  ______  __  __ 
 72
    65
 73
     6
 40
2.5
 49
1.25
 49
-0.25
 49
0.25
 49
-0.25
 49
0.25
 49
-0.25
  0
ENDTAB
  0
TABLE
  2
LAYER
 70
    15
  0
LAYER
  2
0
 70
     0
 62
     7
  6
CONTINUOUS
  0
LAYER
  2
CENTER
 70
     0
 62
     3
  6
CENTER
  0
LAYER
  2
HASEN
 70
     0
 62
     7
  6
HIDDEN
  0
LAYER
  2
HOJO
 70
     0
 62
     8
  6
CONTINUOUS
  0
LAYER
  2
KASOU
 70
     0
 62
     2
  6
PHANTOM
  0
LAYER
  2
MOJI
 70
     0
 62
     6
  6
CONTINUOUS
  0
LAYER
  2
SJC
 70
     0
 62
     1
  6
CONTINUOUS
  0
LAYER
  2
SUNPOU
 70
     0
 62
     4
  6
CONTINUOUS
  0
LAYER
  2
WAKU
 70
     0
 62
    -5
  6
CONTINUOUS
  0
LAYER
  2
DEFPOINTS
 70
     0
 62
     7
  6
CONTINUOUS
  0
LAYER
  2
ZWAKU
 70
     1
 62
    -7
  6
CONTINUOUS
  0
LAYER
  2
INFORMATION
 70
     1
 62
     7
  6
CONTINUOUS
  0
LAYER
  2
SJC2
 70
     0
 62
     7
  6
CONTINUOUS
  0
LAYER
  2
MOJI2
 70
     0
 62
     1
  6
CONTINUOUS
  0
LAYER
  2
HATCH
 70
     0
 62
     2
  6
CONTINUOUS
  0
ENDTAB
  0
TABLE
  2
STYLE
 70
    10
  0
STYLE
  2
STANDARD
 70
     0
 40
0.0
 41
1.0
 50
0.0
 71
     0
 42
3.0
  3
TXT
  4
BIGFONT
  0
STYLE
  2
USER
 70
     0
 40
0.0
 41
1.0
 50
0.0
 71
     0
 42
30.0
  3
TXT
  4
BIGFONT
  0
STYLE
  2
TEXT3030
 70
     0
 40
30.0
 41
1.0
 50
0.0
 71
     0
 42
30.0
  3
TXT
  4
BIGFONT
  0
STYLE
  2
KANJI
 70
     0
 40
0.0
 41
1.0
 50
0.0
 71
     0
 42
0.0
  3
ROMANS.SHX
  4
BIGFONT.SHX
  0
STYLE
  2
SIMPLEX
 70
     0
 40
0.0
 41
1.0
 50
0.0
 71
     0
 42
0.0
  3
SCRIPTS.SHX
  4

  0
STYLE
  2
TATEEXT
 70
     4
 40
0.0
 41
1.0
 50
0.0
 71
     0
 42
0.0
  3
ROMANS
  4
EXTFONT
  0
STYLE
  2
TATEBIG
 70
     4
 40
0.0
 41
1.0
 50
0.0
 71
     0
 42
0.0
  3
ROMANS
  4
BIGFONT
  0
STYLE
  2
EXT08
 70
     0
 40
0.0
 41
0.8
 50
0.0
 71
     0
 42
30.0
  3
ROMANS
  4
EXTFONT
  0
STYLE
  2
EXT
 70
     0
 40
0.0
 41
1.0
 50
0.0
 71
     0
 42
0.0
  3
ROMANS
  4
EXTFONT
  0
STYLE
  2
KANJI08
 70
     0
 40
0.0
 41
0.8
 50
0.0
 71
     0
 42
0.0
  3
ROMANS
  4
BIGFONT
  0
ENDTAB
  0
TABLE
  2
VIEW
 70
     0
  0
ENDTAB
  0
TABLE
  2
UCS
 70
     0
  0
ENDTAB
  0
TABLE
  2
APPID
 70
     2
  0
APPID
  2
ACAD
 70
     0
  0
APPID
  2
ACAD_PSEXT
 70
     0
  0
ENDTAB
  0
TABLE
  2
DIMSTYLE
 70
     8
  0
DIMSTYLE
  2
S01-10AX
 70
     0
  3

  4

  5

  6

  7

 40
1.0
 41
20.0
 42
0.0625
 43
0.38
 44
10.0
 45
0.0
 46
0.0
 47
0.0
 48
0.0
140
30.0
141
0.09
142
0.0
143
25.399999999999999
144
1.0
145
0.0
146
0.006
147
0.09
 71
     0
 72
     0
 73
     0
 74
     0
 75
     0
 76
     0
 77
     1
 78
     8
170
     0
171
     2
172
     1
173
     0
174
     1
175
     0
176
     0
177
     0
178
     0
  0
DIMSTYLE
  2
S01-10AA
 70
     0
  3
□<>
  4

  5

  6

  7

 40
1.0
 41
20.0
 42
0.0625
 43
0.38
 44
10.0
 45
0.0
 46
0.0
 47
0.0
 48
0.0
140
30.0
141
0.09
142
0.0
143
25.399999999999999
144
1.0
145
0.0
146
0.006
147
0.09
 71
     0
 72
     0
 73
     0
 74
     0
 75
     0
 76
     0
 77
     1
 78
     8
170
     0
171
     2
172
     1
173
     0
174
     1
175
     0
176
     0
177
     0
178
     0
  0
DIMSTYLE
  2
S01-10CX
 70
     0
  3

  4

  5

  6

  7

 40
1.0
 41
20.0
 42
0.0625
 43
0.38
 44
10.0
 45
0.0
 46
0.0
 47
0.0
 48
0.0
140
30.0
141
0.09
142
0.0
143
25.399999999999999
144
1.0
145
0.0
146
0.006
147
0.09
 71
     0
 72
     0
 73
     0
 74
     0
 75
     0
 76
     1
 77
     1
 78
     8
170
     0
171
     2
172
     1
173
     0
174
     1
175
     0
176
     0
177
     0
178
     0
  0
DIMSTYLE
  2
STANDARD
 70
     0
  3

  4

  5

  6

  7

 40
1.0
 41
0.18
 42
0.0625
 43
0.38
 44
0.18
 45
0.0
 46
0.0
 47
0.0
 48
0.0
140
0.18
141
0.09
142
0.0
143
25.399999999999999
144
1.0
145
0.0
146
1.0
147
0.09
 71
     0
 72
     0
 73
     1
 74
     1
 75
     0
 76
     0
 77
     0
 78
     0
170
     0
171
     2
172
     0
173
     0
174
     0
175
     0
176
     0
177
     0
178
     0
  0
DIMSTYLE
  2
RUISEKI1
 70
     0
  3

  4

  5

  6
DOT
  7

 40
10.0
 41
2.0
 42
1.0
 43
6.0
 44
30.0
 45
0.0
 46
0.0
 47
0.0
 48
0.0
140
0.18
141
0.09
142
0.0
143
25.399999999999999
144
1.0
145
0.0
146
1.0
147
1.5
 71
     0
 72
     0
 73
     1
 74
     1
 75
     0
 76
     0
 77
     1
 78
     0
170
     0
171
     2
172
     0
173
     1
174
     0
175
     0
176
     0
177
     0
178
     0
  0
DIMSTYLE
  2
RUISEKI2
 70
     0
  3

  4

  5

  6
NONE
  7

 40
10.0
 41
2.0
 42
1.0
 43
6.0
 44
30.0
 45
0.0
 46
0.0
 47
0.0
 48
0.0
140
0.18
141
0.09
142
0.0
143
25.399999999999999
144
1.0
145
0.0
146
1.0
147
1.5
 71
     0
 72
     0
 73
     1
 74
     1
 75
     0
 76
     0
 77
     1
 78
     0
170
     0
171
     2
172
     0
173
     1
174
     0
175
     0
176
     0
177
     0
178
     0
  0
DIMSTYLE
  2
SJC
 70
     0
  3

  4

  5

  6

  7

 40
1.0
 41
0.18
 42
0.0625
 43
0.38
 44
0.18
 45
0.0
 46
0.0
 47
0.0
 48
0.0
140
0.18
141
0.09
142
0.0
143
25.399999999999999
144
1.0
145
0.0
146
1.0
147
0.09
 71
     0
 72
     0
 73
     1
 74
     1
 75
     0
 76
     0
 77
     0
 78
     0
170
     0
171
     2
172
     0
173
     0
174
     0
175
     0
176
     0
177
     0
178
     0
  0
DIMSTYLE
  2
S01-10AB
 70
     0
  3
φ<>
  4

  5

  6

  7

 40
1.0
 41
20.0
 42
0.0625
 43
0.38
 44
10.0
 45
0.0
 46
0.0
 47
0.0
 48
0.0
140
30.0
141
0.09
142
0.0
143
25.399999999999999
144
1.0
145
0.0
146
0.006
147
0.09
 71
     0
 72
     0
 73
     0
 74
     0
 75
     0
 76
     0
 77
     1
 78
     8
170
     0
171
     2
172
     1
173
     0
174
     1
175
     0
176
     0
177
     0
178
     0
  0
ENDTAB
  0
ENDSEC
  0
SECTION
  2
BLOCKS
  0
BLOCK
  8
0
  2
$MODEL_SPACE
 70
     0
 10
0.0
 20
0.0
 30
0.0
  3
$MODEL_SPACE
  1

  0
ENDBLK
  5
45
  8
0
  0
BLOCK
 67
     1
  8
0
  2
$PAPER_SPACE
 70
     0
 10
0.0
 20
0.0
 30
0.0
  3
$PAPER_SPACE
  1

  0
ENDBLK
  5
43
 67
     1
  8
0
  0
BLOCK
  8
0
  2
CALCOMP_TECHJET720A3
 70
     0
 10
0.0
 20
0.0
 30
0.0
  3
CALCOMP_TECHJET720A3
  1

  0
POLYLINE
  5
156
  8
ZWAKU
 66
     1
 10
0.0
 20
0.0
 30
0.0
 70
     1
  0
VERTEX
  5
136B
  8
ZWAKU
 10
0.0
 20
0.0
 30
0.0
  0
VERTEX
  5
136C
  8
ZWAKU
 10
0.0
 20
267.0
 30
0.0
  0
VERTEX
  5
136D
  8
ZWAKU
 10
370.0
 20
267.0
 30
0.0
  0
VERTEX
  5
136E
  8
ZWAKU
 10
370.0
 20
0.0
 30
0.0
  0
SEQEND
  5
136F
  8
ZWAKU
  0
ENDBLK
  5
15D
  8
0
  0
BLOCK
  8
0
  2
_DOT
 70
     0
 10
0.0
 20
0.0
 30
0.0
  3
_DOT
  1

  0
POLYLINE
  5
16A
  8
0
  6
BYBLOCK
 62
     0
 66
     1
 10
0.0
 20
0.0
 30
0.0
 70
     1
 40
0.5
 41
0.5
  0
VERTEX
  5
1370
  8
0
  6
BYBLOCK
 62
     0
 10
-0.25
 20
0.0
 30
0.0
 42
1.0
  0
VERTEX
  5
1371
  8
0
  6
BYBLOCK
 62
     0
 10
0.25
 20
0.0
 30
0.0
 42
1.0
  0
SEQEND
  5
1372
  8
0
  6
BYBLOCK
 62
     0
  0
LINE
  5
16E
  8
0
  6
BYBLOCK
 62
     0
 10
-0.5
 20
0.0
 30
0.0
 11
-1.0
 21
0.0
 31
0.0
  0
ENDBLK
  5
16F
  8
0
  0
BLOCK
  8
0
  2
_NONE
 70
     0
 10
0.0
 20
0.0
 30
0.0
  3
_NONE
  1

  0
CIRCLE
  5
173
  8
0
  6
BYBLOCK
 62
     0
 10
0.0
 20
0.0
 30
0.0
 40
0.25
  0
ENDBLK
  5
174
  8
0
  0
BLOCK
  8
0
  2
CALCOMP_TECHJET720A1
 70
     0
 10
0.0
 20
0.0
 30
0.0
  3
CALCOMP_TECHJET720A1
  1

  0
POLYLINE
  5
207
  8
ZWAKU
 66
     1
 10
0.0
 20
0.0
 30
0.0
 70
     1
  0
VERTEX
  5
1373
  8
ZWAKU
 10
0.0
 20
0.0
 30
0.0
  0
VERTEX
  5
1374
  8
ZWAKU
 10
0.0
 20
564.0
 30
0.0
  0
VERTEX
  5
1375
  8
ZWAKU
 10
791.0
 20
564.0
 30
0.0
  0
VERTEX
  5
1376
  8
ZWAKU
 10
791.0
 20
0.0
 30
0.0
  0
SEQEND
  5
1377
  8
ZWAKU
  0
ENDBLK
  5
20E
  8
0
  0
BLOCK
  8
0
  2
1-10BASE
 70
     0
 10
0.0
 20
0.0
 30
0.0
  3
1-10BASE
  1

  0
ENDBLK
  5
227
  8
0
  0
BLOCK
  8
0
  2
*D5
 70
     1
 10
0.0
 20
0.0
 30
0.0
  3
*D5
  1

  0
LINE
  5
229
  8
0
  6
BYBLOCK
 10
1899.1043374724491
 20
2019.851326845215
 30
0.0
 11
1899.1043374724491
 21
2194.6013268452152
 31
0.0
  0
LINE
  5
22A
  8
0
  6
BYBLOCK
 10
2089.1043374724482
 20
2019.851326845215
 30
0.0
 11
2089.1043374724482
 21
2194.6013268452152
 31
0.0
  0
LINE
  5
22B
  8
0
  6
BYBLOCK
 10
1919.1043374724491
 20
2184.6013268452161
 30
0.0
 11
2069.1043374724491
 21
2184.6013268452161
 31
0.0
  0
SOLID
  5
22C
  8
0
  6
BYBLOCK
 10
1919.1043374724491
 20
2187.9346601785492
 30
0.0
 11
1919.1043374724491
 21
2181.2679935118822
 31
0.0
 12
1899.1043374724491
 22
2184.6013268452161
 32
0.0
 13
1899.1043374724491
 23
2184.6013268452161
 33
0.0
  0
SOLID
  5
22D
  8
0
  6
BYBLOCK
 10
2069.1043374724491
 20
2187.9346601785492
 30
0.0
 11
2069.1043374724491
 21
2181.2679935118822
 31
0.0
 12
2089.1043374724482
 22
2184.6013268452161
 32
0.0
 13
2089.1043374724482
 23
2184.6013268452161
 33
0.0
  0
INSERT
  5
22E
  8
0
  2
*U41
 10
0.0
 20
0.0
 30
0.0
  0
POINT
  5
22F
  8
DEFPOINTS
  6
BYBLOCK
 62
     0
 10
1899.1043374724491
 20
2009.851326845215
 30
0.0
  0
POINT
  5
230
  8
DEFPOINTS
  6
BYBLOCK
 62
     0
 10
2089.1043374724482
 20
2009.851326845215
 30
0.0
  0
POINT
  5
231
  8
DEFPOINTS
  6
BYBLOCK
 62
     0
 10
2089.1043374724482
 20
2184.6013268452161
 30
0.0
  0
ENDBLK
  5
233
  8
0
  0
BLOCK
  8
0
  2
*D6
 70
     1
 10
0.0
 20
0.0
 30
0.0
  3
*D6
  1

  0
LINE
  5
235
  8
0
  6
BYBLOCK
 10
2996.2543374724478
 20
2019.851326845215
 30
0.0
 11
2996.2543374724478
 21
2194.6013268452152
 31
0.0
  0
LINE
  5
236
  8
0
  6
BYBLOCK
 10
3186.2543374724492
 20
2019.851326845215
 30
0.0
 11
3186.2543374724492
 21
2194.6013268452152
 31
0.0
  0
LINE
  5
237
  8
0
  6
BYBLOCK
 10
3016.2543374724492
 20
2184.6013268452161
 30
0.0
 11
3166.2543374724478
 21
2184.6013268452161
 31
0.0
  0
SOLID
  5
238
  8
0
  6
BYBLOCK
 10
3016.2543374724492
 20
2187.9346601785492
 30
0.0
 11
3016.2543374724492
 21
2181.2679935118822
 31
0.0
 12
2996.2543374724478
 22
2184.6013268452161
 32
0.0
 13
2996.2543374724478
 23
2184.6013268452161
 33
0.0
  0
SOLID
  5
239
  8
0
  6
BYBLOCK
 10
3166.2543374724478
 20
2187.9346601785492
 30
0.0
 11
3166.2543374724478
 21
2181.2679935118822
 31
0.0
 12
3186.2543374724492
 22
2184.6013268452161
 32
0.0
 13
3186.2543374724492
 23
2184.6013268452161
 33
0.0
  0
INSERT
  5
23A
  8
0
  2
*U42
 10
0.0
 20
0.0
 30
0.0
  0
POINT
  5
23B
  8
DEFPOINTS
  6
BYBLOCK
 62
     0
 10
2996.2543374724478
 20
2009.851326845215
 30
0.0
  0
POINT
  5
23C
  8
DEFPOINTS
  6
BYBLOCK
 62
     0
 10
3186.2543374724492
 20
2009.851326845215
 30
0.0
  0
POINT
  5
23D
  8
DEFPOINTS
  6
BYBLOCK
 62
     0
 10
3186.2543374724492
 20
2184.6013268452161
 30
0.0
  0
ENDBLK
  5
23F
  8
0
  0
BLOCK
  8
0
  2
*D7
 70
     1
 10
0.0
 20
0.0
 30
0.0
  3
*D7
  1

  0
LINE
  5
241
  8
0
  6
BYBLOCK
 10
599.10433747244815
 20
1719.601326845215
 30
0.0
 11
1210.0417798954329
 21
1719.601326845215
 31
0.0
  0
LINE
  5
242
  8
0
  6
BYBLOCK
 10
1190.0417798954329
 20
989.60134674956635
 30
0.0
 11
1190.0417798954329
 21
989.60134674956635
 31
0.0
  0
LINE
  5
243
  8
0
  6
BYBLOCK
 10
1200.0417798954329
 20
1699.601326845215
 30
0.0
 11
1200.0417798954329
 21
1009.601346749566
 31
0.0
  0
SOLID
  5
244
  8
0
  6
BYBLOCK
 10
1196.7084465621001
 20
1699.601326845215
 30
0.0
 11
1203.3751132287659
 21
1699.601326845215
 31
0.0
 12
1200.0417798954329
 22
1719.601326845215
 32
0.0
 13
1200.0417798954329
 23
1719.601326845215
 33
0.0
  0
SOLID
  5
245
  8
0
  6
BYBLOCK
 10
1196.7084465621001
 20
1009.601346749566
 30
0.0
 11
1203.3751132287659
 21
1009.601346749566
 31
0.0
 12
1200.0417798954329
 22
989.60134674956635
 32
0.0
 13
1200.0417798954329
 23
989.60134674956635
 33
0.0
  0
INSERT
  5
246
  8
0
  2
*U43
 10
0.0
 20
0.0
 30
0.0
  0
POINT
  5
247
  8
DEFPOINTS
  6
BYBLOCK
 62
     0
 10
589.10433747244815
 20
1719.601326845215
 30
0.0
  0
POINT
  5
248
  8
DEFPOINTS
  6
BYBLOCK
 62
     0
 10
1200.0417798954329
 20
989.60134674956635
 30
0.0
  0
POINT
  5
249
  8
DEFPOINTS
  6
BYBLOCK
 62
     0
 10
1200.0417798954329
 20
989.60134674956635
 30
0.0
  0
ENDBLK
  5
24B
  8
0
  0
BLOCK
  8
0
  2
*D8
 70
     1
 10
0.0
 20
0.0
 30
0.0
  3
*D8
  1

  0
LINE
  5
24D
  8
0
  6
BYBLOCK
 10
599.10433747244815
 20
1719.601326845215
 30
0.0
 11
1360.0417798954329
 21
1719.601326845215
 31
0.0
  0
LINE
  5
24E
  8
0
  6
BYBLOCK
 10
819.10433747244861
 20
539.60132684521523
 30
0.0
 11
1360.0417798954329
 21
539.60132684521523
 31
0.0
  0
LINE
  5
24F
  8
0
  6
BYBLOCK
 10
1350.0417798954329
 20
1699.601326845215
 30
0.0
 11
1350.0417798954329
 21
559.60132684521523
 31
0.0
  0
SOLID
  5
250
  8
0
  6
BYBLOCK
 10
1346.7084465621001
 20
1699.601326845215
 30
0.0
 11
1353.3751132287659
 21
1699.601326845215
 31
0.0
 12
1350.0417798954329
 22
1719.601326845215
 32
0.0
 13
1350.0417798954329
 23
1719.601326845215
 33
0.0
  0
SOLID
  5
251
  8
0
  6
BYBLOCK
 10
1346.7084465621001
 20
559.60132684521523
 30
0.0
 11
1353.3751132287659
 21
559.60132684521523
 31
0.0
 12
1350.0417798954329
 22
539.60132684521523
 32
0.0
 13
1350.0417798954329
 23
539.60132684521523
 33
0.0
  0
INSERT
  5
252
  8
0
  2
*U44
 10
0.0
 20
0.0
 30
0.0
  0
POINT
  5
253
  8
DEFPOINTS
  6
BYBLOCK
 62
     0
 10
589.10433747244815
 20
1719.601326845215
 30
0.0
  0
POINT
  5
254
  8
DEFPOINTS
  6
BYBLOCK
 62
     0
 10
809.10433747244861
 20
539.60132684521523
 30
0.0
  0
POINT
  5
255
  8
DEFPOINTS
  6
BYBLOCK
 62
     0
 10
1350.0417798954329
 20
539.60132684521523
 30
0.0
  0
ENDBLK
  5
257
  8
0
  0
BLOCK
  8
0
  2
*D9
 70
     1
 10
0.0
 20
0.0
 30
0.0
  3
*D9
  1

  0
LINE
  5
259
  8
0
  6
BYBLOCK
 10
819.10433747244861
 20
539.60132684521523
 30
0.0
 11
1210.0417798954329
 21
539.60132684521523
 31
0.0
  0
LINE
  5
25A
  8
0
  6
BYBLOCK
 10
1190.0417798954329
 20
989.60134674956635
 30
0.0
 11
1190.0417798954329
 21
989.60134674956635
 31
0.0
  0
LINE
  5
25B
  8
0
  6
BYBLOCK
 10
1200.0417798954329
 20
559.60132684521523
 30
0.0
 11
1200.0417798954329
 21
969.60134674956635
 31
0.0
  0
SOLID
  5
25C
  8
0
  6
BYBLOCK
 10
1196.7084465621001
 20
559.60132684521523
 30
0.0
 11
1203.3751132287659
 21
559.60132684521523
 31
0.0
 12
1200.0417798954329
 22
539.60132684521523
 32
0.0
 13
1200.0417798954329
 23
539.60132684521523
 33
0.0
  0
SOLID
  5
25D
  8
0
  6
BYBLOCK
 10
1196.7084465621001
 20
969.60134674956635
 30
0.0
 11
1203.3751132287659
 21
969.60134674956635
 31
0.0
 12
1200.0417798954329
 22
989.60134674956635
 32
0.0
 13
1200.0417798954329
 23
989.60134674956635
 33
0.0
  0
INSERT
  5
25E
  8
0
  2
*U45
 10
0.0
 20
0.0
 30
0.0
  0
POINT
  5
25F
  8
DEFPOINTS
  6
BYBLOCK
 62
     0
 10
809.10433747244861
 20
539.60132684521523
 30
0.0
  0
POINT
  5
260
  8
DEFPOINTS
  6
BYBLOCK
 62
     0
 10
1200.0417798954329
 20
989.60134674956635
 30
0.0
  0
POINT
  5
261
  8
DEFPOINTS
  6
BYBLOCK
 62
     0
 10
1200.0417798954329
 20
989.60134674956635
 30
0.0
  0
ENDBLK
  5
263
  8
0
  0
BLOCK
  8
0
  2
*D10
 70
     1
 10
0.0
 20
0.0
 30
0.0
  3
*D10
  1

  0
LINE
  5
265
  8
0
  6
BYBLOCK
 10
389.10433747244861
 20
514.60132684521523
 30
0.0
 11
389.10433747244861
 21
394.60132684521523
 31
0.0
  0
LINE
  5
266
  8
0
  6
BYBLOCK
 10
789.10433747244849
 20
514.60132684521523
 30
0.0
 11
789.10433747244849
 21
394.60132684521523
 31
0.0
  0
LINE
  5
267
  8
0
  6
BYBLOCK
 10
409.10433747244861
 20
404.60132684521523
 30
0.0
 11
769.10433747244861
 21
404.60132684521523
 31
0.0
  0
SOLID
  5
268
  8
0
  6
BYBLOCK
 10
409.10433747244861
 20
407.93466017854848
 30
0.0
 11
409.10433747244861
 21
401.26799351188191
 31
0.0
 12
389.10433747244861
 22
404.60132684521523
 32
0.0
 13
389.10433747244861
 23
404.60132684521523
 33
0.0
  0
SOLID
  5
269
  8
0
  6
BYBLOCK
 10
769.10433747244861
 20
407.93466017854848
 30
0.0
 11
769.10433747244861
 21
401.26799351188191
 31
0.0
 12
789.10433747244849
 22
404.60132684521523
 32
0.0
 13
789.10433747244849
 23
404.60132684521523
 33
0.0
  0
INSERT
  5
26A
  8
0
  2
*U46
 10
0.0
 20
0.0
 30
0.0
  0
POINT
  5
26B
  8
DEFPOINTS
  6
BYBLOCK
 62
     0
 10
389.10433747244861
 20
524.60132684521523
 30
0.0
  0
POINT
  5
26C
  8
DEFPOINTS
  6
BYBLOCK
 62
     0
 10
789.10433747244849
 20
524.60132684521523
 30
0.0
  0
POINT
  5
26D
  8
DEFPOINTS
  6
BYBLOCK
 62
     0
 10
789.10433747244849
 20
404.60132684521523
 30
0.0
  0
ENDBLK
  5
26F
  8
0
  0
BLOCK
  8
0
  2
*D11
 70
     1
 10
0.0
 20
0.0
 30
0.0
  3
*D11
  1

  0
LINE
  5
271
  8
0
  6
BYBLOCK
 10
2224.2293374724491
 20
539.60132684521523
 30
0.0
 11
2404.1043374724491
 21
539.60132684521523
 31
0.0
  0
LINE
  5
272
  8
0
  6
BYBLOCK
 10
2384.1043374724482
 20
989.60132684521545
 30
0.0
 11
2384.1043374724482
 21
989.60132684521545
 31
0.0
  0
LINE
  5
273
  8
0
  6
BYBLOCK
 10
2394.1043374724491
 20
559.60132684521523
 30
0.0
 11
2394.1043374724491
 21
969.60132684521545
 31
0.0
  0
SOLID
  5
274
  8
0
  6
BYBLOCK
 10
2390.7710041391151
 20
559.60132684521523
 30
0.0
 11
2397.4376708057821
 21
559.60132684521523
 31
0.0
 12
2394.1043374724491
 22
539.60132684521523
 32
0.0
 13
2394.1043374724491
 23
539.60132684521523
 33
0.0
  0
SOLID
  5
275
  8
0
  6
BYBLOCK
 10
2390.7710041391151
 20
969.60132684521545
 30
0.0
 11
2397.4376708057821
 21
969.60132684521545
 31
0.0
 12
2394.1043374724491
 22
989.60132684521545
 32
0.0
 13
2394.1043374724491
 23
989.60132684521545
 33
0.0
  0
INSERT
  5
276
  8
0
  2
*U47
 10
0.0
 20
0.0
 30
0.0
  0
POINT
  5
277
  8
DEFPOINTS
  6
BYBLOCK
 62
     0
 10
2214.2293374724491
 20
539.60132684521523
 30
0.0
  0
POINT
  5
278
  8
DEFPOINTS
  6
BYBLOCK
 62
     0
 10
2394.1043374724491
 20
989.60132684521545
 30
0.0
  0
POINT
  5
279
  8
DEFPOINTS
  6
BYBLOCK
 62
     0
 10
2394.1043374724491
 20
989.60132684521545
 30
0.0
  0
ENDBLK
  5
27B
  8
0
  0
BLOCK
  8
0
  2
*D12
 70
     1
 10
0.0
 20
0.0
 30
0.0
  3
*D12
  1

  0
LINE
  5
27D
  8
0
  6
BYBLOCK
 10
2124.9168374724482
 20
889.60132684521523
 30
0.0
 11
2294.1043374724491
 21
889.60132684521523
 31
0.0
  0
LINE
  5
27E
  8
0
  6
BYBLOCK
 10
2274.1043374724491
 20
989.60132684521545
 30
0.0
 11
2274.1043374724491
 21
989.60132684521545
 31
0.0
  0
LINE
  5
27F
  8
0
  6
BYBLOCK
 10
2284.1043374724491
 20
909.60132684521523
 30
0.0
 11
2284.1043374724491
 21
969.60132684521545
 31
0.0
  0
INSERT
  5
280
  8
0
  2
*U48
 10
0.0
 20
0.0
 30
0.0
  0
SOLID
  5
281
  8
0
  6
BYBLOCK
 10
2280.7710041391151
 20
909.60132684521523
 30
0.0
 11
2287.4376708057821
 21
909.60132684521523
 31
0.0
 12
2284.1043374724491
 22
889.60132684521523
 32
0.0
 13
2284.1043374724491
 23
889.60132684521523
 33
0.0
  0
SOLID
  5
282
  8
0
  6
BYBLOCK
 10
2280.7710041391151
 20
969.60132684521545
 30
0.0
 11
2287.4376708057821
 21
969.60132684521545
 31
0.0
 12
2284.1043374724491
 22
989.60132684521545
 32
0.0
 13
2284.1043374724491
 23
989.60132684521545
 33
0.0
  0
POINT
  5
283
  8
DEFPOINTS
  6
BYBLOCK
 62
     0
 10
2114.9168374724482
 20
889.60132684521523
 30
0.0
  0
POINT
  5
284
  8
DEFPOINTS
  6
BYBLOCK
 62
     0
 10
2284.1043374724491
 20
989.60132684521545
 30
0.0
  0
POINT
  5
285
  8
DEFPOINTS
  6
BYBLOCK
 62
     0
 10
2284.1043374724491
 20
989.60132684521545
 30
0.0
  0
ENDBLK
  5
287
  8
0
  0
BLOCK
  8
0
  2
*D13
 70
     1
 10
0.0
 20
0.0
 30
0.0
  3
*D13
  1

  0
LINE
  5
289
  8
0
  6
BYBLOCK
 10
1871.6043374724491
 20
1020.663826845215
 30
0.0
 11
1871.6043374724491
 21
1170.601326845215
 31
0.0
  0
LINE
  5
28A
  8
0
  6
BYBLOCK
 10
2116.6043374724491
 20
1020.663826845215
 30
0.0
 11
2116.6043374724491
 21
1170.601326845215
 31
0.0
  0
LINE
  5
28B
  8
0
  6
BYBLOCK
 10
1891.6043374724491
 20
1160.601326845215
 30
0.0
 11
2096.6043374724491
 21
1160.601326845215
 31
0.0
  0
SOLID
  5
28C
  8
0
  6
BYBLOCK
 10
1891.6043374724491
 20
1163.934660178548
 30
0.0
 11
1891.6043374724491
 21
1157.267993511882
 31
0.0
 12
1871.6043374724491
 22
1160.601326845215
 32
0.0
 13
1871.6043374724491
 23
1160.601326845215
 33
0.0
  0
SOLID
  5
28D
  8
0
  6
BYBLOCK
 10
2096.6043374724491
 20
1163.934660178548
 30
0.0
 11
2096.6043374724491
 21
1157.267993511882
 31
0.0
 12
2116.6043374724491
 22
1160.601326845215
 32
0.0
 13
2116.6043374724491
 23
1160.601326845215
 33
0.0
  0
INSERT
  5
28E
  8
0
  2
*U49
 10
0.0
 20
0.0
 30
0.0
  0
POINT
  5
28F
  8
DEFPOINTS
  6
BYBLOCK
 62
     0
 10
1871.6043374724491
 20
1010.663826845215
 30
0.0
  0
POINT
  5
290
  8
DEFPOINTS
  6
BYBLOCK
 62
     0
 10
2116.6043374724491
 20
1010.663826845215
 30
0.0
  0
POINT
  5
291
  8
DEFPOINTS
  6
BYBLOCK
 62
     0
 10
2116.6043374724491
 20
1160.601326845215
 30
0.0
  0
ENDBLK
  5
293
  8
0
  0
BLOCK
  8
0
  2
*D14
 70
     1
 10
0.0
 20
0.0
 30
0.0
  3
*D14
  1

  0
LINE
  5
295
  8
0
  6
BYBLOCK
 10
389.10433747244861
 20
514.60132684521523
 30
0.0
 11
389.10433747244861
 21
394.60132684521523
 31
0.0
  0
LINE
  5
296
  8
0
  6
BYBLOCK
 10
789.10433747244849
 20
514.60132684521523
 30
0.0
 11
789.10433747244849
 21
394.60132684521523
 31
0.0
  0
LINE
  5
297
  8
0
  6
BYBLOCK
 10
409.10433747244861
 20
404.60132684521523
 30
0.0
 11
769.10433747244861
 21
404.60132684521523
 31
0.0
  0
SOLID
  5
298
  8
0
  6
BYBLOCK
 10
409.10433747244861
 20
407.93466017854848
 30
0.0
 11
409.10433747244861
 21
401.26799351188191
 31
0.0
 12
389.10433747244861
 22
404.60132684521523
 32
0.0
 13
389.10433747244861
 23
404.60132684521523
 33
0.0
  0
SOLID
  5
299
  8
0
  6
BYBLOCK
 10
769.10433747244861
 20
407.93466017854848
 30
0.0
 11
769.10433747244861
 21
401.26799351188191
 31
0.0
 12
789.10433747244849
 22
404.60132684521523
 32
0.0
 13
789.10433747244849
 23
404.60132684521523
 33
0.0
  0
INSERT
  5
29A
  8
0
  2
*U50
 10
0.0
 20
0.0
 30
0.0
  0
POINT
  5
29B
  8
DEFPOINTS
  6
BYBLOCK
 62
     0
 10
389.10433747244861
 20
524.60132684521523
 30
0.0
  0
POINT
  5
29C
  8
DEFPOINTS
  6
BYBLOCK
 62
     0
 10
789.10433747244849
 20
524.60132684521523
 30
0.0
  0
POINT
  5
29D
  8
DEFPOINTS
  6
BYBLOCK
 62
     0
 10
789.10433747244849
 20
404.60132684521523
 30
0.0
  0
ENDBLK
  5
29F
  8
0
  0
BLOCK
  8
0
  2
*D15
 70
     1
 10
0.0
 20
0.0
 30
0.0
  3
*D15
  1

  0
LINE
  5
2A1
  8
0
  6
BYBLOCK
 10
3034.1043374724491
 20
1954.538826845215
 30
0.0
 11
3034.1043374724491
 21
1734.601326845215
 31
0.0
  0
LINE
  5
2A2
  8
0
  6
BYBLOCK
 10
3148.4043374724488
 20
1954.538826845215
 30
0.0
 11
3148.4043374724488
 21
1734.601326845215
 31
0.0
  0
LINE
  5
2A3
  8
0
  6
BYBLOCK
 10
3054.1043374724491
 20
1744.601326845215
 30
0.0
 11
3128.4043374724488
 21
1744.601326845215
 31
0.0
  0
INSERT
  5
2A4
  8
0
  2
*U51
 10
0.0
 20
0.0
 30
0.0
  0
SOLID
  5
2A5
  8
0
  6
BYBLOCK
 10
3054.1043374724491
 20
1747.9346601785489
 30
0.0
 11
3054.1043374724491
 21
1741.267993511882
 31
0.0
 12
3034.1043374724491
 22
1744.601326845215
 32
0.0
 13
3034.1043374724491
 23
1744.601326845215
 33
0.0
  0
SOLID
  5
2A6
  8
0
  6
BYBLOCK
 10
3128.4043374724488
 20
1747.9346601785489
 30
0.0
 11
3128.4043374724488
 21
1741.267993511882
 31
0.0
 12
3148.4043374724488
 22
1744.601326845215
 32
0.0
 13
3148.4043374724488
 23
1744.601326845215
 33
0.0
  0
POINT
  5
2A7
  8
DEFPOINTS
  6
BYBLOCK
 62
     0
 10
3034.1043374724491
 20
1964.538826845215
 30
0.0
  0
POINT
  5
2A8
  8
DEFPOINTS
  6
BYBLOCK
 62
     0
 10
3148.4043374724488
 20
1964.538826845215
 30
0.0
  0
POINT
  5
2A9
  8
DEFPOINTS
  6
BYBLOCK
 62
     0
 10
3148.4043374724488
 20
1744.601326845215
 30
0.0
  0
ENDBLK
  5
2AB
  8
0
  0
BLOCK
  8
0
  2
*D16
 70
     1
 10
0.0
 20
0.0
 30
0.0
  3
*D16
  1

  0
LINE
  5
2AD
  8
0
  6
BYBLOCK
 10
2968.7543374724492
 20
1954.538826845215
 30
0.0
 11
2968.7543374724492
 21
1644.601326845215
 31
0.0
  0
LINE
  5
2AE
  8
0
  6
BYBLOCK
 10
3213.7543374724492
 20
1954.538826845215
 30
0.0
 11
3213.7543374724492
 21
1644.601326845215
 31
0.0
  0
LINE
  5
2AF
  8
0
  6
BYBLOCK
 10
2988.7543374724492
 20
1654.601326845215
 30
0.0
 11
3193.7543374724492
 21
1654.601326845215
 31
0.0
  0
SOLID
  5
2B0
  8
0
  6
BYBLOCK
 10
2988.7543374724492
 20
1657.934660178548
 30
0.0
 11
2988.7543374724492
 21
1651.267993511882
 31
0.0
 12
2968.7543374724492
 22
1654.601326845215
 32
0.0
 13
2968.7543374724492
 23
1654.601326845215
 33
0.0
  0
SOLID
  5
2B1
  8
0
  6
BYBLOCK
 10
3193.7543374724492
 20
1657.934660178548
 30
0.0
 11
3193.7543374724492
 21
1651.267993511882
 31
0.0
 12
3213.7543374724492
 22
1654.601326845215
 32
0.0
 13
3213.7543374724492
 23
1654.601326845215
 33
0.0
  0
INSERT
  5
2B2
  8
0
  2
*U52
 10
0.0
 20
0.0
 30
0.0
  0
POINT
  5
2B3
  8
DEFPOINTS
  6
BYBLOCK
 62
     0
 10
2968.7543374724492
 20
1964.538826845215
 30
0.0
  0
POINT
  5
2B4
  8
DEFPOINTS
  6
BYBLOCK
 62
     0
 10
3213.7543374724492
 20
1964.538826845215
 30
0.0
  0
POINT
  5
2B5
  8
DEFPOINTS
  6
BYBLOCK
 62
     0
 10
3213.7543374724492
 20
1654.601326845215
 30
0.0
  0
ENDBLK
  5
2B7
  8
0
  0
BLOCK
  8
0
  2
*D17
 70
     1
 10
0.0
 20
0.0
 30
0.0
  3
*D17
  1

  0
LINE
  5
2B9
  8
0
  6
BYBLOCK
 10
3101.2543374724478
 20
1419.601326845215
 30
0.0
 11
3403.4043374724479
 21
1419.601326845215
 31
0.0
  0
LINE
  5
2BA
  8
0
  6
BYBLOCK
 10
3495.8043233460648
 20
689.60134674956635
 30
0.0
 11
3383.4043374724479
 21
689.60134674956635
 31
0.0
  0
LINE
  5
2BB
  8
0
  6
BYBLOCK
 10
3393.4043374724479
 20
1399.601326845215
 30
0.0
 11
3393.4043374724479
 21
709.60134674956635
 31
0.0
  0
SOLID
  5
2BC
  8
0
  6
BYBLOCK
 10
3390.0710041391148
 20
1399.601326845215
 30
0.0
 11
3396.7376708057809
 21
1399.601326845215
 31
0.0
 12
3393.4043374724479
 22
1419.601326845215
 32
0.0
 13
3393.4043374724479
 23
1419.601326845215
 33
0.0
  0
SOLID
  5
2BD
  8
0
  6
BYBLOCK
 10
3390.0710041391148
 20
709.60134674956635
 30
0.0
 11
3396.7376708057809
 21
709.60134674956635
 31
0.0
 12
3393.4043374724479
 22
689.60134674956635
 32
0.0
 13
3393.4043374724479
 23
689.60134674956635
 33
0.0
  0
INSERT
  5
2BE
  8
0
  2
*U53
 10
0.0
 20
0.0
 30
0.0
  0
POINT
  5
2BF
  8
DEFPOINTS
  6
BYBLOCK
 62
     0
 10
3091.2543374724478
 20
1419.601326845215
 30
0.0
  0
POINT
  5
2C0
  8
DEFPOINTS
  6
BYBLOCK
 62
     0
 10
3505.8043233460648
 20
689.60134674956635
 30
0.0
  0
POINT
  5
2C1
  8
DEFPOINTS
  6
BYBLOCK
 62
     0
 10
3393.4043374724479
 20
689.60134674956635
 30
0.0
  0
ENDBLK
  5
2C3
  8
0
  0
BLOCK
  8
0
  2
*D18
 70
     1
 10
0.0
 20
0.0
 30
0.0
  3
*D18
  1

  0
LINE
  5
2C5
  8
0
  6
BYBLOCK
 10
3101.2543374724478
 20
1419.601326845215
 30
0.0
 11
3518.4043374724479
 21
1419.601326845215
 31
0.0
  0
LINE
  5
2C6
  8
0
  6
BYBLOCK
 10
3178.4043374724479
 20
439.60132684521523
 30
0.0
 11
3518.4043374724479
 21
439.60132684521523
 31
0.0
  0
LINE
  5
2C7
  8
0
  6
BYBLOCK
 10
3508.4043374724479
 20
1399.601326845215
 30
0.0
 11
3508.4043374724479
 21
459.60132684521523
 31
0.0
  0
SOLID
  5
2C8
  8
0
  6
BYBLOCK
 10
3505.0710041391139
 20
1399.601326845215
 30
0.0
 11
3511.7376708057809
 21
1399.601326845215
 31
0.0
 12
3508.4043374724479
 22
1419.601326845215
 32
0.0
 13
3508.4043374724479
 23
1419.601326845215
 33
0.0
  0
SOLID
  5
2C9
  8
0
  6
BYBLOCK
 10
3505.0710041391139
 20
459.60132684521523
 30
0.0
 11
3511.7376708057809
 21
459.60132684521523
 31
0.0
 12
3508.4043374724479
 22
439.60132684521523
 32
0.0
 13
3508.4043374724479
 23
439.60132684521523
 33
0.0
  0
INSERT
  5
2CA
  8
0
  2
*U54
 10
0.0
 20
0.0
 30
0.0
  0
POINT
  5
2CB
  8
DEFPOINTS
  6
BYBLOCK
 62
     0
 10
3091.2543374724478
 20
1419.601326845215
 30
0.0
  0
POINT
  5
2CC
  8
DEFPOINTS
  6
BYBLOCK
 62
     0
 10
3168.4043374724479
 20
439.60132684521523
 30
0.0
  0
POINT
  5
2CD
  8
DEFPOINTS
  6
BYBLOCK
 62
     0
 10
3508.4043374724479
 20
439.60132684521523
 30
0.0
  0
ENDBLK
  5
2CF
  8
0
  0
BLOCK
  8
0
  2
*D19
 70
     1
 10
0.0
 20
0.0
 30
0.0
  3
*D19
  1

  0
LINE
  5
2D1
  8
0
  6
BYBLOCK
 10
3238.7543374724478
 20
695.60132684521523
 30
0.0
 11
3328.4043374724479
 21
695.60132684521523
 31
0.0
  0
LINE
  5
2D2
  8
0
  6
BYBLOCK
 10
3238.7543374724478
 20
689.60132684521545
 30
0.0
 11
3328.4043374724479
 21
689.60132684521545
 31
0.0
  0
LINE
  5
2D3
  8
0
  6
BYBLOCK
 10
3318.4043374724479
 20
715.60132684521523
 30
0.0
 11
3318.4043374724479
 21
735.60132684521511
 31
0.0
  0
LINE
  5
2D4
  8
0
  6
BYBLOCK
 10
3318.4043374724479
 20
669.60132684521545
 30
0.0
 11
3318.4043374724479
 21
649.60132684521545
 31
0.0
  0
INSERT
  5
2D5
  8
0
  2
*U55
 10
0.0
 20
0.0
 30
0.0
  0
LINE
  5
2D6
  8
0
  6
BYBLOCK
 10
3318.4043374724479
 20
695.60132684521523
 30
0.0
 11
3318.4043374724479
 21
689.60132684521545
 31
0.0
  0
SOLID
  5
2D7
  8
0
  6
BYBLOCK
 10
3315.0710041391139
 20
715.60132684521523
 30
0.0
 11
3321.7376708057809
 21
715.60132684521523
 31
0.0
 12
3318.4043374724479
 22
695.60132684521523
 32
0.0
 13
3318.4043374724479
 23
695.60132684521523
 33
0.0
  0
SOLID
  5
2D8
  8
0
  6
BYBLOCK
 10
3315.0710041391139
 20
669.60132684521545
 30
0.0
 11
3321.7376708057809
 21
669.60132684521545
 31
0.0
 12
3318.4043374724479
 22
689.60132684521545
 32
0.0
 13
3318.4043374724479
 23
689.60132684521545
 33
0.0
  0
POINT
  5
2D9
  8
DEFPOINTS
  6
BYBLOCK
 62
     0
 10
3228.7543374724478
 20
695.60132684521523
 30
0.0
  0
POINT
  5
2DA
  8
DEFPOINTS
  6
BYBLOCK
 62
     0
 10
3228.7543374724478
 20
689.60132684521545
 30
0.0
  0
POINT
  5
2DB
  8
DEFPOINTS
  6
BYBLOCK
 62
     0
 10
3318.4043374724479
 20
689.60132684521545
 30
0.0
  0
ENDBLK
  5
2DD
  8
0
  0
BLOCK
  8
0
  2
*D20
 70
     1
 10
0.0
 20
0.0
 30
0.0
  3
*D20
  1

  0
LINE
  5
2DF
  8
0
  6
BYBLOCK
 10
3178.4043374724479
 20
439.60132684521523
 30
0.0
 11
3403.4043374724479
 21
439.60132684521523
 31
0.0
  0
LINE
  5
2E0
  8
0
  6
BYBLOCK
 10
3495.8043233460648
 20
689.60134674956635
 30
0.0
 11
3383.4043374724479
 21
689.60134674956635
 31
0.0
  0
LINE
  5
2E1
  8
0
  6
BYBLOCK
 10
3393.4043374724479
 20
459.60132684521523
 30
0.0
 11
3393.4043374724479
 21
669.60134674956635
 31
0.0
  0
SOLID
  5
2E2
  8
0
  6
BYBLOCK
 10
3390.0710041391148
 20
459.60132684521523
 30
0.0
 11
3396.7376708057809
 21
459.60132684521523
 31
0.0
 12
3393.4043374724479
 22
439.60132684521523
 32
0.0
 13
3393.4043374724479
 23
439.60132684521523
 33
0.0
  0
SOLID
  5
2E3
  8
0
  6
BYBLOCK
 10
3390.0710041391148
 20
669.60134674956635
 30
0.0
 11
3396.7376708057809
 21
669.60134674956635
 31
0.0
 12
3393.4043374724479
 22
689.60134674956635
 32
0.0
 13
3393.4043374724479
 23
689.60134674956635
 33
0.0
  0
INSERT
  5
2E4
  8
0
  2
*U56
 10
0.0
 20
0.0
 30
0.0
  0
POINT
  5
2E5
  8
DEFPOINTS
  6
BYBLOCK
 62
     0
 10
3168.4043374724479
 20
439.60132684521523
 30
0.0
  0
POINT
  5
2E6
  8
DEFPOINTS
  6
BYBLOCK
 62
     0
 10
3505.8043233460648
 20
689.60134674956635
 30
0.0
  0
POINT
  5
2E7
  8
DEFPOINTS
  6
BYBLOCK
 62
     0
 10
3393.4043374724479
 20
689.60134674956635
 30
0.0
  0
ENDBLK
  5
2E9
  8
0
  0
BLOCK
  8
0
  2
YH1D
 70
     0
 10
0.0
 20
0.0
 30
0.0
  3
YH1D
  1

  0
LINE
  5
2EC
  8
SJC
 10
246.5434724811366
 20
989.60132684521557
 30
0.0
 11
589.10433747244849
 21
989.60132684521545
 31
0.0
  0
LINE
  5
2ED
  8
SJC
 10
389.10433747244861
 20
909.95133032736828
 30
0.0
 11
468.75434524195998
 21
989.60132684521545
 31
0.0
  0
LINE
  5
2EE
  8
SJC
 10
389.10433747244861
 20
933.95133032736828
 30
0.0
 11
444.75434185162737
 21
989.60132684521557
 31
0.0
  0
LINE
  5
2EF
  8
SJC
 10
789.10433747244849
 20
974.70130846679251
 30
0.0
 11
707.60433747244815
 21
893.20131997979354
 31
0.0
  0
LINE
  5
2F0
  8
SJC
 10
789.10433747244849
 20
986.70130846679183
 30
0.0
 11
707.60433747244815
 21
905.20131997979354
 31
0.0
  0
LINE
  5
2F1
  8
SJC
 10
780.00435456537446
 20
989.60132684521545
 30
0.0
 11
707.60433747244815
 21
917.20131997979286
 31
0.0
  0
LINE
  5
2F2
  8
SJC
 10
531.95433747244897
 20
1699.601326845215
 30
0.0
 11
531.95433747244897
 21
539.60132684521523
 31
0.0
  0
LINE
  5
2F3
  8
SJC
 10
646.25433747244824
 20
1699.601326845215
 30
0.0
 11
646.25433747244824
 21
739.60132684521523
 31
0.0
  0
LINE
  5
2F4
  8
SJC
 10
531.95433747244851
 20
1699.601326845215
 30
0.0
 11
642.25433747244824
 21
1699.601326845215
 31
0.0
  0
DIMENSION
  5
2F5
  8
SUNPOU
  2
*D8
 10
1350.0417798954329
 20
539.60132684521523
 30
0.0
 11
1320.0417798954329
 21
1129.601326845215
 31
0.0
 70
     0
  3
SJC
 13
589.10433747244815
 23
1719.601326845215
 33
0.0
 14
809.10433747244861
 24
539.60132684521523
 34
0.0
 50
270.0
1001
ACAD
1000
DSTYLE
1002
{
1070
   287
1070
     5
1070
    41
1040
20.0
1070
    42
1040
10.0
1070
    43
1040
60.0
1070
    44
1040
10.0
1070
    73
1070
     0
1070
    74
1070
     0
1070
    77
1070
     1
1070
    78
1070
     8
1070
   140
1040
30.0
1070
   147
1040
15.0
1070
   172
1070
     1
1070
   176
1070
   256
1070
   177
1070
   256
1070
   178
1070
   256
1070
   271
1070
     1
1070
   275
1070
     1
1070
   279
1070
     2
1070
   340
1005
17C
1002
}
  0
DIMENSION
  5
2F6
  8
SUNPOU
  2
*D7
 10
1200.0417798954329
 20
989.60134674956635
 30
0.0
 11
1170.0417798954329
 21
1354.601336797391
 31
0.0
 70
     0
  3
SJC
 13
589.10433747244815
 23
1719.601326845215
 33
0.0
 14
1200.0417798954329
 24
989.60134674956635
 34
0.0
 50
270.0
1001
ACAD
1000
DSTYLE
1002
{
1070
   287
1070
     5
1070
    41
1040
20.0
1070
    42
1040
10.0
1070
    43
1040
60.0
1070
    44
1040
10.0
1070
    73
1070
     0
1070
    74
1070
     0
1070
    77
1070
     1
1070
    78
1070
     8
1070
   140
1040
30.0
1070
   147
1040
15.0
1070
   172
1070
     1
1070
   176
1070
   256
1070
   177
1070
   256
1070
   178
1070
   256
1070
   271
1070
     1
1070
   275
1070
     1
1070
   279
1070
     2
1070
   340
1005
17C
1002
}
  0
DIMENSION
  5
2F7
  8
SUNPOU
  2
*D9
 10
1200.0417798954329
 20
989.60134674956635
 30
0.0
 11
1170.0417798954329
 21
764.60133679739079
 31
0.0
 70
     0
  3
SJC
 13
809.10433747244861
 23
539.60132684521523
 33
0.0
 14
1200.0417798954329
 24
989.60134674956635
 34
0.0
 50
270.0
1001
ACAD
1000
DSTYLE
1002
{
1070
   287
1070
     5
1070
    41
1040
20.0
1070
    42
1040
10.0
1070
    43
1040
60.0
1070
    44
1040
10.0
1070
    73
1070
     0
1070
    74
1070
     0
1070
    77
1070
     1
1070
    78
1070
     8
1070
   140
1040
30.0
1070
   147
1040
15.0
1070
   172
1070
     1
1070
   176
1070
   256
1070
   177
1070
   256
1070
   178
1070
   256
1070
   271
1070
     1
1070
   275
1070
     1
1070
   279
1070
     2
1070
   340
1005
17C
1002
}
  0
TEXT
  5
2F8
  8
MOJI
 10
720.18937465213298
 20
2322.1926630316411
 30
0.0
 40
40.0
  1
YH-1D
 41
0.8
  7
KANJI08
  0
LINE
  5
2F9
  8
MOJI
 10
690.18937465213298
 20
2302.1926630316411
 30
0.0
 11
905.91312400046991
 21
2302.1926630316411
 31
0.0
  0
LINE
  5
2FA
  8
SJC
 10
389.10433747244861
 20
989.60132684521523
 30
0.0
 11
389.10433747244861
 21
539.60132684521523
 31
0.0
  0
LINE
  5
2FB
  8
SJC
 10
789.10433747244849
 20
989.60132684521523
 30
0.0
 11
789.10433747244895
 21
539.60132684521523
 31
0.0
  0
DIMENSION
  5
2FC
  8
SUNPOU
  2
*D10
 10
789.10433747244849
 20
404.60132684521523
 30
0.0
 11
589.10433747244849
 21
434.60132684521523
 31
0.0
 70
     0
  1
□400
  3
SJC
 13
389.10433747244861
 23
524.60132684521523
 33
0.0
 14
789.10433747244849
 24
524.60132684521523
 34
0.0
1001
ACAD
1000
DSTYLE
1002
{
1070
   287
1070
     5
1070
    41
1040
20.0
1070
    42
1040
10.0
1070
    43
1040
60.0
1070
    44
1040
10.0
1070
    73
1070
     0
1070
    74
1070
     0
1070
    77
1070
     1
1070
    78
1070
     8
1070
   140
1040
30.0
1070
   147
1040
15.0
1070
   172
1070
     1
1070
   176
1070
   256
1070
   177
1070
   256
1070
   178
1070
   256
1070
   271
1070
     1
1070
   275
1070
     1
1070
   279
1070
     2
1070
   340
1005
17C
1002
}
  0
LINE
  5
2FD
  8
SJC
 10
789.10433747244895
 20
629.60132967049185
 30
0.0
 11
699.10432193342638
 21
539.60132684521523
 31
0.0
  0
LINE
  5
2FE
  8
SJC
 10
789.10433747244895
 20
641.60132967049185
 30
0.0
 11
687.10432023826058
 21
539.60132684521523
 31
0.0
  0
LINE
  5
2FF
  8
SJC
 10
789.10433747244895
 20
653.60132967049185
 30
0.0
 11
675.10431854309525
 21
539.60132684521523
 31
0.0
  0
LINE
  5
300
  8
SJC
 10
507.20433747244891
 20
539.60132684521523
 30
0.0
 11
531.95433747244897
 21
564.35132684521545
 31
0.0
  0
LINE
  5
301
  8
SJC
 10
659.00433747244824
 20
681.40132684521495
 30
0.0
 11
789.10433747244849
 21
811.50132684521475
 31
0.0
  0
LINE
  5
302
  8
SJC
 10
659.00433747244824
 20
693.4013268452145
 30
0.0
 11
789.10433747244895
 21
823.50132684521509
 31
0.0
  0
LINE
  5
303
  8
SJC
 10
659.00433747244824
 20
669.40132684521495
 30
0.0
 11
789.10433747244849
 21
799.50132684521475
 31
0.0
  0
LINE
  5
304
  8
SJC
 10
531.95433747244897
 20
717.55134479278411
 30
0.0
 11
389.10433747244861
 21
574.70136497232033
 31
0.0
  0
LINE
  5
305
  8
SJC
 10
531.95433747244897
 20
729.55134479278456
 30
0.0
 11
389.10433747244861
 21
586.70136497232136
 31
0.0
  0
LINE
  5
306
  8
SJC
 10
531.95433747244897
 20
741.55134479278422
 30
0.0
 11
389.10433747244861
 21
598.70136497232124
 31
0.0
  0
LINE
  5
307
  8
SJC
 10
531.95433747244897
 20
906.35132504410149
 30
0.0
 11
519.20433747244886
 21
893.60132684521523
 31
0.0
  0
LINE
  5
308
  8
SJC
 10
531.95433747244897
 20
894.3513250441016
 30
0.0
 11
389.10433747244861
 21
751.5013452236384
 31
0.0
  0
LINE
  5
309
  8
SJC
 10
531.95433747244897
 20
882.35132504410103
 30
0.0
 11
389.10433747244861
 21
739.50134522363737
 31
0.0
  0
ARC
  5
30A
  8
SJC
 10
589.10433747244849
 20
1627.948264345217
 30
0.0
 40
91.653062499998384
 50
51.424373327754822
 51
128.57562667224511
  0
LINE
  5
30B
  8
SJC
 10
389.10433747244861
 20
539.60132684521523
 30
0.0
 11
789.10433747244849
 21
539.60132684521523
 31
0.0
  0
LINE
  5
30C
  8
SJC
 10
466.604337472449
 20
995.60132684521511
 30
0.0
 11
466.60433747244861
 21
989.60132684521523
 31
0.0
  0
LINE
  5
30D
  8
SJC
 10
711.60433747244861
 20
995.60132684521511
 30
0.0
 11
711.60433747244861
 21
989.60132684521523
 31
0.0
  0
LINE
  5
30E
  8
SJC
 10
466.604337472449
 20
995.60132684521511
 30
0.0
 11
589.10433747244849
 21
995.60132684521511
 31
0.0
  0
LINE
  5
30F
  8
CENTER
 10
589.10433747244849
 20
1799.601326845215
 30
0.0
 11
589.10433747244849
 21
539.60132684521523
 31
0.0
  0
TEXT
  5
310
  8
MOJI
 10
267.11970192748322
 20
999.37390730172285
 30
0.0
 40
30.0
  1
GL
 41
0.8
  7
KANJI08
  0
LINE
  5
311
  8
MOJI
 10
646.25433747244824
 20
1394.601326845215
 30
0.0
 11
716.25433747244824
 21
1524.601326845215
 31
0.0
  0
LINE
  5
312
  8
MOJI
 10
716.25433747244824
 20
1524.601326845215
 30
0.0
 11
987.91395747910963
 21
1524.601326845215
 31
0.0
  0
TEXT
  5
313
  8
MOJI
 10
736.22204964498815
 20
1534.3945709586951
 30
0.0
 40
30.0
  1
支柱%%c114.3×t4
 41
0.8
  7
KANJI08
  0
TEXT
  5
314
  8
MOJI
 10
816.00603551547738
 20
1484.771706225655
 30
0.0
 40
30.0
  1
SUS304
 41
0.8
  7
KANJI08
  0
LINE
  5
315
  8
CENTER
 10
494.10433747244849
 20
1015.601326845215
 30
0.0
 11
494.10433747244849
 21
950.60132684521545
 31
0.0
  0
LINE
  5
316
  8
CENTER
 10
684.10433747244861
 20
1015.601326845215
 30
0.0
 11
684.10433747244861
 21
950.60132684521545
 31
0.0
  0
LINE
  5
317
  8
SJC
 10
482.10433747244861
 20
1005.601326845215
 30
0.0
 11
506.10433747244849
 21
1005.601326845215
 31
0.0
  0
LINE
  5
318
  8
SJC
 10
672.10433747244849
 20
1005.601326845215
 30
0.0
 11
696.10433747244861
 21
1005.601326845215
 31
0.0
  0
LINE
  5
319
  8
MOJI
 10
684.10433747244861
 20
1005.601326845215
 30
0.0
 11
764.02951732856309
 21
1149.601326845215
 31
0.0
  0
LINE
  5
31A
  8
MOJI
 10
764.02951732856309
 20
1149.601326845215
 30
0.0
 11
1030.2489215343969
 21
1149.601326845215
 31
0.0
  0
TEXT
  5
31B
  8
MOJI
 10
771.10701749653936
 20
1159.7445221564319
 30
0.0
 40
30.0
  1
ボルト M16×30
 41
0.8
  7
KANJI08
  0
LINE
  5
31C
  8
SJC
 10
389.10433747244861
 20
921.9513303273684
 30
0.0
 11
456.75434354679322
 21
989.60132684521557
 31
0.0
  0
LINE
  5
31D
  8
CENTER
 10
1994.1043374724491
 20
1109.601326845215
 30
0.0
 11
1994.1043374724491
 21
539.60132684521523
 31
0.0
  0
LINE
  5
31E
  8
CENTER
 10
1796.6043374724491
 20
1964.601326845215
 30
0.0
 11
2191.6043374724491
 21
1964.601326845215
 31
0.0
  0
CIRCLE
  5
31F
  8
SJC
 10
1994.1043374724491
 20
1964.601326845215
 30
0.0
 40
122.5
  0
LINE
  5
320
  8
CENTER
 10
1994.1043374724491
 20
2162.1013268452152
 30
0.0
 11
1994.1043374724491
 21
1767.101326845215
 31
0.0
  0
DIMENSION
  5
321
  8
SUNPOU
  2
*D5
 10
2089.1043374724482
 20
2184.6013268452161
 30
0.0
 11
1994.1043374724491
 21
2214.6013268452152
 31
0.0
 70
     0
  3
SJC
 13
1899.1043374724491
 23
2009.851326845215
 33
0.0
 14
2089.1043374724482
 24
2009.851326845215
 34
0.0
1001
ACAD
1000
DSTYLE
1002
{
1070
   287
1070
     5
1070
    41
1040
20.0
1070
    42
1040
10.0
1070
    43
1040
60.0
1070
    44
1040
10.0
1070
    73
1070
     0
1070
    74
1070
     0
1070
    77
1070
     1
1070
    78
1070
     8
1070
   140
1040
30.0
1070
   147
1040
15.0
1070
   172
1070
     1
1070
   176
1070
   256
1070
   177
1070
   256
1070
   178
1070
   256
1070
   271
1070
     1
1070
   275
1070
     1
1070
   279
1070
     2
1070
   340
1005
17C
1002
}
  0
LINE
  5
322
  8
CENTER
 10
1899.1043374724491
 20
1994.851326845215
 30
0.0
 11
1899.1043374724491
 21
1934.351326845215
 31
0.0
  0
LINE
  5
323
  8
CENTER
 10
2089.1043374724482
 20
1994.851326845215
 30
0.0
 11
2089.1043374724482
 21
1934.351326845215
 31
0.0
  0
LINE
  5
324
  8
SJC
 10
1544.1043374724491
 20
989.60132684521557
 30
0.0
 11
2449.1043374724482
 21
989.60132684521523
 31
0.0
  0
LINE
  5
325
  8
SJC
 10
1924.204337472449
 20
704.80134659389785
 30
0.0
 11
1794.1043374724491
 21
574.70136497232033
 31
0.0
  0
LINE
  5
326
  8
SJC
 10
1924.204337472449
 20
716.80134659389876
 30
0.0
 11
1794.1043374724491
 21
586.70136497232136
 31
0.0
  0
LINE
  5
327
  8
SJC
 10
1924.204337472449
 20
728.80134659389807
 30
0.0
 11
1794.1043374724491
 21
598.70136497232124
 31
0.0
  0
LINE
  5
328
  8
SJC
 10
1920.204336907394
 20
889.60132684521545
 30
0.0
 11
1794.1043374724491
 21
763.50134522363828
 31
0.0
  0
LINE
  5
329
  8
SJC
 10
1924.204337472449
 20
881.60132684521557
 30
0.0
 11
1794.1043374724491
 21
751.5013452236384
 31
0.0
  0
LINE
  5
32A
  8
SJC
 10
1924.204337472449
 20
869.60132684521477
 30
0.0
 11
1794.1043374724491
 21
739.50134522363737
 31
0.0
  0
LINE
  5
32B
  8
SJC
 10
1794.1043374724491
 20
539.60132684521523
 30
0.0
 11
2194.1043374724491
 21
539.60132684521523
 31
0.0
  0
LINE
  5
32C
  8
SJC
 10
1871.6043374724491
 20
985.10132684521523
 30
0.0
 11
2116.6043374724491
 21
985.10132684521523
 31
0.0
  0
LINE
  5
32D
  8
SJC
 10
1794.1043374724491
 20
989.60132684521523
 30
0.0
 11
1794.1043374724491
 21
539.60132684521523
 31
0.0
  0
TEXT
  5
32E
  8
MOJI
 10
1594.192778843885
 20
999.37390730172285
 30
0.0
 40
30.0
  1
GL
 41
0.8
  7
KANJI08
  0
LINE
  5
32F
  8
SJC
 10
1794.1043374724491
 20
909.95133032736828
 30
0.0
 11
1871.6043374724491
 21
987.45131937942301
 31
0.0
  0
LINE
  5
330
  8
SJC
 10
1794.1043374724491
 20
933.95133032736828
 30
0.0
 11
1849.754341851627
 21
989.60132684521557
 31
0.0
  0
LINE
  5
331
  8
SJC
 10
1794.1043374724491
 20
921.9513303273684
 30
0.0
 11
1861.7543435467931
 21
989.60132684521557
 31
0.0
  0
LINE
  5
332
  8
SJC
 10
1871.6043374724491
 20
989.60132684521523
 30
0.0
 11
1871.6043374724491
 21
985.10132684521523
 31
0.0
  0
LINE
  5
333
  8
SJC
 10
2194.1043374724491
 20
989.60132684521523
 30
0.0
 11
2194.1043374724491
 21
539.60132684521523
 31
0.0
  0
LINE
  5
334
  8
SJC
 10
2194.1043374724491
 20
629.60132967049185
 30
0.0
 11
2104.1043219334269
 21
539.60132684521523
 31
0.0
  0
LINE
  5
335
  8
SJC
 10
2194.1043374724491
 20
641.60132967049185
 30
0.0
 11
2092.1043202382612
 21
539.60132684521523
 31
0.0
  0
LINE
  5
336
  8
SJC
 10
2194.1043374724491
 20
653.60132967049185
 30
0.0
 11
2080.1043185430949
 21
539.60132684521523
 31
0.0
  0
LINE
  5
337
  8
SJC
 10
1912.204337472449
 20
539.60132684521523
 30
0.0
 11
1924.204337472449
 21
551.60132684521545
 31
0.0
  0
LINE
  5
338
  8
SJC
 10
2194.1043374724491
 20
974.70130846679251
 30
0.0
 11
2112.6043374724482
 21
893.2013199797932
 31
0.0
  0
LINE
  5
339
  8
SJC
 10
2064.0043374724478
 20
681.40132684521495
 30
0.0
 11
2194.1043374724491
 21
811.50132684521475
 31
0.0
  0
LINE
  5
33A
  8
SJC
 10
2064.0043374724478
 20
693.4013268452145
 30
0.0
 11
2194.1043374724491
 21
823.50132684521509
 31
0.0
  0
LINE
  5
33B
  8
SJC
 10
2064.0043374724478
 20
669.40132684521518
 30
0.0
 11
2194.1043374724491
 21
799.50132684521475
 31
0.0
  0
LINE
  5
33C
  8
CENTER
 10
1899.1043374724491
 20
1004.601326845215
 30
0.0
 11
1899.1043374724491
 21
939.60132684521545
 31
0.0
  0
LINE
  5
33D
  8
SJC
 10
2194.1043374724491
 20
986.70130846679183
 30
0.0
 11
2112.6043374724482
 21
905.20131997979286
 31
0.0
  0
LINE
  5
33E
  8
SJC
 10
2185.0043545653748
 20
989.60132684521545
 30
0.0
 11
2112.6043374724482
 21
917.20131997979252
 31
0.0
  0
LINE
  5
33F
  8
CENTER
 10
2089.1043374724482
 20
1004.601326845215
 30
0.0
 11
2089.1043374724482
 21
939.60132684521545
 31
0.0
  0
LINE
  5
340
  8
SJC
 10
2116.6043374724491
 20
989.60132684521523
 30
0.0
 11
2116.6043374724491
 21
985.10132684521523
 31
0.0
  0
LINE
  5
341
  8
CENTER
 10
2891.2543374724478
 20
1964.601326845215
 30
0.0
 11
3291.2543374724478
 21
1964.601326845215
 31
0.0
  0
CIRCLE
  5
342
  8
SJC
 10
3091.2543374724492
 20
1964.601326845215
 30
0.0
 40
122.5
  0
LINE
  5
343
  8
CENTER
 10
3091.2543374724492
 20
2169.6013268452161
 30
0.0
 11
3091.2543374724478
 21
1820.2686520877951
 31
0.0
  0
DIMENSION
  5
344
  8
SUNPOU
  2
*D6
 10
3186.2543374724492
 20
2184.6013268452161
 30
0.0
 11
3091.2543374724478
 21
2214.6013268452152
 31
0.0
 70
     0
  3
SJC
 13
2996.2543374724478
 23
2009.851326845215
 33
0.0
 14
3186.2543374724492
 24
2009.851326845215
 34
0.0
1001
ACAD
1000
DSTYLE
1002
{
1070
   287
1070
     5
1070
    41
1040
20.0
1070
    42
1040
10.0
1070
    43
1040
60.0
1070
    44
1040
10.0
1070
    73
1070
     0
1070
    74
1070
     0
1070
    77
1070
     1
1070
    78
1070
     8
1070
   140
1040
30.0
1070
   147
1040
15.0
1070
   172
1070
     1
1070
   176
1070
   256
1070
   177
1070
   256
1070
   178
1070
   256
1070
   271
1070
     1
1070
   275
1070
     1
1070
   279
1070
     2
1070
   340
1005
17C
1002
}
  0
CIRCLE
  5
345
  8
SJC
 10
3091.2543374724492
 20
1964.601326845215
 30
0.0
 40
57.149999999999991
  0
LINE
  5
346
  8
CENTER
 10
2996.2543374724478
 20
1994.851326845215
 30
0.0
 11
2996.2543374724478
 21
1934.351326845215
 31
0.0
  0
LINE
  5
347
  8
CENTER
 10
3186.2543374724492
 20
1994.851326845215
 30
0.0
 11
3186.2543374724492
 21
1934.351326845215
 31
0.0
  0
LINE
  5
348
  8
CENTER
 10
3091.2543374724478
 20
1499.601326845215
 30
0.0
 11
3091.2543374724492
 21
439.60132684521523
 31
0.0
  0
ARC
  5
349
  8
SJC
 10
3091.2543374724478
 20
1327.948264345217
 30
0.0
 40
91.653062499998384
 50
51.424373327754822
 51
128.57562667224511
  0
LINE
  5
34A
  8
SJC
 10
3034.1043374724491
 20
1399.601326845215
 30
0.0
 11
3034.1043374724491
 21
439.60132684521523
 31
0.0
  0
LINE
  5
34B
  8
SJC
 10
3034.1043374724482
 20
1399.601326845215
 30
0.0
 11
3148.404337472447
 21
1399.601326845215
 31
0.0
  0
LINE
  5
34C
  8
SJC
 10
3148.4043374724479
 20
1399.601326845215
 30
0.0
 11
3148.4043374724479
 21
439.60132684521523
 31
0.0
  0
DIMENSION
  5
34D
  8
SUNPOU
  2
*D18
 10
3508.4043374724479
 20
439.60132684521523
 30
0.0
 11
3478.4043374724479
 21
929.60132684521534
 31
0.0
 70
     0
  3
SJC
 13
3091.2543374724478
 23
1419.601326845215
 33
0.0
 14
3168.4043374724479
 24
439.60132684521523
 34
0.0
 50
270.0
1001
ACAD
1000
DSTYLE
1002
{
1070
   287
1070
     5
1070
    41
1040
20.0
1070
    42
1040
10.0
1070
    43
1040
60.0
1070
    44
1040
10.0
1070
    73
1070
     0
1070
    74
1070
     0
1070
    77
1070
     1
1070
    78
1070
     8
1070
   140
1040
30.0
1070
   147
1040
15.0
1070
   172
1070
     1
1070
   176
1070
   256
1070
   177
1070
   256
1070
   178
1070
   256
1070
   271
1070
     1
1070
   275
1070
     1
1070
   279
1070
     2
1070
   340
1005
17C
1002
}
  0
DIMENSION
  5
34E
  8
SUNPOU
  2
*D17
 10
3393.4043374724479
 20
689.60134674956635
 30
0.0
 11
3363.4043374724479
 21
1054.6013367973901
 31
0.0
 70
     0
  3
SJC
 13
3091.2543374724478
 23
1419.601326845215
 33
0.0
 14
3505.8043233460648
 24
689.60134674956635
 34
0.0
 50
270.0
1001
ACAD
1000
DSTYLE
1002
{
1070
   287
1070
     5
1070
    41
1040
20.0
1070
    42
1040
10.0
1070
    43
1040
60.0
1070
    44
1040
10.0
1070
    73
1070
     0
1070
    74
1070
     0
1070
    77
1070
     1
1070
    78
1070
     8
1070
   140
1040
30.0
1070
   147
1040
15.0
1070
   172
1070
     1
1070
   176
1070
   256
1070
   177
1070
   256
1070
   178
1070
   256
1070
   271
1070
     1
1070
   275
1070
     1
1070
   279
1070
     2
1070
   340
1005
17C
1002
}
  0
DIMENSION
  5
34F
  8
SUNPOU
  2
*D20
 10
3393.4043374724479
 20
689.60134674956635
 30
0.0
 11
3363.4043374724479
 21
564.60133679739079
 31
0.0
 70
     0
  3
SJC
 13
3168.4043374724479
 23
439.60132684521523
 33
0.0
 14
3505.8043233460648
 24
689.60134674956635
 34
0.0
 50
270.0
1001
ACAD
1000
DSTYLE
1002
{
1070
   287
1070
     5
1070
    41
1040
20.0
1070
    42
1040
10.0
1070
    43
1040
60.0
1070
    44
1040
10.0
1070
    73
1070
     0
1070
    74
1070
     0
1070
    77
1070
     1
1070
    78
1070
     8
1070
   140
1040
30.0
1070
   147
1040
15.0
1070
   172
1070
     1
1070
   176
1070
   256
1070
   177
1070
   256
1070
   178
1070
   256
1070
   271
1070
     1
1070
   275
1070
     1
1070
   279
1070
     2
1070
   340
1005
17C
1002
}
  0
LINE
  5
350
  8
SJC
 10
2968.7543374724492
 20
689.60132684521545
 30
0.0
 11
3443.4043374724479
 21
689.60132684521523
 31
0.0
  0
DIMENSION
  5
351
  8
SUNPOU
  2
*D19
 10
3318.4043374724479
 20
689.60132684521545
 30
0.0
 11
3292.6740889326411
 21
718.50335496230673
 31
0.0
 70
   128
  3
SJC
 13
3228.7543374724478
 23
695.60132684521523
 33
0.0
 14
3228.7543374724478
 24
689.60132684521545
 34
0.0
 50
90.0
1001
ACAD
1000
DSTYLE
1002
{
1070
   287
1070
     5
1070
    41
1040
20.0
1070
    42
1040
10.0
1070
    43
1040
60.0
1070
    44
1040
10.0
1070
    73
1070
     0
1070
    74
1070
     0
1070
    77
1070
     1
1070
    78
1070
     8
1070
   140
1040
30.0
1070
   147
1040
15.0
1070
   172
1070
     1
1070
   176
1070
   256
1070
   177
1070
   256
1070
   178
1070
   256
1070
   271
1070
     1
1070
   275
1070
     1
1070
   279
1070
     2
1070
   340
1005
17C
1002
}
  0
LINE
  5
352
  8
SJC
 10
2968.7543374724492
 20
695.60132684521523
 30
0.0
 11
3213.7543374724478
 21
695.60132684521523
 31
0.0
  0
LINE
  5
353
  8
SJC
 10
2968.7543374724492
 20
695.60132684521523
 30
0.0
 11
2968.7543374724492
 21
689.60132684521523
 31
0.0
  0
LINE
  5
354
  8
CENTER
 10
2996.2543374724478
 20
710.60132684521511
 30
0.0
 11
2996.2543374724478
 21
645.60132684521545
 31
0.0
  0
LINE
  5
355
  8
CENTER
 10
3186.2543374724478
 20
710.60132684521511
 30
0.0
 11
3186.2543374724492
 21
645.60132684521545
 31
0.0
  0
LINE
  5
356
  8
SJC
 10
3213.7543374724478
 20
695.60132684521523
 30
0.0
 11
3213.7543374724478
 21
689.60132684521523
 31
0.0
  0
LINE
  5
357
  8
MOJI
 10
2879.1043374724491
 20
790.60132684521545
 30
0.0
 11
2914.1043374724491
 21
830.60132684521534
 31
0.0
  0
LINE
  5
358
  8
MOJI
 10
2959.1043374724491
 20
830.60132684521534
 30
0.0
 11
2819.1043374724491
 21
830.60132684521534
 31
0.0
  0
LINE
  5
359
  8
MOJI
 10
2879.1043374724491
 20
830.60132684521534
 30
0.0
 11
2879.1043374724491
 21
790.60132684521545
 31
0.0
  0
TEXT
  5
35A
  8
MOJI
 10
2830.4161123497229
 20
794.20901548678989
 30
0.0
 40
30.0
  1
3
 41
0.8
  7
KANJI08
  0
CIRCLE
  5
35B
  8
MOJI
 10
2959.1043374724491
 20
830.60132684521534
 30
0.0
 40
10.0
  0
CIRCLE
  5
35C
  8
HASEN
 10
1899.1043374724491
 20
1964.601326845215
 30
0.0
 40
24.300000000000001
  0
CIRCLE
  5
35D
  8
HASEN
 10
2089.1043374724482
 20
1964.601326845215
 30
0.0
 40
24.300000000000001
  0
CIRCLE
  5
35E
  8
SJC
 10
2996.2543374724478
 20
1964.601326845215
 30
0.0
 40
9.0
  0
CIRCLE
  5
35F
  8
SJC
 10
3186.2543374724492
 20
1964.601326845215
 30
0.0
 40
9.0
  0
LINE
  5
360
  8
MOJI
 10
3286.4741176922289
 20
2069.6013268452152
 30
0.0
 11
3421.3070371396439
 21
2069.6013268452152
 31
0.0
  0
TEXT
  5
361
  8
MOJI
 10
3291.075814328768
 20
2079.5051927774762
 30
0.0
 40
30.0
  1
2-%%c18
 41
0.8
  7
KANJI08
  0
LINE
  5
362
  8
SJC
 10
3034.1043374724491
 20
439.60132684521523
 30
0.0
 11
3148.4043374724479
 21
439.60132684521523
 31
0.0
  0
LINE
  5
363
  8
MOJI
 10
3034.1043374724491
 20
930.60132684521534
 30
0.0
 11
2959.1043374724491
 21
1060.601326845215
 31
0.0
  0
LINE
  5
364
  8
MOJI
 10
2959.1043374724491
 20
1060.601326845215
 30
0.0
 11
2617.1043284292168
 21
1060.601326845215
 31
0.0
  0
LINE
  5
365
  8
MOJI
 10
3034.1043374724491
 20
695.60132684521523
 30
0.0
 11
2959.1043374724491
 21
830.60132684521534
 31
0.0
  0
LINE
  5
366
  8
MOJI
 10
2968.7543374724492
 20
689.60132684521545
 30
0.0
 11
2879.1043374724491
 21
589.60132684521545
 31
0.0
  0
LINE
  5
367
  8
MOJI
 10
2879.1043374724491
 20
589.60132684521545
 30
0.0
 11
2517.980392251342
 21
589.60132684521545
 31
0.0
  0
TEXT
  5
368
  8
MOJI
 10
2532.1873899288098
 20
602.80351859203995
 30
0.0
 40
30.0
  1
フランジ %%c245×t6
 41
0.8
  7
KANJI08
  0
LINE
  5
369
  8
SJC
 10
1924.204337472449
 20
985.10132684521523
 30
0.0
 11
1924.204337472449
 21
539.60132684521523
 31
0.0
  0
LINE
  5
36A
  8
SJC
 10
2064.0043374724492
 20
985.10132684521523
 30
0.0
 11
2064.0043374724478
 21
539.60132684521523
 31
0.0
  0
LINE
  5
36B
  8
SJC
 10
2112.6043374724482
 20
985.10132684521523
 30
0.0
 11
2112.6043374724482
 21
889.60132684521545
 31
0.0
  0
LINE
  5
36C
  8
SJC
 10
1875.6043374724491
 20
985.10132684521523
 30
0.0
 11
1875.6043374724491
 21
889.60132684521545
 31
0.0
  0
LINE
  5
36D
  8
SJC
 10
1875.6043374724491
 20
889.60132684521545
 30
0.0
 11
1924.204337472449
 21
889.60132684521545
 31
0.0
  0
LINE
  5
36E
  8
SJC
 10
2064.0043374724492
 20
889.60132684521545
 30
0.0
 11
2112.6043374724482
 21
889.60132684521523
 31
0.0
  0
LINE
  5
36F
  8
SJC
 10
2085.0043404389889
 20
889.60132684521545
 30
0.0
 11
2064.0043374724478
 21
868.60132684521523
 31
0.0
  0
LINE
  5
370
  8
SJC
 10
2097.0043421341552
 20
889.60132684521523
 30
0.0
 11
2064.0043374724492
 21
856.60132684521557
 31
0.0
  0
LINE
  5
371
  8
SJC
 10
2109.004343829321
 20
889.60132684521523
 30
0.0
 11
2064.0043374724492
 21
844.60132684521568
 31
0.0
  0
LINE
  5
372
  8
MOJI
 10
2169.1043374724491
 20
1224.601326845215
 30
0.0
 11
2480.8619425988909
 21
1224.601326845215
 31
0.0
  0
TEXT
  5
373
  8
MOJI
 10
2259.1541554737728
 20
1234.535549665851
 30
0.0
 40
30.0
  1
%%c245×t4.5
 41
0.8
  7
KANJI08
  0
TEXT
  5
374
  8
MOJI
 10
2179.0513990777699
 20
1185.7352651876579
 30
0.0
 40
30.0
  1
SS400(SS41)相当
 41
0.8
  7
KANJI08
  0
LINE
  5
375
  8
SJC
 10
589.10433747244849
 20
739.60132684521523
 30
0.0
 11
646.25433747244824
 21
739.60132684521523
 31
0.0
  0
LINE
  5
376
  8
SJC
 10
659.00433747244824
 20
989.60132684521545
 30
0.0
 11
659.00433747244824
 21
539.60132684521523
 31
0.0
  0
LINE
  5
377
  8
SJC
 10
519.20433747244886
 20
539.60132684521523
 30
0.0
 11
531.95433747244897
 21
552.35132684521523
 31
0.0
  0
LINE
  5
378
  8
SJC
 10
654.50433747244824
 20
989.60132684521523
 30
0.0
 11
676.10433747244861
 21
989.60132684521545
 31
0.0
  0
LINE
  5
379
  8
SJC
 10
646.25433747244824
 20
995.60132684521511
 30
0.0
 11
711.60433747244861
 21
995.60132684521511
 31
0.0
  0
LINE
  5
37A
  8
SJC
 10
470.604337472449
 20
889.60132684521545
 30
0.0
 11
519.20433747244886
 21
889.60132684521545
 31
0.0
  0
LINE
  5
37B
  8
SJC
 10
659.00433747244824
 20
889.60132684521545
 30
0.0
 11
707.60433747244861
 21
889.60132684521545
 31
0.0
  0
LINE
  5
37C
  8
SJC
 10
519.20433747244886
 20
989.60132684521557
 30
0.0
 11
519.20433747244886
 21
889.60132684521545
 31
0.0
  0
LINE
  5
37D
  8
SJC
 10
470.604337472449
 20
989.60132684521557
 30
0.0
 11
470.604337472449
 21
889.60132684521545
 31
0.0
  0
LINE
  5
37E
  8
SJC
 10
707.60433747244815
 20
989.60132684521545
 30
0.0
 11
707.60433747244815
 21
889.60132684521545
 31
0.0
  0
LINE
  5
37F
  8
SJC
 10
515.20433690739401
 20
889.60132684521545
 30
0.0
 11
389.10433747244861
 21
763.50134522363828
 31
0.0
  0
LINE
  5
380
  8
SJC
 10
680.0043404389894
 20
889.60132684521545
 30
0.0
 11
659.00433747244824
 21
868.60132684521523
 31
0.0
  0
LINE
  5
381
  8
SJC
 10
692.00434213415519
 20
889.60132684521545
 30
0.0
 11
659.00433747244824
 21
856.60132684521523
 31
0.0
  0
LINE
  5
382
  8
SJC
 10
704.00434382932144
 20
889.60132684521545
 30
0.0
 11
659.00433747244824
 21
844.60132684521511
 31
0.0
  0
LINE
  5
383
  8
SJC
 10
692.10433747244861
 20
989.60132684521557
 30
0.0
 11
1265.041779895432
 21
989.60132684521523
 31
0.0
  0
LINE
  5
384
  8
MOJI
 10
707.60433747244815
 20
944.60132684521545
 30
0.0
 11
829.10433747244861
 21
819.60132684521545
 31
0.0
  0
LINE
  5
385
  8
MOJI
 10
829.10433747244861
 20
819.60132684521545
 30
0.0
 11
1133.3792767316861
 21
819.60132684521545
 31
0.0
  0
TEXT
  5
386
  8
MOJI
 10
884.37050805760384
 20
829.91983722006307
 30
0.0
 40
30.0
  1
%%c48.6×t2.4
 41
0.8
  7
KANJI08
  0
TEXT
  5
387
  8
MOJI
 10
855.88681699502104
 20
781.32265378461102
 30
0.0
 40
30.0
  1
STK400(STK41)
 41
0.8
  7
KANJI08
  0
TEXT
  5
388
  8
MOJI
 10
843.8484042663739
 20
598.99514193169921
 30
0.0
 40
30.0
  1
STK400(STK41)
 41
0.8
  7
KANJI08
  0
TEXT
  5
389
  8
MOJI
 10
874.1043080576037
 20
659.91983722006296
 30
0.0
 40
30.0
  1
%%c139.8×t4.5
 41
0.8
  7
KANJI08
  0
LINE
  5
38A
  8
MOJI
 10
829.10433747244861
 20
649.60132684521545
 30
0.0
 11
1122.7958114712051
 21
649.60132684521545
 31
0.0
  0
LINE
  5
38B
  8
MOJI
 10
659.00433747244824
 20
824.60132684521523
 30
0.0
 11
829.10433747244861
 21
649.60132684521545
 31
0.0
  0
LINE
  5
38C
  8
MOJI
 10
2030.567219568519
 20
989.60132684521545
 30
0.0
 11
2169.1043374724491
 21
1224.601326845215
 31
0.0
  0
LINE
  5
38D
  8
SJC
 10
642.25433747244824
 20
1699.601326845215
 30
0.0
 11
642.25433747244824
 21
739.60132684521523
 31
0.0
  0
ARC
  5
38E
  8
SJC
 10
589.10433747244849
 20
1619.3224987202159
 30
0.0
 40
96.278828124999364
 50
56.492753398206929
 51
89.999999999999915
  0
LINE
  5
38F
  8
SJC
 10
654.50433747244824
 20
989.60132684521545
 30
0.0
 11
654.50433747244824
 21
539.60132684521523
 31
0.0
  0
LINE
  5
390
  8
SJC
 10
500.10433747244861
 20
1005.601326845215
 30
0.0
 11
500.10433747244861
 21
995.60132684521511
 31
0.0
  0
LINE
  5
391
  8
SJC
 10
488.10433747244861
 20
1005.601326845215
 30
0.0
 11
488.10433747244861
 21
995.60132684521511
 31
0.0
  0
LINE
  5
392
  8
SJC
 10
482.10433747244861
 20
1005.601326845215
 30
0.0
 11
482.10433747244861
 21
995.60132684521511
 31
0.0
  0
LINE
  5
393
  8
SJC
 10
506.10433747244849
 20
1005.601326845215
 30
0.0
 11
506.10433747244849
 21
995.60132684521511
 31
0.0
  0
LINE
  5
394
  8
SJC
 10
676.10433747244861
 20
995.60132684521511
 30
0.0
 11
676.10433747244861
 21
965.60132684521523
 31
0.0
  0
LINE
  5
395
  8
SJC
 10
692.10433747244861
 20
995.60132684521511
 30
0.0
 11
692.10433747244861
 21
965.60132684521523
 31
0.0
  0
LINE
  5
396
  8
SJC
 10
676.10433747244861
 20
965.60132684521523
 30
0.0
 11
692.10433747244861
 21
965.60132684521523
 31
0.0
  0
LINE
  5
397
  8
SJC
 10
678.10433747244861
 20
1005.601326845215
 30
0.0
 11
678.10433747244861
 21
995.60132684521488
 31
0.0
  0
LINE
  5
398
  8
SJC
 10
690.10433747244861
 20
1005.601326845215
 30
0.0
 11
690.10433747244861
 21
995.60132684521488
 31
0.0
  0
LINE
  5
399
  8
SJC
 10
672.10433747244849
 20
1005.601326845215
 30
0.0
 11
672.10433747244849
 21
995.60132684521488
 31
0.0
  0
LINE
  5
39A
  8
SJC
 10
696.10433747244861
 20
1005.601326845215
 30
0.0
 11
696.10433747244861
 21
995.60132684521488
 31
0.0
  0
CIRCLE
  5
39B
  8
SJC
 10
1899.1043374724491
 20
1964.601326845215
 30
0.0
 40
9.0
  0
CIRCLE
  5
39C
  8
SJC
 10
2089.1043374724482
 20
1964.601326845215
 30
0.0
 40
9.0
  0
CIRCLE
  5
39D
  8
SJC
 10
1994.1043374724491
 20
1964.601326845215
 30
0.0
 40
57.149999999999991
  0
INSERT
  5
39E
  8
SJC
  2
1-10BASE
 10
0.0
 20
0.0
 30
0.0
  0
DIMENSION
  5
39F
  8
SUNPOU
  2
*D12
 10
2284.1043374724491
 20
989.60132684521545
 30
0.0
 11
2236.6043374724491
 21
939.60132684521523
 31
0.0
 70
     0
  3
SJC
 13
2114.9168374724482
 23
889.60132684521523
 33
0.0
 14
2284.1043374724491
 24
989.60132684521545
 34
0.0
 50
90.0
1001
ACAD
1000
DSTYLE
1002
{
1070
   287
1070
     5
1070
    41
1040
20.0
1070
    42
1040
10.0
1070
    43
1040
60.0
1070
    44
1040
10.0
1070
    73
1070
     0
1070
    74
1070
     0
1070
    77
1070
     1
1070
    78
1070
     8
1070
   140
1040
30.0
1070
   147
1040
15.0
1070
   172
1070
     1
1070
   176
1070
   256
1070
   177
1070
   256
1070
   178
1070
   256
1070
   271
1070
     1
1070
   275
1070
     1
1070
   279
1070
     2
1070
   340
1005
17C
1002
}
  0
DIMENSION
  5
3A0
  8
SUNPOU
  2
*D11
 10
2394.1043374724491
 20
989.60132684521545
 30
0.0
 11
2364.1043374724491
 21
764.60132684521534
 31
0.0
 70
     0
  3
SJC
 13
2214.2293374724491
 23
539.60132684521523
 33
0.0
 14
2394.1043374724491
 24
989.60132684521545
 34
0.0
 50
90.0
1001
ACAD
1000
DSTYLE
1002
{
1070
   287
1070
     5
1070
    41
1040
20.0
1070
    42
1040
10.0
1070
    43
1040
60.0
1070
    44
1040
10.0
1070
    73
1070
     0
1070
    74
1070
     0
1070
    77
1070
     1
1070
    78
1070
     8
1070
   140
1040
30.0
1070
   147
1040
15.0
1070
   172
1070
     1
1070
   176
1070
   256
1070
   177
1070
   256
1070
   178
1070
   256
1070
   271
1070
     1
1070
   275
1070
     1
1070
   279
1070
     2
1070
   340
1005
17C
1002
}
  0
DIMENSION
  5
3A1
  8
SUNPOU
  2
*D13
 10
2116.6043374724491
 20
1160.601326845215
 30
0.0
 11
1994.1043374724491
 21
1190.601326845215
 31
0.0
 70
     0
  1
%%c245
  3
SJC
 13
1871.6043374724491
 23
1010.663826845215
 33
0.0
 14
2116.6043374724491
 24
1010.663826845215
 34
0.0
1001
ACAD
1000
DSTYLE
1002
{
1070
   287
1070
     5
1070
    41
1040
20.0
1070
    42
1040
10.0
1070
    43
1040
60.0
1070
    44
1040
10.0
1070
    73
1070
     0
1070
    74
1070
     0
1070
    77
1070
     1
1070
    78
1070
     8
1070
   140
1040
30.0
1070
   147
1040
15.0
1070
   172
1070
     1
1070
   176
1070
   256
1070
   177
1070
   256
1070
   178
1070
   256
1070
   271
1070
     1
1070
   275
1070
     1
1070
   279
1070
     2
1070
   340
1005
17C
1002
}
  0
DIMENSION
  5
3A2
  8
SUNPOU
  2
*D16
 10
3213.7543374724492
 20
1654.601326845215
 30
0.0
 11
3091.2543374724492
 21
1684.601326845215
 31
0.0
 70
     0
  1
%%c245
  3
SJC
 13
2968.7543374724492
 23
1964.538826845215
 33
0.0
 14
3213.7543374724492
 24
1964.538826845215
 34
0.0
1001
ACAD
1000
DSTYLE
1002
{
1070
   287
1070
     5
1070
    41
1040
20.0
1070
    42
1040
10.0
1070
    43
1040
60.0
1070
    44
1040
10.0
1070
    73
1070
     0
1070
    74
1070
     0
1070
    77
1070
     1
1070
    78
1070
     8
1070
   140
1040
30.0
1070
   147
1040
15.0
1070
   172
1070
     1
1070
   176
1070
   256
1070
   177
1070
   256
1070
   178
1070
   256
1070
   271
1070
     1
1070
   275
1070
     1
1070
   279
1070
     2
1070
   340
1005
17C
1002
}
  0
DIMENSION
  5
3A3
  8
SUNPOU
  2
*D15
 10
3148.4043374724488
 20
1744.601326845215
 30
0.0
 11
3065.746220410947
 21
1772.114337319151
 31
0.0
 70
   128
  1
%%c114.3
  3
SJC
 13
3034.1043374724491
 23
1964.538826845215
 33
0.0
 14
3148.4043374724488
 24
1964.538826845215
 34
0.0
1001
ACAD
1000
DSTYLE
1002
{
1070
   287
1070
     5
1070
    41
1040
20.0
1070
    42
1040
10.0
1070
    43
1040
60.0
1070
    44
1040
10.0
1070
    73
1070
     0
1070
    74
1070
     0
1070
    77
1070
     1
1070
    78
1070
     8
1070
   140
1040
30.0
1070
   147
1040
15.0
1070
   172
1070
     1
1070
   176
1070
   256
1070
   177
1070
   256
1070
   178
1070
   256
1070
   271
1070
     1
1070
   275
1070
     1
1070
   279
1070
     2
1070
   340
1005
17C
1002
}
  0
INSERT
  5
3A4
  8
ZWAKU
  2
CALCOMP_TECHJET720A3
 10
0.0
 20
0.0
 30
0.0
 41
10.0
 42
10.0
 43
10.0
  0
TEXT
  5
3A5
  8
INFORMATION
 10
1.0
 20
2.0
 30
0.0
 40
0.8
  1
PLOTTER=CALCOMP_TECHJET720
  0
TEXT
  5
3A6
  8
INFORMATION
 10
1.0
 20
3.0
 30
0.0
 40
0.8
  1
PAPER=A3
  0
TEXT
  5
3A7
  8
INFORMATION
 10
1.0
 20
1.0
 30
0.0
 40
0.8
  1
VERSION=2.1
  0
DIMENSION
  5
3A8
  8
SUNPOU
  2
*D14
 10
2194.1043374724491
 20
404.60132684521523
 30
0.0
 11
1994.1043374724491
 21
434.60132684521523
 31
0.0
 12
1405.0
 22
0.0
 32
0.0
 70
     0
  1
□400
  3
SJC
 13
1794.1043374724491
 23
524.60132684521523
 33
0.0
 14
2194.1043374724491
 24
524.60132684521523
 34
0.0
1001
ACAD
1000
DSTYLE
1002
{
1070
   287
1070
     5
1070
    41
1040
20.0
1070
    42
1040
10.0
1070
    43
1040
60.0
1070
    44
1040
10.0
1070
    73
1070
     0
1070
    74
1070
     0
1070
    77
1070
     1
1070
    78
1070
     8
1070
   140
1040
30.0
1070
   147
1040
15.0
1070
   172
1070
     1
1070
   176
1070
   256
1070
   177
1070
   256
1070
   178
1070
   256
1070
   271
1070
     1
1070
   275
1070
     1
1070
   279
1070
     2
1070
   340
1005
17C
1002
}
  0
SOLID
  5
3A9
  8
MOJI
  6
CONTINUOUS
 10
3207.731669926392
 20
1983.9935012950091
 30
0.0
 11
3202.9563387506828
 21
1988.6454532086409
 31
0.0
 12
3191.3881485976422
 22
1971.993483724696
 32
0.0
 13
3191.3881485976422
 23
1971.993483724696
 33
0.0
  0
LINE
  5
3AA
  8
MOJI
  6
CONTINUOUS
 10
3205.3440043385372
 20
1986.319477251825
 30
0.0
 11
3286.4741176922312
 21
2069.6013268452161
 31
0.0
  0
TEXT
  5
3AB
  8
MOJI
 10
817.36052552119054
 20
1112.2112489480201
 30
0.0
 40
30.0
  1
SUS305
 41
0.8
  7
KANJI08
  0
TEXT
  5
3AC
  8
MOJI
 10
2646.5134137516779
 20
1066.426193191593
 30
0.0
 40
30.0
  1
支柱%%c114.3×t4
 41
0.8
  7
KANJI08
  0
TEXT
  5
3AD
  8
MOJI
 10
2726.2973996221672
 20
1016.803328458553
 30
0.0
 40
30.0
  1
SUS304
 41
0.8
  7
KANJI08
  0
TEXT
  5
3AE
  8
MOJI
 10
2614.8018014749532
 20
548.8349506914509
 30
0.0
 40
30.0
  1
SUS304
 41
0.8
  7
KANJI08
  0
SOLID
  5
3AF
  8
MOJI
  6
CONTINUOUS
 10
658.64055750584885
 20
1410.6541354591409
 30
0.0
 11
652.76471579141912
 21
1413.8035685178691
 31
0.0
 12
646.25433747244836
 22
1394.6013268452159
 32
0.0
 13
646.25433747244836
 23
1394.6013268452159
 33
0.0
  0
SOLID
  5
3B0
  8
MOJI
  6
CONTINUOUS
 10
696.65289904655594
 20
1021.527554067377
 30
0.0
 11
690.80933553806506
 21
1024.7364806739979
 31
0.0
 12
684.10433747244849
 22
1005.601326845215
 32
0.0
 13
684.10433747244849
 23
1005.601326845215
 33
0.0
  0
SOLID
  5
3B1
  8
MOJI
  6
CONTINUOUS
 10
719.17745088915638
 20
927.95277865160051
 30
0.0
 11
723.95140633483118
 21
932.6061423647825
 31
0.0
 12
707.60433747244815
 22
944.60132684521545
 32
0.0
 13
707.60433747244815
 23
944.60132684521545
 33
0.0
  0
SOLID
  5
3B2
  8
MOJI
  6
CONTINUOUS
 10
670.65206423694599
 20
808.00489432702875
 30
0.0
 11
675.40508414746614
 21
812.67963990028147
 31
0.0
 12
659.00433747244824
 22
824.601326845215
 32
0.0
 13
659.00433747244824
 23
824.601326845215
 33
0.0
  0
SOLID
  5
3B3
  8
MOJI
  6
CONTINUOUS
 10
2043.4897324910801
 20
1005.225659499038
 30
0.0
 11
2037.72386714808
 21
1008.572186249392
 31
0.0
 12
2030.5672195685181
 22
989.60132684521511
 32
0.0
 13
2030.5672195685181
 23
989.60132684521511
 33
0.0
  0
SOLID
  5
3B4
  8
MOJI
  6
CONTINUOUS
 10
3027.4467606496082
 20
949.75303125915923
 30
0.0
 11
3021.5952660733469
 21
946.55858988883585
 31
0.0
 12
3034.1043374724482
 22
930.60132684521511
 32
0.0
 13
3034.1043374724482
 23
930.60132684521511
 33
0.0
  0
SOLID
  5
3B5
  8
MOJI
  6
CONTINUOUS
 10
3027.353292894089
 20
714.72028362146477
 30
0.0
 11
3021.5174714844052
 21
711.49729852706423
 31
0.0
 12
3034.1043374724491
 22
695.60132684521534
 32
0.0
 13
3034.1043374724491
 23
695.60132684521534
 33
0.0
  0
SOLID
  5
3B6
  8
MOJI
  6
CONTINUOUS
 10
2952.8927605002759
 20
676.97114525242102
 30
0.0
 11
2957.8464181504892
 21
672.50956253673235
 31
0.0
 12
2968.7543374724492
 22
689.60132684521545
 32
0.0
 13
2968.7543374724492
 23
689.60132684521545
 33
0.0
  0
ENDBLK
  5
3B8
  8
0
  0
BLOCK
  8
0
  2
*D22
 70
     1
 10
0.0
 20
0.0
 30
0.0
  3
*D22
  1

  0
LINE
  5
3BB
  8
0
  6
BYBLOCK
 10
2105.0
 20
2240.25
 30
0.0
 11
2105.0
 21
2415.0
 31
0.0
  0
LINE
  5
3BC
  8
0
  6
BYBLOCK
 10
2295.0
 20
2240.25
 30
0.0
 11
2295.0
 21
2415.0
 31
0.0
  0
LINE
  5
3BD
  8
0
  6
BYBLOCK
 10
2125.0
 20
2405.0
 30
0.0
 11
2275.0
 21
2405.0
 31
0.0
  0
SOLID
  5
3BE
  8
0
  6
BYBLOCK
 10
2125.0
 20
2408.3333333333339
 30
0.0
 11
2125.0
 21
2401.666666666667
 31
0.0
 12
2105.0
 22
2405.0
 32
0.0
 13
2105.0
 23
2405.0
 33
0.0
  0
SOLID
  5
3BF
  8
0
  6
BYBLOCK
 10
2275.0
 20
2408.3333333333339
 30
0.0
 11
2275.0
 21
2401.666666666667
 31
0.0
 12
2295.0
 22
2405.0
 32
0.0
 13
2295.0
 23
2405.0
 33
0.0
  0
INSERT
  5
3C0
  8
0
  2
*U57
 10
0.0
 20
0.0
 30
0.0
  0
POINT
  5
3C1
  8
DEFPOINTS
  6
BYBLOCK
 62
     0
 10
2105.0
 20
2230.25
 30
0.0
  0
POINT
  5
3C2
  8
DEFPOINTS
  6
BYBLOCK
 62
     0
 10
2295.0
 20
2230.25
 30
0.0
  0
POINT
  5
3C3
  8
DEFPOINTS
  6
BYBLOCK
 62
     0
 10
2295.0
 20
2405.0
 30
0.0
  0
ENDBLK
  5
3C5
  8
0
  0
BLOCK
  8
0
  2
*D23
 70
     1
 10
0.0
 20
0.0
 30
0.0
  3
*D23
  1

  0
LINE
  5
3C7
  8
0
  6
BYBLOCK
 10
2142.8500000000008
 20
2174.9375
 30
0.0
 11
2142.8500000000008
 21
1970.0
 31
0.0
  0
LINE
  5
3C8
  8
0
  6
BYBLOCK
 10
2257.150000000001
 20
2174.9375
 30
0.0
 11
2257.150000000001
 21
1970.0
 31
0.0
  0
LINE
  5
3C9
  8
0
  6
BYBLOCK
 10
2162.8499999999999
 20
1980.0
 30
0.0
 11
2237.150000000001
 21
1980.0
 31
0.0
  0
INSERT
  5
3CA
  8
0
  2
*U58
 10
0.0
 20
0.0
 30
0.0
  0
SOLID
  5
3CB
  8
0
  6
BYBLOCK
 10
2162.8499999999999
 20
1983.333333333333
 30
0.0
 11
2162.8499999999999
 21
1976.666666666667
 31
0.0
 12
2142.8500000000008
 22
1980.0
 32
0.0
 13
2142.8500000000008
 23
1980.0
 33
0.0
  0
SOLID
  5
3CC
  8
0
  6
BYBLOCK
 10
2237.150000000001
 20
1983.333333333333
 30
0.0
 11
2237.150000000001
 21
1976.666666666667
 31
0.0
 12
2257.150000000001
 22
1980.0
 32
0.0
 13
2257.150000000001
 23
1980.0
 33
0.0
  0
POINT
  5
3CD
  8
DEFPOINTS
  6
BYBLOCK
 62
     0
 10
2142.8500000000008
 20
2184.9375
 30
0.0
  0
POINT
  5
3CE
  8
DEFPOINTS
  6
BYBLOCK
 62
     0
 10
2257.150000000001
 20
2184.9375
 30
0.0
  0
POINT
  5
3CF
  8
DEFPOINTS
  6
BYBLOCK
 62
     0
 10
2257.150000000001
 20
1980.0
 30
0.0
  0
ENDBLK
  5
3D1
  8
0
  0
BLOCK
  8
0
  2
*D24
 70
     1
 10
0.0
 20
0.0
 30
0.0
  3
*D24
  1

  0
LINE
  5
3D3
  8
0
  6
BYBLOCK
 10
2077.5000000000009
 20
2174.9375
 30
0.0
 11
2077.5000000000009
 21
1860.0
 31
0.0
  0
LINE
  5
3D4
  8
0
  6
BYBLOCK
 10
2322.5000000000009
 20
2174.9375
 30
0.0
 11
2322.5000000000009
 21
1860.0
 31
0.0
  0
LINE
  5
3D5
  8
0
  6
BYBLOCK
 10
2097.5000000000009
 20
1870.0
 30
0.0
 11
2302.5000000000009
 21
1870.0
 31
0.0
  0
SOLID
  5
3D6
  8
0
  6
BYBLOCK
 10
2097.5000000000009
 20
1873.333333333333
 30
0.0
 11
2097.5000000000009
 21
1866.666666666667
 31
0.0
 12
2077.5000000000009
 22
1870.0
 32
0.0
 13
2077.5000000000009
 23
1870.0
 33
0.0
  0
SOLID
  5
3D7
  8
0
  6
BYBLOCK
 10
2302.5000000000009
 20
1873.333333333333
 30
0.0
 11
2302.5000000000009
 21
1866.666666666667
 31
0.0
 12
2322.5000000000009
 22
1870.0
 32
0.0
 13
2322.5000000000009
 23
1870.0
 33
0.0
  0
INSERT
  5
3D8
  8
0
  2
*U59
 10
0.0
 20
0.0
 30
0.0
  0
POINT
  5
3D9
  8
DEFPOINTS
  6
BYBLOCK
 62
     0
 10
2077.5000000000009
 20
2184.9375
 30
0.0
  0
POINT
  5
3DA
  8
DEFPOINTS
  6
BYBLOCK
 62
     0
 10
2322.5000000000009
 20
2184.9375
 30
0.0
  0
POINT
  5
3DB
  8
DEFPOINTS
  6
BYBLOCK
 62
     0
 10
2322.5000000000009
 20
1870.0
 30
0.0
  0
ENDBLK
  5
3DD
  8
0
  0
BLOCK
  8
0
  2
*D25
 70
     1
 10
0.0
 20
0.0
 30
0.0
  3
*D25
  1

  0
LINE
  5
3DF
  8
0
  6
BYBLOCK
 10
2209.9999999999991
 20
1740.0
 30
0.0
 11
2715.0000000000009
 21
1740.0
 31
0.0
  0
LINE
  5
3E0
  8
0
  6
BYBLOCK
 10
2695.0000000000009
 20
1010.000019904351
 30
0.0
 11
2695.0000000000009
 21
1010.000019904351
 31
0.0
  0
LINE
  5
3E1
  8
0
  6
BYBLOCK
 10
2705.0
 20
1720.0
 30
0.0
 11
2705.0
 21
1030.0000199043509
 31
0.0
  0
SOLID
  5
3E2
  8
0
  6
BYBLOCK
 10
2701.666666666667
 20
1720.0
 30
0.0
 11
2708.3333333333339
 21
1720.0
 31
0.0
 12
2705.0
 22
1740.0
 32
0.0
 13
2705.0
 23
1740.0
 33
0.0
  0
SOLID
  5
3E3
  8
0
  6
BYBLOCK
 10
2701.666666666667
 20
1030.0000199043509
 30
0.0
 11
2708.3333333333339
 21
1030.0000199043509
 31
0.0
 12
2705.0
 22
1010.000019904351
 32
0.0
 13
2705.0
 23
1010.000019904351
 33
0.0
  0
INSERT
  5
3E4
  8
0
  2
*U60
 10
0.0
 20
0.0
 30
0.0
  0
POINT
  5
3E5
  8
DEFPOINTS
  6
BYBLOCK
 62
     0
 10
2200.0
 20
1740.0
 30
0.0
  0
POINT
  5
3E6
  8
DEFPOINTS
  6
BYBLOCK
 62
     0
 10
2705.0
 20
1010.000019904351
 30
0.0
  0
POINT
  5
3E7
  8
DEFPOINTS
  6
BYBLOCK
 62
     0
 10
2705.0
 20
1010.000019904351
 30
0.0
  0
ENDBLK
  5
3E9
  8
0
  0
BLOCK
  8
0
  2
*D26
 70
     1
 10
0.0
 20
0.0
 30
0.0
  3
*D26
  1

  0
LINE
  5
3EB
  8
0
  6
BYBLOCK
 10
2209.9999999999991
 20
1740.0
 30
0.0
 11
2865.0000000000009
 21
1740.0
 31
0.0
  0
LINE
  5
3EC
  8
0
  6
BYBLOCK
 10
2430.0
 20
560.0
 30
0.0
 11
2865.0000000000009
 21
560.0
 31
0.0
  0
LINE
  5
3ED
  8
0
  6
BYBLOCK
 10
2855.0
 20
1720.0
 30
0.0
 11
2855.0
 21
580.0
 31
0.0
  0
SOLID
  5
3EE
  8
0
  6
BYBLOCK
 10
2851.666666666667
 20
1720.0
 30
0.0
 11
2858.3333333333339
 21
1720.0
 31
0.0
 12
2855.0
 22
1740.0
 32
0.0
 13
2855.0
 23
1740.0
 33
0.0
  0
SOLID
  5
3EF
  8
0
  6
BYBLOCK
 10
2851.666666666667
 20
580.0
 30
0.0
 11
2858.3333333333339
 21
580.0
 31
0.0
 12
2855.0
 22
560.0
 32
0.0
 13
2855.0
 23
560.0
 33
0.0
  0
INSERT
  5
3F0
  8
0
  2
*U61
 10
0.0
 20
0.0
 30
0.0
  0
POINT
  5
3F1
  8
DEFPOINTS
  6
BYBLOCK
 62
     0
 10
2200.0
 20
1740.0
 30
0.0
  0
POINT
  5
3F2
  8
DEFPOINTS
  6
BYBLOCK
 62
     0
 10
2420.0
 20
560.0
 30
0.0
  0
POINT
  5
3F3
  8
DEFPOINTS
  6
BYBLOCK
 62
     0
 10
2855.0
 20
560.0
 30
0.0
  0
ENDBLK
  5
3F5
  8
0
  0
BLOCK
  8
0
  2
*D27
 70
     1
 10
0.0
 20
0.0
 30
0.0
  3
*D27
  1

  0
LINE
  5
3F7
  8
0
  6
BYBLOCK
 10
2430.0
 20
560.0
 30
0.0
 11
2715.0000000000009
 21
560.0
 31
0.0
  0
LINE
  5
3F8
  8
0
  6
BYBLOCK
 10
2695.0000000000009
 20
1010.000019904351
 30
0.0
 11
2695.0000000000009
 21
1010.000019904351
 31
0.0
  0
LINE
  5
3F9
  8
0
  6
BYBLOCK
 10
2705.0
 20
580.0
 30
0.0
 11
2705.0
 21
990.00001990435101
 31
0.0
  0
SOLID
  5
3FA
  8
0
  6
BYBLOCK
 10
2701.666666666667
 20
580.0
 30
0.0
 11
2708.3333333333339
 21
580.0
 31
0.0
 12
2705.0
 22
560.0
 32
0.0
 13
2705.0
 23
560.0
 33
0.0
  0
SOLID
  5
3FB
  8
0
  6
BYBLOCK
 10
2701.666666666667
 20
990.00001990435101
 30
0.0
 11
2708.3333333333339
 21
990.00001990435101
 31
0.0
 12
2705.0
 22
1010.000019904351
 32
0.0
 13
2705.0
 23
1010.000019904351
 33
0.0
  0
INSERT
  5
3FC
  8
0
  2
*U62
 10
0.0
 20
0.0
 30
0.0
  0
POINT
  5
3FD
  8
DEFPOINTS
  6
BYBLOCK
 62
     0
 10
2420.0
 20
560.0
 30
0.0
  0
POINT
  5
3FE
  8
DEFPOINTS
  6
BYBLOCK
 62
     0
 10
2705.0
 20
1010.000019904351
 30
0.0
  0
POINT
  5
3FF
  8
DEFPOINTS
  6
BYBLOCK
 62
     0
 10
2705.0
 20
1010.000019904351
 30
0.0
  0
ENDBLK
  5
401
  8
0
  0
BLOCK
  8
0
  2
*D28
 70
     1
 10
0.0
 20
0.0
 30
0.0
  3
*D28
  1

  0
LINE
  5
403
  8
0
  6
BYBLOCK
 10
2000.0
 20
535.0
 30
0.0
 11
2000.0
 21
415.0
 31
0.0
  0
LINE
  5
404
  8
0
  6
BYBLOCK
 10
2400.0
 20
535.0
 30
0.0
 11
2400.0
 21
415.0
 31
0.0
  0
LINE
  5
405
  8
0
  6
BYBLOCK
 10
2020.0
 20
425.0
 30
0.0
 11
2380.0
 21
425.0
 31
0.0
  0
SOLID
  5
406
  8
0
  6
BYBLOCK
 10
2020.0
 20
428.33333333333331
 30
0.0
 11
2020.0
 21
421.66666666666657
 31
0.0
 12
2000.0
 22
425.0
 32
0.0
 13
2000.0
 23
425.0
 33
0.0
  0
SOLID
  5
407
  8
0
  6
BYBLOCK
 10
2380.0
 20
428.33333333333331
 30
0.0
 11
2380.0
 21
421.66666666666657
 31
0.0
 12
2400.0
 22
425.0
 32
0.0
 13
2400.0
 23
425.0
 33
0.0
  0
INSERT
  5
408
  8
0
  2
*U63
 10
0.0
 20
0.0
 30
0.0
  0
POINT
  5
409
  8
DEFPOINTS
  6
BYBLOCK
 62
     0
 10
2000.0
 20
545.0
 30
0.0
  0
POINT
  5
40A
  8
DEFPOINTS
  6
BYBLOCK
 62
     0
 10
2400.0
 20
545.0
 30
0.0
  0
POINT
  5
40B
  8
DEFPOINTS
  6
BYBLOCK
 62
     0
 10
2400.0
 20
425.0
 30
0.0
  0
ENDBLK
  5
40D
  8
0
  0
BLOCK
  8
0
  2
*D29
 70
     1
 10
0.0
 20
0.0
 30
0.0
  3
*D29
  1

  0
LINE
  5
40F
  8
0
  6
BYBLOCK
 10
2347.5625
 20
1016.0
 30
0.0
 11
2582.1500000000001
 21
1016.0
 31
0.0
  0
LINE
  5
410
  8
0
  6
BYBLOCK
 10
2562.1500000000001
 20
1010.0
 30
0.0
 11
2562.1500000000001
 21
1010.0
 31
0.0
  0
LINE
  5
411
  8
0
  6
BYBLOCK
 10
2572.1500000000001
 20
1036.0
 30
0.0
 11
2572.1500000000001
 21
1056.0
 31
0.0
  0
LINE
  5
412
  8
0
  6
BYBLOCK
 10
2572.1500000000001
 20
990.00000000000023
 30
0.0
 11
2572.1500000000001
 21
970.00000000000023
 31
0.0
  0
INSERT
  5
413
  8
0
  2
*U64
 10
0.0
 20
0.0
 30
0.0
  0
LINE
  5
414
  8
0
  6
BYBLOCK
 10
2572.1500000000001
 20
1016.0
 30
0.0
 11
2572.1500000000001
 21
1010.0
 31
0.0
  0
SOLID
  5
415
  8
0
  6
BYBLOCK
 10
2568.8166666666662
 20
1036.0
 30
0.0
 11
2575.4833333333331
 21
1036.0
 31
0.0
 12
2572.1500000000001
 22
1016.0
 32
0.0
 13
2572.1500000000001
 23
1016.0
 33
0.0
  0
SOLID
  5
416
  8
0
  6
BYBLOCK
 10
2568.8166666666662
 20
990.00000000000023
 30
0.0
 11
2575.4833333333331
 21
990.00000000000023
 31
0.0
 12
2572.1500000000001
 22
1010.0
 32
0.0
 13
2572.1500000000001
 23
1010.0
 33
0.0
  0
POINT
  5
417
  8
DEFPOINTS
  6
BYBLOCK
 62
     0
 10
2337.5625
 20
1016.0
 30
0.0
  0
POINT
  5
418
  8
DEFPOINTS
  6
BYBLOCK
 62
     0
 10
2572.1500000000001
 20
1010.0
 30
0.0
  0
POINT
  5
419
  8
DEFPOINTS
  6
BYBLOCK
 62
     0
 10
2572.1500000000001
 20
1010.0
 30
0.0
  0
ENDBLK
  5
41B
  8
0
  0
BLOCK
  8
0
  2
YH1K
 70
     0
 10
0.0
 20
0.0
 30
0.0
  3
YH1K
  1

  0
LINE
  5
41D
  8
SJC
 10
1652.8499999999999
 20
1010.0
 30
0.0
 11
2745.0
 21
1010.0
 31
0.0
  0
LINE
  5
41E
  8
HATCH
 10
2000.0
 20
930.35000348215328
 30
0.0
 11
2079.6500077695118
 21
1010.0
 31
0.0
  0
LINE
  5
41F
  8
HATCH
 10
2000.0
 20
954.35000348215317
 30
0.0
 11
2055.6500043791789
 21
1010.0
 31
0.0
  0
LINE
  5
420
  8
HATCH
 10
2400.0
 20
995.09998162157729
 30
0.0
 11
2257.1500000000001
 21
852.25000180111385
 31
0.0
  0
LINE
  5
421
  8
HATCH
 10
2400.0
 20
1007.0999816215769
 30
0.0
 11
2257.1500000000001
 21
864.25000180111385
 31
0.0
  0
LINE
  5
422
  8
HATCH
 10
2390.9000170929262
 20
1010.0
 30
0.0
 11
2257.1500000000001
 21
876.25000180111385
 31
0.0
  0
LINE
  5
423
  8
SJC
 10
2142.8500000000008
 20
1720.0
 30
0.0
 11
2142.8500000000008
 21
560.0
 31
0.0
  0
LINE
  5
424
  8
SJC
 10
2257.1500000000001
 20
1720.0
 30
0.0
 11
2257.1500000000001
 21
560.0
 31
0.0
  0
LINE
  5
425
  8
SJC
 10
2142.8499999999999
 20
1720.0
 30
0.0
 11
2257.1499999999992
 21
1720.0
 31
0.0
  0
DIMENSION
  5
426
  8
SUNPOU
  2
*D26
 10
2855.0
 20
560.0
 30
0.0
 11
2825.0000000000009
 21
1150.0
 31
0.0
 70
     0
  3
SJC
 13
2200.0
 23
1740.0
 33
0.0
 14
2420.0
 24
560.0
 34
0.0
 50
270.0
1001
ACAD
1000
DSTYLE
1002
{
1070
   287
1070
     5
1070
    41
1040
20.0
1070
    42
1040
10.0
1070
    43
1040
60.0
1070
    44
1040
10.0
1070
    73
1070
     0
1070
    74
1070
     0
1070
    77
1070
     1
1070
    78
1070
     8
1070
   140
1040
30.0
1070
   147
1040
15.0
1070
   172
1070
     1
1070
   176
1070
   256
1070
   177
1070
   256
1070
   178
1070
   256
1070
   271
1070
     1
1070
   275
1070
     1
1070
   279
1070
     2
1070
   340
1005
17C
1002
}
  0
DIMENSION
  5
427
  8
SUNPOU
  2
*D25
 10
2705.0
 20
1010.000019904351
 30
0.0
 11
2675.0000000000009
 21
1375.0000099521751
 31
0.0
 70
     0
  3
SJC
 13
2200.0
 23
1740.0
 33
0.0
 14
2705.0
 24
1010.000019904351
 34
0.0
 50
270.0
1001
ACAD
1000
DSTYLE
1002
{
1070
   287
1070
     5
1070
    41
1040
20.0
1070
    42
1040
10.0
1070
    43
1040
60.0
1070
    44
1040
10.0
1070
    73
1070
     0
1070
    74
1070
     0
1070
    77
1070
     1
1070
    78
1070
     8
1070
   140
1040
30.0
1070
   147
1040
15.0
1070
   172
1070
     1
1070
   176
1070
   256
1070
   177
1070
   256
1070
   178
1070
   256
1070
   271
1070
     1
1070
   275
1070
     1
1070
   279
1070
     2
1070
   340
1005
17C
1002
}
  0
DIMENSION
  5
428
  8
SUNPOU
  2
*D27
 10
2705.0
 20
1010.000019904351
 30
0.0
 11
2675.0000000000009
 21
785.00000995217545
 31
0.0
 70
     0
  3
SJC
 13
2420.0
 23
560.0
 33
0.0
 14
2705.0
 24
1010.000019904351
 34
0.0
 50
270.0
1001
ACAD
1000
DSTYLE
1002
{
1070
   287
1070
     5
1070
    41
1040
20.0
1070
    42
1040
10.0
1070
    43
1040
60.0
1070
    44
1040
10.0
1070
    73
1070
     0
1070
    74
1070
     0
1070
    77
1070
     1
1070
    78
1070
     8
1070
   140
1040
30.0
1070
   147
1040
15.0
1070
   172
1070
     1
1070
   176
1070
   256
1070
   177
1070
   256
1070
   178
1070
   256
1070
   271
1070
     1
1070
   275
1070
     1
1070
   279
1070
     2
1070
   340
1005
17C
1002
}
  0
TEXT
  5
429
  8
MOJI
 10
612.29686898900241
 20
2454.999972065742
 30
0.0
 40
40.0
  1
YH-1K
 41
0.8
  7
KANJI08
  0
LINE
  5
42A
  8
MOJI
 10
599.99995132757454
 20
2444.9999720657429
 30
0.0
 11
780.30061004371237
 21
2444.9999720657429
 31
0.0
  0
LINE
  5
42B
  8
CENTER
 10
2200.0000000000009
 20
2390.0000000000009
 30
0.0
 11
2200.0
 21
2031.824396293915
 31
0.0
  0
LINE
  5
42C
  8
SJC
 10
2000.0
 20
1010.0
 30
0.0
 11
2000.0
 21
560.0
 31
0.0
  0
LINE
  5
42D
  8
SJC
 10
2400.0
 20
1010.0
 30
0.0
 11
2400.0
 21
560.0
 31
0.0
  0
DIMENSION
  5
42E
  8
SUNPOU
  2
*D28
 10
2400.0
 20
425.0
 30
0.0
 11
2200.0
 21
455.0
 31
0.0
 70
     0
  3
SJC
 13
2000.0
 23
545.0
 33
0.0
 14
2400.0
 24
545.0
 34
0.0
1001
ACAD
1000
DSTYLE
1002
{
1070
   287
1070
     5
1070
    41
1040
20.0
1070
    42
1040
10.0
1070
    43
1040
60.0
1070
    44
1040
10.0
1070
    73
1070
     0
1070
    74
1070
     0
1070
    77
1070
     1
1070
    78
1070
     8
1070
   140
1040
30.0
1070
   147
1040
15.0
1070
   172
1070
     1
1070
   176
1070
   256
1070
   177
1070
   256
1070
   178
1070
   256
1070
   271
1070
     1
1070
   275
1070
     1
1070
   279
1070
     2
1070
   340
1005
17C
1002
}
  0
LINE
  5
42F
  8
HATCH
 10
2400.0
 20
650.00000282527674
 30
0.0
 11
2309.9999844609779
 21
560.0
 31
0.0
  0
LINE
  5
430
  8
HATCH
 10
2400.0
 20
662.00000282527662
 30
0.0
 11
2297.9999827658121
 21
560.0
 31
0.0
  0
LINE
  5
431
  8
HATCH
 10
2400.0
 20
674.00000282527674
 30
0.0
 11
2285.9999810706472
 21
560.0
 31
0.0
  0
LINE
  5
432
  8
HATCH
 10
2118.0999999999999
 20
560.0
 30
0.0
 11
2142.8500000000008
 21
584.75000000000023
 31
0.0
  0
LINE
  5
433
  8
HATCH
 10
2130.1000000000008
 20
560.0
 30
0.0
 11
2142.8500000000008
 21
572.74999999999955
 31
0.0
  0
LINE
  5
434
  8
HATCH
 10
2257.1500000000001
 20
689.0499999999995
 30
0.0
 11
2400.0
 21
831.89999999999975
 31
0.0
  0
LINE
  5
435
  8
HATCH
 10
2257.1500000000001
 20
701.04999999999927
 30
0.0
 11
2400.0
 21
843.89999999999975
 31
0.0
  0
LINE
  5
436
  8
HATCH
 10
2257.1500000000001
 20
677.04999999999973
 30
0.0
 11
2400.0
 21
819.89999999999964
 31
0.0
  0
LINE
  5
437
  8
HATCH
 10
2142.8500000000008
 20
737.95001794756877
 30
0.0
 11
2000.0
 21
595.10003812710499
 31
0.0
  0
LINE
  5
438
  8
HATCH
 10
2142.8500000000008
 20
749.95001794756956
 30
0.0
 11
2000.0
 21
607.10003812710625
 31
0.0
  0
LINE
  5
439
  8
HATCH
 10
2142.8500000000008
 20
761.95001794756911
 30
0.0
 11
2000.0
 21
619.1000381271059
 31
0.0
  0
LINE
  5
43A
  8
HATCH
 10
2142.8500000000008
 20
926.74999819888615
 30
0.0
 11
2000.0
 21
783.90001837842306
 31
0.0
  0
LINE
  5
43B
  8
HATCH
 10
2142.8500000000008
 20
914.7499981988866
 30
0.0
 11
2000.0
 21
771.90001837842317
 31
0.0
  0
LINE
  5
43C
  8
HATCH
 10
2142.8500000000008
 20
902.74999819888581
 30
0.0
 11
2000.0
 21
759.90001837842215
 31
0.0
  0
ARC
  5
43D
  8
SJC
 10
2200.0
 20
1648.346937500002
 30
0.0
 40
91.653062499998384
 50
51.424373327754822
 51
128.57562667224511
  0
LINE
  5
43E
  8
SJC
 10
2000.0
 20
560.0
 30
0.0
 11
2400.0
 21
560.0
 31
0.0
  0
LINE
  5
43F
  8
SJC
 10
2077.5000000000009
 20
1016.0
 30
0.0
 11
2077.5
 21
1010.0
 31
0.0
  0
LINE
  5
440
  8
HATCH
 10
2322.5
 20
1016.0
 30
0.0
 11
2322.5
 21
1010.0
 31
0.0
  0
LINE
  5
441
  8
SJC
 10
2077.5000000000009
 20
1016.0
 30
0.0
 11
2322.5
 21
1016.0
 31
0.0
  0
LINE
  5
442
  8
CENTER
 10
2000.0
 20
2185.0
 30
0.0
 11
2400.0
 21
2185.0
 31
0.0
  0
LINE
  5
443
  8
CENTER
 10
2200.0
 20
1820.0
 30
0.0
 11
2200.0
 21
560.0
 31
0.0
  0
CIRCLE
  5
444
  8
SJC
 10
2200.0000000000009
 20
2185.0
 30
0.0
 40
122.5
  0
CIRCLE
  5
445
  8
SJC
 10
2200.0000000000009
 20
2185.0
 30
0.0
 40
57.149999999999991
  0
LINE
  5
446
  8
CENTER
 10
2105.0
 20
2215.25
 30
0.0
 11
2105.0
 21
2154.75
 31
0.0
  0
LINE
  5
447
  8
CENTER
 10
2295.0
 20
2215.25
 30
0.0
 11
2295.0
 21
2154.75
 31
0.0
  0
DIMENSION
  5
448
  8
SUNPOU
  2
*D22
 10
2295.0
 20
2405.0
 30
0.0
 11
2200.0
 21
2435.0
 31
0.0
 70
     0
  3
SJC
 13
2105.0
 23
2230.25
 33
0.0
 14
2295.0
 24
2230.25
 34
0.0
1001
ACAD
1000
DSTYLE
1002
{
1070
   287
1070
     5
1070
    41
1040
20.0
1070
    42
1040
10.0
1070
    43
1040
60.0
1070
    44
1040
10.0
1070
    73
1070
     0
1070
    74
1070
     0
1070
    77
1070
     1
1070
    78
1070
     8
1070
   140
1040
30.0
1070
   147
1040
15.0
1070
   172
1070
     1
1070
   176
1070
   256
1070
   177
1070
   256
1070
   178
1070
   256
1070
   271
1070
     1
1070
   275
1070
     1
1070
   279
1070
     2
1070
   340
1005
17C
1002
}
  0
LINE
  5
449
  8
MOJI
 10
2111.7886061781128
 20
2100.0
 30
0.0
 11
2020.0
 21
2005.0
 31
0.0
  0
LINE
  5
44A
  8
MOJI
 10
2020.0
 20
2005.0
 30
0.0
 11
1582.0000329366851
 21
2005.0
 31
0.0
  0
TEXT
  5
44B
  8
MOJI
 10
1598.4998795695681
 20
2014.9454150746569
 30
0.0
 40
30.0
  1
フランジ %%c245×t6
 41
0.8
  7
KANJI08
  0
TEXT
  5
44C
  8
MOJI
 10
1704.9331160093241
 20
1965.2241593373669
 30
0.0
 40
30.0
  1
SUS304
 41
0.8
  7
KANJI08
  0
TEXT
  5
44D
  8
MOJI
 10
1707.595453303476
 20
1019.772580456508
 30
0.0
 40
30.0
  1
ＧＬ
 41
0.8
  7
TEXT3030
  0
LINE
  5
44E
  8
MOJI
 10
2405.0
 20
2300.0
 30
0.0
 11
2540.0
 21
2300.0
 31
0.0
  0
LINE
  5
44F
  8
MOJI
 10
2470.0
 20
2300.0
 30
0.0
 11
2470.0
 21
2260.0
 31
0.0
  0
LINE
  5
450
  8
MOJI
 10
2470.0
 20
2260.0
 30
0.0
 11
2505.0
 21
2300.0
 31
0.0
  0
TEXT
  5
451
  8
MOJI
 10
2422.8173254869071
 20
2262.4292283192958
 30
0.0
 40
30.0
  1
3
 41
0.8
  7
KANJI08
  0
LINE
  5
452
  8
MOJI
 10
2257.1500000000001
 20
1415.0
 30
0.0
 11
2327.1500000000001
 21
1545.0
 31
0.0
  0
LINE
  5
453
  8
MOJI
 10
2327.1500000000001
 20
1545.0
 30
0.0
 11
2603.4620764983079
 21
1545.0
 31
0.0
  0
TEXT
  5
454
  8
MOJI
 10
2412.522523323918
 20
1553.859514069138
 30
0.0
 40
30.0
  1
%%c114.3×t4
 41
0.8
  7
KANJI08
  0
TEXT
  5
455
  8
MOJI
 10
2334.410300482557
 20
1553.649499711853
 30
0.0
 40
30.0
  1
支柱
 41
0.8
  7
TEXT3030
  0
LINE
  5
456
  8
CENTER
 10
2105.0
 20
1036.0
 30
0.0
 11
2105.0
 21
986.0
 31
0.0
  0
LINE
  5
457
  8
CENTER
 10
2295.0
 20
1036.0
 30
0.0
 11
2295.0000000000009
 21
986.0
 31
0.0
  0
LINE
  5
458
  8
SJC
 10
2093.0
 20
1026.0
 30
0.0
 11
2117.0
 21
1026.0
 31
0.0
  0
LINE
  5
459
  8
SJC
 10
2283.0
 20
1026.0
 30
0.0
 11
2307.0
 21
1026.0
 31
0.0
  0
LINE
  5
45A
  8
MOJI
 10
2142.8500000000008
 20
1016.0
 30
0.0
 11
1992.8499999999999
 21
1170.0
 31
0.0
  0
LINE
  5
45B
  8
MOJI
 10
1992.8499999999999
 20
1170.0
 30
0.0
 11
1852.8499999999999
 21
1170.0
 31
0.0
  0
LINE
  5
45C
  8
MOJI
 10
1912.8499999999999
 20
1170.0
 30
0.0
 11
1912.8499999999999
 21
1130.0
 31
0.0
  0
LINE
  5
45D
  8
MOJI
 10
1912.8499999999999
 20
1130.0
 30
0.0
 11
1947.8499999999999
 21
1170.0
 31
0.0
  0
CIRCLE
  5
45E
  8
MOJI
 10
1992.8499999999999
 20
1170.0
 30
0.0
 40
10.0
  0
TEXT
  5
45F
  8
MOJI
 10
1859.1617748772751
 20
1128.6076886415749
 30
0.0
 40
30.0
  1
3
 41
0.8
  7
KANJI08
  0
LINE
  5
460
  8
MOJI
 10
2295.0
 20
1026.0
 30
0.0
 11
2372.1499999999992
 21
1165.0
 31
0.0
  0
LINE
  5
461
  8
MOJI
 10
2372.1499999999992
 20
1165.0
 30
0.0
 11
2613.4275316953372
 21
1165.0
 31
0.0
  0
TEXT
  5
462
  8
MOJI
 10
2382.0026800240912
 20
1175.1431953112169
 30
0.0
 40
30.0
  1
M16 飾りボルト
 41
0.8
  7
KANJI08
  0
LINE
  5
463
  8
HATCH
 10
2000.0
 20
942.35000348215317
 30
0.0
 11
2067.6500060743451
 21
1010.0
 31
0.0
  0
POLYLINE
  5
464
  8
SJC
 66
     1
 10
0.0
 20
0.0
 30
0.0
 70
     1
  0
VERTEX
  5
13D8
  8
SJC
 10
2289.0
 20
2195.3923048454139
 30
0.0
  0
VERTEX
  5
13D9
  8
SJC
 10
2283.0
 20
2185.0
 30
0.0
  0
VERTEX
  5
13DA
  8
SJC
 10
2289.0
 20
2174.607695154587
 30
0.0
  0
VERTEX
  5
13DB
  8
SJC
 10
2301.0
 20
2174.607695154587
 30
0.0
  0
VERTEX
  5
13DC
  8
SJC
 10
2307.0
 20
2185.0
 30
0.0
  0
VERTEX
  5
13DD
  8
SJC
 10
2301.0
 20
2195.392304845413
 30
0.0
  0
SEQEND
  5
13DE
  8
SJC
  0
POLYLINE
  5
46C
  8
SJC
 66
     1
 10
0.0
 20
0.0
 30
0.0
 70
     1
  0
VERTEX
  5
13DF
  8
SJC
 10
2099.0000000000009
 20
2195.3923048454139
 30
0.0
  0
VERTEX
  5
13E0
  8
SJC
 10
2093.0
 20
2185.0
 30
0.0
  0
VERTEX
  5
13E1
  8
SJC
 10
2099.0000000000009
 20
2174.607695154587
 30
0.0
  0
VERTEX
  5
13E2
  8
SJC
 10
2111.0000000000009
 20
2174.607695154587
 30
0.0
  0
VERTEX
  5
13E3
  8
SJC
 10
2117.0
 20
2185.0
 30
0.0
  0
VERTEX
  5
13E4
  8
SJC
 10
2111.0000000000009
 20
2195.392304845413
 30
0.0
  0
SEQEND
  5
13E5
  8
SJC
  0
LINE
  5
474
  8
SJC
 10
2099.0
 20
1026.0
 30
0.0
 11
2099.0
 21
1016.0
 31
0.0
  0
LINE
  5
475
  8
SJC
 10
2111.0
 20
1026.0
 30
0.0
 11
2111.0
 21
1016.0
 31
0.0
  0
LINE
  5
476
  8
SJC
 10
2093.0
 20
1026.0
 30
0.0
 11
2093.0
 21
1016.0
 31
0.0
  0
LINE
  5
477
  8
SJC
 10
2117.0
 20
1026.0
 30
0.0
 11
2117.0
 21
1016.0
 31
0.0
  0
LINE
  5
478
  8
SJC
 10
2289.0
 20
1026.0
 30
0.0
 11
2289.0
 21
1016.0
 31
0.0
  0
LINE
  5
479
  8
SJC
 10
2301.0
 20
1026.0
 30
0.0
 11
2301.0
 21
1016.0
 31
0.0
  0
LINE
  5
47A
  8
SJC
 10
2283.0
 20
1026.0
 30
0.0
 11
2283.0
 21
1016.0
 31
0.0
  0
LINE
  5
47B
  8
SJC
 10
2307.0
 20
1026.0
 30
0.0
 11
2307.0
 21
1016.0
 31
0.0
  0
INSERT
  5
47C
  8
SJC
  2
1-10BASE
 10
0.0
 20
0.0
 30
0.0
  0
DIMENSION
  5
47D
  8
SUNPOU
  2
*D29
 10
2572.1500000000001
 20
1010.0
 30
0.0
 11
2542.20075757418
 21
1028.6762806896299
 31
0.0
 70
   128
  3
SJC
 13
2337.5625
 23
1016.0
 33
0.0
 14
2572.1500000000001
 24
1010.0
 34
0.0
 50
90.0
1001
ACAD
1000
DSTYLE
1002
{
1070
   287
1070
     5
1070
    41
1040
20.0
1070
    42
1040
10.0
1070
    43
1040
60.0
1070
    44
1040
10.0
1070
    73
1070
     0
1070
    74
1070
     0
1070
    77
1070
     1
1070
    78
1070
     8
1070
   140
1040
30.0
1070
   147
1040
15.0
1070
   172
1070
     1
1070
   176
1070
   256
1070
   177
1070
   256
1070
   178
1070
   256
1070
   271
1070
     1
1070
   275
1070
     1
1070
   279
1070
     2
1070
   340
1005
17C
1002
}
  0
DIMENSION
  5
47E
  8
SUNPOU
  2
*D24
 10
2322.5000000000009
 20
1870.0
 30
0.0
 11
2200.0000000000009
 21
1900.0
 31
0.0
 70
     0
  1
%%c245
  3
SJC
 13
2077.5000000000009
 23
2184.9375
 33
0.0
 14
2322.5000000000009
 24
2184.9375
 34
0.0
1001
ACAD
1000
DSTYLE
1002
{
1070
   287
1070
     5
1070
    41
1040
20.0
1070
    42
1040
10.0
1070
    43
1040
60.0
1070
    44
1040
10.0
1070
    73
1070
     0
1070
    74
1070
     0
1070
    77
1070
     1
1070
    78
1070
     8
1070
   140
1040
30.0
1070
   147
1040
15.0
1070
   172
1070
     1
1070
   176
1070
   256
1070
   177
1070
   256
1070
   178
1070
   256
1070
   271
1070
     1
1070
   275
1070
     1
1070
   279
1070
     2
1070
   340
1005
17C
1002
}
  0
DIMENSION
  5
47F
  8
SUNPOU
  2
*D23
 10
2257.150000000001
 20
1980.0
 30
0.0
 11
2180.0408172040102
 21
2008.8863604016501
 31
0.0
 70
   128
  1
%%c114.3
  3
SJC
 13
2142.8500000000008
 23
2184.9375
 33
0.0
 14
2257.150000000001
 24
2184.9375
 34
0.0
1001
ACAD
1000
DSTYLE
1002
{
1070
   287
1070
     5
1070
    41
1040
20.0
1070
    42
1040
10.0
1070
    43
1040
60.0
1070
    44
1040
10.0
1070
    73
1070
     0
1070
    74
1070
     0
1070
    77
1070
     1
1070
    78
1070
     8
1070
   140
1040
30.0
1070
   147
1040
15.0
1070
   172
1070
     1
1070
   176
1070
   256
1070
   177
1070
   256
1070
   178
1070
   256
1070
   271
1070
     1
1070
   275
1070
     1
1070
   279
1070
     2
1070
   340
1005
17C
1002
}
  0
TEXT
  5
480
  8
INFORMATION
 10
1.0
 20
2.0
 30
0.0
 40
0.8
  1
PLOTTER=CALCOMP_TECHJET720
  0
TEXT
  5
481
  8
INFORMATION
 10
1.0
 20
3.0
 30
0.0
 40
0.8
  1
PAPER=A3
  0
INSERT
  5
482
  8
ZWAKU
  2
CALCOMP_TECHJET720A3
 10
0.0
 20
0.0
 30
0.0
 41
10.0
 42
10.0
 43
10.0
  0
TEXT
  5
483
  8
INFORMATION
 10
1.0
 20
1.0
 30
0.0
 40
0.8
  1
VERSION=2.1
  0
TEXT
  5
484
  8
MOJI
 10
2410.6043757581078
 20
1503.9616977139449
 30
0.0
 40
30.0
  1
SUS304
 41
0.8
  7
KANJI08
  0
TEXT
  5
485
  8
MOJI
 10
2410.6043757581078
 20
1126.968341509358
 30
0.0
 40
30.0
  1
SUS304
 41
0.8
  7
KANJI08
  0
SOLID
  5
486
  8
MOJI
  6
CONTINUOUS
 10
2269.4668934417791
 20
1431.1060624317361
 30
0.0
 11
2263.5775276022009
 21
1434.230132605732
 31
0.0
 12
2257.1500000000001
 22
1415.0
 32
0.0
 13
2257.1500000000001
 23
1415.0
 33
0.0
  0
SOLID
  5
487
  8
MOJI
  6
CONTINUOUS
 10
2307.5055356987991
 20
1041.960034085088
 30
0.0
 11
2301.6533335253221
 21
1045.153178955775
 31
0.0
 12
2295.0
 22
1026.0
 32
0.0
 13
2295.0
 23
1026.0
 33
0.0
  0
SOLID
  5
488
  8
MOJI
  6
CONTINUOUS
 10
2131.2960084423612
 20
1032.6618243358009
 30
0.0
 11
2126.5167136068389
 21
1028.0139446773351
 31
0.0
 12
2142.8500000000008
 22
1016.0
 32
0.0
 13
2142.8500000000008
 23
1016.0
 33
0.0
  0
SOLID
  5
489
  8
MOJI
  6
CONTINUOUS
 10
2095.5839075873118
 20
2087.8131688002022
 30
0.0
 11
2100.412323035398
 21
2083.2163385112822
 31
0.0
 12
2111.7886061781142
 22
2100.0
 32
0.0
 13
2111.7886061781142
 23
2100.0
 33
0.0
  0
SOLID
  5
48A
  8
MOJI
  6
CONTINUOUS
 10
2311.9056987187159
 20
2208.7147003049299
 30
0.0
 11
2307.361349742001
 21
2213.5925417150502
 31
0.0
 12
2294.9999999999991
 22
2197.520574079846
 32
0.0
 13
2294.9999999999991
 23
2197.520574079846
 33
0.0
  0
LINE
  5
48B
  8
MOJI
  6
CONTINUOUS
 10
2309.633524230358
 20
2211.1536210099898
 30
0.0
 11
2405.0
 21
2300.0
 31
0.0
  0
ENDBLK
  5
48D
  8
0
  0
BLOCK
  8
0
  2
*D31
 70
     1
 10
0.0
 20
0.0
 30
0.0
  3
*D31
  1

  0
LINE
  5
13E6
  8
SUNPOU
 10
1726.188067350791
 20
1606.5717995879929
 30
0.0
 11
2381.1880673507922
 21
1606.5717995879929
 31
0.0
  0
LINE
  5
13E7
  8
SUNPOU
 10
1946.188067350791
 20
426.5717995879931
 30
0.0
 11
2381.1880673507922
 21
426.57179958799298
 31
0.0
  0
LINE
  5
13E8
  8
SUNPOU
 10
2371.1880673507922
 20
1586.5717995879929
 30
0.0
 11
2371.1880673507922
 21
446.5717995879931
 31
0.0
  0
SOLID
  5
13E9
  8
SUNPOU
 10
2367.8547340174591
 20
1586.5717995879929
 30
0.0
 11
2374.5214006841252
 21
1586.5717995879929
 31
0.0
 12
2371.1880673507922
 22
1606.5717995879929
 32
0.0
 13
2371.1880673507922
 23
1606.5717995879929
 33
0.0
  0
SOLID
  5
13EA
  8
SUNPOU
 10
2367.8547340174582
 20
446.5717995879931
 30
0.0
 11
2374.5214006841252
 21
446.5717995879931
 31
0.0
 12
2371.1880673507922
 22
426.57179958799298
 32
0.0
 13
2371.1880673507922
 23
426.57179958799298
 33
0.0
  0
TEXT
  8
SUNPOU
  40
30
  5
143F
  72
0
  71
0
 10
2284.19
 20
963.472
 30
0.000000
  1
1180
  7
EXT08
  0
POINT
  5
13EC
  8
DEFPOINTS
 62
     0
 10
1716.188067350791
 20
1606.5717995879929
 30
0.0
  0
POINT
  5
13ED
  8
DEFPOINTS
 62
     0
 10
1936.188067350791
 20
426.5717995879931
 30
0.0
  0
POINT
  5
13EE
  8
DEFPOINTS
 62
     0
 10
2371.1880673507922
 20
426.57179958799298
 30
0.0
  0
ENDBLK
  5
56A
  8
0
  0
BLOCK
  8
0
  2
*D32
 70
     1
 10
0.0
 20
0.0
 30
0.0
  3
*D32
  1

  0
LINE
  5
13EF
  8
SUNPOU
 10
1726.188067350791
 20
1606.5717995879929
 30
0.0
 11
2231.1880673507922
 21
1606.5717995879929
 31
0.0
  0
LINE
  5
13F0
  8
SUNPOU
 10
2221.1880673507922
 20
1586.5717995879929
 30
0.0
 11
2221.1880673507922
 21
896.57181949234428
 31
0.0
  0
SOLID
  5
13F1
  8
SUNPOU
 10
2217.8547340174591
 20
1586.5717995879929
 30
0.0
 11
2224.5214006841261
 21
1586.5717995879929
 31
0.0
 12
2221.1880673507922
 22
1606.5717995879929
 32
0.0
 13
2221.1880673507922
 23
1606.5717995879929
 33
0.0
  0
SOLID
  5
13F2
  8
SUNPOU
 10
2217.8547340174582
 20
896.57181949234428
 30
0.0
 11
2224.5214006841252
 21
896.57181949234428
 31
0.0
 12
2221.1880673507922
 22
876.57181949234416
 32
0.0
 13
2221.1880673507922
 23
876.57181949234416
 33
0.0
  0
TEXT
  8
SUNPOU
  40
30
  5
1440
  72
0
  71
0
 10
2134.19
 20
1188.47
 30
0.000000
  1
730
  7
EXT08
  0
POINT
  5
13F4
  8
DEFPOINTS
 62
     0
 10
1716.188067350791
 20
1606.5717995879929
 30
0.0
  0
POINT
  5
13F5
  8
DEFPOINTS
 62
     0
 10
2221.1880673507922
 20
876.57181949234416
 30
0.0
  0
POINT
  5
13F6
  8
DEFPOINTS
 62
     0
 10
2221.1880673507922
 20
876.57181949234416
 30
0.0
  0
ENDBLK
  5
575
  8
0
  0
BLOCK
  8
0
  2
*D33
 70
     1
 10
0.0
 20
0.0
 30
0.0
  3
*D33
  1

  0
LINE
  5
13F7
  8
SUNPOU
 10
1946.188067350791
 20
426.5717995879931
 30
0.0
 11
2231.1880673507922
 21
426.57179958799298
 31
0.0
  0
LINE
  5
13F8
  8
SUNPOU
 10
2221.1880673507922
 20
446.5717995879931
 30
0.0
 11
2221.1880673507922
 21
856.57181949234428
 31
0.0
  0
SOLID
  5
13F9
  8
SUNPOU
 10
2217.8547340174582
 20
446.5717995879931
 30
0.0
 11
2224.5214006841252
 21
446.5717995879931
 31
0.0
 12
2221.1880673507922
 22
426.57179958799298
 32
0.0
 13
2221.1880673507922
 23
426.57179958799298
 33
0.0
  0
SOLID
  5
13FA
  8
SUNPOU
 10
2217.8547340174582
 20
856.57181949234428
 30
0.0
 11
2224.5214006841252
 21
856.57181949234428
 31
0.0
 12
2221.1880673507922
 22
876.57181949234416
 32
0.0
 13
2221.1880673507922
 23
876.57181949234416
 33
0.0
  0
TEXT
  8
SUNPOU
  40
30
  5
1441
  72
0
  71
0
 10
2134.19
 20
598.472
 30
0.000000
  1
450
  7
EXT08
  0
POINT
  5
13FC
  8
DEFPOINTS
 62
     0
 10
1936.188067350791
 20
426.5717995879931
 30
0.0
  0
POINT
  5
13FD
  8
DEFPOINTS
 62
     0
 10
2221.1880673507922
 20
876.57181949234416
 30
0.0
  0
POINT
  5
13FE
  8
DEFPOINTS
 62
     0
 10
2221.1880673507922
 20
876.57181949234416
 30
0.0
  0
ENDBLK
  5
580
  8
0
  0
BLOCK
  8
0
  2
*D34
 70
     1
 10
0.0
 20
0.0
 30
0.0
  3
*D34
  1

  0
LINE
  5
13FF
  8
SUNPOU
 10
1516.188067350791
 20
401.5717995879931
 30
0.0
 11
1516.188067350791
 21
281.57179958799321
 31
0.0
  0
LINE
  5
1400
  8
SUNPOU
 10
1916.188067350791
 20
401.5717995879931
 30
0.0
 11
1916.188067350791
 21
281.57179958799321
 31
0.0
  0
LINE
  5
1401
  8
SUNPOU
 10
1536.188067350791
 20
291.57179958799321
 30
0.0
 11
1896.188067350791
 21
291.57179958799321
 31
0.0
  0
SOLID
  5
1402
  8
SUNPOU
 10
1536.188067350791
 20
294.90513292132653
 30
0.0
 11
1536.188067350791
 21
288.23846625465978
 31
0.0
 12
1516.188067350791
 22
291.57179958799321
 32
0.0
 13
1516.188067350791
 23
291.57179958799321
 33
0.0
  0
SOLID
  5
1403
  8
SUNPOU
 10
1896.188067350791
 20
294.90513292132653
 30
0.0
 11
1896.188067350791
 21
288.23846625465978
 31
0.0
 12
1916.188067350791
 22
291.57179958799321
 32
0.0
 13
1916.188067350791
 23
291.57179958799321
 33
0.0
  0
TEXT
  8
SUNPOU
  40
30
  5
1442
  72
0
  71
0
 10
1656.19
 20
265.472
 30
0.000000
  1
400
  7
EXT08
  0
POINT
  5
1405
  8
DEFPOINTS
 62
     0
 10
1516.188067350791
 20
411.5717995879931
 30
0.0
  0
POINT
  5
1406
  8
DEFPOINTS
 62
     0
 10
1916.188067350791
 20
411.5717995879931
 30
0.0
  0
POINT
  5
1407
  8
DEFPOINTS
 62
     0
 10
1916.188067350791
 20
291.57179958799321
 30
0.0
  0
ENDBLK
  5
58B
  8
0
  0
BLOCK
  8
0
  2
*D35
 70
     1
 10
0.0
 20
0.0
 30
0.0
  3
*D35
  1

  0
LINE
  5
1408
  8
SUNPOU
 10
1621.188067350791
 20
1911.8218980776739
 30
0.0
 11
1621.188067350791
 21
2116.5718980776742
 31
0.0
  0
LINE
  5
1409
  8
SUNPOU
 10
1811.188067350791
 20
1911.8218980776739
 30
0.0
 11
1811.188067350791
 21
2116.5718980776742
 31
0.0
  0
LINE
  5
140A
  8
SUNPOU
 10
1641.188067350791
 20
2106.5718980776751
 30
0.0
 11
1791.188067350791
 21
2106.5718980776751
 31
0.0
  0
SOLID
  5
140B
  8
SUNPOU
 10
1641.188067350791
 20
2109.9052314110081
 30
0.0
 11
1641.188067350791
 21
2103.2385647443411
 31
0.0
 12
1621.188067350791
 22
2106.5718980776751
 32
0.0
 13
1621.188067350791
 23
2106.5718980776751
 33
0.0
  0
SOLID
  5
140C
  8
SUNPOU
 10
1791.188067350791
 20
2109.9052314110081
 30
0.0
 11
1791.188067350791
 21
2103.2385647443411
 31
0.0
 12
1811.188067350791
 22
2106.5718980776751
 32
0.0
 13
1811.188067350791
 23
2106.5718980776751
 33
0.0
  0
TEXT
  8
SUNPOU
  40
30
  5
1443
  72
0
  71
0
 10
1656.19
 20
2080.47
 30
0.000000
  1
190
  7
EXT08
  0
POINT
  5
140E
  8
DEFPOINTS
 62
     0
 10
1621.188067350791
 20
1901.8218980776751
 30
0.0
  0
POINT
  5
140F
  8
DEFPOINTS
 62
     0
 10
1811.188067350791
 20
1901.8218980776751
 30
0.0
  0
POINT
  5
1410
  8
DEFPOINTS
 62
     0
 10
1811.188067350791
 20
2106.5718980776751
 30
0.0
  0
ENDBLK
  5
596
  8
0
  0
BLOCK
  8
0
  2
*D36
 70
     1
 10
0.0
 20
0.0
 30
0.0
  3
*D36
  1

  0
LINE
  5
141F
  8
SUNPOU
 10
1863.750567350791
 20
882.57179958799316
 30
0.0
 11
2098.3380673507909
 21
882.57179958799316
 31
0.0
  0
LINE
  5
1420
  8
SUNPOU
 10
2088.3380673507909
 20
902.57179958799316
 30
0.0
 11
2088.3380673507909
 21
922.57179958799304
 31
0.0
  0
LINE
  5
1421
  8
SUNPOU
 10
2088.3380673507909
 20
856.57179958799316
 30
0.0
 11
2088.3380673507909
 21
836.57179958799316
 31
0.0
  0
TEXT
  8
SUNPOU
  40
30
  5
1444
  72
0
  71
0
 10
1998.39
 20
854.533
 30
0.000000
  1
t6
  7
EXT08
  0
LINE
  5
1423
  8
SUNPOU
 10
2088.3380673507909
 20
882.57179958799316
 30
0.0
 11
2088.3380673507909
 21
876.57179958799316
 31
0.0
  0
SOLID
  5
1424
  8
SUNPOU
 10
2085.0047340174578
 20
902.57179958799316
 30
0.0
 11
2091.6714006841239
 21
902.57179958799316
 31
0.0
 12
2088.3380673507909
 22
882.57179958799316
 32
0.0
 13
2088.3380673507909
 23
882.57179958799316
 33
0.0
  0
SOLID
  5
1425
  8
SUNPOU
 10
2085.0047340174578
 20
856.57179958799316
 30
0.0
 11
2091.6714006841239
 21
856.57179958799316
 31
0.0
 12
2088.3380673507909
 22
876.57179958799316
 32
0.0
 13
2088.3380673507909
 23
876.57179958799316
 33
0.0
  0
POINT
  5
1426
  8
DEFPOINTS
 62
     0
 10
1853.750567350791
 20
882.57179958799316
 30
0.0
  0
POINT
  5
1427
  8
DEFPOINTS
 62
     0
 10
2088.3380673507909
 20
876.57179958799316
 30
0.0
  0
POINT
  5
1428
  8
DEFPOINTS
 62
     0
 10
2088.3380673507909
 20
876.57179958799316
 30
0.0
  0
ENDBLK
  5
95C
  8
0
  0
BLOCK
  8
0
  2
*D37
 70
     1
 10
0.0
 20
0.0
 30
0.0
  3
*D37
  1

  0
LINE
  5
1429
  8
SUNPOU
 10
1593.688067350791
 20
1866.5093980776739
 30
0.0
 11
1593.688067350791
 21
2166.5718980776751
 31
0.0
  0
LINE
  5
142A
  8
SUNPOU
 10
1838.688067350791
 20
1866.5093980776739
 30
0.0
 11
1838.688067350791
 21
2166.5718980776751
 31
0.0
  0
LINE
  5
142B
  8
SUNPOU
 10
1613.688067350791
 20
2156.5718980776751
 30
0.0
 11
1818.688067350791
 21
2156.5718980776751
 31
0.0
  0
SOLID
  5
142C
  8
SUNPOU
 10
1613.688067350791
 20
2159.9052314110081
 30
0.0
 11
1613.688067350791
 21
2153.2385647443411
 31
0.0
 12
1593.688067350791
 22
2156.5718980776751
 32
0.0
 13
1593.688067350791
 23
2156.5718980776751
 33
0.0
  0
SOLID
  5
142D
  8
SUNPOU
 10
1818.688067350791
 20
2159.9052314110081
 30
0.0
 11
1818.688067350791
 21
2153.2385647443411
 31
0.0
 12
1838.688067350791
 22
2156.5718980776751
 32
0.0
 13
1838.688067350791
 23
2156.5718980776751
 33
0.0
  0
TEXT
  8
SUNPOU
  40
30
  5
1445
  72
0
  71
0
 10
1656.19
 20
2130.47
 30
0.000000
  1
%%c245
  7
EXT08
  0
POINT
  5
142F
  8
DEFPOINTS
 62
     0
 10
1593.688067350791
 20
1856.5093980776739
 30
0.0
  0
POINT
  5
1430
  8
DEFPOINTS
 62
     0
 10
1838.688067350791
 20
1856.5093980776739
 30
0.0
  0
POINT
  5
1431
  8
DEFPOINTS
 62
     0
 10
1838.688067350791
 20
2156.5718980776751
 30
0.0
  0
ENDBLK
  5
5AE
  8
0
  0
BLOCK
  8
0
  2
*D38
 70
     1
 10
0.0
 20
0.0
 30
0.0
  3
*D38
  1

  0
LINE
  5
1432
  8
SUNPOU
 10
1659.0380673507909
 20
1866.5093980776739
 30
0.0
 11
1659.0380673507909
 21
2066.5718980776751
 31
0.0
  0
LINE
  5
1433
  8
SUNPOU
 10
1773.3380673507911
 20
1866.5093980776739
 30
0.0
 11
1773.3380673507911
 21
2066.5718980776751
 31
0.0
  0
LINE
  5
1434
  8
SUNPOU
 10
1679.0380673507909
 20
2056.5718980776751
 30
0.0
 11
1753.338067350792
 21
2056.5718980776751
 31
0.0
  0
TEXT
  8
SUNPOU
  40
30
  5
1446
  72
0
  71
0
 10
1655.63
 20
2030.64
 30
0.000000
  1
%%c114.3
  7
EXT08
  0
SOLID
  5
1436
  8
SUNPOU
 10
1679.0380673507909
 20
2059.9052314110081
 30
0.0
 11
1679.0380673507909
 21
2053.2385647443411
 31
0.0
 12
1659.0380673507909
 22
2056.5718980776751
 32
0.0
 13
1659.0380673507909
 23
2056.5718980776751
 33
0.0
  0
SOLID
  5
1437
  8
SUNPOU
 10
1753.338067350792
 20
2059.9052314110081
 30
0.0
 11
1753.338067350792
 21
2053.2385647443411
 31
0.0
 12
1773.3380673507911
 22
2056.5718980776751
 32
0.0
 13
1773.3380673507911
 23
2056.5718980776751
 33
0.0
  0
POINT
  5
1438
  8
DEFPOINTS
 62
     0
 10
1659.0380673507909
 20
1856.5093980776739
 30
0.0
  0
POINT
  5
1439
  8
DEFPOINTS
 62
     0
 10
1773.3380673507911
 20
1856.5093980776739
 30
0.0
  0
POINT
  5
143A
  8
DEFPOINTS
 62
     0
 10
1773.3380673507911
 20
2056.5718980776751
 30
0.0
  0
ENDBLK
  5
5B9
  8
0
  0
BLOCK
  8
0
  2
B0020007
 70
     0
 10
0.0
 20
0.0
 30
0.0
  3
B0020007
  1

  0
LINE
  5
823
  8
MOJI
 10
0.0
 20
249.61248000000009
 30
0.0
 11
2173.7139150431972
 21
249.61248000000009
 31
0.0
  0
LINE
  5
824
  8
MOJI
 10
2173.7139150431972
 20
1123.2561599999999
 30
0.0
 11
0.0
 21
1123.2561599999999
 31
0.0
  0
LINE
  5
825
  8
MOJI
 10
2173.7139150431972
 20
998.44992000000013
 30
0.0
 11
0.0
 21
998.44992000000013
 31
0.0
  0
LINE
  5
826
  8
MOJI
 10
2173.7139150431972
 20
873.64368000000013
 30
0.0
 11
0.0
 21
873.64368000000013
 31
0.0
  0
LINE
  5
827
  8
MOJI
 10
2173.7139150431972
 20
499.22496000000018
 30
0.0
 11
0.0
 21
499.22496000000018
 31
0.0
  0
LINE
  5
828
  8
MOJI
 10
0.0
 20
0.0
 30
0.0
 11
2173.7139150431972
 21
0.0
 31
0.0
  0
LINE
  5
829
  8
MOJI
 10
2173.7139150431972
 20
748.83744000000002
 30
0.0
 11
0.0
 21
748.83744000000002
 31
0.0
  0
LINE
  5
82A
  8
MOJI
 10
0.0
 20
624.03120000000013
 30
0.0
 11
2173.7139150431972
 21
624.03120000000013
 31
0.0
  0
LINE
  5
82B
  8
MOJI
 10
2173.7139150431972
 20
374.41872000000012
 30
0.0
 11
0.0
 21
374.41872000000012
 31
0.0
  0
LINE
  5
82C
  8
MOJI
 10
2173.7139150431972
 20
124.80624
 30
0.0
 11
0.0
 21
124.80624
 31
0.0
  0
TEXT
  5
82D
  8
MOJI
 10
649.68315803284065
 20
147.42515400000019
 30
0.0
 40
62.5
  1
ガラスビーズ
  7
KANJI
  0
TEXT
  5
82E
  8
MOJI
 10
669.08787203284191
 20
898.65011399999992
 30
0.0
 40
62.5
  1
STK400
  7
KANJI
  0
TEXT
  5
82F
  8
MOJI
 10
669.08787203284191
 20
772.65011400000003
 30
0.0
 40
62.5
  1
STK400
  7
KANJI
  0
TEXT
  5
830
  8
MOJI
 10
669.08787203284191
 20
272.23139400000002
 30
0.0
 40
62.5
  1
ステンレス
  7
KANJI
  0
TEXT
  5
831
  8
MOJI
 10
669.08787203284191
 20
646.65011400000003
 30
0.0
 40
62.5
  1
アルミ合金
  7
KANJI
  0
TEXT
  5
832
  8
MOJI
 10
669.08787203284191
 20
22.618914000000132
 30
0.0
 40
62.5
  1
　アルミ
  7
KANJI
  0
TEXT
  5
833
  8
MOJI
 10
669.08787203284191
 20
397.03763400000008
 30
0.0
 40
62.5
  1
  SWRM
  7
KANJI
  0
TEXT
  5
834
  8
MOJI
 10
669.08787203284191
 20
521.8438739999998
 30
0.0
 40
62.5
  1
　 PC
  7
KANJI
  0
TEXT
  5
835
  8
MOJI
 10
766.52963689064006
 20
1021.365999
 30
0.0
 40
62.5
  1
材　質
  7
KANJI
  0
LINE
  5
836
  8
MOJI
 10
640.58322472681266
 20
1123.2561599999999
 30
0.0
 11
640.58322472681266
 21
0.0
 31
0.0
  0
LINE
  5
837
  8
MOJI
 10
178.70399700000141
 20
1123.2561599999999
 30
0.0
 11
178.70399700000141
 21
0.0
 31
0.0
  0
LINE
  5
838
  8
MOJI
 10
0.0
 20
1123.2561599999999
 30
0.0
 11
0.0
 21
0.0
 31
0.0
  0
TEXT
  5
839
  8
MOJI
 10
79.781155011271949
 20
22.618914000000132
 30
0.0
 40
62.5
  1
　 リベット
  7
KANJI
  0
TEXT
  5
83A
  8
MOJI
 10
126.29337113681051
 20
147.42515400000011
 30
0.0
 40
62.5
  1
　反　射　体
  7
KANJI
  0
TEXT
  5
83B
  8
MOJI
 10
60.785928000001149
 20
22.618914000000132
 30
0.0
 40
62.5
  1
8
  7
KANJI
  0
TEXT
  5
83C
  8
MOJI
 10
60.785928000001149
 20
147.42515400000011
 30
0.0
 40
62.5
  1
7
  7
KANJI
  0
TEXT
  5
83D
  8
MOJI
 10
206.02849668858019
 20
397.03763400000008
 30
0.0
 40
62.5
  1
取 付 ピ ン
  7
KANJI
  0
TEXT
  5
83E
  8
MOJI
 10
129.6156799455357
 20
272.23139400000002
 30
0.0
 40
62.5
  1
　スプリング
  7
KANJI
  0
TEXT
  5
83F
  8
MOJI
 10
156.19404321872389
 20
521.8438739999998
 30
0.0
 40
62.5
  1
 メイキャップ
  7
KANJI
  0
TEXT
  5
840
  8
MOJI
 10
122.97102659588199
 20
646.65011400000003
 30
0.0
 40
62.5
  1
　擬　宝　珠
  7
KANJI
  0
TEXT
  5
841
  8
MOJI
 10
60.785928000001149
 20
272.23139400000002
 30
0.0
 40
62.5
  1
6
  7
KANJI
  0
TEXT
  5
842
  8
MOJI
 10
60.785928000001149
 20
397.03763400000008
 30
0.0
 40
62.5
  1
5
  7
KANJI
  0
TEXT
  5
843
  8
MOJI
 10
60.785928000001149
 20
521.8438739999998
 30
0.0
 40
62.5
  1
4
  7
KANJI
  0
TEXT
  5
844
  8
MOJI
 10
60.785928000001149
 20
646.65011400000003
 30
0.0
 40
62.5
  1
3
  7
KANJI
  0
TEXT
  5
845
  8
MOJI
 10
25.416720000001082
 20
1017.322572
 30
0.0
 40
62.5
  1
部番
  7
KANJI
  0
TEXT
  5
846
  8
MOJI
 10
122.97102659588199
 20
772.65011400000003
 30
0.0
 40
62.5
  1
　格子パネル
  7
KANJI
  0
TEXT
  5
847
  8
MOJI
 10
122.97102659588199
 20
898.65011399999992
 30
0.0
 40
62.5
  1
  支      柱
  7
KANJI
  0
TEXT
  5
848
  8
MOJI
 10
300.23418300000048
 20
1023.914775
 30
0.0
 40
62.5
  1
品　名
  7
KANJI
  0
TEXT
  5
849
  8
MOJI
 10
60.785928000001149
 20
898.65011399999992
 30
0.0
 40
62.5
  1
1
  7
KANJI
  0
TEXT
  5
84A
  8
MOJI
 10
60.785928000001149
 20
772.65011400000003
 30
0.0
 40
62.5
  1
2
  7
KANJI
  0
LINE
  5
84B
  8
MOJI
 10
2173.7139150431972
 20
0.0
 30
0.0
 11
2173.7139150431972
 21
1123.2561599999999
 31
0.0
  0
LINE
  5
84C
  8
MOJI
 10
1100.9824314752491
 20
1123.2561599999999
 30
0.0
 11
1100.9824314752491
 21
0.0
 31
0.0
  0
TEXT
  5
84D
  8
MOJI
 10
1165.5853020000011
 20
22.618914000000132
 30
0.0
 40
62.5
  1
　　　　φ3.2
  7
KANJI
  0
TEXT
  5
84E
  8
MOJI
 10
1165.5853020000011
 20
397.03763400000008
 30
0.0
 40
62.5
  1
　　　亜鉛めっき
  7
KANJI
  0
TEXT
  5
84F
  8
MOJI
 10
1084.141047000001
 20
646.65011400000003
 30
0.0
 40
62.5
  1
          焼付塗装
  7
KANJI
  0
TEXT
  5
850
  8
MOJI
 10
1165.5853020000011
 20
148.6189140000001
 30
0.0
 40
62.5
  1
ベース 黒・反射体 黄
  7
KANJI
  0
TEXT
  5
851
  8
MOJI
 10
1084.141047000001
 20
521.8438739999998
 30
0.0
 40
62.5
  1
 ポリカーボネート樹脂（色付）
  7
KANJI
  0
TEXT
  5
852
  8
MOJI
 10
1165.5853020000011
 20
272.23139400000002
 30
0.0
 40
62.5
  1
　　　　t=0.8
  7
KANJI
  0
TEXT
  5
853
  8
MOJI
 10
1366.7267380053941
 20
1024.70226
 30
0.0
 40
62.5
  1
摘　　要
  7
KANJI
  0
TEXT
  5
854
  8
MOJI
 10
1165.5853020000011
 20
898.65011399999992
 30
0.0
 40
62.5
  1
亜鉛めっき+静電粉体塗装
  7
KANJI
  0
TEXT
  5
855
  8
MOJI
 10
1165.5853020000011
 20
772.65011400000003
 30
0.0
 40
62.5
  1
亜鉛めっき+静電粉体塗装
  7
KANJI
  0
ENDBLK
  5
857
  8
0
  0
BLOCK
  8
0
  2
B0020022
 70
     0
 10
0.0
 20
0.0
 30
0.0
  3
B0020022
  1

  0
TEXT
  5
91B
  8
SJC
 10
14715.092511309769
 20
10.962491454865919
 30
0.0
 40
80.0
  1
AEC 961249
 41
0.8
  7
KANJI
  0
ENDBLK
  5
91D
  8
0
  0
BLOCK
  8
0
  2
*U41
 70
     1
 10
0.0
 20
0.0
 30
0.0
  3
*U41
  1

  0
TEXT
  5
1379
  8
0
 10
1958.1043374724479
 20
2199.6013268452152
 30
0.0
 40
30.0
  1
190
 41
0.8
  7
KANJI08
  0
ENDBLK
  5
137B
  8
0
  0
BLOCK
  8
0
  2
*U42
 70
     1
 10
0.0
 20
0.0
 30
0.0
  3
*U42
  1

  0
TEXT
  5
137D
  8
0
 10
3055.2543374724478
 20
2199.6013268452152
 30
0.0
 40
30.0
  1
190
 41
0.8
  7
KANJI08
  0
ENDBLK
  5
137F
  8
0
  0
BLOCK
  8
0
  2
*U43
 70
     1
 10
0.0
 20
0.0
 30
0.0
  3
*U43
  1

  0
TEXT
  5
1381
  8
0
 10
1185.0417798954329
 20
1320.315622511677
 30
0.0
 40
30.0
  1
730
 50
90.0
 41
0.8
  7
KANJI08
  0
ENDBLK
  5
1383
  8
0
  0
BLOCK
  8
0
  2
*U44
 70
     1
 10
0.0
 20
0.0
 30
0.0
  3
*U44
  1

  0
TEXT
  5
1385
  8
0
 10
1335.0417798954329
 20
1082.172755416643
 30
0.0
 40
30.0
  1
1180
 50
90.0
 41
0.8
  7
KANJI08
  0
ENDBLK
  5
1387
  8
0
  0
BLOCK
  8
0
  2
*U45
 70
     1
 10
0.0
 20
0.0
 30
0.0
  3
*U45
  1

  0
TEXT
  5
1389
  8
0
 10
1185.0417798954329
 20
730.31562251167645
 30
0.0
 40
30.0
  1
450
 50
90.0
 41
0.8
  7
KANJI08
  0
ENDBLK
  5
138B
  8
0
  0
BLOCK
  8
0
  2
*U46
 70
     1
 10
0.0
 20
0.0
 30
0.0
  3
*U46
  1

  0
TEXT
  5
138D
  8
0
 10
542.93290890102003
 20
419.60132684521523
 30
0.0
 40
30.0
  1
□400
 41
0.8
  7
KANJI08
  0
ENDBLK
  5
138F
  8
0
  0
BLOCK
  8
0
  2
*U47
 70
     1
 10
0.0
 20
0.0
 30
0.0
  3
*U47
  1

  0
TEXT
  5
1391
  8
0
 10
2379.1043374724491
 20
730.31561255950101
 30
0.0
 40
30.0
  1
450
 50
90.0
 41
0.8
  7
KANJI08
  0
ENDBLK
  5
1393
  8
0
  0
BLOCK
  8
0
  2
*U48
 70
     1
 10
0.0
 20
0.0
 30
0.0
  3
*U48
  1

  0
TEXT
  5
1395
  8
0
 10
2251.6043374724491
 20
903.60132684521534
 30
0.0
 40
30.0
  1
100
 50
90.0
 41
0.8
  7
KANJI08
  0
ENDBLK
  5
1397
  8
0
  0
BLOCK
  8
0
  2
*U49
 70
     1
 10
0.0
 20
0.0
 30
0.0
  3
*U49
  1

  0
TEXT
  5
1399
  8
0
 10
1950.1043374724491
 20
1175.601326845215
 30
0.0
 40
30.0
  1
\U+2205245
 41
0.8
  7
KANJI08
  0
ENDBLK
  5
139B
  8
0
  0
BLOCK
  8
0
  2
*U50
 70
     1
 10
0.0
 20
0.0
 30
0.0
  3
*U50
  1

  0
TEXT
  5
139D
  8
0
 10
542.93290890102003
 20
419.60132684521523
 30
0.0
 40
30.0
  1
□400
 41
0.8
  7
KANJI08
  0
ENDBLK
  5
139F
  8
0
  0
BLOCK
  8
0
  2
*U51
 70
     1
 10
0.0
 20
0.0
 30
0.0
  3
*U51
  1

  0
TEXT
  5
13A1
  8
0
 10
3004.603363268091
 20
1757.114337319151
 30
0.0
 40
30.0
  1
\U+2205114.3
 41
0.8
  7
KANJI08
  0
ENDBLK
  5
13A3
  8
0
  0
BLOCK
  8
0
  2
*U52
 70
     1
 10
0.0
 20
0.0
 30
0.0
  3
*U52
  1

  0
TEXT
  5
13A5
  8
0
 10
3047.2543374724492
 20
1669.601326845215
 30
0.0
 40
30.0
  1
\U+2205245
 41
0.8
  7
KANJI08
  0
ENDBLK
  5
13A7
  8
0
  0
BLOCK
  8
0
  2
*U53
 70
     1
 10
0.0
 20
0.0
 30
0.0
  3
*U53
  1

  0
TEXT
  5
13A9
  8
0
 10
3378.4043374724479
 20
1020.315622511676
 30
0.0
 40
30.0
  1
730
 50
90.0
 41
0.8
  7
KANJI08
  0
ENDBLK
  5
13AB
  8
0
  0
BLOCK
  8
0
  2
*U54
 70
     1
 10
0.0
 20
0.0
 30
0.0
  3
*U54
  1

  0
TEXT
  5
13AD
  8
0
 10
3493.4043374724479
 20
895.31561255950089
 30
0.0
 40
30.0
  1
980
 50
90.0
 41
0.8
  7
KANJI08
  0
ENDBLK
  5
13AF
  8
0
  0
BLOCK
  8
0
  2
*U55
 70
     1
 10
0.0
 20
0.0
 30
0.0
  3
*U55
  1

  0
TEXT
  5
13B1
  8
0
 10
3307.6740889326411
 20
706.50335496230673
 30
0.0
 40
30.0
  1
6
 50
90.0
 41
0.8
  7
KANJI08
  0
ENDBLK
  5
13B3
  8
0
  0
BLOCK
  8
0
  2
*U56
 70
     1
 10
0.0
 20
0.0
 30
0.0
  3
*U56
  1

  0
TEXT
  5
13B5
  8
0
 10
3378.4043374724479
 20
530.31562251167645
 30
0.0
 40
30.0
  1
250
 50
90.0
 41
0.8
  7
KANJI08
  0
ENDBLK
  5
13B7
  8
0
  0
BLOCK
  8
0
  2
*U57
 70
     1
 10
0.0
 20
0.0
 30
0.0
  3
*U57
  1

  0
TEXT
  5
13B9
  8
0
 10
2164.0
 20
2420.0
 30
0.0
 40
30.0
  1
190
 41
0.8
  7
KANJI08
  0
ENDBLK
  5
13BB
  8
0
  0
BLOCK
  8
0
  2
*U58
 70
     1
 10
0.0
 20
0.0
 30
0.0
  3
*U58
  1

  0
TEXT
  5
13BD
  8
0
 10
2118.8979600611528
 20
1993.886360401649
 30
0.0
 40
30.0
  1
\U+2205114.3
 41
0.8
  7
KANJI08
  0
ENDBLK
  5
13BF
  8
0
  0
BLOCK
  8
0
  2
*U59
 70
     1
 10
0.0
 20
0.0
 30
0.0
  3
*U59
  1

  0
TEXT
  5
13C1
  8
0
 10
2156.0000000000009
 20
1885.0
 30
0.0
 40
30.0
  1
\U+2205245
 41
0.8
  7
KANJI08
  0
ENDBLK
  5
13C3
  8
0
  0
BLOCK
  8
0
  2
*U60
 70
     1
 10
0.0
 20
0.0
 30
0.0
  3
*U60
  1

  0
TEXT
  5
13C5
  8
0
 10
2690.0000000000009
 20
1340.7142956664611
 30
0.0
 40
30.0
  1
730
 50
90.0
 41
0.8
  7
KANJI08
  0
ENDBLK
  5
13C7
  8
0
  0
BLOCK
  8
0
  2
*U61
 70
     1
 10
0.0
 20
0.0
 30
0.0
  3
*U61
  1

  0
TEXT
  5
13C9
  8
0
 10
2840.0000000000009
 20
1102.571428571428
 30
0.0
 40
30.0
  1
1180
 50
90.0
 41
0.8
  7
KANJI08
  0
ENDBLK
  5
13CB
  8
0
  0
BLOCK
  8
0
  2
*U62
 70
     1
 10
0.0
 20
0.0
 30
0.0
  3
*U62
  1

  0
TEXT
  5
13CD
  8
0
 10
2690.0000000000009
 20
750.71429566646123
 30
0.0
 40
30.0
  1
450
 50
90.0
 41
0.8
  7
KANJI08
  0
ENDBLK
  5
13CF
  8
0
  0
BLOCK
  8
0
  2
*U63
 70
     1
 10
0.0
 20
0.0
 30
0.0
  3
*U63
  1

  0
TEXT
  5
13D1
  8
0
 10
2165.7142857142858
 20
440.0
 30
0.0
 40
30.0
  1
400
 41
0.8
  7
KANJI08
  0
ENDBLK
  5
13D3
  8
0
  0
BLOCK
  8
0
  2
*U64
 70
     1
 10
0.0
 20
0.0
 30
0.0
  3
*U64
  1

  0
TEXT
  5
13D5
  8
0
 10
2557.20075757418
 20
1016.6762806896299
 30
0.0
 40
30.0
  1
6
 50
90.0
 41
0.8
  7
KANJI08
  0
ENDBLK
  5
13D7
  8
0
  0
ENDSEC
  0
SECTION
  2
ENTITIES
  0
LINE
  5
48F
  8
SJC
 10
1169.0380673507909
 20
876.57179958799372
 30
0.0
 11
2261.1880673507908
 21
876.57179958799316
 31
0.0
  0
LINE
  5
490
  8
HATCH
 10
1516.188067350791
 20
796.92180307014632
 30
0.0
 11
1595.8380751203019
 21
876.57179958799316
 31
0.0
  0
LINE
  5
491
  8
HATCH
 10
1516.188067350791
 20
820.92180307014621
 30
0.0
 11
1571.8380717299699
 21
876.57179958799372
 31
0.0
  0
LINE
  5
492
  8
HATCH
 10
1916.188067350791
 20
861.67178120957033
 30
0.0
 11
1773.3380673507911
 21
718.82180138910678
 31
0.0
  0
LINE
  5
493
  8
HATCH
 10
1916.188067350791
 20
873.67178120956987
 30
0.0
 11
1773.3380673507911
 21
730.82180138910678
 31
0.0
  0
LINE
  5
494
  8
HATCH
 10
1907.088084443717
 20
876.57179958799316
 30
0.0
 11
1773.3380673507911
 21
742.82180138910678
 31
0.0
  0
LINE
  5
495
  8
SJC
 10
1659.0380673507909
 20
1549.5717995879929
 30
0.0
 11
1659.0380673507909
 21
426.5717995879931
 31
0.0
  0
LINE
  5
496
  8
SJC
 10
1773.33806735079
 20
1549.5717995879929
 30
0.0
 11
1773.3380673507911
 21
426.5717995879931
 31
0.0
  0
DIMENSION
  5
498
  8
SUNPOU
  2
*D31
 10
2371.1880673507922
 20
426.57179958799298
 30
0.0
 11
2344.1880673507922
 21
1016.571799587993
 31
0.0
 70
     0
 13
1716.188067350791
 23
1606.5717995879929
 33
0.0
 14
1936.188067350791
 24
426.5717995879931
 34
0.0
 50
270.0
1001
ACAD
1000
DSTYLE
1002
{
1070
   287
1070
     5
1070
    40
1040
10.0
1070
    41
1040
2.0
1070
    42
1040
1.0
1070
    43
1040
6.0
1070
    44
1040
1.0
1070
    73
1070
     0
1070
    74
1070
     0
1070
    77
1070
     1
1070
    78
1070
     8
1070
   140
1040
3.0
1070
   147
1040
1.1999999999999991
1070
   172
1070
     1
1070
   176
1070
   256
1070
   177
1070
   256
1070
   178
1070
   256
1070
   271
1070
     1
1070
   275
1070
     1
1070
   279
1070
     2
1070
   340
1005
17A
1002
}
  0
DIMENSION
  5
499
  8
SUNPOU
  2
*D32
 10
2221.1880673507922
 20
876.57181949234416
 30
0.0
 11
2194.1880673507922
 21
1241.5718095401689
 31
0.0
 70
     0
 13
1716.188067350791
 23
1606.5717995879929
 33
0.0
 14
2221.1880673507922
 24
876.57181949234416
 34
0.0
 50
270.0
1001
ACAD
1000
DSTYLE
1002
{
1070
   287
1070
     5
1070
    40
1040
10.0
1070
    41
1040
2.0
1070
    42
1040
1.0
1070
    43
1040
6.0
1070
    44
1040
1.0
1070
    73
1070
     0
1070
    74
1070
     0
1070
    77
1070
     1
1070
    78
1070
     8
1070
   140
1040
3.0
1070
   147
1040
1.1999999999999991
1070
   172
1070
     1
1070
   176
1070
   256
1070
   177
1070
   256
1070
   178
1070
   256
1070
   271
1070
     1
1070
   275
1070
     1
1070
   279
1070
     2
1070
   340
1005
17A
1002
}
  0
DIMENSION
  5
49A
  8
SUNPOU
  2
*D33
 10
2221.1880673507922
 20
876.57181949234416
 30
0.0
 11
2194.1880673507922
 21
651.57180954016906
 31
0.0
 70
     0
 13
1936.188067350791
 23
426.5717995879931
 33
0.0
 14
2221.1880673507922
 24
876.57181949234416
 34
0.0
 50
270.0
1001
ACAD
1000
DSTYLE
1002
{
1070
   287
1070
     5
1070
    40
1040
10.0
1070
    41
1040
2.0
1070
    42
1040
1.0
1070
    43
1040
6.0
1070
    44
1040
1.0
1070
    73
1070
     0
1070
    74
1070
     0
1070
    77
1070
     1
1070
    78
1070
     8
1070
   140
1040
3.0
1070
   147
1040
1.1999999999999991
1070
   172
1070
     1
1070
   176
1070
   256
1070
   177
1070
   256
1070
   178
1070
   256
1070
   271
1070
     1
1070
   275
1070
     1
1070
   279
1070
     2
1070
   340
1005
17A
1002
}
  0
LINE
  5
49D
  8
CENTER
 10
1716.188067350791
 20
2006.5718980776751
 30
0.0
 11
1716.188067350791
 21
1706.5718980776739
 31
0.0
  0
LINE
  5
49E
  8
SJC
 10
1516.188067350791
 20
876.57179958799316
 30
0.0
 11
1516.188067350791
 21
426.5717995879931
 31
0.0
  0
LINE
  5
49F
  8
SJC
 10
1916.188067350791
 20
876.57179958799316
 30
0.0
 11
1916.188067350791
 21
426.5717995879931
 31
0.0
  0
DIMENSION
  5
4A0
  8
SUNPOU
  2
*D34
 10
1916.188067350791
 20
291.57179958799321
 30
0.0
 11
1716.188067350791
 21
318.57179958799321
 31
0.0
 70
     0
 13
1516.188067350791
 23
411.5717995879931
 33
0.0
 14
1916.188067350791
 24
411.5717995879931
 34
0.0
1001
ACAD
1000
DSTYLE
1002
{
1070
   287
1070
     5
1070
    40
1040
10.0
1070
    41
1040
2.0
1070
    42
1040
1.0
1070
    43
1040
6.0
1070
    44
1040
1.0
1070
    73
1070
     0
1070
    74
1070
     0
1070
    77
1070
     1
1070
    78
1070
     8
1070
   140
1040
3.0
1070
   147
1040
1.1999999999999991
1070
   172
1070
     1
1070
   176
1070
   256
1070
   177
1070
   256
1070
   178
1070
   256
1070
   271
1070
     1
1070
   275
1070
     1
1070
   279
1070
     2
1070
   340
1005
17A
1002
}
  0
LINE
  5
4A1
  8
HATCH
 10
1916.188067350791
 20
516.57180241326967
 30
0.0
 11
1826.1880518117689
 21
426.5717995879931
 31
0.0
  0
LINE
  5
4A2
  8
HATCH
 10
1916.188067350791
 20
528.57180241326967
 30
0.0
 11
1814.1880501166031
 21
426.5717995879931
 31
0.0
  0
LINE
  5
4A3
  8
HATCH
 10
1916.188067350791
 20
540.57180241326967
 30
0.0
 11
1802.188048421438
 21
426.5717995879931
 31
0.0
  0
LINE
  5
4A4
  8
HATCH
 10
1634.2880673507921
 20
426.5717995879931
 30
0.0
 11
1659.0380673507909
 21
451.3217995879931
 31
0.0
  0
LINE
  5
4A5
  8
HATCH
 10
1646.2880673507921
 20
426.5717995879931
 30
0.0
 11
1659.0380673507909
 21
439.32179958799259
 31
0.0
  0
LINE
  5
4A6
  8
HATCH
 10
1773.3380673507911
 20
555.62179958799277
 30
0.0
 11
1916.188067350791
 21
698.47179958799268
 31
0.0
  0
LINE
  5
4A7
  8
HATCH
 10
1773.3380673507911
 20
567.62179958799243
 30
0.0
 11
1916.188067350791
 21
710.47179958799268
 31
0.0
  0
LINE
  5
4A8
  8
HATCH
 10
1773.3380673507911
 20
543.62179958799277
 30
0.0
 11
1916.188067350791
 21
686.47179958799279
 31
0.0
  0
LINE
  5
4A9
  8
HATCH
 10
1659.0380673507909
 20
604.52181753556215
 30
0.0
 11
1516.188067350791
 21
461.67183771509821
 31
0.0
  0
LINE
  5
4AA
  8
HATCH
 10
1659.0380673507909
 20
616.52181753556295
 30
0.0
 11
1516.188067350791
 21
473.67183771509912
 31
0.0
  0
LINE
  5
4AB
  8
HATCH
 10
1659.0380673507909
 20
628.52181753556215
 30
0.0
 11
1516.188067350791
 21
485.67183771509917
 31
0.0
  0
LINE
  5
4AC
  8
HATCH
 10
1659.0380673507909
 20
793.3217977868793
 30
0.0
 11
1516.188067350791
 21
650.47181796641587
 31
0.0
  0
LINE
  5
4AD
  8
HATCH
 10
1659.0380673507909
 20
781.32179778687987
 30
0.0
 11
1516.188067350791
 21
638.47181796641644
 31
0.0
  0
LINE
  5
4AE
  8
HATCH
 10
1659.0380673507909
 20
769.32179778687896
 30
0.0
 11
1516.188067350791
 21
626.47181796641496
 31
0.0
  0
LINE
  5
4B0
  8
SJC
 10
1516.188067350791
 20
426.5717995879931
 30
0.0
 11
1916.188067350791
 21
426.5717995879931
 31
0.0
  0
LINE
  5
4B1
  8
SJC
 10
1593.6880673507919
 20
882.57179958799316
 30
0.0
 11
1593.688067350791
 21
876.57179958799316
 31
0.0
  0
LINE
  5
4B2
  8
HATCH
 10
1838.688067350791
 20
882.57179958799316
 30
0.0
 11
1838.688067350791
 21
876.57179958799316
 31
0.0
  0
LINE
  5
4B3
  8
SJC
 10
1593.6880673507919
 20
882.57179958799316
 30
0.0
 11
1838.688067350791
 21
882.57179958799316
 31
0.0
  0
LINE
  5
4B4
  8
CENTER
 10
1566.188067350791
 20
1856.5718980776751
 30
0.0
 11
1866.188067350791
 21
1856.5718980776751
 31
0.0
  0
LINE
  5
4B5
  8
CENTER
 10
1716.188067350791
 20
1631.5718980776739
 30
0.0
 11
1716.188067350791
 21
401.5717995879931
 31
0.0
  0
CIRCLE
  5
4B6
  8
SJC
 10
1716.188067350791
 20
1856.5718980776751
 30
0.0
 40
122.5
  0
CIRCLE
  5
4B7
  8
SJC
 10
1716.188067350791
 20
1856.5718980776751
 30
0.0
 40
57.149999999999991
  0
LINE
  5
4B8
  8
CENTER
 10
1621.188067350791
 20
1886.8218980776739
 30
0.0
 11
1621.188067350791
 21
1826.3218980776739
 31
0.0
  0
LINE
  5
4B9
  8
CENTER
 10
1811.188067350791
 20
1886.8218980776739
 30
0.0
 11
1811.188067350791
 21
1826.3218980776739
 31
0.0
  0
DIMENSION
  5
4BA
  8
SUNPOU
  2
*D35
 10
1811.188067350791
 20
2106.5718980776751
 30
0.0
 11
1716.188067350791
 21
2133.5718980776751
 31
0.0
 70
     0
 13
1621.188067350791
 23
1901.8218980776751
 33
0.0
 14
1811.188067350791
 24
1901.8218980776751
 34
0.0
1001
ACAD
1000
DSTYLE
1002
{
1070
   287
1070
     5
1070
    40
1040
10.0
1070
    41
1040
2.0
1070
    42
1040
1.0
1070
    43
1040
6.0
1070
    44
1040
1.0
1070
    73
1070
     0
1070
    74
1070
     0
1070
    77
1070
     1
1070
    78
1070
     8
1070
   140
1040
3.0
1070
   147
1040
1.1999999999999991
1070
   172
1070
     1
1070
   176
1070
   256
1070
   177
1070
   256
1070
   178
1070
   256
1070
   271
1070
     1
1070
   275
1070
     1
1070
   279
1070
     2
1070
   340
1005
17A
1002
}
  0
LINE
  5
4BB
  8
MOJI
 10
1627.976673528904
 20
1771.5718980776739
 30
0.0
 11
1536.188067350791
 21
1676.5718980776739
 31
0.0
  0
LINE
  5
4BC
  8
MOJI
 10
1536.188067350791
 20
1676.5718980776739
 30
0.0
 11
1268.644810198278
 21
1676.5718980776739
 31
0.0
  0
TEXT
  5
4BD
  8
MOJI
 10
1350.093490512168
 20
1686.517313152332
 30
0.0
 40
30.0
  1
フランジ
 41
0.8
  7
EXT08
  0
TEXT
  5
4BF
  8
MOJI
 10
1223.783520654267
 20
886.34438004450112
 30
0.0
 40
30.0
  1
GL
 41
0.8
  7
EXT08
  0
LINE
  5
4C4
  8
MOJI
 10
1773.3380673507911
 20
1281.5717995879929
 30
0.0
 11
1843.3380673507911
 21
1411.5717995879929
 31
0.0
  0
LINE
  5
4C5
  8
MOJI
 10
1843.3380673507911
 20
1411.5717995879929
 30
0.0
 11
2131.2594390226768
 21
1411.5717995879929
 31
0.0
  0
TEXT
  5
4C6
  8
MOJI
 10
1891.415936154523
 20
1374.1759154080401
 30
0.0
 40
30.0
  1
%%c114.3×t4.0
 41
0.8
  7
EXT08
  0
TEXT
  5
4C7
  8
MOJI
 10
1916.1578057807901
 20
1419.1650098808891
 30
0.0
 40
30.0
  1
支　柱
 41
0.8
  7
EXT08
  0
LINE
  5
4C8
  8
CENTER
 10
1621.188067350791
 20
902.57179958799316
 30
0.0
 11
1621.188067350791
 21
852.57179958799316
 31
0.0
  0
LINE
  5
4C9
  8
CENTER
 10
1811.188067350791
 20
902.57179958799316
 30
0.0
 11
1811.1880673507919
 21
852.57179958799316
 31
0.0
  0
LINE
  5
4CA
  8
SJC
 10
1609.188067350791
 20
892.57179958799316
 30
0.0
 11
1633.188067350791
 21
892.57179958799316
 31
0.0
  0
LINE
  5
4CB
  8
SJC
 10
1799.188067350791
 20
892.57179958799316
 30
0.0
 11
1823.188067350791
 21
892.57179958799316
 31
0.0
  0
LINE
  5
4CC
  8
MOJI
 10
1659.0380673507909
 20
882.57179958799316
 30
0.0
 11
1509.0380673507909
 21
1036.5717995879929
 31
0.0
  0
LINE
  5
4CD
  8
MOJI
 10
1509.0380673507921
 20
1036.5717995879929
 30
0.0
 11
1415.436513872068
 21
1036.5717995879929
 31
0.0
  0
LINE
  5
4CE
  8
MOJI
 10
1429.0380673507921
 20
1036.5717995879929
 30
0.0
 11
1429.0380673507921
 21
996.57179958799361
 31
0.0
  0
LINE
  5
4CF
  8
MOJI
 10
1429.0380673507921
 20
996.57179958799361
 30
0.0
 11
1464.0380673507921
 21
1036.5717995879929
 31
0.0
  0
CIRCLE
  5
4D0
  8
MOJI
 10
1509.0380673507909
 20
1036.5717995879929
 30
0.0
 40
10.0
  0
LINE
  5
4D2
  8
MOJI
 10
1811.188067350791
 20
892.57179958799316
 30
0.0
 11
1888.33806735079
 21
1031.5717995879929
 31
0.0
  0
LINE
  5
4D3
  8
MOJI
 10
1888.33806735079
 20
1031.5717995879929
 30
0.0
 11
2105.524468902333
 21
1031.5717995879929
 31
0.0
  0
TEXT
  5
4D4
  8
MOJI
 10
1959.5984002290229
 20
1041.7149948992101
 30
0.0
 40
30.0
  1
飾りボルト
 41
0.8
  7
EXT08
  0
LINE
  5
4D5
  8
HATCH
 10
1516.188067350791
 20
808.92180307014632
 30
0.0
 11
1583.8380734251359
 21
876.57179958799372
 31
0.0
  0
POLYLINE
  5
4D6
  8
SJC
 66
     1
 10
0.0
 20
0.0
 30
0.0
 70
     1
  0
VERTEX
  5
1411
  8
SJC
 10
1805.188067350791
 20
1866.9642029230879
 30
0.0
  0
VERTEX
  5
1412
  8
SJC
 10
1799.188067350791
 20
1856.5718980776751
 30
0.0
  0
VERTEX
  5
1413
  8
SJC
 10
1805.188067350791
 20
1846.1795932322621
 30
0.0
  0
VERTEX
  5
1414
  8
SJC
 10
1817.188067350791
 20
1846.1795932322609
 30
0.0
  0
VERTEX
  5
1415
  8
SJC
 10
1823.188067350791
 20
1856.5718980776751
 30
0.0
  0
VERTEX
  5
1416
  8
SJC
 10
1817.188067350791
 20
1866.964202923087
 30
0.0
  0
SEQEND
  5
1417
  8
SJC
  0
POLYLINE
  5
4DE
  8
SJC
 66
     1
 10
0.0
 20
0.0
 30
0.0
 70
     1
  0
VERTEX
  5
1418
  8
SJC
 10
1615.188067350791
 20
1866.9642029230879
 30
0.0
  0
VERTEX
  5
1419
  8
SJC
 10
1609.188067350791
 20
1856.5718980776751
 30
0.0
  0
VERTEX
  5
141A
  8
SJC
 10
1615.188067350791
 20
1846.1795932322621
 30
0.0
  0
VERTEX
  5
141B
  8
SJC
 10
1627.188067350791
 20
1846.1795932322609
 30
0.0
  0
VERTEX
  5
141C
  8
SJC
 10
1633.188067350791
 20
1856.5718980776751
 30
0.0
  0
VERTEX
  5
141D
  8
SJC
 10
1627.188067350791
 20
1866.964202923087
 30
0.0
  0
SEQEND
  5
141E
  8
SJC
  0
LINE
  5
4E6
  8
SJC
 10
1615.188067350791
 20
892.57179958799316
 30
0.0
 11
1615.188067350791
 21
882.57179958799316
 31
0.0
  0
LINE
  5
4E7
  8
SJC
 10
1627.188067350791
 20
892.57179958799316
 30
0.0
 11
1627.188067350791
 21
882.57179958799316
 31
0.0
  0
LINE
  5
4E8
  8
SJC
 10
1609.188067350791
 20
892.57179958799316
 30
0.0
 11
1609.188067350791
 21
882.57179958799316
 31
0.0
  0
LINE
  5
4E9
  8
SJC
 10
1633.188067350791
 20
892.57179958799316
 30
0.0
 11
1633.188067350791
 21
882.57179958799316
 31
0.0
  0
LINE
  5
4EA
  8
SJC
 10
1805.188067350791
 20
892.57179958799316
 30
0.0
 11
1805.188067350791
 21
882.57179958799316
 31
0.0
  0
LINE
  5
4EB
  8
SJC
 10
1817.188067350791
 20
892.57179958799316
 30
0.0
 11
1817.188067350791
 21
882.57179958799316
 31
0.0
  0
LINE
  5
4EC
  8
SJC
 10
1799.188067350791
 20
892.57179958799316
 30
0.0
 11
1799.188067350791
 21
882.57179958799316
 31
0.0
  0
LINE
  5
4ED
  8
SJC
 10
1823.188067350791
 20
892.57179958799316
 30
0.0
 11
1823.188067350791
 21
882.57179958799316
 31
0.0
  0
INSERT
  5
4EE
  8
SJC
  2
1-10BASE
 10
0.0
 20
2870.0
 30
0.0
  0
DIMENSION
  5
4EF
  8
SUNPOU
  2
*D36
 10
2088.3380673507909
 20
876.57179958799316
 30
0.0
 11
2058.3888249249708
 21
907.63277372591244
 31
0.0
 70
   128
  1
t6
 13
1853.750567350791
 23
882.57179958799316
 33
0.0
 14
2088.3380673507909
 24
876.57179958799316
 34
0.0
 50
90.0
1001
ACAD
1000
DSTYLE
1002
{
1070
   287
1070
     5
1070
    40
1040
10.0
1070
    41
1040
2.0
1070
    42
1040
1.0
1070
    43
1040
6.0
1070
    44
1040
1.0
1070
    73
1070
     0
1070
    74
1070
     0
1070
    77
1070
     1
1070
    78
1070
     8
1070
   140
1040
3.0
1070
   147
1040
1.1999999999999991
1070
   172
1070
     1
1070
   176
1070
   256
1070
   177
1070
   256
1070
   178
1070
   256
1070
   271
1070
     1
1070
   275
1070
     1
1070
   279
1070
     2
1070
   340
1005
17A
1002
}
  0
DIMENSION
  5
4F0
  8
SUNPOU
  2
*D37
 10
1838.688067350791
 20
2156.5718980776751
 30
0.0
 11
1716.188067350791
 21
2183.5718980776751
 31
0.0
 70
     0
  1
%%c245
 13
1593.688067350791
 23
1856.5093980776739
 33
0.0
 14
1838.688067350791
 24
1856.5093980776739
 34
0.0
1001
ACAD
1000
DSTYLE
1002
{
1070
   287
1070
     5
1070
    40
1040
10.0
1070
    41
1040
2.0
1070
    42
1040
1.0
1070
    43
1040
6.0
1070
    44
1040
1.0
1070
    73
1070
     0
1070
    74
1070
     0
1070
    77
1070
     1
1070
    78
1070
     8
1070
   140
1040
3.0
1070
   147
1040
1.1999999999999991
1070
   172
1070
     1
1070
   176
1070
   256
1070
   177
1070
   256
1070
   178
1070
   256
1070
   271
1070
     1
1070
   275
1070
     1
1070
   279
1070
     2
1070
   340
1005
17A
1002
}
  0
DIMENSION
  5
4F1
  8
SUNPOU
  2
*D38
 10
1773.3380673507911
 20
2056.5718980776751
 30
0.0
 11
1715.634519675448
 21
2083.743986309275
 31
0.0
 70
   128
  1
%%c114.3
 13
1659.0380673507909
 23
1856.5093980776739
 33
0.0
 14
1773.3380673507911
 24
1856.5093980776739
 34
0.0
1001
ACAD
1000
DSTYLE
1002
{
1070
   287
1070
     5
1070
    40
1040
10.0
1070
    41
1040
2.0
1070
    42
1040
1.0
1070
    43
1040
6.0
1070
    44
1040
1.0
1070
    73
1070
     0
1070
    74
1070
     0
1070
    77
1070
     1
1070
    78
1070
     8
1070
   140
1040
3.0
1070
   147
1040
1.1999999999999991
1070
   172
1070
     1
1070
   176
1070
   256
1070
   177
1070
   256
1070
   178
1070
   256
1070
   271
1070
     1
1070
   275
1070
     1
1070
   279
1070
     2
1070
   340
1005
17A
1002
}
  0
SOLID
  5
4F8
  8
MOJI
  6
CONTINUOUS
 10
1785.6549607925699
 20
1297.677862019729
 30
0.0
 11
1779.7655949529919
 21
1300.801932193725
 31
0.0
 12
1773.3380673507911
 22
1281.5717995879929
 32
0.0
 13
1773.3380673507911
 23
1281.5717995879929
 33
0.0
  0
SOLID
  5
4F9
  8
MOJI
  6
CONTINUOUS
 10
1823.6936030495899
 20
908.53183367308156
 30
0.0
 11
1817.8414008761131
 21
911.72497854376797
 31
0.0
 12
1811.188067350791
 22
892.57179958799316
 32
0.0
 13
1811.188067350791
 23
892.57179958799316
 33
0.0
  0
SOLID
  5
4FA
  8
MOJI
  6
CONTINUOUS
 10
1647.484075793152
 20
899.23362392379477
 30
0.0
 11
1642.70478095763
 21
894.58574426532766
 31
0.0
 12
1659.0380673507909
 22
882.57179958799316
 32
0.0
 13
1659.0380673507909
 23
882.57179958799316
 33
0.0
  0
SOLID
  5
4FB
  8
MOJI
  6
CONTINUOUS
 10
1611.7719749381031
 20
1759.3850668778759
 30
0.0
 11
1616.600390386189
 21
1754.7882365889559
 31
0.0
 12
1627.9766735289049
 22
1771.5718980776739
 32
0.0
 13
1627.9766735289049
 23
1771.5718980776739
 33
0.0
  0
INSERT
  5
66C
  8
SJC
  2
1-10BASE
 10
3955.0
 20
2870.0
 30
0.0
  0
TEXT
  5
805
  8
MOJI2
 10
529.39984379693794
 20
2317.891912623913
 30
0.0
 40
40.0
  1
設置図
 41
0.8
  7
EXT08
  0
LINE
  5
806
  8
MOJI2
 10
516.81527033055318
 20
2310.3223026593532
 30
0.0
 11
816.28473795849277
 21
2310.3223026593532
 31
0.0
  0
LINE
  5
807
  8
MOJI2
 10
516.81527033055318
 20
2300.3223026593532
 30
0.0
 11
816.28473795849277
 21
2300.3223026593532
 31
0.0
  0
TEXT
  5
808
  8
MOJI
 10
652.33078778637673
 20
2325.2261604675882
 30
0.0
 40
35.0
  1
（1/10）
 41
0.8
  7
EXT08
  0
ARC
  5
812
  8
SJC
 10
1716.1880673507881
 20
1549.4217009686899
 30
0.0
 40
57.150197108984102
 50
0.1504811482526783
 51
179.84951885174729
  0
LINE
  5
85A
  8
MOJI
 10
3564.679899759657
 20
661.12363904295762
 30
0.0
 11
2695.1943337423781
 21
661.12363904295762
 31
0.0
  0
LINE
  5
85B
  8
MOJI
 10
3564.679899759657
 20
611.20114304295748
 30
0.0
 11
2695.1943337423781
 21
611.20114304295748
 31
0.0
  0
LINE
  5
85C
  8
MOJI
 10
3564.679899759657
 20
561.27864704295769
 30
0.0
 11
2695.1943337423781
 21
561.27864704295769
 31
0.0
  0
LINE
  5
85F
  8
MOJI
 10
3564.679899759657
 20
511.35615104295761
 30
0.0
 11
2695.1943337423781
 21
511.35615104295761
 31
0.0
  0
TEXT
  5
864
  8
MOJI
 10
3007.2316921840888
 20
571.28122064295758
 30
0.0
 40
30.0
  1
SUS
 41
0.8
  7
EXT08
  0
TEXT
  5
86B
  8
MOJI
 10
3001.806188498635
 20
620.36757464295761
 30
0.0
 40
30.0
  1
材　質
 41
0.8
  7
EXT08
  0
LINE
  5
86C
  8
MOJI
 10
2951.4276236331038
 20
661.12363904295762
 30
0.0
 11
2951.4276236331038
 21
461.43365504295753
 31
0.0
  0
LINE
  5
86D
  8
MOJI
 10
2766.6759325423791
 20
661.12363904295762
 30
0.0
 11
2766.6759325423791
 21
461.43365504295753
 31
0.0
  0
LINE
  5
86E
  8
MOJI
 10
2695.1943337423781
 20
661.12363904295762
 30
0.0
 11
2695.1943337423781
 21
461.43365504295753
 31
0.0
  0
TEXT
  5
87B
  8
MOJI
 10
2705.3610217423779
 20
618.75020384295749
 30
0.0
 40
30.0
  1
部番
 41
0.8
  7
EXT08
  0
TEXT
  5
87C
  8
MOJI
 10
2781.3845857378769
 20
520.88122064295737
 30
0.0
 40
30.0
  1
フランジ
 41
0.8
  7
EXT08
  0
TEXT
  5
87D
  8
MOJI
 10
2755.4832852128998
 20
571.28122064295758
 30
0.0
 40
30.0
  1
  支    柱
 41
0.8
  7
EXT08
  0
TEXT
  5
87E
  8
MOJI
 10
2815.2880069423782
 20
621.38708504295755
 30
0.0
 40
30.0
  1
品　名
 41
0.8
  7
EXT08
  0
TEXT
  5
87F
  8
MOJI
 10
2719.5087049423778
 20
571.28122064295758
 30
0.0
 40
30.0
  1
1
 41
0.8
  7
EXT08
  0
TEXT
  5
880
  8
MOJI
 10
2719.5087049423778
 20
520.88122064295737
 30
0.0
 40
30.0
  1
2
 41
0.8
  7
EXT08
  0
LINE
  5
881
  8
MOJI
 10
3564.679899759657
 20
461.43365504295753
 30
0.0
 11
3564.679899759657
 21
661.12363904295762
 31
0.0
  0
LINE
  5
882
  8
MOJI
 10
3135.587306332478
 20
661.12363904295762
 30
0.0
 11
3135.5873063324789
 21
461.43365504295753
 31
0.0
  0
TEXT
  5
889
  8
MOJI
 10
3275.186697740945
 20
621.70207904295785
 30
0.0
 40
30.0
  1
摘　　要
 41
0.8
  7
EXT08
  0
TEXT
  5
88A
  8
MOJI
 10
3239.1323329673601
 20
571.28122064295758
 30
0.0
 40
30.0
  1
＃400仕上げ
 41
0.8
  7
EXT08
  0
TEXT
  5
88C
  8
MOJI
 10
3239.1323329673619
 20
521.3587246429579
 30
0.0
 40
30.0
  1
＃400仕上げ
 41
0.8
  7
EXT08
  0
TEXT
  5
88D
  8
MOJI
 10
3007.2316921840902
 20
521.3587246429579
 30
0.0
 40
30.0
  1
SUS
 41
0.8
  7
EXT08
  0
LINE
  5
88E
  8
MOJI
 10
3564.679899759657
 20
461.43365504295753
 30
0.0
 11
2695.1943337423781
 21
461.43365504295753
 31
0.0
  0
TEXT
  5
88F
  8
MOJI
 10
3007.2316921840902
 20
471.4362286429577
 30
0.0
 40
30.0
  1
SUS
 41
0.8
  7
EXT08
  0
TEXT
  5
890
  8
MOJI
 10
2781.3845857378769
 20
470.95872464295729
 30
0.0
 40
30.0
  1
飾りボルト
 41
0.8
  7
EXT08
  0
TEXT
  5
891
  8
MOJI
 10
2719.5087049423778
 20
470.95872464295729
 30
0.0
 40
30.0
  1
3
 41
0.8
  7
EXT08
  0
TEXT
  5
892
  8
MOJI
 10
3239.1323329673619
 20
471.4362286429577
 30
0.0
 40
30.0
  1
M16×30
 41
0.8
  7
EXT08
  0
TEXT
  5
893
  8
MOJI
 10
1859.2420826088351
 20
1426.466015103038
 30
0.0
 40
30.0
  1
1
 41
0.8
  7
EXT08
  0
CIRCLE
  5
894
  8
MOJI
 10
1871.159901129409
 20
1439.902088554154
 30
0.0
 40
25.0
  0
TEXT
  5
897
  8
MOJI
 10
1288.145657789905
 20
1697.150039429112
 30
0.0
 40
30.0
  1
2
 41
0.8
  7
EXT08
  0
CIRCLE
  5
898
  8
MOJI
 10
1300.063476310479
 20
1710.586112880228
 30
0.0
 40
25.0
  0
TEXT
  5
F0B
  8
MOJI2
 10
2703.234942591007
 20
713.41712140273103
 30
0.0
 40
40.0
  1
YH-1K
 41
0.8
  7
EXT08
  0
LINE
  5
F0C
  8
MOJI2
 10
2695.1943337423781
 20
701.12363904295762
 30
0.0
 11
2867.8508013391788
 21
701.12363904295762
 31
0.0
  0
LINE
  5
F0D
  8
MOJI2
 10
2695.1943337423781
 20
691.12363904295762
 30
0.0
 11
2867.8508013391788
 21
691.12363904295762
 31
0.0
  0
INSERT
  5
12B8
  8
ZWAKU
  2
CALCOMP_TECHJET720A3
 10
0.0
 20
0.0
 30
0.0
 41
10.0
 42
10.0
 43
10.0
  0
TEXT
  5
12B9
  8
INFORMATION
 10
1.0
 20
2.0
 30
0.0
 40
0.8
  1
PLOTTER=CALCOMP_TECHJET720
  0
TEXT
  5
12BA
  8
INFORMATION
 10
1.0
 20
3.0
 30
0.0
 40
0.8
  1
PAPER=A3
  0
TEXT
  5
134D
  8
MOJI
 10
1329.7555602200271
 20
1637.2698123234491
 30
0.0
 40
30.0
  1
%%c245×t6.0
 41
0.8
  7
EXT08
  0
TEXT
  5
1357
  8
MOJI
 10
1950.947193499173
 20
994.61195467775224
 30
0.0
 40
30.0
  1
M16×30
 41
0.8
  7
EXT08
  0
CIRCLE
  5
1358
  8
MOJI
 10
1916.159901129409
 20
1059.902088554154
 30
0.0
 40
25.0
  0
TEXT
  5
1359
  8
MOJI
 10
1904.242082608836
 20
1046.466015103038
 30
0.0
 40
30.0
  1
3
 41
0.8
  7
EXT08
  0
VIEWPORT
  5
AA
 67
     1
  8
0
 10
6.5780254777070057
 20
4.5
 30
0.0
 40
13.15605095541401
 41
9.0
 68
     1
 69
     1
1001
ACAD
1000
MVIEW
1002
{
1070
    16
1010
0.0
1020
0.0
1030
0.0
1010
0.0
1020
0.0
1030
1.0
1040
0.0
1040
9.0
1040
6.5780254777070057
1040
4.5
1040
50.0
1040
0.0
1040
0.0
1070
     0
1070
   100
1070
     1
1070
     1
1070
     1
1070
     0
1070
     0
1070
     0
1040
0.0
1040
0.0
1040
0.0
1040
10.0
1040
10.0
1040
0.0
1040
0.0
1070
     0
1002
{
1002
}
1002
}
  0
ENDSEC
  0
EOF
