  0
SECTION
  2
HEADER
  9
$ACADVER
  1
AC1012
  9
$DWGCODEPAGE
  3
dos932
  9
$INSBASE
 10
0.0
 20
0.0
 30
0.0
  9
$EXTMIN
 10
0.0
 20
0.0
 30
0.0
  9
$EXTMAX
 10
3700.0
 20
2670.0
 30
0.0
  9
$LIMMIN
 10
0.0
 20
0.0
  9
$LIMMAX
 10
4200.0
 20
2970.0
  9
$ORTHOMODE
 70
     1
  9
$REGENMODE
 70
     1
  9
$FILLMODE
 70
     1
  9
$QTEXTMODE
 70
     0
  9
$MIRRTEXT
 70
     0
  9
$DRAGMODE
 70
     2
  9
$LTSCALE
 40
100.0
  9
$OSMODE
 70
     0
  9
$ATTMODE
 70
     1
  9
$TEXTSIZE
 40
30.0
  9
$TRACEWID
 40
0.05
  9
$TEXTSTYLE
  7
EXT08
  9
$CLAYER
  8
SUNPOU
  9
$CELTYPE
  6
BYLAYER
  9
$CECOLOR
 62
   256
  9
$CELTSCALE
 40
1.0
  9
$DELOBJ
 70
     1
  9
$DISPSILH
 70
     0
  9
$DIMSCALE
 40
10.0
  9
$DIMASZ
 40
2.0
  9
$DIMEXO
 40
1.0
  9
$DIMDLI
 40
6.0
  9
$DIMRND
 40
0.0
  9
$DIMDLE
 40
0.0
  9
$DIMEXE
 40
1.0
  9
$DIMTP
 40
0.0
  9
$DIMTM
 40
0.0
  9
$DIMTXT
 40
3.0
  9
$DIMCEN
 40
0.1
  9
$DIMTSZ
 40
0.0
  9
$DIMTOL
 70
     0
  9
$DIMLIM
 70
     0
  9
$DIMTIH
 70
     0
  9
$DIMTOH
 70
     0
  9
$DIMSE1
 70
     0
  9
$DIMSE2
 70
     0
  9
$DIMTAD
 70
     1
  9
$DIMZIN
 70
     8
  9
$DIMBLK
  1

  9
$DIMASO
 70
     1
  9
$DIMSHO
 70
     1
  9
$DIMPOST
  1

  9
$DIMAPOST
  1

  9
$DIMALT
 70
     0
  9
$DIMALTD
 70
     2
  9
$DIMALTF
 40
25.4
  9
$DIMLFAC
 40
1.0
  9
$DIMTOFL
 70
     1
  9
$DIMTVP
 40
0.0
  9
$DIMTIX
 70
     0
  9
$DIMSOXD
 70
     0
  9
$DIMSAH
 70
     0
  9
$DIMBLK1
  1

  9
$DIMBLK2
  1

  9
$DIMSTYLE
  2
SJC
  9
$DIMCLRD
 70
   256
  9
$DIMCLRE
 70
   256
  9
$DIMCLRT
 70
   256
  9
$DIMTFAC
 40
1.0
  9
$DIMGAP
 40
1.2
  9
$DIMJUST
 70
     0
  9
$DIMSD1
 70
     0
  9
$DIMSD2
 70
     0
  9
$DIMTOLJ
 70
     1
  9
$DIMTZIN
 70
     8
  9
$DIMALTZ
 70
     8
  9
$DIMALTTZ
 70
     8
  9
$DIMFIT
 70
     5
  9
$DIMUPT
 70
     0
  9
$DIMUNIT
 70
     2
  9
$DIMDEC
 70
     0
  9
$DIMTDEC
 70
     1
  9
$DIMALTU
 70
     2
  9
$DIMALTTD
 70
     2
  9
$DIMTXSTY
  7
EXT08
  9
$DIMAUNIT
 70
     1
  9
$LUNITS
 70
     2
  9
$LUPREC
 70
     2
  9
$SKETCHINC
 40
0.1
  9
$FILLETRAD
 40
2.5
  9
$AUNITS
 70
     1
  9
$AUPREC
 70
     2
  9
$MENU
  1
C:\r13\win\SUPPORT\sjc
  9
$ELEVATION
 40
0.0
  9
$PELEVATION
 40
0.0
  9
$THICKNESS
 40
0.0
  9
$LIMCHECK
 70
     0
  9
$BLIPMODE
 70
     1
  9
$CHAMFERA
 40
0.0
  9
$CHAMFERB
 40
0.0
  9
$CHAMFERC
 40
0.0
  9
$CHAMFERD
 40
0.0
  9
$SKPOLY
 70
     0
  9
$TDCREATE
 40
2450469.547535764
  9
$TDUPDATE
 40
2451873.567151620
  9
$TDINDWG
 40
0.8173307986
  9
$TDUSRTIMER
 40
0.8173307986
  9
$USRTIMER
 70
     1
  9
$ANGBASE
 50
0.0
  9
$ANGDIR
 70
     0
  9
$PDMODE
 70
     0
  9
$PDSIZE
 40
0.0
  9
$PLINEWID
 40
0.0
  9
$COORDS
 70
     0
  9
$SPLFRAME
 70
     0
  9
$SPLINETYPE
 70
     6
  9
$SPLINESEGS
 70
     8
  9
$ATTDIA
 70
     0
  9
$ATTREQ
 70
     1
  9
$HANDLING
 70
     1
  9
$HANDSEED
  5
1C8CDE6B61D9
  9
$SURFTAB1
 70
     6
  9
$SURFTAB2
 70
     6
  9
$SURFTYPE
 70
     6
  9
$SURFU
 70
     6
  9
$SURFV
 70
     6
  9
$UCSNAME
  2

  9
$UCSORG
 10
0.0
 20
0.0
 30
0.0
  9
$UCSXDIR
 10
1.0
 20
0.0
 30
0.0
  9
$UCSYDIR
 10
0.0
 20
1.0
 30
0.0
  9
$PUCSNAME
  2

  9
$PUCSORG
 10
0.0
 20
0.0
 30
0.0
  9
$PUCSXDIR
 10
1.0
 20
0.0
 30
0.0
  9
$PUCSYDIR
 10
0.0
 20
1.0
 30
0.0
  9
$USERI1
 70
     3
  9
$USERI2
 70
    10
  9
$USERI3
 70
     0
  9
$USERI4
 70
     0
  9
$USERI5
 70
     0
  9
$USERR1
 40
0.1
  9
$USERR2
 40
0.0
  9
$USERR3
 40
0.0
  9
$USERR4
 40
0.0
  9
$USERR5
 40
0.0
  9
$WORLDVIEW
 70
     1
  9
$SHADEDGE
 70
     3
  9
$SHADEDIF
 70
    70
  9
$TILEMODE
 70
     1
  9
$MAXACTVP
 70
    16
  9
$PINSBASE
 10
0.0
 20
0.0
 30
0.0
  9
$PLIMCHECK
 70
     0
  9
$PEXTMIN
 10
1.000000E+20
 20
1.000000E+20
 30
1.000000E+20
  9
$PEXTMAX
 10
-1.000000E+20
 20
-1.000000E+20
 30
-1.000000E+20
  9
$PLIMMIN
 10
0.0
 20
0.0
  9
$PLIMMAX
 10
12.0
 20
9.0
  9
$UNITMODE
 70
     0
  9
$VISRETAIN
 70
     0
  9
$PLINEGEN
 70
     0
  9
$PSLTSCALE
 70
     0
  9
$TREEDEPTH
 70
  3020
  9
$PICKSTYLE
 70
     1
  9
$CMLSTYLE
  2
STANDARD
  9
$CMLJUST
 70
     0
  9
$CMLSCALE
 40
1.0
  9
$SAVEIMAGES
 70
     0
  0
ENDSEC
  0
SECTION
  2
CLASSES
  0
ENDSEC
  0
SECTION
  2
TABLES
  0
TABLE
  2
VPORT
  5
1C8CDE699D43
100
AcDbSymbolTable
 70
     2
  0
VPORT
  5
1C8CDE6B61D8
100
AcDbSymbolTableRecord
100
AcDbViewportTableRecord
  2
*ACTIVE
 70
     0
 10
0.0
 20
0.0
 11
1.0
 21
1.0
 12
2593.59375
 22
1485.0
 13
0.0
 23
0.0
 14
5.0
 24
5.0
 15
0.0
 25
0.0
 16
0.0
 26
0.0
 36
1.0
 17
0.0
 27
0.0
 37
0.0
 40
2970.0
 41
1.746528
 42
50.0
 43
0.0
 44
0.0
 50
0.0
 51
0.0
 71
     0
 72
   500
 73
     1
 74
     0
 75
     0
 76
     0
 77
     0
 78
     2
  0
ENDTAB
  0
TABLE
  2
LTYPE
  5
1C8CDE699D40
100
AcDbSymbolTable
 70
     7
  0
LTYPE
  5
1C8CDE699D4D
100
AcDbSymbolTableRecord
100
AcDbLinetypeTableRecord
  2
BYBLOCK
 70
     0
  3

 72
    65
 73
     0
 40
0.0
  0
LTYPE
  5
1C8CDE699D4E
100
AcDbSymbolTableRecord
100
AcDbLinetypeTableRecord
  2
BYLAYER
 70
     0
  3

 72
    65
 73
     0
 40
0.0
  0
LTYPE
  5
1C8CDE699D4F
100
AcDbSymbolTableRecord
100
AcDbLinetypeTableRecord
  2
CONTINUOUS
 70
    64
  3
実線
 72
    65
 73
     0
 40
0.0
  0
LTYPE
  5
1C8CDE699D67
100
AcDbSymbolTableRecord
100
AcDbLinetypeTableRecord
  2
DIVIDE2
 70
    64
  3
__..__..__..__..__..__..__..__..__..__..__..__.
 72
    65
 73
     6
 40
0.625
 49
0.25
 74
     0
 49
-0.125
 74
     0
 49
0.0
 74
     0
 49
-0.125
 74
     0
 49
0.0
 74
     0
 49
-0.125
 74
     0
  0
LTYPE
  5
1C8CDE699D68
100
AcDbSymbolTableRecord
100
AcDbLinetypeTableRecord
  2
HIDDEN2
 70
     0
  3
_ _ _ _ _ _ _ _ _ _ _ _ _ _ _ _ _ _ _ _ _ _ _ _
 72
    65
 73
     2
 40
0.1875
 49
0.125
 74
     0
 49
-0.0625
 74
     0
  0
LTYPE
  5
1C8CDE699D69
100
AcDbSymbolTableRecord
100
AcDbLinetypeTableRecord
  2
CENTER2
 70
     0
  3
___ _ ___ _ ___ _ ___ _ ___ _ ___ _ ___ _ ___ _
 72
    65
 73
     4
 40
1.125
 49
0.75
 74
     0
 49
-0.125
 74
     0
 49
0.125
 74
     0
 49
-0.125
 74
     0
  0
LTYPE
  5
1C8CDE699D6A
100
AcDbSymbolTableRecord
100
AcDbLinetypeTableRecord
  2
CENTER
 70
    64
  3
____ _ ____ _ ____ _ ____ _ ____ _ ____ _ ____ 
 72
    65
 73
     4
 40
2.0
 49
1.25
 74
     0
 49
-0.25
 74
     0
 49
0.25
 74
     0
 49
-0.25
 74
     0
  0
LTYPE
  5
1C8CDE699D6B
100
AcDbSymbolTableRecord
100
AcDbLinetypeTableRecord
  2
HIDDEN
 70
    64
  3
__ __ __ __ __ __ __ __ __ __ __ __ __ __ __ __
 72
    65
 73
     2
 40
0.375
 49
0.25
 74
     0
 49
-0.125
 74
     0
  0
LTYPE
  5
1C8CDE699D6C
100
AcDbSymbolTableRecord
100
AcDbLinetypeTableRecord
  2
PHANTOM
 70
    64
  3
______  __  __  ______  __  __  ______  __  __ 
 72
    65
 73
     6
 40
2.5
 49
1.25
 74
     0
 49
-0.25
 74
     0
 49
0.25
 74
     0
 49
-0.25
 74
     0
 49
0.25
 74
     0
 49
-0.25
 74
     0
  0
ENDTAB
  0
TABLE
  2
LAYER
  5
1C8CDE699D3D
100
AcDbSymbolTable
 70
    16
  0
LAYER
  5
1C8CDE699D4A
100
AcDbSymbolTableRecord
100
AcDbLayerTableRecord
  2
0
 70
    64
 62
    41
  6
DIVIDE2
  0
LAYER
  5
1C8CDE699D71
100
AcDbSymbolTableRecord
100
AcDbLayerTableRecord
  2
CENTER
 70
    64
 62
     3
  6
CENTER
  0
LAYER
  5
1C8CDE699D72
100
AcDbSymbolTableRecord
100
AcDbLayerTableRecord
  2
SUNPOU
 70
    64
 62
     4
  6
CONTINUOUS
  0
LAYER
  5
1C8CDE699D73
100
AcDbSymbolTableRecord
100
AcDbLayerTableRecord
  2
WAKU
 70
    64
 62
     5
  6
CONTINUOUS
  0
LAYER
  5
1C8CDE699D74
100
AcDbSymbolTableRecord
100
AcDbLayerTableRecord
  2
MOJI
 70
    64
 62
     6
  6
CONTINUOUS
  0
LAYER
  5
1C8CDE699D75
100
AcDbSymbolTableRecord
100
AcDbLayerTableRecord
  2
HASEN
 70
    64
 62
     7
  6
HIDDEN
  0
LAYER
  5
1C8CDE699D76
100
AcDbSymbolTableRecord
100
AcDbLayerTableRecord
  2
SAISEN
 70
    64
 62
     9
  6
CONTINUOUS
  0
LAYER
  5
1C8CDE699D77
100
AcDbSymbolTableRecord
100
AcDbLayerTableRecord
  2
SJC
 70
    64
 62
     1
  6
CONTINUOUS
  0
LAYER
  5
1C8CDE699D78
100
AcDbSymbolTableRecord
100
AcDbLayerTableRecord
  2
KASOU
 70
    64
 62
     2
  6
PHANTOM
  0
LAYER
  5
1C8CDE699D79
100
AcDbSymbolTableRecord
100
AcDbLayerTableRecord
  2
ZWAKU
 70
    64
 62
    -7
  6
CONTINUOUS
  0
LAYER
  5
1C8CDE699D7A
100
AcDbSymbolTableRecord
100
AcDbLayerTableRecord
  2
HOJO
 70
    64
 62
     8
  6
CONTINUOUS
  0
LAYER
  5
1C8CDE699D7B
100
AcDbSymbolTableRecord
100
AcDbLayerTableRecord
  2
DEFPOINTS
 70
    64
 62
     7
  6
CONTINUOUS
  0
LAYER
  5
1C8CDE699D8F
100
AcDbSymbolTableRecord
100
AcDbLayerTableRecord
  2
INFORMATION
 70
    65
 62
     7
  6
CONTINUOUS
  0
LAYER
  5
1C8CDE699D92
100
AcDbSymbolTableRecord
100
AcDbLayerTableRecord
  2
SJC2
 70
    64
 62
     7
  6
CONTINUOUS
  0
LAYER
  5
1C8CDE699D93
100
AcDbSymbolTableRecord
100
AcDbLayerTableRecord
  2
MOJI2
 70
    64
 62
     1
  6
CONTINUOUS
  0
LAYER
  5
1C8CDE699D94
100
AcDbSymbolTableRecord
100
AcDbLayerTableRecord
  2
HATCH
 70
    64
 62
     2
  6
CONTINUOUS
  0
ENDTAB
  0
TABLE
  2
STYLE
  5
1C8CDE699D3E
100
AcDbSymbolTable
 70
    11
  0
STYLE
  5
1C8CDE699D4B
100
AcDbSymbolTableRecord
100
AcDbTextStyleTableRecord
  2
STANDARD
 70
    64
 40
2.5
 41
0.8
 50
0.0
 71
     0
 42
25.0
  3
ROMANS.SHX
  4
BIGFONT
  0
STYLE
  5
1C8CDE699D64
100
AcDbSymbolTableRecord
100
AcDbTextStyleTableRecord
  2
NOBO
 70
     0
 40
3.0
 41
0.85
 50
15.0
 71
     0
 42
25.0
  3
ROMANS
  4
BIGFONT
  0
STYLE
  5
1C8CDE699D65
100
AcDbSymbolTableRecord
100
AcDbTextStyleTableRecord
  2
SIMPLEX
 70
    64
 40
0.0
 41
1.0
 50
0.0
 71
     0
 42
25.0
  3
SCRIPTS.SHX
  4

  0
STYLE
  5
1C8CDE699D66
100
AcDbSymbolTableRecord
100
AcDbTextStyleTableRecord
  2
KANJI
 70
    64
 40
0.0
 41
1.0
 50
0.0
 71
     0
 42
25.0
  3
ROMANS.SHX
  4
BIGFONT.SHX
  0
STYLE
  5
1C8CDE699DA4
100
AcDbSymbolTableRecord
100
AcDbTextStyleTableRecord
  2
TATEEXT
 70
    68
 40
0.0
 41
1.0
 50
0.0
 71
     0
 42
25.0
  3
ROMANS
  4
EXTFONT
  0
STYLE
  5
1C8CDE699DA5
100
AcDbSymbolTableRecord
100
AcDbTextStyleTableRecord
  2
TATEBIG
 70
    68
 40
0.0
 41
5.0
 50
0.0
 71
     0
 42
25.0
  3
ROMANS
  4
BIGFONT
  0
STYLE
  5
1C8CDE699DA6
100
AcDbSymbolTableRecord
100
AcDbTextStyleTableRecord
  2
EXT08
 70
    64
 40
0.0
 41
0.8
 50
0.0
 71
     0
 42
30.0
  3
ROMANS
  4
EXTFONT
  0
STYLE
  5
1C8CDE699DA7
100
AcDbSymbolTableRecord
100
AcDbTextStyleTableRecord
  2
EXT
 70
    64
 40
0.0
 41
1.0
 50
0.0
 71
     0
 42
25.0
  3
ROMANS
  4
EXTFONT
  0
STYLE
  5
1C8CDE699DA8
100
AcDbSymbolTableRecord
100
AcDbTextStyleTableRecord
  2
KANJI08
 70
    64
 40
0.0
 41
0.8
 50
0.0
 71
     0
 42
25.0
  3
ROMANS
  4
BIGFONT
  0
STYLE
  5
1C8CDE6A9321
100
AcDbSymbolTableRecord
100
AcDbTextStyleTableRecord
  2
A
 70
    64
 40
2.5
 41
0.6
 50
0.0
 71
     0
 42
30.0
  3
TXT
  4
BIGFONT
  0
STYLE
  5
1C8CDE6A9322
100
AcDbSymbolTableRecord
100
AcDbTextStyleTableRecord
  2
TATE
 70
    68
 40
0.0
 41
1.0
 50
0.0
 71
     0
 42
30.0
  3
SIMPLEX
  4
BIGFONT
  0
ENDTAB
  0
TABLE
  2
VIEW
  5
1C8CDE699D41
100
AcDbSymbolTable
 70
     0
  0
ENDTAB
  0
TABLE
  2
UCS
  5
1C8CDE699D42
100
AcDbSymbolTable
 70
     0
  0
ENDTAB
  0
TABLE
  2
APPID
  5
1C8CDE699D44
100
AcDbSymbolTable
 70
     1
  0
APPID
  5
1C8CDE699D4C
100
AcDbSymbolTableRecord
100
AcDbRegAppTableRecord
  2
ACAD
 70
    64
  0
ENDTAB
  0
TABLE
  2
DIMSTYLE
  5
1C8CDE699D45
100
AcDbSymbolTable
 70
     4
  0
DIMSTYLE
105
1C8CDE699D6E
100
AcDbSymbolTableRecord
100
AcDbDimStyleTableRecord
  2
STANDARD
 70
     0
  3

  4

  5

  6

  7

 40
1.0
 41
20.0
 42
10.0
 43
0.4
 44
10.0
 45
0.0
 46
0.0
 47
0.0
 48
0.0
140
25.0
141
0.1
142
0.0
143
25.4
144
1.0
145
0.0
146
1.0
147
15.0
 71
     0
 72
     0
 73
     0
 74
     0
 75
     0
 76
     0
 77
     1
 78
     8
170
     0
171
     2
172
     1
173
     0
174
     0
175
     0
176
   256
177
   256
178
   256
270
     2
271
     1
272
     1
273
     2
274
     2
340
1C8CDE699D66
275
     1
280
     0
281
     0
282
     0
283
     1
284
     8
285
     8
286
     8
287
     5
288
     0
  0
DIMSTYLE
105
1C8CDE699DA9
100
AcDbSymbolTableRecord
100
AcDbDimStyleTableRecord
  2
SJC
 70
     0
  3

  4

  5

  6

  7

 40
1.0
 41
20.0
 42
10.0
 43
0.4
 44
10.0
 45
0.0
 46
0.0
 47
0.0
 48
0.0
140
25.0
141
0.1
142
0.0
143
25.4
144
1.0
145
0.0
146
1.0
147
15.0
 71
     0
 72
     0
 73
     0
 74
     0
 75
     0
 76
     0
 77
     1
 78
     8
170
     0
171
     2
172
     1
173
     0
174
     0
175
     0
176
   256
177
   256
178
   256
270
     2
271
     1
272
     1
273
     2
274
     2
340
1C8CDE699D66
275
     1
280
     0
281
     0
282
     0
283
     1
284
     8
285
     8
286
     8
287
     5
288
     0
  0
DIMSTYLE
105
1C8CDE6A9185
100
AcDbSymbolTableRecord
100
AcDbDimStyleTableRecord
  2
RUISEKI1
 70
     0
  3

  4

  5

  6
_DOT
  7

 40
10.0
 41
2.0
 42
1.0
 43
6.0
 44
30.0
 45
0.0
 46
0.0
 47
0.0
 48
0.0
140
25.0
141
0.1
142
0.0
143
25.4
144
1.0
145
0.0
146
1.0
147
1.5
 71
     0
 72
     0
 73
     0
 74
     0
 75
     0
 76
     0
 77
     1
 78
     8
170
     0
171
     2
172
     1
173
     1
174
     0
175
     0
176
   256
177
   256
178
   256
270
     2
271
     1
272
     1
273
     2
274
     2
340
1C8CDE699D66
275
     1
280
     0
281
     0
282
     0
283
     1
284
     8
285
     8
286
     8
287
     5
288
     0
  0
DIMSTYLE
105
1C8CDE6A918A
100
AcDbSymbolTableRecord
100
AcDbDimStyleTableRecord
  2
RUISEKI2
 70
     0
  3

  4

  5

  6
_NONE
  7

 40
10.0
 41
2.0
 42
1.0
 43
6.0
 44
30.0
 45
0.0
 46
0.0
 47
0.0
 48
0.0
140
25.0
141
0.1
142
0.0
143
25.4
144
1.0
145
0.0
146
1.0
147
1.5
 71
     0
 72
     0
 73
     0
 74
     0
 75
     0
 76
     0
 77
     1
 78
     8
170
     0
171
     2
172
     1
173
     1
174
     0
175
     0
176
   256
177
   256
178
   256
270
     2
271
     1
272
     1
273
     2
274
     2
340
1C8CDE699D66
275
     1
280
     0
281
     0
282
     0
283
     1
284
     8
285
     8
286
     8
287
     5
288
     0
  0
ENDTAB
  0
TABLE
  2
BLOCK_RECORD
  5
1C8CDE699D3C
100
AcDbSymbolTable
 70
    15
  0
BLOCK_RECORD
  5
1C8CDE699D53
100
AcDbSymbolTableRecord
100
AcDbBlockTableRecord
  2
*MODEL_SPACE
  0
BLOCK_RECORD
  5
1C8CDE699D50
100
AcDbSymbolTableRecord
100
AcDbBlockTableRecord
  2
*PAPER_SPACE
  0
BLOCK_RECORD
  5
1C8CDE699D85
100
AcDbSymbolTableRecord
100
AcDbBlockTableRecord
  2
CALCOMP_TECHJET720A3
  0
BLOCK_RECORD
  5
1C8CDE6A90CE
100
AcDbSymbolTableRecord
100
AcDbBlockTableRecord
  2
*D1
  0
BLOCK_RECORD
  5
1C8CDE6A90DA
100
AcDbSymbolTableRecord
100
AcDbBlockTableRecord
  2
*D2
  0
BLOCK_RECORD
  5
1C8CDE6A90E6
100
AcDbSymbolTableRecord
100
AcDbBlockTableRecord
  2
*D3
  0
BLOCK_RECORD
  5
1C8CDE6A90F4
100
AcDbSymbolTableRecord
100
AcDbBlockTableRecord
  2
*D4
  0
BLOCK_RECORD
  5
1C8CDE6B5B22
100
AcDbSymbolTableRecord
100
AcDbBlockTableRecord
  2
*D5
  0
BLOCK_RECORD
  5
1C8CDE6B5B36
100
AcDbSymbolTableRecord
100
AcDbBlockTableRecord
  2
*D6
  0
BLOCK_RECORD
  5
1C8CDE6B5B6C
100
AcDbSymbolTableRecord
100
AcDbBlockTableRecord
  2
*D7
  0
BLOCK_RECORD
  5
1C8CDE6B5BDC
100
AcDbSymbolTableRecord
100
AcDbBlockTableRecord
  2
*D8
  0
BLOCK_RECORD
  5
1C8CDE6B5D13
100
AcDbSymbolTableRecord
100
AcDbBlockTableRecord
  2
*D9
  0
BLOCK_RECORD
  5
1C8CDE6B5D96
100
AcDbSymbolTableRecord
100
AcDbBlockTableRecord
  2
*X10
  0
BLOCK_RECORD
  5
1C8CDE6B60C0
100
AcDbSymbolTableRecord
100
AcDbBlockTableRecord
  2
*D11
  0
BLOCK_RECORD
  5
1C8CDE6B60CD
100
AcDbSymbolTableRecord
100
AcDbBlockTableRecord
  2
*D12
  0
BLOCK_RECORD
  5
1C8CDE6B611C
100
AcDbSymbolTableRecord
100
AcDbBlockTableRecord
  2
*D13
  0
BLOCK_RECORD
  5
1C8CDE6B6129
100
AcDbSymbolTableRecord
100
AcDbBlockTableRecord
  2
*D14
  0
ENDTAB
  0
ENDSEC
  0
SECTION
  2
BLOCKS
  0
BLOCK
  5
1C8CDE699D7E
100
AcDbEntity
  8
SUNPOU
100
AcDbBlockBegin
  2
*MODEL_SPACE
 70
     0
 10
0.0
 20
0.0
 30
0.0
  3
*MODEL_SPACE
  1

  0
ENDBLK
  5
1C8CDE699D7F
100
AcDbEntity
  8
SUNPOU
100
AcDbBlockEnd
  0
BLOCK
  5
1C8CDE699D7C
100
AcDbEntity
 67
     1
  8
SUNPOU
100
AcDbBlockBegin
  2
*PAPER_SPACE
 70
     0
 10
0.0
 20
0.0
 30
0.0
  3
*PAPER_SPACE
  1

  0
ENDBLK
  5
1C8CDE699D7D
100
AcDbEntity
 67
     1
  8
SUNPOU
100
AcDbBlockEnd
  0
BLOCK
  5
1C8CDE699D8C
100
AcDbEntity
  8
ZWAKU
100
AcDbBlockBegin
  2
CALCOMP_TECHJET720A3
 70
     0
 10
0.0
 20
0.0
 30
0.0
  3
CALCOMP_TECHJET720A3
  1

  0
POLYLINE
  5
1C8CDE699D86
100
AcDbEntity
  8
ZWAKU
 62
     2
100
AcDb2dPolyline
 66
     1
 10
0.0
 20
0.0
 30
0.0
 70
     1
  0
VERTEX
  5
1C8CDE699D87
100
AcDbEntity
  8
ZWAKU
 62
     2
100
AcDbVertex
100
AcDb2dVertex
 10
0.0
 20
0.0
 30
0.0
  0
VERTEX
  5
1C8CDE699D88
100
AcDbEntity
  8
ZWAKU
 62
     2
100
AcDbVertex
100
AcDb2dVertex
 10
0.0
 20
267.0
 30
0.0
  0
VERTEX
  5
1C8CDE699D89
100
AcDbEntity
  8
ZWAKU
 62
     2
100
AcDbVertex
100
AcDb2dVertex
 10
370.0
 20
267.0
 30
0.0
  0
VERTEX
  5
1C8CDE699D8A
100
AcDbEntity
  8
ZWAKU
 62
     2
100
AcDbVertex
100
AcDb2dVertex
 10
370.0
 20
0.0
 30
0.0
  0
SEQEND
  5
1C8CDE699D8B
100
AcDbEntity
  8
ZWAKU
 62
     2
  0
ENDBLK
  5
1C8CDE699D8D
100
AcDbEntity
  8
ZWAKU
100
AcDbBlockEnd
  0
BLOCK
  5
1C8CDE6ABA08
100
AcDbEntity
  8
0
100
AcDbBlockBegin
  2
*D1
 70
    65
 10
0.0
 20
0.0
 30
0.0
  3
*D1
  1

  0
LINE
  5
1C8CDE6ABA09
100
AcDbEntity
  8
0
  6
BYBLOCK
100
AcDbLine
 10
1524.523086
 20
503.407711
 30
0.0
 11
1524.523086
 21
253.407711
 31
0.0
  0
LINE
  5
1C8CDE6ABA0A
100
AcDbEntity
  8
0
  6
BYBLOCK
100
AcDbLine
 10
1924.523086
 20
503.407711
 30
0.0
 11
1924.523086
 21
253.407711
 31
0.0
  0
LINE
  5
1C8CDE6ABA0B
100
AcDbEntity
  8
0
  6
BYBLOCK
100
AcDbLine
 10
1544.523086
 20
263.407711
 30
0.0
 11
1904.523086
 21
263.407711
 31
0.0
  0
SOLID
  5
1C8CDE6ABA0C
100
AcDbEntity
  8
0
  6
BYBLOCK
100
AcDbTrace
 10
1544.523086
 20
266.741044
 30
0.0
 11
1544.523086
 21
260.074378
 31
0.0
 12
1524.523086
 22
263.407711
 32
0.0
 13
1524.523086
 23
263.407711
 33
0.0
  0
SOLID
  5
1C8CDE6ABA0D
100
AcDbEntity
  8
0
  6
BYBLOCK
100
AcDbTrace
 10
1904.523086
 20
266.741044
 30
0.0
 11
1904.523086
 21
260.074378
 31
0.0
 12
1924.523086
 22
263.407711
 32
0.0
 13
1924.523086
 23
263.407711
 33
0.0
  0
MTEXT
  5
1C8CDE6ABA0E
100
AcDbEntity
  8
0
  6
BYBLOCK
100
AcDbMText
 10
1724.523086
 20
290.407711
 30
0.0
 40
30.0
 41
0.0
 71
     5
 72
     1
  1
\A1;□400
  7
EXT08
  0
POINT
  5
1C8CDE6ABA0F
100
AcDbEntity
  8
DEFPOINTS
  6
BYBLOCK
 62
     0
100
AcDbPoint
 10
1524.523086
 20
513.407711
 30
0.0
  0
POINT
  5
1C8CDE6ABA10
100
AcDbEntity
  8
DEFPOINTS
  6
BYBLOCK
 62
     0
100
AcDbPoint
 10
1924.523086
 20
513.407711
 30
0.0
  0
POINT
  5
1C8CDE6ABA11
100
AcDbEntity
  8
DEFPOINTS
  6
BYBLOCK
 62
     0
100
AcDbPoint
 10
1924.523086
 20
263.407711
 30
0.0
  0
ENDBLK
  5
1C8CDE6ABA12
100
AcDbEntity
  8
0
100
AcDbBlockEnd
  0
BLOCK
  5
1C8CDE6AB9FD
100
AcDbEntity
  8
0
100
AcDbBlockBegin
  2
*D2
 70
    65
 10
0.0
 20
0.0
 30
0.0
  3
*D2
  1

  0
LINE
  5
1C8CDE6AB9FE
100
AcDbEntity
  8
0
  6
BYBLOCK
100
AcDbLine
 10
1574.523086
 20
503.407711
 30
0.0
 11
1574.523086
 21
353.407711
 31
0.0
  0
LINE
  5
1C8CDE6AB9FF
100
AcDbEntity
  8
0
  6
BYBLOCK
100
AcDbLine
 10
1874.523086
 20
503.407711
 30
0.0
 11
1874.523086
 21
353.407711
 31
0.0
  0
LINE
  5
1C8CDE6ABA00
100
AcDbEntity
  8
0
  6
BYBLOCK
100
AcDbLine
 10
1594.523086
 20
363.407711
 30
0.0
 11
1854.523086
 21
363.407711
 31
0.0
  0
SOLID
  5
1C8CDE6ABA01
100
AcDbEntity
  8
0
  6
BYBLOCK
100
AcDbTrace
 10
1594.523086
 20
366.741044
 30
0.0
 11
1594.523086
 21
360.074378
 31
0.0
 12
1574.523086
 22
363.407711
 32
0.0
 13
1574.523086
 23
363.407711
 33
0.0
  0
SOLID
  5
1C8CDE6ABA02
100
AcDbEntity
  8
0
  6
BYBLOCK
100
AcDbTrace
 10
1854.523086
 20
366.741044
 30
0.0
 11
1854.523086
 21
360.074378
 31
0.0
 12
1874.523086
 22
363.407711
 32
0.0
 13
1874.523086
 23
363.407711
 33
0.0
  0
MTEXT
  5
1C8CDE6ABA03
100
AcDbEntity
  8
0
  6
BYBLOCK
100
AcDbMText
 10
1724.523086
 20
390.407711
 30
0.0
 40
30.0
 41
0.0
 71
     5
 72
     1
  1
\A1;□300
  7
EXT08
  0
POINT
  5
1C8CDE6ABA04
100
AcDbEntity
  8
DEFPOINTS
  6
BYBLOCK
 62
     0
100
AcDbPoint
 10
1574.523086
 20
513.407711
 30
0.0
  0
POINT
  5
1C8CDE6ABA05
100
AcDbEntity
  8
DEFPOINTS
  6
BYBLOCK
 62
     0
100
AcDbPoint
 10
1874.523086
 20
513.407711
 30
0.0
  0
POINT
  5
1C8CDE6ABA06
100
AcDbEntity
  8
DEFPOINTS
  6
BYBLOCK
 62
     0
100
AcDbPoint
 10
1874.523086
 20
363.407711
 30
0.0
  0
ENDBLK
  5
1C8CDE6ABA07
100
AcDbEntity
  8
0
100
AcDbBlockEnd
  0
BLOCK
  5
1C8CDE6B5CDD
100
AcDbEntity
  8
0
100
AcDbBlockBegin
  2
*D3
 70
    65
 10
0.0
 20
0.0
 30
0.0
  3
*D3
  1

  0
LINE
  5
1C8CDE6B5CDE
100
AcDbEntity
  8
0
  6
BYBLOCK
100
AcDbLine
 10
970.404622
 20
563.407711
 30
0.0
 11
1330.624461
 21
563.407711
 31
0.0
  0
LINE
  5
1C8CDE6B5CDF
100
AcDbEntity
  8
0
  6
BYBLOCK
100
AcDbLine
 10
970.404622
 20
513.407711
 30
0.0
 11
1330.624461
 21
513.407711
 31
0.0
  0
LINE
  5
1C8CDE6B5CE0
100
AcDbEntity
  8
0
  6
BYBLOCK
100
AcDbLine
 10
1320.624461
 20
583.407711
 30
0.0
 11
1320.624461
 21
603.407711
 31
0.0
  0
LINE
  5
1C8CDE6B5CE1
100
AcDbEntity
  8
0
  6
BYBLOCK
100
AcDbLine
 10
1320.624461
 20
493.407711
 30
0.0
 11
1320.624461
 21
473.407711
 31
0.0
  0
MTEXT
  5
1C8CDE6B5CE2
100
AcDbEntity
  8
0
  6
BYBLOCK
100
AcDbMText
 10
1287.948882
 20
538.903876
 30
0.0
 40
30.0
 41
0.0
 71
     5
 72
     1
  1
\A1;50
  7
EXT08
 11
0.0
 21
1.0
 31
0.0
  0
LINE
  5
1C8CDE6B5CE3
100
AcDbEntity
  8
0
  6
BYBLOCK
100
AcDbLine
 10
1320.624461
 20
563.407711
 30
0.0
 11
1320.624461
 21
513.407711
 31
0.0
  0
SOLID
  5
1C8CDE6B5CE4
100
AcDbEntity
  8
0
  6
BYBLOCK
100
AcDbTrace
 10
1317.291127
 20
583.407711
 30
0.0
 11
1323.957794
 21
583.407711
 31
0.0
 12
1320.624461
 22
563.407711
 32
0.0
 13
1320.624461
 23
563.407711
 33
0.0
  0
SOLID
  5
1C8CDE6B5CE5
100
AcDbEntity
  8
0
  6
BYBLOCK
100
AcDbTrace
 10
1317.291127
 20
493.407711
 30
0.0
 11
1323.957794
 21
493.407711
 31
0.0
 12
1320.624461
 22
513.407711
 32
0.0
 13
1320.624461
 23
513.407711
 33
0.0
  0
POINT
  5
1C8CDE6B5CE6
100
AcDbEntity
  8
DEFPOINTS
  6
BYBLOCK
 62
     0
100
AcDbPoint
 10
960.404622
 20
563.407711
 30
0.0
  0
POINT
  5
1C8CDE6B5CE7
100
AcDbEntity
  8
DEFPOINTS
  6
BYBLOCK
 62
     0
100
AcDbPoint
 10
960.404622
 20
513.407711
 30
0.0
  0
POINT
  5
1C8CDE6B5CE8
100
AcDbEntity
  8
DEFPOINTS
  6
BYBLOCK
 62
     0
100
AcDbPoint
 10
1320.624461
 20
513.407711
 30
0.0
  0
ENDBLK
  5
1C8CDE6B5CE9
100
AcDbEntity
  8
0
100
AcDbBlockEnd
  0
BLOCK
  5
1C8CDE6B5CC5
100
AcDbEntity
  8
0
100
AcDbBlockBegin
  2
*D4
 70
    65
 10
0.0
 20
0.0
 30
0.0
  3
*D4
  1

  0
LINE
  5
1C8CDE6B5CC6
100
AcDbEntity
  8
0
  6
BYBLOCK
100
AcDbLine
 10
1055.525429
 20
963.407711
 30
0.0
 11
1203.731273
 21
963.407711
 31
0.0
  0
LINE
  5
1C8CDE6B5CC7
100
AcDbEntity
  8
0
  6
BYBLOCK
100
AcDbLine
 10
970.404622
 20
563.407702
 30
0.0
 11
1203.731273
 21
563.407702
 31
0.0
  0
LINE
  5
1C8CDE6B5CC8
100
AcDbEntity
  8
0
  6
BYBLOCK
100
AcDbLine
 10
1193.731273
 20
943.407711
 30
0.0
 11
1193.731273
 21
583.407702
 31
0.0
  0
SOLID
  5
1C8CDE6B5CC9
100
AcDbEntity
  8
0
  6
BYBLOCK
100
AcDbTrace
 10
1190.39794
 20
943.407711
 30
0.0
 11
1197.064606
 21
943.407711
 31
0.0
 12
1193.731273
 22
963.407711
 32
0.0
 13
1193.731273
 23
963.407711
 33
0.0
  0
SOLID
  5
1C8CDE6B5CCA
100
AcDbEntity
  8
0
  6
BYBLOCK
100
AcDbTrace
 10
1190.39794
 20
583.407702
 30
0.0
 11
1197.064606
 21
583.407702
 31
0.0
 12
1193.731273
 22
563.407702
 32
0.0
 13
1193.731273
 23
563.407702
 33
0.0
  0
MTEXT
  5
1C8CDE6B5CCB
100
AcDbEntity
  8
0
  6
BYBLOCK
100
AcDbMText
 10
1166.731273
 20
763.407707
 30
0.0
 40
30.0
 41
0.0
 71
     5
 72
     1
  1
\A1;400
  7
EXT08
 11
0.0
 21
1.0
 31
0.0
  0
POINT
  5
1C8CDE6B5CCC
100
AcDbEntity
  8
DEFPOINTS
  6
BYBLOCK
 62
     0
100
AcDbPoint
 10
1045.525429
 20
963.407711
 30
0.0
  0
POINT
  5
1C8CDE6B5CCD
100
AcDbEntity
  8
DEFPOINTS
  6
BYBLOCK
 62
     0
100
AcDbPoint
 10
960.404622
 20
563.407702
 30
0.0
  0
POINT
  5
1C8CDE6B5CCE
100
AcDbEntity
  8
DEFPOINTS
  6
BYBLOCK
 62
     0
100
AcDbPoint
 10
1193.731273
 20
563.407702
 30
0.0
  0
ENDBLK
  5
1C8CDE6B5CCF
100
AcDbEntity
  8
0
100
AcDbBlockEnd
  0
BLOCK
  5
1C8CDE6B5C20
100
AcDbEntity
  8
0
100
AcDbBlockBegin
  2
*D5
 70
    65
 10
0.0
 20
0.0
 30
0.0
  3
*D5
  1

  0
LINE
  5
1C8CDE6B5C21
100
AcDbEntity
  8
0
  6
BYBLOCK
100
AcDbLine
 10
2653.972036
 20
1520.099778
 30
0.0
 11
2653.972036
 21
1717.124473
 31
0.0
  0
LINE
  5
1C8CDE6B5C22
100
AcDbEntity
  8
0
  6
BYBLOCK
100
AcDbLine
 10
2758.972036
 20
1520.099778
 30
0.0
 11
2758.972036
 21
1717.124473
 31
0.0
  0
LINE
  5
1C8CDE6B5C23
100
AcDbEntity
  8
0
  6
BYBLOCK
100
AcDbLine
 10
2673.972036
 20
1707.124473
 30
0.0
 11
2738.972036
 21
1707.124473
 31
0.0
  0
MTEXT
  5
1C8CDE6B5C24
100
AcDbEntity
  8
0
  6
BYBLOCK
100
AcDbMText
 10
2710.242312
 20
1749.277163
 30
0.0
 40
30.0
 41
0.0
 71
     5
 72
     1
  1
\A1;φ105
  7
EXT08
  0
SOLID
  5
1C8CDE6B5C25
100
AcDbEntity
  8
0
  6
BYBLOCK
100
AcDbTrace
 10
2673.972036
 20
1710.457807
 30
0.0
 11
2673.972036
 21
1703.79114
 31
0.0
 12
2653.972036
 22
1707.124473
 32
0.0
 13
2653.972036
 23
1707.124473
 33
0.0
  0
SOLID
  5
1C8CDE6B5C26
100
AcDbEntity
  8
0
  6
BYBLOCK
100
AcDbTrace
 10
2738.972036
 20
1710.457807
 30
0.0
 11
2738.972036
 21
1703.79114
 31
0.0
 12
2758.972036
 22
1707.124473
 32
0.0
 13
2758.972036
 23
1707.124473
 33
0.0
  0
POINT
  5
1C8CDE6B5C27
100
AcDbEntity
  8
DEFPOINTS
  6
BYBLOCK
 62
     0
100
AcDbPoint
 10
2653.972036
 20
1510.099778
 30
0.0
  0
POINT
  5
1C8CDE6B5C28
100
AcDbEntity
  8
DEFPOINTS
  6
BYBLOCK
 62
     0
100
AcDbPoint
 10
2758.972036
 20
1510.099778
 30
0.0
  0
POINT
  5
1C8CDE6B5C29
100
AcDbEntity
  8
DEFPOINTS
  6
BYBLOCK
 62
     0
100
AcDbPoint
 10
2758.972036
 20
1707.124473
 30
0.0
  0
ENDBLK
  5
1C8CDE6B5C2A
100
AcDbEntity
  8
0
100
AcDbBlockEnd
  0
BLOCK
  5
1C8CDE6B5B37
100
AcDbEntity
  8
0
100
AcDbBlockBegin
  2
*D6
 70
    65
 10
0.0
 20
0.0
 30
0.0
  3
*D6
  1

  0
LINE
  5
1C8CDE6B5B38
100
AcDbEntity
  8
0
  6
BYBLOCK
100
AcDbLine
 10
5982.126243
 20
2769.721907
 30
0.0
 11
6095.893576
 21
2769.721907
 31
0.0
  0
LINE
  5
1C8CDE6B5B39
100
AcDbEntity
  8
0
  6
BYBLOCK
100
AcDbLine
 10
5977.226223
 20
2369.721913
 30
0.0
 11
6095.893576
 21
2369.721913
 31
0.0
  0
LINE
  5
1C8CDE6B5B3A
100
AcDbEntity
  8
0
  6
BYBLOCK
100
AcDbLine
 10
6085.893576
 20
2749.721907
 30
0.0
 11
6085.893576
 21
2389.721913
 31
0.0
  0
SOLID
  5
1C8CDE6B5B3B
100
AcDbEntity
  8
0
  6
BYBLOCK
100
AcDbTrace
 10
6082.560243
 20
2749.721907
 30
0.0
 11
6089.22691
 21
2749.721907
 31
0.0
 12
6085.893576
 22
2769.721907
 32
0.0
 13
6085.893576
 23
2769.721907
 33
0.0
  0
SOLID
  5
1C8CDE6B5B3C
100
AcDbEntity
  8
0
  6
BYBLOCK
100
AcDbTrace
 10
6082.560243
 20
2389.721913
 30
0.0
 11
6089.22691
 21
2389.721913
 31
0.0
 12
6085.893576
 22
2369.721913
 32
0.0
 13
6085.893576
 23
2369.721913
 33
0.0
  0
MTEXT
  5
1C8CDE6B5B3D
100
AcDbEntity
  8
0
  6
BYBLOCK
100
AcDbMText
 10
6058.893576
 20
2569.72191
 30
0.0
 40
30.0
 41
0.0
 71
     5
 72
     1
  1
\A1;400
  7
EXT08
 11
0.0
 21
1.0
 31
0.0
  0
POINT
  5
1C8CDE6B5B3E
100
AcDbEntity
  8
DEFPOINTS
  6
BYBLOCK
 62
     0
100
AcDbPoint
 10
5972.126243
 20
2769.721907
 30
0.0
  0
POINT
  5
1C8CDE6B5B3F
100
AcDbEntity
  8
DEFPOINTS
  6
BYBLOCK
 62
     0
100
AcDbPoint
 10
5967.226223
 20
2369.721913
 30
0.0
  0
POINT
  5
1C8CDE6B5B40
100
AcDbEntity
  8
DEFPOINTS
  6
BYBLOCK
 62
     0
100
AcDbPoint
 10
6085.893576
 20
2369.721913
 30
0.0
  0
ENDBLK
  5
1C8CDE6B5B41
100
AcDbEntity
  8
0
100
AcDbBlockEnd
  0
BLOCK
  5
1C8CDE6B5B8F
100
AcDbEntity
  8
0
100
AcDbBlockBegin
  2
*D7
 70
    65
 10
0.0
 20
0.0
 30
0.0
  3
*D7
  1

  0
LINE
  5
1C8CDE6B5B90
100
AcDbEntity
  8
0
  6
BYBLOCK
100
AcDbLine
 10
2656.472036
 20
1096.499778
 30
0.0
 11
2656.472036
 21
1026.366023
 31
0.0
  0
LINE
  5
1C8CDE6B5B91
100
AcDbEntity
  8
0
  6
BYBLOCK
100
AcDbLine
 10
2756.472036
 20
1096.499778
 30
0.0
 11
2756.472036
 21
1026.366023
 31
0.0
  0
LINE
  5
1C8CDE6B5B92
100
AcDbEntity
  8
0
  6
BYBLOCK
100
AcDbLine
 10
2676.472036
 20
1036.366023
 30
0.0
 11
2736.472036
 21
1036.366023
 31
0.0
  0
MTEXT
  5
1C8CDE6B5B93
100
AcDbEntity
  8
0
  6
BYBLOCK
100
AcDbMText
 10
2706.472036
 20
985.50888
 30
0.0
 40
30.0
 41
0.0
 71
     5
 72
     1
  1
\A1;φ100(底板径)
  7
EXT08
  0
SOLID
  5
1C8CDE6B5B94
100
AcDbEntity
  8
0
  6
BYBLOCK
100
AcDbTrace
 10
2676.472036
 20
1039.699356
 30
0.0
 11
2676.472036
 21
1033.032689
 31
0.0
 12
2656.472036
 22
1036.366023
 32
0.0
 13
2656.472036
 23
1036.366023
 33
0.0
  0
SOLID
  5
1C8CDE6B5B95
100
AcDbEntity
  8
0
  6
BYBLOCK
100
AcDbTrace
 10
2736.472036
 20
1039.699356
 30
0.0
 11
2736.472036
 21
1033.032689
 31
0.0
 12
2756.472036
 22
1036.366023
 32
0.0
 13
2756.472036
 23
1036.366023
 33
0.0
  0
POINT
  5
1C8CDE6B5B96
100
AcDbEntity
  8
DEFPOINTS
  6
BYBLOCK
 62
     0
100
AcDbPoint
 10
2656.472036
 20
1106.499778
 30
0.0
  0
POINT
  5
1C8CDE6B5B97
100
AcDbEntity
  8
DEFPOINTS
  6
BYBLOCK
 62
     0
100
AcDbPoint
 10
2756.472036
 20
1106.499778
 30
0.0
  0
POINT
  5
1C8CDE6B5B98
100
AcDbEntity
  8
DEFPOINTS
  6
BYBLOCK
 62
     0
100
AcDbPoint
 10
2756.472036
 20
1036.366023
 30
0.0
  0
ENDBLK
  5
1C8CDE6B5B99
100
AcDbEntity
  8
0
100
AcDbBlockEnd
  0
BLOCK
  5
1C8CDE6B5C2B
100
AcDbEntity
  8
0
100
AcDbBlockBegin
  2
*D8
 70
    65
 10
0.0
 20
0.0
 30
0.0
  3
*D8
  1

  0
LINE
  5
1C8CDE6B5C2C
100
AcDbEntity
  8
0
  6
BYBLOCK
100
AcDbLine
 10
2962.958231
 20
1515.599778
 30
0.0
 11
2962.958231
 21
1717.124473
 31
0.0
  0
LINE
  5
1C8CDE6B5C2D
100
AcDbEntity
  8
0
  6
BYBLOCK
100
AcDbLine
 10
3094.458231
 20
1520.099778
 30
0.0
 11
3094.458231
 21
1717.124473
 31
0.0
  0
LINE
  5
1C8CDE6B5C2E
100
AcDbEntity
  8
0
  6
BYBLOCK
100
AcDbLine
 10
2982.958231
 20
1707.124473
 30
0.0
 11
3074.458231
 21
1707.124473
 31
0.0
  0
MTEXT
  5
1C8CDE6B5C2F
100
AcDbEntity
  8
0
  6
BYBLOCK
100
AcDbMText
 10
3031.285228
 20
1746.492844
 30
0.0
 40
30.0
 41
0.0
 71
     5
 72
     1
  1
\A1;132
  7
EXT08
  0
SOLID
  5
1C8CDE6B5C30
100
AcDbEntity
  8
0
  6
BYBLOCK
100
AcDbTrace
 10
2982.958231
 20
1710.457807
 30
0.0
 11
2982.958231
 21
1703.79114
 31
0.0
 12
2962.958231
 22
1707.124473
 32
0.0
 13
2962.958231
 23
1707.124473
 33
0.0
  0
SOLID
  5
1C8CDE6B5C31
100
AcDbEntity
  8
0
  6
BYBLOCK
100
AcDbTrace
 10
3074.458231
 20
1710.457807
 30
0.0
 11
3074.458231
 21
1703.79114
 31
0.0
 12
3094.458231
 22
1707.124473
 32
0.0
 13
3094.458231
 23
1707.124473
 33
0.0
  0
POINT
  5
1C8CDE6B5C32
100
AcDbEntity
  8
DEFPOINTS
  6
BYBLOCK
 62
     0
100
AcDbPoint
 10
2962.958231
 20
1505.599778
 30
0.0
  0
POINT
  5
1C8CDE6B5C33
100
AcDbEntity
  8
DEFPOINTS
  6
BYBLOCK
 62
     0
100
AcDbPoint
 10
3094.458231
 20
1510.099778
 30
0.0
  0
POINT
  5
1C8CDE6B5C34
100
AcDbEntity
  8
DEFPOINTS
  6
BYBLOCK
 62
     0
100
AcDbPoint
 10
3094.458231
 20
1707.124473
 30
0.0
  0
ENDBLK
  5
1C8CDE6B5C35
100
AcDbEntity
  8
0
100
AcDbBlockEnd
  0
BLOCK
  5
1C8CDE6B5D36
100
AcDbEntity
  8
0
100
AcDbBlockBegin
  2
*D9
 70
    65
 10
0.0
 20
0.0
 30
0.0
  3
*D9
  1

  0
LINE
  5
1C8CDE6B5D37
100
AcDbEntity
  8
0
  6
BYBLOCK
100
AcDbLine
 10
920.404622
 20
963.407711
 30
0.0
 11
1017.446158
 21
963.407711
 31
0.0
  0
LINE
  5
1C8CDE6B5D38
100
AcDbEntity
  8
0
  6
BYBLOCK
100
AcDbLine
 10
845.052476
 20
1038.407711
 30
0.0
 11
1017.446158
 21
1038.407711
 31
0.0
  0
LINE
  5
1C8CDE6B5D39
100
AcDbEntity
  8
0
  6
BYBLOCK
100
AcDbLine
 10
1007.446158
 20
983.407711
 30
0.0
 11
1007.446158
 21
1018.407711
 31
0.0
  0
MTEXT
  5
1C8CDE6B5D3A
100
AcDbEntity
  8
0
  6
BYBLOCK
100
AcDbMText
 10
975.413033
 20
1000.907711
 30
0.0
 40
30.0
 41
0.0
 71
     5
 72
     1
  1
\A1;75
  7
EXT08
 11
0.0
 21
1.0
 31
0.0
  0
SOLID
  5
1C8CDE6B5D3B
100
AcDbEntity
  8
0
  6
BYBLOCK
100
AcDbTrace
 10
1004.112825
 20
983.407711
 30
0.0
 11
1010.779492
 21
983.407711
 31
0.0
 12
1007.446158
 22
963.407711
 32
0.0
 13
1007.446158
 23
963.407711
 33
0.0
  0
SOLID
  5
1C8CDE6B5D3C
100
AcDbEntity
  8
0
  6
BYBLOCK
100
AcDbTrace
 10
1004.112825
 20
1018.407711
 30
0.0
 11
1010.779492
 21
1018.407711
 31
0.0
 12
1007.446158
 22
1038.407711
 32
0.0
 13
1007.446158
 23
1038.407711
 33
0.0
  0
POINT
  5
1C8CDE6B5D3D
100
AcDbEntity
  8
DEFPOINTS
  6
BYBLOCK
 62
     0
100
AcDbPoint
 10
910.404622
 20
963.407711
 30
0.0
  0
POINT
  5
1C8CDE6B5D3E
100
AcDbEntity
  8
DEFPOINTS
  6
BYBLOCK
 62
     0
100
AcDbPoint
 10
835.052476
 20
1038.407711
 30
0.0
  0
POINT
  5
1C8CDE6B5D3F
100
AcDbEntity
  8
DEFPOINTS
  6
BYBLOCK
 62
     0
100
AcDbPoint
 10
1007.446158
 20
1038.407711
 30
0.0
  0
ENDBLK
  5
1C8CDE6B5D40
100
AcDbEntity
  8
0
100
AcDbBlockEnd
  0
BLOCK
  5
1C8CDE6B5DBB
100
AcDbEntity
  8
0
100
AcDbBlockBegin
  2
*X10
 70
    65
 10
0.0
 20
0.0
 30
0.0
  3
*X10
  1

  0
LINE
  5
1C8CDE6B5D97
100
AcDbEntity
  8
0
 62
     0
100
AcDbLine
 10
1681.972215
 20
1771.774776
 30
0.0
 11
1724.522215
 21
1814.324776
 31
0.0
  0
LINE
  5
1C8CDE6B5D98
100
AcDbEntity
  8
0
 62
     0
100
AcDbLine
 10
1724.522215
 20
1814.324776
 30
0.0
 11
1767.072215
 21
1856.874776
 31
0.0
  0
LINE
  5
1C8CDE6B5D99
100
AcDbEntity
  8
0
 62
     0
100
AcDbLine
 10
1681.972215
 20
1780.755032
 30
0.0
 11
1724.522215
 21
1823.305032
 31
0.0
  0
LINE
  5
1C8CDE6B5D9A
100
AcDbEntity
  8
0
 62
     0
100
AcDbLine
 10
1724.522215
 20
1823.305032
 30
0.0
 11
1767.072215
 21
1865.855032
 31
0.0
  0
LINE
  5
1C8CDE6B5D9B
100
AcDbEntity
  8
0
 62
     0
100
AcDbLine
 10
1681.972215
 20
1789.735288
 30
0.0
 11
1724.522215
 21
1832.285288
 31
0.0
  0
LINE
  5
1C8CDE6B5D9C
100
AcDbEntity
  8
0
 62
     0
100
AcDbLine
 10
1724.522215
 20
1832.285288
 30
0.0
 11
1767.072215
 21
1874.835288
 31
0.0
  0
LINE
  5
1C8CDE6B5D9D
100
AcDbEntity
  8
0
 62
     0
100
AcDbLine
 10
1681.972215
 20
1798.715544
 30
0.0
 11
1724.522215
 21
1841.265544
 31
0.0
  0
LINE
  5
1C8CDE6B5D9E
100
AcDbEntity
  8
0
 62
     0
100
AcDbLine
 10
1724.522215
 20
1841.265544
 30
0.0
 11
1761.811637
 21
1878.554967
 31
0.0
  0
LINE
  5
1C8CDE6B5D9F
100
AcDbEntity
  8
0
 62
     0
100
AcDbLine
 10
1681.972215
 20
1807.6958
 30
0.0
 11
1724.522215
 21
1850.2458
 31
0.0
  0
LINE
  5
1C8CDE6B5DA0
100
AcDbEntity
  8
0
 62
     0
100
AcDbLine
 10
1724.522215
 20
1850.2458
 30
0.0
 11
1752.831381
 21
1878.554967
 31
0.0
  0
LINE
  5
1C8CDE6B5DA1
100
AcDbEntity
  8
0
 62
     0
100
AcDbLine
 10
1681.972215
 20
1816.676056
 30
0.0
 11
1724.522215
 21
1859.226056
 31
0.0
  0
LINE
  5
1C8CDE6B5DA2
100
AcDbEntity
  8
0
 62
     0
100
AcDbLine
 10
1724.522215
 20
1859.226056
 30
0.0
 11
1743.851125
 21
1878.554967
 31
0.0
  0
LINE
  5
1C8CDE6B5DA3
100
AcDbEntity
  8
0
 62
     0
100
AcDbLine
 10
1681.972215
 20
1825.656312
 30
0.0
 11
1724.522215
 21
1868.206312
 31
0.0
  0
LINE
  5
1C8CDE6B5DA4
100
AcDbEntity
  8
0
 62
     0
100
AcDbLine
 10
1724.522215
 20
1868.206312
 30
0.0
 11
1734.870869
 21
1878.554967
 31
0.0
  0
LINE
  5
1C8CDE6B5DA5
100
AcDbEntity
  8
0
 62
     0
100
AcDbLine
 10
1681.972215
 20
1834.636569
 30
0.0
 11
1724.522215
 21
1877.186569
 31
0.0
  0
LINE
  5
1C8CDE6B5DA6
100
AcDbEntity
  8
0
 62
     0
100
AcDbLine
 10
1724.522215
 20
1877.186569
 30
0.0
 11
1725.890613
 21
1878.554967
 31
0.0
  0
LINE
  5
1C8CDE6B5DA7
100
AcDbEntity
  8
0
 62
     0
100
AcDbLine
 10
1681.972215
 20
1843.616825
 30
0.0
 11
1716.910357
 21
1878.554967
 31
0.0
  0
LINE
  5
1C8CDE6B5DA8
100
AcDbEntity
  8
0
 62
     0
100
AcDbLine
 10
1681.972215
 20
1852.597081
 30
0.0
 11
1707.930101
 21
1878.554967
 31
0.0
  0
LINE
  5
1C8CDE6B5DA9
100
AcDbEntity
  8
0
 62
     0
100
AcDbLine
 10
1681.972215
 20
1861.577337
 30
0.0
 11
1698.949844
 21
1878.554967
 31
0.0
  0
LINE
  5
1C8CDE6B5DAA
100
AcDbEntity
  8
0
 62
     0
100
AcDbLine
 10
1681.972215
 20
1870.557593
 30
0.0
 11
1689.969588
 21
1878.554967
 31
0.0
  0
LINE
  5
1C8CDE6B5DAB
100
AcDbEntity
  8
0
 62
     0
100
AcDbLine
 10
1681.972215
 20
1762.79452
 30
0.0
 11
1724.522215
 21
1805.34452
 31
0.0
  0
LINE
  5
1C8CDE6B5DAC
100
AcDbEntity
  8
0
 62
     0
100
AcDbLine
 10
1724.522215
 20
1805.34452
 30
0.0
 11
1767.072215
 21
1847.89452
 31
0.0
  0
LINE
  5
1C8CDE6B5DAD
100
AcDbEntity
  8
0
 62
     0
100
AcDbLine
 10
1686.712918
 20
1758.554967
 30
0.0
 11
1724.522215
 21
1796.364263
 31
0.0
  0
LINE
  5
1C8CDE6B5DAE
100
AcDbEntity
  8
0
 62
     0
100
AcDbLine
 10
1724.522215
 20
1796.364263
 30
0.0
 11
1767.072215
 21
1838.914263
 31
0.0
  0
LINE
  5
1C8CDE6B5DAF
100
AcDbEntity
  8
0
 62
     0
100
AcDbLine
 10
1695.693174
 20
1758.554967
 30
0.0
 11
1724.522215
 21
1787.384007
 31
0.0
  0
LINE
  5
1C8CDE6B5DB0
100
AcDbEntity
  8
0
 62
     0
100
AcDbLine
 10
1724.522215
 20
1787.384007
 30
0.0
 11
1767.072215
 21
1829.934007
 31
0.0
  0
LINE
  5
1C8CDE6B5DB1
100
AcDbEntity
  8
0
 62
     0
100
AcDbLine
 10
1704.67343
 20
1758.554967
 30
0.0
 11
1724.522215
 21
1778.403751
 31
0.0
  0
LINE
  5
1C8CDE6B5DB2
100
AcDbEntity
  8
0
 62
     0
100
AcDbLine
 10
1724.522215
 20
1778.403751
 30
0.0
 11
1767.072215
 21
1820.953751
 31
0.0
  0
LINE
  5
1C8CDE6B5DB3
100
AcDbEntity
  8
0
 62
     0
100
AcDbLine
 10
1713.653686
 20
1758.554967
 30
0.0
 11
1724.522215
 21
1769.423495
 31
0.0
  0
LINE
  5
1C8CDE6B5DB4
100
AcDbEntity
  8
0
 62
     0
100
AcDbLine
 10
1724.522215
 20
1769.423495
 30
0.0
 11
1767.072215
 21
1811.973495
 31
0.0
  0
LINE
  5
1C8CDE6B5DB5
100
AcDbEntity
  8
0
 62
     0
100
AcDbLine
 10
1722.633942
 20
1758.554967
 30
0.0
 11
1724.522215
 21
1760.443239
 31
0.0
  0
LINE
  5
1C8CDE6B5DB6
100
AcDbEntity
  8
0
 62
     0
100
AcDbLine
 10
1724.522215
 20
1760.443239
 30
0.0
 11
1767.072215
 21
1802.993239
 31
0.0
  0
LINE
  5
1C8CDE6B5DB7
100
AcDbEntity
  8
0
 62
     0
100
AcDbLine
 10
1731.614199
 20
1758.554967
 30
0.0
 11
1767.072215
 21
1794.012983
 31
0.0
  0
LINE
  5
1C8CDE6B5DB8
100
AcDbEntity
  8
0
 62
     0
100
AcDbLine
 10
1740.594455
 20
1758.554967
 30
0.0
 11
1767.072215
 21
1785.032727
 31
0.0
  0
LINE
  5
1C8CDE6B5DB9
100
AcDbEntity
  8
0
 62
     0
100
AcDbLine
 10
1749.574711
 20
1758.554967
 30
0.0
 11
1767.072215
 21
1776.052471
 31
0.0
  0
LINE
  5
1C8CDE6B5DBA
100
AcDbEntity
  8
0
 62
     0
100
AcDbLine
 10
1758.554967
 20
1758.554967
 30
0.0
 11
1767.072215
 21
1767.072215
 31
0.0
  0
ENDBLK
  5
1C8CDE6B5DBC
100
AcDbEntity
  8
0
100
AcDbBlockEnd
  0
BLOCK
  5
1C8CDE6B60C1
100
AcDbEntity
  8
0
100
AcDbBlockBegin
  2
*D11
 70
    65
 10
0.0
 20
0.0
 30
0.0
  3
*D11
  1

  0
LINE
  5
1C8CDE6B60C2
100
AcDbEntity
  8
0
  6
BYBLOCK
100
AcDbLine
 10
770.403751
 20
1863.407711
 30
0.0
 11
1203.731273
 21
1863.407711
 31
0.0
  0
LINE
  5
1C8CDE6B60C3
100
AcDbEntity
  8
0
  6
BYBLOCK
100
AcDbLine
 10
1055.525429
 20
963.407711
 30
0.0
 11
1203.731273
 21
963.407711
 31
0.0
  0
LINE
  5
1C8CDE6B60C4
100
AcDbEntity
  8
0
  6
BYBLOCK
100
AcDbLine
 10
1193.731273
 20
1843.407711
 30
0.0
 11
1193.731273
 21
983.407711
 31
0.0
  0
SOLID
  5
1C8CDE6B60C5
100
AcDbEntity
  8
0
  6
BYBLOCK
100
AcDbTrace
 10
1190.39794
 20
1843.407711
 30
0.0
 11
1197.064606
 21
1843.407711
 31
0.0
 12
1193.731273
 22
1863.407711
 32
0.0
 13
1193.731273
 23
1863.407711
 33
0.0
  0
SOLID
  5
1C8CDE6B60C6
100
AcDbEntity
  8
0
  6
BYBLOCK
100
AcDbTrace
 10
1190.39794
 20
983.407711
 30
0.0
 11
1197.064606
 21
983.407711
 31
0.0
 12
1193.731273
 22
963.407711
 32
0.0
 13
1193.731273
 23
963.407711
 33
0.0
  0
MTEXT
  5
1C8CDE6B60C7
100
AcDbEntity
  8
0
  6
BYBLOCK
100
AcDbMText
 10
1166.731273
 20
1413.407711
 30
0.0
 40
30.0
 41
0.0
 71
     5
 72
     1
  1
\A1;900
  7
EXT08
 11
0.0
 21
1.0
 31
0.0
  0
POINT
  5
1C8CDE6B60C8
100
AcDbEntity
  8
DEFPOINTS
  6
BYBLOCK
 62
     0
100
AcDbPoint
 10
760.403751
 20
1863.407711
 30
0.0
  0
POINT
  5
1C8CDE6B60C9
100
AcDbEntity
  8
DEFPOINTS
  6
BYBLOCK
 62
     0
100
AcDbPoint
 10
1045.525429
 20
963.407711
 30
0.0
  0
POINT
  5
1C8CDE6B60CA
100
AcDbEntity
  8
DEFPOINTS
  6
BYBLOCK
 62
     0
100
AcDbPoint
 10
1193.731273
 20
963.407711
 30
0.0
  0
ENDBLK
  5
1C8CDE6B60CB
100
AcDbEntity
  8
0
100
AcDbBlockEnd
  0
BLOCK
  5
1C8CDE6B60CE
100
AcDbEntity
  8
0
100
AcDbBlockBegin
  2
*D12
 70
    65
 10
0.0
 20
0.0
 30
0.0
  3
*D12
  1

  0
LINE
  5
1C8CDE6B60CF
100
AcDbEntity
  8
0
  6
BYBLOCK
100
AcDbLine
 10
770.403751
 20
1863.407711
 30
0.0
 11
1330.624461
 21
1863.407711
 31
0.0
  0
LINE
  5
1C8CDE6B60D0
100
AcDbEntity
  8
0
  6
BYBLOCK
100
AcDbLine
 10
970.404622
 20
563.407711
 30
0.0
 11
1330.624461
 21
563.407711
 31
0.0
  0
LINE
  5
1C8CDE6B60D1
100
AcDbEntity
  8
0
  6
BYBLOCK
100
AcDbLine
 10
1320.624461
 20
1843.407711
 30
0.0
 11
1320.624461
 21
583.407711
 31
0.0
  0
SOLID
  5
1C8CDE6B60D2
100
AcDbEntity
  8
0
  6
BYBLOCK
100
AcDbTrace
 10
1317.291127
 20
1843.407711
 30
0.0
 11
1323.957794
 21
1843.407711
 31
0.0
 12
1320.624461
 22
1863.407711
 32
0.0
 13
1320.624461
 23
1863.407711
 33
0.0
  0
SOLID
  5
1C8CDE6B60D3
100
AcDbEntity
  8
0
  6
BYBLOCK
100
AcDbTrace
 10
1317.291127
 20
583.407711
 30
0.0
 11
1323.957794
 21
583.407711
 31
0.0
 12
1320.624461
 22
563.407711
 32
0.0
 13
1320.624461
 23
563.407711
 33
0.0
  0
MTEXT
  5
1C8CDE6B60D4
100
AcDbEntity
  8
0
  6
BYBLOCK
100
AcDbMText
 10
1293.624461
 20
1213.407711
 30
0.0
 40
30.0
 41
0.0
 71
     5
 72
     1
  1
\A1;1300
  7
EXT08
 11
0.0
 21
1.0
 31
0.0
  0
POINT
  5
1C8CDE6B60D5
100
AcDbEntity
  8
DEFPOINTS
  6
BYBLOCK
 62
     0
100
AcDbPoint
 10
760.403751
 20
1863.407711
 30
0.0
  0
POINT
  5
1C8CDE6B60D6
100
AcDbEntity
  8
DEFPOINTS
  6
BYBLOCK
 62
     0
100
AcDbPoint
 10
960.404622
 20
563.407711
 30
0.0
  0
POINT
  5
1C8CDE6B60D7
100
AcDbEntity
  8
DEFPOINTS
  6
BYBLOCK
 62
     0
100
AcDbPoint
 10
1320.624461
 20
563.407711
 30
0.0
  0
ENDBLK
  5
1C8CDE6B60D8
100
AcDbEntity
  8
0
100
AcDbBlockEnd
  0
BLOCK
  5
1C8CDE6B6136
100
AcDbEntity
  8
0
100
AcDbBlockBegin
  2
*D13
 70
    65
 10
0.0
 20
0.0
 30
0.0
  3
*D13
  1

  0
LINE
  5
1C8CDE6B6137
100
AcDbEntity
  8
0
  6
BYBLOCK
100
AcDbLine
 10
770.403751
 20
1863.407711
 30
0.0
 11
1017.446158
 21
1863.407711
 31
0.0
  0
LINE
  5
1C8CDE6B6138
100
AcDbEntity
  8
0
  6
BYBLOCK
100
AcDbLine
 10
812.953769
 20
1763.407711
 30
0.0
 11
1017.446158
 21
1763.407711
 31
0.0
  0
LINE
  5
1C8CDE6B6139
100
AcDbEntity
  8
0
  6
BYBLOCK
100
AcDbLine
 10
1007.446158
 20
1843.407711
 30
0.0
 11
1007.446158
 21
1783.407711
 31
0.0
  0
MTEXT
  5
1C8CDE6B613A
100
AcDbEntity
  8
0
  6
BYBLOCK
100
AcDbMText
 10
976.342699
 20
1813.984264
 30
0.0
 40
30.0
 41
0.0
 71
     5
 72
     1
  1
\A1;100
  7
EXT08
 11
0.0
 21
1.0
 31
0.0
  0
SOLID
  5
1C8CDE6B613B
100
AcDbEntity
  8
0
  6
BYBLOCK
100
AcDbTrace
 10
1004.112825
 20
1843.407711
 30
0.0
 11
1010.779492
 21
1843.407711
 31
0.0
 12
1007.446158
 22
1863.407711
 32
0.0
 13
1007.446158
 23
1863.407711
 33
0.0
  0
SOLID
  5
1C8CDE6B613C
100
AcDbEntity
  8
0
  6
BYBLOCK
100
AcDbTrace
 10
1004.112825
 20
1783.407711
 30
0.0
 11
1010.779492
 21
1783.407711
 31
0.0
 12
1007.446158
 22
1763.407711
 32
0.0
 13
1007.446158
 23
1763.407711
 33
0.0
  0
POINT
  5
1C8CDE6B613D
100
AcDbEntity
  8
DEFPOINTS
  6
BYBLOCK
 62
     0
100
AcDbPoint
 10
760.403751
 20
1863.407711
 30
0.0
  0
POINT
  5
1C8CDE6B613E
100
AcDbEntity
  8
DEFPOINTS
  6
BYBLOCK
 62
     0
100
AcDbPoint
 10
802.953769
 20
1763.407711
 30
0.0
  0
POINT
  5
1C8CDE6B613F
100
AcDbEntity
  8
DEFPOINTS
  6
BYBLOCK
 62
     0
100
AcDbPoint
 10
1007.446158
 20
1763.407711
 30
0.0
  0
ENDBLK
  5
1C8CDE6B6140
100
AcDbEntity
  8
0
100
AcDbBlockEnd
  0
BLOCK
  5
1C8CDE6B614C
100
AcDbEntity
  8
0
100
AcDbBlockBegin
  2
*D14
 70
    65
 10
0.0
 20
0.0
 30
0.0
  3
*D14
  1

  0
LINE
  5
1C8CDE6B614D
100
AcDbEntity
  8
0
  6
BYBLOCK
100
AcDbLine
 10
814.503769
 20
1763.407711
 30
0.0
 11
1017.446158
 21
1763.407711
 31
0.0
  0
LINE
  5
1C8CDE6B614E
100
AcDbEntity
  8
0
  6
BYBLOCK
100
AcDbLine
 10
812.953769
 20
1643.411813
 30
0.0
 11
1017.446158
 21
1643.411813
 31
0.0
  0
LINE
  5
1C8CDE6B614F
100
AcDbEntity
  8
0
  6
BYBLOCK
100
AcDbLine
 10
1007.446158
 20
1743.407711
 30
0.0
 11
1007.446158
 21
1663.411813
 31
0.0
  0
MTEXT
  5
1C8CDE6B6150
100
AcDbEntity
  8
0
  6
BYBLOCK
100
AcDbMText
 10
974.351517
 20
1704.411154
 30
0.0
 40
30.0
 41
0.0
 71
     5
 72
     1
  1
\A1;120
  7
EXT08
 11
0.0
 21
1.0
 31
0.0
  0
SOLID
  5
1C8CDE6B6151
100
AcDbEntity
  8
0
  6
BYBLOCK
100
AcDbTrace
 10
1004.112825
 20
1743.407711
 30
0.0
 11
1010.779492
 21
1743.407711
 31
0.0
 12
1007.446158
 22
1763.407711
 32
0.0
 13
1007.446158
 23
1763.407711
 33
0.0
  0
SOLID
  5
1C8CDE6B6152
100
AcDbEntity
  8
0
  6
BYBLOCK
100
AcDbTrace
 10
1004.112825
 20
1663.411813
 30
0.0
 11
1010.779492
 21
1663.411813
 31
0.0
 12
1007.446158
 22
1643.411813
 32
0.0
 13
1007.446158
 23
1643.411813
 33
0.0
  0
POINT
  5
1C8CDE6B6153
100
AcDbEntity
  8
DEFPOINTS
  6
BYBLOCK
 62
     0
100
AcDbPoint
 10
804.503769
 20
1763.407711
 30
0.0
  0
POINT
  5
1C8CDE6B6154
100
AcDbEntity
  8
DEFPOINTS
  6
BYBLOCK
 62
     0
100
AcDbPoint
 10
802.953769
 20
1643.411813
 30
0.0
  0
POINT
  5
1C8CDE6B6155
100
AcDbEntity
  8
DEFPOINTS
  6
BYBLOCK
 62
     0
100
AcDbPoint
 10
1007.446158
 20
1643.411813
 30
0.0
  0
ENDBLK
  5
1C8CDE6B6156
100
AcDbEntity
  8
0
100
AcDbBlockEnd
  0
ENDSEC
  0
SECTION
  2
ENTITIES
  0
TEXT
  5
1C8CDE699D90
100
AcDbEntity
  8
INFORMATION
100
AcDbText
 10
1.0
 20
2.0
 30
0.0
 40
0.8
  1
PLOTTER=CANON_LBP-830
  7
EXT08
100
AcDbText
  0
TEXT
  5
1C8CDE699D91
100
AcDbEntity
  8
INFORMATION
100
AcDbText
 10
1.0
 20
3.0
 30
0.0
 40
0.8
  1
PAPER=A3
  7
EXT08
100
AcDbText
  0
TEXT
  5
1C8CDE6A8E5B
100
AcDbEntity
  8
MOJI
100
AcDbText
 10
3188.99052
 20
2580.063834
 30
0.0
 40
30.0
  1
シティ車止め
 41
0.8
  7
EXT08
100
AcDbText
  0
TEXT
  5
1C8CDE6A8E5C
100
AcDbEntity
  8
MOJI
100
AcDbText
 10
3188.99052
 20
2530.063834
 30
0.0
 40
30.0
  1
CK-89HR-90D
 41
0.8
  7
EXT08
100
AcDbText
  0
LINE
  5
1C8CDE6A8E60
100
AcDbEntity
  8
HATCH
100
AcDbLine
 10
808.00379
 20
907.524273
 30
0.0
 11
863.887229
 21
963.407711
 31
0.0
  0
LINE
  5
1C8CDE6A8E61
100
AcDbEntity
  8
HATCH
100
AcDbLine
 10
839.401336
 20
961.018905
 30
0.0
 11
841.790142
 21
963.407711
 31
0.0
  0
LINE
  5
1C8CDE6A8E62
100
AcDbEntity
  8
HATCH
100
AcDbLine
 10
808.00379
 20
885.427186
 30
0.0
 11
885.984316
 21
963.407711
 31
0.0
  0
LINE
  5
1C8CDE6A8E63
100
AcDbEntity
  8
HATCH
100
AcDbLine
 10
808.00379
 20
576.067969
 30
0.0
 11
910.404622
 21
678.468801
 31
0.0
  0
LINE
  5
1C8CDE6A8E64
100
AcDbEntity
  8
HATCH
100
AcDbLine
 10
817.553482
 20
563.520574
 30
0.0
 11
910.404622
 21
656.371714
 31
0.0
  0
LINE
  5
1C8CDE6A8E65
100
AcDbEntity
  8
HATCH
100
AcDbLine
 10
839.537706
 20
563.407711
 30
0.0
 11
910.404622
 21
634.274627
 31
0.0
  0
LINE
  5
1C8CDE6A8E66
100
AcDbEntity
  8
HATCH
100
AcDbLine
 10
640.663924
 20
563.407711
 30
0.0
 11
712.80383
 21
635.547617
 31
0.0
  0
LINE
  5
1C8CDE6A8E67
100
AcDbEntity
  8
HATCH
100
AcDbLine
 10
618.566837
 20
563.407711
 30
0.0
 11
712.80383
 21
657.644704
 31
0.0
  0
LINE
  5
1C8CDE6A8E68
100
AcDbEntity
  8
HATCH
100
AcDbLine
 10
817.553482
 20
718.200182
 30
0.0
 11
828.228415
 21
728.875115
 31
0.0
  0
LINE
  5
1C8CDE6A8E69
100
AcDbEntity
  8
HATCH
100
AcDbLine
 10
610.404622
 20
687.828018
 30
0.0
 11
660.404622
 21
737.828018
 31
0.0
  0
LINE
  5
1C8CDE6A8E6A
100
AcDbEntity
  8
HATCH
100
AcDbLine
 10
610.404622
 20
732.022192
 30
0.0
 11
712.80383
 21
834.4214
 31
0.0
  0
LINE
  5
1C8CDE6A8E6B
100
AcDbEntity
  8
HATCH
100
AcDbLine
 10
610.404622
 20
709.925105
 30
0.0
 11
712.80383
 21
812.324313
 31
0.0
  0
LINE
  5
1C8CDE6A8E6C
100
AcDbEntity
  8
HATCH
100
AcDbLine
 10
660.451719
 20
737.875115
 30
0.0
 11
712.80383
 21
790.227226
 31
0.0
  0
LINE
  5
1C8CDE6A8E6D
100
AcDbEntity
  8
HATCH
100
AcDbLine
 10
808.00379
 20
752.844664
 30
0.0
 11
910.404622
 21
855.245497
 31
0.0
  0
LINE
  5
1C8CDE6A8E6E
100
AcDbEntity
  8
HATCH
100
AcDbLine
 10
808.00379
 20
730.747577
 30
0.0
 11
910.404622
 21
833.14841
 31
0.0
  0
LINE
  5
1C8CDE6A8E6F
100
AcDbEntity
  8
HATCH
100
AcDbLine
 10
662.761011
 20
563.407711
 30
0.0
 11
712.80383
 21
613.45053
 31
0.0
  0
LINE
  5
1C8CDE6A8E70
100
AcDbEntity
  8
HATCH
100
AcDbLine
 10
610.404622
 20
908.798887
 30
0.0
 11
665.013446
 21
963.407711
 31
0.0
  0
LINE
  5
1C8CDE6A8E71
100
AcDbEntity
  8
HATCH
100
AcDbLine
 10
610.404622
 20
886.7018
 30
0.0
 11
687.110533
 21
963.407711
 31
0.0
  0
LINE
  5
1C8CDE6A8E72
100
AcDbEntity
  8
HATCH
100
AcDbLine
 10
610.404622
 20
864.604713
 30
0.0
 11
709.20762
 21
963.407711
 31
0.0
  0
DIMENSION
  5
1C8CDE6A8E73
100
AcDbEntity
  8
SUNPOU
100
AcDbDimension
  2
*D1
 10
960.404622
 20
263.407711
 30
0.0
 11
760.404622
 21
290.407711
 31
0.0
 12
-964.118463
 22
0.0
 32
0.0
 70
    32
  1
□<>
  3
SJC
100
AcDbAlignedDimension
 13
560.404622
 23
513.407711
 33
0.0
 14
960.404622
 24
513.407711
 34
0.0
100
AcDbRotatedDimension
1001
ACAD
1000
DSTYLE
1002
{
1070
   340
1005
1C8CDE699DA6
1070
   140
1040
3.0
1070
    40
1040
10.0
1070
   147
1040
1.2
1070
    42
1040
1.0
1070
    44
1040
1.0
1070
    43
1040
6.0
1070
   271
1070
     4
1070
    41
1040
2.0
1002
}
  0
DIMENSION
  5
1C8CDE6A8E74
100
AcDbEntity
  8
SUNPOU
100
AcDbDimension
  2
*D2
 10
910.404622
 20
363.407711
 30
0.0
 11
760.404622
 21
390.407711
 31
0.0
 12
-964.118463
 22
0.0
 32
0.0
 70
    32
  1
□300
  3
SJC
100
AcDbAlignedDimension
 13
610.404622
 23
513.407711
 33
0.0
 14
910.404622
 24
513.407711
 34
0.0
100
AcDbRotatedDimension
1001
ACAD
1000
DSTYLE
1002
{
1070
   340
1005
1C8CDE699DA6
1070
   140
1040
3.0
1070
    40
1040
10.0
1070
   147
1040
1.2
1070
    42
1040
1.0
1070
    44
1040
1.0
1070
    43
1040
6.0
1070
   271
1070
     4
1070
    41
1040
2.0
1002
}
  0
DIMENSION
  5
1C8CDE6A8E75
100
AcDbEntity
  8
SUNPOU
100
AcDbDimension
  2
*D3
 10
1320.624461
 20
513.407711
 30
0.0
 11
1287.948882
 21
538.903876
 31
0.0
 70
   160
  3
SJC
100
AcDbAlignedDimension
 13
960.404622
 23
563.407711
 33
0.0
 14
960.404622
 24
513.407711
 34
0.0
 50
90.0
100
AcDbRotatedDimension
1001
ACAD
1000
DSTYLE
1002
{
1070
   340
1005
1C8CDE699DA6
1070
   140
1040
3.0
1070
    40
1040
10.0
1070
   147
1040
1.2
1070
    42
1040
1.0
1070
    44
1040
1.0
1070
    43
1040
6.0
1070
   271
1070
     4
1070
    41
1040
2.0
1002
}
  0
DIMENSION
  5
1C8CDE6A8E76
100
AcDbEntity
  8
SUNPOU
100
AcDbDimension
  2
*D4
 10
1193.731273
 20
563.407702
 30
0.0
 11
1166.731273
 21
763.407707
 31
0.0
 70
    32
  3
SJC
100
AcDbAlignedDimension
 13
1045.525429
 23
963.407711
 33
0.0
 14
960.404622
 24
563.407702
 34
0.0
 50
270.0
100
AcDbRotatedDimension
1001
ACAD
1000
DSTYLE
1002
{
1070
   340
1005
1C8CDE699DA6
1070
   140
1040
3.0
1070
    40
1040
10.0
1070
   147
1040
1.2
1070
    42
1040
1.0
1070
    44
1040
1.0
1070
    43
1040
6.0
1070
   271
1070
     4
1070
    41
1040
2.0
1002
}
  0
LINE
  5
1C8CDE6A8EB7
100
AcDbEntity
  8
CENTER
100
AcDbLine
 10
760.403751
 20
1898.333888
 30
0.0
 11
760.403751
 21
468.245743
 31
0.0
  0
LINE
  5
1C8CDE6A8EB9
100
AcDbEntity
  8
SJC
100
AcDbLine
 10
804.953769
 20
963.407711
 30
0.0
 11
1045.525429
 21
963.407711
 31
0.0
1001
ACAD
1000
ASC_BOUNDS
1002
{
1070
    19
1002
}
  0
LINE
  5
1C8CDE6A8EC1
100
AcDbEntity
  8
SJC
100
AcDbLine
 10
3650.0
 20
2570.0
 30
0.0
 11
3008.054726
 21
2570.0
 31
0.0
  0
LINE
  5
1C8CDE6A8EC2
100
AcDbEntity
  8
SJC
100
AcDbLine
 10
3650.0
 20
2520.0
 30
0.0
 11
3008.054726
 21
2520.0
 31
0.0
  0
LINE
  5
1C8CDE6A8EC3
100
AcDbEntity
  8
SJC
100
AcDbLine
 10
3023.054726
 20
2470.0
 30
0.0
 11
3635.0
 21
2470.0
 31
0.0
  0
LINE
  5
1C8CDE6A8EC4
100
AcDbEntity
  8
SJC
100
AcDbLine
 10
3635.0
 20
2620.0
 30
0.0
 11
3023.054726
 21
2620.0
 31
0.0
  0
LINE
  5
1C8CDE6A8EC5
100
AcDbEntity
  8
SJC
100
AcDbLine
 10
3008.054726
 20
2605.0
 30
0.0
 11
3008.054726
 21
2485.0
 31
0.0
  0
TEXT
  5
1C8CDE6A8EC6
100
AcDbEntity
  8
MOJI
100
AcDbText
 10
3038.99052
 20
2530.063834
 30
0.0
 40
30.0
  1
品　番
 41
0.8
  7
EXT08
100
AcDbText
  0
ARC
  5
1C8CDE6A8EC7
100
AcDbEntity
  8
SJC
100
AcDbCircle
 10
3023.054726
 20
2485.0
 30
0.0
 40
15.0
100
AcDbArc
 50
180.0
 51
270.0
  0
TEXT
  5
1C8CDE6A8EC8
100
AcDbEntity
  8
MOJI
100
AcDbText
 10
3028.938294
 20
2480.063834
 30
0.0
 40
30.0
  1
図面番号
 41
0.8
  7
EXT08
100
AcDbText
  0
TEXT
  5
1C8CDE6A8EC9
100
AcDbEntity
  8
MOJI
100
AcDbText
 10
3042.312968
 20
2580.063834
 30
0.0
 40
30.0
  1
タイプ
 41
0.8
  7
EXT08
100
AcDbText
  0
ARC
  5
1C8CDE6A8ECA
100
AcDbEntity
  8
SJC
100
AcDbCircle
 10
3023.054726
 20
2605.0
 30
0.0
 40
15.0
100
AcDbArc
 50
90.0
 51
180.0
  0
LINE
  5
1C8CDE6A8ECB
100
AcDbEntity
  8
SJC
100
AcDbLine
 10
3158.054726
 20
2620.0
 30
0.0
 11
3158.054726
 21
2470.0
 31
0.0
  0
TEXT
  5
1C8CDE6A8ECC
100
AcDbEntity
  8
MOJI
100
AcDbText
 10
3188.99052
 20
2480.063834
 30
0.0
 40
30.0
  1
KEKH00083
 41
0.8
  7
EXT08
100
AcDbText
  0
LINE
  5
1C8CDE6A8ECD
100
AcDbEntity
  8
SJC
100
AcDbLine
 10
3650.0
 20
2485.0
 30
0.0
 11
3650.0
 21
2605.0
 31
0.0
  0
ARC
  5
1C8CDE6A8ECE
100
AcDbEntity
  8
SJC
100
AcDbCircle
 10
3635.0
 20
2485.0
 30
0.0
 40
15.0
100
AcDbArc
 50
270.0
 51
0.0
  0
ARC
  5
1C8CDE6A8ECF
100
AcDbEntity
  8
SJC
100
AcDbCircle
 10
3635.0
 20
2605.0
 30
0.0
 40
15.0
100
AcDbArc
 50
0.0
 51
90.0
  0
LINE
  5
1C8CDE6A8ED0
100
AcDbEntity
  8
SJC
  6
CONTINUOUS
100
AcDbLine
 10
610.404622
 20
963.407711
 30
0.0
 11
610.404622
 21
563.407711
 31
0.0
1001
ACAD
1000
ASC_BOUNDS
1002
{
1070
    19
1002
}
  0
LINE
  5
1C8CDE6A8ED1
100
AcDbEntity
  8
SJC
  6
CONTINUOUS
100
AcDbLine
 10
910.404622
 20
563.407711
 30
0.0
 11
910.404622
 21
963.407711
 31
0.0
1001
ACAD
1000
ASC_BOUNDS
1002
{
1070
    19
1002
}
  0
POLYLINE
  5
1C8CDE6A8ED2
100
AcDbEntity
  8
HATCH
  6
CONTINUOUS
100
AcDb2dPolyline
 66
     1
 10
0.0
 20
0.0
 30
0.0
 70
     1
  0
VERTEX
  5
1C8CDE6A8ED3
100
AcDbEntity
  8
HATCH
  6
CONTINUOUS
100
AcDbVertex
100
AcDb2dVertex
 10
901.618484
 20
513.812311
 30
0.0
 42
0.138281
  0
VERTEX
  5
1C8CDE6A8ED4
100
AcDbEntity
  8
HATCH
  6
CONTINUOUS
100
AcDbVertex
100
AcDb2dVertex
 10
908.062559
 20
513.896216
 30
0.0
 42
0.107061
  0
VERTEX
  5
1C8CDE6A8ED5
100
AcDbEntity
  8
HATCH
  6
CONTINUOUS
100
AcDbVertex
100
AcDb2dVertex
 10
915.308022
 20
517.865247
 30
0.0
 42
0.08054
 70
     2
 50
40.935484
  0
VERTEX
  5
1C8CDE6A8ED6
100
AcDbEntity
  8
HATCH
  6
CONTINUOUS
100
AcDbVertex
100
AcDb2dVertex
 10
920.876213
 20
524.535312
 30
0.0
 42
0.068375
 50
40.935484
  0
VERTEX
  5
1C8CDE6A8ED7
100
AcDbEntity
  8
HATCH
  6
CONTINUOUS
100
AcDbVertex
100
AcDb2dVertex
 10
924.838933
 20
533.95168
 30
0.0
 42
0.068375
  0
VERTEX
  5
1C8CDE6A8ED8
100
AcDbEntity
  8
HATCH
  6
CONTINUOUS
100
AcDbVertex
100
AcDb2dVertex
 10
926.115301
 20
544.087854
 30
0.0
 42
0.08054
  0
VERTEX
  5
1C8CDE6A8ED9
100
AcDbEntity
  8
HATCH
  6
CONTINUOUS
100
AcDbVertex
100
AcDb2dVertex
 10
924.628139
 20
552.648395
 30
0.0
 42
0.107061
 70
     2
 50
109.064516
  0
VERTEX
  5
1C8CDE6A8EDA
100
AcDbEntity
  8
HATCH
  6
CONTINUOUS
100
AcDbVertex
100
AcDb2dVertex
 10
920.337899
 20
559.708409
 30
0.0
 42
0.138281
 50
109.064516
  0
VERTEX
  5
1C8CDE6A8EDB
100
AcDbEntity
  8
HATCH
  6
CONTINUOUS
100
AcDbVertex
100
AcDb2dVertex
 10
914.799119
 20
563.00311
 30
0.0
 42
0.138281
  0
VERTEX
  5
1C8CDE6A8EDC
100
AcDbEntity
  8
HATCH
  6
CONTINUOUS
100
AcDbVertex
100
AcDb2dVertex
 10
908.355044
 20
562.919205
 30
0.0
 42
0.107061
  0
VERTEX
  5
1C8CDE6A8EDD
100
AcDbEntity
  8
HATCH
  6
CONTINUOUS
100
AcDbVertex
100
AcDb2dVertex
 10
901.10958
 20
558.950174
 30
0.0
 42
0.08054
 70
     2
 50
220.935484
  0
VERTEX
  5
1C8CDE6A8EDE
100
AcDbEntity
  8
HATCH
  6
CONTINUOUS
100
AcDbVertex
100
AcDb2dVertex
 10
895.541389
 20
552.280109
 30
0.0
 42
0.068375
 50
220.935484
  0
VERTEX
  5
1C8CDE6A8EDF
100
AcDbEntity
  8
HATCH
  6
CONTINUOUS
100
AcDbVertex
100
AcDb2dVertex
 10
891.578669
 20
542.863741
 30
0.0
 42
0.068375
  0
VERTEX
  5
1C8CDE6A8EE0
100
AcDbEntity
  8
HATCH
  6
CONTINUOUS
100
AcDbVertex
100
AcDb2dVertex
 10
890.302302
 20
532.727567
 30
0.0
 42
0.08054
  0
VERTEX
  5
1C8CDE6A8EE1
100
AcDbEntity
  8
HATCH
  6
CONTINUOUS
100
AcDbVertex
100
AcDb2dVertex
 10
891.789464
 20
524.167026
 30
0.0
 42
0.107061
 70
     2
 50
289.064516
  0
VERTEX
  5
1C8CDE6A8EE2
100
AcDbEntity
  8
HATCH
  6
CONTINUOUS
100
AcDbVertex
100
AcDb2dVertex
 10
896.079704
 20
517.107013
 30
0.0
 42
0.138281
 50
289.064516
  0
SEQEND
  5
1C8CDE6A8EE3
100
AcDbEntity
  8
HATCH
  6
CONTINUOUS
  0
LINE
  5
1C8CDE6A8EE4
100
AcDbEntity
  8
SJC
  6
CONTINUOUS
100
AcDbLine
 10
960.404622
 20
513.407711
 30
0.0
 11
560.404622
 21
513.407711
 31
0.0
  0
LINE
  5
1C8CDE6A8EE5
100
AcDbEntity
  8
SJC
  6
CONTINUOUS
100
AcDbLine
 10
960.404622
 20
563.407711
 30
0.0
 11
560.404622
 21
563.407711
 31
0.0
1001
ACAD
1000
ASC_BOUNDS
1002
{
1070
    19
1005
0
1005
0
1005
0
1005
0
1005
0
1005
0
1005
0
1005
0
1002
}
  0
POLYLINE
  5
1C8CDE6A8EE6
100
AcDbEntity
  8
HATCH
  6
CONTINUOUS
100
AcDb2dPolyline
 66
     1
 10
0.0
 20
0.0
 30
0.0
 70
     1
  0
VERTEX
  5
1C8CDE6A8EE7
100
AcDbEntity
  8
HATCH
  6
CONTINUOUS
100
AcDbVertex
100
AcDb2dVertex
 10
572.849605
 20
513.812311
 30
0.0
 42
0.138281
  0
VERTEX
  5
1C8CDE6A8EE8
100
AcDbEntity
  8
HATCH
  6
CONTINUOUS
100
AcDbVertex
100
AcDb2dVertex
 10
579.29368
 20
513.896216
 30
0.0
 42
0.107061
  0
VERTEX
  5
1C8CDE6A8EE9
100
AcDbEntity
  8
HATCH
  6
CONTINUOUS
100
AcDbVertex
100
AcDb2dVertex
 10
586.539144
 20
517.865247
 30
0.0
 42
0.08054
 70
     2
 50
40.935484
  0
VERTEX
  5
1C8CDE6A8EEA
100
AcDbEntity
  8
HATCH
  6
CONTINUOUS
100
AcDbVertex
100
AcDb2dVertex
 10
592.107335
 20
524.535312
 30
0.0
 42
0.068375
 50
40.935484
  0
VERTEX
  5
1C8CDE6A8EEB
100
AcDbEntity
  8
HATCH
  6
CONTINUOUS
100
AcDbVertex
100
AcDb2dVertex
 10
596.070055
 20
533.95168
 30
0.0
 42
0.068375
  0
VERTEX
  5
1C8CDE6A8EEC
100
AcDbEntity
  8
HATCH
  6
CONTINUOUS
100
AcDbVertex
100
AcDb2dVertex
 10
597.346422
 20
544.087854
 30
0.0
 42
0.08054
  0
VERTEX
  5
1C8CDE6A8EED
100
AcDbEntity
  8
HATCH
  6
CONTINUOUS
100
AcDbVertex
100
AcDb2dVertex
 10
595.85926
 20
552.648395
 30
0.0
 42
0.107061
 70
     2
 50
109.064516
  0
VERTEX
  5
1C8CDE6A8EEE
100
AcDbEntity
  8
HATCH
  6
CONTINUOUS
100
AcDbVertex
100
AcDb2dVertex
 10
591.56902
 20
559.708409
 30
0.0
 42
0.138281
 50
109.064516
  0
VERTEX
  5
1C8CDE6A8EEF
100
AcDbEntity
  8
HATCH
  6
CONTINUOUS
100
AcDbVertex
100
AcDb2dVertex
 10
586.03024
 20
563.00311
 30
0.0
 42
0.138281
  0
VERTEX
  5
1C8CDE6A8EF0
100
AcDbEntity
  8
HATCH
  6
CONTINUOUS
100
AcDbVertex
100
AcDb2dVertex
 10
579.586165
 20
562.919205
 30
0.0
 42
0.107061
  0
VERTEX
  5
1C8CDE6A8EF1
100
AcDbEntity
  8
HATCH
  6
CONTINUOUS
100
AcDbVertex
100
AcDb2dVertex
 10
572.340702
 20
558.950174
 30
0.0
 42
0.08054
 70
     2
 50
220.935484
  0
VERTEX
  5
1C8CDE6A8EF2
100
AcDbEntity
  8
HATCH
  6
CONTINUOUS
100
AcDbVertex
100
AcDb2dVertex
 10
566.772511
 20
552.280109
 30
0.0
 42
0.068375
 50
220.935484
  0
VERTEX
  5
1C8CDE6A8EF3
100
AcDbEntity
  8
HATCH
  6
CONTINUOUS
100
AcDbVertex
100
AcDb2dVertex
 10
562.809791
 20
542.863741
 30
0.0
 42
0.068375
  0
VERTEX
  5
1C8CDE6A8EF4
100
AcDbEntity
  8
HATCH
  6
CONTINUOUS
100
AcDbVertex
100
AcDb2dVertex
 10
561.533423
 20
532.727567
 30
0.0
 42
0.08054
  0
VERTEX
  5
1C8CDE6A8EF5
100
AcDbEntity
  8
HATCH
  6
CONTINUOUS
100
AcDbVertex
100
AcDb2dVertex
 10
563.020585
 20
524.167026
 30
0.0
 42
0.107061
 70
     2
 50
289.064516
  0
VERTEX
  5
1C8CDE6A8EF6
100
AcDbEntity
  8
HATCH
  6
CONTINUOUS
100
AcDbVertex
100
AcDb2dVertex
 10
567.310826
 20
517.107013
 30
0.0
 42
0.138281
 50
289.064516
  0
SEQEND
  5
1C8CDE6A8EF7
100
AcDbEntity
  8
HATCH
  6
CONTINUOUS
  0
LINE
  5
1C8CDE6A8EF8
100
AcDbEntity
  8
SJC
  6
CONTINUOUS
100
AcDbLine
 10
560.404622
 20
563.407711
 30
0.0
 11
560.404622
 21
513.407711
 31
0.0
  0
POLYLINE
  5
1C8CDE6A8EF9
100
AcDbEntity
  8
HATCH
  6
CONTINUOUS
100
AcDb2dPolyline
 66
     1
 10
0.0
 20
0.0
 30
0.0
 70
     1
  0
VERTEX
  5
1C8CDE6A8EFA
100
AcDbEntity
  8
HATCH
  6
CONTINUOUS
100
AcDbVertex
100
AcDb2dVertex
 10
607.927308
 20
513.812311
 30
0.0
 42
0.138281
  0
VERTEX
  5
1C8CDE6A8EFB
100
AcDbEntity
  8
HATCH
  6
CONTINUOUS
100
AcDbVertex
100
AcDb2dVertex
 10
614.371383
 20
513.896216
 30
0.0
 42
0.107061
  0
VERTEX
  5
1C8CDE6A8EFC
100
AcDbEntity
  8
HATCH
  6
CONTINUOUS
100
AcDbVertex
100
AcDb2dVertex
 10
621.616847
 20
517.865247
 30
0.0
 42
0.08054
 70
     2
 50
40.935484
  0
VERTEX
  5
1C8CDE6A8EFD
100
AcDbEntity
  8
HATCH
  6
CONTINUOUS
100
AcDbVertex
100
AcDb2dVertex
 10
627.185037
 20
524.535312
 30
0.0
 42
0.068375
 50
40.935484
  0
VERTEX
  5
1C8CDE6A8EFE
100
AcDbEntity
  8
HATCH
  6
CONTINUOUS
100
AcDbVertex
100
AcDb2dVertex
 10
631.147758
 20
533.95168
 30
0.0
 42
0.068375
  0
VERTEX
  5
1C8CDE6A8EFF
100
AcDbEntity
  8
HATCH
  6
CONTINUOUS
100
AcDbVertex
100
AcDb2dVertex
 10
632.424125
 20
544.087854
 30
0.0
 42
0.08054
  0
VERTEX
  5
1C8CDE6A8F00
100
AcDbEntity
  8
HATCH
  6
CONTINUOUS
100
AcDbVertex
100
AcDb2dVertex
 10
630.936963
 20
552.648395
 30
0.0
 42
0.107061
 70
     2
 50
109.064516
  0
VERTEX
  5
1C8CDE6A8F01
100
AcDbEntity
  8
HATCH
  6
CONTINUOUS
100
AcDbVertex
100
AcDb2dVertex
 10
626.646723
 20
559.708409
 30
0.0
 42
0.138281
 50
109.064516
  0
VERTEX
  5
1C8CDE6A8F02
100
AcDbEntity
  8
HATCH
  6
CONTINUOUS
100
AcDbVertex
100
AcDb2dVertex
 10
621.107943
 20
563.00311
 30
0.0
 42
0.138281
  0
VERTEX
  5
1C8CDE6A8F03
100
AcDbEntity
  8
HATCH
  6
CONTINUOUS
100
AcDbVertex
100
AcDb2dVertex
 10
614.663868
 20
562.919205
 30
0.0
 42
0.107061
  0
VERTEX
  5
1C8CDE6A8F04
100
AcDbEntity
  8
HATCH
  6
CONTINUOUS
100
AcDbVertex
100
AcDb2dVertex
 10
607.418404
 20
558.950174
 30
0.0
 42
0.08054
 70
     2
 50
220.935484
  0
VERTEX
  5
1C8CDE6A8F05
100
AcDbEntity
  8
HATCH
  6
CONTINUOUS
100
AcDbVertex
100
AcDb2dVertex
 10
601.850214
 20
552.280109
 30
0.0
 42
0.068375
 50
220.935484
  0
VERTEX
  5
1C8CDE6A8F06
100
AcDbEntity
  8
HATCH
  6
CONTINUOUS
100
AcDbVertex
100
AcDb2dVertex
 10
597.887493
 20
542.863741
 30
0.0
 42
0.068375
  0
VERTEX
  5
1C8CDE6A8F07
100
AcDbEntity
  8
HATCH
  6
CONTINUOUS
100
AcDbVertex
100
AcDb2dVertex
 10
596.611126
 20
532.727567
 30
0.0
 42
0.08054
  0
VERTEX
  5
1C8CDE6A8F08
100
AcDbEntity
  8
HATCH
  6
CONTINUOUS
100
AcDbVertex
100
AcDb2dVertex
 10
598.098288
 20
524.167026
 30
0.0
 42
0.107061
 70
     2
 50
289.064516
  0
VERTEX
  5
1C8CDE6A8F09
100
AcDbEntity
  8
HATCH
  6
CONTINUOUS
100
AcDbVertex
100
AcDb2dVertex
 10
602.388528
 20
517.107013
 30
0.0
 42
0.138281
 50
289.064516
  0
SEQEND
  5
1C8CDE6A8F0A
100
AcDbEntity
  8
HATCH
  6
CONTINUOUS
  0
POLYLINE
  5
1C8CDE6A8F0B
100
AcDbEntity
  8
HATCH
  6
CONTINUOUS
100
AcDb2dPolyline
 66
     1
 10
0.0
 20
0.0
 30
0.0
 70
     1
  0
VERTEX
  5
1C8CDE6A8F0C
100
AcDbEntity
  8
HATCH
  6
CONTINUOUS
100
AcDbVertex
100
AcDb2dVertex
 10
643.005011
 20
513.812311
 30
0.0
 42
0.138281
  0
VERTEX
  5
1C8CDE6A8F0D
100
AcDbEntity
  8
HATCH
  6
CONTINUOUS
100
AcDbVertex
100
AcDb2dVertex
 10
649.449085
 20
513.896216
 30
0.0
 42
0.107061
  0
VERTEX
  5
1C8CDE6A8F0E
100
AcDbEntity
  8
HATCH
  6
CONTINUOUS
100
AcDbVertex
100
AcDb2dVertex
 10
656.694549
 20
517.865247
 30
0.0
 42
0.08054
 70
     2
 50
40.935484
  0
VERTEX
  5
1C8CDE6A8F0F
100
AcDbEntity
  8
HATCH
  6
CONTINUOUS
100
AcDbVertex
100
AcDb2dVertex
 10
662.26274
 20
524.535312
 30
0.0
 42
0.068375
 50
40.935484
  0
VERTEX
  5
1C8CDE6A8F10
100
AcDbEntity
  8
HATCH
  6
CONTINUOUS
100
AcDbVertex
100
AcDb2dVertex
 10
666.22546
 20
533.95168
 30
0.0
 42
0.068375
  0
VERTEX
  5
1C8CDE6A8F11
100
AcDbEntity
  8
HATCH
  6
CONTINUOUS
100
AcDbVertex
100
AcDb2dVertex
 10
667.501828
 20
544.087854
 30
0.0
 42
0.08054
  0
VERTEX
  5
1C8CDE6A8F12
100
AcDbEntity
  8
HATCH
  6
CONTINUOUS
100
AcDbVertex
100
AcDb2dVertex
 10
666.014665
 20
552.648395
 30
0.0
 42
0.107061
 70
     2
 50
109.064516
  0
VERTEX
  5
1C8CDE6A8F13
100
AcDbEntity
  8
HATCH
  6
CONTINUOUS
100
AcDbVertex
100
AcDb2dVertex
 10
661.724425
 20
559.708409
 30
0.0
 42
0.138281
 50
109.064516
  0
VERTEX
  5
1C8CDE6A8F14
100
AcDbEntity
  8
HATCH
  6
CONTINUOUS
100
AcDbVertex
100
AcDb2dVertex
 10
656.185646
 20
563.00311
 30
0.0
 42
0.138281
  0
VERTEX
  5
1C8CDE6A8F15
100
AcDbEntity
  8
HATCH
  6
CONTINUOUS
100
AcDbVertex
100
AcDb2dVertex
 10
649.741571
 20
562.919205
 30
0.0
 42
0.107061
  0
VERTEX
  5
1C8CDE6A8F16
100
AcDbEntity
  8
HATCH
  6
CONTINUOUS
100
AcDbVertex
100
AcDb2dVertex
 10
642.496107
 20
558.950174
 30
0.0
 42
0.08054
 70
     2
 50
220.935484
  0
VERTEX
  5
1C8CDE6A8F17
100
AcDbEntity
  8
HATCH
  6
CONTINUOUS
100
AcDbVertex
100
AcDb2dVertex
 10
636.927916
 20
552.280109
 30
0.0
 42
0.068375
 50
220.935484
  0
VERTEX
  5
1C8CDE6A8F18
100
AcDbEntity
  8
HATCH
  6
CONTINUOUS
100
AcDbVertex
100
AcDb2dVertex
 10
632.965196
 20
542.863741
 30
0.0
 42
0.068375
  0
VERTEX
  5
1C8CDE6A8F19
100
AcDbEntity
  8
HATCH
  6
CONTINUOUS
100
AcDbVertex
100
AcDb2dVertex
 10
631.688828
 20
532.727567
 30
0.0
 42
0.08054
  0
VERTEX
  5
1C8CDE6A8F1A
100
AcDbEntity
  8
HATCH
  6
CONTINUOUS
100
AcDbVertex
100
AcDb2dVertex
 10
633.175991
 20
524.167026
 30
0.0
 42
0.107061
 70
     2
 50
289.064516
  0
VERTEX
  5
1C8CDE6A8F1B
100
AcDbEntity
  8
HATCH
  6
CONTINUOUS
100
AcDbVertex
100
AcDb2dVertex
 10
637.466231
 20
517.107013
 30
0.0
 42
0.138281
 50
289.064516
  0
SEQEND
  5
1C8CDE6A8F1C
100
AcDbEntity
  8
HATCH
  6
CONTINUOUS
  0
POLYLINE
  5
1C8CDE6A8F1D
100
AcDbEntity
  8
HATCH
  6
CONTINUOUS
100
AcDb2dPolyline
 66
     1
 10
0.0
 20
0.0
 30
0.0
 70
     1
  0
VERTEX
  5
1C8CDE6A8F1E
100
AcDbEntity
  8
HATCH
  6
CONTINUOUS
100
AcDbVertex
100
AcDb2dVertex
 10
936.696186
 20
513.812311
 30
0.0
 42
0.138281
  0
VERTEX
  5
1C8CDE6A8F1F
100
AcDbEntity
  8
HATCH
  6
CONTINUOUS
100
AcDbVertex
100
AcDb2dVertex
 10
943.140261
 20
513.896216
 30
0.0
 42
0.107061
  0
VERTEX
  5
1C8CDE6A8F20
100
AcDbEntity
  8
HATCH
  6
CONTINUOUS
100
AcDbVertex
100
AcDb2dVertex
 10
950.385725
 20
517.865247
 30
0.0
 42
0.08054
 70
     2
 50
40.935484
  0
VERTEX
  5
1C8CDE6A8F21
100
AcDbEntity
  8
HATCH
  6
CONTINUOUS
100
AcDbVertex
100
AcDb2dVertex
 10
955.953916
 20
524.535312
 30
0.0
 42
0.068375
 50
40.935484
  0
VERTEX
  5
1C8CDE6A8F22
100
AcDbEntity
  8
HATCH
  6
CONTINUOUS
100
AcDbVertex
100
AcDb2dVertex
 10
959.916636
 20
533.95168
 30
0.0
 42
0.068375
  0
VERTEX
  5
1C8CDE6A8F23
100
AcDbEntity
  8
HATCH
  6
CONTINUOUS
100
AcDbVertex
100
AcDb2dVertex
 10
961.193003
 20
544.087854
 30
0.0
 42
0.08054
  0
VERTEX
  5
1C8CDE6A8F24
100
AcDbEntity
  8
HATCH
  6
CONTINUOUS
100
AcDbVertex
100
AcDb2dVertex
 10
959.705841
 20
552.648395
 30
0.0
 42
0.107061
 70
     2
 50
109.064516
  0
VERTEX
  5
1C8CDE6A8F25
100
AcDbEntity
  8
HATCH
  6
CONTINUOUS
100
AcDbVertex
100
AcDb2dVertex
 10
955.415601
 20
559.708409
 30
0.0
 42
0.138281
 50
109.064516
  0
VERTEX
  5
1C8CDE6A8F26
100
AcDbEntity
  8
HATCH
  6
CONTINUOUS
100
AcDbVertex
100
AcDb2dVertex
 10
949.876821
 20
563.00311
 30
0.0
 42
0.138281
  0
VERTEX
  5
1C8CDE6A8F27
100
AcDbEntity
  8
HATCH
  6
CONTINUOUS
100
AcDbVertex
100
AcDb2dVertex
 10
943.432746
 20
562.919205
 30
0.0
 42
0.107061
  0
VERTEX
  5
1C8CDE6A8F28
100
AcDbEntity
  8
HATCH
  6
CONTINUOUS
100
AcDbVertex
100
AcDb2dVertex
 10
936.187283
 20
558.950174
 30
0.0
 42
0.08054
 70
     2
 50
220.935484
  0
VERTEX
  5
1C8CDE6A8F29
100
AcDbEntity
  8
HATCH
  6
CONTINUOUS
100
AcDbVertex
100
AcDb2dVertex
 10
930.619092
 20
552.280109
 30
0.0
 42
0.068375
 50
220.935484
  0
VERTEX
  5
1C8CDE6A8F2A
100
AcDbEntity
  8
HATCH
  6
CONTINUOUS
100
AcDbVertex
100
AcDb2dVertex
 10
926.656372
 20
542.863741
 30
0.0
 42
0.068375
  0
VERTEX
  5
1C8CDE6A8F2B
100
AcDbEntity
  8
HATCH
  6
CONTINUOUS
100
AcDbVertex
100
AcDb2dVertex
 10
925.380004
 20
532.727567
 30
0.0
 42
0.08054
  0
VERTEX
  5
1C8CDE6A8F2C
100
AcDbEntity
  8
HATCH
  6
CONTINUOUS
100
AcDbVertex
100
AcDb2dVertex
 10
926.867166
 20
524.167026
 30
0.0
 42
0.107061
 70
     2
 50
289.064516
  0
VERTEX
  5
1C8CDE6A8F2D
100
AcDbEntity
  8
HATCH
  6
CONTINUOUS
100
AcDbVertex
100
AcDb2dVertex
 10
931.157406
 20
517.107013
 30
0.0
 42
0.138281
 50
289.064516
  0
SEQEND
  5
1C8CDE6A8F2E
100
AcDbEntity
  8
HATCH
  6
CONTINUOUS
  0
LINE
  5
1C8CDE6A8F2F
100
AcDbEntity
  8
SJC
  6
CONTINUOUS
100
AcDbLine
 10
960.404622
 20
563.407711
 30
0.0
 11
960.404622
 21
513.407711
 31
0.0
  0
POLYLINE
  5
1C8CDE6A8F30
100
AcDbEntity
  8
HATCH
  6
CONTINUOUS
100
AcDb2dPolyline
 66
     1
 10
0.0
 20
0.0
 30
0.0
 70
     1
  0
VERTEX
  5
1C8CDE6A8F31
100
AcDbEntity
  8
HATCH
  6
CONTINUOUS
100
AcDbVertex
100
AcDb2dVertex
 10
866.540484
 20
513.812311
 30
0.0
 42
0.138281
  0
VERTEX
  5
1C8CDE6A8F32
100
AcDbEntity
  8
HATCH
  6
CONTINUOUS
100
AcDbVertex
100
AcDb2dVertex
 10
872.984559
 20
513.896216
 30
0.0
 42
0.107061
  0
VERTEX
  5
1C8CDE6A8F33
100
AcDbEntity
  8
HATCH
  6
CONTINUOUS
100
AcDbVertex
100
AcDb2dVertex
 10
880.230022
 20
517.865247
 30
0.0
 42
0.08054
 70
     2
 50
40.935484
  0
VERTEX
  5
1C8CDE6A8F34
100
AcDbEntity
  8
HATCH
  6
CONTINUOUS
100
AcDbVertex
100
AcDb2dVertex
 10
885.798213
 20
524.535312
 30
0.0
 42
0.068375
 50
40.935484
  0
VERTEX
  5
1C8CDE6A8F35
100
AcDbEntity
  8
HATCH
  6
CONTINUOUS
100
AcDbVertex
100
AcDb2dVertex
 10
889.760933
 20
533.95168
 30
0.0
 42
0.068375
  0
VERTEX
  5
1C8CDE6A8F36
100
AcDbEntity
  8
HATCH
  6
CONTINUOUS
100
AcDbVertex
100
AcDb2dVertex
 10
891.037301
 20
544.087854
 30
0.0
 42
0.08054
  0
VERTEX
  5
1C8CDE6A8F37
100
AcDbEntity
  8
HATCH
  6
CONTINUOUS
100
AcDbVertex
100
AcDb2dVertex
 10
889.550139
 20
552.648395
 30
0.0
 42
0.107061
 70
     2
 50
109.064516
  0
VERTEX
  5
1C8CDE6A8F38
100
AcDbEntity
  8
HATCH
  6
CONTINUOUS
100
AcDbVertex
100
AcDb2dVertex
 10
885.259899
 20
559.708409
 30
0.0
 42
0.138281
 50
109.064516
  0
VERTEX
  5
1C8CDE6A8F39
100
AcDbEntity
  8
HATCH
  6
CONTINUOUS
100
AcDbVertex
100
AcDb2dVertex
 10
879.721119
 20
563.00311
 30
0.0
 42
0.138281
  0
VERTEX
  5
1C8CDE6A8F3A
100
AcDbEntity
  8
HATCH
  6
CONTINUOUS
100
AcDbVertex
100
AcDb2dVertex
 10
873.277044
 20
562.919205
 30
0.0
 42
0.107061
  0
VERTEX
  5
1C8CDE6A8F3B
100
AcDbEntity
  8
HATCH
  6
CONTINUOUS
100
AcDbVertex
100
AcDb2dVertex
 10
866.03158
 20
558.950174
 30
0.0
 42
0.08054
 70
     2
 50
220.935484
  0
VERTEX
  5
1C8CDE6A8F3C
100
AcDbEntity
  8
HATCH
  6
CONTINUOUS
100
AcDbVertex
100
AcDb2dVertex
 10
860.463389
 20
552.280109
 30
0.0
 42
0.068375
 50
220.935484
  0
VERTEX
  5
1C8CDE6A8F3D
100
AcDbEntity
  8
HATCH
  6
CONTINUOUS
100
AcDbVertex
100
AcDb2dVertex
 10
856.500669
 20
542.863741
 30
0.0
 42
0.068375
  0
VERTEX
  5
1C8CDE6A8F3E
100
AcDbEntity
  8
HATCH
  6
CONTINUOUS
100
AcDbVertex
100
AcDb2dVertex
 10
855.224302
 20
532.727567
 30
0.0
 42
0.08054
  0
VERTEX
  5
1C8CDE6A8F3F
100
AcDbEntity
  8
HATCH
  6
CONTINUOUS
100
AcDbVertex
100
AcDb2dVertex
 10
856.711464
 20
524.167026
 30
0.0
 42
0.107061
 70
     2
 50
289.064516
  0
VERTEX
  5
1C8CDE6A8F40
100
AcDbEntity
  8
HATCH
  6
CONTINUOUS
100
AcDbVertex
100
AcDb2dVertex
 10
861.001704
 20
517.107013
 30
0.0
 42
0.138281
 50
289.064516
  0
SEQEND
  5
1C8CDE6A8F41
100
AcDbEntity
  8
HATCH
  6
CONTINUOUS
  0
TEXT
  5
1C8CDE6A8F42
100
AcDbEntity
  8
MOJI
100
AcDbText
 10
515.307561
 20
974.082282
 30
0.0
 40
30.0
  1
GL
 41
0.8
  7
EXT08
100
AcDbText
  0
LINE
  5
1C8CDE6A8F43
100
AcDbEntity
  8
HATCH
100
AcDbLine
 10
551.492226
 20
948.407711
 30
0.0
 11
570.509524
 21
929.390413
 31
0.0
  0
LINE
  5
1C8CDE6A8F44
100
AcDbEntity
  8
HATCH
100
AcDbLine
 10
566.492226
 20
963.407711
 30
0.0
 11
600.509524
 21
929.390413
 31
0.0
  0
LINE
  5
1C8CDE6A8F45
100
AcDbEntity
  8
HATCH
100
AcDbLine
 10
558.992226
 20
955.907711
 30
0.0
 11
585.509524
 21
929.390413
 31
0.0
  0
LINE
  5
1C8CDE6A8F46
100
AcDbEntity
  8
HATCH
100
AcDbLine
 10
566.492226
 20
963.407711
 30
0.0
 11
532.474927
 21
929.390413
 31
0.0
  0
LINE
  5
1C8CDE6A8F47
100
AcDbEntity
  8
HATCH
100
AcDbLine
 10
551.492226
 20
963.407711
 30
0.0
 11
517.474927
 21
929.390413
 31
0.0
  0
LINE
  5
1C8CDE6A8F48
100
AcDbEntity
  8
HATCH
100
AcDbLine
 10
536.492226
 20
963.407711
 30
0.0
 11
502.474927
 21
929.390413
 31
0.0
  0
LINE
  5
1C8CDE6A8F49
100
AcDbEntity
  8
SJC
100
AcDbLine
 10
480.572794
 20
963.407711
 30
0.0
 11
715.85381
 21
963.407711
 31
0.0
1001
ACAD
1000
ASC_BOUNDS
1002
{
1070
    19
1005
0
1002
}
  0
INSERT
  5
1C8CDE6A928E
100
AcDbEntity
  8
ZWAKU
100
AcDbBlockReference
  2
CALCOMP_TECHJET720A3
 10
0.0
 20
0.0
 30
0.0
 41
10.0
 42
10.0
 43
10.0
  0
LINE
  5
1C8CDE6A94F0
100
AcDbEntity
  8
SJC
100
AcDbLine
 10
722.253751
 20
563.407711
 30
0.0
 11
798.553751
 21
563.407711
 31
0.0
  0
LINE
  5
1C8CDE6A966A
100
AcDbEntity
  8
SJC
100
AcDbLine
 10
722.253751
 20
563.407711
 30
0.0
 11
798.553751
 21
563.407711
 31
0.0
  0
LINE
  5
1C8CDE6A97F6
100
AcDbEntity
  8
HATCH
100
AcDbLine
 10
808.00379
 20
708.65049
 30
0.0
 11
910.404622
 21
811.051323
 31
0.0
  0
TEXT
  5
1C8CDE6A9CBC
100
AcDbEntity
  8
INFORMATION
100
AcDbText
 10
1.0
 20
1.0
 30
0.0
 40
0.8
  1
VERSION=3.0
  7
EXT08
100
AcDbText
  0
MTEXT
  5
1C8CDE6A9F02
100
AcDbEntity
  8
MOJI
100
AcDbMText
 10
1864.796709
 20
1572.941384
 30
0.0
 40
30.0
 41
0.0
 71
     7
 72
     1
  1

  7
EXT08
  0
LINE
  5
1C8CDE6AB950
100
AcDbEntity
  8
MOJI
100
AcDbLine
 10
2435.111133
 20
635.630715
 30
0.0
 11
3430.978593
 21
635.630715
 31
0.0
  0
LINE
  5
1C8CDE6AB951
100
AcDbEntity
  8
MOJI
100
AcDbLine
 10
2435.111133
 20
515.630715
 30
0.0
 11
3430.978593
 21
515.630715
 31
0.0
  0
LINE
  5
1C8CDE6AB953
100
AcDbEntity
  8
MOJI
100
AcDbLine
 10
2963.932181
 20
635.630715
 30
0.0
 11
2963.932181
 21
275.630715
 31
0.0
  0
LINE
  5
1C8CDE6AB954
100
AcDbEntity
  8
MOJI
100
AcDbLine
 10
2435.111133
 20
635.630715
 30
0.0
 11
2435.111133
 21
275.630715
 31
0.0
  0
LINE
  5
1C8CDE6AB955
100
AcDbEntity
  8
MOJI
100
AcDbLine
 10
2509.909371
 20
635.630715
 30
0.0
 11
2509.909371
 21
275.630715
 31
0.0
  0
LINE
  5
1C8CDE6AB956
100
AcDbEntity
  8
MOJI
100
AcDbLine
 10
2684.304111
 20
635.630715
 30
0.0
 11
2684.304111
 21
275.630715
 31
0.0
  0
TEXT
  5
1C8CDE6AB966
100
AcDbEntity
  8
MOJI
100
AcDbText
 10
2529.106741
 20
590.666607
 30
0.0
 40
30.0
  1
品      名
 41
0.8
  7
EXT08
 72
     1
 11
2597.106741
 21
590.666607
 31
0.0
100
AcDbText
  0
TEXT
  5
1C8CDE6AB967
100
AcDbEntity
  8
MOJI
100
AcDbText
 10
2528.306741
 20
470.666607
 30
0.0
 40
30.0
  1
支      柱
 41
0.8
  7
EXT08
 72
     1
 11
2597.106741
 21
470.666607
 31
0.0
100
AcDbText
  0
LINE
  5
1C8CDE6AB968
100
AcDbEntity
  8
MOJI
100
AcDbLine
 10
2435.111133
 20
575.630715
 30
0.0
 11
3430.978593
 21
575.630715
 31
0.0
  0
TEXT
  5
1C8CDE6AB969
100
AcDbEntity
  8
MOJI
100
AcDbText
 10
2464.056059
 20
530.666607
 30
0.0
 40
30.0
  1
1
 41
0.8
  7
EXT08
 72
     1
 11
2473.770344
 21
530.666607
 31
0.0
100
AcDbText
  0
TEXT
  5
1C8CDE6AB96B
100
AcDbEntity
  8
MOJI
100
AcDbText
 10
2448.170344
 20
590.666607
 30
0.0
 40
30.0
  1
部番
 41
0.8
  7
EXT08
 72
     1
 11
2473.770344
 21
590.666607
 31
0.0
100
AcDbText
  0
TEXT
  5
1C8CDE6AB96C
100
AcDbEntity
  8
MOJI
100
AcDbText
 10
2755.318146
 20
590.666607
 30
0.0
 40
30.0
  1
材      質
 41
0.8
  7
EXT08
 72
     1
 11
2824.118146
 21
590.666607
 31
0.0
100
AcDbText
  0
TEXT
  5
1C8CDE6AB96D
100
AcDbEntity
  8
MOJI
100
AcDbText
 10
2757.261003
 20
470.666607
 30
0.0
 40
30.0
  1
STK400
 41
0.8
  7
EXT08
 72
     1
 11
2824.118146
 21
470.666607
 31
0.0
100
AcDbText
  0
TEXT
  5
1C8CDE6AB96F
100
AcDbEntity
  8
MOJI
100
AcDbText
 10
3083.966737
 20
590.666607
 30
0.0
 40
30.0
  1
摘            要
 41
0.8
  7
EXT08
 72
     1
 11
3196.195309
 21
590.666607
 31
0.0
100
AcDbText
  0
TEXT
  5
1C8CDE6AB970
100
AcDbEntity
  8
MOJI
100
AcDbText
 10
3026.595309
 20
470.666607
 30
0.0
 40
30.0
  1
亜鉛めっき＋静電粉体塗装
 41
0.8
  7
EXT08
 72
     1
 11
3196.195309
 21
470.666607
 31
0.0
100
AcDbText
  0
LINE
  5
1C8CDE6AB971
100
AcDbEntity
  8
MOJI
100
AcDbLine
 10
3430.978593
 20
635.630715
 30
0.0
 11
3430.978593
 21
275.630715
 31
0.0
  0
LINE
  5
1C8CDE6AC31E
100
AcDbEntity
  8
CENTER
100
AcDbLine
 10
654.44415
 20
2148.497988
 30
0.0
 11
866.363353
 21
2148.497988
 31
0.0
  0
LINE
  5
1C8CDE6AC320
100
AcDbEntity
  8
CENTER
100
AcDbLine
 10
760.403751
 20
2042.538386
 30
0.0
 11
760.403751
 21
2254.457589
 31
0.0
  0
POINT
  5
1C8CDE6AC321
100
AcDbEntity
  8
DEFPOINTS
  6
BYBLOCK
 62
     0
100
AcDbPoint
 10
760.403751
 20
2148.497988
 30
0.0
  0
POINT
  5
1C8CDE6AC322
100
AcDbEntity
  8
DEFPOINTS
  6
BYBLOCK
 62
     0
100
AcDbPoint
 10
866.363353
 20
2148.497988
 30
0.0
  0
LINE
  5
1C8CDE6AC6F0
100
AcDbEntity
  8
MOJI
100
AcDbLine
 10
2435.111133
 20
275.630715
 30
0.0
 11
3430.978593
 21
275.630715
 31
0.0
  0
TEXT
  5
1C8CDE6AC6F1
100
AcDbEntity
  8
MOJI
100
AcDbText
 10
2514.07817
 20
530.666607
 30
0.0
 40
30.0
  1
頭部キャップ
 41
0.8
  7
EXT08
 72
     1
 11
2597.106741
 21
530.666607
 31
0.0
100
AcDbText
  0
TEXT
  5
1C8CDE6AC6F2
100
AcDbEntity
  8
MOJI
100
AcDbText
 10
2462.341773
 20
470.666607
 30
0.0
 40
30.0
  1
2
 41
0.8
  7
EXT08
 72
     1
 11
2473.770344
 21
470.666607
 31
0.0
100
AcDbText
  0
LINE
  5
1C8CDE6B0881
100
AcDbEntity
  8
CENTER
  6
CENTER
100
AcDbLine
 10
2706.472036
 20
1632.291323
 30
0.0
 11
2706.472036
 21
1069.498064
 31
0.0
  0
LINE
  5
1C8CDE6B0882
100
AcDbEntity
  8
SJC
  6
CONTINUOUS
100
AcDbLine
 10
2658.872076
 20
1508.099778
 30
0.0
 11
2658.872076
 21
1108.099784
 31
0.0
  0
LINE
  5
1C8CDE6B0883
100
AcDbEntity
  8
SJC
  6
CONTINUOUS
100
AcDbLine
 10
2754.072016
 20
1508.099778
 30
0.0
 11
2754.072016
 21
1108.099784
 31
0.0
  0
LINE
  5
1C8CDE6B0884
100
AcDbEntity
  8
SJC
  6
CONTINUOUS
100
AcDbLine
 10
2656.472036
 20
1106.499778
 30
0.0
 11
2756.472036
 21
1106.499778
 31
0.0
  0
LINE
  5
1C8CDE6B0885
100
AcDbEntity
  8
SJC
  6
CONTINUOUS
100
AcDbLine
 10
2656.472036
 20
1108.099784
 30
0.0
 11
2756.472036
 21
1108.099784
 31
0.0
  0
LINE
  5
1C8CDE6B0886
100
AcDbEntity
  8
SJC
  6
CONTINUOUS
100
AcDbLine
 10
2656.472036
 20
1108.099784
 30
0.0
 11
2656.472036
 21
1106.499778
 31
0.0
  0
LINE
  5
1C8CDE6B0887
100
AcDbEntity
  8
SJC
  6
CONTINUOUS
100
AcDbLine
 10
2756.472036
 20
1108.099784
 30
0.0
 11
2756.472036
 21
1106.499778
 31
0.0
  0
ARC
  5
1C8CDE6B0899
100
AcDbEntity
  8
KASOU
  6
CONTINUOUS
100
AcDbCircle
 10
2706.472036
 20
1565.099718
 30
0.0
 40
52.5
100
AcDbArc
 50
280.772854
 51
259.22714
  0
ARC
  5
1C8CDE6B089B
100
AcDbEntity
  8
KASOU
  6
CONTINUOUS
100
AcDbCircle
 10
2706.472036
 20
1582.599718
 30
0.0
 40
7.5
100
AcDbArc
 50
180.0
 51
0.000003
  0
LINE
  5
1C8CDE6B089E
100
AcDbEntity
  8
SJC
  6
CONTINUOUS
100
AcDbLine
 10
2653.972036
 20
1510.099778
 30
0.0
 11
2758.972036
 21
1510.099778
 31
0.0
  0
LINE
  5
1C8CDE6B089F
100
AcDbEntity
  8
SJC
  6
CONTINUOUS
100
AcDbLine
 10
2653.972036
 20
1508.099778
 30
0.0
 11
2758.972036
 21
1508.099778
 31
0.0
  0
LINE
  5
1C8CDE6B08A2
100
AcDbEntity
  8
SJC
  6
CONTINUOUS
100
AcDbLine
 10
2653.972036
 20
1510.099778
 30
0.0
 11
2653.972036
 21
1508.099778
 31
0.0
  0
LINE
  5
1C8CDE6B08A3
100
AcDbEntity
  8
CENTER
  6
CENTER
100
AcDbLine
 10
2718.610799
 20
1585.099718
 30
0.0
 11
2694.333273
 21
1585.099718
 31
0.0
  0
LINE
  5
1C8CDE6B08A4
100
AcDbEntity
  8
KASOU
  6
CONTINUOUS
100
AcDbLine
 10
2698.972036
 20
1587.599718
 30
0.0
 11
2698.972036
 21
1582.599718
 31
0.0
  0
LINE
  5
1C8CDE6B08A5
100
AcDbEntity
  8
KASOU
  6
CONTINUOUS
100
AcDbLine
 10
2713.972036
 20
1587.599718
 30
0.0
 11
2713.972036
 21
1582.599718
 31
0.0
  0
ARC
  5
1C8CDE6B08A6
100
AcDbEntity
  8
KASOU
  6
CONTINUOUS
100
AcDbCircle
 10
2706.472036
 20
1587.599718
 30
0.0
 40
7.5
100
AcDbArc
 50
0.000003
 51
180.0
  0
LINE
  5
1C8CDE6B2282
100
AcDbEntity
  8
KASOU
  6
CONTINUOUS
100
AcDbLine
 10
2715.472036
 20
1513.376938
 30
0.0
 11
2697.472036
 21
1513.376938
 31
0.0
  0
LINE
  5
1C8CDE6B2284
100
AcDbEntity
  8
KASOU
  6
CONTINUOUS
100
AcDbLine
 10
2697.472036
 20
1512.542638
 30
0.0
 11
2697.472036
 21
1510.376938
 31
0.0
  0
ARC
  5
1C8CDE6B2285
100
AcDbEntity
  8
KASOU
  6
CONTINUOUS
100
AcDbCircle
 10
2696.472036
 20
1512.542638
 30
0.0
 40
1.0
100
AcDbArc
 50
0.000003
 51
79.22714
  0
ARC
  5
1C8CDE6B2289
100
AcDbEntity
  8
KASOU
  6
CONTINUOUS
100
AcDbCircle
 10
2696.472036
 20
1510.376938
 30
0.0
 40
1.0
100
AcDbArc
 50
343.909222
 51
0.000003
  0
LINE
  5
1C8CDE6B228B
100
AcDbEntity
  8
KASOU
  6
CONTINUOUS
100
AcDbLine
 10
2715.472036
 20
1512.542638
 30
0.0
 11
2715.472036
 21
1510.376938
 31
0.0
  0
ARC
  5
1C8CDE6B228C
100
AcDbEntity
  8
KASOU
  6
CONTINUOUS
100
AcDbCircle
 10
2716.472036
 20
1512.542638
 30
0.0
 40
1.0
100
AcDbArc
 50
100.77286
 51
180.0
  0
ARC
  5
1C8CDE6B228E
100
AcDbEntity
  8
SJC
  6
CONTINUOUS
100
AcDbCircle
 10
2716.472036
 20
1510.376938
 30
0.0
 40
1.0
100
AcDbArc
 50
180.0
 51
196.090778
  0
LINE
  5
1C8CDE6B22AD
100
AcDbEntity
  8
CENTER
  6
CENTER
100
AcDbLine
 10
2730.27204
 20
1500.099778
 30
0.0
 11
2686.972036
 21
1500.099778
 31
0.0
  0
LINE
  5
1C8CDE6B2397
100
AcDbEntity
  8
SJC
100
AcDbLine
 10
1713.148212
 20
963.407711
 30
0.0
 11
1953.719872
 21
963.407711
 31
0.0
1001
ACAD
1000
ASC_BOUNDS
1002
{
1070
    19
1002
}
  0
POLYLINE
  5
1C8CDE6B2398
100
AcDbEntity
  8
HATCH
  6
CONTINUOUS
100
AcDb2dPolyline
 66
     1
 10
0.0
 20
0.0
 30
0.0
 70
     1
  0
VERTEX
  5
1C8CDE6B2399
100
AcDbEntity
  8
HATCH
  6
CONTINUOUS
100
AcDbVertex
100
AcDb2dVertex
 10
1844.890629
 20
513.812311
 30
0.0
 42
0.138281
  0
VERTEX
  5
1C8CDE6B239A
100
AcDbEntity
  8
HATCH
  6
CONTINUOUS
100
AcDbVertex
100
AcDb2dVertex
 10
1851.334704
 20
513.896216
 30
0.0
 42
0.107061
  0
VERTEX
  5
1C8CDE6B239B
100
AcDbEntity
  8
HATCH
  6
CONTINUOUS
100
AcDbVertex
100
AcDb2dVertex
 10
1858.580168
 20
517.865247
 30
0.0
 42
0.08054
 70
     2
 50
40.935484
  0
VERTEX
  5
1C8CDE6B239C
100
AcDbEntity
  8
HATCH
  6
CONTINUOUS
100
AcDbVertex
100
AcDb2dVertex
 10
1864.148359
 20
524.535312
 30
0.0
 42
0.068375
 50
40.935484
  0
VERTEX
  5
1C8CDE6B239D
100
AcDbEntity
  8
HATCH
  6
CONTINUOUS
100
AcDbVertex
100
AcDb2dVertex
 10
1868.111079
 20
533.95168
 30
0.0
 42
0.068375
  0
VERTEX
  5
1C8CDE6B239E
100
AcDbEntity
  8
HATCH
  6
CONTINUOUS
100
AcDbVertex
100
AcDb2dVertex
 10
1869.387446
 20
544.087854
 30
0.0
 42
0.08054
  0
VERTEX
  5
1C8CDE6B239F
100
AcDbEntity
  8
HATCH
  6
CONTINUOUS
100
AcDbVertex
100
AcDb2dVertex
 10
1867.900284
 20
552.648395
 30
0.0
 42
0.107061
 70
     2
 50
109.064516
  0
VERTEX
  5
1C8CDE6B23A0
100
AcDbEntity
  8
HATCH
  6
CONTINUOUS
100
AcDbVertex
100
AcDb2dVertex
 10
1863.610044
 20
559.708409
 30
0.0
 42
0.138281
 50
109.064516
  0
VERTEX
  5
1C8CDE6B23A1
100
AcDbEntity
  8
HATCH
  6
CONTINUOUS
100
AcDbVertex
100
AcDb2dVertex
 10
1858.071264
 20
563.00311
 30
0.0
 42
0.138281
  0
VERTEX
  5
1C8CDE6B23A2
100
AcDbEntity
  8
HATCH
  6
CONTINUOUS
100
AcDbVertex
100
AcDb2dVertex
 10
1851.627189
 20
562.919205
 30
0.0
 42
0.107061
  0
VERTEX
  5
1C8CDE6B23A3
100
AcDbEntity
  8
HATCH
  6
CONTINUOUS
100
AcDbVertex
100
AcDb2dVertex
 10
1844.381726
 20
558.950174
 30
0.0
 42
0.08054
 70
     2
 50
220.935484
  0
VERTEX
  5
1C8CDE6B23A4
100
AcDbEntity
  8
HATCH
  6
CONTINUOUS
100
AcDbVertex
100
AcDb2dVertex
 10
1838.813535
 20
552.280109
 30
0.0
 42
0.068375
 50
220.935484
  0
VERTEX
  5
1C8CDE6B23A5
100
AcDbEntity
  8
HATCH
  6
CONTINUOUS
100
AcDbVertex
100
AcDb2dVertex
 10
1834.850815
 20
542.863741
 30
0.0
 42
0.068375
  0
VERTEX
  5
1C8CDE6B23A6
100
AcDbEntity
  8
HATCH
  6
CONTINUOUS
100
AcDbVertex
100
AcDb2dVertex
 10
1833.574447
 20
532.727567
 30
0.0
 42
0.08054
  0
VERTEX
  5
1C8CDE6B23A7
100
AcDbEntity
  8
HATCH
  6
CONTINUOUS
100
AcDbVertex
100
AcDb2dVertex
 10
1835.061609
 20
524.167026
 30
0.0
 42
0.107061
 70
     2
 50
289.064516
  0
VERTEX
  5
1C8CDE6B23A8
100
AcDbEntity
  8
HATCH
  6
CONTINUOUS
100
AcDbVertex
100
AcDb2dVertex
 10
1839.351849
 20
517.107013
 30
0.0
 42
0.138281
 50
289.064516
  0
SEQEND
  5
1C8CDE6B23A9
100
AcDbEntity
  8
HATCH
  6
CONTINUOUS
  0
LINE
  5
1C8CDE6B23AB
100
AcDbEntity
  8
SJC
  6
CONTINUOUS
100
AcDbLine
 10
1868.599066
 20
513.407711
 30
0.0
 11
1468.599066
 21
513.407711
 31
0.0
  0
LINE
  5
1C8CDE6B23AC
100
AcDbEntity
  8
SJC
  6
CONTINUOUS
100
AcDbLine
 10
1868.599066
 20
563.407711
 30
0.0
 11
1468.599066
 21
563.407711
 31
0.0
1001
ACAD
1000
ASC_BOUNDS
1002
{
1070
    19
1005
0
1005
0
1005
0
1005
0
1005
0
1005
0
1005
0
1005
0
1002
}
  0
LINE
  5
1C8CDE6B23AF
100
AcDbEntity
  8
CENTER
100
AcDbLine
 10
1668.598195
 20
1898.333888
 30
0.0
 11
1668.598195
 21
468.245743
 31
0.0
  0
TEXT
  5
1C8CDE6B23B0
100
AcDbEntity
  8
MOJI
100
AcDbText
 10
1423.502004
 20
974.082282
 30
0.0
 40
30.0
  1
GL
 41
0.8
  7
EXT08
100
AcDbText
  0
LINE
  5
1C8CDE6B23B3
100
AcDbEntity
  8
HATCH
100
AcDbLine
 10
1459.686669
 20
963.407711
 30
0.0
 11
1425.669371
 21
929.390413
 31
0.0
  0
LINE
  5
1C8CDE6B23B4
100
AcDbEntity
  8
HATCH
100
AcDbLine
 10
1474.686669
 20
963.407711
 30
0.0
 11
1440.669371
 21
929.390413
 31
0.0
  0
LINE
  5
1C8CDE6B23B5
100
AcDbEntity
  8
SJC
100
AcDbLine
 10
1388.767238
 20
963.407711
 30
0.0
 11
1624.048253
 21
963.407711
 31
0.0
1001
ACAD
1000
ASC_BOUNDS
1002
{
1070
    19
1005
0
1002
}
  0
LINE
  5
1C8CDE6B23B8
100
AcDbEntity
  8
HATCH
100
AcDbLine
 10
1444.686669
 20
963.407711
 30
0.0
 11
1410.669371
 21
929.390413
 31
0.0
  0
LINE
  5
1C8CDE6B23B9
100
AcDbEntity
  8
HATCH
100
AcDbLine
 10
1725.747925
 20
563.520574
 30
0.0
 11
1818.599066
 21
656.371714
 31
0.0
  0
LINE
  5
1C8CDE6B23BA
100
AcDbEntity
  8
HATCH
100
AcDbLine
 10
1747.732149
 20
563.407711
 30
0.0
 11
1818.599066
 21
634.274627
 31
0.0
  0
LINE
  5
1C8CDE6B23BB
100
AcDbEntity
  8
SJC
  6
CONTINUOUS
100
AcDbLine
 10
1818.599066
 20
563.407711
 30
0.0
 11
1818.599066
 21
963.407711
 31
0.0
1001
ACAD
1000
ASC_BOUNDS
1002
{
1070
    19
1002
}
  0
LINE
  5
1C8CDE6B23BC
100
AcDbEntity
  8
HATCH
100
AcDbLine
 10
1548.858367
 20
563.407711
 30
0.0
 11
1620.998273
 21
635.547617
 31
0.0
  0
LINE
  5
1C8CDE6B23BD
100
AcDbEntity
  8
HATCH
100
AcDbLine
 10
1526.76128
 20
563.407711
 30
0.0
 11
1620.998273
 21
657.644704
 31
0.0
  0
LINE
  5
1C8CDE6B23BE
100
AcDbEntity
  8
HATCH
100
AcDbLine
 10
1570.955454
 20
563.407711
 30
0.0
 11
1620.998273
 21
613.45053
 31
0.0
  0
LINE
  5
1C8CDE6B23BF
100
AcDbEntity
  8
SJC
  6
CONTINUOUS
100
AcDbLine
 10
1518.599066
 20
963.407711
 30
0.0
 11
1518.599066
 21
563.407711
 31
0.0
1001
ACAD
1000
ASC_BOUNDS
1002
{
1070
    19
1002
}
  0
LINE
  5
1C8CDE6B23C1
100
AcDbEntity
  8
SJC
100
AcDbLine
 10
1630.448195
 20
563.407711
 30
0.0
 11
1706.748195
 21
563.407711
 31
0.0
  0
LINE
  5
1C8CDE6B23C2
100
AcDbEntity
  8
SJC
100
AcDbLine
 10
1630.448195
 20
563.407711
 30
0.0
 11
1706.748195
 21
563.407711
 31
0.0
  0
POLYLINE
  5
1C8CDE6B23C3
100
AcDbEntity
  8
HATCH
  6
CONTINUOUS
100
AcDb2dPolyline
 66
     1
 10
0.0
 20
0.0
 30
0.0
 70
     1
  0
VERTEX
  5
1C8CDE6B23C4
100
AcDbEntity
  8
HATCH
  6
CONTINUOUS
100
AcDbVertex
100
AcDb2dVertex
 10
1551.199454
 20
513.812311
 30
0.0
 42
0.138281
  0
VERTEX
  5
1C8CDE6B23C5
100
AcDbEntity
  8
HATCH
  6
CONTINUOUS
100
AcDbVertex
100
AcDb2dVertex
 10
1557.643528
 20
513.896216
 30
0.0
 42
0.107061
  0
VERTEX
  5
1C8CDE6B23C6
100
AcDbEntity
  8
HATCH
  6
CONTINUOUS
100
AcDbVertex
100
AcDb2dVertex
 10
1564.888992
 20
517.865247
 30
0.0
 42
0.08054
 70
     2
 50
40.935484
  0
VERTEX
  5
1C8CDE6B23C7
100
AcDbEntity
  8
HATCH
  6
CONTINUOUS
100
AcDbVertex
100
AcDb2dVertex
 10
1570.457183
 20
524.535312
 30
0.0
 42
0.068375
 50
40.935484
  0
VERTEX
  5
1C8CDE6B23C8
100
AcDbEntity
  8
HATCH
  6
CONTINUOUS
100
AcDbVertex
100
AcDb2dVertex
 10
1574.419903
 20
533.95168
 30
0.0
 42
0.068375
  0
VERTEX
  5
1C8CDE6B23C9
100
AcDbEntity
  8
HATCH
  6
CONTINUOUS
100
AcDbVertex
100
AcDb2dVertex
 10
1575.696271
 20
544.087854
 30
0.0
 42
0.08054
  0
VERTEX
  5
1C8CDE6B23CA
100
AcDbEntity
  8
HATCH
  6
CONTINUOUS
100
AcDbVertex
100
AcDb2dVertex
 10
1574.209108
 20
552.648395
 30
0.0
 42
0.107061
 70
     2
 50
109.064516
  0
VERTEX
  5
1C8CDE6B23CB
100
AcDbEntity
  8
HATCH
  6
CONTINUOUS
100
AcDbVertex
100
AcDb2dVertex
 10
1569.918868
 20
559.708409
 30
0.0
 42
0.138281
 50
109.064516
  0
VERTEX
  5
1C8CDE6B23CC
100
AcDbEntity
  8
HATCH
  6
CONTINUOUS
100
AcDbVertex
100
AcDb2dVertex
 10
1564.380089
 20
563.00311
 30
0.0
 42
0.138281
  0
VERTEX
  5
1C8CDE6B23CD
100
AcDbEntity
  8
HATCH
  6
CONTINUOUS
100
AcDbVertex
100
AcDb2dVertex
 10
1557.936014
 20
562.919205
 30
0.0
 42
0.107061
  0
VERTEX
  5
1C8CDE6B23CE
100
AcDbEntity
  8
HATCH
  6
CONTINUOUS
100
AcDbVertex
100
AcDb2dVertex
 10
1550.69055
 20
558.950174
 30
0.0
 42
0.08054
 70
     2
 50
220.935484
  0
VERTEX
  5
1C8CDE6B23CF
100
AcDbEntity
  8
HATCH
  6
CONTINUOUS
100
AcDbVertex
100
AcDb2dVertex
 10
1545.122359
 20
552.280109
 30
0.0
 42
0.068375
 50
220.935484
  0
VERTEX
  5
1C8CDE6B23D0
100
AcDbEntity
  8
HATCH
  6
CONTINUOUS
100
AcDbVertex
100
AcDb2dVertex
 10
1541.159639
 20
542.863741
 30
0.0
 42
0.068375
  0
VERTEX
  5
1C8CDE6B23D1
100
AcDbEntity
  8
HATCH
  6
CONTINUOUS
100
AcDbVertex
100
AcDb2dVertex
 10
1539.883271
 20
532.727567
 30
0.0
 42
0.08054
  0
VERTEX
  5
1C8CDE6B23D2
100
AcDbEntity
  8
HATCH
  6
CONTINUOUS
100
AcDbVertex
100
AcDb2dVertex
 10
1541.370434
 20
524.167026
 30
0.0
 42
0.107061
 70
     2
 50
289.064516
  0
VERTEX
  5
1C8CDE6B23D3
100
AcDbEntity
  8
HATCH
  6
CONTINUOUS
100
AcDbVertex
100
AcDb2dVertex
 10
1545.660674
 20
517.107013
 30
0.0
 42
0.138281
 50
289.064516
  0
SEQEND
  5
1C8CDE6B23D4
100
AcDbEntity
  8
HATCH
  6
CONTINUOUS
  0
POLYLINE
  5
1C8CDE6B23D5
100
AcDbEntity
  8
HATCH
  6
CONTINUOUS
100
AcDb2dPolyline
 66
     1
 10
0.0
 20
0.0
 30
0.0
 70
     1
  0
VERTEX
  5
1C8CDE6B23D6
100
AcDbEntity
  8
HATCH
  6
CONTINUOUS
100
AcDbVertex
100
AcDb2dVertex
 10
1481.044048
 20
513.812311
 30
0.0
 42
0.138281
  0
VERTEX
  5
1C8CDE6B23D7
100
AcDbEntity
  8
HATCH
  6
CONTINUOUS
100
AcDbVertex
100
AcDb2dVertex
 10
1487.488123
 20
513.896216
 30
0.0
 42
0.107061
  0
VERTEX
  5
1C8CDE6B23D8
100
AcDbEntity
  8
HATCH
  6
CONTINUOUS
100
AcDbVertex
100
AcDb2dVertex
 10
1494.733587
 20
517.865247
 30
0.0
 42
0.08054
 70
     2
 50
40.935484
  0
VERTEX
  5
1C8CDE6B23D9
100
AcDbEntity
  8
HATCH
  6
CONTINUOUS
100
AcDbVertex
100
AcDb2dVertex
 10
1500.301778
 20
524.535312
 30
0.0
 42
0.068375
 50
40.935484
  0
VERTEX
  5
1C8CDE6B23DA
100
AcDbEntity
  8
HATCH
  6
CONTINUOUS
100
AcDbVertex
100
AcDb2dVertex
 10
1504.264498
 20
533.95168
 30
0.0
 42
0.068375
  0
VERTEX
  5
1C8CDE6B23DB
100
AcDbEntity
  8
HATCH
  6
CONTINUOUS
100
AcDbVertex
100
AcDb2dVertex
 10
1505.540865
 20
544.087854
 30
0.0
 42
0.08054
  0
VERTEX
  5
1C8CDE6B23DC
100
AcDbEntity
  8
HATCH
  6
CONTINUOUS
100
AcDbVertex
100
AcDb2dVertex
 10
1504.053703
 20
552.648395
 30
0.0
 42
0.107061
 70
     2
 50
109.064516
  0
VERTEX
  5
1C8CDE6B23DD
100
AcDbEntity
  8
HATCH
  6
CONTINUOUS
100
AcDbVertex
100
AcDb2dVertex
 10
1499.763463
 20
559.708409
 30
0.0
 42
0.138281
 50
109.064516
  0
VERTEX
  5
1C8CDE6B23DE
100
AcDbEntity
  8
HATCH
  6
CONTINUOUS
100
AcDbVertex
100
AcDb2dVertex
 10
1494.224683
 20
563.00311
 30
0.0
 42
0.138281
  0
VERTEX
  5
1C8CDE6B23DF
100
AcDbEntity
  8
HATCH
  6
CONTINUOUS
100
AcDbVertex
100
AcDb2dVertex
 10
1487.780608
 20
562.919205
 30
0.0
 42
0.107061
  0
VERTEX
  5
1C8CDE6B23E0
100
AcDbEntity
  8
HATCH
  6
CONTINUOUS
100
AcDbVertex
100
AcDb2dVertex
 10
1480.535145
 20
558.950174
 30
0.0
 42
0.08054
 70
     2
 50
220.935484
  0
VERTEX
  5
1C8CDE6B23E1
100
AcDbEntity
  8
HATCH
  6
CONTINUOUS
100
AcDbVertex
100
AcDb2dVertex
 10
1474.966954
 20
552.280109
 30
0.0
 42
0.068375
 50
220.935484
  0
VERTEX
  5
1C8CDE6B23E2
100
AcDbEntity
  8
HATCH
  6
CONTINUOUS
100
AcDbVertex
100
AcDb2dVertex
 10
1471.004234
 20
542.863741
 30
0.0
 42
0.068375
  0
VERTEX
  5
1C8CDE6B23E3
100
AcDbEntity
  8
HATCH
  6
CONTINUOUS
100
AcDbVertex
100
AcDb2dVertex
 10
1469.727866
 20
532.727567
 30
0.0
 42
0.08054
  0
VERTEX
  5
1C8CDE6B23E4
100
AcDbEntity
  8
HATCH
  6
CONTINUOUS
100
AcDbVertex
100
AcDb2dVertex
 10
1471.215028
 20
524.167026
 30
0.0
 42
0.107061
 70
     2
 50
289.064516
  0
VERTEX
  5
1C8CDE6B23E5
100
AcDbEntity
  8
HATCH
  6
CONTINUOUS
100
AcDbVertex
100
AcDb2dVertex
 10
1475.505269
 20
517.107013
 30
0.0
 42
0.138281
 50
289.064516
  0
SEQEND
  5
1C8CDE6B23E6
100
AcDbEntity
  8
HATCH
  6
CONTINUOUS
  0
LINE
  5
1C8CDE6B23E7
100
AcDbEntity
  8
SJC
  6
CONTINUOUS
100
AcDbLine
 10
1468.599066
 20
563.407711
 30
0.0
 11
1468.599066
 21
513.407711
 31
0.0
  0
POLYLINE
  5
1C8CDE6B23E8
100
AcDbEntity
  8
HATCH
  6
CONTINUOUS
100
AcDb2dPolyline
 66
     1
 10
0.0
 20
0.0
 30
0.0
 70
     1
  0
VERTEX
  5
1C8CDE6B23E9
100
AcDbEntity
  8
HATCH
  6
CONTINUOUS
100
AcDbVertex
100
AcDb2dVertex
 10
1516.121751
 20
513.812311
 30
0.0
 42
0.138281
  0
VERTEX
  5
1C8CDE6B23EA
100
AcDbEntity
  8
HATCH
  6
CONTINUOUS
100
AcDbVertex
100
AcDb2dVertex
 10
1522.565826
 20
513.896216
 30
0.0
 42
0.107061
  0
VERTEX
  5
1C8CDE6B23EB
100
AcDbEntity
  8
HATCH
  6
CONTINUOUS
100
AcDbVertex
100
AcDb2dVertex
 10
1529.81129
 20
517.865247
 30
0.0
 42
0.08054
 70
     2
 50
40.935484
  0
VERTEX
  5
1C8CDE6B23EC
100
AcDbEntity
  8
HATCH
  6
CONTINUOUS
100
AcDbVertex
100
AcDb2dVertex
 10
1535.37948
 20
524.535312
 30
0.0
 42
0.068375
 50
40.935484
  0
VERTEX
  5
1C8CDE6B23ED
100
AcDbEntity
  8
HATCH
  6
CONTINUOUS
100
AcDbVertex
100
AcDb2dVertex
 10
1539.342201
 20
533.95168
 30
0.0
 42
0.068375
  0
VERTEX
  5
1C8CDE6B23EE
100
AcDbEntity
  8
HATCH
  6
CONTINUOUS
100
AcDbVertex
100
AcDb2dVertex
 10
1540.618568
 20
544.087854
 30
0.0
 42
0.08054
  0
VERTEX
  5
1C8CDE6B23EF
100
AcDbEntity
  8
HATCH
  6
CONTINUOUS
100
AcDbVertex
100
AcDb2dVertex
 10
1539.131406
 20
552.648395
 30
0.0
 42
0.107061
 70
     2
 50
109.064516
  0
VERTEX
  5
1C8CDE6B23F0
100
AcDbEntity
  8
HATCH
  6
CONTINUOUS
100
AcDbVertex
100
AcDb2dVertex
 10
1534.841166
 20
559.708409
 30
0.0
 42
0.138281
 50
109.064516
  0
VERTEX
  5
1C8CDE6B23F1
100
AcDbEntity
  8
HATCH
  6
CONTINUOUS
100
AcDbVertex
100
AcDb2dVertex
 10
1529.302386
 20
563.00311
 30
0.0
 42
0.138281
  0
VERTEX
  5
1C8CDE6B23F2
100
AcDbEntity
  8
HATCH
  6
CONTINUOUS
100
AcDbVertex
100
AcDb2dVertex
 10
1522.858311
 20
562.919205
 30
0.0
 42
0.107061
  0
VERTEX
  5
1C8CDE6B23F3
100
AcDbEntity
  8
HATCH
  6
CONTINUOUS
100
AcDbVertex
100
AcDb2dVertex
 10
1515.612847
 20
558.950174
 30
0.0
 42
0.08054
 70
     2
 50
220.935484
  0
VERTEX
  5
1C8CDE6B23F4
100
AcDbEntity
  8
HATCH
  6
CONTINUOUS
100
AcDbVertex
100
AcDb2dVertex
 10
1510.044657
 20
552.280109
 30
0.0
 42
0.068375
 50
220.935484
  0
VERTEX
  5
1C8CDE6B23F5
100
AcDbEntity
  8
HATCH
  6
CONTINUOUS
100
AcDbVertex
100
AcDb2dVertex
 10
1506.081936
 20
542.863741
 30
0.0
 42
0.068375
  0
VERTEX
  5
1C8CDE6B23F6
100
AcDbEntity
  8
HATCH
  6
CONTINUOUS
100
AcDbVertex
100
AcDb2dVertex
 10
1504.805569
 20
532.727567
 30
0.0
 42
0.08054
  0
VERTEX
  5
1C8CDE6B23F7
100
AcDbEntity
  8
HATCH
  6
CONTINUOUS
100
AcDbVertex
100
AcDb2dVertex
 10
1506.292731
 20
524.167026
 30
0.0
 42
0.107061
 70
     2
 50
289.064516
  0
VERTEX
  5
1C8CDE6B23F8
100
AcDbEntity
  8
HATCH
  6
CONTINUOUS
100
AcDbVertex
100
AcDb2dVertex
 10
1510.582971
 20
517.107013
 30
0.0
 42
0.138281
 50
289.064516
  0
SEQEND
  5
1C8CDE6B23F9
100
AcDbEntity
  8
HATCH
  6
CONTINUOUS
  0
POLYLINE
  5
1C8CDE6B23FA
100
AcDbEntity
  8
HATCH
  6
CONTINUOUS
100
AcDb2dPolyline
 66
     1
 10
0.0
 20
0.0
 30
0.0
 70
     1
  0
VERTEX
  5
1C8CDE6B23FB
100
AcDbEntity
  8
HATCH
  6
CONTINUOUS
100
AcDbVertex
100
AcDb2dVertex
 10
1774.734927
 20
513.812311
 30
0.0
 42
0.138281
  0
VERTEX
  5
1C8CDE6B23FC
100
AcDbEntity
  8
HATCH
  6
CONTINUOUS
100
AcDbVertex
100
AcDb2dVertex
 10
1781.179002
 20
513.896216
 30
0.0
 42
0.107061
  0
VERTEX
  5
1C8CDE6B23FD
100
AcDbEntity
  8
HATCH
  6
CONTINUOUS
100
AcDbVertex
100
AcDb2dVertex
 10
1788.424465
 20
517.865247
 30
0.0
 42
0.08054
 70
     2
 50
40.935484
  0
VERTEX
  5
1C8CDE6B23FE
100
AcDbEntity
  8
HATCH
  6
CONTINUOUS
100
AcDbVertex
100
AcDb2dVertex
 10
1793.992656
 20
524.535312
 30
0.0
 42
0.068375
 50
40.935484
  0
VERTEX
  5
1C8CDE6B23FF
100
AcDbEntity
  8
HATCH
  6
CONTINUOUS
100
AcDbVertex
100
AcDb2dVertex
 10
1797.955376
 20
533.95168
 30
0.0
 42
0.068375
  0
VERTEX
  5
1C8CDE6B2400
100
AcDbEntity
  8
HATCH
  6
CONTINUOUS
100
AcDbVertex
100
AcDb2dVertex
 10
1799.231744
 20
544.087854
 30
0.0
 42
0.08054
  0
VERTEX
  5
1C8CDE6B2401
100
AcDbEntity
  8
HATCH
  6
CONTINUOUS
100
AcDbVertex
100
AcDb2dVertex
 10
1797.744582
 20
552.648395
 30
0.0
 42
0.107061
 70
     2
 50
109.064516
  0
VERTEX
  5
1C8CDE6B2402
100
AcDbEntity
  8
HATCH
  6
CONTINUOUS
100
AcDbVertex
100
AcDb2dVertex
 10
1793.454342
 20
559.708409
 30
0.0
 42
0.138281
 50
109.064516
  0
VERTEX
  5
1C8CDE6B2403
100
AcDbEntity
  8
HATCH
  6
CONTINUOUS
100
AcDbVertex
100
AcDb2dVertex
 10
1787.915562
 20
563.00311
 30
0.0
 42
0.138281
  0
VERTEX
  5
1C8CDE6B2404
100
AcDbEntity
  8
HATCH
  6
CONTINUOUS
100
AcDbVertex
100
AcDb2dVertex
 10
1781.471487
 20
562.919205
 30
0.0
 42
0.107061
  0
VERTEX
  5
1C8CDE6B2405
100
AcDbEntity
  8
HATCH
  6
CONTINUOUS
100
AcDbVertex
100
AcDb2dVertex
 10
1774.226023
 20
558.950174
 30
0.0
 42
0.08054
 70
     2
 50
220.935484
  0
VERTEX
  5
1C8CDE6B2406
100
AcDbEntity
  8
HATCH
  6
CONTINUOUS
100
AcDbVertex
100
AcDb2dVertex
 10
1768.657832
 20
552.280109
 30
0.0
 42
0.068375
 50
220.935484
  0
VERTEX
  5
1C8CDE6B2407
100
AcDbEntity
  8
HATCH
  6
CONTINUOUS
100
AcDbVertex
100
AcDb2dVertex
 10
1764.695112
 20
542.863741
 30
0.0
 42
0.068375
  0
VERTEX
  5
1C8CDE6B2408
100
AcDbEntity
  8
HATCH
  6
CONTINUOUS
100
AcDbVertex
100
AcDb2dVertex
 10
1763.418745
 20
532.727567
 30
0.0
 42
0.08054
  0
VERTEX
  5
1C8CDE6B2409
100
AcDbEntity
  8
HATCH
  6
CONTINUOUS
100
AcDbVertex
100
AcDb2dVertex
 10
1764.905907
 20
524.167026
 30
0.0
 42
0.107061
 70
     2
 50
289.064516
  0
VERTEX
  5
1C8CDE6B240A
100
AcDbEntity
  8
HATCH
  6
CONTINUOUS
100
AcDbVertex
100
AcDb2dVertex
 10
1769.196147
 20
517.107013
 30
0.0
 42
0.138281
 50
289.064516
  0
SEQEND
  5
1C8CDE6B240B
100
AcDbEntity
  8
HATCH
  6
CONTINUOUS
  0
POLYLINE
  5
1C8CDE6B240C
100
AcDbEntity
  8
HATCH
  6
CONTINUOUS
100
AcDb2dPolyline
 66
     1
 10
0.0
 20
0.0
 30
0.0
 70
     1
  0
VERTEX
  5
1C8CDE6B240D
100
AcDbEntity
  8
HATCH
  6
CONTINUOUS
100
AcDbVertex
100
AcDb2dVertex
 10
1809.812927
 20
513.812311
 30
0.0
 42
0.138281
  0
VERTEX
  5
1C8CDE6B240E
100
AcDbEntity
  8
HATCH
  6
CONTINUOUS
100
AcDbVertex
100
AcDb2dVertex
 10
1816.257002
 20
513.896216
 30
0.0
 42
0.107061
  0
VERTEX
  5
1C8CDE6B240F
100
AcDbEntity
  8
HATCH
  6
CONTINUOUS
100
AcDbVertex
100
AcDb2dVertex
 10
1823.502465
 20
517.865247
 30
0.0
 42
0.08054
 70
     2
 50
40.935484
  0
VERTEX
  5
1C8CDE6B2410
100
AcDbEntity
  8
HATCH
  6
CONTINUOUS
100
AcDbVertex
100
AcDb2dVertex
 10
1829.070656
 20
524.535312
 30
0.0
 42
0.068375
 50
40.935484
  0
VERTEX
  5
1C8CDE6B2411
100
AcDbEntity
  8
HATCH
  6
CONTINUOUS
100
AcDbVertex
100
AcDb2dVertex
 10
1833.033376
 20
533.95168
 30
0.0
 42
0.068375
  0
VERTEX
  5
1C8CDE6B2412
100
AcDbEntity
  8
HATCH
  6
CONTINUOUS
100
AcDbVertex
100
AcDb2dVertex
 10
1834.309744
 20
544.087854
 30
0.0
 42
0.08054
  0
VERTEX
  5
1C8CDE6B2413
100
AcDbEntity
  8
HATCH
  6
CONTINUOUS
100
AcDbVertex
100
AcDb2dVertex
 10
1832.822582
 20
552.648395
 30
0.0
 42
0.107061
 70
     2
 50
109.064516
  0
VERTEX
  5
1C8CDE6B2414
100
AcDbEntity
  8
HATCH
  6
CONTINUOUS
100
AcDbVertex
100
AcDb2dVertex
 10
1828.532342
 20
559.708409
 30
0.0
 42
0.138281
 50
109.064516
  0
VERTEX
  5
1C8CDE6B2415
100
AcDbEntity
  8
HATCH
  6
CONTINUOUS
100
AcDbVertex
100
AcDb2dVertex
 10
1822.993562
 20
563.00311
 30
0.0
 42
0.138281
  0
VERTEX
  5
1C8CDE6B2416
100
AcDbEntity
  8
HATCH
  6
CONTINUOUS
100
AcDbVertex
100
AcDb2dVertex
 10
1816.549487
 20
562.919205
 30
0.0
 42
0.107061
  0
VERTEX
  5
1C8CDE6B2417
100
AcDbEntity
  8
HATCH
  6
CONTINUOUS
100
AcDbVertex
100
AcDb2dVertex
 10
1809.304023
 20
558.950174
 30
0.0
 42
0.08054
 70
     2
 50
220.935484
  0
VERTEX
  5
1C8CDE6B2418
100
AcDbEntity
  8
HATCH
  6
CONTINUOUS
100
AcDbVertex
100
AcDb2dVertex
 10
1803.735832
 20
552.280109
 30
0.0
 42
0.068375
 50
220.935484
  0
VERTEX
  5
1C8CDE6B2419
100
AcDbEntity
  8
HATCH
  6
CONTINUOUS
100
AcDbVertex
100
AcDb2dVertex
 10
1799.773112
 20
542.863741
 30
0.0
 42
0.068375
  0
VERTEX
  5
1C8CDE6B241A
100
AcDbEntity
  8
HATCH
  6
CONTINUOUS
100
AcDbVertex
100
AcDb2dVertex
 10
1798.496745
 20
532.727567
 30
0.0
 42
0.08054
  0
VERTEX
  5
1C8CDE6B241B
100
AcDbEntity
  8
HATCH
  6
CONTINUOUS
100
AcDbVertex
100
AcDb2dVertex
 10
1799.983907
 20
524.167026
 30
0.0
 42
0.107061
 70
     2
 50
289.064516
  0
VERTEX
  5
1C8CDE6B241C
100
AcDbEntity
  8
HATCH
  6
CONTINUOUS
100
AcDbVertex
100
AcDb2dVertex
 10
1804.274147
 20
517.107013
 30
0.0
 42
0.138281
 50
289.064516
  0
SEQEND
  5
1C8CDE6B241D
100
AcDbEntity
  8
HATCH
  6
CONTINUOUS
  0
LINE
  5
1C8CDE6B241E
100
AcDbEntity
  8
HATCH
100
AcDbLine
 10
1518.599066
 20
732.022192
 30
0.0
 11
1620.998273
 21
834.4214
 31
0.0
  0
LINE
  5
1C8CDE6B241F
100
AcDbEntity
  8
HATCH
100
AcDbLine
 10
1518.599066
 20
709.925105
 30
0.0
 11
1620.998273
 21
812.324313
 31
0.0
  0
LINE
  5
1C8CDE6B2420
100
AcDbEntity
  8
HATCH
100
AcDbLine
 10
1568.646163
 20
737.875115
 30
0.0
 11
1620.998273
 21
790.227226
 31
0.0
  0
LINE
  5
1C8CDE6B2421
100
AcDbEntity
  8
HATCH
100
AcDbLine
 10
1518.599066
 20
687.828018
 30
0.0
 11
1568.599066
 21
737.828018
 31
0.0
  0
LINE
  5
1C8CDE6B2422
100
AcDbEntity
  8
HATCH
100
AcDbLine
 10
1518.599066
 20
908.798887
 30
0.0
 11
1573.20789
 21
963.407711
 31
0.0
  0
LINE
  5
1C8CDE6B2423
100
AcDbEntity
  8
HATCH
100
AcDbLine
 10
1518.599066
 20
886.7018
 30
0.0
 11
1595.304977
 21
963.407711
 31
0.0
  0
LINE
  5
1C8CDE6B2424
100
AcDbEntity
  8
HATCH
100
AcDbLine
 10
1518.599066
 20
864.604713
 30
0.0
 11
1617.402064
 21
963.407711
 31
0.0
  0
LINE
  5
1C8CDE6B2425
100
AcDbEntity
  8
HATCH
100
AcDbLine
 10
1474.686669
 20
963.407711
 30
0.0
 11
1508.703968
 21
929.390413
 31
0.0
  0
LINE
  5
1C8CDE6B2426
100
AcDbEntity
  8
HATCH
100
AcDbLine
 10
1459.686669
 20
948.407711
 30
0.0
 11
1478.703968
 21
929.390413
 31
0.0
  0
LINE
  5
1C8CDE6B2427
100
AcDbEntity
  8
HATCH
100
AcDbLine
 10
1467.186669
 20
955.907711
 30
0.0
 11
1493.703968
 21
929.390413
 31
0.0
  0
LINE
  5
1C8CDE6B2428
100
AcDbEntity
  8
HATCH
100
AcDbLine
 10
1716.198233
 20
752.844664
 30
0.0
 11
1818.599066
 21
855.245497
 31
0.0
  0
LINE
  5
1C8CDE6B2429
100
AcDbEntity
  8
HATCH
100
AcDbLine
 10
1716.198233
 20
730.747577
 30
0.0
 11
1818.599066
 21
833.14841
 31
0.0
  0
LINE
  5
1C8CDE6B242A
100
AcDbEntity
  8
HATCH
100
AcDbLine
 10
1716.198233
 20
708.65049
 30
0.0
 11
1818.599066
 21
811.051323
 31
0.0
  0
LINE
  5
1C8CDE6B242B
100
AcDbEntity
  8
HATCH
100
AcDbLine
 10
1716.198233
 20
576.067969
 30
0.0
 11
1818.599066
 21
678.468801
 31
0.0
  0
LINE
  5
1C8CDE6B242C
100
AcDbEntity
  8
HATCH
100
AcDbLine
 10
1725.747925
 20
718.200182
 30
0.0
 11
1736.422858
 21
728.875115
 31
0.0
  0
LINE
  5
1C8CDE6B242D
100
AcDbEntity
  8
HATCH
100
AcDbLine
 10
1716.198233
 20
929.62136
 30
0.0
 11
1749.984585
 21
963.407711
 31
0.0
  0
LINE
  5
1C8CDE6B242E
100
AcDbEntity
  8
HATCH
100
AcDbLine
 10
1716.198233
 20
907.524273
 30
0.0
 11
1772.081672
 21
963.407711
 31
0.0
  0
LINE
  5
1C8CDE6B242F
100
AcDbEntity
  8
HATCH
100
AcDbLine
 10
1716.198233
 20
885.427186
 30
0.0
 11
1794.178759
 21
963.407711
 31
0.0
  0
LINE
  5
1C8CDE6B2451
100
AcDbEntity
  8
SJC
  6
CONTINUOUS
100
AcDbLine
 10
1868.599066
 20
563.407711
 30
0.0
 11
1868.599066
 21
513.407711
 31
0.0
  0
LINE
  5
1C8CDE6B249D
100
AcDbEntity
  8
HASEN
100
AcDbLine
 10
806.40381
 20
963.407711
 30
0.0
 11
806.40381
 21
563.407717
 31
0.0
  0
LINE
  5
1C8CDE6B249E
100
AcDbEntity
  8
HASEN
100
AcDbLine
 10
714.40381
 20
963.407711
 30
0.0
 11
714.40381
 21
563.407717
 31
0.0
  0
LINE
  5
1C8CDE6B249F
100
AcDbEntity
  8
SJC2
  6
CONTINUOUS
100
AcDbLine
 10
808.00379
 20
929.278889
 30
0.0
 11
808.00379
 21
563.407717
 31
0.0
  0
LINE
  5
1C8CDE6B24A0
100
AcDbEntity
  8
SJC2
  6
CONTINUOUS
100
AcDbLine
 10
712.80383
 20
963.407711
 30
0.0
 11
712.80383
 21
563.407717
 31
0.0
  0
LINE
  5
1C8CDE6B24A1
100
AcDbEntity
  8
SJC2
  6
CONTINUOUS
100
AcDbLine
 10
712.80383
 20
563.407717
 30
0.0
 11
808.00379
 21
563.407717
 31
0.0
  0
LINE
  5
1C8CDE6B24A2
100
AcDbEntity
  8
SJC2
  6
CONTINUOUS
100
AcDbLine
 10
725.40381
 20
561.807711
 30
0.0
 11
795.40381
 21
561.807711
 31
0.0
  0
LINE
  5
1C8CDE6B24A3
100
AcDbEntity
  8
SJC2
  6
CONTINUOUS
100
AcDbLine
 10
725.40381
 20
563.407717
 30
0.0
 11
725.40381
 21
561.807711
 31
0.0
  0
LINE
  5
1C8CDE6B24A4
100
AcDbEntity
  8
SJC2
  6
CONTINUOUS
100
AcDbLine
 10
795.40381
 20
563.407717
 30
0.0
 11
795.40381
 21
561.807711
 31
0.0
  0
LINE
  5
1C8CDE6B24A5
100
AcDbEntity
  8
SJC2
  6
CONTINUOUS
100
AcDbLine
 10
805.014469
 20
1060.001756
 30
0.0
 11
823.191605
 21
978.974375
 31
0.0
  0
LINE
  5
1C8CDE6B24A6
100
AcDbEntity
  8
SJC2
  6
CONTINUOUS
100
AcDbLine
 10
809.441423
 20
1072.247124
 30
0.0
 11
832.097504
 21
971.254189
 31
0.0
  0
LINE
  5
1C8CDE6B24A7
100
AcDbEntity
  8
SJC2
  6
CONTINUOUS
100
AcDbLine
 10
807.36085
 20
928.907687
 30
0.0
 11
837.25385
 21
946.166413
 31
0.0
  0
LINE
  5
1C8CDE6B24A8
100
AcDbEntity
  8
CENTER
  6
CONTINUOUS
100
AcDbLine
 10
683.164099
 20
1038.407711
 30
0.0
 11
835.052476
 21
1038.407711
 31
0.0
  0
LINE
  5
1C8CDE6B24A9
100
AcDbEntity
  8
HASEN
100
AcDbLine
 10
814.432185
 20
1032.407711
 30
0.0
 11
699.432185
 21
1032.407711
 31
0.0
  0
LINE
  5
1C8CDE6B24AA
100
AcDbEntity
  8
HASEN
100
AcDbLine
 10
814.432185
 20
1044.407711
 30
0.0
 11
699.432185
 21
1044.407711
 31
0.0
  0
LINE
  5
1C8CDE6B24AB
100
AcDbEntity
  8
SJC2
100
AcDbLine
 10
703.883011
 20
995.75085
 30
0.0
 11
703.883011
 21
1020.75085
 31
0.0
  0
LINE
  5
1C8CDE6B24AC
100
AcDbEntity
  8
SJC2
100
AcDbLine
 10
708.883011
 20
995.75085
 30
0.0
 11
708.883011
 21
1020.75085
 31
0.0
  0
LINE
  5
1C8CDE6B24AD
100
AcDbEntity
  8
SJC2
100
AcDbLine
 10
703.883011
 20
995.75085
 30
0.0
 11
708.883011
 21
995.75085
 31
0.0
  0
LINE
  5
1C8CDE6B24AE
100
AcDbEntity
  8
SJC2
100
AcDbLine
 10
708.883011
 20
1020.75085
 30
0.0
 11
703.883011
 21
1020.75085
 31
0.0
  0
ARC
  5
1C8CDE6B24AF
100
AcDbEntity
  8
SJC2
100
AcDbCircle
 10
706.383011
 20
1037.240586
 30
0.0
 40
1.510264
100
AcDbArc
 50
6.683733
 51
173.316267
  0
LINE
  5
1C8CDE6B24B0
100
AcDbEntity
  8
SJC2
100
AcDbLine
 10
699.432185
 20
1032.407711
 30
0.0
 11
710.485712
 21
1032.407711
 31
0.0
  0
LINE
  5
1C8CDE6B24B1
100
AcDbEntity
  8
SJC2
100
AcDbLine
 10
699.432185
 20
1044.407711
 30
0.0
 11
710.485712
 21
1044.407711
 31
0.0
  0
CIRCLE
  5
1C8CDE6B24B2
100
AcDbEntity
  8
SJC2
100
AcDbCircle
 10
706.432185
 20
1038.407711
 30
0.0
 40
4.0
  0
LINE
  5
1C8CDE6B24B3
100
AcDbEntity
  8
SJC2
100
AcDbLine
 10
699.432185
 20
1032.407711
 30
0.0
 11
699.432185
 21
1044.407711
 31
0.0
  0
LINE
  5
1C8CDE6B24B4
100
AcDbEntity
  8
SJC2
100
AcDbLine
 10
699.432185
 20
1032.407711
 30
0.0
 11
699.432185
 21
1044.407711
 31
0.0
  0
LINE
  5
1C8CDE6B24B5
100
AcDbEntity
  8
SJC2
100
AcDbLine
 10
704.883011
 20
1020.75085
 30
0.0
 11
704.883011
 21
1037.416363
 31
0.0
  0
LINE
  5
1C8CDE6B24B6
100
AcDbEntity
  8
HASEN
100
AcDbLine
 10
711.496078
 20
1032.407711
 30
0.0
 11
710.485712
 21
1032.407711
 31
0.0
  0
LINE
  5
1C8CDE6B24B7
100
AcDbEntity
  8
HASEN
100
AcDbLine
 10
710.485712
 20
1044.407711
 30
0.0
 11
711.496078
 21
1044.407711
 31
0.0
  0
LINE
  5
1C8CDE6B24B8
100
AcDbEntity
  8
SJC2
100
AcDbLine
 10
707.883011
 20
1020.75085
 30
0.0
 11
707.883011
 21
1037.416363
 31
0.0
  0
LINE
  5
1C8CDE6B24B9
100
AcDbEntity
  8
HASEN
  6
CONTINUOUS
100
AcDbLine
 10
806.40381
 20
963.407711
 30
0.0
 11
806.40381
 21
930.565283
 31
0.0
  0
LINE
  5
1C8CDE6B24BA
100
AcDbEntity
  8
SJC2
  6
CONTINUOUS
100
AcDbLine
 10
807.36085
 20
928.907687
 30
0.0
 11
806.40381
 21
930.565283
 31
0.0
  0
LINE
  5
1C8CDE6B24BB
100
AcDbEntity
  8
SJC2
  6
CONTINUOUS
100
AcDbLine
 10
807.489941
 20
1071.809336
 30
0.0
 11
809.441423
 21
1072.247124
 31
0.0
  0
LINE
  5
1C8CDE6B24BC
100
AcDbEntity
  8
SJC2
  6
CONTINUOUS
100
AcDbLine
 10
807.489941
 20
1071.809336
 30
0.0
 11
809.057385
 21
1064.822102
 31
0.0
  0
LINE
  5
1C8CDE6B24BD
100
AcDbEntity
  8
SJC2
  6
CONTINUOUS
100
AcDbLine
 10
806.491321
 20
1062.856302
 30
0.0
 11
808.46661
 21
1063.680312
 31
0.0
  0
ARC
  5
1C8CDE6B24BE
100
AcDbEntity
  8
SJC2
  6
CONTINUOUS
100
AcDbCircle
 10
807.45381
 20
1060.548999
 30
0.0
 40
2.5
100
AcDbArc
 50
112.644006
 51
192.644006
  0
ARC
  5
1C8CDE6B24BF
100
AcDbEntity
  8
SJC2
  6
CONTINUOUS
100
AcDbCircle
 10
808.081603
 20
1064.60322
 30
0.0
 40
1.0
100
AcDbArc
 50
292.644006
 51
12.644006
  0
ARC
  5
1C8CDE6B24C0
100
AcDbEntity
  8
SJC2
  6
CONTINUOUS
100
AcDbCircle
 10
825.630967
 20
979.521603
 30
0.0
 40
2.5
100
AcDbArc
 50
192.644006
 51
272.644006
  0
LINE
  5
1C8CDE6B24C1
100
AcDbEntity
  8
SJC2
  6
CONTINUOUS
100
AcDbLine
 10
825.746261
 20
977.024265
 30
0.0
 11
826.869949
 21
977.076154
 31
0.0
  0
ARC
  5
1C8CDE6B24C2
100
AcDbEntity
  8
SJC2
  6
CONTINUOUS
100
AcDbCircle
 10
826.916059
 20
976.077218
 30
0.0
 40
1.0
100
AcDbArc
 50
12.644006
 51
92.644006
  0
ARC
  5
1C8CDE6B24C3
100
AcDbEntity
  8
SJC2
  6
CONTINUOUS
100
AcDbCircle
 10
836.90381
 20
960.907711
 30
0.0
 40
2.5
100
AcDbArc
 50
0.0
 51
90.000003
  0
LINE
  5
1C8CDE6B24C4
100
AcDbEntity
  8
SJC2
  6
CONTINUOUS
100
AcDbLine
 10
830.785663
 20
966.374932
 30
0.0
 11
832.016689
 21
969.878146
 31
0.0
  0
LINE
  5
1C8CDE6B24C5
100
AcDbEntity
  8
SJC2
  6
CONTINUOUS
100
AcDbLine
 10
827.812698
 20
966.963644
 30
0.0
 11
829.043724
 21
970.466858
 31
0.0
  0
LINE
  5
1C8CDE6B24C6
100
AcDbEntity
  8
SJC2
  6
CONTINUOUS
100
AcDbLine
 10
827.891841
 20
976.2961
 30
0.0
 11
829.076067
 21
971.017266
 31
0.0
  0
ARC
  5
1C8CDE6B24C7
100
AcDbEntity
  8
SJC2
  6
CONTINUOUS
100
AcDbCircle
 10
828.100285
 20
970.798376
 30
0.0
 40
1.0
100
AcDbArc
 50
340.638626
 51
12.644006
  0
ARC
  5
1C8CDE6B24C8
100
AcDbEntity
  8
SJC2
  6
CONTINUOUS
100
AcDbCircle
 10
829.658081
 20
970.706956
 30
0.0
 40
2.5
100
AcDbArc
 50
340.638626
 51
12.644006
  0
LINE
  5
1C8CDE6B24C9
100
AcDbEntity
  8
SJC2
  6
CONTINUOUS
100
AcDbLine
 10
820.44525
 20
963.805979
 30
0.0
 11
827.763356
 21
965.447676
 31
0.0
  0
ARC
  5
1C8CDE6B24CA
100
AcDbEntity
  8
SJC2
  6
CONTINUOUS
100
AcDbCircle
 10
831.729103
 20
966.043406
 30
0.0
 40
1.0
100
AcDbArc
 50
160.638626
 51
192.644006
  0
ARC
  5
1C8CDE6B24CB
100
AcDbEntity
  8
SJC2
  6
CONTINUOUS
100
AcDbCircle
 10
830.171366
 20
966.134831
 30
0.0
 40
2.5
100
AcDbArc
 50
160.638626
 51
192.644006
  0
LINE
  5
1C8CDE6B24CC
100
AcDbEntity
  8
SJC2
  6
CONTINUOUS
100
AcDbLine
 10
820.44525
 20
963.805971
 30
0.0
 11
820.192932
 21
963.407711
 31
0.0
  0
LINE
  5
1C8CDE6B24CD
100
AcDbEntity
  8
SJC2
  6
CONTINUOUS
100
AcDbLine
 10
830.753401
 20
965.824523
 30
0.0
 11
831.295575
 21
963.407711
 31
0.0
  0
LINE
  5
1C8CDE6B24CE
100
AcDbEntity
  8
SJC2
  6
CONTINUOUS
100
AcDbLine
 10
827.731964
 20
965.5876
 30
0.0
 11
828.220975
 21
963.407711
 31
0.0
  0
ARC
  5
1C8CDE6B24CF
100
AcDbEntity
  8
SJC2
  6
CONTINUOUS
100
AcDbCircle
 10
835.10383
 20
949.890323
 30
0.0
 40
4.3
100
AcDbArc
 50
300.0
 51
0.0
  0
LINE
  5
1C8CDE6B24D0
100
AcDbEntity
  8
SJC2
  6
CONTINUOUS
100
AcDbLine
 10
839.40381
 20
960.907711
 30
0.0
 11
839.40381
 21
949.890323
 31
0.0
  0
CIRCLE
  5
1C8CDE6B24D1
100
AcDbEntity
  8
SJC2
  6
CONTINUOUS
100
AcDbCircle
 10
825.40381
 20
955.407711
 30
0.0
 40
2.5
  0
LINE
  5
1C8CDE6B24D2
100
AcDbEntity
  8
CENTER
100
AcDbLine
 10
820.478279
 20
955.407711
 30
0.0
 11
830.329341
 21
955.407711
 31
0.0
  0
LINE
  5
1C8CDE6B24D3
100
AcDbEntity
  8
CENTER
100
AcDbLine
 10
825.40381
 20
950.48218
 30
0.0
 11
825.40381
 21
960.333242
 31
0.0
  0
LINE
  5
1C8CDE6B24D4
100
AcDbEntity
  8
SJC
  6
CONTINUOUS
100
AcDbLine
 10
830.18869
 20
954.636376
 30
0.0
 11
830.18869
 21
954.636376
 31
0.0
  0
LINE
  5
1C8CDE6B24D5
100
AcDbEntity
  8
SJC2
100
AcDbLine
 10
820.932185
 20
1049.657711
 30
0.0
 11
822.432185
 21
1047.657711
 31
0.0
  0
LINE
  5
1C8CDE6B24D6
100
AcDbEntity
  8
SJC2
100
AcDbLine
 10
820.932185
 20
1027.157711
 30
0.0
 11
822.432185
 21
1029.157711
 31
0.0
  0
LINE
  5
1C8CDE6B24D7
100
AcDbEntity
  8
SJC2
100
AcDbLine
 10
820.932185
 20
1027.157711
 30
0.0
 11
820.932185
 21
1049.657711
 31
0.0
  0
LINE
  5
1C8CDE6B24D8
100
AcDbEntity
  8
SJC2
100
AcDbLine
 10
822.432185
 20
1029.157711
 30
0.0
 11
822.432185
 21
1047.657711
 31
0.0
  0
LINE
  5
1C8CDE6B24D9
100
AcDbEntity
  8
HASEN
100
AcDbLine
 10
814.432185
 20
1049.657711
 30
0.0
 11
814.432185
 21
1027.157711
 31
0.0
  0
LINE
  5
1C8CDE6B24DA
100
AcDbEntity
  8
SJC2
100
AcDbLine
 10
820.932185
 20
1049.657711
 30
0.0
 11
814.432185
 21
1049.657711
 31
0.0
  0
LINE
  5
1C8CDE6B24DB
100
AcDbEntity
  8
SJC2
100
AcDbLine
 10
820.932185
 20
1027.157711
 30
0.0
 11
814.432185
 21
1027.157711
 31
0.0
  0
LINE
  5
1C8CDE6B3F91
100
AcDbEntity
  8
SJC2
100
AcDbLine
 10
715.85381
 20
963.407711
 30
0.0
 11
715.85381
 21
563.407717
 31
0.0
  0
LINE
  5
1C8CDE6B3F92
100
AcDbEntity
  8
SJC2
100
AcDbLine
 10
804.953769
 20
963.407711
 30
0.0
 11
804.953769
 21
563.407717
 31
0.0
  0
LINE
  5
1C8CDE6B3F93
100
AcDbEntity
  8
SJC2
  6
CONTINUOUS
100
AcDbLine
 10
1716.198233
 20
963.407711
 30
0.0
 11
1716.198233
 21
563.407717
 31
0.0
  0
LINE
  5
1C8CDE6B3F94
100
AcDbEntity
  8
SJC2
  6
CONTINUOUS
100
AcDbLine
 10
1620.998273
 20
963.407711
 30
0.0
 11
1620.998273
 21
563.407717
 31
0.0
  0
LINE
  5
1C8CDE6B3F95
100
AcDbEntity
  8
HASEN
100
AcDbLine
 10
1622.598253
 20
963.407711
 30
0.0
 11
1622.598253
 21
563.407717
 31
0.0
  0
LINE
  5
1C8CDE6B3F96
100
AcDbEntity
  8
HASEN
100
AcDbLine
 10
1714.598253
 20
963.407711
 30
0.0
 11
1714.598253
 21
563.407717
 31
0.0
  0
LINE
  5
1C8CDE6B3F97
100
AcDbEntity
  8
SJC2
  6
CONTINUOUS
100
AcDbLine
 10
1618.598195
 20
563.407711
 30
0.0
 11
1718.598195
 21
563.407711
 31
0.0
  0
LINE
  5
1C8CDE6B3F98
100
AcDbEntity
  8
SJC2
  6
CONTINUOUS
100
AcDbLine
 10
1618.598195
 20
561.807705
 30
0.0
 11
1718.598195
 21
561.807705
 31
0.0
  0
LINE
  5
1C8CDE6B3F99
100
AcDbEntity
  8
SJC2
  6
CONTINUOUS
100
AcDbLine
 10
1618.598195
 20
563.407711
 30
0.0
 11
1618.598195
 21
561.807705
 31
0.0
  0
LINE
  5
1C8CDE6B3F9A
100
AcDbEntity
  8
SJC2
  6
CONTINUOUS
100
AcDbLine
 10
1718.598195
 20
563.407711
 30
0.0
 11
1718.598195
 21
561.807705
 31
0.0
  0
ELLIPSE
  5
1C8CDE6B3F9B
100
AcDbEntity
  8
SJC2
100
AcDbEllipse
 10
1668.598253
 20
1018.059994
 30
0.0
 11
-52.5
 21
0.0
 31
0.0
210
0.0
220
0.0
230
1.0
 40
0.975749
 41
1.743075850522918
 42
7.681702110246598
  0
ELLIPSE
  5
1C8CDE6B3F9C
100
AcDbEntity
  8
SJC2
100
AcDbEllipse
 10
1668.598253
 20
1018.059994
 30
0.0
 11
-42.99999999999999
 21
0.0
 31
0.0
210
0.0
220
0.0
230
1.0
 40
0.971664
 41
0.0
 42
6.2831853071796
  0
LINE
  5
1C8CDE6B3F9D
100
AcDbEntity
  8
SJC2
100
AcDbLine
 10
1624.048253
 20
963.407711
 30
0.0
 11
1713.148253
 21
963.407711
 31
0.0
  0
LINE
  5
1C8CDE6B3F9E
100
AcDbEntity
  8
SJC2
100
AcDbLine
 10
1683.898253
 20
948.707711
 30
0.0
 11
1653.298253
 21
948.707711
 31
0.0
  0
LINE
  5
1C8CDE6B3F9F
100
AcDbEntity
  8
SJC2
100
AcDbLine
 10
1683.898253
 20
928.907711
 30
0.0
 11
1653.298253
 21
928.907711
 31
0.0
  0
LINE
  5
1C8CDE6B3FA0
100
AcDbEntity
  8
SJC2
100
AcDbLine
 10
1653.298253
 20
963.407711
 30
0.0
 11
1653.298253
 21
928.907711
 31
0.0
  0
LINE
  5
1C8CDE6B3FA1
100
AcDbEntity
  8
SJC2
100
AcDbLine
 10
1659.598253
 20
963.407711
 30
0.0
 11
1659.598253
 21
967.591512
 31
0.0
  0
LINE
  5
1C8CDE6B3FA2
100
AcDbEntity
  8
SJC2
100
AcDbLine
 10
1677.598253
 20
963.407711
 30
0.0
 11
1677.598253
 21
967.591512
 31
0.0
  0
LINE
  5
1C8CDE6B3FA3
100
AcDbEntity
  8
SJC2
  6
CENTER
100
AcDbLine
 10
1664.598253
 20
976.459595
 30
0.0
 11
1664.598253
 21
963.407711
 31
0.0
  0
LINE
  5
1C8CDE6B3FA4
100
AcDbEntity
  8
SJC2
  6
CENTER
100
AcDbLine
 10
1672.598253
 20
976.459595
 30
0.0
 11
1672.598253
 21
963.407711
 31
0.0
  0
LINE
  5
1C8CDE6B3FA5
100
AcDbEntity
  8
SJC2
100
AcDbLine
 10
1683.898253
 20
963.407711
 30
0.0
 11
1683.898253
 21
928.907711
 31
0.0
  0
CIRCLE
  5
1C8CDE6B3FA6
100
AcDbEntity
  8
SJC2
100
AcDbCircle
 10
1668.598253
 20
1038.407711
 30
0.0
 40
9.25
  0
CIRCLE
  5
1C8CDE6B3FA7
100
AcDbEntity
  8
SJC2
100
AcDbCircle
 10
1668.598253
 20
1038.407711
 30
0.0
 40
11.25
  0
LINE
  5
1C8CDE6B3FA8
100
AcDbEntity
  8
SJC2
100
AcDbLine
 10
1624.048253
 20
963.407711
 30
0.0
 11
1624.048253
 21
563.407711
 31
0.0
  0
LINE
  5
1C8CDE6B3FA9
100
AcDbEntity
  8
SJC2
100
AcDbLine
 10
1713.148212
 20
963.407711
 30
0.0
 11
1713.148212
 21
563.407711
 31
0.0
  0
LINE
  5
1C8CDE6B5A77
100
AcDbEntity
  8
CENTER
  6
CENTER
100
AcDbLine
 10
3041.958231
 20
1528.178265
 30
0.0
 11
3041.958231
 21
1069.498064
 31
0.0
  0
LINE
  5
1C8CDE6B5A7A
100
AcDbEntity
  8
SJC
  6
CONTINUOUS
100
AcDbLine
 10
3089.558211
 20
1508.099778
 30
0.0
 11
3089.558211
 21
1108.099784
 31
0.0
  0
LINE
  5
1C8CDE6B5A7B
100
AcDbEntity
  8
SJC
  6
CONTINUOUS
100
AcDbLine
 10
2994.358251
 20
1473.970955
 30
0.0
 11
2994.358251
 21
1108.099784
 31
0.0
  0
LINE
  5
1C8CDE6B5A7C
100
AcDbEntity
  8
SJC
  6
CONTINUOUS
100
AcDbLine
 10
3076.958231
 20
1106.499778
 30
0.0
 11
3006.958231
 21
1106.499778
 31
0.0
  0
LINE
  5
1C8CDE6B5A7D
100
AcDbEntity
  8
SJC
  6
CONTINUOUS
100
AcDbLine
 10
3089.558211
 20
1108.099784
 30
0.0
 11
2994.358251
 21
1108.099784
 31
0.0
  0
LINE
  5
1C8CDE6B5A7E
100
AcDbEntity
  8
SJC
  6
CONTINUOUS
100
AcDbLine
 10
3076.958231
 20
1108.099784
 30
0.0
 11
3076.958231
 21
1106.499778
 31
0.0
  0
LINE
  5
1C8CDE6B5A7F
100
AcDbEntity
  8
SJC
  6
CONTINUOUS
100
AcDbLine
 10
3006.958231
 20
1108.099784
 30
0.0
 11
3006.958231
 21
1106.499778
 31
0.0
  0
LINE
  5
1C8CDE6B5A80
100
AcDbEntity
  8
SJC
  6
CONTINUOUS
100
AcDbLine
 10
3094.458231
 20
1508.099778
 30
0.0
 11
2965.458231
 21
1508.099778
 31
0.0
  0
LINE
  5
1C8CDE6B5A85
100
AcDbEntity
  8
KASOU
  6
CONTINUOUS
100
AcDbLine
 10
2988.812231
 20
1606.001252
 30
0.0
 11
2977.255111
 21
1523.768182
 31
0.0
  0
LINE
  5
1C8CDE6B5A86
100
AcDbEntity
  8
KASOU
  6
CONTINUOUS
100
AcDbLine
 10
2983.408371
 20
1617.847992
 30
0.0
 11
2969.003511
 21
1515.35228
 31
0.0
  0
LINE
  5
1C8CDE6B5A88
100
AcDbEntity
  8
KASOU
  6
CONTINUOUS
100
AcDbLine
 10
2981.220551
 20
1508.871942
 30
0.0
 11
2973.793551
 21
1509.915742
 31
0.0
  0
LINE
  5
1C8CDE6B5A8A
100
AcDbEntity
  8
CENTER
100
AcDbLine
 10
2972.0327
 20
1500.099778
 30
0.0
 11
2981.883762
 21
1500.099778
 31
0.0
  0
LINE
  5
1C8CDE6B5A8B
100
AcDbEntity
  8
HASEN
  6
CONTINUOUS
100
AcDbLine
 10
2996.151231
 20
1475.591626
 30
0.0
 11
2966.258211
 21
1492.850354
 31
0.0
  0
LINE
  5
1C8CDE6B5A8C
100
AcDbEntity
  8
SJC
  6
CONTINUOUS
100
AcDbLine
 10
2995.001191
 20
1473.599754
 30
0.0
 11
2965.108191
 21
1490.85848
 31
0.0
  0
LINE
  5
1C8CDE6B5A8D
100
AcDbEntity
  8
KASOU
  6
CONTINUOUS
100
AcDbLine
 10
2981.220551
 20
1508.871934
 30
0.0
 11
2981.802419
 21
1508.099778
 31
0.0
  0
LINE
  5
1C8CDE6B5A8F
100
AcDbEntity
  8
HASEN
  6
CONTINUOUS
100
AcDbLine
 10
2995.001191
 20
1473.599754
 30
0.0
 11
2996.151231
 21
1475.591626
 31
0.0
  0
LINE
  5
1C8CDE6B5A91
100
AcDbEntity
  8
SJC
  6
CONTINUOUS
100
AcDbLine
 10
2995.958231
 20
1508.099778
 30
0.0
 11
2995.958231
 21
1475.703038
 31
0.0
  0
ARC
  5
1C8CDE6B5A93
100
AcDbEntity
  8
KASOU
  6
CONTINUOUS
100
AcDbCircle
 10
2971.479231
 20
1515.00435
 30
0.0
 40
2.5
100
AcDbArc
 50
172.0
 51
204.00538
  0
ARC
  5
1C8CDE6B5A94
100
AcDbEntity
  8
SJC
  6
CONTINUOUS
100
AcDbCircle
 10
2965.458231
 20
1505.599778
 30
0.0
 40
2.5
100
AcDbArc
 50
89.999997
 51
180.0
  0
ARC
  5
1C8CDE6B5A95
100
AcDbEntity
  8
HASEN
  6
CONTINUOUS
100
AcDbCircle
 10
2966.258211
 20
1505.099778
 30
0.0
 40
1.0
100
AcDbArc
 50
89.999997
 51
180.0
  0
ARC
  5
1C8CDE6B5A99
100
AcDbEntity
  8
KASOU
  6
CONTINUOUS
100
AcDbCircle
 10
2973.024511
 20
1515.221596
 30
0.0
 40
1.0
100
AcDbArc
 50
172.0
 51
204.00538
  0
ARC
  5
1C8CDE6B5A9A
100
AcDbEntity
  8
KASOU
  6
CONTINUOUS
100
AcDbCircle
 10
2973.777451
 20
1520.578988
 30
0.0
 40
1.0
100
AcDbArc
 50
92.0
 51
172.0
  0
LINE
  5
1C8CDE6B5A9B
100
AcDbEntity
  8
KASOU
  6
CONTINUOUS
100
AcDbLine
 10
2972.787151
 20
1520.718148
 30
0.0
 11
2972.034211
 21
1515.360764
 31
0.0
  0
LINE
  5
1C8CDE6B5A9D
100
AcDbEntity
  8
KASOU
  6
CONTINUOUS
100
AcDbLine
 10
2974.866731
 20
1521.617638
 30
0.0
 11
2972.727679
 21
1521.542937
 31
0.0
  0
ARC
  5
1C8CDE6B5AA3
100
AcDbEntity
  8
KASOU
  6
CONTINUOUS
100
AcDbCircle
 10
2971.337811
 20
1510.405678
 30
0.0
 40
2.5
100
AcDbArc
 50
352.0
 51
24.00538
  0
ARC
  5
1C8CDE6B5AA5
100
AcDbEntity
  8
KASOU
  6
CONTINUOUS
100
AcDbCircle
 10
2969.792591
 20
1510.188432
 30
0.0
 40
1.0
100
AcDbArc
 50
352.0
 51
24.00538
  0
LINE
  5
1C8CDE6B5AA6
100
AcDbEntity
  8
KASOU
  6
CONTINUOUS
100
AcDbLine
 10
2973.813511
 20
1510.057748
 30
0.0
 11
2973.538345
 21
1508.099778
 31
0.0
  0
LINE
  5
1C8CDE6B5AA8
100
AcDbEntity
  8
HASEN
  6
CONTINUOUS
100
AcDbLine
 10
2970.227771
 20
1508.099778
 30
0.0
 11
2970.227771
 21
1506.099778
 31
0.0
  0
LINE
  5
1C8CDE6B5AA9
100
AcDbEntity
  8
KASOU
  6
CONTINUOUS
100
AcDbLine
 10
2973.621631
 20
1511.422738
 30
0.0
 11
2972.111011
 21
1514.814782
 31
0.0
  0
ARC
  5
1C8CDE6B5AAD
100
AcDbEntity
  8
KASOU
  6
CONTINUOUS
100
AcDbCircle
 10
2974.779451
 20
1524.116112
 30
0.0
 40
2.5
100
AcDbArc
 50
272.0
 51
352.0
  0
LINE
  5
1C8CDE6B5AAF
100
AcDbEntity
  8
KASOU
  6
CONTINUOUS
100
AcDbLine
 10
2970.706091
 20
1510.595254
 30
0.0
 11
2969.195471
 21
1513.987298
 31
0.0
  0
LINE
  5
1C8CDE6B5AB0
100
AcDbEntity
  8
HASEN
  6
CONTINUOUS
100
AcDbLine
 10
2970.227771
 20
1506.099778
 30
0.0
 11
2966.258211
 21
1506.099778
 31
0.0
  0
ARC
  5
1C8CDE6B5AB1
100
AcDbEntity
  8
HASEN
  6
CONTINUOUS
100
AcDbCircle
 10
2967.258211
 20
1494.58239
 30
0.0
 40
2.0
100
AcDbArc
 50
180.0
 51
240.0
  0
ARC
  5
1C8CDE6B5AB2
100
AcDbEntity
  8
SJC
  6
CONTINUOUS
100
AcDbCircle
 10
2967.258211
 20
1494.58239
 30
0.0
 40
4.3
100
AcDbArc
 50
180.0
 51
240.0
  0
CIRCLE
  5
1C8CDE6B5ABE
100
AcDbEntity
  8
SJC
  6
CONTINUOUS
100
AcDbCircle
 10
2976.958231
 20
1500.099778
 30
0.0
 40
2.5
  0
LINE
  5
1C8CDE6B5AC0
100
AcDbEntity
  8
KASOU
  6
CONTINUOUS
100
AcDbLine
 10
2970.782811
 20
1510.049264
 30
0.0
 11
2970.508826
 21
1508.099778
 31
0.0
  0
LINE
  5
1C8CDE6B5AC1
100
AcDbEntity
  8
HASEN
  6
CONTINUOUS
100
AcDbLine
 10
2965.258211
 20
1505.099778
 30
0.0
 11
2965.258211
 21
1494.58239
 31
0.0
  0
LINE
  5
1C8CDE6B5AC2
100
AcDbEntity
  8
SJC
  6
CONTINUOUS
100
AcDbLine
 10
2962.958231
 20
1505.599778
 30
0.0
 11
2962.958231
 21
1494.58239
 31
0.0
  0
LINE
  5
1C8CDE6B5AC3
100
AcDbEntity
  8
CENTER
100
AcDbLine
 10
2976.958231
 20
1505.025309
 30
0.0
 11
2976.958231
 21
1495.174247
 31
0.0
  0
ARC
  5
1C8CDE6B5AC6
100
AcDbEntity
  8
KASOU
  6
CONTINUOUS
100
AcDbCircle
 10
2985.382611
 20
1610.33928
 30
0.0
 40
1.0
100
AcDbArc
 50
172.0
 51
252.0
  0
ARC
  5
1C8CDE6B5AC7
100
AcDbEntity
  8
KASOU
  6
CONTINUOUS
100
AcDbCircle
 10
2986.336591
 20
1606.349198
 30
0.0
 40
2.5
100
AcDbArc
 50
352.0
 51
72.0
  0
LINE
  5
1C8CDE6B5AC9
100
AcDbEntity
  8
KASOU
  6
CONTINUOUS
100
AcDbLine
 10
2987.109111
 20
1608.726854
 30
0.0
 11
2985.073591
 21
1609.38823
 31
0.0
  0
LINE
  5
1C8CDE6B5ACA
100
AcDbEntity
  8
KASOU
  6
CONTINUOUS
100
AcDbLine
 10
2985.388891
 20
1617.569642
 30
0.0
 11
2984.392311
 21
1610.47844
 31
0.0
  0
LINE
  5
1C8CDE6B5ACC
100
AcDbEntity
  8
KASOU
  6
CONTINUOUS
100
AcDbLine
 10
2985.388891
 20
1617.569642
 30
0.0
 11
2983.408371
 21
1617.847992
 31
0.0
  0
LINE
  5
1C8CDE6B5AEB
100
AcDbEntity
  8
SJC2
100
AcDbLine
 10
2721.772036
 20
1494.58239
 30
0.0
 11
2691.172036
 21
1494.58239
 31
0.0
  0
LINE
  5
1C8CDE6B5AEC
100
AcDbEntity
  8
SJC2
100
AcDbLine
 10
2721.772036
 20
1473.970955
 30
0.0
 11
2691.172036
 21
1473.970955
 31
0.0
  0
LINE
  5
1C8CDE6B5AED
100
AcDbEntity
  8
SJC2
100
AcDbLine
 10
2721.772036
 20
1510.099778
 30
0.0
 11
2721.772036
 21
1473.970955
 31
0.0
  0
LINE
  5
1C8CDE6B5AEE
100
AcDbEntity
  8
SJC2
100
AcDbLine
 10
2691.172036
 20
1510.099778
 30
0.0
 11
2691.172036
 21
1473.970955
 31
0.0
  0
LINE
  5
1C8CDE6B5AEF
100
AcDbEntity
  8
SJC
  6
CONTINUOUS
100
AcDbLine
 10
2758.972036
 20
1510.099778
 30
0.0
 11
2758.972036
 21
1508.099778
 31
0.0
  0
LINE
  5
1C8CDE6B5B09
100
AcDbEntity
  8
CENTER
  6
BYBLOCK
100
AcDbLine
 10
2989.090578
 20
1607.981788
 30
0.0
 11
2990.254727
 21
1616.265131
 31
0.0
  0
ARC
  5
1C8CDE6B5B0A
100
AcDbEntity
  8
CENTER
  6
BYBLOCK
100
AcDbCircle
 10
2975.053058
 20
1508.099778
 30
0.0
 40
107.228359
100
AcDbArc
 50
360.0
 51
81.999989
  0
POINT
  5
1C8CDE6B5B0E
100
AcDbEntity
  8
DEFPOINTS
  6
BYBLOCK
 62
     0
100
AcDbPoint
 10
3037.066696
 20
1595.576802
 30
0.0
  0
POINT
  5
1C8CDE6B5B0F
100
AcDbEntity
  8
DEFPOINTS
  6
BYBLOCK
 62
     0
100
AcDbPoint
 10
2996.958231
 20
1508.099778
 30
0.0
  0
POINT
  5
1C8CDE6B5B11
100
AcDbEntity
  8
KASOU
  6
BYBLOCK
100
AcDbPoint
 10
2977.255111
 20
1523.768182
 30
0.0
  0
LINE
  5
1C8CDE6B5B13
100
AcDbEntity
  8
HASEN
100
AcDbLine
 10
2752.472016
 20
1508.099778
 30
0.0
 11
2752.472016
 21
1108.099784
 31
0.0
  0
LINE
  5
1C8CDE6B5B14
100
AcDbEntity
  8
HASEN
100
AcDbLine
 10
2660.472076
 20
1508.099778
 30
0.0
 11
2660.472076
 21
1108.099784
 31
0.0
  0
LINE
  5
1C8CDE6B5B15
100
AcDbEntity
  8
HASEN
100
AcDbLine
 10
3087.958231
 20
1508.099778
 30
0.0
 11
3087.958231
 21
1108.099784
 31
0.0
  0
LINE
  5
1C8CDE6B5B17
100
AcDbEntity
  8
HASEN
100
AcDbLine
 10
2995.958231
 20
1475.25735
 30
0.0
 11
2995.958231
 21
1108.099784
 31
0.0
  0
LINE
  5
1C8CDE6B5B19
100
AcDbEntity
  8
KASOU
  6
CONTINUOUS
100
AcDbLine
 10
2971.772312
 20
1520.682719
 30
0.0
 11
2970.984047
 21
1515.073933
 31
0.0
  0
ARC
  5
1C8CDE6B5B1A
100
AcDbEntity
  8
KASOU
  6
CONTINUOUS
100
AcDbCircle
 10
2972.76258
 20
1520.543546
 30
0.0
 40
1.0
100
AcDbArc
 50
92.000105
 51
171.999985
  0
ARC
  5
1C8CDE6B5B1B
100
AcDbEntity
  8
KASOU
  6
CONTINUOUS
100
AcDbCircle
 10
2972.509371
 20
1515.149178
 30
0.0
 40
0.5
100
AcDbArc
 50
172.0
 51
204.00538
  0
ARC
  5
1C8CDE6B5B1C
100
AcDbEntity
  8
KASOU
  6
CONTINUOUS
100
AcDbCircle
 10
2971.479231
 20
1515.00435
 30
0.0
 40
0.5
100
AcDbArc
 50
172.0
 51
204.00538
  0
LINE
  5
1C8CDE6B5B1D
100
AcDbEntity
  8
KASOU
  6
CONTINUOUS
100
AcDbLine
 10
2972.533105
 20
1511.4089
 30
0.0
 11
2971.022485
 21
1514.800944
 31
0.0
  0
LINE
  5
1C8CDE6B5B1E
100
AcDbEntity
  8
KASOU
  6
CONTINUOUS
100
AcDbLine
 10
2972.763347
 20
1509.770915
 30
0.0
 11
2972.528482
 21
1508.099778
 31
0.0
  0
ARC
  5
1C8CDE6B5B20
100
AcDbEntity
  8
KASOU
  6
CONTINUOUS
100
AcDbCircle
 10
2969.792591
 20
1510.188432
 30
0.0
 40
3.0
100
AcDbArc
 50
352.0
 51
24.00538
  0
DIMENSION
  5
1C8CDE6B5B2E
100
AcDbEntity
  8
SUNPOU
100
AcDbDimension
  2
*D5
 10
2758.972036
 20
1707.124473
 30
0.0
 11
2710.242312
 21
1749.277163
 31
0.0
 70
   160
  1
φ<>
  3
SJC
100
AcDbAlignedDimension
 13
2653.972036
 23
1510.099778
 33
0.0
 14
2758.972036
 24
1510.099778
 34
0.0
100
AcDbRotatedDimension
1001
ACAD
1000
DSTYLE
1002
{
1070
   140
1040
3.0
1070
   340
1005
1C8CDE699DA6
1070
    40
1040
10.0
1070
   147
1040
1.2
1070
    42
1040
1.0
1070
    44
1040
1.0
1070
    43
1040
6.0
1070
   271
1070
     2
1070
    41
1040
2.0
1002
}
  0
LINE
  5
1C8CDE6B5B32
100
AcDbEntity
  8
SJC
  6
CONTINUOUS
100
AcDbLine
 10
3094.458231
 20
1510.099778
 30
0.0
 11
2990.95525
 21
1510.099778
 31
0.0
  0
LINE
  5
1C8CDE6B5B33
100
AcDbEntity
  8
SJC
  6
CONTINUOUS
100
AcDbLine
 10
3094.458231
 20
1510.099778
 30
0.0
 11
3094.458231
 21
1508.099778
 31
0.0
  0
LINE
  5
1C8CDE6B5B34
100
AcDbEntity
  8
SJC
  6
CONTINUOUS
100
AcDbLine
 10
2987.038263
 20
1508.099778
 30
0.0
 11
2989.630251
 21
1509.719773
 31
0.0
  0
ARC
  5
1C8CDE6B5B35
100
AcDbEntity
  8
SJC
100
AcDbCircle
 10
2990.95525
 20
1507.599778
 30
0.0
 40
2.5
100
AcDbArc
 50
90.0
 51
122.005423
  0
DIMENSION
  5
1C8CDE6B5B42
100
AcDbEntity
  8
SUNPOU
100
AcDbDimension
  2
*D6
 10
3208.225564
 20
1108.099784
 30
0.0
 11
3181.225564
 21
1308.099781
 31
0.0
 12
-2877.668012
 22
-1261.622129
 32
0.0
 70
    32
  3
SJC
100
AcDbAlignedDimension
 13
3094.458231
 23
1508.099778
 33
0.0
 14
3089.558211
 24
1108.099784
 34
0.0
 50
90.0
100
AcDbRotatedDimension
1001
ACAD
1000
DSTYLE
1002
{
1070
   140
1040
3.0
1070
   340
1005
1C8CDE699DA6
1070
    40
1040
10.0
1070
   147
1040
1.2
1070
    42
1040
1.0
1070
    44
1040
1.0
1070
    43
1040
6.0
1070
   271
1070
     2
1070
    41
1040
2.0
1002
}
  0
LINE
  5
1C8CDE6B5B4E
100
AcDbEntity
  8
MOJI
100
AcDbLine
 10
2675.551291
 20
1581.166601
 30
0.0
 11
2592.977478
 21
1679.781594
 31
0.0
  0
LINE
  5
1C8CDE6B5B4F
100
AcDbEntity
  8
MOJI
100
AcDbLine
 10
2646.032207
 20
1337.608969
 30
0.0
 11
2581.557428
 21
1414.608924
 31
0.0
  0
TEXT
  5
1C8CDE6B5B50
100
AcDbEntity
  8
MOJI
100
AcDbText
 10
2391.839741
 20
1424.608924
 30
0.0
 40
30.0
  1
サヤ管 φ95
 41
0.8
  7
EXT08
 72
     2
 11
2563.725455
 21
1439.608924
 31
0.0
100
AcDbText
 73
     2
  0
LINE
  5
1C8CDE6B5B51
100
AcDbEntity
  8
MOJI
100
AcDbLine
 10
2561.557428
 20
1414.608924
 30
0.0
 11
2339.662736
 21
1414.608924
 31
0.0
  0
CIRCLE
  5
1C8CDE6B5B52
100
AcDbEntity
  8
MOJI
100
AcDbCircle
 10
2360.703238
 20
1443.310928
 30
0.0
 40
24.0
  0
TEXT
  5
1C8CDE6B5B53
100
AcDbEntity
  8
MOJI
100
AcDbText
 10
2348.775443
 20
1427.374227
 30
0.0
 40
30.0
  1
3
 41
0.8
  7
EXT08
 72
     2
 11
2368.204015
 21
1442.374227
 31
0.0
100
AcDbText
 73
     2
  0
LINE
  5
1C8CDE6B5B54
100
AcDbEntity
  8
MOJI
100
AcDbLine
 10
2581.557428
 20
1414.608924
 30
0.0
 11
2561.557428
 21
1414.608924
 31
0.0
  0
LINE
  5
1C8CDE6B5B55
100
AcDbEntity
  8
MOJI
100
AcDbLine
 10
2572.977478
 20
1679.781594
 30
0.0
 11
2377.466045
 21
1679.781594
 31
0.0
  0
TEXT
  5
1C8CDE6B5B56
100
AcDbEntity
  8
MOJI
100
AcDbText
 10
2433.028473
 20
1689.781594
 30
0.0
 40
30.0
  1
サヤ管フタ
 41
0.8
  7
EXT08
 72
     2
 11
2567.428473
 21
1704.781594
 31
0.0
100
AcDbText
 73
     2
  0
CIRCLE
  5
1C8CDE6B5B57
100
AcDbEntity
  8
MOJI
100
AcDbCircle
 10
2403.173354
 20
1708.483598
 30
0.0
 40
24.0
  0
TEXT
  5
1C8CDE6B5B58
100
AcDbEntity
  8
MOJI
100
AcDbText
 10
2390.102702
 20
1692.546897
 30
0.0
 40
30.0
  1
4
 41
0.8
  7
EXT08
 72
     2
 11
2410.674131
 21
1707.546897
 31
0.0
100
AcDbText
 73
     2
  0
LINE
  5
1C8CDE6B5B59
100
AcDbEntity
  8
MOJI
100
AcDbLine
 10
2592.977478
 20
1679.781594
 30
0.0
 11
2572.977478
 21
1679.781594
 31
0.0
  0
SOLID
  5
1C8CDE6B5B5A
100
AcDbEntity
  8
MOJI
100
AcDbTrace
 10
2648.587908
 20
1339.748948
 30
0.0
 11
2643.476507
 21
1335.468991
 31
0.0
 12
2658.872076
 22
1322.274767
 32
0.0
 13
2658.872076
 23
1322.274767
 33
0.0
  0
SOLID
  5
1C8CDE6B5B5B
100
AcDbEntity
  8
MOJI
100
AcDbTrace
 10
2665.267123
 20
1598.640782
 30
0.0
 11
2660.155722
 21
1594.360825
 31
0.0
 12
2675.551291
 22
1581.166601
 32
0.0
 13
2675.551291
 23
1581.166601
 33
0.0
  0
ARC
  5
1C8CDE6B5B67
100
AcDbEntity
  8
SJC2
  6
CONTINUOUS
100
AcDbCircle
 10
2706.472036
 20
1565.099718
 30
0.0
 40
42.82
100
AcDbArc
 50
275.36006
 51
264.63995
  0
CIRCLE
  5
1C8CDE6B5B68
100
AcDbEntity
  8
SJC2
  6
CONTINUOUS
100
AcDbCircle
 10
2706.472036
 20
1565.099718
 30
0.0
 40
41.939998
  0
LINE
  5
1C8CDE6B5B6A
100
AcDbEntity
  8
SJC2
  6
CONTINUOUS
100
AcDbLine
 10
2702.472036
 20
1523.350878
 30
0.0
 11
2702.472036
 21
1510.099778
 31
0.0
  0
LINE
  5
1C8CDE6B5B6B
100
AcDbEntity
  8
SJC2
  6
CONTINUOUS
100
AcDbLine
 10
2710.472036
 20
1523.350878
 30
0.0
 11
2710.472036
 21
1510.099778
 31
0.0
  0
DIMENSION
  5
1C8CDE6B5B78
100
AcDbEntity
  8
SUNPOU
100
AcDbDimension
  2
*D7
 10
2756.472036
 20
1036.366023
 30
0.0
 11
2706.472036
 21
985.50888
 31
0.0
 70
    32
  1
φ<>(底板径)
  3
SJC
100
AcDbAlignedDimension
 13
2656.472036
 23
1106.499778
 33
0.0
 14
2756.472036
 24
1106.499778
 34
0.0
100
AcDbRotatedDimension
1001
ACAD
1000
DSTYLE
1002
{
1070
   140
1040
3.0
1070
   340
1005
1C8CDE699DA6
1070
    40
1040
10.0
1070
   147
1040
1.2
1070
    42
1040
1.0
1070
    44
1040
1.0
1070
    43
1040
6.0
1070
   271
1070
     2
1070
    41
1040
2.0
1002
}
  0
DIMENSION
  5
1C8CDE6B5BE8
100
AcDbEntity
  8
SUNPOU
100
AcDbDimension
  2
*D8
 10
3094.458231
 20
1707.124473
 30
0.0
 11
3031.285228
 21
1719.492844
 31
0.0
 70
   160
  3
SJC
100
AcDbAlignedDimension
 13
2962.958231
 23
1505.599778
 33
0.0
 14
3094.458231
 24
1510.099778
 34
0.0
100
AcDbRotatedDimension
1001
ACAD
1000
DSTYLE
1002
{
1070
   140
1040
3.0
1070
   340
1005
1C8CDE699DA6
1070
    40
1040
10.0
1070
   147
1040
1.2
1070
    42
1040
1.0
1070
    44
1040
1.0
1070
    43
1040
6.0
1070
   271
1070
     0
1070
    41
1040
2.0
1002
}
  0
TEXT
  5
1C8CDE6B5C62
100
AcDbEntity
  8
MOJI
100
AcDbText
 10
257.948314
 20
1149.507172
 30
0.0
 40
30.0
  1
5
 41
0.8
  7
EXT08
 72
     2
 11
277.376886
 21
1164.507172
 31
0.0
100
AcDbText
 73
     2
  0
CIRCLE
  5
1C8CDE6B5C63
100
AcDbEntity
  8
MOJI
100
AcDbCircle
 10
269.876109
 20
1165.443873
 30
0.0
 40
24.0
  0
LINE
  5
1C8CDE6B5C64
100
AcDbEntity
  8
MOJI
100
AcDbLine
 10
602.117537
 20
1136.741868
 30
0.0
 11
237.999532
 21
1136.741868
 31
0.0
  0
TEXT
  5
1C8CDE6B5C65
100
AcDbEntity
  8
MOJI
100
AcDbText
 10
303.256993
 20
1146.741868
 30
0.0
 40
30.0
  1
ロックピン (南京錠付)
 41
0.8
  7
EXT08
 72
     2
 11
604.285564
 21
1161.741868
 31
0.0
100
AcDbText
 73
     2
  0
LINE
  5
1C8CDE6B5C66
100
AcDbEntity
  8
MOJI
100
AcDbLine
 10
686.592316
 20
1059.741914
 30
0.0
 11
622.117537
 21
1136.741868
 31
0.0
  0
SOLID
  5
1C8CDE6B5C67
100
AcDbEntity
  8
MOJI
100
AcDbTrace
 10
689.148017
 20
1061.881892
 30
0.0
 11
684.036616
 21
1057.601935
 31
0.0
 12
699.432185
 22
1044.407711
 32
0.0
 13
699.432185
 23
1044.407711
 33
0.0
  0
LINE
  5
1C8CDE6B5C68
100
AcDbEntity
  8
MOJI
100
AcDbLine
 10
622.117537
 20
1136.741868
 30
0.0
 11
602.117537
 21
1136.741868
 31
0.0
  0
LINE
  5
1C8CDE6B5CEC
100
AcDbEntity
  8
MOJI
100
AcDbLine
 10
2435.111133
 20
455.630715
 30
0.0
 11
3430.978593
 21
455.630715
 31
0.0
  0
LINE
  5
1C8CDE6B5CED
100
AcDbEntity
  8
MOJI
100
AcDbLine
 10
2435.111133
 20
395.630715
 30
0.0
 11
3430.978593
 21
395.630715
 31
0.0
  0
LINE
  5
1C8CDE6B5CEE
100
AcDbEntity
  8
MOJI
100
AcDbLine
 10
2435.111133
 20
335.630715
 30
0.0
 11
3430.978593
 21
335.630715
 31
0.0
  0
TEXT
  5
1C8CDE6B5CF0
100
AcDbEntity
  8
MOJI
100
AcDbText
 10
2462.341773
 20
410.666607
 30
0.0
 40
30.0
  1
3
 41
0.8
  7
EXT08
 72
     1
 11
2473.770344
 21
410.666607
 31
0.0
100
AcDbText
  0
TEXT
  5
1C8CDE6B5CF1
100
AcDbEntity
  8
MOJI
100
AcDbText
 10
2555.506741
 20
410.666607
 30
0.0
 40
30.0
  1
サヤ管
 41
0.8
  7
EXT08
 72
     1
 11
2597.106741
 21
410.666607
 31
0.0
100
AcDbText
  0
TEXT
  5
1C8CDE6B5CF2
100
AcDbEntity
  8
MOJI
100
AcDbText
 10
2776.689575
 20
410.666607
 30
0.0
 40
30.0
  1
SPCC
 41
0.8
  7
EXT08
 72
     1
 11
2824.118146
 21
410.666607
 31
0.0
100
AcDbText
  0
TEXT
  5
1C8CDE6B5CF3
100
AcDbEntity
  8
MOJI
100
AcDbText
 10
3100.195309
 20
410.666607
 30
0.0
 40
30.0
  1
溶融亜鉛めっき
 41
0.8
  7
EXT08
 72
     1
 11
3196.195309
 21
410.666607
 31
0.0
100
AcDbText
  0
TEXT
  5
1C8CDE6B5CF4
100
AcDbEntity
  8
MOJI
100
AcDbText
 10
2461.770344
 20
350.666607
 30
0.0
 40
30.0
  1
4
 41
0.8
  7
EXT08
 72
     1
 11
2473.770344
 21
350.666607
 31
0.0
100
AcDbText
  0
TEXT
  5
1C8CDE6B5CF5
100
AcDbEntity
  8
MOJI
100
AcDbText
 10
2528.306741
 20
350.666607
 30
0.0
 40
30.0
  1
サヤ管フタ
 41
0.8
  7
EXT08
 72
     1
 11
2597.106741
 21
350.666607
 31
0.0
100
AcDbText
  0
TEXT
  5
1C8CDE6B5CF6
100
AcDbEntity
  8
MOJI
100
AcDbText
 10
2788.689575
 20
350.666607
 30
0.0
 40
30.0
  1
SUS
 41
0.8
  7
EXT08
 72
     1
 11
2824.118146
 21
350.666607
 31
0.0
100
AcDbText
  0
TEXT
  5
1C8CDE6B5CF8
100
AcDbEntity
  8
MOJI
100
AcDbText
 10
2462.341773
 20
290.666607
 30
0.0
 40
30.0
  1
5
 41
0.8
  7
EXT08
 72
     1
 11
2473.770344
 21
290.666607
 31
0.0
100
AcDbText
  0
TEXT
  5
1C8CDE6B5CF9
100
AcDbEntity
  8
MOJI
100
AcDbText
 10
2528.306741
 20
290.666607
 30
0.0
 40
30.0
  1
ロックピン
 41
0.8
  7
EXT08
 72
     1
 11
2597.106741
 21
290.666607
 31
0.0
100
AcDbText
  0
TEXT
  5
1C8CDE6B5CFA
100
AcDbEntity
  8
MOJI
100
AcDbText
 10
2788.689575
 20
290.666607
 30
0.0
 40
30.0
  1
SUS
 41
0.8
  7
EXT08
 72
     1
 11
2824.118146
 21
290.666607
 31
0.0
100
AcDbText
  0
TEXT
  5
1C8CDE6B5CFB
100
AcDbEntity
  8
MOJI
100
AcDbText
 10
2975.62388
 20
290.666607
 30
0.0
 40
30.0
  1
φ12×115・南京錠 25m/m
 41
0.8
  7
EXT08
 72
     1
 11
3196.195309
 21
290.666607
 31
0.0
100
AcDbText
  0
TEXT
  5
1C8CDE6B5D12
100
AcDbEntity
  8
MOJI
100
AcDbText
 10
341.748332
 20
1092.381581
 30
0.0
 40
30.0
  1
(φ14貫通穴)
 41
0.8
  7
EXT08
 72
     2
 11
530.091189
 21
1107.381581
 31
0.0
100
AcDbText
 73
     2
  0
DIMENSION
  5
1C8CDE6B5D1F
100
AcDbEntity
  8
SUNPOU
100
AcDbDimension
  2
*D9
 10
1007.446158
 20
1038.407711
 30
0.0
 11
975.413033
 21
1000.907711
 31
0.0
 70
   160
  3
SJC
100
AcDbAlignedDimension
 13
910.404622
 23
963.407711
 33
0.0
 14
835.052476
 24
1038.407711
 34
0.0
 50
90.0
100
AcDbRotatedDimension
1001
ACAD
1000
DSTYLE
1002
{
1070
   140
1040
3.0
1070
   340
1005
1C8CDE699DA6
1070
    40
1040
10.0
1070
   147
1040
1.2
1070
    42
1040
1.0
1070
    44
1040
1.0
1070
    43
1040
6.0
1070
   271
1070
     0
1070
    41
1040
2.0
1002
}
  0
TEXT
  5
1C8CDE6B6082
100
AcDbEntity
  8
MOJI
100
AcDbText
 10
2776.118146
 20
530.666607
 30
0.0
 40
30.0
  1
SGHC
 41
0.8
  7
EXT08
 72
     1
 11
2824.118146
 21
530.666607
 31
0.0
100
AcDbText
  0
TEXT
  5
1C8CDE6B6083
100
AcDbEntity
  8
MOJI
100
AcDbText
 10
3026.595309
 20
530.666607
 30
0.0
 40
30.0
  1
亜鉛めっき＋静電粉体塗装
 41
0.8
  7
EXT08
 72
     1
 11
3196.195309
 21
530.666607
 31
0.0
100
AcDbText
  0
LINE
  5
1C8CDE6B608B
100
AcDbEntity
  8
SJC
100
AcDbLine
 10
717.853769
 20
1763.407711
 30
0.0
 11
717.853769
 21
1643.411813
 31
0.0
1001
ACAD
1000
ASC_BOUNDS
1002
{
1070
    19
1002
}
  0
LINE
  5
1C8CDE6B608C
100
AcDbEntity
  8
SJC
100
AcDbLine
 10
802.953769
 20
1763.407711
 30
0.0
 11
802.953769
 21
1643.411813
 31
0.0
1001
ACAD
1000
ASC_BOUNDS
1002
{
1070
    19
1002
}
  0
INSERT
  5
1C8CDE6B608D
100
AcDbEntity
  8
HATCH
100
AcDbBlockReference
  2
*X10
 10
-964.118445
 20
-115.147256
 30
0.0
1001
ACAD
1000
HATCH
1002
{
1070
    19
1000
ANSI31
1040
2.0
1040
0.0
1002
}
  0
LINE
  5
1C8CDE6B608E
100
AcDbEntity
  8
SJC
100
AcDbLine
 10
802.953773
 20
1643.407711
 30
0.0
 11
717.853765
 21
1643.407711
 31
0.0
1001
ACAD
1000
ASC_BOUNDS
1002
{
1070
    19
1005
0
1005
0
1005
0
1005
0
1005
0
1005
0
1005
0
1005
0
1002
}
  0
ARC
  5
1C8CDE6B608F
100
AcDbEntity
  8
SJC
100
AcDbCircle
 10
717.853769
 20
1639.947711
 30
0.0
 40
2.0
100
AcDbArc
 50
120.0
 51
180.0
1001
ACAD
1000
ASC_BOUNDS
1002
{
1070
    19
1002
}
  0
ARC
  5
1C8CDE6B6090
100
AcDbEntity
  8
SJC
100
AcDbCircle
 10
715.853769
 20
1643.411813
 30
0.0
 40
2.0
100
AcDbArc
 50
300.0
 51
0.0
1001
ACAD
1000
ASC_BOUNDS
1002
{
1070
    19
1002
}
  0
ARC
  5
1C8CDE6B6091
100
AcDbEntity
  8
SJC
100
AcDbCircle
 10
802.953769
 20
1639.947711
 30
0.0
 40
2.0
100
AcDbArc
 50
360.0
 51
60.0
1001
ACAD
1000
ASC_BOUNDS
1002
{
1070
    19
1002
}
  0
ARC
  5
1C8CDE6B6092
100
AcDbEntity
  8
SJC
100
AcDbCircle
 10
804.953769
 20
1643.411813
 30
0.0
 40
2.0
100
AcDbArc
 50
180.0
 51
240.0
1001
ACAD
1000
ASC_BOUNDS
1002
{
1070
    19
1002
}
  0
LINE
  5
1C8CDE6B6095
100
AcDbEntity
  8
SJC
100
AcDbLine
 10
805.503769
 20
1818.307711
 30
0.0
 11
805.503769
 21
1764.407711
 31
0.0
  0
LINE
  5
1C8CDE6B6096
100
AcDbEntity
  8
SJC
100
AcDbLine
 10
715.303769
 20
1818.307711
 30
0.0
 11
715.303769
 21
1764.407711
 31
0.0
  0
LINE
  5
1C8CDE6B6097
100
AcDbEntity
  8
SJC
100
AcDbLine
 10
804.503769
 20
1763.407711
 30
0.0
 11
716.303769
 21
1763.407711
 31
0.0
1001
ACAD
1000
ASC_BOUNDS
1002
{
1070
    19
1005
0
1005
0
1005
0
1005
0
1005
0
1005
0
1005
0
1005
0
1002
}
  0
LINE
  5
1C8CDE6B6098
100
AcDbEntity
  8
SJC
100
AcDbLine
 10
715.303769
 20
1764.407711
 30
0.0
 11
716.303769
 21
1763.407711
 31
0.0
  0
LINE
  5
1C8CDE6B6099
100
AcDbEntity
  8
SJC
100
AcDbLine
 10
805.503769
 20
1764.407711
 30
0.0
 11
804.503769
 21
1763.407711
 31
0.0
  0
ARC
  5
1C8CDE6B609A
100
AcDbEntity
  8
SJC
100
AcDbCircle
 10
760.403769
 20
1818.307711
 30
0.0
 40
45.1
100
AcDbArc
 50
0.0
 51
180.0
  0
LINE
  5
1C8CDE6B609B
100
AcDbEntity
  8
SJC
100
AcDbLine
 10
804.953769
 20
1639.947711
 30
0.0
 11
804.953769
 21
963.407711
 31
0.0
1001
ACAD
1000
ASC_BOUNDS
1002
{
1070
    19
1002
}
  0
LINE
  5
1C8CDE6B609C
100
AcDbEntity
  8
SJC
100
AcDbLine
 10
715.853769
 20
1639.947711
 30
0.0
 11
715.853769
 21
963.407711
 31
0.0
1001
ACAD
1000
ASC_BOUNDS
1002
{
1070
    19
1002
}
  0
INSERT
  5
1C8CDE6B609E
100
AcDbEntity
  8
HATCH
100
AcDbBlockReference
  2
*X10
 10
-55.92402
 20
-115.147256
 30
0.0
1001
ACAD
1000
HATCH
1002
{
1070
    19
1000
ANSI31
1040
2.0
1040
0.0
1002
}
  0
LINE
  5
1C8CDE6B609F
100
AcDbEntity
  8
SJC
100
AcDbLine
 10
1711.148199
 20
1643.407711
 30
0.0
 11
1626.048191
 21
1643.407711
 31
0.0
1001
ACAD
1000
ASC_BOUNDS
1002
{
1070
    19
1005
0
1005
0
1005
0
1005
0
1005
0
1005
0
1005
0
1005
0
1002
}
  0
LINE
  5
1C8CDE6B60A0
100
AcDbEntity
  8
SJC
100
AcDbLine
 10
1712.698195
 20
1763.407711
 30
0.0
 11
1624.498195
 21
1763.407711
 31
0.0
1001
ACAD
1000
ASC_BOUNDS
1002
{
1070
    19
1005
0
1005
0
1005
0
1005
0
1005
0
1005
0
1005
0
1005
0
1002
}
  0
ARC
  5
1C8CDE6B60A1
100
AcDbEntity
  8
SJC
100
AcDbCircle
 10
1668.598195
 20
1818.307711
 30
0.0
 40
45.1
100
AcDbArc
 50
0.0
 51
180.0
  0
LINE
  5
1C8CDE6B60A2
100
AcDbEntity
  8
SJC
100
AcDbLine
 10
1626.048195
 20
1763.407711
 30
0.0
 11
1626.048195
 21
1643.411813
 31
0.0
1001
ACAD
1000
ASC_BOUNDS
1002
{
1070
    19
1002
}
  0
ARC
  5
1C8CDE6B60A3
100
AcDbEntity
  8
SJC
100
AcDbCircle
 10
1626.048195
 20
1639.947711
 30
0.0
 40
2.0
100
AcDbArc
 50
120.0
 51
180.0
1001
ACAD
1000
ASC_BOUNDS
1002
{
1070
    19
1002
}
  0
ARC
  5
1C8CDE6B60A4
100
AcDbEntity
  8
SJC
100
AcDbCircle
 10
1624.048195
 20
1643.411813
 30
0.0
 40
2.0
100
AcDbArc
 50
300.0
 51
0.0
1001
ACAD
1000
ASC_BOUNDS
1002
{
1070
    19
1002
}
  0
LINE
  5
1C8CDE6B60A5
100
AcDbEntity
  8
SJC
100
AcDbLine
 10
1623.498195
 20
1818.307711
 30
0.0
 11
1623.498195
 21
1764.407711
 31
0.0
  0
LINE
  5
1C8CDE6B60A6
100
AcDbEntity
  8
SJC
100
AcDbLine
 10
1623.498195
 20
1764.407711
 30
0.0
 11
1624.498195
 21
1763.407711
 31
0.0
  0
LINE
  5
1C8CDE6B60A7
100
AcDbEntity
  8
SJC
100
AcDbLine
 10
1711.148195
 20
1763.407711
 30
0.0
 11
1711.148195
 21
1643.411813
 31
0.0
1001
ACAD
1000
ASC_BOUNDS
1002
{
1070
    19
1002
}
  0
ARC
  5
1C8CDE6B60A8
100
AcDbEntity
  8
SJC
100
AcDbCircle
 10
1711.148195
 20
1639.947711
 30
0.0
 40
2.0
100
AcDbArc
 50
360.0
 51
60.0
1001
ACAD
1000
ASC_BOUNDS
1002
{
1070
    19
1002
}
  0
ARC
  5
1C8CDE6B60A9
100
AcDbEntity
  8
SJC
100
AcDbCircle
 10
1713.148195
 20
1643.411813
 30
0.0
 40
2.0
100
AcDbArc
 50
180.0
 51
240.0
1001
ACAD
1000
ASC_BOUNDS
1002
{
1070
    19
1002
}
  0
LINE
  5
1C8CDE6B60AA
100
AcDbEntity
  8
SJC
100
AcDbLine
 10
1713.698195
 20
1818.307711
 30
0.0
 11
1713.698195
 21
1764.407711
 31
0.0
  0
LINE
  5
1C8CDE6B60AB
100
AcDbEntity
  8
SJC
100
AcDbLine
 10
1713.698195
 20
1764.407711
 30
0.0
 11
1712.698195
 21
1763.407711
 31
0.0
  0
LINE
  5
1C8CDE6B60AC
100
AcDbEntity
  8
SJC
100
AcDbLine
 10
1713.148195
 20
1639.947711
 30
0.0
 11
1713.148195
 21
1045.163212
 31
0.0
1001
ACAD
1000
ASC_BOUNDS
1002
{
1070
    19
1002
}
  0
LINE
  5
1C8CDE6B60AD
100
AcDbEntity
  8
SJC
100
AcDbLine
 10
1624.048195
 20
1639.947711
 30
0.0
 11
1624.048195
 21
1045.163029
 31
0.0
1001
ACAD
1000
ASC_BOUNDS
1002
{
1070
    19
1002
}
  0
LINE
  5
1C8CDE6B60AE
100
AcDbEntity
  8
SJC
100
AcDbLine
 10
1624.048195
 20
990.95696
 30
0.0
 11
1624.048195
 21
963.407711
 31
0.0
1001
ACAD
1000
ASC_BOUNDS
1002
{
1070
    19
1002
}
  0
LINE
  5
1C8CDE6B60AF
100
AcDbEntity
  8
SJC
100
AcDbLine
 10
1713.148195
 20
990.956776
 30
0.0
 11
1713.148195
 21
963.407711
 31
0.0
1001
ACAD
1000
ASC_BOUNDS
1002
{
1070
    19
1002
}
  0
DIMENSION
  5
1C8CDE6B60CC
100
AcDbEntity
  8
SUNPOU
100
AcDbDimension
  2
*D11
 10
1193.731273
 20
963.407711
 30
0.0
 11
1166.731273
 21
1413.407711
 31
0.0
 70
    32
  3
SJC
100
AcDbAlignedDimension
 13
760.403751
 23
1863.407711
 33
0.0
 14
1045.525429
 24
963.407711
 34
0.0
 50
90.0
100
AcDbRotatedDimension
1001
ACAD
1000
DSTYLE
1002
{
1070
   140
1040
3.0
1070
   340
1005
1C8CDE699DA6
1070
    40
1040
10.0
1070
   147
1040
1.2
1070
    42
1040
1.0
1070
    44
1040
1.0
1070
    43
1040
6.0
1070
   271
1070
     0
1070
    41
1040
2.0
1002
}
  0
DIMENSION
  5
1C8CDE6B60D9
100
AcDbEntity
  8
SUNPOU
100
AcDbDimension
  2
*D12
 10
1320.624461
 20
563.407711
 30
0.0
 11
1293.624461
 21
1213.407711
 31
0.0
 70
    32
  3
SJC
100
AcDbAlignedDimension
 13
760.403751
 23
1863.407711
 33
0.0
 14
960.404622
 24
563.407711
 34
0.0
 50
90.0
100
AcDbRotatedDimension
1001
ACAD
1000
DSTYLE
1002
{
1070
   140
1040
3.0
1070
   340
1005
1C8CDE699DA6
1070
    40
1040
10.0
1070
   147
1040
1.2
1070
    42
1040
1.0
1070
    44
1040
1.0
1070
    43
1040
6.0
1070
   271
1070
     0
1070
    41
1040
2.0
1002
}
  0
TEXT
  5
1C8CDE6B60DA
100
AcDbEntity
  8
MOJI2
100
AcDbText
 10
579.070418
 20
2356.333313
 30
0.0
 40
40.0
  1
CK-89HR-90D
 41
0.8
  7
EXT08
 72
     1
 11
760.403751
 21
2356.333313
 31
0.0
100
AcDbText
  0
LINE
  5
1C8CDE6B60DB
100
AcDbEntity
  8
MOJI2
100
AcDbLine
 10
580.068489
 20
2345.497577
 30
0.0
 11
940.070913
 21
2345.497577
 31
0.0
  0
LINE
  5
1C8CDE6B60DC
100
AcDbEntity
  8
MOJI2
100
AcDbLine
 10
580.105182
 20
2335.497577
 30
0.0
 11
940.107605
 21
2335.497577
 31
0.0
  0
LINE
  5
1C8CDE6B60FE
100
AcDbEntity
  8
MOJI
100
AcDbLine
 10
697.909711
 20
1836.132207
 30
0.0
 11
630.3979
 21
1880.987625
 31
0.0
  0
LINE
  5
1C8CDE6B60FF
100
AcDbEntity
  8
MOJI
100
AcDbLine
 10
699.97802
 20
1700.579227
 30
0.0
 11
632.466209
 21
1745.434645
 31
0.0
  0
TEXT
  5
1C8CDE6B6100
100
AcDbEntity
  8
MOJI
100
AcDbText
 10
452.319202
 20
1706.578413
 30
0.0
 40
30.0
  1
高輝度（赤色）
 41
0.8
  7
EXT08
 72
     2
 11
633.119202
 21
1721.578413
 31
0.0
100
AcDbText
 73
     2
  0
LINE
  5
1C8CDE6B6101
100
AcDbEntity
  8
MOJI
100
AcDbLine
 10
610.3979
 20
1880.987625
 30
0.0
 11
387.23846
 21
1880.987625
 31
0.0
  0
TEXT
  5
1C8CDE6B6102
100
AcDbEntity
  8
MOJI
100
AcDbText
 10
450.14562
 20
1890.987625
 30
0.0
 40
30.0
  1
頭部キャップ
 41
0.8
  7
EXT08
 72
     2
 11
616.202763
 21
1905.987625
 31
0.0
100
AcDbText
 73
     2
  0
LINE
  5
1C8CDE6B6103
100
AcDbEntity
  8
MOJI
100
AcDbLine
 10
612.466209
 20
1745.434645
 30
0.0
 11
447.748814
 21
1745.434645
 31
0.0
  0
TEXT
  5
1C8CDE6B6104
100
AcDbEntity
  8
MOJI
100
AcDbText
 10
473.62935
 20
1755.434645
 30
0.0
 40
30.0
  1
反射シート
 41
0.8
  7
EXT08
 72
     2
 11
606.42935
 21
1770.434645
 31
0.0
100
AcDbText
 73
     2
  0
CIRCLE
  5
1C8CDE6B6105
100
AcDbEntity
  8
MOJI
100
AcDbCircle
 10
415.818135
 20
1908.107812
 30
0.0
 40
24.0
  0
TEXT
  5
1C8CDE6B6106
100
AcDbEntity
  8
MOJI
100
AcDbText
 10
404.78045
 20
1894.229873
 30
0.0
 40
30.0
  1
1
 41
0.8
  7
EXT08
 72
     2
 11
417.351878
 21
1909.229873
 31
0.0
100
AcDbText
 73
     2
  0
LINE
  5
1C8CDE6B6107
100
AcDbEntity
  8
MOJI
100
AcDbLine
 10
632.466209
 20
1745.434645
 30
0.0
 11
612.466209
 21
1745.434645
 31
0.0
  0
LINE
  5
1C8CDE6B6108
100
AcDbEntity
  8
MOJI
100
AcDbLine
 10
630.3979
 20
1880.987625
 30
0.0
 11
610.3979
 21
1880.987625
 31
0.0
  0
SOLID
  5
1C8CDE6B6109
100
AcDbEntity
  8
MOJI
100
AcDbTrace
 10
699.473325
 20
1839.076052
 30
0.0
 11
696.346097
 21
1833.188362
 31
0.0
 12
715.572779
 22
1826.750522
 32
0.0
 13
715.572779
 23
1826.750522
 33
0.0
  0
SOLID
  5
1C8CDE6B610A
100
AcDbEntity
  8
MOJI
100
AcDbTrace
 10
701.541634
 20
1703.523072
 30
0.0
 11
698.414406
 21
1697.635382
 31
0.0
 12
717.641088
 22
1691.197542
 32
0.0
 13
717.641088
 23
1691.197542
 33
0.0
  0
TEXT
  5
1C8CDE6B610B
100
AcDbEntity
  8
MOJI
100
AcDbText
 10
302.169169
 20
1286.935332
 30
0.0
 40
30.0
  1
支柱φ89.1×t3.2
 41
0.8
  7
EXT08
100
AcDbText
  0
LINE
  5
1C8CDE6B610C
100
AcDbEntity
  8
MOJI
  6
CONTINUOUS
100
AcDbLine
 10
251.859295
 20
1275.49285
 30
0.0
 11
604.024491
 21
1275.49285
 31
0.0
  0
CIRCLE
  5
1C8CDE6B610D
100
AcDbEntity
  8
MOJI
100
AcDbCircle
 10
272.26598
 20
1305.910443
 30
0.0
 40
24.0
  0
TEXT
  5
1C8CDE6B610E
100
AcDbEntity
  8
MOJI
100
AcDbText
 10
258.827005
 20
1289.973742
 30
0.0
 40
30.0
  1
2
 41
0.8
  7
EXT08
 72
     2
 11
278.255576
 21
1304.973742
 31
0.0
100
AcDbText
 73
     2
  0
LINE
  5
1C8CDE6B610F
100
AcDbEntity
  8
MOJI
  6
CONTINUOUS
100
AcDbLine
 10
699.626023
 20
1358.051264
 30
0.0
 11
604.625649
 21
1275.49285
 31
0.0
  0
SOLID
  5
1C8CDE6B6110
100
AcDbEntity
  8
MOJI
  6
CONTINUOUS
100
AcDbTrace
 10
701.211364
 20
1355.535249
 30
0.0
 11
696.838366
 21
1360.567279
 31
0.0
 12
714.120957
 22
1371.170259
 32
0.0
 13
714.120957
 23
1371.170259
 33
0.0
  0
DIMENSION
  5
1C8CDE6B6128
100
AcDbEntity
  8
SUNPOU
100
AcDbDimension
  2
*D13
 10
1007.446158
 20
1763.407711
 30
0.0
 11
976.342699
 21
1813.984264
 31
0.0
 70
   160
  3
SJC
100
AcDbAlignedDimension
 13
760.403751
 23
1863.407711
 33
0.0
 14
802.953769
 24
1763.407711
 34
0.0
 50
90.0
100
AcDbRotatedDimension
1001
ACAD
1000
DSTYLE
1002
{
1070
   140
1040
3.0
1070
   340
1005
1C8CDE699DA6
1070
    40
1040
10.0
1070
   147
1040
1.2
1070
    42
1040
1.0
1070
    44
1040
1.0
1070
    43
1040
6.0
1070
   271
1070
     0
1070
    41
1040
2.0
1002
}
  0
DIMENSION
  5
1C8CDE6B6135
100
AcDbEntity
  8
SUNPOU
100
AcDbDimension
  2
*D14
 10
1007.446158
 20
1643.411813
 30
0.0
 11
974.351517
 21
1704.411154
 31
0.0
 70
   160
  3
SJC
100
AcDbAlignedDimension
 13
804.503769
 23
1763.407711
 33
0.0
 14
802.953769
 24
1643.411813
 34
0.0
 50
90.0
100
AcDbRotatedDimension
1001
ACAD
1000
DSTYLE
1002
{
1070
   140
1040
3.0
1070
   340
1005
1C8CDE699DA6
1070
    40
1040
10.0
1070
   147
1040
1.2
1070
    42
1040
1.0
1070
    44
1040
1.0
1070
    43
1040
6.0
1070
   271
1070
     0
1070
    41
1040
2.0
1002
}
  0
CIRCLE
  5
1C8CDE6B61A7
100
AcDbEntity
  8
SJC
100
AcDbCircle
 10
760.403751
 20
2148.497988
 30
0.0
 40
45.1
  0
POINT
  5
1C8CDE6B61A9
100
AcDbEntity
  8
DEFPOINTS
  6
BYBLOCK
 62
     0
100
AcDbPoint
 10
760.403751
 20
2148.497988
 30
0.0
  0
ENDSEC
  0
SECTION
  2
OBJECTS
  0
DICTIONARY
  5
1C8CDE699D47
100
AcDbDictionary
  3
ACAD_GROUP
350
1C8CDE699D48
  3
ACAD_MLINESTYLE
350
1C8CDE699D49
  0
DICTIONARY
  5
1C8CDE699D48
102
{ACAD_REACTORS
330
1C8CDE699D47
102
}
100
AcDbDictionary
  0
DICTIONARY
  5
1C8CDE699D49
102
{ACAD_REACTORS
330
1C8CDE699D47
102
}
100
AcDbDictionary
  3
STANDARD
350
1C8CDE699D56
  0
MLINESTYLE
  5
1C8CDE699D56
102
{ACAD_REACTORS
330
1C8CDE699D49
102
}
100
AcDbMlineStyle
  2
STANDARD
 70
     0
  3

 62
     0
 51
90.0
 52
90.0
 71
     2
 49
0.5
 62
   256
  6
BYLAYER
 49
-0.5
 62
   256
  6
BYLAYER
  0
ENDSEC
  0
EOF
