  0
SECTION
  2
HEADER
  9
$ACADVER
  1
AC1012
  9
$DWGCODEPAGE
  3
dos932
  9
$INSBASE
 10
0.0
 20
0.0
 30
0.0
  9
$EXTMIN
 10
0.0
 20
0.0
 30
0.0
  9
$EXTMAX
 10
3700.0
 20
2670.0
 30
0.0
  9
$LIMMIN
 10
0.0
 20
0.0
  9
$LIMMAX
 10
4200.0
 20
2970.0
  9
$ORTHOMODE
 70
     1
  9
$REGENMODE
 70
     1
  9
$FILLMODE
 70
     1
  9
$QTEXTMODE
 70
     0
  9
$MIRRTEXT
 70
     0
  9
$DRAGMODE
 70
     2
  9
$LTSCALE
 40
100.0
  9
$OSMODE
 70
     0
  9
$ATTMODE
 70
     1
  9
$TEXTSIZE
 40
30.0
  9
$TRACEWID
 40
0.05
  9
$TEXTSTYLE
  7
EXT08
  9
$CLAYER
  8
SJC
  9
$CELTYPE
  6
BYLAYER
  9
$CECOLOR
 62
   256
  9
$CELTSCALE
 40
1.0
  9
$DELOBJ
 70
     1
  9
$DISPSILH
 70
     0
  9
$DIMSCALE
 40
10.0
  9
$DIMASZ
 40
2.0
  9
$DIMEXO
 40
1.0
  9
$DIMDLI
 40
6.0
  9
$DIMRND
 40
0.0
  9
$DIMDLE
 40
0.0
  9
$DIMEXE
 40
1.0
  9
$DIMTP
 40
0.0
  9
$DIMTM
 40
0.0
  9
$DIMTXT
 40
3.0
  9
$DIMCEN
 40
0.1
  9
$DIMTSZ
 40
0.0
  9
$DIMTOL
 70
     0
  9
$DIMLIM
 70
     0
  9
$DIMTIH
 70
     0
  9
$DIMTOH
 70
     0
  9
$DIMSE1
 70
     0
  9
$DIMSE2
 70
     0
  9
$DIMTAD
 70
     1
  9
$DIMZIN
 70
     8
  9
$DIMBLK
  1

  9
$DIMASO
 70
     1
  9
$DIMSHO
 70
     1
  9
$DIMPOST
  1

  9
$DIMAPOST
  1

  9
$DIMALT
 70
     0
  9
$DIMALTD
 70
     2
  9
$DIMALTF
 40
25.4
  9
$DIMLFAC
 40
1.0
  9
$DIMTOFL
 70
     1
  9
$DIMTVP
 40
0.0
  9
$DIMTIX
 70
     0
  9
$DIMSOXD
 70
     0
  9
$DIMSAH
 70
     0
  9
$DIMBLK1
  1

  9
$DIMBLK2
  1

  9
$DIMSTYLE
  2
SJC
  9
$DIMCLRD
 70
   256
  9
$DIMCLRE
 70
   256
  9
$DIMCLRT
 70
   256
  9
$DIMTFAC
 40
1.0
  9
$DIMGAP
 40
1.2
  9
$DIMJUST
 70
     0
  9
$DIMSD1
 70
     0
  9
$DIMSD2
 70
     0
  9
$DIMTOLJ
 70
     1
  9
$DIMTZIN
 70
     8
  9
$DIMALTZ
 70
     8
  9
$DIMALTTZ
 70
     8
  9
$DIMFIT
 70
     5
  9
$DIMUPT
 70
     0
  9
$DIMUNIT
 70
     2
  9
$DIMDEC
 70
     2
  9
$DIMTDEC
 70
     1
  9
$DIMALTU
 70
     2
  9
$DIMALTTD
 70
     2
  9
$DIMTXSTY
  7
EXT08
  9
$DIMAUNIT
 70
     1
  9
$LUNITS
 70
     2
  9
$LUPREC
 70
     2
  9
$SKETCHINC
 40
0.1
  9
$FILLETRAD
 40
2.0
  9
$AUNITS
 70
     1
  9
$AUPREC
 70
     2
  9
$MENU
  1
C:\r13\win\SUPPORT\sjc
  9
$ELEVATION
 40
0.0
  9
$PELEVATION
 40
0.0
  9
$THICKNESS
 40
0.0
  9
$LIMCHECK
 70
     0
  9
$BLIPMODE
 70
     1
  9
$CHAMFERA
 40
0.0
  9
$CHAMFERB
 40
0.0
  9
$CHAMFERC
 40
0.0
  9
$CHAMFERD
 40
0.0
  9
$SKPOLY
 70
     0
  9
$TDCREATE
 40
2450469.547535764
  9
$TDUPDATE
 40
2451873.566420127
  9
$TDINDWG
 40
0.7366141898
  9
$TDUSRTIMER
 40
0.7366141898
  9
$USRTIMER
 70
     1
  9
$ANGBASE
 50
0.0
  9
$ANGDIR
 70
     0
  9
$PDMODE
 70
     0
  9
$PDSIZE
 40
0.0
  9
$PLINEWID
 40
0.0
  9
$COORDS
 70
     0
  9
$SPLFRAME
 70
     0
  9
$SPLINETYPE
 70
     6
  9
$SPLINESEGS
 70
     8
  9
$ATTDIA
 70
     0
  9
$ATTREQ
 70
     1
  9
$HANDLING
 70
     1
  9
$HANDSEED
  5
1C8CDE6ACEB2
  9
$SURFTAB1
 70
     6
  9
$SURFTAB2
 70
     6
  9
$SURFTYPE
 70
     6
  9
$SURFU
 70
     6
  9
$SURFV
 70
     6
  9
$UCSNAME
  2

  9
$UCSORG
 10
0.0
 20
0.0
 30
0.0
  9
$UCSXDIR
 10
1.0
 20
0.0
 30
0.0
  9
$UCSYDIR
 10
0.0
 20
1.0
 30
0.0
  9
$PUCSNAME
  2

  9
$PUCSORG
 10
0.0
 20
0.0
 30
0.0
  9
$PUCSXDIR
 10
1.0
 20
0.0
 30
0.0
  9
$PUCSYDIR
 10
0.0
 20
1.0
 30
0.0
  9
$USERI1
 70
     3
  9
$USERI2
 70
    10
  9
$USERI3
 70
     0
  9
$USERI4
 70
     0
  9
$USERI5
 70
     0
  9
$USERR1
 40
0.1
  9
$USERR2
 40
0.0
  9
$USERR3
 40
0.0
  9
$USERR4
 40
0.0
  9
$USERR5
 40
0.0
  9
$WORLDVIEW
 70
     1
  9
$SHADEDGE
 70
     3
  9
$SHADEDIF
 70
    70
  9
$TILEMODE
 70
     1
  9
$MAXACTVP
 70
    16
  9
$PINSBASE
 10
0.0
 20
0.0
 30
0.0
  9
$PLIMCHECK
 70
     0
  9
$PEXTMIN
 10
1.000000E+20
 20
1.000000E+20
 30
1.000000E+20
  9
$PEXTMAX
 10
-1.000000E+20
 20
-1.000000E+20
 30
-1.000000E+20
  9
$PLIMMIN
 10
0.0
 20
0.0
  9
$PLIMMAX
 10
12.0
 20
9.0
  9
$UNITMODE
 70
     0
  9
$VISRETAIN
 70
     0
  9
$PLINEGEN
 70
     0
  9
$PSLTSCALE
 70
     0
  9
$TREEDEPTH
 70
  3020
  9
$PICKSTYLE
 70
     1
  9
$CMLSTYLE
  2
STANDARD
  9
$CMLJUST
 70
     0
  9
$CMLSCALE
 40
1.0
  9
$SAVEIMAGES
 70
     0
  0
ENDSEC
  0
SECTION
  2
CLASSES
  0
ENDSEC
  0
SECTION
  2
TABLES
  0
TABLE
  2
VPORT
  5
1C8CDE699D43
100
AcDbSymbolTable
 70
     2
  0
VPORT
  5
1C8CDE6ACEB1
100
AcDbSymbolTableRecord
100
AcDbViewportTableRecord
  2
*ACTIVE
 70
     0
 10
0.0
 20
0.0
 11
1.0
 21
1.0
 12
2593.59375
 22
1485.0
 13
0.0
 23
0.0
 14
5.0
 24
5.0
 15
0.0
 25
0.0
 16
0.0
 26
0.0
 36
1.0
 17
0.0
 27
0.0
 37
0.0
 40
2970.0
 41
1.746528
 42
50.0
 43
0.0
 44
0.0
 50
0.0
 51
0.0
 71
     0
 72
   500
 73
     1
 74
     0
 75
     0
 76
     0
 77
     0
 78
     2
  0
ENDTAB
  0
TABLE
  2
LTYPE
  5
1C8CDE699D40
100
AcDbSymbolTable
 70
     7
  0
LTYPE
  5
1C8CDE699D4D
100
AcDbSymbolTableRecord
100
AcDbLinetypeTableRecord
  2
BYBLOCK
 70
     0
  3

 72
    65
 73
     0
 40
0.0
  0
LTYPE
  5
1C8CDE699D4E
100
AcDbSymbolTableRecord
100
AcDbLinetypeTableRecord
  2
BYLAYER
 70
     0
  3

 72
    65
 73
     0
 40
0.0
  0
LTYPE
  5
1C8CDE699D4F
100
AcDbSymbolTableRecord
100
AcDbLinetypeTableRecord
  2
CONTINUOUS
 70
    64
  3
実線
 72
    65
 73
     0
 40
0.0
  0
LTYPE
  5
1C8CDE699D67
100
AcDbSymbolTableRecord
100
AcDbLinetypeTableRecord
  2
DIVIDE2
 70
    64
  3
__..__..__..__..__..__..__..__..__..__..__..__.
 72
    65
 73
     6
 40
0.625
 49
0.25
 74
     0
 49
-0.125
 74
     0
 49
0.0
 74
     0
 49
-0.125
 74
     0
 49
0.0
 74
     0
 49
-0.125
 74
     0
  0
LTYPE
  5
1C8CDE699D68
100
AcDbSymbolTableRecord
100
AcDbLinetypeTableRecord
  2
HIDDEN2
 70
     0
  3
_ _ _ _ _ _ _ _ _ _ _ _ _ _ _ _ _ _ _ _ _ _ _ _
 72
    65
 73
     2
 40
0.1875
 49
0.125
 74
     0
 49
-0.0625
 74
     0
  0
LTYPE
  5
1C8CDE699D69
100
AcDbSymbolTableRecord
100
AcDbLinetypeTableRecord
  2
CENTER2
 70
     0
  3
___ _ ___ _ ___ _ ___ _ ___ _ ___ _ ___ _ ___ _
 72
    65
 73
     4
 40
1.125
 49
0.75
 74
     0
 49
-0.125
 74
     0
 49
0.125
 74
     0
 49
-0.125
 74
     0
  0
LTYPE
  5
1C8CDE699D6A
100
AcDbSymbolTableRecord
100
AcDbLinetypeTableRecord
  2
CENTER
 70
    64
  3
____ _ ____ _ ____ _ ____ _ ____ _ ____ _ ____ 
 72
    65
 73
     4
 40
2.0
 49
1.25
 74
     0
 49
-0.25
 74
     0
 49
0.25
 74
     0
 49
-0.25
 74
     0
  0
LTYPE
  5
1C8CDE699D6B
100
AcDbSymbolTableRecord
100
AcDbLinetypeTableRecord
  2
HIDDEN
 70
    64
  3
__ __ __ __ __ __ __ __ __ __ __ __ __ __ __ __
 72
    65
 73
     2
 40
0.375
 49
0.25
 74
     0
 49
-0.125
 74
     0
  0
LTYPE
  5
1C8CDE699D6C
100
AcDbSymbolTableRecord
100
AcDbLinetypeTableRecord
  2
PHANTOM
 70
    64
  3
______  __  __  ______  __  __  ______  __  __ 
 72
    65
 73
     6
 40
2.5
 49
1.25
 74
     0
 49
-0.25
 74
     0
 49
0.25
 74
     0
 49
-0.25
 74
     0
 49
0.25
 74
     0
 49
-0.25
 74
     0
  0
ENDTAB
  0
TABLE
  2
LAYER
  5
1C8CDE699D3D
100
AcDbSymbolTable
 70
    16
  0
LAYER
  5
1C8CDE699D4A
100
AcDbSymbolTableRecord
100
AcDbLayerTableRecord
  2
0
 70
    64
 62
    41
  6
DIVIDE2
  0
LAYER
  5
1C8CDE699D71
100
AcDbSymbolTableRecord
100
AcDbLayerTableRecord
  2
CENTER
 70
    64
 62
     3
  6
CENTER
  0
LAYER
  5
1C8CDE699D72
100
AcDbSymbolTableRecord
100
AcDbLayerTableRecord
  2
SUNPOU
 70
    64
 62
     4
  6
CONTINUOUS
  0
LAYER
  5
1C8CDE699D73
100
AcDbSymbolTableRecord
100
AcDbLayerTableRecord
  2
WAKU
 70
    64
 62
     5
  6
CONTINUOUS
  0
LAYER
  5
1C8CDE699D74
100
AcDbSymbolTableRecord
100
AcDbLayerTableRecord
  2
MOJI
 70
    64
 62
     6
  6
CONTINUOUS
  0
LAYER
  5
1C8CDE699D75
100
AcDbSymbolTableRecord
100
AcDbLayerTableRecord
  2
HASEN
 70
    64
 62
     7
  6
HIDDEN
  0
LAYER
  5
1C8CDE699D76
100
AcDbSymbolTableRecord
100
AcDbLayerTableRecord
  2
SAISEN
 70
    64
 62
     9
  6
CONTINUOUS
  0
LAYER
  5
1C8CDE699D77
100
AcDbSymbolTableRecord
100
AcDbLayerTableRecord
  2
SJC
 70
    64
 62
     1
  6
CONTINUOUS
  0
LAYER
  5
1C8CDE699D78
100
AcDbSymbolTableRecord
100
AcDbLayerTableRecord
  2
KASOU
 70
    64
 62
     2
  6
PHANTOM
  0
LAYER
  5
1C8CDE699D79
100
AcDbSymbolTableRecord
100
AcDbLayerTableRecord
  2
ZWAKU
 70
    64
 62
    -7
  6
CONTINUOUS
  0
LAYER
  5
1C8CDE699D7A
100
AcDbSymbolTableRecord
100
AcDbLayerTableRecord
  2
HOJO
 70
    64
 62
    -8
  6
CONTINUOUS
  0
LAYER
  5
1C8CDE699D7B
100
AcDbSymbolTableRecord
100
AcDbLayerTableRecord
  2
DEFPOINTS
 70
    64
 62
     7
  6
CONTINUOUS
  0
LAYER
  5
1C8CDE699D8F
100
AcDbSymbolTableRecord
100
AcDbLayerTableRecord
  2
INFORMATION
 70
    65
 62
     7
  6
CONTINUOUS
  0
LAYER
  5
1C8CDE699D92
100
AcDbSymbolTableRecord
100
AcDbLayerTableRecord
  2
SJC2
 70
    64
 62
     7
  6
CONTINUOUS
  0
LAYER
  5
1C8CDE699D93
100
AcDbSymbolTableRecord
100
AcDbLayerTableRecord
  2
MOJI2
 70
    64
 62
     1
  6
CONTINUOUS
  0
LAYER
  5
1C8CDE699D94
100
AcDbSymbolTableRecord
100
AcDbLayerTableRecord
  2
HATCH
 70
    64
 62
     2
  6
CONTINUOUS
  0
ENDTAB
  0
TABLE
  2
STYLE
  5
1C8CDE699D3E
100
AcDbSymbolTable
 70
    11
  0
STYLE
  5
1C8CDE699D4B
100
AcDbSymbolTableRecord
100
AcDbTextStyleTableRecord
  2
STANDARD
 70
    64
 40
2.5
 41
0.8
 50
0.0
 71
     0
 42
25.0
  3
ROMANS.SHX
  4
BIGFONT
  0
STYLE
  5
1C8CDE699D64
100
AcDbSymbolTableRecord
100
AcDbTextStyleTableRecord
  2
NOBO
 70
     0
 40
3.0
 41
0.85
 50
15.0
 71
     0
 42
25.0
  3
ROMANS
  4
BIGFONT
  0
STYLE
  5
1C8CDE699D65
100
AcDbSymbolTableRecord
100
AcDbTextStyleTableRecord
  2
SIMPLEX
 70
    64
 40
0.0
 41
1.0
 50
0.0
 71
     0
 42
25.0
  3
SCRIPTS.SHX
  4

  0
STYLE
  5
1C8CDE699D66
100
AcDbSymbolTableRecord
100
AcDbTextStyleTableRecord
  2
KANJI
 70
    64
 40
0.0
 41
1.0
 50
0.0
 71
     0
 42
25.0
  3
ROMANS.SHX
  4
BIGFONT.SHX
  0
STYLE
  5
1C8CDE699DA4
100
AcDbSymbolTableRecord
100
AcDbTextStyleTableRecord
  2
TATEEXT
 70
    68
 40
0.0
 41
1.0
 50
0.0
 71
     0
 42
25.0
  3
ROMANS
  4
EXTFONT
  0
STYLE
  5
1C8CDE699DA5
100
AcDbSymbolTableRecord
100
AcDbTextStyleTableRecord
  2
TATEBIG
 70
    68
 40
0.0
 41
5.0
 50
0.0
 71
     0
 42
25.0
  3
ROMANS
  4
BIGFONT
  0
STYLE
  5
1C8CDE699DA6
100
AcDbSymbolTableRecord
100
AcDbTextStyleTableRecord
  2
EXT08
 70
    64
 40
0.0
 41
0.8
 50
0.0
 71
     0
 42
30.0
  3
ROMANS
  4
EXTFONT
  0
STYLE
  5
1C8CDE699DA7
100
AcDbSymbolTableRecord
100
AcDbTextStyleTableRecord
  2
EXT
 70
    64
 40
0.0
 41
1.0
 50
0.0
 71
     0
 42
25.0
  3
ROMANS
  4
EXTFONT
  0
STYLE
  5
1C8CDE699DA8
100
AcDbSymbolTableRecord
100
AcDbTextStyleTableRecord
  2
KANJI08
 70
    64
 40
0.0
 41
0.8
 50
0.0
 71
     0
 42
25.0
  3
ROMANS
  4
BIGFONT
  0
STYLE
  5
1C8CDE6A9321
100
AcDbSymbolTableRecord
100
AcDbTextStyleTableRecord
  2
A
 70
    64
 40
2.5
 41
0.6
 50
0.0
 71
     0
 42
30.0
  3
TXT
  4
BIGFONT
  0
STYLE
  5
1C8CDE6A9322
100
AcDbSymbolTableRecord
100
AcDbTextStyleTableRecord
  2
TATE
 70
    68
 40
0.0
 41
1.0
 50
0.0
 71
     0
 42
30.0
  3
SIMPLEX
  4
BIGFONT
  0
ENDTAB
  0
TABLE
  2
VIEW
  5
1C8CDE699D41
100
AcDbSymbolTable
 70
     0
  0
ENDTAB
  0
TABLE
  2
UCS
  5
1C8CDE699D42
100
AcDbSymbolTable
 70
     0
  0
ENDTAB
  0
TABLE
  2
APPID
  5
1C8CDE699D44
100
AcDbSymbolTable
 70
     1
  0
APPID
  5
1C8CDE699D4C
100
AcDbSymbolTableRecord
100
AcDbRegAppTableRecord
  2
ACAD
 70
    64
  0
ENDTAB
  0
TABLE
  2
DIMSTYLE
  5
1C8CDE699D45
100
AcDbSymbolTable
 70
     4
  0
DIMSTYLE
105
1C8CDE699D6E
100
AcDbSymbolTableRecord
100
AcDbDimStyleTableRecord
  2
STANDARD
 70
     0
  3

  4

  5

  6

  7

 40
1.0
 41
20.0
 42
10.0
 43
0.4
 44
10.0
 45
0.0
 46
0.0
 47
0.0
 48
0.0
140
25.0
141
0.1
142
0.0
143
25.4
144
1.0
145
0.0
146
1.0
147
15.0
 71
     0
 72
     0
 73
     0
 74
     0
 75
     0
 76
     0
 77
     1
 78
     8
170
     0
171
     2
172
     1
173
     0
174
     0
175
     0
176
   256
177
   256
178
   256
270
     2
271
     1
272
     1
273
     2
274
     2
340
1C8CDE699D66
275
     1
280
     0
281
     0
282
     0
283
     1
284
     8
285
     8
286
     8
287
     5
288
     0
  0
DIMSTYLE
105
1C8CDE699DA9
100
AcDbSymbolTableRecord
100
AcDbDimStyleTableRecord
  2
SJC
 70
     0
  3

  4

  5

  6

  7

 40
1.0
 41
20.0
 42
10.0
 43
0.4
 44
10.0
 45
0.0
 46
0.0
 47
0.0
 48
0.0
140
25.0
141
0.1
142
0.0
143
25.4
144
1.0
145
0.0
146
1.0
147
15.0
 71
     0
 72
     0
 73
     0
 74
     0
 75
     0
 76
     0
 77
     1
 78
     8
170
     0
171
     2
172
     1
173
     0
174
     0
175
     0
176
   256
177
   256
178
   256
270
     2
271
     1
272
     1
273
     2
274
     2
340
1C8CDE699D66
275
     1
280
     0
281
     0
282
     0
283
     1
284
     8
285
     8
286
     8
287
     5
288
     0
  0
DIMSTYLE
105
1C8CDE6A9185
100
AcDbSymbolTableRecord
100
AcDbDimStyleTableRecord
  2
RUISEKI1
 70
     0
  3

  4

  5

  6
_DOT
  7

 40
10.0
 41
2.0
 42
1.0
 43
6.0
 44
30.0
 45
0.0
 46
0.0
 47
0.0
 48
0.0
140
25.0
141
0.1
142
0.0
143
25.4
144
1.0
145
0.0
146
1.0
147
1.5
 71
     0
 72
     0
 73
     0
 74
     0
 75
     0
 76
     0
 77
     1
 78
     8
170
     0
171
     2
172
     1
173
     1
174
     0
175
     0
176
   256
177
   256
178
   256
270
     2
271
     1
272
     1
273
     2
274
     2
340
1C8CDE699D66
275
     1
280
     0
281
     0
282
     0
283
     1
284
     8
285
     8
286
     8
287
     5
288
     0
  0
DIMSTYLE
105
1C8CDE6A918A
100
AcDbSymbolTableRecord
100
AcDbDimStyleTableRecord
  2
RUISEKI2
 70
     0
  3

  4

  5

  6
_NONE
  7

 40
10.0
 41
2.0
 42
1.0
 43
6.0
 44
30.0
 45
0.0
 46
0.0
 47
0.0
 48
0.0
140
25.0
141
0.1
142
0.0
143
25.4
144
1.0
145
0.0
146
1.0
147
1.5
 71
     0
 72
     0
 73
     0
 74
     0
 75
     0
 76
     0
 77
     1
 78
     8
170
     0
171
     2
172
     1
173
     1
174
     0
175
     0
176
   256
177
   256
178
   256
270
     2
271
     1
272
     1
273
     2
274
     2
340
1C8CDE699D66
275
     1
280
     0
281
     0
282
     0
283
     1
284
     8
285
     8
286
     8
287
     5
288
     0
  0
ENDTAB
  0
TABLE
  2
BLOCK_RECORD
  5
1C8CDE699D3C
100
AcDbSymbolTable
 70
    11
  0
BLOCK_RECORD
  5
1C8CDE699D53
100
AcDbSymbolTableRecord
100
AcDbBlockTableRecord
  2
*MODEL_SPACE
  0
BLOCK_RECORD
  5
1C8CDE699D50
100
AcDbSymbolTableRecord
100
AcDbBlockTableRecord
  2
*PAPER_SPACE
  0
BLOCK_RECORD
  5
1C8CDE699D85
100
AcDbSymbolTableRecord
100
AcDbBlockTableRecord
  2
CALCOMP_TECHJET720A3
  0
BLOCK_RECORD
  5
1C8CDE6AC739
100
AcDbSymbolTableRecord
100
AcDbBlockTableRecord
  2
*D1
  0
BLOCK_RECORD
  5
1C8CDE6AC746
100
AcDbSymbolTableRecord
100
AcDbBlockTableRecord
  2
*D2
  0
BLOCK_RECORD
  5
1C8CDE6AC95D
100
AcDbSymbolTableRecord
100
AcDbBlockTableRecord
  2
*D3
  0
BLOCK_RECORD
  5
1C8CDE6AC96A
100
AcDbSymbolTableRecord
100
AcDbBlockTableRecord
  2
*D4
  0
BLOCK_RECORD
  5
1C8CDE6ACAEB
100
AcDbSymbolTableRecord
100
AcDbBlockTableRecord
  2
*D5
  0
BLOCK_RECORD
  5
1C8CDE6ACAF8
100
AcDbSymbolTableRecord
100
AcDbBlockTableRecord
  2
*D6
  0
BLOCK_RECORD
  5
1C8CDE6ACD9D
100
AcDbSymbolTableRecord
100
AcDbBlockTableRecord
  2
*X7
  0
BLOCK_RECORD
  5
1C8CDE6ACDC7
100
AcDbSymbolTableRecord
100
AcDbBlockTableRecord
  2
*D8
  0
BLOCK_RECORD
  5
1C8CDE6ACDD4
100
AcDbSymbolTableRecord
100
AcDbBlockTableRecord
  2
*D9
  0
BLOCK_RECORD
  5
1C8CDE6ACE44
100
AcDbSymbolTableRecord
100
AcDbBlockTableRecord
  2
*X10
  0
ENDTAB
  0
ENDSEC
  0
SECTION
  2
BLOCKS
  0
BLOCK
  5
1C8CDE699D7E
100
AcDbEntity
  8
SUNPOU
100
AcDbBlockBegin
  2
*MODEL_SPACE
 70
     0
 10
0.0
 20
0.0
 30
0.0
  3
*MODEL_SPACE
  1

  0
ENDBLK
  5
1C8CDE699D7F
100
AcDbEntity
  8
SUNPOU
100
AcDbBlockEnd
  0
BLOCK
  5
1C8CDE699D7C
100
AcDbEntity
 67
     1
  8
SUNPOU
100
AcDbBlockBegin
  2
*PAPER_SPACE
 70
     0
 10
0.0
 20
0.0
 30
0.0
  3
*PAPER_SPACE
  1

  0
ENDBLK
  5
1C8CDE699D7D
100
AcDbEntity
 67
     1
  8
SUNPOU
100
AcDbBlockEnd
  0
BLOCK
  5
1C8CDE699D8C
100
AcDbEntity
  8
ZWAKU
100
AcDbBlockBegin
  2
CALCOMP_TECHJET720A3
 70
     0
 10
0.0
 20
0.0
 30
0.0
  3
CALCOMP_TECHJET720A3
  1

  0
POLYLINE
  5
1C8CDE699D86
100
AcDbEntity
  8
ZWAKU
 62
     2
100
AcDb2dPolyline
 66
     1
 10
0.0
 20
0.0
 30
0.0
 70
     1
  0
VERTEX
  5
1C8CDE699D87
100
AcDbEntity
  8
ZWAKU
 62
     2
100
AcDbVertex
100
AcDb2dVertex
 10
0.0
 20
0.0
 30
0.0
  0
VERTEX
  5
1C8CDE699D88
100
AcDbEntity
  8
ZWAKU
 62
     2
100
AcDbVertex
100
AcDb2dVertex
 10
0.0
 20
267.0
 30
0.0
  0
VERTEX
  5
1C8CDE699D89
100
AcDbEntity
  8
ZWAKU
 62
     2
100
AcDbVertex
100
AcDb2dVertex
 10
370.0
 20
267.0
 30
0.0
  0
VERTEX
  5
1C8CDE699D8A
100
AcDbEntity
  8
ZWAKU
 62
     2
100
AcDbVertex
100
AcDb2dVertex
 10
370.0
 20
0.0
 30
0.0
  0
SEQEND
  5
1C8CDE699D8B
100
AcDbEntity
  8
ZWAKU
 62
     2
  0
ENDBLK
  5
1C8CDE699D8D
100
AcDbEntity
  8
ZWAKU
100
AcDbBlockEnd
  0
BLOCK
  5
1C8CDE6AC78A
100
AcDbEntity
  8
0
100
AcDbBlockBegin
  2
*D1
 70
    65
 10
0.0
 20
0.0
 30
0.0
  3
*D1
  1

  0
LINE
  5
1C8CDE6AC78B
100
AcDbEntity
  8
0
  6
BYBLOCK
100
AcDbLine
 10
1874.522215
 20
618.554967
 30
0.0
 11
1874.522215
 21
468.554967
 31
0.0
  0
LINE
  5
1C8CDE6AC78C
100
AcDbEntity
  8
0
  6
BYBLOCK
100
AcDbLine
 10
1574.522215
 20
618.554967
 30
0.0
 11
1574.522215
 21
468.554967
 31
0.0
  0
LINE
  5
1C8CDE6AC78D
100
AcDbEntity
  8
0
  6
BYBLOCK
100
AcDbLine
 10
1854.522215
 20
478.554967
 30
0.0
 11
1594.522215
 21
478.554967
 31
0.0
  0
SOLID
  5
1C8CDE6AC78E
100
AcDbEntity
  8
0
  6
BYBLOCK
100
AcDbTrace
 10
1854.522215
 20
481.8883
 30
0.0
 11
1854.522215
 21
475.221634
 31
0.0
 12
1874.522215
 22
478.554967
 32
0.0
 13
1874.522215
 23
478.554967
 33
0.0
  0
SOLID
  5
1C8CDE6AC78F
100
AcDbEntity
  8
0
  6
BYBLOCK
100
AcDbTrace
 10
1594.522215
 20
481.8883
 30
0.0
 11
1594.522215
 21
475.221634
 31
0.0
 12
1574.522215
 22
478.554967
 32
0.0
 13
1574.522215
 23
478.554967
 33
0.0
  0
MTEXT
  5
1C8CDE6AC790
100
AcDbEntity
  8
0
  6
BYBLOCK
100
AcDbMText
 10
1724.522215
 20
505.554967
 30
0.0
 40
30.0
 41
0.0
 71
     5
 72
     1
  1
\A1;□300
  7
EXT08
  0
POINT
  5
1C8CDE6AC791
100
AcDbEntity
  8
DEFPOINTS
  6
BYBLOCK
 62
     0
100
AcDbPoint
 10
1874.522215
 20
628.554967
 30
0.0
  0
POINT
  5
1C8CDE6AC792
100
AcDbEntity
  8
DEFPOINTS
  6
BYBLOCK
 62
     0
100
AcDbPoint
 10
1574.522215
 20
628.554967
 30
0.0
  0
POINT
  5
1C8CDE6AC793
100
AcDbEntity
  8
DEFPOINTS
  6
BYBLOCK
 62
     0
100
AcDbPoint
 10
1574.522215
 20
478.554967
 30
0.0
  0
ENDBLK
  5
1C8CDE6AC794
100
AcDbEntity
  8
0
100
AcDbBlockEnd
  0
BLOCK
  5
1C8CDE6AC769
100
AcDbEntity
  8
0
100
AcDbBlockBegin
  2
*D2
 70
    65
 10
0.0
 20
0.0
 30
0.0
  3
*D2
  1

  0
LINE
  5
1C8CDE6AC76A
100
AcDbEntity
  8
0
  6
BYBLOCK
100
AcDbLine
 10
1524.523086
 20
618.554967
 30
0.0
 11
1524.523086
 21
368.554967
 31
0.0
  0
LINE
  5
1C8CDE6AC76B
100
AcDbEntity
  8
0
  6
BYBLOCK
100
AcDbLine
 10
1924.523086
 20
618.554967
 30
0.0
 11
1924.523086
 21
368.554967
 31
0.0
  0
LINE
  5
1C8CDE6AC76C
100
AcDbEntity
  8
0
  6
BYBLOCK
100
AcDbLine
 10
1544.523086
 20
378.554967
 30
0.0
 11
1904.523086
 21
378.554967
 31
0.0
  0
SOLID
  5
1C8CDE6AC76D
100
AcDbEntity
  8
0
  6
BYBLOCK
100
AcDbTrace
 10
1544.523086
 20
381.8883
 30
0.0
 11
1544.523086
 21
375.221634
 31
0.0
 12
1524.523086
 22
378.554967
 32
0.0
 13
1524.523086
 23
378.554967
 33
0.0
  0
SOLID
  5
1C8CDE6AC76E
100
AcDbEntity
  8
0
  6
BYBLOCK
100
AcDbTrace
 10
1904.523086
 20
381.8883
 30
0.0
 11
1904.523086
 21
375.221634
 31
0.0
 12
1924.523086
 22
378.554967
 32
0.0
 13
1924.523086
 23
378.554967
 33
0.0
  0
MTEXT
  5
1C8CDE6AC76F
100
AcDbEntity
  8
0
  6
BYBLOCK
100
AcDbMText
 10
1724.523086
 20
405.554967
 30
0.0
 40
30.0
 41
0.0
 71
     5
 72
     1
  1
\A1;□400
  7
EXT08
  0
POINT
  5
1C8CDE6AC770
100
AcDbEntity
  8
DEFPOINTS
  6
BYBLOCK
 62
     0
100
AcDbPoint
 10
1524.523086
 20
628.554967
 30
0.0
  0
POINT
  5
1C8CDE6AC771
100
AcDbEntity
  8
DEFPOINTS
  6
BYBLOCK
 62
     0
100
AcDbPoint
 10
1924.523086
 20
628.554967
 30
0.0
  0
POINT
  5
1C8CDE6AC772
100
AcDbEntity
  8
DEFPOINTS
  6
BYBLOCK
 62
     0
100
AcDbPoint
 10
1924.523086
 20
378.554967
 30
0.0
  0
ENDBLK
  5
1C8CDE6AC773
100
AcDbEntity
  8
0
100
AcDbBlockEnd
  0
BLOCK
  5
1C8CDE6AC95E
100
AcDbEntity
  8
0
100
AcDbBlockBegin
  2
*D3
 70
    65
 10
0.0
 20
0.0
 30
0.0
  3
*D3
  1

  0
LINE
  5
1C8CDE6AC95F
100
AcDbEntity
  8
0
  6
BYBLOCK
100
AcDbLine
 10
1406.842984
 20
1078.554967
 30
0.0
 11
1326.372267
 21
1078.554967
 31
0.0
  0
LINE
  5
1C8CDE6AC960
100
AcDbEntity
  8
0
  6
BYBLOCK
100
AcDbLine
 10
1514.523086
 20
678.554967
 30
0.0
 11
1326.372267
 21
678.554967
 31
0.0
  0
LINE
  5
1C8CDE6AC961
100
AcDbEntity
  8
0
  6
BYBLOCK
100
AcDbLine
 10
1336.372267
 20
1058.554967
 30
0.0
 11
1336.372267
 21
698.554967
 31
0.0
  0
SOLID
  5
1C8CDE6AC962
100
AcDbEntity
  8
0
  6
BYBLOCK
100
AcDbTrace
 10
1333.038934
 20
1058.554967
 30
0.0
 11
1339.7056
 21
1058.554967
 31
0.0
 12
1336.372267
 22
1078.554967
 32
0.0
 13
1336.372267
 23
1078.554967
 33
0.0
  0
SOLID
  5
1C8CDE6AC963
100
AcDbEntity
  8
0
  6
BYBLOCK
100
AcDbTrace
 10
1333.038934
 20
698.554967
 30
0.0
 11
1339.7056
 21
698.554967
 31
0.0
 12
1336.372267
 22
678.554967
 32
0.0
 13
1336.372267
 23
678.554967
 33
0.0
  0
MTEXT
  5
1C8CDE6AC964
100
AcDbEntity
  8
0
  6
BYBLOCK
100
AcDbMText
 10
1309.372267
 20
878.554967
 30
0.0
 40
30.0
 41
0.0
 71
     5
 72
     1
  1
\A1;400
  7
EXT08
 11
0.0
 21
1.0
 31
0.0
  0
POINT
  5
1C8CDE6AC965
100
AcDbEntity
  8
DEFPOINTS
  6
BYBLOCK
 62
     0
100
AcDbPoint
 10
1416.842984
 20
1078.554967
 30
0.0
  0
POINT
  5
1C8CDE6AC966
100
AcDbEntity
  8
DEFPOINTS
  6
BYBLOCK
 62
     0
100
AcDbPoint
 10
1524.523086
 20
678.554967
 30
0.0
  0
POINT
  5
1C8CDE6AC967
100
AcDbEntity
  8
DEFPOINTS
  6
BYBLOCK
 62
     0
100
AcDbPoint
 10
1336.372267
 20
678.554967
 30
0.0
  0
ENDBLK
  5
1C8CDE6AC968
100
AcDbEntity
  8
0
100
AcDbBlockEnd
  0
BLOCK
  5
1C8CDE6AC96B
100
AcDbEntity
  8
0
100
AcDbBlockBegin
  2
*D4
 70
    65
 10
0.0
 20
0.0
 30
0.0
  3
*D4
  1

  0
LINE
  5
1C8CDE6AC96C
100
AcDbEntity
  8
0
  6
BYBLOCK
100
AcDbLine
 10
1514.523086
 20
678.554967
 30
0.0
 11
1226.372267
 21
678.554967
 31
0.0
  0
LINE
  5
1C8CDE6AC96D
100
AcDbEntity
  8
0
  6
BYBLOCK
100
AcDbLine
 10
1514.523086
 20
628.554967
 30
0.0
 11
1226.372267
 21
628.554967
 31
0.0
  0
LINE
  5
1C8CDE6AC96E
100
AcDbEntity
  8
0
  6
BYBLOCK
100
AcDbLine
 10
1236.372267
 20
698.554967
 30
0.0
 11
1236.372267
 21
718.554967
 31
0.0
  0
LINE
  5
1C8CDE6AC96F
100
AcDbEntity
  8
0
  6
BYBLOCK
100
AcDbLine
 10
1236.372267
 20
608.554967
 30
0.0
 11
1236.372267
 21
588.554967
 31
0.0
  0
MTEXT
  5
1C8CDE6AC970
100
AcDbEntity
  8
0
  6
BYBLOCK
100
AcDbMText
 10
1193.372267
 20
653.554967
 30
0.0
 40
30.0
 41
0.0
 71
     5
 72
     1
  1
\A1;50
  7
EXT08
 11
0.0
 21
1.0
 31
0.0
  0
LINE
  5
1C8CDE6AC971
100
AcDbEntity
  8
0
  6
BYBLOCK
100
AcDbLine
 10
1236.372267
 20
678.554967
 30
0.0
 11
1236.372267
 21
628.554967
 31
0.0
  0
SOLID
  5
1C8CDE6AC972
100
AcDbEntity
  8
0
  6
BYBLOCK
100
AcDbTrace
 10
1233.038934
 20
698.554967
 30
0.0
 11
1239.7056
 21
698.554967
 31
0.0
 12
1236.372267
 22
678.554967
 32
0.0
 13
1236.372267
 23
678.554967
 33
0.0
  0
SOLID
  5
1C8CDE6AC973
100
AcDbEntity
  8
0
  6
BYBLOCK
100
AcDbTrace
 10
1233.038934
 20
608.554967
 30
0.0
 11
1239.7056
 21
608.554967
 31
0.0
 12
1236.372267
 22
628.554967
 32
0.0
 13
1236.372267
 23
628.554967
 33
0.0
  0
POINT
  5
1C8CDE6AC974
100
AcDbEntity
  8
DEFPOINTS
  6
BYBLOCK
 62
     0
100
AcDbPoint
 10
1524.523086
 20
678.554967
 30
0.0
  0
POINT
  5
1C8CDE6AC975
100
AcDbEntity
  8
DEFPOINTS
  6
BYBLOCK
 62
     0
100
AcDbPoint
 10
1524.523086
 20
628.554967
 30
0.0
  0
POINT
  5
1C8CDE6AC976
100
AcDbEntity
  8
DEFPOINTS
  6
BYBLOCK
 62
     0
100
AcDbPoint
 10
1236.372267
 20
628.554967
 30
0.0
  0
ENDBLK
  5
1C8CDE6AC977
100
AcDbEntity
  8
0
100
AcDbBlockEnd
  0
BLOCK
  5
1C8CDE6ACAEC
100
AcDbEntity
  8
0
100
AcDbBlockBegin
  2
*D5
 70
    65
 10
0.0
 20
0.0
 30
0.0
  3
*D5
  1

  0
LINE
  5
1C8CDE6ACAED
100
AcDbEntity
  8
0
  6
BYBLOCK
100
AcDbLine
 10
1714.522215
 20
1978.554967
 30
0.0
 11
1226.372267
 21
1978.554967
 31
0.0
  0
LINE
  5
1C8CDE6ACAEE
100
AcDbEntity
  8
0
  6
BYBLOCK
100
AcDbLine
 10
1514.523086
 20
678.554967
 30
0.0
 11
1226.372267
 21
678.554967
 31
0.0
  0
LINE
  5
1C8CDE6ACAEF
100
AcDbEntity
  8
0
  6
BYBLOCK
100
AcDbLine
 10
1236.372267
 20
1958.554967
 30
0.0
 11
1236.372267
 21
698.554967
 31
0.0
  0
SOLID
  5
1C8CDE6ACAF0
100
AcDbEntity
  8
0
  6
BYBLOCK
100
AcDbTrace
 10
1233.038934
 20
1958.554967
 30
0.0
 11
1239.7056
 21
1958.554967
 31
0.0
 12
1236.372267
 22
1978.554967
 32
0.0
 13
1236.372267
 23
1978.554967
 33
0.0
  0
SOLID
  5
1C8CDE6ACAF1
100
AcDbEntity
  8
0
  6
BYBLOCK
100
AcDbTrace
 10
1233.038934
 20
698.554967
 30
0.0
 11
1239.7056
 21
698.554967
 31
0.0
 12
1236.372267
 22
678.554967
 32
0.0
 13
1236.372267
 23
678.554967
 33
0.0
  0
MTEXT
  5
1C8CDE6ACAF2
100
AcDbEntity
  8
0
  6
BYBLOCK
100
AcDbMText
 10
1209.372267
 20
1328.554967
 30
0.0
 40
30.0
 41
0.0
 71
     5
 72
     1
  1
\A1;1300
  7
EXT08
 11
0.0
 21
1.0
 31
0.0
  0
POINT
  5
1C8CDE6ACAF3
100
AcDbEntity
  8
DEFPOINTS
  6
BYBLOCK
 62
     0
100
AcDbPoint
 10
1724.522215
 20
1978.554967
 30
0.0
  0
POINT
  5
1C8CDE6ACAF4
100
AcDbEntity
  8
DEFPOINTS
  6
BYBLOCK
 62
     0
100
AcDbPoint
 10
1524.523086
 20
678.554967
 30
0.0
  0
POINT
  5
1C8CDE6ACAF5
100
AcDbEntity
  8
DEFPOINTS
  6
BYBLOCK
 62
     0
100
AcDbPoint
 10
1236.372267
 20
678.554967
 30
0.0
  0
ENDBLK
  5
1C8CDE6ACAF6
100
AcDbEntity
  8
0
100
AcDbBlockEnd
  0
BLOCK
  5
1C8CDE6ACAF9
100
AcDbEntity
  8
0
100
AcDbBlockBegin
  2
*D6
 70
    65
 10
0.0
 20
0.0
 30
0.0
  3
*D6
  1

  0
LINE
  5
1C8CDE6ACAFA
100
AcDbEntity
  8
0
  6
BYBLOCK
100
AcDbLine
 10
1714.522215
 20
1978.554967
 30
0.0
 11
1326.372267
 21
1978.554967
 31
0.0
  0
LINE
  5
1C8CDE6ACAFB
100
AcDbEntity
  8
0
  6
BYBLOCK
100
AcDbLine
 10
1416.842984
 20
1078.554967
 30
0.0
 11
1326.372267
 21
1078.554967
 31
0.0
  0
LINE
  5
1C8CDE6ACAFC
100
AcDbEntity
  8
0
  6
BYBLOCK
100
AcDbLine
 10
1336.372267
 20
1958.554967
 30
0.0
 11
1336.372267
 21
1098.554967
 31
0.0
  0
SOLID
  5
1C8CDE6ACAFD
100
AcDbEntity
  8
0
  6
BYBLOCK
100
AcDbTrace
 10
1333.038934
 20
1958.554967
 30
0.0
 11
1339.7056
 21
1958.554967
 31
0.0
 12
1336.372267
 22
1978.554967
 32
0.0
 13
1336.372267
 23
1978.554967
 33
0.0
  0
SOLID
  5
1C8CDE6ACAFE
100
AcDbEntity
  8
0
  6
BYBLOCK
100
AcDbTrace
 10
1333.038934
 20
1098.554967
 30
0.0
 11
1339.7056
 21
1098.554967
 31
0.0
 12
1336.372267
 22
1078.554967
 32
0.0
 13
1336.372267
 23
1078.554967
 33
0.0
  0
MTEXT
  5
1C8CDE6ACAFF
100
AcDbEntity
  8
0
  6
BYBLOCK
100
AcDbMText
 10
1309.372267
 20
1528.554967
 30
0.0
 40
30.0
 41
0.0
 71
     5
 72
     1
  1
\A1;900
  7
EXT08
 11
0.0
 21
1.0
 31
0.0
  0
POINT
  5
1C8CDE6ACB00
100
AcDbEntity
  8
DEFPOINTS
  6
BYBLOCK
 62
     0
100
AcDbPoint
 10
1724.522215
 20
1978.554967
 30
0.0
  0
POINT
  5
1C8CDE6ACB01
100
AcDbEntity
  8
DEFPOINTS
  6
BYBLOCK
 62
     0
100
AcDbPoint
 10
1426.842984
 20
1078.554967
 30
0.0
  0
POINT
  5
1C8CDE6ACB02
100
AcDbEntity
  8
DEFPOINTS
  6
BYBLOCK
 62
     0
100
AcDbPoint
 10
1336.372267
 20
1078.554967
 30
0.0
  0
ENDBLK
  5
1C8CDE6ACB03
100
AcDbEntity
  8
0
100
AcDbBlockEnd
  0
BLOCK
  5
1C8CDE6ACD9E
100
AcDbEntity
  8
0
100
AcDbBlockBegin
  2
*X7
 70
    65
 10
0.0
 20
0.0
 30
0.0
  3
*X7
  1

  0
LINE
  5
1C8CDE6ACDA0
100
AcDbEntity
  8
0
 62
     0
100
AcDbLine
 10
1681.972215
 20
1771.774776
 30
0.0
 11
1724.522215
 21
1814.324776
 31
0.0
  0
LINE
  5
1C8CDE6ACDA1
100
AcDbEntity
  8
0
 62
     0
100
AcDbLine
 10
1724.522215
 20
1814.324776
 30
0.0
 11
1767.072215
 21
1856.874776
 31
0.0
  0
LINE
  5
1C8CDE6ACDA2
100
AcDbEntity
  8
0
 62
     0
100
AcDbLine
 10
1681.972215
 20
1780.755032
 30
0.0
 11
1724.522215
 21
1823.305032
 31
0.0
  0
LINE
  5
1C8CDE6ACDA3
100
AcDbEntity
  8
0
 62
     0
100
AcDbLine
 10
1724.522215
 20
1823.305032
 30
0.0
 11
1767.072215
 21
1865.855032
 31
0.0
  0
LINE
  5
1C8CDE6ACDA4
100
AcDbEntity
  8
0
 62
     0
100
AcDbLine
 10
1681.972215
 20
1789.735288
 30
0.0
 11
1724.522215
 21
1832.285288
 31
0.0
  0
LINE
  5
1C8CDE6ACDA5
100
AcDbEntity
  8
0
 62
     0
100
AcDbLine
 10
1724.522215
 20
1832.285288
 30
0.0
 11
1767.072215
 21
1874.835288
 31
0.0
  0
LINE
  5
1C8CDE6ACDA6
100
AcDbEntity
  8
0
 62
     0
100
AcDbLine
 10
1681.972215
 20
1798.715544
 30
0.0
 11
1724.522215
 21
1841.265544
 31
0.0
  0
LINE
  5
1C8CDE6ACDA7
100
AcDbEntity
  8
0
 62
     0
100
AcDbLine
 10
1724.522215
 20
1841.265544
 30
0.0
 11
1761.811637
 21
1878.554967
 31
0.0
  0
LINE
  5
1C8CDE6ACDA8
100
AcDbEntity
  8
0
 62
     0
100
AcDbLine
 10
1681.972215
 20
1807.6958
 30
0.0
 11
1724.522215
 21
1850.2458
 31
0.0
  0
LINE
  5
1C8CDE6ACDA9
100
AcDbEntity
  8
0
 62
     0
100
AcDbLine
 10
1724.522215
 20
1850.2458
 30
0.0
 11
1752.831381
 21
1878.554967
 31
0.0
  0
LINE
  5
1C8CDE6ACDAA
100
AcDbEntity
  8
0
 62
     0
100
AcDbLine
 10
1681.972215
 20
1816.676056
 30
0.0
 11
1724.522215
 21
1859.226056
 31
0.0
  0
LINE
  5
1C8CDE6ACDAB
100
AcDbEntity
  8
0
 62
     0
100
AcDbLine
 10
1724.522215
 20
1859.226056
 30
0.0
 11
1743.851125
 21
1878.554967
 31
0.0
  0
LINE
  5
1C8CDE6ACDAC
100
AcDbEntity
  8
0
 62
     0
100
AcDbLine
 10
1681.972215
 20
1825.656312
 30
0.0
 11
1724.522215
 21
1868.206312
 31
0.0
  0
LINE
  5
1C8CDE6ACDAD
100
AcDbEntity
  8
0
 62
     0
100
AcDbLine
 10
1724.522215
 20
1868.206312
 30
0.0
 11
1734.870869
 21
1878.554967
 31
0.0
  0
LINE
  5
1C8CDE6ACDAE
100
AcDbEntity
  8
0
 62
     0
100
AcDbLine
 10
1681.972215
 20
1834.636569
 30
0.0
 11
1724.522215
 21
1877.186569
 31
0.0
  0
LINE
  5
1C8CDE6ACDAF
100
AcDbEntity
  8
0
 62
     0
100
AcDbLine
 10
1724.522215
 20
1877.186569
 30
0.0
 11
1725.890613
 21
1878.554967
 31
0.0
  0
LINE
  5
1C8CDE6ACDB0
100
AcDbEntity
  8
0
 62
     0
100
AcDbLine
 10
1681.972215
 20
1843.616825
 30
0.0
 11
1716.910357
 21
1878.554967
 31
0.0
  0
LINE
  5
1C8CDE6ACDB1
100
AcDbEntity
  8
0
 62
     0
100
AcDbLine
 10
1681.972215
 20
1852.597081
 30
0.0
 11
1707.930101
 21
1878.554967
 31
0.0
  0
LINE
  5
1C8CDE6ACDB2
100
AcDbEntity
  8
0
 62
     0
100
AcDbLine
 10
1681.972215
 20
1861.577337
 30
0.0
 11
1698.949844
 21
1878.554967
 31
0.0
  0
LINE
  5
1C8CDE6ACDB3
100
AcDbEntity
  8
0
 62
     0
100
AcDbLine
 10
1681.972215
 20
1870.557593
 30
0.0
 11
1689.969588
 21
1878.554967
 31
0.0
  0
LINE
  5
1C8CDE6ACDB4
100
AcDbEntity
  8
0
 62
     0
100
AcDbLine
 10
1681.972215
 20
1762.79452
 30
0.0
 11
1724.522215
 21
1805.34452
 31
0.0
  0
LINE
  5
1C8CDE6ACDB5
100
AcDbEntity
  8
0
 62
     0
100
AcDbLine
 10
1724.522215
 20
1805.34452
 30
0.0
 11
1767.072215
 21
1847.89452
 31
0.0
  0
LINE
  5
1C8CDE6ACDB6
100
AcDbEntity
  8
0
 62
     0
100
AcDbLine
 10
1686.712918
 20
1758.554967
 30
0.0
 11
1724.522215
 21
1796.364263
 31
0.0
  0
LINE
  5
1C8CDE6ACDB7
100
AcDbEntity
  8
0
 62
     0
100
AcDbLine
 10
1724.522215
 20
1796.364263
 30
0.0
 11
1767.072215
 21
1838.914263
 31
0.0
  0
LINE
  5
1C8CDE6ACDB8
100
AcDbEntity
  8
0
 62
     0
100
AcDbLine
 10
1695.693174
 20
1758.554967
 30
0.0
 11
1724.522215
 21
1787.384007
 31
0.0
  0
LINE
  5
1C8CDE6ACDB9
100
AcDbEntity
  8
0
 62
     0
100
AcDbLine
 10
1724.522215
 20
1787.384007
 30
0.0
 11
1767.072215
 21
1829.934007
 31
0.0
  0
LINE
  5
1C8CDE6ACDBA
100
AcDbEntity
  8
0
 62
     0
100
AcDbLine
 10
1704.67343
 20
1758.554967
 30
0.0
 11
1724.522215
 21
1778.403751
 31
0.0
  0
LINE
  5
1C8CDE6ACDBB
100
AcDbEntity
  8
0
 62
     0
100
AcDbLine
 10
1724.522215
 20
1778.403751
 30
0.0
 11
1767.072215
 21
1820.953751
 31
0.0
  0
LINE
  5
1C8CDE6ACDBC
100
AcDbEntity
  8
0
 62
     0
100
AcDbLine
 10
1713.653686
 20
1758.554967
 30
0.0
 11
1724.522215
 21
1769.423495
 31
0.0
  0
LINE
  5
1C8CDE6ACDBD
100
AcDbEntity
  8
0
 62
     0
100
AcDbLine
 10
1724.522215
 20
1769.423495
 30
0.0
 11
1767.072215
 21
1811.973495
 31
0.0
  0
LINE
  5
1C8CDE6ACDBE
100
AcDbEntity
  8
0
 62
     0
100
AcDbLine
 10
1722.633942
 20
1758.554967
 30
0.0
 11
1724.522215
 21
1760.443239
 31
0.0
  0
LINE
  5
1C8CDE6ACDBF
100
AcDbEntity
  8
0
 62
     0
100
AcDbLine
 10
1724.522215
 20
1760.443239
 30
0.0
 11
1767.072215
 21
1802.993239
 31
0.0
  0
LINE
  5
1C8CDE6ACDC0
100
AcDbEntity
  8
0
 62
     0
100
AcDbLine
 10
1731.614199
 20
1758.554967
 30
0.0
 11
1767.072215
 21
1794.012983
 31
0.0
  0
LINE
  5
1C8CDE6ACDC1
100
AcDbEntity
  8
0
 62
     0
100
AcDbLine
 10
1740.594455
 20
1758.554967
 30
0.0
 11
1767.072215
 21
1785.032727
 31
0.0
  0
LINE
  5
1C8CDE6ACDC2
100
AcDbEntity
  8
0
 62
     0
100
AcDbLine
 10
1749.574711
 20
1758.554967
 30
0.0
 11
1767.072215
 21
1776.052471
 31
0.0
  0
LINE
  5
1C8CDE6ACDC3
100
AcDbEntity
  8
0
 62
     0
100
AcDbLine
 10
1758.554967
 20
1758.554967
 30
0.0
 11
1767.072215
 21
1767.072215
 31
0.0
  0
ENDBLK
  5
1C8CDE6ACDC4
100
AcDbEntity
  8
0
100
AcDbBlockEnd
  0
BLOCK
  5
1C8CDE6ACDC8
100
AcDbEntity
  8
0
100
AcDbBlockBegin
  2
*D8
 70
    65
 10
0.0
 20
0.0
 30
0.0
  3
*D8
  1

  0
LINE
  5
1C8CDE6ACDC9
100
AcDbEntity
  8
0
  6
BYBLOCK
100
AcDbLine
 10
1714.522215
 20
1978.554967
 30
0.0
 11
1426.372267
 21
1978.554967
 31
0.0
  0
LINE
  5
1C8CDE6ACDCA
100
AcDbEntity
  8
0
  6
BYBLOCK
100
AcDbLine
 10
1670.422215
 20
1878.554967
 30
0.0
 11
1426.372267
 21
1878.554967
 31
0.0
  0
LINE
  5
1C8CDE6ACDCB
100
AcDbEntity
  8
0
  6
BYBLOCK
100
AcDbLine
 10
1436.372267
 20
1958.554967
 30
0.0
 11
1436.372267
 21
1898.554967
 31
0.0
  0
MTEXT
  5
1C8CDE6ACDCC
100
AcDbEntity
  8
0
  6
BYBLOCK
100
AcDbMText
 10
1393.372267
 20
1928.554967
 30
0.0
 40
30.0
 41
0.0
 71
     5
 72
     1
  1
\A1;100
  7
EXT08
 11
0.0
 21
1.0
 31
0.0
  0
SOLID
  5
1C8CDE6ACDCD
100
AcDbEntity
  8
0
  6
BYBLOCK
100
AcDbTrace
 10
1433.038934
 20
1958.554967
 30
0.0
 11
1439.7056
 21
1958.554967
 31
0.0
 12
1436.372267
 22
1978.554967
 32
0.0
 13
1436.372267
 23
1978.554967
 33
0.0
  0
SOLID
  5
1C8CDE6ACDCE
100
AcDbEntity
  8
0
  6
BYBLOCK
100
AcDbTrace
 10
1433.038934
 20
1898.554967
 30
0.0
 11
1439.7056
 21
1898.554967
 31
0.0
 12
1436.372267
 22
1878.554967
 32
0.0
 13
1436.372267
 23
1878.554967
 33
0.0
  0
POINT
  5
1C8CDE6ACDCF
100
AcDbEntity
  8
DEFPOINTS
  6
BYBLOCK
 62
     0
100
AcDbPoint
 10
1724.522215
 20
1978.554967
 30
0.0
  0
POINT
  5
1C8CDE6ACDD0
100
AcDbEntity
  8
DEFPOINTS
  6
BYBLOCK
 62
     0
100
AcDbPoint
 10
1680.422215
 20
1878.554967
 30
0.0
  0
POINT
  5
1C8CDE6ACDD1
100
AcDbEntity
  8
DEFPOINTS
  6
BYBLOCK
 62
     0
100
AcDbPoint
 10
1436.372267
 20
1878.554967
 30
0.0
  0
ENDBLK
  5
1C8CDE6ACDD2
100
AcDbEntity
  8
0
100
AcDbBlockEnd
  0
BLOCK
  5
1C8CDE6ACDD5
100
AcDbEntity
  8
0
100
AcDbBlockBegin
  2
*D9
 70
    65
 10
0.0
 20
0.0
 30
0.0
  3
*D9
  1

  0
LINE
  5
1C8CDE6ACDD6
100
AcDbEntity
  8
0
  6
BYBLOCK
100
AcDbLine
 10
1670.422215
 20
1878.554967
 30
0.0
 11
1426.372267
 21
1878.554967
 31
0.0
  0
LINE
  5
1C8CDE6ACDD7
100
AcDbEntity
  8
0
  6
BYBLOCK
100
AcDbLine
 10
1671.972215
 20
1758.559069
 30
0.0
 11
1426.372267
 21
1758.559069
 31
0.0
  0
LINE
  5
1C8CDE6ACDD8
100
AcDbEntity
  8
0
  6
BYBLOCK
100
AcDbLine
 10
1436.372267
 20
1858.554967
 30
0.0
 11
1436.372267
 21
1778.559069
 31
0.0
  0
MTEXT
  5
1C8CDE6ACDD9
100
AcDbEntity
  8
0
  6
BYBLOCK
100
AcDbMText
 10
1393.372267
 20
1818.557018
 30
0.0
 40
30.0
 41
0.0
 71
     5
 72
     1
  1
\A1;120
  7
EXT08
 11
0.0
 21
1.0
 31
0.0
  0
SOLID
  5
1C8CDE6ACDDA
100
AcDbEntity
  8
0
  6
BYBLOCK
100
AcDbTrace
 10
1433.038934
 20
1858.554967
 30
0.0
 11
1439.7056
 21
1858.554967
 31
0.0
 12
1436.372267
 22
1878.554967
 32
0.0
 13
1436.372267
 23
1878.554967
 33
0.0
  0
SOLID
  5
1C8CDE6ACDDB
100
AcDbEntity
  8
0
  6
BYBLOCK
100
AcDbTrace
 10
1433.038934
 20
1778.559069
 30
0.0
 11
1439.7056
 21
1778.559069
 31
0.0
 12
1436.372267
 22
1758.559069
 32
0.0
 13
1436.372267
 23
1758.559069
 33
0.0
  0
POINT
  5
1C8CDE6ACDDC
100
AcDbEntity
  8
DEFPOINTS
  6
BYBLOCK
 62
     0
100
AcDbPoint
 10
1680.422215
 20
1878.554967
 30
0.0
  0
POINT
  5
1C8CDE6ACDDD
100
AcDbEntity
  8
DEFPOINTS
  6
BYBLOCK
 62
     0
100
AcDbPoint
 10
1681.972215
 20
1758.559069
 30
0.0
  0
POINT
  5
1C8CDE6ACDDE
100
AcDbEntity
  8
DEFPOINTS
  6
BYBLOCK
 62
     0
100
AcDbPoint
 10
1436.372267
 20
1758.559069
 30
0.0
  0
ENDBLK
  5
1C8CDE6ACDDF
100
AcDbEntity
  8
0
100
AcDbBlockEnd
  0
BLOCK
  5
1C8CDE6ACE45
100
AcDbEntity
  8
0
100
AcDbBlockBegin
  2
*X10
 70
    65
 10
0.0
 20
0.0
 30
0.0
  3
*X10
  1

  0
LINE
  5
1C8CDE6ACE47
100
AcDbEntity
  8
0
 62
     0
100
AcDbLine
 10
1574.522215
 20
766.299164
 30
0.0
 11
1679.972215
 21
871.749164
 31
0.0
  0
LINE
  5
1C8CDE6ACE48
100
AcDbEntity
  8
0
 62
     0
100
AcDbLine
 10
1769.072215
 20
960.849164
 30
0.0
 11
1874.522215
 21
1066.299164
 31
0.0
  0
LINE
  5
1C8CDE6ACE49
100
AcDbEntity
  8
0
 62
     0
100
AcDbLine
 10
1574.522215
 20
856.101725
 30
0.0
 11
1679.972215
 21
961.551725
 31
0.0
  0
LINE
  5
1C8CDE6ACE4A
100
AcDbEntity
  8
0
 62
     0
100
AcDbLine
 10
1769.072215
 20
1050.651725
 30
0.0
 11
1796.975457
 21
1078.554967
 31
0.0
  0
LINE
  5
1C8CDE6ACE4B
100
AcDbEntity
  8
0
 62
     0
100
AcDbLine
 10
1574.522215
 20
945.904286
 30
0.0
 11
1679.972215
 21
1051.354286
 31
0.0
  0
LINE
  5
1C8CDE6ACE4C
100
AcDbEntity
  8
0
 62
     0
100
AcDbLine
 10
1574.522215
 20
1035.706847
 30
0.0
 11
1617.370334
 21
1078.554967
 31
0.0
  0
LINE
  5
1C8CDE6ACE4D
100
AcDbEntity
  8
0
 62
     0
100
AcDbLine
 10
1576.580579
 20
678.554967
 30
0.0
 11
1679.972215
 21
781.946602
 31
0.0
  0
LINE
  5
1C8CDE6ACE4E
100
AcDbEntity
  8
0
 62
     0
100
AcDbLine
 10
1769.072215
 20
871.046602
 30
0.0
 11
1874.522215
 21
976.496602
 31
0.0
  0
LINE
  5
1C8CDE6ACE4F
100
AcDbEntity
  8
0
 62
     0
100
AcDbLine
 10
1666.38314
 20
678.554967
 30
0.0
 11
1679.972215
 21
692.144041
 31
0.0
  0
LINE
  5
1C8CDE6ACE50
100
AcDbEntity
  8
0
 62
     0
100
AcDbLine
 10
1769.072215
 20
781.244041
 30
0.0
 11
1874.522215
 21
886.694041
 31
0.0
  0
LINE
  5
1C8CDE6ACE51
100
AcDbEntity
  8
0
 62
     0
100
AcDbLine
 10
1769.072215
 20
691.44148
 30
0.0
 11
1874.522215
 21
796.89148
 31
0.0
  0
LINE
  5
1C8CDE6ACE52
100
AcDbEntity
  8
0
 62
     0
100
AcDbLine
 10
1845.988263
 20
678.554967
 30
0.0
 11
1874.522215
 21
707.088919
 31
0.0
  0
LINE
  5
1C8CDE6ACE53
100
AcDbEntity
  8
0
 62
     0
100
AcDbLine
 10
1574.522215
 20
777.524484
 30
0.0
 11
1679.972215
 21
882.974484
 31
0.0
  0
LINE
  5
1C8CDE6ACE54
100
AcDbEntity
  8
0
 62
     0
100
AcDbLine
 10
1769.072215
 20
972.074484
 30
0.0
 11
1874.522215
 21
1077.524484
 31
0.0
  0
LINE
  5
1C8CDE6ACE55
100
AcDbEntity
  8
0
 62
     0
100
AcDbLine
 10
1574.522215
 20
867.327045
 30
0.0
 11
1679.972215
 21
972.777045
 31
0.0
  0
LINE
  5
1C8CDE6ACE56
100
AcDbEntity
  8
0
 62
     0
100
AcDbLine
 10
1769.072215
 20
1061.877045
 30
0.0
 11
1785.750136
 21
1078.554967
 31
0.0
  0
LINE
  5
1C8CDE6ACE57
100
AcDbEntity
  8
0
 62
     0
100
AcDbLine
 10
1574.522215
 20
957.129606
 30
0.0
 11
1679.972215
 21
1062.579606
 31
0.0
  0
LINE
  5
1C8CDE6ACE58
100
AcDbEntity
  8
0
 62
     0
100
AcDbLine
 10
1574.522215
 20
1046.932167
 30
0.0
 11
1606.145014
 21
1078.554967
 31
0.0
  0
LINE
  5
1C8CDE6ACE59
100
AcDbEntity
  8
0
 62
     0
100
AcDbLine
 10
1574.522215
 20
687.721923
 30
0.0
 11
1679.972215
 21
793.171923
 31
0.0
  0
LINE
  5
1C8CDE6ACE5A
100
AcDbEntity
  8
0
 62
     0
100
AcDbLine
 10
1769.072215
 20
882.271923
 30
0.0
 11
1874.522215
 21
987.721923
 31
0.0
  0
LINE
  5
1C8CDE6ACE5B
100
AcDbEntity
  8
0
 62
     0
100
AcDbLine
 10
1655.15782
 20
678.554967
 30
0.0
 11
1679.972215
 21
703.369361
 31
0.0
  0
LINE
  5
1C8CDE6ACE5C
100
AcDbEntity
  8
0
 62
     0
100
AcDbLine
 10
1769.072215
 20
792.469361
 30
0.0
 11
1874.522215
 21
897.919361
 31
0.0
  0
LINE
  5
1C8CDE6ACE5D
100
AcDbEntity
  8
0
 62
     0
100
AcDbLine
 10
1769.072215
 20
702.6668
 30
0.0
 11
1874.522215
 21
808.1168
 31
0.0
  0
LINE
  5
1C8CDE6ACE5E
100
AcDbEntity
  8
0
 62
     0
100
AcDbLine
 10
1834.762942
 20
678.554967
 30
0.0
 11
1874.522215
 21
718.314239
 31
0.0
  0
LINE
  5
1C8CDE6ACE5F
100
AcDbEntity
  8
0
 62
     0
100
AcDbLine
 10
1574.522215
 20
788.749804
 30
0.0
 11
1679.972215
 21
894.199804
 31
0.0
  0
LINE
  5
1C8CDE6ACE60
100
AcDbEntity
  8
0
 62
     0
100
AcDbLine
 10
1769.072215
 20
983.299804
 30
0.0
 11
1864.327377
 21
1078.554967
 31
0.0
  0
LINE
  5
1C8CDE6ACE61
100
AcDbEntity
  8
0
 62
     0
100
AcDbLine
 10
1574.522215
 20
878.552365
 30
0.0
 11
1679.972215
 21
984.002365
 31
0.0
  0
LINE
  5
1C8CDE6ACE62
100
AcDbEntity
  8
0
 62
     0
100
AcDbLine
 10
1769.072215
 20
1073.102365
 30
0.0
 11
1774.524816
 21
1078.554967
 31
0.0
  0
LINE
  5
1C8CDE6ACE63
100
AcDbEntity
  8
0
 62
     0
100
AcDbLine
 10
1574.522215
 20
968.354926
 30
0.0
 11
1679.972215
 21
1073.804926
 31
0.0
  0
LINE
  5
1C8CDE6ACE64
100
AcDbEntity
  8
0
 62
     0
100
AcDbLine
 10
1574.522215
 20
1058.157488
 30
0.0
 11
1594.919694
 21
1078.554967
 31
0.0
  0
LINE
  5
1C8CDE6ACE65
100
AcDbEntity
  8
0
 62
     0
100
AcDbLine
 10
1574.522215
 20
698.947243
 30
0.0
 11
1679.972215
 21
804.397243
 31
0.0
  0
LINE
  5
1C8CDE6ACE66
100
AcDbEntity
  8
0
 62
     0
100
AcDbLine
 10
1769.072215
 20
893.497243
 30
0.0
 11
1874.522215
 21
998.947243
 31
0.0
  0
LINE
  5
1C8CDE6ACE67
100
AcDbEntity
  8
0
 62
     0
100
AcDbLine
 10
1643.9325
 20
678.554967
 30
0.0
 11
1679.972215
 21
714.594682
 31
0.0
  0
LINE
  5
1C8CDE6ACE68
100
AcDbEntity
  8
0
 62
     0
100
AcDbLine
 10
1769.072215
 20
803.694682
 30
0.0
 11
1874.522215
 21
909.144682
 31
0.0
  0
LINE
  5
1C8CDE6ACE69
100
AcDbEntity
  8
0
 62
     0
100
AcDbLine
 10
1769.072215
 20
713.89212
 30
0.0
 11
1874.522215
 21
819.34212
 31
0.0
  0
LINE
  5
1C8CDE6ACE6A
100
AcDbEntity
  8
0
 62
     0
100
AcDbLine
 10
1823.537622
 20
678.554967
 30
0.0
 11
1874.522215
 21
729.539559
 31
0.0
  0
ENDBLK
  5
1C8CDE6ACE6B
100
AcDbEntity
  8
0
100
AcDbBlockEnd
  0
ENDSEC
  0
SECTION
  2
ENTITIES
  0
TEXT
  5
1C8CDE699D90
100
AcDbEntity
  8
INFORMATION
100
AcDbText
 10
1.0
 20
2.0
 30
0.0
 40
0.8
  1
PLOTTER=CANON_LBP-830
  7
EXT08
100
AcDbText
  0
TEXT
  5
1C8CDE699D91
100
AcDbEntity
  8
INFORMATION
100
AcDbText
 10
1.0
 20
3.0
 30
0.0
 40
0.8
  1
PAPER=A3
  7
EXT08
100
AcDbText
  0
TEXT
  5
1C8CDE6A8E5B
100
AcDbEntity
  8
MOJI
100
AcDbText
 10
3188.99052
 20
2580.063834
 30
0.0
 40
30.0
  1
シティ車止め
 41
0.8
  7
EXT08
100
AcDbText
  0
TEXT
  5
1C8CDE6A8E5C
100
AcDbEntity
  8
MOJI
100
AcDbText
 10
3188.99052
 20
2530.063834
 30
0.0
 40
30.0
  1
CK-89HR-90K
 41
0.8
  7
EXT08
100
AcDbText
  0
LINE
  5
1C8CDE6A8EC1
100
AcDbEntity
  8
SJC
100
AcDbLine
 10
3650.0
 20
2570.0
 30
0.0
 11
3008.054726
 21
2570.0
 31
0.0
  0
LINE
  5
1C8CDE6A8EC2
100
AcDbEntity
  8
SJC
100
AcDbLine
 10
3650.0
 20
2520.0
 30
0.0
 11
3008.054726
 21
2520.0
 31
0.0
  0
LINE
  5
1C8CDE6A8EC3
100
AcDbEntity
  8
SJC
100
AcDbLine
 10
3023.054726
 20
2470.0
 30
0.0
 11
3635.0
 21
2470.0
 31
0.0
  0
LINE
  5
1C8CDE6A8EC4
100
AcDbEntity
  8
SJC
100
AcDbLine
 10
3635.0
 20
2620.0
 30
0.0
 11
3023.054726
 21
2620.0
 31
0.0
  0
LINE
  5
1C8CDE6A8EC5
100
AcDbEntity
  8
SJC
100
AcDbLine
 10
3008.054726
 20
2605.0
 30
0.0
 11
3008.054726
 21
2485.0
 31
0.0
  0
TEXT
  5
1C8CDE6A8EC6
100
AcDbEntity
  8
MOJI
100
AcDbText
 10
3038.99052
 20
2530.063834
 30
0.0
 40
30.0
  1
品　番
 41
0.8
  7
EXT08
100
AcDbText
  0
ARC
  5
1C8CDE6A8EC7
100
AcDbEntity
  8
SJC
100
AcDbCircle
 10
3023.054726
 20
2485.0
 30
0.0
 40
15.0
100
AcDbArc
 50
180.0
 51
270.0
  0
TEXT
  5
1C8CDE6A8EC8
100
AcDbEntity
  8
MOJI
100
AcDbText
 10
3028.938294
 20
2480.063834
 30
0.0
 40
30.0
  1
図面番号
 41
0.8
  7
EXT08
100
AcDbText
  0
TEXT
  5
1C8CDE6A8EC9
100
AcDbEntity
  8
MOJI
100
AcDbText
 10
3042.312968
 20
2580.063834
 30
0.0
 40
30.0
  1
タイプ
 41
0.8
  7
EXT08
100
AcDbText
  0
ARC
  5
1C8CDE6A8ECA
100
AcDbEntity
  8
SJC
100
AcDbCircle
 10
3023.054726
 20
2605.0
 30
0.0
 40
15.0
100
AcDbArc
 50
90.0
 51
180.0
  0
LINE
  5
1C8CDE6A8ECB
100
AcDbEntity
  8
SJC
100
AcDbLine
 10
3158.054726
 20
2620.0
 30
0.0
 11
3158.054726
 21
2470.0
 31
0.0
  0
TEXT
  5
1C8CDE6A8ECC
100
AcDbEntity
  8
MOJI
100
AcDbText
 10
3188.99052
 20
2480.063834
 30
0.0
 40
30.0
  1
KEKH00081
 41
0.8
  7
EXT08
100
AcDbText
  0
LINE
  5
1C8CDE6A8ECD
100
AcDbEntity
  8
SJC
100
AcDbLine
 10
3650.0
 20
2485.0
 30
0.0
 11
3650.0
 21
2605.0
 31
0.0
  0
ARC
  5
1C8CDE6A8ECE
100
AcDbEntity
  8
SJC
100
AcDbCircle
 10
3635.0
 20
2485.0
 30
0.0
 40
15.0
100
AcDbArc
 50
270.0
 51
0.0
  0
ARC
  5
1C8CDE6A8ECF
100
AcDbEntity
  8
SJC
100
AcDbCircle
 10
3635.0
 20
2605.0
 30
0.0
 40
15.0
100
AcDbArc
 50
0.0
 51
90.0
  0
POLYLINE
  5
1C8CDE6A8ED2
100
AcDbEntity
  8
HATCH
  6
CONTINUOUS
100
AcDb2dPolyline
 66
     1
 10
0.0
 20
0.0
 30
0.0
 70
     1
  0
VERTEX
  5
1C8CDE6A8ED3
100
AcDbEntity
  8
HATCH
  6
CONTINUOUS
100
AcDbVertex
100
AcDb2dVertex
 10
1865.736947
 20
628.959567
 30
0.0
 42
0.138281
  0
VERTEX
  5
1C8CDE6A8ED4
100
AcDbEntity
  8
HATCH
  6
CONTINUOUS
100
AcDbVertex
100
AcDb2dVertex
 10
1872.181022
 20
629.043472
 30
0.0
 42
0.107061
  0
VERTEX
  5
1C8CDE6A8ED5
100
AcDbEntity
  8
HATCH
  6
CONTINUOUS
100
AcDbVertex
100
AcDb2dVertex
 10
1879.426485
 20
633.012503
 30
0.0
 42
0.08054
 70
     2
 50
40.935484
  0
VERTEX
  5
1C8CDE6A8ED6
100
AcDbEntity
  8
HATCH
  6
CONTINUOUS
100
AcDbVertex
100
AcDb2dVertex
 10
1884.994676
 20
639.682568
 30
0.0
 42
0.068375
 50
40.935484
  0
VERTEX
  5
1C8CDE6A8ED7
100
AcDbEntity
  8
HATCH
  6
CONTINUOUS
100
AcDbVertex
100
AcDb2dVertex
 10
1888.957396
 20
649.098936
 30
0.0
 42
0.068375
  0
VERTEX
  5
1C8CDE6A8ED8
100
AcDbEntity
  8
HATCH
  6
CONTINUOUS
100
AcDbVertex
100
AcDb2dVertex
 10
1890.233764
 20
659.23511
 30
0.0
 42
0.08054
  0
VERTEX
  5
1C8CDE6A8ED9
100
AcDbEntity
  8
HATCH
  6
CONTINUOUS
100
AcDbVertex
100
AcDb2dVertex
 10
1888.746602
 20
667.795651
 30
0.0
 42
0.107061
 70
     2
 50
109.064516
  0
VERTEX
  5
1C8CDE6A8EDA
100
AcDbEntity
  8
HATCH
  6
CONTINUOUS
100
AcDbVertex
100
AcDb2dVertex
 10
1884.456362
 20
674.855665
 30
0.0
 42
0.138281
 50
109.064516
  0
VERTEX
  5
1C8CDE6A8EDB
100
AcDbEntity
  8
HATCH
  6
CONTINUOUS
100
AcDbVertex
100
AcDb2dVertex
 10
1878.917582
 20
678.150366
 30
0.0
 42
0.138281
  0
VERTEX
  5
1C8CDE6A8EDC
100
AcDbEntity
  8
HATCH
  6
CONTINUOUS
100
AcDbVertex
100
AcDb2dVertex
 10
1872.473507
 20
678.066461
 30
0.0
 42
0.107061
  0
VERTEX
  5
1C8CDE6A8EDD
100
AcDbEntity
  8
HATCH
  6
CONTINUOUS
100
AcDbVertex
100
AcDb2dVertex
 10
1865.228043
 20
674.09743
 30
0.0
 42
0.08054
 70
     2
 50
220.935484
  0
VERTEX
  5
1C8CDE6A8EDE
100
AcDbEntity
  8
HATCH
  6
CONTINUOUS
100
AcDbVertex
100
AcDb2dVertex
 10
1859.659852
 20
667.427365
 30
0.0
 42
0.068375
 50
220.935484
  0
VERTEX
  5
1C8CDE6A8EDF
100
AcDbEntity
  8
HATCH
  6
CONTINUOUS
100
AcDbVertex
100
AcDb2dVertex
 10
1855.697132
 20
658.010997
 30
0.0
 42
0.068375
  0
VERTEX
  5
1C8CDE6A8EE0
100
AcDbEntity
  8
HATCH
  6
CONTINUOUS
100
AcDbVertex
100
AcDb2dVertex
 10
1854.420765
 20
647.874823
 30
0.0
 42
0.08054
  0
VERTEX
  5
1C8CDE6A8EE1
100
AcDbEntity
  8
HATCH
  6
CONTINUOUS
100
AcDbVertex
100
AcDb2dVertex
 10
1855.907927
 20
639.314282
 30
0.0
 42
0.107061
 70
     2
 50
289.064516
  0
VERTEX
  5
1C8CDE6A8EE2
100
AcDbEntity
  8
HATCH
  6
CONTINUOUS
100
AcDbVertex
100
AcDb2dVertex
 10
1860.198167
 20
632.254269
 30
0.0
 42
0.138281
 50
289.064516
  0
SEQEND
  5
1C8CDE6A8EE3
100
AcDbEntity
  8
HATCH
  6
CONTINUOUS
  0
LINE
  5
1C8CDE6A8EE4
100
AcDbEntity
  8
SJC
  6
CONTINUOUS
100
AcDbLine
 10
1924.523086
 20
628.554967
 30
0.0
 11
1524.523086
 21
628.554967
 31
0.0
  0
LINE
  5
1C8CDE6A8EE5
100
AcDbEntity
  8
SJC
  6
CONTINUOUS
100
AcDbLine
 10
1924.523086
 20
678.554967
 30
0.0
 11
1524.523086
 21
678.554967
 31
0.0
1001
ACAD
1000
ASC_BOUNDS
1002
{
1070
    19
1005
0
1005
0
1005
0
1005
0
1005
0
1005
0
1005
0
1005
0
1002
}
  0
POLYLINE
  5
1C8CDE6A8EE6
100
AcDbEntity
  8
HATCH
  6
CONTINUOUS
100
AcDb2dPolyline
 66
     1
 10
0.0
 20
0.0
 30
0.0
 70
     1
  0
VERTEX
  5
1C8CDE6A8EE7
100
AcDbEntity
  8
HATCH
  6
CONTINUOUS
100
AcDbVertex
100
AcDb2dVertex
 10
1536.968068
 20
628.959567
 30
0.0
 42
0.138281
  0
VERTEX
  5
1C8CDE6A8EE8
100
AcDbEntity
  8
HATCH
  6
CONTINUOUS
100
AcDbVertex
100
AcDb2dVertex
 10
1543.412143
 20
629.043472
 30
0.0
 42
0.107061
  0
VERTEX
  5
1C8CDE6A8EE9
100
AcDbEntity
  8
HATCH
  6
CONTINUOUS
100
AcDbVertex
100
AcDb2dVertex
 10
1550.657607
 20
633.012503
 30
0.0
 42
0.08054
 70
     2
 50
40.935484
  0
VERTEX
  5
1C8CDE6A8EEA
100
AcDbEntity
  8
HATCH
  6
CONTINUOUS
100
AcDbVertex
100
AcDb2dVertex
 10
1556.225798
 20
639.682568
 30
0.0
 42
0.068375
 50
40.935484
  0
VERTEX
  5
1C8CDE6A8EEB
100
AcDbEntity
  8
HATCH
  6
CONTINUOUS
100
AcDbVertex
100
AcDb2dVertex
 10
1560.188518
 20
649.098936
 30
0.0
 42
0.068375
  0
VERTEX
  5
1C8CDE6A8EEC
100
AcDbEntity
  8
HATCH
  6
CONTINUOUS
100
AcDbVertex
100
AcDb2dVertex
 10
1561.464885
 20
659.23511
 30
0.0
 42
0.08054
  0
VERTEX
  5
1C8CDE6A8EED
100
AcDbEntity
  8
HATCH
  6
CONTINUOUS
100
AcDbVertex
100
AcDb2dVertex
 10
1559.977723
 20
667.795651
 30
0.0
 42
0.107061
 70
     2
 50
109.064516
  0
VERTEX
  5
1C8CDE6A8EEE
100
AcDbEntity
  8
HATCH
  6
CONTINUOUS
100
AcDbVertex
100
AcDb2dVertex
 10
1555.687483
 20
674.855665
 30
0.0
 42
0.138281
 50
109.064516
  0
VERTEX
  5
1C8CDE6A8EEF
100
AcDbEntity
  8
HATCH
  6
CONTINUOUS
100
AcDbVertex
100
AcDb2dVertex
 10
1550.148703
 20
678.150366
 30
0.0
 42
0.138281
  0
VERTEX
  5
1C8CDE6A8EF0
100
AcDbEntity
  8
HATCH
  6
CONTINUOUS
100
AcDbVertex
100
AcDb2dVertex
 10
1543.704628
 20
678.066461
 30
0.0
 42
0.107061
  0
VERTEX
  5
1C8CDE6A8EF1
100
AcDbEntity
  8
HATCH
  6
CONTINUOUS
100
AcDbVertex
100
AcDb2dVertex
 10
1536.459165
 20
674.09743
 30
0.0
 42
0.08054
 70
     2
 50
220.935484
  0
VERTEX
  5
1C8CDE6A8EF2
100
AcDbEntity
  8
HATCH
  6
CONTINUOUS
100
AcDbVertex
100
AcDb2dVertex
 10
1530.890974
 20
667.427365
 30
0.0
 42
0.068375
 50
220.935484
  0
VERTEX
  5
1C8CDE6A8EF3
100
AcDbEntity
  8
HATCH
  6
CONTINUOUS
100
AcDbVertex
100
AcDb2dVertex
 10
1526.928254
 20
658.010997
 30
0.0
 42
0.068375
  0
VERTEX
  5
1C8CDE6A8EF4
100
AcDbEntity
  8
HATCH
  6
CONTINUOUS
100
AcDbVertex
100
AcDb2dVertex
 10
1525.651886
 20
647.874823
 30
0.0
 42
0.08054
  0
VERTEX
  5
1C8CDE6A8EF5
100
AcDbEntity
  8
HATCH
  6
CONTINUOUS
100
AcDbVertex
100
AcDb2dVertex
 10
1527.139048
 20
639.314282
 30
0.0
 42
0.107061
 70
     2
 50
289.064516
  0
VERTEX
  5
1C8CDE6A8EF6
100
AcDbEntity
  8
HATCH
  6
CONTINUOUS
100
AcDbVertex
100
AcDb2dVertex
 10
1531.429289
 20
632.254269
 30
0.0
 42
0.138281
 50
289.064516
  0
SEQEND
  5
1C8CDE6A8EF7
100
AcDbEntity
  8
HATCH
  6
CONTINUOUS
  0
POLYLINE
  5
1C8CDE6A8EF9
100
AcDbEntity
  8
HATCH
  6
CONTINUOUS
100
AcDb2dPolyline
 66
     1
 10
0.0
 20
0.0
 30
0.0
 70
     1
  0
VERTEX
  5
1C8CDE6A8EFA
100
AcDbEntity
  8
HATCH
  6
CONTINUOUS
100
AcDbVertex
100
AcDb2dVertex
 10
1572.045771
 20
628.959567
 30
0.0
 42
0.138281
  0
VERTEX
  5
1C8CDE6A8EFB
100
AcDbEntity
  8
HATCH
  6
CONTINUOUS
100
AcDbVertex
100
AcDb2dVertex
 10
1578.489846
 20
629.043472
 30
0.0
 42
0.107061
  0
VERTEX
  5
1C8CDE6A8EFC
100
AcDbEntity
  8
HATCH
  6
CONTINUOUS
100
AcDbVertex
100
AcDb2dVertex
 10
1585.73531
 20
633.012503
 30
0.0
 42
0.08054
 70
     2
 50
40.935484
  0
VERTEX
  5
1C8CDE6A8EFD
100
AcDbEntity
  8
HATCH
  6
CONTINUOUS
100
AcDbVertex
100
AcDb2dVertex
 10
1591.3035
 20
639.682568
 30
0.0
 42
0.068375
 50
40.935484
  0
VERTEX
  5
1C8CDE6A8EFE
100
AcDbEntity
  8
HATCH
  6
CONTINUOUS
100
AcDbVertex
100
AcDb2dVertex
 10
1595.266221
 20
649.098936
 30
0.0
 42
0.068375
  0
VERTEX
  5
1C8CDE6A8EFF
100
AcDbEntity
  8
HATCH
  6
CONTINUOUS
100
AcDbVertex
100
AcDb2dVertex
 10
1596.542588
 20
659.23511
 30
0.0
 42
0.08054
  0
VERTEX
  5
1C8CDE6A8F00
100
AcDbEntity
  8
HATCH
  6
CONTINUOUS
100
AcDbVertex
100
AcDb2dVertex
 10
1595.055426
 20
667.795651
 30
0.0
 42
0.107061
 70
     2
 50
109.064516
  0
VERTEX
  5
1C8CDE6A8F01
100
AcDbEntity
  8
HATCH
  6
CONTINUOUS
100
AcDbVertex
100
AcDb2dVertex
 10
1590.765186
 20
674.855665
 30
0.0
 42
0.138281
 50
109.064516
  0
VERTEX
  5
1C8CDE6A8F02
100
AcDbEntity
  8
HATCH
  6
CONTINUOUS
100
AcDbVertex
100
AcDb2dVertex
 10
1585.226406
 20
678.150366
 30
0.0
 42
0.138281
  0
VERTEX
  5
1C8CDE6A8F03
100
AcDbEntity
  8
HATCH
  6
CONTINUOUS
100
AcDbVertex
100
AcDb2dVertex
 10
1578.782331
 20
678.066461
 30
0.0
 42
0.107061
  0
VERTEX
  5
1C8CDE6A8F04
100
AcDbEntity
  8
HATCH
  6
CONTINUOUS
100
AcDbVertex
100
AcDb2dVertex
 10
1571.536867
 20
674.09743
 30
0.0
 42
0.08054
 70
     2
 50
220.935484
  0
VERTEX
  5
1C8CDE6A8F05
100
AcDbEntity
  8
HATCH
  6
CONTINUOUS
100
AcDbVertex
100
AcDb2dVertex
 10
1565.968677
 20
667.427365
 30
0.0
 42
0.068375
 50
220.935484
  0
VERTEX
  5
1C8CDE6A8F06
100
AcDbEntity
  8
HATCH
  6
CONTINUOUS
100
AcDbVertex
100
AcDb2dVertex
 10
1562.005956
 20
658.010997
 30
0.0
 42
0.068375
  0
VERTEX
  5
1C8CDE6A8F07
100
AcDbEntity
  8
HATCH
  6
CONTINUOUS
100
AcDbVertex
100
AcDb2dVertex
 10
1560.729589
 20
647.874823
 30
0.0
 42
0.08054
  0
VERTEX
  5
1C8CDE6A8F08
100
AcDbEntity
  8
HATCH
  6
CONTINUOUS
100
AcDbVertex
100
AcDb2dVertex
 10
1562.216751
 20
639.314282
 30
0.0
 42
0.107061
 70
     2
 50
289.064516
  0
VERTEX
  5
1C8CDE6A8F09
100
AcDbEntity
  8
HATCH
  6
CONTINUOUS
100
AcDbVertex
100
AcDb2dVertex
 10
1566.506991
 20
632.254269
 30
0.0
 42
0.138281
 50
289.064516
  0
SEQEND
  5
1C8CDE6A8F0A
100
AcDbEntity
  8
HATCH
  6
CONTINUOUS
  0
POLYLINE
  5
1C8CDE6A8F0B
100
AcDbEntity
  8
HATCH
  6
CONTINUOUS
100
AcDb2dPolyline
 66
     1
 10
0.0
 20
0.0
 30
0.0
 70
     1
  0
VERTEX
  5
1C8CDE6A8F0C
100
AcDbEntity
  8
HATCH
  6
CONTINUOUS
100
AcDbVertex
100
AcDb2dVertex
 10
1607.123474
 20
628.959567
 30
0.0
 42
0.138281
  0
VERTEX
  5
1C8CDE6A8F0D
100
AcDbEntity
  8
HATCH
  6
CONTINUOUS
100
AcDbVertex
100
AcDb2dVertex
 10
1613.567548
 20
629.043472
 30
0.0
 42
0.107061
  0
VERTEX
  5
1C8CDE6A8F0E
100
AcDbEntity
  8
HATCH
  6
CONTINUOUS
100
AcDbVertex
100
AcDb2dVertex
 10
1620.813012
 20
633.012503
 30
0.0
 42
0.08054
 70
     2
 50
40.935484
  0
VERTEX
  5
1C8CDE6A8F0F
100
AcDbEntity
  8
HATCH
  6
CONTINUOUS
100
AcDbVertex
100
AcDb2dVertex
 10
1626.381203
 20
639.682568
 30
0.0
 42
0.068375
 50
40.935484
  0
VERTEX
  5
1C8CDE6A8F10
100
AcDbEntity
  8
HATCH
  6
CONTINUOUS
100
AcDbVertex
100
AcDb2dVertex
 10
1630.343923
 20
649.098936
 30
0.0
 42
0.068375
  0
VERTEX
  5
1C8CDE6A8F11
100
AcDbEntity
  8
HATCH
  6
CONTINUOUS
100
AcDbVertex
100
AcDb2dVertex
 10
1631.620291
 20
659.23511
 30
0.0
 42
0.08054
  0
VERTEX
  5
1C8CDE6A8F12
100
AcDbEntity
  8
HATCH
  6
CONTINUOUS
100
AcDbVertex
100
AcDb2dVertex
 10
1630.133128
 20
667.795651
 30
0.0
 42
0.107061
 70
     2
 50
109.064516
  0
VERTEX
  5
1C8CDE6A8F13
100
AcDbEntity
  8
HATCH
  6
CONTINUOUS
100
AcDbVertex
100
AcDb2dVertex
 10
1625.842888
 20
674.855665
 30
0.0
 42
0.138281
 50
109.064516
  0
VERTEX
  5
1C8CDE6A8F14
100
AcDbEntity
  8
HATCH
  6
CONTINUOUS
100
AcDbVertex
100
AcDb2dVertex
 10
1620.304109
 20
678.150366
 30
0.0
 42
0.138281
  0
VERTEX
  5
1C8CDE6A8F15
100
AcDbEntity
  8
HATCH
  6
CONTINUOUS
100
AcDbVertex
100
AcDb2dVertex
 10
1613.860034
 20
678.066461
 30
0.0
 42
0.107061
  0
VERTEX
  5
1C8CDE6A8F16
100
AcDbEntity
  8
HATCH
  6
CONTINUOUS
100
AcDbVertex
100
AcDb2dVertex
 10
1606.61457
 20
674.09743
 30
0.0
 42
0.08054
 70
     2
 50
220.935484
  0
VERTEX
  5
1C8CDE6A8F17
100
AcDbEntity
  8
HATCH
  6
CONTINUOUS
100
AcDbVertex
100
AcDb2dVertex
 10
1601.046379
 20
667.427365
 30
0.0
 42
0.068375
 50
220.935484
  0
VERTEX
  5
1C8CDE6A8F18
100
AcDbEntity
  8
HATCH
  6
CONTINUOUS
100
AcDbVertex
100
AcDb2dVertex
 10
1597.083659
 20
658.010997
 30
0.0
 42
0.068375
  0
VERTEX
  5
1C8CDE6A8F19
100
AcDbEntity
  8
HATCH
  6
CONTINUOUS
100
AcDbVertex
100
AcDb2dVertex
 10
1595.807291
 20
647.874823
 30
0.0
 42
0.08054
  0
VERTEX
  5
1C8CDE6A8F1A
100
AcDbEntity
  8
HATCH
  6
CONTINUOUS
100
AcDbVertex
100
AcDb2dVertex
 10
1597.294454
 20
639.314282
 30
0.0
 42
0.107061
 70
     2
 50
289.064516
  0
VERTEX
  5
1C8CDE6A8F1B
100
AcDbEntity
  8
HATCH
  6
CONTINUOUS
100
AcDbVertex
100
AcDb2dVertex
 10
1601.584694
 20
632.254269
 30
0.0
 42
0.138281
 50
289.064516
  0
SEQEND
  5
1C8CDE6A8F1C
100
AcDbEntity
  8
HATCH
  6
CONTINUOUS
  0
POLYLINE
  5
1C8CDE6A8F1D
100
AcDbEntity
  8
HATCH
  6
CONTINUOUS
100
AcDb2dPolyline
 66
     1
 10
0.0
 20
0.0
 30
0.0
 70
     1
  0
VERTEX
  5
1C8CDE6A8F1E
100
AcDbEntity
  8
HATCH
  6
CONTINUOUS
100
AcDbVertex
100
AcDb2dVertex
 10
1900.814649
 20
628.959567
 30
0.0
 42
0.138281
  0
VERTEX
  5
1C8CDE6A8F1F
100
AcDbEntity
  8
HATCH
  6
CONTINUOUS
100
AcDbVertex
100
AcDb2dVertex
 10
1907.258724
 20
629.043472
 30
0.0
 42
0.107061
  0
VERTEX
  5
1C8CDE6A8F20
100
AcDbEntity
  8
HATCH
  6
CONTINUOUS
100
AcDbVertex
100
AcDb2dVertex
 10
1914.504188
 20
633.012503
 30
0.0
 42
0.08054
 70
     2
 50
40.935484
  0
VERTEX
  5
1C8CDE6A8F21
100
AcDbEntity
  8
HATCH
  6
CONTINUOUS
100
AcDbVertex
100
AcDb2dVertex
 10
1920.072379
 20
639.682568
 30
0.0
 42
0.068375
 50
40.935484
  0
VERTEX
  5
1C8CDE6A8F22
100
AcDbEntity
  8
HATCH
  6
CONTINUOUS
100
AcDbVertex
100
AcDb2dVertex
 10
1924.035099
 20
649.098936
 30
0.0
 42
0.068375
  0
VERTEX
  5
1C8CDE6A8F23
100
AcDbEntity
  8
HATCH
  6
CONTINUOUS
100
AcDbVertex
100
AcDb2dVertex
 10
1925.311466
 20
659.23511
 30
0.0
 42
0.08054
  0
VERTEX
  5
1C8CDE6A8F24
100
AcDbEntity
  8
HATCH
  6
CONTINUOUS
100
AcDbVertex
100
AcDb2dVertex
 10
1923.824304
 20
667.795651
 30
0.0
 42
0.107061
 70
     2
 50
109.064516
  0
VERTEX
  5
1C8CDE6A8F25
100
AcDbEntity
  8
HATCH
  6
CONTINUOUS
100
AcDbVertex
100
AcDb2dVertex
 10
1919.534064
 20
674.855665
 30
0.0
 42
0.138281
 50
109.064516
  0
VERTEX
  5
1C8CDE6A8F26
100
AcDbEntity
  8
HATCH
  6
CONTINUOUS
100
AcDbVertex
100
AcDb2dVertex
 10
1913.995284
 20
678.150366
 30
0.0
 42
0.138281
  0
VERTEX
  5
1C8CDE6A8F27
100
AcDbEntity
  8
HATCH
  6
CONTINUOUS
100
AcDbVertex
100
AcDb2dVertex
 10
1907.551209
 20
678.066461
 30
0.0
 42
0.107061
  0
VERTEX
  5
1C8CDE6A8F28
100
AcDbEntity
  8
HATCH
  6
CONTINUOUS
100
AcDbVertex
100
AcDb2dVertex
 10
1900.305746
 20
674.09743
 30
0.0
 42
0.08054
 70
     2
 50
220.935484
  0
VERTEX
  5
1C8CDE6A8F29
100
AcDbEntity
  8
HATCH
  6
CONTINUOUS
100
AcDbVertex
100
AcDb2dVertex
 10
1894.737555
 20
667.427365
 30
0.0
 42
0.068375
 50
220.935484
  0
VERTEX
  5
1C8CDE6A8F2A
100
AcDbEntity
  8
HATCH
  6
CONTINUOUS
100
AcDbVertex
100
AcDb2dVertex
 10
1890.774835
 20
658.010997
 30
0.0
 42
0.068375
  0
VERTEX
  5
1C8CDE6A8F2B
100
AcDbEntity
  8
HATCH
  6
CONTINUOUS
100
AcDbVertex
100
AcDb2dVertex
 10
1889.498467
 20
647.874823
 30
0.0
 42
0.08054
  0
VERTEX
  5
1C8CDE6A8F2C
100
AcDbEntity
  8
HATCH
  6
CONTINUOUS
100
AcDbVertex
100
AcDb2dVertex
 10
1890.985629
 20
639.314282
 30
0.0
 42
0.107061
 70
     2
 50
289.064516
  0
VERTEX
  5
1C8CDE6A8F2D
100
AcDbEntity
  8
HATCH
  6
CONTINUOUS
100
AcDbVertex
100
AcDb2dVertex
 10
1895.275869
 20
632.254269
 30
0.0
 42
0.138281
 50
289.064516
  0
SEQEND
  5
1C8CDE6A8F2E
100
AcDbEntity
  8
HATCH
  6
CONTINUOUS
  0
POLYLINE
  5
1C8CDE6A8F30
100
AcDbEntity
  8
HATCH
  6
CONTINUOUS
100
AcDb2dPolyline
 66
     1
 10
0.0
 20
0.0
 30
0.0
 70
     1
  0
VERTEX
  5
1C8CDE6A8F31
100
AcDbEntity
  8
HATCH
  6
CONTINUOUS
100
AcDbVertex
100
AcDb2dVertex
 10
1830.658947
 20
628.959567
 30
0.0
 42
0.138281
  0
VERTEX
  5
1C8CDE6A8F32
100
AcDbEntity
  8
HATCH
  6
CONTINUOUS
100
AcDbVertex
100
AcDb2dVertex
 10
1837.103022
 20
629.043472
 30
0.0
 42
0.107061
  0
VERTEX
  5
1C8CDE6A8F33
100
AcDbEntity
  8
HATCH
  6
CONTINUOUS
100
AcDbVertex
100
AcDb2dVertex
 10
1844.348485
 20
633.012503
 30
0.0
 42
0.08054
 70
     2
 50
40.935484
  0
VERTEX
  5
1C8CDE6A8F34
100
AcDbEntity
  8
HATCH
  6
CONTINUOUS
100
AcDbVertex
100
AcDb2dVertex
 10
1849.916676
 20
639.682568
 30
0.0
 42
0.068375
 50
40.935484
  0
VERTEX
  5
1C8CDE6A8F35
100
AcDbEntity
  8
HATCH
  6
CONTINUOUS
100
AcDbVertex
100
AcDb2dVertex
 10
1853.879396
 20
649.098936
 30
0.0
 42
0.068375
  0
VERTEX
  5
1C8CDE6A8F36
100
AcDbEntity
  8
HATCH
  6
CONTINUOUS
100
AcDbVertex
100
AcDb2dVertex
 10
1855.155764
 20
659.23511
 30
0.0
 42
0.08054
  0
VERTEX
  5
1C8CDE6A8F37
100
AcDbEntity
  8
HATCH
  6
CONTINUOUS
100
AcDbVertex
100
AcDb2dVertex
 10
1853.668602
 20
667.795651
 30
0.0
 42
0.107061
 70
     2
 50
109.064516
  0
VERTEX
  5
1C8CDE6A8F38
100
AcDbEntity
  8
HATCH
  6
CONTINUOUS
100
AcDbVertex
100
AcDb2dVertex
 10
1849.378362
 20
674.855665
 30
0.0
 42
0.138281
 50
109.064516
  0
VERTEX
  5
1C8CDE6A8F39
100
AcDbEntity
  8
HATCH
  6
CONTINUOUS
100
AcDbVertex
100
AcDb2dVertex
 10
1843.839582
 20
678.150366
 30
0.0
 42
0.138281
  0
VERTEX
  5
1C8CDE6A8F3A
100
AcDbEntity
  8
HATCH
  6
CONTINUOUS
100
AcDbVertex
100
AcDb2dVertex
 10
1837.395507
 20
678.066461
 30
0.0
 42
0.107061
  0
VERTEX
  5
1C8CDE6A8F3B
100
AcDbEntity
  8
HATCH
  6
CONTINUOUS
100
AcDbVertex
100
AcDb2dVertex
 10
1830.150043
 20
674.09743
 30
0.0
 42
0.08054
 70
     2
 50
220.935484
  0
VERTEX
  5
1C8CDE6A8F3C
100
AcDbEntity
  8
HATCH
  6
CONTINUOUS
100
AcDbVertex
100
AcDb2dVertex
 10
1824.581852
 20
667.427365
 30
0.0
 42
0.068375
 50
220.935484
  0
VERTEX
  5
1C8CDE6A8F3D
100
AcDbEntity
  8
HATCH
  6
CONTINUOUS
100
AcDbVertex
100
AcDb2dVertex
 10
1820.619132
 20
658.010997
 30
0.0
 42
0.068375
  0
VERTEX
  5
1C8CDE6A8F3E
100
AcDbEntity
  8
HATCH
  6
CONTINUOUS
100
AcDbVertex
100
AcDb2dVertex
 10
1819.342765
 20
647.874823
 30
0.0
 42
0.08054
  0
VERTEX
  5
1C8CDE6A8F3F
100
AcDbEntity
  8
HATCH
  6
CONTINUOUS
100
AcDbVertex
100
AcDb2dVertex
 10
1820.829927
 20
639.314282
 30
0.0
 42
0.107061
 70
     2
 50
289.064516
  0
VERTEX
  5
1C8CDE6A8F40
100
AcDbEntity
  8
HATCH
  6
CONTINUOUS
100
AcDbVertex
100
AcDb2dVertex
 10
1825.120167
 20
632.254269
 30
0.0
 42
0.138281
 50
289.064516
  0
SEQEND
  5
1C8CDE6A8F41
100
AcDbEntity
  8
HATCH
  6
CONTINUOUS
  0
INSERT
  5
1C8CDE6A928E
100
AcDbEntity
  8
ZWAKU
100
AcDbBlockReference
  2
CALCOMP_TECHJET720A3
 10
0.0
 20
0.0
 30
0.0
 41
10.0
 42
10.0
 43
10.0
  0
LINE
  5
1C8CDE6A94F0
100
AcDbEntity
  8
SJC
100
AcDbLine
 10
1686.372215
 20
678.554967
 30
0.0
 11
1762.672215
 21
678.554967
 31
0.0
  0
LINE
  5
1C8CDE6A966A
100
AcDbEntity
  8
SJC
100
AcDbLine
 10
1686.372215
 20
678.554967
 30
0.0
 11
1762.672215
 21
678.554967
 31
0.0
  0
TEXT
  5
1C8CDE6A9CBC
100
AcDbEntity
  8
INFORMATION
100
AcDbText
 10
1.0
 20
1.0
 30
0.0
 40
0.8
  1
VERSION=3.0
  7
EXT08
100
AcDbText
  0
MTEXT
  5
1C8CDE6A9F02
100
AcDbEntity
  8
MOJI
100
AcDbMText
 10
1864.796709
 20
1572.941384
 30
0.0
 40
30.0
 41
0.0
 71
     7
 72
     1
  1

  7
EXT08
  0
MTEXT
  5
1C8CDE6AA226
100
AcDbEntity
  8
MOJI
100
AcDbMText
 10
1929.35084
 20
1654.086438
 30
0.0
 40
30.0
 41
0.8
 71
     7
 72
     1
  1
支柱φ89.1×t3.2
  7
EXT08
  0
TEXT
  5
1C8CDE6AA3D6
100
AcDbEntity
  8
MOJI
100
AcDbText
 10
1873.74744
 20
1650.761472
 30
0.0
 40
30.0
  1
2
 41
0.8
  7
EXT08
 72
     4
 11
1885.176012
 21
1665.761472
 31
0.0
100
AcDbText
  0
CIRCLE
  5
1C8CDE6AA3D7
100
AcDbEntity
  8
MOJI
100
AcDbCircle
 10
1887.181441
 20
1665.761472
 30
0.0
 40
22.395868
  0
LINE
  5
1C8CDE6AA5BD
100
AcDbEntity
  8
MOJI
100
AcDbLine
 10
1864.246181
 20
1639.342508
 30
0.0
 11
2214.111375
 21
1639.342508
 31
0.0
  0
LEADER
  5
1C8CDE6AB90F
100
AcDbEntity
  8
MOJI
100
AcDbLeader
  3
SJC
 76
     2
 10
1771.645998
 20
1547.865707
 30
0.0
 10
1864.246181
 20
1639.342508
 30
0.0
 77
   256
1001
ACAD
1000
DSTYLE
1002
{
1070
   140
1040
3.0
1070
   340
1005
1C8CDE699DA6
1070
    40
1040
10.0
1070
   147
1040
1.2
1070
    42
1040
1.0
1070
    44
1040
1.0
1070
    43
1040
6.0
1070
   271
1070
     2
1070
    41
1040
2.0
1002
}
  0
LINE
  5
1C8CDE6AB94E
100
AcDbEntity
  8
MOJI
100
AcDbLine
 10
2963.932181
 20
395.630715
 30
0.0
 11
3336.429627
 21
395.630715
 31
0.0
  0
LINE
  5
1C8CDE6AB950
100
AcDbEntity
  8
MOJI
100
AcDbLine
 10
2435.111133
 20
455.630715
 30
0.0
 11
3336.429627
 21
455.630715
 31
0.0
  0
LINE
  5
1C8CDE6AB951
100
AcDbEntity
  8
MOJI
100
AcDbLine
 10
2435.111133
 20
335.630715
 30
0.0
 11
3336.429627
 21
335.630715
 31
0.0
  0
LINE
  5
1C8CDE6AB953
100
AcDbEntity
  8
MOJI
100
AcDbLine
 10
2963.932181
 20
455.630715
 30
0.0
 11
2963.932181
 21
275.630715
 31
0.0
  0
LINE
  5
1C8CDE6AB954
100
AcDbEntity
  8
MOJI
100
AcDbLine
 10
2435.111133
 20
455.630715
 30
0.0
 11
2435.111133
 21
275.630715
 31
0.0
  0
LINE
  5
1C8CDE6AB955
100
AcDbEntity
  8
MOJI
100
AcDbLine
 10
2509.909371
 20
455.630715
 30
0.0
 11
2509.909371
 21
275.630715
 31
0.0
  0
LINE
  5
1C8CDE6AB956
100
AcDbEntity
  8
MOJI
100
AcDbLine
 10
2684.304111
 20
455.630715
 30
0.0
 11
2684.304111
 21
275.630715
 31
0.0
  0
TEXT
  5
1C8CDE6AB966
100
AcDbEntity
  8
MOJI
100
AcDbText
 10
2529.106741
 20
410.666607
 30
0.0
 40
30.0
  1
品      名
 41
0.8
  7
EXT08
 72
     1
 11
2597.106741
 21
410.666607
 31
0.0
100
AcDbText
  0
TEXT
  5
1C8CDE6AB967
100
AcDbEntity
  8
MOJI
100
AcDbText
 10
2514.07817
 20
350.666607
 30
0.0
 40
30.0
  1
頭部キャップ
 41
0.8
  7
EXT08
 72
     1
 11
2597.106741
 21
350.666607
 31
0.0
100
AcDbText
  0
LINE
  5
1C8CDE6AB968
100
AcDbEntity
  8
MOJI
100
AcDbLine
 10
2435.111133
 20
395.630715
 30
0.0
 11
3231.19631
 21
395.630715
 31
0.0
  0
TEXT
  5
1C8CDE6AB969
100
AcDbEntity
  8
MOJI
100
AcDbText
 10
2464.056059
 20
350.666607
 30
0.0
 40
30.0
  1
1
 41
0.8
  7
EXT08
 72
     1
 11
2473.770344
 21
350.666607
 31
0.0
100
AcDbText
  0
TEXT
  5
1C8CDE6AB96B
100
AcDbEntity
  8
MOJI
100
AcDbText
 10
2448.170344
 20
410.666607
 30
0.0
 40
30.0
  1
部番
 41
0.8
  7
EXT08
 72
     1
 11
2473.770344
 21
410.666607
 31
0.0
100
AcDbText
  0
TEXT
  5
1C8CDE6AB96C
100
AcDbEntity
  8
MOJI
100
AcDbText
 10
2755.318146
 20
410.666607
 30
0.0
 40
30.0
  1
材      質
 41
0.8
  7
EXT08
 72
     1
 11
2824.118146
 21
410.666607
 31
0.0
100
AcDbText
  0
TEXT
  5
1C8CDE6AB96D
100
AcDbEntity
  8
MOJI
100
AcDbText
 10
2776.118146
 20
350.666607
 30
0.0
 40
30.0
  1
SGHC
 41
0.8
  7
EXT08
 72
     1
 11
2824.118146
 21
350.666607
 31
0.0
100
AcDbText
  0
TEXT
  5
1C8CDE6AB96F
100
AcDbEntity
  8
MOJI
100
AcDbText
 10
3036.692247
 20
410.666607
 30
0.0
 40
30.0
  1
摘            要
 41
0.8
  7
EXT08
 72
     1
 11
3148.920818
 21
410.666607
 31
0.0
100
AcDbText
  0
TEXT
  5
1C8CDE6AB970
100
AcDbEntity
  8
MOJI
100
AcDbText
 10
2979.320818
 20
350.666607
 30
0.0
 40
30.0
  1
亜鉛めっき＋静電粉体塗装
 41
0.8
  7
EXT08
 72
     1
 11
3148.920818
 21
350.666607
 31
0.0
100
AcDbText
  0
LINE
  5
1C8CDE6AB971
100
AcDbEntity
  8
MOJI
100
AcDbLine
 10
3336.429627
 20
455.630715
 30
0.0
 11
3336.429627
 21
275.630715
 31
0.0
  0
TEXT
  5
1C8CDE6AC2BF
100
AcDbEntity
  8
MOJI2
100
AcDbText
 10
1543.188881
 20
2419.333724
 30
0.0
 40
40.0
  1
CK-89HR-90K
 41
0.8
  7
EXT08
 72
     1
 11
1724.522215
 21
2419.333724
 31
0.0
100
AcDbText
  0
LINE
  5
1C8CDE6AC2C0
100
AcDbEntity
  8
MOJI2
100
AcDbLine
 10
1544.186952
 20
2408.497988
 30
0.0
 11
1904.189376
 21
2408.497988
 31
0.0
  0
LINE
  5
1C8CDE6AC2C1
100
AcDbEntity
  8
MOJI2
100
AcDbLine
 10
1544.223645
 20
2398.497988
 30
0.0
 11
1904.226069
 21
2398.497988
 31
0.0
  0
LINE
  5
1C8CDE6AC31E
100
AcDbEntity
  8
CENTER
100
AcDbLine
 10
1618.562613
 20
2211.498398
 30
0.0
 11
1830.481816
 21
2211.498398
 31
0.0
  0
LINE
  5
1C8CDE6AC320
100
AcDbEntity
  8
CENTER
100
AcDbLine
 10
1724.522215
 20
2105.538796
 30
0.0
 11
1724.522215
 21
2317.457999
 31
0.0
  0
POINT
  5
1C8CDE6AC321
100
AcDbEntity
  8
DEFPOINTS
  6
BYBLOCK
 62
     0
100
AcDbPoint
 10
1724.522215
 20
2211.498398
 30
0.0
  0
LINE
  5
1C8CDE6AC40C
100
AcDbEntity
  8
SJC
100
AcDbLine
 10
1769.072215
 20
1078.554967
 30
0.0
 11
2072.519811
 21
1078.554967
 31
0.0
1001
ACAD
1000
ASC_BOUNDS
1002
{
1070
    19
1005
1C8CDE6ACE46
1002
}
  0
LINE
  5
1C8CDE6AC40D
100
AcDbEntity
  8
CENTER
100
AcDbLine
 10
1724.522215
 20
2041.484809
 30
0.0
 11
1724.522215
 21
678.554967
 31
0.0
1001
ACAD
1000
ASC_BOUNDS
1002
{
1070
    19
1005
0
1005
0
1005
0
1005
0
1005
0
1005
1C8CDE6ACD9F
1005
0
1005
0
1005
0
1005
1C8CDE6ACD9F
1002
}
  0
LINE
  5
1C8CDE6AC415
100
AcDbEntity
  8
SJC
100
AcDbLine
 10
1524.522215
 20
678.554967
 30
0.0
 11
1924.522215
 21
678.554967
 31
0.0
1001
ACAD
1000
ASC_BOUNDS
1002
{
1070
    19
1005
0
1005
0
1005
0
1005
0
1005
0
1005
0
1005
0
1005
1C8CDE6ACE46
1005
0
1005
1C8CDE6ACE46
1002
}
  0
LINE
  5
1C8CDE6AC416
100
AcDbEntity
  8
SJC
100
AcDbLine
 10
1574.522215
 20
1078.554967
 30
0.0
 11
1574.522215
 21
678.554967
 31
0.0
1001
ACAD
1000
ASC_BOUNDS
1002
{
1070
    19
1005
1C8CDE6ACE46
1002
}
  0
LINE
  5
1C8CDE6AC417
100
AcDbEntity
  8
SJC
100
AcDbLine
 10
1426.842984
 20
1078.554967
 30
0.0
 11
1679.972215
 21
1078.554967
 31
0.0
1001
ACAD
1000
ASC_BOUNDS
1002
{
1070
    19
1005
1C8CDE6ACE46
1002
}
  0
TEXT
  5
1C8CDE6AC418
100
AcDbEntity
  8
MOJI
100
AcDbText
 10
1427.204003
 20
1091.778947
 30
0.0
 40
30.0
  1
GL
 41
0.8
  7
KANJI08
100
AcDbText
  0
LINE
  5
1C8CDE6AC419
100
AcDbEntity
  8
SJC
100
AcDbLine
 10
1874.522215
 20
1078.554967
 30
0.0
 11
1874.522215
 21
678.554967
 31
0.0
1001
ACAD
1000
ASC_BOUNDS
1002
{
1070
    19
1005
1C8CDE6ACE46
1002
}
  0
LINE
  5
1C8CDE6AC47D
100
AcDbEntity
  8
SJC
  6
CONTINUOUS
100
AcDbLine
 10
1924.523086
 20
678.554967
 30
0.0
 11
1924.523086
 21
628.554967
 31
0.0
  0
LINE
  5
1C8CDE6AC47E
100
AcDbEntity
  8
SJC
  6
CONTINUOUS
100
AcDbLine
 10
1524.523086
 20
678.554967
 30
0.0
 11
1524.523086
 21
628.554967
 31
0.0
  0
MTEXT
  5
1C8CDE6AC4E4
100
AcDbEntity
  8
MOJI
100
AcDbMText
 10
1922.908909
 20
2065.508824
 30
0.0
 40
30.0
 41
0.8
 71
     7
 72
     1
  1
頭部キャップ
  7
EXT08
  0
LINE
  5
1C8CDE6AC4E5
100
AcDbEntity
  8
MOJI
100
AcDbLine
 10
1857.80425
 20
2050.764895
 30
0.0
 11
2105.940793
 21
2050.764895
 31
0.0
  0
LEADER
  5
1C8CDE6AC4E6
100
AcDbEntity
  8
MOJI
100
AcDbLeader
  3
SJC
 76
     2
 10
1765.204067
 20
1959.288094
 30
0.0
 10
1857.80425
 20
2050.764895
 30
0.0
 77
   256
1001
ACAD
1000
DSTYLE
1002
{
1070
   140
1040
3.0
1070
   340
1005
1C8CDE699DA6
1070
    40
1040
10.0
1070
   147
1040
1.2
1070
    42
1040
1.0
1070
    44
1040
1.0
1070
    43
1040
6.0
1070
   271
1070
     2
1070
    41
1040
2.0
1002
}
  0
CIRCLE
  5
1C8CDE6AC4E7
100
AcDbEntity
  8
MOJI
100
AcDbCircle
 10
1880.73951
 20
2077.183858
 30
0.0
 40
22.395868
  0
TEXT
  5
1C8CDE6AC4E8
100
AcDbEntity
  8
MOJI
100
AcDbText
 10
1869.019795
 20
2062.183858
 30
0.0
 40
30.0
  1
1
 41
0.8
  7
EXT08
 72
     4
 11
1878.734081
 21
2077.183858
 31
0.0
100
AcDbText
  0
LINE
  5
1C8CDE6AC51A
100
AcDbEntity
  8
MOJI
100
AcDbLine
 10
2435.111133
 20
275.630715
 30
0.0
 11
3336.429627
 21
275.630715
 31
0.0
  0
TEXT
  5
1C8CDE6AC51B
100
AcDbEntity
  8
MOJI
100
AcDbText
 10
2528.306741
 20
290.666607
 30
0.0
 40
30.0
  1
支      柱
 41
0.8
  7
EXT08
 72
     1
 11
2597.106741
 21
290.666607
 31
0.0
100
AcDbText
  0
TEXT
  5
1C8CDE6AC51C
100
AcDbEntity
  8
MOJI
100
AcDbText
 10
2462.341773
 20
290.666607
 30
0.0
 40
30.0
  1
2
 41
0.8
  7
EXT08
 72
     1
 11
2473.770344
 21
290.666607
 31
0.0
100
AcDbText
  0
TEXT
  5
1C8CDE6AC51D
100
AcDbEntity
  8
MOJI
100
AcDbText
 10
2979.320818
 20
290.666607
 30
0.0
 40
30.0
  1
亜鉛めっき＋静電粉体塗装
 41
0.8
  7
EXT08
 72
     1
 11
3148.920818
 21
290.666607
 31
0.0
100
AcDbText
  0
TEXT
  5
1C8CDE6AC51E
100
AcDbEntity
  8
MOJI
100
AcDbText
 10
2757.261003
 20
290.666607
 30
0.0
 40
30.0
  1
STK400
 41
0.8
  7
EXT08
 72
     1
 11
2824.118146
 21
290.666607
 31
0.0
100
AcDbText
  0
DIMENSION
  5
1C8CDE6AC745
100
AcDbEntity
  8
SUNPOU
100
AcDbDimension
  2
*D1
 10
1574.522215
 20
478.554967
 30
0.0
 11
1724.522215
 21
505.554967
 31
0.0
 70
    32
  1
□<>
  3
SJC
100
AcDbAlignedDimension
 13
1874.522215
 23
628.554967
 33
0.0
 14
1574.522215
 24
628.554967
 34
0.0
100
AcDbRotatedDimension
1001
ACAD
1000
DSTYLE
1002
{
1070
   140
1040
3.0
1070
   340
1005
1C8CDE699DA6
1070
    40
1040
10.0
1070
   147
1040
1.2
1070
    42
1040
1.0
1070
    44
1040
1.0
1070
    43
1040
6.0
1070
   271
1070
     2
1070
    41
1040
2.0
1002
}
  0
DIMENSION
  5
1C8CDE6AC752
100
AcDbEntity
  8
SUNPOU
100
AcDbDimension
  2
*D2
 10
1924.523086
 20
378.554967
 30
0.0
 11
1724.523086
 21
405.554967
 31
0.0
 70
    32
  1
□<>
  3
SJC
100
AcDbAlignedDimension
 13
1524.523086
 23
628.554967
 33
0.0
 14
1924.523086
 24
628.554967
 34
0.0
100
AcDbRotatedDimension
1001
ACAD
1000
DSTYLE
1002
{
1070
   140
1040
3.0
1070
   340
1005
1C8CDE699DA6
1070
    40
1040
10.0
1070
   147
1040
1.2
1070
    42
1040
1.0
1070
    44
1040
1.0
1070
    43
1040
6.0
1070
   271
1070
     2
1070
    41
1040
2.0
1002
}
  0
DIMENSION
  5
1C8CDE6AC969
100
AcDbEntity
  8
SUNPOU
100
AcDbDimension
  2
*D3
 10
1336.372267
 20
678.554967
 30
0.0
 11
1309.372267
 21
878.554967
 31
0.0
 70
    32
  3
SJC
100
AcDbAlignedDimension
 13
1416.842984
 23
1078.554967
 33
0.0
 14
1524.523086
 24
678.554967
 34
0.0
 50
90.0
100
AcDbRotatedDimension
1001
ACAD
1000
DSTYLE
1002
{
1070
   140
1040
3.0
1070
   340
1005
1C8CDE699DA6
1070
    40
1040
10.0
1070
   147
1040
1.2
1070
    42
1040
1.0
1070
    44
1040
1.0
1070
    43
1040
6.0
1070
   271
1070
     2
1070
    41
1040
2.0
1002
}
  0
DIMENSION
  5
1C8CDE6AC978
100
AcDbEntity
  8
SUNPOU
100
AcDbDimension
  2
*D4
 10
1236.372267
 20
628.554967
 30
0.0
 11
1193.372267
 21
653.554967
 31
0.0
 70
    32
  3
SJC
100
AcDbAlignedDimension
 13
1524.523086
 23
678.554967
 33
0.0
 14
1524.523086
 24
628.554967
 34
0.0
 50
90.0
100
AcDbRotatedDimension
1001
ACAD
1000
DSTYLE
1002
{
1070
   140
1040
3.0
1070
   340
1005
1C8CDE699DA6
1070
    40
1040
10.0
1070
   147
1040
1.2
1070
    42
1040
1.0
1070
    44
1040
1.0
1070
    43
1040
6.0
1070
   271
1070
     2
1070
    41
1040
2.0
1002
}
  0
LINE
  5
1C8CDE6AC980
100
AcDbEntity
  8
SJC
100
AcDbLine
 10
1768.622215
 20
1878.554967
 30
0.0
 11
1680.422215
 21
1878.554967
 31
0.0
1001
ACAD
1000
ASC_BOUNDS
1002
{
1070
    19
1005
0
1005
0
1005
0
1005
0
1005
0
1005
1C8CDE6ACD9F
1005
0
1005
0
1005
0
1005
1C8CDE6ACD9F
1002
}
  0
LINE
  5
1C8CDE6AC981
100
AcDbEntity
  8
SJC
100
AcDbLine
 10
1767.072219
 20
1758.554967
 30
0.0
 11
1681.97221
 21
1758.554967
 31
0.0
1001
ACAD
1000
ASC_BOUNDS
1002
{
1070
    19
1005
0
1005
0
1005
0
1005
0
1005
0
1005
1C8CDE6ACD9F
1005
0
1005
0
1005
0
1005
1C8CDE6ACD9F
1002
}
  0
LEADER
  5
1C8CDE6ACAE3
100
AcDbEntity
  8
MOJI
100
AcDbLeader
  3
SJC
 76
     2
 10
1772.642311
 20
1827.645351
 30
0.0
 10
1865.242493
 20
1919.122152
 30
0.0
 77
   256
1001
ACAD
1000
DSTYLE
1002
{
1070
   140
1040
3.0
1070
   340
1005
1C8CDE699DA6
1070
    40
1040
10.0
1070
   147
1040
1.2
1070
    42
1040
1.0
1070
    44
1040
1.0
1070
    43
1040
6.0
1070
   271
1070
     2
1070
    41
1040
2.0
1002
}
  0
MTEXT
  5
1C8CDE6ACAE4
100
AcDbEntity
  8
MOJI
100
AcDbMText
 10
1887.140688
 20
1923.303951
 30
0.0
 40
30.0
 41
0.8
 71
     7
 72
     1
  1
反射シート
  7
EXT08
  0
LINE
  5
1C8CDE6ACAE5
100
AcDbEntity
  8
MOJI
100
AcDbLine
 10
1865.242493
 20
1919.122152
 30
0.0
 11
2055.270535
 21
1919.122152
 31
0.0
  0
MTEXT
  5
1C8CDE6ACAE9
100
AcDbEntity
  8
MOJI
100
AcDbMText
 10
1873.338503
 20
1868.747567
 30
0.0
 40
30.0
 41
0.8
 71
     7
 72
     1
  1
高輝度（赤色）
  7
EXT08
  0
DIMENSION
  5
1C8CDE6ACAF7
100
AcDbEntity
  8
SUNPOU
100
AcDbDimension
  2
*D5
 10
1236.372267
 20
678.554967
 30
0.0
 11
1209.372267
 21
1328.554967
 31
0.0
 70
    32
  3
SJC
100
AcDbAlignedDimension
 13
1724.522215
 23
1978.554967
 33
0.0
 14
1524.523086
 24
678.554967
 34
0.0
 50
90.0
100
AcDbRotatedDimension
1001
ACAD
1000
DSTYLE
1002
{
1070
   140
1040
3.0
1070
   340
1005
1C8CDE699DA6
1070
    40
1040
10.0
1070
   147
1040
1.2
1070
    42
1040
1.0
1070
    44
1040
1.0
1070
    43
1040
6.0
1070
   271
1070
     2
1070
    41
1040
2.0
1002
}
  0
DIMENSION
  5
1C8CDE6ACB04
100
AcDbEntity
  8
SUNPOU
100
AcDbDimension
  2
*D6
 10
1336.372267
 20
1078.554967
 30
0.0
 11
1309.372267
 21
1528.554967
 31
0.0
 70
    32
  3
SJC
100
AcDbAlignedDimension
 13
1724.522215
 23
1978.554967
 33
0.0
 14
1426.842984
 24
1078.554967
 34
0.0
 50
90.0
100
AcDbRotatedDimension
1001
ACAD
1000
DSTYLE
1002
{
1070
   140
1040
3.0
1070
   340
1005
1C8CDE699DA6
1070
    40
1040
10.0
1070
   147
1040
1.2
1070
    42
1040
1.0
1070
    44
1040
1.0
1070
    43
1040
6.0
1070
   271
1070
     2
1070
    41
1040
2.0
1002
}
  0
LINE
  5
1C8CDE6ACCBD
100
AcDbEntity
  8
SJC
100
AcDbLine
 10
1679.972215
 20
1755.094967
 30
0.0
 11
1679.972215
 21
678.554967
 31
0.0
1001
ACAD
1000
ASC_BOUNDS
1002
{
1070
    19
1005
1C8CDE6ACE46
1002
}
  0
LINE
  5
1C8CDE6ACCBE
100
AcDbEntity
  8
SJC
100
AcDbLine
 10
1769.072215
 20
1755.094967
 30
0.0
 11
1769.072215
 21
678.554967
 31
0.0
1001
ACAD
1000
ASC_BOUNDS
1002
{
1070
    19
1005
1C8CDE6ACE46
1002
}
  0
ARC
  5
1C8CDE6ACCC0
100
AcDbEntity
  8
SJC
100
AcDbCircle
 10
1724.522215
 20
1933.454967
 30
0.0
 40
45.1
100
AcDbArc
 50
0.0
 51
180.0
  0
LINE
  5
1C8CDE6ACCC1
100
AcDbEntity
  8
SJC
100
AcDbLine
 10
1769.622215
 20
1933.454967
 30
0.0
 11
1769.622215
 21
1879.554967
 31
0.0
  0
LINE
  5
1C8CDE6ACCC2
100
AcDbEntity
  8
SJC
100
AcDbLine
 10
1679.422215
 20
1933.454967
 30
0.0
 11
1679.422215
 21
1879.554967
 31
0.0
  0
LINE
  5
1C8CDE6ACCC3
100
AcDbEntity
  8
SJC
100
AcDbLine
 10
1681.972215
 20
1878.554967
 30
0.0
 11
1681.972215
 21
1758.559069
 31
0.0
1001
ACAD
1000
ASC_BOUNDS
1002
{
1070
    19
1005
1C8CDE6ACD9F
1002
}
  0
LINE
  5
1C8CDE6ACCC4
100
AcDbEntity
  8
SJC
100
AcDbLine
 10
1767.072215
 20
1878.554967
 30
0.0
 11
1767.072215
 21
1758.559069
 31
0.0
1001
ACAD
1000
ASC_BOUNDS
1002
{
1070
    19
1005
1C8CDE6ACD9F
1002
}
  0
ARC
  5
1C8CDE6ACCC6
100
AcDbEntity
  8
SJC
100
AcDbCircle
 10
1681.972215
 20
1755.094967
 30
0.0
 40
2.0
100
AcDbArc
 50
120.0
 51
180.0
1001
ACAD
1000
ASC_BOUNDS
1002
{
1070
    19
1002
}
  0
ARC
  5
1C8CDE6ACCC7
100
AcDbEntity
  8
SJC
100
AcDbCircle
 10
1679.972215
 20
1758.559069
 30
0.0
 40
2.0
100
AcDbArc
 50
300.0
 51
0.0
1001
ACAD
1000
ASC_BOUNDS
1002
{
1070
    19
1002
}
  0
ARC
  5
1C8CDE6ACCC8
100
AcDbEntity
  8
SJC
100
AcDbCircle
 10
1767.072215
 20
1755.094967
 30
0.0
 40
2.0
100
AcDbArc
 50
360.0
 51
60.0
1001
ACAD
1000
ASC_BOUNDS
1002
{
1070
    19
1002
}
  0
ARC
  5
1C8CDE6ACCC9
100
AcDbEntity
  8
SJC
100
AcDbCircle
 10
1769.072215
 20
1758.559069
 30
0.0
 40
2.0
100
AcDbArc
 50
180.0
 51
240.0
1001
ACAD
1000
ASC_BOUNDS
1002
{
1070
    19
1002
}
  0
LINE
  5
1C8CDE6ACD5B
100
AcDbEntity
  8
SJC
100
AcDbLine
 10
1769.622215
 20
1879.554967
 30
0.0
 11
1768.622215
 21
1878.554967
 31
0.0
  0
LINE
  5
1C8CDE6ACD90
100
AcDbEntity
  8
SJC
100
AcDbLine
 10
1679.422215
 20
1879.554967
 30
0.0
 11
1680.422215
 21
1878.554967
 31
0.0
  0
INSERT
  5
1C8CDE6ACD9F
100
AcDbEntity
  8
HATCH
100
AcDbBlockReference
  2
*X7
 10
0.0
 20
0.0
 30
0.0
1001
ACAD
1000
HATCH
1002
{
1070
    19
1000
ANSI31
1040
2.0
1040
0.0
1000
ASC_BOUNDS
1070
     2
1070
     1
1070
     4
1005
1C8CDE6AC980
1005
1C8CDE6ACCC3
1005
1C8CDE6AC981
1005
1C8CDE6AC40D
1070
     1
1070
     4
1005
1C8CDE6AC980
1005
1C8CDE6AC40D
1005
1C8CDE6AC981
1005
1C8CDE6ACCC4
1000
ASC_SEEDPOINT
1011
1703.247215
1021
1793.049776
1031
0.0
1002
}
  0
DIMENSION
  5
1C8CDE6ACDD3
100
AcDbEntity
  8
SUNPOU
100
AcDbDimension
  2
*D8
 10
1436.372267
 20
1878.554967
 30
0.0
 11
1393.372267
 21
1928.554967
 31
0.0
 70
    32
  3
SJC
100
AcDbAlignedDimension
 13
1724.522215
 23
1978.554967
 33
0.0
 14
1680.422215
 24
1878.554967
 34
0.0
 50
90.0
100
AcDbRotatedDimension
1001
ACAD
1000
DSTYLE
1002
{
1070
   140
1040
3.0
1070
   340
1005
1C8CDE699DA6
1070
    40
1040
10.0
1070
   147
1040
1.2
1070
    42
1040
1.0
1070
    44
1040
1.0
1070
    43
1040
6.0
1070
   271
1070
     2
1070
    41
1040
2.0
1002
}
  0
DIMENSION
  5
1C8CDE6ACDE0
100
AcDbEntity
  8
SUNPOU
100
AcDbDimension
  2
*D9
 10
1436.372267
 20
1758.559069
 30
0.0
 11
1393.372267
 21
1818.557018
 31
0.0
 70
    32
  3
SJC
100
AcDbAlignedDimension
 13
1680.422215
 23
1878.554967
 33
0.0
 14
1681.972215
 24
1758.559069
 34
0.0
 50
90.0
100
AcDbRotatedDimension
1001
ACAD
1000
DSTYLE
1002
{
1070
   140
1040
3.0
1070
   340
1005
1C8CDE699DA6
1070
    40
1040
10.0
1070
   147
1040
1.2
1070
    42
1040
1.0
1070
    44
1040
1.0
1070
    43
1040
6.0
1070
   271
1070
     2
1070
    41
1040
2.0
1002
}
  0
INSERT
  5
1C8CDE6ACE46
100
AcDbEntity
  8
HATCH
100
AcDbBlockReference
  2
*X10
 10
0.0
 20
0.0
 30
0.0
1001
ACAD
1000
HATCH
1002
{
1070
    19
1000
PLAST
1040
10.0
1040
0.785398
1000
ASC_BOUNDS
1070
     2
1070
     1
1070
     4
1005
1C8CDE6AC417
1005
1C8CDE6AC416
1005
1C8CDE6AC415
1005
1C8CDE6ACCBD
1070
     1
1070
     4
1005
1C8CDE6AC40C
1005
1C8CDE6ACCBE
1005
1C8CDE6AC415
1005
1C8CDE6AC419
1000
ASC_SEEDPOINT
1011
1627.247215
1021
819.024164
1031
0.0
1002
}
  0
CIRCLE
  5
1C8CDE6ACE84
100
AcDbEntity
  8
SJC
100
AcDbCircle
 10
1724.522215
 20
2211.498398
 30
0.0
 40
45.1
  0
ENDSEC
  0
SECTION
  2
OBJECTS
  0
DICTIONARY
  5
1C8CDE699D47
100
AcDbDictionary
  3
ACAD_GROUP
350
1C8CDE699D48
  3
ACAD_MLINESTYLE
350
1C8CDE699D49
  0
DICTIONARY
  5
1C8CDE699D48
102
{ACAD_REACTORS
330
1C8CDE699D47
102
}
100
AcDbDictionary
  0
DICTIONARY
  5
1C8CDE699D49
102
{ACAD_REACTORS
330
1C8CDE699D47
102
}
100
AcDbDictionary
  3
STANDARD
350
1C8CDE699D56
  0
MLINESTYLE
  5
1C8CDE699D56
102
{ACAD_REACTORS
330
1C8CDE699D49
102
}
100
AcDbMlineStyle
  2
STANDARD
 70
     0
  3

 62
     0
 51
90.0
 52
90.0
 71
     2
 49
0.5
 62
   256
  6
BYLAYER
 49
-0.5
 62
   256
  6
BYLAYER
  0
ENDSEC
  0
EOF
