  0
SECTION
  2
HEADER
  9
$ACADVER
  1
AC1015
  9
$ACADMAINTVER
 70
    18
  9
$DWGCODEPAGE
  3
ANSI_932
  9
$INSBASE
 10
0.0
 20
0.0
 30
0.0
  9
$EXTMIN
 10
0.0
 20
0.0
 30
0.0
  9
$EXTMAX
 10
3700.0
 20
2670.0
 30
0.0
  9
$LIMMIN
 10
0.0
 20
0.0
  9
$LIMMAX
 10
4200.0
 20
2970.0
  9
$ORTHOMODE
 70
     0
  9
$REGENMODE
 70
     1
  9
$FILLMODE
 70
     1
  9
$QTEXTMODE
 70
     0
  9
$MIRRTEXT
 70
     0
  9
$LTSCALE
 40
100.0
  9
$ATTMODE
 70
     1
  9
$TEXTSIZE
 40
30.0
  9
$TRACEWID
 40
0.05
  9
$TEXTSTYLE
  7
EXT08
  9
$CLAYER
  8
0
  9
$CELTYPE
  6
BYLAYER
  9
$CECOLOR
 62
   256
  9
$CELTSCALE
 40
1.0
  9
$DISPSILH
 70
     0
  9
$DIMSCALE
 40
10.0
  9
$DIMASZ
 40
2.0
  9
$DIMEXO
 40
1.0
  9
$DIMDLI
 40
6.0
  9
$DIMRND
 40
0.0
  9
$DIMDLE
 40
0.0
  9
$DIMEXE
 40
1.0
  9
$DIMTP
 40
0.0
  9
$DIMTM
 40
0.0
  9
$DIMTXT
 40
3.0
  9
$DIMCEN
 40
0.1
  9
$DIMTSZ
 40
0.0
  9
$DIMTOL
 70
     0
  9
$DIMLIM
 70
     0
  9
$DIMTIH
 70
     0
  9
$DIMTOH
 70
     0
  9
$DIMSE1
 70
     0
  9
$DIMSE2
 70
     0
  9
$DIMTAD
 70
     1
  9
$DIMZIN
 70
     8
  9
$DIMBLK
  1

  9
$DIMASO
 70
     1
  9
$DIMSHO
 70
     1
  9
$DIMPOST
  1

  9
$DIMAPOST
  1

  9
$DIMALT
 70
     0
  9
$DIMALTD
 70
     2
  9
$DIMALTF
 40
25.4
  9
$DIMLFAC
 40
1.0
  9
$DIMTOFL
 70
     1
  9
$DIMTVP
 40
0.0
  9
$DIMTIX
 70
     0
  9
$DIMSOXD
 70
     0
  9
$DIMSAH
 70
     0
  9
$DIMBLK1
  1

  9
$DIMBLK2
  1

  9
$DIMSTYLE
  2
SJC
  9
$DIMCLRD
 70
     0
  9
$DIMCLRE
 70
     0
  9
$DIMCLRT
 70
     0
  9
$DIMTFAC
 40
1.0
  9
$DIMGAP
 40
1.199999999999999
  9
$DIMJUST
 70
     0
  9
$DIMSD1
 70
     0
  9
$DIMSD2
 70
     0
  9
$DIMTOLJ
 70
     1
  9
$DIMTZIN
 70
     8
  9
$DIMALTZ
 70
     8
  9
$DIMALTTZ
 70
     8
  9
$DIMUPT
 70
     0
  9
$DIMDEC
 70
     2
  9
$DIMTDEC
 70
     1
  9
$DIMALTU
 70
     2
  9
$DIMALTTD
 70
     2
  9
$DIMTXSTY
  7
EXT08
  9
$DIMAUNIT
 70
     1
  9
$DIMADEC
 70
     2
  9
$DIMALTRND
 40
0.0
  9
$DIMAZIN
 70
     0
  9
$DIMDSEP
 70
    46
  9
$DIMATFIT
 70
     3
  9
$DIMFRAC
 70
     0
  9
$DIMLDRBLK
  1

  9
$DIMLUNIT
 70
     2
  9
$DIMLWD
 70
    -2
  9
$DIMLWE
 70
    -2
  9
$DIMTMOVE
 70
     2
  9
$LUNITS
 70
     2
  9
$LUPREC
 70
     2
  9
$SKETCHINC
 40
0.1
  9
$FILLETRAD
 40
0.25
  9
$AUNITS
 70
     1
  9
$AUPREC
 70
     2
  9
$MENU
  1
C:\r13\win\SUPPORT\sjc
  9
$ELEVATION
 40
0.0
  9
$PELEVATION
 40
0.0
  9
$THICKNESS
 40
0.0
  9
$LIMCHECK
 70
     0
  9
$CHAMFERA
 40
0.0
  9
$CHAMFERB
 40
0.0
  9
$CHAMFERC
 40
0.0
  9
$CHAMFERD
 40
0.0
  9
$SKPOLY
 70
     0
  9
$TDCREATE
 40
2450469.547535764
  9
$TDUCREATE
 40
2450469.172535764
  9
$TDUPDATE
 40
2458991.599348507
  9
$TDUUPDATE
 40
2458991.224348507
  9
$TDINDWG
 40
0.8433558449
  9
$TDUSRTIMER
 40
0.8433558449
  9
$USRTIMER
 70
     1
  9
$ANGBASE
 50
0.0
  9
$ANGDIR
 70
     0
  9
$PDMODE
 70
    33
  9
$PDSIZE
 40
5.0
  9
$PLINEWID
 40
0.0
  9
$SPLFRAME
 70
     0
  9
$SPLINETYPE
 70
     6
  9
$SPLINESEGS
 70
     8
  9
$HANDSEED
  5
1C8CDE6ACA3A
  9
$SURFTAB1
 70
     6
  9
$SURFTAB2
 70
     6
  9
$SURFTYPE
 70
     6
  9
$SURFU
 70
     6
  9
$SURFV
 70
     6
  9
$UCSBASE
  2

  9
$UCSNAME
  2

  9
$UCSORG
 10
0.0
 20
0.0
 30
0.0
  9
$UCSXDIR
 10
1.0
 20
0.0
 30
0.0
  9
$UCSYDIR
 10
0.0
 20
1.0
 30
0.0
  9
$UCSORTHOREF
  2

  9
$UCSORTHOVIEW
 70
     0
  9
$UCSORGTOP
 10
0.0
 20
0.0
 30
0.0
  9
$UCSORGBOTTOM
 10
0.0
 20
0.0
 30
0.0
  9
$UCSORGLEFT
 10
0.0
 20
0.0
 30
0.0
  9
$UCSORGRIGHT
 10
0.0
 20
0.0
 30
0.0
  9
$UCSORGFRONT
 10
0.0
 20
0.0
 30
0.0
  9
$UCSORGBACK
 10
0.0
 20
0.0
 30
0.0
  9
$PUCSBASE
  2

  9
$PUCSNAME
  2

  9
$PUCSORG
 10
0.0
 20
0.0
 30
0.0
  9
$PUCSXDIR
 10
1.0
 20
0.0
 30
0.0
  9
$PUCSYDIR
 10
0.0
 20
1.0
 30
0.0
  9
$PUCSORTHOREF
  2

  9
$PUCSORTHOVIEW
 70
     0
  9
$PUCSORGTOP
 10
0.0
 20
0.0
 30
0.0
  9
$PUCSORGBOTTOM
 10
0.0
 20
0.0
 30
0.0
  9
$PUCSORGLEFT
 10
0.0
 20
0.0
 30
0.0
  9
$PUCSORGRIGHT
 10
0.0
 20
0.0
 30
0.0
  9
$PUCSORGFRONT
 10
0.0
 20
0.0
 30
0.0
  9
$PUCSORGBACK
 10
0.0
 20
0.0
 30
0.0
  9
$USERI1
 70
     3
  9
$USERI2
 70
    10
  9
$USERI3
 70
     0
  9
$USERI4
 70
     0
  9
$USERI5
 70
     0
  9
$USERR1
 40
0.1
  9
$USERR2
 40
0.0
  9
$USERR3
 40
0.0
  9
$USERR4
 40
0.0
  9
$USERR5
 40
0.0
  9
$WORLDVIEW
 70
     1
  9
$SHADEDGE
 70
     3
  9
$SHADEDIF
 70
    70
  9
$TILEMODE
 70
     1
  9
$MAXACTVP
 70
    16
  9
$PINSBASE
 10
0.0
 20
0.0
 30
0.0
  9
$PLIMCHECK
 70
     0
  9
$PEXTMIN
 10
1.000000000000000E+20
 20
1.000000000000000E+20
 30
1.000000000000000E+20
  9
$PEXTMAX
 10
-1.000000000000000E+20
 20
-1.000000000000000E+20
 30
-1.000000000000000E+20
  9
$PLIMMIN
 10
0.0
 20
0.0
  9
$PLIMMAX
 10
12.0
 20
9.0
  9
$UNITMODE
 70
     0
  9
$VISRETAIN
 70
     0
  9
$PLINEGEN
 70
     0
  9
$PSLTSCALE
 70
     0
  9
$TREEDEPTH
 70
  3020
  9
$CMLSTYLE
  2
STANDARD
  9
$CMLJUST
 70
     0
  9
$CMLSCALE
 40
1.0
  9
$PROXYGRAPHICS
 70
     1
  9
$MEASUREMENT
 70
     0
  9
$CELWEIGHT
370
    -1
  9
$ENDCAPS
280
     0
  9
$JOINSTYLE
280
     0
  9
$LWDISPLAY
290
     0
  9
$INSUNITS
 70
     0
  9
$HYPERLINKBASE
  1

  9
$STYLESHEET
  1
CALCOMP_TECHJET720.ctb
  9
$XEDIT
290
     1
  9
$CEPSNTYPE
380
     0
  9
$PSTYLEMODE
290
     1
  9
$FINGERPRINTGUID
  2
{A381AE2C-9BC4-4BBA-B248-FEC5451C3363}
  9
$VERSIONGUID
  2
{03305A3F-82B9-4FC0-B849-18F84CA5BC63}
  9
$EXTNAMES
290
     1
  9
$PSVPSCALE
 40
0.0
  9
$OLESTARTUP
290
     0
  0
ENDSEC
  0
SECTION
  2
CLASSES
  0
CLASS
  1
ACDBDICTIONARYWDFLT
  2
AcDbDictionaryWithDefault
  3
ObjectDBX Classes
 90
        0
280
     0
281
     0
  0
CLASS
  1
TABLESTYLE
  2
AcDbTableStyle
  3
ObjectDBX Classes
 90
     4095
280
     0
281
     0
  0
CLASS
  1
SORTENTSTABLE
  2
AcDbSortentsTable
  3
ObjectDBX Classes
 90
    32768
280
     0
281
     0
  0
CLASS
  1
DICTIONARYVAR
  2
AcDbDictionaryVar
  3
ObjectDBX Classes
 90
        0
280
     0
281
     0
  0
CLASS
  1
ACDBPLACEHOLDER
  2
AcDbPlaceHolder
  3
ObjectDBX Classes
 90
        0
280
     0
281
     0
  0
CLASS
  1
LAYOUT
  2
AcDbLayout
  3
ObjectDBX Classes
 90
        0
280
     0
281
     0
  0
CLASS
  1
VISUALSTYLE
  2
AcDbVisualStyle
  3
ObjectDBX Classes
 90
     4095
280
     0
281
     0
  0
CLASS
  1
SCALE
  2
AcDbScale
  3
ObjectDBX Classes
 90
     1153
280
     0
281
     0
  0
CLASS
  1
MATERIAL
  2
AcDbMaterial
  3
ObjectDBX Classes
 90
     1153
280
     0
281
     0
  0
CLASS
  1
MLEADERSTYLE
  2
AcDbMLeaderStyle
  3
ACDB_MLEADERSTYLE_CLASS
 90
     4095
280
     0
281
     0
  0
CLASS
  1
SUN
  2
AcDbSun
  3
SCENEOE
 90
     1153
280
     0
281
     0
  0
CLASS
  1
CELLSTYLEMAP
  2
AcDbCellStyleMap
  3
ObjectDBX Classes
 90
     1152
280
     0
281
     0
  0
CLASS
  1
ACDBSECTIONVIEWSTYLE
  2
AcDbSectionViewStyle
  3
ObjectDBX Classes
 90
     1025
280
     0
281
     0
  0
CLASS
  1
ACDBDETAILVIEWSTYLE
  2
AcDbDetailViewStyle
  3
ObjectDBX Classes
 90
     1025
280
     0
281
     0
  0
ENDSEC
  0
SECTION
  2
TABLES
  0
TABLE
  2
VPORT
  5
1C8CDE699D43
102
{ACAD_XDICTIONARY
360
1C8CDE6AC9A6
102
}
330
0
100
AcDbSymbolTable
 70
     1
  0
VPORT
  5
1C8CDE6AC54B
330
1C8CDE699D43
100
AcDbSymbolTableRecord
100
AcDbViewportTableRecord
  2
*Active
 70
     0
 10
0.0
 20
0.0
 11
1.0
 21
1.0
 12
2223.051982059873
 22
1413.251052631579
 13
0.0
 23
0.0
 14
5.0
 24
5.0
 15
0.0
 25
0.0
 16
0.0
 26
0.0
 36
1.0
 17
0.0
 27
0.0
 37
0.0
 40
3029.4
 41
2.075975359342915
 42
50.0
 43
0.0
 44
0.0
 50
0.0
 51
0.0
 71
    16
 72
   500
 73
     1
 74
     0
 75
     0
 76
     0
 77
     0
 78
     2
281
     0
 65
     1
110
0.0
120
0.0
130
0.0
111
1.0
121
0.0
131
0.0
112
0.0
122
1.0
132
0.0
 79
     0
146
0.0
1001
ACAD_NAV_VCDISPLAY
1070
     3
  0
ENDTAB
  0
TABLE
  2
LTYPE
  5
1C8CDE699D40
330
0
100
AcDbSymbolTable
 70
     5
  0
LTYPE
  5
1C8CDE699D4D
330
1C8CDE699D40
100
AcDbSymbolTableRecord
100
AcDbLinetypeTableRecord
  2
BYBLOCK
 70
     0
  3

 72
    65
 73
     0
 40
0.0
  0
LTYPE
  5
1C8CDE699D4E
330
1C8CDE699D40
100
AcDbSymbolTableRecord
100
AcDbLinetypeTableRecord
  2
BYLAYER
 70
     0
  3

 72
    65
 73
     0
 40
0.0
  0
LTYPE
  5
1C8CDE699D4F
330
1C8CDE699D40
100
AcDbSymbolTableRecord
100
AcDbLinetypeTableRecord
  2
CONTINUOUS
 70
     0
  3
実線
 72
    65
 73
     0
 40
0.0
  0
LTYPE
  5
1C8CDE699D67
330
1C8CDE699D40
100
AcDbSymbolTableRecord
100
AcDbLinetypeTableRecord
  2
DIVIDE2
 70
     0
  3
__..__..__..__..__..__..__..__..__..__..__..__.
 72
    65
 73
     6
 40
0.625
 49
0.25
 74
     0
 49
-0.125
 74
     0
 49
0.0
 74
     0
 49
-0.125
 74
     0
 49
0.0
 74
     0
 49
-0.125
 74
     0
  0
LTYPE
  5
1C8CDE699D6A
330
1C8CDE699D40
100
AcDbSymbolTableRecord
100
AcDbLinetypeTableRecord
  2
CENTER
 70
     0
  3
____ _ ____ _ ____ _ ____ _ ____ _ ____ _ ____ 
 72
    65
 73
     4
 40
2.0
 49
1.25
 74
     0
 49
-0.25
 74
     0
 49
0.25
 74
     0
 49
-0.25
 74
     0
  0
LTYPE
  5
1C8CDE699D6B
330
1C8CDE699D40
100
AcDbSymbolTableRecord
100
AcDbLinetypeTableRecord
  2
HIDDEN
 70
     0
  3
__ __ __ __ __ __ __ __ __ __ __ __ __ __ __ __
 72
    65
 73
     2
 40
0.375
 49
0.25
 74
     0
 49
-0.125
 74
     0
  0
LTYPE
  5
1C8CDE699D6C
330
1C8CDE699D40
100
AcDbSymbolTableRecord
100
AcDbLinetypeTableRecord
  2
PHANTOM
 70
     0
  3
______  __  __  ______  __  __  ______  __  __ 
 72
    65
 73
     6
 40
2.5
 49
1.25
 74
     0
 49
-0.25
 74
     0
 49
0.25
 74
     0
 49
-0.25
 74
     0
 49
0.25
 74
     0
 49
-0.25
 74
     0
  0
ENDTAB
  0
TABLE
  2
LAYER
  5
1C8CDE699D3D
330
0
100
AcDbSymbolTable
 70
    15
  0
LAYER
  5
1C8CDE699D4A
330
1C8CDE699D3D
100
AcDbSymbolTableRecord
100
AcDbLayerTableRecord
  2
0
 70
     0
 62
    41
  6
DIVIDE2
370
    -3
390
1C8CDE6AC2D6
  0
LAYER
  5
1C8CDE699D71
330
1C8CDE699D3D
100
AcDbSymbolTableRecord
100
AcDbLayerTableRecord
  2
CENTER
 70
     0
 62
     3
  6
CENTER
370
    -3
390
1C8CDE6AC2D6
  0
LAYER
  5
1C8CDE699D72
330
1C8CDE699D3D
100
AcDbSymbolTableRecord
100
AcDbLayerTableRecord
  2
SUNPOU
 70
     0
 62
     4
  6
CONTINUOUS
370
    -3
390
1C8CDE6AC2D6
  0
LAYER
  5
1C8CDE699D73
330
1C8CDE699D3D
100
AcDbSymbolTableRecord
100
AcDbLayerTableRecord
  2
WAKU
 70
     0
 62
     5
  6
CONTINUOUS
370
    -3
390
1C8CDE6AC2D6
  0
LAYER
  5
1C8CDE699D74
330
1C8CDE699D3D
100
AcDbSymbolTableRecord
100
AcDbLayerTableRecord
  2
MOJI
 70
     0
 62
     6
  6
CONTINUOUS
370
    -3
390
1C8CDE6AC2D6
  0
LAYER
  5
1C8CDE699D75
330
1C8CDE699D3D
100
AcDbSymbolTableRecord
100
AcDbLayerTableRecord
  2
HASEN
 70
     0
 62
     7
  6
HIDDEN
370
    -3
390
1C8CDE6AC2D6
  0
LAYER
  5
1C8CDE699D77
330
1C8CDE699D3D
100
AcDbSymbolTableRecord
100
AcDbLayerTableRecord
  2
SJC
 70
     0
 62
     1
  6
CONTINUOUS
370
    -3
390
1C8CDE6AC2D6
  0
LAYER
  5
1C8CDE699D78
330
1C8CDE699D3D
100
AcDbSymbolTableRecord
100
AcDbLayerTableRecord
  2
KASOU
 70
     0
 62
     2
  6
PHANTOM
370
    -3
390
1C8CDE6AC2D6
  0
LAYER
  5
1C8CDE699D79
330
1C8CDE699D3D
100
AcDbSymbolTableRecord
100
AcDbLayerTableRecord
  2
ZWAKU
 70
     1
 62
     7
  6
CONTINUOUS
370
    -3
390
1C8CDE6AC2D6
  0
LAYER
  5
1C8CDE699D7A
330
1C8CDE699D3D
100
AcDbSymbolTableRecord
100
AcDbLayerTableRecord
  2
HOJO
 70
     0
 62
    -8
  6
CONTINUOUS
370
    -3
390
1C8CDE6AC2D6
  0
LAYER
  5
1C8CDE699D7B
330
1C8CDE699D3D
100
AcDbSymbolTableRecord
100
AcDbLayerTableRecord
  2
DEFPOINTS
 70
     0
 62
     7
  6
CONTINUOUS
290
     0
370
    -3
390
1C8CDE6AC2D6
  0
LAYER
  5
1C8CDE699D8F
330
1C8CDE699D3D
100
AcDbSymbolTableRecord
100
AcDbLayerTableRecord
  2
INFORMATION
 70
     1
 62
     7
  6
CONTINUOUS
370
    -3
390
1C8CDE6AC2D6
  0
LAYER
  5
1C8CDE699D92
330
1C8CDE699D3D
100
AcDbSymbolTableRecord
100
AcDbLayerTableRecord
  2
SJC2
 70
     0
 62
     7
  6
CONTINUOUS
370
    -3
390
1C8CDE6AC2D6
  0
LAYER
  5
1C8CDE699D93
330
1C8CDE699D3D
100
AcDbSymbolTableRecord
100
AcDbLayerTableRecord
  2
MOJI2
 70
     0
 62
     1
  6
CONTINUOUS
370
    -3
390
1C8CDE6AC2D6
  0
LAYER
  5
1C8CDE699D94
330
1C8CDE699D3D
100
AcDbSymbolTableRecord
100
AcDbLayerTableRecord
  2
HATCH
 70
     0
 62
     2
  6
CONTINUOUS
370
    -3
390
1C8CDE6AC2D6
  0
ENDTAB
  0
TABLE
  2
STYLE
  5
1C8CDE699D3E
330
0
100
AcDbSymbolTable
 70
     8
  0
STYLE
  5
1C8CDE699D4B
330
1C8CDE699D3E
100
AcDbSymbolTableRecord
100
AcDbTextStyleTableRecord
  2
STANDARD
 70
     0
 40
2.5
 41
0.8
 50
0.0
 71
     0
 42
3.0
  3
ROMANS.SHX
  4
BIGFONT
  0
STYLE
  5
1C8CDE699D65
330
1C8CDE699D3E
100
AcDbSymbolTableRecord
100
AcDbTextStyleTableRecord
  2
SIMPLEX
 70
     0
 40
0.0
 41
1.0
 50
0.0
 71
     0
 42
0.0
  3
SCRIPTS.SHX
  4

  0
STYLE
  5
1C8CDE699D66
330
1C8CDE699D3E
100
AcDbSymbolTableRecord
100
AcDbTextStyleTableRecord
  2
KANJI
 70
     0
 40
0.0
 41
1.0
 50
0.0
 71
     0
 42
0.0
  3
ROMANS.SHX
  4
BIGFONT.SHX
  0
STYLE
  5
1C8CDE699DA4
330
1C8CDE699D3E
100
AcDbSymbolTableRecord
100
AcDbTextStyleTableRecord
  2
TATEEXT
 70
     4
 40
0.0
 41
1.0
 50
0.0
 71
     0
 42
0.0
  3
ROMANS
  4
EXTFONT
  0
STYLE
  5
1C8CDE699DA5
330
1C8CDE699D3E
100
AcDbSymbolTableRecord
100
AcDbTextStyleTableRecord
  2
TATEBIG
 70
     4
 40
0.0
 41
5.0
 50
0.0
 71
     0
 42
0.0
  3
ROMANS
  4
BIGFONT
  0
STYLE
  5
1C8CDE699DA6
330
1C8CDE699D3E
100
AcDbSymbolTableRecord
100
AcDbTextStyleTableRecord
  2
EXT08
 70
     0
 40
0.0
 41
0.8
 50
0.0
 71
     0
 42
30.0
  3
ROMANS
  4
EXTFONT
  0
STYLE
  5
1C8CDE699DA7
330
1C8CDE699D3E
100
AcDbSymbolTableRecord
100
AcDbTextStyleTableRecord
  2
EXT
 70
     0
 40
0.0
 41
1.0
 50
0.0
 71
     0
 42
0.0
  3
ROMANS
  4
EXTFONT
  0
STYLE
  5
1C8CDE699DA8
330
1C8CDE699D3E
100
AcDbSymbolTableRecord
100
AcDbTextStyleTableRecord
  2
KANJI08
 70
     0
 40
0.0
 41
0.8
 50
0.0
 71
     0
 42
0.0
  3
ROMANS
  4
BIGFONT
  0
ENDTAB
  0
TABLE
  2
VIEW
  5
1C8CDE699D41
330
0
100
AcDbSymbolTable
 70
     0
  0
ENDTAB
  0
TABLE
  2
UCS
  5
1C8CDE699D42
330
0
100
AcDbSymbolTable
 70
     0
  0
ENDTAB
  0
TABLE
  2
APPID
  5
1C8CDE699D44
330
0
100
AcDbSymbolTable
 70
     5
  0
APPID
  5
1C8CDE699D4C
330
1C8CDE699D44
100
AcDbSymbolTableRecord
100
AcDbRegAppTableRecord
  2
ACAD
 70
     0
  0
APPID
  5
1C8CDE6AC332
330
1C8CDE699D44
100
AcDbSymbolTableRecord
100
AcDbRegAppTableRecord
  2
ACAD_PSEXT
 70
     0
  0
APPID
  5
1C8CDE6AC64F
330
1C8CDE699D44
100
AcDbSymbolTableRecord
100
AcDbRegAppTableRecord
  2
ACAD_MLEADERVER
 70
     0
  0
APPID
  5
1C8CDE6AC8C0
330
1C8CDE699D44
100
AcDbSymbolTableRecord
100
AcDbRegAppTableRecord
  2
AcadAnnotative
 70
     0
  0
APPID
  5
1C8CDE6AC9F5
330
1C8CDE699D44
100
AcDbSymbolTableRecord
100
AcDbRegAppTableRecord
  2
ACAD_NAV_VCDISPLAY
 70
     0
  0
ENDTAB
  0
TABLE
  2
DIMSTYLE
  5
1C8CDE699D45
330
0
100
AcDbSymbolTable
 70
     4
100
AcDbDimStyleTable
 71
     0
  0
DIMSTYLE
105
1C8CDE699D6E
330
1C8CDE699D45
100
AcDbSymbolTableRecord
100
AcDbDimStyleTableRecord
  2
STANDARD
 70
     0
 41
20.0
 42
10.0
 43
0.4
 44
10.0
 73
     0
 74
     0
 77
     1
 78
     8
140
25.0
141
0.1
147
15.0
172
     1
176
   256
177
   256
178
   256
271
     1
272
     1
275
     1
279
     2
284
     8
285
     8
286
     8
340
1C8CDE699D66
  0
DIMSTYLE
105
1C8CDE699DA9
102
{ACAD_REACTORS
330
1C8CDE6A990B
330
1C8CDE6A990C
330
1C8CDE6AB795
330
1C8CDE6AB796
330
1C8CDE6AB797
330
1C8CDE6AC222
330
1C8CDE6AC22F
330
1C8CDE6AC23C
330
1C8CDE6AC249
330
1C8CDE6AC3E0
330
1C8CDE6AC3F0
330
1C8CDE6AC411
330
1C8CDE6AC412
330
1C8CDE6AC42A
330
1C8CDE6AC458
102
}
330
1C8CDE699D45
100
AcDbSymbolTableRecord
100
AcDbDimStyleTableRecord
  2
SJC
 70
     0
 41
20.0
 42
10.0
 43
0.4
 44
10.0
 73
     0
 74
     0
 77
     1
 78
     8
140
25.0
141
0.1
147
15.0
172
     1
176
   256
177
   256
178
   256
271
     1
272
     1
275
     1
279
     2
284
     8
285
     8
286
     8
340
1C8CDE699D66
  0
DIMSTYLE
105
1C8CDE6A9185
330
1C8CDE699D45
100
AcDbSymbolTableRecord
100
AcDbDimStyleTableRecord
  2
RUISEKI1
 70
     0
 40
10.0
 41
2.0
 42
1.0
 43
6.0
 44
30.0
 73
     0
 74
     0
 77
     1
 78
     8
140
25.0
141
0.1
147
1.5
172
     1
173
     1
176
   256
177
   256
178
   256
271
     1
272
     1
275
     1
279
     2
284
     8
285
     8
286
     8
340
1C8CDE699D66
1001
AcadAnnotative
1000
AnnotativeData
1002
{
1070
     1
1070
     0
1002
}
  0
DIMSTYLE
105
1C8CDE6A918A
330
1C8CDE699D45
100
AcDbSymbolTableRecord
100
AcDbDimStyleTableRecord
  2
RUISEKI2
 70
     0
 40
10.0
 41
2.0
 42
1.0
 43
6.0
 44
30.0
 73
     0
 74
     0
 77
     1
 78
     8
140
25.0
141
0.1
147
1.5
172
     1
173
     1
176
   256
177
   256
178
   256
271
     1
272
     1
275
     1
279
     2
284
     8
285
     8
286
     8
340
1C8CDE699D66
1001
AcadAnnotative
1000
AnnotativeData
1002
{
1070
     1
1070
     0
1002
}
  0
ENDTAB
  0
TABLE
  2
BLOCK_RECORD
  5
1C8CDE699D3C
330
0
100
AcDbSymbolTable
 70
    17
  0
BLOCK_RECORD
  5
1C8CDE699D53
330
1C8CDE699D3C
100
AcDbSymbolTableRecord
100
AcDbBlockTableRecord
  2
*MODEL_SPACE
340
1C8CDE6AC2DD
  0
BLOCK_RECORD
  5
1C8CDE699D50
330
1C8CDE699D3C
100
AcDbSymbolTableRecord
100
AcDbBlockTableRecord
  2
*PAPER_SPACE
340
1C8CDE6AC2DE
  0
BLOCK_RECORD
  5
1C8CDE6A996A
330
1C8CDE699D3C
100
AcDbSymbolTableRecord
100
AcDbBlockTableRecord
  2
*D0
340
0
  0
BLOCK_RECORD
  5
1C8CDE6A9976
330
1C8CDE699D3C
100
AcDbSymbolTableRecord
100
AcDbBlockTableRecord
  2
*D1
340
0
  0
BLOCK_RECORD
  5
1C8CDE6AB80B
330
1C8CDE699D3C
100
AcDbSymbolTableRecord
100
AcDbBlockTableRecord
  2
*D2
340
0
  0
BLOCK_RECORD
  5
1C8CDE6AB819
330
1C8CDE699D3C
100
AcDbSymbolTableRecord
100
AcDbBlockTableRecord
  2
*D3
340
0
  0
BLOCK_RECORD
  5
1C8CDE6AB825
330
1C8CDE699D3C
100
AcDbSymbolTableRecord
100
AcDbBlockTableRecord
  2
*D4
340
0
  0
BLOCK_RECORD
  5
1C8CDE6ABF2A
330
1C8CDE699D3C
100
AcDbSymbolTableRecord
100
AcDbBlockTableRecord
  2
*X5
340
0
102
{BLKREFS
331
1C8CDE6AC1FA
331
1C8CDE6AC299
102
}
  0
BLOCK_RECORD
  5
1C8CDE6AC216
330
1C8CDE699D3C
100
AcDbSymbolTableRecord
100
AcDbBlockTableRecord
  2
*D6
340
0
  0
BLOCK_RECORD
  5
1C8CDE6AC223
330
1C8CDE699D3C
100
AcDbSymbolTableRecord
100
AcDbBlockTableRecord
  2
*D7
340
0
  0
BLOCK_RECORD
  5
1C8CDE6AC230
330
1C8CDE699D3C
100
AcDbSymbolTableRecord
100
AcDbBlockTableRecord
  2
*D8
340
0
  0
BLOCK_RECORD
  5
1C8CDE6AC23D
330
1C8CDE699D3C
100
AcDbSymbolTableRecord
100
AcDbBlockTableRecord
  2
*D9
340
0
  0
BLOCK_RECORD
  5
1C8CDE6AC479
330
1C8CDE699D3C
100
AcDbSymbolTableRecord
100
AcDbBlockTableRecord
  2
*D10
340
0
  0
BLOCK_RECORD
  5
1C8CDE6AC485
330
1C8CDE699D3C
100
AcDbSymbolTableRecord
100
AcDbBlockTableRecord
  2
*D11
340
0
  0
BLOCK_RECORD
  5
1C8CDE6AC491
330
1C8CDE699D3C
100
AcDbSymbolTableRecord
100
AcDbBlockTableRecord
  2
*D12
340
0
  0
BLOCK_RECORD
  5
1C8CDE6AC49D
330
1C8CDE699D3C
100
AcDbSymbolTableRecord
100
AcDbBlockTableRecord
  2
*D13
340
0
  0
BLOCK_RECORD
  5
1C8CDE6AC4A9
330
1C8CDE699D3C
100
AcDbSymbolTableRecord
100
AcDbBlockTableRecord
  2
*D14
340
0
  0
BLOCK_RECORD
  5
1C8CDE6AC4B5
330
1C8CDE699D3C
100
AcDbSymbolTableRecord
100
AcDbBlockTableRecord
  2
*D15
340
0
  0
BLOCK_RECORD
  5
1C8CDE6AC812
330
1C8CDE699D3C
100
AcDbSymbolTableRecord
100
AcDbBlockTableRecord
  2
CALCOMP_TECHJET720A3
340
0
102
{BLKREFS
331
1C8CDE6AC8C4
102
}
  0
ENDTAB
  0
ENDSEC
  0
SECTION
  2
BLOCKS
  0
BLOCK
  5
1C8CDE699D7E
330
1C8CDE699D53
100
AcDbEntity
  8
0
100
AcDbBlockBegin
  2
*MODEL_SPACE
 70
     0
 10
0.0
 20
0.0
 30
0.0
  3
*MODEL_SPACE
  1

  0
ENDBLK
  5
1C8CDE699D7F
330
1C8CDE699D53
100
AcDbEntity
  8
0
100
AcDbBlockEnd
  0
BLOCK
  5
1C8CDE699D7C
330
1C8CDE699D50
100
AcDbEntity
 67
     1
  8
0
100
AcDbBlockBegin
  2
*PAPER_SPACE
 70
     0
 10
0.0
 20
0.0
 30
0.0
  3
*PAPER_SPACE
  1

  0
ENDBLK
  5
1C8CDE699D7D
330
1C8CDE699D50
100
AcDbEntity
 67
     1
  8
0
100
AcDbBlockEnd
  0
BLOCK
  5
1C8CDE6A996B
330
1C8CDE6A996A
100
AcDbEntity
  8
0
100
AcDbBlockBegin
  2
*D0
 70
     1
 10
0.0
 20
0.0
 30
0.0
  3
*D0
  1

  0
LINE
  5
1C8CDE6A996C
330
1C8CDE6A996A
100
AcDbEntity
  8
SUNPOU
370
    -2
100
AcDbLine
 10
1045.251858666447
 20
503.4077111245239
 30
0.0
 11
1045.251858666447
 21
353.4077111245244
 31
0.0
  0
LINE
  5
1C8CDE6A996D
330
1C8CDE6A996A
100
AcDbEntity
  8
SUNPOU
370
    -2
100
AcDbLine
 10
1345.251858666447
 20
503.4077111245239
 30
0.0
 11
1345.251858666447
 21
353.4077111245244
 31
0.0
  0
LINE
  5
1C8CDE6A996E
330
1C8CDE6A996A
100
AcDbEntity
  8
SUNPOU
370
    -2
100
AcDbLine
 10
1065.251858666447
 20
363.4077111245245
 30
0.0
 11
1325.251858666447
 21
363.4077111245245
 31
0.0
  0
SOLID
  5
1C8CDE6A996F
330
1C8CDE6A996A
100
AcDbEntity
  8
SUNPOU
100
AcDbTrace
 10
1065.251858666447
 20
366.7410444578578
 30
0.0
 11
1065.251858666447
 21
360.0743777911911
 31
0.0
 12
1045.251858666447
 22
363.4077111245245
 32
0.0
 13
1045.251858666447
 23
363.4077111245245
 33
0.0
  0
SOLID
  5
1C8CDE6A9970
330
1C8CDE6A996A
100
AcDbEntity
  8
SUNPOU
100
AcDbTrace
 10
1325.251858666447
 20
360.0743777911911
 30
0.0
 11
1325.251858666447
 21
366.7410444578578
 31
0.0
 12
1345.251858666447
 22
363.4077111245245
 32
0.0
 13
1345.251858666447
 23
363.4077111245245
 33
0.0
  0
MTEXT
  5
1C8CDE6A9971
330
1C8CDE6A996A
100
AcDbEntity
  8
SUNPOU
100
AcDbMText
 10
1195.251858666447
 20
390.4077111245245
 30
0.0
 40
30.0
 41
0.0
 71
     5
 72
     1
  1
\A1;□300
  7
EXT08
 73
     1
 44
1.0
1001
ACAD
1000
MTEXTBEGIN
1070
    73
1070
     1
1070
    44
1040
1.0
1070
    74
1070
     0
1000
MTEXTEND
  0
POINT
  5
1C8CDE6A9972
330
1C8CDE6A996A
100
AcDbEntity
  8
DEFPOINTS
 62
     0
100
AcDbPoint
 10
1045.251858666447
 20
513.407711124524
 30
0.0
  0
POINT
  5
1C8CDE6A9973
330
1C8CDE6A996A
100
AcDbEntity
  8
DEFPOINTS
 62
     0
100
AcDbPoint
 10
1345.251858666447
 20
513.407711124524
 30
0.0
  0
POINT
  5
1C8CDE6A9974
330
1C8CDE6A996A
100
AcDbEntity
  8
DEFPOINTS
 62
     0
100
AcDbPoint
 10
1345.251858666447
 20
363.4077111245245
 30
0.0
  0
ENDBLK
  5
1C8CDE6A9975
330
1C8CDE6A996A
100
AcDbEntity
  8
0
100
AcDbBlockEnd
  0
BLOCK
  5
1C8CDE6A9977
330
1C8CDE6A9976
100
AcDbEntity
  8
0
100
AcDbBlockBegin
  2
*D1
 70
     1
 10
0.0
 20
0.0
 30
0.0
  3
*D1
  1

  0
LINE
  5
1C8CDE6A9978
330
1C8CDE6A9976
100
AcDbEntity
  8
SUNPOU
370
    -2
100
AcDbLine
 10
995.2518586664472
 20
503.4077111245244
 30
0.0
 11
995.2518586664472
 21
253.4077111245244
 31
0.0
  0
LINE
  5
1C8CDE6A9979
330
1C8CDE6A9976
100
AcDbEntity
  8
SUNPOU
370
    -2
100
AcDbLine
 10
1395.251858666447
 20
503.4077111245244
 30
0.0
 11
1395.251858666447
 21
253.4077111245244
 31
0.0
  0
LINE
  5
1C8CDE6A997A
330
1C8CDE6A9976
100
AcDbEntity
  8
SUNPOU
370
    -2
100
AcDbLine
 10
1015.251858666447
 20
263.4077111245245
 30
0.0
 11
1375.251858666447
 21
263.4077111245245
 31
0.0
  0
SOLID
  5
1C8CDE6A997B
330
1C8CDE6A9976
100
AcDbEntity
  8
SUNPOU
100
AcDbTrace
 10
1015.251858666447
 20
266.7410444578578
 30
0.0
 11
1015.251858666447
 21
260.0743777911911
 31
0.0
 12
995.2518586664472
 22
263.4077111245245
 32
0.0
 13
995.2518586664472
 23
263.4077111245245
 33
0.0
  0
SOLID
  5
1C8CDE6A997C
330
1C8CDE6A9976
100
AcDbEntity
  8
SUNPOU
100
AcDbTrace
 10
1375.251858666447
 20
260.0743777911911
 30
0.0
 11
1375.251858666447
 21
266.7410444578578
 31
0.0
 12
1395.251858666447
 22
263.4077111245245
 32
0.0
 13
1395.251858666447
 23
263.4077111245245
 33
0.0
  0
MTEXT
  5
1C8CDE6A997D
330
1C8CDE6A9976
100
AcDbEntity
  8
SUNPOU
100
AcDbMText
 10
1195.251858666447
 20
290.4077111245245
 30
0.0
 40
30.0
 41
0.0
 71
     5
 72
     1
  1
\A1;□400
  7
EXT08
 73
     1
 44
1.0
1001
ACAD
1000
MTEXTBEGIN
1070
    73
1070
     1
1070
    44
1040
1.0
1070
    74
1070
     0
1000
MTEXTEND
  0
POINT
  5
1C8CDE6A997E
330
1C8CDE6A9976
100
AcDbEntity
  8
DEFPOINTS
 62
     0
100
AcDbPoint
 10
995.2518586664472
 20
513.4077111245244
 30
0.0
  0
POINT
  5
1C8CDE6A997F
330
1C8CDE6A9976
100
AcDbEntity
  8
DEFPOINTS
 62
     0
100
AcDbPoint
 10
1395.251858666447
 20
513.4077111245244
 30
0.0
  0
POINT
  5
1C8CDE6A9980
330
1C8CDE6A9976
100
AcDbEntity
  8
DEFPOINTS
 62
     0
100
AcDbPoint
 10
1395.251858666447
 20
263.4077111245245
 30
0.0
  0
ENDBLK
  5
1C8CDE6A9981
330
1C8CDE6A9976
100
AcDbEntity
  8
0
100
AcDbBlockEnd
  0
BLOCK
  5
1C8CDE6ABE6A
330
1C8CDE6AB80B
100
AcDbEntity
  8
0
100
AcDbBlockBegin
  2
*D2
 70
     1
 10
0.0
 20
0.0
 30
0.0
  3
*D2
  1

  0
LINE
  5
1C8CDE6ABE6B
330
1C8CDE6AB80B
100
AcDbEntity
  8
SUNPOU
370
    -2
100
AcDbLine
 10
1412.751861180948
 20
563.407702183824
 30
0.0
 11
1605.252729695829
 21
563.407702183824
 31
0.0
  0
LINE
  5
1C8CDE6ABE6C
330
1C8CDE6AB80B
100
AcDbEntity
  8
SUNPOU
370
    -2
100
AcDbLine
 10
1405.250987637066
 20
513.407711124524
 30
0.0
 11
1605.252729695829
 21
513.407711124524
 31
0.0
  0
LINE
  5
1C8CDE6ABE6D
330
1C8CDE6AB80B
100
AcDbEntity
  8
SUNPOU
370
    -2
100
AcDbLine
 10
1595.252729695828
 20
543.407702183824
 30
0.0
 11
1595.252729695828
 21
533.407711124524
 31
0.0
  0
SOLID
  5
1C8CDE6ABE6E
330
1C8CDE6AB80B
100
AcDbEntity
  8
SUNPOU
100
AcDbTrace
 10
1598.586063029162
 20
543.407702183824
 30
0.0
 11
1591.919396362495
 21
543.407702183824
 31
0.0
 12
1595.252729695828
 22
563.407702183824
 32
0.0
 13
1595.252729695828
 23
563.407702183824
 33
0.0
  0
SOLID
  5
1C8CDE6ABE6F
330
1C8CDE6AB80B
100
AcDbEntity
  8
SUNPOU
100
AcDbTrace
 10
1591.919396362495
 20
533.407711124524
 30
0.0
 11
1598.586063029162
 21
533.407711124524
 31
0.0
 12
1595.252729695828
 22
513.407711124524
 32
0.0
 13
1595.252729695828
 23
513.407711124524
 33
0.0
  0
MTEXT
  5
1C8CDE6ABE70
330
1C8CDE6AB80B
100
AcDbEntity
  8
SUNPOU
100
AcDbMText
 10
1567.602563353088
 20
540.6947962026138
 30
0.0
 40
30.0
 41
0.0
 71
     5
 72
     1
  1
\A1;50
  7
EXT08
 11
0.0
 21
1.0
 31
0.0
 73
     1
 44
1.0
1001
ACAD
1000
MTEXTBEGIN
1070
    73
1070
     1
1070
    44
1040
1.0
1070
    74
1070
     0
1000
MTEXTEND
  0
POINT
  5
1C8CDE6ABE71
330
1C8CDE6AB80B
100
AcDbEntity
  8
DEFPOINTS
 62
     0
100
AcDbPoint
 10
1402.751861180948
 20
563.407702183824
 30
0.0
  0
POINT
  5
1C8CDE6ABE72
330
1C8CDE6AB80B
100
AcDbEntity
  8
DEFPOINTS
 62
     0
100
AcDbPoint
 10
1395.250987637066
 20
513.407711124524
 30
0.0
  0
POINT
  5
1C8CDE6ABE73
330
1C8CDE6AB80B
100
AcDbEntity
  8
DEFPOINTS
 62
     0
100
AcDbPoint
 10
1595.252729695828
 20
513.407711124524
 30
0.0
  0
ENDBLK
  5
1C8CDE6ABE76
330
1C8CDE6AB80B
100
AcDbEntity
  8
0
100
AcDbBlockEnd
  0
BLOCK
  5
1C8CDE6AB81A
330
1C8CDE6AB819
100
AcDbEntity
  8
0
100
AcDbBlockBegin
  2
*D3
 70
     1
 10
0.0
 20
0.0
 30
0.0
  3
*D3
  1

  0
LINE
  5
1C8CDE6AC525
330
1C8CDE6AB819
100
AcDbEntity
  8
SUNPOU
370
    -2
100
AcDbLine
 10
1284.037696236502
 20
1063.407711124524
 30
0.0
 11
1455.252729695829
 21
1063.407711124524
 31
0.0
  0
LINE
  5
1C8CDE6AC526
330
1C8CDE6AB819
100
AcDbEntity
  8
SUNPOU
370
    -2
100
AcDbLine
 10
1421.661734495766
 20
963.4077111245245
 30
0.0
 11
1455.252729695829
 21
963.4077111245245
 31
0.0
  0
LINE
  5
1C8CDE6AC527
330
1C8CDE6AB819
100
AcDbEntity
  8
SUNPOU
370
    -2
100
AcDbLine
 10
1445.252729695829
 20
1043.407711124523
 30
0.0
 11
1445.252729695829
 21
983.4077111245244
 31
0.0
  0
SOLID
  5
1C8CDE6AC528
330
1C8CDE6AB819
100
AcDbEntity
  8
SUNPOU
100
AcDbTrace
 10
1448.586063029163
 20
1043.407711124523
 30
0.0
 11
1441.919396362496
 21
1043.407711124523
 31
0.0
 12
1445.252729695829
 22
1063.407711124524
 32
0.0
 13
1445.252729695829
 23
1063.407711124524
 33
0.0
  0
SOLID
  5
1C8CDE6AC529
330
1C8CDE6AB819
100
AcDbEntity
  8
SUNPOU
100
AcDbTrace
 10
1441.919396362496
 20
983.4077111245244
 30
0.0
 11
1448.586063029163
 21
983.4077111245244
 31
0.0
 12
1445.252729695829
 22
963.4077111245245
 32
0.0
 13
1445.252729695829
 23
963.4077111245245
 33
0.0
  0
MTEXT
  5
1C8CDE6AC52A
330
1C8CDE6AB819
100
AcDbEntity
  8
SUNPOU
100
AcDbMText
 10
1422.209695338514
 20
1013.407711124524
 30
0.0
 40
30.0
 41
0.0
 71
     5
 72
     1
  1
\A1;100
  7
EXT08
 11
0.0
 21
1.0
 31
0.0
 73
     1
 44
1.0
1001
ACAD
1000
MTEXTBEGIN
1070
    73
1070
     1
1070
    44
1040
1.0
1070
    74
1070
     0
1000
MTEXTEND
  0
POINT
  5
1C8CDE6AC52B
330
1C8CDE6AB819
100
AcDbEntity
  8
DEFPOINTS
 62
     0
100
AcDbPoint
 10
1274.037696236502
 20
1063.407711124524
 30
0.0
  0
POINT
  5
1C8CDE6AC52C
330
1C8CDE6AB819
100
AcDbEntity
  8
DEFPOINTS
 62
     0
100
AcDbPoint
 10
1411.661734495767
 20
963.4077111245245
 30
0.0
  0
POINT
  5
1C8CDE6AC52D
330
1C8CDE6AB819
100
AcDbEntity
  8
DEFPOINTS
 62
     0
100
AcDbPoint
 10
1445.252729695829
 20
963.4077111245245
 30
0.0
  0
ENDBLK
  5
1C8CDE6AB824
330
1C8CDE6AB819
100
AcDbEntity
  8
0
100
AcDbBlockEnd
  0
BLOCK
  5
1C8CDE6ABE45
330
1C8CDE6AB825
100
AcDbEntity
  8
0
100
AcDbBlockBegin
  2
*D4
 70
     1
 10
0.0
 20
0.0
 30
0.0
  3
*D4
  1

  0
LINE
  5
1C8CDE6AC51C
330
1C8CDE6AB825
100
AcDbEntity
  8
SUNPOU
370
    -2
100
AcDbLine
 10
1421.661734495766
 20
963.4077111245245
 30
0.0
 11
1530.252729695829
 21
963.4077111245245
 31
0.0
  0
LINE
  5
1C8CDE6AC51D
330
1C8CDE6AB825
100
AcDbEntity
  8
SUNPOU
370
    -2
100
AcDbLine
 10
1402.751861180948
 20
563.407702183824
 30
0.0
 11
1530.252729695829
 21
563.407702183824
 31
0.0
  0
LINE
  5
1C8CDE6AC51E
330
1C8CDE6AB825
100
AcDbEntity
  8
SUNPOU
370
    -2
100
AcDbLine
 10
1520.252729695829
 20
943.4077111245244
 30
0.0
 11
1520.252729695829
 21
583.4077021838241
 31
0.0
  0
SOLID
  5
1C8CDE6AC51F
330
1C8CDE6AB825
100
AcDbEntity
  8
SUNPOU
100
AcDbTrace
 10
1523.586063029162
 20
943.4077111245244
 30
0.0
 11
1516.919396362495
 21
943.4077111245244
 31
0.0
 12
1520.252729695829
 22
963.4077111245245
 32
0.0
 13
1520.252729695829
 23
963.4077111245245
 33
0.0
  0
SOLID
  5
1C8CDE6AC520
330
1C8CDE6AB825
100
AcDbEntity
  8
SUNPOU
100
AcDbTrace
 10
1516.919396362495
 20
583.4077021838241
 30
0.0
 11
1523.586063029162
 21
583.4077021838241
 31
0.0
 12
1520.252729695829
 22
563.407702183824
 32
0.0
 13
1520.252729695829
 23
563.407702183824
 33
0.0
  0
MTEXT
  5
1C8CDE6AC521
330
1C8CDE6AB825
100
AcDbEntity
  8
SUNPOU
100
AcDbMText
 10
1493.252729695829
 20
763.4077066541742
 30
0.0
 40
30.0
 41
0.0
 71
     5
 72
     1
  1
\A1;400
  7
EXT08
 11
0.0
 21
1.0
 31
0.0
 73
     1
 44
1.0
1001
ACAD
1000
MTEXTBEGIN
1070
    73
1070
     1
1070
    44
1040
1.0
1070
    74
1070
     0
1000
MTEXTEND
  0
POINT
  5
1C8CDE6AC522
330
1C8CDE6AB825
100
AcDbEntity
  8
DEFPOINTS
 62
     0
100
AcDbPoint
 10
1411.661734495767
 20
963.4077111245245
 30
0.0
  0
POINT
  5
1C8CDE6AC523
330
1C8CDE6AB825
100
AcDbEntity
  8
DEFPOINTS
 62
     0
100
AcDbPoint
 10
1392.751861180948
 20
563.407702183824
 30
0.0
  0
POINT
  5
1C8CDE6AC524
330
1C8CDE6AB825
100
AcDbEntity
  8
DEFPOINTS
 62
     0
100
AcDbPoint
 10
1520.252729695829
 20
563.407702183824
 30
0.0
  0
ENDBLK
  5
1C8CDE6ABE4F
330
1C8CDE6AB825
100
AcDbEntity
  8
0
100
AcDbBlockEnd
  0
BLOCK
  5
1C8CDE6ABF53
330
1C8CDE6ABF2A
100
AcDbEntity
  8
0
100
AcDbBlockBegin
  2
*X5
 70
     1
 10
0.0
 20
0.0
 30
0.0
  3
*X5
  1

  0
LINE
  5
1C8CDE6ABF2B
330
1C8CDE6ABF2A
100
AcDbEntity
  8
0
 62
     0
100
AcDbLine
 10
1669.372214525001
 20
1759.174775735693
 30
0.0
 11
1724.522214525001
 21
1814.324775735693
 31
0.0
  0
LINE
  5
1C8CDE6ABF2C
330
1C8CDE6ABF2A
100
AcDbEntity
  8
0
 62
     0
100
AcDbLine
 10
1724.522214525002
 20
1814.324775735694
 30
0.0
 11
1779.672214525002
 21
1869.474775735694
 31
0.0
  0
LINE
  5
1C8CDE6ABF2D
330
1C8CDE6ABF2A
100
AcDbEntity
  8
0
 62
     0
100
AcDbLine
 10
1669.372214525001
 20
1768.155031856762
 30
0.0
 11
1724.522214525002
 21
1823.305031856762
 31
0.0
  0
LINE
  5
1C8CDE6ABF2E
330
1C8CDE6ABF2A
100
AcDbEntity
  8
0
 62
     0
100
AcDbLine
 10
1724.522214525002
 20
1823.305031856763
 30
0.0
 11
1779.672214525002
 21
1878.455031856763
 31
0.0
  0
LINE
  5
1C8CDE6ABF2F
330
1C8CDE6ABF2A
100
AcDbEntity
  8
0
 62
     0
100
AcDbLine
 10
1669.372214525001
 20
1777.135287977831
 30
0.0
 11
1724.522214525002
 21
1832.285287977832
 31
0.0
  0
LINE
  5
1C8CDE6ABF30
330
1C8CDE6ABF2A
100
AcDbEntity
  8
0
 62
     0
100
AcDbLine
 10
1724.522214525002
 20
1832.285287977832
 30
0.0
 11
1770.791893438681
 21
1878.55496689151
 31
0.0
  0
LINE
  5
1C8CDE6ABF31
330
1C8CDE6ABF2A
100
AcDbEntity
  8
0
 62
     0
100
AcDbLine
 10
1669.372214525002
 20
1786.115544098901
 30
0.0
 11
1724.522214525002
 21
1841.2655440989
 31
0.0
  0
LINE
  5
1C8CDE6ABF32
330
1C8CDE6ABF2A
100
AcDbEntity
  8
0
 62
     0
100
AcDbLine
 10
1724.522214525002
 20
1841.265544098901
 30
0.0
 11
1761.811637317612
 21
1878.55496689151
 31
0.0
  0
LINE
  5
1C8CDE6ABF33
330
1C8CDE6ABF2A
100
AcDbEntity
  8
0
 62
     0
100
AcDbLine
 10
1669.372214525002
 20
1795.09580021997
 30
0.0
 11
1724.522214525002
 21
1850.245800219969
 31
0.0
  0
LINE
  5
1C8CDE6ABF34
330
1C8CDE6ABF2A
100
AcDbEntity
  8
0
 62
     0
100
AcDbLine
 10
1724.522214525002
 20
1850.24580021997
 30
0.0
 11
1752.831381196543
 21
1878.55496689151
 31
0.0
  0
LINE
  5
1C8CDE6ABF35
330
1C8CDE6ABF2A
100
AcDbEntity
  8
0
 62
     0
100
AcDbLine
 10
1669.372214525002
 20
1804.076056341038
 30
0.0
 11
1724.522214525002
 21
1859.226056341039
 31
0.0
  0
LINE
  5
1C8CDE6ABF36
330
1C8CDE6ABF2A
100
AcDbEntity
  8
0
 62
     0
100
AcDbLine
 10
1724.522214525002
 20
1859.226056341039
 30
0.0
 11
1743.851125075473
 21
1878.55496689151
 31
0.0
  0
LINE
  5
1C8CDE6ABF37
330
1C8CDE6ABF2A
100
AcDbEntity
  8
0
 62
     0
100
AcDbLine
 10
1669.372214525002
 20
1813.056312462108
 30
0.0
 11
1724.522214525002
 21
1868.206312462108
 31
0.0
  0
LINE
  5
1C8CDE6ABF38
330
1C8CDE6ABF2A
100
AcDbEntity
  8
0
 62
     0
100
AcDbLine
 10
1724.522214525002
 20
1868.206312462109
 30
0.0
 11
1734.870868954405
 21
1878.554966891511
 31
0.0
  0
LINE
  5
1C8CDE6ABF39
330
1C8CDE6ABF2A
100
AcDbEntity
  8
0
 62
     0
100
AcDbLine
 10
1669.372214525002
 20
1822.036568583177
 30
0.0
 11
1724.522214525002
 21
1877.186568583177
 31
0.0
  0
LINE
  5
1C8CDE6ABF3A
330
1C8CDE6ABF2A
100
AcDbEntity
  8
0
 62
     0
100
AcDbLine
 10
1724.522214525002
 20
1877.186568583178
 30
0.0
 11
1725.890612833335
 21
1878.554966891511
 31
0.0
  0
LINE
  5
1C8CDE6ABF3B
330
1C8CDE6ABF2A
100
AcDbEntity
  8
0
 62
     0
100
AcDbLine
 10
1669.372214525002
 20
1831.016824704246
 30
0.0
 11
1716.910356712266
 21
1878.554966891511
 31
0.0
  0
LINE
  5
1C8CDE6ABF3C
330
1C8CDE6ABF2A
100
AcDbEntity
  8
0
 62
     0
100
AcDbLine
 10
1669.372214525002
 20
1839.997080825316
 30
0.0
 11
1707.930100591197
 21
1878.554966891511
 31
0.0
  0
LINE
  5
1C8CDE6ABF3D
330
1C8CDE6ABF2A
100
AcDbEntity
  8
0
 62
     0
100
AcDbLine
 10
1669.372214525002
 20
1848.977336946385
 30
0.0
 11
1698.949844470128
 21
1878.554966891511
 31
0.0
  0
LINE
  5
1C8CDE6ABF3E
330
1C8CDE6ABF2A
100
AcDbEntity
  8
0
 62
     0
100
AcDbLine
 10
1669.372214525002
 20
1857.957593067454
 30
0.0
 11
1689.969588349059
 21
1878.554966891511
 31
0.0
  0
LINE
  5
1C8CDE6ABF3F
330
1C8CDE6ABF2A
100
AcDbEntity
  8
0
 62
     0
100
AcDbLine
 10
1669.372214525002
 20
1866.937849188524
 30
0.0
 11
1680.98933222799
 21
1878.554966891511
 31
0.0
  0
LINE
  5
1C8CDE6ABF40
330
1C8CDE6ABF2A
100
AcDbEntity
  8
0
 62
     0
100
AcDbLine
 10
1669.372214525002
 20
1875.918105309592
 30
0.0
 11
1672.00907610692
 21
1878.554966891511
 31
0.0
  0
LINE
  5
1C8CDE6ABF41
330
1C8CDE6ABF2A
100
AcDbEntity
  8
0
 62
     0
100
AcDbLine
 10
1677.732661801889
 20
1758.554966891511
 30
0.0
 11
1724.522214525001
 21
1805.344519614624
 31
0.0
  0
LINE
  5
1C8CDE6ABF42
330
1C8CDE6ABF2A
100
AcDbEntity
  8
0
 62
     0
100
AcDbLine
 10
1724.522214525002
 20
1805.344519614624
 30
0.0
 11
1779.672214525002
 21
1860.494519614625
 31
0.0
  0
LINE
  5
1C8CDE6ABF43
330
1C8CDE6ABF2A
100
AcDbEntity
  8
0
 62
     0
100
AcDbLine
 10
1686.712917922958
 20
1758.554966891511
 30
0.0
 11
1724.522214525001
 21
1796.364263493555
 31
0.0
  0
LINE
  5
1C8CDE6ABF44
330
1C8CDE6ABF2A
100
AcDbEntity
  8
0
 62
     0
100
AcDbLine
 10
1724.522214525002
 20
1796.364263493555
 30
0.0
 11
1779.672214525002
 21
1851.514263493555
 31
0.0
  0
LINE
  5
1C8CDE6ABF45
330
1C8CDE6ABF2A
100
AcDbEntity
  8
0
 62
     0
100
AcDbLine
 10
1695.693174044027
 20
1758.554966891511
 30
0.0
 11
1724.522214525001
 21
1787.384007372486
 31
0.0
  0
LINE
  5
1C8CDE6ABF46
330
1C8CDE6ABF2A
100
AcDbEntity
  8
0
 62
     0
100
AcDbLine
 10
1724.522214525002
 20
1787.384007372486
 30
0.0
 11
1779.672214525002
 21
1842.534007372486
 31
0.0
  0
LINE
  5
1C8CDE6ABF47
330
1C8CDE6ABF2A
100
AcDbEntity
  8
0
 62
     0
100
AcDbLine
 10
1704.673430165096
 20
1758.554966891511
 30
0.0
 11
1724.522214525001
 21
1778.403751251417
 31
0.0
  0
LINE
  5
1C8CDE6ABF48
330
1C8CDE6ABF2A
100
AcDbEntity
  8
0
 62
     0
100
AcDbLine
 10
1724.522214525002
 20
1778.403751251417
 30
0.0
 11
1779.672214525002
 21
1833.553751251417
 31
0.0
  0
LINE
  5
1C8CDE6ABF49
330
1C8CDE6ABF2A
100
AcDbEntity
  8
0
 62
     0
100
AcDbLine
 10
1713.653686286165
 20
1758.554966891511
 30
0.0
 11
1724.522214525001
 21
1769.423495130347
 31
0.0
  0
LINE
  5
1C8CDE6ABF4A
330
1C8CDE6ABF2A
100
AcDbEntity
  8
0
 62
     0
100
AcDbLine
 10
1724.522214525002
 20
1769.423495130348
 30
0.0
 11
1779.672214525002
 21
1824.573495130348
 31
0.0
  0
LINE
  5
1C8CDE6ABF4B
330
1C8CDE6ABF2A
100
AcDbEntity
  8
0
 62
     0
100
AcDbLine
 10
1722.633942407234
 20
1758.554966891511
 30
0.0
 11
1724.522214525001
 21
1760.443239009278
 31
0.0
  0
LINE
  5
1C8CDE6ABF4C
330
1C8CDE6ABF2A
100
AcDbEntity
  8
0
 62
     0
100
AcDbLine
 10
1724.522214525002
 20
1760.443239009279
 30
0.0
 11
1779.672214525002
 21
1815.593239009279
 31
0.0
  0
LINE
  5
1C8CDE6ABF4D
330
1C8CDE6ABF2A
100
AcDbEntity
  8
0
 62
     0
100
AcDbLine
 10
1731.614198528303
 20
1758.554966891511
 30
0.0
 11
1779.672214525002
 21
1806.61298288821
 31
0.0
  0
LINE
  5
1C8CDE6ABF4E
330
1C8CDE6ABF2A
100
AcDbEntity
  8
0
 62
     0
100
AcDbLine
 10
1740.594454649372
 20
1758.554966891511
 30
0.0
 11
1779.672214525002
 21
1797.63272676714
 31
0.0
  0
LINE
  5
1C8CDE6ABF4F
330
1C8CDE6ABF2A
100
AcDbEntity
  8
0
 62
     0
100
AcDbLine
 10
1749.574710770441
 20
1758.554966891511
 30
0.0
 11
1779.672214525002
 21
1788.652470646071
 31
0.0
  0
LINE
  5
1C8CDE6ABF50
330
1C8CDE6ABF2A
100
AcDbEntity
  8
0
 62
     0
100
AcDbLine
 10
1758.554966891511
 20
1758.554966891511
 30
0.0
 11
1779.672214525002
 21
1779.672214525002
 31
0.0
  0
LINE
  5
1C8CDE6ABF51
330
1C8CDE6ABF2A
100
AcDbEntity
  8
0
 62
     0
100
AcDbLine
 10
1767.535223012579
 20
1758.554966891511
 30
0.0
 11
1779.672214525002
 21
1770.691958403933
 31
0.0
  0
LINE
  5
1C8CDE6ABF52
330
1C8CDE6ABF2A
100
AcDbEntity
  8
0
 62
     0
100
AcDbLine
 10
1776.515479133648
 20
1758.554966891511
 30
0.0
 11
1779.672214525002
 21
1761.711702282864
 31
0.0
  0
ENDBLK
  5
1C8CDE6ABF54
330
1C8CDE6ABF2A
100
AcDbEntity
  8
0
100
AcDbBlockEnd
  0
BLOCK
  5
1C8CDE6AC217
330
1C8CDE6AC216
100
AcDbEntity
  8
0
100
AcDbBlockBegin
  2
*D6
 70
     1
 10
0.0
 20
0.0
 30
0.0
  3
*D6
  1

  0
LINE
  5
1C8CDE6AC508
330
1C8CDE6AC216
100
AcDbEntity
  8
SUNPOU
370
    -2
100
AcDbLine
 10
1205.251858666447
 20
1863.407711124524
 30
0.0
 11
1530.252729695829
 21
1863.407711124524
 31
0.0
  0
LINE
  5
1C8CDE6AC509
330
1C8CDE6AC216
100
AcDbEntity
  8
SUNPOU
370
    -2
100
AcDbLine
 10
1421.661734495766
 20
963.4077111245245
 30
0.0
 11
1530.252729695829
 21
963.4077111245245
 31
0.0
  0
LINE
  5
1C8CDE6AC50A
330
1C8CDE6AC216
100
AcDbEntity
  8
SUNPOU
370
    -2
100
AcDbLine
 10
1520.252729695829
 20
1843.407711124524
 30
0.0
 11
1520.252729695829
 21
983.4077111245244
 31
0.0
  0
SOLID
  5
1C8CDE6AC50B
330
1C8CDE6AC216
100
AcDbEntity
  8
SUNPOU
100
AcDbTrace
 10
1523.586063029162
 20
1843.407711124524
 30
0.0
 11
1516.919396362495
 21
1843.407711124524
 31
0.0
 12
1520.252729695829
 22
1863.407711124524
 32
0.0
 13
1520.252729695829
 23
1863.407711124524
 33
0.0
  0
SOLID
  5
1C8CDE6AC50C
330
1C8CDE6AC216
100
AcDbEntity
  8
SUNPOU
100
AcDbTrace
 10
1516.919396362495
 20
983.4077111245244
 30
0.0
 11
1523.586063029162
 21
983.4077111245244
 31
0.0
 12
1520.252729695829
 22
963.4077111245245
 32
0.0
 13
1520.252729695829
 23
963.4077111245245
 33
0.0
  0
MTEXT
  5
1C8CDE6AC50D
330
1C8CDE6AC216
100
AcDbEntity
  8
SUNPOU
100
AcDbMText
 10
1493.252729695829
 20
1413.407711124524
 30
0.0
 40
30.0
 41
0.0
 71
     5
 72
     1
  1
\A1;900
  7
EXT08
 11
0.0
 21
1.0
 31
0.0
 73
     1
 44
1.0
1001
ACAD
1000
MTEXTBEGIN
1070
    73
1070
     1
1070
    44
1040
1.0
1070
    74
1070
     0
1000
MTEXTEND
  0
POINT
  5
1C8CDE6AC50E
330
1C8CDE6AC216
100
AcDbEntity
  8
DEFPOINTS
 62
     0
100
AcDbPoint
 10
1195.251858666447
 20
1863.407711124524
 30
0.0
  0
POINT
  5
1C8CDE6AC50F
330
1C8CDE6AC216
100
AcDbEntity
  8
DEFPOINTS
 62
     0
100
AcDbPoint
 10
1411.661734495767
 20
963.4077111245245
 30
0.0
  0
POINT
  5
1C8CDE6AC510
330
1C8CDE6AC216
100
AcDbEntity
  8
DEFPOINTS
 62
     0
100
AcDbPoint
 10
1520.252729695829
 20
963.4077111245245
 30
0.0
  0
ENDBLK
  5
1C8CDE6AC221
330
1C8CDE6AC216
100
AcDbEntity
  8
0
100
AcDbBlockEnd
  0
BLOCK
  5
1C8CDE6AC224
330
1C8CDE6AC223
100
AcDbEntity
  8
0
100
AcDbBlockBegin
  2
*D7
 70
     1
 10
0.0
 20
0.0
 30
0.0
  3
*D7
  1

  0
LINE
  5
1C8CDE6AC225
330
1C8CDE6AC223
100
AcDbEntity
  8
SUNPOU
370
    -2
100
AcDbLine
 10
1205.251858666447
 20
1863.407711124524
 30
0.0
 11
1605.252729695829
 21
1863.407711124524
 31
0.0
  0
LINE
  5
1C8CDE6AC226
330
1C8CDE6AC223
100
AcDbEntity
  8
SUNPOU
370
    -2
100
AcDbLine
 10
1405.251858666447
 20
563.4077111245241
 30
0.0
 11
1605.252729695829
 21
563.4077111245241
 31
0.0
  0
LINE
  5
1C8CDE6AC227
330
1C8CDE6AC223
100
AcDbEntity
  8
SUNPOU
370
    -2
100
AcDbLine
 10
1595.252729695828
 20
1843.407711124524
 30
0.0
 11
1595.252729695828
 21
583.4077111245242
 31
0.0
  0
SOLID
  5
1C8CDE6AC228
330
1C8CDE6AC223
100
AcDbEntity
  8
SUNPOU
100
AcDbTrace
 10
1598.586063029162
 20
1843.407711124524
 30
0.0
 11
1591.919396362495
 21
1843.407711124524
 31
0.0
 12
1595.252729695828
 22
1863.407711124524
 32
0.0
 13
1595.252729695828
 23
1863.407711124524
 33
0.0
  0
SOLID
  5
1C8CDE6AC229
330
1C8CDE6AC223
100
AcDbEntity
  8
SUNPOU
100
AcDbTrace
 10
1591.919396362495
 20
583.4077111245242
 30
0.0
 11
1598.586063029162
 21
583.4077111245242
 31
0.0
 12
1595.252729695828
 22
563.4077111245241
 32
0.0
 13
1595.252729695828
 23
563.4077111245241
 33
0.0
  0
MTEXT
  5
1C8CDE6AC22A
330
1C8CDE6AC223
100
AcDbEntity
  8
SUNPOU
100
AcDbMText
 10
1568.252729695829
 20
1213.407711124524
 30
0.0
 40
30.0
 41
0.0
 71
     5
 72
     1
  1
\A1;1300
  7
EXT08
 11
0.0
 21
1.0
 31
0.0
 73
     1
 44
1.0
1001
ACAD
1000
MTEXTBEGIN
1070
    73
1070
     1
1070
    44
1040
1.0
1070
    74
1070
     0
1000
MTEXTEND
  0
POINT
  5
1C8CDE6AC22B
330
1C8CDE6AC223
100
AcDbEntity
  8
DEFPOINTS
 62
     0
100
AcDbPoint
 10
1195.251858666447
 20
1863.407711124524
 30
0.0
  0
POINT
  5
1C8CDE6AC22C
330
1C8CDE6AC223
100
AcDbEntity
  8
DEFPOINTS
 62
     0
100
AcDbPoint
 10
1395.251858666447
 20
563.4077111245241
 30
0.0
  0
POINT
  5
1C8CDE6AC22D
330
1C8CDE6AC223
100
AcDbEntity
  8
DEFPOINTS
 62
     0
100
AcDbPoint
 10
1595.252729695828
 20
563.4077111245241
 30
0.0
  0
ENDBLK
  5
1C8CDE6AC22E
330
1C8CDE6AC223
100
AcDbEntity
  8
0
100
AcDbBlockEnd
  0
BLOCK
  5
1C8CDE6AC260
330
1C8CDE6AC230
100
AcDbEntity
  8
0
100
AcDbBlockBegin
  2
*D8
 70
     1
 10
0.0
 20
0.0
 30
0.0
  3
*D8
  1

  0
LINE
  5
1C8CDE6AC261
330
1C8CDE6AC230
100
AcDbEntity
  8
SUNPOU
370
    -2
100
AcDbLine
 10
1205.251858666447
 20
1863.407711124524
 30
0.0
 11
1455.252729695829
 21
1863.407711124524
 31
0.0
  0
LINE
  5
1C8CDE6AC262
330
1C8CDE6AC230
100
AcDbEntity
  8
SUNPOU
370
    -2
100
AcDbLine
 10
1261.951858666447
 20
1763.407711124524
 30
0.0
 11
1455.252729695829
 21
1763.407711124524
 31
0.0
  0
LINE
  5
1C8CDE6AC263
330
1C8CDE6AC230
100
AcDbEntity
  8
SUNPOU
370
    -2
100
AcDbLine
 10
1445.252729695829
 20
1843.407711124524
 30
0.0
 11
1445.252729695829
 21
1783.407711124525
 31
0.0
  0
SOLID
  5
1C8CDE6AC264
330
1C8CDE6AC230
100
AcDbEntity
  8
SUNPOU
100
AcDbTrace
 10
1448.586063029163
 20
1843.407711124524
 30
0.0
 11
1441.919396362496
 21
1843.407711124524
 31
0.0
 12
1445.252729695829
 22
1863.407711124524
 32
0.0
 13
1445.252729695829
 23
1863.407711124524
 33
0.0
  0
SOLID
  5
1C8CDE6AC265
330
1C8CDE6AC230
100
AcDbEntity
  8
SUNPOU
100
AcDbTrace
 10
1441.919396362496
 20
1783.407711124525
 30
0.0
 11
1448.586063029163
 21
1783.407711124525
 31
0.0
 12
1445.252729695829
 22
1763.407711124524
 32
0.0
 13
1445.252729695829
 23
1763.407711124524
 33
0.0
  0
MTEXT
  5
1C8CDE6AC266
330
1C8CDE6AC230
100
AcDbEntity
  8
SUNPOU
100
AcDbMText
 10
1413.030223278656
 20
1813.407711124524
 30
0.0
 40
30.0
 41
0.0
 71
     5
 72
     1
  1
\A1;100
  7
EXT08
 11
0.0
 21
1.0
 31
0.0
 73
     1
 44
1.0
1001
ACAD
1000
MTEXTBEGIN
1070
    73
1070
     1
1070
    44
1040
1.0
1070
    74
1070
     0
1000
MTEXTEND
  0
POINT
  5
1C8CDE6AC267
330
1C8CDE6AC230
100
AcDbEntity
  8
DEFPOINTS
 62
     0
100
AcDbPoint
 10
1195.251858666447
 20
1863.407711124524
 30
0.0
  0
POINT
  5
1C8CDE6AC268
330
1C8CDE6AC230
100
AcDbEntity
  8
DEFPOINTS
 62
     0
100
AcDbPoint
 10
1251.951858666447
 20
1763.407711124524
 30
0.0
  0
POINT
  5
1C8CDE6AC269
330
1C8CDE6AC230
100
AcDbEntity
  8
DEFPOINTS
 62
     0
100
AcDbPoint
 10
1445.252729695829
 20
1763.407711124524
 30
0.0
  0
ENDBLK
  5
1C8CDE6AC26A
330
1C8CDE6AC230
100
AcDbEntity
  8
0
100
AcDbBlockEnd
  0
BLOCK
  5
1C8CDE6AC276
330
1C8CDE6AC23D
100
AcDbEntity
  8
0
100
AcDbBlockBegin
  2
*D9
 70
     1
 10
0.0
 20
0.0
 30
0.0
  3
*D9
  1

  0
LINE
  5
1C8CDE6AC277
330
1C8CDE6AC23D
100
AcDbEntity
  8
SUNPOU
370
    -2
100
AcDbLine
 10
1261.951858666447
 20
1763.407711124524
 30
0.0
 11
1455.252729695829
 21
1763.407711124524
 31
0.0
  0
LINE
  5
1C8CDE6AC278
330
1C8CDE6AC23D
100
AcDbEntity
  8
SUNPOU
370
    -2
100
AcDbLine
 10
1260.401858666446
 20
1643.411812739661
 30
0.0
 11
1455.252729695829
 21
1643.411812739661
 31
0.0
  0
LINE
  5
1C8CDE6AC279
330
1C8CDE6AC23D
100
AcDbEntity
  8
SUNPOU
370
    -2
100
AcDbLine
 10
1445.252729695829
 20
1743.407711124524
 30
0.0
 11
1445.252729695829
 21
1663.411812739661
 31
0.0
  0
SOLID
  5
1C8CDE6AC27A
330
1C8CDE6AC23D
100
AcDbEntity
  8
SUNPOU
100
AcDbTrace
 10
1448.586063029163
 20
1743.407711124524
 30
0.0
 11
1441.919396362496
 21
1743.407711124524
 31
0.0
 12
1445.252729695829
 22
1763.407711124524
 32
0.0
 13
1445.252729695829
 23
1763.407711124524
 33
0.0
  0
SOLID
  5
1C8CDE6AC27B
330
1C8CDE6AC23D
100
AcDbEntity
  8
SUNPOU
100
AcDbTrace
 10
1441.919396362496
 20
1663.411812739661
 30
0.0
 11
1448.586063029163
 21
1663.411812739661
 31
0.0
 12
1445.252729695829
 22
1643.411812739661
 32
0.0
 13
1445.252729695829
 23
1643.411812739661
 33
0.0
  0
MTEXT
  5
1C8CDE6AC27C
330
1C8CDE6AC23D
100
AcDbEntity
  8
SUNPOU
100
AcDbMText
 10
1413.030223278656
 20
1703.409761932093
 30
0.0
 40
30.0
 41
0.0
 71
     5
 72
     1
  1
\A1;120
  7
EXT08
 11
0.0
 21
1.0
 31
0.0
 73
     1
 44
1.0
1001
ACAD
1000
MTEXTBEGIN
1070
    73
1070
     1
1070
    44
1040
1.0
1070
    74
1070
     0
1000
MTEXTEND
  0
POINT
  5
1C8CDE6AC27D
330
1C8CDE6AC23D
100
AcDbEntity
  8
DEFPOINTS
 62
     0
100
AcDbPoint
 10
1251.951858666447
 20
1763.407711124524
 30
0.0
  0
POINT
  5
1C8CDE6AC27E
330
1C8CDE6AC23D
100
AcDbEntity
  8
DEFPOINTS
 62
     0
100
AcDbPoint
 10
1250.401858666446
 20
1643.411812739661
 30
0.0
  0
POINT
  5
1C8CDE6AC27F
330
1C8CDE6AC23D
100
AcDbEntity
  8
DEFPOINTS
 62
     0
100
AcDbPoint
 10
1445.252729695829
 20
1643.411812739661
 30
0.0
  0
ENDBLK
  5
1C8CDE6AC280
330
1C8CDE6AC23D
100
AcDbEntity
  8
0
100
AcDbBlockEnd
  0
BLOCK
  5
1C8CDE6AC483
330
1C8CDE6AC479
100
AcDbEntity
  8
0
100
AcDbBlockBegin
  2
*D10
 70
     1
 10
0.0
 20
0.0
 30
0.0
  3
*D10
  1

  0
LINE
  5
1C8CDE6AC4C3
330
1C8CDE6AC479
100
AcDbEntity
  8
SUNPOU
370
    -2
100
AcDbLine
 10
3191.906424969391
 20
1525.336067023497
 30
0.0
 11
3264.506424969392
 21
1525.336067023497
 31
0.0
  0
LINE
  5
1C8CDE6AC4C4
330
1C8CDE6AC479
100
AcDbEntity
  8
SUNPOU
370
    -2
100
AcDbLine
 10
3177.506384969392
 20
1125.336067023496
 30
0.0
 11
3264.506424969392
 21
1125.336067023496
 31
0.0
  0
LINE
  5
1C8CDE6AC4C5
330
1C8CDE6AC479
100
AcDbEntity
  8
SUNPOU
370
    -2
100
AcDbLine
 10
3254.506424969392
 20
1505.336067023496
 30
0.0
 11
3254.506424969392
 21
1145.336067023497
 31
0.0
  0
SOLID
  5
1C8CDE6AC4C6
330
1C8CDE6AC479
100
AcDbEntity
  8
SUNPOU
100
AcDbTrace
 10
3257.839758302725
 20
1505.336067023496
 30
0.0
 11
3251.173091636058
 21
1505.336067023496
 31
0.0
 12
3254.506424969392
 22
1525.336067023497
 32
0.0
 13
3254.506424969392
 23
1525.336067023497
 33
0.0
  0
SOLID
  5
1C8CDE6AC4C7
330
1C8CDE6AC479
100
AcDbEntity
  8
SUNPOU
100
AcDbTrace
 10
3251.173091636058
 20
1145.336067023497
 30
0.0
 11
3257.839758302725
 21
1145.336067023497
 31
0.0
 12
3254.506424969392
 22
1125.336067023496
 32
0.0
 13
3254.506424969392
 23
1125.336067023496
 33
0.0
  0
MTEXT
  5
1C8CDE6AC4C8
330
1C8CDE6AC479
100
AcDbEntity
  8
SUNPOU
100
AcDbMText
 10
3227.506424969391
 20
1325.336067023497
 30
0.0
 40
30.0
 41
0.0
 71
     5
 72
     1
  1
\A1;400
  7
EXT08
 11
0.0
 21
1.0
 31
0.0
 73
     1
 44
1.0
1001
ACAD
1000
MTEXTBEGIN
1070
    73
1070
     1
1070
    44
1040
1.0
1070
    74
1070
     0
1000
MTEXTEND
  0
POINT
  5
1C8CDE6AC4C9
330
1C8CDE6AC479
100
AcDbEntity
  8
DEFPOINTS
 62
     0
100
AcDbPoint
 10
3181.906424969391
 20
1525.336067023497
 30
0.0
  0
POINT
  5
1C8CDE6AC4CA
330
1C8CDE6AC479
100
AcDbEntity
  8
DEFPOINTS
 62
     0
100
AcDbPoint
 10
3167.506384969392
 20
1125.336067023496
 30
0.0
  0
POINT
  5
1C8CDE6AC4CB
330
1C8CDE6AC479
100
AcDbEntity
  8
DEFPOINTS
 62
     0
100
AcDbPoint
 10
3254.506424969392
 20
1125.336067023496
 30
0.0
  0
ENDBLK
  5
1C8CDE6AC484
330
1C8CDE6AC479
100
AcDbEntity
  8
0
100
AcDbBlockEnd
  0
BLOCK
  5
1C8CDE6AC48F
330
1C8CDE6AC485
100
AcDbEntity
  8
0
100
AcDbBlockBegin
  2
*D11
 70
     1
 10
0.0
 20
0.0
 30
0.0
  3
*D11
  1

  0
LINE
  5
1C8CDE6AC4CC
330
1C8CDE6AC485
100
AcDbEntity
  8
SUNPOU
370
    -2
100
AcDbLine
 10
2785.844519742767
 20
1113.736067023497
 30
0.0
 11
2785.844519742767
 21
965.1814233276684
 31
0.0
  0
LINE
  5
1C8CDE6AC4CD
330
1C8CDE6AC485
100
AcDbEntity
  8
SUNPOU
370
    -2
100
AcDbLine
 10
2910.844519742767
 20
1113.736067023497
 30
0.0
 11
2910.844519742767
 21
965.1814233276684
 31
0.0
  0
LINE
  5
1C8CDE6AC4CE
330
1C8CDE6AC485
100
AcDbEntity
  8
SUNPOU
370
    -2
100
AcDbLine
 10
2805.844519742768
 20
975.1814233276686
 30
0.0
 11
2890.844519742767
 21
975.1814233276686
 31
0.0
  0
SOLID
  5
1C8CDE6AC4CF
330
1C8CDE6AC485
100
AcDbEntity
  8
SUNPOU
100
AcDbTrace
 10
2805.844519742768
 20
978.5147566610019
 30
0.0
 11
2805.844519742768
 21
971.8480899943351
 31
0.0
 12
2785.844519742767
 22
975.1814233276686
 32
0.0
 13
2785.844519742767
 23
975.1814233276686
 33
0.0
  0
SOLID
  5
1C8CDE6AC4D0
330
1C8CDE6AC485
100
AcDbEntity
  8
SUNPOU
100
AcDbTrace
 10
2890.844519742767
 20
971.8480899943351
 30
0.0
 11
2890.844519742767
 21
978.5147566610019
 31
0.0
 12
2910.844519742767
 22
975.1814233276686
 32
0.0
 13
2910.844519742767
 23
975.1814233276686
 33
0.0
  0
MTEXT
  5
1C8CDE6AC4D1
330
1C8CDE6AC485
100
AcDbEntity
  8
SUNPOU
100
AcDbMText
 10
2848.344519742767
 20
1033.450873514303
 30
0.0
 40
30.0
 41
0.0
 71
     5
 72
     1
  1
\A1;%%C125\P（底板径）
  7
EXT08
 73
     1
 44
1.0
1001
ACAD
1000
MTEXTBEGIN
1070
    73
1070
     1
1070
    44
1040
1.0
1070
    74
1070
     0
1000
MTEXTEND
  0
POINT
  5
1C8CDE6AC4D2
330
1C8CDE6AC485
100
AcDbEntity
  8
DEFPOINTS
 62
     0
100
AcDbPoint
 10
2785.844519742767
 20
1123.736067023497
 30
0.0
  0
POINT
  5
1C8CDE6AC4D3
330
1C8CDE6AC485
100
AcDbEntity
  8
DEFPOINTS
 62
     0
100
AcDbPoint
 10
2910.844519742767
 20
1123.736067023497
 30
0.0
  0
POINT
  5
1C8CDE6AC4D4
330
1C8CDE6AC485
100
AcDbEntity
  8
DEFPOINTS
 62
     0
100
AcDbPoint
 10
2910.844519742767
 20
975.1814233276686
 30
0.0
  0
ENDBLK
  5
1C8CDE6AC490
330
1C8CDE6AC485
100
AcDbEntity
  8
0
100
AcDbBlockEnd
  0
BLOCK
  5
1C8CDE6AC49B
330
1C8CDE6AC491
100
AcDbEntity
  8
0
100
AcDbBlockBegin
  2
*D12
 70
     1
 10
0.0
 20
0.0
 30
0.0
  3
*D12
  1

  0
LINE
  5
1C8CDE6AC4D5
330
1C8CDE6AC491
100
AcDbEntity
  8
SUNPOU
370
    -2
100
AcDbLine
 10
2923.344519742768
 20
1535.336047023498
 30
0.0
 11
2923.344519742768
 21
1818.468087023495
 31
0.0
  0
LINE
  5
1C8CDE6AC4D6
330
1C8CDE6AC491
100
AcDbEntity
  8
SUNPOU
370
    -2
100
AcDbLine
 10
2773.344519742768
 20
1535.336047023496
 30
0.0
 11
2773.344519742768
 21
1818.468087023495
 31
0.0
  0
LINE
  5
1C8CDE6AC4D7
330
1C8CDE6AC491
100
AcDbEntity
  8
SUNPOU
370
    -2
100
AcDbLine
 10
2903.344519742768
 20
1808.468087023495
 30
0.0
 11
2793.344519742767
 21
1808.468087023495
 31
0.0
  0
SOLID
  5
1C8CDE6AC4D8
330
1C8CDE6AC491
100
AcDbEntity
  8
SUNPOU
100
AcDbTrace
 10
2903.344519742768
 20
1805.134753690162
 30
0.0
 11
2903.344519742768
 21
1811.801420356828
 31
0.0
 12
2923.344519742768
 22
1808.468087023495
 32
0.0
 13
2923.344519742768
 23
1808.468087023495
 33
0.0
  0
SOLID
  5
1C8CDE6AC4D9
330
1C8CDE6AC491
100
AcDbEntity
  8
SUNPOU
100
AcDbTrace
 10
2793.344519742767
 20
1811.801420356828
 30
0.0
 11
2793.344519742767
 21
1805.134753690162
 31
0.0
 12
2773.344519742768
 22
1808.468087023495
 32
0.0
 13
2773.344519742768
 23
1808.468087023495
 33
0.0
  0
MTEXT
  5
1C8CDE6AC4DA
330
1C8CDE6AC491
100
AcDbEntity
  8
SUNPOU
100
AcDbMText
 10
2848.344519742767
 20
1835.468087023495
 30
0.0
 40
30.0
 41
0.0
 71
     5
 72
     1
  1
\A1;%%C150
  7
EXT08
 73
     1
 44
1.0
1001
ACAD
1000
MTEXTBEGIN
1070
    73
1070
     1
1070
    44
1040
1.0
1070
    74
1070
     0
1000
MTEXTEND
  0
POINT
  5
1C8CDE6AC4DB
330
1C8CDE6AC491
100
AcDbEntity
  8
DEFPOINTS
 62
     0
100
AcDbPoint
 10
2923.344519742768
 20
1525.336047023498
 30
0.0
  0
POINT
  5
1C8CDE6AC4DC
330
1C8CDE6AC491
100
AcDbEntity
  8
DEFPOINTS
 62
     0
100
AcDbPoint
 10
2773.344519742768
 20
1525.336047023496
 30
0.0
  0
POINT
  5
1C8CDE6AC4DD
330
1C8CDE6AC491
100
AcDbEntity
  8
DEFPOINTS
 62
     0
100
AcDbPoint
 10
2773.344519742768
 20
1808.468087023495
 30
0.0
  0
ENDBLK
  5
1C8CDE6AC49C
330
1C8CDE6AC491
100
AcDbEntity
  8
0
100
AcDbBlockEnd
  0
BLOCK
  5
1C8CDE6AC4A7
330
1C8CDE6AC49D
100
AcDbEntity
  8
0
100
AcDbBlockBegin
  2
*D13
 70
     1
 10
0.0
 20
0.0
 30
0.0
  3
*D13
  1

  0
LINE
  5
1C8CDE6AC4DE
330
1C8CDE6AC49D
100
AcDbEntity
  8
SUNPOU
370
    -2
100
AcDbLine
 10
2781.871524085254
 20
1601.941093642492
 30
0.0
 11
2781.871524085254
 21
1718.468087023495
 31
0.0
  0
LINE
  5
1C8CDE6AC4DF
330
1C8CDE6AC49D
100
AcDbEntity
  8
SUNPOU
370
    -2
100
AcDbLine
 10
2914.844519742768
 20
1603.836047023471
 30
0.0
 11
2914.844519742768
 21
1718.468087023495
 31
0.0
  0
LINE
  5
1C8CDE6AC4E0
330
1C8CDE6AC49D
100
AcDbEntity
  8
SUNPOU
370
    -2
100
AcDbLine
 10
2801.871524085253
 20
1708.468087023496
 30
0.0
 11
2894.844519742767
 21
1708.468087023496
 31
0.0
  0
SOLID
  5
1C8CDE6AC4E1
330
1C8CDE6AC49D
100
AcDbEntity
  8
SUNPOU
100
AcDbTrace
 10
2801.871524085253
 20
1711.801420356829
 30
0.0
 11
2801.871524085253
 21
1705.134753690162
 31
0.0
 12
2781.871524085254
 22
1708.468087023496
 32
0.0
 13
2781.871524085254
 23
1708.468087023496
 33
0.0
  0
SOLID
  5
1C8CDE6AC4E2
330
1C8CDE6AC49D
100
AcDbEntity
  8
SUNPOU
100
AcDbTrace
 10
2894.844519742767
 20
1705.134753690162
 30
0.0
 11
2894.844519742767
 21
1711.801420356829
 31
0.0
 12
2914.844519742768
 22
1708.468087023496
 32
0.0
 13
2914.844519742768
 23
1708.468087023496
 33
0.0
  0
MTEXT
  5
1C8CDE6AC4E3
330
1C8CDE6AC49D
100
AcDbEntity
  8
SUNPOU
100
AcDbMText
 10
2848.358021914011
 20
1735.468087023496
 30
0.0
 40
30.0
 41
0.0
 71
     5
 72
     1
  1
\A1;%%C133
  7
EXT08
 73
     1
 44
1.0
1001
ACAD
1000
MTEXTBEGIN
1070
    73
1070
     1
1070
    44
1040
1.0
1070
    74
1070
     0
1000
MTEXTEND
  0
POINT
  5
1C8CDE6AC4E4
330
1C8CDE6AC49D
100
AcDbEntity
  8
DEFPOINTS
 62
     0
100
AcDbPoint
 10
2781.871524085254
 20
1591.941093642492
 30
0.0
  0
POINT
  5
1C8CDE6AC4E5
330
1C8CDE6AC49D
100
AcDbEntity
  8
DEFPOINTS
 62
     0
100
AcDbPoint
 10
2914.844519742768
 20
1593.836047023471
 30
0.0
  0
POINT
  5
1C8CDE6AC4E6
330
1C8CDE6AC49D
100
AcDbEntity
  8
DEFPOINTS
 62
     0
100
AcDbPoint
 10
2914.844519742768
 20
1708.468087023496
 30
0.0
  0
ENDBLK
  5
1C8CDE6AC4A8
330
1C8CDE6AC49D
100
AcDbEntity
  8
0
100
AcDbBlockEnd
  0
BLOCK
  5
1C8CDE6AC4B3
330
1C8CDE6AC4A9
100
AcDbEntity
  8
0
100
AcDbBlockBegin
  2
*D14
 70
     1
 10
0.0
 20
0.0
 30
0.0
  3
*D14
  1

  0
LINE
  5
1C8CDE6AC4E7
330
1C8CDE6AC4A9
100
AcDbEntity
  8
SUNPOU
370
    -2
100
AcDbLine
 10
3181.906424969391
 20
1535.336067023497
 30
0.0
 11
3181.906424969391
 21
1718.468107023495
 31
0.0
  0
LINE
  5
1C8CDE6AC4E8
330
1C8CDE6AC4A9
100
AcDbEntity
  8
SUNPOU
370
    -2
100
AcDbLine
 10
3006.906424969391
 20
1535.336067023497
 30
0.0
 11
3006.906424969391
 21
1718.468107023495
 31
0.0
  0
LINE
  5
1C8CDE6AC4E9
330
1C8CDE6AC4A9
100
AcDbEntity
  8
SUNPOU
370
    -2
100
AcDbLine
 10
3161.906424969391
 20
1708.468107023495
 30
0.0
 11
3026.906424969391
 21
1708.468107023495
 31
0.0
  0
SOLID
  5
1C8CDE6AC4EA
330
1C8CDE6AC4A9
100
AcDbEntity
  8
SUNPOU
100
AcDbTrace
 10
3161.906424969391
 20
1705.134773690161
 30
0.0
 11
3161.906424969391
 21
1711.801440356828
 31
0.0
 12
3181.906424969391
 22
1708.468107023495
 32
0.0
 13
3181.906424969391
 23
1708.468107023495
 33
0.0
  0
SOLID
  5
1C8CDE6AC4EB
330
1C8CDE6AC4A9
100
AcDbEntity
  8
SUNPOU
100
AcDbTrace
 10
3026.906424969391
 20
1711.801440356828
 30
0.0
 11
3026.906424969391
 21
1705.134773690161
 31
0.0
 12
3006.906424969391
 22
1708.468107023495
 32
0.0
 13
3006.906424969391
 23
1708.468107023495
 33
0.0
  0
MTEXT
  5
1C8CDE6AC4EC
330
1C8CDE6AC4A9
100
AcDbEntity
  8
SUNPOU
100
AcDbMText
 10
3094.406424969391
 20
1735.468107023495
 30
0.0
 40
30.0
 41
0.0
 71
     5
 72
     1
  1
\A1;175
  7
EXT08
 73
     1
 44
1.0
1001
ACAD
1000
MTEXTBEGIN
1070
    73
1070
     1
1070
    44
1040
1.0
1070
    74
1070
     0
1000
MTEXTEND
  0
POINT
  5
1C8CDE6AC4ED
330
1C8CDE6AC4A9
100
AcDbEntity
  8
DEFPOINTS
 62
     0
100
AcDbPoint
 10
3181.906424969391
 20
1525.336067023497
 30
0.0
  0
POINT
  5
1C8CDE6AC4EE
330
1C8CDE6AC4A9
100
AcDbEntity
  8
DEFPOINTS
 62
     0
100
AcDbPoint
 10
3006.906424969391
 20
1525.336067023497
 30
0.0
  0
POINT
  5
1C8CDE6AC4EF
330
1C8CDE6AC4A9
100
AcDbEntity
  8
DEFPOINTS
 62
     0
100
AcDbPoint
 10
3006.906424969391
 20
1708.468107023495
 30
0.0
  0
ENDBLK
  5
1C8CDE6AC4B4
330
1C8CDE6AC4A9
100
AcDbEntity
  8
0
100
AcDbBlockEnd
  0
BLOCK
  5
1C8CDE6AC4C1
330
1C8CDE6AC4B5
100
AcDbEntity
  8
0
100
AcDbBlockBegin
  2
*D15
 70
     1
 10
0.0
 20
0.0
 30
0.0
  3
*D15
  1

  0
LINE
  5
1C8CDE6AC4F0
330
1C8CDE6AC4B5
100
AcDbEntity
  8
SUNPOU
370
    -2
100
AcDbLine
 10
3177.506384969392
 20
1125.336067023496
 30
0.0
 11
3264.506424969392
 21
1125.336067023496
 31
0.0
  0
LINE
  5
1C8CDE6AC4F1
330
1C8CDE6AC4B5
100
AcDbEntity
  8
SUNPOU
370
    -2
100
AcDbLine
 10
3166.906424969391
 20
1123.736067023497
 30
0.0
 11
3264.506424969392
 21
1123.736067023497
 31
0.0
  0
LINE
  5
1C8CDE6AC4F2
330
1C8CDE6AC4B5
100
AcDbEntity
  8
SUNPOU
370
    -2
100
AcDbLine
 10
3254.506424969392
 20
1125.336067023496
 30
0.0
 11
3254.506424969392
 21
1123.736067023497
 31
0.0
  0
LINE
  5
1C8CDE6AC4F3
330
1C8CDE6AC4B5
100
AcDbEntity
  8
SUNPOU
370
    -2
100
AcDbLine
 10
3254.506424969392
 20
1145.336067023497
 30
0.0
 11
3254.506424969392
 21
1165.336067023496
 31
0.0
  0
LINE
  5
1C8CDE6AC4F4
330
1C8CDE6AC4B5
100
AcDbEntity
  8
SUNPOU
370
    -2
100
AcDbLine
 10
3254.506424969392
 20
1103.736067023496
 30
0.0
 11
3254.506424969392
 21
1083.736067023497
 31
0.0
  0
SOLID
  5
1C8CDE6AC4F5
330
1C8CDE6AC4B5
100
AcDbEntity
  8
SUNPOU
100
AcDbTrace
 10
3251.173091636058
 20
1145.336067023497
 30
0.0
 11
3257.839758302725
 21
1145.336067023497
 31
0.0
 12
3254.506424969392
 22
1125.336067023496
 32
0.0
 13
3254.506424969392
 23
1125.336067023496
 33
0.0
  0
SOLID
  5
1C8CDE6AC4F6
330
1C8CDE6AC4B5
100
AcDbEntity
  8
SUNPOU
100
AcDbTrace
 10
3257.839758302725
 20
1103.736067023496
 30
0.0
 11
3251.173091636058
 21
1103.736067023496
 31
0.0
 12
3254.506424969392
 22
1123.736067023497
 32
0.0
 13
3254.506424969392
 23
1123.736067023497
 33
0.0
  0
MTEXT
  5
1C8CDE6AC4F7
330
1C8CDE6AC4B5
100
AcDbEntity
  8
SUNPOU
100
AcDbMText
 10
3227.905633428716
 20
1075.389824084094
 30
0.0
 40
30.0
 41
0.0
 71
     5
 72
     1
  1
\A1;t1.6
  7
EXT08
 11
0.0
 21
1.0
 31
0.0
 73
     1
 44
1.0
1001
ACAD
1000
MTEXTBEGIN
1070
    73
1070
     1
1070
    44
1040
1.0
1070
    74
1070
     0
1000
MTEXTEND
  0
POINT
  5
1C8CDE6AC4F8
330
1C8CDE6AC4B5
100
AcDbEntity
  8
DEFPOINTS
 62
     0
100
AcDbPoint
 10
3167.506384969392
 20
1125.336067023496
 30
0.0
  0
POINT
  5
1C8CDE6AC4F9
330
1C8CDE6AC4B5
100
AcDbEntity
  8
DEFPOINTS
 62
     0
100
AcDbPoint
 10
3156.906424969391
 20
1123.736067023497
 30
0.0
  0
POINT
  5
1C8CDE6AC4FA
330
1C8CDE6AC4B5
100
AcDbEntity
  8
DEFPOINTS
 62
     0
100
AcDbPoint
 10
3254.506424969392
 20
1123.736067023497
 30
0.0
  0
ENDBLK
  5
1C8CDE6AC4C2
330
1C8CDE6AC4B5
100
AcDbEntity
  8
0
100
AcDbBlockEnd
  0
BLOCK
  5
1C8CDE6AC859
330
1C8CDE6AC812
100
AcDbEntity
  8
0
100
AcDbBlockBegin
  2
CALCOMP_TECHJET720A3
 70
     0
 10
0.0
 20
0.0
 30
0.0
  3
CALCOMP_TECHJET720A3
  1

  0
LWPOLYLINE
  5
1C8CDE6AC858
330
1C8CDE6AC812
100
AcDbEntity
  8
ZWAKU
100
AcDbPolyline
 90
        4
 70
     1
 43
0.0
 10
0.0
 20
0.0
 10
0.0
 20
267.0
 10
370.0
 20
267.0
 10
370.0
 20
0.0
  0
ENDBLK
  5
1C8CDE6AC85A
330
1C8CDE6AC812
100
AcDbEntity
  8
0
100
AcDbBlockEnd
  0
ENDSEC
  0
SECTION
  2
ENTITIES
  0
LINE
  5
1C8CDE6A8E60
330
1C8CDE699D53
100
AcDbEntity
  8
HATCH
100
AcDbLine
 10
1293.251858666447
 20
957.9251049796122
 30
0.0
 11
1298.734464811359
 21
963.4077111245241
 31
0.0
  0
LINE
  5
1C8CDE6A8E62
330
1C8CDE699D53
100
AcDbEntity
  8
HATCH
100
AcDbLine
 10
1255.851838666447
 20
898.4279980675323
 30
0.0
 11
1320.831551723439
 21
963.4077111245241
 31
0.0
  0
LINE
  5
1C8CDE6A8E63
330
1C8CDE699D53
100
AcDbEntity
  8
HATCH
100
AcDbLine
 10
1255.851838666447
 20
589.0687812984177
 30
0.0
 11
1345.251858666447
 21
678.468801298417
 31
0.0
  0
LINE
  5
1C8CDE6A8E64
330
1C8CDE699D53
100
AcDbEntity
  8
HATCH
100
AcDbLine
 10
1255.851838666447
 20
566.971694386338
 30
0.0
 11
1345.251858666447
 21
656.3717143863377
 31
0.0
  0
LINE
  5
1C8CDE6A8E65
330
1C8CDE699D53
100
AcDbEntity
  8
HATCH
100
AcDbLine
 10
1274.384942316713
 20
563.4077111245241
 30
0.0
 11
1345.251858666447
 21
634.274627474258
 31
0.0
  0
LINE
  5
1C8CDE6A8E66
330
1C8CDE699D53
100
AcDbEntity
  8
HATCH
100
AcDbLine
 10
1075.511160107996
 20
563.4077111245241
 30
0.0
 11
1134.651898666447
 21
622.548449682974
 31
0.0
  0
LINE
  5
1C8CDE6A8E67
330
1C8CDE699D53
100
AcDbEntity
  8
HATCH
100
AcDbLine
 10
1053.414073195917
 20
563.4077111245237
 30
0.0
 11
1134.651898666447
 21
644.6455365950535
 31
0.0
  0
LINE
  5
1C8CDE6A8E68
330
1C8CDE699D53
100
AcDbEntity
  8
HATCH
100
AcDbLine
 10
1255.851838666447
 20
721.651302770895
 30
0.0
 11
1263.075650931878
 21
728.875115036326
 31
0.0
  0
LINE
  5
1C8CDE6A8E69
330
1C8CDE699D53
100
AcDbEntity
  8
HATCH
100
AcDbLine
 10
1045.251858666447
 20
687.8280180675319
 30
0.0
 11
1095.251858666445
 21
737.8280180675301
 31
0.0
  0
LINE
  5
1C8CDE6A8E6A
330
1C8CDE699D53
100
AcDbEntity
  8
HATCH
100
AcDbLine
 10
1045.251858666447
 20
732.0221918916908
 30
0.0
 11
1134.651898666447
 21
821.4222318916906
 31
0.0
  0
LINE
  5
1C8CDE6A8E6B
330
1C8CDE699D53
100
AcDbEntity
  8
HATCH
100
AcDbLine
 10
1045.251858666447
 20
709.9251049796111
 30
0.0
 11
1134.651898666447
 21
799.3251449796111
 31
0.0
  0
LINE
  5
1C8CDE6A8E6C
330
1C8CDE699D53
100
AcDbEntity
  8
HATCH
100
AcDbLine
 10
1095.298955635241
 20
737.8751150363259
 30
0.0
 11
1134.651898666447
 21
777.2280580675316
 31
0.0
  0
LINE
  5
1C8CDE6A8E6D
330
1C8CDE699D53
100
AcDbEntity
  8
HATCH
100
AcDbLine
 10
1255.851838666447
 20
765.8454765950546
 30
0.0
 11
1345.251858666447
 21
855.2454965950541
 31
0.0
  0
LINE
  5
1C8CDE6A8E6E
330
1C8CDE699D53
100
AcDbEntity
  8
HATCH
100
AcDbLine
 10
1255.851838666447
 20
743.7483896829749
 30
0.0
 11
1345.251858666447
 21
833.1484096829745
 31
0.0
  0
LINE
  5
1C8CDE6A8E6F
330
1C8CDE699D53
100
AcDbEntity
  8
HATCH
100
AcDbLine
 10
1255.851838666447
 20
721.6513027708956
 30
0.0
 11
1345.251858666447
 21
811.0513227708947
 31
0.0
  0
LINE
  5
1C8CDE6A8E70
330
1C8CDE699D53
100
AcDbEntity
  8
HATCH
100
AcDbLine
 10
1045.251858666447
 20
908.7988871883281
 30
0.0
 11
1099.860682602643
 21
963.4077111245233
 31
0.0
  0
LINE
  5
1C8CDE6A8E71
330
1C8CDE699D53
100
AcDbEntity
  8
HATCH
100
AcDbLine
 10
1045.251858666447
 20
886.7018002762479
 30
0.0
 11
1120.251858666447
 21
961.7018002762479
 31
0.0
  0
LINE
  5
1C8CDE6A8E72
330
1C8CDE699D53
100
AcDbEntity
  8
HATCH
100
AcDbLine
 10
1045.251858666447
 20
864.6047133641687
 30
0.0
 11
1134.651898666447
 21
954.0047533641683
 31
0.0
  0
LINE
  5
1C8CDE6A8ED0
330
1C8CDE699D53
100
AcDbEntity
  8
SJC
  6
Continuous
100
AcDbLine
 10
1045.251858666447
 20
963.4077111245241
 30
0.0
 11
1045.251858666447
 21
563.4077111245241
 31
0.0
  0
LINE
  5
1C8CDE6A8ED1
330
1C8CDE699D53
100
AcDbEntity
  8
SJC
  6
Continuous
100
AcDbLine
 10
1345.251858666447
 20
563.4077111245241
 30
0.0
 11
1345.251858666447
 21
963.4077111245241
 31
0.0
  0
LWPOLYLINE
  5
1C8CDE6A8ED2
330
1C8CDE699D53
100
AcDbEntity
  8
HATCH
  6
Continuous
100
AcDbPolyline
 90
       16
 70
     1
 43
0.0
 10
1336.465720043227
 20
513.812311124524
 42
0.138281
 10
1342.909795043227
 20
513.8962161245236
 42
0.107061
 10
1350.155258043228
 20
517.8652471245241
 42
0.08054
 10
1355.723449043226
 20
524.5353121245243
 42
0.068375
 10
1359.686169043226
 20
533.9516801245244
 42
0.068375
 10
1360.962537043227
 20
544.0878541245238
 42
0.08054
 10
1359.475375043227
 20
552.6483951245245
 42
0.107061
 10
1355.185135043227
 20
559.7084091245242
 42
0.138281
 10
1349.646355043226
 20
563.003110124524
 42
0.138281
 10
1343.202280043227
 20
562.9192051245245
 42
0.107061
 10
1335.956816043227
 20
558.9501741245239
 42
0.08054
 10
1330.388625043227
 20
552.2801091245237
 42
0.068375
 10
1326.425905043227
 20
542.8637411245236
 42
0.068375
 10
1325.149538043227
 20
532.7275671245242
 42
0.08054
 10
1326.636700043228
 20
524.1670261245235
 42
0.107061
 10
1330.926940043227
 20
517.1070131245232
 42
0.138281
  0
LINE
  5
1C8CDE6A8EE4
330
1C8CDE699D53
100
AcDbEntity
  8
SJC
  6
Continuous
100
AcDbLine
 10
1395.251858666447
 20
513.4077111245241
 30
0.0
 11
995.2518586664472
 21
513.4077111245241
 31
0.0
  0
LINE
  5
1C8CDE6A8EE5
330
1C8CDE699D53
100
AcDbEntity
  8
SJC
  6
Continuous
100
AcDbLine
 10
1395.251858666447
 20
563.4077111245241
 30
0.0
 11
995.2518586664472
 21
563.4077111245241
 31
0.0
  0
LWPOLYLINE
  5
1C8CDE6A8EE6
330
1C8CDE699D53
100
AcDbEntity
  8
HATCH
  6
Continuous
100
AcDbPolyline
 90
       16
 70
     1
 43
0.0
 10
1007.696841081927
 20
513.812311124524
 42
0.138281
 10
1014.140916081928
 20
513.8962161245236
 42
0.107061
 10
1021.386380081928
 20
517.8652471245241
 42
0.08054
 10
1026.954571081928
 20
524.5353121245243
 42
0.068375
 10
1030.917291081928
 20
533.9516801245244
 42
0.068375
 10
1032.193658081928
 20
544.0878541245238
 42
0.08054
 10
1030.706496081929
 20
552.6483951245245
 42
0.107061
 10
1026.416256081928
 20
559.7084091245242
 42
0.138281
 10
1020.877476081928
 20
563.003110124524
 42
0.138281
 10
1014.433401081928
 20
562.9192051245245
 42
0.107061
 10
1007.187938081929
 20
558.9501741245239
 42
0.08054
 10
1001.619747081927
 20
552.2801091245237
 42
0.068375
 10
997.6570270819275
 20
542.8637411245236
 42
0.068375
 10
996.3806590819286
 20
532.7275671245242
 42
0.08054
 10
997.867821081928
 20
524.1670261245235
 42
0.107061
 10
1002.158062081928
 20
517.1070131245232
 42
0.138281
  0
LINE
  5
1C8CDE6A8EF8
330
1C8CDE699D53
100
AcDbEntity
  8
SJC
  6
Continuous
100
AcDbLine
 10
995.2518586664472
 20
563.4077111245241
 30
0.0
 11
995.2518586664472
 21
513.4077111245241
 31
0.0
  0
LWPOLYLINE
  5
1C8CDE6A8EF9
330
1C8CDE699D53
100
AcDbEntity
  8
HATCH
  6
Continuous
100
AcDbPolyline
 90
       16
 70
     1
 43
0.0
 10
1042.774544081928
 20
513.812311124524
 42
0.138281
 10
1049.218619081929
 20
513.8962161245236
 42
0.107061
 10
1056.464083081929
 20
517.8652471245241
 42
0.08054
 10
1062.032273081927
 20
524.5353121245243
 42
0.068375
 10
1065.994994081927
 20
533.9516801245244
 42
0.068375
 10
1067.271361081929
 20
544.0878541245238
 42
0.08054
 10
1065.784199081928
 20
552.6483951245245
 42
0.107061
 10
1061.493959081927
 20
559.7084091245242
 42
0.138281
 10
1055.955179081927
 20
563.003110124524
 42
0.138281
 10
1049.511104081927
 20
562.9192051245245
 42
0.107061
 10
1042.265640081928
 20
558.9501741245239
 42
0.08054
 10
1036.697450081928
 20
552.2801091245237
 42
0.068375
 10
1032.734729081928
 20
542.8637411245236
 42
0.068375
 10
1031.458362081927
 20
532.7275671245242
 42
0.08054
 10
1032.945524081929
 20
524.1670261245235
 42
0.107061
 10
1037.235764081927
 20
517.1070131245232
 42
0.138281
  0
LWPOLYLINE
  5
1C8CDE6A8F0B
330
1C8CDE699D53
100
AcDbEntity
  8
HATCH
  6
Continuous
100
AcDbPolyline
 90
       16
 70
     1
 43
0.0
 10
1077.852247081929
 20
513.812311124524
 42
0.138281
 10
1084.296321081928
 20
513.8962161245236
 42
0.107061
 10
1091.541785081927
 20
517.8652471245241
 42
0.08054
 10
1097.109976081928
 20
524.5353121245243
 42
0.068375
 10
1101.072696081929
 20
533.9516801245244
 42
0.068375
 10
1102.349064081928
 20
544.0878541245238
 42
0.08054
 10
1100.861901081928
 20
552.6483951245245
 42
0.107061
 10
1096.571661081928
 20
559.7084091245242
 42
0.138281
 10
1091.032882081927
 20
563.003110124524
 42
0.138281
 10
1084.588807081928
 20
562.9192051245245
 42
0.107061
 10
1077.343343081929
 20
558.9501741245239
 42
0.08054
 10
1071.775152081928
 20
552.2801091245237
 42
0.068375
 10
1067.812432081929
 20
542.8637411245236
 42
0.068375
 10
1066.536064081928
 20
532.7275671245242
 42
0.08054
 10
1068.023227081928
 20
524.1670261245235
 42
0.107061
 10
1072.313467081928
 20
517.1070131245232
 42
0.138281
  0
LWPOLYLINE
  5
1C8CDE6A8F1D
330
1C8CDE699D53
100
AcDbEntity
  8
HATCH
  6
Continuous
100
AcDbPolyline
 90
       16
 70
     1
 43
0.0
 10
1371.543422043228
 20
513.812311124524
 42
0.138281
 10
1377.987497043227
 20
513.8962161245236
 42
0.107061
 10
1385.232961043227
 20
517.8652471245241
 42
0.08054
 10
1390.801152043227
 20
524.5353121245243
 42
0.068375
 10
1394.763872043227
 20
533.9516801245244
 42
0.068375
 10
1396.040239043227
 20
544.0878541245238
 42
0.08054
 10
1394.553077043226
 20
552.6483951245245
 42
0.107061
 10
1390.262837043227
 20
559.7084091245242
 42
0.138281
 10
1384.724057043227
 20
563.003110124524
 42
0.138281
 10
1378.279982043227
 20
562.9192051245245
 42
0.107061
 10
1371.034519043226
 20
558.9501741245239
 42
0.08054
 10
1365.466328043227
 20
552.2801091245237
 42
0.068375
 10
1361.503608043228
 20
542.8637411245236
 42
0.068375
 10
1360.227240043227
 20
532.7275671245242
 42
0.08054
 10
1361.714402043227
 20
524.1670261245235
 42
0.107061
 10
1366.004642043227
 20
517.1070131245232
 42
0.138281
  0
LINE
  5
1C8CDE6A8F2F
330
1C8CDE699D53
100
AcDbEntity
  8
SJC
  6
Continuous
100
AcDbLine
 10
1395.251858666447
 20
563.4077111245241
 30
0.0
 11
1395.251858666447
 21
513.4077111245241
 31
0.0
  0
LWPOLYLINE
  5
1C8CDE6A8F30
330
1C8CDE699D53
100
AcDbEntity
  8
HATCH
  6
Continuous
100
AcDbPolyline
 90
       16
 70
     1
 43
0.0
 10
1301.387720043227
 20
513.812311124524
 42
0.138281
 10
1307.831795043226
 20
513.8962161245236
 42
0.107061
 10
1315.077258043227
 20
517.8652471245241
 42
0.08054
 10
1320.645449043226
 20
524.5353121245243
 42
0.068375
 10
1324.608169043226
 20
533.9516801245244
 42
0.068375
 10
1325.884537043226
 20
544.0878541245238
 42
0.08054
 10
1324.397375043227
 20
552.6483951245245
 42
0.107061
 10
1320.107135043226
 20
559.7084091245242
 42
0.138281
 10
1314.568355043226
 20
563.003110124524
 42
0.138281
 10
1308.124280043226
 20
562.9192051245245
 42
0.107061
 10
1300.878816043227
 20
558.9501741245239
 42
0.08054
 10
1295.310625043226
 20
552.2801091245237
 42
0.068375
 10
1291.347905043227
 20
542.8637411245236
 42
0.068375
 10
1290.071538043227
 20
532.7275671245242
 42
0.08054
 10
1291.558700043228
 20
524.1670261245235
 42
0.107061
 10
1295.848940043226
 20
517.1070131245232
 42
0.138281
  0
TEXT
  5
1C8CDE6A8F42
330
1C8CDE699D53
100
AcDbEntity
  8
MOJI
100
AcDbText
 10
950.1547971502004
 20
974.0822821975161
 30
0.0
 40
30.0
  1
GL
 41
0.8
  7
EXT08
100
AcDbText
  0
LINE
  5
1C8CDE6A8F43
330
1C8CDE699D53
100
AcDbEntity
  8
HATCH
100
AcDbLine
 10
986.3394620625186
 20
948.4077111245232
 30
0.0
 11
1005.356760466957
 21
929.3904127200848
 31
0.0
  0
LINE
  5
1C8CDE6A8F44
330
1C8CDE699D53
100
AcDbEntity
  8
HATCH
100
AcDbLine
 10
1001.339462062518
 20
963.4077111245241
 30
0.0
 11
1035.356760466957
 21
929.3904127200848
 31
0.0
  0
LINE
  5
1C8CDE6A8F45
330
1C8CDE699D53
100
AcDbEntity
  8
HATCH
100
AcDbLine
 10
993.8394620625185
 20
955.9077111245233
 30
0.0
 11
1020.356760466957
 21
929.3904127200848
 31
0.0
  0
LINE
  5
1C8CDE6A8F46
330
1C8CDE699D53
100
AcDbEntity
  8
HATCH
100
AcDbLine
 10
1001.339462062518
 20
963.4077111245241
 30
0.0
 11
967.3221636580802
 21
929.3904127200848
 31
0.0
  0
LINE
  5
1C8CDE6A8F47
330
1C8CDE699D53
100
AcDbEntity
  8
HATCH
100
AcDbLine
 10
986.3394620625186
 20
963.4077111245241
 30
0.0
 11
952.3221636580801
 21
929.3904127200848
 31
0.0
  0
LINE
  5
1C8CDE6A8F48
330
1C8CDE699D53
100
AcDbEntity
  8
HATCH
100
AcDbLine
 10
971.3394620625185
 20
963.4077111245241
 30
0.0
 11
937.3221636580801
 21
929.3904127200848
 31
0.0
  0
LINE
  5
1C8CDE6A8F49
330
1C8CDE699D53
100
AcDbEntity
  8
SJC
100
AcDbLine
 10
915.4200305018866
 20
963.4077111245241
 30
0.0
 11
1138.100717804964
 21
963.4077111245241
 31
0.0
  0
LINE
  5
1C8CDE6A8FB9
330
1C8CDE699D53
100
AcDbEntity
  8
HATCH
100
AcDbLine
 10
1795.907894898606
 20
963.4077111245241
 30
0.0
 11
1761.890596494168
 21
929.3904127200848
 31
0.0
  0
LINE
  5
1C8CDE6A8FBA
330
1C8CDE699D53
100
AcDbEntity
  8
HATCH
100
AcDbLine
 10
1810.907894898606
 20
963.4077111245241
 30
0.0
 11
1776.890596494167
 21
929.3904127200848
 31
0.0
  0
LINE
  5
1C8CDE6A8FBB
330
1C8CDE699D53
100
AcDbEntity
  8
HATCH
100
AcDbLine
 10
1803.407894898606
 20
955.9077111245233
 30
0.0
 11
1829.925193303045
 21
929.3904127200848
 31
0.0
  0
LINE
  5
1C8CDE6A8FBC
330
1C8CDE699D53
100
AcDbEntity
  8
HATCH
100
AcDbLine
 10
1810.907894898606
 20
963.4077111245241
 30
0.0
 11
1844.925193303044
 21
929.3904127200848
 31
0.0
  0
LINE
  5
1C8CDE6A8FBD
330
1C8CDE699D53
100
AcDbEntity
  8
HATCH
100
AcDbLine
 10
1795.907894898606
 20
948.4077111245232
 30
0.0
 11
1814.925193303044
 21
929.3904127200848
 31
0.0
  0
TEXT
  5
1C8CDE6A8FBE
330
1C8CDE699D53
100
AcDbEntity
  8
MOJI
100
AcDbText
 10
1759.723229986288
 20
974.0822821975161
 30
0.0
 40
30.0
  1
GL
 41
0.8
  7
EXT08
100
AcDbText
  0
LWPOLYLINE
  5
1C8CDE6A8FC0
330
1C8CDE699D53
100
AcDbEntity
  8
HATCH
  6
Continuous
100
AcDbPolyline
 90
       16
 70
     1
 43
0.0
 10
2110.956152879315
 20
513.812311124524
 42
0.138281
 10
2117.400227879314
 20
513.8962161245236
 42
0.107061
 10
2124.645690879315
 20
517.8652471245241
 42
0.08054
 10
2130.213881879313
 20
524.5353121245243
 42
0.068375
 10
2134.176601879314
 20
533.9516801245244
 42
0.068375
 10
2135.452969879314
 20
544.0878541245238
 42
0.08054
 10
2133.965807879315
 20
552.6483951245245
 42
0.107061
 10
2129.675567879314
 20
559.7084091245242
 42
0.138281
 10
2124.136787879313
 20
563.003110124524
 42
0.138281
 10
2117.692712879314
 20
562.9192051245245
 42
0.107061
 10
2110.447248879315
 20
558.9501741245239
 42
0.08054
 10
2104.879057879314
 20
552.2801091245237
 42
0.068375
 10
2100.916337879315
 20
542.8637411245236
 42
0.068375
 10
2099.639970879314
 20
532.7275671245242
 42
0.08054
 10
2101.127132879315
 20
524.1670261245235
 42
0.107061
 10
2105.417372879314
 20
517.1070131245232
 42
0.138281
  0
LINE
  5
1C8CDE6A8FD2
330
1C8CDE699D53
100
AcDbEntity
  8
SJC
  6
Continuous
100
AcDbLine
 10
2204.820291502535
 20
563.4077111245241
 30
0.0
 11
2204.820291502535
 21
513.4077111245241
 31
0.0
  0
LWPOLYLINE
  5
1C8CDE6A8FD3
330
1C8CDE699D53
100
AcDbEntity
  8
HATCH
  6
Continuous
100
AcDbPolyline
 90
       16
 70
     1
 43
0.0
 10
2181.111854879316
 20
513.812311124524
 42
0.138281
 10
2187.555929879315
 20
513.8962161245236
 42
0.107061
 10
2194.801393879314
 20
517.8652471245241
 42
0.08054
 10
2200.369584879315
 20
524.5353121245243
 42
0.068375
 10
2204.332304879315
 20
533.9516801245244
 42
0.068375
 10
2205.608671879315
 20
544.0878541245238
 42
0.08054
 10
2204.121509879314
 20
552.6483951245245
 42
0.107061
 10
2199.831269879315
 20
559.7084091245242
 42
0.138281
 10
2194.292489879314
 20
563.003110124524
 42
0.138281
 10
2187.848414879315
 20
562.9192051245245
 42
0.107061
 10
2180.602951879314
 20
558.9501741245239
 42
0.08054
 10
2175.034760879316
 20
552.2801091245237
 42
0.068375
 10
2171.072040879316
 20
542.8637411245236
 42
0.068375
 10
2169.795672879315
 20
532.7275671245242
 42
0.08054
 10
2171.282834879315
 20
524.1670261245235
 42
0.107061
 10
2175.573074879315
 20
517.1070131245232
 42
0.138281
  0
LWPOLYLINE
  5
1C8CDE6A8FE5
330
1C8CDE699D53
100
AcDbEntity
  8
HATCH
  6
Continuous
100
AcDbPolyline
 90
       16
 70
     1
 43
0.0
 10
1887.420679918016
 20
513.812311124524
 42
0.138281
 10
1893.864753918015
 20
513.8962161245236
 42
0.107061
 10
1901.110217918015
 20
517.8652471245241
 42
0.08054
 10
1906.678408918016
 20
524.5353121245243
 42
0.068375
 10
1910.641128918017
 20
533.9516801245244
 42
0.068375
 10
1911.917496918016
 20
544.0878541245238
 42
0.08054
 10
1910.430333918016
 20
552.6483951245245
 42
0.107061
 10
1906.140093918016
 20
559.7084091245242
 42
0.138281
 10
1900.601314918015
 20
563.003110124524
 42
0.138281
 10
1894.157239918016
 20
562.9192051245245
 42
0.107061
 10
1886.911775918016
 20
558.9501741245239
 42
0.08054
 10
1881.343584918016
 20
552.2801091245237
 42
0.068375
 10
1877.380864918016
 20
542.8637411245236
 42
0.068375
 10
1876.104496918016
 20
532.7275671245242
 42
0.08054
 10
1877.591659918016
 20
524.1670261245235
 42
0.107061
 10
1881.881899918016
 20
517.1070131245232
 42
0.138281
  0
LWPOLYLINE
  5
1C8CDE6A8FF7
330
1C8CDE699D53
100
AcDbEntity
  8
HATCH
  6
Continuous
100
AcDbPolyline
 90
       16
 70
     1
 43
0.0
 10
1852.342976918016
 20
513.812311124524
 42
0.138281
 10
1858.787051918017
 20
513.8962161245236
 42
0.107061
 10
1866.032515918016
 20
517.8652471245241
 42
0.08054
 10
1871.600705918014
 20
524.5353121245243
 42
0.068375
 10
1875.563426918014
 20
533.9516801245244
 42
0.068375
 10
1876.839793918017
 20
544.0878541245238
 42
0.08054
 10
1875.352631918016
 20
552.6483951245245
 42
0.107061
 10
1871.062391918015
 20
559.7084091245242
 42
0.138281
 10
1865.523611918014
 20
563.003110124524
 42
0.138281
 10
1859.079536918015
 20
562.9192051245245
 42
0.107061
 10
1851.834072918015
 20
558.9501741245239
 42
0.08054
 10
1846.265882918015
 20
552.2801091245237
 42
0.068375
 10
1842.303161918016
 20
542.8637411245236
 42
0.068375
 10
1841.026794918015
 20
532.7275671245242
 42
0.08054
 10
1842.513956918016
 20
524.1670261245235
 42
0.107061
 10
1846.804196918015
 20
517.1070131245232
 42
0.138281
  0
LINE
  5
1C8CDE6A9009
330
1C8CDE699D53
100
AcDbEntity
  8
SJC
  6
Continuous
100
AcDbLine
 10
1804.820291502535
 20
563.4077111245241
 30
0.0
 11
1804.820291502535
 21
513.4077111245241
 31
0.0
  0
LWPOLYLINE
  5
1C8CDE6A900A
330
1C8CDE699D53
100
AcDbEntity
  8
HATCH
  6
Continuous
100
AcDbPolyline
 90
       16
 70
     1
 43
0.0
 10
1817.265273918015
 20
513.812311124524
 42
0.138281
 10
1823.709348918016
 20
513.8962161245236
 42
0.107061
 10
1830.954812918015
 20
517.8652471245241
 42
0.08054
 10
1836.523003918016
 20
524.5353121245243
 42
0.068375
 10
1840.485723918015
 20
533.9516801245244
 42
0.068375
 10
1841.762090918016
 20
544.0878541245238
 42
0.08054
 10
1840.274928918016
 20
552.6483951245245
 42
0.107061
 10
1835.984688918016
 20
559.7084091245242
 42
0.138281
 10
1830.445908918015
 20
563.003110124524
 42
0.138281
 10
1824.001833918016
 20
562.9192051245245
 42
0.107061
 10
1816.756370918017
 20
558.9501741245239
 42
0.08054
 10
1811.188179918014
 20
552.2801091245237
 42
0.068375
 10
1807.225459918015
 20
542.8637411245236
 42
0.068375
 10
1805.949091918016
 20
532.7275671245242
 42
0.08054
 10
1807.436253918016
 20
524.1670261245235
 42
0.107061
 10
1811.726494918016
 20
517.1070131245232
 42
0.138281
  0
LINE
  5
1C8CDE6A901C
330
1C8CDE699D53
100
AcDbEntity
  8
SJC
  6
Continuous
100
AcDbLine
 10
2204.820291502535
 20
563.4077111245241
 30
0.0
 11
1804.820291502535
 21
563.4077111245241
 31
0.0
  0
LINE
  5
1C8CDE6A901D
330
1C8CDE699D53
100
AcDbEntity
  8
SJC
  6
Continuous
100
AcDbLine
 10
2204.820291502535
 20
513.4077111245241
 30
0.0
 11
1804.820291502535
 21
513.4077111245241
 31
0.0
  0
LWPOLYLINE
  5
1C8CDE6A901E
330
1C8CDE699D53
100
AcDbEntity
  8
HATCH
  6
Continuous
100
AcDbPolyline
 90
       16
 70
     1
 43
0.0
 10
2146.034152879315
 20
513.812311124524
 42
0.138281
 10
2152.478227879315
 20
513.8962161245236
 42
0.107061
 10
2159.723690879316
 20
517.8652471245241
 42
0.08054
 10
2165.291881879314
 20
524.5353121245243
 42
0.068375
 10
2169.254601879314
 20
533.9516801245244
 42
0.068375
 10
2170.530969879314
 20
544.0878541245238
 42
0.08054
 10
2169.043807879315
 20
552.6483951245245
 42
0.107061
 10
2164.753567879315
 20
559.7084091245242
 42
0.138281
 10
2159.214787879314
 20
563.003110124524
 42
0.138281
 10
2152.770712879314
 20
562.9192051245245
 42
0.107061
 10
2145.525248879315
 20
558.9501741245239
 42
0.08054
 10
2139.957057879315
 20
552.2801091245237
 42
0.068375
 10
2135.994337879315
 20
542.8637411245236
 42
0.068375
 10
2134.717970879314
 20
532.7275671245242
 42
0.08054
 10
2136.205132879316
 20
524.1670261245235
 42
0.107061
 10
2140.495372879314
 20
517.1070131245232
 42
0.138281
  0
LINE
  5
1C8CDE6A9030
330
1C8CDE699D53
100
AcDbEntity
  8
SJC
  6
Continuous
100
AcDbLine
 10
2154.820291502535
 20
563.4077111245241
 30
0.0
 11
2154.820291502535
 21
963.4077111245241
 31
0.0
  0
LINE
  5
1C8CDE6A9031
330
1C8CDE699D53
100
AcDbEntity
  8
SJC
  6
Continuous
100
AcDbLine
 10
1854.820291502535
 20
963.4077111245241
 30
0.0
 11
1854.820291502535
 21
563.4077111245241
 31
0.0
  0
LINE
  5
1C8CDE6A9032
330
1C8CDE699D53
100
AcDbEntity
  8
SJC
100
AcDbLine
 10
2061.969690305254
 20
963.4077111245241
 30
0.0
 11
2289.941097870111
 21
963.4077111245241
 31
0.0
  0
LINE
  5
1C8CDE6A9036
330
1C8CDE699D53
100
AcDbEntity
  8
HATCH
100
AcDbLine
 10
1780.907894898606
 20
963.4077111245241
 30
0.0
 11
1746.890596494168
 21
929.3904127200848
 31
0.0
  0
LINE
  5
1C8CDE6A9037
330
1C8CDE699D53
100
AcDbEntity
  8
SJC
100
AcDbLine
 10
1724.988463337974
 20
963.4077111245241
 30
0.0
 11
1947.669150641052
 21
963.4077111245241
 31
0.0
  0
LINE
  5
1C8CDE6A929E
330
1C8CDE699D53
100
AcDbEntity
  8
HATCH
100
AcDbLine
 10
2065.420271502535
 20
721.6513027708957
 30
0.0
 11
2154.820291502535
 21
811.0513227708947
 31
0.0
  0
LINE
  5
1C8CDE6A929F
330
1C8CDE699D53
100
AcDbEntity
  8
HATCH
100
AcDbLine
 10
2065.420271502535
 20
589.068781298418
 30
0.0
 11
2154.820291502535
 21
678.468801298417
 31
0.0
  0
LINE
  5
1C8CDE6A92A0
330
1C8CDE699D53
100
AcDbEntity
  8
HATCH
100
AcDbLine
 10
2065.420271502535
 20
566.9716943863378
 30
0.0
 11
2154.820291502535
 21
656.3717143863377
 31
0.0
  0
LINE
  5
1C8CDE6A92A1
330
1C8CDE699D53
100
AcDbEntity
  8
HATCH
100
AcDbLine
 10
2083.9533751528
 20
563.4077111245241
 30
0.0
 11
2154.820291502535
 21
634.274627474258
 31
0.0
  0
LINE
  5
1C8CDE6A92A2
330
1C8CDE699D53
100
AcDbEntity
  8
HATCH
100
AcDbLine
 10
1862.982506032004
 20
563.4077111245237
 30
0.0
 11
1944.220331502534
 21
644.6455365950537
 31
0.0
  0
LINE
  5
1C8CDE6A92A3
330
1C8CDE699D53
100
AcDbEntity
  8
HATCH
100
AcDbLine
 10
1885.079592944084
 20
563.4077111245241
 30
0.0
 11
1944.220331502534
 21
622.5484496829742
 31
0.0
  0
LINE
  5
1C8CDE6A92A4
330
1C8CDE699D53
100
AcDbEntity
  8
HATCH
100
AcDbLine
 10
1854.820291502535
 20
864.6047133641687
 30
0.0
 11
1944.220331502535
 21
954.0047533641688
 31
0.0
  0
LINE
  5
1C8CDE6A92A5
330
1C8CDE699D53
100
AcDbEntity
  8
HATCH
100
AcDbLine
 10
1854.820291502535
 20
886.7018002762479
 30
0.0
 11
1929.820291502535
 21
961.7018002762479
 31
0.0
  0
LINE
  5
1C8CDE6A92A6
330
1C8CDE699D53
100
AcDbEntity
  8
HATCH
100
AcDbLine
 10
1854.820291502535
 20
908.7988871883281
 30
0.0
 11
1909.429115438731
 21
963.4077111245233
 31
0.0
  0
LINE
  5
1C8CDE6A92A7
330
1C8CDE699D53
100
AcDbEntity
  8
HATCH
100
AcDbLine
 10
2065.420271502535
 20
743.7483896829746
 30
0.0
 11
2154.820291502535
 21
833.1484096829745
 31
0.0
  0
LINE
  5
1C8CDE6A92A8
330
1C8CDE699D53
100
AcDbEntity
  8
HATCH
100
AcDbLine
 10
2065.420271502535
 20
765.8454765950541
 30
0.0
 11
2154.820291502535
 21
855.2454965950541
 31
0.0
  0
LINE
  5
1C8CDE6A92A9
330
1C8CDE699D53
100
AcDbEntity
  8
HATCH
100
AcDbLine
 10
1904.867388471329
 20
737.8751150363259
 30
0.0
 11
1944.220331502535
 21
777.2280580675316
 31
0.0
  0
LINE
  5
1C8CDE6A92AA
330
1C8CDE699D53
100
AcDbEntity
  8
HATCH
100
AcDbLine
 10
1854.820291502535
 20
709.9251049796111
 30
0.0
 11
1944.220331502535
 21
799.3251449796114
 31
0.0
  0
LINE
  5
1C8CDE6A92AB
330
1C8CDE699D53
100
AcDbEntity
  8
HATCH
100
AcDbLine
 10
1854.820291502535
 20
732.0221918916908
 30
0.0
 11
1944.220331502535
 21
821.4222318916906
 31
0.0
  0
LINE
  5
1C8CDE6A92AC
330
1C8CDE699D53
100
AcDbEntity
  8
HATCH
100
AcDbLine
 10
1854.820291502535
 20
687.8280180675319
 30
0.0
 11
1904.820291502533
 21
737.8280180675301
 31
0.0
  0
LINE
  5
1C8CDE6A92AD
330
1C8CDE699D53
100
AcDbEntity
  8
HATCH
100
AcDbLine
 10
2065.420271502535
 20
721.6513027708953
 30
0.0
 11
2072.644083767966
 21
728.875115036326
 31
0.0
  0
LINE
  5
1C8CDE6A92AE
330
1C8CDE699D53
100
AcDbEntity
  8
HATCH
100
AcDbLine
 10
2065.420271502535
 20
898.4279980675323
 30
0.0
 11
2130.399984559527
 21
963.4077111245241
 31
0.0
  0
LINE
  5
1C8CDE6A92AF
330
1C8CDE699D53
100
AcDbEntity
  8
HATCH
100
AcDbLine
 10
2065.420271502535
 20
942.6221718916913
 30
0.0
 11
2086.205810735367
 21
963.4077111245233
 31
0.0
  0
LINE
  5
1C8CDE6A92B0
330
1C8CDE699D53
100
AcDbEntity
  8
HATCH
100
AcDbLine
 10
2065.420271502535
 20
920.5250849796122
 30
0.0
 11
2108.302897647447
 21
963.4077111245241
 31
0.0
  0
DIMENSION
  5
1C8CDE6A990B
330
1C8CDE699D53
100
AcDbEntity
  8
SUNPOU
100
AcDbDimension
  2
*D1
 10
1395.251858666447
 20
263.4077111245245
 30
0.0
 11
1195.251858666447
 21
290.4077111245245
 31
0.0
 70
    32
  1
□<>
 71
     5
 42
400.0
  3
SJC
100
AcDbAlignedDimension
 13
995.2518586664472
 23
513.4077111245244
 33
0.0
 14
1395.251858666447
 24
513.4077111245244
 34
0.0
100
AcDbRotatedDimension
1001
ACAD
1000
DSTYLE
1002
{
1070
    41
1040
2.0
1070
   271
1070
     4
1070
    43
1040
6.0
1070
    44
1040
1.0
1070
    42
1040
1.0
1070
   147
1040
1.199999999999999
1070
    40
1040
10.0
1070
   340
1005
1C8CDE699DA6
1070
   140
1040
3.0
1002
}
  0
DIMENSION
  5
1C8CDE6A990C
330
1C8CDE699D53
100
AcDbEntity
  8
SUNPOU
100
AcDbDimension
  2
*D0
 10
1345.251858666447
 20
363.4077111245245
 30
0.0
 11
1195.251858666447
 21
390.4077111245245
 31
0.0
 70
    32
  1
□300
 71
     5
 42
300.0
  3
SJC
100
AcDbAlignedDimension
 13
1045.251858666447
 23
513.407711124524
 33
0.0
 14
1345.251858666447
 24
513.407711124524
 34
0.0
100
AcDbRotatedDimension
1001
ACAD
1000
DSTYLE
1002
{
1070
    41
1040
2.0
1070
   271
1070
     4
1070
    43
1040
6.0
1070
    44
1040
1.0
1070
    42
1040
1.0
1070
   147
1040
1.199999999999999
1070
    40
1040
10.0
1070
   340
1005
1C8CDE699DA6
1070
   140
1040
3.0
1002
}
  0
LINE
  5
1C8CDE6A990E
330
1C8CDE699D53
100
AcDbEntity
  8
CENTER
100
AcDbLine
 10
1195.250987637066
 20
1987.71573275961
 30
0.0
 11
1195.250987637066
 21
2243.743438016139
 31
0.0
  0
LINE
  5
1C8CDE6A9910
330
1C8CDE699D53
100
AcDbEntity
  8
CENTER
100
AcDbLine
 10
1067.237135008801
 20
2115.729585387875
 30
0.0
 11
1323.26484026533
 21
2115.729585387875
 31
0.0
  0
POINT
  5
1C8CDE6A991A
330
1C8CDE699D53
100
AcDbEntity
  8
DEFPOINTS
  6
ByBlock
 62
     0
100
AcDbPoint
 10
1195.250987637066
 20
2115.729585387875
 30
0.0
  0
LINE
  5
1C8CDE6AA71B
330
1C8CDE699D53
100
AcDbEntity
  8
CENTER
100
AcDbLine
 10
1195.251858666447
 20
468.2457429969481
 30
0.0
 11
1195.251858666447
 21
1916.610861205601
 31
0.0
  0
TEXT
  5
1C8CDE6AA808
330
1C8CDE699D53
100
AcDbEntity
  8
MOJI2
  6
Continuous
100
AcDbText
 10
1000.965273351352
 20
2340.834209955682
 30
0.0
 40
40.0
  1
CK-114HY-90D
 41
0.8
  7
EXT08
 72
     1
 11
1195.250987637066
 21
2340.834209955682
 31
0.0
100
AcDbText
  0
LINE
  5
1C8CDE6AA809
330
1C8CDE699D53
100
AcDbEntity
  8
MOJI2
100
AcDbLine
 10
1000.250987637066
 20
2329.121390402812
 30
0.0
 11
1390.250987637066
 21
2329.121390402812
 31
0.0
  0
LINE
  5
1C8CDE6AA80A
330
1C8CDE699D53
100
AcDbEntity
  8
MOJI2
100
AcDbLine
 10
1000.250987637066
 20
2319.121390402813
 30
0.0
 11
1390.250987637066
 21
2319.121390402813
 31
0.0
  0
LINE
  5
1C8CDE6AA89A
330
1C8CDE699D53
100
AcDbEntity
  8
CENTER
100
AcDbLine
 10
2004.819690305254
 20
1916.610861205601
 30
0.0
 11
2004.819690305254
 21
468.3591450614808
 31
0.0
  0
LINE
  5
1C8CDE6AB2BD
330
1C8CDE699D53
100
AcDbEntity
  8
MOJI
  6
Continuous
100
AcDbLine
 10
736.1350380385029
 20
1297.565115179138
 30
0.0
 11
1042.584220441896
 21
1297.565115179138
 31
0.0
  0
TEXT
  5
1C8CDE6AB2BE
330
1C8CDE699D53
100
AcDbEntity
  8
MOJI
100
AcDbText
 10
740.7288988344453
 20
1309.007597178985
 30
0.0
 40
30.0
  1
支柱%%C114.3\U+00D7t4.5
 41
0.8
  7
EXT08
100
AcDbText
  0
DIMENSION
  5
1C8CDE6AB795
330
1C8CDE699D53
100
AcDbEntity
  8
SUNPOU
100
AcDbDimension
  2
*D4
 10
1520.252729695829
 20
563.407702183824
 30
0.0
 11
1493.252729695829
 21
763.4077066541742
 31
0.0
 70
    32
 71
     5
 42
400.0000089407003
  3
SJC
100
AcDbAlignedDimension
 13
1411.661734495767
 23
963.4077111245245
 33
0.0
 14
1392.751861180948
 24
563.407702183824
 34
0.0
 50
90.0
100
AcDbRotatedDimension
1001
ACAD
1000
DSTYLE
1002
{
1070
    41
1040
2.0
1070
   271
1070
     4
1070
    43
1040
6.0
1070
    44
1040
1.0
1070
    42
1040
1.0
1070
   147
1040
1.199999999999999
1070
    40
1040
10.0
1070
   340
1005
1C8CDE699DA6
1070
   140
1040
3.0
1002
}
  0
DIMENSION
  5
1C8CDE6AB796
330
1C8CDE699D53
100
AcDbEntity
  8
SUNPOU
100
AcDbDimension
  2
*D2
 10
1595.252729695828
 20
513.407711124524
 30
0.0
 11
1567.602563353088
 21
540.6947962026138
 31
0.0
 70
   160
 71
     5
 42
49.9999910593001
  3
SJC
100
AcDbAlignedDimension
 13
1402.751861180948
 23
563.407702183824
 33
0.0
 14
1395.250987637066
 24
513.407711124524
 34
0.0
 50
270.0
100
AcDbRotatedDimension
1001
ACAD
1000
DSTYLE
1002
{
1070
    41
1040
2.0
1070
   271
1070
     4
1070
    43
1040
6.0
1070
    44
1040
1.0
1070
    42
1040
1.0
1070
   147
1040
0.0
1070
    40
1040
10.0
1070
    77
1070
     0
1070
   145
1040
1.0
1070
   340
1005
1C8CDE699DA6
1070
   140
1040
3.0
1002
}
  0
DIMENSION
  5
1C8CDE6AB797
330
1C8CDE699D53
100
AcDbEntity
  8
SUNPOU
100
AcDbDimension
  2
*D3
 10
1445.252729695829
 20
963.4077111245245
 30
0.0
 11
1422.209695338514
 21
1013.407711124524
 31
0.0
 70
   160
 71
     5
 42
99.9999999999993
  3
SJC
100
AcDbAlignedDimension
 13
1274.037696236502
 23
1063.407711124524
 33
0.0
 14
1411.661734495767
 24
963.4077111245245
 34
0.0
 50
90.0
100
AcDbRotatedDimension
1001
ACAD
1000
DSTYLE
1002
{
1070
    41
1040
2.0
1070
   271
1070
     2
1070
    43
1040
6.0
1070
    44
1040
1.0
1070
    42
1040
1.0
1070
   147
1040
0.0
1070
    40
1040
10.0
1070
    77
1070
     0
1070
   145
1040
1.0
1070
   340
1005
1C8CDE699DA6
1070
   140
1040
3.0
1002
}
  0
LINE
  5
1C8CDE6AB798
330
1C8CDE699D53
100
AcDbEntity
  8
SJC
100
AcDbLine
 10
1252.402128498547
 20
963.4077111245241
 30
0.0
 11
1411.661734495767
 21
963.4077111245245
 31
0.0
  0
LINE
  5
1C8CDE6AB799
330
1C8CDE699D53
100
AcDbEntity
  8
MOJI
100
AcDbLine
 10
1038.833348012686
 20
1137.270419762611
 30
0.0
 11
746.0019938264413
 21
1137.270419762611
 31
0.0
  0
TEXT
  5
1C8CDE6AB79A
330
1C8CDE699D53
100
AcDbEntity
  8
MOJI
100
AcDbText
 10
751.0382112641494
 20
1147.270419762611
 30
0.0
 40
30.0
  1
ロックピン（南京錠付）
 41
0.8
  7
EXT08
 72
     2
 11
1044.638211264149
 21
1162.270419762611
 31
0.0
100
AcDbText
 73
     2
  0
TEXT
  5
1C8CDE6AB79B
330
1C8CDE699D53
100
AcDbEntity
  8
MOJI
100
AcDbText
 10
789.4738560817274
 20
1099.45875363363
 30
0.0
 40
30.0
  1
（%%C14貫通穴）
 41
0.8
  7
EXT08
 72
     2
 11
977.702427510299
 21
1114.45875363363
 31
0.0
100
AcDbText
 73
     2
  0
LINE
  5
1C8CDE6AB7A1
330
1C8CDE699D53
100
AcDbEntity
  8
SJC2
100
AcDbLine
 10
1131.488521978805
 20
1045.75085040039
 30
0.0
 11
1131.488521978805
 21
1062.41636340039
 31
0.0
  0
LINE
  5
1C8CDE6AB7A2
330
1C8CDE699D53
100
AcDbEntity
  8
SJC2
100
AcDbLine
 10
1134.488521978805
 20
1045.75085040039
 30
0.0
 11
1134.488521978805
 21
1062.41636340039
 31
0.0
  0
CIRCLE
  5
1C8CDE6AB7A3
330
1C8CDE699D53
100
AcDbEntity
  8
SJC2
100
AcDbCircle
 10
1133.037696236502
 20
1063.407711124524
 30
0.0
 40
4.0
  0
LINE
  5
1C8CDE6AB7A4
330
1C8CDE699D53
100
AcDbEntity
  8
SJC2
100
AcDbLine
 10
1126.037696236502
 20
1057.407711124524
 30
0.0
 11
1126.037696236502
 21
1069.407711124524
 31
0.0
  0
LINE
  5
1C8CDE6AB7A5
330
1C8CDE699D53
100
AcDbEntity
  8
SJC2
100
AcDbLine
 10
1126.037696236502
 20
1057.407711124524
 30
0.0
 11
1137.091223404794
 21
1057.407711124524
 31
0.0
  0
LINE
  5
1C8CDE6AB7A6
330
1C8CDE699D53
100
AcDbEntity
  8
SJC2
100
AcDbLine
 10
1135.488521978805
 20
1045.75085040039
 30
0.0
 11
1130.488521978805
 21
1045.75085040039
 31
0.0
  0
LINE
  5
1C8CDE6AB7A7
330
1C8CDE699D53
100
AcDbEntity
  8
HASEN
100
AcDbLine
 10
1138.101588834346
 20
1057.407711124524
 30
0.0
 11
1137.091223404794
 21
1057.407711124524
 31
0.0
  0
LINE
  5
1C8CDE6AB7A8
330
1C8CDE699D53
100
AcDbEntity
  8
SJC2
100
AcDbLine
 10
1130.488521978805
 20
1020.75085040039
 30
0.0
 11
1135.488521978805
 21
1020.75085040039
 31
0.0
  0
LINE
  5
1C8CDE6AB7A9
330
1C8CDE699D53
100
AcDbEntity
  8
SJC2
100
AcDbLine
 10
1135.488521978805
 20
1020.75085040039
 30
0.0
 11
1135.488521978805
 21
1045.75085040039
 31
0.0
  0
LINE
  5
1C8CDE6AB7AA
330
1C8CDE699D53
100
AcDbEntity
  8
SJC2
100
AcDbLine
 10
1130.488521978805
 20
1020.75085040039
 30
0.0
 11
1130.488521978805
 21
1045.75085040039
 31
0.0
  0
LINE
  5
1C8CDE6AB7AB
330
1C8CDE699D53
100
AcDbEntity
  8
SJC2
100
AcDbLine
 10
1126.037696236502
 20
1069.407711124524
 30
0.0
 11
1137.091223404794
 21
1069.407711124524
 31
0.0
  0
ARC
  5
1C8CDE6AB7AC
330
1C8CDE699D53
100
AcDbEntity
  8
SJC2
100
AcDbCircle
 10
1132.988521978805
 20
1062.24058640039
 30
0.0
 40
1.510264
100
AcDbArc
 50
6.683733
 51
173.316267
  0
LINE
  5
1C8CDE6AB7AD
330
1C8CDE699D53
100
AcDbEntity
  8
HASEN
100
AcDbLine
 10
1137.091223404794
 20
1069.407711124524
 30
0.0
 11
1138.101588834346
 21
1069.407711124524
 31
0.0
  0
LINE
  5
1C8CDE6AB7AE
330
1C8CDE699D53
100
AcDbEntity
  8
HASEN
100
AcDbLine
 10
1252.40212849855
 20
1057.407711124524
 30
0.0
 11
1138.101588834346
 21
1057.407711124524
 31
0.0
  0
LINE
  5
1C8CDE6AB7AF
330
1C8CDE699D53
100
AcDbEntity
  8
HASEN
100
AcDbLine
 10
1252.40212849855
 20
1069.407711124524
 30
0.0
 11
1138.101588834346
 21
1069.407711124524
 31
0.0
  0
LINE
  5
1C8CDE6AB7B0
330
1C8CDE699D53
100
AcDbEntity
  8
SJC2
100
AcDbLine
 10
1274.037696236502
 20
1054.157711124523
 30
0.0
 11
1274.037696236502
 21
1072.657711124524
 31
0.0
  0
LINE
  5
1C8CDE6AB7B1
330
1C8CDE699D53
100
AcDbEntity
  8
SJC2
100
AcDbLine
 10
1272.537696236502
 20
1052.157711124524
 30
0.0
 11
1272.537696236502
 21
1074.657711124524
 31
0.0
  0
LINE
  5
1C8CDE6AB7B2
330
1C8CDE699D53
100
AcDbEntity
  8
SJC2
100
AcDbLine
 10
1266.037696236502
 20
1052.157711124524
 30
0.0
 11
1266.037696236502
 21
1074.657711124524
 31
0.0
  0
LINE
  5
1C8CDE6AB7B3
330
1C8CDE699D53
100
AcDbEntity
  8
SJC2
100
AcDbLine
 10
1272.537696236502
 20
1052.157711124524
 30
0.0
 11
1274.037696236502
 21
1054.157711124524
 31
0.0
  0
LINE
  5
1C8CDE6AB7B4
330
1C8CDE699D53
100
AcDbEntity
  8
SJC2
100
AcDbLine
 10
1266.037696236502
 20
1057.407711124524
 30
0.0
 11
1265.032955587549
 21
1057.407711124524
 31
0.0
  0
LINE
  5
1C8CDE6AB7B5
330
1C8CDE699D53
100
AcDbEntity
  8
SJC2
100
AcDbLine
 10
1272.537696236502
 20
1052.157711124524
 30
0.0
 11
1266.037696236502
 21
1052.157711124524
 31
0.0
  0
LINE
  5
1C8CDE6AB7B6
330
1C8CDE699D53
100
AcDbEntity
  8
HASEN
100
AcDbLine
 10
1252.40212849855
 20
1057.407711124524
 30
0.0
 11
1265.032955587549
 21
1057.407711124524
 31
0.0
  0
LINE
  5
1C8CDE6AB7B7
330
1C8CDE699D53
100
AcDbEntity
  8
SJC2
100
AcDbLine
 10
1257.45351834291
 20
1084.253971053609
 30
0.0
 11
1259.736634665129
 21
1082.645501663408
 31
0.0
  0
ARC
  5
1C8CDE6AB7B8
330
1C8CDE699D53
100
AcDbEntity
  8
SJC2
100
AcDbCircle
 10
1258.029324493503
 20
1085.071401933464
 30
0.0
 40
1.0
100
AcDbArc
 50
189.8357838414962
 51
234.8357938414963
  0
LINE
  5
1C8CDE6AB7B9
330
1C8CDE699D53
100
AcDbEntity
  8
SJC2
100
AcDbLine
 10
1255.150594106479
 20
1095.823469226428
 30
0.0
 11
1257.044145484913
 21
1084.90057367867
 31
0.0
  0
LINE
  5
1C8CDE6AB7BA
330
1C8CDE699D53
100
AcDbEntity
  8
SJC2
100
AcDbLine
 10
1253.180035199382
 20
1095.481819292626
 30
0.0
 11
1255.150594106479
 21
1095.823469226428
 31
0.0
  0
ARC
  5
1C8CDE6AB7BB
330
1C8CDE699D53
100
AcDbEntity
  8
SJC2
100
AcDbCircle
 10
1258.296737577931
 20
1080.601638287378
 30
0.0
 40
2.5
100
AcDbArc
 50
9.83578404149626
 51
54.83578484149627
  0
LINE
  5
1C8CDE6AB7BC
330
1C8CDE699D53
100
AcDbEntity
  8
SJC2
100
AcDbLine
 10
1272.537696236502
 20
1074.657711124524
 30
0.0
 11
1274.037696236502
 21
1072.657711124524
 31
0.0
  0
LINE
  5
1C8CDE6AB7BD
330
1C8CDE699D53
100
AcDbEntity
  8
SJC2
100
AcDbLine
 10
1266.037696236502
 20
1069.407711124524
 30
0.0
 11
1263.771720174262
 21
1069.407711124524
 31
0.0
  0
LINE
  5
1C8CDE6AB7BE
330
1C8CDE699D53
100
AcDbEntity
  8
SJC2
100
AcDbLine
 10
1272.537696236502
 20
1074.657711124524
 30
0.0
 11
1266.037696236502
 21
1074.657711124524
 31
0.0
  0
LINE
  5
1C8CDE6AB7BF
330
1C8CDE699D53
100
AcDbEntity
  8
HASEN
100
AcDbLine
 10
1252.40212849855
 20
1069.407711124524
 30
0.0
 11
1263.771720174262
 21
1069.407711124524
 31
0.0
  0
LINE
  5
1C8CDE6AB7C0
330
1C8CDE699D53
100
AcDbEntity
  8
SJC2
100
AcDbLine
 10
1255.15063788792
 20
1095.823469763029
 30
0.0
 11
1277.661765530161
 21
965.9817382370356
 31
0.0
  0
LINE
  5
1C8CDE6AB7C1
330
1C8CDE699D53
100
AcDbEntity
  8
SJC2
100
AcDbLine
 10
1253.180035199382
 20
1095.481819292626
 30
0.0
 11
1275.75380338498
 21
965.2787839375887
 31
0.0
  0
LINE
  5
1C8CDE6AB7C2
330
1C8CDE699D53
100
AcDbEntity
  8
SJC2
100
AcDbLine
 10
1260.760283086363
 20
1081.028759040197
 30
0.0
 11
1278.349069357103
 21
979.577584593645
 31
0.0
  0
LINE
  5
1C8CDE6AB7C3
330
1C8CDE699D53
100
AcDbEntity
  8
SJC2
100
AcDbLine
 10
1275.905940182478
 20
976.1091475353891
 30
0.0
 11
1278.34912858543
 21
979.5773321190079
 31
0.0
  0
LINE
  5
1C8CDE6AB7C4
330
1C8CDE699D53
100
AcDbEntity
  8
SJC2
100
AcDbLine
 10
1278.349069357103
 20
979.577584593645
 30
0.0
 11
1282.142379353373
 21
963.4077111245241
 31
0.0
  0
ARC
  5
1C8CDE6AB7C5
330
1C8CDE699D53
100
AcDbEntity
  8
SJC2
100
AcDbCircle
 10
1288.951818666447
 20
945.8903111245243
 30
0.0
 40
4.3000002
100
AcDbArc
 50
300.0
 51
0.0
  0
LINE
  5
1C8CDE6AB7C6
330
1C8CDE699D53
100
AcDbEntity
  8
SJC2
100
AcDbLine
 10
1253.851838666447
 20
955.4077111245241
 30
0.0
 11
1253.851838666447
 21
921.5410511245243
 31
0.0
  0
LINE
  5
1C8CDE6AB7C7
330
1C8CDE699D53
100
AcDbEntity
  8
SJC2
100
AcDbLine
 10
1253.851838666447
 20
921.5410511245243
 30
0.0
 11
1255.851838666447
 21
921.5410511245243
 31
0.0
  0
LINE
  5
1C8CDE6AB7C8
330
1C8CDE699D53
100
AcDbEntity
  8
SJC2
100
AcDbLine
 10
1255.377718666447
 20
921.5410511245243
 30
0.0
 11
1291.101958666447
 21
942.1664311245242
 31
0.0
  0
LINE
  5
1C8CDE6AB7C9
330
1C8CDE699D53
100
AcDbEntity
  8
SJC2
100
AcDbLine
 10
1128.135538666447
 20
955.4077111245241
 30
0.0
 11
1260.868198666447
 21
955.4077111245241
 31
0.0
  0
LINE
  5
1C8CDE6AB7CA
330
1C8CDE699D53
100
AcDbEntity
  8
SJC
100
AcDbLine
 10
1138.101588834346
 20
963.4077111245241
 30
0.0
 11
1252.402128498548
 21
963.4077111245241
 31
0.0
  0
LINE
  5
1C8CDE6AB7CB
330
1C8CDE699D53
100
AcDbEntity
  8
SJC2
100
AcDbLine
 10
1120.251858666447
 20
961.4077111245242
 30
0.0
 11
1295.251858666447
 21
961.4077111245242
 31
0.0
  0
LINE
  5
1C8CDE6AB7CC
330
1C8CDE699D53
100
AcDbEntity
  8
SJC
100
AcDbLine
 10
1120.251858666447
 20
963.4077111245241
 30
0.0
 11
1295.251858666447
 21
963.4077111245241
 31
0.0
  0
ARC
  5
1C8CDE6AB7CD
330
1C8CDE699D53
100
AcDbEntity
  8
SJC2
100
AcDbCircle
 10
1128.135538666447
 20
957.9077111245242
 30
0.0
 40
2.5
100
AcDbArc
 50
195.00001
 51
270.0
  0
LINE
  5
1C8CDE6AB7CE
330
1C8CDE699D53
100
AcDbEntity
  8
SJC2
100
AcDbLine
 10
1124.808138666447
 20
960.6665711245241
 30
0.0
 11
1125.720738666447
 21
957.2606511245242
 31
0.0
  0
ARC
  5
1C8CDE6AB7CF
330
1C8CDE699D53
100
AcDbEntity
  8
SJC2
100
AcDbCircle
 10
1123.842198666447
 20
960.4077111245242
 30
0.0
 40
1.0
100
AcDbArc
 50
15.0
 51
90.00000300000001
  0
LINE
  5
1C8CDE6AB7D0
330
1C8CDE699D53
100
AcDbEntity
  8
SJC2
100
AcDbLine
 10
1120.251858666447
 20
963.4077111245241
 30
0.0
 11
1120.251858666447
 21
961.4077111245242
 31
0.0
  0
ARC
  5
1C8CDE6AB7D1
330
1C8CDE699D53
100
AcDbEntity
  8
SJC2
100
AcDbCircle
 10
1278.893392210499
 20
966.1952697810376
 30
0.0
 40
1.25
100
AcDbArc
 50
189.8358034297691
 51
241.9705543628765
  0
LINE
  5
1C8CDE6AB7D2
330
1C8CDE699D53
100
AcDbEntity
  8
SJC2
100
AcDbLine
 10
1278.305985625342
 20
965.0918870261808
 30
0.0
 11
1280.568825688838
 21
963.8872215113334
 31
0.0
  0
ARC
  5
1C8CDE6AB7D3
330
1C8CDE699D53
100
AcDbEntity
  8
SJC2
100
AcDbCircle
 10
1278.216755856834
 20
965.7057807403415
 30
0.0
 40
2.5
100
AcDbArc
 50
189.8357838414962
 51
235.903030728778
  0
LINE
  5
1C8CDE6AB7D4
330
1C8CDE699D53
100
AcDbEntity
  8
HASEN
100
AcDbLine
 10
1281.46911780647
 20
963.407711124524
 30
0.0
 11
1280.568825688838
 21
963.8872215113334
 31
0.0
  0
CIRCLE
  5
1C8CDE6AB7D5
330
1C8CDE699D53
100
AcDbEntity
  8
HASEN
100
AcDbCircle
 10
1273.751858666447
 20
953.4077111245242
 30
0.0
 40
2.6
  0
LINE
  5
1C8CDE6AB7D6
330
1C8CDE699D53
100
AcDbEntity
  8
SJC2
100
AcDbLine
 10
1293.251858666447
 20
961.4077111245242
 30
0.0
 11
1293.251858666447
 21
945.8903111245243
 31
0.0
  0
ARC
  5
1C8CDE6AB7D7
330
1C8CDE699D53
100
AcDbEntity
  8
SJC2
100
AcDbCircle
 10
1265.161538666447
 20
960.4077111245242
 30
0.0
 40
1.0
100
AcDbArc
 50
90.00000300000001
 51
164.99999
  0
LINE
  5
1C8CDE6AB7D8
330
1C8CDE699D53
100
AcDbEntity
  8
SJC2
100
AcDbLine
 10
1264.195718666447
 20
960.6664911245241
 30
0.0
 11
1263.283118666447
 21
957.2606511245242
 31
0.0
  0
ARC
  5
1C8CDE6AB7D9
330
1C8CDE699D53
100
AcDbEntity
  8
SJC2
100
AcDbCircle
 10
1265.161458666448
 20
960.4077111245242
 30
0.0
 40
1.0
100
AcDbArc
 50
90.00000300000001
 51
164.99999
  0
ARC
  5
1C8CDE6AB7DA
330
1C8CDE699D53
100
AcDbEntity
  8
SJC2
100
AcDbCircle
 10
1260.868198666447
 20
957.9077111245242
 30
0.0
 40
2.5
100
AcDbArc
 50
270.0
 51
345.0
  0
LINE
  5
1C8CDE6AB7DB
330
1C8CDE699D53
100
AcDbEntity
  8
SJC2
100
AcDbLine
 10
1295.251858666447
 20
963.4077111245241
 30
0.0
 11
1295.251858666447
 21
961.4077111245242
 31
0.0
  0
LINE
  5
1C8CDE6AB7DC
330
1C8CDE699D53
100
AcDbEntity
  8
HATCH
100
AcDbLine
 10
1293.251858666447
 20
957.9242339502293
 30
0.0
 11
1298.735335840742
 21
963.4077111245241
 31
0.0
  0
LINE
  5
1C8CDE6AB7DD
330
1C8CDE699D53
100
AcDbEntity
  8
HASEN
100
AcDbLine
 10
1254.251838666447
 20
921.8148111245243
 30
0.0
 11
1254.251838666447
 21
563.4077111245241
 31
0.0
  0
LINE
  5
1C8CDE6AB7DE
330
1C8CDE699D53
100
AcDbEntity
  8
SJC2
100
AcDbLine
 10
1252.40212849855
 20
963.4077111245245
 30
0.0
 11
1252.40212849855
 21
563.4077111245241
 31
0.0
  0
LINE
  5
1C8CDE6AB7DF
330
1C8CDE699D53
100
AcDbEntity
  8
SJC2
100
AcDbLine
 10
1255.851838666447
 20
921.8148111245243
 30
0.0
 11
1255.851838666447
 21
563.4077111245241
 31
0.0
  0
LINE
  5
1C8CDE6AB7E0
330
1C8CDE699D53
100
AcDbEntity
  8
HASEN
100
AcDbLine
 10
1136.251898666447
 20
955.4077111245241
 30
0.0
 11
1136.251898666446
 21
563.4077111245241
 31
0.0
  0
LINE
  5
1C8CDE6AB7E1
330
1C8CDE699D53
100
AcDbEntity
  8
SJC2
100
AcDbLine
 10
1138.101588834346
 20
963.4077111245245
 30
0.0
 11
1138.101588834346
 21
563.4077111245241
 31
0.0
  0
LINE
  5
1C8CDE6AB7E2
330
1C8CDE699D53
100
AcDbEntity
  8
SJC2
100
AcDbLine
 10
1134.651898666447
 20
955.4077111245241
 30
0.0
 11
1134.651898666447
 21
563.4077111245241
 31
0.0
  0
LINE
  5
1C8CDE6AB7E3
330
1C8CDE699D53
100
AcDbEntity
  8
SJC2
100
AcDbLine
 10
1132.751858666447
 20
563.4076911245243
 30
0.0
 11
1257.751858666447
 21
563.4076911245243
 31
0.0
  0
LINE
  5
1C8CDE6AB7E4
330
1C8CDE699D53
100
AcDbEntity
  8
SJC2
100
AcDbLine
 10
1132.751858666447
 20
561.8077111245242
 30
0.0
 11
1257.751858666447
 21
561.8077111245242
 31
0.0
  0
LINE
  5
1C8CDE6AB7E5
330
1C8CDE699D53
100
AcDbEntity
  8
SJC2
100
AcDbLine
 10
1132.751858666447
 20
563.4076911245243
 30
0.0
 11
1132.751858666447
 21
561.8077111245242
 31
0.0
  0
LINE
  5
1C8CDE6AB7E6
330
1C8CDE699D53
100
AcDbEntity
  8
SJC2
100
AcDbLine
 10
1257.751858666447
 20
563.4076911245243
 30
0.0
 11
1257.751858666447
 21
561.8077111245242
 31
0.0
  0
CIRCLE
  5
1C8CDE6AB858
330
1C8CDE699D53
100
AcDbEntity
  8
SJC2
100
AcDbCircle
 10
2004.820291502536
 20
1063.521122129757
 30
0.0
 40
11.25
  0
CIRCLE
  5
1C8CDE6AB859
330
1C8CDE699D53
100
AcDbEntity
  8
SJC2
100
AcDbCircle
 10
2004.820291502536
 20
1063.521122129757
 30
0.0
 40
9.249999999999772
  0
ARC
  5
1C8CDE6AB85A
330
1C8CDE699D53
100
AcDbEntity
  8
SJC2
100
AcDbCircle
 10
2004.820291502532
 20
1029.389206605825
 30
0.0
 40
66.54767362583673
100
AcDbArc
 50
2.168883442014078
 51
177.8311165579858
  0
ARC
  5
1C8CDE6AB85B
330
1C8CDE699D53
100
AcDbEntity
  8
SJC2
100
AcDbCircle
 10
2004.820291502532
 20
1029.379640498218
 30
0.0
 40
55.05807062631134
100
AcDbArc
 50
2.631743565752763
 51
177.368256434247
  0
ARC
  5
1C8CDE6AB85C
330
1C8CDE699D53
100
AcDbEntity
  8
SJC2
100
AcDbCircle
 10
2004.820291502531
 20
1029.350344585632
 30
0.0
 40
52.06284782466878
100
AcDbArc
 50
2.815545131476595
 51
177.184454868523
  0
ARC
  5
1C8CDE6AB85D
330
1C8CDE699D53
100
AcDbEntity
  8
SJC2
100
AcDbCircle
 10
2021.453161502535
 20
972.180429124524
 30
0.0
 40
10.0
100
AcDbArc
 50
105.56145
 51
164.99999
  0
LINE
  5
1C8CDE6AB85E
330
1C8CDE699D53
100
AcDbEntity
  8
SJC2
100
AcDbLine
 10
2009.449561502535
 20
966.0195501245238
 30
0.0
 11
2014.321941502534
 21
966.0195501245238
 31
0.0
  0
LINE
  5
1C8CDE6AB85F
330
1C8CDE699D53
100
AcDbEntity
  8
SJC2
100
AcDbLine
 10
1991.241253781729
 20
943.0714508410604
 30
0.0
 11
2018.399329223341
 21
943.0714508410604
 31
0.0
  0
LINE
  5
1C8CDE6AB860
330
1C8CDE699D53
100
AcDbEntity
  8
SJC2
100
AcDbLine
 10
1937.703971502535
 20
955.4077111245241
 30
0.0
 11
2071.936611502535
 21
955.4077111245241
 31
0.0
  0
LINE
  5
1C8CDE6AB861
330
1C8CDE699D53
100
AcDbEntity
  8
SJC2
100
AcDbLine
 10
1929.820291502535
 20
961.4077111245242
 30
0.0
 11
2079.820291502535
 21
961.4077111245242
 31
0.0
  0
LINE
  5
1C8CDE6AB862
330
1C8CDE699D53
100
AcDbEntity
  8
SJC2
100
AcDbLine
 10
1929.820291502535
 20
963.4077111245241
 30
0.0
 11
2079.820291502535
 21
963.4077111245241
 31
0.0
  0
ARC
  5
1C8CDE6AB863
330
1C8CDE699D53
100
AcDbEntity
  8
SJC2
100
AcDbCircle
 10
2004.820291502535
 20
1031.907711124524
 30
0.0
 40
52.0
100
AcDbArc
 50
180.0
 51
0.0
  0
LINE
  5
1C8CDE6AB864
330
1C8CDE699D53
100
AcDbEntity
  8
HASEN
100
AcDbLine
 10
2012.260209853686
 20
1055.082513540172
 30
0.0
 11
2012.265632388588
 21
1065.841535825718
 31
0.0
  0
LINE
  5
1C8CDE6AB865
330
1C8CDE699D53
100
AcDbEntity
  8
HASEN
100
AcDbLine
 10
1997.380373151385
 20
1055.082513540173
 30
0.0
 11
1997.374950616484
 21
1065.841535825718
 31
0.0
  0
ARC
  5
1C8CDE6AB866
330
1C8CDE699D53
100
AcDbEntity
  8
SJC2
100
AcDbCircle
 10
2004.820291502535
 20
1031.907711124524
 30
0.0
 40
55.0
100
AcDbArc
 50
180.0
 51
261.44989
  0
ARC
  5
1C8CDE6AB867
330
1C8CDE699D53
100
AcDbEntity
  8
SJC2
100
AcDbCircle
 10
2004.820291502535
 20
1031.907711124524
 30
0.0
 40
66.5
100
AcDbArc
 50
180.0
 51
261.48038
  0
ARC
  5
1C8CDE6AB868
330
1C8CDE699D53
100
AcDbEntity
  8
SJC2
100
AcDbCircle
 10
1933.410631502535
 20
960.4077111245242
 30
0.0
 40
1.0
100
AcDbArc
 50
15.0
 51
90.00000300000001
  0
ARC
  5
1C8CDE6AB869
330
1C8CDE699D53
100
AcDbEntity
  8
SJC2
100
AcDbCircle
 10
1937.703971502535
 20
957.9077111245242
 30
0.0
 40
2.5
100
AcDbArc
 50
195.00001
 51
270.0
  0
LINE
  5
1C8CDE6AB86A
330
1C8CDE699D53
100
AcDbEntity
  8
SJC2
100
AcDbLine
 10
1934.376571502535
 20
960.6665711245241
 30
0.0
 11
1935.289171502534
 21
957.2606511245242
 31
0.0
  0
LINE
  5
1C8CDE6AB86B
330
1C8CDE699D53
100
AcDbEntity
  8
SJC2
100
AcDbLine
 10
1929.820291502535
 20
963.4077111245241
 30
0.0
 11
1929.820291502535
 21
961.4077111245242
 31
0.0
  0
LINE
  5
1C8CDE6AB86C
330
1C8CDE699D53
100
AcDbEntity
  8
SJC2
100
AcDbLine
 10
2011.793861502534
 20
974.7686251245241
 30
0.0
 11
2008.888411502535
 21
963.925349124524
 31
0.0
  0
ARC
  5
1C8CDE6AB86D
330
1C8CDE699D53
100
AcDbEntity
  8
SJC2
100
AcDbCircle
 10
2010.820291502535
 20
963.4077111245241
 30
0.0
 40
2.0
100
AcDbArc
 50
164.99999
 51
180.0
  0
ARC
  5
1C8CDE6AB86E
330
1C8CDE699D53
100
AcDbEntity
  8
SJC2
100
AcDbCircle
 10
1994.820291502534
 20
965.1525611245242
 30
0.0
 40
1.0
100
AcDbArc
 50
0.0000025044777
 51
81.48038000000001
  0
ARC
  5
1C8CDE6AB86F
330
1C8CDE699D53
100
AcDbEntity
  8
SJC2
100
AcDbCircle
 10
1988.187421502534
 20
972.180429124524
 30
0.0
 40
10.0
100
AcDbArc
 50
15.0
 51
74.43854300000001
  0
LINE
  5
1C8CDE6AB870
330
1C8CDE699D53
100
AcDbEntity
  8
SJC2
100
AcDbLine
 10
1997.846721502535
 20
974.7686271245243
 30
0.0
 11
2000.752171502535
 21
963.925352124524
 31
0.0
  0
LINE
  5
1C8CDE6AB871
330
1C8CDE699D53
100
AcDbEntity
  8
SJC2
100
AcDbLine
 10
1995.318641502535
 20
966.0195501245238
 30
0.0
 11
2000.191021502535
 21
966.0195501245238
 31
0.0
  0
ARC
  5
1C8CDE6AB872
330
1C8CDE699D53
100
AcDbEntity
  8
SJC2
100
AcDbCircle
 10
1998.820291502535
 20
963.4077111245241
 30
0.0
 40
2.0
100
AcDbArc
 50
0.0
 51
15.0
  0
LINE
  5
1C8CDE6AB873
330
1C8CDE699D53
100
AcDbEntity
  8
SJC2
100
AcDbLine
 10
1995.820291502535
 20
965.1525611245242
 30
0.0
 11
1995.820291502535
 21
963.4077111245241
 31
0.0
  0
LINE
  5
1C8CDE6AB876
330
1C8CDE699D53
100
AcDbEntity
  8
SJC2
100
AcDbLine
 10
2012.260209853686
 20
1055.082513540172
 30
0.0
 11
2012.257127332327
 21
1048.96638582332
 31
0.0
  0
LINE
  5
1C8CDE6AB877
330
1C8CDE699D53
100
AcDbEntity
  8
SJC2
100
AcDbLine
 10
1997.383455672747
 20
1048.966385823318
 30
0.0
 11
1997.380373151387
 21
1055.08251354017
 31
0.0
  0
ARC
  5
1C8CDE6AB878
330
1C8CDE699D53
100
AcDbEntity
  8
SJC2
100
AcDbCircle
 10
2004.820291502536
 20
1049.937711124524
 30
0.0
 40
7.5
100
AcDbArc
 50
187.4412803380886
 51
352.5587196619325
  0
ARC
  5
1C8CDE6AB879
330
1C8CDE699D53
100
AcDbEntity
  8
SJC2
100
AcDbCircle
 10
2004.820291502536
 20
1064.937711124524
 30
0.0
 40
7.5
100
AcDbArc
 50
6.92153473253363
 51
173.0784652674452
  0
LINE
  5
1C8CDE6AB87A
330
1C8CDE699D53
100
AcDbEntity
  8
SJC2
100
AcDbLine
 10
1955.004319985237
 20
1073.513597216902
 30
0.0
 11
1954.809957213065
 21
1073.513597216902
 31
0.0
  0
LINE
  5
1C8CDE6AB87B
330
1C8CDE699D53
100
AcDbEntity
  8
SJC2
100
AcDbLine
 10
1955.004319985237
 20
1073.513597216902
 30
0.0
 11
1954.809957213066
 21
1073.513597216902
 31
0.0
  0
LINE
  5
1C8CDE6AB87C
330
1C8CDE699D53
100
AcDbEntity
  8
HATCH
100
AcDbLine
 10
2065.420271502535
 20
942.6213008623101
 30
0.0
 11
2086.206681764748
 21
963.4077111245233
 31
0.0
  0
LINE
  5
1C8CDE6AB87D
330
1C8CDE699D53
100
AcDbEntity
  8
HATCH
100
AcDbLine
 10
2065.420271502535
 20
942.621300862309
 30
0.0
 11
2086.206681764749
 21
963.4077111245233
 31
0.0
  0
ARC
  5
1C8CDE6AB87E
330
1C8CDE699D53
100
AcDbEntity
  8
SJC2
100
AcDbCircle
 10
2004.820291502535
 20
1031.907711124524
 30
0.0
 40
55.0
100
AcDbArc
 50
278.55011
 51
0.0
  0
ARC
  5
1C8CDE6AB87F
330
1C8CDE699D53
100
AcDbEntity
  8
SJC2
100
AcDbCircle
 10
2004.820291502535
 20
1031.907711124524
 30
0.0
 40
66.5
100
AcDbArc
 50
278.51962
 51
0.0
  0
LINE
  5
1C8CDE6AB881
330
1C8CDE699D53
100
AcDbEntity
  8
SJC2
100
AcDbLine
 10
2075.264011502535
 20
960.6665711245243
 30
0.0
 11
2074.351411502536
 21
957.2606511245243
 31
0.0
  0
ARC
  5
1C8CDE6AB882
330
1C8CDE699D53
100
AcDbEntity
  8
SJC2
100
AcDbCircle
 10
2071.936611502535
 20
957.9077111245242
 30
0.0
 40
2.5
100
AcDbArc
 50
270.0000000000001
 51
344.9999900000001
  0
ARC
  5
1C8CDE6AB883
330
1C8CDE699D53
100
AcDbEntity
  8
SJC2
100
AcDbCircle
 10
2076.229951502535
 20
960.4077111245244
 30
0.0
 40
1.0
100
AcDbArc
 50
89.99999700000008
 51
165.0000000000001
  0
ARC
  5
1C8CDE6AB884
330
1C8CDE699D53
100
AcDbEntity
  8
SJC2
100
AcDbCircle
 10
2014.820291502535
 20
965.1525611245242
 30
0.0
 40
1.0
100
AcDbArc
 50
98.51961800000001
 51
179.99999
  0
LINE
  5
1C8CDE6AB885
330
1C8CDE699D53
100
AcDbEntity
  8
SJC2
100
AcDbLine
 10
2013.820291502535
 20
965.1525611245242
 30
0.0
 11
2013.820291502535
 21
963.4077111245241
 31
0.0
  0
LINE
  5
1C8CDE6AB886
330
1C8CDE699D53
100
AcDbEntity
  8
SJC2
100
AcDbLine
 10
2079.820291502535
 20
963.4077111245245
 30
0.0
 11
2079.820291502535
 21
961.4077111245244
 31
0.0
  0
LINE
  5
1C8CDE6AB887
330
1C8CDE699D53
100
AcDbEntity
  8
SJC2
100
AcDbLine
 10
2054.636263019828
 20
1073.513597216902
 30
0.0
 11
2054.830625792006
 21
1073.513597216902
 31
0.0
  0
LINE
  5
1C8CDE6AB888
330
1C8CDE699D53
100
AcDbEntity
  8
SJC2
100
AcDbLine
 10
2054.636263019828
 20
1073.513597216902
 30
0.0
 11
2054.830625792006
 21
1073.513597216902
 31
0.0
  0
LINE
  5
1C8CDE6AB889
330
1C8CDE699D53
100
AcDbEntity
  8
HASEN
100
AcDbLine
 10
2063.820271502535
 20
955.4077111245241
 30
0.0
 11
2063.820271502535
 21
563.4077111245241
 31
0.0
  0
LINE
  5
1C8CDE6AB88A
330
1C8CDE699D53
100
AcDbEntity
  8
SJC2
100
AcDbLine
 10
2061.970561334641
 20
963.407711124524
 30
0.0
 11
2061.970561334637
 21
563.4077111245241
 31
0.0
  0
LINE
  5
1C8CDE6AB88B
330
1C8CDE699D53
100
AcDbEntity
  8
SJC2
100
AcDbLine
 10
2065.420271502535
 20
955.4077111245241
 30
0.0
 11
2065.420271502535
 21
563.4077111245241
 31
0.0
  0
LINE
  5
1C8CDE6AB88C
330
1C8CDE699D53
100
AcDbEntity
  8
HASEN
100
AcDbLine
 10
1945.820331502535
 20
955.4077111245241
 30
0.0
 11
1945.820331502535
 21
563.4077111245241
 31
0.0
  0
LINE
  5
1C8CDE6AB88D
330
1C8CDE699D53
100
AcDbEntity
  8
SJC2
100
AcDbLine
 10
1947.670021670434
 20
963.4077111245241
 30
0.0
 11
1947.670021670434
 21
563.4077111245241
 31
0.0
  0
LINE
  5
1C8CDE6AB88E
330
1C8CDE699D53
100
AcDbEntity
  8
SJC2
100
AcDbLine
 10
1944.220331502534
 20
955.4077111245241
 30
0.0
 11
1944.220331502534
 21
563.4077111245241
 31
0.0
  0
LINE
  5
1C8CDE6AB88F
330
1C8CDE699D53
100
AcDbEntity
  8
SJC2
100
AcDbLine
 10
2020.120291502535
 20
921.5410511245247
 30
0.0
 11
1989.520291502534
 21
921.5410511245245
 31
0.0
  0
LINE
  5
1C8CDE6AB890
330
1C8CDE699D53
100
AcDbEntity
  8
SJC2
100
AcDbLine
 10
1989.520291502534
 20
961.4077111245242
 30
0.0
 11
1989.520291502534
 21
921.5410511245245
 31
0.0
  0
LINE
  5
1C8CDE6AB891
330
1C8CDE699D53
100
AcDbEntity
  8
SJC2
100
AcDbLine
 10
2020.120291502535
 20
961.4077111245242
 30
0.0
 11
2020.120291502535
 21
921.5410511245245
 31
0.0
  0
LINE
  5
1C8CDE6AB892
330
1C8CDE699D53
100
AcDbEntity
  8
SJC2
100
AcDbLine
 10
1942.320291502535
 20
563.4077111245241
 30
0.0
 11
2067.320291502535
 21
563.4077111245241
 31
0.0
  0
LINE
  5
1C8CDE6AB893
330
1C8CDE699D53
100
AcDbEntity
  8
SJC2
100
AcDbLine
 10
1942.320291502535
 20
561.8077311245242
 30
0.0
 11
2067.320291502535
 21
561.8077311245242
 31
0.0
  0
LINE
  5
1C8CDE6AB894
330
1C8CDE699D53
100
AcDbEntity
  8
SJC2
100
AcDbLine
 10
1942.320291502535
 20
563.4077111245241
 30
0.0
 11
1942.320291502535
 21
561.8077311245242
 31
0.0
  0
LINE
  5
1C8CDE6AB895
330
1C8CDE699D53
100
AcDbEntity
  8
SJC2
100
AcDbLine
 10
2067.320291502535
 20
563.4077111245241
 30
0.0
 11
2067.320291502535
 21
561.8077311245242
 31
0.0
  0
ARC
  5
1C8CDE6ABE8B
330
1C8CDE699D53
100
AcDbEntity
  8
SJC
100
AcDbCircle
 10
1947.919690305254
 20
1763.157711124524
 30
0.0
 40
0.25
100
AcDbArc
 50
90.0
 51
180.0
  0
ARC
  5
1C8CDE6ABE97
330
1C8CDE699D53
100
AcDbEntity
  8
SJC
100
AcDbCircle
 10
1020.500987637066
 20
2319.371390402812
 30
0.0
 40
0.25
100
AcDbArc
 50
180.0
 51
270.0
  0
ARC
  5
1C8CDE6ABE98
330
1C8CDE699D53
100
AcDbEntity
  8
SJC
100
AcDbCircle
 10
1370.000987637066
 20
2319.371390402812
 30
0.0
 40
0.25
100
AcDbArc
 50
270.0
 51
0.0
  0
LINE
  5
1C8CDE6AC1F4
330
1C8CDE699D53
100
AcDbEntity
  8
SJC
100
AcDbLine
 10
1138.101858666446
 20
1639.947711124525
 30
0.0
 11
1138.101858666445
 21
963.4077111245243
 31
0.0
  0
LINE
  5
1C8CDE6AC1F5
330
1C8CDE699D53
100
AcDbEntity
  8
SJC
100
AcDbLine
 10
1252.401858666445
 20
1639.947711124524
 30
0.0
 11
1252.401858666445
 21
963.4077111245243
 31
0.0
  0
ARC
  5
1C8CDE6AC1F7
330
1C8CDE699D53
100
AcDbEntity
  8
SJC
100
AcDbCircle
 10
1195.251858666447
 20
1805.707711124524
 30
0.0
 40
57.7
100
AcDbArc
 50
0.0
 51
180.0
  0
LINE
  5
1C8CDE6AC1F8
330
1C8CDE699D53
100
AcDbEntity
  8
SJC
100
AcDbLine
 10
1251.951858666447
 20
1763.407711124524
 30
0.0
 11
1138.551858666447
 21
1763.407711124524
 31
0.0
  0
LINE
  5
1C8CDE6AC1F9
330
1C8CDE699D53
100
AcDbEntity
  8
SJC
100
AcDbLine
 10
1250.401862872262
 20
1643.407711124524
 30
0.0
 11
1140.10185446063
 21
1643.407711124525
 31
0.0
  0
INSERT
  5
1C8CDE6AC1FA
330
1C8CDE699D53
100
AcDbEntity
  8
HATCH
100
AcDbBlockReference
  2
*X5
 10
-529.2703558585554
 20
-115.1472557669865
 30
0.0
1001
ACAD
1000
HATCH
1002
{
1070
    19
1000
ANSI31
1040
2.0
1040
0.0
1002
}
  0
LINE
  5
1C8CDE6AC1FB
330
1C8CDE699D53
100
AcDbEntity
  8
SJC
100
AcDbLine
 10
1140.101858666447
 20
1763.407711124524
 30
0.0
 11
1140.101858666446
 21
1643.411812739662
 31
0.0
  0
ARC
  5
1C8CDE6AC1FC
330
1C8CDE699D53
100
AcDbEntity
  8
SJC
100
AcDbCircle
 10
1140.101858666446
 20
1639.947711124525
 30
0.0
 40
2.0
100
AcDbArc
 50
119.9999999999916
 51
180.0
  0
ARC
  5
1C8CDE6AC1FD
330
1C8CDE699D53
100
AcDbEntity
  8
SJC
100
AcDbCircle
 10
1138.101858666446
 20
1643.411812739662
 30
0.0
 40
2.0
100
AcDbArc
 50
299.9999999999949
 51
0.0
  0
LINE
  5
1C8CDE6AC1FE
330
1C8CDE699D53
100
AcDbEntity
  8
SJC
100
AcDbLine
 10
1137.551858666446
 20
1805.707711124524
 30
0.0
 11
1137.551858666447
 21
1764.407711124525
 31
0.0
  0
LINE
  5
1C8CDE6AC1FF
330
1C8CDE699D53
100
AcDbEntity
  8
SJC
100
AcDbLine
 10
1137.551858666447
 20
1764.407711124524
 30
0.0
 11
1138.551858666447
 21
1763.407711124524
 31
0.0
  0
LINE
  5
1C8CDE6AC200
330
1C8CDE699D53
100
AcDbEntity
  8
SJC
100
AcDbLine
 10
1250.401858666447
 20
1763.407711124524
 30
0.0
 11
1250.401858666446
 21
1643.411812739661
 31
0.0
  0
ARC
  5
1C8CDE6AC201
330
1C8CDE699D53
100
AcDbEntity
  8
SJC
100
AcDbCircle
 10
1250.401858666445
 20
1639.947711124524
 30
0.0
 40
2.0
100
AcDbArc
 50
0.0
 51
59.99999999998492
  0
ARC
  5
1C8CDE6AC202
330
1C8CDE699D53
100
AcDbEntity
  8
SJC
100
AcDbCircle
 10
1252.401858666446
 20
1643.411812739661
 30
0.0
 40
2.0
100
AcDbArc
 50
180.0
 51
239.9999999999793
  0
LINE
  5
1C8CDE6AC203
330
1C8CDE699D53
100
AcDbEntity
  8
SJC
100
AcDbLine
 10
1252.951858666447
 20
1805.707711124524
 30
0.0
 11
1252.951858666447
 21
1764.407711124524
 31
0.0
  0
LINE
  5
1C8CDE6AC204
330
1C8CDE699D53
100
AcDbEntity
  8
SJC
100
AcDbLine
 10
1252.951858666447
 20
1764.407711124524
 30
0.0
 11
1251.951858666447
 21
1763.407711124524
 31
0.0
  0
CIRCLE
  5
1C8CDE6AC207
330
1C8CDE699D53
100
AcDbEntity
  8
SJC
100
AcDbCircle
 10
1195.250987637065
 20
2115.729585387875
 30
0.0
 40
57.7
  0
DIMENSION
  5
1C8CDE6AC222
330
1C8CDE699D53
100
AcDbEntity
  8
SUNPOU
100
AcDbDimension
  2
*D6
 10
1520.252729695829
 20
963.4077111245245
 30
0.0
 11
1493.252729695829
 21
1413.407711124524
 31
0.0
 70
    32
 71
     5
 42
899.9999999999998
  3
SJC
100
AcDbAlignedDimension
 13
1195.251858666447
 23
1863.407711124524
 33
0.0
 14
1411.661734495767
 24
963.4077111245245
 34
0.0
 50
90.0
100
AcDbRotatedDimension
1001
ACAD
1000
DSTYLE
1002
{
1070
    41
1040
2.0
1070
   271
1070
     2
1070
    43
1040
6.0
1070
    44
1040
1.0
1070
    42
1040
1.0
1070
   147
1040
1.199999999999999
1070
    40
1040
10.0
1070
   340
1005
1C8CDE699DA6
1070
   140
1040
3.0
1002
}
  0
DIMENSION
  5
1C8CDE6AC22F
330
1C8CDE699D53
100
AcDbEntity
  8
SUNPOU
100
AcDbDimension
  2
*D7
 10
1595.252729695828
 20
563.4077111245241
 30
0.0
 11
1568.252729695829
 21
1213.407711124524
 31
0.0
 70
    32
 71
     5
 42
1300.0
  3
SJC
100
AcDbAlignedDimension
 13
1195.251858666447
 23
1863.407711124524
 33
0.0
 14
1395.251858666447
 24
563.4077111245241
 34
0.0
 50
90.0
100
AcDbRotatedDimension
1001
ACAD
1000
DSTYLE
1002
{
1070
    41
1040
2.0
1070
   271
1070
     2
1070
    43
1040
6.0
1070
    44
1040
1.0
1070
    42
1040
1.0
1070
   147
1040
1.199999999999999
1070
    40
1040
10.0
1070
   340
1005
1C8CDE699DA6
1070
   140
1040
3.0
1002
}
  0
DIMENSION
  5
1C8CDE6AC23C
330
1C8CDE699D53
100
AcDbEntity
  8
SUNPOU
100
AcDbDimension
  2
*D8
 10
1445.252729695829
 20
1763.407711124524
 30
0.0
 11
1413.030223278656
 21
1813.407711124524
 31
0.0
 70
   160
 71
     5
 42
99.99999999999978
  3
SJC
100
AcDbAlignedDimension
 13
1195.251858666447
 23
1863.407711124524
 33
0.0
 14
1251.951858666447
 24
1763.407711124524
 34
0.0
 50
90.0
100
AcDbRotatedDimension
1001
ACAD
1000
DSTYLE
1002
{
1070
    41
1040
2.0
1070
   271
1070
     2
1070
    43
1040
6.0
1070
    44
1040
1.0
1070
    42
1040
1.0
1070
   147
1040
1.199999999999999
1070
    40
1040
10.0
1070
   340
1005
1C8CDE699DA6
1070
   140
1040
3.0
1002
}
  0
DIMENSION
  5
1C8CDE6AC249
330
1C8CDE699D53
100
AcDbEntity
  8
SUNPOU
100
AcDbDimension
  2
*D9
 10
1445.252729695829
 20
1643.411812739661
 30
0.0
 11
1413.030223278656
 21
1703.409761932093
 31
0.0
 70
   160
 71
     5
 42
119.9958983848632
  3
SJC
100
AcDbAlignedDimension
 13
1251.951858666447
 23
1763.407711124524
 33
0.0
 14
1250.401858666446
 24
1643.411812739661
 34
0.0
 50
90.0
100
AcDbRotatedDimension
1001
ACAD
1000
DSTYLE
1002
{
1070
    41
1040
2.0
1070
   271
1070
     2
1070
    43
1040
6.0
1070
    44
1040
1.0
1070
    42
1040
1.0
1070
   147
1040
1.199999999999999
1070
    40
1040
10.0
1070
   340
1005
1C8CDE699DA6
1070
   140
1040
3.0
1002
}
  0
TEXT
  5
1C8CDE6AC281
330
1C8CDE699D53
100
AcDbEntity
  8
MOJI
100
AcDbText
 10
874.4717472673713
 20
1716.317296445134
 30
0.0
 40
30.0
  1
高輝度（黄色）
 41
0.8
  7
EXT08
 72
     2
 11
1052.871747267371
 21
1731.317296445133
 31
0.0
100
AcDbText
 73
     2
  0
TEXT
  5
1C8CDE6AC282
330
1C8CDE699D53
100
AcDbEntity
  8
MOJI
100
AcDbText
 10
891.8390893975141
 20
1764.128962574115
 30
0.0
 40
30.0
  1
反射シート
 41
0.8
  7
EXT08
 72
     2
 11
1026.239089397514
 21
1779.128962574115
 31
0.0
100
AcDbText
 73
     2
  0
LINE
  5
1C8CDE6AC283
330
1C8CDE699D53
100
AcDbEntity
  8
MOJI
100
AcDbLine
 10
1055.424563759403
 20
1754.128962574115
 30
0.0
 11
866.33798524162
 21
1754.128962574114
 31
0.0
  0
TEXT
  5
1C8CDE6AC28A
330
1C8CDE699D53
100
AcDbEntity
  8
MOJI
100
AcDbText
 10
878.8348537314213
 20
1901.225725242547
 30
0.0
 40
30.0
  1
頭部キャップ
 41
0.8
  7
EXT08
 72
     2
 11
1046.834853731421
 21
1916.225725242546
 31
0.0
100
AcDbText
 73
     2
  0
LINE
  5
1C8CDE6AC28B
330
1C8CDE699D53
100
AcDbEntity
  8
MOJI
100
AcDbLine
 10
1052.81411302267
 20
1891.225725242546
 30
0.0
 11
870.4301375963151
 21
1891.225725242546
 31
0.0
  0
LINE
  5
1C8CDE6AC297
330
1C8CDE699D53
100
AcDbEntity
  8
SJC
100
AcDbLine
 10
2059.969690305254
 20
1763.407711124524
 30
0.0
 11
2059.969690305253
 21
1643.411812739661
 31
0.0
  0
LINE
  5
1C8CDE6AC298
330
1C8CDE699D53
100
AcDbEntity
  8
SJC
100
AcDbLine
 10
1949.669690305254
 20
1763.407711124524
 30
0.0
 11
1949.669690305253
 21
1643.411812739662
 31
0.0
  0
INSERT
  5
1C8CDE6AC299
330
1C8CDE699D53
100
AcDbEntity
  8
HATCH
100
AcDbBlockReference
  2
*X5
 10
280.2974757802517
 20
-115.1472557669865
 30
0.0
1001
ACAD
1000
HATCH
1002
{
1070
    19
1000
ANSI31
1040
2.0
1040
0.0
1002
}
  0
LINE
  5
1C8CDE6AC29A
330
1C8CDE699D53
100
AcDbEntity
  8
SJC
100
AcDbLine
 10
2059.96969451107
 20
1643.407711124524
 30
0.0
 11
1949.669686099437
 21
1643.407711124525
 31
0.0
  0
ARC
  5
1C8CDE6AC29B
330
1C8CDE699D53
100
AcDbEntity
  8
SJC
100
AcDbCircle
 10
1947.669690305253
 20
1643.411812739662
 30
0.0
 40
2.0
100
AcDbArc
 50
299.9999999999949
 51
0.0
  0
ARC
  5
1C8CDE6AC29C
330
1C8CDE699D53
100
AcDbEntity
  8
SJC
100
AcDbCircle
 10
1949.669690305253
 20
1639.947711124525
 30
0.0
 40
2.0
100
AcDbArc
 50
119.9999999999916
 51
180.0
  0
ARC
  5
1C8CDE6AC29E
330
1C8CDE699D53
100
AcDbEntity
  8
SJC
100
AcDbCircle
 10
2061.969690305253
 20
1643.411812739661
 30
0.0
 40
2.0
100
AcDbArc
 50
180.0
 51
239.9999999999793
  0
ARC
  5
1C8CDE6AC29F
330
1C8CDE699D53
100
AcDbEntity
  8
SJC
100
AcDbCircle
 10
2059.969690305252
 20
1639.947711124524
 30
0.0
 40
2.0
100
AcDbArc
 50
0.0
 51
59.99999999998492
  0
ARC
  5
1C8CDE6AC2A0
330
1C8CDE699D53
100
AcDbEntity
  8
SJC
100
AcDbCircle
 10
2004.819690305255
 20
1805.707711124524
 30
0.0
 40
57.7
100
AcDbArc
 50
0.0
 51
180.0
  0
LINE
  5
1C8CDE6AC2A1
330
1C8CDE699D53
100
AcDbEntity
  8
SJC
100
AcDbLine
 10
2061.519690305254
 20
1763.407711124524
 30
0.0
 11
1948.119690305254
 21
1763.407711124524
 31
0.0
  0
LINE
  5
1C8CDE6AC2A2
330
1C8CDE699D53
100
AcDbEntity
  8
SJC
100
AcDbLine
 10
1947.119690305253
 20
1805.707711124524
 30
0.0
 11
1947.119690305255
 21
1764.407711124525
 31
0.0
  0
LINE
  5
1C8CDE6AC2A3
330
1C8CDE699D53
100
AcDbEntity
  8
SJC
100
AcDbLine
 10
1947.119690305255
 20
1764.407711124524
 30
0.0
 11
1948.119690305254
 21
1763.407711124524
 31
0.0
  0
LINE
  5
1C8CDE6AC2A4
330
1C8CDE699D53
100
AcDbEntity
  8
SJC
100
AcDbLine
 10
2062.519690305254
 20
1805.707711124524
 30
0.0
 11
2062.519690305254
 21
1764.407711124524
 31
0.0
  0
LINE
  5
1C8CDE6AC2A5
330
1C8CDE699D53
100
AcDbEntity
  8
SJC
100
AcDbLine
 10
2062.519690305254
 20
1764.407711124524
 30
0.0
 11
2061.519690305254
 21
1763.407711124524
 31
0.0
  0
LINE
  5
1C8CDE6AC2A7
330
1C8CDE699D53
100
AcDbEntity
  8
SJC
100
AcDbLine
 10
2061.969690305252
 20
1639.947711124524
 30
0.0
 11
2061.969690305252
 21
1063.485233962375
 31
0.0
  0
LINE
  5
1C8CDE6AC2A8
330
1C8CDE699D53
100
AcDbEntity
  8
SJC
100
AcDbLine
 10
1947.669690305253
 20
1639.947711124525
 30
0.0
 11
1947.669690305252
 21
1063.483218511149
 31
0.0
  0
LINE
  5
1C8CDE6AC2A9
330
1C8CDE699D53
100
AcDbEntity
  8
SJC
100
AcDbLine
 10
1947.669690305252
 20
997.9068466827319
 30
0.0
 11
1947.669690305252
 21
963.4077111245243
 31
0.0
  0
LINE
  5
1C8CDE6AC2AA
330
1C8CDE699D53
100
AcDbEntity
  8
SJC
100
AcDbLine
 10
2061.969690305252
 20
997.9048257103714
 30
0.0
 11
2061.969690305252
 21
963.4077111245243
 31
0.0
  0
LINE
  5
1C8CDE6AC3D9
330
1C8CDE699D53
100
AcDbEntity
  8
CENTER
100
AcDbLine
 10
3028.406424969392
 20
1525.366500920757
 30
0.0
 11
3028.406424969392
 21
1505.305633126236
 31
0.0
  0
LINE
  5
1C8CDE6AC3DA
330
1C8CDE699D53
100
AcDbEntity
  8
CENTER
100
AcDbLine
 10
3028.406424969392
 20
1517.936073023497
 30
0.0
 11
3028.406424969392
 21
1512.736061023496
 31
0.0
  0
CIRCLE
  5
1C8CDE6AC3DB
330
1C8CDE699D53
100
AcDbEntity
  8
SJC
  6
Continuous
100
AcDbCircle
 10
3028.406424969392
 20
1515.336067023496
 30
0.0
 40
4.75
  0
ARC
  5
1C8CDE6AC3DC
330
1C8CDE699D53
100
AcDbEntity
  8
SJC
  6
Continuous
100
AcDbCircle
 10
3026.341824969391
 20
1515.336067023496
 30
0.0
 40
1.0
100
AcDbArc
 50
315.0000000000072
 51
44.99999999999274
  0
ARC
  5
1C8CDE6AC3DD
330
1C8CDE699D53
100
AcDbEntity
  8
SJC
  6
Continuous
100
AcDbCircle
 10
3030.471024969391
 20
1515.336067023496
 30
0.0
 40
1.0
100
AcDbArc
 50
134.9999990000044
 51
224.9999999999928
  0
LINE
  5
1C8CDE6AC3DE
330
1C8CDE699D53
100
AcDbEntity
  8
CENTER
100
AcDbLine
 10
3028.406424969392
 20
1525.366500920757
 30
0.0
 11
3028.406424969392
 21
1505.305633126236
 31
0.0
  0
LINE
  5
1C8CDE6AC3DF
330
1C8CDE699D53
100
AcDbEntity
  8
SJC
100
AcDbLine
 10
3008.906424969391
 20
1523.336067023496
 30
0.0
 11
3008.906424969391
 21
1507.818667023497
 31
0.0
  0
DIMENSION
  5
1C8CDE6AC3E0
330
1C8CDE699D53
100
AcDbEntity
  8
SUNPOU
100
AcDbDimension
  2
*D10
 10
3254.506424969392
 20
1125.336067023496
 30
0.0
 11
3227.506424969391
 21
1325.336067023497
 31
0.0
 70
    32
 71
     5
 42
400.0
  3
SJC
100
AcDbAlignedDimension
 13
3181.906424969391
 23
1525.336067023497
 33
0.0
 14
3167.506384969392
 24
1125.336067023496
 34
0.0
 50
270.0
100
AcDbRotatedDimension
1001
ACAD
1000
DSTYLE
1002
{
1070
    41
1040
2.0
1070
   271
1070
     2
1070
    43
1040
6.0
1070
    44
1040
1.0
1070
    42
1040
1.0
1070
   147
1040
1.199999999999999
1070
    40
1040
10.0
1070
   340
1005
1C8CDE699DA6
1070
   140
1040
3.0
1002
}
  0
LINE
  5
1C8CDE6AC3E1
330
1C8CDE699D53
100
AcDbEntity
  8
CENTER
100
AcDbLine
 10
3106.906424969392
 20
1094.360877309381
 30
0.0
 11
3106.906424969392
 21
1688.97632584475
 31
0.0
  0
LINE
  5
1C8CDE6AC3E2
330
1C8CDE699D53
100
AcDbEntity
  8
HASEN
100
AcDbLine
 10
3165.906384969391
 20
1517.336067023497
 30
0.0
 11
3165.906384969392
 21
1125.336067023496
 31
0.0
  0
LINE
  5
1C8CDE6AC3E3
330
1C8CDE699D53
100
AcDbEntity
  8
HASEN
100
AcDbLine
 10
2907.344499742767
 20
1517.336047023496
 30
0.0
 11
2907.344499742767
 21
1125.336047023496
 31
0.0
  0
LINE
  5
1C8CDE6AC3E4
330
1C8CDE699D53
100
AcDbEntity
  8
HASEN
100
AcDbLine
 10
2789.344559742767
 20
1517.336047023496
 30
0.0
 11
2789.344559742767
 21
1125.336047023496
 31
0.0
  0
LINE
  5
1C8CDE6AC3E5
330
1C8CDE699D53
100
AcDbEntity
  8
SJC
100
AcDbLine
 10
3048.30644496939
 20
1517.336067023497
 30
0.0
 11
3048.30644496939
 21
1483.469407023497
 31
0.0
  0
LINE
  5
1C8CDE6AC3E6
330
1C8CDE699D53
100
AcDbEntity
  8
SJC
100
AcDbLine
 10
3167.506384969391
 20
1517.336067023497
 30
0.0
 11
3167.506384969392
 21
1125.336067023496
 31
0.0
  0
LINE
  5
1C8CDE6AC3E7
330
1C8CDE699D53
100
AcDbEntity
  8
CENTER
100
AcDbLine
 10
2848.344519742767
 20
1094.360877309381
 30
0.0
 11
2848.344519742767
 21
1688.97632584475
 31
0.0
  0
LINE
  5
1C8CDE6AC3E8
330
1C8CDE699D53
100
AcDbEntity
  8
SJC
100
AcDbLine
 10
2833.044519742767
 20
1523.336047023496
 30
0.0
 11
2833.044519742767
 21
1483.469387023497
 31
0.0
  0
LINE
  5
1C8CDE6AC3E9
330
1C8CDE699D53
100
AcDbEntity
  8
SJC
100
AcDbLine
 10
2863.644519742768
 20
1523.336047023496
 30
0.0
 11
2863.644519742768
 21
1483.469387023497
 31
0.0
  0
LINE
  5
1C8CDE6AC3EA
330
1C8CDE699D53
100
AcDbEntity
  8
SJC
100
AcDbLine
 10
2908.944499742768
 20
1517.336047023496
 30
0.0
 11
2908.944499742768
 21
1125.336047023496
 31
0.0
  0
LINE
  5
1C8CDE6AC3EB
330
1C8CDE699D53
100
AcDbEntity
  8
SJC
100
AcDbLine
 10
2787.744559742767
 20
1517.336047023496
 30
0.0
 11
2787.744559742767
 21
1125.336047023496
 31
0.0
  0
LINE
  5
1C8CDE6AC3EC
330
1C8CDE699D53
100
AcDbEntity
  8
SJC2
100
AcDbLine
 10
2834.765482021961
 20
1504.999786740033
 30
0.0
 11
2861.923557463573
 21
1504.999786740033
 31
0.0
  0
LINE
  5
1C8CDE6AC3ED
330
1C8CDE699D53
100
AcDbEntity
  8
SJC
100
AcDbLine
 10
2863.644519742768
 20
1483.469387023497
 30
0.0
 11
2833.044519742767
 21
1483.469387023497
 31
0.0
  0
LINE
  5
1C8CDE6AC3EE
330
1C8CDE699D53
100
AcDbEntity
  8
SJC
100
AcDbLine
 10
2785.844519742767
 20
1123.736067023497
 30
0.0
 11
2910.844519742767
 21
1123.736067023497
 31
0.0
  0
LINE
  5
1C8CDE6AC3EF
330
1C8CDE699D53
100
AcDbEntity
  8
SJC
100
AcDbLine
 10
2785.844519742767
 20
1125.336047023496
 30
0.0
 11
2910.844519742767
 21
1125.336047023496
 31
0.0
  0
DIMENSION
  5
1C8CDE6AC3F0
330
1C8CDE699D53
100
AcDbEntity
  8
SUNPOU
100
AcDbDimension
  2
*D11
 10
2910.844519742767
 20
975.1814233276686
 30
0.0
 11
2848.344519742767
 21
1033.450873514303
 31
0.0
 70
   160
  1
%%C<>\X（底板径）
 71
     5
 42
125.0
  3
SJC
100
AcDbAlignedDimension
 13
2785.844519742767
 23
1123.736067023497
 33
0.0
 14
2910.844519742767
 24
1123.736067023497
 34
0.0
100
AcDbRotatedDimension
1001
ACAD
1000
DSTYLE
1002
{
1070
    41
1040
2.0
1070
   271
1070
     2
1070
    43
1040
6.0
1070
    44
1040
1.0
1070
    42
1040
1.0
1070
   147
1040
0.6
1070
    40
1040
10.0
1070
    77
1070
     0
1070
   145
1040
1.0
1070
   340
1005
1C8CDE699DA6
1070
   140
1040
3.0
1002
}
  0
LINE
  5
1C8CDE6AC3F1
330
1C8CDE699D53
100
AcDbEntity
  8
MOJI
100
AcDbLine
 10
2710.429911828139
 20
1385.345938805083
 30
0.0
 11
2514.826768317942
 21
1385.345938805083
 31
0.0
  0
TEXT
  5
1C8CDE6AC3F2
330
1C8CDE699D53
100
AcDbEntity
  8
MOJI
100
AcDbText
 10
2515.973989631811
 20
1395.345938805083
 30
0.0
 40
30.0
  1
サヤ管 %%C121
 41
0.8
  7
EXT08
 72
     2
 11
2696.773989631811
 21
1410.345938805083
 31
0.0
100
AcDbText
 73
     2
  0
LINE
  5
1C8CDE6AC3F3
330
1C8CDE699D53
100
AcDbEntity
  8
SJC
100
AcDbLine
 10
2785.844519742767
 20
1125.336047023496
 30
0.0
 11
2785.844519742767
 21
1123.736067023497
 31
0.0
  0
LINE
  5
1C8CDE6AC3F4
330
1C8CDE699D53
100
AcDbEntity
  8
HASEN
100
AcDbLine
 10
3047.906444969391
 20
1483.743167023497
 30
0.0
 11
3047.906444969391
 21
1125.336067023496
 31
0.0
  0
LINE
  5
1C8CDE6AC3F5
330
1C8CDE699D53
100
AcDbEntity
  8
SJC
100
AcDbLine
 10
3046.306444969391
 20
1483.743167023497
 30
0.0
 11
3046.306444969391
 21
1125.336067023496
 31
0.0
  0
LINE
  5
1C8CDE6AC3F6
330
1C8CDE699D53
100
AcDbEntity
  8
SJC
100
AcDbLine
 10
2910.844519742767
 20
1125.336047023496
 30
0.0
 11
2910.844519742767
 21
1123.736067023497
 31
0.0
  0
LINE
  5
1C8CDE6AC3F7
330
1C8CDE699D53
100
AcDbEntity
  8
SJC
100
AcDbLine
 10
3156.906424969391
 20
1123.736067023497
 30
0.0
 11
3056.906424969391
 21
1123.736067023497
 31
0.0
  0
LINE
  5
1C8CDE6AC3F8
330
1C8CDE699D53
100
AcDbEntity
  8
SJC
100
AcDbLine
 10
3167.506384969392
 20
1125.336047023496
 30
0.0
 11
3046.306444969391
 21
1125.336047023496
 31
0.0
  0
LINE
  5
1C8CDE6AC3F9
330
1C8CDE699D53
100
AcDbEntity
  8
SJC
100
AcDbLine
 10
3056.906424969391
 20
1123.736067023497
 30
0.0
 11
3056.906424969391
 21
1125.336047023496
 31
0.0
  0
LINE
  5
1C8CDE6AC3FA
330
1C8CDE699D53
100
AcDbEntity
  8
SJC
100
AcDbLine
 10
3156.906424969391
 20
1123.736067023497
 30
0.0
 11
3156.906424969391
 21
1125.336047023496
 31
0.0
  0
LINE
  5
1C8CDE6AC3FB
330
1C8CDE699D53
100
AcDbEntity
  8
CENTER
100
AcDbLine
 10
3018.375991072131
 20
1515.336067023496
 30
0.0
 11
3038.436858866651
 21
1515.336067023496
 31
0.0
  0
LINE
  5
1C8CDE6AC3FC
330
1C8CDE699D53
100
AcDbEntity
  8
CENTER
100
AcDbLine
 10
3018.375991072131
 20
1515.336067023496
 30
0.0
 11
3038.436858866651
 21
1515.336067023496
 31
0.0
  0
LINE
  5
1C8CDE6AC3FD
330
1C8CDE699D53
100
AcDbEntity
  8
SJC
100
AcDbLine
 10
3046.780564969391
 20
1483.469407023497
 30
0.0
 11
3011.056324969392
 21
1504.094787023497
 31
0.0
  0
ARC
  5
1C8CDE6AC3FE
330
1C8CDE699D53
100
AcDbEntity
  8
SJC
100
AcDbCircle
 10
3013.206464969391
 20
1507.818667023497
 30
0.0
 40
4.3000002
100
AcDbArc
 50
180.0
 51
240.0
  0
LINE
  5
1C8CDE6AC3FF
330
1C8CDE699D53
100
AcDbEntity
  8
CENTER
100
AcDbLine
 10
3031.006424969392
 20
1515.336067023496
 30
0.0
 11
3025.806424969391
 21
1515.336067023496
 31
0.0
  0
LINE
  5
1C8CDE6AC400
330
1C8CDE699D53
100
AcDbEntity
  8
SJC
  6
Continuous
100
AcDbLine
 10
3030.177424969392
 20
1512.914597023497
 30
0.0
 11
3029.113424969392
 21
1513.978455023497
 31
0.0
  0
LINE
  5
1C8CDE6AC401
330
1C8CDE699D53
100
AcDbEntity
  8
SJC
  6
Continuous
100
AcDbLine
 10
3030.828024969391
 20
1513.565171023496
 30
0.0
 11
3029.764024969391
 21
1514.629021023497
 31
0.0
  0
LINE
  5
1C8CDE6AC402
330
1C8CDE699D53
100
AcDbEntity
  8
SJC
  6
Continuous
100
AcDbLine
 10
3027.699424969391
 20
1513.978455023497
 30
0.0
 11
3026.63542496939
 21
1512.914597023497
 31
0.0
  0
LINE
  5
1C8CDE6AC403
330
1C8CDE699D53
100
AcDbEntity
  8
SJC
  6
Continuous
100
AcDbLine
 10
3027.048824969392
 20
1514.628937023497
 30
0.0
 11
3025.98502496939
 21
1513.565087023497
 31
0.0
  0
ARC
  5
1C8CDE6AC404
330
1C8CDE699D53
100
AcDbEntity
  8
SJC
  6
Continuous
100
AcDbCircle
 10
3028.406424969392
 20
1515.336067023496
 30
0.0
 40
3.0
100
AcDbArc
 50
306.1798499999858
 51
323.8201500000045
  0
ARC
  5
1C8CDE6AC405
330
1C8CDE699D53
100
AcDbEntity
  8
SJC
  6
Continuous
100
AcDbCircle
 10
3028.406424969392
 20
1515.336067023496
 30
0.0
 40
3.0
100
AcDbArc
 50
216.1798499999955
 51
233.8201500000141
  0
ARC
  5
1C8CDE6AC406
330
1C8CDE699D53
100
AcDbEntity
  8
SJC
  6
Continuous
100
AcDbCircle
 10
3028.406424969392
 20
1513.271317023496
 30
0.0
 40
1.0
100
AcDbArc
 50
44.99999999999274
 51
134.9999990000044
  0
LINE
  5
1C8CDE6AC407
330
1C8CDE699D53
100
AcDbEntity
  8
SJC
100
AcDbLine
 10
3048.30644496939
 20
1483.469407023497
 30
0.0
 11
3046.306444969391
 21
1483.469407023497
 31
0.0
  0
LINE
  5
1C8CDE6AC408
330
1C8CDE699D53
100
AcDbEntity
  8
SJC2
100
AcDbLine
 10
2852.973789742767
 20
1527.947886023496
 30
0.0
 11
2857.846169742767
 21
1527.947886023496
 31
0.0
  0
ARC
  5
1C8CDE6AC409
330
1C8CDE699D53
100
AcDbEntity
  8
SJC2
100
AcDbCircle
 10
2864.977389742767
 20
1534.108765023496
 30
0.0
 40
10.0
100
AcDbArc
 50
105.5614500000036
 51
164.9999900000045
  0
LINE
  5
1C8CDE6AC40A
330
1C8CDE699D53
100
AcDbEntity
  8
SJC
100
AcDbLine
 10
2781.228199742767
 20
1517.336047023496
 30
0.0
 11
2915.460839742767
 21
1517.336047023496
 31
0.0
  0
ARC
  5
1C8CDE6AC40B
330
1C8CDE699D53
100
AcDbEntity
  8
SJC2
100
AcDbCircle
 10
2848.344519742767
 20
1593.836047023496
 30
0.0
 40
52.0
100
AcDbArc
 50
180.0
 51
0.0
  0
ARC
  5
1C8CDE6AC40C
330
1C8CDE699D53
100
AcDbEntity
  8
SJC2
100
AcDbCircle
 10
2848.344519742764
 20
1591.278680484605
 30
0.0
 40
52.06284782466878
100
AcDbArc
 50
2.815545131476921
 51
177.1844548685226
  0
ARC
  5
1C8CDE6AC40D
330
1C8CDE699D53
100
AcDbEntity
  8
SJC2
100
AcDbCircle
 10
2848.344519742765
 20
1591.307976397191
 30
0.0
 40
55.05807062631134
100
AcDbArc
 50
2.631743565753475
 51
177.3682564342463
  0
ARC
  5
1C8CDE6AC40E
330
1C8CDE699D53
100
AcDbEntity
  8
SJC2
100
AcDbCircle
 10
2848.344519742765
 20
1591.317542504798
 30
0.0
 40
66.54767362583673
100
AcDbArc
 50
2.168883442013807
 51
177.831116557986
  0
LINE
  5
1C8CDE6AC40F
330
1C8CDE699D53
100
AcDbEntity
  8
SJC
100
AcDbLine
 10
2773.344519742768
 20
1525.336047023496
 30
0.0
 11
2923.344519742768
 21
1525.336047023496
 31
0.0
  0
LINE
  5
1C8CDE6AC410
330
1C8CDE699D53
100
AcDbEntity
  8
SJC
100
AcDbLine
 10
2773.344519742768
 20
1523.336047023496
 30
0.0
 11
2923.344519742768
 21
1523.336047023496
 31
0.0
  0
DIMENSION
  5
1C8CDE6AC411
330
1C8CDE699D53
100
AcDbEntity
  8
SUNPOU
100
AcDbDimension
  2
*D12
 10
2773.344519742768
 20
1808.468087023495
 30
0.0
 11
2848.344519742767
 21
1835.468087023495
 31
0.0
 70
    32
  1
%%C<>
 71
     5
 42
150.0
  3
SJC
100
AcDbAlignedDimension
 13
2923.344519742768
 23
1525.336047023498
 33
0.0
 14
2773.344519742768
 24
1525.336047023496
 34
0.0
100
AcDbRotatedDimension
1001
ACAD
1000
DSTYLE
1002
{
1070
    41
1040
2.0
1070
   271
1070
     2
1070
    43
1040
6.0
1070
    44
1040
1.0
1070
    42
1040
1.0
1070
   147
1040
1.199999999999999
1070
    40
1040
10.0
1070
   340
1005
1C8CDE699DA6
1070
   140
1040
3.0
1002
}
  0
DIMENSION
  5
1C8CDE6AC412
330
1C8CDE699D53
100
AcDbEntity
  8
SUNPOU
100
AcDbDimension
  2
*D13
 10
2914.844519742768
 20
1708.468087023496
 30
0.0
 11
2848.358021914011
 21
1735.468087023496
 31
0.0
 70
    32
  1
%%C133
 71
     5
 42
132.9729956575138
  3
SJC
100
AcDbAlignedDimension
 13
2781.871524085254
 23
1591.941093642492
 33
0.0
 14
2914.844519742768
 24
1593.836047023471
 34
0.0
100
AcDbRotatedDimension
1001
ACAD
1000
DSTYLE
1002
{
1070
    41
1040
2.0
1070
   271
1070
     2
1070
    43
1040
6.0
1070
    44
1040
1.0
1070
    42
1040
1.0
1070
   147
1040
1.199999999999999
1070
    40
1040
10.0
1070
   340
1005
1C8CDE699DA6
1070
   140
1040
3.0
1002
}
  0
LINE
  5
1C8CDE6AC413
330
1C8CDE699D53
100
AcDbEntity
  8
MOJI
100
AcDbLine
 10
2710.408559635175
 20
1730.127171252677
 30
0.0
 11
2558.026672578861
 21
1730.127171252677
 31
0.0
  0
TEXT
  5
1C8CDE6AC414
330
1C8CDE699D53
100
AcDbEntity
  8
MOJI
100
AcDbText
 10
2557.376586741023
 20
1740.127171252677
 30
0.0
 40
30.0
  1
サヤ管フタ
 41
0.8
  7
EXT08
 72
     2
 11
2692.576586741023
 21
1755.127171252677
 31
0.0
100
AcDbText
 73
     2
  0
ARC
  5
1C8CDE6AC415
330
1C8CDE699D53
100
AcDbEntity
  8
SJC2
100
AcDbCircle
 10
2848.344519742768
 20
1626.866047023497
 30
0.0
 40
7.5
100
AcDbArc
 50
6.921534732531314
 51
173.0784652674481
  0
ARC
  5
1C8CDE6AC416
330
1C8CDE699D53
100
AcDbEntity
  8
SJC2
100
AcDbCircle
 10
2848.344519742767
 20
1593.836047023496
 30
0.0
 40
66.5
100
AcDbArc
 50
180.0
 51
261.4803799999896
  0
LINE
  5
1C8CDE6AC417
330
1C8CDE699D53
100
AcDbEntity
  8
SJC
100
AcDbLine
 10
2773.344519742768
 20
1525.336047023496
 30
0.0
 11
2773.344519742768
 21
1523.336047023496
 31
0.0
  0
ARC
  5
1C8CDE6AC418
330
1C8CDE699D53
100
AcDbEntity
  8
SJC2
100
AcDbCircle
 10
2848.344519742767
 20
1593.836047023496
 30
0.0
 40
55.0
100
AcDbArc
 50
180.0
 51
261.4498899999897
  0
ARC
  5
1C8CDE6AC419
330
1C8CDE699D53
100
AcDbEntity
  8
SJC
100
AcDbCircle
 10
2776.934859742767
 20
1522.336047023496
 30
0.0
 40
1.0
100
AcDbArc
 50
14.99999999999925
 51
90.00000300001072
  0
ARC
  5
1C8CDE6AC41A
330
1C8CDE699D53
100
AcDbEntity
  8
SJC
100
AcDbCircle
 10
2781.228199742767
 20
1519.836047023497
 30
0.0
 40
2.5
100
AcDbArc
 50
195.0000099999955
 51
270.0
  0
LINE
  5
1C8CDE6AC41B
330
1C8CDE699D53
100
AcDbEntity
  8
SJC
100
AcDbLine
 10
2777.900799742767
 20
1522.594907023496
 30
0.0
 11
2778.813399742767
 21
1519.188987023496
 31
0.0
  0
ARC
  5
1C8CDE6AC41C
330
1C8CDE699D53
100
AcDbEntity
  8
SJC2
100
AcDbCircle
 10
2854.344519742767
 20
1525.336047023496
 30
0.0
 40
2.0
100
AcDbArc
 50
164.9999900000045
 51
180.0
  0
LINE
  5
1C8CDE6AC41D
330
1C8CDE699D53
100
AcDbEntity
  8
SJC2
100
AcDbLine
 10
2839.344519742768
 20
1527.080897023497
 30
0.0
 11
2839.344519742768
 21
1525.336047023496
 31
0.0
  0
ARC
  5
1C8CDE6AC41E
330
1C8CDE699D53
100
AcDbEntity
  8
SJC2
100
AcDbCircle
 10
2842.344519742767
 20
1525.336047023496
 30
0.0
 40
2.0
100
AcDbArc
 50
0.0
 51
14.99999999999925
  0
LINE
  5
1C8CDE6AC41F
330
1C8CDE699D53
100
AcDbEntity
  8
SJC2
100
AcDbLine
 10
2838.842869742767
 20
1527.947886023496
 30
0.0
 11
2843.715249742767
 21
1527.947886023496
 31
0.0
  0
LINE
  5
1C8CDE6AC420
330
1C8CDE699D53
100
AcDbEntity
  8
SJC2
100
AcDbLine
 10
2841.370949742767
 20
1536.696963023497
 30
0.0
 11
2844.276399742767
 21
1525.853688023496
 31
0.0
  0
ARC
  5
1C8CDE6AC421
330
1C8CDE699D53
100
AcDbEntity
  8
SJC2
100
AcDbCircle
 10
2838.344519742767
 20
1527.080897023497
 30
0.0
 40
1.0
100
AcDbArc
 50
0.0000025044777
 51
81.48037999998958
  0
LINE
  5
1C8CDE6AC422
330
1C8CDE699D53
100
AcDbEntity
  8
SJC2
100
AcDbLine
 10
2855.318089742766
 20
1536.696961023496
 30
0.0
 11
2852.412639742767
 21
1525.853685023496
 31
0.0
  0
ARC
  5
1C8CDE6AC423
330
1C8CDE699D53
100
AcDbEntity
  8
SJC2
100
AcDbCircle
 10
2831.711649742767
 20
1534.108765023496
 30
0.0
 40
10.0
100
AcDbArc
 50
14.99999999999925
 51
74.4385429999998
  0
ARC
  5
1C8CDE6AC424
330
1C8CDE699D53
100
AcDbEntity
  8
SJC2
100
AcDbCircle
 10
2848.344519742768
 20
1611.866047023497
 30
0.0
 40
7.5
100
AcDbArc
 50
187.4412803380853
 51
352.5587196619351
  0
LINE
  5
1C8CDE6AC425
330
1C8CDE699D53
100
AcDbEntity
  8
SJC2
100
AcDbLine
 10
2840.90768391298
 20
1610.89472172229
 30
0.0
 11
2840.90460139162
 21
1617.010849439143
 31
0.0
  0
LINE
  5
1C8CDE6AC426
330
1C8CDE699D53
100
AcDbEntity
  8
HASEN
100
AcDbLine
 10
2840.904601391618
 20
1617.010849439145
 30
0.0
 11
2840.899178856716
 21
1627.76987172469
 31
0.0
  0
LINE
  5
1C8CDE6AC427
330
1C8CDE699D53
100
AcDbEntity
  8
SJC2
100
AcDbLine
 10
2855.784438093919
 20
1617.010849439145
 30
0.0
 11
2855.781355572559
 21
1610.894721722293
 31
0.0
  0
LINE
  5
1C8CDE6AC428
330
1C8CDE699D53
100
AcDbEntity
  8
HASEN
100
AcDbLine
 10
2855.784438093919
 20
1617.010849439145
 30
0.0
 11
2855.78986062882
 21
1627.76987172469
 31
0.0
  0
ARC
  5
1C8CDE6AC429
330
1C8CDE699D53
100
AcDbEntity
  8
KASOU
 48
0.5
100
AcDbCircle
 10
3028.560508325061
 20
1515.403493325678
 30
0.0
 40
143.4670059833463
100
AcDbArc
 50
3.969903438299374
 51
81.81807838509675
  0
DIMENSION
  5
1C8CDE6AC42A
330
1C8CDE699D53
100
AcDbEntity
  8
SUNPOU
100
AcDbDimension
  2
*D14
 10
3006.906424969391
 20
1708.468107023495
 30
0.0
 11
3094.406424969391
 21
1735.468107023495
 31
0.0
 70
    32
 71
     5
 42
175.0
  3
SJC
100
AcDbAlignedDimension
 13
3181.906424969391
 23
1525.336067023497
 33
0.0
 14
3006.906424969391
 24
1525.336067023497
 34
0.0
100
AcDbRotatedDimension
1001
ACAD
1000
DSTYLE
1002
{
1070
    41
1040
2.0
1070
   271
1070
     2
1070
    43
1040
6.0
1070
    44
1040
1.0
1070
    42
1040
1.0
1070
   147
1040
1.199999999999999
1070
    40
1040
10.0
1070
   340
1005
1C8CDE699DA6
1070
   140
1040
3.0
1002
}
  0
LINE
  5
1C8CDE6AC42B
330
1C8CDE699D53
100
AcDbEntity
  8
SJC2
100
AcDbLine
 10
3023.809214278736
 20
1541.505940492617
 30
0.0
 11
3020.015904282465
 21
1525.336067023497
 31
0.0
  0
LINE
  5
1C8CDE6AC42C
330
1C8CDE699D53
100
AcDbEntity
  8
SJC
100
AcDbLine
 10
3181.906424969391
 20
1525.336067023497
 30
0.0
 11
3006.906424969391
 21
1525.336067023497
 31
0.0
  0
LINE
  5
1C8CDE6AC42D
330
1C8CDE699D53
100
AcDbEntity
  8
SJC
100
AcDbLine
 10
3181.906424969391
 20
1523.336067023496
 30
0.0
 11
3006.906424969391
 21
1523.336067023496
 31
0.0
  0
ARC
  5
1C8CDE6AC42E
330
1C8CDE699D53
100
AcDbEntity
  8
SJC2
100
AcDbCircle
 10
2848.344519742767
 20
1593.836047023496
 30
0.0
 40
55.0
100
AcDbArc
 50
278.5501100000104
 51
0.0
  0
ARC
  5
1C8CDE6AC42F
330
1C8CDE699D53
100
AcDbEntity
  8
SJC2
100
AcDbCircle
 10
2848.344519742767
 20
1593.836047023496
 30
0.0
 40
66.5
100
AcDbArc
 50
278.5196200000104
 51
0.0
  0
LINE
  5
1C8CDE6AC430
330
1C8CDE699D53
100
AcDbEntity
  8
SJC2
100
AcDbLine
 10
2857.344519742767
 20
1527.080897023497
 30
0.0
 11
2857.344519742767
 21
1525.336047023496
 31
0.0
  0
ARC
  5
1C8CDE6AC431
330
1C8CDE699D53
100
AcDbEntity
  8
SJC2
100
AcDbCircle
 10
2858.344519742767
 20
1527.080897023497
 30
0.0
 40
1.0
100
AcDbArc
 50
98.51961799999347
 51
179.99999
  0
LINE
  5
1C8CDE6AC432
330
1C8CDE699D53
100
AcDbEntity
  8
SJC
100
AcDbLine
 10
2923.344519742768
 20
1525.336047023497
 30
0.0
 11
2923.344519742768
 21
1523.336047023497
 31
0.0
  0
ARC
  5
1C8CDE6AC433
330
1C8CDE699D53
100
AcDbEntity
  8
SJC
100
AcDbCircle
 10
2919.754179742767
 20
1522.336047023497
 30
0.0
 40
1.0
100
AcDbArc
 50
89.99999699998928
 51
165.0000000000008
  0
ARC
  5
1C8CDE6AC434
330
1C8CDE699D53
100
AcDbEntity
  8
SJC
100
AcDbCircle
 10
2915.460839742767
 20
1519.836047023497
 30
0.0
 40
2.5
100
AcDbArc
 50
270.0
 51
344.9999900000046
  0
LINE
  5
1C8CDE6AC435
330
1C8CDE699D53
100
AcDbEntity
  8
SJC
100
AcDbLine
 10
2918.788239742768
 20
1522.594907023497
 30
0.0
 11
2917.875639742768
 21
1519.188987023497
 31
0.0
  0
LINE
  5
1C8CDE6AC436
330
1C8CDE699D53
100
AcDbEntity
  8
SJC
100
AcDbLine
 10
3006.906424969391
 20
1525.336067023497
 30
0.0
 11
3006.906424969391
 21
1523.336067023496
 31
0.0
  0
LINE
  5
1C8CDE6AC437
330
1C8CDE699D53
100
AcDbEntity
  8
SJC2
100
AcDbLine
 10
3041.398000549474
 20
1642.95711493917
 30
0.0
 11
3023.809214278736
 21
1541.505940492617
 31
0.0
  0
LINE
  5
1C8CDE6AC438
330
1C8CDE699D53
100
AcDbEntity
  8
SJC2
100
AcDbLine
 10
3048.978248436455
 20
1657.410175191599
 30
0.0
 11
3026.404480250858
 21
1527.207139836561
 31
0.0
  0
LINE
  5
1C8CDE6AC439
330
1C8CDE699D53
100
AcDbEntity
  8
SJC2
100
AcDbLine
 10
3047.007645747918
 20
1657.751825662002
 30
0.0
 11
3024.496518105676
 21
1527.910094136008
 31
0.0
  0
LINE
  5
1C8CDE6AC43A
330
1C8CDE699D53
100
AcDbEntity
  8
SJC
100
AcDbLine
 10
3164.056694801491
 20
1525.336067023497
 30
0.0
 11
3049.75615513729
 21
1525.336067023497
 31
0.0
  0
LINE
  5
1C8CDE6AC43B
330
1C8CDE699D53
100
AcDbEntity
  8
SJC
100
AcDbLine
 10
3174.02274496939
 20
1517.336067023497
 30
0.0
 11
3041.290084969391
 21
1517.336067023497
 31
0.0
  0
LINE
  5
1C8CDE6AC43C
330
1C8CDE699D53
100
AcDbEntity
  8
SJC
  6
Continuous
100
AcDbLine
 10
3030.177424969392
 20
1517.757575023497
 30
0.0
 11
3029.11362496939
 21
1516.693717023497
 31
0.0
  0
LINE
  5
1C8CDE6AC43D
330
1C8CDE699D53
100
AcDbEntity
  8
SJC
  6
Continuous
100
AcDbLine
 10
3030.828024969391
 20
1517.107093023497
 30
0.0
 11
3029.764024969391
 21
1516.043235023497
 31
0.0
  0
LINE
  5
1C8CDE6AC43E
330
1C8CDE699D53
100
AcDbEntity
  8
SJC
  6
Continuous
100
AcDbLine
 10
3027.048824969392
 20
1516.043151023497
 30
0.0
 11
3025.98502496939
 21
1517.107003023497
 31
0.0
  0
LINE
  5
1C8CDE6AC43F
330
1C8CDE699D53
100
AcDbEntity
  8
SJC
  6
Continuous
100
AcDbLine
 10
3027.699424969391
 20
1516.693717023497
 30
0.0
 11
3026.63542496939
 21
1517.757575023497
 31
0.0
  0
ARC
  5
1C8CDE6AC440
330
1C8CDE699D53
100
AcDbEntity
  8
SJC
  6
Continuous
100
AcDbCircle
 10
3028.406424969392
 20
1515.336067023496
 30
0.0
 40
3.0
100
AcDbArc
 50
126.1798510000067
 51
143.8201459999962
  0
ARC
  5
1C8CDE6AC441
330
1C8CDE699D53
100
AcDbEntity
  8
SJC
  6
Continuous
100
AcDbCircle
 10
3028.406424969392
 20
1515.336067023496
 30
0.0
 40
3.0
100
AcDbArc
 50
36.17984999999552
 51
53.82015000001413
  0
ARC
  5
1C8CDE6AC442
330
1C8CDE699D53
100
AcDbEntity
  8
SJC
  6
Continuous
100
AcDbCircle
 10
3028.406424969392
 20
1517.400817023497
 30
0.0
 40
1.0
100
AcDbArc
 50
224.9999999999928
 51
315.0000000000072
  0
LINE
  5
1C8CDE6AC443
330
1C8CDE699D53
100
AcDbEntity
  8
HASEN
100
AcDbLine
 10
3020.689165829367
 20
1525.336067023496
 30
0.0
 11
3021.589457947001
 21
1525.815577410306
 31
0.0
  0
ARC
  5
1C8CDE6AC444
330
1C8CDE699D53
100
AcDbEntity
  8
SJC2
100
AcDbCircle
 10
3023.941527779003
 20
1527.634136639314
 30
0.0
 40
2.5
100
AcDbArc
 50
304.0969692712208
 51
350.1642161585056
  0
ARC
  5
1C8CDE6AC445
330
1C8CDE699D53
100
AcDbEntity
  8
SJC
100
AcDbCircle
 10
3036.99682496939
 20
1522.336067023497
 30
0.0
 40
1.0
100
AcDbArc
 50
15.00000999999547
 51
89.99999699998928
  0
ARC
  5
1C8CDE6AC446
330
1C8CDE699D53
100
AcDbEntity
  8
SJC
100
AcDbCircle
 10
3036.996744969391
 20
1522.336067023497
 30
0.0
 40
1.0
100
AcDbArc
 50
15.00000999999547
 51
89.99999699998928
  0
LINE
  5
1C8CDE6AC447
330
1C8CDE699D53
100
AcDbEntity
  8
SJC2
100
AcDbLine
 10
3023.852298010496
 20
1527.020242925153
 30
0.0
 11
3021.589457947001
 21
1525.815577410306
 31
0.0
  0
ARC
  5
1C8CDE6AC448
330
1C8CDE699D53
100
AcDbEntity
  8
SJC2
100
AcDbCircle
 10
3023.264891425339
 20
1528.12362568001
 30
0.0
 40
1.25
100
AcDbArc
 50
298.0294456371225
 51
350.164196570229
  0
LINE
  5
1C8CDE6AC449
330
1C8CDE699D53
100
AcDbEntity
  8
SJC2
100
AcDbLine
 10
3026.252343453359
 20
1538.037503434362
 30
0.0
 11
3023.809155050407
 21
1541.50568801798
 31
0.0
  0
ARC
  5
1C8CDE6AC44A
330
1C8CDE699D53
100
AcDbEntity
  8
SJC
100
AcDbCircle
 10
3041.290084969391
 20
1519.836067023496
 30
0.0
 40
2.5
100
AcDbArc
 50
194.9999999999992
 51
270.0
  0
LINE
  5
1C8CDE6AC44B
330
1C8CDE699D53
100
AcDbEntity
  8
SJC
100
AcDbLine
 10
3037.962564969392
 20
1522.594847023496
 30
0.0
 11
3038.875164969392
 21
1519.189007023497
 31
0.0
  0
ARC
  5
1C8CDE6AC44C
330
1C8CDE699D53
100
AcDbEntity
  8
SJC
100
AcDbCircle
 10
3178.31608496939
 20
1522.336067023497
 30
0.0
 40
1.0
100
AcDbArc
 50
89.99999699998928
 51
165.0000000000007
  0
LINE
  5
1C8CDE6AC44D
330
1C8CDE699D53
100
AcDbEntity
  8
SJC
100
AcDbLine
 10
3181.906424969391
 20
1525.336067023497
 30
0.0
 11
3181.906424969391
 21
1523.336067023496
 31
0.0
  0
ARC
  5
1C8CDE6AC44E
330
1C8CDE699D53
100
AcDbEntity
  8
SJC
100
AcDbCircle
 10
3174.02274496939
 20
1519.836067023496
 30
0.0
 40
2.5
100
AcDbArc
 50
270.0
 51
344.9999900000045
  0
LINE
  5
1C8CDE6AC44F
330
1C8CDE699D53
100
AcDbEntity
  8
SJC
100
AcDbLine
 10
3177.35014496939
 20
1522.594927023497
 30
0.0
 11
3176.437544969391
 21
1519.189007023497
 31
0.0
  0
LINE
  5
1C8CDE6AC450
330
1C8CDE699D53
100
AcDbEntity
  8
SJC2
100
AcDbLine
 10
3048.978248436455
 20
1657.410175191599
 30
0.0
 11
3047.007689529359
 21
1657.7518251254
 31
0.0
  0
LINE
  5
1C8CDE6AC451
330
1C8CDE699D53
100
AcDbEntity
  8
SJC2
100
AcDbLine
 10
3047.007689529359
 20
1657.7518251254
 30
0.0
 11
3045.114138150924
 21
1646.828929577643
 31
0.0
  0
ARC
  5
1C8CDE6AC452
330
1C8CDE699D53
100
AcDbEntity
  8
SJC2
100
AcDbCircle
 10
3044.128959142336
 20
1646.999757832437
 30
0.0
 40
1.0
100
AcDbArc
 50
305.1642061584968
 51
350.1642161585056
  0
ARC
  5
1C8CDE6AC453
330
1C8CDE699D53
100
AcDbEntity
  8
SJC2
100
AcDbCircle
 10
3043.861546057906
 20
1642.52999418635
 30
0.0
 40
2.5
100
AcDbArc
 50
125.1642151584981
 51
170.1642159585079
  0
LINE
  5
1C8CDE6AC454
330
1C8CDE699D53
100
AcDbEntity
  8
SJC2
100
AcDbLine
 10
3044.704765292927
 20
1646.182326952582
 30
0.0
 11
3042.421648970709
 21
1644.57385756238
 31
0.0
  0
LINE
  5
1C8CDE6AC455
330
1C8CDE699D53
100
AcDbEntity
  8
MOJI2
100
AcDbLine
 10
2916.264011552403
 20
1979.99239518315
 30
0.0
 11
3042.493282125362
 21
1979.99239518315
 31
0.0
  0
LINE
  5
1C8CDE6AC456
330
1C8CDE699D53
100
AcDbEntity
  8
MOJI2
100
AcDbLine
 10
2916.264011552403
 20
1969.992395183151
 30
0.0
 11
3042.493282125362
 21
1969.992395183151
 31
0.0
  0
TEXT
  5
1C8CDE6AC457
330
1C8CDE699D53
100
AcDbEntity
  8
MOJI2
  6
Continuous
100
AcDbText
 10
2919.541568568734
 20
1990.82813130161
 30
0.0
 40
40.0
  1
サヤ管
 41
0.8
  7
EXT08
100
AcDbText
  0
DIMENSION
  5
1C8CDE6AC458
330
1C8CDE699D53
100
AcDbEntity
  8
SUNPOU
100
AcDbDimension
  2
*D15
 10
3254.506424969392
 20
1123.736067023497
 30
0.0
 11
3227.905633428716
 21
1075.389824084094
 31
0.0
 70
   160
  1
t<>
 71
     5
 42
1.600000000000138
  3
SJC
100
AcDbAlignedDimension
 13
3167.506384969392
 23
1125.336067023496
 33
0.0
 14
3156.906424969391
 24
1123.736067023497
 34
0.0
 50
270.0
100
AcDbRotatedDimension
1001
ACAD
1000
DSTYLE
1002
{
1070
    41
1040
2.0
1070
   271
1070
     2
1070
    43
1040
6.0
1070
    44
1040
1.0
1070
    42
1040
1.0
1070
   147
1040
1.199999999999999
1070
    40
1040
10.0
1070
   340
1005
1C8CDE699DA6
1070
   140
1040
3.0
1002
}
  0
LEADER
  5
1C8CDE6AC459
330
1C8CDE699D53
100
AcDbEntity
  8
MOJI
100
AcDbLeader
  3
SJC
 76
     2
 10
2787.744559742767
 20
1305.399193817977
 30
0.0
 10
2710.429911828139
 20
1385.345938805083
 30
0.0
1001
ACAD
1000
DSTYLE
1002
{
1070
    40
1040
10.0
1070
    41
1040
2.0
1070
    42
1040
1.0
1070
    43
1040
6.0
1070
    44
1040
1.0
1070
   140
1040
3.0
1070
   147
1040
1.199999999999999
1070
   176
1070
     0
1070
   177
1070
     0
1070
   178
1070
     0
1070
   179
1070
     2
1070
   271
1070
     2
1070
   340
1005
1C8CDE699DA6
1002
}
  0
LEADER
  5
1C8CDE6AC45A
330
1C8CDE699D53
100
AcDbEntity
  8
MOJI
100
AcDbLeader
  3
SJC
 76
     2
 10
2804.867075858031
 20
1641.69913376848
 30
0.0
 10
2710.408559635175
 20
1730.127171252677
 30
0.0
1001
ACAD
1000
DSTYLE
1002
{
1070
    40
1040
10.0
1070
    41
1040
2.0
1070
    42
1040
1.0
1070
    43
1040
6.0
1070
    44
1040
1.0
1070
   140
1040
3.0
1070
   147
1040
1.199999999999999
1070
   176
1070
     0
1070
   177
1070
     0
1070
   178
1070
     0
1070
   179
1070
     2
1070
   271
1070
     2
1070
   340
1005
1C8CDE699DA6
1002
}
  0
LEADER
  5
1C8CDE6AC4FB
330
1C8CDE699D53
100
AcDbEntity
  8
MOJI
100
AcDbLeader
  3
SJC
 76
     2
 10
1143.74599717989
 20
1831.71609885863
 30
0.0
 10
1052.81411302267
 20
1891.225725242546
 30
0.0
1001
ACAD
1000
DSTYLE
1002
{
1070
    40
1040
10.0
1070
    41
1040
2.0
1070
    42
1040
1.0
1070
    43
1040
6.0
1070
    44
1040
1.0
1070
   140
1040
3.0
1070
   147
1040
1.199999999999999
1070
   176
1070
     0
1070
   177
1070
     0
1070
   178
1070
     0
1070
   179
1070
     2
1070
   271
1070
     2
1070
   340
1005
1C8CDE699DA6
1002
}
  0
LEADER
  5
1C8CDE6AC4FC
330
1C8CDE699D53
100
AcDbEntity
  8
MOJI
100
AcDbLeader
  3
SJC
 76
     2
 10
1140.101858666446
 20
1693.574990271244
 30
0.0
 10
1055.424563759403
 20
1754.128962574115
 30
0.0
1001
ACAD
1000
DSTYLE
1002
{
1070
    40
1040
10.0
1070
    41
1040
2.0
1070
    42
1040
1.0
1070
    43
1040
6.0
1070
    44
1040
1.0
1070
   140
1040
3.0
1070
   147
1040
1.199999999999999
1070
   176
1070
     0
1070
   177
1070
     0
1070
   178
1070
     0
1070
   179
1070
     2
1070
   271
1070
     2
1070
   340
1005
1C8CDE699DA6
1002
}
  0
LEADER
  5
1C8CDE6AC4FD
330
1C8CDE699D53
100
AcDbEntity
  8
MOJI
100
AcDbLeader
  3
SJC
 76
     2
 10
1138.101858666445
 20
1202.108735215789
 30
0.0
 10
1042.584220441896
 20
1297.565115179138
 30
0.0
1001
ACAD
1000
DSTYLE
1002
{
1070
    40
1040
10.0
1070
    41
1040
2.0
1070
    42
1040
1.0
1070
    43
1040
6.0
1070
    44
1040
1.0
1070
   140
1040
3.0
1070
   147
1040
1.199999999999999
1070
   176
1070
     0
1070
   177
1070
     0
1070
   178
1070
     0
1070
   179
1070
     2
1070
   271
1070
     2
1070
   340
1005
1C8CDE699DA6
1002
}
  0
LEADER
  5
1C8CDE6AC4FE
330
1C8CDE699D53
100
AcDbEntity
  8
MOJI
100
AcDbLeader
  3
SJC
 76
     2
 10
1126.037696236502
 20
1064.574578883341
 30
0.0
 10
1038.833348012686
 20
1137.270419762611
 30
0.0
1001
ACAD
1000
DSTYLE
1002
{
1070
    40
1040
10.0
1070
    41
1040
2.0
1070
    42
1040
1.0
1070
    43
1040
6.0
1070
    44
1040
1.0
1070
   140
1040
3.0
1070
   147
1040
1.199999999999999
1070
   176
1070
     0
1070
   177
1070
     0
1070
   178
1070
     0
1070
   179
1070
     2
1070
   271
1070
     2
1070
   340
1005
1C8CDE699DA6
1002
}
  0
LINE
  5
1C8CDE6AC70B
330
1C8CDE699D53
100
AcDbEntity
  8
MOJI
100
AcDbLine
 10
2572.964450742334
 20
459.3972903773019
 30
0.0
 11
3457.744025971712
 21
459.3972903773019
 31
0.0
  0
LINE
  5
1C8CDE6AC70C
330
1C8CDE699D53
100
AcDbEntity
  8
MOJI
100
AcDbLine
 10
2572.964450742334
 20
399.3972903773019
 30
0.0
 11
3457.744025971712
 21
399.3972903773019
 31
0.0
  0
LINE
  5
1C8CDE6AC70D
330
1C8CDE699D53
100
AcDbEntity
  8
MOJI
100
AcDbLine
 10
2572.964450742334
 20
339.3972903773019
 30
0.0
 11
3457.744025971712
 21
339.3972903773019
 31
0.0
  0
LINE
  5
1C8CDE6AC70E
330
1C8CDE699D53
100
AcDbEntity
  8
MOJI
100
AcDbLine
 10
2572.964450742334
 20
519.3972903773019
 30
0.0
 11
3457.744025971714
 21
519.3972903773019
 31
0.0
  0
LINE
  5
1C8CDE6AC70F
330
1C8CDE699D53
100
AcDbEntity
  8
MOJI
100
AcDbLine
 10
2572.964450742334
 20
579.3972903773019
 30
0.0
 11
3457.744025971714
 21
579.3972903773019
 31
0.0
  0
LINE
  5
1C8CDE6AC710
330
1C8CDE699D53
100
AcDbEntity
  8
MOJI
100
AcDbLine
 10
2572.964450742334
 20
699.3972903773017
 30
0.0
 11
3457.744025971714
 21
699.3972903773017
 31
0.0
  0
LINE
  5
1C8CDE6AC711
330
1C8CDE699D53
100
AcDbEntity
  8
MOJI
100
AcDbLine
 10
3055.329635440648
 20
639.3972903773017
 30
0.0
 11
3457.744025971714
 21
639.3972903773017
 31
0.0
  0
LINE
  5
1C8CDE6AC712
330
1C8CDE699D53
100
AcDbEntity
  8
MOJI
100
AcDbLine
 10
2789.776968609037
 20
699.3972903773017
 30
0.0
 11
2789.776968609038
 21
339.3972903773019
 31
0.0
  0
LINE
  5
1C8CDE6AC713
330
1C8CDE699D53
100
AcDbEntity
  8
MOJI
100
AcDbLine
 10
2572.964450742334
 20
699.3972903773017
 30
0.0
 11
2572.964450742333
 21
339.3972903773019
 31
0.0
  0
LINE
  5
1C8CDE6AC714
330
1C8CDE699D53
100
AcDbEntity
  8
MOJI
100
AcDbLine
 10
2991.414360109227
 20
699.3972903773017
 30
0.0
 11
2991.414360109231
 21
339.3972903773019
 31
0.0
  0
LINE
  5
1C8CDE6AC715
330
1C8CDE699D53
100
AcDbEntity
  8
MOJI
100
AcDbLine
 10
2572.964450742334
 20
459.3972903773019
 30
0.0
 11
3322.59376511284
 21
459.3972903773019
 31
0.0
  0
TEXT
  5
1C8CDE6AC716
330
1C8CDE699D53
100
AcDbEntity
  8
MOJI
100
AcDbText
 10
2609.835889135292
 20
414.4331832792777
 30
0.0
 40
30.0
  1
サヤ管フタ
 41
0.8
  7
EXT08
 72
     1
 11
2677.835889135292
 21
414.4331832792777
 31
0.0
100
AcDbText
  0
TEXT
  5
1C8CDE6AC717
330
1C8CDE699D53
100
AcDbEntity
  8
MOJI
100
AcDbText
 10
2606.235889135292
 20
354.4331832792777
 30
0.0
 40
30.0
  1
ロックピン
 41
0.8
  7
EXT08
 72
     1
 11
2677.835889135292
 21
354.4331832792777
 31
0.0
100
AcDbText
  0
TEXT
  5
1C8CDE6AC718
330
1C8CDE699D53
100
AcDbEntity
  8
MOJI
100
AcDbText
 10
2637.435889135292
 20
474.4331832792777
 30
0.0
 40
30.0
  1
サヤ管
 41
0.8
  7
EXT08
 72
     1
 11
2677.835889135292
 21
474.4331832792777
 31
0.0
100
AcDbText
  0
TEXT
  5
1C8CDE6AC719
330
1C8CDE699D53
100
AcDbEntity
  8
MOJI
100
AcDbText
 10
2636.635889135292
 20
534.4331832792777
 30
0.0
 40
30.0
  1
支  柱
 41
0.8
  7
EXT08
 72
     1
 11
2677.835889135291
 21
534.4331832792777
 31
0.0
100
AcDbText
  0
TEXT
  5
1C8CDE6AC71A
330
1C8CDE699D53
100
AcDbEntity
  8
MOJI
100
AcDbText
 10
3008.068757713731
 20
354.4331832792777
 30
0.0
 40
30.0
  1
%%C12\U+00D7140・南京錠 25m/m
 41
0.8
  7
EXT08
 72
     1
 11
3224.411614856588
 21
354.4331832792777
 31
0.0
100
AcDbText
  0
TEXT
  5
1C8CDE6AC71B
330
1C8CDE699D53
100
AcDbEntity
  8
MOJI
100
AcDbText
 10
3009.954471999444
 20
534.4331832792777
 30
0.0
 40
30.0
  1
高耐食溶融めっき+静電粉体塗装
 41
0.8
  7
EXT08
 72
     1
 11
3224.411614856587
 21
534.4331832792777
 31
0.0
100
AcDbText
  0
TEXT
  5
1C8CDE6AC71C
330
1C8CDE699D53
100
AcDbEntity
  8
MOJI
100
AcDbText
 10
2851.744654122376
 20
414.4331832792777
 30
0.0
 40
30.0
  1
SUS
 41
0.8
  7
EXT08
 72
     1
 11
2887.173225550947
 21
414.4331832792777
 31
0.0
100
AcDbText
  0
TEXT
  5
1C8CDE6AC71D
330
1C8CDE699D53
100
AcDbEntity
  8
MOJI
100
AcDbText
 10
2851.744654122376
 20
354.4331832792777
 30
0.0
 40
30.0
  1
SUS
 41
0.8
  7
EXT08
 72
     1
 11
2887.173225550947
 21
354.4331832792777
 31
0.0
100
AcDbText
  0
TEXT
  5
1C8CDE6AC71E
330
1C8CDE699D53
100
AcDbEntity
  8
MOJI
100
AcDbText
 10
2839.744654122375
 20
474.4331832792777
 30
0.0
 40
30.0
  1
SPCC
 41
0.8
  7
EXT08
 72
     1
 11
2887.173225550947
 21
474.4331832792777
 31
0.0
100
AcDbText
  0
TEXT
  5
1C8CDE6AC71F
330
1C8CDE699D53
100
AcDbEntity
  8
MOJI
100
AcDbText
 10
2793.801796979519
 20
534.4331832792777
 30
0.0
 40
30.0
  1
STK400相当
 41
0.8
  7
EXT08
 72
     1
 11
2887.173225550947
 21
534.4331832792777
 31
0.0
100
AcDbText
  0
TEXT
  5
1C8CDE6AC720
330
1C8CDE699D53
100
AcDbEntity
  8
MOJI
100
AcDbText
 10
3128.011614856587
 20
474.4331832792777
 30
0.0
 40
30.0
  1
溶融亜鉛めっき
 41
0.8
  7
EXT08
 72
     1
 11
3224.411614856587
 21
474.4331832792777
 31
0.0
100
AcDbText
  0
LINE
  5
1C8CDE6AC721
330
1C8CDE699D53
100
AcDbEntity
  8
MOJI
100
AcDbLine
 10
2572.964450742334
 20
639.3972903773017
 30
0.0
 11
3322.59376511284
 21
639.3972903773017
 31
0.0
  0
TEXT
  5
1C8CDE6AC722
330
1C8CDE699D53
100
AcDbEntity
  8
MOJI
100
AcDbText
 10
2593.835889135292
 20
594.4331832792776
 30
0.0
 40
30.0
  1
頭部キャップ
 41
0.8
  7
EXT08
 72
     1
 11
2677.835889135292
 21
594.4331832792776
 31
0.0
100
AcDbText
  0
TEXT
  5
1C8CDE6AC723
330
1C8CDE699D53
100
AcDbEntity
  8
MOJI
100
AcDbText
 10
2636.635889135292
 20
654.4331832792774
 30
0.0
 40
30.0
  1
品  名
 41
0.8
  7
EXT08
 72
     1
 11
2677.835889135292
 21
654.4331832792774
 31
0.0
100
AcDbText
  0
TEXT
  5
1C8CDE6AC724
330
1C8CDE699D53
100
AcDbEntity
  8
MOJI
100
AcDbText
 10
2845.973225550947
 20
654.4331832792774
 30
0.0
 40
30.0
  1
材  質
 41
0.8
  7
EXT08
 72
     1
 11
2887.173225550947
 21
654.4331832792774
 31
0.0
100
AcDbText
  0
TEXT
  5
1C8CDE6AC725
330
1C8CDE699D53
100
AcDbEntity
  8
MOJI
100
AcDbText
 10
3183.611614856587
 20
654.4331832792774
 30
0.0
 40
30.0
  1
摘  要
 41
0.8
  7
EXT08
 72
     1
 11
3224.411614856587
 21
654.4331832792774
 31
0.0
100
AcDbText
  0
LINE
  5
1C8CDE6AC726
330
1C8CDE699D53
100
AcDbEntity
  8
MOJI
100
AcDbLine
 10
3457.744025971714
 20
699.3972903773017
 30
0.0
 11
3457.744025971711
 21
339.3972903773019
 31
0.0
  0
TEXT
  5
1C8CDE6AC727
330
1C8CDE699D53
100
AcDbEntity
  8
MOJI
100
AcDbText
 10
2839.173225550947
 20
594.4331832792776
 30
0.0
 40
30.0
  1
SGHC
 41
0.8
  7
EXT08
 72
     1
 11
2887.173225550947
 21
594.4331832792776
 31
0.0
100
AcDbText
  0
TEXT
  5
1C8CDE6AC728
330
1C8CDE699D53
100
AcDbEntity
  8
MOJI
100
AcDbText
 10
3054.011614856587
 20
594.4331832792776
 30
0.0
 40
30.0
  1
亜鉛めっき＋静電粉体塗装
 41
0.8
  7
EXT08
 72
     1
 11
3224.411614856587
 21
594.4331832792776
 31
0.0
100
AcDbText
  0
TEXT
  5
1C8CDE6AC729
330
1C8CDE699D53
100
AcDbEntity
  8
MOJI
100
AcDbText
 10
3188.990519568088
 20
2580.063834164814
 30
0.0
 40
30.0
  1
シティ車止め
 41
0.8
  7
EXT08
100
AcDbText
  0
TEXT
  5
1C8CDE6AC72A
330
1C8CDE699D53
100
AcDbEntity
  8
MOJI
100
AcDbText
 10
3188.990519568088
 20
2530.063834164814
 30
0.0
 40
30.0
  1
CK-114HY-90D
 41
0.8
  7
EXT08
100
AcDbText
  0
LINE
  5
1C8CDE6AC72B
330
1C8CDE699D53
100
AcDbEntity
  8
SJC
100
AcDbLine
 10
3650.0
 20
2570.0
 30
0.0
 11
3008.054725952008
 21
2570.0
 31
0.0
  0
LINE
  5
1C8CDE6AC72C
330
1C8CDE699D53
100
AcDbEntity
  8
SJC
100
AcDbLine
 10
3650.0
 20
2520.0
 30
0.0
 11
3008.054725952008
 21
2520.0
 31
0.0
  0
LINE
  5
1C8CDE6AC72D
330
1C8CDE699D53
100
AcDbEntity
  8
SJC
100
AcDbLine
 10
3023.054725952008
 20
2470.0
 30
0.0
 11
3635.0
 21
2470.0
 31
0.0
  0
LINE
  5
1C8CDE6AC72E
330
1C8CDE699D53
100
AcDbEntity
  8
SJC
100
AcDbLine
 10
3635.0
 20
2620.0
 30
0.0
 11
3023.054725952008
 21
2620.0
 31
0.0
  0
LINE
  5
1C8CDE6AC72F
330
1C8CDE699D53
100
AcDbEntity
  8
SJC
100
AcDbLine
 10
3008.054725952008
 20
2605.0
 30
0.0
 11
3008.054725952008
 21
2485.0
 31
0.0
  0
TEXT
  5
1C8CDE6AC730
330
1C8CDE699D53
100
AcDbEntity
  8
MOJI
100
AcDbText
 10
3038.990519568088
 20
2530.063834164814
 30
0.0
 40
30.0
  1
品　番
 41
0.8
  7
EXT08
100
AcDbText
  0
ARC
  5
1C8CDE6AC731
330
1C8CDE699D53
100
AcDbEntity
  8
SJC
100
AcDbCircle
 10
3023.054725952008
 20
2485.0
 30
0.0
 40
15.0
100
AcDbArc
 50
180.0
 51
270.0
  0
TEXT
  5
1C8CDE6AC732
330
1C8CDE699D53
100
AcDbEntity
  8
MOJI
100
AcDbText
 10
3028.938294113912
 20
2480.063834164814
 30
0.0
 40
30.0
  1
図面番号
 41
0.8
  7
EXT08
100
AcDbText
  0
TEXT
  5
1C8CDE6AC733
330
1C8CDE699D53
100
AcDbEntity
  8
MOJI
100
AcDbText
 10
3042.312968266521
 20
2580.063834164814
 30
0.0
 40
30.0
  1
タイプ
 41
0.8
  7
EXT08
100
AcDbText
  0
ARC
  5
1C8CDE6AC734
330
1C8CDE699D53
100
AcDbEntity
  8
SJC
100
AcDbCircle
 10
3023.054725952008
 20
2605.0
 30
0.0
 40
15.0
100
AcDbArc
 50
90.0
 51
180.0
  0
LINE
  5
1C8CDE6AC735
330
1C8CDE699D53
100
AcDbEntity
  8
SJC
100
AcDbLine
 10
3158.054725952008
 20
2620.0
 30
0.0
 11
3158.054725952008
 21
2470.0
 31
0.0
  0
TEXT
  5
1C8CDE6AC736
330
1C8CDE699D53
100
AcDbEntity
  8
MOJI
100
AcDbText
 10
3188.990519568088
 20
2480.063834164814
 30
0.0
 40
30.0
  1
KEKH00088※1
 41
0.8
  7
EXT08
100
AcDbText
  0
LINE
  5
1C8CDE6AC737
330
1C8CDE699D53
100
AcDbEntity
  8
SJC
100
AcDbLine
 10
3650.0
 20
2485.0
 30
0.0
 11
3650.0
 21
2605.0
 31
0.0
  0
ARC
  5
1C8CDE6AC738
330
1C8CDE699D53
100
AcDbEntity
  8
SJC
100
AcDbCircle
 10
3635.0
 20
2485.0
 30
0.0
 40
15.0
100
AcDbArc
 50
270.0
 51
0.0
  0
ARC
  5
1C8CDE6AC739
330
1C8CDE699D53
100
AcDbEntity
  8
SJC
100
AcDbCircle
 10
3635.0
 20
2605.0
 30
0.0
 40
15.0
100
AcDbArc
 50
0.0
 51
90.0
  0
INSERT
  5
1C8CDE6AC8C4
330
1C8CDE699D53
100
AcDbEntity
  8
ZWAKU
100
AcDbBlockReference
  2
CALCOMP_TECHJET720A3
 10
0.0
 20
0.0
 30
0.0
 41
10.0
 42
10.0
 43
10.0
  0
TEXT
  5
1C8CDE6AC8C5
330
1C8CDE699D53
100
AcDbEntity
  8
INFORMATION
100
AcDbText
 10
1.0
 20
2.0
 30
0.0
 40
0.8
  1
PLOTTER=CALCOMP_TECHJET720
100
AcDbText
  0
TEXT
  5
1C8CDE6AC8C6
330
1C8CDE699D53
100
AcDbEntity
  8
INFORMATION
100
AcDbText
 10
1.0
 20
3.0
 30
0.0
 40
0.8
  1
PAPER=A3
100
AcDbText
  0
TEXT
  5
1C8CDE6AC8C7
330
1C8CDE699D53
100
AcDbEntity
  8
INFORMATION
100
AcDbText
 10
1.0
 20
1.0
 30
0.0
 40
0.8
  1
VERSION=3.0
100
AcDbText
  0
ENDSEC
  0
SECTION
  2
OBJECTS
  0
DICTIONARY
  5
1C8CDE699D47
330
0
100
AcDbDictionary
281
     1
  3
ACAD_CIP_PREVIOUS_PRODUCT_INFO
350
1C8CDE6AC9EF
  3
ACAD_COLOR
350
1C8CDE6AC2D8
  3
ACAD_DETAILVIEWSTYLE
350
1C8CDE6AC8BE
  3
ACAD_GROUP
350
1C8CDE699D48
  3
ACAD_LAYOUT
350
1C8CDE6AC2DB
  3
ACAD_MATERIAL
350
1C8CDE6AC2D7
  3
ACAD_MLEADERSTYLE
350
1C8CDE6AC593
  3
ACAD_MLINESTYLE
350
1C8CDE699D49
  3
ACAD_PLOTSETTINGS
350
1C8CDE6AC2DC
  3
ACAD_PLOTSTYLENAME
350
1C8CDE6AC2D5
  3
ACAD_SCALELIST
350
1C8CDE6AC56E
  3
ACAD_SECTIONVIEWSTYLE
350
1C8CDE6AC8BF
  3
ACAD_TABLESTYLE
350
1C8CDE6AC2D9
  3
ACAD_VISUALSTYLE
350
1C8CDE6AC555
  3
ACDB_RECOMPOSE_DATA
350
1C8CDE6AC9F7
  3
AcDbVariableDictionary
350
1C8CDE6AC551
  3
DWGPROPS
350
1C8CDE6AC9F8
  0
DICTIONARY
  5
1C8CDE6AC9A6
330
1C8CDE699D43
100
AcDbDictionary
280
     1
281
     1
  0
XRECORD
  5
1C8CDE6AC9EF
102
{ACAD_REACTORS
330
1C8CDE699D47
102
}
330
1C8CDE699D47
100
AcDbXrecord
280
     1
300
ACD
300
2015
300
ACD_F_S
  0
DICTIONARY
  5
1C8CDE6AC2D8
102
{ACAD_REACTORS
330
1C8CDE699D47
102
}
330
1C8CDE699D47
100
AcDbDictionary
281
     1
  0
DICTIONARY
  5
1C8CDE6AC8BE
102
{ACAD_REACTORS
330
1C8CDE699D47
102
}
330
1C8CDE699D47
100
AcDbDictionary
281
     1
  3
Imperial24
350
1C8CDE6AC9E8
  0
DICTIONARY
  5
1C8CDE699D48
102
{ACAD_REACTORS
330
1C8CDE699D47
102
}
330
1C8CDE699D47
100
AcDbDictionary
281
     1
  0
DICTIONARY
  5
1C8CDE6AC2DB
102
{ACAD_REACTORS
330
1C8CDE699D47
102
}
330
1C8CDE699D47
100
AcDbDictionary
281
     1
  3
Model
350
1C8CDE6AC2DD
  3
レイアウト1
350
1C8CDE6AC2DE
  0
DICTIONARY
  5
1C8CDE6AC2D7
102
{ACAD_REACTORS
330
1C8CDE699D47
102
}
330
1C8CDE699D47
100
AcDbDictionary
281
     1
  3
ByBlock
350
1C8CDE6AC591
  3
ByLayer
350
1C8CDE6AC590
  3
Global
350
1C8CDE6AC592
  0
DICTIONARY
  5
1C8CDE6AC593
102
{ACAD_REACTORS
330
1C8CDE699D47
102
}
330
1C8CDE699D47
100
AcDbDictionary
281
     1
  3
Standard
350
1C8CDE6AC594
  0
DICTIONARY
  5
1C8CDE699D49
102
{ACAD_REACTORS
330
1C8CDE699D47
102
}
330
1C8CDE699D47
100
AcDbDictionary
281
     1
  3
STANDARD
350
1C8CDE699D56
  0
DICTIONARY
  5
1C8CDE6AC2DC
102
{ACAD_REACTORS
330
1C8CDE699D47
102
}
330
1C8CDE699D47
100
AcDbDictionary
281
     1
  0
ACDBDICTIONARYWDFLT
  5
1C8CDE6AC2D5
102
{ACAD_REACTORS
330
1C8CDE699D47
102
}
330
1C8CDE699D47
100
AcDbDictionary
281
     1
  3
Normal
350
1C8CDE6AC2D6
100
AcDbDictionaryWithDefault
340
1C8CDE6AC2D6
  0
DICTIONARY
  5
1C8CDE6AC56E
102
{ACAD_REACTORS
330
1C8CDE699D47
102
}
330
1C8CDE699D47
100
AcDbDictionary
281
     1
  3
A0
350
1C8CDE6AC56F
  3
A1
350
1C8CDE6AC570
  3
A2
350
1C8CDE6AC571
  3
A3
350
1C8CDE6AC572
  3
A4
350
1C8CDE6AC573
  3
A5
350
1C8CDE6AC574
  3
A6
350
1C8CDE6AC575
  3
A7
350
1C8CDE6AC576
  3
A8
350
1C8CDE6AC577
  3
A9
350
1C8CDE6AC578
  3
B0
350
1C8CDE6AC579
  3
B1
350
1C8CDE6AC57A
  3
B2
350
1C8CDE6AC57B
  3
B3
350
1C8CDE6AC57C
  3
B4
350
1C8CDE6AC57D
  3
B5
350
1C8CDE6AC57E
  3
B6
350
1C8CDE6AC57F
  3
B7
350
1C8CDE6AC580
  3
B8
350
1C8CDE6AC581
  3
B9
350
1C8CDE6AC582
  3
C0
350
1C8CDE6AC583
  3
C1
350
1C8CDE6AC584
  3
C2
350
1C8CDE6AC585
  3
C3
350
1C8CDE6AC586
  3
C4
350
1C8CDE6AC587
  3
C5
350
1C8CDE6AC588
  3
C6
350
1C8CDE6AC589
  3
C7
350
1C8CDE6AC58A
  3
C8
350
1C8CDE6AC58B
  3
C9
350
1C8CDE6AC58C
  3
D0
350
1C8CDE6AC58D
  3
D1
350
1C8CDE6AC58E
  3
D2
350
1C8CDE6AC58F
  0
DICTIONARY
  5
1C8CDE6AC8BF
102
{ACAD_REACTORS
330
1C8CDE699D47
102
}
330
1C8CDE699D47
100
AcDbDictionary
281
     1
  3
Imperial24
350
1C8CDE6AC9E7
  0
DICTIONARY
  5
1C8CDE6AC2D9
102
{ACAD_REACTORS
330
1C8CDE699D47
102
}
330
1C8CDE699D47
100
AcDbDictionary
281
     1
  3
Standard
350
1C8CDE6AC2DA
  0
DICTIONARY
  5
1C8CDE6AC555
102
{ACAD_REACTORS
330
1C8CDE699D47
102
}
330
1C8CDE699D47
100
AcDbDictionary
281
     1
  3
2dWireframe
350
1C8CDE6AC55A
  3
Basic
350
1C8CDE6AC55D
  3
Brighten
350
1C8CDE6AC561
  3
ColorChange
350
1C8CDE6AC565
  3
Conceptual
350
1C8CDE6AC55F
  3
Dim
350
1C8CDE6AC560
  3
EdgeColorOff
350
1C8CDE6AC568
  3
Facepattern
350
1C8CDE6AC564
  3
Flat
350
1C8CDE6AC556
  3
FlatWithEdges
350
1C8CDE6AC557
  3
Gouraud
350
1C8CDE6AC558
  3
GouraudWithEdges
350
1C8CDE6AC559
  3
Hidden
350
1C8CDE6AC55C
  3
JitterOff
350
1C8CDE6AC566
  3
Linepattern
350
1C8CDE6AC563
  3
Modeling
350
1C8CDE6AC595
  3
OverhangOff
350
1C8CDE6AC567
  3
Realistic
350
1C8CDE6AC55E
  3
Shaded
350
1C8CDE6AC56D
  3
Shaded with edges
350
1C8CDE6AC56C
  3
Shades of Gray
350
1C8CDE6AC569
  3
Sketchy
350
1C8CDE6AC56A
  3
Thicken
350
1C8CDE6AC562
  3
Wireframe
350
1C8CDE6AC55B
  3
X-Ray
350
1C8CDE6AC56B
  0
XRECORD
  5
1C8CDE6AC9F7
102
{ACAD_REACTORS
330
1C8CDE699D47
102
}
330
1C8CDE699D47
100
AcDbXrecord
280
     1
 90
        1
330
1C8CDE6AC2DA
  0
DICTIONARY
  5
1C8CDE6AC551
102
{ACAD_REACTORS
330
1C8CDE699D47
102
}
330
1C8CDE699D47
100
AcDbDictionary
281
     1
  3
CANNOSCALE
350
1C8CDE6AC87E
  3
CMLEADERSTYLE
350
1C8CDE6AC5EA
  3
CTABLESTYLE
350
1C8CDE6AC552
  3
CVIEWDETAILSTYLE
350
1C8CDE6AC9F0
  3
CVIEWSECTIONSTYLE
350
1C8CDE6AC9F1
  3
DIMASSOC
350
1C8CDE6AC553
  3
HIDETEXT
350
1C8CDE6AC5EE
  3
INDEXCTL
350
1C8CDE6AC9F3
  3
MSLTSCALE
350
1C8CDE6AC5EB
  3
PROJECTNAME
350
1C8CDE6AC554
  3
SORTENTS
350
1C8CDE6AC9F2
  3
XCLIPFRAME
350
1C8CDE6AC9F4
  0
XRECORD
  5
1C8CDE6AC9F8
102
{ACAD_REACTORS
330
1C8CDE699D47
102
}
330
1C8CDE699D47
100
AcDbXrecord
280
     1
  1
DWGPROPS COOKIE
  2

  3

  4

  6

  7

  8
SK000184
  9

300
=
301
=
302
=
303
=
304
=
305
=
306
=
307
=
308
=
309
=
 40
0.8433307523148148
 41
2450469.547535764
 42
2458991.599348507
  1

 90
        0
  0
ACDBDETAILVIEWSTYLE
  5
1C8CDE6AC9E8
102
{ACAD_XDICTIONARY
360
1C8CDE6ACA38
102
}
102
{ACAD_REACTORS
330
1C8CDE6AC8BE
102
}
330
1C8CDE6AC8BE
100
AcDbModelDocViewStyle
 70
     0
  3
Imperial24
290
     0
100
AcDbDetailViewStyle
 70
     0
 71
     0
 90
        3
 71
     1
340
1C8CDE699D4B
 40
0.24
340
0
 40
0.24
300

 40
0.36
280
     3
 71
     2
340
1C8CDE699D4F
 90
       25
 71
     3
340
1C8CDE699D4B
 40
0.24
 90
        1
 40
0.75
 90
        1
300
%<\AcVar ViewType \f "%tc1">% %<\AcVar ViewDetailId>%\PSCALE %<\AcVar ViewScale \f "%sn">%
 71
     4
340
1C8CDE699D4F
 90
       25
340
1C8CDE699D4F
 90
       25
280
     0
  0
LAYOUT
  5
1C8CDE6AC2DD
102
{ACAD_XDICTIONARY
360
1C8CDE6AC9FA
102
}
102
{ACAD_REACTORS
330
1C8CDE6AC2DB
102
}
330
1C8CDE6AC2DB
100
AcDbPlotSettings
  1

  2
CNSAcrobat PDFWriter6.pc3
  4
UserDefinedMetric (168.00 X 118.00ミリ)
  6

 40
3.200000047683715
 41
3.200000047683715
 42
3.199996948242187
 43
3.199996948242187
 44
168.0
 45
118.0
 46
0.0
 47
0.0
 48
0.0
 49
0.0
140
3700.0
141
2670.0
142
1.0
143
675.9677237396314
 70
 11952
 72
     0
 73
     0
 74
     2
  7
CALCOMP_TECHJET720.ctb
 75
     0
147
0.0014793605743004
148
0.0
149
0.0
100
AcDbLayout
  1
Model
 70
     1
 71
     0
 10
0.0
 20
0.0
 11
12.0
 21
9.0
 12
0.0
 22
0.0
 32
0.0
 14
0.0
 24
0.0
 34
0.0
 15
3700.0
 25
2670.0
 35
0.0
146
0.0
 13
0.0
 23
0.0
 33
0.0
 16
1.0
 26
0.0
 36
0.0
 17
0.0
 27
1.0
 37
0.0
 76
     0
330
1C8CDE699D53
1001
ACAD_PSEXT
1000
CNSAcrobat PDFWriter6.pc3
1000
DWG To PDF
1000
ファイル
1000

1070
     0
  0
LAYOUT
  5
1C8CDE6AC2DE
102
{ACAD_XDICTIONARY
360
1C8CDE6AC9FC
102
}
102
{ACAD_REACTORS
330
1C8CDE6AC2DB
102
}
330
1C8CDE6AC2DB
100
AcDbPlotSettings
  1

  2
C:\Documents and Settings\SJC\Application Data\Autodesk\AutoCAD 2005\R16.1\jpn\plotters\RICOH imagio Neo 601 RPCS.pc3
  4

  6

 40
0.0
 41
0.0
 42
0.0
 43
0.0
 44
0.0
 45
0.0
 46
0.0
 47
0.0
 48
0.0
 49
0.0
140
0.0
141
0.0
142
1.0
143
1.0
 70
   688
 72
     0
 73
     0
 74
     5
  7
LP-8700.ctb
 75
    16
147
1.0
148
0.0
149
0.0
100
AcDbLayout
  1
レイアウト1
 70
     0
 71
     1
 10
0.0
 20
0.0
 11
12.0
 21
9.0
 12
0.0
 22
0.0
 32
0.0
 14
1.000000000000000E+20
 24
1.000000000000000E+20
 34
1.000000000000000E+20
 15
-1.000000000000000E+20
 25
-1.000000000000000E+20
 35
-1.000000000000000E+20
146
0.0
 13
0.0
 23
0.0
 33
0.0
 16
1.0
 26
0.0
 36
0.0
 17
0.0
 27
1.0
 37
0.0
 76
     0
330
1C8CDE699D50
  0
MATERIAL
  5
1C8CDE6AC591
102
{ACAD_XDICTIONARY
360
1C8CDE6ACA30
102
}
102
{ACAD_REACTORS
330
1C8CDE6AC2D7
102
}
330
1C8CDE6AC2D7
100
AcDbMaterial
  1
ByBlock
 73
     1
 78
     1
172
     1
176
     1
270
     1
274
     1
  0
MATERIAL
  5
1C8CDE6AC590
102
{ACAD_XDICTIONARY
360
1C8CDE6ACA2E
102
}
102
{ACAD_REACTORS
330
1C8CDE6AC2D7
102
}
330
1C8CDE6AC2D7
100
AcDbMaterial
  1
ByLayer
 73
     1
 78
     1
172
     1
176
     1
270
     1
274
     1
  0
MATERIAL
  5
1C8CDE6AC592
102
{ACAD_XDICTIONARY
360
1C8CDE6ACA32
102
}
102
{ACAD_REACTORS
330
1C8CDE6AC2D7
102
}
330
1C8CDE6AC2D7
100
AcDbMaterial
  1
Global
 73
     1
 78
     1
172
     1
176
     1
270
     1
274
     1
  0
MLEADERSTYLE
  5
1C8CDE6AC594
102
{ACAD_REACTORS
330
1C8CDE6AC593
102
}
330
1C8CDE6AC593
100
AcDbMLeaderStyle
170
     2
171
     1
172
     0
 90
        2
 40
0.0
 41
0.0
173
     1
 91
-1056964608
340
1C8CDE699D4D
 92
       -2
290
     1
 42
0.09
291
     1
 43
0.36
  3
Standard
 44
0.18
300

342
1C8CDE699D4B
174
     1
178
     6
175
     1
176
     0
 93
-1056964608
 45
0.18
292
     0
297
     0
 46
0.18
 94
-1056964608
 47
1.0
 49
1.0
140
1.0
293
     1
141
0.0
294
     1
177
     0
142
1.0
295
     0
296
     0
143
0.125
1001
ACAD_MLEADERVER
1070
     2
  0
MLINESTYLE
  5
1C8CDE699D56
102
{ACAD_REACTORS
330
1C8CDE699D49
102
}
330
1C8CDE699D49
100
AcDbMlineStyle
  2
STANDARD
 70
     0
  3

 62
     0
 51
90.0
 52
90.0
 71
     2
 49
0.5
 62
   256
  6
BYLAYER
 49
-0.5
 62
   256
  6
BYLAYER
  0
ACDBPLACEHOLDER
  5
1C8CDE6AC2D6
102
{ACAD_REACTORS
330
1C8CDE6AC2D5
102
}
330
1C8CDE6AC2D5
  0
SCALE
  5
1C8CDE6AC56F
102
{ACAD_REACTORS
330
1C8CDE6AC56E
102
}
330
1C8CDE6AC56E
100
AcDbScale
 70
     0
300
1:1
140
1.0
141
1.0
290
     1
  0
SCALE
  5
1C8CDE6AC570
102
{ACAD_REACTORS
330
1C8CDE6AC56E
102
}
330
1C8CDE6AC56E
100
AcDbScale
 70
     0
300
1:2
140
1.0
141
2.0
290
     0
  0
SCALE
  5
1C8CDE6AC571
102
{ACAD_REACTORS
330
1C8CDE6AC56E
102
}
330
1C8CDE6AC56E
100
AcDbScale
 70
     0
300
1:4
140
1.0
141
4.0
290
     0
  0
SCALE
  5
1C8CDE6AC572
102
{ACAD_REACTORS
330
1C8CDE6AC56E
102
}
330
1C8CDE6AC56E
100
AcDbScale
 70
     0
300
1:5
140
1.0
141
5.0
290
     0
  0
SCALE
  5
1C8CDE6AC573
102
{ACAD_REACTORS
330
1C8CDE6AC56E
102
}
330
1C8CDE6AC56E
100
AcDbScale
 70
     0
300
1:8
140
1.0
141
8.0
290
     0
  0
SCALE
  5
1C8CDE6AC574
102
{ACAD_REACTORS
330
1C8CDE6AC56E
102
}
330
1C8CDE6AC56E
100
AcDbScale
 70
     0
300
1:10
140
1.0
141
10.0
290
     0
  0
SCALE
  5
1C8CDE6AC575
102
{ACAD_REACTORS
330
1C8CDE6AC56E
102
}
330
1C8CDE6AC56E
100
AcDbScale
 70
     0
300
1:16
140
1.0
141
16.0
290
     0
  0
SCALE
  5
1C8CDE6AC576
102
{ACAD_REACTORS
330
1C8CDE6AC56E
102
}
330
1C8CDE6AC56E
100
AcDbScale
 70
     0
300
1:20
140
1.0
141
20.0
290
     0
  0
SCALE
  5
1C8CDE6AC577
102
{ACAD_REACTORS
330
1C8CDE6AC56E
102
}
330
1C8CDE6AC56E
100
AcDbScale
 70
     0
300
1:30
140
1.0
141
30.0
290
     0
  0
SCALE
  5
1C8CDE6AC578
102
{ACAD_REACTORS
330
1C8CDE6AC56E
102
}
330
1C8CDE6AC56E
100
AcDbScale
 70
     0
300
1:40
140
1.0
141
40.0
290
     0
  0
SCALE
  5
1C8CDE6AC579
102
{ACAD_REACTORS
330
1C8CDE6AC56E
102
}
330
1C8CDE6AC56E
100
AcDbScale
 70
     0
300
1:50
140
1.0
141
50.0
290
     0
  0
SCALE
  5
1C8CDE6AC57A
102
{ACAD_REACTORS
330
1C8CDE6AC56E
102
}
330
1C8CDE6AC56E
100
AcDbScale
 70
     0
300
1:100
140
1.0
141
100.0
290
     0
  0
SCALE
  5
1C8CDE6AC57B
102
{ACAD_REACTORS
330
1C8CDE6AC56E
102
}
330
1C8CDE6AC56E
100
AcDbScale
 70
     0
300
2:1
140
2.0
141
1.0
290
     0
  0
SCALE
  5
1C8CDE6AC57C
102
{ACAD_REACTORS
330
1C8CDE6AC56E
102
}
330
1C8CDE6AC56E
100
AcDbScale
 70
     0
300
4:1
140
4.0
141
1.0
290
     0
  0
SCALE
  5
1C8CDE6AC57D
102
{ACAD_REACTORS
330
1C8CDE6AC56E
102
}
330
1C8CDE6AC56E
100
AcDbScale
 70
     0
300
8:1
140
8.0
141
1.0
290
     0
  0
SCALE
  5
1C8CDE6AC57E
102
{ACAD_REACTORS
330
1C8CDE6AC56E
102
}
330
1C8CDE6AC56E
100
AcDbScale
 70
     0
300
10:1
140
10.0
141
1.0
290
     0
  0
SCALE
  5
1C8CDE6AC57F
102
{ACAD_REACTORS
330
1C8CDE6AC56E
102
}
330
1C8CDE6AC56E
100
AcDbScale
 70
     0
300
100:1
140
100.0
141
1.0
290
     0
  0
SCALE
  5
1C8CDE6AC580
102
{ACAD_REACTORS
330
1C8CDE6AC56E
102
}
330
1C8CDE6AC56E
100
AcDbScale
 70
     0
300
1/128" = 1'-0"
140
0.0078125
141
12.0
290
     0
  0
SCALE
  5
1C8CDE6AC581
102
{ACAD_REACTORS
330
1C8CDE6AC56E
102
}
330
1C8CDE6AC56E
100
AcDbScale
 70
     0
300
1/64" = 1'-0"
140
0.015625
141
12.0
290
     0
  0
SCALE
  5
1C8CDE6AC582
102
{ACAD_REACTORS
330
1C8CDE6AC56E
102
}
330
1C8CDE6AC56E
100
AcDbScale
 70
     0
300
1/32" = 1'-0"
140
0.03125
141
12.0
290
     0
  0
SCALE
  5
1C8CDE6AC583
102
{ACAD_REACTORS
330
1C8CDE6AC56E
102
}
330
1C8CDE6AC56E
100
AcDbScale
 70
     0
300
1/16" = 1'-0"
140
0.0625
141
12.0
290
     0
  0
SCALE
  5
1C8CDE6AC584
102
{ACAD_REACTORS
330
1C8CDE6AC56E
102
}
330
1C8CDE6AC56E
100
AcDbScale
 70
     0
300
3/32" = 1'-0"
140
0.09375
141
12.0
290
     0
  0
SCALE
  5
1C8CDE6AC585
102
{ACAD_REACTORS
330
1C8CDE6AC56E
102
}
330
1C8CDE6AC56E
100
AcDbScale
 70
     0
300
1/8" = 1'-0"
140
0.125
141
12.0
290
     0
  0
SCALE
  5
1C8CDE6AC586
102
{ACAD_REACTORS
330
1C8CDE6AC56E
102
}
330
1C8CDE6AC56E
100
AcDbScale
 70
     0
300
3/16" = 1'-0"
140
0.1875
141
12.0
290
     0
  0
SCALE
  5
1C8CDE6AC587
102
{ACAD_REACTORS
330
1C8CDE6AC56E
102
}
330
1C8CDE6AC56E
100
AcDbScale
 70
     0
300
1/4" = 1'-0"
140
0.25
141
12.0
290
     0
  0
SCALE
  5
1C8CDE6AC588
102
{ACAD_REACTORS
330
1C8CDE6AC56E
102
}
330
1C8CDE6AC56E
100
AcDbScale
 70
     0
300
3/8" = 1'-0"
140
0.375
141
12.0
290
     0
  0
SCALE
  5
1C8CDE6AC589
102
{ACAD_REACTORS
330
1C8CDE6AC56E
102
}
330
1C8CDE6AC56E
100
AcDbScale
 70
     0
300
1/2" = 1'-0"
140
0.5
141
12.0
290
     0
  0
SCALE
  5
1C8CDE6AC58A
102
{ACAD_REACTORS
330
1C8CDE6AC56E
102
}
330
1C8CDE6AC56E
100
AcDbScale
 70
     0
300
3/4" = 1'-0"
140
0.75
141
12.0
290
     0
  0
SCALE
  5
1C8CDE6AC58B
102
{ACAD_REACTORS
330
1C8CDE6AC56E
102
}
330
1C8CDE6AC56E
100
AcDbScale
 70
     0
300
1" = 1'-0"
140
1.0
141
12.0
290
     0
  0
SCALE
  5
1C8CDE6AC58C
102
{ACAD_REACTORS
330
1C8CDE6AC56E
102
}
330
1C8CDE6AC56E
100
AcDbScale
 70
     0
300
1-1/2" = 1'-0"
140
1.5
141
12.0
290
     0
  0
SCALE
  5
1C8CDE6AC58D
102
{ACAD_REACTORS
330
1C8CDE6AC56E
102
}
330
1C8CDE6AC56E
100
AcDbScale
 70
     0
300
3" = 1'-0"
140
3.0
141
12.0
290
     0
  0
SCALE
  5
1C8CDE6AC58E
102
{ACAD_REACTORS
330
1C8CDE6AC56E
102
}
330
1C8CDE6AC56E
100
AcDbScale
 70
     0
300
6" = 1'-0"
140
6.0
141
12.0
290
     0
  0
SCALE
  5
1C8CDE6AC58F
102
{ACAD_REACTORS
330
1C8CDE6AC56E
102
}
330
1C8CDE6AC56E
100
AcDbScale
 70
     0
300
1'-0" = 1'-0"
140
12.0
141
12.0
290
     0
  0
ACDBSECTIONVIEWSTYLE
  5
1C8CDE6AC9E7
102
{ACAD_XDICTIONARY
360
1C8CDE6ACA36
102
}
102
{ACAD_REACTORS
330
1C8CDE6AC8BF
102
}
330
1C8CDE6AC8BF
100
AcDbModelDocViewStyle
 70
     0
  3
Imperial24
290
     0
100
AcDbSectionViewStyle
 70
     0
 71
     0
 90
       78
 71
     1
340
1C8CDE699D4B
 40
0.24
340
0
340
0
 40
0.24
300
I, O, Q, S, X, Z
 40
0.48
 90
        3
 40
0.18
 90
        1
 71
     2
340
1C8CDE699D4F
 90
       25
340
1C8CDE699D4F
 90
       50
 40
0.24
 40
0.0
 40
0.24
 71
     3
340
1C8CDE699D4B
 40
0.24
 90
        1
 40
0.75
 90
        1
300
%<\AcVar ViewType \f "%tc1">% %<\AcVar ViewSectionStartId>%-%<\AcVar ViewSectionEndId>%\PSCALE %<\AcVar ViewScale \f "%sn">%
 71
     4
300
ANSI31
 40
1.0
 90
        0
290
     0
290
     0
 90
        6
 40
0.0
 40
1.570796326794896
 40
0.2617993877991494
 40
1.308996938995747
 40
-0.2617993877991494
 40
1.832595714594046
  0
TABLESTYLE
  5
1C8CDE6AC2DA
102
{ACAD_XDICTIONARY
360
1C8CDE6AC9AE
102
}
102
{ACAD_REACTORS
330
1C8CDE6AC2D9
102
}
330
1C8CDE6AC2D9
100
AcDbTableStyle
  3
Standard
 70
     0
 71
     0
 40
0.06
 41
0.06
280
     0
281
     0
  7
STANDARD
140
0.18
170
     2
 62
     0
 63
     7
283
     0
274
    -2
284
     1
 64
     0
275
    -2
285
     1
 65
     0
276
    -2
286
     1
 66
     0
277
    -2
287
     1
 67
     0
278
    -2
288
     1
 68
     0
279
    -2
289
     1
 69
     0
  7
STANDARD
140
0.25
170
     5
 62
     0
 63
     7
283
     0
274
    -2
284
     1
 64
     0
275
    -2
285
     1
 65
     0
276
    -2
286
     1
 66
     0
277
    -2
287
     1
 67
     0
278
    -2
288
     1
 68
     0
279
    -2
289
     1
 69
     0
  7
STANDARD
140
0.18
170
     5
 62
     0
 63
     7
283
     0
274
    -2
284
     1
 64
     0
275
    -2
285
     1
 65
     0
276
    -2
286
     1
 66
     0
277
    -2
287
     1
 67
     0
278
    -2
288
     1
 68
     0
279
    -2
289
     1
 69
     0
  0
VISUALSTYLE
  5
1C8CDE6AC55A
102
{ACAD_XDICTIONARY
360
1C8CDE6ACA06
102
}
102
{ACAD_REACTORS
330
1C8CDE6AC555
102
}
330
1C8CDE6AC555
100
AcDbVisualStyle
  2
2dWireframe
 70
     4
 71
     0
 72
     2
 73
     0
 90
        0
 40
-0.6
 41
-30.0
 62
     5
 63
     7
 74
     1
 91
        4
 64
     7
 65
   257
 75
     1
175
     1
 42
1.0
 92
        0
 66
   257
 43
1.0
 76
     1
 77
     6
 78
     2
 67
     7
 79
     5
170
     0
171
     0
290
     0
174
     0
 93
        1
 44
0.0
173
     0
291
     0
 45
0.0
1001
ACAD
1000
AcDbSavedByObjectVersion
1070
     0
  0
VISUALSTYLE
  5
1C8CDE6AC55D
102
{ACAD_XDICTIONARY
360
1C8CDE6ACA0C
102
}
102
{ACAD_REACTORS
330
1C8CDE6AC555
102
}
330
1C8CDE6AC555
100
AcDbVisualStyle
  2
Basic
 70
     7
 71
     1
 72
     0
 73
     1
 90
        0
 40
-0.6
 41
-30.0
 62
     5
 63
     7
 74
     0
 91
        4
 64
     7
 65
   257
 75
     1
175
     1
 42
1.0
 92
        8
 66
     7
 43
1.0
 76
     1
 77
     6
 78
     2
 67
     7
 79
     5
170
     0
171
     0
290
     0
174
     0
 93
        1
 44
0.0
173
     0
291
     1
 45
0.0
1001
ACAD
1000
AcDbSavedByObjectVersion
1070
     0
  0
VISUALSTYLE
  5
1C8CDE6AC561
102
{ACAD_XDICTIONARY
360
1C8CDE6ACA14
102
}
102
{ACAD_REACTORS
330
1C8CDE6AC555
102
}
330
1C8CDE6AC555
100
AcDbVisualStyle
  2
Brighten
 70
    12
 71
     2
 72
     2
 73
     0
 90
        0
 40
-0.6
 41
-30.0
 62
     5
 63
     7
 74
     1
 91
        4
 64
     7
 65
   257
 75
     1
175
     1
 42
1.0
 92
        8
 66
     7
 43
1.0
 76
     1
 77
     6
 78
     2
 67
     7
 79
     5
170
     0
171
     0
290
     0
174
     0
 93
        1
 44
50.0
173
     0
291
     1
 45
0.0
1001
ACAD
1000
AcDbSavedByObjectVersion
1070
     0
  0
VISUALSTYLE
  5
1C8CDE6AC565
102
{ACAD_XDICTIONARY
360
1C8CDE6ACA1C
102
}
102
{ACAD_REACTORS
330
1C8CDE6AC555
102
}
330
1C8CDE6AC555
100
AcDbVisualStyle
  2
ColorChange
 70
    16
 71
     2
 72
     2
 73
     3
 90
        0
 40
-0.6
 41
-30.0
 62
     5
 63
     8
 74
     1
 91
        4
 64
     7
 65
   257
 75
     1
175
     1
 42
1.0
 92
        8
 66
     8
 43
1.0
 76
     1
 77
     6
 78
     2
 67
     7
 79
     5
170
     0
171
     0
290
     0
174
     0
 93
        1
 44
0.0
173
     0
291
     1
 45
0.0
1001
ACAD
1000
AcDbSavedByObjectVersion
1070
     0
  0
VISUALSTYLE
  5
1C8CDE6AC55F
102
{ACAD_XDICTIONARY
360
1C8CDE6ACA10
102
}
102
{ACAD_REACTORS
330
1C8CDE6AC555
102
}
330
1C8CDE6AC555
100
AcDbVisualStyle
  2
Conceptual
 70
     9
 71
     3
 72
     2
 73
     0
 90
        0
 40
-0.6
 41
-30.0
 62
     5
 63
     7
 74
     2
 91
        2
 64
     7
 65
   257
 75
     1
175
     1
 42
179.0
 92
        8
 66
     7
 43
1.0
 76
     1
 77
     6
 78
     2
 67
     7
 79
     3
170
     0
171
     0
290
     0
174
     0
 93
        1
 44
0.0
173
     0
291
     0
 45
0.0
1001
ACAD
1000
AcDbSavedByObjectVersion
1070
     0
  0
VISUALSTYLE
  5
1C8CDE6AC560
102
{ACAD_XDICTIONARY
360
1C8CDE6ACA12
102
}
102
{ACAD_REACTORS
330
1C8CDE6AC555
102
}
330
1C8CDE6AC555
100
AcDbVisualStyle
  2
Dim
 70
    11
 71
     2
 72
     2
 73
     0
 90
        0
 40
-0.6
 41
-30.0
 62
     5
 63
     7
 74
     1
 91
        4
 64
     7
 65
   257
 75
     1
175
     1
 42
1.0
 92
        8
 66
     7
 43
1.0
 76
     1
 77
     6
 78
     2
 67
     7
 79
     5
170
     0
171
     0
290
     0
174
     0
 93
        1
 44
-50.0
173
     0
291
     1
 45
0.0
1001
ACAD
1000
AcDbSavedByObjectVersion
1070
     0
  0
VISUALSTYLE
  5
1C8CDE6AC568
102
{ACAD_XDICTIONARY
360
1C8CDE6ACA22
102
}
102
{ACAD_REACTORS
330
1C8CDE6AC555
102
}
330
1C8CDE6AC555
100
AcDbVisualStyle
  2
EdgeColorOff
 70
    22
 71
     2
 72
     2
 73
     0
 90
        0
 40
-0.6
 41
-30.0
 62
     5
 63
     7
 74
     1
 91
        4
 64
     7
 65
   257
 75
     1
175
     1
 42
1.0
 92
        8
 66
     7
 43
1.0
 76
     1
 77
     6
 78
     2
 67
     7
 79
     5
170
     0
171
     0
290
     0
174
     0
 93
        1
 44
0.0
173
     0
291
     1
 45
0.0
1001
ACAD
1000
AcDbSavedByObjectVersion
1070
     0
  0
VISUALSTYLE
  5
1C8CDE6AC564
102
{ACAD_XDICTIONARY
360
1C8CDE6ACA1A
102
}
102
{ACAD_REACTORS
330
1C8CDE6AC555
102
}
330
1C8CDE6AC555
100
AcDbVisualStyle
  2
Facepattern
 70
    15
 71
     2
 72
     2
 73
     0
 90
        0
 40
-0.6
 41
-30.0
 62
     5
 63
     7
 74
     1
 91
        4
 64
     7
 65
   257
 75
     1
175
     1
 42
1.0
 92
        8
 66
     7
 43
1.0
 76
     1
 77
     6
 78
     2
 67
     7
 79
     5
170
     0
171
     0
290
     0
174
     0
 93
        1
 44
0.0
173
     0
291
     1
 45
0.0
1001
ACAD
1000
AcDbSavedByObjectVersion
1070
     0
  0
VISUALSTYLE
  5
1C8CDE6AC556
102
{ACAD_XDICTIONARY
360
1C8CDE6AC9FE
102
}
102
{ACAD_REACTORS
330
1C8CDE6AC555
102
}
330
1C8CDE6AC555
100
AcDbVisualStyle
  2
Flat
 70
     0
 71
     2
 72
     1
 73
     1
 90
        2
 40
-0.6
 41
30.0
 62
     5
 63
     7
 74
     0
 91
        0
 64
     7
 65
   257
 75
     1
175
     1
 42
1.0
 92
        8
 66
     7
 43
1.0
 76
     1
 77
     6
 78
     2
 67
     7
 79
     5
170
     0
171
     0
290
     0
174
     0
 93
       13
 44
0.0
173
     0
291
     1
 45
0.0
1001
ACAD
1000
AcDbSavedByObjectVersion
1070
     0
  0
VISUALSTYLE
  5
1C8CDE6AC557
102
{ACAD_XDICTIONARY
360
1C8CDE6ACA00
102
}
102
{ACAD_REACTORS
330
1C8CDE6AC555
102
}
330
1C8CDE6AC555
100
AcDbVisualStyle
  2
FlatWithEdges
 70
     1
 71
     2
 72
     1
 73
     1
 90
        2
 40
-0.6
 41
30.0
 62
     5
 63
     7
 74
     1
 91
        0
 64
     7
 65
   257
 75
     1
175
     1
 42
1.0
 92
        0
 66
   257
 43
1.0
 76
     1
 77
     6
 78
     2
 67
     7
 79
     5
170
     0
171
     0
290
     0
174
     0
 93
       13
 44
0.0
173
     0
291
     1
 45
0.0
1001
ACAD
1000
AcDbSavedByObjectVersion
1070
     0
  0
VISUALSTYLE
  5
1C8CDE6AC558
102
{ACAD_XDICTIONARY
360
1C8CDE6ACA02
102
}
102
{ACAD_REACTORS
330
1C8CDE6AC555
102
}
330
1C8CDE6AC555
100
AcDbVisualStyle
  2
Gouraud
 70
     2
 71
     2
 72
     2
 73
     1
 90
        2
 40
-0.6
 41
30.0
 62
     5
 63
     7
 74
     0
 91
        0
 64
     7
 65
   257
 75
     1
175
     1
 42
1.0
 92
        0
 66
     7
 43
1.0
 76
     1
 77
     6
 78
     2
 67
     7
 79
     5
170
     0
171
     0
290
     0
174
     0
 93
       13
 44
0.0
173
     0
291
     1
 45
0.0
1001
ACAD
1000
AcDbSavedByObjectVersion
1070
     0
  0
VISUALSTYLE
  5
1C8CDE6AC559
102
{ACAD_XDICTIONARY
360
1C8CDE6ACA04
102
}
102
{ACAD_REACTORS
330
1C8CDE6AC555
102
}
330
1C8CDE6AC555
100
AcDbVisualStyle
  2
GouraudWithEdges
 70
     3
 71
     2
 72
     2
 73
     1
 90
        2
 40
-0.6
 41
30.0
 62
     5
 63
     7
 74
     1
 91
        0
 64
     7
 65
   257
 75
     1
175
     1
 42
1.0
 92
        0
 66
   257
 43
1.0
 76
     1
 77
     6
 78
     2
 67
     7
 79
     5
170
     0
171
     0
290
     0
174
     0
 93
       13
 44
0.0
173
     0
291
     1
 45
0.0
1001
ACAD
1000
AcDbSavedByObjectVersion
1070
     0
  0
VISUALSTYLE
  5
1C8CDE6AC55C
102
{ACAD_XDICTIONARY
360
1C8CDE6ACA0A
102
}
102
{ACAD_REACTORS
330
1C8CDE6AC555
102
}
330
1C8CDE6AC555
100
AcDbVisualStyle
  2
Hidden
 70
     6
 71
     1
 72
     2
 73
     2
 90
        0
 40
-0.6
 41
-30.0
 62
     5
 63
     7
 74
     2
 91
        2
 64
     7
 65
   257
 75
     2
175
     1
 42
40.0
 92
        0
 66
   257
 43
1.0
 76
     1
 77
     6
 78
     2
 67
     7
 79
     3
170
     0
171
     0
290
     0
174
     0
 93
        1
 44
0.0
173
     0
291
     0
 45
0.0
1001
ACAD
1000
AcDbSavedByObjectVersion
1070
     0
  0
VISUALSTYLE
  5
1C8CDE6AC566
102
{ACAD_XDICTIONARY
360
1C8CDE6ACA1E
102
}
102
{ACAD_REACTORS
330
1C8CDE6AC555
102
}
330
1C8CDE6AC555
100
AcDbVisualStyle
  2
JitterOff
 70
    20
 71
     2
 72
     2
 73
     0
 90
        0
 40
-0.6
 41
-30.0
 62
     5
 63
     7
 74
     1
 91
        4
 64
     7
 65
   257
 75
     1
175
     1
 42
1.0
 92
       10
 66
     7
 43
1.0
 76
     1
 77
     6
 78
     2
 67
     7
 79
     5
170
     0
171
     0
290
     0
174
     0
 93
        1
 44
0.0
173
     0
291
     1
 45
0.0
1001
ACAD
1000
AcDbSavedByObjectVersion
1070
     0
  0
VISUALSTYLE
  5
1C8CDE6AC563
102
{ACAD_XDICTIONARY
360
1C8CDE6ACA18
102
}
102
{ACAD_REACTORS
330
1C8CDE6AC555
102
}
330
1C8CDE6AC555
100
AcDbVisualStyle
  2
Linepattern
 70
    14
 71
     2
 72
     2
 73
     0
 90
        0
 40
-0.6
 41
-30.0
 62
     5
 63
     7
 74
     1
 91
        4
 64
     7
 65
   257
 75
     7
175
     7
 42
1.0
 92
        8
 66
     7
 43
1.0
 76
     1
 77
     6
 78
     2
 67
     7
 79
     5
170
     0
171
     0
290
     0
174
     0
 93
        1
 44
0.0
173
     0
291
     1
 45
0.0
1001
ACAD
1000
AcDbSavedByObjectVersion
1070
     0
  0
VISUALSTYLE
  5
1C8CDE6AC595
102
{ACAD_XDICTIONARY
360
1C8CDE6ACA34
102
}
102
{ACAD_REACTORS
330
1C8CDE6AC555
102
}
330
1C8CDE6AC555
100
AcDbVisualStyle
  2

 70
    10
 71
     2
 72
     3
 73
     0
 90
        2
 40
-0.6
 41
30.0
 62
     5
 63
     7
 74
     2
 91
        0
 64
     7
 65
   257
 75
     1
175
     1
 42
180.0
 92
        8
 66
     8
 43
1.0
 76
     1
 77
     6
 78
     2
 67
     7
 79
     5
170
     0
171
     0
290
     0
174
     0
 93
       13
 44
0.0
173
     0
291
     0
 45
0.0
1001
ACAD
1000
AcDbSavedByObjectVersion
1070
     0
  0
VISUALSTYLE
  5
1C8CDE6AC567
102
{ACAD_XDICTIONARY
360
1C8CDE6ACA20
102
}
102
{ACAD_REACTORS
330
1C8CDE6AC555
102
}
330
1C8CDE6AC555
100
AcDbVisualStyle
  2
OverhangOff
 70
    21
 71
     2
 72
     2
 73
     0
 90
        0
 40
-0.6
 41
-30.0
 62
     5
 63
     7
 74
     1
 91
        4
 64
     7
 65
   257
 75
     1
175
     1
 42
1.0
 92
        9
 66
     7
 43
1.0
 76
     1
 77
     6
 78
     2
 67
     7
 79
     5
170
     0
171
     0
290
     0
174
     0
 93
        1
 44
0.0
173
     0
291
     1
 45
0.0
1001
ACAD
1000
AcDbSavedByObjectVersion
1070
     0
  0
VISUALSTYLE
  5
1C8CDE6AC55E
102
{ACAD_XDICTIONARY
360
1C8CDE6ACA0E
102
}
102
{ACAD_REACTORS
330
1C8CDE6AC555
102
}
330
1C8CDE6AC555
100
AcDbVisualStyle
  2
Realistic
 70
     8
 71
     2
 72
     3
 73
     0
 90
        2
 40
-0.6
 41
30.0
 62
     5
 63
     7
 74
     0
 91
        0
 64
     7
 65
   257
 75
     1
175
     1
 42
1.0
 92
        8
 66
   257
 43
1.0
 76
     1
 77
     6
 78
     2
 67
     7
 79
     3
170
     0
171
     0
290
     0
174
     0
 93
       13
 44
0.0
173
     0
291
     0
 45
0.0
1001
ACAD
1000
AcDbSavedByObjectVersion
1070
     0
  0
VISUALSTYLE
  5
1C8CDE6AC56D
102
{ACAD_XDICTIONARY
360
1C8CDE6ACA2C
102
}
102
{ACAD_REACTORS
330
1C8CDE6AC555
102
}
330
1C8CDE6AC555
100
AcDbVisualStyle
  2
Shaded
 70
    27
 71
     2
 72
     2
 73
     1
 90
        2
 40
-0.6
 41
30.0
 62
     5
 63
     7
 74
     0
 91
        4
 64
     7
 65
   257
 75
     1
175
     1
 42
1.0
 92
        8
 66
   257
 43
1.0
 76
     1
 77
     6
 78
     2
 67
     8
 79
     3
170
     0
171
     0
290
     0
174
     0
 93
        5
 44
0.0
173
     0
291
     0
 45
0.0
1001
ACAD
1000
AcDbSavedByObjectVersion
1070
     0
  0
VISUALSTYLE
  5
1C8CDE6AC56C
102
{ACAD_XDICTIONARY
360
1C8CDE6ACA2A
102
}
102
{ACAD_REACTORS
330
1C8CDE6AC555
102
}
330
1C8CDE6AC555
100
AcDbVisualStyle
  2
Shaded with edges
 70
    26
 71
     2
 72
     2
 73
     1
 90
        2
 40
-0.6
 41
30.0
 62
     5
 63
     7
 74
     1
 91
       10
 64
     7
 65
   257
 75
     2
175
     1
 42
1.0
 92
        8
 66
   257
 43
1.0
 76
     1
 77
     6
 78
     2
 67
     7
 79
     3
170
     0
171
     0
290
     0
174
     0
 93
        5
 44
0.0
173
     0
291
     0
 45
0.0
1001
ACAD
1000
AcDbSavedByObjectVersion
1070
     0
  0
VISUALSTYLE
  5
1C8CDE6AC569
102
{ACAD_XDICTIONARY
360
1C8CDE6ACA24
102
}
102
{ACAD_REACTORS
330
1C8CDE6AC555
102
}
330
1C8CDE6AC555
100
AcDbVisualStyle
  2
Shades of Gray
 70
    23
 71
     2
 72
     2
 73
     3
 90
        0
 40
-0.6
 41
-30.0
 62
     5
 63
     7
 74
     2
 91
        2
 64
     7
 65
     7
 75
     1
175
     1
 42
40.0
 92
        8
 66
     7
 43
1.0
 76
     1
 77
     6
 78
     2
 67
     7
 79
     3
170
     0
171
     0
290
     0
174
     0
 93
        1
 44
0.0
173
     0
291
     0
 45
0.0
1001
ACAD
1000
AcDbSavedByObjectVersion
1070
     0
  0
VISUALSTYLE
  5
1C8CDE6AC56A
102
{ACAD_XDICTIONARY
360
1C8CDE6ACA26
102
}
102
{ACAD_REACTORS
330
1C8CDE6AC555
102
}
330
1C8CDE6AC555
100
AcDbVisualStyle
  2
Sketchy
 70
    24
 71
     1
 72
     2
 73
     2
 90
        0
 40
-0.6
 41
-30.0
 62
     5
 63
     7
 74
     2
 91
        2
 64
     7
 65
     7
 75
     1
175
     1
 42
40.0
 92
       11
 66
     7
 43
1.0
 76
     1
 77
     6
 78
     2
 67
     7
 79
     6
170
     0
171
     0
290
     0
174
     0
 93
        1
 44
0.0
173
     0
291
     0
 45
0.0
1001
ACAD
1000
AcDbSavedByObjectVersion
1070
     0
  0
VISUALSTYLE
  5
1C8CDE6AC562
102
{ACAD_XDICTIONARY
360
1C8CDE6ACA16
102
}
102
{ACAD_REACTORS
330
1C8CDE6AC555
102
}
330
1C8CDE6AC555
100
AcDbVisualStyle
  2
Thicken
 70
    13
 71
     2
 72
     2
 73
     0
 90
        0
 40
-0.6
 41
-30.0
 62
     5
 63
     7
 74
     1
 91
        4
 64
     7
 65
   257
 75
     1
175
     1
 42
1.0
 92
       12
 66
     7
 43
1.0
 76
     1
 77
     6
 78
     2
 67
     7
 79
     5
170
     0
171
     0
290
     0
174
     0
 93
        1
 44
0.0
173
     0
291
     1
 45
0.0
1001
ACAD
1000
AcDbSavedByObjectVersion
1070
     0
  0
VISUALSTYLE
  5
1C8CDE6AC55B
102
{ACAD_XDICTIONARY
360
1C8CDE6ACA08
102
}
102
{ACAD_REACTORS
330
1C8CDE6AC555
102
}
330
1C8CDE6AC555
100
AcDbVisualStyle
  2
Wireframe
 70
     5
 71
     0
 72
     2
 73
     0
 90
        0
 40
-0.6
 41
-30.0
 62
     5
 63
     7
 74
     1
 91
        4
 64
     7
 65
   257
 75
     1
175
     1
 42
1.0
 92
        0
 66
   257
 43
1.0
 76
     1
 77
     6
 78
     2
 67
     7
 79
     3
170
     0
171
     0
290
     0
174
     0
 93
        1
 44
0.0
173
     0
291
     0
 45
0.0
1001
ACAD
1000
AcDbSavedByObjectVersion
1070
     0
  0
VISUALSTYLE
  5
1C8CDE6AC56B
102
{ACAD_XDICTIONARY
360
1C8CDE6ACA28
102
}
102
{ACAD_REACTORS
330
1C8CDE6AC555
102
}
330
1C8CDE6AC555
100
AcDbVisualStyle
  2
X-Ray
 70
    25
 71
     2
 72
     2
 73
     1
 90
        1
 40
0.5
 41
-30.0
 62
     5
 63
     7
 74
     1
 91
        0
 64
     7
 65
   257
 75
     1
175
     1
 42
1.0
 92
        8
 66
     7
 43
1.0
 76
     1
 77
     6
 78
     2
 67
     7
 79
     3
170
     0
171
     0
290
     0
174
     0
 93
       13
 44
0.0
173
     0
291
     0
 45
0.0
1001
ACAD
1000
AcDbSavedByObjectVersion
1070
     0
  0
DICTIONARYVAR
  5
1C8CDE6AC87E
102
{ACAD_REACTORS
330
1C8CDE6AC551
102
}
330
1C8CDE6AC551
100
DictionaryVariables
280
     0
  1
1:1
  0
DICTIONARYVAR
  5
1C8CDE6AC5EA
102
{ACAD_REACTORS
330
1C8CDE6AC551
102
}
330
1C8CDE6AC551
100
DictionaryVariables
280
     0
  1
STANDARD
  0
DICTIONARYVAR
  5
1C8CDE6AC552
102
{ACAD_REACTORS
330
1C8CDE6AC551
102
}
330
1C8CDE6AC551
100
DictionaryVariables
280
     0
  1
STANDARD
  0
DICTIONARYVAR
  5
1C8CDE6AC9F0
102
{ACAD_REACTORS
330
1C8CDE6AC551
102
}
330
1C8CDE6AC551
100
DictionaryVariables
280
     0
  1
Imperial24
  0
DICTIONARYVAR
  5
1C8CDE6AC9F1
102
{ACAD_REACTORS
330
1C8CDE6AC551
102
}
330
1C8CDE6AC551
100
DictionaryVariables
280
     0
  1
Imperial24
  0
DICTIONARYVAR
  5
1C8CDE6AC553
102
{ACAD_REACTORS
330
1C8CDE6AC551
102
}
330
1C8CDE6AC551
100
DictionaryVariables
280
     0
  1
1
  0
DICTIONARYVAR
  5
1C8CDE6AC5EE
102
{ACAD_REACTORS
330
1C8CDE6AC551
102
}
330
1C8CDE6AC551
100
DictionaryVariables
280
     0
  1
1
  0
DICTIONARYVAR
  5
1C8CDE6AC9F3
102
{ACAD_REACTORS
330
1C8CDE6AC551
102
}
330
1C8CDE6AC551
100
DictionaryVariables
280
     0
  1
0
  0
DICTIONARYVAR
  5
1C8CDE6AC5EB
102
{ACAD_REACTORS
330
1C8CDE6AC551
102
}
330
1C8CDE6AC551
100
DictionaryVariables
280
     0
  1
0
  0
DICTIONARYVAR
  5
1C8CDE6AC554
102
{ACAD_REACTORS
330
1C8CDE6AC551
102
}
330
1C8CDE6AC551
100
DictionaryVariables
280
     0
  1

  0
DICTIONARYVAR
  5
1C8CDE6AC9F2
102
{ACAD_REACTORS
330
1C8CDE6AC551
102
}
330
1C8CDE6AC551
100
DictionaryVariables
280
     0
  1
127
  0
DICTIONARYVAR
  5
1C8CDE6AC9F4
102
{ACAD_REACTORS
330
1C8CDE6AC551
102
}
330
1C8CDE6AC551
100
DictionaryVariables
280
     0
  1
2
  0
DICTIONARY
  5
1C8CDE6ACA38
330
1C8CDE6AC9E8
100
AcDbDictionary
280
     1
281
     1
  3
ACAD_XREC_ROUNDTRIP
360
1C8CDE6ACA39
  0
DICTIONARY
  5
1C8CDE6AC9FA
330
1C8CDE6AC2DD
100
AcDbDictionary
280
     1
281
     1
  3
ACAD_XREC_ROUNDTRIP
360
1C8CDE6AC9FB
  0
DICTIONARY
  5
1C8CDE6AC9FC
330
1C8CDE6AC2DE
100
AcDbDictionary
280
     1
281
     1
  3
ACAD_XREC_ROUNDTRIP
360
1C8CDE6AC9FD
  0
DICTIONARY
  5
1C8CDE6ACA30
330
1C8CDE6AC591
100
AcDbDictionary
280
     1
281
     1
  3
ACAD_XREC_ROUNDTRIP
360
1C8CDE6ACA31
  0
DICTIONARY
  5
1C8CDE6ACA2E
330
1C8CDE6AC590
100
AcDbDictionary
280
     1
281
     1
  3
ACAD_XREC_ROUNDTRIP
360
1C8CDE6ACA2F
  0
DICTIONARY
  5
1C8CDE6ACA32
330
1C8CDE6AC592
100
AcDbDictionary
280
     1
281
     1
  3
ACAD_XREC_ROUNDTRIP
360
1C8CDE6ACA33
  0
DICTIONARY
  5
1C8CDE6ACA36
330
1C8CDE6AC9E7
100
AcDbDictionary
280
     1
281
     1
  3
ACAD_XREC_ROUNDTRIP
360
1C8CDE6ACA37
  0
DICTIONARY
  5
1C8CDE6AC9AE
330
1C8CDE6AC2DA
100
AcDbDictionary
280
     1
281
     1
  3
ACAD_ROUNDTRIP_2008_TABLESTYLE_CELLSTYLEMAP
360
1C8CDE6AC9F6
  3
ACAD_XREC_ROUNDTRIP
360
1C8CDE6AC9F9
  0
DICTIONARY
  5
1C8CDE6ACA06
330
1C8CDE6AC55A
100
AcDbDictionary
280
     1
281
     1
  3
ACAD_XREC_ROUNDTRIP
360
1C8CDE6ACA07
  0
DICTIONARY
  5
1C8CDE6ACA0C
330
1C8CDE6AC55D
100
AcDbDictionary
280
     1
281
     1
  3
ACAD_XREC_ROUNDTRIP
360
1C8CDE6ACA0D
  0
DICTIONARY
  5
1C8CDE6ACA14
330
1C8CDE6AC561
100
AcDbDictionary
280
     1
281
     1
  3
ACAD_XREC_ROUNDTRIP
360
1C8CDE6ACA15
  0
DICTIONARY
  5
1C8CDE6ACA1C
330
1C8CDE6AC565
100
AcDbDictionary
280
     1
281
     1
  3
ACAD_XREC_ROUNDTRIP
360
1C8CDE6ACA1D
  0
DICTIONARY
  5
1C8CDE6ACA10
330
1C8CDE6AC55F
100
AcDbDictionary
280
     1
281
     1
  3
ACAD_XREC_ROUNDTRIP
360
1C8CDE6ACA11
  0
DICTIONARY
  5
1C8CDE6ACA12
330
1C8CDE6AC560
100
AcDbDictionary
280
     1
281
     1
  3
ACAD_XREC_ROUNDTRIP
360
1C8CDE6ACA13
  0
DICTIONARY
  5
1C8CDE6ACA22
330
1C8CDE6AC568
100
AcDbDictionary
280
     1
281
     1
  3
ACAD_XREC_ROUNDTRIP
360
1C8CDE6ACA23
  0
DICTIONARY
  5
1C8CDE6ACA1A
330
1C8CDE6AC564
100
AcDbDictionary
280
     1
281
     1
  3
ACAD_XREC_ROUNDTRIP
360
1C8CDE6ACA1B
  0
DICTIONARY
  5
1C8CDE6AC9FE
330
1C8CDE6AC556
100
AcDbDictionary
280
     1
281
     1
  3
ACAD_XREC_ROUNDTRIP
360
1C8CDE6AC9FF
  0
DICTIONARY
  5
1C8CDE6ACA00
330
1C8CDE6AC557
100
AcDbDictionary
280
     1
281
     1
  3
ACAD_XREC_ROUNDTRIP
360
1C8CDE6ACA01
  0
DICTIONARY
  5
1C8CDE6ACA02
330
1C8CDE6AC558
100
AcDbDictionary
280
     1
281
     1
  3
ACAD_XREC_ROUNDTRIP
360
1C8CDE6ACA03
  0
DICTIONARY
  5
1C8CDE6ACA04
330
1C8CDE6AC559
100
AcDbDictionary
280
     1
281
     1
  3
ACAD_XREC_ROUNDTRIP
360
1C8CDE6ACA05
  0
DICTIONARY
  5
1C8CDE6ACA0A
330
1C8CDE6AC55C
100
AcDbDictionary
280
     1
281
     1
  3
ACAD_XREC_ROUNDTRIP
360
1C8CDE6ACA0B
  0
DICTIONARY
  5
1C8CDE6ACA1E
330
1C8CDE6AC566
100
AcDbDictionary
280
     1
281
     1
  3
ACAD_XREC_ROUNDTRIP
360
1C8CDE6ACA1F
  0
DICTIONARY
  5
1C8CDE6ACA18
330
1C8CDE6AC563
100
AcDbDictionary
280
     1
281
     1
  3
ACAD_XREC_ROUNDTRIP
360
1C8CDE6ACA19
  0
DICTIONARY
  5
1C8CDE6ACA34
330
1C8CDE6AC595
100
AcDbDictionary
280
     1
281
     1
  3
ACAD_XREC_ROUNDTRIP
360
1C8CDE6ACA35
  0
DICTIONARY
  5
1C8CDE6ACA20
330
1C8CDE6AC567
100
AcDbDictionary
280
     1
281
     1
  3
ACAD_XREC_ROUNDTRIP
360
1C8CDE6ACA21
  0
DICTIONARY
  5
1C8CDE6ACA0E
330
1C8CDE6AC55E
100
AcDbDictionary
280
     1
281
     1
  3
ACAD_XREC_ROUNDTRIP
360
1C8CDE6ACA0F
  0
DICTIONARY
  5
1C8CDE6ACA2C
330
1C8CDE6AC56D
100
AcDbDictionary
280
     1
281
     1
  3
ACAD_XREC_ROUNDTRIP
360
1C8CDE6ACA2D
  0
DICTIONARY
  5
1C8CDE6ACA2A
330
1C8CDE6AC56C
100
AcDbDictionary
280
     1
281
     1
  3
ACAD_XREC_ROUNDTRIP
360
1C8CDE6ACA2B
  0
DICTIONARY
  5
1C8CDE6ACA24
330
1C8CDE6AC569
100
AcDbDictionary
280
     1
281
     1
  3
ACAD_XREC_ROUNDTRIP
360
1C8CDE6ACA25
  0
DICTIONARY
  5
1C8CDE6ACA26
330
1C8CDE6AC56A
100
AcDbDictionary
280
     1
281
     1
  3
ACAD_XREC_ROUNDTRIP
360
1C8CDE6ACA27
  0
DICTIONARY
  5
1C8CDE6ACA16
330
1C8CDE6AC562
100
AcDbDictionary
280
     1
281
     1
  3
ACAD_XREC_ROUNDTRIP
360
1C8CDE6ACA17
  0
DICTIONARY
  5
1C8CDE6ACA08
330
1C8CDE6AC55B
100
AcDbDictionary
280
     1
281
     1
  3
ACAD_XREC_ROUNDTRIP
360
1C8CDE6ACA09
  0
DICTIONARY
  5
1C8CDE6ACA28
330
1C8CDE6AC56B
100
AcDbDictionary
280
     1
281
     1
  3
ACAD_XREC_ROUNDTRIP
360
1C8CDE6ACA29
  0
XRECORD
  5
1C8CDE6ACA39
102
{ACAD_REACTORS
330
1C8CDE6ACA38
102
}
330
1C8CDE6ACA38
100
AcDbXrecord
280
     1
102
DISPLAYNAME
  1
Imperial24
102
FLAGS
 90
        0
  0
XRECORD
  5
1C8CDE6AC9FB
102
{ACAD_REACTORS
330
1C8CDE6AC9FA
102
}
330
1C8CDE6AC9FA
100
AcDbXrecord
280
     1
102
SHADEPLOT
 70
     0
102
SHADEPLOTRESLEVEL
 70
     2
102
SHADEPLOTCUSTOMDPI
 70
   300
  0
XRECORD
  5
1C8CDE6AC9FD
102
{ACAD_REACTORS
330
1C8CDE6AC9FC
102
}
330
1C8CDE6AC9FC
100
AcDbXrecord
280
     1
102
SHADEPLOT
 70
     0
102
SHADEPLOTRESLEVEL
 70
     2
102
SHADEPLOTCUSTOMDPI
 70
   300
  0
XRECORD
  5
1C8CDE6ACA31
102
{ACAD_REACTORS
330
1C8CDE6ACA30
102
}
330
1C8CDE6ACA30
100
AcDbXrecord
280
     1
102
MATERIAL
148
0.0
149
0.0
149
0.0
 93
        0
 94
      127
282
     0
 72
     1
 77
     1
171
     1
175
     1
179
     1
273
     0
  0
XRECORD
  5
1C8CDE6ACA2F
102
{ACAD_REACTORS
330
1C8CDE6ACA2E
102
}
330
1C8CDE6ACA2E
100
AcDbXrecord
280
     1
102
MATERIAL
148
0.0
149
0.0
149
0.0
 93
        0
 94
      127
282
     0
 72
     1
 77
     1
171
     1
175
     1
179
     1
273
     0
  0
XRECORD
  5
1C8CDE6ACA33
102
{ACAD_REACTORS
330
1C8CDE6ACA32
102
}
330
1C8CDE6ACA32
100
AcDbXrecord
280
     1
102
MATERIAL
148
0.0
149
0.0
149
0.0
 93
        0
 94
      127
282
     0
 72
     1
 77
     1
171
     1
175
     1
179
     1
273
     0
  0
XRECORD
  5
1C8CDE6ACA37
102
{ACAD_REACTORS
330
1C8CDE6ACA36
102
}
330
1C8CDE6ACA36
100
AcDbXrecord
280
     1
102
DISPLAYNAME
  1
Imperial24
102
FLAGS
 90
        0
  0
CELLSTYLEMAP
  5
1C8CDE6AC9F6
102
{ACAD_REACTORS
330
1C8CDE6AC9AE
102
}
330
1C8CDE6AC9AE
100
AcDbCellStyleMap
 90
        3
300
CELLSTYLE
  1
TABLEFORMAT_BEGIN
 90
        5
170
     1
 91
        0
 92
    32768
 62
   257
 93
        1
300
CONTENTFORMAT
  1
CONTENTFORMAT_BEGIN
 90
        0
 91
        0
 92
        4
 93
        0
300

 40
0.0
140
1.0
 94
        5
 62
     0
340
1C8CDE699D4B
144
0.25
309
CONTENTFORMAT_END
171
     1
301
MARGIN
  1
CELLMARGIN_BEGIN
 40
0.06
 40
0.06
 40
0.06
 40
0.06
 40
0.06
 40
0.06
309
CELLMARGIN_END
 94
        6
 95
        1
302
GRIDFORMAT
  1
GRIDFORMAT_BEGIN
 90
        0
 91
        1
 62
     0
 92
       -2
340
0
 93
        0
 40
0.045
309
GRIDFORMAT_END
 95
        2
302
GRIDFORMAT
  1
GRIDFORMAT_BEGIN
 90
        0
 91
        1
 62
     0
 92
       -2
340
0
 93
        0
 40
0.045
309
GRIDFORMAT_END
 95
        4
302
GRIDFORMAT
  1
GRIDFORMAT_BEGIN
 90
        0
 91
        1
 62
     0
 92
       -2
340
0
 93
        0
 40
0.045
309
GRIDFORMAT_END
 95
        8
302
GRIDFORMAT
  1
GRIDFORMAT_BEGIN
 90
        0
 91
        1
 62
     0
 92
       -2
340
0
 93
        0
 40
0.045
309
GRIDFORMAT_END
 95
       16
302
GRIDFORMAT
  1
GRIDFORMAT_BEGIN
 90
        0
 91
        1
 62
     0
 92
       -2
340
0
 93
        0
 40
0.045
309
GRIDFORMAT_END
 95
       32
302
GRIDFORMAT
  1
GRIDFORMAT_BEGIN
 90
        0
 91
        1
 62
     0
 92
       -2
340
0
 93
        0
 40
0.045
309
GRIDFORMAT_END
309
TABLEFORMAT_END
  1
CELLSTYLE_BEGIN
 90
        1
 91
        1
300
_TITLE
309
CELLSTYLE_END
300
CELLSTYLE
  1
TABLEFORMAT_BEGIN
 90
        5
170
     1
 91
        0
 92
        0
 62
   257
 93
        1
300
CONTENTFORMAT
  1
CONTENTFORMAT_BEGIN
 90
        0
 91
        0
 92
        4
 93
        0
300

 40
0.0
140
1.0
 94
        5
 62
     0
340
1C8CDE699D4B
144
0.18
309
CONTENTFORMAT_END
171
     1
301
MARGIN
  1
CELLMARGIN_BEGIN
 40
0.06
 40
0.06
 40
0.06
 40
0.06
 40
0.06
 40
0.06
309
CELLMARGIN_END
 94
        6
 95
        1
302
GRIDFORMAT
  1
GRIDFORMAT_BEGIN
 90
        0
 91
        1
 62
     0
 92
       -2
340
0
 93
        0
 40
0.045
309
GRIDFORMAT_END
 95
        2
302
GRIDFORMAT
  1
GRIDFORMAT_BEGIN
 90
        0
 91
        1
 62
     0
 92
       -2
340
0
 93
        0
 40
0.045
309
GRIDFORMAT_END
 95
        4
302
GRIDFORMAT
  1
GRIDFORMAT_BEGIN
 90
        0
 91
        1
 62
     0
 92
       -2
340
0
 93
        0
 40
0.045
309
GRIDFORMAT_END
 95
        8
302
GRIDFORMAT
  1
GRIDFORMAT_BEGIN
 90
        0
 91
        1
 62
     0
 92
       -2
340
0
 93
        0
 40
0.045
309
GRIDFORMAT_END
 95
       16
302
GRIDFORMAT
  1
GRIDFORMAT_BEGIN
 90
        0
 91
        1
 62
     0
 92
       -2
340
0
 93
        0
 40
0.045
309
GRIDFORMAT_END
 95
       32
302
GRIDFORMAT
  1
GRIDFORMAT_BEGIN
 90
        0
 91
        1
 62
     0
 92
       -2
340
0
 93
        0
 40
0.045
309
GRIDFORMAT_END
309
TABLEFORMAT_END
  1
CELLSTYLE_BEGIN
 90
        2
 91
        1
300
_HEADER
309
CELLSTYLE_END
300
CELLSTYLE
  1
TABLEFORMAT_BEGIN
 90
        5
170
     1
 91
        0
 92
        0
 62
   257
 93
        1
300
CONTENTFORMAT
  1
CONTENTFORMAT_BEGIN
 90
        0
 91
        0
 92
        4
 93
        0
300

 40
0.0
140
1.0
 94
        2
 62
     0
340
1C8CDE699D4B
144
0.18
309
CONTENTFORMAT_END
171
     1
301
MARGIN
  1
CELLMARGIN_BEGIN
 40
0.06
 40
0.06
 40
0.06
 40
0.06
 40
0.06
 40
0.06
309
CELLMARGIN_END
 94
        6
 95
        1
302
GRIDFORMAT
  1
GRIDFORMAT_BEGIN
 90
        0
 91
        1
 62
     0
 92
       -2
340
0
 93
        0
 40
0.045
309
GRIDFORMAT_END
 95
        2
302
GRIDFORMAT
  1
GRIDFORMAT_BEGIN
 90
        0
 91
        1
 62
     0
 92
       -2
340
0
 93
        0
 40
0.045
309
GRIDFORMAT_END
 95
        4
302
GRIDFORMAT
  1
GRIDFORMAT_BEGIN
 90
        0
 91
        1
 62
     0
 92
       -2
340
0
 93
        0
 40
0.045
309
GRIDFORMAT_END
 95
        8
302
GRIDFORMAT
  1
GRIDFORMAT_BEGIN
 90
        0
 91
        1
 62
     0
 92
       -2
340
0
 93
        0
 40
0.045
309
GRIDFORMAT_END
 95
       16
302
GRIDFORMAT
  1
GRIDFORMAT_BEGIN
 90
        0
 91
        1
 62
     0
 92
       -2
340
0
 93
        0
 40
0.045
309
GRIDFORMAT_END
 95
       32
302
GRIDFORMAT
  1
GRIDFORMAT_BEGIN
 90
        0
 91
        1
 62
     0
 92
       -2
340
0
 93
        0
 40
0.045
309
GRIDFORMAT_END
309
TABLEFORMAT_END
  1
CELLSTYLE_BEGIN
 90
        3
 91
        2
300
_DATA
309
CELLSTYLE_END
  0
XRECORD
  5
1C8CDE6AC9F9
102
{ACAD_REACTORS
330
1C8CDE6AC9AE
102
}
330
1C8CDE6AC9AE
100
AcDbXrecord
280
     1
102
ACAD_ROUNDTRIP_PRE2007_TABLESTYLE
 90
        4
 91
        0
  1

 92
        4
 93
        0
  2

 94
        4
 95
        0
  3

  0
XRECORD
  5
1C8CDE6ACA07
102
{ACAD_REACTORS
330
1C8CDE6ACA06
102
}
330
1C8CDE6ACA06
100
AcDbXrecord
280
     1
102
RTVSPost2010Prop28
280
     1
102
RTVSPost2010PropOp28
 70
     1
102
RTVSPost2010Prop29
280
     1
102
RTVSPost2010PropOp29
 70
     1
102
RTVSPost2010Prop30
280
     0
102
RTVSPost2010PropOp30
 70
     1
102
RTVSPost2010Prop31
280
     0
102
RTVSPost2010PropOp31
 70
     1
102
RTVSPost2010Prop32
280
     0
102
RTVSPost2010PropOp32
 70
     1
102
RTVSPost2010Prop33
280
     0
102
RTVSPost2010PropOp33
 70
     1
102
RTVSPost2010Prop34
280
     0
102
RTVSPost2010PropOp34
 70
     1
102
RTVSPost2010Prop35
280
     0
102
RTVSPost2010PropOp35
 70
     1
102
RTVSPost2010Prop36
280
     0
102
RTVSPost2010PropOp36
 70
     1
102
RTVSPost2010Prop37
 90
       50
102
RTVSPost2010PropOp37
 70
     1
102
RTVSPost2010Prop38
140
0.0
102
RTVSPost2010PropOp38
 70
     1
102
RTVSPost2010Prop39
140
1.0
102
RTVSPost2010PropOp39
 70
     1
102
RTVSPost2010Prop40
 90
        0
102
RTVSPost2010PropOp40
 70
     1
102
RTVSPost2010Prop41ColorIndex
 90
       18
102
RTVSPost2010Prop41ColorRGB
 90
        0
102
RTVSPost2010PropOp41
 70
     1
102
RTVSPost2010Prop42
 90
       50
102
RTVSPost2010PropOp42
 70
     1
102
RTVSPost2010Prop43
 90
        3
102
RTVSPost2010PropOp43
 70
     1
102
RTVSPost2010Prop44ColorIndex
 90
        5
102
RTVSPost2010Prop44ColorRGB
 90
      255
102
RTVSPost2010PropOp44
 70
     1
102
RTVSPost2010Prop45
280
     0
102
RTVSPost2010PropOp45
 70
     1
102
RTVSPost2010Prop46
 90
       50
102
RTVSPost2010PropOp46
 70
     1
102
RTVSPost2010Prop47
 90
       50
102
RTVSPost2010PropOp47
 70
     1
102
RTVSPost2010Prop48
 90
       50
102
RTVSPost2010PropOp48
 70
     1
102
RTVSPost2010Prop49
280
     0
102
RTVSPost2010PropOp49
 70
     1
102
RTVSPost2010Prop50
 90
       50
102
RTVSPost2010PropOp50
 70
     1
102
RTVSPost2010Prop51ColorIndex
 90
      256
102
RTVSPost2010Prop51ColorRGB
 90
-16777216
102
RTVSPost2010PropOp51
 70
     0
102
RTVSPost2010Prop52
140
1.0
102
RTVSPost2010PropOp52
 70
     0
102
RTVSPost2010Prop53
 90
        2
102
RTVSPost2010PropOp53
 70
     1
102
RTVSPost2010Prop54
  1
strokes_ogs.tif
102
RTVSPost2010PropOp54
 70
     1
102
RTVSPost2010Prop55
280
     0
102
RTVSPost2010PropOp55
 70
     1
102
RTVSPost2010Prop56
140
1.0
102
RTVSPost2010PropOp56
 70
     1
102
RTVSPost2010Prop57
140
1.0
102
RTVSPost2010PropOp57
 70
     1
102
RTVSPropertyOp0
 70
     1
102
RTVSPropertyOp1
 70
     1
102
RTVSPropertyOp2
 70
     1
102
RTVSPropertyOp3
 70
     1
102
RTVSPropertyOp4
 70
     1
102
RTVSPropertyOp5
 70
     1
102
RTVSPropertyOp6
 70
     1
102
RTVSPropertyOp7
 70
     1
102
RTVSPropertyOp8
 70
     1
102
RTVSPropertyOp9
 70
     1
102
RTVSPropertyOp10
 70
     1
102
RTVSPropertyOp11
 70
     1
102
RTVSPropertyOp12
 70
     1
102
RTVSPropertyOp13
 70
     1
102
RTVSPropertyOp14
 70
     1
102
RTVSPropertyOp15
 70
     1
102
RTVSPropertyOp16
 70
     1
102
RTVSPropertyOp17
 70
     1
102
RTVSPropertyOp18
 70
     1
102
RTVSPropertyOp19
 70
     1
102
RTVSPropertyOp20
 70
     1
102
RTVSPropertyOp21
 70
     1
102
RTVSPropertyOp22
 70
     1
102
RTVSPropertyOp23
 70
     1
102
RTVSPropertyOp24
 70
     1
102
RTVSPropertyOp25
 70
     1
102
RTVSPropertyOp26
 70
     1
102
RTVSPropertyOp27
 70
     1
102
RTVSPropertyOp28
 70
     1
102
RTVSPropertyOp29
 70
     1
102
RTVSPropertyOp30
 70
     1
102
RTVSPropertyOp31
 70
     1
102
RTVSPropertyOp32
 70
     1
102
RTVSPropertyOp33
 70
     1
102
RTVSPropertyOp34
 70
     1
102
RTVSPropertyOp35
 70
     1
102
RTVSPropertyOp36
 70
     1
102
RTVSPropertyOp37
 70
     1
102
RTVSPropertyOp38
 70
     1
102
RTVSPropertyOp39
 70
     1
102
RTVSPropertyOp40
 70
     1
102
RTVSPropertyOp41
 70
     1
102
RTVSPropertyOp42
 70
     1
102
RTVSPropertyOp43
 70
     1
102
RTVSPropertyOp44
 70
     1
102
RTVSPropertyOp45
 70
     1
102
RTVSPropertyOp46
 70
     1
102
RTVSPropertyOp47
 70
     1
102
RTVSPropertyOp48
 70
     1
102
RTVSPropertyOp49
 70
     1
102
RTVSPropertyOp50
 70
     1
102
RTVSPropertyOp51
 70
     0
102
RTVSPropertyOp52
 70
     0
102
RTVSPropertyOp53
 70
     1
102
RTVSPropertyOp54
 70
     1
102
RTVSPropertyOp55
 70
     1
102
RTVSPropertyOp56
 70
     1
102
RTVSPropertyOp57
 70
     1
102
RTVSPropertyOp58
 70
     1
102
RTVSPropertyOp59
 70
     1
102
RTVSPropertyOp60
 70
     1
102
RTVSPropertyOp61
 70
     1
102
RTVSPropertyOp62
 70
     1
  0
XRECORD
  5
1C8CDE6ACA0D
102
{ACAD_REACTORS
330
1C8CDE6ACA0C
102
}
330
1C8CDE6ACA0C
100
AcDbXrecord
280
     1
102
RTVSPost2010Prop28
280
     0
102
RTVSPost2010PropOp28
 70
     1
102
RTVSPost2010Prop29
280
     1
102
RTVSPost2010PropOp29
 70
     1
102
RTVSPost2010Prop30
280
     1
102
RTVSPost2010PropOp30
 70
     1
102
RTVSPost2010Prop31
280
     0
102
RTVSPost2010PropOp31
 70
     1
102
RTVSPost2010Prop32
280
     0
102
RTVSPost2010PropOp32
 70
     1
102
RTVSPost2010Prop33
280
     0
102
RTVSPost2010PropOp33
 70
     1
102
RTVSPost2010Prop34
280
     0
102
RTVSPost2010PropOp34
 70
     1
102
RTVSPost2010Prop35
280
     0
102
RTVSPost2010PropOp35
 70
     1
102
RTVSPost2010Prop36
280
     0
102
RTVSPost2010PropOp36
 70
     1
102
RTVSPost2010Prop37
 90
       50
102
RTVSPost2010PropOp37
 70
     1
102
RTVSPost2010Prop38
140
0.0
102
RTVSPost2010PropOp38
 70
     1
102
RTVSPost2010Prop39
140
1.0
102
RTVSPost2010PropOp39
 70
     1
102
RTVSPost2010Prop40
 90
        0
102
RTVSPost2010PropOp40
 70
     1
102
RTVSPost2010Prop41ColorIndex
 90
       18
102
RTVSPost2010Prop41ColorRGB
 90
        0
102
RTVSPost2010PropOp41
 70
     1
102
RTVSPost2010Prop42
 90
       50
102
RTVSPost2010PropOp42
 70
     1
102
RTVSPost2010Prop43
 90
        3
102
RTVSPost2010PropOp43
 70
     1
102
RTVSPost2010Prop44ColorIndex
 90
        5
102
RTVSPost2010Prop44ColorRGB
 90
      255
102
RTVSPost2010PropOp44
 70
     1
102
RTVSPost2010Prop45
280
     0
102
RTVSPost2010PropOp45
 70
     1
102
RTVSPost2010Prop46
 90
       50
102
RTVSPost2010PropOp46
 70
     1
102
RTVSPost2010Prop47
 90
       50
102
RTVSPost2010PropOp47
 70
     1
102
RTVSPost2010Prop48
 90
       50
102
RTVSPost2010PropOp48
 70
     1
102
RTVSPost2010Prop49
280
     0
102
RTVSPost2010PropOp49
 70
     1
102
RTVSPost2010Prop50
 90
       50
102
RTVSPost2010PropOp50
 70
     1
102
RTVSPost2010Prop51ColorIndex
 90
      256
102
RTVSPost2010Prop51ColorRGB
 90
-16777216
102
RTVSPost2010PropOp51
 70
     0
102
RTVSPost2010Prop52
140
1.0
102
RTVSPost2010PropOp52
 70
     0
102
RTVSPost2010Prop53
 90
        2
102
RTVSPost2010PropOp53
 70
     1
102
RTVSPost2010Prop54
  1
strokes_ogs.tif
102
RTVSPost2010PropOp54
 70
     1
102
RTVSPost2010Prop55
280
     0
102
RTVSPost2010PropOp55
 70
     1
102
RTVSPost2010Prop56
140
1.0
102
RTVSPost2010PropOp56
 70
     1
102
RTVSPost2010Prop57
140
1.0
102
RTVSPost2010PropOp57
 70
     1
102
RTVSPropertyOp0
 70
     1
102
RTVSPropertyOp1
 70
     1
102
RTVSPropertyOp2
 70
     1
102
RTVSPropertyOp3
 70
     1
102
RTVSPropertyOp4
 70
     1
102
RTVSPropertyOp5
 70
     1
102
RTVSPropertyOp6
 70
     1
102
RTVSPropertyOp7
 70
     1
102
RTVSPropertyOp8
 70
     1
102
RTVSPropertyOp9
 70
     1
102
RTVSPropertyOp10
 70
     1
102
RTVSPropertyOp11
 70
     1
102
RTVSPropertyOp12
 70
     1
102
RTVSPropertyOp13
 70
     1
102
RTVSPropertyOp14
 70
     1
102
RTVSPropertyOp15
 70
     1
102
RTVSPropertyOp16
 70
     1
102
RTVSPropertyOp17
 70
     1
102
RTVSPropertyOp18
 70
     1
102
RTVSPropertyOp19
 70
     1
102
RTVSPropertyOp20
 70
     1
102
RTVSPropertyOp21
 70
     1
102
RTVSPropertyOp22
 70
     1
102
RTVSPropertyOp23
 70
     1
102
RTVSPropertyOp24
 70
     1
102
RTVSPropertyOp25
 70
     1
102
RTVSPropertyOp26
 70
     1
102
RTVSPropertyOp27
 70
     1
102
RTVSPropertyOp28
 70
     1
102
RTVSPropertyOp29
 70
     1
102
RTVSPropertyOp30
 70
     1
102
RTVSPropertyOp31
 70
     1
102
RTVSPropertyOp32
 70
     1
102
RTVSPropertyOp33
 70
     1
102
RTVSPropertyOp34
 70
     1
102
RTVSPropertyOp35
 70
     1
102
RTVSPropertyOp36
 70
     1
102
RTVSPropertyOp37
 70
     1
102
RTVSPropertyOp38
 70
     1
102
RTVSPropertyOp39
 70
     1
102
RTVSPropertyOp40
 70
     1
102
RTVSPropertyOp41
 70
     1
102
RTVSPropertyOp42
 70
     1
102
RTVSPropertyOp43
 70
     1
102
RTVSPropertyOp44
 70
     1
102
RTVSPropertyOp45
 70
     1
102
RTVSPropertyOp46
 70
     1
102
RTVSPropertyOp47
 70
     1
102
RTVSPropertyOp48
 70
     1
102
RTVSPropertyOp49
 70
     1
102
RTVSPropertyOp50
 70
     1
102
RTVSPropertyOp51
 70
     0
102
RTVSPropertyOp52
 70
     0
102
RTVSPropertyOp53
 70
     1
102
RTVSPropertyOp54
 70
     1
102
RTVSPropertyOp55
 70
     1
102
RTVSPropertyOp56
 70
     1
102
RTVSPropertyOp57
 70
     1
102
RTVSPropertyOp58
 70
     1
102
RTVSPropertyOp59
 70
     1
102
RTVSPropertyOp60
 70
     1
102
RTVSPropertyOp61
 70
     1
102
RTVSPropertyOp62
 70
     1
  0
XRECORD
  5
1C8CDE6ACA15
102
{ACAD_REACTORS
330
1C8CDE6ACA14
102
}
330
1C8CDE6ACA14
100
AcDbXrecord
280
     1
102
RTVSPost2010Prop28
280
     0
102
RTVSPost2010PropOp28
 70
     1
102
RTVSPost2010Prop29
280
     1
102
RTVSPost2010PropOp29
 70
     1
102
RTVSPost2010Prop30
280
     1
102
RTVSPost2010PropOp30
 70
     1
102
RTVSPost2010Prop31
280
     0
102
RTVSPost2010PropOp31
 70
     1
102
RTVSPost2010Prop32
280
     0
102
RTVSPost2010PropOp32
 70
     1
102
RTVSPost2010Prop33
280
     0
102
RTVSPost2010PropOp33
 70
     1
102
RTVSPost2010Prop34
280
     0
102
RTVSPost2010PropOp34
 70
     1
102
RTVSPost2010Prop35
280
     0
102
RTVSPost2010PropOp35
 70
     1
102
RTVSPost2010Prop36
280
     0
102
RTVSPost2010PropOp36
 70
     1
102
RTVSPost2010Prop37
 90
       50
102
RTVSPost2010PropOp37
 70
     1
102
RTVSPost2010Prop38
140
0.0
102
RTVSPost2010PropOp38
 70
     1
102
RTVSPost2010Prop39
140
1.0
102
RTVSPost2010PropOp39
 70
     1
102
RTVSPost2010Prop40
 90
        0
102
RTVSPost2010PropOp40
 70
     1
102
RTVSPost2010Prop41ColorIndex
 90
       18
102
RTVSPost2010Prop41ColorRGB
 90
        0
102
RTVSPost2010PropOp41
 70
     1
102
RTVSPost2010Prop42
 90
       50
102
RTVSPost2010PropOp42
 70
     1
102
RTVSPost2010Prop43
 90
        3
102
RTVSPost2010PropOp43
 70
     1
102
RTVSPost2010Prop44ColorIndex
 90
        5
102
RTVSPost2010Prop44ColorRGB
 90
      255
102
RTVSPost2010PropOp44
 70
     1
102
RTVSPost2010Prop45
280
     0
102
RTVSPost2010PropOp45
 70
     1
102
RTVSPost2010Prop46
 90
       50
102
RTVSPost2010PropOp46
 70
     1
102
RTVSPost2010Prop47
 90
       50
102
RTVSPost2010PropOp47
 70
     1
102
RTVSPost2010Prop48
 90
       50
102
RTVSPost2010PropOp48
 70
     1
102
RTVSPost2010Prop49
280
     0
102
RTVSPost2010PropOp49
 70
     1
102
RTVSPost2010Prop50
 90
       50
102
RTVSPost2010PropOp50
 70
     1
102
RTVSPost2010Prop51ColorIndex
 90
      256
102
RTVSPost2010Prop51ColorRGB
 90
-16777216
102
RTVSPost2010PropOp51
 70
     0
102
RTVSPost2010Prop52
140
1.0
102
RTVSPost2010PropOp52
 70
     0
102
RTVSPost2010Prop53
 90
        2
102
RTVSPost2010PropOp53
 70
     1
102
RTVSPost2010Prop54
  1
strokes_ogs.tif
102
RTVSPost2010PropOp54
 70
     1
102
RTVSPost2010Prop55
280
     0
102
RTVSPost2010PropOp55
 70
     1
102
RTVSPost2010Prop56
140
1.0
102
RTVSPost2010PropOp56
 70
     1
102
RTVSPost2010Prop57
140
1.0
102
RTVSPost2010PropOp57
 70
     1
102
RTVSPropertyOp0
 70
     1
102
RTVSPropertyOp1
 70
     1
102
RTVSPropertyOp2
 70
     1
102
RTVSPropertyOp3
 70
     1
102
RTVSPropertyOp4
 70
     1
102
RTVSPropertyOp5
 70
     1
102
RTVSPropertyOp6
 70
     1
102
RTVSPropertyOp7
 70
     1
102
RTVSPropertyOp8
 70
     1
102
RTVSPropertyOp9
 70
     1
102
RTVSPropertyOp10
 70
     1
102
RTVSPropertyOp11
 70
     1
102
RTVSPropertyOp12
 70
     1
102
RTVSPropertyOp13
 70
     1
102
RTVSPropertyOp14
 70
     1
102
RTVSPropertyOp15
 70
     1
102
RTVSPropertyOp16
 70
     1
102
RTVSPropertyOp17
 70
     1
102
RTVSPropertyOp18
 70
     1
102
RTVSPropertyOp19
 70
     1
102
RTVSPropertyOp20
 70
     1
102
RTVSPropertyOp21
 70
     1
102
RTVSPropertyOp22
 70
     1
102
RTVSPropertyOp23
 70
     1
102
RTVSPropertyOp24
 70
     1
102
RTVSPropertyOp25
 70
     1
102
RTVSPropertyOp26
 70
     1
102
RTVSPropertyOp27
 70
     1
102
RTVSPropertyOp28
 70
     1
102
RTVSPropertyOp29
 70
     1
102
RTVSPropertyOp30
 70
     1
102
RTVSPropertyOp31
 70
     1
102
RTVSPropertyOp32
 70
     1
102
RTVSPropertyOp33
 70
     1
102
RTVSPropertyOp34
 70
     1
102
RTVSPropertyOp35
 70
     1
102
RTVSPropertyOp36
 70
     1
102
RTVSPropertyOp37
 70
     1
102
RTVSPropertyOp38
 70
     1
102
RTVSPropertyOp39
 70
     1
102
RTVSPropertyOp40
 70
     1
102
RTVSPropertyOp41
 70
     1
102
RTVSPropertyOp42
 70
     1
102
RTVSPropertyOp43
 70
     1
102
RTVSPropertyOp44
 70
     1
102
RTVSPropertyOp45
 70
     1
102
RTVSPropertyOp46
 70
     1
102
RTVSPropertyOp47
 70
     1
102
RTVSPropertyOp48
 70
     1
102
RTVSPropertyOp49
 70
     1
102
RTVSPropertyOp50
 70
     1
102
RTVSPropertyOp51
 70
     0
102
RTVSPropertyOp52
 70
     0
102
RTVSPropertyOp53
 70
     1
102
RTVSPropertyOp54
 70
     1
102
RTVSPropertyOp55
 70
     1
102
RTVSPropertyOp56
 70
     1
102
RTVSPropertyOp57
 70
     1
102
RTVSPropertyOp58
 70
     1
102
RTVSPropertyOp59
 70
     1
102
RTVSPropertyOp60
 70
     1
102
RTVSPropertyOp61
 70
     1
102
RTVSPropertyOp62
 70
     1
  0
XRECORD
  5
1C8CDE6ACA1D
102
{ACAD_REACTORS
330
1C8CDE6ACA1C
102
}
330
1C8CDE6ACA1C
100
AcDbXrecord
280
     1
102
RTVSPost2010Prop28
280
     0
102
RTVSPost2010PropOp28
 70
     1
102
RTVSPost2010Prop29
280
     1
102
RTVSPost2010PropOp29
 70
     1
102
RTVSPost2010Prop30
280
     1
102
RTVSPost2010PropOp30
 70
     1
102
RTVSPost2010Prop31
280
     0
102
RTVSPost2010PropOp31
 70
     1
102
RTVSPost2010Prop32
280
     0
102
RTVSPost2010PropOp32
 70
     1
102
RTVSPost2010Prop33
280
     0
102
RTVSPost2010PropOp33
 70
     1
102
RTVSPost2010Prop34
280
     0
102
RTVSPost2010PropOp34
 70
     1
102
RTVSPost2010Prop35
280
     0
102
RTVSPost2010PropOp35
 70
     1
102
RTVSPost2010Prop36
280
     0
102
RTVSPost2010PropOp36
 70
     1
102
RTVSPost2010Prop37
 90
       50
102
RTVSPost2010PropOp37
 70
     1
102
RTVSPost2010Prop38
140
0.0
102
RTVSPost2010PropOp38
 70
     1
102
RTVSPost2010Prop39
140
1.0
102
RTVSPost2010PropOp39
 70
     1
102
RTVSPost2010Prop40
 90
        0
102
RTVSPost2010PropOp40
 70
     1
102
RTVSPost2010Prop41ColorIndex
 90
       18
102
RTVSPost2010Prop41ColorRGB
 90
        0
102
RTVSPost2010PropOp41
 70
     1
102
RTVSPost2010Prop42
 90
       50
102
RTVSPost2010PropOp42
 70
     1
102
RTVSPost2010Prop43
 90
        3
102
RTVSPost2010PropOp43
 70
     1
102
RTVSPost2010Prop44ColorIndex
 90
        5
102
RTVSPost2010Prop44ColorRGB
 90
      255
102
RTVSPost2010PropOp44
 70
     1
102
RTVSPost2010Prop45
280
     0
102
RTVSPost2010PropOp45
 70
     1
102
RTVSPost2010Prop46
 90
       50
102
RTVSPost2010PropOp46
 70
     1
102
RTVSPost2010Prop47
 90
       50
102
RTVSPost2010PropOp47
 70
     1
102
RTVSPost2010Prop48
 90
       50
102
RTVSPost2010PropOp48
 70
     1
102
RTVSPost2010Prop49
280
     0
102
RTVSPost2010PropOp49
 70
     1
102
RTVSPost2010Prop50
 90
       50
102
RTVSPost2010PropOp50
 70
     1
102
RTVSPost2010Prop51ColorIndex
 90
      256
102
RTVSPost2010Prop51ColorRGB
 90
-16777216
102
RTVSPost2010PropOp51
 70
     0
102
RTVSPost2010Prop52
140
1.0
102
RTVSPost2010PropOp52
 70
     0
102
RTVSPost2010Prop53
 90
        2
102
RTVSPost2010PropOp53
 70
     1
102
RTVSPost2010Prop54
  1
strokes_ogs.tif
102
RTVSPost2010PropOp54
 70
     1
102
RTVSPost2010Prop55
280
     0
102
RTVSPost2010PropOp55
 70
     1
102
RTVSPost2010Prop56
140
1.0
102
RTVSPost2010PropOp56
 70
     1
102
RTVSPost2010Prop57
140
1.0
102
RTVSPost2010PropOp57
 70
     1
102
RTVSPropertyOp0
 70
     1
102
RTVSPropertyOp1
 70
     1
102
RTVSPropertyOp2
 70
     1
102
RTVSPropertyOp3
 70
     1
102
RTVSPropertyOp4
 70
     1
102
RTVSPropertyOp5
 70
     1
102
RTVSPropertyOp6
 70
     1
102
RTVSPropertyOp7
 70
     1
102
RTVSPropertyOp8
 70
     1
102
RTVSPropertyOp9
 70
     1
102
RTVSPropertyOp10
 70
     1
102
RTVSPropertyOp11
 70
     1
102
RTVSPropertyOp12
 70
     1
102
RTVSPropertyOp13
 70
     1
102
RTVSPropertyOp14
 70
     1
102
RTVSPropertyOp15
 70
     1
102
RTVSPropertyOp16
 70
     1
102
RTVSPropertyOp17
 70
     1
102
RTVSPropertyOp18
 70
     1
102
RTVSPropertyOp19
 70
     1
102
RTVSPropertyOp20
 70
     1
102
RTVSPropertyOp21
 70
     1
102
RTVSPropertyOp22
 70
     1
102
RTVSPropertyOp23
 70
     1
102
RTVSPropertyOp24
 70
     1
102
RTVSPropertyOp25
 70
     1
102
RTVSPropertyOp26
 70
     1
102
RTVSPropertyOp27
 70
     1
102
RTVSPropertyOp28
 70
     1
102
RTVSPropertyOp29
 70
     1
102
RTVSPropertyOp30
 70
     1
102
RTVSPropertyOp31
 70
     1
102
RTVSPropertyOp32
 70
     1
102
RTVSPropertyOp33
 70
     1
102
RTVSPropertyOp34
 70
     1
102
RTVSPropertyOp35
 70
     1
102
RTVSPropertyOp36
 70
     1
102
RTVSPropertyOp37
 70
     1
102
RTVSPropertyOp38
 70
     1
102
RTVSPropertyOp39
 70
     1
102
RTVSPropertyOp40
 70
     1
102
RTVSPropertyOp41
 70
     1
102
RTVSPropertyOp42
 70
     1
102
RTVSPropertyOp43
 70
     1
102
RTVSPropertyOp44
 70
     1
102
RTVSPropertyOp45
 70
     1
102
RTVSPropertyOp46
 70
     1
102
RTVSPropertyOp47
 70
     1
102
RTVSPropertyOp48
 70
     1
102
RTVSPropertyOp49
 70
     1
102
RTVSPropertyOp50
 70
     1
102
RTVSPropertyOp51
 70
     0
102
RTVSPropertyOp52
 70
     0
102
RTVSPropertyOp53
 70
     1
102
RTVSPropertyOp54
 70
     1
102
RTVSPropertyOp55
 70
     1
102
RTVSPropertyOp56
 70
     1
102
RTVSPropertyOp57
 70
     1
102
RTVSPropertyOp58
 70
     1
102
RTVSPropertyOp59
 70
     1
102
RTVSPropertyOp60
 70
     1
102
RTVSPropertyOp61
 70
     1
102
RTVSPropertyOp62
 70
     1
  0
XRECORD
  5
1C8CDE6ACA11
102
{ACAD_REACTORS
330
1C8CDE6ACA10
102
}
330
1C8CDE6ACA10
100
AcDbXrecord
280
     1
102
RTVSPost2010Prop28
280
     0
102
RTVSPost2010PropOp28
 70
     1
102
RTVSPost2010Prop29
280
     1
102
RTVSPost2010PropOp29
 70
     1
102
RTVSPost2010Prop30
280
     1
102
RTVSPost2010PropOp30
 70
     1
102
RTVSPost2010Prop31
280
     0
102
RTVSPost2010PropOp31
 70
     1
102
RTVSPost2010Prop32
280
     0
102
RTVSPost2010PropOp32
 70
     1
102
RTVSPost2010Prop33
280
     0
102
RTVSPost2010PropOp33
 70
     1
102
RTVSPost2010Prop34
280
     0
102
RTVSPost2010PropOp34
 70
     1
102
RTVSPost2010Prop35
280
     0
102
RTVSPost2010PropOp35
 70
     1
102
RTVSPost2010Prop36
280
     0
102
RTVSPost2010PropOp36
 70
     1
102
RTVSPost2010Prop37
 90
       50
102
RTVSPost2010PropOp37
 70
     1
102
RTVSPost2010Prop38
140
0.0
102
RTVSPost2010PropOp38
 70
     1
102
RTVSPost2010Prop39
140
1.0
102
RTVSPost2010PropOp39
 70
     1
102
RTVSPost2010Prop40
 90
        0
102
RTVSPost2010PropOp40
 70
     1
102
RTVSPost2010Prop41ColorIndex
 90
       18
102
RTVSPost2010Prop41ColorRGB
 90
        0
102
RTVSPost2010PropOp41
 70
     1
102
RTVSPost2010Prop42
 90
       50
102
RTVSPost2010PropOp42
 70
     1
102
RTVSPost2010Prop43
 90
        3
102
RTVSPost2010PropOp43
 70
     1
102
RTVSPost2010Prop44ColorIndex
 90
        5
102
RTVSPost2010Prop44ColorRGB
 90
      255
102
RTVSPost2010PropOp44
 70
     1
102
RTVSPost2010Prop45
280
     0
102
RTVSPost2010PropOp45
 70
     1
102
RTVSPost2010Prop46
 90
       50
102
RTVSPost2010PropOp46
 70
     1
102
RTVSPost2010Prop47
 90
       50
102
RTVSPost2010PropOp47
 70
     1
102
RTVSPost2010Prop48
 90
       50
102
RTVSPost2010PropOp48
 70
     1
102
RTVSPost2010Prop49
280
     0
102
RTVSPost2010PropOp49
 70
     1
102
RTVSPost2010Prop50
 90
       50
102
RTVSPost2010PropOp50
 70
     1
102
RTVSPost2010Prop51ColorIndex
 90
      256
102
RTVSPost2010Prop51ColorRGB
 90
-16777216
102
RTVSPost2010PropOp51
 70
     0
102
RTVSPost2010Prop52
140
1.0
102
RTVSPost2010PropOp52
 70
     0
102
RTVSPost2010Prop53
 90
        2
102
RTVSPost2010PropOp53
 70
     1
102
RTVSPost2010Prop54
  1
strokes_ogs.tif
102
RTVSPost2010PropOp54
 70
     1
102
RTVSPost2010Prop55
280
     0
102
RTVSPost2010PropOp55
 70
     1
102
RTVSPost2010Prop56
140
1.0
102
RTVSPost2010PropOp56
 70
     1
102
RTVSPost2010Prop57
140
1.0
102
RTVSPost2010PropOp57
 70
     1
102
RTVSPropertyOp0
 70
     1
102
RTVSPropertyOp1
 70
     1
102
RTVSPropertyOp2
 70
     1
102
RTVSPropertyOp3
 70
     1
102
RTVSPropertyOp4
 70
     1
102
RTVSPropertyOp5
 70
     1
102
RTVSPropertyOp6
 70
     1
102
RTVSPropertyOp7
 70
     1
102
RTVSPropertyOp8
 70
     1
102
RTVSPropertyOp9
 70
     1
102
RTVSPropertyOp10
 70
     1
102
RTVSPropertyOp11
 70
     1
102
RTVSPropertyOp12
 70
     1
102
RTVSPropertyOp13
 70
     1
102
RTVSPropertyOp14
 70
     1
102
RTVSPropertyOp15
 70
     1
102
RTVSPropertyOp16
 70
     1
102
RTVSPropertyOp17
 70
     1
102
RTVSPropertyOp18
 70
     1
102
RTVSPropertyOp19
 70
     1
102
RTVSPropertyOp20
 70
     1
102
RTVSPropertyOp21
 70
     1
102
RTVSPropertyOp22
 70
     1
102
RTVSPropertyOp23
 70
     1
102
RTVSPropertyOp24
 70
     1
102
RTVSPropertyOp25
 70
     1
102
RTVSPropertyOp26
 70
     1
102
RTVSPropertyOp27
 70
     1
102
RTVSPropertyOp28
 70
     1
102
RTVSPropertyOp29
 70
     1
102
RTVSPropertyOp30
 70
     1
102
RTVSPropertyOp31
 70
     1
102
RTVSPropertyOp32
 70
     1
102
RTVSPropertyOp33
 70
     1
102
RTVSPropertyOp34
 70
     1
102
RTVSPropertyOp35
 70
     1
102
RTVSPropertyOp36
 70
     1
102
RTVSPropertyOp37
 70
     1
102
RTVSPropertyOp38
 70
     1
102
RTVSPropertyOp39
 70
     1
102
RTVSPropertyOp40
 70
     1
102
RTVSPropertyOp41
 70
     1
102
RTVSPropertyOp42
 70
     1
102
RTVSPropertyOp43
 70
     1
102
RTVSPropertyOp44
 70
     1
102
RTVSPropertyOp45
 70
     1
102
RTVSPropertyOp46
 70
     1
102
RTVSPropertyOp47
 70
     1
102
RTVSPropertyOp48
 70
     1
102
RTVSPropertyOp49
 70
     1
102
RTVSPropertyOp50
 70
     1
102
RTVSPropertyOp51
 70
     0
102
RTVSPropertyOp52
 70
     0
102
RTVSPropertyOp53
 70
     1
102
RTVSPropertyOp54
 70
     1
102
RTVSPropertyOp55
 70
     1
102
RTVSPropertyOp56
 70
     1
102
RTVSPropertyOp57
 70
     1
102
RTVSPropertyOp58
 70
     1
102
RTVSPropertyOp59
 70
     1
102
RTVSPropertyOp60
 70
     1
102
RTVSPropertyOp61
 70
     1
102
RTVSPropertyOp62
 70
     1
  0
XRECORD
  5
1C8CDE6ACA13
102
{ACAD_REACTORS
330
1C8CDE6ACA12
102
}
330
1C8CDE6ACA12
100
AcDbXrecord
280
     1
102
RTVSPost2010Prop28
280
     0
102
RTVSPost2010PropOp28
 70
     1
102
RTVSPost2010Prop29
280
     1
102
RTVSPost2010PropOp29
 70
     1
102
RTVSPost2010Prop30
280
     1
102
RTVSPost2010PropOp30
 70
     1
102
RTVSPost2010Prop31
280
     0
102
RTVSPost2010PropOp31
 70
     1
102
RTVSPost2010Prop32
280
     0
102
RTVSPost2010PropOp32
 70
     1
102
RTVSPost2010Prop33
280
     0
102
RTVSPost2010PropOp33
 70
     1
102
RTVSPost2010Prop34
280
     0
102
RTVSPost2010PropOp34
 70
     1
102
RTVSPost2010Prop35
280
     0
102
RTVSPost2010PropOp35
 70
     1
102
RTVSPost2010Prop36
280
     0
102
RTVSPost2010PropOp36
 70
     1
102
RTVSPost2010Prop37
 90
       50
102
RTVSPost2010PropOp37
 70
     1
102
RTVSPost2010Prop38
140
0.0
102
RTVSPost2010PropOp38
 70
     1
102
RTVSPost2010Prop39
140
1.0
102
RTVSPost2010PropOp39
 70
     1
102
RTVSPost2010Prop40
 90
        0
102
RTVSPost2010PropOp40
 70
     1
102
RTVSPost2010Prop41ColorIndex
 90
       18
102
RTVSPost2010Prop41ColorRGB
 90
        0
102
RTVSPost2010PropOp41
 70
     1
102
RTVSPost2010Prop42
 90
       50
102
RTVSPost2010PropOp42
 70
     1
102
RTVSPost2010Prop43
 90
        3
102
RTVSPost2010PropOp43
 70
     1
102
RTVSPost2010Prop44ColorIndex
 90
        5
102
RTVSPost2010Prop44ColorRGB
 90
      255
102
RTVSPost2010PropOp44
 70
     1
102
RTVSPost2010Prop45
280
     0
102
RTVSPost2010PropOp45
 70
     1
102
RTVSPost2010Prop46
 90
       50
102
RTVSPost2010PropOp46
 70
     1
102
RTVSPost2010Prop47
 90
       50
102
RTVSPost2010PropOp47
 70
     1
102
RTVSPost2010Prop48
 90
       50
102
RTVSPost2010PropOp48
 70
     1
102
RTVSPost2010Prop49
280
     0
102
RTVSPost2010PropOp49
 70
     1
102
RTVSPost2010Prop50
 90
       50
102
RTVSPost2010PropOp50
 70
     1
102
RTVSPost2010Prop51ColorIndex
 90
      256
102
RTVSPost2010Prop51ColorRGB
 90
-16777216
102
RTVSPost2010PropOp51
 70
     0
102
RTVSPost2010Prop52
140
1.0
102
RTVSPost2010PropOp52
 70
     0
102
RTVSPost2010Prop53
 90
        2
102
RTVSPost2010PropOp53
 70
     1
102
RTVSPost2010Prop54
  1
strokes_ogs.tif
102
RTVSPost2010PropOp54
 70
     1
102
RTVSPost2010Prop55
280
     0
102
RTVSPost2010PropOp55
 70
     1
102
RTVSPost2010Prop56
140
1.0
102
RTVSPost2010PropOp56
 70
     1
102
RTVSPost2010Prop57
140
1.0
102
RTVSPost2010PropOp57
 70
     1
102
RTVSPropertyOp0
 70
     1
102
RTVSPropertyOp1
 70
     1
102
RTVSPropertyOp2
 70
     1
102
RTVSPropertyOp3
 70
     1
102
RTVSPropertyOp4
 70
     1
102
RTVSPropertyOp5
 70
     1
102
RTVSPropertyOp6
 70
     1
102
RTVSPropertyOp7
 70
     1
102
RTVSPropertyOp8
 70
     1
102
RTVSPropertyOp9
 70
     1
102
RTVSPropertyOp10
 70
     1
102
RTVSPropertyOp11
 70
     1
102
RTVSPropertyOp12
 70
     1
102
RTVSPropertyOp13
 70
     1
102
RTVSPropertyOp14
 70
     1
102
RTVSPropertyOp15
 70
     1
102
RTVSPropertyOp16
 70
     1
102
RTVSPropertyOp17
 70
     1
102
RTVSPropertyOp18
 70
     1
102
RTVSPropertyOp19
 70
     1
102
RTVSPropertyOp20
 70
     1
102
RTVSPropertyOp21
 70
     1
102
RTVSPropertyOp22
 70
     1
102
RTVSPropertyOp23
 70
     1
102
RTVSPropertyOp24
 70
     1
102
RTVSPropertyOp25
 70
     1
102
RTVSPropertyOp26
 70
     1
102
RTVSPropertyOp27
 70
     1
102
RTVSPropertyOp28
 70
     1
102
RTVSPropertyOp29
 70
     1
102
RTVSPropertyOp30
 70
     1
102
RTVSPropertyOp31
 70
     1
102
RTVSPropertyOp32
 70
     1
102
RTVSPropertyOp33
 70
     1
102
RTVSPropertyOp34
 70
     1
102
RTVSPropertyOp35
 70
     1
102
RTVSPropertyOp36
 70
     1
102
RTVSPropertyOp37
 70
     1
102
RTVSPropertyOp38
 70
     1
102
RTVSPropertyOp39
 70
     1
102
RTVSPropertyOp40
 70
     1
102
RTVSPropertyOp41
 70
     1
102
RTVSPropertyOp42
 70
     1
102
RTVSPropertyOp43
 70
     1
102
RTVSPropertyOp44
 70
     1
102
RTVSPropertyOp45
 70
     1
102
RTVSPropertyOp46
 70
     1
102
RTVSPropertyOp47
 70
     1
102
RTVSPropertyOp48
 70
     1
102
RTVSPropertyOp49
 70
     1
102
RTVSPropertyOp50
 70
     1
102
RTVSPropertyOp51
 70
     0
102
RTVSPropertyOp52
 70
     0
102
RTVSPropertyOp53
 70
     1
102
RTVSPropertyOp54
 70
     1
102
RTVSPropertyOp55
 70
     1
102
RTVSPropertyOp56
 70
     1
102
RTVSPropertyOp57
 70
     1
102
RTVSPropertyOp58
 70
     1
102
RTVSPropertyOp59
 70
     1
102
RTVSPropertyOp60
 70
     1
102
RTVSPropertyOp61
 70
     1
102
RTVSPropertyOp62
 70
     1
  0
XRECORD
  5
1C8CDE6ACA23
102
{ACAD_REACTORS
330
1C8CDE6ACA22
102
}
330
1C8CDE6ACA22
100
AcDbXrecord
280
     1
102
RTVSPost2010Prop28
280
     0
102
RTVSPost2010PropOp28
 70
     0
102
RTVSPost2010Prop29
280
     1
102
RTVSPost2010PropOp29
 70
     0
102
RTVSPost2010Prop30
280
     1
102
RTVSPost2010PropOp30
 70
     0
102
RTVSPost2010Prop31
280
     0
102
RTVSPost2010PropOp31
 70
     0
102
RTVSPost2010Prop32
280
     0
102
RTVSPost2010PropOp32
 70
     0
102
RTVSPost2010Prop33
280
     0
102
RTVSPost2010PropOp33
 70
     0
102
RTVSPost2010Prop34
280
     0
102
RTVSPost2010PropOp34
 70
     0
102
RTVSPost2010Prop35
280
     0
102
RTVSPost2010PropOp35
 70
     0
102
RTVSPost2010Prop36
280
     0
102
RTVSPost2010PropOp36
 70
     0
102
RTVSPost2010Prop37
 90
       50
102
RTVSPost2010PropOp37
 70
     0
102
RTVSPost2010Prop38
140
0.0
102
RTVSPost2010PropOp38
 70
     0
102
RTVSPost2010Prop39
140
1.0
102
RTVSPost2010PropOp39
 70
     0
102
RTVSPost2010Prop40
 90
        0
102
RTVSPost2010PropOp40
 70
     0
102
RTVSPost2010Prop41ColorIndex
 90
       18
102
RTVSPost2010Prop41ColorRGB
 90
        0
102
RTVSPost2010PropOp41
 70
     0
102
RTVSPost2010Prop42
 90
       50
102
RTVSPost2010PropOp42
 70
     0
102
RTVSPost2010Prop43
 90
        3
102
RTVSPost2010PropOp43
 70
     0
102
RTVSPost2010Prop44ColorIndex
 90
        5
102
RTVSPost2010Prop44ColorRGB
 90
      255
102
RTVSPost2010PropOp44
 70
     0
102
RTVSPost2010Prop45
280
     0
102
RTVSPost2010PropOp45
 70
     0
102
RTVSPost2010Prop46
 90
       50
102
RTVSPost2010PropOp46
 70
     0
102
RTVSPost2010Prop47
 90
       50
102
RTVSPost2010PropOp47
 70
     0
102
RTVSPost2010Prop48
 90
       50
102
RTVSPost2010PropOp48
 70
     0
102
RTVSPost2010Prop49
280
     0
102
RTVSPost2010PropOp49
 70
     0
102
RTVSPost2010Prop50
 90
       50
102
RTVSPost2010PropOp50
 70
     0
102
RTVSPost2010Prop51ColorIndex
 90
      256
102
RTVSPost2010Prop51ColorRGB
 90
-16777216
102
RTVSPost2010PropOp51
 70
     0
102
RTVSPost2010Prop52
140
1.0
102
RTVSPost2010PropOp52
 70
     0
102
RTVSPost2010Prop53
 90
        2
102
RTVSPost2010PropOp53
 70
     0
102
RTVSPost2010Prop54
  1
strokes_ogs.tif
102
RTVSPost2010PropOp54
 70
     0
102
RTVSPost2010Prop55
280
     0
102
RTVSPost2010PropOp55
 70
     0
102
RTVSPost2010Prop56
140
1.0
102
RTVSPost2010PropOp56
 70
     0
102
RTVSPost2010Prop57
140
1.0
102
RTVSPost2010PropOp57
 70
     0
102
RTVSPropertyOp0
 70
     0
102
RTVSPropertyOp1
 70
     0
102
RTVSPropertyOp2
 70
     0
102
RTVSPropertyOp3
 70
     0
102
RTVSPropertyOp4
 70
     0
102
RTVSPropertyOp5
 70
     0
102
RTVSPropertyOp6
 70
     0
102
RTVSPropertyOp7
 70
     0
102
RTVSPropertyOp8
 70
     0
102
RTVSPropertyOp9
 70
     0
102
RTVSPropertyOp10
 70
     0
102
RTVSPropertyOp11
 70
     0
102
RTVSPropertyOp12
 70
     0
102
RTVSPropertyOp13
 70
     0
102
RTVSPropertyOp14
 70
     2
102
RTVSPropertyOp15
 70
     0
102
RTVSPropertyOp16
 70
     0
102
RTVSPropertyOp17
 70
     0
102
RTVSPropertyOp18
 70
     0
102
RTVSPropertyOp19
 70
     0
102
RTVSPropertyOp20
 70
     0
102
RTVSPropertyOp21
 70
     0
102
RTVSPropertyOp22
 70
     0
102
RTVSPropertyOp23
 70
     0
102
RTVSPropertyOp24
 70
     0
102
RTVSPropertyOp25
 70
     0
102
RTVSPropertyOp26
 70
     0
102
RTVSPropertyOp27
 70
     0
102
RTVSPropertyOp28
 70
     0
102
RTVSPropertyOp29
 70
     0
102
RTVSPropertyOp30
 70
     0
102
RTVSPropertyOp31
 70
     0
102
RTVSPropertyOp32
 70
     0
102
RTVSPropertyOp33
 70
     0
102
RTVSPropertyOp34
 70
     0
102
RTVSPropertyOp35
 70
     0
102
RTVSPropertyOp36
 70
     0
102
RTVSPropertyOp37
 70
     0
102
RTVSPropertyOp38
 70
     0
102
RTVSPropertyOp39
 70
     0
102
RTVSPropertyOp40
 70
     0
102
RTVSPropertyOp41
 70
     0
102
RTVSPropertyOp42
 70
     0
102
RTVSPropertyOp43
 70
     0
102
RTVSPropertyOp44
 70
     0
102
RTVSPropertyOp45
 70
     0
102
RTVSPropertyOp46
 70
     0
102
RTVSPropertyOp47
 70
     0
102
RTVSPropertyOp48
 70
     0
102
RTVSPropertyOp49
 70
     0
102
RTVSPropertyOp50
 70
     0
102
RTVSPropertyOp51
 70
     0
102
RTVSPropertyOp52
 70
     0
102
RTVSPropertyOp53
 70
     0
102
RTVSPropertyOp54
 70
     0
102
RTVSPropertyOp55
 70
     0
102
RTVSPropertyOp56
 70
     0
102
RTVSPropertyOp57
 70
     0
102
RTVSPropertyOp58
 70
     1
102
RTVSPropertyOp59
 70
     1
102
RTVSPropertyOp60
 70
     1
102
RTVSPropertyOp61
 70
     1
102
RTVSPropertyOp62
 70
     1
  0
XRECORD
  5
1C8CDE6ACA1B
102
{ACAD_REACTORS
330
1C8CDE6ACA1A
102
}
330
1C8CDE6ACA1A
100
AcDbXrecord
280
     1
102
RTVSPost2010Prop28
280
     0
102
RTVSPost2010PropOp28
 70
     1
102
RTVSPost2010Prop29
280
     1
102
RTVSPost2010PropOp29
 70
     1
102
RTVSPost2010Prop30
280
     1
102
RTVSPost2010PropOp30
 70
     1
102
RTVSPost2010Prop31
280
     0
102
RTVSPost2010PropOp31
 70
     1
102
RTVSPost2010Prop32
280
     0
102
RTVSPost2010PropOp32
 70
     1
102
RTVSPost2010Prop33
280
     0
102
RTVSPost2010PropOp33
 70
     1
102
RTVSPost2010Prop34
280
     0
102
RTVSPost2010PropOp34
 70
     1
102
RTVSPost2010Prop35
280
     0
102
RTVSPost2010PropOp35
 70
     1
102
RTVSPost2010Prop36
280
     0
102
RTVSPost2010PropOp36
 70
     1
102
RTVSPost2010Prop37
 90
       50
102
RTVSPost2010PropOp37
 70
     1
102
RTVSPost2010Prop38
140
0.0
102
RTVSPost2010PropOp38
 70
     1
102
RTVSPost2010Prop39
140
1.0
102
RTVSPost2010PropOp39
 70
     1
102
RTVSPost2010Prop40
 90
        0
102
RTVSPost2010PropOp40
 70
     1
102
RTVSPost2010Prop41ColorIndex
 90
       18
102
RTVSPost2010Prop41ColorRGB
 90
        0
102
RTVSPost2010PropOp41
 70
     1
102
RTVSPost2010Prop42
 90
       50
102
RTVSPost2010PropOp42
 70
     1
102
RTVSPost2010Prop43
 90
        3
102
RTVSPost2010PropOp43
 70
     1
102
RTVSPost2010Prop44ColorIndex
 90
        5
102
RTVSPost2010Prop44ColorRGB
 90
      255
102
RTVSPost2010PropOp44
 70
     1
102
RTVSPost2010Prop45
280
     0
102
RTVSPost2010PropOp45
 70
     1
102
RTVSPost2010Prop46
 90
       50
102
RTVSPost2010PropOp46
 70
     1
102
RTVSPost2010Prop47
 90
       50
102
RTVSPost2010PropOp47
 70
     1
102
RTVSPost2010Prop48
 90
       50
102
RTVSPost2010PropOp48
 70
     1
102
RTVSPost2010Prop49
280
     0
102
RTVSPost2010PropOp49
 70
     1
102
RTVSPost2010Prop50
 90
       50
102
RTVSPost2010PropOp50
 70
     1
102
RTVSPost2010Prop51ColorIndex
 90
      256
102
RTVSPost2010Prop51ColorRGB
 90
-16777216
102
RTVSPost2010PropOp51
 70
     0
102
RTVSPost2010Prop52
140
1.0
102
RTVSPost2010PropOp52
 70
     0
102
RTVSPost2010Prop53
 90
        2
102
RTVSPost2010PropOp53
 70
     1
102
RTVSPost2010Prop54
  1
strokes_ogs.tif
102
RTVSPost2010PropOp54
 70
     1
102
RTVSPost2010Prop55
280
     0
102
RTVSPost2010PropOp55
 70
     1
102
RTVSPost2010Prop56
140
1.0
102
RTVSPost2010PropOp56
 70
     1
102
RTVSPost2010Prop57
140
1.0
102
RTVSPost2010PropOp57
 70
     1
102
RTVSPropertyOp0
 70
     1
102
RTVSPropertyOp1
 70
     1
102
RTVSPropertyOp2
 70
     1
102
RTVSPropertyOp3
 70
     1
102
RTVSPropertyOp4
 70
     1
102
RTVSPropertyOp5
 70
     1
102
RTVSPropertyOp6
 70
     1
102
RTVSPropertyOp7
 70
     1
102
RTVSPropertyOp8
 70
     1
102
RTVSPropertyOp9
 70
     1
102
RTVSPropertyOp10
 70
     1
102
RTVSPropertyOp11
 70
     1
102
RTVSPropertyOp12
 70
     1
102
RTVSPropertyOp13
 70
     1
102
RTVSPropertyOp14
 70
     1
102
RTVSPropertyOp15
 70
     1
102
RTVSPropertyOp16
 70
     1
102
RTVSPropertyOp17
 70
     1
102
RTVSPropertyOp18
 70
     1
102
RTVSPropertyOp19
 70
     1
102
RTVSPropertyOp20
 70
     1
102
RTVSPropertyOp21
 70
     1
102
RTVSPropertyOp22
 70
     1
102
RTVSPropertyOp23
 70
     1
102
RTVSPropertyOp24
 70
     1
102
RTVSPropertyOp25
 70
     1
102
RTVSPropertyOp26
 70
     1
102
RTVSPropertyOp27
 70
     1
102
RTVSPropertyOp28
 70
     1
102
RTVSPropertyOp29
 70
     1
102
RTVSPropertyOp30
 70
     1
102
RTVSPropertyOp31
 70
     1
102
RTVSPropertyOp32
 70
     1
102
RTVSPropertyOp33
 70
     1
102
RTVSPropertyOp34
 70
     1
102
RTVSPropertyOp35
 70
     1
102
RTVSPropertyOp36
 70
     1
102
RTVSPropertyOp37
 70
     1
102
RTVSPropertyOp38
 70
     1
102
RTVSPropertyOp39
 70
     1
102
RTVSPropertyOp40
 70
     1
102
RTVSPropertyOp41
 70
     1
102
RTVSPropertyOp42
 70
     1
102
RTVSPropertyOp43
 70
     1
102
RTVSPropertyOp44
 70
     1
102
RTVSPropertyOp45
 70
     1
102
RTVSPropertyOp46
 70
     1
102
RTVSPropertyOp47
 70
     1
102
RTVSPropertyOp48
 70
     1
102
RTVSPropertyOp49
 70
     1
102
RTVSPropertyOp50
 70
     1
102
RTVSPropertyOp51
 70
     0
102
RTVSPropertyOp52
 70
     0
102
RTVSPropertyOp53
 70
     1
102
RTVSPropertyOp54
 70
     1
102
RTVSPropertyOp55
 70
     1
102
RTVSPropertyOp56
 70
     1
102
RTVSPropertyOp57
 70
     1
102
RTVSPropertyOp58
 70
     1
102
RTVSPropertyOp59
 70
     1
102
RTVSPropertyOp60
 70
     1
102
RTVSPropertyOp61
 70
     1
102
RTVSPropertyOp62
 70
     1
  0
XRECORD
  5
1C8CDE6AC9FF
102
{ACAD_REACTORS
330
1C8CDE6AC9FE
102
}
330
1C8CDE6AC9FE
100
AcDbXrecord
280
     1
102
RTVSPost2010Prop28
280
     0
102
RTVSPost2010PropOp28
 70
     1
102
RTVSPost2010Prop29
280
     1
102
RTVSPost2010PropOp29
 70
     1
102
RTVSPost2010Prop30
280
     1
102
RTVSPost2010PropOp30
 70
     1
102
RTVSPost2010Prop31
280
     0
102
RTVSPost2010PropOp31
 70
     1
102
RTVSPost2010Prop32
280
     0
102
RTVSPost2010PropOp32
 70
     1
102
RTVSPost2010Prop33
280
     0
102
RTVSPost2010PropOp33
 70
     1
102
RTVSPost2010Prop34
280
     0
102
RTVSPost2010PropOp34
 70
     1
102
RTVSPost2010Prop35
280
     0
102
RTVSPost2010PropOp35
 70
     1
102
RTVSPost2010Prop36
280
     0
102
RTVSPost2010PropOp36
 70
     1
102
RTVSPost2010Prop37
 90
       50
102
RTVSPost2010PropOp37
 70
     1
102
RTVSPost2010Prop38
140
0.0
102
RTVSPost2010PropOp38
 70
     1
102
RTVSPost2010Prop39
140
1.0
102
RTVSPost2010PropOp39
 70
     1
102
RTVSPost2010Prop40
 90
        0
102
RTVSPost2010PropOp40
 70
     1
102
RTVSPost2010Prop41ColorIndex
 90
       18
102
RTVSPost2010Prop41ColorRGB
 90
        0
102
RTVSPost2010PropOp41
 70
     1
102
RTVSPost2010Prop42
 90
       50
102
RTVSPost2010PropOp42
 70
     1
102
RTVSPost2010Prop43
 90
        3
102
RTVSPost2010PropOp43
 70
     1
102
RTVSPost2010Prop44ColorIndex
 90
        5
102
RTVSPost2010Prop44ColorRGB
 90
      255
102
RTVSPost2010PropOp44
 70
     1
102
RTVSPost2010Prop45
280
     0
102
RTVSPost2010PropOp45
 70
     1
102
RTVSPost2010Prop46
 90
       50
102
RTVSPost2010PropOp46
 70
     1
102
RTVSPost2010Prop47
 90
       50
102
RTVSPost2010PropOp47
 70
     1
102
RTVSPost2010Prop48
 90
       50
102
RTVSPost2010PropOp48
 70
     1
102
RTVSPost2010Prop49
280
     0
102
RTVSPost2010PropOp49
 70
     1
102
RTVSPost2010Prop50
 90
       50
102
RTVSPost2010PropOp50
 70
     1
102
RTVSPost2010Prop51ColorIndex
 90
      256
102
RTVSPost2010Prop51ColorRGB
 90
-16777216
102
RTVSPost2010PropOp51
 70
     0
102
RTVSPost2010Prop52
140
1.0
102
RTVSPost2010PropOp52
 70
     0
102
RTVSPost2010Prop53
 90
        2
102
RTVSPost2010PropOp53
 70
     1
102
RTVSPost2010Prop54
  1
strokes_ogs.tif
102
RTVSPost2010PropOp54
 70
     1
102
RTVSPost2010Prop55
280
     0
102
RTVSPost2010PropOp55
 70
     1
102
RTVSPost2010Prop56
140
1.0
102
RTVSPost2010PropOp56
 70
     1
102
RTVSPost2010Prop57
140
1.0
102
RTVSPost2010PropOp57
 70
     1
102
RTVSPropertyOp0
 70
     1
102
RTVSPropertyOp1
 70
     1
102
RTVSPropertyOp2
 70
     1
102
RTVSPropertyOp3
 70
     1
102
RTVSPropertyOp4
 70
     1
102
RTVSPropertyOp5
 70
     1
102
RTVSPropertyOp6
 70
     1
102
RTVSPropertyOp7
 70
     1
102
RTVSPropertyOp8
 70
     1
102
RTVSPropertyOp9
 70
     1
102
RTVSPropertyOp10
 70
     1
102
RTVSPropertyOp11
 70
     1
102
RTVSPropertyOp12
 70
     1
102
RTVSPropertyOp13
 70
     1
102
RTVSPropertyOp14
 70
     1
102
RTVSPropertyOp15
 70
     1
102
RTVSPropertyOp16
 70
     1
102
RTVSPropertyOp17
 70
     1
102
RTVSPropertyOp18
 70
     1
102
RTVSPropertyOp19
 70
     1
102
RTVSPropertyOp20
 70
     1
102
RTVSPropertyOp21
 70
     1
102
RTVSPropertyOp22
 70
     1
102
RTVSPropertyOp23
 70
     1
102
RTVSPropertyOp24
 70
     1
102
RTVSPropertyOp25
 70
     1
102
RTVSPropertyOp26
 70
     1
102
RTVSPropertyOp27
 70
     1
102
RTVSPropertyOp28
 70
     1
102
RTVSPropertyOp29
 70
     1
102
RTVSPropertyOp30
 70
     1
102
RTVSPropertyOp31
 70
     1
102
RTVSPropertyOp32
 70
     1
102
RTVSPropertyOp33
 70
     1
102
RTVSPropertyOp34
 70
     1
102
RTVSPropertyOp35
 70
     1
102
RTVSPropertyOp36
 70
     1
102
RTVSPropertyOp37
 70
     1
102
RTVSPropertyOp38
 70
     1
102
RTVSPropertyOp39
 70
     1
102
RTVSPropertyOp40
 70
     1
102
RTVSPropertyOp41
 70
     1
102
RTVSPropertyOp42
 70
     1
102
RTVSPropertyOp43
 70
     1
102
RTVSPropertyOp44
 70
     1
102
RTVSPropertyOp45
 70
     1
102
RTVSPropertyOp46
 70
     1
102
RTVSPropertyOp47
 70
     1
102
RTVSPropertyOp48
 70
     1
102
RTVSPropertyOp49
 70
     1
102
RTVSPropertyOp50
 70
     1
102
RTVSPropertyOp51
 70
     0
102
RTVSPropertyOp52
 70
     0
102
RTVSPropertyOp53
 70
     1
102
RTVSPropertyOp54
 70
     1
102
RTVSPropertyOp55
 70
     1
102
RTVSPropertyOp56
 70
     1
102
RTVSPropertyOp57
 70
     1
102
RTVSPropertyOp58
 70
     1
102
RTVSPropertyOp59
 70
     1
102
RTVSPropertyOp60
 70
     1
102
RTVSPropertyOp61
 70
     1
102
RTVSPropertyOp62
 70
     1
  0
XRECORD
  5
1C8CDE6ACA01
102
{ACAD_REACTORS
330
1C8CDE6ACA00
102
}
330
1C8CDE6ACA00
100
AcDbXrecord
280
     1
102
RTVSPost2010Prop28
280
     0
102
RTVSPost2010PropOp28
 70
     1
102
RTVSPost2010Prop29
280
     1
102
RTVSPost2010PropOp29
 70
     1
102
RTVSPost2010Prop30
280
     1
102
RTVSPost2010PropOp30
 70
     1
102
RTVSPost2010Prop31
280
     0
102
RTVSPost2010PropOp31
 70
     1
102
RTVSPost2010Prop32
280
     0
102
RTVSPost2010PropOp32
 70
     1
102
RTVSPost2010Prop33
280
     0
102
RTVSPost2010PropOp33
 70
     1
102
RTVSPost2010Prop34
280
     0
102
RTVSPost2010PropOp34
 70
     1
102
RTVSPost2010Prop35
280
     0
102
RTVSPost2010PropOp35
 70
     1
102
RTVSPost2010Prop36
280
     0
102
RTVSPost2010PropOp36
 70
     1
102
RTVSPost2010Prop37
 90
       50
102
RTVSPost2010PropOp37
 70
     1
102
RTVSPost2010Prop38
140
0.0
102
RTVSPost2010PropOp38
 70
     1
102
RTVSPost2010Prop39
140
1.0
102
RTVSPost2010PropOp39
 70
     1
102
RTVSPost2010Prop40
 90
        0
102
RTVSPost2010PropOp40
 70
     1
102
RTVSPost2010Prop41ColorIndex
 90
       18
102
RTVSPost2010Prop41ColorRGB
 90
        0
102
RTVSPost2010PropOp41
 70
     1
102
RTVSPost2010Prop42
 90
       50
102
RTVSPost2010PropOp42
 70
     1
102
RTVSPost2010Prop43
 90
        3
102
RTVSPost2010PropOp43
 70
     1
102
RTVSPost2010Prop44ColorIndex
 90
        5
102
RTVSPost2010Prop44ColorRGB
 90
      255
102
RTVSPost2010PropOp44
 70
     1
102
RTVSPost2010Prop45
280
     0
102
RTVSPost2010PropOp45
 70
     1
102
RTVSPost2010Prop46
 90
       50
102
RTVSPost2010PropOp46
 70
     1
102
RTVSPost2010Prop47
 90
       50
102
RTVSPost2010PropOp47
 70
     1
102
RTVSPost2010Prop48
 90
       50
102
RTVSPost2010PropOp48
 70
     1
102
RTVSPost2010Prop49
280
     0
102
RTVSPost2010PropOp49
 70
     1
102
RTVSPost2010Prop50
 90
       50
102
RTVSPost2010PropOp50
 70
     1
102
RTVSPost2010Prop51ColorIndex
 90
      256
102
RTVSPost2010Prop51ColorRGB
 90
-16777216
102
RTVSPost2010PropOp51
 70
     0
102
RTVSPost2010Prop52
140
1.0
102
RTVSPost2010PropOp52
 70
     0
102
RTVSPost2010Prop53
 90
        2
102
RTVSPost2010PropOp53
 70
     1
102
RTVSPost2010Prop54
  1
strokes_ogs.tif
102
RTVSPost2010PropOp54
 70
     1
102
RTVSPost2010Prop55
280
     0
102
RTVSPost2010PropOp55
 70
     1
102
RTVSPost2010Prop56
140
1.0
102
RTVSPost2010PropOp56
 70
     1
102
RTVSPost2010Prop57
140
1.0
102
RTVSPost2010PropOp57
 70
     1
102
RTVSPropertyOp0
 70
     1
102
RTVSPropertyOp1
 70
     1
102
RTVSPropertyOp2
 70
     1
102
RTVSPropertyOp3
 70
     1
102
RTVSPropertyOp4
 70
     1
102
RTVSPropertyOp5
 70
     1
102
RTVSPropertyOp6
 70
     1
102
RTVSPropertyOp7
 70
     1
102
RTVSPropertyOp8
 70
     1
102
RTVSPropertyOp9
 70
     1
102
RTVSPropertyOp10
 70
     1
102
RTVSPropertyOp11
 70
     1
102
RTVSPropertyOp12
 70
     1
102
RTVSPropertyOp13
 70
     1
102
RTVSPropertyOp14
 70
     1
102
RTVSPropertyOp15
 70
     1
102
RTVSPropertyOp16
 70
     1
102
RTVSPropertyOp17
 70
     1
102
RTVSPropertyOp18
 70
     1
102
RTVSPropertyOp19
 70
     1
102
RTVSPropertyOp20
 70
     1
102
RTVSPropertyOp21
 70
     1
102
RTVSPropertyOp22
 70
     1
102
RTVSPropertyOp23
 70
     1
102
RTVSPropertyOp24
 70
     1
102
RTVSPropertyOp25
 70
     1
102
RTVSPropertyOp26
 70
     1
102
RTVSPropertyOp27
 70
     1
102
RTVSPropertyOp28
 70
     1
102
RTVSPropertyOp29
 70
     1
102
RTVSPropertyOp30
 70
     1
102
RTVSPropertyOp31
 70
     1
102
RTVSPropertyOp32
 70
     1
102
RTVSPropertyOp33
 70
     1
102
RTVSPropertyOp34
 70
     1
102
RTVSPropertyOp35
 70
     1
102
RTVSPropertyOp36
 70
     1
102
RTVSPropertyOp37
 70
     1
102
RTVSPropertyOp38
 70
     1
102
RTVSPropertyOp39
 70
     1
102
RTVSPropertyOp40
 70
     1
102
RTVSPropertyOp41
 70
     1
102
RTVSPropertyOp42
 70
     1
102
RTVSPropertyOp43
 70
     1
102
RTVSPropertyOp44
 70
     1
102
RTVSPropertyOp45
 70
     1
102
RTVSPropertyOp46
 70
     1
102
RTVSPropertyOp47
 70
     1
102
RTVSPropertyOp48
 70
     1
102
RTVSPropertyOp49
 70
     1
102
RTVSPropertyOp50
 70
     1
102
RTVSPropertyOp51
 70
     0
102
RTVSPropertyOp52
 70
     0
102
RTVSPropertyOp53
 70
     1
102
RTVSPropertyOp54
 70
     1
102
RTVSPropertyOp55
 70
     1
102
RTVSPropertyOp56
 70
     1
102
RTVSPropertyOp57
 70
     1
102
RTVSPropertyOp58
 70
     1
102
RTVSPropertyOp59
 70
     1
102
RTVSPropertyOp60
 70
     1
102
RTVSPropertyOp61
 70
     1
102
RTVSPropertyOp62
 70
     1
  0
XRECORD
  5
1C8CDE6ACA03
102
{ACAD_REACTORS
330
1C8CDE6ACA02
102
}
330
1C8CDE6ACA02
100
AcDbXrecord
280
     1
102
RTVSPost2010Prop28
280
     0
102
RTVSPost2010PropOp28
 70
     1
102
RTVSPost2010Prop29
280
     1
102
RTVSPost2010PropOp29
 70
     1
102
RTVSPost2010Prop30
280
     1
102
RTVSPost2010PropOp30
 70
     1
102
RTVSPost2010Prop31
280
     0
102
RTVSPost2010PropOp31
 70
     1
102
RTVSPost2010Prop32
280
     0
102
RTVSPost2010PropOp32
 70
     1
102
RTVSPost2010Prop33
280
     0
102
RTVSPost2010PropOp33
 70
     1
102
RTVSPost2010Prop34
280
     0
102
RTVSPost2010PropOp34
 70
     1
102
RTVSPost2010Prop35
280
     0
102
RTVSPost2010PropOp35
 70
     1
102
RTVSPost2010Prop36
280
     0
102
RTVSPost2010PropOp36
 70
     1
102
RTVSPost2010Prop37
 90
       50
102
RTVSPost2010PropOp37
 70
     1
102
RTVSPost2010Prop38
140
0.0
102
RTVSPost2010PropOp38
 70
     1
102
RTVSPost2010Prop39
140
1.0
102
RTVSPost2010PropOp39
 70
     1
102
RTVSPost2010Prop40
 90
        0
102
RTVSPost2010PropOp40
 70
     1
102
RTVSPost2010Prop41ColorIndex
 90
       18
102
RTVSPost2010Prop41ColorRGB
 90
        0
102
RTVSPost2010PropOp41
 70
     1
102
RTVSPost2010Prop42
 90
       50
102
RTVSPost2010PropOp42
 70
     1
102
RTVSPost2010Prop43
 90
        3
102
RTVSPost2010PropOp43
 70
     1
102
RTVSPost2010Prop44ColorIndex
 90
        5
102
RTVSPost2010Prop44ColorRGB
 90
      255
102
RTVSPost2010PropOp44
 70
     1
102
RTVSPost2010Prop45
280
     0
102
RTVSPost2010PropOp45
 70
     1
102
RTVSPost2010Prop46
 90
       50
102
RTVSPost2010PropOp46
 70
     1
102
RTVSPost2010Prop47
 90
       50
102
RTVSPost2010PropOp47
 70
     1
102
RTVSPost2010Prop48
 90
       50
102
RTVSPost2010PropOp48
 70
     1
102
RTVSPost2010Prop49
280
     0
102
RTVSPost2010PropOp49
 70
     1
102
RTVSPost2010Prop50
 90
       50
102
RTVSPost2010PropOp50
 70
     1
102
RTVSPost2010Prop51ColorIndex
 90
      256
102
RTVSPost2010Prop51ColorRGB
 90
-16777216
102
RTVSPost2010PropOp51
 70
     0
102
RTVSPost2010Prop52
140
1.0
102
RTVSPost2010PropOp52
 70
     0
102
RTVSPost2010Prop53
 90
        2
102
RTVSPost2010PropOp53
 70
     1
102
RTVSPost2010Prop54
  1
strokes_ogs.tif
102
RTVSPost2010PropOp54
 70
     1
102
RTVSPost2010Prop55
280
     0
102
RTVSPost2010PropOp55
 70
     1
102
RTVSPost2010Prop56
140
1.0
102
RTVSPost2010PropOp56
 70
     1
102
RTVSPost2010Prop57
140
1.0
102
RTVSPost2010PropOp57
 70
     1
102
RTVSPropertyOp0
 70
     1
102
RTVSPropertyOp1
 70
     1
102
RTVSPropertyOp2
 70
     1
102
RTVSPropertyOp3
 70
     1
102
RTVSPropertyOp4
 70
     1
102
RTVSPropertyOp5
 70
     1
102
RTVSPropertyOp6
 70
     1
102
RTVSPropertyOp7
 70
     1
102
RTVSPropertyOp8
 70
     1
102
RTVSPropertyOp9
 70
     1
102
RTVSPropertyOp10
 70
     1
102
RTVSPropertyOp11
 70
     1
102
RTVSPropertyOp12
 70
     1
102
RTVSPropertyOp13
 70
     1
102
RTVSPropertyOp14
 70
     1
102
RTVSPropertyOp15
 70
     1
102
RTVSPropertyOp16
 70
     1
102
RTVSPropertyOp17
 70
     1
102
RTVSPropertyOp18
 70
     1
102
RTVSPropertyOp19
 70
     1
102
RTVSPropertyOp20
 70
     1
102
RTVSPropertyOp21
 70
     1
102
RTVSPropertyOp22
 70
     1
102
RTVSPropertyOp23
 70
     1
102
RTVSPropertyOp24
 70
     1
102
RTVSPropertyOp25
 70
     1
102
RTVSPropertyOp26
 70
     1
102
RTVSPropertyOp27
 70
     1
102
RTVSPropertyOp28
 70
     1
102
RTVSPropertyOp29
 70
     1
102
RTVSPropertyOp30
 70
     1
102
RTVSPropertyOp31
 70
     1
102
RTVSPropertyOp32
 70
     1
102
RTVSPropertyOp33
 70
     1
102
RTVSPropertyOp34
 70
     1
102
RTVSPropertyOp35
 70
     1
102
RTVSPropertyOp36
 70
     1
102
RTVSPropertyOp37
 70
     1
102
RTVSPropertyOp38
 70
     1
102
RTVSPropertyOp39
 70
     1
102
RTVSPropertyOp40
 70
     1
102
RTVSPropertyOp41
 70
     1
102
RTVSPropertyOp42
 70
     1
102
RTVSPropertyOp43
 70
     1
102
RTVSPropertyOp44
 70
     1
102
RTVSPropertyOp45
 70
     1
102
RTVSPropertyOp46
 70
     1
102
RTVSPropertyOp47
 70
     1
102
RTVSPropertyOp48
 70
     1
102
RTVSPropertyOp49
 70
     1
102
RTVSPropertyOp50
 70
     1
102
RTVSPropertyOp51
 70
     0
102
RTVSPropertyOp52
 70
     0
102
RTVSPropertyOp53
 70
     1
102
RTVSPropertyOp54
 70
     1
102
RTVSPropertyOp55
 70
     1
102
RTVSPropertyOp56
 70
     1
102
RTVSPropertyOp57
 70
     1
102
RTVSPropertyOp58
 70
     1
102
RTVSPropertyOp59
 70
     1
102
RTVSPropertyOp60
 70
     1
102
RTVSPropertyOp61
 70
     1
102
RTVSPropertyOp62
 70
     1
  0
XRECORD
  5
1C8CDE6ACA05
102
{ACAD_REACTORS
330
1C8CDE6ACA04
102
}
330
1C8CDE6ACA04
100
AcDbXrecord
280
     1
102
RTVSPost2010Prop28
280
     0
102
RTVSPost2010PropOp28
 70
     1
102
RTVSPost2010Prop29
280
     1
102
RTVSPost2010PropOp29
 70
     1
102
RTVSPost2010Prop30
280
     1
102
RTVSPost2010PropOp30
 70
     1
102
RTVSPost2010Prop31
280
     0
102
RTVSPost2010PropOp31
 70
     1
102
RTVSPost2010Prop32
280
     0
102
RTVSPost2010PropOp32
 70
     1
102
RTVSPost2010Prop33
280
     0
102
RTVSPost2010PropOp33
 70
     1
102
RTVSPost2010Prop34
280
     0
102
RTVSPost2010PropOp34
 70
     1
102
RTVSPost2010Prop35
280
     0
102
RTVSPost2010PropOp35
 70
     1
102
RTVSPost2010Prop36
280
     0
102
RTVSPost2010PropOp36
 70
     1
102
RTVSPost2010Prop37
 90
       50
102
RTVSPost2010PropOp37
 70
     1
102
RTVSPost2010Prop38
140
0.0
102
RTVSPost2010PropOp38
 70
     1
102
RTVSPost2010Prop39
140
1.0
102
RTVSPost2010PropOp39
 70
     1
102
RTVSPost2010Prop40
 90
        0
102
RTVSPost2010PropOp40
 70
     1
102
RTVSPost2010Prop41ColorIndex
 90
       18
102
RTVSPost2010Prop41ColorRGB
 90
        0
102
RTVSPost2010PropOp41
 70
     1
102
RTVSPost2010Prop42
 90
       50
102
RTVSPost2010PropOp42
 70
     1
102
RTVSPost2010Prop43
 90
        3
102
RTVSPost2010PropOp43
 70
     1
102
RTVSPost2010Prop44ColorIndex
 90
        5
102
RTVSPost2010Prop44ColorRGB
 90
      255
102
RTVSPost2010PropOp44
 70
     1
102
RTVSPost2010Prop45
280
     0
102
RTVSPost2010PropOp45
 70
     1
102
RTVSPost2010Prop46
 90
       50
102
RTVSPost2010PropOp46
 70
     1
102
RTVSPost2010Prop47
 90
       50
102
RTVSPost2010PropOp47
 70
     1
102
RTVSPost2010Prop48
 90
       50
102
RTVSPost2010PropOp48
 70
     1
102
RTVSPost2010Prop49
280
     0
102
RTVSPost2010PropOp49
 70
     1
102
RTVSPost2010Prop50
 90
       50
102
RTVSPost2010PropOp50
 70
     1
102
RTVSPost2010Prop51ColorIndex
 90
      256
102
RTVSPost2010Prop51ColorRGB
 90
-16777216
102
RTVSPost2010PropOp51
 70
     0
102
RTVSPost2010Prop52
140
1.0
102
RTVSPost2010PropOp52
 70
     0
102
RTVSPost2010Prop53
 90
        2
102
RTVSPost2010PropOp53
 70
     1
102
RTVSPost2010Prop54
  1
strokes_ogs.tif
102
RTVSPost2010PropOp54
 70
     1
102
RTVSPost2010Prop55
280
     0
102
RTVSPost2010PropOp55
 70
     1
102
RTVSPost2010Prop56
140
1.0
102
RTVSPost2010PropOp56
 70
     1
102
RTVSPost2010Prop57
140
1.0
102
RTVSPost2010PropOp57
 70
     1
102
RTVSPropertyOp0
 70
     1
102
RTVSPropertyOp1
 70
     1
102
RTVSPropertyOp2
 70
     1
102
RTVSPropertyOp3
 70
     1
102
RTVSPropertyOp4
 70
     1
102
RTVSPropertyOp5
 70
     1
102
RTVSPropertyOp6
 70
     1
102
RTVSPropertyOp7
 70
     1
102
RTVSPropertyOp8
 70
     1
102
RTVSPropertyOp9
 70
     1
102
RTVSPropertyOp10
 70
     1
102
RTVSPropertyOp11
 70
     1
102
RTVSPropertyOp12
 70
     1
102
RTVSPropertyOp13
 70
     1
102
RTVSPropertyOp14
 70
     1
102
RTVSPropertyOp15
 70
     1
102
RTVSPropertyOp16
 70
     1
102
RTVSPropertyOp17
 70
     1
102
RTVSPropertyOp18
 70
     1
102
RTVSPropertyOp19
 70
     1
102
RTVSPropertyOp20
 70
     1
102
RTVSPropertyOp21
 70
     1
102
RTVSPropertyOp22
 70
     1
102
RTVSPropertyOp23
 70
     1
102
RTVSPropertyOp24
 70
     1
102
RTVSPropertyOp25
 70
     1
102
RTVSPropertyOp26
 70
     1
102
RTVSPropertyOp27
 70
     1
102
RTVSPropertyOp28
 70
     1
102
RTVSPropertyOp29
 70
     1
102
RTVSPropertyOp30
 70
     1
102
RTVSPropertyOp31
 70
     1
102
RTVSPropertyOp32
 70
     1
102
RTVSPropertyOp33
 70
     1
102
RTVSPropertyOp34
 70
     1
102
RTVSPropertyOp35
 70
     1
102
RTVSPropertyOp36
 70
     1
102
RTVSPropertyOp37
 70
     1
102
RTVSPropertyOp38
 70
     1
102
RTVSPropertyOp39
 70
     1
102
RTVSPropertyOp40
 70
     1
102
RTVSPropertyOp41
 70
     1
102
RTVSPropertyOp42
 70
     1
102
RTVSPropertyOp43
 70
     1
102
RTVSPropertyOp44
 70
     1
102
RTVSPropertyOp45
 70
     1
102
RTVSPropertyOp46
 70
     1
102
RTVSPropertyOp47
 70
     1
102
RTVSPropertyOp48
 70
     1
102
RTVSPropertyOp49
 70
     1
102
RTVSPropertyOp50
 70
     1
102
RTVSPropertyOp51
 70
     0
102
RTVSPropertyOp52
 70
     0
102
RTVSPropertyOp53
 70
     1
102
RTVSPropertyOp54
 70
     1
102
RTVSPropertyOp55
 70
     1
102
RTVSPropertyOp56
 70
     1
102
RTVSPropertyOp57
 70
     1
102
RTVSPropertyOp58
 70
     1
102
RTVSPropertyOp59
 70
     1
102
RTVSPropertyOp60
 70
     1
102
RTVSPropertyOp61
 70
     1
102
RTVSPropertyOp62
 70
     1
  0
XRECORD
  5
1C8CDE6ACA0B
102
{ACAD_REACTORS
330
1C8CDE6ACA0A
102
}
330
1C8CDE6ACA0A
100
AcDbXrecord
280
     1
102
RTVSPost2010Prop28
280
     0
102
RTVSPost2010PropOp28
 70
     1
102
RTVSPost2010Prop29
280
     1
102
RTVSPost2010PropOp29
 70
     1
102
RTVSPost2010Prop30
280
     1
102
RTVSPost2010PropOp30
 70
     1
102
RTVSPost2010Prop31
280
     0
102
RTVSPost2010PropOp31
 70
     1
102
RTVSPost2010Prop32
280
     0
102
RTVSPost2010PropOp32
 70
     1
102
RTVSPost2010Prop33
280
     0
102
RTVSPost2010PropOp33
 70
     1
102
RTVSPost2010Prop34
280
     0
102
RTVSPost2010PropOp34
 70
     1
102
RTVSPost2010Prop35
280
     0
102
RTVSPost2010PropOp35
 70
     1
102
RTVSPost2010Prop36
280
     0
102
RTVSPost2010PropOp36
 70
     1
102
RTVSPost2010Prop37
 90
       50
102
RTVSPost2010PropOp37
 70
     1
102
RTVSPost2010Prop38
140
0.0
102
RTVSPost2010PropOp38
 70
     1
102
RTVSPost2010Prop39
140
1.0
102
RTVSPost2010PropOp39
 70
     1
102
RTVSPost2010Prop40
 90
        0
102
RTVSPost2010PropOp40
 70
     1
102
RTVSPost2010Prop41ColorIndex
 90
       18
102
RTVSPost2010Prop41ColorRGB
 90
        0
102
RTVSPost2010PropOp41
 70
     1
102
RTVSPost2010Prop42
 90
       50
102
RTVSPost2010PropOp42
 70
     1
102
RTVSPost2010Prop43
 90
        3
102
RTVSPost2010PropOp43
 70
     1
102
RTVSPost2010Prop44ColorIndex
 90
        5
102
RTVSPost2010Prop44ColorRGB
 90
      255
102
RTVSPost2010PropOp44
 70
     1
102
RTVSPost2010Prop45
280
     0
102
RTVSPost2010PropOp45
 70
     1
102
RTVSPost2010Prop46
 90
       50
102
RTVSPost2010PropOp46
 70
     1
102
RTVSPost2010Prop47
 90
       50
102
RTVSPost2010PropOp47
 70
     1
102
RTVSPost2010Prop48
 90
       50
102
RTVSPost2010PropOp48
 70
     1
102
RTVSPost2010Prop49
280
     0
102
RTVSPost2010PropOp49
 70
     1
102
RTVSPost2010Prop50
 90
       50
102
RTVSPost2010PropOp50
 70
     1
102
RTVSPost2010Prop51ColorIndex
 90
      256
102
RTVSPost2010Prop51ColorRGB
 90
-16777216
102
RTVSPost2010PropOp51
 70
     0
102
RTVSPost2010Prop52
140
1.0
102
RTVSPost2010PropOp52
 70
     0
102
RTVSPost2010Prop53
 90
        2
102
RTVSPost2010PropOp53
 70
     1
102
RTVSPost2010Prop54
  1
strokes_ogs.tif
102
RTVSPost2010PropOp54
 70
     1
102
RTVSPost2010Prop55
280
     0
102
RTVSPost2010PropOp55
 70
     1
102
RTVSPost2010Prop56
140
1.0
102
RTVSPost2010PropOp56
 70
     1
102
RTVSPost2010Prop57
140
1.0
102
RTVSPost2010PropOp57
 70
     1
102
RTVSPropertyOp0
 70
     1
102
RTVSPropertyOp1
 70
     1
102
RTVSPropertyOp2
 70
     1
102
RTVSPropertyOp3
 70
     1
102
RTVSPropertyOp4
 70
     1
102
RTVSPropertyOp5
 70
     1
102
RTVSPropertyOp6
 70
     1
102
RTVSPropertyOp7
 70
     1
102
RTVSPropertyOp8
 70
     1
102
RTVSPropertyOp9
 70
     1
102
RTVSPropertyOp10
 70
     1
102
RTVSPropertyOp11
 70
     1
102
RTVSPropertyOp12
 70
     1
102
RTVSPropertyOp13
 70
     1
102
RTVSPropertyOp14
 70
     1
102
RTVSPropertyOp15
 70
     1
102
RTVSPropertyOp16
 70
     1
102
RTVSPropertyOp17
 70
     1
102
RTVSPropertyOp18
 70
     1
102
RTVSPropertyOp19
 70
     1
102
RTVSPropertyOp20
 70
     1
102
RTVSPropertyOp21
 70
     1
102
RTVSPropertyOp22
 70
     1
102
RTVSPropertyOp23
 70
     1
102
RTVSPropertyOp24
 70
     1
102
RTVSPropertyOp25
 70
     1
102
RTVSPropertyOp26
 70
     1
102
RTVSPropertyOp27
 70
     1
102
RTVSPropertyOp28
 70
     1
102
RTVSPropertyOp29
 70
     1
102
RTVSPropertyOp30
 70
     1
102
RTVSPropertyOp31
 70
     1
102
RTVSPropertyOp32
 70
     1
102
RTVSPropertyOp33
 70
     1
102
RTVSPropertyOp34
 70
     1
102
RTVSPropertyOp35
 70
     1
102
RTVSPropertyOp36
 70
     1
102
RTVSPropertyOp37
 70
     1
102
RTVSPropertyOp38
 70
     1
102
RTVSPropertyOp39
 70
     1
102
RTVSPropertyOp40
 70
     1
102
RTVSPropertyOp41
 70
     1
102
RTVSPropertyOp42
 70
     1
102
RTVSPropertyOp43
 70
     1
102
RTVSPropertyOp44
 70
     1
102
RTVSPropertyOp45
 70
     1
102
RTVSPropertyOp46
 70
     1
102
RTVSPropertyOp47
 70
     1
102
RTVSPropertyOp48
 70
     1
102
RTVSPropertyOp49
 70
     1
102
RTVSPropertyOp50
 70
     1
102
RTVSPropertyOp51
 70
     0
102
RTVSPropertyOp52
 70
     0
102
RTVSPropertyOp53
 70
     1
102
RTVSPropertyOp54
 70
     1
102
RTVSPropertyOp55
 70
     1
102
RTVSPropertyOp56
 70
     1
102
RTVSPropertyOp57
 70
     1
102
RTVSPropertyOp58
 70
     1
102
RTVSPropertyOp59
 70
     1
102
RTVSPropertyOp60
 70
     1
102
RTVSPropertyOp61
 70
     1
102
RTVSPropertyOp62
 70
     1
  0
XRECORD
  5
1C8CDE6ACA1F
102
{ACAD_REACTORS
330
1C8CDE6ACA1E
102
}
330
1C8CDE6ACA1E
100
AcDbXrecord
280
     1
102
RTVSPost2010Prop28
280
     0
102
RTVSPost2010PropOp28
 70
     0
102
RTVSPost2010Prop29
280
     1
102
RTVSPost2010PropOp29
 70
     0
102
RTVSPost2010Prop30
280
     1
102
RTVSPost2010PropOp30
 70
     0
102
RTVSPost2010Prop31
280
     0
102
RTVSPost2010PropOp31
 70
     0
102
RTVSPost2010Prop32
280
     0
102
RTVSPost2010PropOp32
 70
     0
102
RTVSPost2010Prop33
280
     0
102
RTVSPost2010PropOp33
 70
     0
102
RTVSPost2010Prop34
280
     0
102
RTVSPost2010PropOp34
 70
     0
102
RTVSPost2010Prop35
280
     0
102
RTVSPost2010PropOp35
 70
     0
102
RTVSPost2010Prop36
280
     0
102
RTVSPost2010PropOp36
 70
     0
102
RTVSPost2010Prop37
 90
       50
102
RTVSPost2010PropOp37
 70
     0
102
RTVSPost2010Prop38
140
0.0
102
RTVSPost2010PropOp38
 70
     0
102
RTVSPost2010Prop39
140
1.0
102
RTVSPost2010PropOp39
 70
     0
102
RTVSPost2010Prop40
 90
        0
102
RTVSPost2010PropOp40
 70
     0
102
RTVSPost2010Prop41ColorIndex
 90
       18
102
RTVSPost2010Prop41ColorRGB
 90
        0
102
RTVSPost2010PropOp41
 70
     0
102
RTVSPost2010Prop42
 90
       50
102
RTVSPost2010PropOp42
 70
     0
102
RTVSPost2010Prop43
 90
        3
102
RTVSPost2010PropOp43
 70
     0
102
RTVSPost2010Prop44ColorIndex
 90
        5
102
RTVSPost2010Prop44ColorRGB
 90
      255
102
RTVSPost2010PropOp44
 70
     0
102
RTVSPost2010Prop45
280
     0
102
RTVSPost2010PropOp45
 70
     0
102
RTVSPost2010Prop46
 90
       50
102
RTVSPost2010PropOp46
 70
     0
102
RTVSPost2010Prop47
 90
       50
102
RTVSPost2010PropOp47
 70
     0
102
RTVSPost2010Prop48
 90
       50
102
RTVSPost2010PropOp48
 70
     0
102
RTVSPost2010Prop49
280
     0
102
RTVSPost2010PropOp49
 70
     0
102
RTVSPost2010Prop50
 90
       50
102
RTVSPost2010PropOp50
 70
     0
102
RTVSPost2010Prop51ColorIndex
 90
      256
102
RTVSPost2010Prop51ColorRGB
 90
-16777216
102
RTVSPost2010PropOp51
 70
     0
102
RTVSPost2010Prop52
140
1.0
102
RTVSPost2010PropOp52
 70
     0
102
RTVSPost2010Prop53
 90
        2
102
RTVSPost2010PropOp53
 70
     0
102
RTVSPost2010Prop54
  1
strokes_ogs.tif
102
RTVSPost2010PropOp54
 70
     0
102
RTVSPost2010Prop55
280
     0
102
RTVSPost2010PropOp55
 70
     0
102
RTVSPost2010Prop56
140
1.0
102
RTVSPost2010PropOp56
 70
     0
102
RTVSPost2010Prop57
140
1.0
102
RTVSPost2010PropOp57
 70
     0
102
RTVSPropertyOp0
 70
     0
102
RTVSPropertyOp1
 70
     0
102
RTVSPropertyOp2
 70
     0
102
RTVSPropertyOp3
 70
     0
102
RTVSPropertyOp4
 70
     0
102
RTVSPropertyOp5
 70
     0
102
RTVSPropertyOp6
 70
     0
102
RTVSPropertyOp7
 70
     0
102
RTVSPropertyOp8
 70
     0
102
RTVSPropertyOp9
 70
     0
102
RTVSPropertyOp10
 70
     0
102
RTVSPropertyOp11
 70
     0
102
RTVSPropertyOp12
 70
     0
102
RTVSPropertyOp13
 70
     0
102
RTVSPropertyOp14
 70
     2
102
RTVSPropertyOp15
 70
     0
102
RTVSPropertyOp16
 70
     0
102
RTVSPropertyOp17
 70
     0
102
RTVSPropertyOp18
 70
     0
102
RTVSPropertyOp19
 70
     0
102
RTVSPropertyOp20
 70
     0
102
RTVSPropertyOp21
 70
     0
102
RTVSPropertyOp22
 70
     0
102
RTVSPropertyOp23
 70
     0
102
RTVSPropertyOp24
 70
     0
102
RTVSPropertyOp25
 70
     0
102
RTVSPropertyOp26
 70
     0
102
RTVSPropertyOp27
 70
     0
102
RTVSPropertyOp28
 70
     0
102
RTVSPropertyOp29
 70
     0
102
RTVSPropertyOp30
 70
     0
102
RTVSPropertyOp31
 70
     0
102
RTVSPropertyOp32
 70
     0
102
RTVSPropertyOp33
 70
     0
102
RTVSPropertyOp34
 70
     0
102
RTVSPropertyOp35
 70
     0
102
RTVSPropertyOp36
 70
     0
102
RTVSPropertyOp37
 70
     0
102
RTVSPropertyOp38
 70
     0
102
RTVSPropertyOp39
 70
     0
102
RTVSPropertyOp40
 70
     0
102
RTVSPropertyOp41
 70
     0
102
RTVSPropertyOp42
 70
     0
102
RTVSPropertyOp43
 70
     0
102
RTVSPropertyOp44
 70
     0
102
RTVSPropertyOp45
 70
     0
102
RTVSPropertyOp46
 70
     0
102
RTVSPropertyOp47
 70
     0
102
RTVSPropertyOp48
 70
     0
102
RTVSPropertyOp49
 70
     0
102
RTVSPropertyOp50
 70
     0
102
RTVSPropertyOp51
 70
     0
102
RTVSPropertyOp52
 70
     0
102
RTVSPropertyOp53
 70
     0
102
RTVSPropertyOp54
 70
     0
102
RTVSPropertyOp55
 70
     0
102
RTVSPropertyOp56
 70
     0
102
RTVSPropertyOp57
 70
     0
102
RTVSPropertyOp58
 70
     1
102
RTVSPropertyOp59
 70
     1
102
RTVSPropertyOp60
 70
     1
102
RTVSPropertyOp61
 70
     1
102
RTVSPropertyOp62
 70
     1
  0
XRECORD
  5
1C8CDE6ACA19
102
{ACAD_REACTORS
330
1C8CDE6ACA18
102
}
330
1C8CDE6ACA18
100
AcDbXrecord
280
     1
102
RTVSPost2010Prop28
280
     0
102
RTVSPost2010PropOp28
 70
     1
102
RTVSPost2010Prop29
280
     1
102
RTVSPost2010PropOp29
 70
     1
102
RTVSPost2010Prop30
280
     1
102
RTVSPost2010PropOp30
 70
     1
102
RTVSPost2010Prop31
280
     0
102
RTVSPost2010PropOp31
 70
     1
102
RTVSPost2010Prop32
280
     0
102
RTVSPost2010PropOp32
 70
     1
102
RTVSPost2010Prop33
280
     0
102
RTVSPost2010PropOp33
 70
     1
102
RTVSPost2010Prop34
280
     0
102
RTVSPost2010PropOp34
 70
     1
102
RTVSPost2010Prop35
280
     0
102
RTVSPost2010PropOp35
 70
     1
102
RTVSPost2010Prop36
280
     0
102
RTVSPost2010PropOp36
 70
     1
102
RTVSPost2010Prop37
 90
       50
102
RTVSPost2010PropOp37
 70
     1
102
RTVSPost2010Prop38
140
0.0
102
RTVSPost2010PropOp38
 70
     1
102
RTVSPost2010Prop39
140
1.0
102
RTVSPost2010PropOp39
 70
     1
102
RTVSPost2010Prop40
 90
        0
102
RTVSPost2010PropOp40
 70
     1
102
RTVSPost2010Prop41ColorIndex
 90
       18
102
RTVSPost2010Prop41ColorRGB
 90
        0
102
RTVSPost2010PropOp41
 70
     1
102
RTVSPost2010Prop42
 90
       50
102
RTVSPost2010PropOp42
 70
     1
102
RTVSPost2010Prop43
 90
        3
102
RTVSPost2010PropOp43
 70
     1
102
RTVSPost2010Prop44ColorIndex
 90
        5
102
RTVSPost2010Prop44ColorRGB
 90
      255
102
RTVSPost2010PropOp44
 70
     1
102
RTVSPost2010Prop45
280
     0
102
RTVSPost2010PropOp45
 70
     1
102
RTVSPost2010Prop46
 90
       50
102
RTVSPost2010PropOp46
 70
     1
102
RTVSPost2010Prop47
 90
       50
102
RTVSPost2010PropOp47
 70
     1
102
RTVSPost2010Prop48
 90
       50
102
RTVSPost2010PropOp48
 70
     1
102
RTVSPost2010Prop49
280
     0
102
RTVSPost2010PropOp49
 70
     1
102
RTVSPost2010Prop50
 90
       50
102
RTVSPost2010PropOp50
 70
     1
102
RTVSPost2010Prop51ColorIndex
 90
      256
102
RTVSPost2010Prop51ColorRGB
 90
-16777216
102
RTVSPost2010PropOp51
 70
     0
102
RTVSPost2010Prop52
140
1.0
102
RTVSPost2010PropOp52
 70
     0
102
RTVSPost2010Prop53
 90
        2
102
RTVSPost2010PropOp53
 70
     1
102
RTVSPost2010Prop54
  1
strokes_ogs.tif
102
RTVSPost2010PropOp54
 70
     1
102
RTVSPost2010Prop55
280
     0
102
RTVSPost2010PropOp55
 70
     1
102
RTVSPost2010Prop56
140
1.0
102
RTVSPost2010PropOp56
 70
     1
102
RTVSPost2010Prop57
140
1.0
102
RTVSPost2010PropOp57
 70
     1
102
RTVSPropertyOp0
 70
     1
102
RTVSPropertyOp1
 70
     1
102
RTVSPropertyOp2
 70
     1
102
RTVSPropertyOp3
 70
     1
102
RTVSPropertyOp4
 70
     1
102
RTVSPropertyOp5
 70
     1
102
RTVSPropertyOp6
 70
     1
102
RTVSPropertyOp7
 70
     1
102
RTVSPropertyOp8
 70
     1
102
RTVSPropertyOp9
 70
     1
102
RTVSPropertyOp10
 70
     1
102
RTVSPropertyOp11
 70
     1
102
RTVSPropertyOp12
 70
     1
102
RTVSPropertyOp13
 70
     1
102
RTVSPropertyOp14
 70
     1
102
RTVSPropertyOp15
 70
     1
102
RTVSPropertyOp16
 70
     1
102
RTVSPropertyOp17
 70
     1
102
RTVSPropertyOp18
 70
     1
102
RTVSPropertyOp19
 70
     1
102
RTVSPropertyOp20
 70
     1
102
RTVSPropertyOp21
 70
     1
102
RTVSPropertyOp22
 70
     1
102
RTVSPropertyOp23
 70
     1
102
RTVSPropertyOp24
 70
     1
102
RTVSPropertyOp25
 70
     1
102
RTVSPropertyOp26
 70
     1
102
RTVSPropertyOp27
 70
     1
102
RTVSPropertyOp28
 70
     1
102
RTVSPropertyOp29
 70
     1
102
RTVSPropertyOp30
 70
     1
102
RTVSPropertyOp31
 70
     1
102
RTVSPropertyOp32
 70
     1
102
RTVSPropertyOp33
 70
     1
102
RTVSPropertyOp34
 70
     1
102
RTVSPropertyOp35
 70
     1
102
RTVSPropertyOp36
 70
     1
102
RTVSPropertyOp37
 70
     1
102
RTVSPropertyOp38
 70
     1
102
RTVSPropertyOp39
 70
     1
102
RTVSPropertyOp40
 70
     1
102
RTVSPropertyOp41
 70
     1
102
RTVSPropertyOp42
 70
     1
102
RTVSPropertyOp43
 70
     1
102
RTVSPropertyOp44
 70
     1
102
RTVSPropertyOp45
 70
     1
102
RTVSPropertyOp46
 70
     1
102
RTVSPropertyOp47
 70
     1
102
RTVSPropertyOp48
 70
     1
102
RTVSPropertyOp49
 70
     1
102
RTVSPropertyOp50
 70
     1
102
RTVSPropertyOp51
 70
     0
102
RTVSPropertyOp52
 70
     0
102
RTVSPropertyOp53
 70
     1
102
RTVSPropertyOp54
 70
     1
102
RTVSPropertyOp55
 70
     1
102
RTVSPropertyOp56
 70
     1
102
RTVSPropertyOp57
 70
     1
102
RTVSPropertyOp58
 70
     1
102
RTVSPropertyOp59
 70
     1
102
RTVSPropertyOp60
 70
     1
102
RTVSPropertyOp61
 70
     1
102
RTVSPropertyOp62
 70
     1
  0
XRECORD
  5
1C8CDE6ACA35
102
{ACAD_REACTORS
330
1C8CDE6ACA34
102
}
330
1C8CDE6ACA34
100
AcDbXrecord
280
     1
102
RTVSPost2010Prop28
280
     0
102
RTVSPost2010PropOp28
 70
     1
102
RTVSPost2010Prop29
280
     1
102
RTVSPost2010PropOp29
 70
     1
102
RTVSPost2010Prop30
280
     1
102
RTVSPost2010PropOp30
 70
     1
102
RTVSPost2010Prop31
280
     0
102
RTVSPost2010PropOp31
 70
     1
102
RTVSPost2010Prop32
280
     0
102
RTVSPost2010PropOp32
 70
     1
102
RTVSPost2010Prop33
280
     0
102
RTVSPost2010PropOp33
 70
     1
102
RTVSPost2010Prop34
280
     0
102
RTVSPost2010PropOp34
 70
     1
102
RTVSPost2010Prop35
280
     0
102
RTVSPost2010PropOp35
 70
     1
102
RTVSPost2010Prop36
280
     0
102
RTVSPost2010PropOp36
 70
     1
102
RTVSPost2010Prop37
 90
       50
102
RTVSPost2010PropOp37
 70
     1
102
RTVSPost2010Prop38
140
0.0
102
RTVSPost2010PropOp38
 70
     1
102
RTVSPost2010Prop39
140
1.0
102
RTVSPost2010PropOp39
 70
     1
102
RTVSPost2010Prop40
 90
        0
102
RTVSPost2010PropOp40
 70
     1
102
RTVSPost2010Prop41ColorIndex
 90
       18
102
RTVSPost2010Prop41ColorRGB
 90
        0
102
RTVSPost2010PropOp41
 70
     1
102
RTVSPost2010Prop42
 90
       50
102
RTVSPost2010PropOp42
 70
     1
102
RTVSPost2010Prop43
 90
        3
102
RTVSPost2010PropOp43
 70
     1
102
RTVSPost2010Prop44ColorIndex
 90
        5
102
RTVSPost2010Prop44ColorRGB
 90
      255
102
RTVSPost2010PropOp44
 70
     1
102
RTVSPost2010Prop45
280
     0
102
RTVSPost2010PropOp45
 70
     1
102
RTVSPost2010Prop46
 90
       50
102
RTVSPost2010PropOp46
 70
     1
102
RTVSPost2010Prop47
 90
       50
102
RTVSPost2010PropOp47
 70
     1
102
RTVSPost2010Prop48
 90
       50
102
RTVSPost2010PropOp48
 70
     1
102
RTVSPost2010Prop49
280
     0
102
RTVSPost2010PropOp49
 70
     1
102
RTVSPost2010Prop50
 90
       50
102
RTVSPost2010PropOp50
 70
     1
102
RTVSPost2010Prop51ColorIndex
 90
      256
102
RTVSPost2010Prop51ColorRGB
 90
-16777216
102
RTVSPost2010PropOp51
 70
     0
102
RTVSPost2010Prop52
140
1.0
102
RTVSPost2010PropOp52
 70
     0
102
RTVSPost2010Prop53
 90
        2
102
RTVSPost2010PropOp53
 70
     1
102
RTVSPost2010Prop54
  1
strokes_ogs.tif
102
RTVSPost2010PropOp54
 70
     1
102
RTVSPost2010Prop55
280
     0
102
RTVSPost2010PropOp55
 70
     1
102
RTVSPost2010Prop56
140
1.0
102
RTVSPost2010PropOp56
 70
     1
102
RTVSPost2010Prop57
140
1.0
102
RTVSPost2010PropOp57
 70
     1
102
RTVSPropertyOp0
 70
     1
102
RTVSPropertyOp1
 70
     1
102
RTVSPropertyOp2
 70
     1
102
RTVSPropertyOp3
 70
     1
102
RTVSPropertyOp4
 70
     1
102
RTVSPropertyOp5
 70
     1
102
RTVSPropertyOp6
 70
     1
102
RTVSPropertyOp7
 70
     1
102
RTVSPropertyOp8
 70
     1
102
RTVSPropertyOp9
 70
     1
102
RTVSPropertyOp10
 70
     1
102
RTVSPropertyOp11
 70
     1
102
RTVSPropertyOp12
 70
     1
102
RTVSPropertyOp13
 70
     1
102
RTVSPropertyOp14
 70
     1
102
RTVSPropertyOp15
 70
     1
102
RTVSPropertyOp16
 70
     1
102
RTVSPropertyOp17
 70
     1
102
RTVSPropertyOp18
 70
     1
102
RTVSPropertyOp19
 70
     1
102
RTVSPropertyOp20
 70
     1
102
RTVSPropertyOp21
 70
     1
102
RTVSPropertyOp22
 70
     1
102
RTVSPropertyOp23
 70
     1
102
RTVSPropertyOp24
 70
     1
102
RTVSPropertyOp25
 70
     1
102
RTVSPropertyOp26
 70
     1
102
RTVSPropertyOp27
 70
     1
102
RTVSPropertyOp28
 70
     1
102
RTVSPropertyOp29
 70
     1
102
RTVSPropertyOp30
 70
     1
102
RTVSPropertyOp31
 70
     1
102
RTVSPropertyOp32
 70
     1
102
RTVSPropertyOp33
 70
     1
102
RTVSPropertyOp34
 70
     1
102
RTVSPropertyOp35
 70
     1
102
RTVSPropertyOp36
 70
     1
102
RTVSPropertyOp37
 70
     1
102
RTVSPropertyOp38
 70
     1
102
RTVSPropertyOp39
 70
     1
102
RTVSPropertyOp40
 70
     1
102
RTVSPropertyOp41
 70
     1
102
RTVSPropertyOp42
 70
     1
102
RTVSPropertyOp43
 70
     1
102
RTVSPropertyOp44
 70
     1
102
RTVSPropertyOp45
 70
     1
102
RTVSPropertyOp46
 70
     1
102
RTVSPropertyOp47
 70
     1
102
RTVSPropertyOp48
 70
     1
102
RTVSPropertyOp49
 70
     1
102
RTVSPropertyOp50
 70
     1
102
RTVSPropertyOp51
 70
     0
102
RTVSPropertyOp52
 70
     0
102
RTVSPropertyOp53
 70
     1
102
RTVSPropertyOp54
 70
     1
102
RTVSPropertyOp55
 70
     1
102
RTVSPropertyOp56
 70
     1
102
RTVSPropertyOp57
 70
     1
102
RTVSPropertyOp58
 70
     1
102
RTVSPropertyOp59
 70
     1
102
RTVSPropertyOp60
 70
     1
102
RTVSPropertyOp61
 70
     1
102
RTVSPropertyOp62
 70
     1
  0
XRECORD
  5
1C8CDE6ACA21
102
{ACAD_REACTORS
330
1C8CDE6ACA20
102
}
330
1C8CDE6ACA20
100
AcDbXrecord
280
     1
102
RTVSPost2010Prop28
280
     0
102
RTVSPost2010PropOp28
 70
     0
102
RTVSPost2010Prop29
280
     1
102
RTVSPost2010PropOp29
 70
     0
102
RTVSPost2010Prop30
280
     1
102
RTVSPost2010PropOp30
 70
     0
102
RTVSPost2010Prop31
280
     0
102
RTVSPost2010PropOp31
 70
     0
102
RTVSPost2010Prop32
280
     0
102
RTVSPost2010PropOp32
 70
     0
102
RTVSPost2010Prop33
280
     0
102
RTVSPost2010PropOp33
 70
     0
102
RTVSPost2010Prop34
280
     0
102
RTVSPost2010PropOp34
 70
     0
102
RTVSPost2010Prop35
280
     0
102
RTVSPost2010PropOp35
 70
     0
102
RTVSPost2010Prop36
280
     0
102
RTVSPost2010PropOp36
 70
     0
102
RTVSPost2010Prop37
 90
       50
102
RTVSPost2010PropOp37
 70
     0
102
RTVSPost2010Prop38
140
0.0
102
RTVSPost2010PropOp38
 70
     0
102
RTVSPost2010Prop39
140
1.0
102
RTVSPost2010PropOp39
 70
     0
102
RTVSPost2010Prop40
 90
        0
102
RTVSPost2010PropOp40
 70
     0
102
RTVSPost2010Prop41ColorIndex
 90
       18
102
RTVSPost2010Prop41ColorRGB
 90
        0
102
RTVSPost2010PropOp41
 70
     0
102
RTVSPost2010Prop42
 90
       50
102
RTVSPost2010PropOp42
 70
     0
102
RTVSPost2010Prop43
 90
        3
102
RTVSPost2010PropOp43
 70
     0
102
RTVSPost2010Prop44ColorIndex
 90
        5
102
RTVSPost2010Prop44ColorRGB
 90
      255
102
RTVSPost2010PropOp44
 70
     0
102
RTVSPost2010Prop45
280
     0
102
RTVSPost2010PropOp45
 70
     0
102
RTVSPost2010Prop46
 90
       50
102
RTVSPost2010PropOp46
 70
     0
102
RTVSPost2010Prop47
 90
       50
102
RTVSPost2010PropOp47
 70
     0
102
RTVSPost2010Prop48
 90
       50
102
RTVSPost2010PropOp48
 70
     0
102
RTVSPost2010Prop49
280
     0
102
RTVSPost2010PropOp49
 70
     0
102
RTVSPost2010Prop50
 90
       50
102
RTVSPost2010PropOp50
 70
     0
102
RTVSPost2010Prop51ColorIndex
 90
      256
102
RTVSPost2010Prop51ColorRGB
 90
-16777216
102
RTVSPost2010PropOp51
 70
     0
102
RTVSPost2010Prop52
140
1.0
102
RTVSPost2010PropOp52
 70
     0
102
RTVSPost2010Prop53
 90
        2
102
RTVSPost2010PropOp53
 70
     0
102
RTVSPost2010Prop54
  1
strokes_ogs.tif
102
RTVSPost2010PropOp54
 70
     0
102
RTVSPost2010Prop55
280
     0
102
RTVSPost2010PropOp55
 70
     0
102
RTVSPost2010Prop56
140
1.0
102
RTVSPost2010PropOp56
 70
     0
102
RTVSPost2010Prop57
140
1.0
102
RTVSPost2010PropOp57
 70
     0
102
RTVSPropertyOp0
 70
     0
102
RTVSPropertyOp1
 70
     0
102
RTVSPropertyOp2
 70
     0
102
RTVSPropertyOp3
 70
     0
102
RTVSPropertyOp4
 70
     0
102
RTVSPropertyOp5
 70
     0
102
RTVSPropertyOp6
 70
     0
102
RTVSPropertyOp7
 70
     0
102
RTVSPropertyOp8
 70
     0
102
RTVSPropertyOp9
 70
     0
102
RTVSPropertyOp10
 70
     0
102
RTVSPropertyOp11
 70
     0
102
RTVSPropertyOp12
 70
     0
102
RTVSPropertyOp13
 70
     0
102
RTVSPropertyOp14
 70
     2
102
RTVSPropertyOp15
 70
     0
102
RTVSPropertyOp16
 70
     0
102
RTVSPropertyOp17
 70
     0
102
RTVSPropertyOp18
 70
     0
102
RTVSPropertyOp19
 70
     0
102
RTVSPropertyOp20
 70
     0
102
RTVSPropertyOp21
 70
     0
102
RTVSPropertyOp22
 70
     0
102
RTVSPropertyOp23
 70
     0
102
RTVSPropertyOp24
 70
     0
102
RTVSPropertyOp25
 70
     0
102
RTVSPropertyOp26
 70
     0
102
RTVSPropertyOp27
 70
     0
102
RTVSPropertyOp28
 70
     0
102
RTVSPropertyOp29
 70
     0
102
RTVSPropertyOp30
 70
     0
102
RTVSPropertyOp31
 70
     0
102
RTVSPropertyOp32
 70
     0
102
RTVSPropertyOp33
 70
     0
102
RTVSPropertyOp34
 70
     0
102
RTVSPropertyOp35
 70
     0
102
RTVSPropertyOp36
 70
     0
102
RTVSPropertyOp37
 70
     0
102
RTVSPropertyOp38
 70
     0
102
RTVSPropertyOp39
 70
     0
102
RTVSPropertyOp40
 70
     0
102
RTVSPropertyOp41
 70
     0
102
RTVSPropertyOp42
 70
     0
102
RTVSPropertyOp43
 70
     0
102
RTVSPropertyOp44
 70
     0
102
RTVSPropertyOp45
 70
     0
102
RTVSPropertyOp46
 70
     0
102
RTVSPropertyOp47
 70
     0
102
RTVSPropertyOp48
 70
     0
102
RTVSPropertyOp49
 70
     0
102
RTVSPropertyOp50
 70
     0
102
RTVSPropertyOp51
 70
     0
102
RTVSPropertyOp52
 70
     0
102
RTVSPropertyOp53
 70
     0
102
RTVSPropertyOp54
 70
     0
102
RTVSPropertyOp55
 70
     0
102
RTVSPropertyOp56
 70
     0
102
RTVSPropertyOp57
 70
     0
102
RTVSPropertyOp58
 70
     1
102
RTVSPropertyOp59
 70
     1
102
RTVSPropertyOp60
 70
     1
102
RTVSPropertyOp61
 70
     1
102
RTVSPropertyOp62
 70
     1
  0
XRECORD
  5
1C8CDE6ACA0F
102
{ACAD_REACTORS
330
1C8CDE6ACA0E
102
}
330
1C8CDE6ACA0E
100
AcDbXrecord
280
     1
102
RTVSPost2010Prop28
280
     0
102
RTVSPost2010PropOp28
 70
     1
102
RTVSPost2010Prop29
280
     1
102
RTVSPost2010PropOp29
 70
     1
102
RTVSPost2010Prop30
280
     1
102
RTVSPost2010PropOp30
 70
     1
102
RTVSPost2010Prop31
280
     0
102
RTVSPost2010PropOp31
 70
     1
102
RTVSPost2010Prop32
280
     0
102
RTVSPost2010PropOp32
 70
     1
102
RTVSPost2010Prop33
280
     0
102
RTVSPost2010PropOp33
 70
     1
102
RTVSPost2010Prop34
280
     0
102
RTVSPost2010PropOp34
 70
     1
102
RTVSPost2010Prop35
280
     0
102
RTVSPost2010PropOp35
 70
     1
102
RTVSPost2010Prop36
280
     0
102
RTVSPost2010PropOp36
 70
     1
102
RTVSPost2010Prop37
 90
       50
102
RTVSPost2010PropOp37
 70
     1
102
RTVSPost2010Prop38
140
0.0
102
RTVSPost2010PropOp38
 70
     1
102
RTVSPost2010Prop39
140
1.0
102
RTVSPost2010PropOp39
 70
     1
102
RTVSPost2010Prop40
 90
        0
102
RTVSPost2010PropOp40
 70
     1
102
RTVSPost2010Prop41ColorIndex
 90
       18
102
RTVSPost2010Prop41ColorRGB
 90
        0
102
RTVSPost2010PropOp41
 70
     1
102
RTVSPost2010Prop42
 90
       50
102
RTVSPost2010PropOp42
 70
     1
102
RTVSPost2010Prop43
 90
        3
102
RTVSPost2010PropOp43
 70
     1
102
RTVSPost2010Prop44ColorIndex
 90
        5
102
RTVSPost2010Prop44ColorRGB
 90
      255
102
RTVSPost2010PropOp44
 70
     1
102
RTVSPost2010Prop45
280
     0
102
RTVSPost2010PropOp45
 70
     1
102
RTVSPost2010Prop46
 90
       50
102
RTVSPost2010PropOp46
 70
     1
102
RTVSPost2010Prop47
 90
       50
102
RTVSPost2010PropOp47
 70
     1
102
RTVSPost2010Prop48
 90
       50
102
RTVSPost2010PropOp48
 70
     1
102
RTVSPost2010Prop49
280
     0
102
RTVSPost2010PropOp49
 70
     1
102
RTVSPost2010Prop50
 90
       50
102
RTVSPost2010PropOp50
 70
     1
102
RTVSPost2010Prop51ColorIndex
 90
      256
102
RTVSPost2010Prop51ColorRGB
 90
-16777216
102
RTVSPost2010PropOp51
 70
     0
102
RTVSPost2010Prop52
140
1.0
102
RTVSPost2010PropOp52
 70
     0
102
RTVSPost2010Prop53
 90
        2
102
RTVSPost2010PropOp53
 70
     1
102
RTVSPost2010Prop54
  1
strokes_ogs.tif
102
RTVSPost2010PropOp54
 70
     1
102
RTVSPost2010Prop55
280
     0
102
RTVSPost2010PropOp55
 70
     1
102
RTVSPost2010Prop56
140
1.0
102
RTVSPost2010PropOp56
 70
     1
102
RTVSPost2010Prop57
140
1.0
102
RTVSPost2010PropOp57
 70
     1
102
RTVSPropertyOp0
 70
     1
102
RTVSPropertyOp1
 70
     1
102
RTVSPropertyOp2
 70
     1
102
RTVSPropertyOp3
 70
     1
102
RTVSPropertyOp4
 70
     1
102
RTVSPropertyOp5
 70
     1
102
RTVSPropertyOp6
 70
     1
102
RTVSPropertyOp7
 70
     1
102
RTVSPropertyOp8
 70
     1
102
RTVSPropertyOp9
 70
     1
102
RTVSPropertyOp10
 70
     1
102
RTVSPropertyOp11
 70
     1
102
RTVSPropertyOp12
 70
     1
102
RTVSPropertyOp13
 70
     1
102
RTVSPropertyOp14
 70
     1
102
RTVSPropertyOp15
 70
     1
102
RTVSPropertyOp16
 70
     1
102
RTVSPropertyOp17
 70
     1
102
RTVSPropertyOp18
 70
     1
102
RTVSPropertyOp19
 70
     1
102
RTVSPropertyOp20
 70
     1
102
RTVSPropertyOp21
 70
     1
102
RTVSPropertyOp22
 70
     1
102
RTVSPropertyOp23
 70
     1
102
RTVSPropertyOp24
 70
     1
102
RTVSPropertyOp25
 70
     1
102
RTVSPropertyOp26
 70
     1
102
RTVSPropertyOp27
 70
     1
102
RTVSPropertyOp28
 70
     1
102
RTVSPropertyOp29
 70
     1
102
RTVSPropertyOp30
 70
     1
102
RTVSPropertyOp31
 70
     1
102
RTVSPropertyOp32
 70
     1
102
RTVSPropertyOp33
 70
     1
102
RTVSPropertyOp34
 70
     1
102
RTVSPropertyOp35
 70
     1
102
RTVSPropertyOp36
 70
     1
102
RTVSPropertyOp37
 70
     1
102
RTVSPropertyOp38
 70
     1
102
RTVSPropertyOp39
 70
     1
102
RTVSPropertyOp40
 70
     1
102
RTVSPropertyOp41
 70
     1
102
RTVSPropertyOp42
 70
     1
102
RTVSPropertyOp43
 70
     1
102
RTVSPropertyOp44
 70
     1
102
RTVSPropertyOp45
 70
     1
102
RTVSPropertyOp46
 70
     1
102
RTVSPropertyOp47
 70
     1
102
RTVSPropertyOp48
 70
     1
102
RTVSPropertyOp49
 70
     1
102
RTVSPropertyOp50
 70
     1
102
RTVSPropertyOp51
 70
     0
102
RTVSPropertyOp52
 70
     0
102
RTVSPropertyOp53
 70
     1
102
RTVSPropertyOp54
 70
     1
102
RTVSPropertyOp55
 70
     1
102
RTVSPropertyOp56
 70
     1
102
RTVSPropertyOp57
 70
     1
102
RTVSPropertyOp58
 70
     1
102
RTVSPropertyOp59
 70
     1
102
RTVSPropertyOp60
 70
     1
102
RTVSPropertyOp61
 70
     1
102
RTVSPropertyOp62
 70
     1
  0
XRECORD
  5
1C8CDE6ACA2D
102
{ACAD_REACTORS
330
1C8CDE6ACA2C
102
}
330
1C8CDE6ACA2C
100
AcDbXrecord
280
     1
102
RTVSPost2010Prop28
280
     0
102
RTVSPost2010PropOp28
 70
     1
102
RTVSPost2010Prop29
280
     1
102
RTVSPost2010PropOp29
 70
     1
102
RTVSPost2010Prop30
280
     1
102
RTVSPost2010PropOp30
 70
     1
102
RTVSPost2010Prop31
280
     0
102
RTVSPost2010PropOp31
 70
     1
102
RTVSPost2010Prop32
280
     0
102
RTVSPost2010PropOp32
 70
     1
102
RTVSPost2010Prop33
280
     0
102
RTVSPost2010PropOp33
 70
     1
102
RTVSPost2010Prop34
280
     0
102
RTVSPost2010PropOp34
 70
     1
102
RTVSPost2010Prop35
280
     0
102
RTVSPost2010PropOp35
 70
     1
102
RTVSPost2010Prop36
280
     0
102
RTVSPost2010PropOp36
 70
     1
102
RTVSPost2010Prop37
 90
       50
102
RTVSPost2010PropOp37
 70
     1
102
RTVSPost2010Prop38
140
0.0
102
RTVSPost2010PropOp38
 70
     1
102
RTVSPost2010Prop39
140
1.0
102
RTVSPost2010PropOp39
 70
     1
102
RTVSPost2010Prop40
 90
        0
102
RTVSPost2010PropOp40
 70
     1
102
RTVSPost2010Prop41ColorIndex
 90
       18
102
RTVSPost2010Prop41ColorRGB
 90
        0
102
RTVSPost2010PropOp41
 70
     1
102
RTVSPost2010Prop42
 90
       50
102
RTVSPost2010PropOp42
 70
     1
102
RTVSPost2010Prop43
 90
        3
102
RTVSPost2010PropOp43
 70
     1
102
RTVSPost2010Prop44ColorIndex
 90
        5
102
RTVSPost2010Prop44ColorRGB
 90
      255
102
RTVSPost2010PropOp44
 70
     1
102
RTVSPost2010Prop45
280
     0
102
RTVSPost2010PropOp45
 70
     1
102
RTVSPost2010Prop46
 90
       50
102
RTVSPost2010PropOp46
 70
     1
102
RTVSPost2010Prop47
 90
       50
102
RTVSPost2010PropOp47
 70
     1
102
RTVSPost2010Prop48
 90
       50
102
RTVSPost2010PropOp48
 70
     1
102
RTVSPost2010Prop49
280
     0
102
RTVSPost2010PropOp49
 70
     1
102
RTVSPost2010Prop50
 90
       50
102
RTVSPost2010PropOp50
 70
     1
102
RTVSPost2010Prop51ColorIndex
 90
      256
102
RTVSPost2010Prop51ColorRGB
 90
-16777216
102
RTVSPost2010PropOp51
 70
     0
102
RTVSPost2010Prop52
140
1.0
102
RTVSPost2010PropOp52
 70
     0
102
RTVSPost2010Prop53
 90
        2
102
RTVSPost2010PropOp53
 70
     1
102
RTVSPost2010Prop54
  1
strokes_ogs.tif
102
RTVSPost2010PropOp54
 70
     1
102
RTVSPost2010Prop55
280
     0
102
RTVSPost2010PropOp55
 70
     1
102
RTVSPost2010Prop56
140
1.0
102
RTVSPost2010PropOp56
 70
     1
102
RTVSPost2010Prop57
140
1.0
102
RTVSPost2010PropOp57
 70
     1
102
RTVSPropertyOp0
 70
     1
102
RTVSPropertyOp1
 70
     1
102
RTVSPropertyOp2
 70
     1
102
RTVSPropertyOp3
 70
     1
102
RTVSPropertyOp4
 70
     1
102
RTVSPropertyOp5
 70
     1
102
RTVSPropertyOp6
 70
     1
102
RTVSPropertyOp7
 70
     1
102
RTVSPropertyOp8
 70
     1
102
RTVSPropertyOp9
 70
     1
102
RTVSPropertyOp10
 70
     1
102
RTVSPropertyOp11
 70
     1
102
RTVSPropertyOp12
 70
     1
102
RTVSPropertyOp13
 70
     1
102
RTVSPropertyOp14
 70
     1
102
RTVSPropertyOp15
 70
     1
102
RTVSPropertyOp16
 70
     1
102
RTVSPropertyOp17
 70
     1
102
RTVSPropertyOp18
 70
     1
102
RTVSPropertyOp19
 70
     1
102
RTVSPropertyOp20
 70
     1
102
RTVSPropertyOp21
 70
     1
102
RTVSPropertyOp22
 70
     1
102
RTVSPropertyOp23
 70
     1
102
RTVSPropertyOp24
 70
     1
102
RTVSPropertyOp25
 70
     1
102
RTVSPropertyOp26
 70
     1
102
RTVSPropertyOp27
 70
     1
102
RTVSPropertyOp28
 70
     1
102
RTVSPropertyOp29
 70
     1
102
RTVSPropertyOp30
 70
     1
102
RTVSPropertyOp31
 70
     1
102
RTVSPropertyOp32
 70
     1
102
RTVSPropertyOp33
 70
     1
102
RTVSPropertyOp34
 70
     1
102
RTVSPropertyOp35
 70
     1
102
RTVSPropertyOp36
 70
     1
102
RTVSPropertyOp37
 70
     1
102
RTVSPropertyOp38
 70
     1
102
RTVSPropertyOp39
 70
     1
102
RTVSPropertyOp40
 70
     1
102
RTVSPropertyOp41
 70
     1
102
RTVSPropertyOp42
 70
     1
102
RTVSPropertyOp43
 70
     1
102
RTVSPropertyOp44
 70
     1
102
RTVSPropertyOp45
 70
     1
102
RTVSPropertyOp46
 70
     1
102
RTVSPropertyOp47
 70
     1
102
RTVSPropertyOp48
 70
     1
102
RTVSPropertyOp49
 70
     1
102
RTVSPropertyOp50
 70
     1
102
RTVSPropertyOp51
 70
     0
102
RTVSPropertyOp52
 70
     0
102
RTVSPropertyOp53
 70
     1
102
RTVSPropertyOp54
 70
     1
102
RTVSPropertyOp55
 70
     1
102
RTVSPropertyOp56
 70
     1
102
RTVSPropertyOp57
 70
     1
102
RTVSPropertyOp58
 70
     1
102
RTVSPropertyOp59
 70
     1
102
RTVSPropertyOp60
 70
     1
102
RTVSPropertyOp61
 70
     1
102
RTVSPropertyOp62
 70
     1
  0
XRECORD
  5
1C8CDE6ACA2B
102
{ACAD_REACTORS
330
1C8CDE6ACA2A
102
}
330
1C8CDE6ACA2A
100
AcDbXrecord
280
     1
102
RTVSPost2010Prop28
280
     0
102
RTVSPost2010PropOp28
 70
     1
102
RTVSPost2010Prop29
280
     1
102
RTVSPost2010PropOp29
 70
     1
102
RTVSPost2010Prop30
280
     1
102
RTVSPost2010PropOp30
 70
     1
102
RTVSPost2010Prop31
280
     0
102
RTVSPost2010PropOp31
 70
     1
102
RTVSPost2010Prop32
280
     0
102
RTVSPost2010PropOp32
 70
     1
102
RTVSPost2010Prop33
280
     0
102
RTVSPost2010PropOp33
 70
     1
102
RTVSPost2010Prop34
280
     0
102
RTVSPost2010PropOp34
 70
     1
102
RTVSPost2010Prop35
280
     0
102
RTVSPost2010PropOp35
 70
     1
102
RTVSPost2010Prop36
280
     0
102
RTVSPost2010PropOp36
 70
     1
102
RTVSPost2010Prop37
 90
       50
102
RTVSPost2010PropOp37
 70
     1
102
RTVSPost2010Prop38
140
0.0
102
RTVSPost2010PropOp38
 70
     1
102
RTVSPost2010Prop39
140
1.0
102
RTVSPost2010PropOp39
 70
     1
102
RTVSPost2010Prop40
 90
        0
102
RTVSPost2010PropOp40
 70
     1
102
RTVSPost2010Prop41ColorIndex
 90
       18
102
RTVSPost2010Prop41ColorRGB
 90
        0
102
RTVSPost2010PropOp41
 70
     1
102
RTVSPost2010Prop42
 90
       50
102
RTVSPost2010PropOp42
 70
     1
102
RTVSPost2010Prop43
 90
        3
102
RTVSPost2010PropOp43
 70
     1
102
RTVSPost2010Prop44ColorIndex
 90
        5
102
RTVSPost2010Prop44ColorRGB
 90
      255
102
RTVSPost2010PropOp44
 70
     1
102
RTVSPost2010Prop45
280
     0
102
RTVSPost2010PropOp45
 70
     1
102
RTVSPost2010Prop46
 90
       50
102
RTVSPost2010PropOp46
 70
     1
102
RTVSPost2010Prop47
 90
       50
102
RTVSPost2010PropOp47
 70
     1
102
RTVSPost2010Prop48
 90
       50
102
RTVSPost2010PropOp48
 70
     1
102
RTVSPost2010Prop49
280
     0
102
RTVSPost2010PropOp49
 70
     1
102
RTVSPost2010Prop50
 90
       50
102
RTVSPost2010PropOp50
 70
     1
102
RTVSPost2010Prop51ColorIndex
 90
      256
102
RTVSPost2010Prop51ColorRGB
 90
-16777216
102
RTVSPost2010PropOp51
 70
     0
102
RTVSPost2010Prop52
140
1.0
102
RTVSPost2010PropOp52
 70
     0
102
RTVSPost2010Prop53
 90
        2
102
RTVSPost2010PropOp53
 70
     1
102
RTVSPost2010Prop54
  1
strokes_ogs.tif
102
RTVSPost2010PropOp54
 70
     1
102
RTVSPost2010Prop55
280
     0
102
RTVSPost2010PropOp55
 70
     1
102
RTVSPost2010Prop56
140
1.0
102
RTVSPost2010PropOp56
 70
     1
102
RTVSPost2010Prop57
140
1.0
102
RTVSPost2010PropOp57
 70
     1
102
RTVSPropertyOp0
 70
     1
102
RTVSPropertyOp1
 70
     1
102
RTVSPropertyOp2
 70
     1
102
RTVSPropertyOp3
 70
     1
102
RTVSPropertyOp4
 70
     1
102
RTVSPropertyOp5
 70
     1
102
RTVSPropertyOp6
 70
     1
102
RTVSPropertyOp7
 70
     1
102
RTVSPropertyOp8
 70
     1
102
RTVSPropertyOp9
 70
     1
102
RTVSPropertyOp10
 70
     1
102
RTVSPropertyOp11
 70
     1
102
RTVSPropertyOp12
 70
     1
102
RTVSPropertyOp13
 70
     1
102
RTVSPropertyOp14
 70
     1
102
RTVSPropertyOp15
 70
     1
102
RTVSPropertyOp16
 70
     1
102
RTVSPropertyOp17
 70
     1
102
RTVSPropertyOp18
 70
     1
102
RTVSPropertyOp19
 70
     1
102
RTVSPropertyOp20
 70
     1
102
RTVSPropertyOp21
 70
     1
102
RTVSPropertyOp22
 70
     1
102
RTVSPropertyOp23
 70
     1
102
RTVSPropertyOp24
 70
     1
102
RTVSPropertyOp25
 70
     1
102
RTVSPropertyOp26
 70
     1
102
RTVSPropertyOp27
 70
     1
102
RTVSPropertyOp28
 70
     1
102
RTVSPropertyOp29
 70
     1
102
RTVSPropertyOp30
 70
     1
102
RTVSPropertyOp31
 70
     1
102
RTVSPropertyOp32
 70
     1
102
RTVSPropertyOp33
 70
     1
102
RTVSPropertyOp34
 70
     1
102
RTVSPropertyOp35
 70
     1
102
RTVSPropertyOp36
 70
     1
102
RTVSPropertyOp37
 70
     1
102
RTVSPropertyOp38
 70
     1
102
RTVSPropertyOp39
 70
     1
102
RTVSPropertyOp40
 70
     1
102
RTVSPropertyOp41
 70
     1
102
RTVSPropertyOp42
 70
     1
102
RTVSPropertyOp43
 70
     1
102
RTVSPropertyOp44
 70
     1
102
RTVSPropertyOp45
 70
     1
102
RTVSPropertyOp46
 70
     1
102
RTVSPropertyOp47
 70
     1
102
RTVSPropertyOp48
 70
     1
102
RTVSPropertyOp49
 70
     1
102
RTVSPropertyOp50
 70
     1
102
RTVSPropertyOp51
 70
     0
102
RTVSPropertyOp52
 70
     0
102
RTVSPropertyOp53
 70
     1
102
RTVSPropertyOp54
 70
     1
102
RTVSPropertyOp55
 70
     1
102
RTVSPropertyOp56
 70
     1
102
RTVSPropertyOp57
 70
     1
102
RTVSPropertyOp58
 70
     1
102
RTVSPropertyOp59
 70
     1
102
RTVSPropertyOp60
 70
     1
102
RTVSPropertyOp61
 70
     1
102
RTVSPropertyOp62
 70
     1
  0
XRECORD
  5
1C8CDE6ACA25
102
{ACAD_REACTORS
330
1C8CDE6ACA24
102
}
330
1C8CDE6ACA24
100
AcDbXrecord
280
     1
102
RTVSPost2010Prop28
280
     0
102
RTVSPost2010PropOp28
 70
     1
102
RTVSPost2010Prop29
280
     1
102
RTVSPost2010PropOp29
 70
     1
102
RTVSPost2010Prop30
280
     1
102
RTVSPost2010PropOp30
 70
     1
102
RTVSPost2010Prop31
280
     0
102
RTVSPost2010PropOp31
 70
     1
102
RTVSPost2010Prop32
280
     0
102
RTVSPost2010PropOp32
 70
     1
102
RTVSPost2010Prop33
280
     0
102
RTVSPost2010PropOp33
 70
     1
102
RTVSPost2010Prop34
280
     0
102
RTVSPost2010PropOp34
 70
     1
102
RTVSPost2010Prop35
280
     0
102
RTVSPost2010PropOp35
 70
     1
102
RTVSPost2010Prop36
280
     0
102
RTVSPost2010PropOp36
 70
     1
102
RTVSPost2010Prop37
 90
       50
102
RTVSPost2010PropOp37
 70
     1
102
RTVSPost2010Prop38
140
0.0
102
RTVSPost2010PropOp38
 70
     1
102
RTVSPost2010Prop39
140
1.0
102
RTVSPost2010PropOp39
 70
     1
102
RTVSPost2010Prop40
 90
        0
102
RTVSPost2010PropOp40
 70
     1
102
RTVSPost2010Prop41ColorIndex
 90
       18
102
RTVSPost2010Prop41ColorRGB
 90
        0
102
RTVSPost2010PropOp41
 70
     1
102
RTVSPost2010Prop42
 90
       50
102
RTVSPost2010PropOp42
 70
     1
102
RTVSPost2010Prop43
 90
        3
102
RTVSPost2010PropOp43
 70
     1
102
RTVSPost2010Prop44ColorIndex
 90
        5
102
RTVSPost2010Prop44ColorRGB
 90
      255
102
RTVSPost2010PropOp44
 70
     1
102
RTVSPost2010Prop45
280
     0
102
RTVSPost2010PropOp45
 70
     1
102
RTVSPost2010Prop46
 90
       50
102
RTVSPost2010PropOp46
 70
     1
102
RTVSPost2010Prop47
 90
       50
102
RTVSPost2010PropOp47
 70
     1
102
RTVSPost2010Prop48
 90
       50
102
RTVSPost2010PropOp48
 70
     1
102
RTVSPost2010Prop49
280
     0
102
RTVSPost2010PropOp49
 70
     1
102
RTVSPost2010Prop50
 90
       50
102
RTVSPost2010PropOp50
 70
     1
102
RTVSPost2010Prop51ColorIndex
 90
      256
102
RTVSPost2010Prop51ColorRGB
 90
-16777216
102
RTVSPost2010PropOp51
 70
     0
102
RTVSPost2010Prop52
140
1.0
102
RTVSPost2010PropOp52
 70
     0
102
RTVSPost2010Prop53
 90
        2
102
RTVSPost2010PropOp53
 70
     1
102
RTVSPost2010Prop54
  1
strokes_ogs.tif
102
RTVSPost2010PropOp54
 70
     1
102
RTVSPost2010Prop55
280
     0
102
RTVSPost2010PropOp55
 70
     1
102
RTVSPost2010Prop56
140
1.0
102
RTVSPost2010PropOp56
 70
     1
102
RTVSPost2010Prop57
140
1.0
102
RTVSPost2010PropOp57
 70
     1
102
RTVSPropertyOp0
 70
     1
102
RTVSPropertyOp1
 70
     1
102
RTVSPropertyOp2
 70
     1
102
RTVSPropertyOp3
 70
     1
102
RTVSPropertyOp4
 70
     1
102
RTVSPropertyOp5
 70
     1
102
RTVSPropertyOp6
 70
     1
102
RTVSPropertyOp7
 70
     1
102
RTVSPropertyOp8
 70
     1
102
RTVSPropertyOp9
 70
     1
102
RTVSPropertyOp10
 70
     1
102
RTVSPropertyOp11
 70
     1
102
RTVSPropertyOp12
 70
     1
102
RTVSPropertyOp13
 70
     1
102
RTVSPropertyOp14
 70
     1
102
RTVSPropertyOp15
 70
     1
102
RTVSPropertyOp16
 70
     1
102
RTVSPropertyOp17
 70
     1
102
RTVSPropertyOp18
 70
     1
102
RTVSPropertyOp19
 70
     1
102
RTVSPropertyOp20
 70
     1
102
RTVSPropertyOp21
 70
     1
102
RTVSPropertyOp22
 70
     1
102
RTVSPropertyOp23
 70
     1
102
RTVSPropertyOp24
 70
     1
102
RTVSPropertyOp25
 70
     1
102
RTVSPropertyOp26
 70
     1
102
RTVSPropertyOp27
 70
     1
102
RTVSPropertyOp28
 70
     1
102
RTVSPropertyOp29
 70
     1
102
RTVSPropertyOp30
 70
     1
102
RTVSPropertyOp31
 70
     1
102
RTVSPropertyOp32
 70
     1
102
RTVSPropertyOp33
 70
     1
102
RTVSPropertyOp34
 70
     1
102
RTVSPropertyOp35
 70
     1
102
RTVSPropertyOp36
 70
     1
102
RTVSPropertyOp37
 70
     1
102
RTVSPropertyOp38
 70
     1
102
RTVSPropertyOp39
 70
     1
102
RTVSPropertyOp40
 70
     1
102
RTVSPropertyOp41
 70
     1
102
RTVSPropertyOp42
 70
     1
102
RTVSPropertyOp43
 70
     1
102
RTVSPropertyOp44
 70
     1
102
RTVSPropertyOp45
 70
     1
102
RTVSPropertyOp46
 70
     1
102
RTVSPropertyOp47
 70
     1
102
RTVSPropertyOp48
 70
     1
102
RTVSPropertyOp49
 70
     1
102
RTVSPropertyOp50
 70
     1
102
RTVSPropertyOp51
 70
     0
102
RTVSPropertyOp52
 70
     0
102
RTVSPropertyOp53
 70
     1
102
RTVSPropertyOp54
 70
     1
102
RTVSPropertyOp55
 70
     1
102
RTVSPropertyOp56
 70
     1
102
RTVSPropertyOp57
 70
     1
102
RTVSPropertyOp58
 70
     1
102
RTVSPropertyOp59
 70
     1
102
RTVSPropertyOp60
 70
     1
102
RTVSPropertyOp61
 70
     1
102
RTVSPropertyOp62
 70
     1
  0
XRECORD
  5
1C8CDE6ACA27
102
{ACAD_REACTORS
330
1C8CDE6ACA26
102
}
330
1C8CDE6ACA26
100
AcDbXrecord
280
     1
102
RTVSPost2010Prop28
280
     0
102
RTVSPost2010PropOp28
 70
     1
102
RTVSPost2010Prop29
280
     1
102
RTVSPost2010PropOp29
 70
     1
102
RTVSPost2010Prop30
280
     1
102
RTVSPost2010PropOp30
 70
     1
102
RTVSPost2010Prop31
280
     0
102
RTVSPost2010PropOp31
 70
     1
102
RTVSPost2010Prop32
280
     0
102
RTVSPost2010PropOp32
 70
     1
102
RTVSPost2010Prop33
280
     0
102
RTVSPost2010PropOp33
 70
     1
102
RTVSPost2010Prop34
280
     0
102
RTVSPost2010PropOp34
 70
     1
102
RTVSPost2010Prop35
280
     0
102
RTVSPost2010PropOp35
 70
     1
102
RTVSPost2010Prop36
280
     0
102
RTVSPost2010PropOp36
 70
     1
102
RTVSPost2010Prop37
 90
       50
102
RTVSPost2010PropOp37
 70
     1
102
RTVSPost2010Prop38
140
0.0
102
RTVSPost2010PropOp38
 70
     1
102
RTVSPost2010Prop39
140
1.0
102
RTVSPost2010PropOp39
 70
     1
102
RTVSPost2010Prop40
 90
        0
102
RTVSPost2010PropOp40
 70
     1
102
RTVSPost2010Prop41ColorIndex
 90
       18
102
RTVSPost2010Prop41ColorRGB
 90
        0
102
RTVSPost2010PropOp41
 70
     1
102
RTVSPost2010Prop42
 90
       50
102
RTVSPost2010PropOp42
 70
     1
102
RTVSPost2010Prop43
 90
        3
102
RTVSPost2010PropOp43
 70
     1
102
RTVSPost2010Prop44ColorIndex
 90
        5
102
RTVSPost2010Prop44ColorRGB
 90
      255
102
RTVSPost2010PropOp44
 70
     1
102
RTVSPost2010Prop45
280
     0
102
RTVSPost2010PropOp45
 70
     1
102
RTVSPost2010Prop46
 90
       50
102
RTVSPost2010PropOp46
 70
     1
102
RTVSPost2010Prop47
 90
       50
102
RTVSPost2010PropOp47
 70
     1
102
RTVSPost2010Prop48
 90
       50
102
RTVSPost2010PropOp48
 70
     1
102
RTVSPost2010Prop49
280
     0
102
RTVSPost2010PropOp49
 70
     1
102
RTVSPost2010Prop50
 90
       50
102
RTVSPost2010PropOp50
 70
     1
102
RTVSPost2010Prop51ColorIndex
 90
      256
102
RTVSPost2010Prop51ColorRGB
 90
-16777216
102
RTVSPost2010PropOp51
 70
     0
102
RTVSPost2010Prop52
140
1.0
102
RTVSPost2010PropOp52
 70
     0
102
RTVSPost2010Prop53
 90
        2
102
RTVSPost2010PropOp53
 70
     1
102
RTVSPost2010Prop54
  1
strokes_ogs.tif
102
RTVSPost2010PropOp54
 70
     1
102
RTVSPost2010Prop55
280
     0
102
RTVSPost2010PropOp55
 70
     1
102
RTVSPost2010Prop56
140
1.0
102
RTVSPost2010PropOp56
 70
     1
102
RTVSPost2010Prop57
140
1.0
102
RTVSPost2010PropOp57
 70
     1
102
RTVSPropertyOp0
 70
     1
102
RTVSPropertyOp1
 70
     1
102
RTVSPropertyOp2
 70
     1
102
RTVSPropertyOp3
 70
     1
102
RTVSPropertyOp4
 70
     1
102
RTVSPropertyOp5
 70
     1
102
RTVSPropertyOp6
 70
     1
102
RTVSPropertyOp7
 70
     1
102
RTVSPropertyOp8
 70
     1
102
RTVSPropertyOp9
 70
     1
102
RTVSPropertyOp10
 70
     1
102
RTVSPropertyOp11
 70
     1
102
RTVSPropertyOp12
 70
     1
102
RTVSPropertyOp13
 70
     1
102
RTVSPropertyOp14
 70
     1
102
RTVSPropertyOp15
 70
     1
102
RTVSPropertyOp16
 70
     1
102
RTVSPropertyOp17
 70
     1
102
RTVSPropertyOp18
 70
     1
102
RTVSPropertyOp19
 70
     1
102
RTVSPropertyOp20
 70
     1
102
RTVSPropertyOp21
 70
     1
102
RTVSPropertyOp22
 70
     1
102
RTVSPropertyOp23
 70
     1
102
RTVSPropertyOp24
 70
     1
102
RTVSPropertyOp25
 70
     1
102
RTVSPropertyOp26
 70
     1
102
RTVSPropertyOp27
 70
     1
102
RTVSPropertyOp28
 70
     1
102
RTVSPropertyOp29
 70
     1
102
RTVSPropertyOp30
 70
     1
102
RTVSPropertyOp31
 70
     1
102
RTVSPropertyOp32
 70
     1
102
RTVSPropertyOp33
 70
     1
102
RTVSPropertyOp34
 70
     1
102
RTVSPropertyOp35
 70
     1
102
RTVSPropertyOp36
 70
     1
102
RTVSPropertyOp37
 70
     1
102
RTVSPropertyOp38
 70
     1
102
RTVSPropertyOp39
 70
     1
102
RTVSPropertyOp40
 70
     1
102
RTVSPropertyOp41
 70
     1
102
RTVSPropertyOp42
 70
     1
102
RTVSPropertyOp43
 70
     1
102
RTVSPropertyOp44
 70
     1
102
RTVSPropertyOp45
 70
     1
102
RTVSPropertyOp46
 70
     1
102
RTVSPropertyOp47
 70
     1
102
RTVSPropertyOp48
 70
     1
102
RTVSPropertyOp49
 70
     1
102
RTVSPropertyOp50
 70
     1
102
RTVSPropertyOp51
 70
     0
102
RTVSPropertyOp52
 70
     0
102
RTVSPropertyOp53
 70
     1
102
RTVSPropertyOp54
 70
     1
102
RTVSPropertyOp55
 70
     1
102
RTVSPropertyOp56
 70
     1
102
RTVSPropertyOp57
 70
     1
102
RTVSPropertyOp58
 70
     1
102
RTVSPropertyOp59
 70
     1
102
RTVSPropertyOp60
 70
     1
102
RTVSPropertyOp61
 70
     1
102
RTVSPropertyOp62
 70
     1
  0
XRECORD
  5
1C8CDE6ACA17
102
{ACAD_REACTORS
330
1C8CDE6ACA16
102
}
330
1C8CDE6ACA16
100
AcDbXrecord
280
     1
102
RTVSPost2010Prop28
280
     0
102
RTVSPost2010PropOp28
 70
     1
102
RTVSPost2010Prop29
280
     1
102
RTVSPost2010PropOp29
 70
     1
102
RTVSPost2010Prop30
280
     1
102
RTVSPost2010PropOp30
 70
     1
102
RTVSPost2010Prop31
280
     0
102
RTVSPost2010PropOp31
 70
     1
102
RTVSPost2010Prop32
280
     0
102
RTVSPost2010PropOp32
 70
     1
102
RTVSPost2010Prop33
280
     0
102
RTVSPost2010PropOp33
 70
     1
102
RTVSPost2010Prop34
280
     0
102
RTVSPost2010PropOp34
 70
     1
102
RTVSPost2010Prop35
280
     0
102
RTVSPost2010PropOp35
 70
     1
102
RTVSPost2010Prop36
280
     0
102
RTVSPost2010PropOp36
 70
     1
102
RTVSPost2010Prop37
 90
       50
102
RTVSPost2010PropOp37
 70
     1
102
RTVSPost2010Prop38
140
0.0
102
RTVSPost2010PropOp38
 70
     1
102
RTVSPost2010Prop39
140
1.0
102
RTVSPost2010PropOp39
 70
     1
102
RTVSPost2010Prop40
 90
        0
102
RTVSPost2010PropOp40
 70
     1
102
RTVSPost2010Prop41ColorIndex
 90
       18
102
RTVSPost2010Prop41ColorRGB
 90
        0
102
RTVSPost2010PropOp41
 70
     1
102
RTVSPost2010Prop42
 90
       50
102
RTVSPost2010PropOp42
 70
     1
102
RTVSPost2010Prop43
 90
        3
102
RTVSPost2010PropOp43
 70
     1
102
RTVSPost2010Prop44ColorIndex
 90
        5
102
RTVSPost2010Prop44ColorRGB
 90
      255
102
RTVSPost2010PropOp44
 70
     1
102
RTVSPost2010Prop45
280
     0
102
RTVSPost2010PropOp45
 70
     1
102
RTVSPost2010Prop46
 90
       50
102
RTVSPost2010PropOp46
 70
     1
102
RTVSPost2010Prop47
 90
       50
102
RTVSPost2010PropOp47
 70
     1
102
RTVSPost2010Prop48
 90
       50
102
RTVSPost2010PropOp48
 70
     1
102
RTVSPost2010Prop49
280
     0
102
RTVSPost2010PropOp49
 70
     1
102
RTVSPost2010Prop50
 90
       50
102
RTVSPost2010PropOp50
 70
     1
102
RTVSPost2010Prop51ColorIndex
 90
      256
102
RTVSPost2010Prop51ColorRGB
 90
-16777216
102
RTVSPost2010PropOp51
 70
     0
102
RTVSPost2010Prop52
140
1.0
102
RTVSPost2010PropOp52
 70
     0
102
RTVSPost2010Prop53
 90
        2
102
RTVSPost2010PropOp53
 70
     1
102
RTVSPost2010Prop54
  1
strokes_ogs.tif
102
RTVSPost2010PropOp54
 70
     1
102
RTVSPost2010Prop55
280
     0
102
RTVSPost2010PropOp55
 70
     1
102
RTVSPost2010Prop56
140
1.0
102
RTVSPost2010PropOp56
 70
     1
102
RTVSPost2010Prop57
140
1.0
102
RTVSPost2010PropOp57
 70
     1
102
RTVSPropertyOp0
 70
     1
102
RTVSPropertyOp1
 70
     1
102
RTVSPropertyOp2
 70
     1
102
RTVSPropertyOp3
 70
     1
102
RTVSPropertyOp4
 70
     1
102
RTVSPropertyOp5
 70
     1
102
RTVSPropertyOp6
 70
     1
102
RTVSPropertyOp7
 70
     1
102
RTVSPropertyOp8
 70
     1
102
RTVSPropertyOp9
 70
     1
102
RTVSPropertyOp10
 70
     1
102
RTVSPropertyOp11
 70
     1
102
RTVSPropertyOp12
 70
     1
102
RTVSPropertyOp13
 70
     1
102
RTVSPropertyOp14
 70
     1
102
RTVSPropertyOp15
 70
     1
102
RTVSPropertyOp16
 70
     1
102
RTVSPropertyOp17
 70
     1
102
RTVSPropertyOp18
 70
     1
102
RTVSPropertyOp19
 70
     1
102
RTVSPropertyOp20
 70
     1
102
RTVSPropertyOp21
 70
     1
102
RTVSPropertyOp22
 70
     1
102
RTVSPropertyOp23
 70
     1
102
RTVSPropertyOp24
 70
     1
102
RTVSPropertyOp25
 70
     1
102
RTVSPropertyOp26
 70
     1
102
RTVSPropertyOp27
 70
     1
102
RTVSPropertyOp28
 70
     1
102
RTVSPropertyOp29
 70
     1
102
RTVSPropertyOp30
 70
     1
102
RTVSPropertyOp31
 70
     1
102
RTVSPropertyOp32
 70
     1
102
RTVSPropertyOp33
 70
     1
102
RTVSPropertyOp34
 70
     1
102
RTVSPropertyOp35
 70
     1
102
RTVSPropertyOp36
 70
     1
102
RTVSPropertyOp37
 70
     1
102
RTVSPropertyOp38
 70
     1
102
RTVSPropertyOp39
 70
     1
102
RTVSPropertyOp40
 70
     1
102
RTVSPropertyOp41
 70
     1
102
RTVSPropertyOp42
 70
     1
102
RTVSPropertyOp43
 70
     1
102
RTVSPropertyOp44
 70
     1
102
RTVSPropertyOp45
 70
     1
102
RTVSPropertyOp46
 70
     1
102
RTVSPropertyOp47
 70
     1
102
RTVSPropertyOp48
 70
     1
102
RTVSPropertyOp49
 70
     1
102
RTVSPropertyOp50
 70
     1
102
RTVSPropertyOp51
 70
     0
102
RTVSPropertyOp52
 70
     0
102
RTVSPropertyOp53
 70
     1
102
RTVSPropertyOp54
 70
     1
102
RTVSPropertyOp55
 70
     1
102
RTVSPropertyOp56
 70
     1
102
RTVSPropertyOp57
 70
     1
102
RTVSPropertyOp58
 70
     1
102
RTVSPropertyOp59
 70
     1
102
RTVSPropertyOp60
 70
     1
102
RTVSPropertyOp61
 70
     1
102
RTVSPropertyOp62
 70
     1
  0
XRECORD
  5
1C8CDE6ACA09
102
{ACAD_REACTORS
330
1C8CDE6ACA08
102
}
330
1C8CDE6ACA08
100
AcDbXrecord
280
     1
102
RTVSPost2010Prop28
280
     0
102
RTVSPost2010PropOp28
 70
     1
102
RTVSPost2010Prop29
280
     1
102
RTVSPost2010PropOp29
 70
     1
102
RTVSPost2010Prop30
280
     1
102
RTVSPost2010PropOp30
 70
     1
102
RTVSPost2010Prop31
280
     0
102
RTVSPost2010PropOp31
 70
     1
102
RTVSPost2010Prop32
280
     0
102
RTVSPost2010PropOp32
 70
     1
102
RTVSPost2010Prop33
280
     0
102
RTVSPost2010PropOp33
 70
     1
102
RTVSPost2010Prop34
280
     0
102
RTVSPost2010PropOp34
 70
     1
102
RTVSPost2010Prop35
280
     0
102
RTVSPost2010PropOp35
 70
     1
102
RTVSPost2010Prop36
280
     0
102
RTVSPost2010PropOp36
 70
     1
102
RTVSPost2010Prop37
 90
       50
102
RTVSPost2010PropOp37
 70
     1
102
RTVSPost2010Prop38
140
0.0
102
RTVSPost2010PropOp38
 70
     1
102
RTVSPost2010Prop39
140
1.0
102
RTVSPost2010PropOp39
 70
     1
102
RTVSPost2010Prop40
 90
        0
102
RTVSPost2010PropOp40
 70
     1
102
RTVSPost2010Prop41ColorIndex
 90
       18
102
RTVSPost2010Prop41ColorRGB
 90
        0
102
RTVSPost2010PropOp41
 70
     1
102
RTVSPost2010Prop42
 90
       50
102
RTVSPost2010PropOp42
 70
     1
102
RTVSPost2010Prop43
 90
        3
102
RTVSPost2010PropOp43
 70
     1
102
RTVSPost2010Prop44ColorIndex
 90
        5
102
RTVSPost2010Prop44ColorRGB
 90
      255
102
RTVSPost2010PropOp44
 70
     1
102
RTVSPost2010Prop45
280
     0
102
RTVSPost2010PropOp45
 70
     1
102
RTVSPost2010Prop46
 90
       50
102
RTVSPost2010PropOp46
 70
     1
102
RTVSPost2010Prop47
 90
       50
102
RTVSPost2010PropOp47
 70
     1
102
RTVSPost2010Prop48
 90
       50
102
RTVSPost2010PropOp48
 70
     1
102
RTVSPost2010Prop49
280
     0
102
RTVSPost2010PropOp49
 70
     1
102
RTVSPost2010Prop50
 90
       50
102
RTVSPost2010PropOp50
 70
     1
102
RTVSPost2010Prop51ColorIndex
 90
      256
102
RTVSPost2010Prop51ColorRGB
 90
-16777216
102
RTVSPost2010PropOp51
 70
     0
102
RTVSPost2010Prop52
140
1.0
102
RTVSPost2010PropOp52
 70
     0
102
RTVSPost2010Prop53
 90
        2
102
RTVSPost2010PropOp53
 70
     1
102
RTVSPost2010Prop54
  1
strokes_ogs.tif
102
RTVSPost2010PropOp54
 70
     1
102
RTVSPost2010Prop55
280
     0
102
RTVSPost2010PropOp55
 70
     1
102
RTVSPost2010Prop56
140
1.0
102
RTVSPost2010PropOp56
 70
     1
102
RTVSPost2010Prop57
140
1.0
102
RTVSPost2010PropOp57
 70
     1
102
RTVSPropertyOp0
 70
     1
102
RTVSPropertyOp1
 70
     1
102
RTVSPropertyOp2
 70
     1
102
RTVSPropertyOp3
 70
     1
102
RTVSPropertyOp4
 70
     1
102
RTVSPropertyOp5
 70
     1
102
RTVSPropertyOp6
 70
     1
102
RTVSPropertyOp7
 70
     1
102
RTVSPropertyOp8
 70
     1
102
RTVSPropertyOp9
 70
     1
102
RTVSPropertyOp10
 70
     1
102
RTVSPropertyOp11
 70
     1
102
RTVSPropertyOp12
 70
     1
102
RTVSPropertyOp13
 70
     1
102
RTVSPropertyOp14
 70
     1
102
RTVSPropertyOp15
 70
     1
102
RTVSPropertyOp16
 70
     1
102
RTVSPropertyOp17
 70
     1
102
RTVSPropertyOp18
 70
     1
102
RTVSPropertyOp19
 70
     1
102
RTVSPropertyOp20
 70
     1
102
RTVSPropertyOp21
 70
     1
102
RTVSPropertyOp22
 70
     1
102
RTVSPropertyOp23
 70
     1
102
RTVSPropertyOp24
 70
     1
102
RTVSPropertyOp25
 70
     1
102
RTVSPropertyOp26
 70
     1
102
RTVSPropertyOp27
 70
     1
102
RTVSPropertyOp28
 70
     1
102
RTVSPropertyOp29
 70
     1
102
RTVSPropertyOp30
 70
     1
102
RTVSPropertyOp31
 70
     1
102
RTVSPropertyOp32
 70
     1
102
RTVSPropertyOp33
 70
     1
102
RTVSPropertyOp34
 70
     1
102
RTVSPropertyOp35
 70
     1
102
RTVSPropertyOp36
 70
     1
102
RTVSPropertyOp37
 70
     1
102
RTVSPropertyOp38
 70
     1
102
RTVSPropertyOp39
 70
     1
102
RTVSPropertyOp40
 70
     1
102
RTVSPropertyOp41
 70
     1
102
RTVSPropertyOp42
 70
     1
102
RTVSPropertyOp43
 70
     1
102
RTVSPropertyOp44
 70
     1
102
RTVSPropertyOp45
 70
     1
102
RTVSPropertyOp46
 70
     1
102
RTVSPropertyOp47
 70
     1
102
RTVSPropertyOp48
 70
     1
102
RTVSPropertyOp49
 70
     1
102
RTVSPropertyOp50
 70
     1
102
RTVSPropertyOp51
 70
     0
102
RTVSPropertyOp52
 70
     0
102
RTVSPropertyOp53
 70
     1
102
RTVSPropertyOp54
 70
     1
102
RTVSPropertyOp55
 70
     1
102
RTVSPropertyOp56
 70
     1
102
RTVSPropertyOp57
 70
     1
102
RTVSPropertyOp58
 70
     1
102
RTVSPropertyOp59
 70
     1
102
RTVSPropertyOp60
 70
     1
102
RTVSPropertyOp61
 70
     1
102
RTVSPropertyOp62
 70
     1
  0
XRECORD
  5
1C8CDE6ACA29
102
{ACAD_REACTORS
330
1C8CDE6ACA28
102
}
330
1C8CDE6ACA28
100
AcDbXrecord
280
     1
102
RTVSPost2010Prop28
280
     0
102
RTVSPost2010PropOp28
 70
     1
102
RTVSPost2010Prop29
280
     1
102
RTVSPost2010PropOp29
 70
     1
102
RTVSPost2010Prop30
280
     1
102
RTVSPost2010PropOp30
 70
     1
102
RTVSPost2010Prop31
280
     0
102
RTVSPost2010PropOp31
 70
     1
102
RTVSPost2010Prop32
280
     0
102
RTVSPost2010PropOp32
 70
     1
102
RTVSPost2010Prop33
280
     0
102
RTVSPost2010PropOp33
 70
     1
102
RTVSPost2010Prop34
280
     0
102
RTVSPost2010PropOp34
 70
     1
102
RTVSPost2010Prop35
280
     0
102
RTVSPost2010PropOp35
 70
     1
102
RTVSPost2010Prop36
280
     0
102
RTVSPost2010PropOp36
 70
     1
102
RTVSPost2010Prop37
 90
       50
102
RTVSPost2010PropOp37
 70
     1
102
RTVSPost2010Prop38
140
0.0
102
RTVSPost2010PropOp38
 70
     1
102
RTVSPost2010Prop39
140
1.0
102
RTVSPost2010PropOp39
 70
     1
102
RTVSPost2010Prop40
 90
        0
102
RTVSPost2010PropOp40
 70
     1
102
RTVSPost2010Prop41ColorIndex
 90
       18
102
RTVSPost2010Prop41ColorRGB
 90
        0
102
RTVSPost2010PropOp41
 70
     1
102
RTVSPost2010Prop42
 90
       50
102
RTVSPost2010PropOp42
 70
     1
102
RTVSPost2010Prop43
 90
        3
102
RTVSPost2010PropOp43
 70
     1
102
RTVSPost2010Prop44ColorIndex
 90
        5
102
RTVSPost2010Prop44ColorRGB
 90
      255
102
RTVSPost2010PropOp44
 70
     1
102
RTVSPost2010Prop45
280
     0
102
RTVSPost2010PropOp45
 70
     1
102
RTVSPost2010Prop46
 90
       50
102
RTVSPost2010PropOp46
 70
     1
102
RTVSPost2010Prop47
 90
       50
102
RTVSPost2010PropOp47
 70
     1
102
RTVSPost2010Prop48
 90
       50
102
RTVSPost2010PropOp48
 70
     1
102
RTVSPost2010Prop49
280
     0
102
RTVSPost2010PropOp49
 70
     1
102
RTVSPost2010Prop50
 90
       50
102
RTVSPost2010PropOp50
 70
     1
102
RTVSPost2010Prop51ColorIndex
 90
      256
102
RTVSPost2010Prop51ColorRGB
 90
-16777216
102
RTVSPost2010PropOp51
 70
     0
102
RTVSPost2010Prop52
140
1.0
102
RTVSPost2010PropOp52
 70
     0
102
RTVSPost2010Prop53
 90
        2
102
RTVSPost2010PropOp53
 70
     1
102
RTVSPost2010Prop54
  1
strokes_ogs.tif
102
RTVSPost2010PropOp54
 70
     1
102
RTVSPost2010Prop55
280
     0
102
RTVSPost2010PropOp55
 70
     1
102
RTVSPost2010Prop56
140
1.0
102
RTVSPost2010PropOp56
 70
     1
102
RTVSPost2010Prop57
140
1.0
102
RTVSPost2010PropOp57
 70
     1
102
RTVSPropertyOp0
 70
     1
102
RTVSPropertyOp1
 70
     1
102
RTVSPropertyOp2
 70
     1
102
RTVSPropertyOp3
 70
     1
102
RTVSPropertyOp4
 70
     1
102
RTVSPropertyOp5
 70
     1
102
RTVSPropertyOp6
 70
     1
102
RTVSPropertyOp7
 70
     1
102
RTVSPropertyOp8
 70
     1
102
RTVSPropertyOp9
 70
     1
102
RTVSPropertyOp10
 70
     1
102
RTVSPropertyOp11
 70
     1
102
RTVSPropertyOp12
 70
     1
102
RTVSPropertyOp13
 70
     1
102
RTVSPropertyOp14
 70
     1
102
RTVSPropertyOp15
 70
     1
102
RTVSPropertyOp16
 70
     1
102
RTVSPropertyOp17
 70
     1
102
RTVSPropertyOp18
 70
     1
102
RTVSPropertyOp19
 70
     1
102
RTVSPropertyOp20
 70
     1
102
RTVSPropertyOp21
 70
     1
102
RTVSPropertyOp22
 70
     1
102
RTVSPropertyOp23
 70
     1
102
RTVSPropertyOp24
 70
     1
102
RTVSPropertyOp25
 70
     1
102
RTVSPropertyOp26
 70
     1
102
RTVSPropertyOp27
 70
     1
102
RTVSPropertyOp28
 70
     1
102
RTVSPropertyOp29
 70
     1
102
RTVSPropertyOp30
 70
     1
102
RTVSPropertyOp31
 70
     1
102
RTVSPropertyOp32
 70
     1
102
RTVSPropertyOp33
 70
     1
102
RTVSPropertyOp34
 70
     1
102
RTVSPropertyOp35
 70
     1
102
RTVSPropertyOp36
 70
     1
102
RTVSPropertyOp37
 70
     1
102
RTVSPropertyOp38
 70
     1
102
RTVSPropertyOp39
 70
     1
102
RTVSPropertyOp40
 70
     1
102
RTVSPropertyOp41
 70
     1
102
RTVSPropertyOp42
 70
     1
102
RTVSPropertyOp43
 70
     1
102
RTVSPropertyOp44
 70
     1
102
RTVSPropertyOp45
 70
     1
102
RTVSPropertyOp46
 70
     1
102
RTVSPropertyOp47
 70
     1
102
RTVSPropertyOp48
 70
     1
102
RTVSPropertyOp49
 70
     1
102
RTVSPropertyOp50
 70
     1
102
RTVSPropertyOp51
 70
     0
102
RTVSPropertyOp52
 70
     0
102
RTVSPropertyOp53
 70
     1
102
RTVSPropertyOp54
 70
     1
102
RTVSPropertyOp55
 70
     1
102
RTVSPropertyOp56
 70
     1
102
RTVSPropertyOp57
 70
     1
102
RTVSPropertyOp58
 70
     1
102
RTVSPropertyOp59
 70
     1
102
RTVSPropertyOp60
 70
     1
102
RTVSPropertyOp61
 70
     1
102
RTVSPropertyOp62
 70
     1
  0
ENDSEC
  0
EOF
