  0
SECTION
  2
HEADER
  9
$ACADVER
  1
AC1015
  9
$ACADMAINTVER
 70
    18
  9
$DWGCODEPAGE
  3
ANSI_932
  9
$INSBASE
 10
0.0
 20
0.0
 30
0.0
  9
$EXTMIN
 10
0.0
 20
0.0
 30
0.0
  9
$EXTMAX
 10
3700.0
 20
2670.0
 30
0.0
  9
$LIMMIN
 10
0.0
 20
0.0
  9
$LIMMAX
 10
4200.0
 20
2970.0
  9
$ORTHOMODE
 70
     0
  9
$REGENMODE
 70
     1
  9
$FILLMODE
 70
     1
  9
$QTEXTMODE
 70
     0
  9
$MIRRTEXT
 70
     0
  9
$LTSCALE
 40
100.0
  9
$ATTMODE
 70
     1
  9
$TEXTSIZE
 40
30.0
  9
$TRACEWID
 40
0.05
  9
$TEXTSTYLE
  7
EXT08
  9
$CLAYER
  8
0
  9
$CELTYPE
  6
BYLAYER
  9
$CECOLOR
 62
   256
  9
$CELTSCALE
 40
1.0
  9
$DISPSILH
 70
     0
  9
$DIMSCALE
 40
10.0
  9
$DIMASZ
 40
2.0
  9
$DIMEXO
 40
1.0
  9
$DIMDLI
 40
6.0
  9
$DIMRND
 40
0.0
  9
$DIMDLE
 40
0.0
  9
$DIMEXE
 40
1.0
  9
$DIMTP
 40
0.0
  9
$DIMTM
 40
0.0
  9
$DIMTXT
 40
3.0
  9
$DIMCEN
 40
0.1
  9
$DIMTSZ
 40
0.0
  9
$DIMTOL
 70
     0
  9
$DIMLIM
 70
     0
  9
$DIMTIH
 70
     0
  9
$DIMTOH
 70
     0
  9
$DIMSE1
 70
     0
  9
$DIMSE2
 70
     0
  9
$DIMTAD
 70
     1
  9
$DIMZIN
 70
     8
  9
$DIMBLK
  1

  9
$DIMASO
 70
     1
  9
$DIMSHO
 70
     1
  9
$DIMPOST
  1

  9
$DIMAPOST
  1

  9
$DIMALT
 70
     0
  9
$DIMALTD
 70
     2
  9
$DIMALTF
 40
25.4
  9
$DIMLFAC
 40
1.0
  9
$DIMTOFL
 70
     1
  9
$DIMTVP
 40
0.0
  9
$DIMTIX
 70
     0
  9
$DIMSOXD
 70
     0
  9
$DIMSAH
 70
     0
  9
$DIMBLK1
  1

  9
$DIMBLK2
  1

  9
$DIMSTYLE
  2
SJC
  9
$DIMCLRD
 70
     0
  9
$DIMCLRE
 70
     0
  9
$DIMCLRT
 70
     0
  9
$DIMTFAC
 40
1.0
  9
$DIMGAP
 40
1.199999999999999
  9
$DIMJUST
 70
     0
  9
$DIMSD1
 70
     0
  9
$DIMSD2
 70
     0
  9
$DIMTOLJ
 70
     1
  9
$DIMTZIN
 70
     8
  9
$DIMALTZ
 70
     8
  9
$DIMALTTZ
 70
     8
  9
$DIMUPT
 70
     0
  9
$DIMDEC
 70
     2
  9
$DIMTDEC
 70
     1
  9
$DIMALTU
 70
     2
  9
$DIMALTTD
 70
     2
  9
$DIMTXSTY
  7
EXT08
  9
$DIMAUNIT
 70
     1
  9
$DIMADEC
 70
     2
  9
$DIMALTRND
 40
0.0
  9
$DIMAZIN
 70
     0
  9
$DIMDSEP
 70
    46
  9
$DIMATFIT
 70
     3
  9
$DIMFRAC
 70
     0
  9
$DIMLDRBLK
  1

  9
$DIMLUNIT
 70
     2
  9
$DIMLWD
 70
    -2
  9
$DIMLWE
 70
    -2
  9
$DIMTMOVE
 70
     2
  9
$LUNITS
 70
     2
  9
$LUPREC
 70
     2
  9
$SKETCHINC
 40
0.1
  9
$FILLETRAD
 40
2.0
  9
$AUNITS
 70
     1
  9
$AUPREC
 70
     2
  9
$MENU
  1
C:\r13\win\SUPPORT\sjc
  9
$ELEVATION
 40
0.0
  9
$PELEVATION
 40
0.0
  9
$THICKNESS
 40
0.0
  9
$LIMCHECK
 70
     0
  9
$CHAMFERA
 40
0.0
  9
$CHAMFERB
 40
0.0
  9
$CHAMFERC
 40
0.0
  9
$CHAMFERD
 40
0.0
  9
$SKPOLY
 70
     0
  9
$TDCREATE
 40
2450469.922535764
  9
$TDUCREATE
 40
2450469.547535764
  9
$TDUPDATE
 40
2458985.565758253
  9
$TDUUPDATE
 40
2458985.190758253
  9
$TDINDWG
 40
0.7265775926
  9
$TDUSRTIMER
 40
0.7265775926
  9
$USRTIMER
 70
     1
  9
$ANGBASE
 50
0.0
  9
$ANGDIR
 70
     0
  9
$PDMODE
 70
    33
  9
$PDSIZE
 40
5.0
  9
$PLINEWID
 40
0.0
  9
$SPLFRAME
 70
     0
  9
$SPLINETYPE
 70
     6
  9
$SPLINESEGS
 70
     8
  9
$HANDSEED
  5
1C8CDE6ACF0F
  9
$SURFTAB1
 70
     6
  9
$SURFTAB2
 70
     6
  9
$SURFTYPE
 70
     6
  9
$SURFU
 70
     6
  9
$SURFV
 70
     6
  9
$UCSBASE
  2

  9
$UCSNAME
  2

  9
$UCSORG
 10
0.0
 20
0.0
 30
0.0
  9
$UCSXDIR
 10
1.0
 20
0.0
 30
0.0
  9
$UCSYDIR
 10
0.0
 20
1.0
 30
0.0
  9
$UCSORTHOREF
  2

  9
$UCSORTHOVIEW
 70
     0
  9
$UCSORGTOP
 10
0.0
 20
0.0
 30
0.0
  9
$UCSORGBOTTOM
 10
0.0
 20
0.0
 30
0.0
  9
$UCSORGLEFT
 10
0.0
 20
0.0
 30
0.0
  9
$UCSORGRIGHT
 10
0.0
 20
0.0
 30
0.0
  9
$UCSORGFRONT
 10
0.0
 20
0.0
 30
0.0
  9
$UCSORGBACK
 10
0.0
 20
0.0
 30
0.0
  9
$PUCSBASE
  2

  9
$PUCSNAME
  2

  9
$PUCSORG
 10
0.0
 20
0.0
 30
0.0
  9
$PUCSXDIR
 10
1.0
 20
0.0
 30
0.0
  9
$PUCSYDIR
 10
0.0
 20
1.0
 30
0.0
  9
$PUCSORTHOREF
  2

  9
$PUCSORTHOVIEW
 70
     0
  9
$PUCSORGTOP
 10
0.0
 20
0.0
 30
0.0
  9
$PUCSORGBOTTOM
 10
0.0
 20
0.0
 30
0.0
  9
$PUCSORGLEFT
 10
0.0
 20
0.0
 30
0.0
  9
$PUCSORGRIGHT
 10
0.0
 20
0.0
 30
0.0
  9
$PUCSORGFRONT
 10
0.0
 20
0.0
 30
0.0
  9
$PUCSORGBACK
 10
0.0
 20
0.0
 30
0.0
  9
$USERI1
 70
     3
  9
$USERI2
 70
    10
  9
$USERI3
 70
     0
  9
$USERI4
 70
     0
  9
$USERI5
 70
     0
  9
$USERR1
 40
0.1
  9
$USERR2
 40
0.0
  9
$USERR3
 40
0.0
  9
$USERR4
 40
0.0
  9
$USERR5
 40
0.0
  9
$WORLDVIEW
 70
     1
  9
$SHADEDGE
 70
     3
  9
$SHADEDIF
 70
    70
  9
$TILEMODE
 70
     1
  9
$MAXACTVP
 70
    16
  9
$PINSBASE
 10
0.0
 20
0.0
 30
0.0
  9
$PLIMCHECK
 70
     0
  9
$PEXTMIN
 10
1.000000000000000E+20
 20
1.000000000000000E+20
 30
1.000000000000000E+20
  9
$PEXTMAX
 10
-1.000000000000000E+20
 20
-1.000000000000000E+20
 30
-1.000000000000000E+20
  9
$PLIMMIN
 10
0.0
 20
0.0
  9
$PLIMMAX
 10
12.0
 20
9.0
  9
$UNITMODE
 70
     0
  9
$VISRETAIN
 70
     0
  9
$PLINEGEN
 70
     0
  9
$PSLTSCALE
 70
     0
  9
$TREEDEPTH
 70
  3020
  9
$CMLSTYLE
  2
STANDARD
  9
$CMLJUST
 70
     0
  9
$CMLSCALE
 40
1.0
  9
$PROXYGRAPHICS
 70
     0
  9
$MEASUREMENT
 70
     0
  9
$CELWEIGHT
370
    -1
  9
$ENDCAPS
280
     0
  9
$JOINSTYLE
280
     0
  9
$LWDISPLAY
290
     0
  9
$INSUNITS
 70
     0
  9
$HYPERLINKBASE
  1

  9
$STYLESHEET
  1
CALCOMP_TECHJET720.ctb
  9
$XEDIT
290
     1
  9
$CEPSNTYPE
380
     0
  9
$PSTYLEMODE
290
     1
  9
$FINGERPRINTGUID
  2
{959D29FF-997C-4C4F-B48A-66BC8D2EFE6A}
  9
$VERSIONGUID
  2
{FAEB1C32-E019-11D5-929B-00C0DF256EC4}
  9
$EXTNAMES
290
     1
  9
$PSVPSCALE
 40
0.0
  9
$OLESTARTUP
290
     0
  0
ENDSEC
  0
SECTION
  2
CLASSES
  0
CLASS
  1
VISUALSTYLE
  2
AcDbVisualStyle
  3
ObjectDBX Classes
 90
     4095
280
     0
281
     0
  0
CLASS
  1
ACDBDICTIONARYWDFLT
  2
AcDbDictionaryWithDefault
  3
ObjectDBX Classes
 90
        0
280
     0
281
     0
  0
CLASS
  1
SCALE
  2
AcDbScale
  3
ObjectDBX Classes
 90
     1153
280
     0
281
     0
  0
CLASS
  1
MATERIAL
  2
AcDbMaterial
  3
ObjectDBX Classes
 90
     1153
280
     0
281
     0
  0
CLASS
  1
TABLESTYLE
  2
AcDbTableStyle
  3
ObjectDBX Classes
 90
     4095
280
     0
281
     0
  0
CLASS
  1
MLEADERSTYLE
  2
AcDbMLeaderStyle
  3
ACDB_MLEADERSTYLE_CLASS
 90
     4095
280
     0
281
     0
  0
CLASS
  1
SUN
  2
AcDbSun
  3
SCENEOE
 90
     1153
280
     0
281
     0
  0
CLASS
  1
DICTIONARYVAR
  2
AcDbDictionaryVar
  3
ObjectDBX Classes
 90
        0
280
     0
281
     0
  0
CLASS
  1
CELLSTYLEMAP
  2
AcDbCellStyleMap
  3
ObjectDBX Classes
 90
     1152
280
     0
281
     0
  0
CLASS
  1
ACDBPLACEHOLDER
  2
AcDbPlaceHolder
  3
ObjectDBX Classes
 90
        0
280
     0
281
     0
  0
CLASS
  1
LAYOUT
  2
AcDbLayout
  3
ObjectDBX Classes
 90
        0
280
     0
281
     0
  0
CLASS
  1
ACDBSECTIONVIEWSTYLE
  2
AcDbSectionViewStyle
  3
ObjectDBX Classes
 90
     1025
280
     0
281
     0
  0
CLASS
  1
ACDBDETAILVIEWSTYLE
  2
AcDbDetailViewStyle
  3
ObjectDBX Classes
 90
     1025
280
     0
281
     0
  0
ENDSEC
  0
SECTION
  2
TABLES
  0
TABLE
  2
VPORT
  5
1C8CDE699D43
102
{ACAD_XDICTIONARY
360
1C8CDE6ACE76
102
}
330
0
100
AcDbSymbolTable
 70
     1
  0
VPORT
  5
1C8CDE6ACCC4
330
1C8CDE699D43
100
AcDbSymbolTableRecord
100
AcDbViewportTableRecord
  2
*ACTIVE
 70
     0
 10
0.0
 20
0.0
 11
1.0
 21
1.0
 12
2207.107771533557
 22
1333.53
 13
0.0
 23
0.0
 14
5.0
 24
5.0
 15
0.0
 25
0.0
 16
0.0
 26
0.0
 36
1.0
 17
0.0
 27
0.0
 37
0.0
 40
3029.4
 41
2.075975359342915
 42
50.0
 43
0.0
 44
0.0
 50
0.0
 51
0.0
 71
    16
 72
   500
 73
     1
 74
     0
 75
     0
 76
     0
 77
     0
 78
     2
281
     0
 65
     1
110
0.0
120
0.0
130
0.0
111
1.0
121
0.0
131
0.0
112
0.0
122
1.0
132
0.0
 79
     0
146
0.0
1001
ACAD_NAV_VCDISPLAY
1070
     3
  0
ENDTAB
  0
TABLE
  2
LTYPE
  5
1C8CDE699D40
330
0
100
AcDbSymbolTable
 70
     5
  0
LTYPE
  5
1C8CDE699D4D
330
1C8CDE699D40
100
AcDbSymbolTableRecord
100
AcDbLinetypeTableRecord
  2
BYBLOCK
 70
     0
  3

 72
    65
 73
     0
 40
0.0
  0
LTYPE
  5
1C8CDE699D4E
330
1C8CDE699D40
100
AcDbSymbolTableRecord
100
AcDbLinetypeTableRecord
  2
BYLAYER
 70
     0
  3

 72
    65
 73
     0
 40
0.0
  0
LTYPE
  5
1C8CDE699D4F
330
1C8CDE699D40
100
AcDbSymbolTableRecord
100
AcDbLinetypeTableRecord
  2
CONTINUOUS
 70
     0
  3
実線
 72
    65
 73
     0
 40
0.0
  0
LTYPE
  5
1C8CDE699D67
330
1C8CDE699D40
100
AcDbSymbolTableRecord
100
AcDbLinetypeTableRecord
  2
DIVIDE2
 70
     0
  3
__..__..__..__..__..__..__..__..__..__..__..__.
 72
    65
 73
     6
 40
0.625
 49
0.25
 74
     0
 49
-0.125
 74
     0
 49
0.0
 74
     0
 49
-0.125
 74
     0
 49
0.0
 74
     0
 49
-0.125
 74
     0
  0
LTYPE
  5
1C8CDE699D6A
330
1C8CDE699D40
100
AcDbSymbolTableRecord
100
AcDbLinetypeTableRecord
  2
CENTER
 70
     0
  3
____ _ ____ _ ____ _ ____ _ ____ _ ____ _ ____ 
 72
    65
 73
     4
 40
2.0
 49
1.25
 74
     0
 49
-0.25
 74
     0
 49
0.25
 74
     0
 49
-0.25
 74
     0
  0
LTYPE
  5
1C8CDE699D6B
330
1C8CDE699D40
100
AcDbSymbolTableRecord
100
AcDbLinetypeTableRecord
  2
HIDDEN
 70
     0
  3
__ __ __ __ __ __ __ __ __ __ __ __ __ __ __ __
 72
    65
 73
     2
 40
0.375
 49
0.25
 74
     0
 49
-0.125
 74
     0
  0
LTYPE
  5
1C8CDE699D6C
330
1C8CDE699D40
100
AcDbSymbolTableRecord
100
AcDbLinetypeTableRecord
  2
PHANTOM
 70
     0
  3
______  __  __  ______  __  __  ______  __  __ 
 72
    65
 73
     6
 40
2.5
 49
1.25
 74
     0
 49
-0.25
 74
     0
 49
0.25
 74
     0
 49
-0.25
 74
     0
 49
0.25
 74
     0
 49
-0.25
 74
     0
  0
ENDTAB
  0
TABLE
  2
LAYER
  5
1C8CDE699D3D
330
0
100
AcDbSymbolTable
 70
    15
  0
LAYER
  5
1C8CDE699D4A
330
1C8CDE699D3D
100
AcDbSymbolTableRecord
100
AcDbLayerTableRecord
  2
0
 70
     0
 62
    41
  6
DIVIDE2
370
    -3
390
1C8CDE6ACCEA
  0
LAYER
  5
1C8CDE699D71
330
1C8CDE699D3D
100
AcDbSymbolTableRecord
100
AcDbLayerTableRecord
  2
CENTER
 70
     0
 62
     3
  6
CENTER
370
    -3
390
1C8CDE6ACCEA
  0
LAYER
  5
1C8CDE699D72
330
1C8CDE699D3D
100
AcDbSymbolTableRecord
100
AcDbLayerTableRecord
  2
SUNPOU
 70
     0
 62
     4
  6
CONTINUOUS
370
    -3
390
1C8CDE6ACCEA
  0
LAYER
  5
1C8CDE699D73
330
1C8CDE699D3D
100
AcDbSymbolTableRecord
100
AcDbLayerTableRecord
  2
WAKU
 70
     0
 62
     5
  6
CONTINUOUS
370
    -3
390
1C8CDE6ACCEA
  0
LAYER
  5
1C8CDE699D74
330
1C8CDE699D3D
100
AcDbSymbolTableRecord
100
AcDbLayerTableRecord
  2
MOJI
 70
     0
 62
     6
  6
CONTINUOUS
370
    -3
390
1C8CDE6ACCEA
  0
LAYER
  5
1C8CDE699D75
330
1C8CDE699D3D
100
AcDbSymbolTableRecord
100
AcDbLayerTableRecord
  2
HASEN
 70
     0
 62
     7
  6
HIDDEN
370
    -3
390
1C8CDE6ACCEA
  0
LAYER
  5
1C8CDE699D77
330
1C8CDE699D3D
100
AcDbSymbolTableRecord
100
AcDbLayerTableRecord
  2
SJC
 70
     0
 62
     1
  6
CONTINUOUS
370
    -3
390
1C8CDE6ACCEA
  0
LAYER
  5
1C8CDE699D78
330
1C8CDE699D3D
100
AcDbSymbolTableRecord
100
AcDbLayerTableRecord
  2
KASOU
 70
     0
 62
     2
  6
PHANTOM
370
    -3
390
1C8CDE6ACCEA
  0
LAYER
  5
1C8CDE699D79
330
1C8CDE699D3D
100
AcDbSymbolTableRecord
100
AcDbLayerTableRecord
  2
ZWAKU
 70
     1
 62
     7
  6
CONTINUOUS
370
    -3
390
1C8CDE6ACCEA
  0
LAYER
  5
1C8CDE699D7A
330
1C8CDE699D3D
100
AcDbSymbolTableRecord
100
AcDbLayerTableRecord
  2
HOJO
 70
     0
 62
    -8
  6
CONTINUOUS
370
    -3
390
1C8CDE6ACCEA
  0
LAYER
  5
1C8CDE699D7B
330
1C8CDE699D3D
100
AcDbSymbolTableRecord
100
AcDbLayerTableRecord
  2
DEFPOINTS
 70
     0
 62
     7
  6
CONTINUOUS
290
     0
370
    -3
390
1C8CDE6ACCEA
  0
LAYER
  5
1C8CDE699D8F
330
1C8CDE699D3D
100
AcDbSymbolTableRecord
100
AcDbLayerTableRecord
  2
INFORMATION
 70
     1
 62
     7
  6
CONTINUOUS
370
    -3
390
1C8CDE6ACCEA
  0
LAYER
  5
1C8CDE699D92
330
1C8CDE699D3D
100
AcDbSymbolTableRecord
100
AcDbLayerTableRecord
  2
SJC2
 70
     0
 62
     7
  6
CONTINUOUS
370
    -3
390
1C8CDE6ACCEA
  0
LAYER
  5
1C8CDE699D93
330
1C8CDE699D3D
100
AcDbSymbolTableRecord
100
AcDbLayerTableRecord
  2
MOJI2
 70
     0
 62
     1
  6
CONTINUOUS
370
    -3
390
1C8CDE6ACCEA
  0
LAYER
  5
1C8CDE699D94
330
1C8CDE699D3D
100
AcDbSymbolTableRecord
100
AcDbLayerTableRecord
  2
HATCH
 70
     0
 62
     2
  6
CONTINUOUS
370
    -3
390
1C8CDE6ACCEA
  0
ENDTAB
  0
TABLE
  2
STYLE
  5
1C8CDE699D3E
330
0
100
AcDbSymbolTable
 70
     4
  0
STYLE
  5
1C8CDE699D4B
330
1C8CDE699D3E
100
AcDbSymbolTableRecord
100
AcDbTextStyleTableRecord
  2
STANDARD
 70
     0
 40
2.5
 41
0.8
 50
0.0
 71
     0
 42
3.0
  3
ROMANS.SHX
  4
BIGFONT
  0
STYLE
  5
1C8CDE699D66
330
1C8CDE699D3E
100
AcDbSymbolTableRecord
100
AcDbTextStyleTableRecord
  2
KANJI
 70
     0
 40
0.0
 41
1.0
 50
0.0
 71
     0
 42
0.0
  3
ROMANS.SHX
  4
BIGFONT.SHX
  0
STYLE
  5
1C8CDE699DA6
330
1C8CDE699D3E
100
AcDbSymbolTableRecord
100
AcDbTextStyleTableRecord
  2
EXT08
 70
     0
 40
0.0
 41
0.8
 50
0.0
 71
     0
 42
30.0
  3
ROMANS
  4
EXTFONT
  0
STYLE
  5
1C8CDE699DA8
330
1C8CDE699D3E
100
AcDbSymbolTableRecord
100
AcDbTextStyleTableRecord
  2
KANJI08
 70
     0
 40
0.0
 41
0.8
 50
0.0
 71
     0
 42
0.0
  3
ROMANS
  4
BIGFONT
  0
ENDTAB
  0
TABLE
  2
VIEW
  5
1C8CDE699D41
330
0
100
AcDbSymbolTable
 70
     0
  0
ENDTAB
  0
TABLE
  2
UCS
  5
1C8CDE699D42
330
0
100
AcDbSymbolTable
 70
     0
  0
ENDTAB
  0
TABLE
  2
APPID
  5
1C8CDE699D44
330
0
100
AcDbSymbolTable
 70
     5
  0
APPID
  5
1C8CDE699D4C
330
1C8CDE699D44
100
AcDbSymbolTableRecord
100
AcDbRegAppTableRecord
  2
ACAD
 70
     0
  0
APPID
  5
1C8CDE6ACDCE
330
1C8CDE699D44
100
AcDbSymbolTableRecord
100
AcDbRegAppTableRecord
  2
ACAD_MLEADERVER
 70
     0
  0
APPID
  5
1C8CDE6ACDD9
330
1C8CDE699D44
100
AcDbSymbolTableRecord
100
AcDbRegAppTableRecord
  2
AcadAnnotative
 70
     0
  0
APPID
  5
1C8CDE6ACEC4
330
1C8CDE699D44
100
AcDbSymbolTableRecord
100
AcDbRegAppTableRecord
  2
ACAD_PSEXT
 70
     0
  0
APPID
  5
1C8CDE6ACECA
330
1C8CDE699D44
100
AcDbSymbolTableRecord
100
AcDbRegAppTableRecord
  2
ACAD_NAV_VCDISPLAY
 70
     0
  0
ENDTAB
  0
TABLE
  2
DIMSTYLE
  5
1C8CDE699D45
330
0
100
AcDbSymbolTable
 70
     2
100
AcDbDimStyleTable
 71
     0
  0
DIMSTYLE
105
1C8CDE699D6E
330
1C8CDE699D45
100
AcDbSymbolTableRecord
100
AcDbDimStyleTableRecord
  2
STANDARD
 70
     0
 41
20.0
 42
10.0
 43
0.4
 44
10.0
 73
     0
 74
     0
 77
     1
 78
     8
140
25.0
141
0.1
147
15.0
172
     1
176
   256
177
   256
178
   256
271
     1
272
     1
275
     1
279
     2
284
     8
285
     8
286
     8
340
1C8CDE699D66
  0
DIMSTYLE
105
1C8CDE699DA9
330
1C8CDE699D45
100
AcDbSymbolTableRecord
100
AcDbDimStyleTableRecord
  2
SJC
 70
     0
 41
20.0
 42
10.0
 43
0.4
 44
10.0
 73
     0
 74
     0
 77
     1
 78
     8
140
25.0
141
0.1
147
15.0
172
     1
176
   256
177
   256
178
   256
271
     1
272
     1
275
     1
279
     2
284
     8
285
     8
286
     8
340
1C8CDE699D66
  0
ENDTAB
  0
TABLE
  2
BLOCK_RECORD
  5
1C8CDE699D3C
330
0
100
AcDbSymbolTable
 70
    11
  0
BLOCK_RECORD
  5
1C8CDE699D53
330
1C8CDE699D3C
100
AcDbSymbolTableRecord
100
AcDbBlockTableRecord
  2
*MODEL_SPACE
340
1C8CDE6ACD0E
  0
BLOCK_RECORD
  5
1C8CDE699D50
330
1C8CDE699D3C
100
AcDbSymbolTableRecord
100
AcDbBlockTableRecord
  2
*PAPER_SPACE
340
1C8CDE6ACD0F
  0
BLOCK_RECORD
  5
1C8CDE6AC739
330
1C8CDE699D3C
100
AcDbSymbolTableRecord
100
AcDbBlockTableRecord
  2
*D0
340
0
  0
BLOCK_RECORD
  5
1C8CDE6AC746
330
1C8CDE699D3C
100
AcDbSymbolTableRecord
100
AcDbBlockTableRecord
  2
*D1
340
0
  0
BLOCK_RECORD
  5
1C8CDE6AC95D
330
1C8CDE699D3C
100
AcDbSymbolTableRecord
100
AcDbBlockTableRecord
  2
*D2
340
0
  0
BLOCK_RECORD
  5
1C8CDE6AC96A
330
1C8CDE699D3C
100
AcDbSymbolTableRecord
100
AcDbBlockTableRecord
  2
*D3
340
0
  0
BLOCK_RECORD
  5
1C8CDE6AC9C1
330
1C8CDE699D3C
100
AcDbSymbolTableRecord
100
AcDbBlockTableRecord
  2
*X4
340
0
102
{BLKREFS
331
1C8CDE6AC9C3
102
}
  0
BLOCK_RECORD
  5
1C8CDE6ACAEB
330
1C8CDE699D3C
100
AcDbSymbolTableRecord
100
AcDbBlockTableRecord
  2
*D5
340
0
  0
BLOCK_RECORD
  5
1C8CDE6ACAF8
330
1C8CDE699D3C
100
AcDbSymbolTableRecord
100
AcDbBlockTableRecord
  2
*D6
340
0
  0
BLOCK_RECORD
  5
1C8CDE6ACB07
330
1C8CDE699D3C
100
AcDbSymbolTableRecord
100
AcDbBlockTableRecord
  2
*D7
340
0
  0
BLOCK_RECORD
  5
1C8CDE6ACB14
330
1C8CDE699D3C
100
AcDbSymbolTableRecord
100
AcDbBlockTableRecord
  2
*D8
340
0
  0
BLOCK_RECORD
  5
1C8CDE6ACBEE
330
1C8CDE699D3C
100
AcDbSymbolTableRecord
100
AcDbBlockTableRecord
  2
*X9
340
0
102
{BLKREFS
331
1C8CDE6ACBF0
102
}
  0
BLOCK_RECORD
  5
1C8CDE6ACD21
330
1C8CDE699D3C
100
AcDbSymbolTableRecord
100
AcDbBlockTableRecord
  2
CALCOMP_TECHJET720A3
340
0
102
{BLKREFS
331
1C8CDE6ACD6A
102
}
  0
ENDTAB
  0
ENDSEC
  0
SECTION
  2
BLOCKS
  0
BLOCK
  5
1C8CDE699D7E
330
1C8CDE699D53
100
AcDbEntity
  8
SUNPOU
100
AcDbBlockBegin
  2
*MODEL_SPACE
 70
     0
 10
0.0
 20
0.0
 30
0.0
  3
*MODEL_SPACE
  1

  0
ENDBLK
  5
1C8CDE699D7F
330
1C8CDE699D53
100
AcDbEntity
  8
SUNPOU
100
AcDbBlockEnd
  0
BLOCK
  5
1C8CDE699D7C
330
1C8CDE699D50
100
AcDbEntity
 67
     1
  8
SUNPOU
100
AcDbBlockBegin
  2
*PAPER_SPACE
 70
     0
 10
0.0
 20
0.0
 30
0.0
  3
*PAPER_SPACE
  1

  0
ENDBLK
  5
1C8CDE699D7D
330
1C8CDE699D50
100
AcDbEntity
 67
     1
  8
SUNPOU
100
AcDbBlockEnd
  0
BLOCK
  5
1C8CDE6AC78A
330
1C8CDE6AC739
100
AcDbEntity
  8
0
100
AcDbBlockBegin
  2
*D0
 70
     1
 10
0.0
 20
0.0
 30
0.0
  3
*D0
  1

  0
LINE
  5
1C8CDE6AC78B
330
1C8CDE6AC739
100
AcDbEntity
  8
0
  6
ByBlock
100
AcDbLine
 10
1874.522214525002
 20
618.5549668915107
 30
0.0
 11
1874.522214525002
 21
468.5549668915106
 31
0.0
  0
LINE
  5
1C8CDE6AC78C
330
1C8CDE6AC739
100
AcDbEntity
  8
0
  6
ByBlock
100
AcDbLine
 10
1574.522214525002
 20
618.5549668915107
 30
0.0
 11
1574.522214525002
 21
468.5549668915106
 31
0.0
  0
LINE
  5
1C8CDE6AC78D
330
1C8CDE6AC739
100
AcDbEntity
  8
0
  6
ByBlock
100
AcDbLine
 10
1854.522214525002
 20
478.5549668915106
 30
0.0
 11
1594.522214525001
 21
478.5549668915106
 31
0.0
  0
SOLID
  5
1C8CDE6AC78E
330
1C8CDE6AC739
100
AcDbEntity
  8
0
  6
ByBlock
100
AcDbTrace
 10
1854.522214525002
 20
481.8883002248439
 30
0.0
 11
1854.522214525002
 21
475.2216335581772
 31
0.0
 12
1874.522214525002
 22
478.5549668915106
 32
0.0
 13
1874.522214525002
 23
478.5549668915106
 33
0.0
  0
SOLID
  5
1C8CDE6AC78F
330
1C8CDE6AC739
100
AcDbEntity
  8
0
  6
ByBlock
100
AcDbTrace
 10
1594.522214525001
 20
481.8883002248439
 30
0.0
 11
1594.522214525001
 21
475.2216335581772
 31
0.0
 12
1574.522214525002
 22
478.5549668915106
 32
0.0
 13
1574.522214525002
 23
478.5549668915106
 33
0.0
  0
MTEXT
  5
1C8CDE6AC790
330
1C8CDE6AC739
100
AcDbEntity
  8
0
  6
ByBlock
100
AcDbMText
 10
1724.522214525002
 20
505.5549668915106
 30
0.0
 40
30.0
 41
0.0
 71
     5
 72
     1
  1
\A1;□300
  7
EXT08
 73
     1
 44
1.0
1001
ACAD
1000
MTEXTBEGIN
1070
    73
1070
     1
1070
    44
1040
1.0
1070
    74
1070
     0
1000
MTEXTEND
  0
POINT
  5
1C8CDE6AC791
330
1C8CDE6AC739
100
AcDbEntity
  8
DEFPOINTS
  6
ByBlock
 62
     0
100
AcDbPoint
 10
1874.522214525002
 20
628.5549668915107
 30
0.0
  0
POINT
  5
1C8CDE6AC792
330
1C8CDE6AC739
100
AcDbEntity
  8
DEFPOINTS
  6
ByBlock
 62
     0
100
AcDbPoint
 10
1574.522214525002
 20
628.5549668915107
 30
0.0
  0
POINT
  5
1C8CDE6AC793
330
1C8CDE6AC739
100
AcDbEntity
  8
DEFPOINTS
  6
ByBlock
 62
     0
100
AcDbPoint
 10
1574.522214525002
 20
478.5549668915106
 30
0.0
  0
ENDBLK
  5
1C8CDE6AC794
330
1C8CDE6AC739
100
AcDbEntity
  8
0
100
AcDbBlockEnd
  0
BLOCK
  5
1C8CDE6AC769
330
1C8CDE6AC746
100
AcDbEntity
  8
0
100
AcDbBlockBegin
  2
*D1
 70
     1
 10
0.0
 20
0.0
 30
0.0
  3
*D1
  1

  0
LINE
  5
1C8CDE6AC76A
330
1C8CDE6AC746
100
AcDbEntity
  8
0
  6
ByBlock
100
AcDbLine
 10
1524.523085554384
 20
618.5549668915106
 30
0.0
 11
1524.523085554384
 21
368.5549668915105
 31
0.0
  0
LINE
  5
1C8CDE6AC76B
330
1C8CDE6AC746
100
AcDbEntity
  8
0
  6
ByBlock
100
AcDbLine
 10
1924.523085554383
 20
618.5549668915107
 30
0.0
 11
1924.523085554383
 21
368.5549668915105
 31
0.0
  0
LINE
  5
1C8CDE6AC76C
330
1C8CDE6AC746
100
AcDbEntity
  8
0
  6
ByBlock
100
AcDbLine
 10
1544.523085554384
 20
378.5549668915105
 30
0.0
 11
1904.523085554384
 21
378.5549668915105
 31
0.0
  0
SOLID
  5
1C8CDE6AC76D
330
1C8CDE6AC746
100
AcDbEntity
  8
0
  6
ByBlock
100
AcDbTrace
 10
1544.523085554384
 20
381.8883002248438
 30
0.0
 11
1544.523085554384
 21
375.2216335581772
 31
0.0
 12
1524.523085554384
 22
378.5549668915105
 32
0.0
 13
1524.523085554384
 23
378.5549668915105
 33
0.0
  0
SOLID
  5
1C8CDE6AC76E
330
1C8CDE6AC746
100
AcDbEntity
  8
0
  6
ByBlock
100
AcDbTrace
 10
1904.523085554384
 20
381.8883002248438
 30
0.0
 11
1904.523085554384
 21
375.2216335581772
 31
0.0
 12
1924.523085554383
 22
378.5549668915105
 32
0.0
 13
1924.523085554383
 23
378.5549668915105
 33
0.0
  0
MTEXT
  5
1C8CDE6AC76F
330
1C8CDE6AC746
100
AcDbEntity
  8
0
  6
ByBlock
100
AcDbMText
 10
1724.523085554384
 20
405.5549668915104
 30
0.0
 40
30.0
 41
0.0
 71
     5
 72
     1
  1
\A1;□400
  7
EXT08
 73
     1
 44
1.0
1001
ACAD
1000
MTEXTBEGIN
1070
    73
1070
     1
1070
    44
1040
1.0
1070
    74
1070
     0
1000
MTEXTEND
  0
POINT
  5
1C8CDE6AC770
330
1C8CDE6AC746
100
AcDbEntity
  8
DEFPOINTS
  6
ByBlock
 62
     0
100
AcDbPoint
 10
1524.523085554384
 20
628.5549668915106
 30
0.0
  0
POINT
  5
1C8CDE6AC771
330
1C8CDE6AC746
100
AcDbEntity
  8
DEFPOINTS
  6
ByBlock
 62
     0
100
AcDbPoint
 10
1924.523085554383
 20
628.5549668915107
 30
0.0
  0
POINT
  5
1C8CDE6AC772
330
1C8CDE6AC746
100
AcDbEntity
  8
DEFPOINTS
  6
ByBlock
 62
     0
100
AcDbPoint
 10
1924.523085554383
 20
378.5549668915105
 30
0.0
  0
ENDBLK
  5
1C8CDE6AC773
330
1C8CDE6AC746
100
AcDbEntity
  8
0
100
AcDbBlockEnd
  0
BLOCK
  5
1C8CDE6AC95E
330
1C8CDE6AC95D
100
AcDbEntity
  8
0
100
AcDbBlockBegin
  2
*D2
 70
     1
 10
0.0
 20
0.0
 30
0.0
  3
*D2
  1

  0
LINE
  5
1C8CDE6AC95F
330
1C8CDE6AC95D
100
AcDbEntity
  8
0
  6
ByBlock
100
AcDbLine
 10
1406.842983507925
 20
1078.554966891511
 30
0.0
 11
1326.372266973402
 21
1078.554966891511
 31
0.0
  0
LINE
  5
1C8CDE6AC960
330
1C8CDE6AC95D
100
AcDbEntity
  8
0
  6
ByBlock
100
AcDbLine
 10
1514.523085554383
 20
678.5549668915106
 30
0.0
 11
1326.372266973402
 21
678.5549668915106
 31
0.0
  0
LINE
  5
1C8CDE6AC961
330
1C8CDE6AC95D
100
AcDbEntity
  8
0
  6
ByBlock
100
AcDbLine
 10
1336.372266973402
 20
1058.554966891511
 30
0.0
 11
1336.372266973402
 21
698.5549668915106
 31
0.0
  0
SOLID
  5
1C8CDE6AC962
330
1C8CDE6AC95D
100
AcDbEntity
  8
0
  6
ByBlock
100
AcDbTrace
 10
1333.038933640069
 20
1058.554966891511
 30
0.0
 11
1339.705600306736
 21
1058.554966891511
 31
0.0
 12
1336.372266973402
 22
1078.554966891511
 32
0.0
 13
1336.372266973402
 23
1078.554966891511
 33
0.0
  0
SOLID
  5
1C8CDE6AC963
330
1C8CDE6AC95D
100
AcDbEntity
  8
0
  6
ByBlock
100
AcDbTrace
 10
1333.038933640069
 20
698.5549668915106
 30
0.0
 11
1339.705600306736
 21
698.5549668915106
 31
0.0
 12
1336.372266973402
 22
678.5549668915106
 32
0.0
 13
1336.372266973402
 23
678.5549668915106
 33
0.0
  0
MTEXT
  5
1C8CDE6AC964
330
1C8CDE6AC95D
100
AcDbEntity
  8
0
  6
ByBlock
100
AcDbMText
 10
1309.372266973402
 20
878.5549668915107
 30
0.0
 40
30.0
 41
0.0
 71
     5
 72
     1
  1
\A1;400
  7
EXT08
 11
0.0
 21
1.0
 31
0.0
 73
     1
 44
1.0
1001
ACAD
1000
MTEXTBEGIN
1070
    73
1070
     1
1070
    44
1040
1.0
1070
    74
1070
     0
1000
MTEXTEND
  0
POINT
  5
1C8CDE6AC965
330
1C8CDE6AC95D
100
AcDbEntity
  8
DEFPOINTS
  6
ByBlock
 62
     0
100
AcDbPoint
 10
1416.842983507925
 20
1078.554966891511
 30
0.0
  0
POINT
  5
1C8CDE6AC966
330
1C8CDE6AC95D
100
AcDbEntity
  8
DEFPOINTS
  6
ByBlock
 62
     0
100
AcDbPoint
 10
1524.523085554384
 20
678.5549668915106
 30
0.0
  0
POINT
  5
1C8CDE6AC967
330
1C8CDE6AC95D
100
AcDbEntity
  8
DEFPOINTS
  6
ByBlock
 62
     0
100
AcDbPoint
 10
1336.372266973402
 20
678.5549668915106
 30
0.0
  0
ENDBLK
  5
1C8CDE6AC968
330
1C8CDE6AC95D
100
AcDbEntity
  8
0
100
AcDbBlockEnd
  0
BLOCK
  5
1C8CDE6AC96B
330
1C8CDE6AC96A
100
AcDbEntity
  8
0
100
AcDbBlockBegin
  2
*D3
 70
     1
 10
0.0
 20
0.0
 30
0.0
  3
*D3
  1

  0
LINE
  5
1C8CDE6AC96C
330
1C8CDE6AC96A
100
AcDbEntity
  8
0
  6
ByBlock
100
AcDbLine
 10
1514.523085554383
 20
678.5549668915107
 30
0.0
 11
1226.372266973402
 21
678.5549668915107
 31
0.0
  0
LINE
  5
1C8CDE6AC96D
330
1C8CDE6AC96A
100
AcDbEntity
  8
0
  6
ByBlock
100
AcDbLine
 10
1514.523085554383
 20
628.5549668915106
 30
0.0
 11
1226.372266973402
 21
628.5549668915106
 31
0.0
  0
LINE
  5
1C8CDE6AC96E
330
1C8CDE6AC96A
100
AcDbEntity
  8
0
  6
ByBlock
100
AcDbLine
 10
1236.372266973402
 20
698.5549668915107
 30
0.0
 11
1236.372266973402
 21
718.5549668915107
 31
0.0
  0
LINE
  5
1C8CDE6AC96F
330
1C8CDE6AC96A
100
AcDbEntity
  8
0
  6
ByBlock
100
AcDbLine
 10
1236.372266973402
 20
608.5549668915106
 30
0.0
 11
1236.372266973402
 21
588.5549668915106
 31
0.0
  0
MTEXT
  5
1C8CDE6AC970
330
1C8CDE6AC96A
100
AcDbEntity
  8
0
  6
ByBlock
100
AcDbMText
 10
1193.372266973402
 20
653.5549668915107
 30
0.0
 40
30.0
 41
0.0
 71
     5
 72
     1
  1
\A1;50
  7
EXT08
 11
0.0
 21
1.0
 31
0.0
 73
     1
 44
1.0
1001
ACAD
1000
MTEXTBEGIN
1070
    73
1070
     1
1070
    44
1040
1.0
1070
    74
1070
     0
1000
MTEXTEND
  0
LINE
  5
1C8CDE6AC971
330
1C8CDE6AC96A
100
AcDbEntity
  8
0
  6
ByBlock
100
AcDbLine
 10
1236.372266973402
 20
678.5549668915107
 30
0.0
 11
1236.372266973402
 21
628.5549668915106
 31
0.0
  0
SOLID
  5
1C8CDE6AC972
330
1C8CDE6AC96A
100
AcDbEntity
  8
0
  6
ByBlock
100
AcDbTrace
 10
1233.038933640069
 20
698.5549668915107
 30
0.0
 11
1239.705600306735
 21
698.5549668915107
 31
0.0
 12
1236.372266973402
 22
678.5549668915107
 32
0.0
 13
1236.372266973402
 23
678.5549668915107
 33
0.0
  0
SOLID
  5
1C8CDE6AC973
330
1C8CDE6AC96A
100
AcDbEntity
  8
0
  6
ByBlock
100
AcDbTrace
 10
1233.038933640069
 20
608.5549668915106
 30
0.0
 11
1239.705600306735
 21
608.5549668915106
 31
0.0
 12
1236.372266973402
 22
628.5549668915106
 32
0.0
 13
1236.372266973402
 23
628.5549668915106
 33
0.0
  0
POINT
  5
1C8CDE6AC974
330
1C8CDE6AC96A
100
AcDbEntity
  8
DEFPOINTS
  6
ByBlock
 62
     0
100
AcDbPoint
 10
1524.523085554384
 20
678.5549668915107
 30
0.0
  0
POINT
  5
1C8CDE6AC975
330
1C8CDE6AC96A
100
AcDbEntity
  8
DEFPOINTS
  6
ByBlock
 62
     0
100
AcDbPoint
 10
1524.523085554384
 20
628.5549668915106
 30
0.0
  0
POINT
  5
1C8CDE6AC976
330
1C8CDE6AC96A
100
AcDbEntity
  8
DEFPOINTS
  6
ByBlock
 62
     0
100
AcDbPoint
 10
1236.372266973402
 20
628.5549668915106
 30
0.0
  0
ENDBLK
  5
1C8CDE6AC977
330
1C8CDE6AC96A
100
AcDbEntity
  8
0
100
AcDbBlockEnd
  0
BLOCK
  5
1C8CDE6AC9C2
330
1C8CDE6AC9C1
100
AcDbEntity
  8
0
100
AcDbBlockBegin
  2
*X4
 70
     1
 10
0.0
 20
0.0
 30
0.0
  3
*X4
  1

  0
LINE
  5
1C8CDE6AC9C4
330
1C8CDE6AC9C1
100
AcDbEntity
  8
0
 62
     0
100
AcDbLine
 10
1574.522214525002
 20
766.299163628778
 30
0.0
 11
1667.372214525001
 21
859.1491636287775
 31
0.0
  0
LINE
  5
1C8CDE6AC9C5
330
1C8CDE6AC9C1
100
AcDbEntity
  8
0
 62
     0
100
AcDbLine
 10
1781.672214525
 20
973.4491636287767
 30
0.0
 11
1874.522214525002
 21
1066.299163628778
 31
0.0
  0
LINE
  5
1C8CDE6AC9C6
330
1C8CDE6AC9C1
100
AcDbEntity
  8
0
 62
     0
100
AcDbLine
 10
1574.522214525002
 20
856.1017248394696
 30
0.0
 11
1667.372214525001
 21
948.951724839469
 31
0.0
  0
LINE
  5
1C8CDE6AC9C7
330
1C8CDE6AC9C1
100
AcDbEntity
  8
0
 62
     0
100
AcDbLine
 10
1781.672214525
 20
1063.251724839468
 30
0.0
 11
1796.975456577043
 21
1078.554966891511
 31
0.0
  0
LINE
  5
1C8CDE6AC9C8
330
1C8CDE6AC9C1
100
AcDbEntity
  8
0
 62
     0
100
AcDbLine
 10
1574.522214525002
 20
945.9042860501609
 30
0.0
 11
1667.372214525001
 21
1038.75428605016
 31
0.0
  0
LINE
  5
1C8CDE6AC9C9
330
1C8CDE6AC9C1
100
AcDbEntity
  8
0
 62
     0
100
AcDbLine
 10
1574.522214525002
 20
1035.706847260853
 30
0.0
 11
1617.37033415566
 21
1078.554966891511
 31
0.0
  0
LINE
  5
1C8CDE6AC9CA
330
1C8CDE6AC9C1
100
AcDbEntity
  8
0
 62
     0
100
AcDbLine
 10
1576.580578998426
 20
678.5549668915107
 30
0.0
 11
1667.372214525001
 21
769.346602418086
 31
0.0
  0
LINE
  5
1C8CDE6AC9CB
330
1C8CDE6AC9C1
100
AcDbEntity
  8
0
 62
     0
100
AcDbLine
 10
1781.672214525
 20
883.646602418085
 30
0.0
 11
1874.522214525002
 21
976.4966024180866
 31
0.0
  0
LINE
  5
1C8CDE6AC9CC
330
1C8CDE6AC9C1
100
AcDbEntity
  8
0
 62
     0
100
AcDbLine
 10
1666.383140209117
 20
678.5549668915107
 30
0.0
 11
1667.372214525001
 21
679.5440412073944
 31
0.0
  0
LINE
  5
1C8CDE6AC9CD
330
1C8CDE6AC9C1
100
AcDbEntity
  8
0
 62
     0
100
AcDbLine
 10
1781.672214525
 20
793.8440412073934
 30
0.0
 11
1874.522214525002
 21
886.6940412073949
 31
0.0
  0
LINE
  5
1C8CDE6AC9CE
330
1C8CDE6AC9C1
100
AcDbEntity
  8
0
 62
     0
100
AcDbLine
 10
1781.672214525
 20
704.041479996702
 30
0.0
 11
1874.522214525002
 21
796.8914799967036
 31
0.0
  0
LINE
  5
1C8CDE6AC9CF
330
1C8CDE6AC9C1
100
AcDbEntity
  8
0
 62
     0
100
AcDbLine
 10
1845.9882626305
 20
678.5549668915105
 30
0.0
 11
1874.522214525002
 21
707.0889187860122
 31
0.0
  0
LINE
  5
1C8CDE6AC9D0
330
1C8CDE6AC9C1
100
AcDbEntity
  8
0
 62
     0
100
AcDbLine
 10
1574.522214525002
 20
777.5244837801144
 30
0.0
 11
1667.372214525001
 21
870.374483780114
 31
0.0
  0
LINE
  5
1C8CDE6AC9D1
330
1C8CDE6AC9C1
100
AcDbEntity
  8
0
 62
     0
100
AcDbLine
 10
1781.672214525
 20
984.6744837801132
 30
0.0
 11
1874.522214525002
 21
1077.524483780115
 31
0.0
  0
LINE
  5
1C8CDE6AC9D2
330
1C8CDE6AC9C1
100
AcDbEntity
  8
0
 62
     0
100
AcDbLine
 10
1574.522214525002
 20
867.3270449908059
 30
0.0
 11
1667.372214525001
 21
960.1770449908055
 31
0.0
  0
LINE
  5
1C8CDE6AC9D3
330
1C8CDE6AC9C1
100
AcDbEntity
  8
0
 62
     0
100
AcDbLine
 10
1781.672214525
 20
1074.477044990804
 30
0.0
 11
1785.750136425706
 21
1078.554966891511
 31
0.0
  0
LINE
  5
1C8CDE6AC9D4
330
1C8CDE6AC9C1
100
AcDbEntity
  8
0
 62
     0
100
AcDbLine
 10
1574.522214525002
 20
957.1296062014974
 30
0.0
 11
1667.372214525001
 21
1049.979606201497
 31
0.0
  0
LINE
  5
1C8CDE6AC9D5
330
1C8CDE6AC9C1
100
AcDbEntity
  8
0
 62
     0
100
AcDbLine
 10
1574.522214525002
 20
1046.932167412189
 30
0.0
 11
1606.145014004323
 21
1078.554966891511
 31
0.0
  0
LINE
  5
1C8CDE6AC9D6
330
1C8CDE6AC9C1
100
AcDbEntity
  8
0
 62
     0
100
AcDbLine
 10
1574.522214525002
 20
687.7219225694228
 30
0.0
 11
1667.372214525001
 21
780.5719225694224
 31
0.0
  0
LINE
  5
1C8CDE6AC9D7
330
1C8CDE6AC9C1
100
AcDbEntity
  8
0
 62
     0
100
AcDbLine
 10
1781.672214525
 20
894.8719225694215
 30
0.0
 11
1874.522214525002
 21
987.7219225694231
 31
0.0
  0
LINE
  5
1C8CDE6AC9D8
330
1C8CDE6AC9C1
100
AcDbEntity
  8
0
 62
     0
100
AcDbLine
 10
1655.157820057781
 20
678.5549668915107
 30
0.0
 11
1667.372214525001
 21
690.7693613587309
 31
0.0
  0
LINE
  5
1C8CDE6AC9D9
330
1C8CDE6AC9C1
100
AcDbEntity
  8
0
 62
     0
100
AcDbLine
 10
1781.672214525
 20
805.0693613587297
 30
0.0
 11
1874.522214525002
 21
897.9193613587314
 31
0.0
  0
LINE
  5
1C8CDE6AC9DA
330
1C8CDE6AC9C1
100
AcDbEntity
  8
0
 62
     0
100
AcDbLine
 10
1781.672214525
 20
715.2668001480384
 30
0.0
 11
1874.522214525002
 21
808.1168001480401
 31
0.0
  0
LINE
  5
1C8CDE6AC9DB
330
1C8CDE6AC9C1
100
AcDbEntity
  8
0
 62
     0
100
AcDbLine
 10
1834.762942479163
 20
678.5549668915105
 30
0.0
 11
1874.522214525002
 21
718.3142389373488
 31
0.0
  0
LINE
  5
1C8CDE6AC9DC
330
1C8CDE6AC9C1
100
AcDbEntity
  8
0
 62
     0
100
AcDbLine
 10
1574.522214525002
 20
788.7498039314509
 30
0.0
 11
1667.372214525001
 21
881.5998039314505
 31
0.0
  0
LINE
  5
1C8CDE6AC9DD
330
1C8CDE6AC9C1
100
AcDbEntity
  8
0
 62
     0
100
AcDbLine
 10
1781.672214525
 20
995.8998039314495
 30
0.0
 11
1864.327377485061
 21
1078.554966891511
 31
0.0
  0
LINE
  5
1C8CDE6AC9DE
330
1C8CDE6AC9C1
100
AcDbEntity
  8
0
 62
     0
100
AcDbLine
 10
1574.522214525002
 20
878.5523651421424
 30
0.0
 11
1667.372214525001
 21
971.402365142142
 31
0.0
  0
LINE
  5
1C8CDE6AC9DF
330
1C8CDE6AC9C1
100
AcDbEntity
  8
0
 62
     0
100
AcDbLine
 10
1574.522214525002
 20
968.3549263528341
 30
0.0
 11
1667.372214525001
 21
1061.204926352833
 31
0.0
  0
LINE
  5
1C8CDE6AC9E0
330
1C8CDE6AC9C1
100
AcDbEntity
  8
0
 62
     0
100
AcDbLine
 10
1574.522214525002
 20
1058.157487563526
 30
0.0
 11
1594.919693852987
 21
1078.554966891511
 31
0.0
  0
LINE
  5
1C8CDE6AC9E1
330
1C8CDE6AC9C1
100
AcDbEntity
  8
0
 62
     0
100
AcDbLine
 10
1574.522214525002
 20
698.9472427207593
 30
0.0
 11
1667.372214525001
 21
791.7972427207589
 31
0.0
  0
LINE
  5
1C8CDE6AC9E2
330
1C8CDE6AC9C1
100
AcDbEntity
  8
0
 62
     0
100
AcDbLine
 10
1781.672214525
 20
906.097242720758
 30
0.0
 11
1874.522214525002
 21
998.9472427207594
 31
0.0
  0
LINE
  5
1C8CDE6AC9E3
330
1C8CDE6AC9C1
100
AcDbEntity
  8
0
 62
     0
100
AcDbLine
 10
1643.932499906444
 20
678.5549668915107
 30
0.0
 11
1667.372214525001
 21
701.9946815100673
 31
0.0
  0
LINE
  5
1C8CDE6AC9E4
330
1C8CDE6AC9C1
100
AcDbEntity
  8
0
 62
     0
100
AcDbLine
 10
1781.672214525
 20
816.2946815100664
 30
0.0
 11
1874.522214525002
 21
909.1446815100677
 31
0.0
  0
LINE
  5
1C8CDE6AC9E5
330
1C8CDE6AC9C1
100
AcDbEntity
  8
0
 62
     0
100
AcDbLine
 10
1781.672214525
 20
726.4921202993747
 30
0.0
 11
1874.522214525002
 21
819.3421202993762
 31
0.0
  0
LINE
  5
1C8CDE6AC9E6
330
1C8CDE6AC9C1
100
AcDbEntity
  8
0
 62
     0
100
AcDbLine
 10
1823.537622327827
 20
678.5549668915105
 30
0.0
 11
1874.522214525002
 21
729.5395590886849
 31
0.0
  0
ENDBLK
  5
1C8CDE6AC9E7
330
1C8CDE6AC9C1
100
AcDbEntity
  8
0
100
AcDbBlockEnd
  0
BLOCK
  5
1C8CDE6ACAEC
330
1C8CDE6ACAEB
100
AcDbEntity
  8
0
100
AcDbBlockBegin
  2
*D5
 70
     1
 10
0.0
 20
0.0
 30
0.0
  3
*D5
  1

  0
LINE
  5
1C8CDE6ACAED
330
1C8CDE6ACAEB
100
AcDbEntity
  8
0
  6
ByBlock
100
AcDbLine
 10
1714.522214525002
 20
1978.55496689151
 30
0.0
 11
1226.372266973402
 21
1978.55496689151
 31
0.0
  0
LINE
  5
1C8CDE6ACAEE
330
1C8CDE6ACAEB
100
AcDbEntity
  8
0
  6
ByBlock
100
AcDbLine
 10
1514.523085554383
 20
678.5549668915107
 30
0.0
 11
1226.372266973402
 21
678.5549668915107
 31
0.0
  0
LINE
  5
1C8CDE6ACAEF
330
1C8CDE6ACAEB
100
AcDbEntity
  8
0
  6
ByBlock
100
AcDbLine
 10
1236.372266973402
 20
1958.554966891511
 30
0.0
 11
1236.372266973402
 21
698.5549668915107
 31
0.0
  0
SOLID
  5
1C8CDE6ACAF0
330
1C8CDE6ACAEB
100
AcDbEntity
  8
0
  6
ByBlock
100
AcDbTrace
 10
1233.038933640069
 20
1958.554966891511
 30
0.0
 11
1239.705600306735
 21
1958.554966891511
 31
0.0
 12
1236.372266973402
 22
1978.55496689151
 32
0.0
 13
1236.372266973402
 23
1978.55496689151
 33
0.0
  0
SOLID
  5
1C8CDE6ACAF1
330
1C8CDE6ACAEB
100
AcDbEntity
  8
0
  6
ByBlock
100
AcDbTrace
 10
1233.038933640069
 20
698.5549668915107
 30
0.0
 11
1239.705600306735
 21
698.5549668915107
 31
0.0
 12
1236.372266973402
 22
678.5549668915107
 32
0.0
 13
1236.372266973402
 23
678.5549668915107
 33
0.0
  0
MTEXT
  5
1C8CDE6ACAF2
330
1C8CDE6ACAEB
100
AcDbEntity
  8
0
  6
ByBlock
100
AcDbMText
 10
1209.372266973402
 20
1328.554966891511
 30
0.0
 40
30.0
 41
0.0
 71
     5
 72
     1
  1
\A1;1300
  7
EXT08
 11
0.0
 21
1.0
 31
0.0
 73
     1
 44
1.0
1001
ACAD
1000
MTEXTBEGIN
1070
    73
1070
     1
1070
    44
1040
1.0
1070
    74
1070
     0
1000
MTEXTEND
  0
POINT
  5
1C8CDE6ACAF3
330
1C8CDE6ACAEB
100
AcDbEntity
  8
DEFPOINTS
  6
ByBlock
 62
     0
100
AcDbPoint
 10
1724.522214525002
 20
1978.55496689151
 30
0.0
  0
POINT
  5
1C8CDE6ACAF4
330
1C8CDE6ACAEB
100
AcDbEntity
  8
DEFPOINTS
  6
ByBlock
 62
     0
100
AcDbPoint
 10
1524.523085554384
 20
678.5549668915107
 30
0.0
  0
POINT
  5
1C8CDE6ACAF5
330
1C8CDE6ACAEB
100
AcDbEntity
  8
DEFPOINTS
  6
ByBlock
 62
     0
100
AcDbPoint
 10
1236.372266973402
 20
678.5549668915107
 30
0.0
  0
ENDBLK
  5
1C8CDE6ACAF6
330
1C8CDE6ACAEB
100
AcDbEntity
  8
0
100
AcDbBlockEnd
  0
BLOCK
  5
1C8CDE6ACAF9
330
1C8CDE6ACAF8
100
AcDbEntity
  8
0
100
AcDbBlockBegin
  2
*D6
 70
     1
 10
0.0
 20
0.0
 30
0.0
  3
*D6
  1

  0
LINE
  5
1C8CDE6ACAFA
330
1C8CDE6ACAF8
100
AcDbEntity
  8
0
  6
ByBlock
100
AcDbLine
 10
1714.522214525002
 20
1978.55496689151
 30
0.0
 11
1326.372266973402
 21
1978.55496689151
 31
0.0
  0
LINE
  5
1C8CDE6ACAFB
330
1C8CDE6ACAF8
100
AcDbEntity
  8
0
  6
ByBlock
100
AcDbLine
 10
1416.842983507925
 20
1078.554966891511
 30
0.0
 11
1326.372266973402
 21
1078.554966891511
 31
0.0
  0
LINE
  5
1C8CDE6ACAFC
330
1C8CDE6ACAF8
100
AcDbEntity
  8
0
  6
ByBlock
100
AcDbLine
 10
1336.372266973402
 20
1958.554966891511
 30
0.0
 11
1336.372266973402
 21
1098.554966891511
 31
0.0
  0
SOLID
  5
1C8CDE6ACAFD
330
1C8CDE6ACAF8
100
AcDbEntity
  8
0
  6
ByBlock
100
AcDbTrace
 10
1333.038933640069
 20
1958.554966891511
 30
0.0
 11
1339.705600306736
 21
1958.554966891511
 31
0.0
 12
1336.372266973402
 22
1978.55496689151
 32
0.0
 13
1336.372266973402
 23
1978.55496689151
 33
0.0
  0
SOLID
  5
1C8CDE6ACAFE
330
1C8CDE6ACAF8
100
AcDbEntity
  8
0
  6
ByBlock
100
AcDbTrace
 10
1333.038933640069
 20
1098.554966891511
 30
0.0
 11
1339.705600306736
 21
1098.554966891511
 31
0.0
 12
1336.372266973402
 22
1078.554966891511
 32
0.0
 13
1336.372266973402
 23
1078.554966891511
 33
0.0
  0
MTEXT
  5
1C8CDE6ACAFF
330
1C8CDE6ACAF8
100
AcDbEntity
  8
0
  6
ByBlock
100
AcDbMText
 10
1309.372266973402
 20
1528.554966891511
 30
0.0
 40
30.0
 41
0.0
 71
     5
 72
     1
  1
\A1;900
  7
EXT08
 11
0.0
 21
1.0
 31
0.0
 73
     1
 44
1.0
1001
ACAD
1000
MTEXTBEGIN
1070
    73
1070
     1
1070
    44
1040
1.0
1070
    74
1070
     0
1000
MTEXTEND
  0
POINT
  5
1C8CDE6ACB00
330
1C8CDE6ACAF8
100
AcDbEntity
  8
DEFPOINTS
  6
ByBlock
 62
     0
100
AcDbPoint
 10
1724.522214525002
 20
1978.55496689151
 30
0.0
  0
POINT
  5
1C8CDE6ACB01
330
1C8CDE6ACAF8
100
AcDbEntity
  8
DEFPOINTS
  6
ByBlock
 62
     0
100
AcDbPoint
 10
1426.842983507925
 20
1078.554966891511
 30
0.0
  0
POINT
  5
1C8CDE6ACB02
330
1C8CDE6ACAF8
100
AcDbEntity
  8
DEFPOINTS
  6
ByBlock
 62
     0
100
AcDbPoint
 10
1336.372266973402
 20
1078.554966891511
 30
0.0
  0
ENDBLK
  5
1C8CDE6ACB03
330
1C8CDE6ACAF8
100
AcDbEntity
  8
0
100
AcDbBlockEnd
  0
BLOCK
  5
1C8CDE6ACB08
330
1C8CDE6ACB07
100
AcDbEntity
  8
0
100
AcDbBlockBegin
  2
*D7
 70
     1
 10
0.0
 20
0.0
 30
0.0
  3
*D7
  1

  0
LINE
  5
1C8CDE6ACB09
330
1C8CDE6ACB07
100
AcDbEntity
  8
0
  6
ByBlock
100
AcDbLine
 10
1714.522214525002
 20
1978.55496689151
 30
0.0
 11
1426.372266973402
 21
1978.55496689151
 31
0.0
  0
LINE
  5
1C8CDE6ACB0A
330
1C8CDE6ACB07
100
AcDbEntity
  8
0
  6
ByBlock
100
AcDbLine
 10
1657.822214525003
 20
1878.554966891511
 30
0.0
 11
1426.372266973402
 21
1878.554966891511
 31
0.0
  0
LINE
  5
1C8CDE6ACB0B
330
1C8CDE6ACB07
100
AcDbEntity
  8
0
  6
ByBlock
100
AcDbLine
 10
1436.372266973402
 20
1958.554966891511
 30
0.0
 11
1436.372266973402
 21
1898.554966891511
 31
0.0
  0
MTEXT
  5
1C8CDE6ACB0C
330
1C8CDE6ACB07
100
AcDbEntity
  8
0
  6
ByBlock
100
AcDbMText
 10
1393.372266973402
 20
1928.554966891511
 30
0.0
 40
30.0
 41
0.0
 71
     5
 72
     1
  1
\A1;100
  7
EXT08
 11
0.0
 21
1.0
 31
0.0
 73
     1
 44
1.0
1001
ACAD
1000
MTEXTBEGIN
1070
    73
1070
     1
1070
    44
1040
1.0
1070
    74
1070
     0
1000
MTEXTEND
  0
SOLID
  5
1C8CDE6ACB0D
330
1C8CDE6ACB07
100
AcDbEntity
  8
0
  6
ByBlock
100
AcDbTrace
 10
1433.038933640069
 20
1958.554966891511
 30
0.0
 11
1439.705600306736
 21
1958.554966891511
 31
0.0
 12
1436.372266973402
 22
1978.55496689151
 32
0.0
 13
1436.372266973402
 23
1978.55496689151
 33
0.0
  0
SOLID
  5
1C8CDE6ACB0E
330
1C8CDE6ACB07
100
AcDbEntity
  8
0
  6
ByBlock
100
AcDbTrace
 10
1433.038933640069
 20
1898.554966891511
 30
0.0
 11
1439.705600306736
 21
1898.554966891511
 31
0.0
 12
1436.372266973402
 22
1878.554966891511
 32
0.0
 13
1436.372266973402
 23
1878.554966891511
 33
0.0
  0
POINT
  5
1C8CDE6ACB0F
330
1C8CDE6ACB07
100
AcDbEntity
  8
DEFPOINTS
  6
ByBlock
 62
     0
100
AcDbPoint
 10
1724.522214525002
 20
1978.55496689151
 30
0.0
  0
POINT
  5
1C8CDE6ACB10
330
1C8CDE6ACB07
100
AcDbEntity
  8
DEFPOINTS
  6
ByBlock
 62
     0
100
AcDbPoint
 10
1667.822214525002
 20
1878.554966891511
 30
0.0
  0
POINT
  5
1C8CDE6ACB11
330
1C8CDE6ACB07
100
AcDbEntity
  8
DEFPOINTS
  6
ByBlock
 62
     0
100
AcDbPoint
 10
1436.372266973402
 20
1878.554966891511
 30
0.0
  0
ENDBLK
  5
1C8CDE6ACB12
330
1C8CDE6ACB07
100
AcDbEntity
  8
0
100
AcDbBlockEnd
  0
BLOCK
  5
1C8CDE6ACB15
330
1C8CDE6ACB14
100
AcDbEntity
  8
0
100
AcDbBlockBegin
  2
*D8
 70
     1
 10
0.0
 20
0.0
 30
0.0
  3
*D8
  1

  0
LINE
  5
1C8CDE6ACB16
330
1C8CDE6ACB14
100
AcDbEntity
  8
0
  6
ByBlock
100
AcDbLine
 10
1657.372214525001
 20
1758.554966891511
 30
0.0
 11
1426.372266973402
 21
1758.554966891511
 31
0.0
  0
LINE
  5
1C8CDE6ACB17
330
1C8CDE6ACB14
100
AcDbEntity
  8
0
  6
ByBlock
100
AcDbLine
 10
1657.822214525003
 20
1878.554966891511
 30
0.0
 11
1426.372266973402
 21
1878.554966891511
 31
0.0
  0
LINE
  5
1C8CDE6ACB18
330
1C8CDE6ACB14
100
AcDbEntity
  8
0
  6
ByBlock
100
AcDbLine
 10
1436.372266973402
 20
1778.554966891511
 30
0.0
 11
1436.372266973402
 21
1858.554966891511
 31
0.0
  0
MTEXT
  5
1C8CDE6ACB19
330
1C8CDE6ACB14
100
AcDbEntity
  8
0
  6
ByBlock
100
AcDbMText
 10
1393.372266973402
 20
1818.554966891511
 30
0.0
 40
30.0
 41
0.0
 71
     5
 72
     1
  1
\A1;120
  7
EXT08
 11
0.0
 21
1.0
 31
0.0
 73
     1
 44
1.0
1001
ACAD
1000
MTEXTBEGIN
1070
    73
1070
     1
1070
    44
1040
1.0
1070
    74
1070
     0
1000
MTEXTEND
  0
SOLID
  5
1C8CDE6ACB1A
330
1C8CDE6ACB14
100
AcDbEntity
  8
0
  6
ByBlock
100
AcDbTrace
 10
1433.038933640069
 20
1778.554966891511
 30
0.0
 11
1439.705600306736
 21
1778.554966891511
 31
0.0
 12
1436.372266973402
 22
1758.554966891511
 32
0.0
 13
1436.372266973402
 23
1758.554966891511
 33
0.0
  0
SOLID
  5
1C8CDE6ACB1B
330
1C8CDE6ACB14
100
AcDbEntity
  8
0
  6
ByBlock
100
AcDbTrace
 10
1433.038933640069
 20
1858.554966891511
 30
0.0
 11
1439.705600306736
 21
1858.554966891511
 31
0.0
 12
1436.372266973402
 22
1878.554966891511
 32
0.0
 13
1436.372266973402
 23
1878.554966891511
 33
0.0
  0
POINT
  5
1C8CDE6ACB1C
330
1C8CDE6ACB14
100
AcDbEntity
  8
DEFPOINTS
  6
ByBlock
 62
     0
100
AcDbPoint
 10
1667.372214525001
 20
1758.554966891511
 30
0.0
  0
POINT
  5
1C8CDE6ACB1D
330
1C8CDE6ACB14
100
AcDbEntity
  8
DEFPOINTS
  6
ByBlock
 62
     0
100
AcDbPoint
 10
1667.822214525002
 20
1878.554966891511
 30
0.0
  0
POINT
  5
1C8CDE6ACB1E
330
1C8CDE6ACB14
100
AcDbEntity
  8
DEFPOINTS
  6
ByBlock
 62
     0
100
AcDbPoint
 10
1436.372266973402
 20
1878.554966891511
 30
0.0
  0
ENDBLK
  5
1C8CDE6ACB1F
330
1C8CDE6ACB14
100
AcDbEntity
  8
0
100
AcDbBlockEnd
  0
BLOCK
  5
1C8CDE6ACBEF
330
1C8CDE6ACBEE
100
AcDbEntity
  8
0
100
AcDbBlockBegin
  2
*X9
 70
     1
 10
0.0
 20
0.0
 30
0.0
  3
*X9
  1

  0
LINE
  5
1C8CDE6ACBF1
330
1C8CDE6ACBEE
100
AcDbEntity
  8
0
 62
     0
100
AcDbLine
 10
1669.372214525001
 20
1759.174775735693
 30
0.0
 11
1724.522214525001
 21
1814.324775735693
 31
0.0
  0
LINE
  5
1C8CDE6ACBF2
330
1C8CDE6ACBEE
100
AcDbEntity
  8
0
 62
     0
100
AcDbLine
 10
1724.522214525002
 20
1814.324775735694
 30
0.0
 11
1779.672214525002
 21
1869.474775735694
 31
0.0
  0
LINE
  5
1C8CDE6ACBF3
330
1C8CDE6ACBEE
100
AcDbEntity
  8
0
 62
     0
100
AcDbLine
 10
1669.372214525001
 20
1768.155031856762
 30
0.0
 11
1724.522214525002
 21
1823.305031856762
 31
0.0
  0
LINE
  5
1C8CDE6ACBF4
330
1C8CDE6ACBEE
100
AcDbEntity
  8
0
 62
     0
100
AcDbLine
 10
1724.522214525002
 20
1823.305031856763
 30
0.0
 11
1779.672214525002
 21
1878.455031856763
 31
0.0
  0
LINE
  5
1C8CDE6ACBF5
330
1C8CDE6ACBEE
100
AcDbEntity
  8
0
 62
     0
100
AcDbLine
 10
1669.372214525001
 20
1777.135287977831
 30
0.0
 11
1724.522214525002
 21
1832.285287977832
 31
0.0
  0
LINE
  5
1C8CDE6ACBF6
330
1C8CDE6ACBEE
100
AcDbEntity
  8
0
 62
     0
100
AcDbLine
 10
1724.522214525002
 20
1832.285287977832
 30
0.0
 11
1770.791893438681
 21
1878.55496689151
 31
0.0
  0
LINE
  5
1C8CDE6ACBF7
330
1C8CDE6ACBEE
100
AcDbEntity
  8
0
 62
     0
100
AcDbLine
 10
1669.372214525002
 20
1786.115544098901
 30
0.0
 11
1724.522214525002
 21
1841.2655440989
 31
0.0
  0
LINE
  5
1C8CDE6ACBF8
330
1C8CDE6ACBEE
100
AcDbEntity
  8
0
 62
     0
100
AcDbLine
 10
1724.522214525002
 20
1841.265544098901
 30
0.0
 11
1761.811637317612
 21
1878.55496689151
 31
0.0
  0
LINE
  5
1C8CDE6ACBF9
330
1C8CDE6ACBEE
100
AcDbEntity
  8
0
 62
     0
100
AcDbLine
 10
1669.372214525002
 20
1795.09580021997
 30
0.0
 11
1724.522214525002
 21
1850.245800219969
 31
0.0
  0
LINE
  5
1C8CDE6ACBFA
330
1C8CDE6ACBEE
100
AcDbEntity
  8
0
 62
     0
100
AcDbLine
 10
1724.522214525002
 20
1850.24580021997
 30
0.0
 11
1752.831381196543
 21
1878.55496689151
 31
0.0
  0
LINE
  5
1C8CDE6ACBFB
330
1C8CDE6ACBEE
100
AcDbEntity
  8
0
 62
     0
100
AcDbLine
 10
1669.372214525002
 20
1804.076056341038
 30
0.0
 11
1724.522214525002
 21
1859.226056341039
 31
0.0
  0
LINE
  5
1C8CDE6ACBFC
330
1C8CDE6ACBEE
100
AcDbEntity
  8
0
 62
     0
100
AcDbLine
 10
1724.522214525002
 20
1859.226056341039
 30
0.0
 11
1743.851125075473
 21
1878.55496689151
 31
0.0
  0
LINE
  5
1C8CDE6ACBFD
330
1C8CDE6ACBEE
100
AcDbEntity
  8
0
 62
     0
100
AcDbLine
 10
1669.372214525002
 20
1813.056312462108
 30
0.0
 11
1724.522214525002
 21
1868.206312462108
 31
0.0
  0
LINE
  5
1C8CDE6ACBFE
330
1C8CDE6ACBEE
100
AcDbEntity
  8
0
 62
     0
100
AcDbLine
 10
1724.522214525002
 20
1868.206312462109
 30
0.0
 11
1734.870868954405
 21
1878.554966891511
 31
0.0
  0
LINE
  5
1C8CDE6ACBFF
330
1C8CDE6ACBEE
100
AcDbEntity
  8
0
 62
     0
100
AcDbLine
 10
1669.372214525002
 20
1822.036568583177
 30
0.0
 11
1724.522214525002
 21
1877.186568583177
 31
0.0
  0
LINE
  5
1C8CDE6ACC00
330
1C8CDE6ACBEE
100
AcDbEntity
  8
0
 62
     0
100
AcDbLine
 10
1724.522214525002
 20
1877.186568583178
 30
0.0
 11
1725.890612833335
 21
1878.554966891511
 31
0.0
  0
LINE
  5
1C8CDE6ACC01
330
1C8CDE6ACBEE
100
AcDbEntity
  8
0
 62
     0
100
AcDbLine
 10
1669.372214525002
 20
1831.016824704246
 30
0.0
 11
1716.910356712266
 21
1878.554966891511
 31
0.0
  0
LINE
  5
1C8CDE6ACC02
330
1C8CDE6ACBEE
100
AcDbEntity
  8
0
 62
     0
100
AcDbLine
 10
1669.372214525002
 20
1839.997080825316
 30
0.0
 11
1707.930100591197
 21
1878.554966891511
 31
0.0
  0
LINE
  5
1C8CDE6ACC03
330
1C8CDE6ACBEE
100
AcDbEntity
  8
0
 62
     0
100
AcDbLine
 10
1669.372214525002
 20
1848.977336946385
 30
0.0
 11
1698.949844470128
 21
1878.554966891511
 31
0.0
  0
LINE
  5
1C8CDE6ACC04
330
1C8CDE6ACBEE
100
AcDbEntity
  8
0
 62
     0
100
AcDbLine
 10
1669.372214525002
 20
1857.957593067454
 30
0.0
 11
1689.969588349059
 21
1878.554966891511
 31
0.0
  0
LINE
  5
1C8CDE6ACC05
330
1C8CDE6ACBEE
100
AcDbEntity
  8
0
 62
     0
100
AcDbLine
 10
1669.372214525002
 20
1866.937849188524
 30
0.0
 11
1680.98933222799
 21
1878.554966891511
 31
0.0
  0
LINE
  5
1C8CDE6ACC06
330
1C8CDE6ACBEE
100
AcDbEntity
  8
0
 62
     0
100
AcDbLine
 10
1669.372214525002
 20
1875.918105309592
 30
0.0
 11
1672.00907610692
 21
1878.554966891511
 31
0.0
  0
LINE
  5
1C8CDE6ACC07
330
1C8CDE6ACBEE
100
AcDbEntity
  8
0
 62
     0
100
AcDbLine
 10
1677.732661801889
 20
1758.554966891511
 30
0.0
 11
1724.522214525001
 21
1805.344519614624
 31
0.0
  0
LINE
  5
1C8CDE6ACC08
330
1C8CDE6ACBEE
100
AcDbEntity
  8
0
 62
     0
100
AcDbLine
 10
1724.522214525002
 20
1805.344519614624
 30
0.0
 11
1779.672214525002
 21
1860.494519614625
 31
0.0
  0
LINE
  5
1C8CDE6ACC09
330
1C8CDE6ACBEE
100
AcDbEntity
  8
0
 62
     0
100
AcDbLine
 10
1686.712917922958
 20
1758.554966891511
 30
0.0
 11
1724.522214525001
 21
1796.364263493555
 31
0.0
  0
LINE
  5
1C8CDE6ACC0A
330
1C8CDE6ACBEE
100
AcDbEntity
  8
0
 62
     0
100
AcDbLine
 10
1724.522214525002
 20
1796.364263493555
 30
0.0
 11
1779.672214525002
 21
1851.514263493555
 31
0.0
  0
LINE
  5
1C8CDE6ACC0B
330
1C8CDE6ACBEE
100
AcDbEntity
  8
0
 62
     0
100
AcDbLine
 10
1695.693174044027
 20
1758.554966891511
 30
0.0
 11
1724.522214525001
 21
1787.384007372486
 31
0.0
  0
LINE
  5
1C8CDE6ACC0C
330
1C8CDE6ACBEE
100
AcDbEntity
  8
0
 62
     0
100
AcDbLine
 10
1724.522214525002
 20
1787.384007372486
 30
0.0
 11
1779.672214525002
 21
1842.534007372486
 31
0.0
  0
LINE
  5
1C8CDE6ACC0D
330
1C8CDE6ACBEE
100
AcDbEntity
  8
0
 62
     0
100
AcDbLine
 10
1704.673430165096
 20
1758.554966891511
 30
0.0
 11
1724.522214525001
 21
1778.403751251417
 31
0.0
  0
LINE
  5
1C8CDE6ACC0E
330
1C8CDE6ACBEE
100
AcDbEntity
  8
0
 62
     0
100
AcDbLine
 10
1724.522214525002
 20
1778.403751251417
 30
0.0
 11
1779.672214525002
 21
1833.553751251417
 31
0.0
  0
LINE
  5
1C8CDE6ACC0F
330
1C8CDE6ACBEE
100
AcDbEntity
  8
0
 62
     0
100
AcDbLine
 10
1713.653686286165
 20
1758.554966891511
 30
0.0
 11
1724.522214525001
 21
1769.423495130347
 31
0.0
  0
LINE
  5
1C8CDE6ACC10
330
1C8CDE6ACBEE
100
AcDbEntity
  8
0
 62
     0
100
AcDbLine
 10
1724.522214525002
 20
1769.423495130348
 30
0.0
 11
1779.672214525002
 21
1824.573495130348
 31
0.0
  0
LINE
  5
1C8CDE6ACC11
330
1C8CDE6ACBEE
100
AcDbEntity
  8
0
 62
     0
100
AcDbLine
 10
1722.633942407234
 20
1758.554966891511
 30
0.0
 11
1724.522214525001
 21
1760.443239009278
 31
0.0
  0
LINE
  5
1C8CDE6ACC12
330
1C8CDE6ACBEE
100
AcDbEntity
  8
0
 62
     0
100
AcDbLine
 10
1724.522214525002
 20
1760.443239009279
 30
0.0
 11
1779.672214525002
 21
1815.593239009279
 31
0.0
  0
LINE
  5
1C8CDE6ACC13
330
1C8CDE6ACBEE
100
AcDbEntity
  8
0
 62
     0
100
AcDbLine
 10
1731.614198528303
 20
1758.554966891511
 30
0.0
 11
1779.672214525002
 21
1806.61298288821
 31
0.0
  0
LINE
  5
1C8CDE6ACC14
330
1C8CDE6ACBEE
100
AcDbEntity
  8
0
 62
     0
100
AcDbLine
 10
1740.594454649372
 20
1758.554966891511
 30
0.0
 11
1779.672214525002
 21
1797.63272676714
 31
0.0
  0
LINE
  5
1C8CDE6ACC15
330
1C8CDE6ACBEE
100
AcDbEntity
  8
0
 62
     0
100
AcDbLine
 10
1749.574710770441
 20
1758.554966891511
 30
0.0
 11
1779.672214525002
 21
1788.652470646071
 31
0.0
  0
LINE
  5
1C8CDE6ACC16
330
1C8CDE6ACBEE
100
AcDbEntity
  8
0
 62
     0
100
AcDbLine
 10
1758.554966891511
 20
1758.554966891511
 30
0.0
 11
1779.672214525002
 21
1779.672214525002
 31
0.0
  0
LINE
  5
1C8CDE6ACC17
330
1C8CDE6ACBEE
100
AcDbEntity
  8
0
 62
     0
100
AcDbLine
 10
1767.535223012579
 20
1758.554966891511
 30
0.0
 11
1779.672214525002
 21
1770.691958403933
 31
0.0
  0
LINE
  5
1C8CDE6ACC18
330
1C8CDE6ACBEE
100
AcDbEntity
  8
0
 62
     0
100
AcDbLine
 10
1776.515479133648
 20
1758.554966891511
 30
0.0
 11
1779.672214525002
 21
1761.711702282864
 31
0.0
  0
ENDBLK
  5
1C8CDE6ACC19
330
1C8CDE6ACBEE
100
AcDbEntity
  8
0
100
AcDbBlockEnd
  0
BLOCK
  5
1C8CDE6ACD68
330
1C8CDE6ACD21
100
AcDbEntity
  8
0
100
AcDbBlockBegin
  2
CALCOMP_TECHJET720A3
 70
     0
 10
0.0
 20
0.0
 30
0.0
  3
CALCOMP_TECHJET720A3
  1

  0
LWPOLYLINE
  5
1C8CDE6ACD67
330
1C8CDE6ACD21
100
AcDbEntity
  8
ZWAKU
100
AcDbPolyline
 90
        4
 70
     1
 43
0.0
 10
0.0
 20
0.0
 10
0.0
 20
267.0
 10
370.0
 20
267.0
 10
370.0
 20
0.0
  0
ENDBLK
  5
1C8CDE6ACD69
330
1C8CDE6ACD21
100
AcDbEntity
  8
0
100
AcDbBlockEnd
  0
ENDSEC
  0
SECTION
  2
ENTITIES
  0
TEXT
  5
1C8CDE6A8E5B
330
1C8CDE699D53
100
AcDbEntity
  8
MOJI
100
AcDbText
 10
3188.990519568088
 20
2580.063834164814
 30
0.0
 40
30.0
  1
シティ車止め
 41
0.8
  7
EXT08
100
AcDbText
  0
TEXT
  5
1C8CDE6A8E5C
330
1C8CDE699D53
100
AcDbEntity
  8
MOJI
100
AcDbText
 10
3188.990519568088
 20
2530.063834164814
 30
0.0
 40
30.0
  1
CK-114HR-90K
 41
0.8
  7
EXT08
100
AcDbText
  0
LINE
  5
1C8CDE6A8EC1
330
1C8CDE699D53
100
AcDbEntity
  8
SJC
100
AcDbLine
 10
3650.0
 20
2570.0
 30
0.0
 11
3008.054725952008
 21
2570.0
 31
0.0
  0
LINE
  5
1C8CDE6A8EC2
330
1C8CDE699D53
100
AcDbEntity
  8
SJC
100
AcDbLine
 10
3650.0
 20
2520.0
 30
0.0
 11
3008.054725952008
 21
2520.0
 31
0.0
  0
LINE
  5
1C8CDE6A8EC3
330
1C8CDE699D53
100
AcDbEntity
  8
SJC
100
AcDbLine
 10
3023.054725952008
 20
2470.0
 30
0.0
 11
3635.0
 21
2470.0
 31
0.0
  0
LINE
  5
1C8CDE6A8EC4
330
1C8CDE699D53
100
AcDbEntity
  8
SJC
100
AcDbLine
 10
3635.0
 20
2620.0
 30
0.0
 11
3023.054725952008
 21
2620.0
 31
0.0
  0
LINE
  5
1C8CDE6A8EC5
330
1C8CDE699D53
100
AcDbEntity
  8
SJC
100
AcDbLine
 10
3008.054725952008
 20
2605.0
 30
0.0
 11
3008.054725952008
 21
2485.0
 31
0.0
  0
TEXT
  5
1C8CDE6A8EC6
330
1C8CDE699D53
100
AcDbEntity
  8
MOJI
100
AcDbText
 10
3038.990519568088
 20
2530.063834164814
 30
0.0
 40
30.0
  1
品　番
 41
0.8
  7
EXT08
100
AcDbText
  0
ARC
  5
1C8CDE6A8EC7
330
1C8CDE699D53
100
AcDbEntity
  8
SJC
100
AcDbCircle
 10
3023.054725952008
 20
2485.0
 30
0.0
 40
15.0
100
AcDbArc
 50
179.9999999999998
 51
270.0
  0
TEXT
  5
1C8CDE6A8EC8
330
1C8CDE699D53
100
AcDbEntity
  8
MOJI
100
AcDbText
 10
3028.938294113912
 20
2480.063834164814
 30
0.0
 40
30.0
  1
図面番号
 41
0.8
  7
EXT08
100
AcDbText
  0
TEXT
  5
1C8CDE6A8EC9
330
1C8CDE699D53
100
AcDbEntity
  8
MOJI
100
AcDbText
 10
3042.312968266521
 20
2580.063834164814
 30
0.0
 40
30.0
  1
タイプ
 41
0.8
  7
EXT08
100
AcDbText
  0
ARC
  5
1C8CDE6A8ECA
330
1C8CDE699D53
100
AcDbEntity
  8
SJC
100
AcDbCircle
 10
3023.054725952008
 20
2605.0
 30
0.0
 40
15.0
100
AcDbArc
 50
90.0
 51
179.9999999999998
  0
LINE
  5
1C8CDE6A8ECB
330
1C8CDE699D53
100
AcDbEntity
  8
SJC
100
AcDbLine
 10
3158.054725952008
 20
2620.0
 30
0.0
 11
3158.054725952008
 21
2470.0
 31
0.0
  0
TEXT
  5
1C8CDE6A8ECC
330
1C8CDE699D53
100
AcDbEntity
  8
MOJI
100
AcDbText
 10
3188.990519568088
 20
2480.063834164814
 30
0.0
 40
30.0
  1
KEKH00085※1
 41
0.8
  7
EXT08
100
AcDbText
  0
LINE
  5
1C8CDE6A8ECD
330
1C8CDE699D53
100
AcDbEntity
  8
SJC
100
AcDbLine
 10
3650.0
 20
2485.0
 30
0.0
 11
3650.0
 21
2605.0
 31
0.0
  0
ARC
  5
1C8CDE6A8ECE
330
1C8CDE699D53
100
AcDbEntity
  8
SJC
100
AcDbCircle
 10
3635.0
 20
2485.0
 30
0.0
 40
15.0
100
AcDbArc
 50
270.0
 51
0.0000000000000136
  0
ARC
  5
1C8CDE6A8ECF
330
1C8CDE699D53
100
AcDbEntity
  8
SJC
100
AcDbCircle
 10
3635.0
 20
2605.0
 30
0.0
 40
15.0
100
AcDbArc
 50
0.0
 51
90.0
  0
LWPOLYLINE
  5
1C8CDE6A8ED2
330
1C8CDE699D53
100
AcDbEntity
  8
HATCH
  6
Continuous
100
AcDbPolyline
 90
       16
 70
     1
 43
0.0
 10
1865.736946931164
 20
628.9595668915104
 42
0.138281
 10
1872.181021931163
 20
629.04347189151
 42
0.107061
 10
1879.426484931164
 20
633.0125028915105
 42
0.08054
 10
1884.994675931163
 20
639.6825678915107
 42
0.068375
 10
1888.957395931162
 20
649.0989358915109
 42
0.068375
 10
1890.233763931163
 20
659.2351098915102
 42
0.08054
 10
1888.746601931164
 20
667.7956508915109
 42
0.107061
 10
1884.456361931163
 20
674.8556648915106
 42
0.138281
 10
1878.917581931163
 20
678.1503658915104
 42
0.138281
 10
1872.473506931163
 20
678.0664608915109
 42
0.107061
 10
1865.228042931164
 20
674.0974298915103
 42
0.08054
 10
1859.659851931163
 20
667.4273648915101
 42
0.068375
 10
1855.697131931164
 20
658.01099689151
 42
0.068375
 10
1854.420764931163
 20
647.8748228915106
 42
0.08054
 10
1855.907926931164
 20
639.3142818915099
 42
0.107061
 10
1860.198166931163
 20
632.2542688915096
 42
0.138281
  0
LINE
  5
1C8CDE6A8EE4
330
1C8CDE699D53
100
AcDbEntity
  8
SJC
  6
Continuous
100
AcDbLine
 10
1924.523085554383
 20
628.5549668915107
 30
0.0
 11
1524.523085554384
 21
628.5549668915106
 31
0.0
  0
LINE
  5
1C8CDE6A8EE5
330
1C8CDE699D53
100
AcDbEntity
  8
SJC
  6
Continuous
100
AcDbLine
 10
1924.523085554383
 20
678.5549668915107
 30
0.0
 11
1524.523085554384
 21
678.5549668915106
 31
0.0
  0
LWPOLYLINE
  5
1C8CDE6A8EE6
330
1C8CDE699D53
100
AcDbEntity
  8
HATCH
  6
Continuous
100
AcDbPolyline
 90
       16
 70
     1
 43
0.0
 10
1536.968067969863
 20
628.9595668915104
 42
0.138281
 10
1543.412142969865
 20
629.04347189151
 42
0.107061
 10
1550.657606969864
 20
633.0125028915105
 42
0.08054
 10
1556.225797969864
 20
639.6825678915107
 42
0.068375
 10
1560.188517969864
 20
649.0989358915109
 42
0.068375
 10
1561.464884969864
 20
659.2351098915102
 42
0.08054
 10
1559.977722969865
 20
667.7956508915109
 42
0.107061
 10
1555.687482969865
 20
674.8556648915106
 42
0.138281
 10
1550.148702969864
 20
678.1503658915104
 42
0.138281
 10
1543.704627969865
 20
678.0664608915109
 42
0.107061
 10
1536.459164969865
 20
674.0974298915103
 42
0.08054
 10
1530.890973969863
 20
667.4273648915101
 42
0.068375
 10
1526.928253969864
 20
658.01099689151
 42
0.068375
 10
1525.651885969865
 20
647.8748228915106
 42
0.08054
 10
1527.139047969864
 20
639.3142818915099
 42
0.107061
 10
1531.429288969865
 20
632.2542688915096
 42
0.138281
  0
LWPOLYLINE
  5
1C8CDE6A8EF9
330
1C8CDE699D53
100
AcDbEntity
  8
HATCH
  6
Continuous
100
AcDbPolyline
 90
       16
 70
     1
 43
0.0
 10
1572.045770969864
 20
628.9595668915104
 42
0.138281
 10
1578.489845969865
 20
629.04347189151
 42
0.107061
 10
1585.735309969865
 20
633.0125028915105
 42
0.08054
 10
1591.303499969863
 20
639.6825678915107
 42
0.068375
 10
1595.266220969863
 20
649.0989358915109
 42
0.068375
 10
1596.542587969865
 20
659.2351098915102
 42
0.08054
 10
1595.055425969864
 20
667.7956508915109
 42
0.107061
 10
1590.765185969864
 20
674.8556648915106
 42
0.138281
 10
1585.226405969863
 20
678.1503658915104
 42
0.138281
 10
1578.782330969864
 20
678.0664608915109
 42
0.107061
 10
1571.536866969864
 20
674.0974298915103
 42
0.08054
 10
1565.968676969864
 20
667.4273648915101
 42
0.068375
 10
1562.005955969864
 20
658.01099689151
 42
0.068375
 10
1560.729588969864
 20
647.8748228915106
 42
0.08054
 10
1562.216750969865
 20
639.3142818915099
 42
0.107061
 10
1566.506990969864
 20
632.2542688915096
 42
0.138281
  0
LWPOLYLINE
  5
1C8CDE6A8F0B
330
1C8CDE699D53
100
AcDbEntity
  8
HATCH
  6
Continuous
100
AcDbPolyline
 90
       16
 70
     1
 43
0.0
 10
1607.123473969865
 20
628.9595668915104
 42
0.138281
 10
1613.567547969864
 20
629.04347189151
 42
0.107061
 10
1620.813011969864
 20
633.0125028915105
 42
0.08054
 10
1626.381202969864
 20
639.6825678915107
 42
0.068375
 10
1630.343922969865
 20
649.0989358915109
 42
0.068375
 10
1631.620290969864
 20
659.2351098915102
 42
0.08054
 10
1630.133127969864
 20
667.7956508915109
 42
0.107061
 10
1625.842887969864
 20
674.8556648915106
 42
0.138281
 10
1620.304108969864
 20
678.1503658915104
 42
0.138281
 10
1613.860033969865
 20
678.0664608915109
 42
0.107061
 10
1606.614569969865
 20
674.0974298915103
 42
0.08054
 10
1601.046378969865
 20
667.4273648915101
 42
0.068375
 10
1597.083658969865
 20
658.01099689151
 42
0.068375
 10
1595.807290969864
 20
647.8748228915106
 42
0.08054
 10
1597.294453969864
 20
639.3142818915099
 42
0.107061
 10
1601.584693969864
 20
632.2542688915096
 42
0.138281
  0
LWPOLYLINE
  5
1C8CDE6A8F1D
330
1C8CDE699D53
100
AcDbEntity
  8
HATCH
  6
Continuous
100
AcDbPolyline
 90
       16
 70
     1
 43
0.0
 10
1900.814648931164
 20
628.9595668915104
 42
0.138281
 10
1907.258723931164
 20
629.04347189151
 42
0.107061
 10
1914.504187931163
 20
633.0125028915105
 42
0.08054
 10
1920.072378931164
 20
639.6825678915107
 42
0.068375
 10
1924.035098931163
 20
649.0989358915109
 42
0.068375
 10
1925.311465931164
 20
659.2351098915102
 42
0.08054
 10
1923.824303931162
 20
667.7956508915109
 42
0.107061
 10
1919.534063931164
 20
674.8556648915106
 42
0.138281
 10
1913.995283931163
 20
678.1503658915104
 42
0.138281
 10
1907.551208931163
 20
678.0664608915109
 42
0.107061
 10
1900.305745931163
 20
674.0974298915103
 42
0.08054
 10
1894.737554931164
 20
667.4273648915101
 42
0.068375
 10
1890.774834931164
 20
658.01099689151
 42
0.068375
 10
1889.498466931164
 20
647.8748228915106
 42
0.08054
 10
1890.985628931163
 20
639.3142818915099
 42
0.107061
 10
1895.275868931163
 20
632.2542688915096
 42
0.138281
  0
LWPOLYLINE
  5
1C8CDE6A8F30
330
1C8CDE699D53
100
AcDbEntity
  8
HATCH
  6
Continuous
100
AcDbPolyline
 90
       16
 70
     1
 43
0.0
 10
1830.658946931163
 20
628.9595668915104
 42
0.138281
 10
1837.103021931163
 20
629.04347189151
 42
0.107061
 10
1844.348484931164
 20
633.0125028915105
 42
0.08054
 10
1849.916675931162
 20
639.6825678915107
 42
0.068375
 10
1853.879395931162
 20
649.0989358915109
 42
0.068375
 10
1855.155763931163
 20
659.2351098915102
 42
0.08054
 10
1853.668601931163
 20
667.7956508915109
 42
0.107061
 10
1849.378361931163
 20
674.8556648915106
 42
0.138281
 10
1843.839581931162
 20
678.1503658915104
 42
0.138281
 10
1837.395506931162
 20
678.0664608915109
 42
0.107061
 10
1830.150042931163
 20
674.0974298915103
 42
0.08054
 10
1824.581851931163
 20
667.4273648915101
 42
0.068375
 10
1820.619131931163
 20
658.01099689151
 42
0.068375
 10
1819.342764931163
 20
647.8748228915106
 42
0.08054
 10
1820.829926931164
 20
639.3142818915099
 42
0.107061
 10
1825.120166931163
 20
632.2542688915096
 42
0.138281
  0
LINE
  5
1C8CDE6A94F0
330
1C8CDE699D53
100
AcDbEntity
  8
SJC
100
AcDbLine
 10
1686.372214525001
 20
678.554966891511
 30
0.0
 11
1762.672214525002
 21
678.5549668915104
 31
0.0
  0
LINE
  5
1C8CDE6A966A
330
1C8CDE699D53
100
AcDbEntity
  8
SJC
100
AcDbLine
 10
1686.372214525005
 20
678.5549668915106
 30
0.0
 11
1762.672214525005
 21
678.5549668915101
 31
0.0
  0
LEADER
  5
1C8CDE6AB90F
330
1C8CDE699D53
100
AcDbEntity
  8
MOJI
100
AcDbLeader
  3
SJC
 76
     2
 10
1781.499555294711
 20
1547.865707306917
 30
0.0
 10
1874.099737540142
 20
1639.342508450701
 30
0.0
1001
ACAD
1000
DSTYLE
1002
{
1070
   140
1040
3.0
1070
   340
1005
1C8CDE699DA6
1070
    40
1040
10.0
1070
   147
1040
1.199999999999999
1070
    42
1040
1.0
1070
    44
1040
1.0
1070
    43
1040
6.0
1070
   271
1070
     2
1070
    41
1040
2.0
1002
}
  0
TEXT
  5
1C8CDE6AC2BF
330
1C8CDE699D53
100
AcDbEntity
  8
MOJI2
100
AcDbText
 10
1527.950785953574
 20
2419.333723648655
 30
0.0
 40
40.0
  1
CK-114HR-90K
 41
0.8
  7
EXT08
 72
     1
 11
1724.522214525003
 21
2419.333723648655
 31
0.0
100
AcDbText
  0
LINE
  5
1C8CDE6AC2C0
330
1C8CDE699D53
100
AcDbEntity
  8
MOJI2
100
AcDbLine
 10
1529.522214525003
 20
2408.497987530197
 30
0.0
 11
1919.522214525003
 21
2408.497987530197
 31
0.0
  0
LINE
  5
1C8CDE6AC2C1
330
1C8CDE699D53
100
AcDbEntity
  8
MOJI2
100
AcDbLine
 10
1529.522214525003
 20
2398.497987530194
 30
0.0
 11
1919.522214525003
 21
2398.497987530197
 31
0.0
  0
LINE
  5
1C8CDE6AC31E
330
1C8CDE699D53
100
AcDbEntity
  8
CENTER
100
AcDbLine
 10
1618.562613260934
 20
2211.498397732155
 30
0.0
 11
1830.481815789071
 21
2211.498397732155
 31
0.0
  0
LINE
  5
1C8CDE6AC320
330
1C8CDE699D53
100
AcDbEntity
  8
CENTER
100
AcDbLine
 10
1724.522214525003
 20
2105.538796468087
 30
0.0
 11
1724.522214525003
 21
2317.457998996224
 31
0.0
  0
POINT
  5
1C8CDE6AC321
330
1C8CDE699D53
100
AcDbEntity
  8
DEFPOINTS
  6
ByBlock
 62
     0
100
AcDbPoint
 10
1724.522214525003
 20
2211.498397732155
 30
0.0
  0
LINE
  5
1C8CDE6AC40C
102
{ACAD_REACTORS
330
1C8CDE6AC9C3
102
}
330
1C8CDE699D53
100
AcDbEntity
  8
SJC
100
AcDbLine
 10
1781.672214525
 20
1078.554966891511
 30
0.0
 11
2072.519810637199
 21
1078.554966891511
 31
0.0
  0
LINE
  5
1C8CDE6AC40D
102
{ACAD_REACTORS
330
1C8CDE6ACBF0
102
}
330
1C8CDE699D53
100
AcDbEntity
  8
CENTER
100
AcDbLine
 10
1724.522214525002
 20
2041.484808697354
 30
0.0
 11
1724.522214525
 21
678.5549668915102
 31
0.0
  0
LINE
  5
1C8CDE6AC415
102
{ACAD_REACTORS
330
1C8CDE6AC9C3
102
}
330
1C8CDE699D53
100
AcDbEntity
  8
SJC
100
AcDbLine
 10
1524.522214525002
 20
678.5549668915107
 30
0.0
 11
1924.522214525002
 21
678.5549668915107
 31
0.0
  0
LINE
  5
1C8CDE6AC416
102
{ACAD_REACTORS
330
1C8CDE6AC9C3
102
}
330
1C8CDE699D53
100
AcDbEntity
  8
SJC
100
AcDbLine
 10
1574.522214525002
 20
1078.554966891511
 30
0.0
 11
1574.522214525002
 21
678.5549668915107
 31
0.0
  0
LINE
  5
1C8CDE6AC417
102
{ACAD_REACTORS
330
1C8CDE6AC9C3
102
}
330
1C8CDE699D53
100
AcDbEntity
  8
SJC
100
AcDbLine
 10
1426.842983507925
 20
1078.554966891511
 30
0.0
 11
1667.372214525001
 21
1078.554966891511
 31
0.0
  0
TEXT
  5
1C8CDE6AC418
330
1C8CDE699D53
100
AcDbEntity
  8
MOJI
100
AcDbText
 10
1427.204003264276
 20
1091.778946893916
 30
0.0
 40
30.0
  1
GL
 41
0.8
  7
KANJI08
100
AcDbText
  0
LINE
  5
1C8CDE6AC419
102
{ACAD_REACTORS
330
1C8CDE6AC9C3
102
}
330
1C8CDE699D53
100
AcDbEntity
  8
SJC
100
AcDbLine
 10
1874.522214525002
 20
1078.554966891511
 30
0.0
 11
1874.522214525002
 21
678.5549668915107
 31
0.0
  0
LINE
  5
1C8CDE6AC47D
330
1C8CDE699D53
100
AcDbEntity
  8
SJC
  6
Continuous
100
AcDbLine
 10
1924.523085554383
 20
678.5549668915106
 30
0.0
 11
1924.523085554383
 21
628.5549668915106
 31
0.0
  0
LINE
  5
1C8CDE6AC47E
330
1C8CDE699D53
100
AcDbEntity
  8
SJC
  6
Continuous
100
AcDbLine
 10
1524.523085554384
 20
678.5549668915106
 30
0.0
 11
1524.523085554384
 21
628.5549668915106
 31
0.0
  0
MTEXT
  5
1C8CDE6AC4E4
330
1C8CDE699D53
100
AcDbEntity
  8
MOJI
100
AcDbMText
 10
1868.664176908256
 20
2065.508824343053
 30
0.0
 40
30.0
 41
0.8
 71
     7
 72
     1
  1
頭部キャップ
  7
EXT08
 73
     1
 44
1.0
1001
ACAD
1000
MTEXTBEGIN
1070
    73
1070
     1
1070
    44
1040
1.0
1070
    74
1070
     0
1000
MTEXTEND
  0
LINE
  5
1C8CDE6AC4E5
330
1C8CDE699D53
100
AcDbEntity
  8
MOJI
100
AcDbLine
 10
1860.85902426933
 20
2050.764895040556
 30
0.0
 11
2051.696061277903
 21
2050.764895040556
 31
0.0
  0
LEADER
  5
1C8CDE6AC4E6
330
1C8CDE699D53
100
AcDbEntity
  8
MOJI
100
AcDbLeader
  3
SJC
 76
     2
 10
1768.2588420239
 20
1959.288093896772
 30
0.0
 10
1860.85902426933
 20
2050.764895040556
 30
0.0
1001
ACAD
1000
DSTYLE
1002
{
1070
   140
1040
3.0
1070
   340
1005
1C8CDE699DA6
1070
    40
1040
10.0
1070
   147
1040
1.199999999999999
1070
    42
1040
1.0
1070
    44
1040
1.0
1070
    43
1040
6.0
1070
   271
1070
     2
1070
    41
1040
2.0
1002
}
  0
LINE
  5
1C8CDE6AC668
102
{ACAD_REACTORS
330
1C8CDE6AC9C3
102
}
330
1C8CDE699D53
100
AcDbEntity
  8
SJC
100
AcDbLine
 10
1781.672214525
 20
1755.09496689151
 30
0.0
 11
1781.672214525
 21
678.5549668915102
 31
0.0
  0
LINE
  5
1C8CDE6AC669
102
{ACAD_REACTORS
330
1C8CDE6AC9C3
102
}
330
1C8CDE699D53
100
AcDbEntity
  8
SJC
100
AcDbLine
 10
1667.372214525001
 20
1755.094966891511
 30
0.0
 11
1667.372214525001
 21
678.5549668915102
 31
0.0
  0
DIMENSION
  5
1C8CDE6AC745
330
1C8CDE699D53
100
AcDbEntity
  8
SUNPOU
100
AcDbDimension
  2
*D0
 10
1574.522214525002
 20
478.5549668915106
 30
0.0
 11
1724.522214525002
 21
505.5549668915106
 31
0.0
 70
    32
  1
□<>
 71
     5
 42
-1.0
  3
SJC
100
AcDbAlignedDimension
 13
1874.522214525002
 23
628.5549668915107
 33
0.0
 14
1574.522214525002
 24
628.5549668915107
 34
0.0
100
AcDbRotatedDimension
1001
ACAD
1000
DSTYLE
1002
{
1070
   140
1040
3.0
1070
   340
1005
1C8CDE699DA6
1070
    40
1040
10.0
1070
   147
1040
1.199999999999999
1070
    42
1040
1.0
1070
    44
1040
1.0
1070
    43
1040
6.0
1070
   271
1070
     2
1070
    41
1040
2.0
1002
}
  0
DIMENSION
  5
1C8CDE6AC752
330
1C8CDE699D53
100
AcDbEntity
  8
SUNPOU
100
AcDbDimension
  2
*D1
 10
1924.523085554383
 20
378.5549668915105
 30
0.0
 11
1724.523085554384
 21
405.5549668915104
 31
0.0
 70
    32
  1
□<>
 71
     5
 42
-1.0
  3
SJC
100
AcDbAlignedDimension
 13
1524.523085554384
 23
628.5549668915106
 33
0.0
 14
1924.523085554383
 24
628.5549668915107
 34
0.0
100
AcDbRotatedDimension
1001
ACAD
1000
DSTYLE
1002
{
1070
   140
1040
3.0
1070
   340
1005
1C8CDE699DA6
1070
    40
1040
10.0
1070
   147
1040
1.199999999999999
1070
    42
1040
1.0
1070
    44
1040
1.0
1070
    43
1040
6.0
1070
   271
1070
     2
1070
    41
1040
2.0
1002
}
  0
DIMENSION
  5
1C8CDE6AC969
330
1C8CDE699D53
100
AcDbEntity
  8
SUNPOU
100
AcDbDimension
  2
*D2
 10
1336.372266973402
 20
678.5549668915106
 30
0.0
 11
1309.372266973402
 21
878.5549668915107
 31
0.0
 70
    32
 71
     5
 42
-1.0
  3
SJC
100
AcDbAlignedDimension
 13
1416.842983507925
 23
1078.554966891511
 33
0.0
 14
1524.523085554384
 24
678.5549668915106
 34
0.0
 50
90.0
100
AcDbRotatedDimension
1001
ACAD
1000
DSTYLE
1002
{
1070
   140
1040
3.0
1070
   340
1005
1C8CDE699DA6
1070
    40
1040
10.0
1070
   147
1040
1.199999999999999
1070
    42
1040
1.0
1070
    44
1040
1.0
1070
    43
1040
6.0
1070
   271
1070
     2
1070
    41
1040
2.0
1002
}
  0
DIMENSION
  5
1C8CDE6AC978
330
1C8CDE699D53
100
AcDbEntity
  8
SUNPOU
100
AcDbDimension
  2
*D3
 10
1236.372266973402
 20
628.5549668915106
 30
0.0
 11
1193.372266973402
 21
653.5549668915107
 31
0.0
 70
    32
 71
     5
 42
-1.0
  3
SJC
100
AcDbAlignedDimension
 13
1524.523085554384
 23
678.5549668915107
 33
0.0
 14
1524.523085554384
 24
628.5549668915106
 34
0.0
 50
90.0
100
AcDbRotatedDimension
1001
ACAD
1000
DSTYLE
1002
{
1070
   140
1040
3.0
1070
   340
1005
1C8CDE699DA6
1070
    40
1040
10.0
1070
   147
1040
1.199999999999999
1070
    42
1040
1.0
1070
    44
1040
1.0
1070
    43
1040
6.0
1070
   271
1070
     2
1070
    41
1040
2.0
1002
}
  0
ARC
  5
1C8CDE6AC97D
330
1C8CDE699D53
100
AcDbEntity
  8
SJC
100
AcDbCircle
 10
1724.522214525003
 20
1920.854966891511
 30
0.0
 40
57.7
100
AcDbArc
 50
0.0
 51
180.0
  0
LINE
  5
1C8CDE6AC97E
330
1C8CDE699D53
100
AcDbEntity
  8
SJC
100
AcDbLine
 10
1666.822214525002
 20
1920.85496689151
 30
0.0
 11
1666.822214525003
 21
1879.554966891511
 31
0.0
  0
LINE
  5
1C8CDE6AC97F
330
1C8CDE699D53
100
AcDbEntity
  8
SJC
100
AcDbLine
 10
1782.222214525003
 20
1920.854966891511
 30
0.0
 11
1782.222214525003
 21
1879.554966891511
 31
0.0
  0
LINE
  5
1C8CDE6AC980
102
{ACAD_REACTORS
330
1C8CDE6ACBF0
102
}
330
1C8CDE699D53
100
AcDbEntity
  8
SJC
100
AcDbLine
 10
1781.222214525003
 20
1878.554966891511
 30
0.0
 11
1667.822214525002
 21
1878.554966891511
 31
0.0
  0
LINE
  5
1C8CDE6AC981
102
{ACAD_REACTORS
330
1C8CDE6ACBF0
102
}
330
1C8CDE699D53
100
AcDbEntity
  8
SJC
100
AcDbLine
 10
1779.672218730818
 20
1758.554966891511
 30
0.0
 11
1669.372210319185
 21
1758.554966891511
 31
0.0
  0
INSERT
  5
1C8CDE6AC9C3
330
1C8CDE699D53
100
AcDbEntity
  8
HATCH
100
AcDbBlockReference
  2
*X4
 10
0.0
 20
0.0
 30
0.0
1001
ACAD
1000
HATCH
1002
{
1070
    19
1000
PLAST
1040
10.0
1040
0.7853981633974483
1000
ASC_BOUNDS
1070
     2
1070
     1
1070
     4
1005
1C8CDE6AC417
1005
1C8CDE6AC416
1005
1C8CDE6AC415
1005
1C8CDE6AC669
1070
     1
1070
     4
1005
1C8CDE6AC40C
1005
1C8CDE6AC668
1005
1C8CDE6AC415
1005
1C8CDE6AC419
1000
ASC_SEEDPOINT
1011
1620.947214525001
1021
812.7241636287779
1031
0.0
1002
}
  0
LINE
  5
1C8CDE6AC9E8
102
{ACAD_REACTORS
330
1C8CDE6ACBF0
102
}
330
1C8CDE699D53
100
AcDbEntity
  8
SJC
100
AcDbLine
 10
1669.372214525002
 20
1878.554966891511
 30
0.0
 11
1669.372214525002
 21
1758.559068506649
 31
0.0
  0
LINE
  5
1C8CDE6AC9E9
102
{ACAD_REACTORS
330
1C8CDE6ACBF0
102
}
330
1C8CDE699D53
100
AcDbEntity
  8
SJC
100
AcDbLine
 10
1779.672214525002
 20
1878.55496689151
 30
0.0
 11
1779.672214525001
 21
1758.559068506648
 31
0.0
  0
LINE
  5
1C8CDE6AC9EC
330
1C8CDE699D53
100
AcDbEntity
  8
SJC
100
AcDbLine
 10
1666.822214525003
 20
1879.554966891511
 30
0.0
 11
1667.822214525002
 21
1878.554966891511
 31
0.0
  0
LINE
  5
1C8CDE6AC9EF
330
1C8CDE699D53
100
AcDbEntity
  8
SJC
100
AcDbLine
 10
1782.222214525003
 20
1879.554966891511
 30
0.0
 11
1781.222214525003
 21
1878.55496689151
 31
0.0
  0
LEADER
  5
1C8CDE6ACAE3
330
1C8CDE699D53
100
AcDbEntity
  8
MOJI
100
AcDbLeader
  3
SJC
 76
     2
 10
1780.279240065833
 20
1827.64535076037
 30
0.0
 10
1872.879422311264
 20
1919.122151904154
 30
0.0
1001
ACAD
1000
DSTYLE
1002
{
1070
   140
1040
3.0
1070
   340
1005
1C8CDE699DA6
1070
    40
1040
10.0
1070
   147
1040
1.199999999999999
1070
    42
1040
1.0
1070
    44
1040
1.0
1070
    43
1040
6.0
1070
   271
1070
     2
1070
    41
1040
2.0
1002
}
  0
MTEXT
  5
1C8CDE6ACAE4
330
1C8CDE699D53
100
AcDbEntity
  8
MOJI
100
AcDbMText
 10
1905.825101248629
 20
1918.932817281629
 30
0.0
 40
30.0
 41
0.8
 71
     7
 72
     1
  1
反射シート
  7
EXT08
 73
     1
 44
1.0
1001
ACAD
1000
MTEXTBEGIN
1070
    73
1070
     1
1070
    44
1040
1.0
1070
    74
1070
     0
1000
MTEXTEND
  0
LINE
  5
1C8CDE6ACAE5
330
1C8CDE699D53
100
AcDbEntity
  8
MOJI
100
AcDbLine
 10
1872.879422311264
 20
1919.122151904154
 30
0.0
 11
2070.64500714568
 21
1919.122151904154
 31
0.0
  0
MTEXT
  5
1C8CDE6ACAE9
330
1C8CDE699D53
100
AcDbEntity
  8
MOJI
100
AcDbMText
 10
1885.222616730247
 20
1870.930827677653
 30
0.0
 40
30.0
 41
0.8
 71
     7
 72
     1
  1
高輝度（赤色）
  7
EXT08
 73
     1
 44
1.0
1001
ACAD
1000
MTEXTBEGIN
1070
    73
1070
     1
1070
    44
1040
1.0
1070
    74
1070
     0
1000
MTEXTEND
  0
DIMENSION
  5
1C8CDE6ACAF7
330
1C8CDE699D53
100
AcDbEntity
  8
SUNPOU
100
AcDbDimension
  2
*D5
 10
1236.372266973402
 20
678.5549668915107
 30
0.0
 11
1209.372266973402
 21
1328.554966891511
 31
0.0
 70
    32
 71
     5
 42
-1.0
  3
SJC
100
AcDbAlignedDimension
 13
1724.522214525002
 23
1978.55496689151
 33
0.0
 14
1524.523085554384
 24
678.5549668915107
 34
0.0
 50
90.0
100
AcDbRotatedDimension
1001
ACAD
1000
DSTYLE
1002
{
1070
   140
1040
3.0
1070
   340
1005
1C8CDE699DA6
1070
    40
1040
10.0
1070
   147
1040
1.199999999999999
1070
    42
1040
1.0
1070
    44
1040
1.0
1070
    43
1040
6.0
1070
   271
1070
     2
1070
    41
1040
2.0
1002
}
  0
DIMENSION
  5
1C8CDE6ACB04
330
1C8CDE699D53
100
AcDbEntity
  8
SUNPOU
100
AcDbDimension
  2
*D6
 10
1336.372266973402
 20
1078.554966891511
 30
0.0
 11
1309.372266973402
 21
1528.554966891511
 31
0.0
 70
    32
 71
     5
 42
-1.0
  3
SJC
100
AcDbAlignedDimension
 13
1724.522214525002
 23
1978.55496689151
 33
0.0
 14
1426.842983507925
 24
1078.554966891511
 34
0.0
 50
90.0
100
AcDbRotatedDimension
1001
ACAD
1000
DSTYLE
1002
{
1070
   140
1040
3.0
1070
   340
1005
1C8CDE699DA6
1070
    40
1040
10.0
1070
   147
1040
1.199999999999999
1070
    42
1040
1.0
1070
    44
1040
1.0
1070
    43
1040
6.0
1070
   271
1070
     2
1070
    41
1040
2.0
1002
}
  0
DIMENSION
  5
1C8CDE6ACB13
330
1C8CDE699D53
100
AcDbEntity
  8
SUNPOU
100
AcDbDimension
  2
*D7
 10
1436.372266973402
 20
1878.554966891511
 30
0.0
 11
1393.372266973402
 21
1928.554966891511
 31
0.0
 70
    32
 71
     5
 42
-1.0
  3
SJC
100
AcDbAlignedDimension
 13
1724.522214525002
 23
1978.55496689151
 33
0.0
 14
1667.822214525002
 24
1878.554966891511
 34
0.0
 50
90.0
100
AcDbRotatedDimension
1001
ACAD
1000
DSTYLE
1002
{
1070
   140
1040
3.0
1070
   340
1005
1C8CDE699DA6
1070
    40
1040
10.0
1070
   147
1040
1.199999999999999
1070
    42
1040
1.0
1070
    44
1040
1.0
1070
    43
1040
6.0
1070
   271
1070
     2
1070
    41
1040
2.0
1002
}
  0
DIMENSION
  5
1C8CDE6ACB20
330
1C8CDE699D53
100
AcDbEntity
  8
SUNPOU
100
AcDbDimension
  2
*D8
 10
1436.372266973402
 20
1878.554966891511
 30
0.0
 11
1393.372266973402
 21
1818.554966891511
 31
0.0
 70
    32
 71
     5
 42
-1.0
  3
SJC
100
AcDbAlignedDimension
 13
1667.372214525001
 23
1758.554966891511
 33
0.0
 14
1667.822214525002
 24
1878.554966891511
 34
0.0
 50
90.0
100
AcDbRotatedDimension
1001
ACAD
1000
DSTYLE
1002
{
1070
   140
1040
3.0
1070
   340
1005
1C8CDE699DA6
1070
    40
1040
10.0
1070
   147
1040
1.199999999999999
1070
    42
1040
1.0
1070
    44
1040
1.0
1070
    43
1040
6.0
1070
   271
1070
     2
1070
    41
1040
2.0
1002
}
  0
ARC
  5
1C8CDE6ACB6E
102
{ACAD_REACTORS
330
1C8CDE6AC9C3
102
}
330
1C8CDE699D53
100
AcDbEntity
  8
SJC
100
AcDbCircle
 10
1779.672214525
 20
1755.09496689151
 30
0.0
 40
2.0
100
AcDbArc
 50
0.0
 51
59.99999999998492
  0
ARC
  5
1C8CDE6ACB6F
102
{ACAD_REACTORS
330
1C8CDE6AC9C3
102
}
330
1C8CDE699D53
100
AcDbEntity
  8
SJC
100
AcDbCircle
 10
1781.672214525002
 20
1758.559068506648
 30
0.0
 40
2.0
100
AcDbArc
 50
180.0
 51
239.9999999999793
  0
ARC
  5
1C8CDE6ACBE0
102
{ACAD_REACTORS
330
1C8CDE6AC9C3
102
}
330
1C8CDE699D53
100
AcDbEntity
  8
SJC
100
AcDbCircle
 10
1669.372214525001
 20
1755.094966891511
 30
0.0
 40
2.0
100
AcDbArc
 50
119.9999999999916
 51
180.0
  0
ARC
  5
1C8CDE6ACBE1
102
{ACAD_REACTORS
330
1C8CDE6AC9C3
102
}
330
1C8CDE699D53
100
AcDbEntity
  8
SJC
100
AcDbCircle
 10
1667.372214525002
 20
1758.559068506649
 30
0.0
 40
2.0
100
AcDbArc
 50
299.9999999999949
 51
0.0
  0
INSERT
  5
1C8CDE6ACBF0
330
1C8CDE699D53
100
AcDbEntity
  8
HATCH
100
AcDbBlockReference
  2
*X9
 10
0.0
 20
0.0
 30
0.0
1001
ACAD
1000
HATCH
1002
{
1070
    19
1000
ANSI31
1040
2.0
1040
0.0
1000
ASC_BOUNDS
1070
     2
1070
     1
1070
     4
1005
1C8CDE6AC980
1005
1C8CDE6AC9E8
1005
1C8CDE6AC981
1005
1C8CDE6AC40D
1070
     1
1070
     4
1005
1C8CDE6AC980
1005
1C8CDE6AC40D
1005
1C8CDE6AC981
1005
1C8CDE6AC9E9
1000
ASC_SEEDPOINT
1011
1696.947214525001
1021
1786.749775735693
1031
0.0
1002
}
  0
CIRCLE
  5
1C8CDE6ACC78
330
1C8CDE699D53
100
AcDbEntity
  8
SJC
100
AcDbCircle
 10
1724.522214525003
 20
2211.498397732155
 30
0.0
 40
57.7
  0
INSERT
  5
1C8CDE6ACD6A
330
1C8CDE699D53
100
AcDbEntity
  8
ZWAKU
100
AcDbBlockReference
  2
CALCOMP_TECHJET720A3
 10
0.0
 20
0.0
 30
0.0
 41
10.0
 42
10.0
 43
10.0
  0
TEXT
  5
1C8CDE6ACD6B
330
1C8CDE699D53
100
AcDbEntity
  8
INFORMATION
100
AcDbText
 10
1.0
 20
2.0
 30
0.0
 40
0.8
  1
PLOTTER=CALCOMP_TECHJET720
100
AcDbText
  0
TEXT
  5
1C8CDE6ACD6C
330
1C8CDE699D53
100
AcDbEntity
  8
INFORMATION
100
AcDbText
 10
1.0
 20
3.0
 30
0.0
 40
0.8
  1
PAPER=A3
100
AcDbText
  0
TEXT
  5
1C8CDE6ACD6D
330
1C8CDE699D53
100
AcDbEntity
  8
INFORMATION
100
AcDbText
 10
1.0
 20
1.0
 30
0.0
 40
0.8
  1
VERSION=3.0
100
AcDbText
  0
MTEXT
  5
1C8CDE6ACE05
102
{ACAD_XDICTIONARY
360
1C8CDE6ACE06
102
}
330
1C8CDE699D53
100
AcDbEntity
  8
MOJI
100
AcDbMText
 10
1944.21175112804
 20
1649.079083383174
 30
0.0
 40
30.0
 41
0.8
 71
     7
 72
     1
  1
支  柱\P
  7
EXT08
 73
     1
 44
1.0
1001
AcadAnnotative
1000
AnnotativeData
1002
{
1070
     1
1070
     0
1002
}
1001
ACAD
1000
MTEXTBEGIN
1070
    73
1070
     1
1070
    44
1040
1.0
1070
    74
1070
     0
1000
MTEXTEND
  0
LINE
  5
1C8CDE6ACE09
330
1C8CDE699D53
100
AcDbEntity
  8
MOJI
100
AcDbLine
 10
1874.099737540142
 20
1639.342508450701
 30
0.0
 11
2104.330732988699
 21
1639.342508450701
 31
0.0
  0
MTEXT
  5
1C8CDE6ACE0A
102
{ACAD_XDICTIONARY
360
1C8CDE6ACE0B
102
}
330
1C8CDE699D53
100
AcDbEntity
  8
MOJI
100
AcDbMText
 10
1881.01976382056
 20
1598.750674853615
 30
0.0
 40
30.0
 41
0.8
 71
     7
 72
     1
  1
%%C114.3\U+00D7t4.5
  7
EXT08
 73
     1
 44
1.0
1001
AcadAnnotative
1000
AnnotativeData
1002
{
1070
     1
1070
     0
1002
}
1001
ACAD
1000
MTEXTBEGIN
1070
    73
1070
     1
1070
    44
1040
1.0
1070
    74
1070
     0
1000
MTEXTEND
  0
LINE
  5
1C8CDE6ACE47
330
1C8CDE699D53
100
AcDbEntity
  8
MOJI
100
AcDbLine
 10
2502.258992549152
 20
639.6192635670921
 30
0.0
 11
3369.646888776506
 21
639.6192635670921
 31
0.0
  0
LINE
  5
1C8CDE6ACE48
330
1C8CDE699D53
100
AcDbEntity
  8
MOJI
100
AcDbLine
 10
2502.258992549152
 20
519.619263567092
 30
0.0
 11
3369.646888776506
 21
519.619263567092
 31
0.0
  0
LINE
  5
1C8CDE6ACE49
330
1C8CDE699D53
100
AcDbEntity
  8
MOJI
100
AcDbLine
 10
2899.981838624701
 20
639.6192635670921
 30
0.0
 11
2899.981838624702
 21
459.6192635670917
 31
0.0
  0
LINE
  5
1C8CDE6ACE4A
330
1C8CDE699D53
100
AcDbEntity
  8
MOJI
100
AcDbLine
 10
2502.258992549152
 20
639.6192635670921
 30
0.0
 11
2502.25899254915
 21
459.6192635670917
 31
0.0
  0
LINE
  5
1C8CDE6ACE4B
330
1C8CDE699D53
100
AcDbEntity
  8
MOJI
100
AcDbLine
 10
2696.794412539312
 20
639.6192635670921
 30
0.0
 11
2696.794412539311
 21
459.6192635670917
 31
0.0
  0
TEXT
  5
1C8CDE6ACE4C
330
1C8CDE699D53
100
AcDbEntity
  8
MOJI
100
AcDbText
 10
2555.906741294423
 20
594.6551564690679
 30
0.0
 40
30.0
  1
品  名
 41
0.8
  7
EXT08
 72
     1
 11
2597.106741294423
 21
594.6551564690679
 31
0.0
100
AcDbText
  0
TEXT
  5
1C8CDE6ACE4D
330
1C8CDE699D53
100
AcDbEntity
  8
MOJI
100
AcDbText
 10
2513.106741294423
 20
534.6551564690679
 30
0.0
 40
30.0
  1
頭部キャップ
 41
0.8
  7
EXT08
 72
     1
 11
2597.106741294423
 21
534.6551564690679
 31
0.0
100
AcDbText
  0
LINE
  5
1C8CDE6ACE4E
330
1C8CDE699D53
100
AcDbEntity
  8
MOJI
100
AcDbLine
 10
2502.258992549152
 20
579.6192635670921
 30
0.0
 11
3369.646888776506
 21
579.6192635670921
 31
0.0
  0
TEXT
  5
1C8CDE6ACE4F
330
1C8CDE699D53
100
AcDbEntity
  8
MOJI
100
AcDbText
 10
2757.894099128313
 20
594.6551564690679
 30
0.0
 40
30.0
  1
材  質
 41
0.8
  7
EXT08
 72
     1
 11
2799.094099128313
 21
594.6551564690679
 31
0.0
100
AcDbText
  0
TEXT
  5
1C8CDE6ACE50
330
1C8CDE699D53
100
AcDbEntity
  8
MOJI
100
AcDbText
 10
2751.094099128313
 20
534.6551564690679
 30
0.0
 40
30.0
  1
SGHC
 41
0.8
  7
EXT08
 72
     1
 11
2799.094099128313
 21
534.6551564690679
 31
0.0
100
AcDbText
  0
TEXT
  5
1C8CDE6ACE51
330
1C8CDE699D53
100
AcDbEntity
  8
MOJI
100
AcDbText
 10
3091.931901475595
 20
594.6551564690679
 30
0.0
 40
30.0
  1
摘  要
 41
0.8
  7
EXT08
 72
     1
 11
3132.731901475595
 21
594.6551564690679
 31
0.0
100
AcDbText
  0
TEXT
  5
1C8CDE6ACE52
330
1C8CDE699D53
100
AcDbEntity
  8
MOJI
100
AcDbText
 10
2962.331901475595
 20
534.6551564690679
 30
0.0
 40
30.0
  1
亜鉛めっき＋静電粉体塗装
 41
0.8
  7
EXT08
 72
     1
 11
3132.731901475595
 21
534.6551564690679
 31
0.0
100
AcDbText
  0
LINE
  5
1C8CDE6ACE53
330
1C8CDE699D53
100
AcDbEntity
  8
MOJI
100
AcDbLine
 10
3369.646888776506
 20
639.6192635670921
 30
0.0
 11
3369.646888776504
 21
459.6192635670917
 31
0.0
  0
LINE
  5
1C8CDE6ACE54
330
1C8CDE699D53
100
AcDbEntity
  8
MOJI
100
AcDbLine
 10
2502.258992549152
 20
459.6192635670919
 30
0.0
 11
3369.646888776505
 21
459.6192635670919
 31
0.0
  0
TEXT
  5
1C8CDE6ACE55
330
1C8CDE699D53
100
AcDbEntity
  8
MOJI
100
AcDbText
 10
2555.906741294423
 20
474.6551564690678
 30
0.0
 40
30.0
  1
支  柱
 41
0.8
  7
EXT08
 72
     1
 11
2597.106741294423
 21
474.6551564690678
 31
0.0
100
AcDbText
  0
TEXT
  5
1C8CDE6ACE56
330
1C8CDE699D53
100
AcDbEntity
  8
MOJI
100
AcDbText
 10
2918.274758618452
 20
474.6551564690678
 30
0.0
 40
30.0
  1
高耐食溶融めっき+静電粉体塗装
 41
0.8
  7
EXT08
 72
     1
 11
3132.731901475595
 21
474.6551564690678
 31
0.0
100
AcDbText
  0
TEXT
  5
1C8CDE6ACE57
330
1C8CDE699D53
100
AcDbEntity
  8
MOJI
100
AcDbText
 10
2705.722670556884
 20
474.6551564690678
 30
0.0
 40
30.0
  1
STK400相当
 41
0.8
  7
EXT08
 72
     1
 11
2799.094099128313
 21
474.6551564690678
 31
0.0
100
AcDbText
  0
ENDSEC
  0
SECTION
  2
OBJECTS
  0
DICTIONARY
  5
1C8CDE699D47
330
0
100
AcDbDictionary
281
     1
  3
ACAD_CIP_PREVIOUS_PRODUCT_INFO
350
1C8CDE6ACEC3
  3
ACAD_COLOR
350
1C8CDE6ACEBB
  3
ACAD_DETAILVIEWSTYLE
350
1C8CDE6ACEB8
  3
ACAD_GROUP
350
1C8CDE699D48
  3
ACAD_LAYOUT
350
1C8CDE6ACD0D
  3
ACAD_MATERIAL
350
1C8CDE6ACD10
  3
ACAD_MLEADERSTYLE
350
1C8CDE6ACD16
  3
ACAD_MLINESTYLE
350
1C8CDE699D49
  3
ACAD_PLOTSETTINGS
350
1C8CDE6ACCE8
  3
ACAD_PLOTSTYLENAME
350
1C8CDE6ACCE9
  3
ACAD_SCALELIST
350
1C8CDE6ACCEB
  3
ACAD_SECTIONVIEWSTYLE
350
1C8CDE6ACEB9
  3
ACAD_TABLESTYLE
350
1C8CDE6ACD14
  3
ACAD_VISUALSTYLE
350
1C8CDE6ACCC5
  3
ACDB_RECOMPOSE_DATA
350
1C8CDE6ACECC
  3
AcDbVariableDictionary
350
1C8CDE6ACD1A
  3
DWGPROPS
350
1C8CDE6ACECD
  0
DICTIONARY
  5
1C8CDE6ACE76
330
1C8CDE699D43
100
AcDbDictionary
280
     1
281
     1
  0
DICTIONARY
  5
1C8CDE6ACE06
330
1C8CDE6ACE05
100
AcDbDictionary
280
     1
281
     1
  3
AcDbContextDataManager
360
1C8CDE6ACE07
  0
DICTIONARY
  5
1C8CDE6ACE0B
330
1C8CDE6ACE0A
100
AcDbDictionary
280
     1
281
     1
  3
AcDbContextDataManager
360
1C8CDE6ACE0C
  0
XRECORD
  5
1C8CDE6ACEC3
102
{ACAD_REACTORS
330
1C8CDE699D47
102
}
330
1C8CDE699D47
100
AcDbXrecord
280
     1
300
ACD
300
2015
300
ACD_F_S
  0
DICTIONARY
  5
1C8CDE6ACEBB
102
{ACAD_REACTORS
330
1C8CDE699D47
102
}
330
1C8CDE699D47
100
AcDbDictionary
281
     1
  0
DICTIONARY
  5
1C8CDE6ACEB8
102
{ACAD_REACTORS
330
1C8CDE699D47
102
}
330
1C8CDE699D47
100
AcDbDictionary
281
     1
  3
Imperial24
350
1C8CDE6ACEBD
  0
DICTIONARY
  5
1C8CDE699D48
102
{ACAD_REACTORS
330
1C8CDE699D47
102
}
330
1C8CDE699D47
100
AcDbDictionary
281
     1
  0
DICTIONARY
  5
1C8CDE6ACD0D
102
{ACAD_REACTORS
330
1C8CDE699D47
102
}
330
1C8CDE699D47
100
AcDbDictionary
281
     1
  3
Layout1
350
1C8CDE6ACD0F
  3
Model
350
1C8CDE6ACD0E
  0
DICTIONARY
  5
1C8CDE6ACD10
102
{ACAD_REACTORS
330
1C8CDE699D47
102
}
330
1C8CDE699D47
100
AcDbDictionary
281
     1
  3
ByBlock
350
1C8CDE6ACD12
  3
ByLayer
350
1C8CDE6ACD11
  3
Global
350
1C8CDE6ACD13
  0
DICTIONARY
  5
1C8CDE6ACD16
102
{ACAD_REACTORS
330
1C8CDE699D47
102
}
330
1C8CDE699D47
100
AcDbDictionary
281
     1
  3
Standard
350
1C8CDE6ACD17
  0
DICTIONARY
  5
1C8CDE699D49
102
{ACAD_REACTORS
330
1C8CDE699D47
102
}
330
1C8CDE699D47
100
AcDbDictionary
281
     1
  3
STANDARD
350
1C8CDE699D56
  0
DICTIONARY
  5
1C8CDE6ACCE8
102
{ACAD_REACTORS
330
1C8CDE699D47
102
}
330
1C8CDE699D47
100
AcDbDictionary
281
     1
  0
ACDBDICTIONARYWDFLT
  5
1C8CDE6ACCE9
102
{ACAD_REACTORS
330
1C8CDE699D47
102
}
330
1C8CDE699D47
100
AcDbDictionary
281
     1
  3
Normal
350
1C8CDE6ACCEA
100
AcDbDictionaryWithDefault
340
1C8CDE6ACCEA
  0
DICTIONARY
  5
1C8CDE6ACCEB
102
{ACAD_REACTORS
330
1C8CDE699D47
102
}
330
1C8CDE699D47
100
AcDbDictionary
281
     1
  3
A0
350
1C8CDE6ACCEC
  3
A1
350
1C8CDE6ACCED
  3
A2
350
1C8CDE6ACCEE
  3
A3
350
1C8CDE6ACCEF
  3
A4
350
1C8CDE6ACCF0
  3
A5
350
1C8CDE6ACCF1
  3
A6
350
1C8CDE6ACCF2
  3
A7
350
1C8CDE6ACCF3
  3
A8
350
1C8CDE6ACCF4
  3
A9
350
1C8CDE6ACCF5
  3
B0
350
1C8CDE6ACCF6
  3
B1
350
1C8CDE6ACCF7
  3
B2
350
1C8CDE6ACCF8
  3
B3
350
1C8CDE6ACCF9
  3
B4
350
1C8CDE6ACCFA
  3
B5
350
1C8CDE6ACCFB
  3
B6
350
1C8CDE6ACCFC
  3
B7
350
1C8CDE6ACCFD
  3
B8
350
1C8CDE6ACCFE
  3
B9
350
1C8CDE6ACCFF
  3
C0
350
1C8CDE6ACD00
  3
C1
350
1C8CDE6ACD01
  3
C2
350
1C8CDE6ACD02
  3
C3
350
1C8CDE6ACD03
  3
C4
350
1C8CDE6ACD04
  3
C5
350
1C8CDE6ACD05
  3
C6
350
1C8CDE6ACD06
  3
C7
350
1C8CDE6ACD07
  3
C8
350
1C8CDE6ACD08
  3
C9
350
1C8CDE6ACD09
  3
D0
350
1C8CDE6ACD0A
  3
D1
350
1C8CDE6ACD0B
  3
D2
350
1C8CDE6ACD0C
  0
DICTIONARY
  5
1C8CDE6ACEB9
102
{ACAD_REACTORS
330
1C8CDE699D47
102
}
330
1C8CDE699D47
100
AcDbDictionary
281
     1
  3
Imperial24
350
1C8CDE6ACEBC
  0
DICTIONARY
  5
1C8CDE6ACD14
102
{ACAD_REACTORS
330
1C8CDE699D47
102
}
330
1C8CDE699D47
100
AcDbDictionary
281
     1
  3
Standard
350
1C8CDE6ACD15
  0
DICTIONARY
  5
1C8CDE6ACCC5
102
{ACAD_REACTORS
330
1C8CDE699D47
102
}
330
1C8CDE699D47
100
AcDbDictionary
281
     1
  3
2dWireframe
350
1C8CDE6ACCCA
  3
Basic
350
1C8CDE6ACCCD
  3
Brighten
350
1C8CDE6ACCD1
  3
ColorChange
350
1C8CDE6ACCD5
  3
Conceptual
350
1C8CDE6ACCCF
  3
Dim
350
1C8CDE6ACCD0
  3
EdgeColorOff
350
1C8CDE6ACCD8
  3
Facepattern
350
1C8CDE6ACCD4
  3
Flat
350
1C8CDE6ACCC6
  3
FlatWithEdges
350
1C8CDE6ACCC7
  3
Gouraud
350
1C8CDE6ACCC8
  3
GouraudWithEdges
350
1C8CDE6ACCC9
  3
Hidden
350
1C8CDE6ACCCC
  3
JitterOff
350
1C8CDE6ACCD6
  3
Linepattern
350
1C8CDE6ACCD3
  3
Modeling
350
1C8CDE6ACD18
  3
OverhangOff
350
1C8CDE6ACCD7
  3
Realistic
350
1C8CDE6ACCCE
  3
Shaded
350
1C8CDE6ACCDD
  3
Shaded with edges
350
1C8CDE6ACCDC
  3
Shades of Gray
350
1C8CDE6ACCD9
  3
Sketchy
350
1C8CDE6ACCDA
  3
Thicken
350
1C8CDE6ACCD2
  3
Wireframe
350
1C8CDE6ACCCB
  3
X-Ray
350
1C8CDE6ACCDB
  0
XRECORD
  5
1C8CDE6ACECC
102
{ACAD_REACTORS
330
1C8CDE699D47
102
}
330
1C8CDE699D47
100
AcDbXrecord
280
     1
 90
        1
330
1C8CDE6ACD15
  0
DICTIONARY
  5
1C8CDE6ACD1A
102
{ACAD_REACTORS
330
1C8CDE699D47
102
}
330
1C8CDE699D47
100
AcDbDictionary
281
     1
  3
CANNOSCALE
350
1C8CDE6ACE78
  3
CMLEADERSTYLE
350
1C8CDE6ACD1D
  3
CTABLESTYLE
350
1C8CDE6ACD1C
  3
CVIEWDETAILSTYLE
350
1C8CDE6ACEC5
  3
CVIEWSECTIONSTYLE
350
1C8CDE6ACEC6
  3
DIMASSOC
350
1C8CDE6ACD6E
  3
HIDETEXT
350
1C8CDE6ACD6F
  3
INDEXCTL
350
1C8CDE6ACEC8
  3
MSLTSCALE
350
1C8CDE6ACD1E
  3
SORTENTS
350
1C8CDE6ACEC7
  3
XCLIPFRAME
350
1C8CDE6ACEC9
  0
XRECORD
  5
1C8CDE6ACECD
102
{ACAD_REACTORS
330
1C8CDE699D47
102
}
330
1C8CDE699D47
100
AcDbXrecord
280
     1
  1
DWGPROPS COOKIE
  2

  3

  4

  6

  7

  8
SK000184
  9

300
=
301
=
302
=
303
=
304
=
305
=
306
=
307
=
308
=
309
=
 40
0.7265532175925927
 41
2450469.922535764
 42
2458985.565758253
  1

 90
        0
  0
DICTIONARY
  5
1C8CDE6ACE07
102
{ACAD_REACTORS
330
1C8CDE6ACE06
102
}
330
1C8CDE6ACE06
100
AcDbDictionary
281
     1
  3
ACDB_ANNOTATIONSCALES
350
1C8CDE6ACE08
  0
DICTIONARY
  5
1C8CDE6ACE0C
102
{ACAD_REACTORS
330
1C8CDE6ACE0B
102
}
330
1C8CDE6ACE0B
100
AcDbDictionary
281
     1
  3
ACDB_ANNOTATIONSCALES
350
1C8CDE6ACE0D
  0
ACDBDETAILVIEWSTYLE
  5
1C8CDE6ACEBD
102
{ACAD_XDICTIONARY
360
1C8CDE6ACF0D
102
}
102
{ACAD_REACTORS
330
1C8CDE6ACEB8
102
}
330
1C8CDE6ACEB8
100
AcDbModelDocViewStyle
 70
     0
  3
Imperial24
290
     0
100
AcDbDetailViewStyle
 70
     0
 71
     0
 90
        3
 71
     1
340
1C8CDE699D4B
 40
0.24
340
0
 40
0.24
300

 40
0.36
280
     3
 71
     2
340
1C8CDE699D4F
 90
       25
 71
     3
340
1C8CDE699D4B
 40
0.24
 90
        1
 40
0.75
 90
        1
300
%<\AcVar ViewType \f "%tc1">% %<\AcVar ViewDetailId>%\PSCALE %<\AcVar ViewScale \f "%sn">%
 71
     4
340
1C8CDE699D4F
 90
       25
340
1C8CDE699D4F
 90
       25
280
     0
  0
LAYOUT
  5
1C8CDE6ACD0F
102
{ACAD_XDICTIONARY
360
1C8CDE6ACF00
102
}
102
{ACAD_REACTORS
330
1C8CDE6ACD0D
102
}
330
1C8CDE6ACD0D
100
AcDbPlotSettings
  1

  2
none_device
  4

  6

 40
0.0
 41
0.0
 42
0.0
 43
0.0
 44
0.0
 45
0.0
 46
0.0
 47
0.0
 48
0.0
 49
0.0
140
0.0
141
0.0
142
1.0
143
1.0
 70
   688
 72
     0
 73
     0
 74
     5
  7

 75
    16
147
1.0
148
0.0
149
0.0
100
AcDbLayout
  1
Layout1
 70
     0
 71
     1
 10
0.0
 20
0.0
 11
12.0
 21
9.0
 12
0.0
 22
0.0
 32
0.0
 14
1.000000000000000E+20
 24
1.000000000000000E+20
 34
1.000000000000000E+20
 15
-1.000000000000000E+20
 25
-1.000000000000000E+20
 35
-1.000000000000000E+20
146
0.0
 13
0.0
 23
0.0
 33
0.0
 16
1.0
 26
0.0
 36
0.0
 17
0.0
 27
1.0
 37
0.0
 76
     0
330
1C8CDE699D50
  0
LAYOUT
  5
1C8CDE6ACD0E
102
{ACAD_XDICTIONARY
360
1C8CDE6ACEFE
102
}
102
{ACAD_REACTORS
330
1C8CDE6ACD0D
102
}
330
1C8CDE6ACD0D
100
AcDbPlotSettings
  1

  2
CNSAcrobat PDFWriter6.pc3
  4
UserDefinedMetric (168.00 X 118.00ミリ)
  6

 40
3.200000047683715
 41
3.200000047683715
 42
3.199996948242187
 43
3.199996948242187
 44
168.0
 45
118.0
 46
0.0
 47
0.0
 48
0.0
 49
0.0
140
3700.0
141
2670.0
142
1.0
143
675.9677237396314
 70
  3760
 72
     0
 73
     0
 74
     2
  7
CALCOMP_TECHJET720.ctb
 75
     0
147
0.0014793605743004
148
0.0
149
0.0
100
AcDbLayout
  1
Model
 70
     1
 71
     0
 10
0.0
 20
0.0
 11
4200.0
 21
2970.0
 12
0.0
 22
0.0
 32
0.0
 14
0.0
 24
0.0
 34
0.0
 15
3700.0
 25
2670.0
 35
0.0
146
0.0
 13
0.0
 23
0.0
 33
0.0
 16
1.0
 26
0.0
 36
0.0
 17
0.0
 27
1.0
 37
0.0
 76
     0
330
1C8CDE699D53
1001
ACAD_PSEXT
1000
CNSAcrobat PDFWriter6.pc3
1000
DWG To PDF
1000
ファイル
1000

1070
     0
  0
MATERIAL
  5
1C8CDE6ACD12
102
{ACAD_XDICTIONARY
360
1C8CDE6ACF04
102
}
102
{ACAD_REACTORS
330
1C8CDE6ACD10
102
}
330
1C8CDE6ACD10
100
AcDbMaterial
  1
ByBlock
 73
     1
 78
     1
172
     1
176
     1
270
     1
274
     1
  0
MATERIAL
  5
1C8CDE6ACD11
102
{ACAD_XDICTIONARY
360
1C8CDE6ACF02
102
}
102
{ACAD_REACTORS
330
1C8CDE6ACD10
102
}
330
1C8CDE6ACD10
100
AcDbMaterial
  1
ByLayer
 73
     1
 78
     1
172
     1
176
     1
270
     1
274
     1
  0
MATERIAL
  5
1C8CDE6ACD13
102
{ACAD_XDICTIONARY
360
1C8CDE6ACF06
102
}
102
{ACAD_REACTORS
330
1C8CDE6ACD10
102
}
330
1C8CDE6ACD10
100
AcDbMaterial
  1
Global
 73
     1
 78
     1
172
     1
176
     1
270
     1
274
     1
  0
MLEADERSTYLE
  5
1C8CDE6ACD17
102
{ACAD_REACTORS
330
1C8CDE6ACD16
102
}
330
1C8CDE6ACD16
100
AcDbMLeaderStyle
170
     2
171
     1
172
     0
 90
        2
 40
0.0
 41
0.0
173
     1
 91
-1056964608
340
1C8CDE699D4D
 92
       -2
290
     1
 42
0.09
291
     1
 43
0.36
  3
Standard
 44
0.18
300

342
1C8CDE699D4B
174
     1
178
     6
175
     1
176
     0
 93
-1056964608
 45
0.18
292
     0
297
     0
 46
0.18
 94
-1056964608
 47
1.0
 49
1.0
140
1.0
293
     1
141
0.0
294
     1
177
     0
142
1.0
295
     0
296
     0
143
0.125
1001
ACAD_MLEADERVER
1070
     2
  0
MLINESTYLE
  5
1C8CDE699D56
102
{ACAD_REACTORS
330
1C8CDE699D49
102
}
330
1C8CDE699D49
100
AcDbMlineStyle
  2
STANDARD
 70
     0
  3

 62
     0
 51
90.0
 52
90.0
 71
     2
 49
0.5
 62
   256
  6
BYLAYER
 49
-0.5
 62
   256
  6
BYLAYER
  0
ACDBPLACEHOLDER
  5
1C8CDE6ACCEA
102
{ACAD_REACTORS
330
1C8CDE6ACCE9
102
}
330
1C8CDE6ACCE9
  0
SCALE
  5
1C8CDE6ACCEC
102
{ACAD_REACTORS
330
1C8CDE6ACCEB
102
}
330
1C8CDE6ACCEB
100
AcDbScale
 70
     0
300
1:1
140
1.0
141
1.0
290
     1
  0
SCALE
  5
1C8CDE6ACCED
102
{ACAD_REACTORS
330
1C8CDE6ACCEB
102
}
330
1C8CDE6ACCEB
100
AcDbScale
 70
     0
300
1:2
140
1.0
141
2.0
290
     0
  0
SCALE
  5
1C8CDE6ACCEE
102
{ACAD_REACTORS
330
1C8CDE6ACCEB
102
}
330
1C8CDE6ACCEB
100
AcDbScale
 70
     0
300
1:4
140
1.0
141
4.0
290
     0
  0
SCALE
  5
1C8CDE6ACCEF
102
{ACAD_REACTORS
330
1C8CDE6ACCEB
102
}
330
1C8CDE6ACCEB
100
AcDbScale
 70
     0
300
1:5
140
1.0
141
5.0
290
     0
  0
SCALE
  5
1C8CDE6ACCF0
102
{ACAD_REACTORS
330
1C8CDE6ACCEB
102
}
330
1C8CDE6ACCEB
100
AcDbScale
 70
     0
300
1:8
140
1.0
141
8.0
290
     0
  0
SCALE
  5
1C8CDE6ACCF1
102
{ACAD_REACTORS
330
1C8CDE6ACCEB
102
}
330
1C8CDE6ACCEB
100
AcDbScale
 70
     0
300
1:10
140
1.0
141
10.0
290
     0
  0
SCALE
  5
1C8CDE6ACCF2
102
{ACAD_REACTORS
330
1C8CDE6ACCEB
102
}
330
1C8CDE6ACCEB
100
AcDbScale
 70
     0
300
1:16
140
1.0
141
16.0
290
     0
  0
SCALE
  5
1C8CDE6ACCF3
102
{ACAD_REACTORS
330
1C8CDE6ACCEB
102
}
330
1C8CDE6ACCEB
100
AcDbScale
 70
     0
300
1:20
140
1.0
141
20.0
290
     0
  0
SCALE
  5
1C8CDE6ACCF4
102
{ACAD_REACTORS
330
1C8CDE6ACCEB
102
}
330
1C8CDE6ACCEB
100
AcDbScale
 70
     0
300
1:30
140
1.0
141
30.0
290
     0
  0
SCALE
  5
1C8CDE6ACCF5
102
{ACAD_REACTORS
330
1C8CDE6ACCEB
102
}
330
1C8CDE6ACCEB
100
AcDbScale
 70
     0
300
1:40
140
1.0
141
40.0
290
     0
  0
SCALE
  5
1C8CDE6ACCF6
102
{ACAD_REACTORS
330
1C8CDE6ACCEB
102
}
330
1C8CDE6ACCEB
100
AcDbScale
 70
     0
300
1:50
140
1.0
141
50.0
290
     0
  0
SCALE
  5
1C8CDE6ACCF7
102
{ACAD_REACTORS
330
1C8CDE6ACCEB
102
}
330
1C8CDE6ACCEB
100
AcDbScale
 70
     0
300
1:100
140
1.0
141
100.0
290
     0
  0
SCALE
  5
1C8CDE6ACCF8
102
{ACAD_REACTORS
330
1C8CDE6ACCEB
102
}
330
1C8CDE6ACCEB
100
AcDbScale
 70
     0
300
2:1
140
2.0
141
1.0
290
     0
  0
SCALE
  5
1C8CDE6ACCF9
102
{ACAD_REACTORS
330
1C8CDE6ACCEB
102
}
330
1C8CDE6ACCEB
100
AcDbScale
 70
     0
300
4:1
140
4.0
141
1.0
290
     0
  0
SCALE
  5
1C8CDE6ACCFA
102
{ACAD_REACTORS
330
1C8CDE6ACCEB
102
}
330
1C8CDE6ACCEB
100
AcDbScale
 70
     0
300
8:1
140
8.0
141
1.0
290
     0
  0
SCALE
  5
1C8CDE6ACCFB
102
{ACAD_REACTORS
330
1C8CDE6ACCEB
102
}
330
1C8CDE6ACCEB
100
AcDbScale
 70
     0
300
10:1
140
10.0
141
1.0
290
     0
  0
SCALE
  5
1C8CDE6ACCFC
102
{ACAD_REACTORS
330
1C8CDE6ACCEB
102
}
330
1C8CDE6ACCEB
100
AcDbScale
 70
     0
300
100:1
140
100.0
141
1.0
290
     0
  0
SCALE
  5
1C8CDE6ACCFD
102
{ACAD_REACTORS
330
1C8CDE6ACCEB
102
}
330
1C8CDE6ACCEB
100
AcDbScale
 70
     0
300
1/128" = 1'-0"
140
0.0078125
141
12.0
290
     0
  0
SCALE
  5
1C8CDE6ACCFE
102
{ACAD_REACTORS
330
1C8CDE6ACCEB
102
}
330
1C8CDE6ACCEB
100
AcDbScale
 70
     0
300
1/64" = 1'-0"
140
0.015625
141
12.0
290
     0
  0
SCALE
  5
1C8CDE6ACCFF
102
{ACAD_REACTORS
330
1C8CDE6ACCEB
102
}
330
1C8CDE6ACCEB
100
AcDbScale
 70
     0
300
1/32" = 1'-0"
140
0.03125
141
12.0
290
     0
  0
SCALE
  5
1C8CDE6ACD00
102
{ACAD_REACTORS
330
1C8CDE6ACCEB
102
}
330
1C8CDE6ACCEB
100
AcDbScale
 70
     0
300
1/16" = 1'-0"
140
0.0625
141
12.0
290
     0
  0
SCALE
  5
1C8CDE6ACD01
102
{ACAD_REACTORS
330
1C8CDE6ACCEB
102
}
330
1C8CDE6ACCEB
100
AcDbScale
 70
     0
300
3/32" = 1'-0"
140
0.09375
141
12.0
290
     0
  0
SCALE
  5
1C8CDE6ACD02
102
{ACAD_REACTORS
330
1C8CDE6ACCEB
102
}
330
1C8CDE6ACCEB
100
AcDbScale
 70
     0
300
1/8" = 1'-0"
140
0.125
141
12.0
290
     0
  0
SCALE
  5
1C8CDE6ACD03
102
{ACAD_REACTORS
330
1C8CDE6ACCEB
102
}
330
1C8CDE6ACCEB
100
AcDbScale
 70
     0
300
3/16" = 1'-0"
140
0.1875
141
12.0
290
     0
  0
SCALE
  5
1C8CDE6ACD04
102
{ACAD_REACTORS
330
1C8CDE6ACCEB
102
}
330
1C8CDE6ACCEB
100
AcDbScale
 70
     0
300
1/4" = 1'-0"
140
0.25
141
12.0
290
     0
  0
SCALE
  5
1C8CDE6ACD05
102
{ACAD_REACTORS
330
1C8CDE6ACCEB
102
}
330
1C8CDE6ACCEB
100
AcDbScale
 70
     0
300
3/8" = 1'-0"
140
0.375
141
12.0
290
     0
  0
SCALE
  5
1C8CDE6ACD06
102
{ACAD_REACTORS
330
1C8CDE6ACCEB
102
}
330
1C8CDE6ACCEB
100
AcDbScale
 70
     0
300
1/2" = 1'-0"
140
0.5
141
12.0
290
     0
  0
SCALE
  5
1C8CDE6ACD07
102
{ACAD_REACTORS
330
1C8CDE6ACCEB
102
}
330
1C8CDE6ACCEB
100
AcDbScale
 70
     0
300
3/4" = 1'-0"
140
0.75
141
12.0
290
     0
  0
SCALE
  5
1C8CDE6ACD08
102
{ACAD_REACTORS
330
1C8CDE6ACCEB
102
}
330
1C8CDE6ACCEB
100
AcDbScale
 70
     0
300
1" = 1'-0"
140
1.0
141
12.0
290
     0
  0
SCALE
  5
1C8CDE6ACD09
102
{ACAD_REACTORS
330
1C8CDE6ACCEB
102
}
330
1C8CDE6ACCEB
100
AcDbScale
 70
     0
300
1-1/2" = 1'-0"
140
1.5
141
12.0
290
     0
  0
SCALE
  5
1C8CDE6ACD0A
102
{ACAD_REACTORS
330
1C8CDE6ACCEB
102
}
330
1C8CDE6ACCEB
100
AcDbScale
 70
     0
300
3" = 1'-0"
140
3.0
141
12.0
290
     0
  0
SCALE
  5
1C8CDE6ACD0B
102
{ACAD_REACTORS
330
1C8CDE6ACCEB
102
}
330
1C8CDE6ACCEB
100
AcDbScale
 70
     0
300
6" = 1'-0"
140
6.0
141
12.0
290
     0
  0
SCALE
  5
1C8CDE6ACD0C
102
{ACAD_REACTORS
330
1C8CDE6ACCEB
102
}
330
1C8CDE6ACCEB
100
AcDbScale
 70
     0
300
1'-0" = 1'-0"
140
12.0
141
12.0
290
     0
  0
ACDBSECTIONVIEWSTYLE
  5
1C8CDE6ACEBC
102
{ACAD_XDICTIONARY
360
1C8CDE6ACF0B
102
}
102
{ACAD_REACTORS
330
1C8CDE6ACEB9
102
}
330
1C8CDE6ACEB9
100
AcDbModelDocViewStyle
 70
     0
  3
Imperial24
290
     0
100
AcDbSectionViewStyle
 70
     0
 71
     0
 90
       78
 71
     1
340
1C8CDE699D4B
 40
0.24
340
0
340
0
 40
0.24
300
I, O, Q, S, X, Z
 40
0.48
 90
        3
 40
0.18
 90
        1
 71
     2
340
1C8CDE699D4F
 90
       25
340
1C8CDE699D4F
 90
       50
 40
0.24
 40
0.0
 40
0.24
 71
     3
340
1C8CDE699D4B
 40
0.24
 90
        1
 40
0.75
 90
        1
300
%<\AcVar ViewType \f "%tc1">% %<\AcVar ViewSectionStartId>%-%<\AcVar ViewSectionEndId>%\PSCALE %<\AcVar ViewScale \f "%sn">%
 71
     4
300
ANSI31
 40
1.0
 90
        0
290
     0
290
     0
 90
        6
 40
0.0
 40
1.570796326794896
 40
0.2617993877991494
 40
1.308996938995747
 40
-0.2617993877991494
 40
1.832595714594046
  0
TABLESTYLE
  5
1C8CDE6ACD15
102
{ACAD_XDICTIONARY
360
1C8CDE6ACEB2
102
}
102
{ACAD_REACTORS
330
1C8CDE6ACD14
102
}
330
1C8CDE6ACD14
100
AcDbTableStyle
  3
Standard
 70
     0
 71
     0
 40
0.06
 41
0.06
280
     0
281
     0
  7
STANDARD
140
0.18
170
     2
 62
     0
 63
     7
283
     0
274
    -2
284
     1
 64
     0
275
    -2
285
     1
 65
     0
276
    -2
286
     1
 66
     0
277
    -2
287
     1
 67
     0
278
    -2
288
     1
 68
     0
279
    -2
289
     1
 69
     0
  7
STANDARD
140
0.25
170
     5
 62
     0
 63
     7
283
     0
274
    -2
284
     1
 64
     0
275
    -2
285
     1
 65
     0
276
    -2
286
     1
 66
     0
277
    -2
287
     1
 67
     0
278
    -2
288
     1
 68
     0
279
    -2
289
     1
 69
     0
  7
STANDARD
140
0.18
170
     5
 62
     0
 63
     7
283
     0
274
    -2
284
     1
 64
     0
275
    -2
285
     1
 65
     0
276
    -2
286
     1
 66
     0
277
    -2
287
     1
 67
     0
278
    -2
288
     1
 68
     0
279
    -2
289
     1
 69
     0
  0
VISUALSTYLE
  5
1C8CDE6ACCCA
102
{ACAD_XDICTIONARY
360
1C8CDE6ACED6
102
}
102
{ACAD_REACTORS
330
1C8CDE6ACCC5
102
}
330
1C8CDE6ACCC5
100
AcDbVisualStyle
  2
2dWireframe
 70
     4
 71
     0
 72
     2
 73
     0
 90
        0
 40
-0.6
 41
-30.0
 62
     5
 63
     7
 74
     1
 91
        4
 64
     7
 65
   257
 75
     1
175
     1
 42
1.0
 92
        0
 66
   257
 43
1.0
 76
     1
 77
     6
 78
     2
 67
     7
 79
     5
170
     0
171
     0
290
     0
174
     0
 93
        1
 44
0.0
173
     0
291
     0
 45
0.0
1001
ACAD
1000
AcDbSavedByObjectVersion
1070
     0
  0
VISUALSTYLE
  5
1C8CDE6ACCCD
102
{ACAD_XDICTIONARY
360
1C8CDE6ACEDC
102
}
102
{ACAD_REACTORS
330
1C8CDE6ACCC5
102
}
330
1C8CDE6ACCC5
100
AcDbVisualStyle
  2
Basic
 70
     7
 71
     1
 72
     0
 73
     1
 90
        0
 40
-0.6
 41
-30.0
 62
     5
 63
     7
 74
     0
 91
        4
 64
     7
 65
   257
 75
     1
175
     1
 42
1.0
 92
        8
 66
     7
 43
1.0
 76
     1
 77
     6
 78
     2
 67
     7
 79
     5
170
     0
171
     0
290
     0
174
     0
 93
        1
 44
0.0
173
     0
291
     1
 45
0.0
1001
ACAD
1000
AcDbSavedByObjectVersion
1070
     0
  0
VISUALSTYLE
  5
1C8CDE6ACCD1
102
{ACAD_XDICTIONARY
360
1C8CDE6ACEE4
102
}
102
{ACAD_REACTORS
330
1C8CDE6ACCC5
102
}
330
1C8CDE6ACCC5
100
AcDbVisualStyle
  2
Brighten
 70
    12
 71
     2
 72
     2
 73
     0
 90
        0
 40
-0.6
 41
-30.0
 62
     5
 63
     7
 74
     1
 91
        4
 64
     7
 65
   257
 75
     1
175
     1
 42
1.0
 92
        8
 66
     7
 43
1.0
 76
     1
 77
     6
 78
     2
 67
     7
 79
     5
170
     0
171
     0
290
     0
174
     0
 93
        1
 44
50.0
173
     0
291
     1
 45
0.0
1001
ACAD
1000
AcDbSavedByObjectVersion
1070
     0
  0
VISUALSTYLE
  5
1C8CDE6ACCD5
102
{ACAD_XDICTIONARY
360
1C8CDE6ACEEC
102
}
102
{ACAD_REACTORS
330
1C8CDE6ACCC5
102
}
330
1C8CDE6ACCC5
100
AcDbVisualStyle
  2
ColorChange
 70
    16
 71
     2
 72
     2
 73
     3
 90
        0
 40
-0.6
 41
-30.0
 62
     5
 63
     8
 74
     1
 91
        4
 64
     7
 65
   257
 75
     1
175
     1
 42
1.0
 92
        8
 66
     8
 43
1.0
 76
     1
 77
     6
 78
     2
 67
     7
 79
     5
170
     0
171
     0
290
     0
174
     0
 93
        1
 44
0.0
173
     0
291
     1
 45
0.0
1001
ACAD
1000
AcDbSavedByObjectVersion
1070
     0
  0
VISUALSTYLE
  5
1C8CDE6ACCCF
102
{ACAD_XDICTIONARY
360
1C8CDE6ACEE0
102
}
102
{ACAD_REACTORS
330
1C8CDE6ACCC5
102
}
330
1C8CDE6ACCC5
100
AcDbVisualStyle
  2
Conceptual
 70
     9
 71
     3
 72
     2
 73
     0
 90
        0
 40
-0.6
 41
-30.0
 62
     5
 63
     7
 74
     2
 91
        2
 64
     7
 65
   257
 75
     1
175
     1
 42
179.0
 92
        8
 66
     7
 43
1.0
 76
     1
 77
     6
 78
     2
 67
     7
 79
     3
170
     0
171
     0
290
     0
174
     0
 93
        1
 44
0.0
173
     0
291
     0
 45
0.0
1001
ACAD
1000
AcDbSavedByObjectVersion
1070
     0
  0
VISUALSTYLE
  5
1C8CDE6ACCD0
102
{ACAD_XDICTIONARY
360
1C8CDE6ACEE2
102
}
102
{ACAD_REACTORS
330
1C8CDE6ACCC5
102
}
330
1C8CDE6ACCC5
100
AcDbVisualStyle
  2
Dim
 70
    11
 71
     2
 72
     2
 73
     0
 90
        0
 40
-0.6
 41
-30.0
 62
     5
 63
     7
 74
     1
 91
        4
 64
     7
 65
   257
 75
     1
175
     1
 42
1.0
 92
        8
 66
     7
 43
1.0
 76
     1
 77
     6
 78
     2
 67
     7
 79
     5
170
     0
171
     0
290
     0
174
     0
 93
        1
 44
-50.0
173
     0
291
     1
 45
0.0
1001
ACAD
1000
AcDbSavedByObjectVersion
1070
     0
  0
VISUALSTYLE
  5
1C8CDE6ACCD8
102
{ACAD_XDICTIONARY
360
1C8CDE6ACEF2
102
}
102
{ACAD_REACTORS
330
1C8CDE6ACCC5
102
}
330
1C8CDE6ACCC5
100
AcDbVisualStyle
  2
EdgeColorOff
 70
    22
 71
     2
 72
     2
 73
     0
 90
        0
 40
-0.6
 41
-30.0
 62
     5
 63
     7
 74
     1
 91
        4
 64
     7
 65
   257
 75
     1
175
     1
 42
1.0
 92
        8
 66
     7
 43
1.0
 76
     1
 77
     6
 78
     2
 67
     7
 79
     5
170
     0
171
     0
290
     0
174
     0
 93
        1
 44
0.0
173
     0
291
     1
 45
0.0
1001
ACAD
1000
AcDbSavedByObjectVersion
1070
     0
  0
VISUALSTYLE
  5
1C8CDE6ACCD4
102
{ACAD_XDICTIONARY
360
1C8CDE6ACEEA
102
}
102
{ACAD_REACTORS
330
1C8CDE6ACCC5
102
}
330
1C8CDE6ACCC5
100
AcDbVisualStyle
  2
Facepattern
 70
    15
 71
     2
 72
     2
 73
     0
 90
        0
 40
-0.6
 41
-30.0
 62
     5
 63
     7
 74
     1
 91
        4
 64
     7
 65
   257
 75
     1
175
     1
 42
1.0
 92
        8
 66
     7
 43
1.0
 76
     1
 77
     6
 78
     2
 67
     7
 79
     5
170
     0
171
     0
290
     0
174
     0
 93
        1
 44
0.0
173
     0
291
     1
 45
0.0
1001
ACAD
1000
AcDbSavedByObjectVersion
1070
     0
  0
VISUALSTYLE
  5
1C8CDE6ACCC6
102
{ACAD_XDICTIONARY
360
1C8CDE6ACECE
102
}
102
{ACAD_REACTORS
330
1C8CDE6ACCC5
102
}
330
1C8CDE6ACCC5
100
AcDbVisualStyle
  2
Flat
 70
     0
 71
     2
 72
     1
 73
     1
 90
        2
 40
-0.6
 41
30.0
 62
     5
 63
     7
 74
     0
 91
        0
 64
     7
 65
   257
 75
     1
175
     1
 42
1.0
 92
        8
 66
     7
 43
1.0
 76
     1
 77
     6
 78
     2
 67
     7
 79
     5
170
     0
171
     0
290
     0
174
     0
 93
       13
 44
0.0
173
     0
291
     1
 45
0.0
1001
ACAD
1000
AcDbSavedByObjectVersion
1070
     0
  0
VISUALSTYLE
  5
1C8CDE6ACCC7
102
{ACAD_XDICTIONARY
360
1C8CDE6ACED0
102
}
102
{ACAD_REACTORS
330
1C8CDE6ACCC5
102
}
330
1C8CDE6ACCC5
100
AcDbVisualStyle
  2
FlatWithEdges
 70
     1
 71
     2
 72
     1
 73
     1
 90
        2
 40
-0.6
 41
30.0
 62
     5
 63
     7
 74
     1
 91
        0
 64
     7
 65
   257
 75
     1
175
     1
 42
1.0
 92
        0
 66
   257
 43
1.0
 76
     1
 77
     6
 78
     2
 67
     7
 79
     5
170
     0
171
     0
290
     0
174
     0
 93
       13
 44
0.0
173
     0
291
     1
 45
0.0
1001
ACAD
1000
AcDbSavedByObjectVersion
1070
     0
  0
VISUALSTYLE
  5
1C8CDE6ACCC8
102
{ACAD_XDICTIONARY
360
1C8CDE6ACED2
102
}
102
{ACAD_REACTORS
330
1C8CDE6ACCC5
102
}
330
1C8CDE6ACCC5
100
AcDbVisualStyle
  2
Gouraud
 70
     2
 71
     2
 72
     2
 73
     1
 90
        2
 40
-0.6
 41
30.0
 62
     5
 63
     7
 74
     0
 91
        0
 64
     7
 65
   257
 75
     1
175
     1
 42
1.0
 92
        0
 66
     7
 43
1.0
 76
     1
 77
     6
 78
     2
 67
     7
 79
     5
170
     0
171
     0
290
     0
174
     0
 93
       13
 44
0.0
173
     0
291
     1
 45
0.0
1001
ACAD
1000
AcDbSavedByObjectVersion
1070
     0
  0
VISUALSTYLE
  5
1C8CDE6ACCC9
102
{ACAD_XDICTIONARY
360
1C8CDE6ACED4
102
}
102
{ACAD_REACTORS
330
1C8CDE6ACCC5
102
}
330
1C8CDE6ACCC5
100
AcDbVisualStyle
  2
GouraudWithEdges
 70
     3
 71
     2
 72
     2
 73
     1
 90
        2
 40
-0.6
 41
30.0
 62
     5
 63
     7
 74
     1
 91
        0
 64
     7
 65
   257
 75
     1
175
     1
 42
1.0
 92
        0
 66
   257
 43
1.0
 76
     1
 77
     6
 78
     2
 67
     7
 79
     5
170
     0
171
     0
290
     0
174
     0
 93
       13
 44
0.0
173
     0
291
     1
 45
0.0
1001
ACAD
1000
AcDbSavedByObjectVersion
1070
     0
  0
VISUALSTYLE
  5
1C8CDE6ACCCC
102
{ACAD_XDICTIONARY
360
1C8CDE6ACEDA
102
}
102
{ACAD_REACTORS
330
1C8CDE6ACCC5
102
}
330
1C8CDE6ACCC5
100
AcDbVisualStyle
  2
Hidden
 70
     6
 71
     1
 72
     2
 73
     2
 90
        0
 40
-0.6
 41
-30.0
 62
     5
 63
     7
 74
     2
 91
        2
 64
     7
 65
   257
 75
     2
175
     1
 42
40.0
 92
        0
 66
   257
 43
1.0
 76
     1
 77
     6
 78
     2
 67
     7
 79
     3
170
     0
171
     0
290
     0
174
     0
 93
        1
 44
0.0
173
     0
291
     0
 45
0.0
1001
ACAD
1000
AcDbSavedByObjectVersion
1070
     0
  0
VISUALSTYLE
  5
1C8CDE6ACCD6
102
{ACAD_XDICTIONARY
360
1C8CDE6ACEEE
102
}
102
{ACAD_REACTORS
330
1C8CDE6ACCC5
102
}
330
1C8CDE6ACCC5
100
AcDbVisualStyle
  2
JitterOff
 70
    20
 71
     2
 72
     2
 73
     0
 90
        0
 40
-0.6
 41
-30.0
 62
     5
 63
     7
 74
     1
 91
        4
 64
     7
 65
   257
 75
     1
175
     1
 42
1.0
 92
       10
 66
     7
 43
1.0
 76
     1
 77
     6
 78
     2
 67
     7
 79
     5
170
     0
171
     0
290
     0
174
     0
 93
        1
 44
0.0
173
     0
291
     1
 45
0.0
1001
ACAD
1000
AcDbSavedByObjectVersion
1070
     0
  0
VISUALSTYLE
  5
1C8CDE6ACCD3
102
{ACAD_XDICTIONARY
360
1C8CDE6ACEE8
102
}
102
{ACAD_REACTORS
330
1C8CDE6ACCC5
102
}
330
1C8CDE6ACCC5
100
AcDbVisualStyle
  2
Linepattern
 70
    14
 71
     2
 72
     2
 73
     0
 90
        0
 40
-0.6
 41
-30.0
 62
     5
 63
     7
 74
     1
 91
        4
 64
     7
 65
   257
 75
     7
175
     7
 42
1.0
 92
        8
 66
     7
 43
1.0
 76
     1
 77
     6
 78
     2
 67
     7
 79
     5
170
     0
171
     0
290
     0
174
     0
 93
        1
 44
0.0
173
     0
291
     1
 45
0.0
1001
ACAD
1000
AcDbSavedByObjectVersion
1070
     0
  0
VISUALSTYLE
  5
1C8CDE6ACD18
102
{ACAD_XDICTIONARY
360
1C8CDE6ACF09
102
}
102
{ACAD_REACTORS
330
1C8CDE6ACCC5
102
}
330
1C8CDE6ACCC5
100
AcDbVisualStyle
  2

 70
    10
 71
     2
 72
     3
 73
     0
 90
        2
 40
-0.6
 41
30.0
 62
     5
 63
     7
 74
     2
 91
        0
 64
     7
 65
   257
 75
     1
175
     1
 42
180.0
 92
        8
 66
     8
 43
1.0
 76
     1
 77
     6
 78
     2
 67
     7
 79
     5
170
     0
171
     0
290
     0
174
     0
 93
       13
 44
0.0
173
     0
291
     0
 45
0.0
1001
ACAD
1000
AcDbSavedByObjectVersion
1070
     0
  0
VISUALSTYLE
  5
1C8CDE6ACCD7
102
{ACAD_XDICTIONARY
360
1C8CDE6ACEF0
102
}
102
{ACAD_REACTORS
330
1C8CDE6ACCC5
102
}
330
1C8CDE6ACCC5
100
AcDbVisualStyle
  2
OverhangOff
 70
    21
 71
     2
 72
     2
 73
     0
 90
        0
 40
-0.6
 41
-30.0
 62
     5
 63
     7
 74
     1
 91
        4
 64
     7
 65
   257
 75
     1
175
     1
 42
1.0
 92
        9
 66
     7
 43
1.0
 76
     1
 77
     6
 78
     2
 67
     7
 79
     5
170
     0
171
     0
290
     0
174
     0
 93
        1
 44
0.0
173
     0
291
     1
 45
0.0
1001
ACAD
1000
AcDbSavedByObjectVersion
1070
     0
  0
VISUALSTYLE
  5
1C8CDE6ACCCE
102
{ACAD_XDICTIONARY
360
1C8CDE6ACEDE
102
}
102
{ACAD_REACTORS
330
1C8CDE6ACCC5
102
}
330
1C8CDE6ACCC5
100
AcDbVisualStyle
  2
Realistic
 70
     8
 71
     2
 72
     3
 73
     0
 90
        2
 40
-0.6
 41
30.0
 62
     5
 63
     7
 74
     0
 91
        0
 64
     7
 65
   257
 75
     1
175
     1
 42
1.0
 92
        8
 66
   257
 43
1.0
 76
     1
 77
     6
 78
     2
 67
     7
 79
     3
170
     0
171
     0
290
     0
174
     0
 93
       13
 44
0.0
173
     0
291
     0
 45
0.0
1001
ACAD
1000
AcDbSavedByObjectVersion
1070
     0
  0
VISUALSTYLE
  5
1C8CDE6ACCDD
102
{ACAD_XDICTIONARY
360
1C8CDE6ACEFC
102
}
102
{ACAD_REACTORS
330
1C8CDE6ACCC5
102
}
330
1C8CDE6ACCC5
100
AcDbVisualStyle
  2
Shaded
 70
    27
 71
     2
 72
     2
 73
     1
 90
        2
 40
-0.6
 41
30.0
 62
     5
 63
     7
 74
     0
 91
        4
 64
     7
 65
   257
 75
     1
175
     1
 42
1.0
 92
        8
 66
   257
 43
1.0
 76
     1
 77
     6
 78
     2
 67
     8
 79
     3
170
     0
171
     0
290
     0
174
     0
 93
        5
 44
0.0
173
     0
291
     0
 45
0.0
1001
ACAD
1000
AcDbSavedByObjectVersion
1070
     0
  0
VISUALSTYLE
  5
1C8CDE6ACCDC
102
{ACAD_XDICTIONARY
360
1C8CDE6ACEFA
102
}
102
{ACAD_REACTORS
330
1C8CDE6ACCC5
102
}
330
1C8CDE6ACCC5
100
AcDbVisualStyle
  2
Shaded with edges
 70
    26
 71
     2
 72
     2
 73
     1
 90
        2
 40
-0.6
 41
30.0
 62
     5
 63
     7
 74
     1
 91
       10
 64
     7
 65
   257
 75
     2
175
     1
 42
1.0
 92
        8
 66
   257
 43
1.0
 76
     1
 77
     6
 78
     2
 67
     7
 79
     3
170
     0
171
     0
290
     0
174
     0
 93
        5
 44
0.0
173
     0
291
     0
 45
0.0
1001
ACAD
1000
AcDbSavedByObjectVersion
1070
     0
  0
VISUALSTYLE
  5
1C8CDE6ACCD9
102
{ACAD_XDICTIONARY
360
1C8CDE6ACEF4
102
}
102
{ACAD_REACTORS
330
1C8CDE6ACCC5
102
}
330
1C8CDE6ACCC5
100
AcDbVisualStyle
  2
Shades of Gray
 70
    23
 71
     2
 72
     2
 73
     3
 90
        0
 40
-0.6
 41
-30.0
 62
     5
 63
     7
 74
     2
 91
        2
 64
     7
 65
     7
 75
     1
175
     1
 42
40.0
 92
        8
 66
     7
 43
1.0
 76
     1
 77
     6
 78
     2
 67
     7
 79
     3
170
     0
171
     0
290
     0
174
     0
 93
        1
 44
0.0
173
     0
291
     0
 45
0.0
1001
ACAD
1000
AcDbSavedByObjectVersion
1070
     0
  0
VISUALSTYLE
  5
1C8CDE6ACCDA
102
{ACAD_XDICTIONARY
360
1C8CDE6ACEF6
102
}
102
{ACAD_REACTORS
330
1C8CDE6ACCC5
102
}
330
1C8CDE6ACCC5
100
AcDbVisualStyle
  2
Sketchy
 70
    24
 71
     1
 72
     2
 73
     2
 90
        0
 40
-0.6
 41
-30.0
 62
     5
 63
     7
 74
     2
 91
        2
 64
     7
 65
     7
 75
     1
175
     1
 42
40.0
 92
       11
 66
     7
 43
1.0
 76
     1
 77
     6
 78
     2
 67
     7
 79
     6
170
     0
171
     0
290
     0
174
     0
 93
        1
 44
0.0
173
     0
291
     0
 45
0.0
1001
ACAD
1000
AcDbSavedByObjectVersion
1070
     0
  0
VISUALSTYLE
  5
1C8CDE6ACCD2
102
{ACAD_XDICTIONARY
360
1C8CDE6ACEE6
102
}
102
{ACAD_REACTORS
330
1C8CDE6ACCC5
102
}
330
1C8CDE6ACCC5
100
AcDbVisualStyle
  2
Thicken
 70
    13
 71
     2
 72
     2
 73
     0
 90
        0
 40
-0.6
 41
-30.0
 62
     5
 63
     7
 74
     1
 91
        4
 64
     7
 65
   257
 75
     1
175
     1
 42
1.0
 92
       12
 66
     7
 43
1.0
 76
     1
 77
     6
 78
     2
 67
     7
 79
     5
170
     0
171
     0
290
     0
174
     0
 93
        1
 44
0.0
173
     0
291
     1
 45
0.0
1001
ACAD
1000
AcDbSavedByObjectVersion
1070
     0
  0
VISUALSTYLE
  5
1C8CDE6ACCCB
102
{ACAD_XDICTIONARY
360
1C8CDE6ACED8
102
}
102
{ACAD_REACTORS
330
1C8CDE6ACCC5
102
}
330
1C8CDE6ACCC5
100
AcDbVisualStyle
  2
Wireframe
 70
     5
 71
     0
 72
     2
 73
     0
 90
        0
 40
-0.6
 41
-30.0
 62
     5
 63
     7
 74
     1
 91
        4
 64
     7
 65
   257
 75
     1
175
     1
 42
1.0
 92
        0
 66
   257
 43
1.0
 76
     1
 77
     6
 78
     2
 67
     7
 79
     3
170
     0
171
     0
290
     0
174
     0
 93
        1
 44
0.0
173
     0
291
     0
 45
0.0
1001
ACAD
1000
AcDbSavedByObjectVersion
1070
     0
  0
VISUALSTYLE
  5
1C8CDE6ACCDB
102
{ACAD_XDICTIONARY
360
1C8CDE6ACEF8
102
}
102
{ACAD_REACTORS
330
1C8CDE6ACCC5
102
}
330
1C8CDE6ACCC5
100
AcDbVisualStyle
  2
X-Ray
 70
    25
 71
     2
 72
     2
 73
     1
 90
        1
 40
0.5
 41
-30.0
 62
     5
 63
     7
 74
     1
 91
        0
 64
     7
 65
   257
 75
     1
175
     1
 42
1.0
 92
        8
 66
     7
 43
1.0
 76
     1
 77
     6
 78
     2
 67
     7
 79
     3
170
     0
171
     0
290
     0
174
     0
 93
       13
 44
0.0
173
     0
291
     0
 45
0.0
1001
ACAD
1000
AcDbSavedByObjectVersion
1070
     0
  0
DICTIONARYVAR
  5
1C8CDE6ACE78
102
{ACAD_REACTORS
330
1C8CDE6ACD1A
102
}
330
1C8CDE6ACD1A
100
DictionaryVariables
280
     0
  1
1:1
  0
DICTIONARYVAR
  5
1C8CDE6ACD1D
102
{ACAD_REACTORS
330
1C8CDE6ACD1A
102
}
330
1C8CDE6ACD1A
100
DictionaryVariables
280
     0
  1
STANDARD
  0
DICTIONARYVAR
  5
1C8CDE6ACD1C
102
{ACAD_REACTORS
330
1C8CDE6ACD1A
102
}
330
1C8CDE6ACD1A
100
DictionaryVariables
280
     0
  1
STANDARD
  0
DICTIONARYVAR
  5
1C8CDE6ACEC5
102
{ACAD_REACTORS
330
1C8CDE6ACD1A
102
}
330
1C8CDE6ACD1A
100
DictionaryVariables
280
     0
  1
Imperial24
  0
DICTIONARYVAR
  5
1C8CDE6ACEC6
102
{ACAD_REACTORS
330
1C8CDE6ACD1A
102
}
330
1C8CDE6ACD1A
100
DictionaryVariables
280
     0
  1
Imperial24
  0
DICTIONARYVAR
  5
1C8CDE6ACD6E
102
{ACAD_REACTORS
330
1C8CDE6ACD1A
102
}
330
1C8CDE6ACD1A
100
DictionaryVariables
280
     0
  1
1
  0
DICTIONARYVAR
  5
1C8CDE6ACD6F
102
{ACAD_REACTORS
330
1C8CDE6ACD1A
102
}
330
1C8CDE6ACD1A
100
DictionaryVariables
280
     0
  1
1
  0
DICTIONARYVAR
  5
1C8CDE6ACEC8
102
{ACAD_REACTORS
330
1C8CDE6ACD1A
102
}
330
1C8CDE6ACD1A
100
DictionaryVariables
280
     0
  1
0
  0
DICTIONARYVAR
  5
1C8CDE6ACD1E
102
{ACAD_REACTORS
330
1C8CDE6ACD1A
102
}
330
1C8CDE6ACD1A
100
DictionaryVariables
280
     0
  1
0
  0
DICTIONARYVAR
  5
1C8CDE6ACEC7
102
{ACAD_REACTORS
330
1C8CDE6ACD1A
102
}
330
1C8CDE6ACD1A
100
DictionaryVariables
280
     0
  1
127
  0
DICTIONARYVAR
  5
1C8CDE6ACEC9
102
{ACAD_REACTORS
330
1C8CDE6ACD1A
102
}
330
1C8CDE6ACD1A
100
DictionaryVariables
280
     0
  1
2
  0
DICTIONARY
  5
1C8CDE6ACE08
102
{ACAD_REACTORS
330
1C8CDE6ACE07
102
}
330
1C8CDE6ACE07
100
AcDbDictionary
281
     1
  0
DICTIONARY
  5
1C8CDE6ACE0D
102
{ACAD_REACTORS
330
1C8CDE6ACE0C
102
}
330
1C8CDE6ACE0C
100
AcDbDictionary
281
     1
  0
DICTIONARY
  5
1C8CDE6ACF0D
330
1C8CDE6ACEBD
100
AcDbDictionary
280
     1
281
     1
  3
ACAD_XREC_ROUNDTRIP
360
1C8CDE6ACF0E
  0
DICTIONARY
  5
1C8CDE6ACF00
330
1C8CDE6ACD0F
100
AcDbDictionary
280
     1
281
     1
  3
ACAD_XREC_ROUNDTRIP
360
1C8CDE6ACF01
  0
DICTIONARY
  5
1C8CDE6ACEFE
330
1C8CDE6ACD0E
100
AcDbDictionary
280
     1
281
     1
  3
ACAD_XREC_ROUNDTRIP
360
1C8CDE6ACEFF
  0
DICTIONARY
  5
1C8CDE6ACF04
330
1C8CDE6ACD12
100
AcDbDictionary
280
     1
281
     1
  3
ACAD_XREC_ROUNDTRIP
360
1C8CDE6ACF05
  0
DICTIONARY
  5
1C8CDE6ACF02
330
1C8CDE6ACD11
100
AcDbDictionary
280
     1
281
     1
  3
ACAD_XREC_ROUNDTRIP
360
1C8CDE6ACF03
  0
DICTIONARY
  5
1C8CDE6ACF06
330
1C8CDE6ACD13
100
AcDbDictionary
280
     1
281
     1
  3
ACAD_XREC_ROUNDTRIP
360
1C8CDE6ACF07
  0
DICTIONARY
  5
1C8CDE6ACF0B
330
1C8CDE6ACEBC
100
AcDbDictionary
280
     1
281
     1
  3
ACAD_XREC_ROUNDTRIP
360
1C8CDE6ACF0C
  0
DICTIONARY
  5
1C8CDE6ACEB2
330
1C8CDE6ACD15
100
AcDbDictionary
280
     1
281
     1
  3
ACAD_ROUNDTRIP_2008_TABLESTYLE_CELLSTYLEMAP
360
1C8CDE6ACECB
  3
ACAD_XREC_ROUNDTRIP
360
1C8CDE6ACF08
  0
DICTIONARY
  5
1C8CDE6ACED6
330
1C8CDE6ACCCA
100
AcDbDictionary
280
     1
281
     1
  3
ACAD_XREC_ROUNDTRIP
360
1C8CDE6ACED7
  0
DICTIONARY
  5
1C8CDE6ACEDC
330
1C8CDE6ACCCD
100
AcDbDictionary
280
     1
281
     1
  3
ACAD_XREC_ROUNDTRIP
360
1C8CDE6ACEDD
  0
DICTIONARY
  5
1C8CDE6ACEE4
330
1C8CDE6ACCD1
100
AcDbDictionary
280
     1
281
     1
  3
ACAD_XREC_ROUNDTRIP
360
1C8CDE6ACEE5
  0
DICTIONARY
  5
1C8CDE6ACEEC
330
1C8CDE6ACCD5
100
AcDbDictionary
280
     1
281
     1
  3
ACAD_XREC_ROUNDTRIP
360
1C8CDE6ACEED
  0
DICTIONARY
  5
1C8CDE6ACEE0
330
1C8CDE6ACCCF
100
AcDbDictionary
280
     1
281
     1
  3
ACAD_XREC_ROUNDTRIP
360
1C8CDE6ACEE1
  0
DICTIONARY
  5
1C8CDE6ACEE2
330
1C8CDE6ACCD0
100
AcDbDictionary
280
     1
281
     1
  3
ACAD_XREC_ROUNDTRIP
360
1C8CDE6ACEE3
  0
DICTIONARY
  5
1C8CDE6ACEF2
330
1C8CDE6ACCD8
100
AcDbDictionary
280
     1
281
     1
  3
ACAD_XREC_ROUNDTRIP
360
1C8CDE6ACEF3
  0
DICTIONARY
  5
1C8CDE6ACEEA
330
1C8CDE6ACCD4
100
AcDbDictionary
280
     1
281
     1
  3
ACAD_XREC_ROUNDTRIP
360
1C8CDE6ACEEB
  0
DICTIONARY
  5
1C8CDE6ACECE
330
1C8CDE6ACCC6
100
AcDbDictionary
280
     1
281
     1
  3
ACAD_XREC_ROUNDTRIP
360
1C8CDE6ACECF
  0
DICTIONARY
  5
1C8CDE6ACED0
330
1C8CDE6ACCC7
100
AcDbDictionary
280
     1
281
     1
  3
ACAD_XREC_ROUNDTRIP
360
1C8CDE6ACED1
  0
DICTIONARY
  5
1C8CDE6ACED2
330
1C8CDE6ACCC8
100
AcDbDictionary
280
     1
281
     1
  3
ACAD_XREC_ROUNDTRIP
360
1C8CDE6ACED3
  0
DICTIONARY
  5
1C8CDE6ACED4
330
1C8CDE6ACCC9
100
AcDbDictionary
280
     1
281
     1
  3
ACAD_XREC_ROUNDTRIP
360
1C8CDE6ACED5
  0
DICTIONARY
  5
1C8CDE6ACEDA
330
1C8CDE6ACCCC
100
AcDbDictionary
280
     1
281
     1
  3
ACAD_XREC_ROUNDTRIP
360
1C8CDE6ACEDB
  0
DICTIONARY
  5
1C8CDE6ACEEE
330
1C8CDE6ACCD6
100
AcDbDictionary
280
     1
281
     1
  3
ACAD_XREC_ROUNDTRIP
360
1C8CDE6ACEEF
  0
DICTIONARY
  5
1C8CDE6ACEE8
330
1C8CDE6ACCD3
100
AcDbDictionary
280
     1
281
     1
  3
ACAD_XREC_ROUNDTRIP
360
1C8CDE6ACEE9
  0
DICTIONARY
  5
1C8CDE6ACF09
330
1C8CDE6ACD18
100
AcDbDictionary
280
     1
281
     1
  3
ACAD_XREC_ROUNDTRIP
360
1C8CDE6ACF0A
  0
DICTIONARY
  5
1C8CDE6ACEF0
330
1C8CDE6ACCD7
100
AcDbDictionary
280
     1
281
     1
  3
ACAD_XREC_ROUNDTRIP
360
1C8CDE6ACEF1
  0
DICTIONARY
  5
1C8CDE6ACEDE
330
1C8CDE6ACCCE
100
AcDbDictionary
280
     1
281
     1
  3
ACAD_XREC_ROUNDTRIP
360
1C8CDE6ACEDF
  0
DICTIONARY
  5
1C8CDE6ACEFC
330
1C8CDE6ACCDD
100
AcDbDictionary
280
     1
281
     1
  3
ACAD_XREC_ROUNDTRIP
360
1C8CDE6ACEFD
  0
DICTIONARY
  5
1C8CDE6ACEFA
330
1C8CDE6ACCDC
100
AcDbDictionary
280
     1
281
     1
  3
ACAD_XREC_ROUNDTRIP
360
1C8CDE6ACEFB
  0
DICTIONARY
  5
1C8CDE6ACEF4
330
1C8CDE6ACCD9
100
AcDbDictionary
280
     1
281
     1
  3
ACAD_XREC_ROUNDTRIP
360
1C8CDE6ACEF5
  0
DICTIONARY
  5
1C8CDE6ACEF6
330
1C8CDE6ACCDA
100
AcDbDictionary
280
     1
281
     1
  3
ACAD_XREC_ROUNDTRIP
360
1C8CDE6ACEF7
  0
DICTIONARY
  5
1C8CDE6ACEE6
330
1C8CDE6ACCD2
100
AcDbDictionary
280
     1
281
     1
  3
ACAD_XREC_ROUNDTRIP
360
1C8CDE6ACEE7
  0
DICTIONARY
  5
1C8CDE6ACED8
330
1C8CDE6ACCCB
100
AcDbDictionary
280
     1
281
     1
  3
ACAD_XREC_ROUNDTRIP
360
1C8CDE6ACED9
  0
DICTIONARY
  5
1C8CDE6ACEF8
330
1C8CDE6ACCDB
100
AcDbDictionary
280
     1
281
     1
  3
ACAD_XREC_ROUNDTRIP
360
1C8CDE6ACEF9
  0
XRECORD
  5
1C8CDE6ACF0E
102
{ACAD_REACTORS
330
1C8CDE6ACF0D
102
}
330
1C8CDE6ACF0D
100
AcDbXrecord
280
     1
102
DISPLAYNAME
  1
Imperial24
102
FLAGS
 90
        0
  0
XRECORD
  5
1C8CDE6ACF01
102
{ACAD_REACTORS
330
1C8CDE6ACF00
102
}
330
1C8CDE6ACF00
100
AcDbXrecord
280
     1
102
SHADEPLOT
 70
     0
102
SHADEPLOTRESLEVEL
 70
     2
102
SHADEPLOTCUSTOMDPI
 70
   300
  0
XRECORD
  5
1C8CDE6ACEFF
102
{ACAD_REACTORS
330
1C8CDE6ACEFE
102
}
330
1C8CDE6ACEFE
100
AcDbXrecord
280
     1
102
SHADEPLOT
 70
     0
102
SHADEPLOTRESLEVEL
 70
     2
102
SHADEPLOTCUSTOMDPI
 70
   300
  0
XRECORD
  5
1C8CDE6ACF05
102
{ACAD_REACTORS
330
1C8CDE6ACF04
102
}
330
1C8CDE6ACF04
100
AcDbXrecord
280
     1
102
MATERIAL
148
0.0
149
0.0
149
0.0
 93
        0
 94
      127
282
     0
 72
     1
 77
     1
171
     1
175
     1
179
     1
273
     0
  0
XRECORD
  5
1C8CDE6ACF03
102
{ACAD_REACTORS
330
1C8CDE6ACF02
102
}
330
1C8CDE6ACF02
100
AcDbXrecord
280
     1
102
MATERIAL
148
0.0
149
0.0
149
0.0
 93
        0
 94
      127
282
     0
 72
     1
 77
     1
171
     1
175
     1
179
     1
273
     0
  0
XRECORD
  5
1C8CDE6ACF07
102
{ACAD_REACTORS
330
1C8CDE6ACF06
102
}
330
1C8CDE6ACF06
100
AcDbXrecord
280
     1
102
MATERIAL
148
0.0
149
0.0
149
0.0
 93
        0
 94
      127
282
     0
 72
     1
 77
     1
171
     1
175
     1
179
     1
273
     0
  0
XRECORD
  5
1C8CDE6ACF0C
102
{ACAD_REACTORS
330
1C8CDE6ACF0B
102
}
330
1C8CDE6ACF0B
100
AcDbXrecord
280
     1
102
DISPLAYNAME
  1
Imperial24
102
FLAGS
 90
        0
  0
CELLSTYLEMAP
  5
1C8CDE6ACECB
102
{ACAD_REACTORS
330
1C8CDE6ACEB2
102
}
330
1C8CDE6ACEB2
100
AcDbCellStyleMap
 90
        3
300
CELLSTYLE
  1
TABLEFORMAT_BEGIN
 90
        5
170
     1
 91
        0
 92
    32768
 62
   257
 93
        1
300
CONTENTFORMAT
  1
CONTENTFORMAT_BEGIN
 90
        0
 91
        0
 92
        4
 93
        0
300

 40
0.0
140
1.0
 94
        5
 62
     0
340
1C8CDE699D4B
144
0.25
309
CONTENTFORMAT_END
171
     1
301
MARGIN
  1
CELLMARGIN_BEGIN
 40
0.06
 40
0.06
 40
0.06
 40
0.06
 40
0.06
 40
0.06
309
CELLMARGIN_END
 94
        6
 95
        1
302
GRIDFORMAT
  1
GRIDFORMAT_BEGIN
 90
        0
 91
        1
 62
     0
 92
       -2
340
1C8CDE699D4D
 93
        0
 40
0.045
309
GRIDFORMAT_END
 95
        2
302
GRIDFORMAT
  1
GRIDFORMAT_BEGIN
 90
        0
 91
        1
 62
     0
 92
       -2
340
1C8CDE699D4D
 93
        0
 40
0.045
309
GRIDFORMAT_END
 95
        4
302
GRIDFORMAT
  1
GRIDFORMAT_BEGIN
 90
        0
 91
        1
 62
     0
 92
       -2
340
1C8CDE699D4D
 93
        0
 40
0.045
309
GRIDFORMAT_END
 95
        8
302
GRIDFORMAT
  1
GRIDFORMAT_BEGIN
 90
        0
 91
        1
 62
     0
 92
       -2
340
1C8CDE699D4D
 93
        0
 40
0.045
309
GRIDFORMAT_END
 95
       16
302
GRIDFORMAT
  1
GRIDFORMAT_BEGIN
 90
        0
 91
        1
 62
     0
 92
       -2
340
1C8CDE699D4D
 93
        0
 40
0.045
309
GRIDFORMAT_END
 95
       32
302
GRIDFORMAT
  1
GRIDFORMAT_BEGIN
 90
        0
 91
        1
 62
     0
 92
       -2
340
1C8CDE699D4D
 93
        0
 40
0.045
309
GRIDFORMAT_END
309
TABLEFORMAT_END
  1
CELLSTYLE_BEGIN
 90
        1
 91
        1
300
_TITLE
309
CELLSTYLE_END
300
CELLSTYLE
  1
TABLEFORMAT_BEGIN
 90
        5
170
     1
 91
        0
 92
        0
 62
   257
 93
        1
300
CONTENTFORMAT
  1
CONTENTFORMAT_BEGIN
 90
        0
 91
        0
 92
        4
 93
        0
300

 40
0.0
140
1.0
 94
        5
 62
     0
340
1C8CDE699D4B
144
0.18
309
CONTENTFORMAT_END
171
     1
301
MARGIN
  1
CELLMARGIN_BEGIN
 40
0.06
 40
0.06
 40
0.06
 40
0.06
 40
0.06
 40
0.06
309
CELLMARGIN_END
 94
        6
 95
        1
302
GRIDFORMAT
  1
GRIDFORMAT_BEGIN
 90
        0
 91
        1
 62
     0
 92
       -2
340
1C8CDE699D4D
 93
        0
 40
0.045
309
GRIDFORMAT_END
 95
        2
302
GRIDFORMAT
  1
GRIDFORMAT_BEGIN
 90
        0
 91
        1
 62
     0
 92
       -2
340
1C8CDE699D4D
 93
        0
 40
0.045
309
GRIDFORMAT_END
 95
        4
302
GRIDFORMAT
  1
GRIDFORMAT_BEGIN
 90
        0
 91
        1
 62
     0
 92
       -2
340
1C8CDE699D4D
 93
        0
 40
0.045
309
GRIDFORMAT_END
 95
        8
302
GRIDFORMAT
  1
GRIDFORMAT_BEGIN
 90
        0
 91
        1
 62
     0
 92
       -2
340
1C8CDE699D4D
 93
        0
 40
0.045
309
GRIDFORMAT_END
 95
       16
302
GRIDFORMAT
  1
GRIDFORMAT_BEGIN
 90
        0
 91
        1
 62
     0
 92
       -2
340
1C8CDE699D4D
 93
        0
 40
0.045
309
GRIDFORMAT_END
 95
       32
302
GRIDFORMAT
  1
GRIDFORMAT_BEGIN
 90
        0
 91
        1
 62
     0
 92
       -2
340
1C8CDE699D4D
 93
        0
 40
0.045
309
GRIDFORMAT_END
309
TABLEFORMAT_END
  1
CELLSTYLE_BEGIN
 90
        2
 91
        1
300
_HEADER
309
CELLSTYLE_END
300
CELLSTYLE
  1
TABLEFORMAT_BEGIN
 90
        5
170
     1
 91
        0
 92
        0
 62
   257
 93
        1
300
CONTENTFORMAT
  1
CONTENTFORMAT_BEGIN
 90
        0
 91
        0
 92
        4
 93
        0
300

 40
0.0
140
1.0
 94
        2
 62
     0
340
1C8CDE699D4B
144
0.18
309
CONTENTFORMAT_END
171
     1
301
MARGIN
  1
CELLMARGIN_BEGIN
 40
0.06
 40
0.06
 40
0.06
 40
0.06
 40
0.06
 40
0.06
309
CELLMARGIN_END
 94
        6
 95
        1
302
GRIDFORMAT
  1
GRIDFORMAT_BEGIN
 90
        0
 91
        1
 62
     0
 92
       -2
340
1C8CDE699D4D
 93
        0
 40
0.045
309
GRIDFORMAT_END
 95
        2
302
GRIDFORMAT
  1
GRIDFORMAT_BEGIN
 90
        0
 91
        1
 62
     0
 92
       -2
340
1C8CDE699D4D
 93
        0
 40
0.045
309
GRIDFORMAT_END
 95
        4
302
GRIDFORMAT
  1
GRIDFORMAT_BEGIN
 90
        0
 91
        1
 62
     0
 92
       -2
340
1C8CDE699D4D
 93
        0
 40
0.045
309
GRIDFORMAT_END
 95
        8
302
GRIDFORMAT
  1
GRIDFORMAT_BEGIN
 90
        0
 91
        1
 62
     0
 92
       -2
340
1C8CDE699D4D
 93
        0
 40
0.045
309
GRIDFORMAT_END
 95
       16
302
GRIDFORMAT
  1
GRIDFORMAT_BEGIN
 90
        0
 91
        1
 62
     0
 92
       -2
340
1C8CDE699D4D
 93
        0
 40
0.045
309
GRIDFORMAT_END
 95
       32
302
GRIDFORMAT
  1
GRIDFORMAT_BEGIN
 90
        0
 91
        1
 62
     0
 92
       -2
340
1C8CDE699D4D
 93
        0
 40
0.045
309
GRIDFORMAT_END
309
TABLEFORMAT_END
  1
CELLSTYLE_BEGIN
 90
        3
 91
        2
300
_DATA
309
CELLSTYLE_END
  0
XRECORD
  5
1C8CDE6ACF08
102
{ACAD_REACTORS
330
1C8CDE6ACEB2
102
}
330
1C8CDE6ACEB2
100
AcDbXrecord
280
     1
102
ACAD_ROUNDTRIP_PRE2007_TABLESTYLE
 90
        4
 91
        0
  1

 92
        4
 93
        0
  2

 94
        4
 95
        0
  3

  0
XRECORD
  5
1C8CDE6ACED7
102
{ACAD_REACTORS
330
1C8CDE6ACED6
102
}
330
1C8CDE6ACED6
100
AcDbXrecord
280
     1
102
RTVSPost2010Prop28
280
     1
102
RTVSPost2010PropOp28
 70
     1
102
RTVSPost2010Prop29
280
     1
102
RTVSPost2010PropOp29
 70
     1
102
RTVSPost2010Prop30
280
     0
102
RTVSPost2010PropOp30
 70
     1
102
RTVSPost2010Prop31
280
     0
102
RTVSPost2010PropOp31
 70
     1
102
RTVSPost2010Prop32
280
     0
102
RTVSPost2010PropOp32
 70
     1
102
RTVSPost2010Prop33
280
     0
102
RTVSPost2010PropOp33
 70
     1
102
RTVSPost2010Prop34
280
     0
102
RTVSPost2010PropOp34
 70
     1
102
RTVSPost2010Prop35
280
     0
102
RTVSPost2010PropOp35
 70
     1
102
RTVSPost2010Prop36
280
     0
102
RTVSPost2010PropOp36
 70
     1
102
RTVSPost2010Prop37
 90
       50
102
RTVSPost2010PropOp37
 70
     1
102
RTVSPost2010Prop38
140
0.0
102
RTVSPost2010PropOp38
 70
     1
102
RTVSPost2010Prop39
140
1.0
102
RTVSPost2010PropOp39
 70
     1
102
RTVSPost2010Prop40
 90
        0
102
RTVSPost2010PropOp40
 70
     1
102
RTVSPost2010Prop41ColorIndex
 90
       18
102
RTVSPost2010Prop41ColorRGB
 90
        0
102
RTVSPost2010PropOp41
 70
     1
102
RTVSPost2010Prop42
 90
       50
102
RTVSPost2010PropOp42
 70
     1
102
RTVSPost2010Prop43
 90
        3
102
RTVSPost2010PropOp43
 70
     1
102
RTVSPost2010Prop44ColorIndex
 90
        5
102
RTVSPost2010Prop44ColorRGB
 90
      255
102
RTVSPost2010PropOp44
 70
     1
102
RTVSPost2010Prop45
280
     0
102
RTVSPost2010PropOp45
 70
     1
102
RTVSPost2010Prop46
 90
       50
102
RTVSPost2010PropOp46
 70
     1
102
RTVSPost2010Prop47
 90
       50
102
RTVSPost2010PropOp47
 70
     1
102
RTVSPost2010Prop48
 90
       50
102
RTVSPost2010PropOp48
 70
     1
102
RTVSPost2010Prop49
280
     0
102
RTVSPost2010PropOp49
 70
     1
102
RTVSPost2010Prop50
 90
       50
102
RTVSPost2010PropOp50
 70
     1
102
RTVSPost2010Prop51ColorIndex
 90
      256
102
RTVSPost2010Prop51ColorRGB
 90
-16777216
102
RTVSPost2010PropOp51
 70
     0
102
RTVSPost2010Prop52
140
1.0
102
RTVSPost2010PropOp52
 70
     0
102
RTVSPost2010Prop53
 90
        2
102
RTVSPost2010PropOp53
 70
     1
102
RTVSPost2010Prop54
  1
strokes_ogs.tif
102
RTVSPost2010PropOp54
 70
     1
102
RTVSPost2010Prop55
280
     0
102
RTVSPost2010PropOp55
 70
     1
102
RTVSPost2010Prop56
140
1.0
102
RTVSPost2010PropOp56
 70
     1
102
RTVSPost2010Prop57
140
1.0
102
RTVSPost2010PropOp57
 70
     1
102
RTVSPropertyOp0
 70
     1
102
RTVSPropertyOp1
 70
     1
102
RTVSPropertyOp2
 70
     1
102
RTVSPropertyOp3
 70
     1
102
RTVSPropertyOp4
 70
     1
102
RTVSPropertyOp5
 70
     1
102
RTVSPropertyOp6
 70
     1
102
RTVSPropertyOp7
 70
     1
102
RTVSPropertyOp8
 70
     1
102
RTVSPropertyOp9
 70
     1
102
RTVSPropertyOp10
 70
     1
102
RTVSPropertyOp11
 70
     1
102
RTVSPropertyOp12
 70
     1
102
RTVSPropertyOp13
 70
     1
102
RTVSPropertyOp14
 70
     1
102
RTVSPropertyOp15
 70
     1
102
RTVSPropertyOp16
 70
     1
102
RTVSPropertyOp17
 70
     1
102
RTVSPropertyOp18
 70
     1
102
RTVSPropertyOp19
 70
     1
102
RTVSPropertyOp20
 70
     1
102
RTVSPropertyOp21
 70
     1
102
RTVSPropertyOp22
 70
     1
102
RTVSPropertyOp23
 70
     1
102
RTVSPropertyOp24
 70
     1
102
RTVSPropertyOp25
 70
     1
102
RTVSPropertyOp26
 70
     1
102
RTVSPropertyOp27
 70
     1
102
RTVSPropertyOp28
 70
     1
102
RTVSPropertyOp29
 70
     1
102
RTVSPropertyOp30
 70
     1
102
RTVSPropertyOp31
 70
     1
102
RTVSPropertyOp32
 70
     1
102
RTVSPropertyOp33
 70
     1
102
RTVSPropertyOp34
 70
     1
102
RTVSPropertyOp35
 70
     1
102
RTVSPropertyOp36
 70
     1
102
RTVSPropertyOp37
 70
     1
102
RTVSPropertyOp38
 70
     1
102
RTVSPropertyOp39
 70
     1
102
RTVSPropertyOp40
 70
     1
102
RTVSPropertyOp41
 70
     1
102
RTVSPropertyOp42
 70
     1
102
RTVSPropertyOp43
 70
     1
102
RTVSPropertyOp44
 70
     1
102
RTVSPropertyOp45
 70
     1
102
RTVSPropertyOp46
 70
     1
102
RTVSPropertyOp47
 70
     1
102
RTVSPropertyOp48
 70
     1
102
RTVSPropertyOp49
 70
     1
102
RTVSPropertyOp50
 70
     1
102
RTVSPropertyOp51
 70
     0
102
RTVSPropertyOp52
 70
     0
102
RTVSPropertyOp53
 70
     1
102
RTVSPropertyOp54
 70
     1
102
RTVSPropertyOp55
 70
     1
102
RTVSPropertyOp56
 70
     1
102
RTVSPropertyOp57
 70
     1
102
RTVSPropertyOp58
 70
     1
102
RTVSPropertyOp59
 70
     1
102
RTVSPropertyOp60
 70
     1
102
RTVSPropertyOp61
 70
     1
102
RTVSPropertyOp62
 70
     1
  0
XRECORD
  5
1C8CDE6ACEDD
102
{ACAD_REACTORS
330
1C8CDE6ACEDC
102
}
330
1C8CDE6ACEDC
100
AcDbXrecord
280
     1
102
RTVSPost2010Prop28
280
     0
102
RTVSPost2010PropOp28
 70
     1
102
RTVSPost2010Prop29
280
     1
102
RTVSPost2010PropOp29
 70
     1
102
RTVSPost2010Prop30
280
     1
102
RTVSPost2010PropOp30
 70
     1
102
RTVSPost2010Prop31
280
     0
102
RTVSPost2010PropOp31
 70
     1
102
RTVSPost2010Prop32
280
     0
102
RTVSPost2010PropOp32
 70
     1
102
RTVSPost2010Prop33
280
     0
102
RTVSPost2010PropOp33
 70
     1
102
RTVSPost2010Prop34
280
     0
102
RTVSPost2010PropOp34
 70
     1
102
RTVSPost2010Prop35
280
     0
102
RTVSPost2010PropOp35
 70
     1
102
RTVSPost2010Prop36
280
     0
102
RTVSPost2010PropOp36
 70
     1
102
RTVSPost2010Prop37
 90
       50
102
RTVSPost2010PropOp37
 70
     1
102
RTVSPost2010Prop38
140
0.0
102
RTVSPost2010PropOp38
 70
     1
102
RTVSPost2010Prop39
140
1.0
102
RTVSPost2010PropOp39
 70
     1
102
RTVSPost2010Prop40
 90
        0
102
RTVSPost2010PropOp40
 70
     1
102
RTVSPost2010Prop41ColorIndex
 90
       18
102
RTVSPost2010Prop41ColorRGB
 90
        0
102
RTVSPost2010PropOp41
 70
     1
102
RTVSPost2010Prop42
 90
       50
102
RTVSPost2010PropOp42
 70
     1
102
RTVSPost2010Prop43
 90
        3
102
RTVSPost2010PropOp43
 70
     1
102
RTVSPost2010Prop44ColorIndex
 90
        5
102
RTVSPost2010Prop44ColorRGB
 90
      255
102
RTVSPost2010PropOp44
 70
     1
102
RTVSPost2010Prop45
280
     0
102
RTVSPost2010PropOp45
 70
     1
102
RTVSPost2010Prop46
 90
       50
102
RTVSPost2010PropOp46
 70
     1
102
RTVSPost2010Prop47
 90
       50
102
RTVSPost2010PropOp47
 70
     1
102
RTVSPost2010Prop48
 90
       50
102
RTVSPost2010PropOp48
 70
     1
102
RTVSPost2010Prop49
280
     0
102
RTVSPost2010PropOp49
 70
     1
102
RTVSPost2010Prop50
 90
       50
102
RTVSPost2010PropOp50
 70
     1
102
RTVSPost2010Prop51ColorIndex
 90
      256
102
RTVSPost2010Prop51ColorRGB
 90
-16777216
102
RTVSPost2010PropOp51
 70
     0
102
RTVSPost2010Prop52
140
1.0
102
RTVSPost2010PropOp52
 70
     0
102
RTVSPost2010Prop53
 90
        2
102
RTVSPost2010PropOp53
 70
     1
102
RTVSPost2010Prop54
  1
strokes_ogs.tif
102
RTVSPost2010PropOp54
 70
     1
102
RTVSPost2010Prop55
280
     0
102
RTVSPost2010PropOp55
 70
     1
102
RTVSPost2010Prop56
140
1.0
102
RTVSPost2010PropOp56
 70
     1
102
RTVSPost2010Prop57
140
1.0
102
RTVSPost2010PropOp57
 70
     1
102
RTVSPropertyOp0
 70
     1
102
RTVSPropertyOp1
 70
     1
102
RTVSPropertyOp2
 70
     1
102
RTVSPropertyOp3
 70
     1
102
RTVSPropertyOp4
 70
     1
102
RTVSPropertyOp5
 70
     1
102
RTVSPropertyOp6
 70
     1
102
RTVSPropertyOp7
 70
     1
102
RTVSPropertyOp8
 70
     1
102
RTVSPropertyOp9
 70
     1
102
RTVSPropertyOp10
 70
     1
102
RTVSPropertyOp11
 70
     1
102
RTVSPropertyOp12
 70
     1
102
RTVSPropertyOp13
 70
     1
102
RTVSPropertyOp14
 70
     1
102
RTVSPropertyOp15
 70
     1
102
RTVSPropertyOp16
 70
     1
102
RTVSPropertyOp17
 70
     1
102
RTVSPropertyOp18
 70
     1
102
RTVSPropertyOp19
 70
     1
102
RTVSPropertyOp20
 70
     1
102
RTVSPropertyOp21
 70
     1
102
RTVSPropertyOp22
 70
     1
102
RTVSPropertyOp23
 70
     1
102
RTVSPropertyOp24
 70
     1
102
RTVSPropertyOp25
 70
     1
102
RTVSPropertyOp26
 70
     1
102
RTVSPropertyOp27
 70
     1
102
RTVSPropertyOp28
 70
     1
102
RTVSPropertyOp29
 70
     1
102
RTVSPropertyOp30
 70
     1
102
RTVSPropertyOp31
 70
     1
102
RTVSPropertyOp32
 70
     1
102
RTVSPropertyOp33
 70
     1
102
RTVSPropertyOp34
 70
     1
102
RTVSPropertyOp35
 70
     1
102
RTVSPropertyOp36
 70
     1
102
RTVSPropertyOp37
 70
     1
102
RTVSPropertyOp38
 70
     1
102
RTVSPropertyOp39
 70
     1
102
RTVSPropertyOp40
 70
     1
102
RTVSPropertyOp41
 70
     1
102
RTVSPropertyOp42
 70
     1
102
RTVSPropertyOp43
 70
     1
102
RTVSPropertyOp44
 70
     1
102
RTVSPropertyOp45
 70
     1
102
RTVSPropertyOp46
 70
     1
102
RTVSPropertyOp47
 70
     1
102
RTVSPropertyOp48
 70
     1
102
RTVSPropertyOp49
 70
     1
102
RTVSPropertyOp50
 70
     1
102
RTVSPropertyOp51
 70
     0
102
RTVSPropertyOp52
 70
     0
102
RTVSPropertyOp53
 70
     1
102
RTVSPropertyOp54
 70
     1
102
RTVSPropertyOp55
 70
     1
102
RTVSPropertyOp56
 70
     1
102
RTVSPropertyOp57
 70
     1
102
RTVSPropertyOp58
 70
     1
102
RTVSPropertyOp59
 70
     1
102
RTVSPropertyOp60
 70
     1
102
RTVSPropertyOp61
 70
     1
102
RTVSPropertyOp62
 70
     1
  0
XRECORD
  5
1C8CDE6ACEE5
102
{ACAD_REACTORS
330
1C8CDE6ACEE4
102
}
330
1C8CDE6ACEE4
100
AcDbXrecord
280
     1
102
RTVSPost2010Prop28
280
     0
102
RTVSPost2010PropOp28
 70
     1
102
RTVSPost2010Prop29
280
     1
102
RTVSPost2010PropOp29
 70
     1
102
RTVSPost2010Prop30
280
     1
102
RTVSPost2010PropOp30
 70
     1
102
RTVSPost2010Prop31
280
     0
102
RTVSPost2010PropOp31
 70
     1
102
RTVSPost2010Prop32
280
     0
102
RTVSPost2010PropOp32
 70
     1
102
RTVSPost2010Prop33
280
     0
102
RTVSPost2010PropOp33
 70
     1
102
RTVSPost2010Prop34
280
     0
102
RTVSPost2010PropOp34
 70
     1
102
RTVSPost2010Prop35
280
     0
102
RTVSPost2010PropOp35
 70
     1
102
RTVSPost2010Prop36
280
     0
102
RTVSPost2010PropOp36
 70
     1
102
RTVSPost2010Prop37
 90
       50
102
RTVSPost2010PropOp37
 70
     1
102
RTVSPost2010Prop38
140
0.0
102
RTVSPost2010PropOp38
 70
     1
102
RTVSPost2010Prop39
140
1.0
102
RTVSPost2010PropOp39
 70
     1
102
RTVSPost2010Prop40
 90
        0
102
RTVSPost2010PropOp40
 70
     1
102
RTVSPost2010Prop41ColorIndex
 90
       18
102
RTVSPost2010Prop41ColorRGB
 90
        0
102
RTVSPost2010PropOp41
 70
     1
102
RTVSPost2010Prop42
 90
       50
102
RTVSPost2010PropOp42
 70
     1
102
RTVSPost2010Prop43
 90
        3
102
RTVSPost2010PropOp43
 70
     1
102
RTVSPost2010Prop44ColorIndex
 90
        5
102
RTVSPost2010Prop44ColorRGB
 90
      255
102
RTVSPost2010PropOp44
 70
     1
102
RTVSPost2010Prop45
280
     0
102
RTVSPost2010PropOp45
 70
     1
102
RTVSPost2010Prop46
 90
       50
102
RTVSPost2010PropOp46
 70
     1
102
RTVSPost2010Prop47
 90
       50
102
RTVSPost2010PropOp47
 70
     1
102
RTVSPost2010Prop48
 90
       50
102
RTVSPost2010PropOp48
 70
     1
102
RTVSPost2010Prop49
280
     0
102
RTVSPost2010PropOp49
 70
     1
102
RTVSPost2010Prop50
 90
       50
102
RTVSPost2010PropOp50
 70
     1
102
RTVSPost2010Prop51ColorIndex
 90
      256
102
RTVSPost2010Prop51ColorRGB
 90
-16777216
102
RTVSPost2010PropOp51
 70
     0
102
RTVSPost2010Prop52
140
1.0
102
RTVSPost2010PropOp52
 70
     0
102
RTVSPost2010Prop53
 90
        2
102
RTVSPost2010PropOp53
 70
     1
102
RTVSPost2010Prop54
  1
strokes_ogs.tif
102
RTVSPost2010PropOp54
 70
     1
102
RTVSPost2010Prop55
280
     0
102
RTVSPost2010PropOp55
 70
     1
102
RTVSPost2010Prop56
140
1.0
102
RTVSPost2010PropOp56
 70
     1
102
RTVSPost2010Prop57
140
1.0
102
RTVSPost2010PropOp57
 70
     1
102
RTVSPropertyOp0
 70
     1
102
RTVSPropertyOp1
 70
     1
102
RTVSPropertyOp2
 70
     1
102
RTVSPropertyOp3
 70
     1
102
RTVSPropertyOp4
 70
     1
102
RTVSPropertyOp5
 70
     1
102
RTVSPropertyOp6
 70
     1
102
RTVSPropertyOp7
 70
     1
102
RTVSPropertyOp8
 70
     1
102
RTVSPropertyOp9
 70
     1
102
RTVSPropertyOp10
 70
     1
102
RTVSPropertyOp11
 70
     1
102
RTVSPropertyOp12
 70
     1
102
RTVSPropertyOp13
 70
     1
102
RTVSPropertyOp14
 70
     1
102
RTVSPropertyOp15
 70
     1
102
RTVSPropertyOp16
 70
     1
102
RTVSPropertyOp17
 70
     1
102
RTVSPropertyOp18
 70
     1
102
RTVSPropertyOp19
 70
     1
102
RTVSPropertyOp20
 70
     1
102
RTVSPropertyOp21
 70
     1
102
RTVSPropertyOp22
 70
     1
102
RTVSPropertyOp23
 70
     1
102
RTVSPropertyOp24
 70
     1
102
RTVSPropertyOp25
 70
     1
102
RTVSPropertyOp26
 70
     1
102
RTVSPropertyOp27
 70
     1
102
RTVSPropertyOp28
 70
     1
102
RTVSPropertyOp29
 70
     1
102
RTVSPropertyOp30
 70
     1
102
RTVSPropertyOp31
 70
     1
102
RTVSPropertyOp32
 70
     1
102
RTVSPropertyOp33
 70
     1
102
RTVSPropertyOp34
 70
     1
102
RTVSPropertyOp35
 70
     1
102
RTVSPropertyOp36
 70
     1
102
RTVSPropertyOp37
 70
     1
102
RTVSPropertyOp38
 70
     1
102
RTVSPropertyOp39
 70
     1
102
RTVSPropertyOp40
 70
     1
102
RTVSPropertyOp41
 70
     1
102
RTVSPropertyOp42
 70
     1
102
RTVSPropertyOp43
 70
     1
102
RTVSPropertyOp44
 70
     1
102
RTVSPropertyOp45
 70
     1
102
RTVSPropertyOp46
 70
     1
102
RTVSPropertyOp47
 70
     1
102
RTVSPropertyOp48
 70
     1
102
RTVSPropertyOp49
 70
     1
102
RTVSPropertyOp50
 70
     1
102
RTVSPropertyOp51
 70
     0
102
RTVSPropertyOp52
 70
     0
102
RTVSPropertyOp53
 70
     1
102
RTVSPropertyOp54
 70
     1
102
RTVSPropertyOp55
 70
     1
102
RTVSPropertyOp56
 70
     1
102
RTVSPropertyOp57
 70
     1
102
RTVSPropertyOp58
 70
     1
102
RTVSPropertyOp59
 70
     1
102
RTVSPropertyOp60
 70
     1
102
RTVSPropertyOp61
 70
     1
102
RTVSPropertyOp62
 70
     1
  0
XRECORD
  5
1C8CDE6ACEED
102
{ACAD_REACTORS
330
1C8CDE6ACEEC
102
}
330
1C8CDE6ACEEC
100
AcDbXrecord
280
     1
102
RTVSPost2010Prop28
280
     0
102
RTVSPost2010PropOp28
 70
     1
102
RTVSPost2010Prop29
280
     1
102
RTVSPost2010PropOp29
 70
     1
102
RTVSPost2010Prop30
280
     1
102
RTVSPost2010PropOp30
 70
     1
102
RTVSPost2010Prop31
280
     0
102
RTVSPost2010PropOp31
 70
     1
102
RTVSPost2010Prop32
280
     0
102
RTVSPost2010PropOp32
 70
     1
102
RTVSPost2010Prop33
280
     0
102
RTVSPost2010PropOp33
 70
     1
102
RTVSPost2010Prop34
280
     0
102
RTVSPost2010PropOp34
 70
     1
102
RTVSPost2010Prop35
280
     0
102
RTVSPost2010PropOp35
 70
     1
102
RTVSPost2010Prop36
280
     0
102
RTVSPost2010PropOp36
 70
     1
102
RTVSPost2010Prop37
 90
       50
102
RTVSPost2010PropOp37
 70
     1
102
RTVSPost2010Prop38
140
0.0
102
RTVSPost2010PropOp38
 70
     1
102
RTVSPost2010Prop39
140
1.0
102
RTVSPost2010PropOp39
 70
     1
102
RTVSPost2010Prop40
 90
        0
102
RTVSPost2010PropOp40
 70
     1
102
RTVSPost2010Prop41ColorIndex
 90
       18
102
RTVSPost2010Prop41ColorRGB
 90
        0
102
RTVSPost2010PropOp41
 70
     1
102
RTVSPost2010Prop42
 90
       50
102
RTVSPost2010PropOp42
 70
     1
102
RTVSPost2010Prop43
 90
        3
102
RTVSPost2010PropOp43
 70
     1
102
RTVSPost2010Prop44ColorIndex
 90
        5
102
RTVSPost2010Prop44ColorRGB
 90
      255
102
RTVSPost2010PropOp44
 70
     1
102
RTVSPost2010Prop45
280
     0
102
RTVSPost2010PropOp45
 70
     1
102
RTVSPost2010Prop46
 90
       50
102
RTVSPost2010PropOp46
 70
     1
102
RTVSPost2010Prop47
 90
       50
102
RTVSPost2010PropOp47
 70
     1
102
RTVSPost2010Prop48
 90
       50
102
RTVSPost2010PropOp48
 70
     1
102
RTVSPost2010Prop49
280
     0
102
RTVSPost2010PropOp49
 70
     1
102
RTVSPost2010Prop50
 90
       50
102
RTVSPost2010PropOp50
 70
     1
102
RTVSPost2010Prop51ColorIndex
 90
      256
102
RTVSPost2010Prop51ColorRGB
 90
-16777216
102
RTVSPost2010PropOp51
 70
     0
102
RTVSPost2010Prop52
140
1.0
102
RTVSPost2010PropOp52
 70
     0
102
RTVSPost2010Prop53
 90
        2
102
RTVSPost2010PropOp53
 70
     1
102
RTVSPost2010Prop54
  1
strokes_ogs.tif
102
RTVSPost2010PropOp54
 70
     1
102
RTVSPost2010Prop55
280
     0
102
RTVSPost2010PropOp55
 70
     1
102
RTVSPost2010Prop56
140
1.0
102
RTVSPost2010PropOp56
 70
     1
102
RTVSPost2010Prop57
140
1.0
102
RTVSPost2010PropOp57
 70
     1
102
RTVSPropertyOp0
 70
     1
102
RTVSPropertyOp1
 70
     1
102
RTVSPropertyOp2
 70
     1
102
RTVSPropertyOp3
 70
     1
102
RTVSPropertyOp4
 70
     1
102
RTVSPropertyOp5
 70
     1
102
RTVSPropertyOp6
 70
     1
102
RTVSPropertyOp7
 70
     1
102
RTVSPropertyOp8
 70
     1
102
RTVSPropertyOp9
 70
     1
102
RTVSPropertyOp10
 70
     1
102
RTVSPropertyOp11
 70
     1
102
RTVSPropertyOp12
 70
     1
102
RTVSPropertyOp13
 70
     1
102
RTVSPropertyOp14
 70
     1
102
RTVSPropertyOp15
 70
     1
102
RTVSPropertyOp16
 70
     1
102
RTVSPropertyOp17
 70
     1
102
RTVSPropertyOp18
 70
     1
102
RTVSPropertyOp19
 70
     1
102
RTVSPropertyOp20
 70
     1
102
RTVSPropertyOp21
 70
     1
102
RTVSPropertyOp22
 70
     1
102
RTVSPropertyOp23
 70
     1
102
RTVSPropertyOp24
 70
     1
102
RTVSPropertyOp25
 70
     1
102
RTVSPropertyOp26
 70
     1
102
RTVSPropertyOp27
 70
     1
102
RTVSPropertyOp28
 70
     1
102
RTVSPropertyOp29
 70
     1
102
RTVSPropertyOp30
 70
     1
102
RTVSPropertyOp31
 70
     1
102
RTVSPropertyOp32
 70
     1
102
RTVSPropertyOp33
 70
     1
102
RTVSPropertyOp34
 70
     1
102
RTVSPropertyOp35
 70
     1
102
RTVSPropertyOp36
 70
     1
102
RTVSPropertyOp37
 70
     1
102
RTVSPropertyOp38
 70
     1
102
RTVSPropertyOp39
 70
     1
102
RTVSPropertyOp40
 70
     1
102
RTVSPropertyOp41
 70
     1
102
RTVSPropertyOp42
 70
     1
102
RTVSPropertyOp43
 70
     1
102
RTVSPropertyOp44
 70
     1
102
RTVSPropertyOp45
 70
     1
102
RTVSPropertyOp46
 70
     1
102
RTVSPropertyOp47
 70
     1
102
RTVSPropertyOp48
 70
     1
102
RTVSPropertyOp49
 70
     1
102
RTVSPropertyOp50
 70
     1
102
RTVSPropertyOp51
 70
     0
102
RTVSPropertyOp52
 70
     0
102
RTVSPropertyOp53
 70
     1
102
RTVSPropertyOp54
 70
     1
102
RTVSPropertyOp55
 70
     1
102
RTVSPropertyOp56
 70
     1
102
RTVSPropertyOp57
 70
     1
102
RTVSPropertyOp58
 70
     1
102
RTVSPropertyOp59
 70
     1
102
RTVSPropertyOp60
 70
     1
102
RTVSPropertyOp61
 70
     1
102
RTVSPropertyOp62
 70
     1
  0
XRECORD
  5
1C8CDE6ACEE1
102
{ACAD_REACTORS
330
1C8CDE6ACEE0
102
}
330
1C8CDE6ACEE0
100
AcDbXrecord
280
     1
102
RTVSPost2010Prop28
280
     0
102
RTVSPost2010PropOp28
 70
     1
102
RTVSPost2010Prop29
280
     1
102
RTVSPost2010PropOp29
 70
     1
102
RTVSPost2010Prop30
280
     1
102
RTVSPost2010PropOp30
 70
     1
102
RTVSPost2010Prop31
280
     0
102
RTVSPost2010PropOp31
 70
     1
102
RTVSPost2010Prop32
280
     0
102
RTVSPost2010PropOp32
 70
     1
102
RTVSPost2010Prop33
280
     0
102
RTVSPost2010PropOp33
 70
     1
102
RTVSPost2010Prop34
280
     0
102
RTVSPost2010PropOp34
 70
     1
102
RTVSPost2010Prop35
280
     0
102
RTVSPost2010PropOp35
 70
     1
102
RTVSPost2010Prop36
280
     0
102
RTVSPost2010PropOp36
 70
     1
102
RTVSPost2010Prop37
 90
       50
102
RTVSPost2010PropOp37
 70
     1
102
RTVSPost2010Prop38
140
0.0
102
RTVSPost2010PropOp38
 70
     1
102
RTVSPost2010Prop39
140
1.0
102
RTVSPost2010PropOp39
 70
     1
102
RTVSPost2010Prop40
 90
        0
102
RTVSPost2010PropOp40
 70
     1
102
RTVSPost2010Prop41ColorIndex
 90
       18
102
RTVSPost2010Prop41ColorRGB
 90
        0
102
RTVSPost2010PropOp41
 70
     1
102
RTVSPost2010Prop42
 90
       50
102
RTVSPost2010PropOp42
 70
     1
102
RTVSPost2010Prop43
 90
        3
102
RTVSPost2010PropOp43
 70
     1
102
RTVSPost2010Prop44ColorIndex
 90
        5
102
RTVSPost2010Prop44ColorRGB
 90
      255
102
RTVSPost2010PropOp44
 70
     1
102
RTVSPost2010Prop45
280
     0
102
RTVSPost2010PropOp45
 70
     1
102
RTVSPost2010Prop46
 90
       50
102
RTVSPost2010PropOp46
 70
     1
102
RTVSPost2010Prop47
 90
       50
102
RTVSPost2010PropOp47
 70
     1
102
RTVSPost2010Prop48
 90
       50
102
RTVSPost2010PropOp48
 70
     1
102
RTVSPost2010Prop49
280
     0
102
RTVSPost2010PropOp49
 70
     1
102
RTVSPost2010Prop50
 90
       50
102
RTVSPost2010PropOp50
 70
     1
102
RTVSPost2010Prop51ColorIndex
 90
      256
102
RTVSPost2010Prop51ColorRGB
 90
-16777216
102
RTVSPost2010PropOp51
 70
     0
102
RTVSPost2010Prop52
140
1.0
102
RTVSPost2010PropOp52
 70
     0
102
RTVSPost2010Prop53
 90
        2
102
RTVSPost2010PropOp53
 70
     1
102
RTVSPost2010Prop54
  1
strokes_ogs.tif
102
RTVSPost2010PropOp54
 70
     1
102
RTVSPost2010Prop55
280
     0
102
RTVSPost2010PropOp55
 70
     1
102
RTVSPost2010Prop56
140
1.0
102
RTVSPost2010PropOp56
 70
     1
102
RTVSPost2010Prop57
140
1.0
102
RTVSPost2010PropOp57
 70
     1
102
RTVSPropertyOp0
 70
     1
102
RTVSPropertyOp1
 70
     1
102
RTVSPropertyOp2
 70
     1
102
RTVSPropertyOp3
 70
     1
102
RTVSPropertyOp4
 70
     1
102
RTVSPropertyOp5
 70
     1
102
RTVSPropertyOp6
 70
     1
102
RTVSPropertyOp7
 70
     1
102
RTVSPropertyOp8
 70
     1
102
RTVSPropertyOp9
 70
     1
102
RTVSPropertyOp10
 70
     1
102
RTVSPropertyOp11
 70
     1
102
RTVSPropertyOp12
 70
     1
102
RTVSPropertyOp13
 70
     1
102
RTVSPropertyOp14
 70
     1
102
RTVSPropertyOp15
 70
     1
102
RTVSPropertyOp16
 70
     1
102
RTVSPropertyOp17
 70
     1
102
RTVSPropertyOp18
 70
     1
102
RTVSPropertyOp19
 70
     1
102
RTVSPropertyOp20
 70
     1
102
RTVSPropertyOp21
 70
     1
102
RTVSPropertyOp22
 70
     1
102
RTVSPropertyOp23
 70
     1
102
RTVSPropertyOp24
 70
     1
102
RTVSPropertyOp25
 70
     1
102
RTVSPropertyOp26
 70
     1
102
RTVSPropertyOp27
 70
     1
102
RTVSPropertyOp28
 70
     1
102
RTVSPropertyOp29
 70
     1
102
RTVSPropertyOp30
 70
     1
102
RTVSPropertyOp31
 70
     1
102
RTVSPropertyOp32
 70
     1
102
RTVSPropertyOp33
 70
     1
102
RTVSPropertyOp34
 70
     1
102
RTVSPropertyOp35
 70
     1
102
RTVSPropertyOp36
 70
     1
102
RTVSPropertyOp37
 70
     1
102
RTVSPropertyOp38
 70
     1
102
RTVSPropertyOp39
 70
     1
102
RTVSPropertyOp40
 70
     1
102
RTVSPropertyOp41
 70
     1
102
RTVSPropertyOp42
 70
     1
102
RTVSPropertyOp43
 70
     1
102
RTVSPropertyOp44
 70
     1
102
RTVSPropertyOp45
 70
     1
102
RTVSPropertyOp46
 70
     1
102
RTVSPropertyOp47
 70
     1
102
RTVSPropertyOp48
 70
     1
102
RTVSPropertyOp49
 70
     1
102
RTVSPropertyOp50
 70
     1
102
RTVSPropertyOp51
 70
     0
102
RTVSPropertyOp52
 70
     0
102
RTVSPropertyOp53
 70
     1
102
RTVSPropertyOp54
 70
     1
102
RTVSPropertyOp55
 70
     1
102
RTVSPropertyOp56
 70
     1
102
RTVSPropertyOp57
 70
     1
102
RTVSPropertyOp58
 70
     1
102
RTVSPropertyOp59
 70
     1
102
RTVSPropertyOp60
 70
     1
102
RTVSPropertyOp61
 70
     1
102
RTVSPropertyOp62
 70
     1
  0
XRECORD
  5
1C8CDE6ACEE3
102
{ACAD_REACTORS
330
1C8CDE6ACEE2
102
}
330
1C8CDE6ACEE2
100
AcDbXrecord
280
     1
102
RTVSPost2010Prop28
280
     0
102
RTVSPost2010PropOp28
 70
     1
102
RTVSPost2010Prop29
280
     1
102
RTVSPost2010PropOp29
 70
     1
102
RTVSPost2010Prop30
280
     1
102
RTVSPost2010PropOp30
 70
     1
102
RTVSPost2010Prop31
280
     0
102
RTVSPost2010PropOp31
 70
     1
102
RTVSPost2010Prop32
280
     0
102
RTVSPost2010PropOp32
 70
     1
102
RTVSPost2010Prop33
280
     0
102
RTVSPost2010PropOp33
 70
     1
102
RTVSPost2010Prop34
280
     0
102
RTVSPost2010PropOp34
 70
     1
102
RTVSPost2010Prop35
280
     0
102
RTVSPost2010PropOp35
 70
     1
102
RTVSPost2010Prop36
280
     0
102
RTVSPost2010PropOp36
 70
     1
102
RTVSPost2010Prop37
 90
       50
102
RTVSPost2010PropOp37
 70
     1
102
RTVSPost2010Prop38
140
0.0
102
RTVSPost2010PropOp38
 70
     1
102
RTVSPost2010Prop39
140
1.0
102
RTVSPost2010PropOp39
 70
     1
102
RTVSPost2010Prop40
 90
        0
102
RTVSPost2010PropOp40
 70
     1
102
RTVSPost2010Prop41ColorIndex
 90
       18
102
RTVSPost2010Prop41ColorRGB
 90
        0
102
RTVSPost2010PropOp41
 70
     1
102
RTVSPost2010Prop42
 90
       50
102
RTVSPost2010PropOp42
 70
     1
102
RTVSPost2010Prop43
 90
        3
102
RTVSPost2010PropOp43
 70
     1
102
RTVSPost2010Prop44ColorIndex
 90
        5
102
RTVSPost2010Prop44ColorRGB
 90
      255
102
RTVSPost2010PropOp44
 70
     1
102
RTVSPost2010Prop45
280
     0
102
RTVSPost2010PropOp45
 70
     1
102
RTVSPost2010Prop46
 90
       50
102
RTVSPost2010PropOp46
 70
     1
102
RTVSPost2010Prop47
 90
       50
102
RTVSPost2010PropOp47
 70
     1
102
RTVSPost2010Prop48
 90
       50
102
RTVSPost2010PropOp48
 70
     1
102
RTVSPost2010Prop49
280
     0
102
RTVSPost2010PropOp49
 70
     1
102
RTVSPost2010Prop50
 90
       50
102
RTVSPost2010PropOp50
 70
     1
102
RTVSPost2010Prop51ColorIndex
 90
      256
102
RTVSPost2010Prop51ColorRGB
 90
-16777216
102
RTVSPost2010PropOp51
 70
     0
102
RTVSPost2010Prop52
140
1.0
102
RTVSPost2010PropOp52
 70
     0
102
RTVSPost2010Prop53
 90
        2
102
RTVSPost2010PropOp53
 70
     1
102
RTVSPost2010Prop54
  1
strokes_ogs.tif
102
RTVSPost2010PropOp54
 70
     1
102
RTVSPost2010Prop55
280
     0
102
RTVSPost2010PropOp55
 70
     1
102
RTVSPost2010Prop56
140
1.0
102
RTVSPost2010PropOp56
 70
     1
102
RTVSPost2010Prop57
140
1.0
102
RTVSPost2010PropOp57
 70
     1
102
RTVSPropertyOp0
 70
     1
102
RTVSPropertyOp1
 70
     1
102
RTVSPropertyOp2
 70
     1
102
RTVSPropertyOp3
 70
     1
102
RTVSPropertyOp4
 70
     1
102
RTVSPropertyOp5
 70
     1
102
RTVSPropertyOp6
 70
     1
102
RTVSPropertyOp7
 70
     1
102
RTVSPropertyOp8
 70
     1
102
RTVSPropertyOp9
 70
     1
102
RTVSPropertyOp10
 70
     1
102
RTVSPropertyOp11
 70
     1
102
RTVSPropertyOp12
 70
     1
102
RTVSPropertyOp13
 70
     1
102
RTVSPropertyOp14
 70
     1
102
RTVSPropertyOp15
 70
     1
102
RTVSPropertyOp16
 70
     1
102
RTVSPropertyOp17
 70
     1
102
RTVSPropertyOp18
 70
     1
102
RTVSPropertyOp19
 70
     1
102
RTVSPropertyOp20
 70
     1
102
RTVSPropertyOp21
 70
     1
102
RTVSPropertyOp22
 70
     1
102
RTVSPropertyOp23
 70
     1
102
RTVSPropertyOp24
 70
     1
102
RTVSPropertyOp25
 70
     1
102
RTVSPropertyOp26
 70
     1
102
RTVSPropertyOp27
 70
     1
102
RTVSPropertyOp28
 70
     1
102
RTVSPropertyOp29
 70
     1
102
RTVSPropertyOp30
 70
     1
102
RTVSPropertyOp31
 70
     1
102
RTVSPropertyOp32
 70
     1
102
RTVSPropertyOp33
 70
     1
102
RTVSPropertyOp34
 70
     1
102
RTVSPropertyOp35
 70
     1
102
RTVSPropertyOp36
 70
     1
102
RTVSPropertyOp37
 70
     1
102
RTVSPropertyOp38
 70
     1
102
RTVSPropertyOp39
 70
     1
102
RTVSPropertyOp40
 70
     1
102
RTVSPropertyOp41
 70
     1
102
RTVSPropertyOp42
 70
     1
102
RTVSPropertyOp43
 70
     1
102
RTVSPropertyOp44
 70
     1
102
RTVSPropertyOp45
 70
     1
102
RTVSPropertyOp46
 70
     1
102
RTVSPropertyOp47
 70
     1
102
RTVSPropertyOp48
 70
     1
102
RTVSPropertyOp49
 70
     1
102
RTVSPropertyOp50
 70
     1
102
RTVSPropertyOp51
 70
     0
102
RTVSPropertyOp52
 70
     0
102
RTVSPropertyOp53
 70
     1
102
RTVSPropertyOp54
 70
     1
102
RTVSPropertyOp55
 70
     1
102
RTVSPropertyOp56
 70
     1
102
RTVSPropertyOp57
 70
     1
102
RTVSPropertyOp58
 70
     1
102
RTVSPropertyOp59
 70
     1
102
RTVSPropertyOp60
 70
     1
102
RTVSPropertyOp61
 70
     1
102
RTVSPropertyOp62
 70
     1
  0
XRECORD
  5
1C8CDE6ACEF3
102
{ACAD_REACTORS
330
1C8CDE6ACEF2
102
}
330
1C8CDE6ACEF2
100
AcDbXrecord
280
     1
102
RTVSPost2010Prop28
280
     0
102
RTVSPost2010PropOp28
 70
     0
102
RTVSPost2010Prop29
280
     1
102
RTVSPost2010PropOp29
 70
     0
102
RTVSPost2010Prop30
280
     1
102
RTVSPost2010PropOp30
 70
     0
102
RTVSPost2010Prop31
280
     0
102
RTVSPost2010PropOp31
 70
     0
102
RTVSPost2010Prop32
280
     0
102
RTVSPost2010PropOp32
 70
     0
102
RTVSPost2010Prop33
280
     0
102
RTVSPost2010PropOp33
 70
     0
102
RTVSPost2010Prop34
280
     0
102
RTVSPost2010PropOp34
 70
     0
102
RTVSPost2010Prop35
280
     0
102
RTVSPost2010PropOp35
 70
     0
102
RTVSPost2010Prop36
280
     0
102
RTVSPost2010PropOp36
 70
     0
102
RTVSPost2010Prop37
 90
       50
102
RTVSPost2010PropOp37
 70
     0
102
RTVSPost2010Prop38
140
0.0
102
RTVSPost2010PropOp38
 70
     0
102
RTVSPost2010Prop39
140
1.0
102
RTVSPost2010PropOp39
 70
     0
102
RTVSPost2010Prop40
 90
        0
102
RTVSPost2010PropOp40
 70
     0
102
RTVSPost2010Prop41ColorIndex
 90
       18
102
RTVSPost2010Prop41ColorRGB
 90
        0
102
RTVSPost2010PropOp41
 70
     0
102
RTVSPost2010Prop42
 90
       50
102
RTVSPost2010PropOp42
 70
     0
102
RTVSPost2010Prop43
 90
        3
102
RTVSPost2010PropOp43
 70
     0
102
RTVSPost2010Prop44ColorIndex
 90
        5
102
RTVSPost2010Prop44ColorRGB
 90
      255
102
RTVSPost2010PropOp44
 70
     0
102
RTVSPost2010Prop45
280
     0
102
RTVSPost2010PropOp45
 70
     0
102
RTVSPost2010Prop46
 90
       50
102
RTVSPost2010PropOp46
 70
     0
102
RTVSPost2010Prop47
 90
       50
102
RTVSPost2010PropOp47
 70
     0
102
RTVSPost2010Prop48
 90
       50
102
RTVSPost2010PropOp48
 70
     0
102
RTVSPost2010Prop49
280
     0
102
RTVSPost2010PropOp49
 70
     0
102
RTVSPost2010Prop50
 90
       50
102
RTVSPost2010PropOp50
 70
     0
102
RTVSPost2010Prop51ColorIndex
 90
      256
102
RTVSPost2010Prop51ColorRGB
 90
-16777216
102
RTVSPost2010PropOp51
 70
     0
102
RTVSPost2010Prop52
140
1.0
102
RTVSPost2010PropOp52
 70
     0
102
RTVSPost2010Prop53
 90
        2
102
RTVSPost2010PropOp53
 70
     0
102
RTVSPost2010Prop54
  1
strokes_ogs.tif
102
RTVSPost2010PropOp54
 70
     0
102
RTVSPost2010Prop55
280
     0
102
RTVSPost2010PropOp55
 70
     0
102
RTVSPost2010Prop56
140
1.0
102
RTVSPost2010PropOp56
 70
     0
102
RTVSPost2010Prop57
140
1.0
102
RTVSPost2010PropOp57
 70
     0
102
RTVSPropertyOp0
 70
     0
102
RTVSPropertyOp1
 70
     0
102
RTVSPropertyOp2
 70
     0
102
RTVSPropertyOp3
 70
     0
102
RTVSPropertyOp4
 70
     0
102
RTVSPropertyOp5
 70
     0
102
RTVSPropertyOp6
 70
     0
102
RTVSPropertyOp7
 70
     0
102
RTVSPropertyOp8
 70
     0
102
RTVSPropertyOp9
 70
     0
102
RTVSPropertyOp10
 70
     0
102
RTVSPropertyOp11
 70
     0
102
RTVSPropertyOp12
 70
     0
102
RTVSPropertyOp13
 70
     0
102
RTVSPropertyOp14
 70
     2
102
RTVSPropertyOp15
 70
     0
102
RTVSPropertyOp16
 70
     0
102
RTVSPropertyOp17
 70
     0
102
RTVSPropertyOp18
 70
     0
102
RTVSPropertyOp19
 70
     0
102
RTVSPropertyOp20
 70
     0
102
RTVSPropertyOp21
 70
     0
102
RTVSPropertyOp22
 70
     0
102
RTVSPropertyOp23
 70
     0
102
RTVSPropertyOp24
 70
     0
102
RTVSPropertyOp25
 70
     0
102
RTVSPropertyOp26
 70
     0
102
RTVSPropertyOp27
 70
     0
102
RTVSPropertyOp28
 70
     0
102
RTVSPropertyOp29
 70
     0
102
RTVSPropertyOp30
 70
     0
102
RTVSPropertyOp31
 70
     0
102
RTVSPropertyOp32
 70
     0
102
RTVSPropertyOp33
 70
     0
102
RTVSPropertyOp34
 70
     0
102
RTVSPropertyOp35
 70
     0
102
RTVSPropertyOp36
 70
     0
102
RTVSPropertyOp37
 70
     0
102
RTVSPropertyOp38
 70
     0
102
RTVSPropertyOp39
 70
     0
102
RTVSPropertyOp40
 70
     0
102
RTVSPropertyOp41
 70
     0
102
RTVSPropertyOp42
 70
     0
102
RTVSPropertyOp43
 70
     0
102
RTVSPropertyOp44
 70
     0
102
RTVSPropertyOp45
 70
     0
102
RTVSPropertyOp46
 70
     0
102
RTVSPropertyOp47
 70
     0
102
RTVSPropertyOp48
 70
     0
102
RTVSPropertyOp49
 70
     0
102
RTVSPropertyOp50
 70
     0
102
RTVSPropertyOp51
 70
     0
102
RTVSPropertyOp52
 70
     0
102
RTVSPropertyOp53
 70
     0
102
RTVSPropertyOp54
 70
     0
102
RTVSPropertyOp55
 70
     0
102
RTVSPropertyOp56
 70
     0
102
RTVSPropertyOp57
 70
     0
102
RTVSPropertyOp58
 70
     1
102
RTVSPropertyOp59
 70
     1
102
RTVSPropertyOp60
 70
     1
102
RTVSPropertyOp61
 70
     1
102
RTVSPropertyOp62
 70
     1
  0
XRECORD
  5
1C8CDE6ACEEB
102
{ACAD_REACTORS
330
1C8CDE6ACEEA
102
}
330
1C8CDE6ACEEA
100
AcDbXrecord
280
     1
102
RTVSPost2010Prop28
280
     0
102
RTVSPost2010PropOp28
 70
     1
102
RTVSPost2010Prop29
280
     1
102
RTVSPost2010PropOp29
 70
     1
102
RTVSPost2010Prop30
280
     1
102
RTVSPost2010PropOp30
 70
     1
102
RTVSPost2010Prop31
280
     0
102
RTVSPost2010PropOp31
 70
     1
102
RTVSPost2010Prop32
280
     0
102
RTVSPost2010PropOp32
 70
     1
102
RTVSPost2010Prop33
280
     0
102
RTVSPost2010PropOp33
 70
     1
102
RTVSPost2010Prop34
280
     0
102
RTVSPost2010PropOp34
 70
     1
102
RTVSPost2010Prop35
280
     0
102
RTVSPost2010PropOp35
 70
     1
102
RTVSPost2010Prop36
280
     0
102
RTVSPost2010PropOp36
 70
     1
102
RTVSPost2010Prop37
 90
       50
102
RTVSPost2010PropOp37
 70
     1
102
RTVSPost2010Prop38
140
0.0
102
RTVSPost2010PropOp38
 70
     1
102
RTVSPost2010Prop39
140
1.0
102
RTVSPost2010PropOp39
 70
     1
102
RTVSPost2010Prop40
 90
        0
102
RTVSPost2010PropOp40
 70
     1
102
RTVSPost2010Prop41ColorIndex
 90
       18
102
RTVSPost2010Prop41ColorRGB
 90
        0
102
RTVSPost2010PropOp41
 70
     1
102
RTVSPost2010Prop42
 90
       50
102
RTVSPost2010PropOp42
 70
     1
102
RTVSPost2010Prop43
 90
        3
102
RTVSPost2010PropOp43
 70
     1
102
RTVSPost2010Prop44ColorIndex
 90
        5
102
RTVSPost2010Prop44ColorRGB
 90
      255
102
RTVSPost2010PropOp44
 70
     1
102
RTVSPost2010Prop45
280
     0
102
RTVSPost2010PropOp45
 70
     1
102
RTVSPost2010Prop46
 90
       50
102
RTVSPost2010PropOp46
 70
     1
102
RTVSPost2010Prop47
 90
       50
102
RTVSPost2010PropOp47
 70
     1
102
RTVSPost2010Prop48
 90
       50
102
RTVSPost2010PropOp48
 70
     1
102
RTVSPost2010Prop49
280
     0
102
RTVSPost2010PropOp49
 70
     1
102
RTVSPost2010Prop50
 90
       50
102
RTVSPost2010PropOp50
 70
     1
102
RTVSPost2010Prop51ColorIndex
 90
      256
102
RTVSPost2010Prop51ColorRGB
 90
-16777216
102
RTVSPost2010PropOp51
 70
     0
102
RTVSPost2010Prop52
140
1.0
102
RTVSPost2010PropOp52
 70
     0
102
RTVSPost2010Prop53
 90
        2
102
RTVSPost2010PropOp53
 70
     1
102
RTVSPost2010Prop54
  1
strokes_ogs.tif
102
RTVSPost2010PropOp54
 70
     1
102
RTVSPost2010Prop55
280
     0
102
RTVSPost2010PropOp55
 70
     1
102
RTVSPost2010Prop56
140
1.0
102
RTVSPost2010PropOp56
 70
     1
102
RTVSPost2010Prop57
140
1.0
102
RTVSPost2010PropOp57
 70
     1
102
RTVSPropertyOp0
 70
     1
102
RTVSPropertyOp1
 70
     1
102
RTVSPropertyOp2
 70
     1
102
RTVSPropertyOp3
 70
     1
102
RTVSPropertyOp4
 70
     1
102
RTVSPropertyOp5
 70
     1
102
RTVSPropertyOp6
 70
     1
102
RTVSPropertyOp7
 70
     1
102
RTVSPropertyOp8
 70
     1
102
RTVSPropertyOp9
 70
     1
102
RTVSPropertyOp10
 70
     1
102
RTVSPropertyOp11
 70
     1
102
RTVSPropertyOp12
 70
     1
102
RTVSPropertyOp13
 70
     1
102
RTVSPropertyOp14
 70
     1
102
RTVSPropertyOp15
 70
     1
102
RTVSPropertyOp16
 70
     1
102
RTVSPropertyOp17
 70
     1
102
RTVSPropertyOp18
 70
     1
102
RTVSPropertyOp19
 70
     1
102
RTVSPropertyOp20
 70
     1
102
RTVSPropertyOp21
 70
     1
102
RTVSPropertyOp22
 70
     1
102
RTVSPropertyOp23
 70
     1
102
RTVSPropertyOp24
 70
     1
102
RTVSPropertyOp25
 70
     1
102
RTVSPropertyOp26
 70
     1
102
RTVSPropertyOp27
 70
     1
102
RTVSPropertyOp28
 70
     1
102
RTVSPropertyOp29
 70
     1
102
RTVSPropertyOp30
 70
     1
102
RTVSPropertyOp31
 70
     1
102
RTVSPropertyOp32
 70
     1
102
RTVSPropertyOp33
 70
     1
102
RTVSPropertyOp34
 70
     1
102
RTVSPropertyOp35
 70
     1
102
RTVSPropertyOp36
 70
     1
102
RTVSPropertyOp37
 70
     1
102
RTVSPropertyOp38
 70
     1
102
RTVSPropertyOp39
 70
     1
102
RTVSPropertyOp40
 70
     1
102
RTVSPropertyOp41
 70
     1
102
RTVSPropertyOp42
 70
     1
102
RTVSPropertyOp43
 70
     1
102
RTVSPropertyOp44
 70
     1
102
RTVSPropertyOp45
 70
     1
102
RTVSPropertyOp46
 70
     1
102
RTVSPropertyOp47
 70
     1
102
RTVSPropertyOp48
 70
     1
102
RTVSPropertyOp49
 70
     1
102
RTVSPropertyOp50
 70
     1
102
RTVSPropertyOp51
 70
     0
102
RTVSPropertyOp52
 70
     0
102
RTVSPropertyOp53
 70
     1
102
RTVSPropertyOp54
 70
     1
102
RTVSPropertyOp55
 70
     1
102
RTVSPropertyOp56
 70
     1
102
RTVSPropertyOp57
 70
     1
102
RTVSPropertyOp58
 70
     1
102
RTVSPropertyOp59
 70
     1
102
RTVSPropertyOp60
 70
     1
102
RTVSPropertyOp61
 70
     1
102
RTVSPropertyOp62
 70
     1
  0
XRECORD
  5
1C8CDE6ACECF
102
{ACAD_REACTORS
330
1C8CDE6ACECE
102
}
330
1C8CDE6ACECE
100
AcDbXrecord
280
     1
102
RTVSPost2010Prop28
280
     0
102
RTVSPost2010PropOp28
 70
     1
102
RTVSPost2010Prop29
280
     1
102
RTVSPost2010PropOp29
 70
     1
102
RTVSPost2010Prop30
280
     1
102
RTVSPost2010PropOp30
 70
     1
102
RTVSPost2010Prop31
280
     0
102
RTVSPost2010PropOp31
 70
     1
102
RTVSPost2010Prop32
280
     0
102
RTVSPost2010PropOp32
 70
     1
102
RTVSPost2010Prop33
280
     0
102
RTVSPost2010PropOp33
 70
     1
102
RTVSPost2010Prop34
280
     0
102
RTVSPost2010PropOp34
 70
     1
102
RTVSPost2010Prop35
280
     0
102
RTVSPost2010PropOp35
 70
     1
102
RTVSPost2010Prop36
280
     0
102
RTVSPost2010PropOp36
 70
     1
102
RTVSPost2010Prop37
 90
       50
102
RTVSPost2010PropOp37
 70
     1
102
RTVSPost2010Prop38
140
0.0
102
RTVSPost2010PropOp38
 70
     1
102
RTVSPost2010Prop39
140
1.0
102
RTVSPost2010PropOp39
 70
     1
102
RTVSPost2010Prop40
 90
        0
102
RTVSPost2010PropOp40
 70
     1
102
RTVSPost2010Prop41ColorIndex
 90
       18
102
RTVSPost2010Prop41ColorRGB
 90
        0
102
RTVSPost2010PropOp41
 70
     1
102
RTVSPost2010Prop42
 90
       50
102
RTVSPost2010PropOp42
 70
     1
102
RTVSPost2010Prop43
 90
        3
102
RTVSPost2010PropOp43
 70
     1
102
RTVSPost2010Prop44ColorIndex
 90
        5
102
RTVSPost2010Prop44ColorRGB
 90
      255
102
RTVSPost2010PropOp44
 70
     1
102
RTVSPost2010Prop45
280
     0
102
RTVSPost2010PropOp45
 70
     1
102
RTVSPost2010Prop46
 90
       50
102
RTVSPost2010PropOp46
 70
     1
102
RTVSPost2010Prop47
 90
       50
102
RTVSPost2010PropOp47
 70
     1
102
RTVSPost2010Prop48
 90
       50
102
RTVSPost2010PropOp48
 70
     1
102
RTVSPost2010Prop49
280
     0
102
RTVSPost2010PropOp49
 70
     1
102
RTVSPost2010Prop50
 90
       50
102
RTVSPost2010PropOp50
 70
     1
102
RTVSPost2010Prop51ColorIndex
 90
      256
102
RTVSPost2010Prop51ColorRGB
 90
-16777216
102
RTVSPost2010PropOp51
 70
     0
102
RTVSPost2010Prop52
140
1.0
102
RTVSPost2010PropOp52
 70
     0
102
RTVSPost2010Prop53
 90
        2
102
RTVSPost2010PropOp53
 70
     1
102
RTVSPost2010Prop54
  1
strokes_ogs.tif
102
RTVSPost2010PropOp54
 70
     1
102
RTVSPost2010Prop55
280
     0
102
RTVSPost2010PropOp55
 70
     1
102
RTVSPost2010Prop56
140
1.0
102
RTVSPost2010PropOp56
 70
     1
102
RTVSPost2010Prop57
140
1.0
102
RTVSPost2010PropOp57
 70
     1
102
RTVSPropertyOp0
 70
     1
102
RTVSPropertyOp1
 70
     1
102
RTVSPropertyOp2
 70
     1
102
RTVSPropertyOp3
 70
     1
102
RTVSPropertyOp4
 70
     1
102
RTVSPropertyOp5
 70
     1
102
RTVSPropertyOp6
 70
     1
102
RTVSPropertyOp7
 70
     1
102
RTVSPropertyOp8
 70
     1
102
RTVSPropertyOp9
 70
     1
102
RTVSPropertyOp10
 70
     1
102
RTVSPropertyOp11
 70
     1
102
RTVSPropertyOp12
 70
     1
102
RTVSPropertyOp13
 70
     1
102
RTVSPropertyOp14
 70
     1
102
RTVSPropertyOp15
 70
     1
102
RTVSPropertyOp16
 70
     1
102
RTVSPropertyOp17
 70
     1
102
RTVSPropertyOp18
 70
     1
102
RTVSPropertyOp19
 70
     1
102
RTVSPropertyOp20
 70
     1
102
RTVSPropertyOp21
 70
     1
102
RTVSPropertyOp22
 70
     1
102
RTVSPropertyOp23
 70
     1
102
RTVSPropertyOp24
 70
     1
102
RTVSPropertyOp25
 70
     1
102
RTVSPropertyOp26
 70
     1
102
RTVSPropertyOp27
 70
     1
102
RTVSPropertyOp28
 70
     1
102
RTVSPropertyOp29
 70
     1
102
RTVSPropertyOp30
 70
     1
102
RTVSPropertyOp31
 70
     1
102
RTVSPropertyOp32
 70
     1
102
RTVSPropertyOp33
 70
     1
102
RTVSPropertyOp34
 70
     1
102
RTVSPropertyOp35
 70
     1
102
RTVSPropertyOp36
 70
     1
102
RTVSPropertyOp37
 70
     1
102
RTVSPropertyOp38
 70
     1
102
RTVSPropertyOp39
 70
     1
102
RTVSPropertyOp40
 70
     1
102
RTVSPropertyOp41
 70
     1
102
RTVSPropertyOp42
 70
     1
102
RTVSPropertyOp43
 70
     1
102
RTVSPropertyOp44
 70
     1
102
RTVSPropertyOp45
 70
     1
102
RTVSPropertyOp46
 70
     1
102
RTVSPropertyOp47
 70
     1
102
RTVSPropertyOp48
 70
     1
102
RTVSPropertyOp49
 70
     1
102
RTVSPropertyOp50
 70
     1
102
RTVSPropertyOp51
 70
     0
102
RTVSPropertyOp52
 70
     0
102
RTVSPropertyOp53
 70
     1
102
RTVSPropertyOp54
 70
     1
102
RTVSPropertyOp55
 70
     1
102
RTVSPropertyOp56
 70
     1
102
RTVSPropertyOp57
 70
     1
102
RTVSPropertyOp58
 70
     1
102
RTVSPropertyOp59
 70
     1
102
RTVSPropertyOp60
 70
     1
102
RTVSPropertyOp61
 70
     1
102
RTVSPropertyOp62
 70
     1
  0
XRECORD
  5
1C8CDE6ACED1
102
{ACAD_REACTORS
330
1C8CDE6ACED0
102
}
330
1C8CDE6ACED0
100
AcDbXrecord
280
     1
102
RTVSPost2010Prop28
280
     0
102
RTVSPost2010PropOp28
 70
     1
102
RTVSPost2010Prop29
280
     1
102
RTVSPost2010PropOp29
 70
     1
102
RTVSPost2010Prop30
280
     1
102
RTVSPost2010PropOp30
 70
     1
102
RTVSPost2010Prop31
280
     0
102
RTVSPost2010PropOp31
 70
     1
102
RTVSPost2010Prop32
280
     0
102
RTVSPost2010PropOp32
 70
     1
102
RTVSPost2010Prop33
280
     0
102
RTVSPost2010PropOp33
 70
     1
102
RTVSPost2010Prop34
280
     0
102
RTVSPost2010PropOp34
 70
     1
102
RTVSPost2010Prop35
280
     0
102
RTVSPost2010PropOp35
 70
     1
102
RTVSPost2010Prop36
280
     0
102
RTVSPost2010PropOp36
 70
     1
102
RTVSPost2010Prop37
 90
       50
102
RTVSPost2010PropOp37
 70
     1
102
RTVSPost2010Prop38
140
0.0
102
RTVSPost2010PropOp38
 70
     1
102
RTVSPost2010Prop39
140
1.0
102
RTVSPost2010PropOp39
 70
     1
102
RTVSPost2010Prop40
 90
        0
102
RTVSPost2010PropOp40
 70
     1
102
RTVSPost2010Prop41ColorIndex
 90
       18
102
RTVSPost2010Prop41ColorRGB
 90
        0
102
RTVSPost2010PropOp41
 70
     1
102
RTVSPost2010Prop42
 90
       50
102
RTVSPost2010PropOp42
 70
     1
102
RTVSPost2010Prop43
 90
        3
102
RTVSPost2010PropOp43
 70
     1
102
RTVSPost2010Prop44ColorIndex
 90
        5
102
RTVSPost2010Prop44ColorRGB
 90
      255
102
RTVSPost2010PropOp44
 70
     1
102
RTVSPost2010Prop45
280
     0
102
RTVSPost2010PropOp45
 70
     1
102
RTVSPost2010Prop46
 90
       50
102
RTVSPost2010PropOp46
 70
     1
102
RTVSPost2010Prop47
 90
       50
102
RTVSPost2010PropOp47
 70
     1
102
RTVSPost2010Prop48
 90
       50
102
RTVSPost2010PropOp48
 70
     1
102
RTVSPost2010Prop49
280
     0
102
RTVSPost2010PropOp49
 70
     1
102
RTVSPost2010Prop50
 90
       50
102
RTVSPost2010PropOp50
 70
     1
102
RTVSPost2010Prop51ColorIndex
 90
      256
102
RTVSPost2010Prop51ColorRGB
 90
-16777216
102
RTVSPost2010PropOp51
 70
     0
102
RTVSPost2010Prop52
140
1.0
102
RTVSPost2010PropOp52
 70
     0
102
RTVSPost2010Prop53
 90
        2
102
RTVSPost2010PropOp53
 70
     1
102
RTVSPost2010Prop54
  1
strokes_ogs.tif
102
RTVSPost2010PropOp54
 70
     1
102
RTVSPost2010Prop55
280
     0
102
RTVSPost2010PropOp55
 70
     1
102
RTVSPost2010Prop56
140
1.0
102
RTVSPost2010PropOp56
 70
     1
102
RTVSPost2010Prop57
140
1.0
102
RTVSPost2010PropOp57
 70
     1
102
RTVSPropertyOp0
 70
     1
102
RTVSPropertyOp1
 70
     1
102
RTVSPropertyOp2
 70
     1
102
RTVSPropertyOp3
 70
     1
102
RTVSPropertyOp4
 70
     1
102
RTVSPropertyOp5
 70
     1
102
RTVSPropertyOp6
 70
     1
102
RTVSPropertyOp7
 70
     1
102
RTVSPropertyOp8
 70
     1
102
RTVSPropertyOp9
 70
     1
102
RTVSPropertyOp10
 70
     1
102
RTVSPropertyOp11
 70
     1
102
RTVSPropertyOp12
 70
     1
102
RTVSPropertyOp13
 70
     1
102
RTVSPropertyOp14
 70
     1
102
RTVSPropertyOp15
 70
     1
102
RTVSPropertyOp16
 70
     1
102
RTVSPropertyOp17
 70
     1
102
RTVSPropertyOp18
 70
     1
102
RTVSPropertyOp19
 70
     1
102
RTVSPropertyOp20
 70
     1
102
RTVSPropertyOp21
 70
     1
102
RTVSPropertyOp22
 70
     1
102
RTVSPropertyOp23
 70
     1
102
RTVSPropertyOp24
 70
     1
102
RTVSPropertyOp25
 70
     1
102
RTVSPropertyOp26
 70
     1
102
RTVSPropertyOp27
 70
     1
102
RTVSPropertyOp28
 70
     1
102
RTVSPropertyOp29
 70
     1
102
RTVSPropertyOp30
 70
     1
102
RTVSPropertyOp31
 70
     1
102
RTVSPropertyOp32
 70
     1
102
RTVSPropertyOp33
 70
     1
102
RTVSPropertyOp34
 70
     1
102
RTVSPropertyOp35
 70
     1
102
RTVSPropertyOp36
 70
     1
102
RTVSPropertyOp37
 70
     1
102
RTVSPropertyOp38
 70
     1
102
RTVSPropertyOp39
 70
     1
102
RTVSPropertyOp40
 70
     1
102
RTVSPropertyOp41
 70
     1
102
RTVSPropertyOp42
 70
     1
102
RTVSPropertyOp43
 70
     1
102
RTVSPropertyOp44
 70
     1
102
RTVSPropertyOp45
 70
     1
102
RTVSPropertyOp46
 70
     1
102
RTVSPropertyOp47
 70
     1
102
RTVSPropertyOp48
 70
     1
102
RTVSPropertyOp49
 70
     1
102
RTVSPropertyOp50
 70
     1
102
RTVSPropertyOp51
 70
     0
102
RTVSPropertyOp52
 70
     0
102
RTVSPropertyOp53
 70
     1
102
RTVSPropertyOp54
 70
     1
102
RTVSPropertyOp55
 70
     1
102
RTVSPropertyOp56
 70
     1
102
RTVSPropertyOp57
 70
     1
102
RTVSPropertyOp58
 70
     1
102
RTVSPropertyOp59
 70
     1
102
RTVSPropertyOp60
 70
     1
102
RTVSPropertyOp61
 70
     1
102
RTVSPropertyOp62
 70
     1
  0
XRECORD
  5
1C8CDE6ACED3
102
{ACAD_REACTORS
330
1C8CDE6ACED2
102
}
330
1C8CDE6ACED2
100
AcDbXrecord
280
     1
102
RTVSPost2010Prop28
280
     0
102
RTVSPost2010PropOp28
 70
     1
102
RTVSPost2010Prop29
280
     1
102
RTVSPost2010PropOp29
 70
     1
102
RTVSPost2010Prop30
280
     1
102
RTVSPost2010PropOp30
 70
     1
102
RTVSPost2010Prop31
280
     0
102
RTVSPost2010PropOp31
 70
     1
102
RTVSPost2010Prop32
280
     0
102
RTVSPost2010PropOp32
 70
     1
102
RTVSPost2010Prop33
280
     0
102
RTVSPost2010PropOp33
 70
     1
102
RTVSPost2010Prop34
280
     0
102
RTVSPost2010PropOp34
 70
     1
102
RTVSPost2010Prop35
280
     0
102
RTVSPost2010PropOp35
 70
     1
102
RTVSPost2010Prop36
280
     0
102
RTVSPost2010PropOp36
 70
     1
102
RTVSPost2010Prop37
 90
       50
102
RTVSPost2010PropOp37
 70
     1
102
RTVSPost2010Prop38
140
0.0
102
RTVSPost2010PropOp38
 70
     1
102
RTVSPost2010Prop39
140
1.0
102
RTVSPost2010PropOp39
 70
     1
102
RTVSPost2010Prop40
 90
        0
102
RTVSPost2010PropOp40
 70
     1
102
RTVSPost2010Prop41ColorIndex
 90
       18
102
RTVSPost2010Prop41ColorRGB
 90
        0
102
RTVSPost2010PropOp41
 70
     1
102
RTVSPost2010Prop42
 90
       50
102
RTVSPost2010PropOp42
 70
     1
102
RTVSPost2010Prop43
 90
        3
102
RTVSPost2010PropOp43
 70
     1
102
RTVSPost2010Prop44ColorIndex
 90
        5
102
RTVSPost2010Prop44ColorRGB
 90
      255
102
RTVSPost2010PropOp44
 70
     1
102
RTVSPost2010Prop45
280
     0
102
RTVSPost2010PropOp45
 70
     1
102
RTVSPost2010Prop46
 90
       50
102
RTVSPost2010PropOp46
 70
     1
102
RTVSPost2010Prop47
 90
       50
102
RTVSPost2010PropOp47
 70
     1
102
RTVSPost2010Prop48
 90
       50
102
RTVSPost2010PropOp48
 70
     1
102
RTVSPost2010Prop49
280
     0
102
RTVSPost2010PropOp49
 70
     1
102
RTVSPost2010Prop50
 90
       50
102
RTVSPost2010PropOp50
 70
     1
102
RTVSPost2010Prop51ColorIndex
 90
      256
102
RTVSPost2010Prop51ColorRGB
 90
-16777216
102
RTVSPost2010PropOp51
 70
     0
102
RTVSPost2010Prop52
140
1.0
102
RTVSPost2010PropOp52
 70
     0
102
RTVSPost2010Prop53
 90
        2
102
RTVSPost2010PropOp53
 70
     1
102
RTVSPost2010Prop54
  1
strokes_ogs.tif
102
RTVSPost2010PropOp54
 70
     1
102
RTVSPost2010Prop55
280
     0
102
RTVSPost2010PropOp55
 70
     1
102
RTVSPost2010Prop56
140
1.0
102
RTVSPost2010PropOp56
 70
     1
102
RTVSPost2010Prop57
140
1.0
102
RTVSPost2010PropOp57
 70
     1
102
RTVSPropertyOp0
 70
     1
102
RTVSPropertyOp1
 70
     1
102
RTVSPropertyOp2
 70
     1
102
RTVSPropertyOp3
 70
     1
102
RTVSPropertyOp4
 70
     1
102
RTVSPropertyOp5
 70
     1
102
RTVSPropertyOp6
 70
     1
102
RTVSPropertyOp7
 70
     1
102
RTVSPropertyOp8
 70
     1
102
RTVSPropertyOp9
 70
     1
102
RTVSPropertyOp10
 70
     1
102
RTVSPropertyOp11
 70
     1
102
RTVSPropertyOp12
 70
     1
102
RTVSPropertyOp13
 70
     1
102
RTVSPropertyOp14
 70
     1
102
RTVSPropertyOp15
 70
     1
102
RTVSPropertyOp16
 70
     1
102
RTVSPropertyOp17
 70
     1
102
RTVSPropertyOp18
 70
     1
102
RTVSPropertyOp19
 70
     1
102
RTVSPropertyOp20
 70
     1
102
RTVSPropertyOp21
 70
     1
102
RTVSPropertyOp22
 70
     1
102
RTVSPropertyOp23
 70
     1
102
RTVSPropertyOp24
 70
     1
102
RTVSPropertyOp25
 70
     1
102
RTVSPropertyOp26
 70
     1
102
RTVSPropertyOp27
 70
     1
102
RTVSPropertyOp28
 70
     1
102
RTVSPropertyOp29
 70
     1
102
RTVSPropertyOp30
 70
     1
102
RTVSPropertyOp31
 70
     1
102
RTVSPropertyOp32
 70
     1
102
RTVSPropertyOp33
 70
     1
102
RTVSPropertyOp34
 70
     1
102
RTVSPropertyOp35
 70
     1
102
RTVSPropertyOp36
 70
     1
102
RTVSPropertyOp37
 70
     1
102
RTVSPropertyOp38
 70
     1
102
RTVSPropertyOp39
 70
     1
102
RTVSPropertyOp40
 70
     1
102
RTVSPropertyOp41
 70
     1
102
RTVSPropertyOp42
 70
     1
102
RTVSPropertyOp43
 70
     1
102
RTVSPropertyOp44
 70
     1
102
RTVSPropertyOp45
 70
     1
102
RTVSPropertyOp46
 70
     1
102
RTVSPropertyOp47
 70
     1
102
RTVSPropertyOp48
 70
     1
102
RTVSPropertyOp49
 70
     1
102
RTVSPropertyOp50
 70
     1
102
RTVSPropertyOp51
 70
     0
102
RTVSPropertyOp52
 70
     0
102
RTVSPropertyOp53
 70
     1
102
RTVSPropertyOp54
 70
     1
102
RTVSPropertyOp55
 70
     1
102
RTVSPropertyOp56
 70
     1
102
RTVSPropertyOp57
 70
     1
102
RTVSPropertyOp58
 70
     1
102
RTVSPropertyOp59
 70
     1
102
RTVSPropertyOp60
 70
     1
102
RTVSPropertyOp61
 70
     1
102
RTVSPropertyOp62
 70
     1
  0
XRECORD
  5
1C8CDE6ACED5
102
{ACAD_REACTORS
330
1C8CDE6ACED4
102
}
330
1C8CDE6ACED4
100
AcDbXrecord
280
     1
102
RTVSPost2010Prop28
280
     0
102
RTVSPost2010PropOp28
 70
     1
102
RTVSPost2010Prop29
280
     1
102
RTVSPost2010PropOp29
 70
     1
102
RTVSPost2010Prop30
280
     1
102
RTVSPost2010PropOp30
 70
     1
102
RTVSPost2010Prop31
280
     0
102
RTVSPost2010PropOp31
 70
     1
102
RTVSPost2010Prop32
280
     0
102
RTVSPost2010PropOp32
 70
     1
102
RTVSPost2010Prop33
280
     0
102
RTVSPost2010PropOp33
 70
     1
102
RTVSPost2010Prop34
280
     0
102
RTVSPost2010PropOp34
 70
     1
102
RTVSPost2010Prop35
280
     0
102
RTVSPost2010PropOp35
 70
     1
102
RTVSPost2010Prop36
280
     0
102
RTVSPost2010PropOp36
 70
     1
102
RTVSPost2010Prop37
 90
       50
102
RTVSPost2010PropOp37
 70
     1
102
RTVSPost2010Prop38
140
0.0
102
RTVSPost2010PropOp38
 70
     1
102
RTVSPost2010Prop39
140
1.0
102
RTVSPost2010PropOp39
 70
     1
102
RTVSPost2010Prop40
 90
        0
102
RTVSPost2010PropOp40
 70
     1
102
RTVSPost2010Prop41ColorIndex
 90
       18
102
RTVSPost2010Prop41ColorRGB
 90
        0
102
RTVSPost2010PropOp41
 70
     1
102
RTVSPost2010Prop42
 90
       50
102
RTVSPost2010PropOp42
 70
     1
102
RTVSPost2010Prop43
 90
        3
102
RTVSPost2010PropOp43
 70
     1
102
RTVSPost2010Prop44ColorIndex
 90
        5
102
RTVSPost2010Prop44ColorRGB
 90
      255
102
RTVSPost2010PropOp44
 70
     1
102
RTVSPost2010Prop45
280
     0
102
RTVSPost2010PropOp45
 70
     1
102
RTVSPost2010Prop46
 90
       50
102
RTVSPost2010PropOp46
 70
     1
102
RTVSPost2010Prop47
 90
       50
102
RTVSPost2010PropOp47
 70
     1
102
RTVSPost2010Prop48
 90
       50
102
RTVSPost2010PropOp48
 70
     1
102
RTVSPost2010Prop49
280
     0
102
RTVSPost2010PropOp49
 70
     1
102
RTVSPost2010Prop50
 90
       50
102
RTVSPost2010PropOp50
 70
     1
102
RTVSPost2010Prop51ColorIndex
 90
      256
102
RTVSPost2010Prop51ColorRGB
 90
-16777216
102
RTVSPost2010PropOp51
 70
     0
102
RTVSPost2010Prop52
140
1.0
102
RTVSPost2010PropOp52
 70
     0
102
RTVSPost2010Prop53
 90
        2
102
RTVSPost2010PropOp53
 70
     1
102
RTVSPost2010Prop54
  1
strokes_ogs.tif
102
RTVSPost2010PropOp54
 70
     1
102
RTVSPost2010Prop55
280
     0
102
RTVSPost2010PropOp55
 70
     1
102
RTVSPost2010Prop56
140
1.0
102
RTVSPost2010PropOp56
 70
     1
102
RTVSPost2010Prop57
140
1.0
102
RTVSPost2010PropOp57
 70
     1
102
RTVSPropertyOp0
 70
     1
102
RTVSPropertyOp1
 70
     1
102
RTVSPropertyOp2
 70
     1
102
RTVSPropertyOp3
 70
     1
102
RTVSPropertyOp4
 70
     1
102
RTVSPropertyOp5
 70
     1
102
RTVSPropertyOp6
 70
     1
102
RTVSPropertyOp7
 70
     1
102
RTVSPropertyOp8
 70
     1
102
RTVSPropertyOp9
 70
     1
102
RTVSPropertyOp10
 70
     1
102
RTVSPropertyOp11
 70
     1
102
RTVSPropertyOp12
 70
     1
102
RTVSPropertyOp13
 70
     1
102
RTVSPropertyOp14
 70
     1
102
RTVSPropertyOp15
 70
     1
102
RTVSPropertyOp16
 70
     1
102
RTVSPropertyOp17
 70
     1
102
RTVSPropertyOp18
 70
     1
102
RTVSPropertyOp19
 70
     1
102
RTVSPropertyOp20
 70
     1
102
RTVSPropertyOp21
 70
     1
102
RTVSPropertyOp22
 70
     1
102
RTVSPropertyOp23
 70
     1
102
RTVSPropertyOp24
 70
     1
102
RTVSPropertyOp25
 70
     1
102
RTVSPropertyOp26
 70
     1
102
RTVSPropertyOp27
 70
     1
102
RTVSPropertyOp28
 70
     1
102
RTVSPropertyOp29
 70
     1
102
RTVSPropertyOp30
 70
     1
102
RTVSPropertyOp31
 70
     1
102
RTVSPropertyOp32
 70
     1
102
RTVSPropertyOp33
 70
     1
102
RTVSPropertyOp34
 70
     1
102
RTVSPropertyOp35
 70
     1
102
RTVSPropertyOp36
 70
     1
102
RTVSPropertyOp37
 70
     1
102
RTVSPropertyOp38
 70
     1
102
RTVSPropertyOp39
 70
     1
102
RTVSPropertyOp40
 70
     1
102
RTVSPropertyOp41
 70
     1
102
RTVSPropertyOp42
 70
     1
102
RTVSPropertyOp43
 70
     1
102
RTVSPropertyOp44
 70
     1
102
RTVSPropertyOp45
 70
     1
102
RTVSPropertyOp46
 70
     1
102
RTVSPropertyOp47
 70
     1
102
RTVSPropertyOp48
 70
     1
102
RTVSPropertyOp49
 70
     1
102
RTVSPropertyOp50
 70
     1
102
RTVSPropertyOp51
 70
     0
102
RTVSPropertyOp52
 70
     0
102
RTVSPropertyOp53
 70
     1
102
RTVSPropertyOp54
 70
     1
102
RTVSPropertyOp55
 70
     1
102
RTVSPropertyOp56
 70
     1
102
RTVSPropertyOp57
 70
     1
102
RTVSPropertyOp58
 70
     1
102
RTVSPropertyOp59
 70
     1
102
RTVSPropertyOp60
 70
     1
102
RTVSPropertyOp61
 70
     1
102
RTVSPropertyOp62
 70
     1
  0
XRECORD
  5
1C8CDE6ACEDB
102
{ACAD_REACTORS
330
1C8CDE6ACEDA
102
}
330
1C8CDE6ACEDA
100
AcDbXrecord
280
     1
102
RTVSPost2010Prop28
280
     0
102
RTVSPost2010PropOp28
 70
     1
102
RTVSPost2010Prop29
280
     1
102
RTVSPost2010PropOp29
 70
     1
102
RTVSPost2010Prop30
280
     1
102
RTVSPost2010PropOp30
 70
     1
102
RTVSPost2010Prop31
280
     0
102
RTVSPost2010PropOp31
 70
     1
102
RTVSPost2010Prop32
280
     0
102
RTVSPost2010PropOp32
 70
     1
102
RTVSPost2010Prop33
280
     0
102
RTVSPost2010PropOp33
 70
     1
102
RTVSPost2010Prop34
280
     0
102
RTVSPost2010PropOp34
 70
     1
102
RTVSPost2010Prop35
280
     0
102
RTVSPost2010PropOp35
 70
     1
102
RTVSPost2010Prop36
280
     0
102
RTVSPost2010PropOp36
 70
     1
102
RTVSPost2010Prop37
 90
       50
102
RTVSPost2010PropOp37
 70
     1
102
RTVSPost2010Prop38
140
0.0
102
RTVSPost2010PropOp38
 70
     1
102
RTVSPost2010Prop39
140
1.0
102
RTVSPost2010PropOp39
 70
     1
102
RTVSPost2010Prop40
 90
        0
102
RTVSPost2010PropOp40
 70
     1
102
RTVSPost2010Prop41ColorIndex
 90
       18
102
RTVSPost2010Prop41ColorRGB
 90
        0
102
RTVSPost2010PropOp41
 70
     1
102
RTVSPost2010Prop42
 90
       50
102
RTVSPost2010PropOp42
 70
     1
102
RTVSPost2010Prop43
 90
        3
102
RTVSPost2010PropOp43
 70
     1
102
RTVSPost2010Prop44ColorIndex
 90
        5
102
RTVSPost2010Prop44ColorRGB
 90
      255
102
RTVSPost2010PropOp44
 70
     1
102
RTVSPost2010Prop45
280
     0
102
RTVSPost2010PropOp45
 70
     1
102
RTVSPost2010Prop46
 90
       50
102
RTVSPost2010PropOp46
 70
     1
102
RTVSPost2010Prop47
 90
       50
102
RTVSPost2010PropOp47
 70
     1
102
RTVSPost2010Prop48
 90
       50
102
RTVSPost2010PropOp48
 70
     1
102
RTVSPost2010Prop49
280
     0
102
RTVSPost2010PropOp49
 70
     1
102
RTVSPost2010Prop50
 90
       50
102
RTVSPost2010PropOp50
 70
     1
102
RTVSPost2010Prop51ColorIndex
 90
      256
102
RTVSPost2010Prop51ColorRGB
 90
-16777216
102
RTVSPost2010PropOp51
 70
     0
102
RTVSPost2010Prop52
140
1.0
102
RTVSPost2010PropOp52
 70
     0
102
RTVSPost2010Prop53
 90
        2
102
RTVSPost2010PropOp53
 70
     1
102
RTVSPost2010Prop54
  1
strokes_ogs.tif
102
RTVSPost2010PropOp54
 70
     1
102
RTVSPost2010Prop55
280
     0
102
RTVSPost2010PropOp55
 70
     1
102
RTVSPost2010Prop56
140
1.0
102
RTVSPost2010PropOp56
 70
     1
102
RTVSPost2010Prop57
140
1.0
102
RTVSPost2010PropOp57
 70
     1
102
RTVSPropertyOp0
 70
     1
102
RTVSPropertyOp1
 70
     1
102
RTVSPropertyOp2
 70
     1
102
RTVSPropertyOp3
 70
     1
102
RTVSPropertyOp4
 70
     1
102
RTVSPropertyOp5
 70
     1
102
RTVSPropertyOp6
 70
     1
102
RTVSPropertyOp7
 70
     1
102
RTVSPropertyOp8
 70
     1
102
RTVSPropertyOp9
 70
     1
102
RTVSPropertyOp10
 70
     1
102
RTVSPropertyOp11
 70
     1
102
RTVSPropertyOp12
 70
     1
102
RTVSPropertyOp13
 70
     1
102
RTVSPropertyOp14
 70
     1
102
RTVSPropertyOp15
 70
     1
102
RTVSPropertyOp16
 70
     1
102
RTVSPropertyOp17
 70
     1
102
RTVSPropertyOp18
 70
     1
102
RTVSPropertyOp19
 70
     1
102
RTVSPropertyOp20
 70
     1
102
RTVSPropertyOp21
 70
     1
102
RTVSPropertyOp22
 70
     1
102
RTVSPropertyOp23
 70
     1
102
RTVSPropertyOp24
 70
     1
102
RTVSPropertyOp25
 70
     1
102
RTVSPropertyOp26
 70
     1
102
RTVSPropertyOp27
 70
     1
102
RTVSPropertyOp28
 70
     1
102
RTVSPropertyOp29
 70
     1
102
RTVSPropertyOp30
 70
     1
102
RTVSPropertyOp31
 70
     1
102
RTVSPropertyOp32
 70
     1
102
RTVSPropertyOp33
 70
     1
102
RTVSPropertyOp34
 70
     1
102
RTVSPropertyOp35
 70
     1
102
RTVSPropertyOp36
 70
     1
102
RTVSPropertyOp37
 70
     1
102
RTVSPropertyOp38
 70
     1
102
RTVSPropertyOp39
 70
     1
102
RTVSPropertyOp40
 70
     1
102
RTVSPropertyOp41
 70
     1
102
RTVSPropertyOp42
 70
     1
102
RTVSPropertyOp43
 70
     1
102
RTVSPropertyOp44
 70
     1
102
RTVSPropertyOp45
 70
     1
102
RTVSPropertyOp46
 70
     1
102
RTVSPropertyOp47
 70
     1
102
RTVSPropertyOp48
 70
     1
102
RTVSPropertyOp49
 70
     1
102
RTVSPropertyOp50
 70
     1
102
RTVSPropertyOp51
 70
     0
102
RTVSPropertyOp52
 70
     0
102
RTVSPropertyOp53
 70
     1
102
RTVSPropertyOp54
 70
     1
102
RTVSPropertyOp55
 70
     1
102
RTVSPropertyOp56
 70
     1
102
RTVSPropertyOp57
 70
     1
102
RTVSPropertyOp58
 70
     1
102
RTVSPropertyOp59
 70
     1
102
RTVSPropertyOp60
 70
     1
102
RTVSPropertyOp61
 70
     1
102
RTVSPropertyOp62
 70
     1
  0
XRECORD
  5
1C8CDE6ACEEF
102
{ACAD_REACTORS
330
1C8CDE6ACEEE
102
}
330
1C8CDE6ACEEE
100
AcDbXrecord
280
     1
102
RTVSPost2010Prop28
280
     0
102
RTVSPost2010PropOp28
 70
     0
102
RTVSPost2010Prop29
280
     1
102
RTVSPost2010PropOp29
 70
     0
102
RTVSPost2010Prop30
280
     1
102
RTVSPost2010PropOp30
 70
     0
102
RTVSPost2010Prop31
280
     0
102
RTVSPost2010PropOp31
 70
     0
102
RTVSPost2010Prop32
280
     0
102
RTVSPost2010PropOp32
 70
     0
102
RTVSPost2010Prop33
280
     0
102
RTVSPost2010PropOp33
 70
     0
102
RTVSPost2010Prop34
280
     0
102
RTVSPost2010PropOp34
 70
     0
102
RTVSPost2010Prop35
280
     0
102
RTVSPost2010PropOp35
 70
     0
102
RTVSPost2010Prop36
280
     0
102
RTVSPost2010PropOp36
 70
     0
102
RTVSPost2010Prop37
 90
       50
102
RTVSPost2010PropOp37
 70
     0
102
RTVSPost2010Prop38
140
0.0
102
RTVSPost2010PropOp38
 70
     0
102
RTVSPost2010Prop39
140
1.0
102
RTVSPost2010PropOp39
 70
     0
102
RTVSPost2010Prop40
 90
        0
102
RTVSPost2010PropOp40
 70
     0
102
RTVSPost2010Prop41ColorIndex
 90
       18
102
RTVSPost2010Prop41ColorRGB
 90
        0
102
RTVSPost2010PropOp41
 70
     0
102
RTVSPost2010Prop42
 90
       50
102
RTVSPost2010PropOp42
 70
     0
102
RTVSPost2010Prop43
 90
        3
102
RTVSPost2010PropOp43
 70
     0
102
RTVSPost2010Prop44ColorIndex
 90
        5
102
RTVSPost2010Prop44ColorRGB
 90
      255
102
RTVSPost2010PropOp44
 70
     0
102
RTVSPost2010Prop45
280
     0
102
RTVSPost2010PropOp45
 70
     0
102
RTVSPost2010Prop46
 90
       50
102
RTVSPost2010PropOp46
 70
     0
102
RTVSPost2010Prop47
 90
       50
102
RTVSPost2010PropOp47
 70
     0
102
RTVSPost2010Prop48
 90
       50
102
RTVSPost2010PropOp48
 70
     0
102
RTVSPost2010Prop49
280
     0
102
RTVSPost2010PropOp49
 70
     0
102
RTVSPost2010Prop50
 90
       50
102
RTVSPost2010PropOp50
 70
     0
102
RTVSPost2010Prop51ColorIndex
 90
      256
102
RTVSPost2010Prop51ColorRGB
 90
-16777216
102
RTVSPost2010PropOp51
 70
     0
102
RTVSPost2010Prop52
140
1.0
102
RTVSPost2010PropOp52
 70
     0
102
RTVSPost2010Prop53
 90
        2
102
RTVSPost2010PropOp53
 70
     0
102
RTVSPost2010Prop54
  1
strokes_ogs.tif
102
RTVSPost2010PropOp54
 70
     0
102
RTVSPost2010Prop55
280
     0
102
RTVSPost2010PropOp55
 70
     0
102
RTVSPost2010Prop56
140
1.0
102
RTVSPost2010PropOp56
 70
     0
102
RTVSPost2010Prop57
140
1.0
102
RTVSPost2010PropOp57
 70
     0
102
RTVSPropertyOp0
 70
     0
102
RTVSPropertyOp1
 70
     0
102
RTVSPropertyOp2
 70
     0
102
RTVSPropertyOp3
 70
     0
102
RTVSPropertyOp4
 70
     0
102
RTVSPropertyOp5
 70
     0
102
RTVSPropertyOp6
 70
     0
102
RTVSPropertyOp7
 70
     0
102
RTVSPropertyOp8
 70
     0
102
RTVSPropertyOp9
 70
     0
102
RTVSPropertyOp10
 70
     0
102
RTVSPropertyOp11
 70
     0
102
RTVSPropertyOp12
 70
     0
102
RTVSPropertyOp13
 70
     0
102
RTVSPropertyOp14
 70
     2
102
RTVSPropertyOp15
 70
     0
102
RTVSPropertyOp16
 70
     0
102
RTVSPropertyOp17
 70
     0
102
RTVSPropertyOp18
 70
     0
102
RTVSPropertyOp19
 70
     0
102
RTVSPropertyOp20
 70
     0
102
RTVSPropertyOp21
 70
     0
102
RTVSPropertyOp22
 70
     0
102
RTVSPropertyOp23
 70
     0
102
RTVSPropertyOp24
 70
     0
102
RTVSPropertyOp25
 70
     0
102
RTVSPropertyOp26
 70
     0
102
RTVSPropertyOp27
 70
     0
102
RTVSPropertyOp28
 70
     0
102
RTVSPropertyOp29
 70
     0
102
RTVSPropertyOp30
 70
     0
102
RTVSPropertyOp31
 70
     0
102
RTVSPropertyOp32
 70
     0
102
RTVSPropertyOp33
 70
     0
102
RTVSPropertyOp34
 70
     0
102
RTVSPropertyOp35
 70
     0
102
RTVSPropertyOp36
 70
     0
102
RTVSPropertyOp37
 70
     0
102
RTVSPropertyOp38
 70
     0
102
RTVSPropertyOp39
 70
     0
102
RTVSPropertyOp40
 70
     0
102
RTVSPropertyOp41
 70
     0
102
RTVSPropertyOp42
 70
     0
102
RTVSPropertyOp43
 70
     0
102
RTVSPropertyOp44
 70
     0
102
RTVSPropertyOp45
 70
     0
102
RTVSPropertyOp46
 70
     0
102
RTVSPropertyOp47
 70
     0
102
RTVSPropertyOp48
 70
     0
102
RTVSPropertyOp49
 70
     0
102
RTVSPropertyOp50
 70
     0
102
RTVSPropertyOp51
 70
     0
102
RTVSPropertyOp52
 70
     0
102
RTVSPropertyOp53
 70
     0
102
RTVSPropertyOp54
 70
     0
102
RTVSPropertyOp55
 70
     0
102
RTVSPropertyOp56
 70
     0
102
RTVSPropertyOp57
 70
     0
102
RTVSPropertyOp58
 70
     1
102
RTVSPropertyOp59
 70
     1
102
RTVSPropertyOp60
 70
     1
102
RTVSPropertyOp61
 70
     1
102
RTVSPropertyOp62
 70
     1
  0
XRECORD
  5
1C8CDE6ACEE9
102
{ACAD_REACTORS
330
1C8CDE6ACEE8
102
}
330
1C8CDE6ACEE8
100
AcDbXrecord
280
     1
102
RTVSPost2010Prop28
280
     0
102
RTVSPost2010PropOp28
 70
     1
102
RTVSPost2010Prop29
280
     1
102
RTVSPost2010PropOp29
 70
     1
102
RTVSPost2010Prop30
280
     1
102
RTVSPost2010PropOp30
 70
     1
102
RTVSPost2010Prop31
280
     0
102
RTVSPost2010PropOp31
 70
     1
102
RTVSPost2010Prop32
280
     0
102
RTVSPost2010PropOp32
 70
     1
102
RTVSPost2010Prop33
280
     0
102
RTVSPost2010PropOp33
 70
     1
102
RTVSPost2010Prop34
280
     0
102
RTVSPost2010PropOp34
 70
     1
102
RTVSPost2010Prop35
280
     0
102
RTVSPost2010PropOp35
 70
     1
102
RTVSPost2010Prop36
280
     0
102
RTVSPost2010PropOp36
 70
     1
102
RTVSPost2010Prop37
 90
       50
102
RTVSPost2010PropOp37
 70
     1
102
RTVSPost2010Prop38
140
0.0
102
RTVSPost2010PropOp38
 70
     1
102
RTVSPost2010Prop39
140
1.0
102
RTVSPost2010PropOp39
 70
     1
102
RTVSPost2010Prop40
 90
        0
102
RTVSPost2010PropOp40
 70
     1
102
RTVSPost2010Prop41ColorIndex
 90
       18
102
RTVSPost2010Prop41ColorRGB
 90
        0
102
RTVSPost2010PropOp41
 70
     1
102
RTVSPost2010Prop42
 90
       50
102
RTVSPost2010PropOp42
 70
     1
102
RTVSPost2010Prop43
 90
        3
102
RTVSPost2010PropOp43
 70
     1
102
RTVSPost2010Prop44ColorIndex
 90
        5
102
RTVSPost2010Prop44ColorRGB
 90
      255
102
RTVSPost2010PropOp44
 70
     1
102
RTVSPost2010Prop45
280
     0
102
RTVSPost2010PropOp45
 70
     1
102
RTVSPost2010Prop46
 90
       50
102
RTVSPost2010PropOp46
 70
     1
102
RTVSPost2010Prop47
 90
       50
102
RTVSPost2010PropOp47
 70
     1
102
RTVSPost2010Prop48
 90
       50
102
RTVSPost2010PropOp48
 70
     1
102
RTVSPost2010Prop49
280
     0
102
RTVSPost2010PropOp49
 70
     1
102
RTVSPost2010Prop50
 90
       50
102
RTVSPost2010PropOp50
 70
     1
102
RTVSPost2010Prop51ColorIndex
 90
      256
102
RTVSPost2010Prop51ColorRGB
 90
-16777216
102
RTVSPost2010PropOp51
 70
     0
102
RTVSPost2010Prop52
140
1.0
102
RTVSPost2010PropOp52
 70
     0
102
RTVSPost2010Prop53
 90
        2
102
RTVSPost2010PropOp53
 70
     1
102
RTVSPost2010Prop54
  1
strokes_ogs.tif
102
RTVSPost2010PropOp54
 70
     1
102
RTVSPost2010Prop55
280
     0
102
RTVSPost2010PropOp55
 70
     1
102
RTVSPost2010Prop56
140
1.0
102
RTVSPost2010PropOp56
 70
     1
102
RTVSPost2010Prop57
140
1.0
102
RTVSPost2010PropOp57
 70
     1
102
RTVSPropertyOp0
 70
     1
102
RTVSPropertyOp1
 70
     1
102
RTVSPropertyOp2
 70
     1
102
RTVSPropertyOp3
 70
     1
102
RTVSPropertyOp4
 70
     1
102
RTVSPropertyOp5
 70
     1
102
RTVSPropertyOp6
 70
     1
102
RTVSPropertyOp7
 70
     1
102
RTVSPropertyOp8
 70
     1
102
RTVSPropertyOp9
 70
     1
102
RTVSPropertyOp10
 70
     1
102
RTVSPropertyOp11
 70
     1
102
RTVSPropertyOp12
 70
     1
102
RTVSPropertyOp13
 70
     1
102
RTVSPropertyOp14
 70
     1
102
RTVSPropertyOp15
 70
     1
102
RTVSPropertyOp16
 70
     1
102
RTVSPropertyOp17
 70
     1
102
RTVSPropertyOp18
 70
     1
102
RTVSPropertyOp19
 70
     1
102
RTVSPropertyOp20
 70
     1
102
RTVSPropertyOp21
 70
     1
102
RTVSPropertyOp22
 70
     1
102
RTVSPropertyOp23
 70
     1
102
RTVSPropertyOp24
 70
     1
102
RTVSPropertyOp25
 70
     1
102
RTVSPropertyOp26
 70
     1
102
RTVSPropertyOp27
 70
     1
102
RTVSPropertyOp28
 70
     1
102
RTVSPropertyOp29
 70
     1
102
RTVSPropertyOp30
 70
     1
102
RTVSPropertyOp31
 70
     1
102
RTVSPropertyOp32
 70
     1
102
RTVSPropertyOp33
 70
     1
102
RTVSPropertyOp34
 70
     1
102
RTVSPropertyOp35
 70
     1
102
RTVSPropertyOp36
 70
     1
102
RTVSPropertyOp37
 70
     1
102
RTVSPropertyOp38
 70
     1
102
RTVSPropertyOp39
 70
     1
102
RTVSPropertyOp40
 70
     1
102
RTVSPropertyOp41
 70
     1
102
RTVSPropertyOp42
 70
     1
102
RTVSPropertyOp43
 70
     1
102
RTVSPropertyOp44
 70
     1
102
RTVSPropertyOp45
 70
     1
102
RTVSPropertyOp46
 70
     1
102
RTVSPropertyOp47
 70
     1
102
RTVSPropertyOp48
 70
     1
102
RTVSPropertyOp49
 70
     1
102
RTVSPropertyOp50
 70
     1
102
RTVSPropertyOp51
 70
     0
102
RTVSPropertyOp52
 70
     0
102
RTVSPropertyOp53
 70
     1
102
RTVSPropertyOp54
 70
     1
102
RTVSPropertyOp55
 70
     1
102
RTVSPropertyOp56
 70
     1
102
RTVSPropertyOp57
 70
     1
102
RTVSPropertyOp58
 70
     1
102
RTVSPropertyOp59
 70
     1
102
RTVSPropertyOp60
 70
     1
102
RTVSPropertyOp61
 70
     1
102
RTVSPropertyOp62
 70
     1
  0
XRECORD
  5
1C8CDE6ACF0A
102
{ACAD_REACTORS
330
1C8CDE6ACF09
102
}
330
1C8CDE6ACF09
100
AcDbXrecord
280
     1
102
RTVSPost2010Prop28
280
     0
102
RTVSPost2010PropOp28
 70
     1
102
RTVSPost2010Prop29
280
     1
102
RTVSPost2010PropOp29
 70
     1
102
RTVSPost2010Prop30
280
     1
102
RTVSPost2010PropOp30
 70
     1
102
RTVSPost2010Prop31
280
     0
102
RTVSPost2010PropOp31
 70
     1
102
RTVSPost2010Prop32
280
     0
102
RTVSPost2010PropOp32
 70
     1
102
RTVSPost2010Prop33
280
     0
102
RTVSPost2010PropOp33
 70
     1
102
RTVSPost2010Prop34
280
     0
102
RTVSPost2010PropOp34
 70
     1
102
RTVSPost2010Prop35
280
     0
102
RTVSPost2010PropOp35
 70
     1
102
RTVSPost2010Prop36
280
     0
102
RTVSPost2010PropOp36
 70
     1
102
RTVSPost2010Prop37
 90
       50
102
RTVSPost2010PropOp37
 70
     1
102
RTVSPost2010Prop38
140
0.0
102
RTVSPost2010PropOp38
 70
     1
102
RTVSPost2010Prop39
140
1.0
102
RTVSPost2010PropOp39
 70
     1
102
RTVSPost2010Prop40
 90
        0
102
RTVSPost2010PropOp40
 70
     1
102
RTVSPost2010Prop41ColorIndex
 90
       18
102
RTVSPost2010Prop41ColorRGB
 90
        0
102
RTVSPost2010PropOp41
 70
     1
102
RTVSPost2010Prop42
 90
       50
102
RTVSPost2010PropOp42
 70
     1
102
RTVSPost2010Prop43
 90
        3
102
RTVSPost2010PropOp43
 70
     1
102
RTVSPost2010Prop44ColorIndex
 90
        5
102
RTVSPost2010Prop44ColorRGB
 90
      255
102
RTVSPost2010PropOp44
 70
     1
102
RTVSPost2010Prop45
280
     0
102
RTVSPost2010PropOp45
 70
     1
102
RTVSPost2010Prop46
 90
       50
102
RTVSPost2010PropOp46
 70
     1
102
RTVSPost2010Prop47
 90
       50
102
RTVSPost2010PropOp47
 70
     1
102
RTVSPost2010Prop48
 90
       50
102
RTVSPost2010PropOp48
 70
     1
102
RTVSPost2010Prop49
280
     0
102
RTVSPost2010PropOp49
 70
     1
102
RTVSPost2010Prop50
 90
       50
102
RTVSPost2010PropOp50
 70
     1
102
RTVSPost2010Prop51ColorIndex
 90
      256
102
RTVSPost2010Prop51ColorRGB
 90
-16777216
102
RTVSPost2010PropOp51
 70
     0
102
RTVSPost2010Prop52
140
1.0
102
RTVSPost2010PropOp52
 70
     0
102
RTVSPost2010Prop53
 90
        2
102
RTVSPost2010PropOp53
 70
     1
102
RTVSPost2010Prop54
  1
strokes_ogs.tif
102
RTVSPost2010PropOp54
 70
     1
102
RTVSPost2010Prop55
280
     0
102
RTVSPost2010PropOp55
 70
     1
102
RTVSPost2010Prop56
140
1.0
102
RTVSPost2010PropOp56
 70
     1
102
RTVSPost2010Prop57
140
1.0
102
RTVSPost2010PropOp57
 70
     1
102
RTVSPropertyOp0
 70
     1
102
RTVSPropertyOp1
 70
     1
102
RTVSPropertyOp2
 70
     1
102
RTVSPropertyOp3
 70
     1
102
RTVSPropertyOp4
 70
     1
102
RTVSPropertyOp5
 70
     1
102
RTVSPropertyOp6
 70
     1
102
RTVSPropertyOp7
 70
     1
102
RTVSPropertyOp8
 70
     1
102
RTVSPropertyOp9
 70
     1
102
RTVSPropertyOp10
 70
     1
102
RTVSPropertyOp11
 70
     1
102
RTVSPropertyOp12
 70
     1
102
RTVSPropertyOp13
 70
     1
102
RTVSPropertyOp14
 70
     1
102
RTVSPropertyOp15
 70
     1
102
RTVSPropertyOp16
 70
     1
102
RTVSPropertyOp17
 70
     1
102
RTVSPropertyOp18
 70
     1
102
RTVSPropertyOp19
 70
     1
102
RTVSPropertyOp20
 70
     1
102
RTVSPropertyOp21
 70
     1
102
RTVSPropertyOp22
 70
     1
102
RTVSPropertyOp23
 70
     1
102
RTVSPropertyOp24
 70
     1
102
RTVSPropertyOp25
 70
     1
102
RTVSPropertyOp26
 70
     1
102
RTVSPropertyOp27
 70
     1
102
RTVSPropertyOp28
 70
     1
102
RTVSPropertyOp29
 70
     1
102
RTVSPropertyOp30
 70
     1
102
RTVSPropertyOp31
 70
     1
102
RTVSPropertyOp32
 70
     1
102
RTVSPropertyOp33
 70
     1
102
RTVSPropertyOp34
 70
     1
102
RTVSPropertyOp35
 70
     1
102
RTVSPropertyOp36
 70
     1
102
RTVSPropertyOp37
 70
     1
102
RTVSPropertyOp38
 70
     1
102
RTVSPropertyOp39
 70
     1
102
RTVSPropertyOp40
 70
     1
102
RTVSPropertyOp41
 70
     1
102
RTVSPropertyOp42
 70
     1
102
RTVSPropertyOp43
 70
     1
102
RTVSPropertyOp44
 70
     1
102
RTVSPropertyOp45
 70
     1
102
RTVSPropertyOp46
 70
     1
102
RTVSPropertyOp47
 70
     1
102
RTVSPropertyOp48
 70
     1
102
RTVSPropertyOp49
 70
     1
102
RTVSPropertyOp50
 70
     1
102
RTVSPropertyOp51
 70
     0
102
RTVSPropertyOp52
 70
     0
102
RTVSPropertyOp53
 70
     1
102
RTVSPropertyOp54
 70
     1
102
RTVSPropertyOp55
 70
     1
102
RTVSPropertyOp56
 70
     1
102
RTVSPropertyOp57
 70
     1
102
RTVSPropertyOp58
 70
     1
102
RTVSPropertyOp59
 70
     1
102
RTVSPropertyOp60
 70
     1
102
RTVSPropertyOp61
 70
     1
102
RTVSPropertyOp62
 70
     1
  0
XRECORD
  5
1C8CDE6ACEF1
102
{ACAD_REACTORS
330
1C8CDE6ACEF0
102
}
330
1C8CDE6ACEF0
100
AcDbXrecord
280
     1
102
RTVSPost2010Prop28
280
     0
102
RTVSPost2010PropOp28
 70
     0
102
RTVSPost2010Prop29
280
     1
102
RTVSPost2010PropOp29
 70
     0
102
RTVSPost2010Prop30
280
     1
102
RTVSPost2010PropOp30
 70
     0
102
RTVSPost2010Prop31
280
     0
102
RTVSPost2010PropOp31
 70
     0
102
RTVSPost2010Prop32
280
     0
102
RTVSPost2010PropOp32
 70
     0
102
RTVSPost2010Prop33
280
     0
102
RTVSPost2010PropOp33
 70
     0
102
RTVSPost2010Prop34
280
     0
102
RTVSPost2010PropOp34
 70
     0
102
RTVSPost2010Prop35
280
     0
102
RTVSPost2010PropOp35
 70
     0
102
RTVSPost2010Prop36
280
     0
102
RTVSPost2010PropOp36
 70
     0
102
RTVSPost2010Prop37
 90
       50
102
RTVSPost2010PropOp37
 70
     0
102
RTVSPost2010Prop38
140
0.0
102
RTVSPost2010PropOp38
 70
     0
102
RTVSPost2010Prop39
140
1.0
102
RTVSPost2010PropOp39
 70
     0
102
RTVSPost2010Prop40
 90
        0
102
RTVSPost2010PropOp40
 70
     0
102
RTVSPost2010Prop41ColorIndex
 90
       18
102
RTVSPost2010Prop41ColorRGB
 90
        0
102
RTVSPost2010PropOp41
 70
     0
102
RTVSPost2010Prop42
 90
       50
102
RTVSPost2010PropOp42
 70
     0
102
RTVSPost2010Prop43
 90
        3
102
RTVSPost2010PropOp43
 70
     0
102
RTVSPost2010Prop44ColorIndex
 90
        5
102
RTVSPost2010Prop44ColorRGB
 90
      255
102
RTVSPost2010PropOp44
 70
     0
102
RTVSPost2010Prop45
280
     0
102
RTVSPost2010PropOp45
 70
     0
102
RTVSPost2010Prop46
 90
       50
102
RTVSPost2010PropOp46
 70
     0
102
RTVSPost2010Prop47
 90
       50
102
RTVSPost2010PropOp47
 70
     0
102
RTVSPost2010Prop48
 90
       50
102
RTVSPost2010PropOp48
 70
     0
102
RTVSPost2010Prop49
280
     0
102
RTVSPost2010PropOp49
 70
     0
102
RTVSPost2010Prop50
 90
       50
102
RTVSPost2010PropOp50
 70
     0
102
RTVSPost2010Prop51ColorIndex
 90
      256
102
RTVSPost2010Prop51ColorRGB
 90
-16777216
102
RTVSPost2010PropOp51
 70
     0
102
RTVSPost2010Prop52
140
1.0
102
RTVSPost2010PropOp52
 70
     0
102
RTVSPost2010Prop53
 90
        2
102
RTVSPost2010PropOp53
 70
     0
102
RTVSPost2010Prop54
  1
strokes_ogs.tif
102
RTVSPost2010PropOp54
 70
     0
102
RTVSPost2010Prop55
280
     0
102
RTVSPost2010PropOp55
 70
     0
102
RTVSPost2010Prop56
140
1.0
102
RTVSPost2010PropOp56
 70
     0
102
RTVSPost2010Prop57
140
1.0
102
RTVSPost2010PropOp57
 70
     0
102
RTVSPropertyOp0
 70
     0
102
RTVSPropertyOp1
 70
     0
102
RTVSPropertyOp2
 70
     0
102
RTVSPropertyOp3
 70
     0
102
RTVSPropertyOp4
 70
     0
102
RTVSPropertyOp5
 70
     0
102
RTVSPropertyOp6
 70
     0
102
RTVSPropertyOp7
 70
     0
102
RTVSPropertyOp8
 70
     0
102
RTVSPropertyOp9
 70
     0
102
RTVSPropertyOp10
 70
     0
102
RTVSPropertyOp11
 70
     0
102
RTVSPropertyOp12
 70
     0
102
RTVSPropertyOp13
 70
     0
102
RTVSPropertyOp14
 70
     2
102
RTVSPropertyOp15
 70
     0
102
RTVSPropertyOp16
 70
     0
102
RTVSPropertyOp17
 70
     0
102
RTVSPropertyOp18
 70
     0
102
RTVSPropertyOp19
 70
     0
102
RTVSPropertyOp20
 70
     0
102
RTVSPropertyOp21
 70
     0
102
RTVSPropertyOp22
 70
     0
102
RTVSPropertyOp23
 70
     0
102
RTVSPropertyOp24
 70
     0
102
RTVSPropertyOp25
 70
     0
102
RTVSPropertyOp26
 70
     0
102
RTVSPropertyOp27
 70
     0
102
RTVSPropertyOp28
 70
     0
102
RTVSPropertyOp29
 70
     0
102
RTVSPropertyOp30
 70
     0
102
RTVSPropertyOp31
 70
     0
102
RTVSPropertyOp32
 70
     0
102
RTVSPropertyOp33
 70
     0
102
RTVSPropertyOp34
 70
     0
102
RTVSPropertyOp35
 70
     0
102
RTVSPropertyOp36
 70
     0
102
RTVSPropertyOp37
 70
     0
102
RTVSPropertyOp38
 70
     0
102
RTVSPropertyOp39
 70
     0
102
RTVSPropertyOp40
 70
     0
102
RTVSPropertyOp41
 70
     0
102
RTVSPropertyOp42
 70
     0
102
RTVSPropertyOp43
 70
     0
102
RTVSPropertyOp44
 70
     0
102
RTVSPropertyOp45
 70
     0
102
RTVSPropertyOp46
 70
     0
102
RTVSPropertyOp47
 70
     0
102
RTVSPropertyOp48
 70
     0
102
RTVSPropertyOp49
 70
     0
102
RTVSPropertyOp50
 70
     0
102
RTVSPropertyOp51
 70
     0
102
RTVSPropertyOp52
 70
     0
102
RTVSPropertyOp53
 70
     0
102
RTVSPropertyOp54
 70
     0
102
RTVSPropertyOp55
 70
     0
102
RTVSPropertyOp56
 70
     0
102
RTVSPropertyOp57
 70
     0
102
RTVSPropertyOp58
 70
     1
102
RTVSPropertyOp59
 70
     1
102
RTVSPropertyOp60
 70
     1
102
RTVSPropertyOp61
 70
     1
102
RTVSPropertyOp62
 70
     1
  0
XRECORD
  5
1C8CDE6ACEDF
102
{ACAD_REACTORS
330
1C8CDE6ACEDE
102
}
330
1C8CDE6ACEDE
100
AcDbXrecord
280
     1
102
RTVSPost2010Prop28
280
     0
102
RTVSPost2010PropOp28
 70
     1
102
RTVSPost2010Prop29
280
     1
102
RTVSPost2010PropOp29
 70
     1
102
RTVSPost2010Prop30
280
     1
102
RTVSPost2010PropOp30
 70
     1
102
RTVSPost2010Prop31
280
     0
102
RTVSPost2010PropOp31
 70
     1
102
RTVSPost2010Prop32
280
     0
102
RTVSPost2010PropOp32
 70
     1
102
RTVSPost2010Prop33
280
     0
102
RTVSPost2010PropOp33
 70
     1
102
RTVSPost2010Prop34
280
     0
102
RTVSPost2010PropOp34
 70
     1
102
RTVSPost2010Prop35
280
     0
102
RTVSPost2010PropOp35
 70
     1
102
RTVSPost2010Prop36
280
     0
102
RTVSPost2010PropOp36
 70
     1
102
RTVSPost2010Prop37
 90
       50
102
RTVSPost2010PropOp37
 70
     1
102
RTVSPost2010Prop38
140
0.0
102
RTVSPost2010PropOp38
 70
     1
102
RTVSPost2010Prop39
140
1.0
102
RTVSPost2010PropOp39
 70
     1
102
RTVSPost2010Prop40
 90
        0
102
RTVSPost2010PropOp40
 70
     1
102
RTVSPost2010Prop41ColorIndex
 90
       18
102
RTVSPost2010Prop41ColorRGB
 90
        0
102
RTVSPost2010PropOp41
 70
     1
102
RTVSPost2010Prop42
 90
       50
102
RTVSPost2010PropOp42
 70
     1
102
RTVSPost2010Prop43
 90
        3
102
RTVSPost2010PropOp43
 70
     1
102
RTVSPost2010Prop44ColorIndex
 90
        5
102
RTVSPost2010Prop44ColorRGB
 90
      255
102
RTVSPost2010PropOp44
 70
     1
102
RTVSPost2010Prop45
280
     0
102
RTVSPost2010PropOp45
 70
     1
102
RTVSPost2010Prop46
 90
       50
102
RTVSPost2010PropOp46
 70
     1
102
RTVSPost2010Prop47
 90
       50
102
RTVSPost2010PropOp47
 70
     1
102
RTVSPost2010Prop48
 90
       50
102
RTVSPost2010PropOp48
 70
     1
102
RTVSPost2010Prop49
280
     0
102
RTVSPost2010PropOp49
 70
     1
102
RTVSPost2010Prop50
 90
       50
102
RTVSPost2010PropOp50
 70
     1
102
RTVSPost2010Prop51ColorIndex
 90
      256
102
RTVSPost2010Prop51ColorRGB
 90
-16777216
102
RTVSPost2010PropOp51
 70
     0
102
RTVSPost2010Prop52
140
1.0
102
RTVSPost2010PropOp52
 70
     0
102
RTVSPost2010Prop53
 90
        2
102
RTVSPost2010PropOp53
 70
     1
102
RTVSPost2010Prop54
  1
strokes_ogs.tif
102
RTVSPost2010PropOp54
 70
     1
102
RTVSPost2010Prop55
280
     0
102
RTVSPost2010PropOp55
 70
     1
102
RTVSPost2010Prop56
140
1.0
102
RTVSPost2010PropOp56
 70
     1
102
RTVSPost2010Prop57
140
1.0
102
RTVSPost2010PropOp57
 70
     1
102
RTVSPropertyOp0
 70
     1
102
RTVSPropertyOp1
 70
     1
102
RTVSPropertyOp2
 70
     1
102
RTVSPropertyOp3
 70
     1
102
RTVSPropertyOp4
 70
     1
102
RTVSPropertyOp5
 70
     1
102
RTVSPropertyOp6
 70
     1
102
RTVSPropertyOp7
 70
     1
102
RTVSPropertyOp8
 70
     1
102
RTVSPropertyOp9
 70
     1
102
RTVSPropertyOp10
 70
     1
102
RTVSPropertyOp11
 70
     1
102
RTVSPropertyOp12
 70
     1
102
RTVSPropertyOp13
 70
     1
102
RTVSPropertyOp14
 70
     1
102
RTVSPropertyOp15
 70
     1
102
RTVSPropertyOp16
 70
     1
102
RTVSPropertyOp17
 70
     1
102
RTVSPropertyOp18
 70
     1
102
RTVSPropertyOp19
 70
     1
102
RTVSPropertyOp20
 70
     1
102
RTVSPropertyOp21
 70
     1
102
RTVSPropertyOp22
 70
     1
102
RTVSPropertyOp23
 70
     1
102
RTVSPropertyOp24
 70
     1
102
RTVSPropertyOp25
 70
     1
102
RTVSPropertyOp26
 70
     1
102
RTVSPropertyOp27
 70
     1
102
RTVSPropertyOp28
 70
     1
102
RTVSPropertyOp29
 70
     1
102
RTVSPropertyOp30
 70
     1
102
RTVSPropertyOp31
 70
     1
102
RTVSPropertyOp32
 70
     1
102
RTVSPropertyOp33
 70
     1
102
RTVSPropertyOp34
 70
     1
102
RTVSPropertyOp35
 70
     1
102
RTVSPropertyOp36
 70
     1
102
RTVSPropertyOp37
 70
     1
102
RTVSPropertyOp38
 70
     1
102
RTVSPropertyOp39
 70
     1
102
RTVSPropertyOp40
 70
     1
102
RTVSPropertyOp41
 70
     1
102
RTVSPropertyOp42
 70
     1
102
RTVSPropertyOp43
 70
     1
102
RTVSPropertyOp44
 70
     1
102
RTVSPropertyOp45
 70
     1
102
RTVSPropertyOp46
 70
     1
102
RTVSPropertyOp47
 70
     1
102
RTVSPropertyOp48
 70
     1
102
RTVSPropertyOp49
 70
     1
102
RTVSPropertyOp50
 70
     1
102
RTVSPropertyOp51
 70
     0
102
RTVSPropertyOp52
 70
     0
102
RTVSPropertyOp53
 70
     1
102
RTVSPropertyOp54
 70
     1
102
RTVSPropertyOp55
 70
     1
102
RTVSPropertyOp56
 70
     1
102
RTVSPropertyOp57
 70
     1
102
RTVSPropertyOp58
 70
     1
102
RTVSPropertyOp59
 70
     1
102
RTVSPropertyOp60
 70
     1
102
RTVSPropertyOp61
 70
     1
102
RTVSPropertyOp62
 70
     1
  0
XRECORD
  5
1C8CDE6ACEFD
102
{ACAD_REACTORS
330
1C8CDE6ACEFC
102
}
330
1C8CDE6ACEFC
100
AcDbXrecord
280
     1
102
RTVSPost2010Prop28
280
     0
102
RTVSPost2010PropOp28
 70
     1
102
RTVSPost2010Prop29
280
     1
102
RTVSPost2010PropOp29
 70
     1
102
RTVSPost2010Prop30
280
     1
102
RTVSPost2010PropOp30
 70
     1
102
RTVSPost2010Prop31
280
     0
102
RTVSPost2010PropOp31
 70
     1
102
RTVSPost2010Prop32
280
     0
102
RTVSPost2010PropOp32
 70
     1
102
RTVSPost2010Prop33
280
     0
102
RTVSPost2010PropOp33
 70
     1
102
RTVSPost2010Prop34
280
     0
102
RTVSPost2010PropOp34
 70
     1
102
RTVSPost2010Prop35
280
     0
102
RTVSPost2010PropOp35
 70
     1
102
RTVSPost2010Prop36
280
     0
102
RTVSPost2010PropOp36
 70
     1
102
RTVSPost2010Prop37
 90
       50
102
RTVSPost2010PropOp37
 70
     1
102
RTVSPost2010Prop38
140
0.0
102
RTVSPost2010PropOp38
 70
     1
102
RTVSPost2010Prop39
140
1.0
102
RTVSPost2010PropOp39
 70
     1
102
RTVSPost2010Prop40
 90
        0
102
RTVSPost2010PropOp40
 70
     1
102
RTVSPost2010Prop41ColorIndex
 90
       18
102
RTVSPost2010Prop41ColorRGB
 90
        0
102
RTVSPost2010PropOp41
 70
     1
102
RTVSPost2010Prop42
 90
       50
102
RTVSPost2010PropOp42
 70
     1
102
RTVSPost2010Prop43
 90
        3
102
RTVSPost2010PropOp43
 70
     1
102
RTVSPost2010Prop44ColorIndex
 90
        5
102
RTVSPost2010Prop44ColorRGB
 90
      255
102
RTVSPost2010PropOp44
 70
     1
102
RTVSPost2010Prop45
280
     0
102
RTVSPost2010PropOp45
 70
     1
102
RTVSPost2010Prop46
 90
       50
102
RTVSPost2010PropOp46
 70
     1
102
RTVSPost2010Prop47
 90
       50
102
RTVSPost2010PropOp47
 70
     1
102
RTVSPost2010Prop48
 90
       50
102
RTVSPost2010PropOp48
 70
     1
102
RTVSPost2010Prop49
280
     0
102
RTVSPost2010PropOp49
 70
     1
102
RTVSPost2010Prop50
 90
       50
102
RTVSPost2010PropOp50
 70
     1
102
RTVSPost2010Prop51ColorIndex
 90
      256
102
RTVSPost2010Prop51ColorRGB
 90
-16777216
102
RTVSPost2010PropOp51
 70
     0
102
RTVSPost2010Prop52
140
1.0
102
RTVSPost2010PropOp52
 70
     0
102
RTVSPost2010Prop53
 90
        2
102
RTVSPost2010PropOp53
 70
     1
102
RTVSPost2010Prop54
  1
strokes_ogs.tif
102
RTVSPost2010PropOp54
 70
     1
102
RTVSPost2010Prop55
280
     0
102
RTVSPost2010PropOp55
 70
     1
102
RTVSPost2010Prop56
140
1.0
102
RTVSPost2010PropOp56
 70
     1
102
RTVSPost2010Prop57
140
1.0
102
RTVSPost2010PropOp57
 70
     1
102
RTVSPropertyOp0
 70
     1
102
RTVSPropertyOp1
 70
     1
102
RTVSPropertyOp2
 70
     1
102
RTVSPropertyOp3
 70
     1
102
RTVSPropertyOp4
 70
     1
102
RTVSPropertyOp5
 70
     1
102
RTVSPropertyOp6
 70
     1
102
RTVSPropertyOp7
 70
     1
102
RTVSPropertyOp8
 70
     1
102
RTVSPropertyOp9
 70
     1
102
RTVSPropertyOp10
 70
     1
102
RTVSPropertyOp11
 70
     1
102
RTVSPropertyOp12
 70
     1
102
RTVSPropertyOp13
 70
     1
102
RTVSPropertyOp14
 70
     1
102
RTVSPropertyOp15
 70
     1
102
RTVSPropertyOp16
 70
     1
102
RTVSPropertyOp17
 70
     1
102
RTVSPropertyOp18
 70
     1
102
RTVSPropertyOp19
 70
     1
102
RTVSPropertyOp20
 70
     1
102
RTVSPropertyOp21
 70
     1
102
RTVSPropertyOp22
 70
     1
102
RTVSPropertyOp23
 70
     1
102
RTVSPropertyOp24
 70
     1
102
RTVSPropertyOp25
 70
     1
102
RTVSPropertyOp26
 70
     1
102
RTVSPropertyOp27
 70
     1
102
RTVSPropertyOp28
 70
     1
102
RTVSPropertyOp29
 70
     1
102
RTVSPropertyOp30
 70
     1
102
RTVSPropertyOp31
 70
     1
102
RTVSPropertyOp32
 70
     1
102
RTVSPropertyOp33
 70
     1
102
RTVSPropertyOp34
 70
     1
102
RTVSPropertyOp35
 70
     1
102
RTVSPropertyOp36
 70
     1
102
RTVSPropertyOp37
 70
     1
102
RTVSPropertyOp38
 70
     1
102
RTVSPropertyOp39
 70
     1
102
RTVSPropertyOp40
 70
     1
102
RTVSPropertyOp41
 70
     1
102
RTVSPropertyOp42
 70
     1
102
RTVSPropertyOp43
 70
     1
102
RTVSPropertyOp44
 70
     1
102
RTVSPropertyOp45
 70
     1
102
RTVSPropertyOp46
 70
     1
102
RTVSPropertyOp47
 70
     1
102
RTVSPropertyOp48
 70
     1
102
RTVSPropertyOp49
 70
     1
102
RTVSPropertyOp50
 70
     1
102
RTVSPropertyOp51
 70
     0
102
RTVSPropertyOp52
 70
     0
102
RTVSPropertyOp53
 70
     1
102
RTVSPropertyOp54
 70
     1
102
RTVSPropertyOp55
 70
     1
102
RTVSPropertyOp56
 70
     1
102
RTVSPropertyOp57
 70
     1
102
RTVSPropertyOp58
 70
     1
102
RTVSPropertyOp59
 70
     1
102
RTVSPropertyOp60
 70
     1
102
RTVSPropertyOp61
 70
     1
102
RTVSPropertyOp62
 70
     1
  0
XRECORD
  5
1C8CDE6ACEFB
102
{ACAD_REACTORS
330
1C8CDE6ACEFA
102
}
330
1C8CDE6ACEFA
100
AcDbXrecord
280
     1
102
RTVSPost2010Prop28
280
     0
102
RTVSPost2010PropOp28
 70
     1
102
RTVSPost2010Prop29
280
     1
102
RTVSPost2010PropOp29
 70
     1
102
RTVSPost2010Prop30
280
     1
102
RTVSPost2010PropOp30
 70
     1
102
RTVSPost2010Prop31
280
     0
102
RTVSPost2010PropOp31
 70
     1
102
RTVSPost2010Prop32
280
     0
102
RTVSPost2010PropOp32
 70
     1
102
RTVSPost2010Prop33
280
     0
102
RTVSPost2010PropOp33
 70
     1
102
RTVSPost2010Prop34
280
     0
102
RTVSPost2010PropOp34
 70
     1
102
RTVSPost2010Prop35
280
     0
102
RTVSPost2010PropOp35
 70
     1
102
RTVSPost2010Prop36
280
     0
102
RTVSPost2010PropOp36
 70
     1
102
RTVSPost2010Prop37
 90
       50
102
RTVSPost2010PropOp37
 70
     1
102
RTVSPost2010Prop38
140
0.0
102
RTVSPost2010PropOp38
 70
     1
102
RTVSPost2010Prop39
140
1.0
102
RTVSPost2010PropOp39
 70
     1
102
RTVSPost2010Prop40
 90
        0
102
RTVSPost2010PropOp40
 70
     1
102
RTVSPost2010Prop41ColorIndex
 90
       18
102
RTVSPost2010Prop41ColorRGB
 90
        0
102
RTVSPost2010PropOp41
 70
     1
102
RTVSPost2010Prop42
 90
       50
102
RTVSPost2010PropOp42
 70
     1
102
RTVSPost2010Prop43
 90
        3
102
RTVSPost2010PropOp43
 70
     1
102
RTVSPost2010Prop44ColorIndex
 90
        5
102
RTVSPost2010Prop44ColorRGB
 90
      255
102
RTVSPost2010PropOp44
 70
     1
102
RTVSPost2010Prop45
280
     0
102
RTVSPost2010PropOp45
 70
     1
102
RTVSPost2010Prop46
 90
       50
102
RTVSPost2010PropOp46
 70
     1
102
RTVSPost2010Prop47
 90
       50
102
RTVSPost2010PropOp47
 70
     1
102
RTVSPost2010Prop48
 90
       50
102
RTVSPost2010PropOp48
 70
     1
102
RTVSPost2010Prop49
280
     0
102
RTVSPost2010PropOp49
 70
     1
102
RTVSPost2010Prop50
 90
       50
102
RTVSPost2010PropOp50
 70
     1
102
RTVSPost2010Prop51ColorIndex
 90
      256
102
RTVSPost2010Prop51ColorRGB
 90
-16777216
102
RTVSPost2010PropOp51
 70
     0
102
RTVSPost2010Prop52
140
1.0
102
RTVSPost2010PropOp52
 70
     0
102
RTVSPost2010Prop53
 90
        2
102
RTVSPost2010PropOp53
 70
     1
102
RTVSPost2010Prop54
  1
strokes_ogs.tif
102
RTVSPost2010PropOp54
 70
     1
102
RTVSPost2010Prop55
280
     0
102
RTVSPost2010PropOp55
 70
     1
102
RTVSPost2010Prop56
140
1.0
102
RTVSPost2010PropOp56
 70
     1
102
RTVSPost2010Prop57
140
1.0
102
RTVSPost2010PropOp57
 70
     1
102
RTVSPropertyOp0
 70
     1
102
RTVSPropertyOp1
 70
     1
102
RTVSPropertyOp2
 70
     1
102
RTVSPropertyOp3
 70
     1
102
RTVSPropertyOp4
 70
     1
102
RTVSPropertyOp5
 70
     1
102
RTVSPropertyOp6
 70
     1
102
RTVSPropertyOp7
 70
     1
102
RTVSPropertyOp8
 70
     1
102
RTVSPropertyOp9
 70
     1
102
RTVSPropertyOp10
 70
     1
102
RTVSPropertyOp11
 70
     1
102
RTVSPropertyOp12
 70
     1
102
RTVSPropertyOp13
 70
     1
102
RTVSPropertyOp14
 70
     1
102
RTVSPropertyOp15
 70
     1
102
RTVSPropertyOp16
 70
     1
102
RTVSPropertyOp17
 70
     1
102
RTVSPropertyOp18
 70
     1
102
RTVSPropertyOp19
 70
     1
102
RTVSPropertyOp20
 70
     1
102
RTVSPropertyOp21
 70
     1
102
RTVSPropertyOp22
 70
     1
102
RTVSPropertyOp23
 70
     1
102
RTVSPropertyOp24
 70
     1
102
RTVSPropertyOp25
 70
     1
102
RTVSPropertyOp26
 70
     1
102
RTVSPropertyOp27
 70
     1
102
RTVSPropertyOp28
 70
     1
102
RTVSPropertyOp29
 70
     1
102
RTVSPropertyOp30
 70
     1
102
RTVSPropertyOp31
 70
     1
102
RTVSPropertyOp32
 70
     1
102
RTVSPropertyOp33
 70
     1
102
RTVSPropertyOp34
 70
     1
102
RTVSPropertyOp35
 70
     1
102
RTVSPropertyOp36
 70
     1
102
RTVSPropertyOp37
 70
     1
102
RTVSPropertyOp38
 70
     1
102
RTVSPropertyOp39
 70
     1
102
RTVSPropertyOp40
 70
     1
102
RTVSPropertyOp41
 70
     1
102
RTVSPropertyOp42
 70
     1
102
RTVSPropertyOp43
 70
     1
102
RTVSPropertyOp44
 70
     1
102
RTVSPropertyOp45
 70
     1
102
RTVSPropertyOp46
 70
     1
102
RTVSPropertyOp47
 70
     1
102
RTVSPropertyOp48
 70
     1
102
RTVSPropertyOp49
 70
     1
102
RTVSPropertyOp50
 70
     1
102
RTVSPropertyOp51
 70
     0
102
RTVSPropertyOp52
 70
     0
102
RTVSPropertyOp53
 70
     1
102
RTVSPropertyOp54
 70
     1
102
RTVSPropertyOp55
 70
     1
102
RTVSPropertyOp56
 70
     1
102
RTVSPropertyOp57
 70
     1
102
RTVSPropertyOp58
 70
     1
102
RTVSPropertyOp59
 70
     1
102
RTVSPropertyOp60
 70
     1
102
RTVSPropertyOp61
 70
     1
102
RTVSPropertyOp62
 70
     1
  0
XRECORD
  5
1C8CDE6ACEF5
102
{ACAD_REACTORS
330
1C8CDE6ACEF4
102
}
330
1C8CDE6ACEF4
100
AcDbXrecord
280
     1
102
RTVSPost2010Prop28
280
     0
102
RTVSPost2010PropOp28
 70
     1
102
RTVSPost2010Prop29
280
     1
102
RTVSPost2010PropOp29
 70
     1
102
RTVSPost2010Prop30
280
     1
102
RTVSPost2010PropOp30
 70
     1
102
RTVSPost2010Prop31
280
     0
102
RTVSPost2010PropOp31
 70
     1
102
RTVSPost2010Prop32
280
     0
102
RTVSPost2010PropOp32
 70
     1
102
RTVSPost2010Prop33
280
     0
102
RTVSPost2010PropOp33
 70
     1
102
RTVSPost2010Prop34
280
     0
102
RTVSPost2010PropOp34
 70
     1
102
RTVSPost2010Prop35
280
     0
102
RTVSPost2010PropOp35
 70
     1
102
RTVSPost2010Prop36
280
     0
102
RTVSPost2010PropOp36
 70
     1
102
RTVSPost2010Prop37
 90
       50
102
RTVSPost2010PropOp37
 70
     1
102
RTVSPost2010Prop38
140
0.0
102
RTVSPost2010PropOp38
 70
     1
102
RTVSPost2010Prop39
140
1.0
102
RTVSPost2010PropOp39
 70
     1
102
RTVSPost2010Prop40
 90
        0
102
RTVSPost2010PropOp40
 70
     1
102
RTVSPost2010Prop41ColorIndex
 90
       18
102
RTVSPost2010Prop41ColorRGB
 90
        0
102
RTVSPost2010PropOp41
 70
     1
102
RTVSPost2010Prop42
 90
       50
102
RTVSPost2010PropOp42
 70
     1
102
RTVSPost2010Prop43
 90
        3
102
RTVSPost2010PropOp43
 70
     1
102
RTVSPost2010Prop44ColorIndex
 90
        5
102
RTVSPost2010Prop44ColorRGB
 90
      255
102
RTVSPost2010PropOp44
 70
     1
102
RTVSPost2010Prop45
280
     0
102
RTVSPost2010PropOp45
 70
     1
102
RTVSPost2010Prop46
 90
       50
102
RTVSPost2010PropOp46
 70
     1
102
RTVSPost2010Prop47
 90
       50
102
RTVSPost2010PropOp47
 70
     1
102
RTVSPost2010Prop48
 90
       50
102
RTVSPost2010PropOp48
 70
     1
102
RTVSPost2010Prop49
280
     0
102
RTVSPost2010PropOp49
 70
     1
102
RTVSPost2010Prop50
 90
       50
102
RTVSPost2010PropOp50
 70
     1
102
RTVSPost2010Prop51ColorIndex
 90
      256
102
RTVSPost2010Prop51ColorRGB
 90
-16777216
102
RTVSPost2010PropOp51
 70
     0
102
RTVSPost2010Prop52
140
1.0
102
RTVSPost2010PropOp52
 70
     0
102
RTVSPost2010Prop53
 90
        2
102
RTVSPost2010PropOp53
 70
     1
102
RTVSPost2010Prop54
  1
strokes_ogs.tif
102
RTVSPost2010PropOp54
 70
     1
102
RTVSPost2010Prop55
280
     0
102
RTVSPost2010PropOp55
 70
     1
102
RTVSPost2010Prop56
140
1.0
102
RTVSPost2010PropOp56
 70
     1
102
RTVSPost2010Prop57
140
1.0
102
RTVSPost2010PropOp57
 70
     1
102
RTVSPropertyOp0
 70
     1
102
RTVSPropertyOp1
 70
     1
102
RTVSPropertyOp2
 70
     1
102
RTVSPropertyOp3
 70
     1
102
RTVSPropertyOp4
 70
     1
102
RTVSPropertyOp5
 70
     1
102
RTVSPropertyOp6
 70
     1
102
RTVSPropertyOp7
 70
     1
102
RTVSPropertyOp8
 70
     1
102
RTVSPropertyOp9
 70
     1
102
RTVSPropertyOp10
 70
     1
102
RTVSPropertyOp11
 70
     1
102
RTVSPropertyOp12
 70
     1
102
RTVSPropertyOp13
 70
     1
102
RTVSPropertyOp14
 70
     1
102
RTVSPropertyOp15
 70
     1
102
RTVSPropertyOp16
 70
     1
102
RTVSPropertyOp17
 70
     1
102
RTVSPropertyOp18
 70
     1
102
RTVSPropertyOp19
 70
     1
102
RTVSPropertyOp20
 70
     1
102
RTVSPropertyOp21
 70
     1
102
RTVSPropertyOp22
 70
     1
102
RTVSPropertyOp23
 70
     1
102
RTVSPropertyOp24
 70
     1
102
RTVSPropertyOp25
 70
     1
102
RTVSPropertyOp26
 70
     1
102
RTVSPropertyOp27
 70
     1
102
RTVSPropertyOp28
 70
     1
102
RTVSPropertyOp29
 70
     1
102
RTVSPropertyOp30
 70
     1
102
RTVSPropertyOp31
 70
     1
102
RTVSPropertyOp32
 70
     1
102
RTVSPropertyOp33
 70
     1
102
RTVSPropertyOp34
 70
     1
102
RTVSPropertyOp35
 70
     1
102
RTVSPropertyOp36
 70
     1
102
RTVSPropertyOp37
 70
     1
102
RTVSPropertyOp38
 70
     1
102
RTVSPropertyOp39
 70
     1
102
RTVSPropertyOp40
 70
     1
102
RTVSPropertyOp41
 70
     1
102
RTVSPropertyOp42
 70
     1
102
RTVSPropertyOp43
 70
     1
102
RTVSPropertyOp44
 70
     1
102
RTVSPropertyOp45
 70
     1
102
RTVSPropertyOp46
 70
     1
102
RTVSPropertyOp47
 70
     1
102
RTVSPropertyOp48
 70
     1
102
RTVSPropertyOp49
 70
     1
102
RTVSPropertyOp50
 70
     1
102
RTVSPropertyOp51
 70
     0
102
RTVSPropertyOp52
 70
     0
102
RTVSPropertyOp53
 70
     1
102
RTVSPropertyOp54
 70
     1
102
RTVSPropertyOp55
 70
     1
102
RTVSPropertyOp56
 70
     1
102
RTVSPropertyOp57
 70
     1
102
RTVSPropertyOp58
 70
     1
102
RTVSPropertyOp59
 70
     1
102
RTVSPropertyOp60
 70
     1
102
RTVSPropertyOp61
 70
     1
102
RTVSPropertyOp62
 70
     1
  0
XRECORD
  5
1C8CDE6ACEF7
102
{ACAD_REACTORS
330
1C8CDE6ACEF6
102
}
330
1C8CDE6ACEF6
100
AcDbXrecord
280
     1
102
RTVSPost2010Prop28
280
     0
102
RTVSPost2010PropOp28
 70
     1
102
RTVSPost2010Prop29
280
     1
102
RTVSPost2010PropOp29
 70
     1
102
RTVSPost2010Prop30
280
     1
102
RTVSPost2010PropOp30
 70
     1
102
RTVSPost2010Prop31
280
     0
102
RTVSPost2010PropOp31
 70
     1
102
RTVSPost2010Prop32
280
     0
102
RTVSPost2010PropOp32
 70
     1
102
RTVSPost2010Prop33
280
     0
102
RTVSPost2010PropOp33
 70
     1
102
RTVSPost2010Prop34
280
     0
102
RTVSPost2010PropOp34
 70
     1
102
RTVSPost2010Prop35
280
     0
102
RTVSPost2010PropOp35
 70
     1
102
RTVSPost2010Prop36
280
     0
102
RTVSPost2010PropOp36
 70
     1
102
RTVSPost2010Prop37
 90
       50
102
RTVSPost2010PropOp37
 70
     1
102
RTVSPost2010Prop38
140
0.0
102
RTVSPost2010PropOp38
 70
     1
102
RTVSPost2010Prop39
140
1.0
102
RTVSPost2010PropOp39
 70
     1
102
RTVSPost2010Prop40
 90
        0
102
RTVSPost2010PropOp40
 70
     1
102
RTVSPost2010Prop41ColorIndex
 90
       18
102
RTVSPost2010Prop41ColorRGB
 90
        0
102
RTVSPost2010PropOp41
 70
     1
102
RTVSPost2010Prop42
 90
       50
102
RTVSPost2010PropOp42
 70
     1
102
RTVSPost2010Prop43
 90
        3
102
RTVSPost2010PropOp43
 70
     1
102
RTVSPost2010Prop44ColorIndex
 90
        5
102
RTVSPost2010Prop44ColorRGB
 90
      255
102
RTVSPost2010PropOp44
 70
     1
102
RTVSPost2010Prop45
280
     0
102
RTVSPost2010PropOp45
 70
     1
102
RTVSPost2010Prop46
 90
       50
102
RTVSPost2010PropOp46
 70
     1
102
RTVSPost2010Prop47
 90
       50
102
RTVSPost2010PropOp47
 70
     1
102
RTVSPost2010Prop48
 90
       50
102
RTVSPost2010PropOp48
 70
     1
102
RTVSPost2010Prop49
280
     0
102
RTVSPost2010PropOp49
 70
     1
102
RTVSPost2010Prop50
 90
       50
102
RTVSPost2010PropOp50
 70
     1
102
RTVSPost2010Prop51ColorIndex
 90
      256
102
RTVSPost2010Prop51ColorRGB
 90
-16777216
102
RTVSPost2010PropOp51
 70
     0
102
RTVSPost2010Prop52
140
1.0
102
RTVSPost2010PropOp52
 70
     0
102
RTVSPost2010Prop53
 90
        2
102
RTVSPost2010PropOp53
 70
     1
102
RTVSPost2010Prop54
  1
strokes_ogs.tif
102
RTVSPost2010PropOp54
 70
     1
102
RTVSPost2010Prop55
280
     0
102
RTVSPost2010PropOp55
 70
     1
102
RTVSPost2010Prop56
140
1.0
102
RTVSPost2010PropOp56
 70
     1
102
RTVSPost2010Prop57
140
1.0
102
RTVSPost2010PropOp57
 70
     1
102
RTVSPropertyOp0
 70
     1
102
RTVSPropertyOp1
 70
     1
102
RTVSPropertyOp2
 70
     1
102
RTVSPropertyOp3
 70
     1
102
RTVSPropertyOp4
 70
     1
102
RTVSPropertyOp5
 70
     1
102
RTVSPropertyOp6
 70
     1
102
RTVSPropertyOp7
 70
     1
102
RTVSPropertyOp8
 70
     1
102
RTVSPropertyOp9
 70
     1
102
RTVSPropertyOp10
 70
     1
102
RTVSPropertyOp11
 70
     1
102
RTVSPropertyOp12
 70
     1
102
RTVSPropertyOp13
 70
     1
102
RTVSPropertyOp14
 70
     1
102
RTVSPropertyOp15
 70
     1
102
RTVSPropertyOp16
 70
     1
102
RTVSPropertyOp17
 70
     1
102
RTVSPropertyOp18
 70
     1
102
RTVSPropertyOp19
 70
     1
102
RTVSPropertyOp20
 70
     1
102
RTVSPropertyOp21
 70
     1
102
RTVSPropertyOp22
 70
     1
102
RTVSPropertyOp23
 70
     1
102
RTVSPropertyOp24
 70
     1
102
RTVSPropertyOp25
 70
     1
102
RTVSPropertyOp26
 70
     1
102
RTVSPropertyOp27
 70
     1
102
RTVSPropertyOp28
 70
     1
102
RTVSPropertyOp29
 70
     1
102
RTVSPropertyOp30
 70
     1
102
RTVSPropertyOp31
 70
     1
102
RTVSPropertyOp32
 70
     1
102
RTVSPropertyOp33
 70
     1
102
RTVSPropertyOp34
 70
     1
102
RTVSPropertyOp35
 70
     1
102
RTVSPropertyOp36
 70
     1
102
RTVSPropertyOp37
 70
     1
102
RTVSPropertyOp38
 70
     1
102
RTVSPropertyOp39
 70
     1
102
RTVSPropertyOp40
 70
     1
102
RTVSPropertyOp41
 70
     1
102
RTVSPropertyOp42
 70
     1
102
RTVSPropertyOp43
 70
     1
102
RTVSPropertyOp44
 70
     1
102
RTVSPropertyOp45
 70
     1
102
RTVSPropertyOp46
 70
     1
102
RTVSPropertyOp47
 70
     1
102
RTVSPropertyOp48
 70
     1
102
RTVSPropertyOp49
 70
     1
102
RTVSPropertyOp50
 70
     1
102
RTVSPropertyOp51
 70
     0
102
RTVSPropertyOp52
 70
     0
102
RTVSPropertyOp53
 70
     1
102
RTVSPropertyOp54
 70
     1
102
RTVSPropertyOp55
 70
     1
102
RTVSPropertyOp56
 70
     1
102
RTVSPropertyOp57
 70
     1
102
RTVSPropertyOp58
 70
     1
102
RTVSPropertyOp59
 70
     1
102
RTVSPropertyOp60
 70
     1
102
RTVSPropertyOp61
 70
     1
102
RTVSPropertyOp62
 70
     1
  0
XRECORD
  5
1C8CDE6ACEE7
102
{ACAD_REACTORS
330
1C8CDE6ACEE6
102
}
330
1C8CDE6ACEE6
100
AcDbXrecord
280
     1
102
RTVSPost2010Prop28
280
     0
102
RTVSPost2010PropOp28
 70
     1
102
RTVSPost2010Prop29
280
     1
102
RTVSPost2010PropOp29
 70
     1
102
RTVSPost2010Prop30
280
     1
102
RTVSPost2010PropOp30
 70
     1
102
RTVSPost2010Prop31
280
     0
102
RTVSPost2010PropOp31
 70
     1
102
RTVSPost2010Prop32
280
     0
102
RTVSPost2010PropOp32
 70
     1
102
RTVSPost2010Prop33
280
     0
102
RTVSPost2010PropOp33
 70
     1
102
RTVSPost2010Prop34
280
     0
102
RTVSPost2010PropOp34
 70
     1
102
RTVSPost2010Prop35
280
     0
102
RTVSPost2010PropOp35
 70
     1
102
RTVSPost2010Prop36
280
     0
102
RTVSPost2010PropOp36
 70
     1
102
RTVSPost2010Prop37
 90
       50
102
RTVSPost2010PropOp37
 70
     1
102
RTVSPost2010Prop38
140
0.0
102
RTVSPost2010PropOp38
 70
     1
102
RTVSPost2010Prop39
140
1.0
102
RTVSPost2010PropOp39
 70
     1
102
RTVSPost2010Prop40
 90
        0
102
RTVSPost2010PropOp40
 70
     1
102
RTVSPost2010Prop41ColorIndex
 90
       18
102
RTVSPost2010Prop41ColorRGB
 90
        0
102
RTVSPost2010PropOp41
 70
     1
102
RTVSPost2010Prop42
 90
       50
102
RTVSPost2010PropOp42
 70
     1
102
RTVSPost2010Prop43
 90
        3
102
RTVSPost2010PropOp43
 70
     1
102
RTVSPost2010Prop44ColorIndex
 90
        5
102
RTVSPost2010Prop44ColorRGB
 90
      255
102
RTVSPost2010PropOp44
 70
     1
102
RTVSPost2010Prop45
280
     0
102
RTVSPost2010PropOp45
 70
     1
102
RTVSPost2010Prop46
 90
       50
102
RTVSPost2010PropOp46
 70
     1
102
RTVSPost2010Prop47
 90
       50
102
RTVSPost2010PropOp47
 70
     1
102
RTVSPost2010Prop48
 90
       50
102
RTVSPost2010PropOp48
 70
     1
102
RTVSPost2010Prop49
280
     0
102
RTVSPost2010PropOp49
 70
     1
102
RTVSPost2010Prop50
 90
       50
102
RTVSPost2010PropOp50
 70
     1
102
RTVSPost2010Prop51ColorIndex
 90
      256
102
RTVSPost2010Prop51ColorRGB
 90
-16777216
102
RTVSPost2010PropOp51
 70
     0
102
RTVSPost2010Prop52
140
1.0
102
RTVSPost2010PropOp52
 70
     0
102
RTVSPost2010Prop53
 90
        2
102
RTVSPost2010PropOp53
 70
     1
102
RTVSPost2010Prop54
  1
strokes_ogs.tif
102
RTVSPost2010PropOp54
 70
     1
102
RTVSPost2010Prop55
280
     0
102
RTVSPost2010PropOp55
 70
     1
102
RTVSPost2010Prop56
140
1.0
102
RTVSPost2010PropOp56
 70
     1
102
RTVSPost2010Prop57
140
1.0
102
RTVSPost2010PropOp57
 70
     1
102
RTVSPropertyOp0
 70
     1
102
RTVSPropertyOp1
 70
     1
102
RTVSPropertyOp2
 70
     1
102
RTVSPropertyOp3
 70
     1
102
RTVSPropertyOp4
 70
     1
102
RTVSPropertyOp5
 70
     1
102
RTVSPropertyOp6
 70
     1
102
RTVSPropertyOp7
 70
     1
102
RTVSPropertyOp8
 70
     1
102
RTVSPropertyOp9
 70
     1
102
RTVSPropertyOp10
 70
     1
102
RTVSPropertyOp11
 70
     1
102
RTVSPropertyOp12
 70
     1
102
RTVSPropertyOp13
 70
     1
102
RTVSPropertyOp14
 70
     1
102
RTVSPropertyOp15
 70
     1
102
RTVSPropertyOp16
 70
     1
102
RTVSPropertyOp17
 70
     1
102
RTVSPropertyOp18
 70
     1
102
RTVSPropertyOp19
 70
     1
102
RTVSPropertyOp20
 70
     1
102
RTVSPropertyOp21
 70
     1
102
RTVSPropertyOp22
 70
     1
102
RTVSPropertyOp23
 70
     1
102
RTVSPropertyOp24
 70
     1
102
RTVSPropertyOp25
 70
     1
102
RTVSPropertyOp26
 70
     1
102
RTVSPropertyOp27
 70
     1
102
RTVSPropertyOp28
 70
     1
102
RTVSPropertyOp29
 70
     1
102
RTVSPropertyOp30
 70
     1
102
RTVSPropertyOp31
 70
     1
102
RTVSPropertyOp32
 70
     1
102
RTVSPropertyOp33
 70
     1
102
RTVSPropertyOp34
 70
     1
102
RTVSPropertyOp35
 70
     1
102
RTVSPropertyOp36
 70
     1
102
RTVSPropertyOp37
 70
     1
102
RTVSPropertyOp38
 70
     1
102
RTVSPropertyOp39
 70
     1
102
RTVSPropertyOp40
 70
     1
102
RTVSPropertyOp41
 70
     1
102
RTVSPropertyOp42
 70
     1
102
RTVSPropertyOp43
 70
     1
102
RTVSPropertyOp44
 70
     1
102
RTVSPropertyOp45
 70
     1
102
RTVSPropertyOp46
 70
     1
102
RTVSPropertyOp47
 70
     1
102
RTVSPropertyOp48
 70
     1
102
RTVSPropertyOp49
 70
     1
102
RTVSPropertyOp50
 70
     1
102
RTVSPropertyOp51
 70
     0
102
RTVSPropertyOp52
 70
     0
102
RTVSPropertyOp53
 70
     1
102
RTVSPropertyOp54
 70
     1
102
RTVSPropertyOp55
 70
     1
102
RTVSPropertyOp56
 70
     1
102
RTVSPropertyOp57
 70
     1
102
RTVSPropertyOp58
 70
     1
102
RTVSPropertyOp59
 70
     1
102
RTVSPropertyOp60
 70
     1
102
RTVSPropertyOp61
 70
     1
102
RTVSPropertyOp62
 70
     1
  0
XRECORD
  5
1C8CDE6ACED9
102
{ACAD_REACTORS
330
1C8CDE6ACED8
102
}
330
1C8CDE6ACED8
100
AcDbXrecord
280
     1
102
RTVSPost2010Prop28
280
     0
102
RTVSPost2010PropOp28
 70
     1
102
RTVSPost2010Prop29
280
     1
102
RTVSPost2010PropOp29
 70
     1
102
RTVSPost2010Prop30
280
     1
102
RTVSPost2010PropOp30
 70
     1
102
RTVSPost2010Prop31
280
     0
102
RTVSPost2010PropOp31
 70
     1
102
RTVSPost2010Prop32
280
     0
102
RTVSPost2010PropOp32
 70
     1
102
RTVSPost2010Prop33
280
     0
102
RTVSPost2010PropOp33
 70
     1
102
RTVSPost2010Prop34
280
     0
102
RTVSPost2010PropOp34
 70
     1
102
RTVSPost2010Prop35
280
     0
102
RTVSPost2010PropOp35
 70
     1
102
RTVSPost2010Prop36
280
     0
102
RTVSPost2010PropOp36
 70
     1
102
RTVSPost2010Prop37
 90
       50
102
RTVSPost2010PropOp37
 70
     1
102
RTVSPost2010Prop38
140
0.0
102
RTVSPost2010PropOp38
 70
     1
102
RTVSPost2010Prop39
140
1.0
102
RTVSPost2010PropOp39
 70
     1
102
RTVSPost2010Prop40
 90
        0
102
RTVSPost2010PropOp40
 70
     1
102
RTVSPost2010Prop41ColorIndex
 90
       18
102
RTVSPost2010Prop41ColorRGB
 90
        0
102
RTVSPost2010PropOp41
 70
     1
102
RTVSPost2010Prop42
 90
       50
102
RTVSPost2010PropOp42
 70
     1
102
RTVSPost2010Prop43
 90
        3
102
RTVSPost2010PropOp43
 70
     1
102
RTVSPost2010Prop44ColorIndex
 90
        5
102
RTVSPost2010Prop44ColorRGB
 90
      255
102
RTVSPost2010PropOp44
 70
     1
102
RTVSPost2010Prop45
280
     0
102
RTVSPost2010PropOp45
 70
     1
102
RTVSPost2010Prop46
 90
       50
102
RTVSPost2010PropOp46
 70
     1
102
RTVSPost2010Prop47
 90
       50
102
RTVSPost2010PropOp47
 70
     1
102
RTVSPost2010Prop48
 90
       50
102
RTVSPost2010PropOp48
 70
     1
102
RTVSPost2010Prop49
280
     0
102
RTVSPost2010PropOp49
 70
     1
102
RTVSPost2010Prop50
 90
       50
102
RTVSPost2010PropOp50
 70
     1
102
RTVSPost2010Prop51ColorIndex
 90
      256
102
RTVSPost2010Prop51ColorRGB
 90
-16777216
102
RTVSPost2010PropOp51
 70
     0
102
RTVSPost2010Prop52
140
1.0
102
RTVSPost2010PropOp52
 70
     0
102
RTVSPost2010Prop53
 90
        2
102
RTVSPost2010PropOp53
 70
     1
102
RTVSPost2010Prop54
  1
strokes_ogs.tif
102
RTVSPost2010PropOp54
 70
     1
102
RTVSPost2010Prop55
280
     0
102
RTVSPost2010PropOp55
 70
     1
102
RTVSPost2010Prop56
140
1.0
102
RTVSPost2010PropOp56
 70
     1
102
RTVSPost2010Prop57
140
1.0
102
RTVSPost2010PropOp57
 70
     1
102
RTVSPropertyOp0
 70
     1
102
RTVSPropertyOp1
 70
     1
102
RTVSPropertyOp2
 70
     1
102
RTVSPropertyOp3
 70
     1
102
RTVSPropertyOp4
 70
     1
102
RTVSPropertyOp5
 70
     1
102
RTVSPropertyOp6
 70
     1
102
RTVSPropertyOp7
 70
     1
102
RTVSPropertyOp8
 70
     1
102
RTVSPropertyOp9
 70
     1
102
RTVSPropertyOp10
 70
     1
102
RTVSPropertyOp11
 70
     1
102
RTVSPropertyOp12
 70
     1
102
RTVSPropertyOp13
 70
     1
102
RTVSPropertyOp14
 70
     1
102
RTVSPropertyOp15
 70
     1
102
RTVSPropertyOp16
 70
     1
102
RTVSPropertyOp17
 70
     1
102
RTVSPropertyOp18
 70
     1
102
RTVSPropertyOp19
 70
     1
102
RTVSPropertyOp20
 70
     1
102
RTVSPropertyOp21
 70
     1
102
RTVSPropertyOp22
 70
     1
102
RTVSPropertyOp23
 70
     1
102
RTVSPropertyOp24
 70
     1
102
RTVSPropertyOp25
 70
     1
102
RTVSPropertyOp26
 70
     1
102
RTVSPropertyOp27
 70
     1
102
RTVSPropertyOp28
 70
     1
102
RTVSPropertyOp29
 70
     1
102
RTVSPropertyOp30
 70
     1
102
RTVSPropertyOp31
 70
     1
102
RTVSPropertyOp32
 70
     1
102
RTVSPropertyOp33
 70
     1
102
RTVSPropertyOp34
 70
     1
102
RTVSPropertyOp35
 70
     1
102
RTVSPropertyOp36
 70
     1
102
RTVSPropertyOp37
 70
     1
102
RTVSPropertyOp38
 70
     1
102
RTVSPropertyOp39
 70
     1
102
RTVSPropertyOp40
 70
     1
102
RTVSPropertyOp41
 70
     1
102
RTVSPropertyOp42
 70
     1
102
RTVSPropertyOp43
 70
     1
102
RTVSPropertyOp44
 70
     1
102
RTVSPropertyOp45
 70
     1
102
RTVSPropertyOp46
 70
     1
102
RTVSPropertyOp47
 70
     1
102
RTVSPropertyOp48
 70
     1
102
RTVSPropertyOp49
 70
     1
102
RTVSPropertyOp50
 70
     1
102
RTVSPropertyOp51
 70
     0
102
RTVSPropertyOp52
 70
     0
102
RTVSPropertyOp53
 70
     1
102
RTVSPropertyOp54
 70
     1
102
RTVSPropertyOp55
 70
     1
102
RTVSPropertyOp56
 70
     1
102
RTVSPropertyOp57
 70
     1
102
RTVSPropertyOp58
 70
     1
102
RTVSPropertyOp59
 70
     1
102
RTVSPropertyOp60
 70
     1
102
RTVSPropertyOp61
 70
     1
102
RTVSPropertyOp62
 70
     1
  0
XRECORD
  5
1C8CDE6ACEF9
102
{ACAD_REACTORS
330
1C8CDE6ACEF8
102
}
330
1C8CDE6ACEF8
100
AcDbXrecord
280
     1
102
RTVSPost2010Prop28
280
     0
102
RTVSPost2010PropOp28
 70
     1
102
RTVSPost2010Prop29
280
     1
102
RTVSPost2010PropOp29
 70
     1
102
RTVSPost2010Prop30
280
     1
102
RTVSPost2010PropOp30
 70
     1
102
RTVSPost2010Prop31
280
     0
102
RTVSPost2010PropOp31
 70
     1
102
RTVSPost2010Prop32
280
     0
102
RTVSPost2010PropOp32
 70
     1
102
RTVSPost2010Prop33
280
     0
102
RTVSPost2010PropOp33
 70
     1
102
RTVSPost2010Prop34
280
     0
102
RTVSPost2010PropOp34
 70
     1
102
RTVSPost2010Prop35
280
     0
102
RTVSPost2010PropOp35
 70
     1
102
RTVSPost2010Prop36
280
     0
102
RTVSPost2010PropOp36
 70
     1
102
RTVSPost2010Prop37
 90
       50
102
RTVSPost2010PropOp37
 70
     1
102
RTVSPost2010Prop38
140
0.0
102
RTVSPost2010PropOp38
 70
     1
102
RTVSPost2010Prop39
140
1.0
102
RTVSPost2010PropOp39
 70
     1
102
RTVSPost2010Prop40
 90
        0
102
RTVSPost2010PropOp40
 70
     1
102
RTVSPost2010Prop41ColorIndex
 90
       18
102
RTVSPost2010Prop41ColorRGB
 90
        0
102
RTVSPost2010PropOp41
 70
     1
102
RTVSPost2010Prop42
 90
       50
102
RTVSPost2010PropOp42
 70
     1
102
RTVSPost2010Prop43
 90
        3
102
RTVSPost2010PropOp43
 70
     1
102
RTVSPost2010Prop44ColorIndex
 90
        5
102
RTVSPost2010Prop44ColorRGB
 90
      255
102
RTVSPost2010PropOp44
 70
     1
102
RTVSPost2010Prop45
280
     0
102
RTVSPost2010PropOp45
 70
     1
102
RTVSPost2010Prop46
 90
       50
102
RTVSPost2010PropOp46
 70
     1
102
RTVSPost2010Prop47
 90
       50
102
RTVSPost2010PropOp47
 70
     1
102
RTVSPost2010Prop48
 90
       50
102
RTVSPost2010PropOp48
 70
     1
102
RTVSPost2010Prop49
280
     0
102
RTVSPost2010PropOp49
 70
     1
102
RTVSPost2010Prop50
 90
       50
102
RTVSPost2010PropOp50
 70
     1
102
RTVSPost2010Prop51ColorIndex
 90
      256
102
RTVSPost2010Prop51ColorRGB
 90
-16777216
102
RTVSPost2010PropOp51
 70
     0
102
RTVSPost2010Prop52
140
1.0
102
RTVSPost2010PropOp52
 70
     0
102
RTVSPost2010Prop53
 90
        2
102
RTVSPost2010PropOp53
 70
     1
102
RTVSPost2010Prop54
  1
strokes_ogs.tif
102
RTVSPost2010PropOp54
 70
     1
102
RTVSPost2010Prop55
280
     0
102
RTVSPost2010PropOp55
 70
     1
102
RTVSPost2010Prop56
140
1.0
102
RTVSPost2010PropOp56
 70
     1
102
RTVSPost2010Prop57
140
1.0
102
RTVSPost2010PropOp57
 70
     1
102
RTVSPropertyOp0
 70
     1
102
RTVSPropertyOp1
 70
     1
102
RTVSPropertyOp2
 70
     1
102
RTVSPropertyOp3
 70
     1
102
RTVSPropertyOp4
 70
     1
102
RTVSPropertyOp5
 70
     1
102
RTVSPropertyOp6
 70
     1
102
RTVSPropertyOp7
 70
     1
102
RTVSPropertyOp8
 70
     1
102
RTVSPropertyOp9
 70
     1
102
RTVSPropertyOp10
 70
     1
102
RTVSPropertyOp11
 70
     1
102
RTVSPropertyOp12
 70
     1
102
RTVSPropertyOp13
 70
     1
102
RTVSPropertyOp14
 70
     1
102
RTVSPropertyOp15
 70
     1
102
RTVSPropertyOp16
 70
     1
102
RTVSPropertyOp17
 70
     1
102
RTVSPropertyOp18
 70
     1
102
RTVSPropertyOp19
 70
     1
102
RTVSPropertyOp20
 70
     1
102
RTVSPropertyOp21
 70
     1
102
RTVSPropertyOp22
 70
     1
102
RTVSPropertyOp23
 70
     1
102
RTVSPropertyOp24
 70
     1
102
RTVSPropertyOp25
 70
     1
102
RTVSPropertyOp26
 70
     1
102
RTVSPropertyOp27
 70
     1
102
RTVSPropertyOp28
 70
     1
102
RTVSPropertyOp29
 70
     1
102
RTVSPropertyOp30
 70
     1
102
RTVSPropertyOp31
 70
     1
102
RTVSPropertyOp32
 70
     1
102
RTVSPropertyOp33
 70
     1
102
RTVSPropertyOp34
 70
     1
102
RTVSPropertyOp35
 70
     1
102
RTVSPropertyOp36
 70
     1
102
RTVSPropertyOp37
 70
     1
102
RTVSPropertyOp38
 70
     1
102
RTVSPropertyOp39
 70
     1
102
RTVSPropertyOp40
 70
     1
102
RTVSPropertyOp41
 70
     1
102
RTVSPropertyOp42
 70
     1
102
RTVSPropertyOp43
 70
     1
102
RTVSPropertyOp44
 70
     1
102
RTVSPropertyOp45
 70
     1
102
RTVSPropertyOp46
 70
     1
102
RTVSPropertyOp47
 70
     1
102
RTVSPropertyOp48
 70
     1
102
RTVSPropertyOp49
 70
     1
102
RTVSPropertyOp50
 70
     1
102
RTVSPropertyOp51
 70
     0
102
RTVSPropertyOp52
 70
     0
102
RTVSPropertyOp53
 70
     1
102
RTVSPropertyOp54
 70
     1
102
RTVSPropertyOp55
 70
     1
102
RTVSPropertyOp56
 70
     1
102
RTVSPropertyOp57
 70
     1
102
RTVSPropertyOp58
 70
     1
102
RTVSPropertyOp59
 70
     1
102
RTVSPropertyOp60
 70
     1
102
RTVSPropertyOp61
 70
     1
102
RTVSPropertyOp62
 70
     1
  0
ENDSEC
  0
EOF
