  0
SECTION
  2
HEADER
  9
$ACADVER
  1
AC1015
  9
$ACADMAINTVER
 70
    18
  9
$DWGCODEPAGE
  3
ANSI_932
  9
$INSBASE
 10
0.0
 20
0.0
 30
0.0
  9
$EXTMIN
 10
0.0
 20
0.0
 30
0.0
  9
$EXTMAX
 10
3700.0
 20
2670.0
 30
0.0
  9
$LIMMIN
 10
0.0
 20
0.0
  9
$LIMMAX
 10
4200.0
 20
2970.0
  9
$ORTHOMODE
 70
     0
  9
$REGENMODE
 70
     1
  9
$FILLMODE
 70
     1
  9
$QTEXTMODE
 70
     0
  9
$MIRRTEXT
 70
     0
  9
$LTSCALE
 40
100.0
  9
$ATTMODE
 70
     1
  9
$TEXTSIZE
 40
30.0
  9
$TRACEWID
 40
0.05
  9
$TEXTSTYLE
  7
EXT08
  9
$CLAYER
  8
0
  9
$CELTYPE
  6
BYLAYER
  9
$CECOLOR
 62
   256
  9
$CELTSCALE
 40
1.0
  9
$DISPSILH
 70
     0
  9
$DIMSCALE
 40
10.0
  9
$DIMASZ
 40
2.0
  9
$DIMEXO
 40
1.0
  9
$DIMDLI
 40
6.0
  9
$DIMRND
 40
0.0
  9
$DIMDLE
 40
0.0
  9
$DIMEXE
 40
1.0
  9
$DIMTP
 40
0.0
  9
$DIMTM
 40
0.0
  9
$DIMTXT
 40
3.0
  9
$DIMCEN
 40
0.1
  9
$DIMTSZ
 40
0.0
  9
$DIMTOL
 70
     0
  9
$DIMLIM
 70
     0
  9
$DIMTIH
 70
     0
  9
$DIMTOH
 70
     0
  9
$DIMSE1
 70
     0
  9
$DIMSE2
 70
     0
  9
$DIMTAD
 70
     1
  9
$DIMZIN
 70
     8
  9
$DIMBLK
  1

  9
$DIMASO
 70
     1
  9
$DIMSHO
 70
     1
  9
$DIMPOST
  1

  9
$DIMAPOST
  1

  9
$DIMALT
 70
     0
  9
$DIMALTD
 70
     2
  9
$DIMALTF
 40
25.4
  9
$DIMLFAC
 40
1.0
  9
$DIMTOFL
 70
     1
  9
$DIMTVP
 40
0.0
  9
$DIMTIX
 70
     0
  9
$DIMSOXD
 70
     0
  9
$DIMSAH
 70
     0
  9
$DIMBLK1
  1

  9
$DIMBLK2
  1

  9
$DIMSTYLE
  2
SJC
  9
$DIMCLRD
 70
     0
  9
$DIMCLRE
 70
     0
  9
$DIMCLRT
 70
     0
  9
$DIMTFAC
 40
1.0
  9
$DIMGAP
 40
1.199999999999999
  9
$DIMJUST
 70
     0
  9
$DIMSD1
 70
     0
  9
$DIMSD2
 70
     0
  9
$DIMTOLJ
 70
     1
  9
$DIMTZIN
 70
     8
  9
$DIMALTZ
 70
     8
  9
$DIMALTTZ
 70
     8
  9
$DIMUPT
 70
     0
  9
$DIMDEC
 70
     2
  9
$DIMTDEC
 70
     1
  9
$DIMALTU
 70
     2
  9
$DIMALTTD
 70
     2
  9
$DIMTXSTY
  7
EXT08
  9
$DIMAUNIT
 70
     1
  9
$DIMADEC
 70
     2
  9
$DIMALTRND
 40
0.0
  9
$DIMAZIN
 70
     0
  9
$DIMDSEP
 70
    46
  9
$DIMATFIT
 70
     3
  9
$DIMFRAC
 70
     0
  9
$DIMLDRBLK
  1

  9
$DIMLUNIT
 70
     2
  9
$DIMLWD
 70
    -2
  9
$DIMLWE
 70
    -2
  9
$DIMTMOVE
 70
     2
  9
$LUNITS
 70
     2
  9
$LUPREC
 70
     2
  9
$SKETCHINC
 40
0.1
  9
$FILLETRAD
 40
0.25
  9
$AUNITS
 70
     1
  9
$AUPREC
 70
     2
  9
$MENU
  1
C:\r13\win\SUPPORT\sjc
  9
$ELEVATION
 40
0.0
  9
$PELEVATION
 40
0.0
  9
$THICKNESS
 40
0.0
  9
$LIMCHECK
 70
     0
  9
$CHAMFERA
 40
0.0
  9
$CHAMFERB
 40
0.0
  9
$CHAMFERC
 40
0.0
  9
$CHAMFERD
 40
0.0
  9
$SKPOLY
 70
     0
  9
$TDCREATE
 40
2450469.547535764
  9
$TDUCREATE
 40
2450469.172535764
  9
$TDUPDATE
 40
2458991.601835185
  9
$TDUUPDATE
 40
2458991.226835185
  9
$TDINDWG
 40
0.8348102546
  9
$TDUSRTIMER
 40
0.8348102546
  9
$USRTIMER
 70
     1
  9
$ANGBASE
 50
0.0
  9
$ANGDIR
 70
     0
  9
$PDMODE
 70
    33
  9
$PDSIZE
 40
5.0
  9
$PLINEWID
 40
0.0
  9
$SPLFRAME
 70
     0
  9
$SPLINETYPE
 70
     6
  9
$SPLINESEGS
 70
     8
  9
$HANDSEED
  5
1C8CDE6ACAA9
  9
$SURFTAB1
 70
     6
  9
$SURFTAB2
 70
     6
  9
$SURFTYPE
 70
     6
  9
$SURFU
 70
     6
  9
$SURFV
 70
     6
  9
$UCSBASE
  2

  9
$UCSNAME
  2

  9
$UCSORG
 10
0.0
 20
0.0
 30
0.0
  9
$UCSXDIR
 10
1.0
 20
0.0
 30
0.0
  9
$UCSYDIR
 10
0.0
 20
1.0
 30
0.0
  9
$UCSORTHOREF
  2

  9
$UCSORTHOVIEW
 70
     0
  9
$UCSORGTOP
 10
0.0
 20
0.0
 30
0.0
  9
$UCSORGBOTTOM
 10
0.0
 20
0.0
 30
0.0
  9
$UCSORGLEFT
 10
0.0
 20
0.0
 30
0.0
  9
$UCSORGRIGHT
 10
0.0
 20
0.0
 30
0.0
  9
$UCSORGFRONT
 10
0.0
 20
0.0
 30
0.0
  9
$UCSORGBACK
 10
0.0
 20
0.0
 30
0.0
  9
$PUCSBASE
  2

  9
$PUCSNAME
  2

  9
$PUCSORG
 10
0.0
 20
0.0
 30
0.0
  9
$PUCSXDIR
 10
1.0
 20
0.0
 30
0.0
  9
$PUCSYDIR
 10
0.0
 20
1.0
 30
0.0
  9
$PUCSORTHOREF
  2

  9
$PUCSORTHOVIEW
 70
     0
  9
$PUCSORGTOP
 10
0.0
 20
0.0
 30
0.0
  9
$PUCSORGBOTTOM
 10
0.0
 20
0.0
 30
0.0
  9
$PUCSORGLEFT
 10
0.0
 20
0.0
 30
0.0
  9
$PUCSORGRIGHT
 10
0.0
 20
0.0
 30
0.0
  9
$PUCSORGFRONT
 10
0.0
 20
0.0
 30
0.0
  9
$PUCSORGBACK
 10
0.0
 20
0.0
 30
0.0
  9
$USERI1
 70
     3
  9
$USERI2
 70
    10
  9
$USERI3
 70
     0
  9
$USERI4
 70
     0
  9
$USERI5
 70
     0
  9
$USERR1
 40
0.1
  9
$USERR2
 40
0.0
  9
$USERR3
 40
0.0
  9
$USERR4
 40
0.0
  9
$USERR5
 40
0.0
  9
$WORLDVIEW
 70
     1
  9
$SHADEDGE
 70
     3
  9
$SHADEDIF
 70
    70
  9
$TILEMODE
 70
     1
  9
$MAXACTVP
 70
    16
  9
$PINSBASE
 10
0.0
 20
0.0
 30
0.0
  9
$PLIMCHECK
 70
     0
  9
$PEXTMIN
 10
1.000000000000000E+20
 20
1.000000000000000E+20
 30
1.000000000000000E+20
  9
$PEXTMAX
 10
-1.000000000000000E+20
 20
-1.000000000000000E+20
 30
-1.000000000000000E+20
  9
$PLIMMIN
 10
0.0
 20
0.0
  9
$PLIMMAX
 10
12.0
 20
9.0
  9
$UNITMODE
 70
     0
  9
$VISRETAIN
 70
     0
  9
$PLINEGEN
 70
     0
  9
$PSLTSCALE
 70
     0
  9
$TREEDEPTH
 70
  3020
  9
$CMLSTYLE
  2
STANDARD
  9
$CMLJUST
 70
     0
  9
$CMLSCALE
 40
1.0
  9
$PROXYGRAPHICS
 70
     1
  9
$MEASUREMENT
 70
     0
  9
$CELWEIGHT
370
    -1
  9
$ENDCAPS
280
     0
  9
$JOINSTYLE
280
     0
  9
$LWDISPLAY
290
     0
  9
$INSUNITS
 70
     0
  9
$HYPERLINKBASE
  1

  9
$STYLESHEET
  1
CALCOMP_TECHJET720.ctb
  9
$XEDIT
290
     1
  9
$CEPSNTYPE
380
     0
  9
$PSTYLEMODE
290
     1
  9
$FINGERPRINTGUID
  2
{B05C2933-B5F7-4908-A86A-969CFA39F33E}
  9
$VERSIONGUID
  2
{BCB704FC-0CDF-4591-9D7B-3BAD58B12169}
  9
$EXTNAMES
290
     1
  9
$PSVPSCALE
 40
0.0
  9
$OLESTARTUP
290
     0
  0
ENDSEC
  0
SECTION
  2
CLASSES
  0
CLASS
  1
ACDBDICTIONARYWDFLT
  2
AcDbDictionaryWithDefault
  3
ObjectDBX Classes
 90
        0
280
     0
281
     0
  0
CLASS
  1
TABLESTYLE
  2
AcDbTableStyle
  3
ObjectDBX Classes
 90
     4095
280
     0
281
     0
  0
CLASS
  1
SORTENTSTABLE
  2
AcDbSortentsTable
  3
ObjectDBX Classes
 90
        0
280
     0
281
     0
  0
CLASS
  1
DICTIONARYVAR
  2
AcDbDictionaryVar
  3
ObjectDBX Classes
 90
        0
280
     0
281
     0
  0
CLASS
  1
ACDBPLACEHOLDER
  2
AcDbPlaceHolder
  3
ObjectDBX Classes
 90
        0
280
     0
281
     0
  0
CLASS
  1
LAYOUT
  2
AcDbLayout
  3
ObjectDBX Classes
 90
        0
280
     0
281
     0
  0
CLASS
  1
VISUALSTYLE
  2
AcDbVisualStyle
  3
ObjectDBX Classes
 90
     4095
280
     0
281
     0
  0
CLASS
  1
SCALE
  2
AcDbScale
  3
ObjectDBX Classes
 90
     1153
280
     0
281
     0
  0
CLASS
  1
MATERIAL
  2
AcDbMaterial
  3
ObjectDBX Classes
 90
     1153
280
     0
281
     0
  0
CLASS
  1
MLEADERSTYLE
  2
AcDbMLeaderStyle
  3
ACDB_MLEADERSTYLE_CLASS
 90
     4095
280
     0
281
     0
  0
CLASS
  1
SUN
  2
AcDbSun
  3
SCENEOE
 90
     1153
280
     0
281
     0
  0
CLASS
  1
CELLSTYLEMAP
  2
AcDbCellStyleMap
  3
ObjectDBX Classes
 90
     1152
280
     0
281
     0
  0
CLASS
  1
ACDBSECTIONVIEWSTYLE
  2
AcDbSectionViewStyle
  3
ObjectDBX Classes
 90
     1025
280
     0
281
     0
  0
CLASS
  1
ACDBDETAILVIEWSTYLE
  2
AcDbDetailViewStyle
  3
ObjectDBX Classes
 90
     1025
280
     0
281
     0
  0
ENDSEC
  0
SECTION
  2
TABLES
  0
TABLE
  2
VPORT
  5
1C8CDE699D43
102
{ACAD_XDICTIONARY
360
1C8CDE6ACA16
102
}
330
0
100
AcDbSymbolTable
 70
     1
  0
VPORT
  5
1C8CDE6AC790
330
1C8CDE699D43
100
AcDbSymbolTableRecord
100
AcDbViewportTableRecord
  2
*Active
 70
     0
 10
0.0
 20
0.0
 11
1.0
 21
1.0
 12
2127.386718901978
 22
1309.613684210526
 13
0.0
 23
0.0
 14
5.0
 24
5.0
 15
0.0
 25
0.0
 16
0.0
 26
0.0
 36
1.0
 17
0.0
 27
0.0
 37
0.0
 40
3029.4
 41
2.075975359342915
 42
50.0
 43
0.0
 44
0.0
 50
0.0
 51
0.0
 71
    16
 72
   500
 73
     1
 74
     0
 75
     0
 76
     0
 77
     0
 78
     2
281
     0
 65
     1
110
0.0
120
0.0
130
0.0
111
1.0
121
0.0
131
0.0
112
0.0
122
1.0
132
0.0
 79
     0
146
0.0
1001
ACAD_NAV_VCDISPLAY
1070
     3
  0
ENDTAB
  0
TABLE
  2
LTYPE
  5
1C8CDE699D40
330
0
100
AcDbSymbolTable
 70
     5
  0
LTYPE
  5
1C8CDE699D4D
330
1C8CDE699D40
100
AcDbSymbolTableRecord
100
AcDbLinetypeTableRecord
  2
BYBLOCK
 70
     0
  3

 72
    65
 73
     0
 40
0.0
  0
LTYPE
  5
1C8CDE699D4E
330
1C8CDE699D40
100
AcDbSymbolTableRecord
100
AcDbLinetypeTableRecord
  2
BYLAYER
 70
     0
  3

 72
    65
 73
     0
 40
0.0
  0
LTYPE
  5
1C8CDE699D4F
330
1C8CDE699D40
100
AcDbSymbolTableRecord
100
AcDbLinetypeTableRecord
  2
CONTINUOUS
 70
     0
  3
実線
 72
    65
 73
     0
 40
0.0
  0
LTYPE
  5
1C8CDE699D67
330
1C8CDE699D40
100
AcDbSymbolTableRecord
100
AcDbLinetypeTableRecord
  2
DIVIDE2
 70
     0
  3
__..__..__..__..__..__..__..__..__..__..__..__.
 72
    65
 73
     6
 40
0.625
 49
0.25
 74
     0
 49
-0.125
 74
     0
 49
0.0
 74
     0
 49
-0.125
 74
     0
 49
0.0
 74
     0
 49
-0.125
 74
     0
  0
LTYPE
  5
1C8CDE699D6A
330
1C8CDE699D40
100
AcDbSymbolTableRecord
100
AcDbLinetypeTableRecord
  2
CENTER
 70
     0
  3
____ _ ____ _ ____ _ ____ _ ____ _ ____ _ ____ 
 72
    65
 73
     4
 40
2.0
 49
1.25
 74
     0
 49
-0.25
 74
     0
 49
0.25
 74
     0
 49
-0.25
 74
     0
  0
LTYPE
  5
1C8CDE699D6B
330
1C8CDE699D40
100
AcDbSymbolTableRecord
100
AcDbLinetypeTableRecord
  2
HIDDEN
 70
     0
  3
__ __ __ __ __ __ __ __ __ __ __ __ __ __ __ __
 72
    65
 73
     2
 40
0.375
 49
0.25
 74
     0
 49
-0.125
 74
     0
  0
LTYPE
  5
1C8CDE699D6C
330
1C8CDE699D40
100
AcDbSymbolTableRecord
100
AcDbLinetypeTableRecord
  2
PHANTOM
 70
     0
  3
______  __  __  ______  __  __  ______  __  __ 
 72
    65
 73
     6
 40
2.5
 49
1.25
 74
     0
 49
-0.25
 74
     0
 49
0.25
 74
     0
 49
-0.25
 74
     0
 49
0.25
 74
     0
 49
-0.25
 74
     0
  0
ENDTAB
  0
TABLE
  2
LAYER
  5
1C8CDE699D3D
330
0
100
AcDbSymbolTable
 70
    15
  0
LAYER
  5
1C8CDE699D4A
330
1C8CDE699D3D
100
AcDbSymbolTableRecord
100
AcDbLayerTableRecord
  2
0
 70
     0
 62
    41
  6
DIVIDE2
370
    -3
390
1C8CDE6AC2D4
  0
LAYER
  5
1C8CDE699D71
330
1C8CDE699D3D
100
AcDbSymbolTableRecord
100
AcDbLayerTableRecord
  2
CENTER
 70
     0
 62
     3
  6
CENTER
370
    -3
390
1C8CDE6AC2D4
  0
LAYER
  5
1C8CDE699D72
330
1C8CDE699D3D
100
AcDbSymbolTableRecord
100
AcDbLayerTableRecord
  2
SUNPOU
 70
     0
 62
     4
  6
CONTINUOUS
370
    -3
390
1C8CDE6AC2D4
  0
LAYER
  5
1C8CDE699D73
330
1C8CDE699D3D
100
AcDbSymbolTableRecord
100
AcDbLayerTableRecord
  2
WAKU
 70
     0
 62
     5
  6
CONTINUOUS
370
    -3
390
1C8CDE6AC2D4
  0
LAYER
  5
1C8CDE699D74
330
1C8CDE699D3D
100
AcDbSymbolTableRecord
100
AcDbLayerTableRecord
  2
MOJI
 70
     0
 62
     6
  6
CONTINUOUS
370
    -3
390
1C8CDE6AC2D4
  0
LAYER
  5
1C8CDE699D75
330
1C8CDE699D3D
100
AcDbSymbolTableRecord
100
AcDbLayerTableRecord
  2
HASEN
 70
     0
 62
     7
  6
HIDDEN
370
    -3
390
1C8CDE6AC2D4
  0
LAYER
  5
1C8CDE699D77
330
1C8CDE699D3D
100
AcDbSymbolTableRecord
100
AcDbLayerTableRecord
  2
SJC
 70
     0
 62
     1
  6
CONTINUOUS
370
    -3
390
1C8CDE6AC2D4
  0
LAYER
  5
1C8CDE699D78
330
1C8CDE699D3D
100
AcDbSymbolTableRecord
100
AcDbLayerTableRecord
  2
KASOU
 70
     0
 62
     2
  6
PHANTOM
370
    -3
390
1C8CDE6AC2D4
  0
LAYER
  5
1C8CDE699D79
330
1C8CDE699D3D
100
AcDbSymbolTableRecord
100
AcDbLayerTableRecord
  2
ZWAKU
 70
     1
 62
     7
  6
CONTINUOUS
370
    -3
390
1C8CDE6AC2D4
  0
LAYER
  5
1C8CDE699D7A
330
1C8CDE699D3D
100
AcDbSymbolTableRecord
100
AcDbLayerTableRecord
  2
HOJO
 70
     0
 62
    -8
  6
CONTINUOUS
370
    -3
390
1C8CDE6AC2D4
  0
LAYER
  5
1C8CDE699D7B
330
1C8CDE699D3D
100
AcDbSymbolTableRecord
100
AcDbLayerTableRecord
  2
DEFPOINTS
 70
     0
 62
     7
  6
CONTINUOUS
290
     0
370
    -3
390
1C8CDE6AC2D4
  0
LAYER
  5
1C8CDE699D8F
330
1C8CDE699D3D
100
AcDbSymbolTableRecord
100
AcDbLayerTableRecord
  2
INFORMATION
 70
     1
 62
     7
  6
CONTINUOUS
370
    -3
390
1C8CDE6AC2D4
  0
LAYER
  5
1C8CDE699D92
330
1C8CDE699D3D
100
AcDbSymbolTableRecord
100
AcDbLayerTableRecord
  2
SJC2
 70
     0
 62
     7
  6
CONTINUOUS
370
    -3
390
1C8CDE6AC2D4
  0
LAYER
  5
1C8CDE699D93
330
1C8CDE699D3D
100
AcDbSymbolTableRecord
100
AcDbLayerTableRecord
  2
MOJI2
 70
     0
 62
     1
  6
CONTINUOUS
370
    -3
390
1C8CDE6AC2D4
  0
LAYER
  5
1C8CDE699D94
330
1C8CDE699D3D
100
AcDbSymbolTableRecord
100
AcDbLayerTableRecord
  2
HATCH
 70
     0
 62
     2
  6
CONTINUOUS
370
    -3
390
1C8CDE6AC2D4
  0
ENDTAB
  0
TABLE
  2
STYLE
  5
1C8CDE699D3E
330
0
100
AcDbSymbolTable
 70
     3
  0
STYLE
  5
1C8CDE699D4B
330
1C8CDE699D3E
100
AcDbSymbolTableRecord
100
AcDbTextStyleTableRecord
  2
STANDARD
 70
     0
 40
2.5
 41
0.8
 50
0.0
 71
     0
 42
3.0
  3
ROMANS.SHX
  4
BIGFONT
  0
STYLE
  5
1C8CDE699D66
330
1C8CDE699D3E
100
AcDbSymbolTableRecord
100
AcDbTextStyleTableRecord
  2
KANJI
 70
     0
 40
0.0
 41
1.0
 50
0.0
 71
     0
 42
0.0
  3
ROMANS.SHX
  4
BIGFONT.SHX
  0
STYLE
  5
1C8CDE699DA6
330
1C8CDE699D3E
100
AcDbSymbolTableRecord
100
AcDbTextStyleTableRecord
  2
EXT08
 70
     0
 40
0.0
 41
0.8
 50
0.0
 71
     0
 42
30.0
  3
ROMANS
  4
EXTFONT
  0
ENDTAB
  0
TABLE
  2
VIEW
  5
1C8CDE699D41
330
0
100
AcDbSymbolTable
 70
     0
  0
ENDTAB
  0
TABLE
  2
UCS
  5
1C8CDE699D42
330
0
100
AcDbSymbolTable
 70
     0
  0
ENDTAB
  0
TABLE
  2
APPID
  5
1C8CDE699D44
330
0
100
AcDbSymbolTable
 70
     4
  0
APPID
  5
1C8CDE699D4C
330
1C8CDE699D44
100
AcDbSymbolTableRecord
100
AcDbRegAppTableRecord
  2
ACAD
 70
     0
  0
APPID
  5
1C8CDE6AC35D
330
1C8CDE699D44
100
AcDbSymbolTableRecord
100
AcDbRegAppTableRecord
  2
ACAD_PSEXT
 70
     0
  0
APPID
  5
1C8CDE6AC88A
330
1C8CDE699D44
100
AcDbSymbolTableRecord
100
AcDbRegAppTableRecord
  2
ACAD_MLEADERVER
 70
     0
  0
APPID
  5
1C8CDE6ACA64
330
1C8CDE699D44
100
AcDbSymbolTableRecord
100
AcDbRegAppTableRecord
  2
ACAD_NAV_VCDISPLAY
 70
     0
  0
ENDTAB
  0
TABLE
  2
DIMSTYLE
  5
1C8CDE699D45
330
0
100
AcDbSymbolTable
 70
     2
100
AcDbDimStyleTable
 71
     0
  0
DIMSTYLE
105
1C8CDE699D6E
330
1C8CDE699D45
100
AcDbSymbolTableRecord
100
AcDbDimStyleTableRecord
  2
STANDARD
 70
     0
 41
20.0
 42
10.0
 43
0.4
 44
10.0
 73
     0
 74
     0
 77
     1
 78
     8
140
25.0
141
0.1
147
15.0
172
     1
176
   256
177
   256
178
   256
271
     1
272
     1
275
     1
279
     2
284
     8
285
     8
286
     8
340
1C8CDE699D66
  0
DIMSTYLE
105
1C8CDE699DA9
102
{ACAD_REACTORS
330
1C8CDE6A990B
330
1C8CDE6A990C
330
1C8CDE6AB795
330
1C8CDE6AB796
330
1C8CDE6AB797
330
1C8CDE6AC222
330
1C8CDE6AC22F
330
1C8CDE6AC23C
330
1C8CDE6AC249
330
1C8CDE6AC40B
330
1C8CDE6AC433
330
1C8CDE6AC458
330
1C8CDE6AC459
330
1C8CDE6AC471
330
1C8CDE6AC4A1
102
}
330
1C8CDE699D45
100
AcDbSymbolTableRecord
100
AcDbDimStyleTableRecord
  2
SJC
 70
     0
 41
20.0
 42
10.0
 43
0.4
 44
10.0
 73
     0
 74
     0
 77
     1
 78
     8
140
25.0
141
0.1
147
15.0
172
     1
176
   256
177
   256
178
   256
271
     1
272
     1
275
     1
279
     2
284
     8
285
     8
286
     8
340
1C8CDE699D66
  0
ENDTAB
  0
TABLE
  2
BLOCK_RECORD
  5
1C8CDE699D3C
330
0
100
AcDbSymbolTable
 70
    16
  0
BLOCK_RECORD
  5
1C8CDE699D53
102
{ACAD_XDICTIONARY
360
1C8CDE6AC708
102
}
330
1C8CDE699D3C
100
AcDbSymbolTableRecord
100
AcDbBlockTableRecord
  2
*MODEL_SPACE
340
1C8CDE6AC2DB
  0
BLOCK_RECORD
  5
1C8CDE699D50
330
1C8CDE699D3C
100
AcDbSymbolTableRecord
100
AcDbBlockTableRecord
  2
*PAPER_SPACE
340
1C8CDE6AC2DC
  0
BLOCK_RECORD
  5
1C8CDE6A996A
330
1C8CDE699D3C
100
AcDbSymbolTableRecord
100
AcDbBlockTableRecord
  2
*D0
340
0
  0
BLOCK_RECORD
  5
1C8CDE6A9976
330
1C8CDE699D3C
100
AcDbSymbolTableRecord
100
AcDbBlockTableRecord
  2
*D1
340
0
  0
BLOCK_RECORD
  5
1C8CDE6AB80B
330
1C8CDE699D3C
100
AcDbSymbolTableRecord
100
AcDbBlockTableRecord
  2
*D2
340
0
  0
BLOCK_RECORD
  5
1C8CDE6AB819
330
1C8CDE699D3C
100
AcDbSymbolTableRecord
100
AcDbBlockTableRecord
  2
*D3
340
0
  0
BLOCK_RECORD
  5
1C8CDE6AB825
330
1C8CDE699D3C
100
AcDbSymbolTableRecord
100
AcDbBlockTableRecord
  2
*D4
340
0
  0
BLOCK_RECORD
  5
1C8CDE6AC216
330
1C8CDE699D3C
100
AcDbSymbolTableRecord
100
AcDbBlockTableRecord
  2
*D5
340
0
  0
BLOCK_RECORD
  5
1C8CDE6AC223
330
1C8CDE699D3C
100
AcDbSymbolTableRecord
100
AcDbBlockTableRecord
  2
*D6
340
0
  0
BLOCK_RECORD
  5
1C8CDE6AC230
330
1C8CDE699D3C
100
AcDbSymbolTableRecord
100
AcDbBlockTableRecord
  2
*D7
340
0
  0
BLOCK_RECORD
  5
1C8CDE6AC23D
330
1C8CDE699D3C
100
AcDbSymbolTableRecord
100
AcDbBlockTableRecord
  2
*D8
340
0
  0
BLOCK_RECORD
  5
1C8CDE6AC4A4
330
1C8CDE699D3C
100
AcDbSymbolTableRecord
100
AcDbBlockTableRecord
  2
*D9
340
0
  0
BLOCK_RECORD
  5
1C8CDE6AC4B0
330
1C8CDE699D3C
100
AcDbSymbolTableRecord
100
AcDbBlockTableRecord
  2
*D10
340
0
  0
BLOCK_RECORD
  5
1C8CDE6AC4BC
330
1C8CDE699D3C
100
AcDbSymbolTableRecord
100
AcDbBlockTableRecord
  2
*D11
340
0
  0
BLOCK_RECORD
  5
1C8CDE6AC4C8
330
1C8CDE699D3C
100
AcDbSymbolTableRecord
100
AcDbBlockTableRecord
  2
*D12
340
0
  0
BLOCK_RECORD
  5
1C8CDE6AC4D4
330
1C8CDE699D3C
100
AcDbSymbolTableRecord
100
AcDbBlockTableRecord
  2
*D13
340
0
  0
BLOCK_RECORD
  5
1C8CDE6AC4E0
330
1C8CDE699D3C
100
AcDbSymbolTableRecord
100
AcDbBlockTableRecord
  2
*D14
340
0
  0
BLOCK_RECORD
  5
1C8CDE6AC7D8
330
1C8CDE699D3C
100
AcDbSymbolTableRecord
100
AcDbBlockTableRecord
  2
CALCOMP_TECHJET720A3
340
0
102
{BLKREFS
331
1C8CDE6AC821
102
}
  0
ENDTAB
  0
ENDSEC
  0
SECTION
  2
BLOCKS
  0
BLOCK
  5
1C8CDE699D7E
330
1C8CDE699D53
100
AcDbEntity
  8
0
100
AcDbBlockBegin
  2
*MODEL_SPACE
 70
     0
 10
0.0
 20
0.0
 30
0.0
  3
*MODEL_SPACE
  1

  0
ENDBLK
  5
1C8CDE699D7F
330
1C8CDE699D53
100
AcDbEntity
  8
0
100
AcDbBlockEnd
  0
BLOCK
  5
1C8CDE699D7C
330
1C8CDE699D50
100
AcDbEntity
 67
     1
  8
0
100
AcDbBlockBegin
  2
*PAPER_SPACE
 70
     0
 10
0.0
 20
0.0
 30
0.0
  3
*PAPER_SPACE
  1

  0
ENDBLK
  5
1C8CDE699D7D
330
1C8CDE699D50
100
AcDbEntity
 67
     1
  8
0
100
AcDbBlockEnd
  0
BLOCK
  5
1C8CDE6A996B
330
1C8CDE6A996A
100
AcDbEntity
  8
0
100
AcDbBlockBegin
  2
*D0
 70
     1
 10
0.0
 20
0.0
 30
0.0
  3
*D0
  1

  0
LINE
  5
1C8CDE6AC61E
330
1C8CDE6A996A
100
AcDbEntity
  8
SUNPOU
370
    -2
100
AcDbLine
 10
931.3098466548808
 20
503.4077111245239
 30
0.0
 11
931.3098466548808
 21
353.4077111245244
 31
0.0
  0
LINE
  5
1C8CDE6AC61F
330
1C8CDE6A996A
100
AcDbEntity
  8
SUNPOU
370
    -2
100
AcDbLine
 10
1231.309846654881
 20
503.4077111245239
 30
0.0
 11
1231.309846654881
 21
353.4077111245244
 31
0.0
  0
LINE
  5
1C8CDE6AC620
330
1C8CDE6A996A
100
AcDbEntity
  8
SUNPOU
370
    -2
100
AcDbLine
 10
951.3098466548809
 20
363.4077111245245
 30
0.0
 11
1211.309846654881
 21
363.4077111245245
 31
0.0
  0
SOLID
  5
1C8CDE6AC621
330
1C8CDE6A996A
100
AcDbEntity
  8
SUNPOU
100
AcDbTrace
 10
951.3098466548809
 20
366.7410444578578
 30
0.0
 11
951.3098466548809
 21
360.0743777911911
 31
0.0
 12
931.3098466548808
 22
363.4077111245245
 32
0.0
 13
931.3098466548808
 23
363.4077111245245
 33
0.0
  0
SOLID
  5
1C8CDE6AC622
330
1C8CDE6A996A
100
AcDbEntity
  8
SUNPOU
100
AcDbTrace
 10
1211.309846654881
 20
366.7410444578578
 30
0.0
 11
1211.309846654881
 21
360.0743777911911
 31
0.0
 12
1231.309846654881
 22
363.4077111245245
 32
0.0
 13
1231.309846654881
 23
363.4077111245245
 33
0.0
  0
MTEXT
  5
1C8CDE6AC623
330
1C8CDE6A996A
100
AcDbEntity
  8
SUNPOU
100
AcDbMText
 10
1081.309846654881
 20
390.4077111245245
 30
0.0
 40
30.0
 41
0.0
 71
     5
 72
     1
  1
\A1;□300
  7
EXT08
 73
     1
 44
1.0
1001
ACAD
1000
MTEXTBEGIN
1070
    73
1070
     1
1070
    44
1040
1.0
1070
    74
1070
     0
1000
MTEXTEND
  0
POINT
  5
1C8CDE6AC624
330
1C8CDE6A996A
100
AcDbEntity
  8
DEFPOINTS
 62
     0
100
AcDbPoint
 10
931.3098466548808
 20
513.407711124524
 30
0.0
  0
POINT
  5
1C8CDE6AC625
330
1C8CDE6A996A
100
AcDbEntity
  8
DEFPOINTS
 62
     0
100
AcDbPoint
 10
1231.309846654881
 20
513.407711124524
 30
0.0
  0
POINT
  5
1C8CDE6AC626
330
1C8CDE6A996A
100
AcDbEntity
  8
DEFPOINTS
 62
     0
100
AcDbPoint
 10
1231.309846654881
 20
363.4077111245245
 30
0.0
  0
ENDBLK
  5
1C8CDE6A9975
330
1C8CDE6A996A
100
AcDbEntity
  8
0
100
AcDbBlockEnd
  0
BLOCK
  5
1C8CDE6A9977
330
1C8CDE6A9976
100
AcDbEntity
  8
0
100
AcDbBlockBegin
  2
*D1
 70
     1
 10
0.0
 20
0.0
 30
0.0
  3
*D1
  1

  0
LINE
  5
1C8CDE6AC615
330
1C8CDE6A9976
100
AcDbEntity
  8
SUNPOU
370
    -2
100
AcDbLine
 10
881.3098466548808
 20
503.4077111245244
 30
0.0
 11
881.3098466548808
 21
253.4077111245244
 31
0.0
  0
LINE
  5
1C8CDE6AC616
330
1C8CDE6A9976
100
AcDbEntity
  8
SUNPOU
370
    -2
100
AcDbLine
 10
1281.309846654881
 20
503.4077111245244
 30
0.0
 11
1281.309846654881
 21
253.4077111245244
 31
0.0
  0
LINE
  5
1C8CDE6AC617
330
1C8CDE6A9976
100
AcDbEntity
  8
SUNPOU
370
    -2
100
AcDbLine
 10
901.3098466548809
 20
263.4077111245245
 30
0.0
 11
1261.309846654881
 21
263.4077111245245
 31
0.0
  0
SOLID
  5
1C8CDE6AC618
330
1C8CDE6A9976
100
AcDbEntity
  8
SUNPOU
100
AcDbTrace
 10
901.3098466548809
 20
266.7410444578578
 30
0.0
 11
901.3098466548809
 21
260.0743777911911
 31
0.0
 12
881.3098466548808
 22
263.4077111245245
 32
0.0
 13
881.3098466548808
 23
263.4077111245245
 33
0.0
  0
SOLID
  5
1C8CDE6AC619
330
1C8CDE6A9976
100
AcDbEntity
  8
SUNPOU
100
AcDbTrace
 10
1261.309846654881
 20
266.7410444578578
 30
0.0
 11
1261.309846654881
 21
260.0743777911911
 31
0.0
 12
1281.309846654881
 22
263.4077111245245
 32
0.0
 13
1281.309846654881
 23
263.4077111245245
 33
0.0
  0
MTEXT
  5
1C8CDE6AC61A
330
1C8CDE6A9976
100
AcDbEntity
  8
SUNPOU
100
AcDbMText
 10
1081.309846654881
 20
290.4077111245245
 30
0.0
 40
30.0
 41
0.0
 71
     5
 72
     1
  1
\A1;□400
  7
EXT08
 73
     1
 44
1.0
1001
ACAD
1000
MTEXTBEGIN
1070
    73
1070
     1
1070
    44
1040
1.0
1070
    74
1070
     0
1000
MTEXTEND
  0
POINT
  5
1C8CDE6AC61B
330
1C8CDE6A9976
100
AcDbEntity
  8
DEFPOINTS
 62
     0
100
AcDbPoint
 10
881.3098466548808
 20
513.4077111245244
 30
0.0
  0
POINT
  5
1C8CDE6AC61C
330
1C8CDE6A9976
100
AcDbEntity
  8
DEFPOINTS
 62
     0
100
AcDbPoint
 10
1281.309846654881
 20
513.4077111245244
 30
0.0
  0
POINT
  5
1C8CDE6AC61D
330
1C8CDE6A9976
100
AcDbEntity
  8
DEFPOINTS
 62
     0
100
AcDbPoint
 10
1281.309846654881
 20
263.4077111245245
 30
0.0
  0
ENDBLK
  5
1C8CDE6A9981
330
1C8CDE6A9976
100
AcDbEntity
  8
0
100
AcDbBlockEnd
  0
BLOCK
  5
1C8CDE6ABE6A
330
1C8CDE6AB80B
100
AcDbEntity
  8
0
100
AcDbBlockBegin
  2
*D2
 70
     1
 10
0.0
 20
0.0
 30
0.0
  3
*D2
  1

  0
LINE
  5
1C8CDE6AC630
330
1C8CDE6AB80B
100
AcDbEntity
  8
SUNPOU
370
    -2
100
AcDbLine
 10
1298.809849169382
 20
563.407702183824
 30
0.0
 11
1491.310717684262
 21
563.407702183824
 31
0.0
  0
LINE
  5
1C8CDE6AC631
330
1C8CDE6AB80B
100
AcDbEntity
  8
SUNPOU
370
    -2
100
AcDbLine
 10
1291.308975625499
 20
513.407711124524
 30
0.0
 11
1491.310717684262
 21
513.407711124524
 31
0.0
  0
LINE
  5
1C8CDE6AC632
330
1C8CDE6AB80B
100
AcDbEntity
  8
SUNPOU
370
    -2
100
AcDbLine
 10
1481.310717684262
 20
583.4077021838241
 30
0.0
 11
1481.310717684262
 21
603.4077021838241
 31
0.0
  0
LINE
  5
1C8CDE6AC633
330
1C8CDE6AB80B
100
AcDbEntity
  8
SUNPOU
370
    -2
100
AcDbLine
 10
1481.310717684262
 20
493.4077111245239
 30
0.0
 11
1481.310717684262
 21
473.4077111245239
 31
0.0
  0
MTEXT
  5
1C8CDE6AC634
330
1C8CDE6AB80B
100
AcDbEntity
  8
SUNPOU
100
AcDbMText
 10
1453.660551341521
 20
540.6947962026138
 30
0.0
 40
30.0
 41
0.0
 71
     5
 72
     1
  1
\A1;50
  7
EXT08
 11
0.0000000000000001
 21
1.0
 31
0.0
 73
     1
 44
1.0
1001
ACAD
1000
MTEXTBEGIN
1070
    73
1070
     1
1070
    44
1040
1.0
1070
    74
1070
     0
1000
MTEXTEND
  0
LINE
  5
1C8CDE6AC635
330
1C8CDE6AB80B
100
AcDbEntity
  8
SUNPOU
370
    -2
100
AcDbLine
 10
1481.310717684262
 20
563.407702183824
 30
0.0
 11
1481.310717684262
 21
513.407711124524
 31
0.0
  0
SOLID
  5
1C8CDE6AC636
330
1C8CDE6AB80B
100
AcDbEntity
  8
SUNPOU
100
AcDbTrace
 10
1477.977384350929
 20
583.4077021838241
 30
0.0
 11
1484.644051017595
 21
583.4077021838241
 31
0.0
 12
1481.310717684262
 22
563.407702183824
 32
0.0
 13
1481.310717684262
 23
563.407702183824
 33
0.0
  0
SOLID
  5
1C8CDE6AC637
330
1C8CDE6AB80B
100
AcDbEntity
  8
SUNPOU
100
AcDbTrace
 10
1477.977384350929
 20
493.4077111245239
 30
0.0
 11
1484.644051017595
 21
493.4077111245239
 31
0.0
 12
1481.310717684262
 22
513.407711124524
 32
0.0
 13
1481.310717684262
 23
513.407711124524
 33
0.0
  0
POINT
  5
1C8CDE6AC638
330
1C8CDE6AB80B
100
AcDbEntity
  8
DEFPOINTS
 62
     0
100
AcDbPoint
 10
1288.809849169382
 20
563.407702183824
 30
0.0
  0
POINT
  5
1C8CDE6AC639
330
1C8CDE6AB80B
100
AcDbEntity
  8
DEFPOINTS
 62
     0
100
AcDbPoint
 10
1281.308975625499
 20
513.407711124524
 30
0.0
  0
POINT
  5
1C8CDE6AC63A
330
1C8CDE6AB80B
100
AcDbEntity
  8
DEFPOINTS
 62
     0
100
AcDbPoint
 10
1481.310717684262
 20
513.407711124524
 30
0.0
  0
ENDBLK
  5
1C8CDE6ABE76
330
1C8CDE6AB80B
100
AcDbEntity
  8
0
100
AcDbBlockEnd
  0
BLOCK
  5
1C8CDE6AB81A
330
1C8CDE6AB819
100
AcDbEntity
  8
0
100
AcDbBlockBegin
  2
*D3
 70
     1
 10
0.0
 20
0.0
 30
0.0
  3
*D3
  1

  0
LINE
  5
1C8CDE6AC6A2
330
1C8CDE6AB819
100
AcDbEntity
  8
SUNPOU
370
    -2
100
AcDbLine
 10
1170.095684224936
 20
1063.407711124524
 30
0.0
 11
1341.310717684263
 21
1063.407711124524
 31
0.0
  0
LINE
  5
1C8CDE6AC6A3
330
1C8CDE6AB819
100
AcDbEntity
  8
SUNPOU
370
    -2
100
AcDbLine
 10
1282.054771204551
 20
963.4077111245241
 30
0.0
 11
1341.310717684263
 21
963.4077111245241
 31
0.0
  0
LINE
  5
1C8CDE6AC6A4
330
1C8CDE6AB819
100
AcDbEntity
  8
SUNPOU
370
    -2
100
AcDbLine
 10
1331.310717684263
 20
1043.407711124523
 30
0.0
 11
1331.310717684263
 21
983.4077111245241
 31
0.0
  0
MTEXT
  5
1C8CDE6AC6A5
330
1C8CDE6AB819
100
AcDbEntity
  8
SUNPOU
100
AcDbMText
 10
1308.267683326948
 20
1013.407711124524
 30
0.0
 40
30.0
 41
0.0
 71
     5
 72
     1
  1
\A1;100
  7
EXT08
 11
0.0000000000000001
 21
1.0
 31
0.0
 73
     1
 44
1.0
1001
ACAD
1000
MTEXTBEGIN
1070
    73
1070
     1
1070
    44
1040
1.0
1070
    74
1070
     0
1000
MTEXTEND
  0
SOLID
  5
1C8CDE6AC6A6
330
1C8CDE6AB819
100
AcDbEntity
  8
SUNPOU
100
AcDbTrace
 10
1327.97738435093
 20
1043.407711124523
 30
0.0
 11
1334.644051017596
 21
1043.407711124523
 31
0.0
 12
1331.310717684263
 22
1063.407711124524
 32
0.0
 13
1331.310717684263
 23
1063.407711124524
 33
0.0
  0
SOLID
  5
1C8CDE6AC6A7
330
1C8CDE6AB819
100
AcDbEntity
  8
SUNPOU
100
AcDbTrace
 10
1327.97738435093
 20
983.4077111245241
 30
0.0
 11
1334.644051017596
 21
983.4077111245241
 31
0.0
 12
1331.310717684263
 22
963.4077111245241
 32
0.0
 13
1331.310717684263
 23
963.4077111245241
 33
0.0
  0
POINT
  5
1C8CDE6AC6A8
330
1C8CDE6AB819
100
AcDbEntity
  8
DEFPOINTS
 62
     0
100
AcDbPoint
 10
1160.095684224936
 20
1063.407711124524
 30
0.0
  0
POINT
  5
1C8CDE6AC6A9
330
1C8CDE6AB819
100
AcDbEntity
  8
DEFPOINTS
 62
     0
100
AcDbPoint
 10
1272.054771204551
 20
963.4077111245241
 30
0.0
  0
POINT
  5
1C8CDE6AC6AA
330
1C8CDE6AB819
100
AcDbEntity
  8
DEFPOINTS
 62
     0
100
AcDbPoint
 10
1331.310717684263
 20
963.4077111245241
 30
0.0
  0
ENDBLK
  5
1C8CDE6AB824
330
1C8CDE6AB819
100
AcDbEntity
  8
0
100
AcDbBlockEnd
  0
BLOCK
  5
1C8CDE6ABE45
330
1C8CDE6AB825
100
AcDbEntity
  8
0
100
AcDbBlockBegin
  2
*D4
 70
     1
 10
0.0
 20
0.0
 30
0.0
  3
*D4
  1

  0
LINE
  5
1C8CDE6AC73D
330
1C8CDE6AB825
100
AcDbEntity
  8
SUNPOU
370
    -2
100
AcDbLine
 10
1282.054771204551
 20
963.4077111245241
 30
0.0
 11
1416.310717684262
 21
963.4077111245241
 31
0.0
  0
LINE
  5
1C8CDE6AC73E
330
1C8CDE6AB825
100
AcDbEntity
  8
SUNPOU
370
    -2
100
AcDbLine
 10
1288.809849169382
 20
563.407702183824
 30
0.0
 11
1416.310717684262
 21
563.407702183824
 31
0.0
  0
LINE
  5
1C8CDE6AC73F
330
1C8CDE6AB825
100
AcDbEntity
  8
SUNPOU
370
    -2
100
AcDbLine
 10
1406.310717684262
 20
943.407711124524
 30
0.0
 11
1406.310717684262
 21
583.4077021838239
 31
0.0
  0
SOLID
  5
1C8CDE6AC740
330
1C8CDE6AB825
100
AcDbEntity
  8
SUNPOU
100
AcDbTrace
 10
1402.977384350929
 20
943.407711124524
 30
0.0
 11
1409.644051017595
 21
943.407711124524
 31
0.0
 12
1406.310717684262
 22
963.4077111245241
 32
0.0
 13
1406.310717684262
 23
963.4077111245241
 33
0.0
  0
SOLID
  5
1C8CDE6AC741
330
1C8CDE6AB825
100
AcDbEntity
  8
SUNPOU
100
AcDbTrace
 10
1402.977384350929
 20
583.4077021838239
 30
0.0
 11
1409.644051017595
 21
583.4077021838239
 31
0.0
 12
1406.310717684262
 22
563.407702183824
 32
0.0
 13
1406.310717684262
 23
563.407702183824
 33
0.0
  0
MTEXT
  5
1C8CDE6AC742
330
1C8CDE6AB825
100
AcDbEntity
  8
SUNPOU
100
AcDbMText
 10
1379.310717684262
 20
763.4077066541742
 30
0.0
 40
30.0
 41
0.0
 71
     5
 72
     1
  1
\A1;400
  7
EXT08
 11
0.0000000000000001
 21
1.0
 31
0.0
 73
     1
 44
1.0
1001
ACAD
1000
MTEXTBEGIN
1070
    73
1070
     1
1070
    44
1040
1.0
1070
    74
1070
     0
1000
MTEXTEND
  0
POINT
  5
1C8CDE6AC743
330
1C8CDE6AB825
100
AcDbEntity
  8
DEFPOINTS
 62
     0
100
AcDbPoint
 10
1272.054771204551
 20
963.4077111245241
 30
0.0
  0
POINT
  5
1C8CDE6AC744
330
1C8CDE6AB825
100
AcDbEntity
  8
DEFPOINTS
 62
     0
100
AcDbPoint
 10
1278.809849169382
 20
563.407702183824
 30
0.0
  0
POINT
  5
1C8CDE6AC745
330
1C8CDE6AB825
100
AcDbEntity
  8
DEFPOINTS
 62
     0
100
AcDbPoint
 10
1406.310717684262
 20
563.407702183824
 30
0.0
  0
ENDBLK
  5
1C8CDE6ABE4F
330
1C8CDE6AB825
100
AcDbEntity
  8
0
100
AcDbBlockEnd
  0
BLOCK
  5
1C8CDE6AC217
330
1C8CDE6AC216
100
AcDbEntity
  8
0
100
AcDbBlockBegin
  2
*D5
 70
     1
 10
0.0
 20
0.0
 30
0.0
  3
*D5
  1

  0
LINE
  5
1C8CDE6AC72B
330
1C8CDE6AC216
100
AcDbEntity
  8
SUNPOU
370
    -2
100
AcDbLine
 10
1091.30984665488
 20
1863.407711124524
 30
0.0
 11
1416.310717684262
 21
1863.407711124524
 31
0.0
  0
LINE
  5
1C8CDE6AC72C
330
1C8CDE6AC216
100
AcDbEntity
  8
SUNPOU
370
    -2
100
AcDbLine
 10
1282.054771204551
 20
963.4077111245241
 30
0.0
 11
1416.310717684262
 21
963.4077111245241
 31
0.0
  0
LINE
  5
1C8CDE6AC72D
330
1C8CDE6AC216
100
AcDbEntity
  8
SUNPOU
370
    -2
100
AcDbLine
 10
1406.310717684262
 20
1843.407711124524
 30
0.0
 11
1406.310717684262
 21
983.4077111245241
 31
0.0
  0
SOLID
  5
1C8CDE6AC72E
330
1C8CDE6AC216
100
AcDbEntity
  8
SUNPOU
100
AcDbTrace
 10
1402.977384350929
 20
1843.407711124524
 30
0.0
 11
1409.644051017596
 21
1843.407711124524
 31
0.0
 12
1406.310717684262
 22
1863.407711124524
 32
0.0
 13
1406.310717684262
 23
1863.407711124524
 33
0.0
  0
SOLID
  5
1C8CDE6AC72F
330
1C8CDE6AC216
100
AcDbEntity
  8
SUNPOU
100
AcDbTrace
 10
1402.977384350929
 20
983.4077111245241
 30
0.0
 11
1409.644051017595
 21
983.4077111245241
 31
0.0
 12
1406.310717684262
 22
963.4077111245241
 32
0.0
 13
1406.310717684262
 23
963.4077111245241
 33
0.0
  0
MTEXT
  5
1C8CDE6AC730
330
1C8CDE6AC216
100
AcDbEntity
  8
SUNPOU
100
AcDbMText
 10
1379.310717684262
 20
1413.407711124524
 30
0.0
 40
30.0
 41
0.0
 71
     5
 72
     1
  1
\A1;900
  7
EXT08
 11
0.0000000000000001
 21
1.0
 31
0.0
 73
     1
 44
1.0
1001
ACAD
1000
MTEXTBEGIN
1070
    73
1070
     1
1070
    44
1040
1.0
1070
    74
1070
     0
1000
MTEXTEND
  0
POINT
  5
1C8CDE6AC731
330
1C8CDE6AC216
100
AcDbEntity
  8
DEFPOINTS
 62
     0
100
AcDbPoint
 10
1081.30984665488
 20
1863.407711124524
 30
0.0
  0
POINT
  5
1C8CDE6AC732
330
1C8CDE6AC216
100
AcDbEntity
  8
DEFPOINTS
 62
     0
100
AcDbPoint
 10
1272.054771204551
 20
963.4077111245241
 30
0.0
  0
POINT
  5
1C8CDE6AC733
330
1C8CDE6AC216
100
AcDbEntity
  8
DEFPOINTS
 62
     0
100
AcDbPoint
 10
1406.310717684262
 20
963.4077111245241
 30
0.0
  0
ENDBLK
  5
1C8CDE6AC221
330
1C8CDE6AC216
100
AcDbEntity
  8
0
100
AcDbBlockEnd
  0
BLOCK
  5
1C8CDE6AC224
330
1C8CDE6AC223
100
AcDbEntity
  8
0
100
AcDbBlockBegin
  2
*D6
 70
     1
 10
0.0
 20
0.0
 30
0.0
  3
*D6
  1

  0
LINE
  5
1C8CDE6AC64F
330
1C8CDE6AC223
100
AcDbEntity
  8
SUNPOU
370
    -2
100
AcDbLine
 10
1091.30984665488
 20
1863.407711124524
 30
0.0
 11
1491.310717684262
 21
1863.407711124524
 31
0.0
  0
LINE
  5
1C8CDE6AC650
330
1C8CDE6AC223
100
AcDbEntity
  8
SUNPOU
370
    -2
100
AcDbLine
 10
1291.309846654881
 20
563.4077111245241
 30
0.0
 11
1491.310717684262
 21
563.4077111245241
 31
0.0
  0
LINE
  5
1C8CDE6AC651
330
1C8CDE6AC223
100
AcDbEntity
  8
SUNPOU
370
    -2
100
AcDbLine
 10
1481.310717684262
 20
1843.407711124524
 30
0.0
 11
1481.310717684262
 21
583.4077111245242
 31
0.0
  0
SOLID
  5
1C8CDE6AC652
330
1C8CDE6AC223
100
AcDbEntity
  8
SUNPOU
100
AcDbTrace
 10
1477.977384350929
 20
1843.407711124524
 30
0.0
 11
1484.644051017595
 21
1843.407711124524
 31
0.0
 12
1481.310717684262
 22
1863.407711124524
 32
0.0
 13
1481.310717684262
 23
1863.407711124524
 33
0.0
  0
SOLID
  5
1C8CDE6AC653
330
1C8CDE6AC223
100
AcDbEntity
  8
SUNPOU
100
AcDbTrace
 10
1477.977384350929
 20
583.4077111245242
 30
0.0
 11
1484.644051017595
 21
583.4077111245242
 31
0.0
 12
1481.310717684262
 22
563.4077111245241
 32
0.0
 13
1481.310717684262
 23
563.4077111245241
 33
0.0
  0
MTEXT
  5
1C8CDE6AC654
330
1C8CDE6AC223
100
AcDbEntity
  8
SUNPOU
100
AcDbMText
 10
1454.310717684262
 20
1213.407711124524
 30
0.0
 40
30.0
 41
0.0
 71
     5
 72
     1
  1
\A1;1300
  7
EXT08
 11
0.0000000000000001
 21
1.0
 31
0.0
 73
     1
 44
1.0
1001
ACAD
1000
MTEXTBEGIN
1070
    73
1070
     1
1070
    44
1040
1.0
1070
    74
1070
     0
1000
MTEXTEND
  0
POINT
  5
1C8CDE6AC655
330
1C8CDE6AC223
100
AcDbEntity
  8
DEFPOINTS
 62
     0
100
AcDbPoint
 10
1081.30984665488
 20
1863.407711124524
 30
0.0
  0
POINT
  5
1C8CDE6AC656
330
1C8CDE6AC223
100
AcDbEntity
  8
DEFPOINTS
 62
     0
100
AcDbPoint
 10
1281.309846654881
 20
563.4077111245241
 30
0.0
  0
POINT
  5
1C8CDE6AC657
330
1C8CDE6AC223
100
AcDbEntity
  8
DEFPOINTS
 62
     0
100
AcDbPoint
 10
1481.310717684262
 20
563.4077111245241
 30
0.0
  0
ENDBLK
  5
1C8CDE6AC22E
330
1C8CDE6AC223
100
AcDbEntity
  8
0
100
AcDbBlockEnd
  0
BLOCK
  5
1C8CDE6AC260
330
1C8CDE6AC230
100
AcDbEntity
  8
0
100
AcDbBlockBegin
  2
*D7
 70
     1
 10
0.0
 20
0.0
 30
0.0
  3
*D7
  1

  0
LINE
  5
1C8CDE6AC658
330
1C8CDE6AC230
100
AcDbEntity
  8
SUNPOU
370
    -2
100
AcDbLine
 10
1091.30984665488
 20
1863.407711124524
 30
0.0
 11
1341.310717684263
 21
1863.407711124524
 31
0.0
  0
LINE
  5
1C8CDE6AC659
330
1C8CDE6AC230
100
AcDbEntity
  8
SUNPOU
370
    -2
100
AcDbLine
 10
1148.009846654881
 20
1763.407711124524
 30
0.0
 11
1341.310717684263
 21
1763.407711124524
 31
0.0
  0
LINE
  5
1C8CDE6AC65A
330
1C8CDE6AC230
100
AcDbEntity
  8
SUNPOU
370
    -2
100
AcDbLine
 10
1331.310717684263
 20
1843.407711124524
 30
0.0
 11
1331.310717684263
 21
1783.407711124525
 31
0.0
  0
MTEXT
  5
1C8CDE6AC65B
330
1C8CDE6AC230
100
AcDbEntity
  8
SUNPOU
100
AcDbMText
 10
1299.08821126709
 20
1813.407711124524
 30
0.0
 40
30.0
 41
0.0
 71
     5
 72
     1
  1
\A1;100
  7
EXT08
 11
0.0000000000000001
 21
1.0
 31
0.0
 73
     1
 44
1.0
1001
ACAD
1000
MTEXTBEGIN
1070
    73
1070
     1
1070
    44
1040
1.0
1070
    74
1070
     0
1000
MTEXTEND
  0
SOLID
  5
1C8CDE6AC65C
330
1C8CDE6AC230
100
AcDbEntity
  8
SUNPOU
100
AcDbTrace
 10
1327.97738435093
 20
1843.407711124524
 30
0.0
 11
1334.644051017596
 21
1843.407711124524
 31
0.0
 12
1331.310717684263
 22
1863.407711124524
 32
0.0
 13
1331.310717684263
 23
1863.407711124524
 33
0.0
  0
SOLID
  5
1C8CDE6AC65D
330
1C8CDE6AC230
100
AcDbEntity
  8
SUNPOU
100
AcDbTrace
 10
1327.97738435093
 20
1783.407711124525
 30
0.0
 11
1334.644051017596
 21
1783.407711124525
 31
0.0
 12
1331.310717684263
 22
1763.407711124524
 32
0.0
 13
1331.310717684263
 23
1763.407711124524
 33
0.0
  0
POINT
  5
1C8CDE6AC65E
330
1C8CDE6AC230
100
AcDbEntity
  8
DEFPOINTS
 62
     0
100
AcDbPoint
 10
1081.30984665488
 20
1863.407711124524
 30
0.0
  0
POINT
  5
1C8CDE6AC65F
330
1C8CDE6AC230
100
AcDbEntity
  8
DEFPOINTS
 62
     0
100
AcDbPoint
 10
1138.009846654881
 20
1763.407711124524
 30
0.0
  0
POINT
  5
1C8CDE6AC660
330
1C8CDE6AC230
100
AcDbEntity
  8
DEFPOINTS
 62
     0
100
AcDbPoint
 10
1331.310717684263
 20
1763.407711124524
 30
0.0
  0
ENDBLK
  5
1C8CDE6AC26A
330
1C8CDE6AC230
100
AcDbEntity
  8
0
100
AcDbBlockEnd
  0
BLOCK
  5
1C8CDE6AC276
330
1C8CDE6AC23D
100
AcDbEntity
  8
0
100
AcDbBlockBegin
  2
*D8
 70
     1
 10
0.0
 20
0.0
 30
0.0
  3
*D8
  1

  0
LINE
  5
1C8CDE6AC661
330
1C8CDE6AC23D
100
AcDbEntity
  8
SUNPOU
370
    -2
100
AcDbLine
 10
1148.009846654881
 20
1763.407711124524
 30
0.0
 11
1341.310717684263
 21
1763.407711124524
 31
0.0
  0
LINE
  5
1C8CDE6AC662
330
1C8CDE6AC23D
100
AcDbEntity
  8
SUNPOU
370
    -2
100
AcDbLine
 10
1146.459846654879
 20
1643.411812739661
 30
0.0
 11
1341.310717684263
 21
1643.411812739661
 31
0.0
  0
LINE
  5
1C8CDE6AC663
330
1C8CDE6AC23D
100
AcDbEntity
  8
SUNPOU
370
    -2
100
AcDbLine
 10
1331.310717684263
 20
1743.407711124524
 30
0.0
 11
1331.310717684263
 21
1663.411812739661
 31
0.0
  0
MTEXT
  5
1C8CDE6AC664
330
1C8CDE6AC23D
100
AcDbEntity
  8
SUNPOU
100
AcDbMText
 10
1299.08821126709
 20
1703.409761932093
 30
0.0
 40
30.0
 41
0.0
 71
     5
 72
     1
  1
\A1;120
  7
EXT08
 11
0.0000000000000001
 21
1.0
 31
0.0
 73
     1
 44
1.0
1001
ACAD
1000
MTEXTBEGIN
1070
    73
1070
     1
1070
    44
1040
1.0
1070
    74
1070
     0
1000
MTEXTEND
  0
SOLID
  5
1C8CDE6AC665
330
1C8CDE6AC23D
100
AcDbEntity
  8
SUNPOU
100
AcDbTrace
 10
1327.97738435093
 20
1743.407711124524
 30
0.0
 11
1334.644051017596
 21
1743.407711124524
 31
0.0
 12
1331.310717684263
 22
1763.407711124524
 32
0.0
 13
1331.310717684263
 23
1763.407711124524
 33
0.0
  0
SOLID
  5
1C8CDE6AC666
330
1C8CDE6AC23D
100
AcDbEntity
  8
SUNPOU
100
AcDbTrace
 10
1327.97738435093
 20
1663.411812739661
 30
0.0
 11
1334.644051017596
 21
1663.411812739661
 31
0.0
 12
1331.310717684263
 22
1643.411812739661
 32
0.0
 13
1331.310717684263
 23
1643.411812739661
 33
0.0
  0
POINT
  5
1C8CDE6AC667
330
1C8CDE6AC23D
100
AcDbEntity
  8
DEFPOINTS
 62
     0
100
AcDbPoint
 10
1138.009846654881
 20
1763.407711124524
 30
0.0
  0
POINT
  5
1C8CDE6AC668
330
1C8CDE6AC23D
100
AcDbEntity
  8
DEFPOINTS
 62
     0
100
AcDbPoint
 10
1136.459846654879
 20
1643.411812739661
 30
0.0
  0
POINT
  5
1C8CDE6AC669
330
1C8CDE6AC23D
100
AcDbEntity
  8
DEFPOINTS
 62
     0
100
AcDbPoint
 10
1331.310717684263
 20
1643.411812739661
 30
0.0
  0
ENDBLK
  5
1C8CDE6AC280
330
1C8CDE6AC23D
100
AcDbEntity
  8
0
100
AcDbBlockEnd
  0
BLOCK
  5
1C8CDE6AC4AE
330
1C8CDE6AC4A4
100
AcDbEntity
  8
0
100
AcDbBlockBegin
  2
*D9
 70
     1
 10
0.0
 20
0.0
 30
0.0
  3
*D9
  1

  0
LINE
  5
1C8CDE6AC66A
330
1C8CDE6AC4A4
100
AcDbEntity
  8
SUNPOU
370
    -2
100
AcDbLine
 10
3077.964412957825
 20
1525.336067023497
 30
0.0
 11
3150.564412957825
 21
1525.336067023497
 31
0.0
  0
LINE
  5
1C8CDE6AC66B
330
1C8CDE6AC4A4
100
AcDbEntity
  8
SUNPOU
370
    -2
100
AcDbLine
 10
3063.564372957825
 20
1125.336067023496
 30
0.0
 11
3150.564412957825
 21
1125.336067023496
 31
0.0
  0
LINE
  5
1C8CDE6AC66C
330
1C8CDE6AC4A4
100
AcDbEntity
  8
SUNPOU
370
    -2
100
AcDbLine
 10
3140.564412957825
 20
1505.336067023496
 30
0.0
 11
3140.564412957825
 21
1145.336067023497
 31
0.0
  0
SOLID
  5
1C8CDE6AC66D
330
1C8CDE6AC4A4
100
AcDbEntity
  8
SUNPOU
100
AcDbTrace
 10
3137.231079624492
 20
1505.336067023496
 30
0.0
 11
3143.897746291159
 21
1505.336067023496
 31
0.0
 12
3140.564412957825
 22
1525.336067023497
 32
0.0
 13
3140.564412957825
 23
1525.336067023497
 33
0.0
  0
SOLID
  5
1C8CDE6AC66E
330
1C8CDE6AC4A4
100
AcDbEntity
  8
SUNPOU
100
AcDbTrace
 10
3137.231079624492
 20
1145.336067023497
 30
0.0
 11
3143.897746291159
 21
1145.336067023497
 31
0.0
 12
3140.564412957825
 22
1125.336067023496
 32
0.0
 13
3140.564412957825
 23
1125.336067023496
 33
0.0
  0
MTEXT
  5
1C8CDE6AC66F
330
1C8CDE6AC4A4
100
AcDbEntity
  8
SUNPOU
100
AcDbMText
 10
3113.564412957825
 20
1325.336067023497
 30
0.0
 40
30.0
 41
0.0
 71
     5
 72
     1
  1
\A1;400
  7
EXT08
 11
0.0000000000000001
 21
1.0
 31
0.0
 73
     1
 44
1.0
1001
ACAD
1000
MTEXTBEGIN
1070
    73
1070
     1
1070
    44
1040
1.0
1070
    74
1070
     0
1000
MTEXTEND
  0
POINT
  5
1C8CDE6AC670
330
1C8CDE6AC4A4
100
AcDbEntity
  8
DEFPOINTS
 62
     0
100
AcDbPoint
 10
3067.964412957825
 20
1525.336067023497
 30
0.0
  0
POINT
  5
1C8CDE6AC671
330
1C8CDE6AC4A4
100
AcDbEntity
  8
DEFPOINTS
 62
     0
100
AcDbPoint
 10
3053.564372957825
 20
1125.336067023496
 30
0.0
  0
POINT
  5
1C8CDE6AC672
330
1C8CDE6AC4A4
100
AcDbEntity
  8
DEFPOINTS
 62
     0
100
AcDbPoint
 10
3140.564412957825
 20
1125.336067023496
 30
0.0
  0
ENDBLK
  5
1C8CDE6AC4AF
330
1C8CDE6AC4A4
100
AcDbEntity
  8
0
100
AcDbBlockEnd
  0
BLOCK
  5
1C8CDE6AC4BA
330
1C8CDE6AC4B0
100
AcDbEntity
  8
0
100
AcDbBlockBegin
  2
*D10
 70
     1
 10
0.0
 20
0.0
 30
0.0
  3
*D10
  1

  0
LINE
  5
1C8CDE6AC673
330
1C8CDE6AC4B0
100
AcDbEntity
  8
SUNPOU
370
    -2
100
AcDbLine
 10
2671.902507731201
 20
1113.736067023497
 30
0.0
 11
2671.902507731201
 21
1007.471987023496
 31
0.0
  0
LINE
  5
1C8CDE6AC674
330
1C8CDE6AC4B0
100
AcDbEntity
  8
SUNPOU
370
    -2
100
AcDbLine
 10
2796.902507731201
 20
1113.736067023497
 30
0.0
 11
2796.902507731201
 21
1007.471987023496
 31
0.0
  0
LINE
  5
1C8CDE6AC675
330
1C8CDE6AC4B0
100
AcDbEntity
  8
SUNPOU
370
    -2
100
AcDbLine
 10
2691.902507731201
 20
1017.471987023496
 30
0.0
 11
2776.902507731201
 21
1017.471987023496
 31
0.0
  0
MTEXT
  5
1C8CDE6AC676
330
1C8CDE6AC4B0
100
AcDbEntity
  8
SUNPOU
100
AcDbMText
 10
2734.402507731201
 20
1017.471987023496
 30
0.0
 40
30.0
 41
0.0
 71
     5
 72
     1
  1
\A1;%%C125\P（底板径）
  7
EXT08
 73
     1
 44
1.0
1001
ACAD
1000
MTEXTBEGIN
1070
    73
1070
     1
1070
    44
1040
1.0
1070
    74
1070
     0
1000
MTEXTEND
  0
SOLID
  5
1C8CDE6AC677
330
1C8CDE6AC4B0
100
AcDbEntity
  8
SUNPOU
100
AcDbTrace
 10
2691.902507731201
 20
1020.80532035683
 30
0.0
 11
2691.902507731201
 21
1014.138653690163
 31
0.0
 12
2671.902507731201
 22
1017.471987023496
 32
0.0
 13
2671.902507731201
 23
1017.471987023496
 33
0.0
  0
SOLID
  5
1C8CDE6AC678
330
1C8CDE6AC4B0
100
AcDbEntity
  8
SUNPOU
100
AcDbTrace
 10
2776.902507731201
 20
1020.80532035683
 30
0.0
 11
2776.902507731201
 21
1014.138653690163
 31
0.0
 12
2796.902507731201
 22
1017.471987023496
 32
0.0
 13
2796.902507731201
 23
1017.471987023496
 33
0.0
  0
POINT
  5
1C8CDE6AC679
330
1C8CDE6AC4B0
100
AcDbEntity
  8
DEFPOINTS
 62
     0
100
AcDbPoint
 10
2671.902507731201
 20
1123.736067023497
 30
0.0
  0
POINT
  5
1C8CDE6AC67A
330
1C8CDE6AC4B0
100
AcDbEntity
  8
DEFPOINTS
 62
     0
100
AcDbPoint
 10
2796.902507731201
 20
1123.736067023497
 30
0.0
  0
POINT
  5
1C8CDE6AC67B
330
1C8CDE6AC4B0
100
AcDbEntity
  8
DEFPOINTS
 62
     0
100
AcDbPoint
 10
2796.902507731201
 20
1017.471987023496
 30
0.0
  0
ENDBLK
  5
1C8CDE6AC4BB
330
1C8CDE6AC4B0
100
AcDbEntity
  8
0
100
AcDbBlockEnd
  0
BLOCK
  5
1C8CDE6AC4C6
330
1C8CDE6AC4BC
100
AcDbEntity
  8
0
100
AcDbBlockBegin
  2
*D11
 70
     1
 10
0.0
 20
0.0
 30
0.0
  3
*D11
  1

  0
LINE
  5
1C8CDE6AC67C
330
1C8CDE6AC4BC
100
AcDbEntity
  8
SUNPOU
370
    -2
100
AcDbLine
 10
2809.402507731201
 20
1535.336047023498
 30
0.0
 11
2809.402507731201
 21
1818.468087023495
 31
0.0
  0
LINE
  5
1C8CDE6AC67D
330
1C8CDE6AC4BC
100
AcDbEntity
  8
SUNPOU
370
    -2
100
AcDbLine
 10
2659.402507731201
 20
1535.336047023496
 30
0.0
 11
2659.402507731201
 21
1818.468087023495
 31
0.0
  0
LINE
  5
1C8CDE6AC67E
330
1C8CDE6AC4BC
100
AcDbEntity
  8
SUNPOU
370
    -2
100
AcDbLine
 10
2789.402507731201
 20
1808.468087023495
 30
0.0
 11
2679.402507731201
 21
1808.468087023495
 31
0.0
  0
SOLID
  5
1C8CDE6AC67F
330
1C8CDE6AC4BC
100
AcDbEntity
  8
SUNPOU
100
AcDbTrace
 10
2789.402507731201
 20
1811.801420356828
 30
0.0
 11
2789.402507731201
 21
1805.134753690162
 31
0.0
 12
2809.402507731201
 22
1808.468087023495
 32
0.0
 13
2809.402507731201
 23
1808.468087023495
 33
0.0
  0
SOLID
  5
1C8CDE6AC680
330
1C8CDE6AC4BC
100
AcDbEntity
  8
SUNPOU
100
AcDbTrace
 10
2679.402507731201
 20
1811.801420356828
 30
0.0
 11
2679.402507731201
 21
1805.134753690162
 31
0.0
 12
2659.402507731201
 22
1808.468087023495
 32
0.0
 13
2659.402507731201
 23
1808.468087023495
 33
0.0
  0
MTEXT
  5
1C8CDE6AC681
330
1C8CDE6AC4BC
100
AcDbEntity
  8
SUNPOU
100
AcDbMText
 10
2734.402507731201
 20
1835.468087023495
 30
0.0
 40
30.0
 41
0.0
 71
     5
 72
     1
  1
\A1;%%C150
  7
EXT08
 73
     1
 44
1.0
1001
ACAD
1000
MTEXTBEGIN
1070
    73
1070
     1
1070
    44
1040
1.0
1070
    74
1070
     0
1000
MTEXTEND
  0
POINT
  5
1C8CDE6AC682
330
1C8CDE6AC4BC
100
AcDbEntity
  8
DEFPOINTS
 62
     0
100
AcDbPoint
 10
2809.402507731201
 20
1525.336047023498
 30
0.0
  0
POINT
  5
1C8CDE6AC683
330
1C8CDE6AC4BC
100
AcDbEntity
  8
DEFPOINTS
 62
     0
100
AcDbPoint
 10
2659.402507731201
 20
1525.336047023496
 30
0.0
  0
POINT
  5
1C8CDE6AC684
330
1C8CDE6AC4BC
100
AcDbEntity
  8
DEFPOINTS
 62
     0
100
AcDbPoint
 10
2659.402507731201
 20
1808.468087023495
 30
0.0
  0
ENDBLK
  5
1C8CDE6AC4C7
330
1C8CDE6AC4BC
100
AcDbEntity
  8
0
100
AcDbBlockEnd
  0
BLOCK
  5
1C8CDE6AC4D2
330
1C8CDE6AC4C8
100
AcDbEntity
  8
0
100
AcDbBlockBegin
  2
*D12
 70
     1
 10
0.0
 20
0.0
 30
0.0
  3
*D12
  1

  0
LINE
  5
1C8CDE6AC685
330
1C8CDE6AC4C8
100
AcDbEntity
  8
SUNPOU
370
    -2
100
AcDbLine
 10
2667.929512073687
 20
1601.941093642492
 30
0.0
 11
2667.929512073687
 21
1718.468087023495
 31
0.0
  0
LINE
  5
1C8CDE6AC686
330
1C8CDE6AC4C8
100
AcDbEntity
  8
SUNPOU
370
    -2
100
AcDbLine
 10
2800.902507731201
 20
1603.836047023471
 30
0.0
 11
2800.902507731201
 21
1718.468087023495
 31
0.0
  0
LINE
  5
1C8CDE6AC687
330
1C8CDE6AC4C8
100
AcDbEntity
  8
SUNPOU
370
    -2
100
AcDbLine
 10
2687.929512073687
 20
1708.468087023496
 30
0.0
 11
2780.902507731201
 21
1708.468087023496
 31
0.0
  0
SOLID
  5
1C8CDE6AC688
330
1C8CDE6AC4C8
100
AcDbEntity
  8
SUNPOU
100
AcDbTrace
 10
2687.929512073687
 20
1711.801420356829
 30
0.0
 11
2687.929512073687
 21
1705.134753690162
 31
0.0
 12
2667.929512073687
 22
1708.468087023496
 32
0.0
 13
2667.929512073687
 23
1708.468087023496
 33
0.0
  0
SOLID
  5
1C8CDE6AC689
330
1C8CDE6AC4C8
100
AcDbEntity
  8
SUNPOU
100
AcDbTrace
 10
2780.902507731201
 20
1711.801420356829
 30
0.0
 11
2780.902507731201
 21
1705.134753690162
 31
0.0
 12
2800.902507731201
 22
1708.468087023496
 32
0.0
 13
2800.902507731201
 23
1708.468087023496
 33
0.0
  0
MTEXT
  5
1C8CDE6AC68A
330
1C8CDE6AC4C8
100
AcDbEntity
  8
SUNPOU
100
AcDbMText
 10
2734.416009902444
 20
1735.468087023496
 30
0.0
 40
30.0
 41
0.0
 71
     5
 72
     1
  1
\A1;%%C133
  7
EXT08
 73
     1
 44
1.0
1001
ACAD
1000
MTEXTBEGIN
1070
    73
1070
     1
1070
    44
1040
1.0
1070
    74
1070
     0
1000
MTEXTEND
  0
POINT
  5
1C8CDE6AC68B
330
1C8CDE6AC4C8
100
AcDbEntity
  8
DEFPOINTS
 62
     0
100
AcDbPoint
 10
2667.929512073687
 20
1591.941093642492
 30
0.0
  0
POINT
  5
1C8CDE6AC68C
330
1C8CDE6AC4C8
100
AcDbEntity
  8
DEFPOINTS
 62
     0
100
AcDbPoint
 10
2800.902507731201
 20
1593.836047023471
 30
0.0
  0
POINT
  5
1C8CDE6AC68D
330
1C8CDE6AC4C8
100
AcDbEntity
  8
DEFPOINTS
 62
     0
100
AcDbPoint
 10
2800.902507731201
 20
1708.468087023496
 30
0.0
  0
ENDBLK
  5
1C8CDE6AC4D3
330
1C8CDE6AC4C8
100
AcDbEntity
  8
0
100
AcDbBlockEnd
  0
BLOCK
  5
1C8CDE6AC4DE
330
1C8CDE6AC4D4
100
AcDbEntity
  8
0
100
AcDbBlockBegin
  2
*D13
 70
     1
 10
0.0
 20
0.0
 30
0.0
  3
*D13
  1

  0
LINE
  5
1C8CDE6AC68E
330
1C8CDE6AC4D4
100
AcDbEntity
  8
SUNPOU
370
    -2
100
AcDbLine
 10
3067.964412957825
 20
1535.336067023497
 30
0.0
 11
3067.964412957825
 21
1718.468107023495
 31
0.0
  0
LINE
  5
1C8CDE6AC68F
330
1C8CDE6AC4D4
100
AcDbEntity
  8
SUNPOU
370
    -2
100
AcDbLine
 10
2892.964412957825
 20
1535.336067023497
 30
0.0
 11
2892.964412957825
 21
1718.468107023495
 31
0.0
  0
LINE
  5
1C8CDE6AC690
330
1C8CDE6AC4D4
100
AcDbEntity
  8
SUNPOU
370
    -2
100
AcDbLine
 10
3047.964412957825
 20
1708.468107023495
 30
0.0
 11
2912.964412957825
 21
1708.468107023495
 31
0.0
  0
SOLID
  5
1C8CDE6AC691
330
1C8CDE6AC4D4
100
AcDbEntity
  8
SUNPOU
100
AcDbTrace
 10
3047.964412957825
 20
1711.801440356828
 30
0.0
 11
3047.964412957825
 21
1705.134773690161
 31
0.0
 12
3067.964412957825
 22
1708.468107023495
 32
0.0
 13
3067.964412957825
 23
1708.468107023495
 33
0.0
  0
SOLID
  5
1C8CDE6AC692
330
1C8CDE6AC4D4
100
AcDbEntity
  8
SUNPOU
100
AcDbTrace
 10
2912.964412957825
 20
1711.801440356828
 30
0.0
 11
2912.964412957825
 21
1705.134773690161
 31
0.0
 12
2892.964412957825
 22
1708.468107023495
 32
0.0
 13
2892.964412957825
 23
1708.468107023495
 33
0.0
  0
MTEXT
  5
1C8CDE6AC693
330
1C8CDE6AC4D4
100
AcDbEntity
  8
SUNPOU
100
AcDbMText
 10
2980.464412957825
 20
1735.468107023495
 30
0.0
 40
30.0
 41
0.0
 71
     5
 72
     1
  1
\A1;175
  7
EXT08
 73
     1
 44
1.0
1001
ACAD
1000
MTEXTBEGIN
1070
    73
1070
     1
1070
    44
1040
1.0
1070
    74
1070
     0
1000
MTEXTEND
  0
POINT
  5
1C8CDE6AC694
330
1C8CDE6AC4D4
100
AcDbEntity
  8
DEFPOINTS
 62
     0
100
AcDbPoint
 10
3067.964412957825
 20
1525.336067023497
 30
0.0
  0
POINT
  5
1C8CDE6AC695
330
1C8CDE6AC4D4
100
AcDbEntity
  8
DEFPOINTS
 62
     0
100
AcDbPoint
 10
2892.964412957825
 20
1525.336067023497
 30
0.0
  0
POINT
  5
1C8CDE6AC696
330
1C8CDE6AC4D4
100
AcDbEntity
  8
DEFPOINTS
 62
     0
100
AcDbPoint
 10
2892.964412957825
 20
1708.468107023495
 30
0.0
  0
ENDBLK
  5
1C8CDE6AC4DF
330
1C8CDE6AC4D4
100
AcDbEntity
  8
0
100
AcDbBlockEnd
  0
BLOCK
  5
1C8CDE6AC4EC
330
1C8CDE6AC4E0
100
AcDbEntity
  8
0
100
AcDbBlockBegin
  2
*D14
 70
     1
 10
0.0
 20
0.0
 30
0.0
  3
*D14
  1

  0
LINE
  5
1C8CDE6AC697
330
1C8CDE6AC4E0
100
AcDbEntity
  8
SUNPOU
370
    -2
100
AcDbLine
 10
3063.564372957825
 20
1125.336067023496
 30
0.0
 11
3150.564412957825
 21
1125.336067023496
 31
0.0
  0
LINE
  5
1C8CDE6AC698
330
1C8CDE6AC4E0
100
AcDbEntity
  8
SUNPOU
370
    -2
100
AcDbLine
 10
3052.964412957825
 20
1123.736067023497
 30
0.0
 11
3150.564412957825
 21
1123.736067023497
 31
0.0
  0
LINE
  5
1C8CDE6AC699
330
1C8CDE6AC4E0
100
AcDbEntity
  8
SUNPOU
370
    -2
100
AcDbLine
 10
3140.564412957825
 20
1145.336067023497
 30
0.0
 11
3140.564412957825
 21
1165.336067023496
 31
0.0
  0
LINE
  5
1C8CDE6AC69A
330
1C8CDE6AC4E0
100
AcDbEntity
  8
SUNPOU
370
    -2
100
AcDbLine
 10
3140.564412957825
 20
1103.736067023496
 30
0.0
 11
3140.564412957825
 21
1083.736067023497
 31
0.0
  0
MTEXT
  5
1C8CDE6AC69B
330
1C8CDE6AC4E0
100
AcDbEntity
  8
SUNPOU
100
AcDbMText
 10
3113.96362141715
 20
1075.389824084094
 30
0.0
 40
30.0
 41
0.0
 71
     5
 72
     1
  1
\A1;t1.6
  7
EXT08
 11
0.0000000000000001
 21
1.0
 31
0.0
 73
     1
 44
1.0
1001
ACAD
1000
MTEXTBEGIN
1070
    73
1070
     1
1070
    44
1040
1.0
1070
    74
1070
     0
1000
MTEXTEND
  0
LINE
  5
1C8CDE6AC69C
330
1C8CDE6AC4E0
100
AcDbEntity
  8
SUNPOU
370
    -2
100
AcDbLine
 10
3140.564412957825
 20
1125.336067023496
 30
0.0
 11
3140.564412957825
 21
1123.736067023497
 31
0.0
  0
SOLID
  5
1C8CDE6AC69D
330
1C8CDE6AC4E0
100
AcDbEntity
  8
SUNPOU
100
AcDbTrace
 10
3137.231079624492
 20
1145.336067023497
 30
0.0
 11
3143.897746291159
 21
1145.336067023497
 31
0.0
 12
3140.564412957825
 22
1125.336067023496
 32
0.0
 13
3140.564412957825
 23
1125.336067023496
 33
0.0
  0
SOLID
  5
1C8CDE6AC69E
330
1C8CDE6AC4E0
100
AcDbEntity
  8
SUNPOU
100
AcDbTrace
 10
3137.231079624492
 20
1103.736067023496
 30
0.0
 11
3143.897746291159
 21
1103.736067023496
 31
0.0
 12
3140.564412957825
 22
1123.736067023497
 32
0.0
 13
3140.564412957825
 23
1123.736067023497
 33
0.0
  0
POINT
  5
1C8CDE6AC69F
330
1C8CDE6AC4E0
100
AcDbEntity
  8
DEFPOINTS
 62
     0
100
AcDbPoint
 10
3053.564372957825
 20
1125.336067023496
 30
0.0
  0
POINT
  5
1C8CDE6AC6A0
330
1C8CDE6AC4E0
100
AcDbEntity
  8
DEFPOINTS
 62
     0
100
AcDbPoint
 10
3042.964412957825
 20
1123.736067023497
 30
0.0
  0
POINT
  5
1C8CDE6AC6A1
330
1C8CDE6AC4E0
100
AcDbEntity
  8
DEFPOINTS
 62
     0
100
AcDbPoint
 10
3140.564412957825
 20
1123.736067023497
 30
0.0
  0
ENDBLK
  5
1C8CDE6AC4ED
330
1C8CDE6AC4E0
100
AcDbEntity
  8
0
100
AcDbBlockEnd
  0
BLOCK
  5
1C8CDE6AC81F
330
1C8CDE6AC7D8
100
AcDbEntity
  8
0
100
AcDbBlockBegin
  2
CALCOMP_TECHJET720A3
 70
     0
 10
0.0
 20
0.0
 30
0.0
  3
CALCOMP_TECHJET720A3
  1

  0
LWPOLYLINE
  5
1C8CDE6AC81E
330
1C8CDE6AC7D8
100
AcDbEntity
  8
ZWAKU
100
AcDbPolyline
 90
        4
 70
     1
 43
0.0
 10
0.0
 20
0.0
 10
0.0
 20
267.0
 10
370.0
 20
267.0
 10
370.0
 20
0.0
  0
ENDBLK
  5
1C8CDE6AC820
330
1C8CDE6AC7D8
100
AcDbEntity
  8
0
100
AcDbBlockEnd
  0
ENDSEC
  0
SECTION
  2
ENTITIES
  0
LINE
  5
1C8CDE6A8E60
330
1C8CDE699D53
100
AcDbEntity
  8
HATCH
100
AcDbLine
 10
1179.309846654881
 20
957.9251049796122
 30
0.0
 11
1184.792452799793
 21
963.4077111245241
 31
0.0
  0
LINE
  5
1C8CDE6A8E62
330
1C8CDE699D53
100
AcDbEntity
  8
HATCH
100
AcDbLine
 10
1141.909826654881
 20
898.4279980675323
 30
0.0
 11
1206.889539711873
 21
963.4077111245241
 31
0.0
  0
LINE
  5
1C8CDE6A8E63
330
1C8CDE699D53
100
AcDbEntity
  8
HATCH
100
AcDbLine
 10
1141.909826654881
 20
589.0687812984177
 30
0.0
 11
1231.309846654881
 21
678.468801298417
 31
0.0
  0
LINE
  5
1C8CDE6A8E64
330
1C8CDE699D53
100
AcDbEntity
  8
HATCH
100
AcDbLine
 10
1141.909826654881
 20
566.971694386338
 30
0.0
 11
1231.309846654881
 21
656.3717143863377
 31
0.0
  0
LINE
  5
1C8CDE6A8E65
330
1C8CDE699D53
100
AcDbEntity
  8
HATCH
100
AcDbLine
 10
1160.442930305146
 20
563.4077111245241
 30
0.0
 11
1231.309846654881
 21
634.274627474258
 31
0.0
  0
LINE
  5
1C8CDE6A8E66
330
1C8CDE699D53
100
AcDbEntity
  8
HATCH
100
AcDbLine
 10
961.5691480964297
 20
563.4077111245241
 30
0.0
 11
1020.70988665488
 21
622.548449682974
 31
0.0
  0
LINE
  5
1C8CDE6A8E67
330
1C8CDE699D53
100
AcDbEntity
  8
HATCH
100
AcDbLine
 10
939.4720611843505
 20
563.4077111245237
 30
0.0
 11
1020.70988665488
 21
644.6455365950535
 31
0.0
  0
LINE
  5
1C8CDE6A8E68
330
1C8CDE699D53
100
AcDbEntity
  8
HATCH
100
AcDbLine
 10
1141.909826654881
 20
721.651302770895
 30
0.0
 11
1149.133638920311
 21
728.875115036326
 31
0.0
  0
LINE
  5
1C8CDE6A8E69
330
1C8CDE699D53
100
AcDbEntity
  8
HATCH
100
AcDbLine
 10
931.3098466548808
 20
687.8280180675319
 30
0.0
 11
981.309846654879
 21
737.8280180675301
 31
0.0
  0
LINE
  5
1C8CDE6A8E6A
330
1C8CDE699D53
100
AcDbEntity
  8
HATCH
100
AcDbLine
 10
931.3098466548808
 20
732.0221918916908
 30
0.0
 11
1020.70988665488
 21
821.4222318916906
 31
0.0
  0
LINE
  5
1C8CDE6A8E6B
330
1C8CDE699D53
100
AcDbEntity
  8
HATCH
100
AcDbLine
 10
931.3098466548808
 20
709.9251049796111
 30
0.0
 11
1020.70988665488
 21
799.3251449796111
 31
0.0
  0
LINE
  5
1C8CDE6A8E6C
330
1C8CDE699D53
100
AcDbEntity
  8
HATCH
100
AcDbLine
 10
981.3569436236749
 20
737.8751150363259
 30
0.0
 11
1020.70988665488
 21
777.2280580675316
 31
0.0
  0
LINE
  5
1C8CDE6A8E6D
330
1C8CDE699D53
100
AcDbEntity
  8
HATCH
100
AcDbLine
 10
1141.909826654881
 20
765.8454765950546
 30
0.0
 11
1231.309846654881
 21
855.2454965950541
 31
0.0
  0
LINE
  5
1C8CDE6A8E6E
330
1C8CDE699D53
100
AcDbEntity
  8
HATCH
100
AcDbLine
 10
1141.909826654881
 20
743.7483896829749
 30
0.0
 11
1231.309846654881
 21
833.1484096829745
 31
0.0
  0
LINE
  5
1C8CDE6A8E6F
330
1C8CDE699D53
100
AcDbEntity
  8
HATCH
100
AcDbLine
 10
1141.909826654881
 20
721.6513027708956
 30
0.0
 11
1231.309846654881
 21
811.0513227708947
 31
0.0
  0
LINE
  5
1C8CDE6A8E70
330
1C8CDE699D53
100
AcDbEntity
  8
HATCH
100
AcDbLine
 10
931.3098466548808
 20
908.7988871883281
 30
0.0
 11
985.918670591077
 21
963.4077111245233
 31
0.0
  0
LINE
  5
1C8CDE6A8E71
330
1C8CDE699D53
100
AcDbEntity
  8
HATCH
100
AcDbLine
 10
931.3098466548808
 20
886.7018002762479
 30
0.0
 11
1006.309846654881
 21
961.7018002762479
 31
0.0
  0
LINE
  5
1C8CDE6A8E72
330
1C8CDE699D53
100
AcDbEntity
  8
HATCH
100
AcDbLine
 10
931.3098466548808
 20
864.6047133641687
 30
0.0
 11
1020.70988665488
 21
954.0047533641683
 31
0.0
  0
LINE
  5
1C8CDE6A8EB9
330
1C8CDE699D53
100
AcDbEntity
  8
SJC
100
AcDbLine
 10
1138.459245457599
 20
963.4077111245241
 30
0.0
 11
1272.054771204551
 21
963.4077111245241
 31
0.0
  0
LINE
  5
1C8CDE6A8ED0
330
1C8CDE699D53
100
AcDbEntity
  8
SJC
  6
Continuous
100
AcDbLine
 10
931.3098466548808
 20
963.4077111245241
 30
0.0
 11
931.3098466548808
 21
563.4077111245241
 31
0.0
  0
LINE
  5
1C8CDE6A8ED1
330
1C8CDE699D53
100
AcDbEntity
  8
SJC
  6
Continuous
100
AcDbLine
 10
1231.309846654881
 20
563.4077111245241
 30
0.0
 11
1231.309846654881
 21
963.4077111245241
 31
0.0
  0
LWPOLYLINE
  5
1C8CDE6A8ED2
330
1C8CDE699D53
100
AcDbEntity
  8
HATCH
  6
Continuous
100
AcDbPolyline
 90
       16
 70
     1
 43
0.0
 10
1222.523708031661
 20
513.812311124524
 42
0.138281
 10
1228.96778303166
 20
513.8962161245236
 42
0.107061
 10
1236.213246031661
 20
517.8652471245241
 42
0.08054
 10
1241.78143703166
 20
524.5353121245243
 42
0.068375
 10
1245.74415703166
 20
533.9516801245244
 42
0.068375
 10
1247.02052503166
 20
544.0878541245238
 42
0.08054
 10
1245.533363031661
 20
552.6483951245245
 42
0.107061
 10
1241.24312303166
 20
559.7084091245242
 42
0.138281
 10
1235.70434303166
 20
563.003110124524
 42
0.138281
 10
1229.26026803166
 20
562.9192051245245
 42
0.107061
 10
1222.014804031661
 20
558.9501741245239
 42
0.08054
 10
1216.44661303166
 20
552.2801091245237
 42
0.068375
 10
1212.483893031661
 20
542.8637411245236
 42
0.068375
 10
1211.207526031661
 20
532.7275671245242
 42
0.08054
 10
1212.694688031662
 20
524.1670261245235
 42
0.107061
 10
1216.98492803166
 20
517.1070131245232
 42
0.138281
  0
LINE
  5
1C8CDE6A8EE4
330
1C8CDE699D53
100
AcDbEntity
  8
SJC
  6
Continuous
100
AcDbLine
 10
1281.309846654881
 20
513.4077111245241
 30
0.0
 11
881.3098466548808
 21
513.4077111245241
 31
0.0
  0
LINE
  5
1C8CDE6A8EE5
330
1C8CDE699D53
100
AcDbEntity
  8
SJC
  6
Continuous
100
AcDbLine
 10
1281.309846654881
 20
563.4077111245241
 30
0.0
 11
881.3098466548808
 21
563.4077111245241
 31
0.0
  0
LWPOLYLINE
  5
1C8CDE6A8EE6
330
1C8CDE699D53
100
AcDbEntity
  8
HATCH
  6
Continuous
100
AcDbPolyline
 90
       16
 70
     1
 43
0.0
 10
893.7548290703608
 20
513.812311124524
 42
0.138281
 10
900.198904070362
 20
513.8962161245236
 42
0.107061
 10
907.4443680703616
 20
517.8652471245241
 42
0.08054
 10
913.0125590703618
 20
524.5353121245243
 42
0.068375
 10
916.9752790703615
 20
533.9516801245244
 42
0.068375
 10
918.2516460703618
 20
544.0878541245238
 42
0.08054
 10
916.7644840703625
 20
552.6483951245245
 42
0.107061
 10
912.4742440703622
 20
559.7084091245242
 42
0.138281
 10
906.9354640703613
 20
563.003110124524
 42
0.138281
 10
900.4913890703619
 20
562.9192051245245
 42
0.107061
 10
893.2459260703627
 20
558.9501741245239
 42
0.08054
 10
887.6777350703605
 20
552.2801091245237
 42
0.068375
 10
883.715015070361
 20
542.8637411245236
 42
0.068375
 10
882.438647070362
 20
532.7275671245242
 42
0.08054
 10
883.9258090703616
 20
524.1670261245235
 42
0.107061
 10
888.2160500703621
 20
517.1070131245232
 42
0.138281
  0
LINE
  5
1C8CDE6A8EF8
330
1C8CDE699D53
100
AcDbEntity
  8
SJC
  6
Continuous
100
AcDbLine
 10
881.3098466548808
 20
563.4077111245241
 30
0.0
 11
881.3098466548808
 21
513.4077111245241
 31
0.0
  0
LWPOLYLINE
  5
1C8CDE6A8EF9
330
1C8CDE699D53
100
AcDbEntity
  8
HATCH
  6
Continuous
100
AcDbPolyline
 90
       16
 70
     1
 43
0.0
 10
928.8325320703616
 20
513.812311124524
 42
0.138281
 10
935.2766070703628
 20
513.8962161245236
 42
0.107061
 10
942.5220710703625
 20
517.8652471245241
 42
0.08054
 10
948.0902610703607
 20
524.5353121245243
 42
0.068375
 10
952.0529820703604
 20
533.9516801245244
 42
0.068375
 10
953.3293490703627
 20
544.0878541245238
 42
0.08054
 10
951.8421870703614
 20
552.6483951245245
 42
0.107061
 10
947.5519470703611
 20
559.7084091245242
 42
0.138281
 10
942.0131670703604
 20
563.003110124524
 42
0.138281
 10
935.569092070361
 20
562.9192051245245
 42
0.107061
 10
928.3236280703613
 20
558.9501741245239
 42
0.08054
 10
922.7554380703614
 20
552.2801091245237
 42
0.068375
 10
918.7927170703614
 20
542.8637411245236
 42
0.068375
 10
917.5163500703611
 20
532.7275671245242
 42
0.08054
 10
919.0035120703624
 20
524.1670261245235
 42
0.107061
 10
923.2937520703607
 20
517.1070131245232
 42
0.138281
  0
LWPOLYLINE
  5
1C8CDE6A8F0B
330
1C8CDE699D53
100
AcDbEntity
  8
HATCH
  6
Continuous
100
AcDbPolyline
 90
       16
 70
     1
 43
0.0
 10
963.9102350703623
 20
513.812311124524
 42
0.138281
 10
970.3543090703615
 20
513.8962161245236
 42
0.107061
 10
977.5997730703611
 20
517.8652471245241
 42
0.08054
 10
983.1679640703613
 20
524.5353121245243
 42
0.068375
 10
987.1306840703628
 20
533.9516801245244
 42
0.068375
 10
988.4070520703616
 20
544.0878541245238
 42
0.08054
 10
986.919889070362
 20
552.6483951245245
 42
0.107061
 10
982.6296490703617
 20
559.7084091245242
 42
0.138281
 10
977.0908700703612
 20
563.003110124524
 42
0.138281
 10
970.6467950703618
 20
562.9192051245245
 42
0.107061
 10
963.4013310703622
 20
558.9501741245239
 42
0.08054
 10
957.8331400703618
 20
552.2801091245237
 42
0.068375
 10
953.8704200703623
 20
542.8637411245236
 42
0.068375
 10
952.5940520703615
 20
532.7275671245242
 42
0.08054
 10
954.0812150703613
 20
524.1670261245235
 42
0.107061
 10
958.3714550703616
 20
517.1070131245232
 42
0.138281
  0
LWPOLYLINE
  5
1C8CDE6A8F1D
330
1C8CDE699D53
100
AcDbEntity
  8
HATCH
  6
Continuous
100
AcDbPolyline
 90
       16
 70
     1
 43
0.0
 10
1257.601410031661
 20
513.812311124524
 42
0.138281
 10
1264.045485031661
 20
513.8962161245236
 42
0.107061
 10
1271.290949031661
 20
517.8652471245241
 42
0.08054
 10
1276.859140031661
 20
524.5353121245243
 42
0.068375
 10
1280.82186003166
 20
533.9516801245244
 42
0.068375
 10
1282.098227031661
 20
544.0878541245238
 42
0.08054
 10
1280.611065031659
 20
552.6483951245245
 42
0.107061
 10
1276.320825031661
 20
559.7084091245242
 42
0.138281
 10
1270.78204503166
 20
563.003110124524
 42
0.138281
 10
1264.337970031661
 20
562.9192051245245
 42
0.107061
 10
1257.09250703166
 20
558.9501741245239
 42
0.08054
 10
1251.524316031661
 20
552.2801091245237
 42
0.068375
 10
1247.561596031662
 20
542.8637411245236
 42
0.068375
 10
1246.285228031661
 20
532.7275671245242
 42
0.08054
 10
1247.77239003166
 20
524.1670261245235
 42
0.107061
 10
1252.062630031661
 20
517.1070131245232
 42
0.138281
  0
LINE
  5
1C8CDE6A8F2F
330
1C8CDE699D53
100
AcDbEntity
  8
SJC
  6
Continuous
100
AcDbLine
 10
1281.309846654881
 20
563.4077111245241
 30
0.0
 11
1281.309846654881
 21
513.4077111245241
 31
0.0
  0
LWPOLYLINE
  5
1C8CDE6A8F30
330
1C8CDE699D53
100
AcDbEntity
  8
HATCH
  6
Continuous
100
AcDbPolyline
 90
       16
 70
     1
 43
0.0
 10
1187.44570803166
 20
513.812311124524
 42
0.138281
 10
1193.88978303166
 20
513.8962161245236
 42
0.107061
 10
1201.135246031661
 20
517.8652471245241
 42
0.08054
 10
1206.70343703166
 20
524.5353121245243
 42
0.068375
 10
1210.666157031659
 20
533.9516801245244
 42
0.068375
 10
1211.94252503166
 20
544.0878541245238
 42
0.08054
 10
1210.45536303166
 20
552.6483951245245
 42
0.107061
 10
1206.16512303166
 20
559.7084091245242
 42
0.138281
 10
1200.626343031659
 20
563.003110124524
 42
0.138281
 10
1194.18226803166
 20
562.9192051245245
 42
0.107061
 10
1186.93680403166
 20
558.9501741245239
 42
0.08054
 10
1181.36861303166
 20
552.2801091245237
 42
0.068375
 10
1177.40589303166
 20
542.8637411245236
 42
0.068375
 10
1176.12952603166
 20
532.7275671245242
 42
0.08054
 10
1177.616688031661
 20
524.1670261245235
 42
0.107061
 10
1181.90692803166
 20
517.1070131245232
 42
0.138281
  0
TEXT
  5
1C8CDE6A8F42
330
1C8CDE699D53
100
AcDbEntity
  8
MOJI
100
AcDbText
 10
836.212785138634
 20
974.0822821975161
 30
0.0
 40
30.0
  1
GL
 41
0.8
  7
EXT08
100
AcDbText
  0
LINE
  5
1C8CDE6A8F43
330
1C8CDE699D53
100
AcDbEntity
  8
HATCH
100
AcDbLine
 10
872.3974500509521
 20
948.4077111245232
 30
0.0
 11
891.4147484553906
 21
929.3904127200848
 31
0.0
  0
LINE
  5
1C8CDE6A8F44
330
1C8CDE699D53
100
AcDbEntity
  8
HATCH
100
AcDbLine
 10
887.397450050952
 20
963.4077111245241
 30
0.0
 11
921.4147484553905
 21
929.3904127200848
 31
0.0
  0
LINE
  5
1C8CDE6A8F45
330
1C8CDE699D53
100
AcDbEntity
  8
HATCH
100
AcDbLine
 10
879.8974500509521
 20
955.9077111245233
 30
0.0
 11
906.4147484553904
 21
929.3904127200848
 31
0.0
  0
LINE
  5
1C8CDE6A8F46
330
1C8CDE699D53
100
AcDbEntity
  8
HATCH
100
AcDbLine
 10
887.397450050952
 20
963.4077111245241
 30
0.0
 11
853.3801516465137
 21
929.3904127200848
 31
0.0
  0
LINE
  5
1C8CDE6A8F47
330
1C8CDE699D53
100
AcDbEntity
  8
HATCH
100
AcDbLine
 10
872.3974500509521
 20
963.4077111245241
 30
0.0
 11
838.3801516465137
 21
929.3904127200848
 31
0.0
  0
LINE
  5
1C8CDE6A8F48
330
1C8CDE699D53
100
AcDbEntity
  8
HATCH
100
AcDbLine
 10
857.3974500509521
 20
963.4077111245241
 30
0.0
 11
823.3801516465137
 21
929.3904127200848
 31
0.0
  0
LINE
  5
1C8CDE6A8F49
330
1C8CDE699D53
100
AcDbEntity
  8
SJC
100
AcDbLine
 10
801.4780184903202
 20
963.4077111245241
 30
0.0
 11
1024.158705793397
 21
963.4077111245241
 31
0.0
  0
LINE
  5
1C8CDE6A8FB9
330
1C8CDE699D53
100
AcDbEntity
  8
HATCH
100
AcDbLine
 10
1681.96588288704
 20
963.4077111245241
 30
0.0
 11
1647.948584482601
 21
929.3904127200848
 31
0.0
  0
LINE
  5
1C8CDE6A8FBA
330
1C8CDE699D53
100
AcDbEntity
  8
HATCH
100
AcDbLine
 10
1696.965882887039
 20
963.4077111245241
 30
0.0
 11
1662.948584482601
 21
929.3904127200848
 31
0.0
  0
LINE
  5
1C8CDE6A8FBB
330
1C8CDE699D53
100
AcDbEntity
  8
HATCH
100
AcDbLine
 10
1689.46588288704
 20
955.9077111245233
 30
0.0
 11
1715.983181291478
 21
929.3904127200848
 31
0.0
  0
LINE
  5
1C8CDE6A8FBC
330
1C8CDE699D53
100
AcDbEntity
  8
HATCH
100
AcDbLine
 10
1696.965882887039
 20
963.4077111245241
 30
0.0
 11
1730.983181291478
 21
929.3904127200848
 31
0.0
  0
LINE
  5
1C8CDE6A8FBD
330
1C8CDE699D53
100
AcDbEntity
  8
HATCH
100
AcDbLine
 10
1681.96588288704
 20
948.4077111245232
 30
0.0
 11
1700.983181291478
 21
929.3904127200848
 31
0.0
  0
TEXT
  5
1C8CDE6A8FBE
330
1C8CDE699D53
100
AcDbEntity
  8
MOJI
100
AcDbText
 10
1645.781217974721
 20
974.0822821975161
 30
0.0
 40
30.0
  1
GL
 41
0.8
  7
EXT08
100
AcDbText
  0
LWPOLYLINE
  5
1C8CDE6A8FC0
330
1C8CDE699D53
100
AcDbEntity
  8
HATCH
  6
Continuous
100
AcDbPolyline
 90
       16
 70
     1
 43
0.0
 10
1997.014140867748
 20
513.812311124524
 42
0.138281
 10
2003.458215867748
 20
513.8962161245236
 42
0.107061
 10
2010.703678867749
 20
517.8652471245241
 42
0.08054
 10
2016.271869867747
 20
524.5353121245243
 42
0.068375
 10
2020.234589867747
 20
533.9516801245244
 42
0.068375
 10
2021.510957867747
 20
544.0878541245238
 42
0.08054
 10
2020.023795867748
 20
552.6483951245245
 42
0.107061
 10
2015.733555867748
 20
559.7084091245242
 42
0.138281
 10
2010.194775867747
 20
563.003110124524
 42
0.138281
 10
2003.750700867747
 20
562.9192051245245
 42
0.107061
 10
1996.505236867748
 20
558.9501741245239
 42
0.08054
 10
1990.937045867747
 20
552.2801091245237
 42
0.068375
 10
1986.974325867748
 20
542.8637411245236
 42
0.068375
 10
1985.697958867748
 20
532.7275671245242
 42
0.08054
 10
1987.185120867749
 20
524.1670261245235
 42
0.107061
 10
1991.475360867747
 20
517.1070131245232
 42
0.138281
  0
LINE
  5
1C8CDE6A8FD2
330
1C8CDE699D53
100
AcDbEntity
  8
SJC
  6
Continuous
100
AcDbLine
 10
2090.878279490969
 20
563.4077111245241
 30
0.0
 11
2090.878279490969
 21
513.4077111245241
 31
0.0
  0
LWPOLYLINE
  5
1C8CDE6A8FD3
330
1C8CDE699D53
100
AcDbEntity
  8
HATCH
  6
Continuous
100
AcDbPolyline
 90
       16
 70
     1
 43
0.0
 10
2067.169842867749
 20
513.812311124524
 42
0.138281
 10
2073.613917867749
 20
513.8962161245236
 42
0.107061
 10
2080.859381867748
 20
517.8652471245241
 42
0.08054
 10
2086.427572867748
 20
524.5353121245243
 42
0.068375
 10
2090.390292867748
 20
533.9516801245244
 42
0.068375
 10
2091.666659867748
 20
544.0878541245238
 42
0.08054
 10
2090.179497867747
 20
552.6483951245245
 42
0.107061
 10
2085.889257867749
 20
559.7084091245242
 42
0.138281
 10
2080.350477867748
 20
563.003110124524
 42
0.138281
 10
2073.906402867748
 20
562.9192051245245
 42
0.107061
 10
2066.660939867748
 20
558.9501741245239
 42
0.08054
 10
2061.092748867749
 20
552.2801091245237
 42
0.068375
 10
2057.130028867749
 20
542.8637411245236
 42
0.068375
 10
2055.853660867748
 20
532.7275671245242
 42
0.08054
 10
2057.340822867748
 20
524.1670261245235
 42
0.107061
 10
2061.631062867748
 20
517.1070131245232
 42
0.138281
  0
LWPOLYLINE
  5
1C8CDE6A8FE5
330
1C8CDE699D53
100
AcDbEntity
  8
HATCH
  6
Continuous
100
AcDbPolyline
 90
       16
 70
     1
 43
0.0
 10
1773.47866790645
 20
513.812311124524
 42
0.138281
 10
1779.922741906449
 20
513.8962161245236
 42
0.107061
 10
1787.168205906448
 20
517.8652471245241
 42
0.08054
 10
1792.736396906449
 20
524.5353121245243
 42
0.068375
 10
1796.69911690645
 20
533.9516801245244
 42
0.068375
 10
1797.975484906449
 20
544.0878541245238
 42
0.08054
 10
1796.48832190645
 20
552.6483951245245
 42
0.107061
 10
1792.198081906449
 20
559.7084091245242
 42
0.138281
 10
1786.659302906449
 20
563.003110124524
 42
0.138281
 10
1780.215227906449
 20
562.9192051245245
 42
0.107061
 10
1772.96976390645
 20
558.9501741245239
 42
0.08054
 10
1767.40157290645
 20
552.2801091245237
 42
0.068375
 10
1763.43885290645
 20
542.8637411245236
 42
0.068375
 10
1762.162484906449
 20
532.7275671245242
 42
0.08054
 10
1763.649647906449
 20
524.1670261245235
 42
0.107061
 10
1767.939887906449
 20
517.1070131245232
 42
0.138281
  0
LWPOLYLINE
  5
1C8CDE6A8FF7
330
1C8CDE699D53
100
AcDbEntity
  8
HATCH
  6
Continuous
100
AcDbPolyline
 90
       16
 70
     1
 43
0.0
 10
1738.400964906449
 20
513.812311124524
 42
0.138281
 10
1744.84503990645
 20
513.8962161245236
 42
0.107061
 10
1752.09050390645
 20
517.8652471245241
 42
0.08054
 10
1757.658693906448
 20
524.5353121245243
 42
0.068375
 10
1761.621414906448
 20
533.9516801245244
 42
0.068375
 10
1762.89778190645
 20
544.0878541245238
 42
0.08054
 10
1761.410619906449
 20
552.6483951245245
 42
0.107061
 10
1757.120379906449
 20
559.7084091245242
 42
0.138281
 10
1751.581599906448
 20
563.003110124524
 42
0.138281
 10
1745.137524906448
 20
562.9192051245245
 42
0.107061
 10
1737.892060906449
 20
558.9501741245239
 42
0.08054
 10
1732.323870906449
 20
552.2801091245237
 42
0.068375
 10
1728.361149906449
 20
542.8637411245236
 42
0.068375
 10
1727.084782906448
 20
532.7275671245242
 42
0.08054
 10
1728.57194490645
 20
524.1670261245235
 42
0.107061
 10
1732.862184906448
 20
517.1070131245232
 42
0.138281
  0
LINE
  5
1C8CDE6A9009
330
1C8CDE699D53
100
AcDbEntity
  8
SJC
  6
Continuous
100
AcDbLine
 10
1690.878279490968
 20
563.4077111245241
 30
0.0
 11
1690.878279490968
 21
513.4077111245241
 31
0.0
  0
LWPOLYLINE
  5
1C8CDE6A900A
330
1C8CDE699D53
100
AcDbEntity
  8
HATCH
  6
Continuous
100
AcDbPolyline
 90
       16
 70
     1
 43
0.0
 10
1703.323261906448
 20
513.812311124524
 42
0.138281
 10
1709.767336906449
 20
513.8962161245236
 42
0.107061
 10
1717.012800906449
 20
517.8652471245241
 42
0.08054
 10
1722.580991906449
 20
524.5353121245243
 42
0.068375
 10
1726.543711906449
 20
533.9516801245244
 42
0.068375
 10
1727.820078906449
 20
544.0878541245238
 42
0.08054
 10
1726.33291690645
 20
552.6483951245245
 42
0.107061
 10
1722.04267690645
 20
559.7084091245242
 42
0.138281
 10
1716.503896906449
 20
563.003110124524
 42
0.138281
 10
1710.059821906449
 20
562.9192051245245
 42
0.107061
 10
1702.81435890645
 20
558.9501741245239
 42
0.08054
 10
1697.246167906448
 20
552.2801091245237
 42
0.068375
 10
1693.283447906448
 20
542.8637411245236
 42
0.068375
 10
1692.007079906449
 20
532.7275671245242
 42
0.08054
 10
1693.494241906449
 20
524.1670261245235
 42
0.107061
 10
1697.78448290645
 20
517.1070131245232
 42
0.138281
  0
LINE
  5
1C8CDE6A901C
330
1C8CDE699D53
100
AcDbEntity
  8
SJC
  6
Continuous
100
AcDbLine
 10
2090.878279490969
 20
563.4077111245241
 30
0.0
 11
1690.878279490968
 21
563.4077111245241
 31
0.0
  0
LINE
  5
1C8CDE6A901D
330
1C8CDE699D53
100
AcDbEntity
  8
SJC
  6
Continuous
100
AcDbLine
 10
2090.878279490969
 20
513.4077111245241
 30
0.0
 11
1690.878279490968
 21
513.4077111245241
 31
0.0
  0
LWPOLYLINE
  5
1C8CDE6A901E
330
1C8CDE699D53
100
AcDbEntity
  8
HATCH
  6
Continuous
100
AcDbPolyline
 90
       16
 70
     1
 43
0.0
 10
2032.092140867749
 20
513.812311124524
 42
0.138281
 10
2038.536215867748
 20
513.8962161245236
 42
0.107061
 10
2045.781678867749
 20
517.8652471245241
 42
0.08054
 10
2051.349869867748
 20
524.5353121245243
 42
0.068375
 10
2055.312589867747
 20
533.9516801245244
 42
0.068375
 10
2056.588957867748
 20
544.0878541245238
 42
0.08054
 10
2055.101795867749
 20
552.6483951245245
 42
0.107061
 10
2050.811555867748
 20
559.7084091245242
 42
0.138281
 10
2045.272775867748
 20
563.003110124524
 42
0.138281
 10
2038.828700867748
 20
562.9192051245245
 42
0.107061
 10
2031.583236867748
 20
558.9501741245239
 42
0.08054
 10
2026.015045867748
 20
552.2801091245237
 42
0.068375
 10
2022.052325867749
 20
542.8637411245236
 42
0.068375
 10
2020.775958867748
 20
532.7275671245242
 42
0.08054
 10
2022.26312086775
 20
524.1670261245235
 42
0.107061
 10
2026.553360867748
 20
517.1070131245232
 42
0.138281
  0
LINE
  5
1C8CDE6A9030
330
1C8CDE699D53
100
AcDbEntity
  8
SJC
  6
Continuous
100
AcDbLine
 10
2040.878279490968
 20
563.4077111245241
 30
0.0
 11
2040.878279490968
 21
963.4077111245241
 31
0.0
  0
LINE
  5
1C8CDE6A9031
330
1C8CDE699D53
100
AcDbEntity
  8
SJC
  6
Continuous
100
AcDbLine
 10
1740.878279490968
 20
963.4077111245241
 30
0.0
 11
1740.878279490968
 21
563.4077111245241
 31
0.0
  0
LINE
  5
1C8CDE6A9032
330
1C8CDE699D53
100
AcDbEntity
  8
SJC
100
AcDbLine
 10
1948.027678293687
 20
963.4077111245241
 30
0.0
 11
2175.999085858544
 21
963.4077111245241
 31
0.0
  0
LINE
  5
1C8CDE6A9036
330
1C8CDE699D53
100
AcDbEntity
  8
HATCH
100
AcDbLine
 10
1666.965882887039
 20
963.4077111245241
 30
0.0
 11
1632.948584482601
 21
929.3904127200848
 31
0.0
  0
LINE
  5
1C8CDE6A9037
330
1C8CDE699D53
100
AcDbEntity
  8
SJC
100
AcDbLine
 10
1611.046451326408
 20
963.4077111245241
 30
0.0
 11
1833.727138629485
 21
963.4077111245241
 31
0.0
  0
LINE
  5
1C8CDE6A929E
330
1C8CDE699D53
100
AcDbEntity
  8
HATCH
100
AcDbLine
 10
1951.478259490968
 20
721.6513027708957
 30
0.0
 11
2040.878279490968
 21
811.0513227708947
 31
0.0
  0
LINE
  5
1C8CDE6A929F
330
1C8CDE699D53
100
AcDbEntity
  8
HATCH
100
AcDbLine
 10
1951.478259490968
 20
589.068781298418
 30
0.0
 11
2040.878279490968
 21
678.468801298417
 31
0.0
  0
LINE
  5
1C8CDE6A92A0
330
1C8CDE699D53
100
AcDbEntity
  8
HATCH
100
AcDbLine
 10
1951.478259490968
 20
566.9716943863378
 30
0.0
 11
2040.878279490968
 21
656.3717143863377
 31
0.0
  0
LINE
  5
1C8CDE6A92A1
330
1C8CDE699D53
100
AcDbEntity
  8
HATCH
100
AcDbLine
 10
1970.011363141234
 20
563.4077111245241
 30
0.0
 11
2040.878279490968
 21
634.274627474258
 31
0.0
  0
LINE
  5
1C8CDE6A92A2
330
1C8CDE699D53
100
AcDbEntity
  8
HATCH
100
AcDbLine
 10
1749.040494020438
 20
563.4077111245237
 30
0.0
 11
1830.278319490968
 21
644.6455365950537
 31
0.0
  0
LINE
  5
1C8CDE6A92A3
330
1C8CDE699D53
100
AcDbEntity
  8
HATCH
100
AcDbLine
 10
1771.137580932517
 20
563.4077111245241
 30
0.0
 11
1830.278319490968
 21
622.5484496829742
 31
0.0
  0
LINE
  5
1C8CDE6A92A4
330
1C8CDE699D53
100
AcDbEntity
  8
HATCH
100
AcDbLine
 10
1740.878279490968
 20
864.6047133641687
 30
0.0
 11
1830.278319490968
 21
954.0047533641688
 31
0.0
  0
LINE
  5
1C8CDE6A92A5
330
1C8CDE699D53
100
AcDbEntity
  8
HATCH
100
AcDbLine
 10
1740.878279490968
 20
886.7018002762479
 30
0.0
 11
1815.878279490968
 21
961.7018002762479
 31
0.0
  0
LINE
  5
1C8CDE6A92A6
330
1C8CDE699D53
100
AcDbEntity
  8
HATCH
100
AcDbLine
 10
1740.878279490968
 20
908.7988871883281
 30
0.0
 11
1795.487103427165
 21
963.4077111245233
 31
0.0
  0
LINE
  5
1C8CDE6A92A7
330
1C8CDE699D53
100
AcDbEntity
  8
HATCH
100
AcDbLine
 10
1951.478259490968
 20
743.7483896829746
 30
0.0
 11
2040.878279490968
 21
833.1484096829745
 31
0.0
  0
LINE
  5
1C8CDE6A92A8
330
1C8CDE699D53
100
AcDbEntity
  8
HATCH
100
AcDbLine
 10
1951.478259490968
 20
765.8454765950541
 30
0.0
 11
2040.878279490968
 21
855.2454965950541
 31
0.0
  0
LINE
  5
1C8CDE6A92A9
330
1C8CDE699D53
100
AcDbEntity
  8
HATCH
100
AcDbLine
 10
1790.925376459762
 20
737.8751150363259
 30
0.0
 11
1830.278319490968
 21
777.2280580675316
 31
0.0
  0
LINE
  5
1C8CDE6A92AA
330
1C8CDE699D53
100
AcDbEntity
  8
HATCH
100
AcDbLine
 10
1740.878279490968
 20
709.9251049796111
 30
0.0
 11
1830.278319490968
 21
799.3251449796114
 31
0.0
  0
LINE
  5
1C8CDE6A92AB
330
1C8CDE699D53
100
AcDbEntity
  8
HATCH
100
AcDbLine
 10
1740.878279490968
 20
732.0221918916908
 30
0.0
 11
1830.278319490968
 21
821.4222318916906
 31
0.0
  0
LINE
  5
1C8CDE6A92AC
330
1C8CDE699D53
100
AcDbEntity
  8
HATCH
100
AcDbLine
 10
1740.878279490968
 20
687.8280180675319
 30
0.0
 11
1790.878279490966
 21
737.8280180675301
 31
0.0
  0
LINE
  5
1C8CDE6A92AD
330
1C8CDE699D53
100
AcDbEntity
  8
HATCH
100
AcDbLine
 10
1951.478259490968
 20
721.6513027708953
 30
0.0
 11
1958.702071756399
 21
728.875115036326
 31
0.0
  0
LINE
  5
1C8CDE6A92AE
330
1C8CDE699D53
100
AcDbEntity
  8
HATCH
100
AcDbLine
 10
1951.478259490968
 20
898.4279980675323
 30
0.0
 11
2016.457972547961
 21
963.4077111245241
 31
0.0
  0
LINE
  5
1C8CDE6A92AF
330
1C8CDE699D53
100
AcDbEntity
  8
HATCH
100
AcDbLine
 10
1951.478259490968
 20
942.6221718916913
 30
0.0
 11
1972.2637987238
 21
963.4077111245233
 31
0.0
  0
LINE
  5
1C8CDE6A92B0
330
1C8CDE699D53
100
AcDbEntity
  8
HATCH
100
AcDbLine
 10
1951.478259490968
 20
920.5250849796122
 30
0.0
 11
1994.360885635881
 21
963.4077111245241
 31
0.0
  0
DIMENSION
  5
1C8CDE6A990B
330
1C8CDE699D53
100
AcDbEntity
  8
SUNPOU
100
AcDbDimension
  2
*D1
 10
1281.309846654881
 20
263.4077111245245
 30
0.0
 11
1081.309846654881
 21
290.4077111245245
 31
0.0
 70
    32
  1
□<>
 71
     5
 42
400.0
  3
SJC
100
AcDbAlignedDimension
 13
881.3098466548808
 23
513.4077111245244
 33
0.0
 14
1281.309846654881
 24
513.4077111245244
 34
0.0
100
AcDbRotatedDimension
1001
ACAD
1000
DSTYLE
1002
{
1070
   340
1005
1C8CDE699DA6
1070
   140
1040
3.0
1070
    40
1040
10.0
1070
   147
1040
1.199999999999999
1070
    42
1040
1.0
1070
    44
1040
1.0
1070
    43
1040
6.0
1070
   271
1070
     4
1070
    41
1040
2.0
1002
}
  0
DIMENSION
  5
1C8CDE6A990C
330
1C8CDE699D53
100
AcDbEntity
  8
SUNPOU
100
AcDbDimension
  2
*D0
 10
1231.309846654881
 20
363.4077111245245
 30
0.0
 11
1081.309846654881
 21
390.4077111245245
 31
0.0
 70
    32
  1
□300
 71
     5
 42
300.0
  3
SJC
100
AcDbAlignedDimension
 13
931.3098466548808
 23
513.407711124524
 33
0.0
 14
1231.309846654881
 24
513.407711124524
 34
0.0
100
AcDbRotatedDimension
1001
ACAD
1000
DSTYLE
1002
{
1070
   340
1005
1C8CDE699DA6
1070
   140
1040
3.0
1070
    40
1040
10.0
1070
   147
1040
1.199999999999999
1070
    42
1040
1.0
1070
    44
1040
1.0
1070
    43
1040
6.0
1070
   271
1070
     4
1070
    41
1040
2.0
1002
}
  0
LINE
  5
1C8CDE6A990E
330
1C8CDE699D53
100
AcDbEntity
  8
CENTER
100
AcDbLine
 10
1081.308975625499
 20
2038.029585387874
 30
0.0
 11
1081.308975625499
 21
2193.429585387875
 31
0.0
  0
LINE
  5
1C8CDE6A9910
330
1C8CDE699D53
100
AcDbEntity
  8
CENTER
100
AcDbLine
 10
1003.608975625498
 20
2115.729585387875
 30
0.0
 11
1159.008975625498
 21
2115.729585387875
 31
0.0
  0
POINT
  5
1C8CDE6A991A
330
1C8CDE699D53
100
AcDbEntity
  8
DEFPOINTS
  6
ByBlock
 62
     0
100
AcDbPoint
 10
1081.308975625499
 20
2115.729585387875
 30
0.0
  0
LINE
  5
1C8CDE6AA71B
102
{ACAD_REACTORS
330
1C8CDE6AC707
102
}
330
1C8CDE699D53
100
AcDbEntity
  8
CENTER
100
AcDbLine
 10
1081.309846654881
 20
468.2457429969481
 30
0.0
 11
1081.309846654881
 21
1916.610861205601
 31
0.0
  0
TEXT
  5
1C8CDE6AA808
330
1C8CDE699D53
100
AcDbEntity
  8
MOJI2
  6
Continuous
100
AcDbText
 10
884.7375470540709
 20
2340.834209955682
 30
0.0
 40
40.0
  1
CK-114HR-90D
 41
0.8
  7
KANJI
 72
     1
 11
1081.308975625499
 21
2340.834209955682
 31
0.0
100
AcDbText
  0
LINE
  5
1C8CDE6AA809
330
1C8CDE699D53
100
AcDbEntity
  8
MOJI2
100
AcDbLine
 10
886.3089756254995
 20
2329.121390402812
 30
0.0
 11
1276.308975625499
 21
2329.121390402812
 31
0.0
  0
LINE
  5
1C8CDE6AA80A
330
1C8CDE699D53
100
AcDbEntity
  8
MOJI2
100
AcDbLine
 10
886.3089756254995
 20
2319.121390402813
 30
0.0
 11
1276.308975625499
 21
2319.121390402813
 31
0.0
  0
LINE
  5
1C8CDE6AA89A
102
{ACAD_REACTORS
330
1C8CDE6AC716
102
}
330
1C8CDE699D53
100
AcDbEntity
  8
CENTER
100
AcDbLine
 10
1890.877678293687
 20
1916.610861205601
 30
0.0
 11
1890.877678293687
 21
468.3591450614808
 31
0.0
  0
LINE
  5
1C8CDE6AB2BD
330
1C8CDE699D53
100
AcDbEntity
  8
MOJI
  6
Continuous
100
AcDbLine
 10
630.2995354218914
 20
1304.772868416377
 30
0.0
 11
935.8499616675684
 21
1304.772868416377
 31
0.0
  0
TEXT
  5
1C8CDE6AB2BE
330
1C8CDE699D53
100
AcDbEntity
  8
MOJI
100
AcDbText
 10
633.9946400601179
 20
1316.215350416224
 30
0.0
 40
30.0
  1
支柱%%C114.3\U+00D7t4.5
 41
0.8
  7
EXT08
100
AcDbText
  0
DIMENSION
  5
1C8CDE6AB795
330
1C8CDE699D53
100
AcDbEntity
  8
SUNPOU
100
AcDbDimension
  2
*D4
 10
1406.310717684262
 20
563.407702183824
 30
0.0
 11
1379.310717684262
 21
763.4077066541742
 31
0.0
 70
    32
 71
     5
 42
400.0000089407
  3
SJC
100
AcDbAlignedDimension
 13
1272.054771204551
 23
963.4077111245241
 33
0.0
 14
1278.809849169382
 24
563.407702183824
 34
0.0
 50
90.0
100
AcDbRotatedDimension
1001
ACAD
1000
DSTYLE
1002
{
1070
   340
1005
1C8CDE699DA6
1070
   140
1040
3.0
1070
    40
1040
10.0
1070
   147
1040
1.199999999999999
1070
    42
1040
1.0
1070
    44
1040
1.0
1070
    43
1040
6.0
1070
   271
1070
     4
1070
    41
1040
2.0
1002
}
  0
DIMENSION
  5
1C8CDE6AB796
330
1C8CDE699D53
100
AcDbEntity
  8
SUNPOU
100
AcDbDimension
  2
*D2
 10
1481.310717684262
 20
513.407711124524
 30
0.0
 11
1453.660551341521
 21
540.6947962026138
 31
0.0
 70
   160
 71
     5
 42
49.9999910593001
  3
SJC
100
AcDbAlignedDimension
 13
1288.809849169382
 23
563.407702183824
 33
0.0
 14
1281.308975625499
 24
513.407711124524
 34
0.0
 50
270.0
100
AcDbRotatedDimension
1001
ACAD
1000
DSTYLE
1002
{
1070
   340
1005
1C8CDE699DA6
1070
   140
1040
3.0
1070
    40
1040
10.0
1070
   147
1040
1.199999999999999
1070
    42
1040
1.0
1070
    44
1040
1.0
1070
    43
1040
6.0
1070
   271
1070
     4
1070
    41
1040
2.0
1002
}
  0
DIMENSION
  5
1C8CDE6AB797
330
1C8CDE699D53
100
AcDbEntity
  8
SUNPOU
100
AcDbDimension
  2
*D3
 10
1331.310717684263
 20
963.4077111245241
 30
0.0
 11
1308.267683326948
 21
1013.407711124524
 31
0.0
 70
   160
 71
     5
 42
99.99999999999955
  3
SJC
100
AcDbAlignedDimension
 13
1160.095684224936
 23
1063.407711124524
 33
0.0
 14
1272.054771204551
 24
963.4077111245241
 34
0.0
 50
90.0
100
AcDbRotatedDimension
1001
ACAD
1000
DSTYLE
1002
{
1070
    40
1040
10.0
1070
    41
1040
2.0
1070
    42
1040
1.0
1070
    43
1040
6.0
1070
    44
1040
1.0
1070
    77
1070
     0
1070
   140
1040
3.0
1070
   145
1040
1.0
1070
   147
1040
0.0
1070
   271
1070
     2
1070
   340
1005
1C8CDE699DA6
1002
}
  0
LINE
  5
1C8CDE6AB798
330
1C8CDE699D53
100
AcDbEntity
  8
SJC
100
AcDbLine
 10
1138.460116486981
 20
963.4077111245241
 30
0.0
 11
1272.055642233932
 21
963.4077111245241
 31
0.0
  0
LINE
  5
1C8CDE6AB799
330
1C8CDE699D53
100
AcDbEntity
  8
MOJI
100
AcDbLine
 10
932.0990892383584
 20
1144.47817299985
 30
0.0
 11
637.5834174187625
 21
1144.47817299985
 31
0.0
  0
TEXT
  5
1C8CDE6AB79A
330
1C8CDE699D53
100
AcDbEntity
  8
MOJI
100
AcDbText
 10
644.3039524898219
 20
1154.47817299985
 30
0.0
 40
30.0
  1
ロックピン（南京錠付）
 41
0.8
  7
EXT08
 72
     2
 11
937.9039524898221
 21
1169.47817299985
 31
0.0
100
AcDbText
 73
     2
  0
TEXT
  5
1C8CDE6AB79B
330
1C8CDE699D53
100
AcDbEntity
  8
MOJI
100
AcDbText
 10
665.1105234085523
 20
1106.666506870869
 30
0.0
 40
30.0
  1
（%%C14貫通穴）
 41
0.8
  7
EXT08
 72
     2
 11
853.3390948371238
 21
1121.666506870869
 31
0.0
100
AcDbText
 73
     2
  0
LINE
  5
1C8CDE6AB7A1
330
1C8CDE699D53
100
AcDbEntity
  8
SJC2
100
AcDbLine
 10
1017.546509967238
 20
1045.75085040039
 30
0.0
 11
1017.546509967238
 21
1062.41636340039
 31
0.0
  0
LINE
  5
1C8CDE6AB7A2
330
1C8CDE699D53
100
AcDbEntity
  8
SJC2
100
AcDbLine
 10
1020.546509967238
 20
1045.75085040039
 30
0.0
 11
1020.546509967238
 21
1062.41636340039
 31
0.0
  0
CIRCLE
  5
1C8CDE6AB7A3
330
1C8CDE699D53
100
AcDbEntity
  8
SJC2
100
AcDbCircle
 10
1019.095684224936
 20
1063.407711124524
 30
0.0
 40
4.0
  0
LINE
  5
1C8CDE6AB7A4
330
1C8CDE699D53
100
AcDbEntity
  8
SJC2
100
AcDbLine
 10
1012.095684224936
 20
1057.407711124524
 30
0.0
 11
1012.095684224936
 21
1069.407711124524
 31
0.0
  0
LINE
  5
1C8CDE6AB7A5
330
1C8CDE699D53
100
AcDbEntity
  8
SJC2
100
AcDbLine
 10
1012.095684224936
 20
1057.407711124524
 30
0.0
 11
1023.149211393227
 21
1057.407711124524
 31
0.0
  0
LINE
  5
1C8CDE6AB7A6
330
1C8CDE699D53
100
AcDbEntity
  8
SJC2
100
AcDbLine
 10
1021.546509967238
 20
1045.75085040039
 30
0.0
 11
1016.546509967238
 21
1045.75085040039
 31
0.0
  0
LINE
  5
1C8CDE6AB7A7
330
1C8CDE699D53
100
AcDbEntity
  8
HASEN
100
AcDbLine
 10
1024.15957682278
 20
1057.407711124524
 30
0.0
 11
1023.149211393227
 21
1057.407711124524
 31
0.0
  0
LINE
  5
1C8CDE6AB7A8
330
1C8CDE699D53
100
AcDbEntity
  8
SJC2
100
AcDbLine
 10
1016.546509967238
 20
1020.75085040039
 30
0.0
 11
1021.546509967238
 21
1020.75085040039
 31
0.0
  0
LINE
  5
1C8CDE6AB7A9
330
1C8CDE699D53
100
AcDbEntity
  8
SJC2
100
AcDbLine
 10
1021.546509967238
 20
1020.75085040039
 30
0.0
 11
1021.546509967238
 21
1045.75085040039
 31
0.0
  0
LINE
  5
1C8CDE6AB7AA
330
1C8CDE699D53
100
AcDbEntity
  8
SJC2
100
AcDbLine
 10
1016.546509967238
 20
1020.75085040039
 30
0.0
 11
1016.546509967238
 21
1045.75085040039
 31
0.0
  0
LINE
  5
1C8CDE6AB7AB
330
1C8CDE699D53
100
AcDbEntity
  8
SJC2
100
AcDbLine
 10
1012.095684224936
 20
1069.407711124524
 30
0.0
 11
1023.149211393227
 21
1069.407711124524
 31
0.0
  0
ARC
  5
1C8CDE6AB7AC
330
1C8CDE699D53
100
AcDbEntity
  8
SJC2
100
AcDbCircle
 10
1019.046509967238
 20
1062.24058640039
 30
0.0
 40
1.510264
100
AcDbArc
 50
6.683733
 51
173.316267
  0
LINE
  5
1C8CDE6AB7AD
330
1C8CDE699D53
100
AcDbEntity
  8
HASEN
100
AcDbLine
 10
1023.149211393227
 20
1069.407711124524
 30
0.0
 11
1024.15957682278
 21
1069.407711124524
 31
0.0
  0
LINE
  5
1C8CDE6AB7AE
330
1C8CDE699D53
100
AcDbEntity
  8
HASEN
100
AcDbLine
 10
1138.460116486983
 20
1057.407711124524
 30
0.0
 11
1024.15957682278
 21
1057.407711124524
 31
0.0
  0
LINE
  5
1C8CDE6AB7AF
330
1C8CDE699D53
100
AcDbEntity
  8
HASEN
100
AcDbLine
 10
1138.460116486983
 20
1069.407711124524
 30
0.0
 11
1024.15957682278
 21
1069.407711124524
 31
0.0
  0
LINE
  5
1C8CDE6AB7B0
330
1C8CDE699D53
100
AcDbEntity
  8
SJC2
100
AcDbLine
 10
1160.095684224936
 20
1054.157711124523
 30
0.0
 11
1160.095684224936
 21
1072.657711124524
 31
0.0
  0
LINE
  5
1C8CDE6AB7B1
330
1C8CDE699D53
100
AcDbEntity
  8
SJC2
100
AcDbLine
 10
1158.595684224936
 20
1052.157711124524
 30
0.0
 11
1158.595684224936
 21
1074.657711124524
 31
0.0
  0
LINE
  5
1C8CDE6AB7B2
330
1C8CDE699D53
100
AcDbEntity
  8
SJC2
100
AcDbLine
 10
1152.095684224936
 20
1052.157711124524
 30
0.0
 11
1152.095684224936
 21
1074.657711124524
 31
0.0
  0
LINE
  5
1C8CDE6AB7B3
330
1C8CDE699D53
100
AcDbEntity
  8
SJC2
100
AcDbLine
 10
1158.595684224936
 20
1052.157711124524
 30
0.0
 11
1160.095684224936
 21
1054.157711124524
 31
0.0
  0
LINE
  5
1C8CDE6AB7B4
330
1C8CDE699D53
100
AcDbEntity
  8
SJC2
100
AcDbLine
 10
1152.095684224936
 20
1057.407711124524
 30
0.0
 11
1151.090943575982
 21
1057.407711124524
 31
0.0
  0
LINE
  5
1C8CDE6AB7B5
330
1C8CDE699D53
100
AcDbEntity
  8
SJC2
100
AcDbLine
 10
1158.595684224936
 20
1052.157711124524
 30
0.0
 11
1152.095684224936
 21
1052.157711124524
 31
0.0
  0
LINE
  5
1C8CDE6AB7B6
330
1C8CDE699D53
100
AcDbEntity
  8
HASEN
100
AcDbLine
 10
1138.460116486983
 20
1057.407711124524
 30
0.0
 11
1151.090943575982
 21
1057.407711124524
 31
0.0
  0
LINE
  5
1C8CDE6AB7B7
330
1C8CDE699D53
100
AcDbEntity
  8
SJC2
100
AcDbLine
 10
1143.511506331344
 20
1084.253971053609
 30
0.0
 11
1145.794622653563
 21
1082.645501663408
 31
0.0
  0
ARC
  5
1C8CDE6AB7B8
330
1C8CDE699D53
100
AcDbEntity
  8
SJC2
100
AcDbCircle
 10
1144.087312481936
 20
1085.071401933464
 30
0.0
 40
1.0
100
AcDbArc
 50
189.8357838414962
 51
234.8357938414963
  0
LINE
  5
1C8CDE6AB7B9
330
1C8CDE699D53
100
AcDbEntity
  8
SJC2
100
AcDbLine
 10
1141.208582094912
 20
1095.823469226428
 30
0.0
 11
1143.102133473347
 21
1084.90057367867
 31
0.0
  0
LINE
  5
1C8CDE6AB7BA
330
1C8CDE699D53
100
AcDbEntity
  8
SJC2
100
AcDbLine
 10
1139.238023187816
 20
1095.481819292626
 30
0.0
 11
1141.208582094912
 21
1095.823469226428
 31
0.0
  0
ARC
  5
1C8CDE6AB7BB
330
1C8CDE699D53
100
AcDbEntity
  8
SJC2
100
AcDbCircle
 10
1144.354725566365
 20
1080.601638287378
 30
0.0
 40
2.5
100
AcDbArc
 50
9.83578404149626
 51
54.83578484149627
  0
LINE
  5
1C8CDE6AB7BC
330
1C8CDE699D53
100
AcDbEntity
  8
SJC2
100
AcDbLine
 10
1158.595684224936
 20
1074.657711124524
 30
0.0
 11
1160.095684224936
 21
1072.657711124524
 31
0.0
  0
LINE
  5
1C8CDE6AB7BD
330
1C8CDE699D53
100
AcDbEntity
  8
SJC2
100
AcDbLine
 10
1152.095684224936
 20
1069.407711124524
 30
0.0
 11
1149.829708162696
 21
1069.407711124524
 31
0.0
  0
LINE
  5
1C8CDE6AB7BE
330
1C8CDE699D53
100
AcDbEntity
  8
SJC2
100
AcDbLine
 10
1158.595684224936
 20
1074.657711124524
 30
0.0
 11
1152.095684224936
 21
1074.657711124524
 31
0.0
  0
LINE
  5
1C8CDE6AB7BF
330
1C8CDE699D53
100
AcDbEntity
  8
HASEN
100
AcDbLine
 10
1138.460116486983
 20
1069.407711124524
 30
0.0
 11
1149.829708162696
 21
1069.407711124524
 31
0.0
  0
LINE
  5
1C8CDE6AB7C0
330
1C8CDE699D53
100
AcDbEntity
  8
SJC2
100
AcDbLine
 10
1141.208625876354
 20
1095.823469763029
 30
0.0
 11
1163.719753518595
 21
965.9817382370356
 31
0.0
  0
LINE
  5
1C8CDE6AB7C1
330
1C8CDE699D53
100
AcDbEntity
  8
SJC2
100
AcDbLine
 10
1139.238023187816
 20
1095.481819292626
 30
0.0
 11
1161.811791373413
 21
965.2787839375887
 31
0.0
  0
LINE
  5
1C8CDE6AB7C2
330
1C8CDE699D53
100
AcDbEntity
  8
SJC2
100
AcDbLine
 10
1146.818271074797
 20
1081.028759040197
 30
0.0
 11
1164.407057345536
 21
979.577584593645
 31
0.0
  0
LINE
  5
1C8CDE6AB7C3
330
1C8CDE699D53
100
AcDbEntity
  8
SJC2
100
AcDbLine
 10
1161.963928170911
 20
976.1091475353891
 30
0.0
 11
1164.407116573864
 21
979.5773321190079
 31
0.0
  0
LINE
  5
1C8CDE6AB7C4
330
1C8CDE699D53
100
AcDbEntity
  8
SJC2
100
AcDbLine
 10
1164.407057345536
 20
979.577584593645
 30
0.0
 11
1168.200367341806
 21
963.4077111245241
 31
0.0
  0
ARC
  5
1C8CDE6AB7C5
330
1C8CDE699D53
100
AcDbEntity
  8
SJC2
100
AcDbCircle
 10
1175.009806654881
 20
945.8903111245243
 30
0.0
 40
4.3000002
100
AcDbArc
 50
300.0
 51
0.0
  0
LINE
  5
1C8CDE6AB7C6
330
1C8CDE699D53
100
AcDbEntity
  8
SJC2
100
AcDbLine
 10
1139.909826654881
 20
955.4077111245241
 30
0.0
 11
1139.909826654881
 21
921.5410511245243
 31
0.0
  0
LINE
  5
1C8CDE6AB7C7
330
1C8CDE699D53
100
AcDbEntity
  8
SJC2
100
AcDbLine
 10
1139.909826654881
 20
921.5410511245243
 30
0.0
 11
1141.909826654881
 21
921.5410511245243
 31
0.0
  0
LINE
  5
1C8CDE6AB7C8
330
1C8CDE699D53
100
AcDbEntity
  8
SJC2
100
AcDbLine
 10
1141.435706654881
 20
921.5410511245243
 30
0.0
 11
1177.15994665488
 21
942.1664311245242
 31
0.0
  0
LINE
  5
1C8CDE6AB7C9
330
1C8CDE699D53
100
AcDbEntity
  8
SJC2
100
AcDbLine
 10
1014.193526654881
 20
955.4077111245241
 30
0.0
 11
1146.92618665488
 21
955.4077111245241
 31
0.0
  0
LINE
  5
1C8CDE6AB7CA
330
1C8CDE699D53
100
AcDbEntity
  8
SJC
100
AcDbLine
 10
1024.15957682278
 20
963.4077111245241
 30
0.0
 11
1138.460116486982
 21
963.4077111245241
 31
0.0
  0
LINE
  5
1C8CDE6AB7CB
330
1C8CDE699D53
100
AcDbEntity
  8
SJC2
100
AcDbLine
 10
1006.309846654881
 20
961.4077111245242
 30
0.0
 11
1181.309846654881
 21
961.4077111245242
 31
0.0
  0
LINE
  5
1C8CDE6AB7CC
330
1C8CDE699D53
100
AcDbEntity
  8
SJC
100
AcDbLine
 10
1006.309846654881
 20
963.4077111245241
 30
0.0
 11
1181.309846654881
 21
963.4077111245241
 31
0.0
  0
ARC
  5
1C8CDE6AB7CD
330
1C8CDE699D53
100
AcDbEntity
  8
SJC2
100
AcDbCircle
 10
1014.193526654881
 20
957.9077111245242
 30
0.0
 40
2.5
100
AcDbArc
 50
195.00001
 51
270.0
  0
LINE
  5
1C8CDE6AB7CE
330
1C8CDE699D53
100
AcDbEntity
  8
SJC2
100
AcDbLine
 10
1010.86612665488
 20
960.6665711245241
 30
0.0
 11
1011.77872665488
 21
957.2606511245242
 31
0.0
  0
ARC
  5
1C8CDE6AB7CF
330
1C8CDE699D53
100
AcDbEntity
  8
SJC2
100
AcDbCircle
 10
1009.90018665488
 20
960.4077111245242
 30
0.0
 40
1.0
100
AcDbArc
 50
15.0
 51
90.00000300000001
  0
LINE
  5
1C8CDE6AB7D0
330
1C8CDE699D53
100
AcDbEntity
  8
SJC2
100
AcDbLine
 10
1006.309846654881
 20
963.4077111245241
 30
0.0
 11
1006.309846654881
 21
961.4077111245242
 31
0.0
  0
ARC
  5
1C8CDE6AB7D1
330
1C8CDE699D53
100
AcDbEntity
  8
SJC2
100
AcDbCircle
 10
1164.951380198932
 20
966.1952697810376
 30
0.0
 40
1.25
100
AcDbArc
 50
189.8358034297691
 51
241.9705543628765
  0
LINE
  5
1C8CDE6AB7D2
330
1C8CDE699D53
100
AcDbEntity
  8
SJC2
100
AcDbLine
 10
1164.363973613776
 20
965.0918870261808
 30
0.0
 11
1166.626813677271
 21
963.8872215113334
 31
0.0
  0
ARC
  5
1C8CDE6AB7D3
330
1C8CDE699D53
100
AcDbEntity
  8
SJC2
100
AcDbCircle
 10
1164.274743845268
 20
965.7057807403415
 30
0.0
 40
2.5
100
AcDbArc
 50
189.8357838414962
 51
235.903030728778
  0
LINE
  5
1C8CDE6AB7D4
330
1C8CDE699D53
100
AcDbEntity
  8
HASEN
100
AcDbLine
 10
1167.527105794904
 20
963.407711124524
 30
0.0
 11
1166.626813677271
 21
963.8872215113334
 31
0.0
  0
CIRCLE
  5
1C8CDE6AB7D5
330
1C8CDE699D53
100
AcDbEntity
  8
HASEN
100
AcDbCircle
 10
1159.809846654881
 20
953.4077111245242
 30
0.0
 40
2.6
  0
LINE
  5
1C8CDE6AB7D6
330
1C8CDE699D53
100
AcDbEntity
  8
SJC2
100
AcDbLine
 10
1179.309846654881
 20
961.4077111245242
 30
0.0
 11
1179.309846654881
 21
945.8903111245243
 31
0.0
  0
ARC
  5
1C8CDE6AB7D7
330
1C8CDE699D53
100
AcDbEntity
  8
SJC2
100
AcDbCircle
 10
1151.21952665488
 20
960.4077111245242
 30
0.0
 40
1.0
100
AcDbArc
 50
90.00000300000001
 51
164.99999
  0
LINE
  5
1C8CDE6AB7D8
330
1C8CDE699D53
100
AcDbEntity
  8
SJC2
100
AcDbLine
 10
1150.25370665488
 20
960.6664911245241
 30
0.0
 11
1149.34110665488
 21
957.2606511245242
 31
0.0
  0
ARC
  5
1C8CDE6AB7D9
330
1C8CDE699D53
100
AcDbEntity
  8
SJC2
100
AcDbCircle
 10
1151.219446654882
 20
960.4077111245242
 30
0.0
 40
1.0
100
AcDbArc
 50
90.00000300000001
 51
164.99999
  0
ARC
  5
1C8CDE6AB7DA
330
1C8CDE699D53
100
AcDbEntity
  8
SJC2
100
AcDbCircle
 10
1146.92618665488
 20
957.9077111245242
 30
0.0
 40
2.5
100
AcDbArc
 50
270.0
 51
345.0
  0
LINE
  5
1C8CDE6AB7DB
330
1C8CDE699D53
100
AcDbEntity
  8
SJC2
100
AcDbLine
 10
1181.309846654881
 20
963.4077111245241
 30
0.0
 11
1181.309846654881
 21
961.4077111245242
 31
0.0
  0
LINE
  5
1C8CDE6AB7DC
330
1C8CDE699D53
100
AcDbEntity
  8
HATCH
100
AcDbLine
 10
1179.309846654881
 20
957.9242339502293
 30
0.0
 11
1184.793323829175
 21
963.4077111245241
 31
0.0
  0
LINE
  5
1C8CDE6AB7DD
330
1C8CDE699D53
100
AcDbEntity
  8
HASEN
100
AcDbLine
 10
1140.30982665488
 20
921.8148111245243
 30
0.0
 11
1140.30982665488
 21
563.4077111245241
 31
0.0
  0
LINE
  5
1C8CDE6AB7DE
330
1C8CDE699D53
100
AcDbEntity
  8
SJC2
100
AcDbLine
 10
1138.460116486983
 20
963.4077111245245
 30
0.0
 11
1138.460116486983
 21
563.4077111245241
 31
0.0
  0
LINE
  5
1C8CDE6AB7DF
330
1C8CDE699D53
100
AcDbEntity
  8
SJC2
100
AcDbLine
 10
1141.909826654881
 20
921.8148111245243
 30
0.0
 11
1141.909826654881
 21
563.4077111245241
 31
0.0
  0
LINE
  5
1C8CDE6AB7E0
330
1C8CDE699D53
100
AcDbEntity
  8
HASEN
100
AcDbLine
 10
1022.30988665488
 20
955.4077111245241
 30
0.0
 11
1022.30988665488
 21
563.4077111245241
 31
0.0
  0
LINE
  5
1C8CDE6AB7E1
330
1C8CDE699D53
100
AcDbEntity
  8
SJC2
100
AcDbLine
 10
1024.15957682278
 20
963.4077111245245
 30
0.0
 11
1024.15957682278
 21
563.4077111245241
 31
0.0
  0
LINE
  5
1C8CDE6AB7E2
330
1C8CDE699D53
100
AcDbEntity
  8
SJC2
100
AcDbLine
 10
1020.70988665488
 20
955.4077111245241
 30
0.0
 11
1020.70988665488
 21
563.4077111245241
 31
0.0
  0
LINE
  5
1C8CDE6AB7E3
330
1C8CDE699D53
100
AcDbEntity
  8
SJC2
100
AcDbLine
 10
1018.809846654881
 20
563.4076911245243
 30
0.0
 11
1143.809846654881
 21
563.4076911245243
 31
0.0
  0
LINE
  5
1C8CDE6AB7E4
330
1C8CDE699D53
100
AcDbEntity
  8
SJC2
100
AcDbLine
 10
1018.809846654881
 20
561.8077111245242
 30
0.0
 11
1143.809846654881
 21
561.8077111245242
 31
0.0
  0
LINE
  5
1C8CDE6AB7E5
330
1C8CDE699D53
100
AcDbEntity
  8
SJC2
100
AcDbLine
 10
1018.809846654881
 20
563.4076911245243
 30
0.0
 11
1018.809846654881
 21
561.8077111245242
 31
0.0
  0
LINE
  5
1C8CDE6AB7E6
330
1C8CDE699D53
100
AcDbEntity
  8
SJC2
100
AcDbLine
 10
1143.809846654881
 20
563.4076911245243
 30
0.0
 11
1143.809846654881
 21
561.8077111245242
 31
0.0
  0
CIRCLE
  5
1C8CDE6AB858
330
1C8CDE699D53
100
AcDbEntity
  8
SJC2
100
AcDbCircle
 10
1890.878279490969
 20
1063.521122129757
 30
0.0
 40
11.25
  0
CIRCLE
  5
1C8CDE6AB859
330
1C8CDE699D53
100
AcDbEntity
  8
SJC2
100
AcDbCircle
 10
1890.878279490969
 20
1063.521122129757
 30
0.0
 40
9.249999999999772
  0
ARC
  5
1C8CDE6AB85A
330
1C8CDE699D53
100
AcDbEntity
  8
SJC2
100
AcDbCircle
 10
1890.878279490966
 20
1029.389206605825
 30
0.0
 40
66.54767362583673
100
AcDbArc
 50
2.168883442014078
 51
177.8311165579858
  0
ARC
  5
1C8CDE6AB85B
330
1C8CDE699D53
100
AcDbEntity
  8
SJC2
100
AcDbCircle
 10
1890.878279490966
 20
1029.379640498218
 30
0.0
 40
55.05807062631134
100
AcDbArc
 50
2.631743565752763
 51
177.368256434247
  0
ARC
  5
1C8CDE6AB85C
330
1C8CDE699D53
100
AcDbEntity
  8
SJC2
100
AcDbCircle
 10
1890.878279490965
 20
1029.350344585632
 30
0.0
 40
52.06284782466878
100
AcDbArc
 50
2.815545131476595
 51
177.184454868523
  0
ARC
  5
1C8CDE6AB85D
330
1C8CDE699D53
100
AcDbEntity
  8
SJC2
100
AcDbCircle
 10
1907.511149490968
 20
972.180429124524
 30
0.0
 40
10.0
100
AcDbArc
 50
105.56145
 51
164.99999
  0
LINE
  5
1C8CDE6AB85E
330
1C8CDE699D53
100
AcDbEntity
  8
SJC2
100
AcDbLine
 10
1895.507549490968
 20
966.0195501245238
 30
0.0
 11
1900.379929490967
 21
966.0195501245238
 31
0.0
  0
LINE
  5
1C8CDE6AB85F
330
1C8CDE699D53
100
AcDbEntity
  8
SJC2
100
AcDbLine
 10
1877.299241770163
 20
943.0714508410604
 30
0.0
 11
1904.457317211774
 21
943.0714508410604
 31
0.0
  0
LINE
  5
1C8CDE6AB860
330
1C8CDE699D53
100
AcDbEntity
  8
SJC2
100
AcDbLine
 10
1823.761959490968
 20
955.4077111245241
 30
0.0
 11
1957.994599490968
 21
955.4077111245241
 31
0.0
  0
LINE
  5
1C8CDE6AB861
330
1C8CDE699D53
100
AcDbEntity
  8
SJC2
100
AcDbLine
 10
1815.878279490968
 20
961.4077111245242
 30
0.0
 11
1965.878279490968
 21
961.4077111245242
 31
0.0
  0
LINE
  5
1C8CDE6AB862
330
1C8CDE699D53
100
AcDbEntity
  8
SJC2
100
AcDbLine
 10
1815.878279490968
 20
963.4077111245241
 30
0.0
 11
1965.878279490968
 21
963.4077111245241
 31
0.0
  0
ARC
  5
1C8CDE6AB863
330
1C8CDE699D53
100
AcDbEntity
  8
SJC2
100
AcDbCircle
 10
1890.878279490968
 20
1031.907711124524
 30
0.0
 40
52.0
100
AcDbArc
 50
180.0
 51
0.0
  0
LINE
  5
1C8CDE6AB864
330
1C8CDE699D53
100
AcDbEntity
  8
HASEN
100
AcDbLine
 10
1898.31819784212
 20
1055.082513540172
 30
0.0
 11
1898.323620377021
 21
1065.841535825718
 31
0.0
  0
LINE
  5
1C8CDE6AB865
330
1C8CDE699D53
100
AcDbEntity
  8
HASEN
100
AcDbLine
 10
1883.438361139819
 20
1055.082513540173
 30
0.0
 11
1883.432938604918
 21
1065.841535825718
 31
0.0
  0
ARC
  5
1C8CDE6AB866
330
1C8CDE699D53
100
AcDbEntity
  8
SJC2
100
AcDbCircle
 10
1890.878279490968
 20
1031.907711124524
 30
0.0
 40
55.0
100
AcDbArc
 50
180.0
 51
261.44989
  0
ARC
  5
1C8CDE6AB867
330
1C8CDE699D53
100
AcDbEntity
  8
SJC2
100
AcDbCircle
 10
1890.878279490968
 20
1031.907711124524
 30
0.0
 40
66.5
100
AcDbArc
 50
180.0
 51
261.48038
  0
ARC
  5
1C8CDE6AB868
330
1C8CDE699D53
100
AcDbEntity
  8
SJC2
100
AcDbCircle
 10
1819.468619490968
 20
960.4077111245242
 30
0.0
 40
1.0
100
AcDbArc
 50
15.0
 51
90.00000300000001
  0
ARC
  5
1C8CDE6AB869
330
1C8CDE699D53
100
AcDbEntity
  8
SJC2
100
AcDbCircle
 10
1823.761959490968
 20
957.9077111245242
 30
0.0
 40
2.5
100
AcDbArc
 50
195.00001
 51
270.0
  0
LINE
  5
1C8CDE6AB86A
330
1C8CDE699D53
100
AcDbEntity
  8
SJC2
100
AcDbLine
 10
1820.434559490968
 20
960.6665711245241
 30
0.0
 11
1821.347159490968
 21
957.2606511245242
 31
0.0
  0
LINE
  5
1C8CDE6AB86B
330
1C8CDE699D53
100
AcDbEntity
  8
SJC2
100
AcDbLine
 10
1815.878279490968
 20
963.4077111245241
 30
0.0
 11
1815.878279490968
 21
961.4077111245242
 31
0.0
  0
LINE
  5
1C8CDE6AB86C
330
1C8CDE699D53
100
AcDbEntity
  8
SJC2
100
AcDbLine
 10
1897.851849490967
 20
974.7686251245241
 30
0.0
 11
1894.946399490968
 21
963.925349124524
 31
0.0
  0
ARC
  5
1C8CDE6AB86D
330
1C8CDE699D53
100
AcDbEntity
  8
SJC2
100
AcDbCircle
 10
1896.878279490968
 20
963.4077111245241
 30
0.0
 40
2.0
100
AcDbArc
 50
164.99999
 51
180.0
  0
ARC
  5
1C8CDE6AB86E
330
1C8CDE699D53
100
AcDbEntity
  8
SJC2
100
AcDbCircle
 10
1880.878279490968
 20
965.1525611245242
 30
0.0
 40
1.0
100
AcDbArc
 50
0.0000025044777
 51
81.48038000000001
  0
ARC
  5
1C8CDE6AB86F
330
1C8CDE699D53
100
AcDbEntity
  8
SJC2
100
AcDbCircle
 10
1874.245409490968
 20
972.180429124524
 30
0.0
 40
10.0
100
AcDbArc
 50
15.0
 51
74.43854300000001
  0
LINE
  5
1C8CDE6AB870
330
1C8CDE699D53
100
AcDbEntity
  8
SJC2
100
AcDbLine
 10
1883.904709490968
 20
974.7686271245243
 30
0.0
 11
1886.810159490968
 21
963.925352124524
 31
0.0
  0
LINE
  5
1C8CDE6AB871
330
1C8CDE699D53
100
AcDbEntity
  8
SJC2
100
AcDbLine
 10
1881.376629490968
 20
966.0195501245238
 30
0.0
 11
1886.249009490968
 21
966.0195501245238
 31
0.0
  0
ARC
  5
1C8CDE6AB872
330
1C8CDE699D53
100
AcDbEntity
  8
SJC2
100
AcDbCircle
 10
1884.878279490968
 20
963.4077111245241
 30
0.0
 40
2.0
100
AcDbArc
 50
0.0
 51
15.0
  0
LINE
  5
1C8CDE6AB873
330
1C8CDE699D53
100
AcDbEntity
  8
SJC2
100
AcDbLine
 10
1881.878279490968
 20
965.1525611245242
 30
0.0
 11
1881.878279490968
 21
963.4077111245241
 31
0.0
  0
LINE
  5
1C8CDE6AB876
330
1C8CDE699D53
100
AcDbEntity
  8
SJC2
100
AcDbLine
 10
1898.31819784212
 20
1055.082513540172
 30
0.0
 11
1898.31511532076
 21
1048.96638582332
 31
0.0
  0
LINE
  5
1C8CDE6AB877
330
1C8CDE699D53
100
AcDbEntity
  8
SJC2
100
AcDbLine
 10
1883.44144366118
 20
1048.966385823318
 30
0.0
 11
1883.43836113982
 21
1055.08251354017
 31
0.0
  0
ARC
  5
1C8CDE6AB878
330
1C8CDE699D53
100
AcDbEntity
  8
SJC2
100
AcDbCircle
 10
1890.878279490969
 20
1049.937711124524
 30
0.0
 40
7.5
100
AcDbArc
 50
187.4412803380886
 51
352.5587196619325
  0
ARC
  5
1C8CDE6AB879
330
1C8CDE699D53
100
AcDbEntity
  8
SJC2
100
AcDbCircle
 10
1890.878279490969
 20
1064.937711124524
 30
0.0
 40
7.5
100
AcDbArc
 50
6.92153473253363
 51
173.0784652674452
  0
LINE
  5
1C8CDE6AB87A
330
1C8CDE699D53
100
AcDbEntity
  8
SJC2
100
AcDbLine
 10
1841.06230797367
 20
1073.513597216902
 30
0.0
 11
1840.867945201498
 21
1073.513597216902
 31
0.0
  0
LINE
  5
1C8CDE6AB87B
330
1C8CDE699D53
100
AcDbEntity
  8
SJC2
100
AcDbLine
 10
1841.06230797367
 20
1073.513597216902
 30
0.0
 11
1840.867945201499
 21
1073.513597216902
 31
0.0
  0
LINE
  5
1C8CDE6AB87C
330
1C8CDE699D53
100
AcDbEntity
  8
HATCH
100
AcDbLine
 10
1951.478259490968
 20
942.6213008623101
 30
0.0
 11
1972.264669753181
 21
963.4077111245233
 31
0.0
  0
LINE
  5
1C8CDE6AB87D
330
1C8CDE699D53
100
AcDbEntity
  8
HATCH
100
AcDbLine
 10
1951.478259490968
 20
942.621300862309
 30
0.0
 11
1972.264669753183
 21
963.4077111245233
 31
0.0
  0
ARC
  5
1C8CDE6AB87E
330
1C8CDE699D53
100
AcDbEntity
  8
SJC2
100
AcDbCircle
 10
1890.878279490968
 20
1031.907711124524
 30
0.0
 40
55.0
100
AcDbArc
 50
278.55011
 51
0.0
  0
ARC
  5
1C8CDE6AB87F
330
1C8CDE699D53
100
AcDbEntity
  8
SJC2
100
AcDbCircle
 10
1890.878279490968
 20
1031.907711124524
 30
0.0
 40
66.5
100
AcDbArc
 50
278.51962
 51
0.0
  0
LINE
  5
1C8CDE6AB881
330
1C8CDE699D53
100
AcDbEntity
  8
SJC2
100
AcDbLine
 10
1961.321999490969
 20
960.6665711245243
 30
0.0
 11
1960.409399490969
 21
957.2606511245243
 31
0.0
  0
ARC
  5
1C8CDE6AB882
330
1C8CDE699D53
100
AcDbEntity
  8
SJC2
100
AcDbCircle
 10
1957.994599490968
 20
957.9077111245242
 30
0.0
 40
2.5
100
AcDbArc
 50
270.0000000000001
 51
344.9999900000001
  0
ARC
  5
1C8CDE6AB883
330
1C8CDE699D53
100
AcDbEntity
  8
SJC2
100
AcDbCircle
 10
1962.287939490969
 20
960.4077111245244
 30
0.0
 40
1.0
100
AcDbArc
 50
89.99999700000008
 51
165.0000000000001
  0
ARC
  5
1C8CDE6AB884
330
1C8CDE699D53
100
AcDbEntity
  8
SJC2
100
AcDbCircle
 10
1900.878279490968
 20
965.1525611245242
 30
0.0
 40
1.0
100
AcDbArc
 50
98.51961800000001
 51
179.99999
  0
LINE
  5
1C8CDE6AB885
330
1C8CDE699D53
100
AcDbEntity
  8
SJC2
100
AcDbLine
 10
1899.878279490968
 20
965.1525611245242
 30
0.0
 11
1899.878279490968
 21
963.4077111245241
 31
0.0
  0
LINE
  5
1C8CDE6AB886
330
1C8CDE699D53
100
AcDbEntity
  8
SJC2
100
AcDbLine
 10
1965.878279490968
 20
963.4077111245245
 30
0.0
 11
1965.878279490968
 21
961.4077111245244
 31
0.0
  0
LINE
  5
1C8CDE6AB887
330
1C8CDE699D53
100
AcDbEntity
  8
SJC2
100
AcDbLine
 10
1940.694251008261
 20
1073.513597216902
 30
0.0
 11
1940.888613780439
 21
1073.513597216902
 31
0.0
  0
LINE
  5
1C8CDE6AB888
330
1C8CDE699D53
100
AcDbEntity
  8
SJC2
100
AcDbLine
 10
1940.694251008261
 20
1073.513597216902
 30
0.0
 11
1940.888613780439
 21
1073.513597216902
 31
0.0
  0
LINE
  5
1C8CDE6AB889
330
1C8CDE699D53
100
AcDbEntity
  8
HASEN
100
AcDbLine
 10
1949.878259490968
 20
955.4077111245241
 30
0.0
 11
1949.878259490968
 21
563.4077111245241
 31
0.0
  0
LINE
  5
1C8CDE6AB88A
330
1C8CDE699D53
100
AcDbEntity
  8
SJC2
100
AcDbLine
 10
1948.028549323074
 20
963.407711124524
 30
0.0
 11
1948.02854932307
 21
563.4077111245241
 31
0.0
  0
LINE
  5
1C8CDE6AB88B
330
1C8CDE699D53
100
AcDbEntity
  8
SJC2
100
AcDbLine
 10
1951.478259490968
 20
955.4077111245241
 30
0.0
 11
1951.478259490968
 21
563.4077111245241
 31
0.0
  0
LINE
  5
1C8CDE6AB88C
330
1C8CDE699D53
100
AcDbEntity
  8
HASEN
100
AcDbLine
 10
1831.878319490968
 20
955.4077111245241
 30
0.0
 11
1831.878319490968
 21
563.4077111245241
 31
0.0
  0
LINE
  5
1C8CDE6AB88D
330
1C8CDE699D53
100
AcDbEntity
  8
SJC2
100
AcDbLine
 10
1833.728009658867
 20
963.4077111245241
 30
0.0
 11
1833.728009658867
 21
563.4077111245241
 31
0.0
  0
LINE
  5
1C8CDE6AB88E
330
1C8CDE699D53
100
AcDbEntity
  8
SJC2
100
AcDbLine
 10
1830.278319490968
 20
955.4077111245241
 30
0.0
 11
1830.278319490968
 21
563.4077111245241
 31
0.0
  0
LINE
  5
1C8CDE6AB88F
330
1C8CDE699D53
100
AcDbEntity
  8
SJC2
100
AcDbLine
 10
1906.178279490968
 20
921.5410511245247
 30
0.0
 11
1875.578279490968
 21
921.5410511245245
 31
0.0
  0
LINE
  5
1C8CDE6AB890
330
1C8CDE699D53
100
AcDbEntity
  8
SJC2
100
AcDbLine
 10
1875.578279490968
 20
961.4077111245242
 30
0.0
 11
1875.578279490968
 21
921.5410511245245
 31
0.0
  0
LINE
  5
1C8CDE6AB891
330
1C8CDE699D53
100
AcDbEntity
  8
SJC2
100
AcDbLine
 10
1906.178279490968
 20
961.4077111245242
 30
0.0
 11
1906.178279490968
 21
921.5410511245245
 31
0.0
  0
LINE
  5
1C8CDE6AB892
330
1C8CDE699D53
100
AcDbEntity
  8
SJC2
100
AcDbLine
 10
1828.378279490968
 20
563.4077111245241
 30
0.0
 11
1953.378279490968
 21
563.4077111245241
 31
0.0
  0
LINE
  5
1C8CDE6AB893
330
1C8CDE699D53
100
AcDbEntity
  8
SJC2
100
AcDbLine
 10
1828.378279490968
 20
561.8077311245242
 30
0.0
 11
1953.378279490968
 21
561.8077311245242
 31
0.0
  0
LINE
  5
1C8CDE6AB894
330
1C8CDE699D53
100
AcDbEntity
  8
SJC2
100
AcDbLine
 10
1828.378279490968
 20
563.4077111245241
 30
0.0
 11
1828.378279490968
 21
561.8077311245242
 31
0.0
  0
LINE
  5
1C8CDE6AB895
330
1C8CDE699D53
100
AcDbEntity
  8
SJC2
100
AcDbLine
 10
1953.378279490968
 20
563.4077111245241
 30
0.0
 11
1953.378279490968
 21
561.8077311245242
 31
0.0
  0
ARC
  5
1C8CDE6ABE8B
330
1C8CDE699D53
100
AcDbEntity
  8
SJC
100
AcDbCircle
 10
1833.977678293688
 20
1763.157711124524
 30
0.0
 40
0.25
100
AcDbArc
 50
90.0
 51
180.0
  0
ARC
  5
1C8CDE6ABE97
330
1C8CDE699D53
100
AcDbEntity
  8
SJC
100
AcDbCircle
 10
906.5589756254993
 20
2319.371390402812
 30
0.0
 40
0.25
100
AcDbArc
 50
180.0
 51
270.0
  0
ARC
  5
1C8CDE6ABE98
330
1C8CDE699D53
100
AcDbEntity
  8
SJC
100
AcDbCircle
 10
1256.058975625499
 20
2319.371390402812
 30
0.0
 40
0.25
100
AcDbArc
 50
270.0
 51
0.0
  0
LINE
  5
1C8CDE6AC1F4
330
1C8CDE699D53
100
AcDbEntity
  8
SJC
100
AcDbLine
 10
1024.159846654879
 20
1639.947711124525
 30
0.0
 11
1024.159846654878
 21
963.4077111245243
 31
0.0
  0
LINE
  5
1C8CDE6AC1F5
330
1C8CDE699D53
100
AcDbEntity
  8
SJC
100
AcDbLine
 10
1138.459846654878
 20
1639.947711124524
 30
0.0
 11
1138.459846654878
 21
963.4077111245243
 31
0.0
  0
ARC
  5
1C8CDE6AC1F7
330
1C8CDE699D53
100
AcDbEntity
  8
SJC
100
AcDbCircle
 10
1081.309846654881
 20
1805.707711124524
 30
0.0
 40
57.7
100
AcDbArc
 50
0.0
 51
180.0
  0
LINE
  5
1C8CDE6AC1F8
102
{ACAD_REACTORS
330
1C8CDE6AC707
102
}
330
1C8CDE699D53
100
AcDbEntity
  8
SJC
100
AcDbLine
 10
1138.00984665488
 20
1763.407711124524
 30
0.0
 11
1024.609846654881
 21
1763.407711124524
 31
0.0
  0
LINE
  5
1C8CDE6AC1F9
102
{ACAD_REACTORS
330
1C8CDE6AC707
102
}
330
1C8CDE699D53
100
AcDbEntity
  8
SJC
100
AcDbLine
 10
1136.459850860696
 20
1643.407711124524
 30
0.0
 11
1026.159842449064
 21
1643.407711124525
 31
0.0
  0
LINE
  5
1C8CDE6AC1FB
102
{ACAD_REACTORS
330
1C8CDE6AC707
102
}
330
1C8CDE699D53
100
AcDbEntity
  8
SJC
100
AcDbLine
 10
1026.15984665488
 20
1763.407711124524
 30
0.0
 11
1026.159846654879
 21
1643.411812739662
 31
0.0
  0
ARC
  5
1C8CDE6AC1FC
330
1C8CDE699D53
100
AcDbEntity
  8
SJC
100
AcDbCircle
 10
1026.159846654879
 20
1639.947711124525
 30
0.0
 40
2.0
100
AcDbArc
 50
119.9999999999916
 51
180.0
  0
ARC
  5
1C8CDE6AC1FD
330
1C8CDE699D53
100
AcDbEntity
  8
SJC
100
AcDbCircle
 10
1024.159846654879
 20
1643.411812739662
 30
0.0
 40
2.0
100
AcDbArc
 50
299.9999999999949
 51
0.0
  0
LINE
  5
1C8CDE6AC1FE
330
1C8CDE699D53
100
AcDbEntity
  8
SJC
100
AcDbLine
 10
1023.60984665488
 20
1805.707711124524
 30
0.0
 11
1023.609846654881
 21
1764.407711124525
 31
0.0
  0
LINE
  5
1C8CDE6AC1FF
330
1C8CDE699D53
100
AcDbEntity
  8
SJC
100
AcDbLine
 10
1023.609846654881
 20
1764.407711124524
 30
0.0
 11
1024.609846654881
 21
1763.407711124524
 31
0.0
  0
LINE
  5
1C8CDE6AC200
102
{ACAD_REACTORS
330
1C8CDE6AC707
102
}
330
1C8CDE699D53
100
AcDbEntity
  8
SJC
100
AcDbLine
 10
1136.45984665488
 20
1763.407711124524
 30
0.0
 11
1136.459846654879
 21
1643.411812739661
 31
0.0
  0
ARC
  5
1C8CDE6AC201
330
1C8CDE699D53
100
AcDbEntity
  8
SJC
100
AcDbCircle
 10
1136.459846654878
 20
1639.947711124524
 30
0.0
 40
2.0
100
AcDbArc
 50
0.0
 51
59.99999999998492
  0
ARC
  5
1C8CDE6AC202
330
1C8CDE699D53
100
AcDbEntity
  8
SJC
100
AcDbCircle
 10
1138.459846654879
 20
1643.411812739661
 30
0.0
 40
2.0
100
AcDbArc
 50
180.0
 51
239.9999999999793
  0
LINE
  5
1C8CDE6AC203
330
1C8CDE699D53
100
AcDbEntity
  8
SJC
100
AcDbLine
 10
1139.009846654881
 20
1805.707711124524
 30
0.0
 11
1139.009846654881
 21
1764.407711124524
 31
0.0
  0
LINE
  5
1C8CDE6AC204
330
1C8CDE699D53
100
AcDbEntity
  8
SJC
100
AcDbLine
 10
1139.009846654881
 20
1764.407711124524
 30
0.0
 11
1138.00984665488
 21
1763.407711124524
 31
0.0
  0
CIRCLE
  5
1C8CDE6AC207
330
1C8CDE699D53
100
AcDbEntity
  8
SJC
100
AcDbCircle
 10
1081.308975625498
 20
2115.729585387875
 30
0.0
 40
57.7
  0
DIMENSION
  5
1C8CDE6AC222
330
1C8CDE699D53
100
AcDbEntity
  8
SUNPOU
100
AcDbDimension
  2
*D5
 10
1406.310717684262
 20
963.4077111245241
 30
0.0
 11
1379.310717684262
 21
1413.407711124524
 31
0.0
 70
    32
 71
     5
 42
900.0
  3
SJC
100
AcDbAlignedDimension
 13
1081.30984665488
 23
1863.407711124524
 33
0.0
 14
1272.054771204551
 24
963.4077111245241
 34
0.0
 50
90.0
100
AcDbRotatedDimension
1001
ACAD
1000
DSTYLE
1002
{
1070
   140
1040
3.0
1070
   340
1005
1C8CDE699DA6
1070
    40
1040
10.0
1070
   147
1040
1.199999999999999
1070
    42
1040
1.0
1070
    44
1040
1.0
1070
    43
1040
6.0
1070
   271
1070
     2
1070
    41
1040
2.0
1002
}
  0
DIMENSION
  5
1C8CDE6AC22F
330
1C8CDE699D53
100
AcDbEntity
  8
SUNPOU
100
AcDbDimension
  2
*D6
 10
1481.310717684262
 20
563.4077111245241
 30
0.0
 11
1454.310717684262
 21
1213.407711124524
 31
0.0
 70
    32
 71
     5
 42
1300.0
  3
SJC
100
AcDbAlignedDimension
 13
1081.30984665488
 23
1863.407711124524
 33
0.0
 14
1281.309846654881
 24
563.4077111245241
 34
0.0
 50
90.0
100
AcDbRotatedDimension
1001
ACAD
1000
DSTYLE
1002
{
1070
   140
1040
3.0
1070
   340
1005
1C8CDE699DA6
1070
    40
1040
10.0
1070
   147
1040
1.199999999999999
1070
    42
1040
1.0
1070
    44
1040
1.0
1070
    43
1040
6.0
1070
   271
1070
     2
1070
    41
1040
2.0
1002
}
  0
DIMENSION
  5
1C8CDE6AC23C
330
1C8CDE699D53
100
AcDbEntity
  8
SUNPOU
100
AcDbDimension
  2
*D7
 10
1331.310717684263
 20
1763.407711124524
 30
0.0
 11
1299.08821126709
 21
1813.407711124524
 31
0.0
 70
   160
 71
     5
 42
99.99999999999978
  3
SJC
100
AcDbAlignedDimension
 13
1081.30984665488
 23
1863.407711124524
 33
0.0
 14
1138.009846654881
 24
1763.407711124524
 34
0.0
 50
90.0
100
AcDbRotatedDimension
1001
ACAD
1000
DSTYLE
1002
{
1070
   140
1040
3.0
1070
   340
1005
1C8CDE699DA6
1070
    40
1040
10.0
1070
   147
1040
1.199999999999999
1070
    42
1040
1.0
1070
    44
1040
1.0
1070
    43
1040
6.0
1070
   271
1070
     2
1070
    41
1040
2.0
1002
}
  0
DIMENSION
  5
1C8CDE6AC249
330
1C8CDE699D53
100
AcDbEntity
  8
SUNPOU
100
AcDbDimension
  2
*D8
 10
1331.310717684263
 20
1643.411812739661
 30
0.0
 11
1299.08821126709
 21
1703.409761932093
 31
0.0
 70
   160
 71
     5
 42
119.9958983848632
  3
SJC
100
AcDbAlignedDimension
 13
1138.009846654881
 23
1763.407711124524
 33
0.0
 14
1136.459846654879
 24
1643.411812739661
 34
0.0
 50
90.0
100
AcDbRotatedDimension
1001
ACAD
1000
DSTYLE
1002
{
1070
   140
1040
3.0
1070
   340
1005
1C8CDE699DA6
1070
    40
1040
10.0
1070
   147
1040
1.199999999999999
1070
    42
1040
1.0
1070
    44
1040
1.0
1070
    43
1040
6.0
1070
   271
1070
     2
1070
    41
1040
2.0
1002
}
  0
TEXT
  5
1C8CDE6AC281
330
1C8CDE699D53
100
AcDbEntity
  8
MOJI
100
AcDbText
 10
760.5297352558051
 20
1716.317296445134
 30
0.0
 40
30.0
  1
高輝度（赤色）
 41
0.8
  7
EXT08
 72
     2
 11
938.9297352558051
 21
1731.317296445133
 31
0.0
100
AcDbText
 73
     2
  0
TEXT
  5
1C8CDE6AC282
330
1C8CDE699D53
100
AcDbEntity
  8
MOJI
100
AcDbText
 10
777.8970773859478
 20
1764.128962574115
 30
0.0
 40
30.0
  1
反射シート
 41
0.8
  7
EXT08
 72
     2
 11
912.2970773859478
 21
1779.128962574115
 31
0.0
100
AcDbText
 73
     2
  0
LINE
  5
1C8CDE6AC283
330
1C8CDE699D53
100
AcDbEntity
  8
MOJI
100
AcDbLine
 10
937.0176020546933
 20
1754.128962574115
 30
0.0
 11
752.3959732300536
 21
1754.128962574114
 31
0.0
  0
TEXT
  5
1C8CDE6AC28A
330
1C8CDE699D53
100
AcDbEntity
  8
MOJI
100
AcDbText
 10
764.8928417198549
 20
1901.225725242547
 30
0.0
 40
30.0
  1
頭部キャップ
 41
0.8
  7
EXT08
 72
     2
 11
932.8928417198548
 21
1916.225725242546
 31
0.0
100
AcDbText
 73
     2
  0
LINE
  5
1C8CDE6AC28B
330
1C8CDE699D53
100
AcDbEntity
  8
MOJI
100
AcDbLine
 10
934.9773841276855
 20
1891.225725242546
 30
0.0
 11
762.3021484143155
 21
1891.225725242546
 31
0.0
  0
LINE
  5
1C8CDE6AC297
102
{ACAD_REACTORS
330
1C8CDE6AC716
102
}
330
1C8CDE699D53
100
AcDbEntity
  8
SJC
100
AcDbLine
 10
1946.027678293688
 20
1763.407711124524
 30
0.0
 11
1946.027678293686
 21
1643.411812739661
 31
0.0
  0
LINE
  5
1C8CDE6AC298
102
{ACAD_REACTORS
330
1C8CDE6AC716
102
}
330
1C8CDE699D53
100
AcDbEntity
  8
SJC
100
AcDbLine
 10
1835.727678293687
 20
1763.407711124524
 30
0.0
 11
1835.727678293686
 21
1643.411812739662
 31
0.0
  0
LINE
  5
1C8CDE6AC29A
102
{ACAD_REACTORS
330
1C8CDE6AC716
102
}
330
1C8CDE699D53
100
AcDbEntity
  8
SJC
100
AcDbLine
 10
1946.027682499503
 20
1643.407711124524
 30
0.0
 11
1835.727674087871
 21
1643.407711124525
 31
0.0
  0
ARC
  5
1C8CDE6AC29B
330
1C8CDE699D53
100
AcDbEntity
  8
SJC
100
AcDbCircle
 10
1833.727678293686
 20
1643.411812739662
 30
0.0
 40
2.0
100
AcDbArc
 50
299.9999999999949
 51
0.0
  0
ARC
  5
1C8CDE6AC29C
330
1C8CDE699D53
100
AcDbEntity
  8
SJC
100
AcDbCircle
 10
1835.727678293686
 20
1639.947711124525
 30
0.0
 40
2.0
100
AcDbArc
 50
119.9999999999916
 51
180.0
  0
ARC
  5
1C8CDE6AC29E
330
1C8CDE699D53
100
AcDbEntity
  8
SJC
100
AcDbCircle
 10
1948.027678293686
 20
1643.411812739661
 30
0.0
 40
2.0
100
AcDbArc
 50
180.0
 51
239.9999999999793
  0
ARC
  5
1C8CDE6AC29F
330
1C8CDE699D53
100
AcDbEntity
  8
SJC
100
AcDbCircle
 10
1946.027678293686
 20
1639.947711124524
 30
0.0
 40
2.0
100
AcDbArc
 50
0.0
 51
59.99999999998492
  0
ARC
  5
1C8CDE6AC2A0
330
1C8CDE699D53
100
AcDbEntity
  8
SJC
100
AcDbCircle
 10
1890.877678293688
 20
1805.707711124524
 30
0.0
 40
57.7
100
AcDbArc
 50
0.0
 51
180.0
  0
LINE
  5
1C8CDE6AC2A1
102
{ACAD_REACTORS
330
1C8CDE6AC716
102
}
330
1C8CDE699D53
100
AcDbEntity
  8
SJC
100
AcDbLine
 10
1947.577678293688
 20
1763.407711124524
 30
0.0
 11
1834.177678293688
 21
1763.407711124524
 31
0.0
  0
LINE
  5
1C8CDE6AC2A2
330
1C8CDE699D53
100
AcDbEntity
  8
SJC
100
AcDbLine
 10
1833.177678293687
 20
1805.707711124524
 30
0.0
 11
1833.177678293688
 21
1764.407711124525
 31
0.0
  0
LINE
  5
1C8CDE6AC2A3
330
1C8CDE699D53
100
AcDbEntity
  8
SJC
100
AcDbLine
 10
1833.177678293688
 20
1764.407711124524
 30
0.0
 11
1834.177678293688
 21
1763.407711124524
 31
0.0
  0
LINE
  5
1C8CDE6AC2A4
330
1C8CDE699D53
100
AcDbEntity
  8
SJC
100
AcDbLine
 10
1948.577678293688
 20
1805.707711124524
 30
0.0
 11
1948.577678293688
 21
1764.407711124524
 31
0.0
  0
LINE
  5
1C8CDE6AC2A5
330
1C8CDE699D53
100
AcDbEntity
  8
SJC
100
AcDbLine
 10
1948.577678293688
 20
1764.407711124524
 30
0.0
 11
1947.577678293688
 21
1763.407711124524
 31
0.0
  0
LINE
  5
1C8CDE6AC2A7
330
1C8CDE699D53
100
AcDbEntity
  8
SJC
100
AcDbLine
 10
1948.027678293686
 20
1639.947711124524
 30
0.0
 11
1948.027678293686
 21
1063.485233962375
 31
0.0
  0
LINE
  5
1C8CDE6AC2A8
330
1C8CDE699D53
100
AcDbEntity
  8
SJC
100
AcDbLine
 10
1833.727678293686
 20
1639.947711124525
 30
0.0
 11
1833.727678293685
 21
1063.483218511149
 31
0.0
  0
LINE
  5
1C8CDE6AC2A9
330
1C8CDE699D53
100
AcDbEntity
  8
SJC
100
AcDbLine
 10
1833.727678293685
 20
997.9068466827319
 30
0.0
 11
1833.727678293685
 21
963.4077111245243
 31
0.0
  0
LINE
  5
1C8CDE6AC2AA
330
1C8CDE699D53
100
AcDbEntity
  8
SJC
100
AcDbLine
 10
1948.027678293686
 20
997.9048257103714
 30
0.0
 11
1948.027678293686
 21
963.4077111245243
 31
0.0
  0
LINE
  5
1C8CDE6AC404
330
1C8CDE699D53
100
AcDbEntity
  8
CENTER
100
AcDbLine
 10
2914.464412957825
 20
1525.366500920757
 30
0.0
 11
2914.464412957825
 21
1505.305633126236
 31
0.0
  0
LINE
  5
1C8CDE6AC405
330
1C8CDE699D53
100
AcDbEntity
  8
CENTER
100
AcDbLine
 10
2914.464412957825
 20
1517.936073023497
 30
0.0
 11
2914.464412957825
 21
1512.736061023496
 31
0.0
  0
CIRCLE
  5
1C8CDE6AC406
330
1C8CDE699D53
100
AcDbEntity
  8
SJC
  6
Continuous
100
AcDbCircle
 10
2914.464412957825
 20
1515.336067023496
 30
0.0
 40
4.75
  0
ARC
  5
1C8CDE6AC407
330
1C8CDE699D53
100
AcDbEntity
  8
SJC
  6
Continuous
100
AcDbCircle
 10
2912.399812957825
 20
1515.336067023496
 30
0.0
 40
1.0
100
AcDbArc
 50
315.0000000000072
 51
44.99999999999274
  0
ARC
  5
1C8CDE6AC408
330
1C8CDE699D53
100
AcDbEntity
  8
SJC
  6
Continuous
100
AcDbCircle
 10
2916.529012957824
 20
1515.336067023496
 30
0.0
 40
1.0
100
AcDbArc
 50
134.9999990000044
 51
224.9999999999928
  0
LINE
  5
1C8CDE6AC409
330
1C8CDE699D53
100
AcDbEntity
  8
CENTER
100
AcDbLine
 10
2914.464412957825
 20
1525.366500920757
 30
0.0
 11
2914.464412957825
 21
1505.305633126236
 31
0.0
  0
LINE
  5
1C8CDE6AC40A
330
1C8CDE699D53
100
AcDbEntity
  8
SJC
100
AcDbLine
 10
2894.964412957825
 20
1523.336067023496
 30
0.0
 11
2894.964412957825
 21
1507.818667023497
 31
0.0
  0
DIMENSION
  5
1C8CDE6AC40B
330
1C8CDE699D53
100
AcDbEntity
  8
SUNPOU
100
AcDbDimension
  2
*D9
 10
3140.564412957825
 20
1125.336067023496
 30
0.0
 11
3113.564412957825
 21
1325.336067023497
 31
0.0
 70
    32
 71
     5
 42
400.0
  3
SJC
100
AcDbAlignedDimension
 13
3067.964412957825
 23
1525.336067023497
 33
0.0
 14
3053.564372957825
 24
1125.336067023496
 34
0.0
 50
270.0
100
AcDbRotatedDimension
1001
ACAD
1000
DSTYLE
1002
{
1070
   140
1040
3.0
1070
   340
1005
1C8CDE699DA6
1070
    40
1040
10.0
1070
   147
1040
1.199999999999999
1070
    42
1040
1.0
1070
    44
1040
1.0
1070
    43
1040
6.0
1070
   271
1070
     2
1070
    41
1040
2.0
1002
}
  0
LINE
  5
1C8CDE6AC40C
330
1C8CDE699D53
100
AcDbEntity
  8
CENTER
100
AcDbLine
 10
2992.964412957825
 20
1094.360877309381
 30
0.0
 11
2992.964412957825
 21
1688.97632584475
 31
0.0
  0
LINE
  5
1C8CDE6AC40D
330
1C8CDE699D53
100
AcDbEntity
  8
HASEN
100
AcDbLine
 10
3051.964372957825
 20
1517.336067023497
 30
0.0
 11
3051.964372957826
 21
1125.336067023496
 31
0.0
  0
LINE
  5
1C8CDE6AC40E
330
1C8CDE699D53
100
AcDbEntity
  8
HASEN
100
AcDbLine
 10
2793.402487731201
 20
1517.336047023496
 30
0.0
 11
2793.402487731201
 21
1125.336047023496
 31
0.0
  0
LINE
  5
1C8CDE6AC40F
330
1C8CDE699D53
100
AcDbEntity
  8
HASEN
100
AcDbLine
 10
2675.402547731201
 20
1517.336047023496
 30
0.0
 11
2675.402547731201
 21
1125.336047023496
 31
0.0
  0
LINE
  5
1C8CDE6AC410
330
1C8CDE699D53
100
AcDbEntity
  8
SJC
100
AcDbLine
 10
2934.364432957824
 20
1517.336067023497
 30
0.0
 11
2934.364432957824
 21
1483.469407023497
 31
0.0
  0
LINE
  5
1C8CDE6AC411
330
1C8CDE699D53
100
AcDbEntity
  8
SJC
100
AcDbLine
 10
3053.564372957824
 20
1517.336067023497
 30
0.0
 11
3053.564372957825
 21
1125.336067023496
 31
0.0
  0
LINE
  5
1C8CDE6AC412
330
1C8CDE699D53
100
AcDbEntity
  8
CENTER
100
AcDbLine
 10
2734.402507731201
 20
1094.360877309381
 30
0.0
 11
2734.402507731201
 21
1688.97632584475
 31
0.0
  0
LINE
  5
1C8CDE6AC413
330
1C8CDE699D53
100
AcDbEntity
  8
SJC
100
AcDbLine
 10
2719.1025077312
 20
1523.336047023496
 30
0.0
 11
2719.1025077312
 21
1483.469387023497
 31
0.0
  0
LINE
  5
1C8CDE6AC414
330
1C8CDE699D53
100
AcDbEntity
  8
SJC
100
AcDbLine
 10
2749.702507731201
 20
1523.336047023496
 30
0.0
 11
2749.702507731201
 21
1483.469387023497
 31
0.0
  0
LINE
  5
1C8CDE6AC415
330
1C8CDE699D53
100
AcDbEntity
  8
SJC
100
AcDbLine
 10
2795.002487731201
 20
1517.336047023496
 30
0.0
 11
2795.002487731201
 21
1125.336047023496
 31
0.0
  0
LINE
  5
1C8CDE6AC416
330
1C8CDE699D53
100
AcDbEntity
  8
SJC
100
AcDbLine
 10
2673.802547731201
 20
1517.336047023496
 30
0.0
 11
2673.802547731201
 21
1125.336047023496
 31
0.0
  0
LINE
  5
1C8CDE6AC417
330
1C8CDE699D53
100
AcDbEntity
  8
MOJI
100
AcDbLine
 10
2572.964450742334
 20
459.3972903773019
 30
0.0
 11
3457.744025971712
 21
459.3972903773019
 31
0.0
  0
LINE
  5
1C8CDE6AC418
330
1C8CDE699D53
100
AcDbEntity
  8
MOJI
100
AcDbLine
 10
2572.964450742334
 20
399.3972903773019
 30
0.0
 11
3457.744025971712
 21
399.3972903773019
 31
0.0
  0
LINE
  5
1C8CDE6AC419
330
1C8CDE699D53
100
AcDbEntity
  8
MOJI
100
AcDbLine
 10
2572.964450742334
 20
339.3972903773019
 30
0.0
 11
3457.744025971712
 21
339.3972903773019
 31
0.0
  0
LINE
  5
1C8CDE6AC41A
330
1C8CDE699D53
100
AcDbEntity
  8
MOJI
100
AcDbLine
 10
2572.964450742334
 20
519.3972903773019
 30
0.0
 11
3457.744025971714
 21
519.3972903773019
 31
0.0
  0
LINE
  5
1C8CDE6AC41B
330
1C8CDE699D53
100
AcDbEntity
  8
MOJI
100
AcDbLine
 10
2572.964450742334
 20
579.3972903773019
 30
0.0
 11
3457.744025971714
 21
579.3972903773019
 31
0.0
  0
LINE
  5
1C8CDE6AC41C
330
1C8CDE699D53
100
AcDbEntity
  8
MOJI
100
AcDbLine
 10
2572.964450742334
 20
699.3972903773017
 30
0.0
 11
3457.744025971714
 21
699.3972903773017
 31
0.0
  0
LINE
  5
1C8CDE6AC41D
330
1C8CDE699D53
100
AcDbEntity
  8
MOJI
100
AcDbLine
 10
3055.329635440648
 20
639.3972903773017
 30
0.0
 11
3457.744025971714
 21
639.3972903773017
 31
0.0
  0
LINE
  5
1C8CDE6AC41E
330
1C8CDE699D53
100
AcDbEntity
  8
MOJI
100
AcDbLine
 10
2789.776968609037
 20
699.3972903773017
 30
0.0
 11
2789.776968609038
 21
339.3972903773019
 31
0.0
  0
LINE
  5
1C8CDE6AC41F
330
1C8CDE699D53
100
AcDbEntity
  8
MOJI
100
AcDbLine
 10
2572.964450742334
 20
699.3972903773017
 30
0.0
 11
2572.964450742333
 21
339.3972903773019
 31
0.0
  0
LINE
  5
1C8CDE6AC420
330
1C8CDE699D53
100
AcDbEntity
  8
MOJI
100
AcDbLine
 10
2991.414360109227
 20
699.3972903773017
 30
0.0
 11
2991.414360109231
 21
339.3972903773019
 31
0.0
  0
LINE
  5
1C8CDE6AC421
330
1C8CDE699D53
100
AcDbEntity
  8
MOJI
100
AcDbLine
 10
2572.964450742334
 20
459.3972903773019
 30
0.0
 11
3322.59376511284
 21
459.3972903773019
 31
0.0
  0
TEXT
  5
1C8CDE6AC422
330
1C8CDE699D53
100
AcDbEntity
  8
MOJI
100
AcDbText
 10
2609.835889135292
 20
414.4331832792777
 30
0.0
 40
30.0
  1
サヤ管フタ
 41
0.8
  7
EXT08
 72
     1
 11
2677.835889135292
 21
414.4331832792777
 31
0.0
100
AcDbText
  0
TEXT
  5
1C8CDE6AC423
330
1C8CDE699D53
100
AcDbEntity
  8
MOJI
100
AcDbText
 10
2606.235889135292
 20
354.4331832792777
 30
0.0
 40
30.0
  1
ロックピン
 41
0.8
  7
EXT08
 72
     1
 11
2677.835889135292
 21
354.4331832792777
 31
0.0
100
AcDbText
  0
TEXT
  5
1C8CDE6AC424
330
1C8CDE699D53
100
AcDbEntity
  8
MOJI
100
AcDbText
 10
2637.435889135292
 20
474.4331832792777
 30
0.0
 40
30.0
  1
サヤ管
 41
0.8
  7
EXT08
 72
     1
 11
2677.835889135292
 21
474.4331832792777
 31
0.0
100
AcDbText
  0
TEXT
  5
1C8CDE6AC425
330
1C8CDE699D53
100
AcDbEntity
  8
MOJI
100
AcDbText
 10
2636.635889135292
 20
534.4331832792777
 30
0.0
 40
30.0
  1
支  柱
 41
0.8
  7
EXT08
 72
     1
 11
2677.835889135291
 21
534.4331832792777
 31
0.0
100
AcDbText
  0
TEXT
  5
1C8CDE6AC426
330
1C8CDE699D53
100
AcDbEntity
  8
MOJI
100
AcDbText
 10
3008.068757713731
 20
354.4331832792777
 30
0.0
 40
30.0
  1
%%C12\U+00D7140・南京錠 25m/m
 41
0.8
  7
EXT08
 72
     1
 11
3224.411614856588
 21
354.4331832792777
 31
0.0
100
AcDbText
  0
TEXT
  5
1C8CDE6AC427
330
1C8CDE699D53
100
AcDbEntity
  8
MOJI
100
AcDbText
 10
3009.954471999444
 20
534.4331832792777
 30
0.0
 40
30.0
  1
高耐食溶融めっき+静電粉体塗装
 41
0.8
  7
EXT08
 72
     1
 11
3224.411614856587
 21
534.4331832792777
 31
0.0
100
AcDbText
  0
TEXT
  5
1C8CDE6AC428
330
1C8CDE699D53
100
AcDbEntity
  8
MOJI
100
AcDbText
 10
2851.744654122376
 20
414.4331832792777
 30
0.0
 40
30.0
  1
SUS
 41
0.8
  7
EXT08
 72
     1
 11
2887.173225550947
 21
414.4331832792777
 31
0.0
100
AcDbText
  0
TEXT
  5
1C8CDE6AC429
330
1C8CDE699D53
100
AcDbEntity
  8
MOJI
100
AcDbText
 10
2851.744654122376
 20
354.4331832792777
 30
0.0
 40
30.0
  1
SUS
 41
0.8
  7
EXT08
 72
     1
 11
2887.173225550947
 21
354.4331832792777
 31
0.0
100
AcDbText
  0
TEXT
  5
1C8CDE6AC42A
330
1C8CDE699D53
100
AcDbEntity
  8
MOJI
100
AcDbText
 10
2839.744654122375
 20
474.4331832792777
 30
0.0
 40
30.0
  1
SPCC
 41
0.8
  7
EXT08
 72
     1
 11
2887.173225550947
 21
474.4331832792777
 31
0.0
100
AcDbText
  0
TEXT
  5
1C8CDE6AC42B
330
1C8CDE699D53
100
AcDbEntity
  8
MOJI
100
AcDbText
 10
2793.801796979519
 20
534.4331832792777
 30
0.0
 40
30.0
  1
STK400相当
 41
0.8
  7
EXT08
 72
     1
 11
2887.173225550947
 21
534.4331832792777
 31
0.0
100
AcDbText
  0
TEXT
  5
1C8CDE6AC42C
330
1C8CDE699D53
100
AcDbEntity
  8
MOJI
100
AcDbText
 10
3128.011614856587
 20
474.4331832792777
 30
0.0
 40
30.0
  1
溶融亜鉛めっき
 41
0.8
  7
EXT08
 72
     1
 11
3224.411614856587
 21
474.4331832792777
 31
0.0
100
AcDbText
  0
LINE
  5
1C8CDE6AC42D
330
1C8CDE699D53
100
AcDbEntity
  8
SJC2
100
AcDbLine
 10
2720.823470010395
 20
1504.999786740033
 30
0.0
 11
2747.981545452007
 21
1504.999786740033
 31
0.0
  0
LINE
  5
1C8CDE6AC42E
330
1C8CDE699D53
100
AcDbEntity
  8
SJC
100
AcDbLine
 10
2749.702507731201
 20
1483.469387023497
 30
0.0
 11
2719.1025077312
 21
1483.469387023497
 31
0.0
  0
LINE
  5
1C8CDE6AC42F
330
1C8CDE699D53
100
AcDbEntity
  8
SJC
100
AcDbLine
 10
2671.902507731201
 20
1123.736067023497
 30
0.0
 11
2796.902507731201
 21
1123.736067023497
 31
0.0
  0
LINE
  5
1C8CDE6AC430
330
1C8CDE699D53
100
AcDbEntity
  8
SJC
100
AcDbLine
 10
2671.902507731201
 20
1125.336047023496
 30
0.0
 11
2796.902507731201
 21
1125.336047023496
 31
0.0
  0
LINE
  5
1C8CDE6AC431
330
1C8CDE699D53
100
AcDbEntity
  8
MOJI
100
AcDbLine
 10
2572.964450742334
 20
639.3972903773017
 30
0.0
 11
3322.59376511284
 21
639.3972903773017
 31
0.0
  0
TEXT
  5
1C8CDE6AC432
330
1C8CDE699D53
100
AcDbEntity
  8
MOJI
100
AcDbText
 10
2593.835889135292
 20
594.4331832792776
 30
0.0
 40
30.0
  1
頭部キャップ
 41
0.8
  7
EXT08
 72
     1
 11
2677.835889135292
 21
594.4331832792776
 31
0.0
100
AcDbText
  0
DIMENSION
  5
1C8CDE6AC433
330
1C8CDE699D53
100
AcDbEntity
  8
SUNPOU
100
AcDbDimension
  2
*D10
 10
2796.902507731201
 20
1017.471987023496
 30
0.0
 11
2734.402507731201
 21
1017.471987023496
 31
0.0
 70
   160
  1
%%C<>\X（底板径）
 71
     5
 42
125.0
  3
SJC
100
AcDbAlignedDimension
 13
2671.902507731201
 23
1123.736067023497
 33
0.0
 14
2796.902507731201
 24
1123.736067023497
 34
0.0
100
AcDbRotatedDimension
1001
ACAD
1000
DSTYLE
1002
{
1070
   140
1040
3.0
1070
   340
1005
1C8CDE699DA6
1070
    40
1040
10.0
1070
   147
1040
1.199999999999999
1070
    42
1040
1.0
1070
    44
1040
1.0
1070
    43
1040
6.0
1070
   271
1070
     2
1070
    41
1040
2.0
1002
}
  0
TEXT
  5
1C8CDE6AC434
330
1C8CDE699D53
100
AcDbEntity
  8
MOJI
100
AcDbText
 10
2636.635889135292
 20
654.4331832792774
 30
0.0
 40
30.0
  1
品  名
 41
0.8
  7
EXT08
 72
     1
 11
2677.835889135292
 21
654.4331832792774
 31
0.0
100
AcDbText
  0
LINE
  5
1C8CDE6AC435
330
1C8CDE699D53
100
AcDbEntity
  8
MOJI
100
AcDbLine
 10
2596.487899816573
 20
1385.345938805083
 30
0.0
 11
2400.884756306376
 21
1385.345938805083
 31
0.0
  0
TEXT
  5
1C8CDE6AC436
330
1C8CDE699D53
100
AcDbEntity
  8
MOJI
100
AcDbText
 10
2402.031977620244
 20
1395.345938805083
 30
0.0
 40
30.0
  1
サヤ管 %%C121
 41
0.8
  7
EXT08
 72
     2
 11
2582.831977620245
 21
1410.345938805083
 31
0.0
100
AcDbText
 73
     2
  0
LINE
  5
1C8CDE6AC437
330
1C8CDE699D53
100
AcDbEntity
  8
SJC
100
AcDbLine
 10
2671.902507731201
 20
1125.336047023496
 30
0.0
 11
2671.902507731201
 21
1123.736067023497
 31
0.0
  0
TEXT
  5
1C8CDE6AC438
330
1C8CDE699D53
100
AcDbEntity
  8
MOJI
100
AcDbText
 10
2845.973225550947
 20
654.4331832792774
 30
0.0
 40
30.0
  1
材  質
 41
0.8
  7
EXT08
 72
     1
 11
2887.173225550947
 21
654.4331832792774
 31
0.0
100
AcDbText
  0
TEXT
  5
1C8CDE6AC439
330
1C8CDE699D53
100
AcDbEntity
  8
MOJI
100
AcDbText
 10
3183.611614856587
 20
654.4331832792774
 30
0.0
 40
30.0
  1
摘  要
 41
0.8
  7
EXT08
 72
     1
 11
3224.411614856587
 21
654.4331832792774
 31
0.0
100
AcDbText
  0
LINE
  5
1C8CDE6AC43A
330
1C8CDE699D53
100
AcDbEntity
  8
HASEN
100
AcDbLine
 10
2933.964432957824
 20
1483.743167023497
 30
0.0
 11
2933.964432957824
 21
1125.336067023496
 31
0.0
  0
LINE
  5
1C8CDE6AC43B
330
1C8CDE699D53
100
AcDbEntity
  8
SJC
100
AcDbLine
 10
2932.364432957824
 20
1483.743167023497
 30
0.0
 11
2932.364432957824
 21
1125.336067023496
 31
0.0
  0
LINE
  5
1C8CDE6AC43C
330
1C8CDE699D53
100
AcDbEntity
  8
SJC
100
AcDbLine
 10
2796.902507731201
 20
1125.336047023496
 30
0.0
 11
2796.902507731201
 21
1123.736067023497
 31
0.0
  0
LINE
  5
1C8CDE6AC43D
330
1C8CDE699D53
100
AcDbEntity
  8
SJC
100
AcDbLine
 10
3042.964412957825
 20
1123.736067023497
 30
0.0
 11
2942.964412957825
 21
1123.736067023497
 31
0.0
  0
LINE
  5
1C8CDE6AC43E
330
1C8CDE699D53
100
AcDbEntity
  8
SJC
100
AcDbLine
 10
3053.564372957825
 20
1125.336047023496
 30
0.0
 11
2932.364432957824
 21
1125.336047023496
 31
0.0
  0
LINE
  5
1C8CDE6AC43F
330
1C8CDE699D53
100
AcDbEntity
  8
SJC
100
AcDbLine
 10
2942.964412957825
 20
1123.736067023497
 30
0.0
 11
2942.964412957825
 21
1125.336047023496
 31
0.0
  0
LINE
  5
1C8CDE6AC440
330
1C8CDE699D53
100
AcDbEntity
  8
SJC
100
AcDbLine
 10
3042.964412957825
 20
1123.736067023497
 30
0.0
 11
3042.964412957825
 21
1125.336047023496
 31
0.0
  0
LINE
  5
1C8CDE6AC441
330
1C8CDE699D53
100
AcDbEntity
  8
CENTER
100
AcDbLine
 10
2904.433979060565
 20
1515.336067023496
 30
0.0
 11
2924.494846855085
 21
1515.336067023496
 31
0.0
  0
LINE
  5
1C8CDE6AC442
330
1C8CDE699D53
100
AcDbEntity
  8
CENTER
100
AcDbLine
 10
2904.433979060565
 20
1515.336067023496
 30
0.0
 11
2924.494846855085
 21
1515.336067023496
 31
0.0
  0
LINE
  5
1C8CDE6AC443
330
1C8CDE699D53
100
AcDbEntity
  8
SJC
100
AcDbLine
 10
2932.838552957825
 20
1483.469407023497
 30
0.0
 11
2897.114312957825
 21
1504.094787023497
 31
0.0
  0
ARC
  5
1C8CDE6AC444
330
1C8CDE699D53
100
AcDbEntity
  8
SJC
100
AcDbCircle
 10
2899.264452957825
 20
1507.818667023497
 30
0.0
 40
4.3000002
100
AcDbArc
 50
180.0
 51
240.0
  0
LINE
  5
1C8CDE6AC445
330
1C8CDE699D53
100
AcDbEntity
  8
CENTER
100
AcDbLine
 10
2917.064412957825
 20
1515.336067023496
 30
0.0
 11
2911.864412957824
 21
1515.336067023496
 31
0.0
  0
LINE
  5
1C8CDE6AC446
330
1C8CDE699D53
100
AcDbEntity
  8
SJC
  6
Continuous
100
AcDbLine
 10
2916.235412957826
 20
1512.914597023497
 30
0.0
 11
2915.171412957825
 21
1513.978455023497
 31
0.0
  0
LINE
  5
1C8CDE6AC447
330
1C8CDE699D53
100
AcDbEntity
  8
SJC
  6
Continuous
100
AcDbLine
 10
2916.886012957824
 20
1513.565171023496
 30
0.0
 11
2915.822012957824
 21
1514.629021023497
 31
0.0
  0
LINE
  5
1C8CDE6AC448
330
1C8CDE699D53
100
AcDbEntity
  8
SJC
  6
Continuous
100
AcDbLine
 10
2913.757412957825
 20
1513.978455023497
 30
0.0
 11
2912.693412957824
 21
1512.914597023497
 31
0.0
  0
LINE
  5
1C8CDE6AC449
330
1C8CDE699D53
100
AcDbEntity
  8
SJC
  6
Continuous
100
AcDbLine
 10
2913.106812957826
 20
1514.628937023497
 30
0.0
 11
2912.043012957824
 21
1513.565087023497
 31
0.0
  0
ARC
  5
1C8CDE6AC44A
330
1C8CDE699D53
100
AcDbEntity
  8
SJC
  6
Continuous
100
AcDbCircle
 10
2914.464412957825
 20
1515.336067023496
 30
0.0
 40
3.0
100
AcDbArc
 50
306.1798499999858
 51
323.8201500000045
  0
ARC
  5
1C8CDE6AC44B
330
1C8CDE699D53
100
AcDbEntity
  8
SJC
  6
Continuous
100
AcDbCircle
 10
2914.464412957825
 20
1515.336067023496
 30
0.0
 40
3.0
100
AcDbArc
 50
216.1798499999955
 51
233.8201500000141
  0
ARC
  5
1C8CDE6AC44C
330
1C8CDE699D53
100
AcDbEntity
  8
SJC
  6
Continuous
100
AcDbCircle
 10
2914.464412957825
 20
1513.271317023496
 30
0.0
 40
1.0
100
AcDbArc
 50
44.99999999999274
 51
134.9999990000044
  0
LINE
  5
1C8CDE6AC44D
330
1C8CDE699D53
100
AcDbEntity
  8
SJC
100
AcDbLine
 10
2934.364432957824
 20
1483.469407023497
 30
0.0
 11
2932.364432957824
 21
1483.469407023497
 31
0.0
  0
LINE
  5
1C8CDE6AC44E
330
1C8CDE699D53
100
AcDbEntity
  8
MOJI
100
AcDbLine
 10
3457.744025971714
 20
699.3972903773017
 30
0.0
 11
3457.744025971711
 21
339.3972903773019
 31
0.0
  0
LINE
  5
1C8CDE6AC44F
330
1C8CDE699D53
100
AcDbEntity
  8
SJC2
100
AcDbLine
 10
2739.0317777312
 20
1527.947886023496
 30
0.0
 11
2743.9041577312
 21
1527.947886023496
 31
0.0
  0
ARC
  5
1C8CDE6AC450
330
1C8CDE699D53
100
AcDbEntity
  8
SJC2
100
AcDbCircle
 10
2751.0353777312
 20
1534.108765023496
 30
0.0
 40
10.0
100
AcDbArc
 50
105.5614500000036
 51
164.9999900000045
  0
LINE
  5
1C8CDE6AC451
330
1C8CDE699D53
100
AcDbEntity
  8
SJC
100
AcDbLine
 10
2667.286187731201
 20
1517.336047023496
 30
0.0
 11
2801.518827731201
 21
1517.336047023496
 31
0.0
  0
ARC
  5
1C8CDE6AC452
330
1C8CDE699D53
100
AcDbEntity
  8
SJC2
100
AcDbCircle
 10
2734.402507731201
 20
1593.836047023496
 30
0.0
 40
52.0
100
AcDbArc
 50
180.0
 51
0.0
  0
ARC
  5
1C8CDE6AC453
330
1C8CDE699D53
100
AcDbEntity
  8
SJC2
100
AcDbCircle
 10
2734.402507731197
 20
1591.278680484605
 30
0.0
 40
52.06284782466878
100
AcDbArc
 50
2.815545131476921
 51
177.1844548685226
  0
ARC
  5
1C8CDE6AC454
330
1C8CDE699D53
100
AcDbEntity
  8
SJC2
100
AcDbCircle
 10
2734.402507731199
 20
1591.307976397191
 30
0.0
 40
55.05807062631134
100
AcDbArc
 50
2.631743565753475
 51
177.3682564342463
  0
ARC
  5
1C8CDE6AC455
330
1C8CDE699D53
100
AcDbEntity
  8
SJC2
100
AcDbCircle
 10
2734.402507731199
 20
1591.317542504798
 30
0.0
 40
66.54767362583673
100
AcDbArc
 50
2.168883442013807
 51
177.831116557986
  0
LINE
  5
1C8CDE6AC456
330
1C8CDE699D53
100
AcDbEntity
  8
SJC
100
AcDbLine
 10
2659.402507731201
 20
1525.336047023496
 30
0.0
 11
2809.402507731201
 21
1525.336047023496
 31
0.0
  0
LINE
  5
1C8CDE6AC457
330
1C8CDE699D53
100
AcDbEntity
  8
SJC
100
AcDbLine
 10
2659.402507731201
 20
1523.336047023496
 30
0.0
 11
2809.402507731201
 21
1523.336047023496
 31
0.0
  0
DIMENSION
  5
1C8CDE6AC458
330
1C8CDE699D53
100
AcDbEntity
  8
SUNPOU
100
AcDbDimension
  2
*D11
 10
2659.402507731201
 20
1808.468087023495
 30
0.0
 11
2734.402507731201
 21
1835.468087023495
 31
0.0
 70
    32
  1
%%C<>
 71
     5
 42
150.0
  3
SJC
100
AcDbAlignedDimension
 13
2809.402507731201
 23
1525.336047023498
 33
0.0
 14
2659.402507731201
 24
1525.336047023496
 34
0.0
100
AcDbRotatedDimension
1001
ACAD
1000
DSTYLE
1002
{
1070
   140
1040
3.0
1070
   340
1005
1C8CDE699DA6
1070
    40
1040
10.0
1070
   147
1040
1.199999999999999
1070
    42
1040
1.0
1070
    44
1040
1.0
1070
    43
1040
6.0
1070
   271
1070
     2
1070
    41
1040
2.0
1002
}
  0
DIMENSION
  5
1C8CDE6AC459
330
1C8CDE699D53
100
AcDbEntity
  8
SUNPOU
100
AcDbDimension
  2
*D12
 10
2800.902507731201
 20
1708.468087023496
 30
0.0
 11
2734.416009902444
 21
1735.468087023496
 31
0.0
 70
    32
  1
%%C133
 71
     5
 42
132.9729956575138
  3
SJC
100
AcDbAlignedDimension
 13
2667.929512073687
 23
1591.941093642492
 33
0.0
 14
2800.902507731201
 24
1593.836047023471
 34
0.0
100
AcDbRotatedDimension
1001
ACAD
1000
DSTYLE
1002
{
1070
   140
1040
3.0
1070
   340
1005
1C8CDE699DA6
1070
    40
1040
10.0
1070
   147
1040
1.199999999999999
1070
    42
1040
1.0
1070
    44
1040
1.0
1070
    43
1040
6.0
1070
   271
1070
     2
1070
    41
1040
2.0
1002
}
  0
LINE
  5
1C8CDE6AC45A
330
1C8CDE699D53
100
AcDbEntity
  8
MOJI
100
AcDbLine
 10
2596.466547623608
 20
1730.127171252677
 30
0.0
 11
2444.084660567294
 21
1730.127171252677
 31
0.0
  0
TEXT
  5
1C8CDE6AC45B
330
1C8CDE699D53
100
AcDbEntity
  8
MOJI
100
AcDbText
 10
2443.434574729457
 20
1740.127171252677
 30
0.0
 40
30.0
  1
サヤ管フタ
 41
0.8
  7
EXT08
 72
     2
 11
2578.634574729457
 21
1755.127171252677
 31
0.0
100
AcDbText
 73
     2
  0
ARC
  5
1C8CDE6AC45C
330
1C8CDE699D53
100
AcDbEntity
  8
SJC2
100
AcDbCircle
 10
2734.402507731202
 20
1626.866047023497
 30
0.0
 40
7.5
100
AcDbArc
 50
6.921534732531314
 51
173.0784652674481
  0
ARC
  5
1C8CDE6AC45D
330
1C8CDE699D53
100
AcDbEntity
  8
SJC2
100
AcDbCircle
 10
2734.402507731201
 20
1593.836047023496
 30
0.0
 40
66.5
100
AcDbArc
 50
180.0
 51
261.4803799999896
  0
LINE
  5
1C8CDE6AC45E
330
1C8CDE699D53
100
AcDbEntity
  8
SJC
100
AcDbLine
 10
2659.402507731201
 20
1525.336047023496
 30
0.0
 11
2659.402507731201
 21
1523.336047023496
 31
0.0
  0
ARC
  5
1C8CDE6AC45F
330
1C8CDE699D53
100
AcDbEntity
  8
SJC2
100
AcDbCircle
 10
2734.402507731201
 20
1593.836047023496
 30
0.0
 40
55.0
100
AcDbArc
 50
180.0
 51
261.4498899999897
  0
ARC
  5
1C8CDE6AC460
330
1C8CDE699D53
100
AcDbEntity
  8
SJC
100
AcDbCircle
 10
2662.992847731201
 20
1522.336047023496
 30
0.0
 40
1.0
100
AcDbArc
 50
14.99999999999925
 51
90.00000300001072
  0
ARC
  5
1C8CDE6AC461
330
1C8CDE699D53
100
AcDbEntity
  8
SJC
100
AcDbCircle
 10
2667.286187731201
 20
1519.836047023497
 30
0.0
 40
2.5
100
AcDbArc
 50
195.0000099999955
 51
270.0
  0
LINE
  5
1C8CDE6AC462
330
1C8CDE699D53
100
AcDbEntity
  8
SJC
100
AcDbLine
 10
2663.958787731201
 20
1522.594907023496
 30
0.0
 11
2664.8713877312
 21
1519.188987023496
 31
0.0
  0
ARC
  5
1C8CDE6AC463
330
1C8CDE699D53
100
AcDbEntity
  8
SJC2
100
AcDbCircle
 10
2740.402507731201
 20
1525.336047023496
 30
0.0
 40
2.0
100
AcDbArc
 50
164.9999900000045
 51
180.0
  0
LINE
  5
1C8CDE6AC464
330
1C8CDE699D53
100
AcDbEntity
  8
SJC2
100
AcDbLine
 10
2725.402507731201
 20
1527.080897023497
 30
0.0
 11
2725.402507731201
 21
1525.336047023496
 31
0.0
  0
ARC
  5
1C8CDE6AC465
330
1C8CDE699D53
100
AcDbEntity
  8
SJC2
100
AcDbCircle
 10
2728.402507731201
 20
1525.336047023496
 30
0.0
 40
2.0
100
AcDbArc
 50
0.0
 51
14.99999999999925
  0
LINE
  5
1C8CDE6AC466
330
1C8CDE699D53
100
AcDbEntity
  8
SJC2
100
AcDbLine
 10
2724.900857731201
 20
1527.947886023496
 30
0.0
 11
2729.773237731201
 21
1527.947886023496
 31
0.0
  0
LINE
  5
1C8CDE6AC467
330
1C8CDE699D53
100
AcDbEntity
  8
SJC2
100
AcDbLine
 10
2727.428937731201
 20
1536.696963023497
 30
0.0
 11
2730.334387731201
 21
1525.853688023496
 31
0.0
  0
ARC
  5
1C8CDE6AC468
330
1C8CDE699D53
100
AcDbEntity
  8
SJC2
100
AcDbCircle
 10
2724.402507731201
 20
1527.080897023497
 30
0.0
 40
1.0
100
AcDbArc
 50
0.0000025044777
 51
81.48037999998958
  0
LINE
  5
1C8CDE6AC469
330
1C8CDE699D53
100
AcDbEntity
  8
SJC2
100
AcDbLine
 10
2741.3760777312
 20
1536.696961023496
 30
0.0
 11
2738.470627731201
 21
1525.853685023496
 31
0.0
  0
ARC
  5
1C8CDE6AC46A
330
1C8CDE699D53
100
AcDbEntity
  8
SJC2
100
AcDbCircle
 10
2717.7696377312
 20
1534.108765023496
 30
0.0
 40
10.0
100
AcDbArc
 50
14.99999999999925
 51
74.4385429999998
  0
ARC
  5
1C8CDE6AC46B
330
1C8CDE699D53
100
AcDbEntity
  8
SJC2
100
AcDbCircle
 10
2734.402507731202
 20
1611.866047023497
 30
0.0
 40
7.5
100
AcDbArc
 50
187.4412803380853
 51
352.5587196619351
  0
LINE
  5
1C8CDE6AC46C
330
1C8CDE699D53
100
AcDbEntity
  8
SJC2
100
AcDbLine
 10
2726.965671901413
 20
1610.89472172229
 30
0.0
 11
2726.962589380053
 21
1617.010849439143
 31
0.0
  0
LINE
  5
1C8CDE6AC46D
330
1C8CDE699D53
100
AcDbEntity
  8
HASEN
100
AcDbLine
 10
2726.962589380051
 20
1617.010849439145
 30
0.0
 11
2726.95716684515
 21
1627.76987172469
 31
0.0
  0
LINE
  5
1C8CDE6AC46E
330
1C8CDE699D53
100
AcDbEntity
  8
SJC2
100
AcDbLine
 10
2741.842426082352
 20
1617.010849439145
 30
0.0
 11
2741.839343560993
 21
1610.894721722293
 31
0.0
  0
LINE
  5
1C8CDE6AC46F
330
1C8CDE699D53
100
AcDbEntity
  8
HASEN
100
AcDbLine
 10
2741.842426082352
 20
1617.010849439145
 30
0.0
 11
2741.847848617254
 21
1627.76987172469
 31
0.0
  0
ARC
  5
1C8CDE6AC470
330
1C8CDE699D53
100
AcDbEntity
  8
KASOU
 48
0.5
100
AcDbCircle
 10
2914.618496313495
 20
1515.403493325678
 30
0.0
 40
143.4670059833463
100
AcDbArc
 50
3.969903438299374
 51
81.81807838509675
  0
DIMENSION
  5
1C8CDE6AC471
330
1C8CDE699D53
100
AcDbEntity
  8
SUNPOU
100
AcDbDimension
  2
*D13
 10
2892.964412957825
 20
1708.468107023495
 30
0.0
 11
2980.464412957825
 21
1735.468107023495
 31
0.0
 70
    32
 71
     5
 42
175.0
  3
SJC
100
AcDbAlignedDimension
 13
3067.964412957825
 23
1525.336067023497
 33
0.0
 14
2892.964412957825
 24
1525.336067023497
 34
0.0
100
AcDbRotatedDimension
1001
ACAD
1000
DSTYLE
1002
{
1070
   140
1040
3.0
1070
   340
1005
1C8CDE699DA6
1070
    40
1040
10.0
1070
   147
1040
1.199999999999999
1070
    42
1040
1.0
1070
    44
1040
1.0
1070
    43
1040
6.0
1070
   271
1070
     2
1070
    41
1040
2.0
1002
}
  0
LINE
  5
1C8CDE6AC472
330
1C8CDE699D53
100
AcDbEntity
  8
SJC2
100
AcDbLine
 10
2909.867202267169
 20
1541.505940492617
 30
0.0
 11
2906.073892270898
 21
1525.336067023497
 31
0.0
  0
LINE
  5
1C8CDE6AC473
330
1C8CDE699D53
100
AcDbEntity
  8
SJC
100
AcDbLine
 10
3067.964412957825
 20
1525.336067023497
 30
0.0
 11
2892.964412957825
 21
1525.336067023497
 31
0.0
  0
LINE
  5
1C8CDE6AC474
330
1C8CDE699D53
100
AcDbEntity
  8
SJC
100
AcDbLine
 10
3067.964412957825
 20
1523.336067023496
 30
0.0
 11
2892.964412957825
 21
1523.336067023496
 31
0.0
  0
ARC
  5
1C8CDE6AC475
330
1C8CDE699D53
100
AcDbEntity
  8
SJC2
100
AcDbCircle
 10
2734.402507731201
 20
1593.836047023496
 30
0.0
 40
55.0
100
AcDbArc
 50
278.5501100000104
 51
0.0
  0
ARC
  5
1C8CDE6AC476
330
1C8CDE699D53
100
AcDbEntity
  8
SJC2
100
AcDbCircle
 10
2734.402507731201
 20
1593.836047023496
 30
0.0
 40
66.5
100
AcDbArc
 50
278.5196200000104
 51
0.0
  0
LINE
  5
1C8CDE6AC477
330
1C8CDE699D53
100
AcDbEntity
  8
SJC2
100
AcDbLine
 10
2743.402507731201
 20
1527.080897023497
 30
0.0
 11
2743.402507731201
 21
1525.336047023496
 31
0.0
  0
ARC
  5
1C8CDE6AC478
330
1C8CDE699D53
100
AcDbEntity
  8
SJC2
100
AcDbCircle
 10
2744.402507731201
 20
1527.080897023497
 30
0.0
 40
1.0
100
AcDbArc
 50
98.51961799999347
 51
179.99999
  0
LINE
  5
1C8CDE6AC479
330
1C8CDE699D53
100
AcDbEntity
  8
SJC
100
AcDbLine
 10
2809.402507731201
 20
1525.336047023497
 30
0.0
 11
2809.402507731201
 21
1523.336047023497
 31
0.0
  0
ARC
  5
1C8CDE6AC47A
330
1C8CDE699D53
100
AcDbEntity
  8
SJC
100
AcDbCircle
 10
2805.812167731201
 20
1522.336047023497
 30
0.0
 40
1.0
100
AcDbArc
 50
89.99999699998928
 51
165.0000000000008
  0
ARC
  5
1C8CDE6AC47B
330
1C8CDE699D53
100
AcDbEntity
  8
SJC
100
AcDbCircle
 10
2801.518827731201
 20
1519.836047023497
 30
0.0
 40
2.5
100
AcDbArc
 50
270.0
 51
344.9999900000046
  0
LINE
  5
1C8CDE6AC47C
330
1C8CDE699D53
100
AcDbEntity
  8
SJC
100
AcDbLine
 10
2804.846227731201
 20
1522.594907023497
 30
0.0
 11
2803.933627731201
 21
1519.188987023497
 31
0.0
  0
LINE
  5
1C8CDE6AC47D
330
1C8CDE699D53
100
AcDbEntity
  8
SJC
100
AcDbLine
 10
2892.964412957825
 20
1525.336067023497
 30
0.0
 11
2892.964412957825
 21
1523.336067023496
 31
0.0
  0
LINE
  5
1C8CDE6AC47E
330
1C8CDE699D53
100
AcDbEntity
  8
SJC2
100
AcDbLine
 10
2927.455988537908
 20
1642.95711493917
 30
0.0
 11
2909.867202267169
 21
1541.505940492617
 31
0.0
  0
LINE
  5
1C8CDE6AC47F
330
1C8CDE699D53
100
AcDbEntity
  8
SJC2
100
AcDbLine
 10
2935.036236424889
 20
1657.410175191599
 30
0.0
 11
2912.462468239292
 21
1527.207139836561
 31
0.0
  0
LINE
  5
1C8CDE6AC480
330
1C8CDE699D53
100
AcDbEntity
  8
SJC2
100
AcDbLine
 10
2933.065633736351
 20
1657.751825662002
 30
0.0
 11
2910.55450609411
 21
1527.910094136008
 31
0.0
  0
LINE
  5
1C8CDE6AC481
330
1C8CDE699D53
100
AcDbEntity
  8
SJC
100
AcDbLine
 10
3050.114682789925
 20
1525.336067023497
 30
0.0
 11
2935.814143125723
 21
1525.336067023497
 31
0.0
  0
LINE
  5
1C8CDE6AC482
330
1C8CDE699D53
100
AcDbEntity
  8
SJC
100
AcDbLine
 10
3060.080732957824
 20
1517.336067023497
 30
0.0
 11
2927.348072957824
 21
1517.336067023497
 31
0.0
  0
LINE
  5
1C8CDE6AC483
330
1C8CDE699D53
100
AcDbEntity
  8
SJC
  6
Continuous
100
AcDbLine
 10
2916.235412957826
 20
1517.757575023497
 30
0.0
 11
2915.171612957824
 21
1516.693717023497
 31
0.0
  0
LINE
  5
1C8CDE6AC484
330
1C8CDE699D53
100
AcDbEntity
  8
SJC
  6
Continuous
100
AcDbLine
 10
2916.886012957824
 20
1517.107093023497
 30
0.0
 11
2915.822012957824
 21
1516.043235023497
 31
0.0
  0
LINE
  5
1C8CDE6AC485
330
1C8CDE699D53
100
AcDbEntity
  8
SJC
  6
Continuous
100
AcDbLine
 10
2913.106812957826
 20
1516.043151023497
 30
0.0
 11
2912.043012957824
 21
1517.107003023497
 31
0.0
  0
LINE
  5
1C8CDE6AC486
330
1C8CDE699D53
100
AcDbEntity
  8
SJC
  6
Continuous
100
AcDbLine
 10
2913.757412957825
 20
1516.693717023497
 30
0.0
 11
2912.693412957824
 21
1517.757575023497
 31
0.0
  0
ARC
  5
1C8CDE6AC487
330
1C8CDE699D53
100
AcDbEntity
  8
SJC
  6
Continuous
100
AcDbCircle
 10
2914.464412957825
 20
1515.336067023496
 30
0.0
 40
3.0
100
AcDbArc
 50
126.1798510000067
 51
143.8201459999962
  0
ARC
  5
1C8CDE6AC488
330
1C8CDE699D53
100
AcDbEntity
  8
SJC
  6
Continuous
100
AcDbCircle
 10
2914.464412957825
 20
1515.336067023496
 30
0.0
 40
3.0
100
AcDbArc
 50
36.17984999999552
 51
53.82015000001413
  0
ARC
  5
1C8CDE6AC489
330
1C8CDE699D53
100
AcDbEntity
  8
SJC
  6
Continuous
100
AcDbCircle
 10
2914.464412957825
 20
1517.400817023497
 30
0.0
 40
1.0
100
AcDbArc
 50
224.9999999999928
 51
315.0000000000072
  0
LINE
  5
1C8CDE6AC48A
330
1C8CDE699D53
100
AcDbEntity
  8
HASEN
100
AcDbLine
 10
2906.747153817801
 20
1525.336067023496
 30
0.0
 11
2907.647445935434
 21
1525.815577410306
 31
0.0
  0
ARC
  5
1C8CDE6AC48B
330
1C8CDE699D53
100
AcDbEntity
  8
SJC2
100
AcDbCircle
 10
2909.999515767437
 20
1527.634136639314
 30
0.0
 40
2.5
100
AcDbArc
 50
304.0969692712208
 51
350.1642161585056
  0
ARC
  5
1C8CDE6AC48C
330
1C8CDE699D53
100
AcDbEntity
  8
SJC
100
AcDbCircle
 10
2923.054812957824
 20
1522.336067023497
 30
0.0
 40
1.0
100
AcDbArc
 50
15.00000999999547
 51
89.99999699998928
  0
ARC
  5
1C8CDE6AC48D
330
1C8CDE699D53
100
AcDbEntity
  8
SJC
100
AcDbCircle
 10
2923.054732957824
 20
1522.336067023497
 30
0.0
 40
1.0
100
AcDbArc
 50
15.00000999999547
 51
89.99999699998928
  0
LINE
  5
1C8CDE6AC48E
330
1C8CDE699D53
100
AcDbEntity
  8
SJC2
100
AcDbLine
 10
2909.910285998929
 20
1527.020242925153
 30
0.0
 11
2907.647445935434
 21
1525.815577410306
 31
0.0
  0
ARC
  5
1C8CDE6AC48F
330
1C8CDE699D53
100
AcDbEntity
  8
SJC2
100
AcDbCircle
 10
2909.322879413772
 20
1528.12362568001
 30
0.0
 40
1.25
100
AcDbArc
 50
298.0294456371225
 51
350.164196570229
  0
LINE
  5
1C8CDE6AC490
330
1C8CDE699D53
100
AcDbEntity
  8
SJC2
100
AcDbLine
 10
2912.310331441793
 20
1538.037503434362
 30
0.0
 11
2909.867143038841
 21
1541.50568801798
 31
0.0
  0
ARC
  5
1C8CDE6AC491
330
1C8CDE699D53
100
AcDbEntity
  8
SJC
100
AcDbCircle
 10
2927.348072957824
 20
1519.836067023496
 30
0.0
 40
2.5
100
AcDbArc
 50
194.9999999999992
 51
270.0
  0
LINE
  5
1C8CDE6AC492
330
1C8CDE699D53
100
AcDbEntity
  8
SJC
100
AcDbLine
 10
2924.020552957825
 20
1522.594847023496
 30
0.0
 11
2924.933152957825
 21
1519.189007023497
 31
0.0
  0
ARC
  5
1C8CDE6AC493
330
1C8CDE699D53
100
AcDbEntity
  8
SJC
100
AcDbCircle
 10
3064.374072957824
 20
1522.336067023497
 30
0.0
 40
1.0
100
AcDbArc
 50
89.99999699998928
 51
165.0000000000007
  0
LINE
  5
1C8CDE6AC494
330
1C8CDE699D53
100
AcDbEntity
  8
SJC
100
AcDbLine
 10
3067.964412957825
 20
1525.336067023497
 30
0.0
 11
3067.964412957825
 21
1523.336067023496
 31
0.0
  0
ARC
  5
1C8CDE6AC495
330
1C8CDE699D53
100
AcDbEntity
  8
SJC
100
AcDbCircle
 10
3060.080732957824
 20
1519.836067023496
 30
0.0
 40
2.5
100
AcDbArc
 50
270.0
 51
344.9999900000045
  0
LINE
  5
1C8CDE6AC496
330
1C8CDE699D53
100
AcDbEntity
  8
SJC
100
AcDbLine
 10
3063.408132957824
 20
1522.594927023497
 30
0.0
 11
3062.495532957824
 21
1519.189007023497
 31
0.0
  0
LINE
  5
1C8CDE6AC497
330
1C8CDE699D53
100
AcDbEntity
  8
SJC2
100
AcDbLine
 10
2935.036236424889
 20
1657.410175191599
 30
0.0
 11
2933.065677517792
 21
1657.7518251254
 31
0.0
  0
LINE
  5
1C8CDE6AC498
330
1C8CDE699D53
100
AcDbEntity
  8
SJC2
100
AcDbLine
 10
2933.065677517792
 20
1657.7518251254
 30
0.0
 11
2931.172126139358
 21
1646.828929577643
 31
0.0
  0
ARC
  5
1C8CDE6AC499
330
1C8CDE699D53
100
AcDbEntity
  8
SJC2
100
AcDbCircle
 10
2930.186947130769
 20
1646.999757832437
 30
0.0
 40
1.0
100
AcDbArc
 50
305.1642061584968
 51
350.1642161585056
  0
ARC
  5
1C8CDE6AC49A
330
1C8CDE699D53
100
AcDbEntity
  8
SJC2
100
AcDbCircle
 10
2929.919534046339
 20
1642.52999418635
 30
0.0
 40
2.5
100
AcDbArc
 50
125.1642151584981
 51
170.1642159585079
  0
LINE
  5
1C8CDE6AC49B
330
1C8CDE699D53
100
AcDbEntity
  8
SJC2
100
AcDbLine
 10
2930.76275328136
 20
1646.182326952582
 30
0.0
 11
2928.479636959142
 21
1644.57385756238
 31
0.0
  0
LINE
  5
1C8CDE6AC49C
330
1C8CDE699D53
100
AcDbEntity
  8
MOJI2
100
AcDbLine
 10
2802.321999540837
 20
1979.99239518315
 30
0.0
 11
2928.551270113796
 21
1979.99239518315
 31
0.0
  0
LINE
  5
1C8CDE6AC49D
330
1C8CDE699D53
100
AcDbEntity
  8
MOJI2
100
AcDbLine
 10
2802.321999540837
 20
1969.992395183151
 30
0.0
 11
2928.551270113796
 21
1969.992395183151
 31
0.0
  0
TEXT
  5
1C8CDE6AC49E
330
1C8CDE699D53
100
AcDbEntity
  8
MOJI2
  6
Continuous
100
AcDbText
 10
2805.599556557167
 20
1990.82813130161
 30
0.0
 40
40.0
  1
サヤ管
 41
0.8
  7
KANJI
100
AcDbText
  0
TEXT
  5
1C8CDE6AC49F
330
1C8CDE699D53
100
AcDbEntity
  8
MOJI
100
AcDbText
 10
2839.173225550947
 20
594.4331832792776
 30
0.0
 40
30.0
  1
SGHC
 41
0.8
  7
EXT08
 72
     1
 11
2887.173225550947
 21
594.4331832792776
 31
0.0
100
AcDbText
  0
TEXT
  5
1C8CDE6AC4A0
330
1C8CDE699D53
100
AcDbEntity
  8
MOJI
100
AcDbText
 10
3054.011614856587
 20
594.4331832792776
 30
0.0
 40
30.0
  1
亜鉛めっき＋静電粉体塗装
 41
0.8
  7
EXT08
 72
     1
 11
3224.411614856587
 21
594.4331832792776
 31
0.0
100
AcDbText
  0
DIMENSION
  5
1C8CDE6AC4A1
330
1C8CDE699D53
100
AcDbEntity
  8
SUNPOU
100
AcDbDimension
  2
*D14
 10
3140.564412957825
 20
1123.736067023497
 30
0.0
 11
3113.96362141715
 21
1075.389824084094
 31
0.0
 70
   160
  1
t<>
 71
     5
 42
1.600000000000136
  3
SJC
100
AcDbAlignedDimension
 13
3053.564372957825
 23
1125.336067023496
 33
0.0
 14
3042.964412957825
 24
1123.736067023497
 34
0.0
 50
270.0
100
AcDbRotatedDimension
1001
ACAD
1000
DSTYLE
1002
{
1070
    40
1040
10.0
1070
    41
1040
2.0
1070
    42
1040
1.0
1070
    43
1040
6.0
1070
    44
1040
1.0
1070
   140
1040
3.0
1070
   147
1040
1.199999999999999
1070
   271
1070
     2
1070
   340
1005
1C8CDE699DA6
1002
}
  0
LEADER
  5
1C8CDE6AC4A2
330
1C8CDE699D53
100
AcDbEntity
  8
MOJI
100
AcDbLeader
  3
SJC
 76
     2
 10
2673.802547731201
 20
1305.399193817977
 30
0.0
 10
2596.487899816573
 20
1385.345938805083
 30
0.0
1001
ACAD
1000
DSTYLE
1002
{
1070
    40
1040
10.0
1070
    41
1040
2.0
1070
    42
1040
1.0
1070
    43
1040
6.0
1070
    44
1040
1.0
1070
   140
1040
3.0
1070
   147
1040
1.199999999999999
1070
   176
1070
     0
1070
   177
1070
     0
1070
   178
1070
     0
1070
   179
1070
     2
1070
   271
1070
     2
1070
   340
1005
1C8CDE699DA6
1002
}
  0
LEADER
  5
1C8CDE6AC4A3
330
1C8CDE699D53
100
AcDbEntity
  8
MOJI
100
AcDbLeader
  3
SJC
 76
     2
 10
2690.925063846465
 20
1641.69913376848
 30
0.0
 10
2596.466547623608
 20
1730.127171252677
 30
0.0
1001
ACAD
1000
DSTYLE
1002
{
1070
    40
1040
10.0
1070
    41
1040
2.0
1070
    42
1040
1.0
1070
    43
1040
6.0
1070
    44
1040
1.0
1070
   140
1040
3.0
1070
   147
1040
1.199999999999999
1070
   176
1070
     0
1070
   177
1070
     0
1070
   178
1070
     0
1070
   179
1070
     2
1070
   271
1070
     2
1070
   340
1005
1C8CDE699DA6
1002
}
  0
LEADER
  5
1C8CDE6AC6AB
330
1C8CDE699D53
100
AcDbEntity
  8
MOJI
100
AcDbLeader
  3
SJC
 76
     2
 10
1025.363991404221
 20
1819.826892413545
 30
0.0
 10
934.9773841276855
 20
1891.225725242546
 30
0.0
1001
ACAD
1000
DSTYLE
1002
{
1070
    40
1040
10.0
1070
    41
1040
2.0
1070
    42
1040
1.0
1070
    43
1040
6.0
1070
    44
1040
1.0
1070
   140
1040
3.0
1070
   147
1040
1.199999999999999
1070
   176
1070
     0
1070
   177
1070
     0
1070
   178
1070
     0
1070
   179
1070
     2
1070
   271
1070
     2
1070
   340
1005
1C8CDE699DA6
1002
}
  0
LEADER
  5
1C8CDE6AC6AC
330
1C8CDE699D53
100
AcDbEntity
  8
MOJI
100
AcDbLeader
  3
SJC
 76
     2
 10
1026.15984665488
 20
1702.084927420629
 30
0.0
 10
937.0176020546933
 20
1754.128962574115
 30
0.0
1001
ACAD
1000
DSTYLE
1002
{
1070
    40
1040
10.0
1070
    41
1040
2.0
1070
    42
1040
1.0
1070
    43
1040
6.0
1070
    44
1040
1.0
1070
   140
1040
3.0
1070
   147
1040
1.199999999999999
1070
   176
1070
     0
1070
   177
1070
     0
1070
   178
1070
     0
1070
   179
1070
     2
1070
   271
1070
     2
1070
   340
1005
1C8CDE699DA6
1002
}
  0
LEADER
  5
1C8CDE6AC6AD
330
1C8CDE699D53
100
AcDbEntity
  8
MOJI
100
AcDbLeader
  3
SJC
 76
     2
 10
1024.159846654878
 20
1213.830886356588
 30
0.0
 10
935.8499616675684
 20
1304.772868416377
 30
0.0
1001
ACAD
1000
DSTYLE
1002
{
1070
    40
1040
10.0
1070
    41
1040
2.0
1070
    42
1040
1.0
1070
    43
1040
6.0
1070
    44
1040
1.0
1070
   140
1040
3.0
1070
   147
1040
1.199999999999999
1070
   176
1070
     0
1070
   177
1070
     0
1070
   178
1070
     0
1070
   179
1070
     2
1070
   271
1070
     2
1070
   340
1005
1C8CDE699DA6
1002
}
  0
LEADER
  5
1C8CDE6AC6AE
330
1C8CDE699D53
100
AcDbEntity
  8
MOJI
100
AcDbLeader
  3
SJC
 76
     2
 10
1012.095684224936
 20
1064.531428012744
 30
0.0
 10
932.0990892383584
 20
1144.47817299985
 30
0.0
1001
ACAD
1000
DSTYLE
1002
{
1070
    40
1040
10.0
1070
    41
1040
2.0
1070
    42
1040
1.0
1070
    43
1040
6.0
1070
    44
1040
1.0
1070
   140
1040
3.0
1070
   147
1040
1.199999999999999
1070
   176
1070
     0
1070
   177
1070
     0
1070
   178
1070
     0
1070
   179
1070
     2
1070
   271
1070
     2
1070
   340
1005
1C8CDE699DA6
1002
}
  0
HATCH
  5
1C8CDE6AC707
330
1C8CDE699D53
100
AcDbEntity
  8
HATCH
100
AcDbHatch
 10
0.0
 20
0.0
 30
0.0
210
0.0
220
0.0
230
1.0
  2
ANSI31
 70
     0
 71
     1
 91
        2
 92
        7
 72
     0
 73
     1
 93
        4
 10
1081.309846654881
 20
1763.407711124524
 10
1026.15984665488
 20
1763.407711124524
 10
1026.159846654879
 20
1643.407711124525
 10
1081.309846654881
 20
1643.407711124524
 97
        4
330
1C8CDE6AC1F8
330
1C8CDE6AC1FB
330
1C8CDE6AC1F9
330
1C8CDE6AA71B
 92
        7
 72
     0
 73
     1
 93
        4
 10
1136.45984665488
 20
1763.407711124524
 10
1081.309846654881
 20
1763.407711124524
 10
1081.309846654881
 20
1643.407711124524
 10
1136.45984665488
 20
1643.407711124524
 97
        4
330
1C8CDE6AC1F8
330
1C8CDE6AA71B
330
1C8CDE6AC1F9
330
1C8CDE6AC200
 75
     0
 76
     1
 52
0.0
 41
50.0
 77
     0
 78
     1
 53
45.0
 43
0.0
 44
0.0
 45
-4.419417382415921
 46
4.419417382415922
 79
     0
 47
1.573641910388514
 98
        2
 10
1056.531572484149
 20
1709.985041532791
 10
1110.0671725588
 20
1709.985041532791
  0
HATCH
  5
1C8CDE6AC716
330
1C8CDE699D53
100
AcDbEntity
  8
HATCH
100
AcDbHatch
 10
0.0
 20
0.0
 30
0.0
210
0.0
220
0.0
230
1.0
  2
ANSI31
 70
     0
 71
     1
 91
        2
 92
        7
 72
     0
 73
     1
 93
        4
 10
1890.877678293687
 20
1763.407711124524
 10
1835.727678293687
 20
1763.407711124524
 10
1835.727678293686
 20
1643.407711124525
 10
1890.877678293687
 20
1643.407711124524
 97
        4
330
1C8CDE6AC2A1
330
1C8CDE6AC298
330
1C8CDE6AC29A
330
1C8CDE6AA89A
 92
        7
 72
     0
 73
     1
 93
        4
 10
1946.027678293688
 20
1763.407711124524
 10
1890.877678293687
 20
1763.407711124524
 10
1890.877678293687
 20
1643.407711124524
 10
1946.027678293686
 20
1643.407711124524
 97
        4
330
1C8CDE6AC2A1
330
1C8CDE6AA89A
330
1C8CDE6AC29A
330
1C8CDE6AC297
 75
     0
 76
     1
 52
0.0
 41
50.0
 77
     0
 78
     1
 53
45.0
 43
0.0
 44
0.0
 45
-4.419417382415921
 46
4.419417382415922
 79
     0
 47
1.573641910388514
 98
        2
 10
1861.140154454637
 20
1721.00053713264
 10
1914.675754529287
 20
1719.426893907185
  0
INSERT
  5
1C8CDE6AC821
330
1C8CDE699D53
100
AcDbEntity
  8
ZWAKU
100
AcDbBlockReference
  2
CALCOMP_TECHJET720A3
 10
0.0
 20
0.0
 30
0.0
 41
10.0
 42
10.0
 43
10.0
  0
TEXT
  5
1C8CDE6AC822
330
1C8CDE699D53
100
AcDbEntity
  8
INFORMATION
100
AcDbText
 10
1.0
 20
2.0
 30
0.0
 40
0.8
  1
PLOTTER=CALCOMP_TECHJET720
100
AcDbText
  0
TEXT
  5
1C8CDE6AC823
330
1C8CDE699D53
100
AcDbEntity
  8
INFORMATION
100
AcDbText
 10
1.0
 20
3.0
 30
0.0
 40
0.8
  1
PAPER=A3
100
AcDbText
  0
TEXT
  5
1C8CDE6AC824
330
1C8CDE699D53
100
AcDbEntity
  8
INFORMATION
100
AcDbText
 10
1.0
 20
1.0
 30
0.0
 40
0.8
  1
VERSION=3.0
100
AcDbText
  0
TEXT
  5
1C8CDE6AC8C8
330
1C8CDE699D53
100
AcDbEntity
  8
MOJI
100
AcDbText
 10
3188.990519568088
 20
2580.063834164814
 30
0.0
 40
30.0
  1
シティ車止め
 41
0.8
  7
EXT08
100
AcDbText
  0
TEXT
  5
1C8CDE6AC8C9
330
1C8CDE699D53
100
AcDbEntity
  8
MOJI
100
AcDbText
 10
3188.990519568088
 20
2530.063834164814
 30
0.0
 40
30.0
  1
CK-114HR-90D
 41
0.8
  7
EXT08
100
AcDbText
  0
LINE
  5
1C8CDE6AC8CA
330
1C8CDE699D53
100
AcDbEntity
  8
SJC
100
AcDbLine
 10
3650.0
 20
2570.0
 30
0.0
 11
3008.054725952008
 21
2570.0
 31
0.0
  0
LINE
  5
1C8CDE6AC8CB
330
1C8CDE699D53
100
AcDbEntity
  8
SJC
100
AcDbLine
 10
3650.0
 20
2520.0
 30
0.0
 11
3008.054725952008
 21
2520.0
 31
0.0
  0
LINE
  5
1C8CDE6AC8CC
330
1C8CDE699D53
100
AcDbEntity
  8
SJC
100
AcDbLine
 10
3023.054725952008
 20
2470.0
 30
0.0
 11
3635.0
 21
2470.0
 31
0.0
  0
LINE
  5
1C8CDE6AC8CD
330
1C8CDE699D53
100
AcDbEntity
  8
SJC
100
AcDbLine
 10
3635.0
 20
2620.0
 30
0.0
 11
3023.054725952008
 21
2620.0
 31
0.0
  0
LINE
  5
1C8CDE6AC8CE
330
1C8CDE699D53
100
AcDbEntity
  8
SJC
100
AcDbLine
 10
3008.054725952008
 20
2605.0
 30
0.0
 11
3008.054725952008
 21
2485.0
 31
0.0
  0
TEXT
  5
1C8CDE6AC8CF
330
1C8CDE699D53
100
AcDbEntity
  8
MOJI
100
AcDbText
 10
3038.990519568088
 20
2530.063834164814
 30
0.0
 40
30.0
  1
品　番
 41
0.8
  7
EXT08
100
AcDbText
  0
ARC
  5
1C8CDE6AC8D0
330
1C8CDE699D53
100
AcDbEntity
  8
SJC
100
AcDbCircle
 10
3023.054725952008
 20
2485.0
 30
0.0
 40
15.0
100
AcDbArc
 50
180.0
 51
270.0
  0
TEXT
  5
1C8CDE6AC8D1
330
1C8CDE699D53
100
AcDbEntity
  8
MOJI
100
AcDbText
 10
3028.938294113912
 20
2480.063834164814
 30
0.0
 40
30.0
  1
図面番号
 41
0.8
  7
EXT08
100
AcDbText
  0
TEXT
  5
1C8CDE6AC8D2
330
1C8CDE699D53
100
AcDbEntity
  8
MOJI
100
AcDbText
 10
3042.312968266521
 20
2580.063834164814
 30
0.0
 40
30.0
  1
タイプ
 41
0.8
  7
EXT08
100
AcDbText
  0
ARC
  5
1C8CDE6AC8D3
330
1C8CDE699D53
100
AcDbEntity
  8
SJC
100
AcDbCircle
 10
3023.054725952008
 20
2605.0
 30
0.0
 40
15.0
100
AcDbArc
 50
90.0
 51
180.0
  0
LINE
  5
1C8CDE6AC8D4
330
1C8CDE699D53
100
AcDbEntity
  8
SJC
100
AcDbLine
 10
3158.054725952008
 20
2620.0
 30
0.0
 11
3158.054725952008
 21
2470.0
 31
0.0
  0
TEXT
  5
1C8CDE6AC8D5
330
1C8CDE699D53
100
AcDbEntity
  8
MOJI
100
AcDbText
 10
3188.990519568088
 20
2480.063834164814
 30
0.0
 40
30.0
  1
KEKH00087※1
 41
0.8
  7
EXT08
100
AcDbText
  0
LINE
  5
1C8CDE6AC8D6
330
1C8CDE699D53
100
AcDbEntity
  8
SJC
100
AcDbLine
 10
3650.0
 20
2485.0
 30
0.0
 11
3650.0
 21
2605.0
 31
0.0
  0
ARC
  5
1C8CDE6AC8D7
330
1C8CDE699D53
100
AcDbEntity
  8
SJC
100
AcDbCircle
 10
3635.0
 20
2485.0
 30
0.0
 40
15.0
100
AcDbArc
 50
270.0
 51
0.0
  0
ARC
  5
1C8CDE6AC8D8
330
1C8CDE699D53
100
AcDbEntity
  8
SJC
100
AcDbCircle
 10
3635.0
 20
2605.0
 30
0.0
 40
15.0
100
AcDbArc
 50
0.0
 51
90.0
  0
ENDSEC
  0
SECTION
  2
OBJECTS
  0
DICTIONARY
  5
1C8CDE699D47
330
0
100
AcDbDictionary
281
     1
  3
ACAD_CIP_PREVIOUS_PRODUCT_INFO
350
1C8CDE6ACA5E
  3
ACAD_COLOR
350
1C8CDE6AC2D6
  3
ACAD_DETAILVIEWSTYLE
350
1C8CDE6AC939
  3
ACAD_GROUP
350
1C8CDE699D48
  3
ACAD_LAYOUT
350
1C8CDE6AC2D9
  3
ACAD_MATERIAL
350
1C8CDE6AC2D5
  3
ACAD_MLEADERSTYLE
350
1C8CDE6AC7D4
  3
ACAD_MLINESTYLE
350
1C8CDE699D49
  3
ACAD_PLOTSETTINGS
350
1C8CDE6AC2DA
  3
ACAD_PLOTSTYLENAME
350
1C8CDE6AC2D3
  3
ACAD_SCALELIST
350
1C8CDE6AC7AF
  3
ACAD_SECTIONVIEWSTYLE
350
1C8CDE6AC93A
  3
ACAD_TABLESTYLE
350
1C8CDE6AC2D7
  3
ACAD_VISUALSTYLE
350
1C8CDE6AC796
  3
ACDB_RECOMPOSE_DATA
350
1C8CDE6ACA66
  3
AcDbVariableDictionary
350
1C8CDE6AC775
  3
DWGPROPS
350
1C8CDE6ACA67
  0
DICTIONARY
  5
1C8CDE6ACA16
330
1C8CDE699D43
100
AcDbDictionary
280
     1
281
     1
  0
DICTIONARY
  5
1C8CDE6AC708
330
1C8CDE699D53
100
AcDbDictionary
280
     1
281
     1
  3
ACAD_SORTENTS
360
1C8CDE6AC709
  0
XRECORD
  5
1C8CDE6ACA5E
102
{ACAD_REACTORS
330
1C8CDE699D47
102
}
330
1C8CDE699D47
100
AcDbXrecord
280
     1
300
ACD
300
2015
300
ACD_F_S
  0
DICTIONARY
  5
1C8CDE6AC2D6
102
{ACAD_REACTORS
330
1C8CDE699D47
102
}
330
1C8CDE699D47
100
AcDbDictionary
281
     1
  0
DICTIONARY
  5
1C8CDE6AC939
102
{ACAD_REACTORS
330
1C8CDE699D47
102
}
330
1C8CDE699D47
100
AcDbDictionary
281
     1
  3
Imperial24
350
1C8CDE6ACA58
  0
DICTIONARY
  5
1C8CDE699D48
102
{ACAD_REACTORS
330
1C8CDE699D47
102
}
330
1C8CDE699D47
100
AcDbDictionary
281
     1
  0
DICTIONARY
  5
1C8CDE6AC2D9
102
{ACAD_REACTORS
330
1C8CDE699D47
102
}
330
1C8CDE699D47
100
AcDbDictionary
281
     1
  3
Model
350
1C8CDE6AC2DB
  3
レイアウト1
350
1C8CDE6AC2DC
  0
DICTIONARY
  5
1C8CDE6AC2D5
102
{ACAD_REACTORS
330
1C8CDE699D47
102
}
330
1C8CDE699D47
100
AcDbDictionary
281
     1
  3
ByBlock
350
1C8CDE6AC7D2
  3
ByLayer
350
1C8CDE6AC7D1
  3
Global
350
1C8CDE6AC7D3
  0
DICTIONARY
  5
1C8CDE6AC7D4
102
{ACAD_REACTORS
330
1C8CDE699D47
102
}
330
1C8CDE699D47
100
AcDbDictionary
281
     1
  3
Standard
350
1C8CDE6AC7D5
  0
DICTIONARY
  5
1C8CDE699D49
102
{ACAD_REACTORS
330
1C8CDE699D47
102
}
330
1C8CDE699D47
100
AcDbDictionary
281
     1
  3
STANDARD
350
1C8CDE699D56
  0
DICTIONARY
  5
1C8CDE6AC2DA
102
{ACAD_REACTORS
330
1C8CDE699D47
102
}
330
1C8CDE699D47
100
AcDbDictionary
281
     1
  0
ACDBDICTIONARYWDFLT
  5
1C8CDE6AC2D3
102
{ACAD_REACTORS
330
1C8CDE699D47
102
}
330
1C8CDE699D47
100
AcDbDictionary
281
     1
  3
Normal
350
1C8CDE6AC2D4
100
AcDbDictionaryWithDefault
340
1C8CDE6AC2D4
  0
DICTIONARY
  5
1C8CDE6AC7AF
102
{ACAD_REACTORS
330
1C8CDE699D47
102
}
330
1C8CDE699D47
100
AcDbDictionary
281
     1
  3
A0
350
1C8CDE6AC7B0
  3
A1
350
1C8CDE6AC7B1
  3
A2
350
1C8CDE6AC7B2
  3
A3
350
1C8CDE6AC7B3
  3
A4
350
1C8CDE6AC7B4
  3
A5
350
1C8CDE6AC7B5
  3
A6
350
1C8CDE6AC7B6
  3
A7
350
1C8CDE6AC7B7
  3
A8
350
1C8CDE6AC7B8
  3
A9
350
1C8CDE6AC7B9
  3
B0
350
1C8CDE6AC7BA
  3
B1
350
1C8CDE6AC7BB
  3
B2
350
1C8CDE6AC7BC
  3
B3
350
1C8CDE6AC7BD
  3
B4
350
1C8CDE6AC7BE
  3
B5
350
1C8CDE6AC7BF
  3
B6
350
1C8CDE6AC7C0
  3
B7
350
1C8CDE6AC7C1
  3
B8
350
1C8CDE6AC7C2
  3
B9
350
1C8CDE6AC7C3
  3
C0
350
1C8CDE6AC7C4
  3
C1
350
1C8CDE6AC7C5
  3
C2
350
1C8CDE6AC7C6
  3
C3
350
1C8CDE6AC7C7
  3
C4
350
1C8CDE6AC7C8
  3
C5
350
1C8CDE6AC7C9
  3
C6
350
1C8CDE6AC7CA
  3
C7
350
1C8CDE6AC7CB
  3
C8
350
1C8CDE6AC7CC
  3
C9
350
1C8CDE6AC7CD
  3
D0
350
1C8CDE6AC7CE
  3
D1
350
1C8CDE6AC7CF
  3
D2
350
1C8CDE6AC7D0
  0
DICTIONARY
  5
1C8CDE6AC93A
102
{ACAD_REACTORS
330
1C8CDE699D47
102
}
330
1C8CDE699D47
100
AcDbDictionary
281
     1
  3
Imperial24
350
1C8CDE6ACA57
  0
DICTIONARY
  5
1C8CDE6AC2D7
102
{ACAD_REACTORS
330
1C8CDE699D47
102
}
330
1C8CDE699D47
100
AcDbDictionary
281
     1
  3
Standard
350
1C8CDE6AC2D8
  0
DICTIONARY
  5
1C8CDE6AC796
102
{ACAD_REACTORS
330
1C8CDE699D47
102
}
330
1C8CDE699D47
100
AcDbDictionary
281
     1
  3
2dWireframe
350
1C8CDE6AC79B
  3
Basic
350
1C8CDE6AC79E
  3
Brighten
350
1C8CDE6AC7A2
  3
ColorChange
350
1C8CDE6AC7A6
  3
Conceptual
350
1C8CDE6AC7A0
  3
Dim
350
1C8CDE6AC7A1
  3
EdgeColorOff
350
1C8CDE6AC7A9
  3
Facepattern
350
1C8CDE6AC7A5
  3
Flat
350
1C8CDE6AC797
  3
FlatWithEdges
350
1C8CDE6AC798
  3
Gouraud
350
1C8CDE6AC799
  3
GouraudWithEdges
350
1C8CDE6AC79A
  3
Hidden
350
1C8CDE6AC79D
  3
JitterOff
350
1C8CDE6AC7A7
  3
Linepattern
350
1C8CDE6AC7A4
  3
Modeling
350
1C8CDE6AC7D6
  3
OverhangOff
350
1C8CDE6AC7A8
  3
Realistic
350
1C8CDE6AC79F
  3
Shaded
350
1C8CDE6AC7AE
  3
Shaded with edges
350
1C8CDE6AC7AD
  3
Shades of Gray
350
1C8CDE6AC7AA
  3
Sketchy
350
1C8CDE6AC7AB
  3
Thicken
350
1C8CDE6AC7A3
  3
Wireframe
350
1C8CDE6AC79C
  3
X-Ray
350
1C8CDE6AC7AC
  0
XRECORD
  5
1C8CDE6ACA66
102
{ACAD_REACTORS
330
1C8CDE699D47
102
}
330
1C8CDE699D47
100
AcDbXrecord
280
     1
 90
        1
330
1C8CDE6AC2D8
  0
DICTIONARY
  5
1C8CDE6AC775
102
{ACAD_REACTORS
330
1C8CDE699D47
102
}
330
1C8CDE699D47
100
AcDbDictionary
281
     1
  3
CANNOSCALE
350
1C8CDE6AC8F9
  3
CMLEADERSTYLE
350
1C8CDE6AC825
  3
CTABLESTYLE
350
1C8CDE6AC776
  3
CVIEWDETAILSTYLE
350
1C8CDE6ACA5F
  3
CVIEWSECTIONSTYLE
350
1C8CDE6ACA60
  3
DIMASSOC
350
1C8CDE6AC777
  3
HIDETEXT
350
1C8CDE6AC829
  3
INDEXCTL
350
1C8CDE6ACA62
  3
MSLTSCALE
350
1C8CDE6AC826
  3
PROJECTNAME
350
1C8CDE6AC778
  3
SORTENTS
350
1C8CDE6ACA61
  3
XCLIPFRAME
350
1C8CDE6ACA63
  0
XRECORD
  5
1C8CDE6ACA67
102
{ACAD_REACTORS
330
1C8CDE699D47
102
}
330
1C8CDE699D47
100
AcDbXrecord
280
     1
  1
DWGPROPS COOKIE
  2

  3

  4

  6

  7

  8
SK000184
  9

300
=
301
=
302
=
303
=
304
=
305
=
306
=
307
=
308
=
309
=
 40
0.8347851504629629
 41
2450469.547535764
 42
2458991.601835185
  1

 90
        0
  0
SORTENTSTABLE
  5
1C8CDE6AC709
102
{ACAD_REACTORS
330
1C8CDE6AC708
102
}
330
1C8CDE6AC708
100
AcDbSortentsTable
330
1C8CDE699D53
331
1C8CDE6A990E
  5
1C8CDE6A990E
331
1C8CDE6A8FF7
  5
1C8CDE6A8FF7
331
1C8CDE6AB88E
  5
1C8CDE6AB890
331
1C8CDE6AB7BC
  5
1C8CDE6AB7BE
331
1C8CDE6A8F30
  5
1C8CDE6A8F30
331
1C8CDE6AC406
  5
1C8CDE6AC408
331
1C8CDE6AB88A
  5
1C8CDE6AB88C
331
1C8CDE6AB7B8
  5
1C8CDE6AB7BA
331
1C8CDE6AC47C
  5
1C8CDE6AC47E
331
1C8CDE6AB886
  5
1C8CDE6AB888
331
1C8CDE6AB7B4
  5
1C8CDE6AB7B6
331
1C8CDE6AA809
  5
1C8CDE6AA80A
331
1C8CDE6AC478
  5
1C8CDE6AC47A
331
1C8CDE6AC43D
  5
1C8CDE6AC43F
331
1C8CDE6AC28B
  5
1C8CDE6AC298
331
1C8CDE6AB882
  5
1C8CDE6AB884
331
1C8CDE6AB7B0
  5
1C8CDE6AB7B2
331
1C8CDE6AC474
  5
1C8CDE6AC476
331
1C8CDE6AC439
  5
1C8CDE6AC43B
331
1C8CDE6AC470
  5
1C8CDE6AC472
331
1C8CDE6A8E6F
  5
1C8CDE6A8E6F
331
1C8CDE6A8E6B
  5
1C8CDE6A8E6B
331
1C8CDE6A8E67
  5
1C8CDE6A8E67
331
1C8CDE6A92AE
  5
1C8CDE6A92AE
331
1C8CDE6A8E63
  5
1C8CDE6A8E63
331
1C8CDE6AB87E
  5
1C8CDE6AB881
331
1C8CDE6AB7AC
  5
1C8CDE6AB7AE
331
1C8CDE6A92AA
  5
1C8CDE6A92AA
331
1C8CDE6AC435
  5
1C8CDE6AC437
331
1C8CDE6AC283
  5
1C8CDE6AC28B
331
1C8CDE6AB87A
  5
1C8CDE6AB87C
331
1C8CDE6AB7A8
  5
1C8CDE6AB7AA
331
1C8CDE6A92A6
  5
1C8CDE6A92A6
331
1C8CDE6A8FD3
  5
1C8CDE6A8FD3
331
1C8CDE6AB7E3
  5
1C8CDE6AB7E5
331
1C8CDE6AC46C
  5
1C8CDE6AC46E
331
1C8CDE6AC431
  5
1C8CDE6AC433
331
1C8CDE6AB876
  5
1C8CDE6AB878
331
1C8CDE6AB7A4
  5
1C8CDE6AB7A6
331
1C8CDE6A92A2
  5
1C8CDE6A92A2
331
1C8CDE6AC468
  5
1C8CDE6AC46A
331
1C8CDE6AC42D
  5
1C8CDE6AC42F
331
1C8CDE6AB872
  5
1C8CDE6AB876
331
1C8CDE6AC4A3
  5
1C8CDE6AC6AC
331
1C8CDE6AC464
  5
1C8CDE6AC466
331
1C8CDE6AC429
  5
1C8CDE6AC42B
331
1C8CDE6AC460
  5
1C8CDE6AC462
331
1C8CDE6AB7DF
  5
1C8CDE6AB7E1
331
1C8CDE6A929E
  5
1C8CDE6A929E
331
1C8CDE6AB86E
  5
1C8CDE6AB870
331
1C8CDE6AB7DB
  5
1C8CDE6AB7DD
331
1C8CDE6A8EF8
  5
1C8CDE6A8EF8
331
1C8CDE6A8FBB
  5
1C8CDE6A8FBB
331
1C8CDE6AB7D7
  5
1C8CDE6AB7D9
331
1C8CDE6AC49F
  5
1C8CDE6AC4A1
331
1C8CDE6AC425
  5
1C8CDE6AC427
331
1C8CDE6AC204
  5
1C8CDE6AC222
331
1C8CDE6AB86A
  5
1C8CDE6AB86C
331
1C8CDE6AB798
  5
1C8CDE6AB79A
331
1C8CDE6A9036
  5
1C8CDE6A9036
331
1C8CDE6A8EE4
  5
1C8CDE6A8EE4
331
1C8CDE6AC421
  5
1C8CDE6AC423
331
1C8CDE6AC49B
  5
1C8CDE6AC49D
331
1C8CDE6AC45C
  5
1C8CDE6AC45E
331
1C8CDE6AC2AA
  5
1C8CDE6AC2E3
331
1C8CDE6AC200
  5
1C8CDE6AC202
331
1C8CDE6AB866
  5
1C8CDE6AB868
331
1C8CDE6AB7D3
  5
1C8CDE6AB7D5
331
1C8CDE6A9032
  5
1C8CDE6A9032
331
1C8CDE6AC497
  5
1C8CDE6AC499
331
1C8CDE6AC458
  5
1C8CDE6AC45A
331
1C8CDE6AC41D
  5
1C8CDE6AC41F
331
1C8CDE6AC1FC
  5
1C8CDE6AC1FE
331
1C8CDE6AB862
  5
1C8CDE6AB864
331
1C8CDE6AC419
  5
1C8CDE6AC41B
331
1C8CDE6AC493
  5
1C8CDE6AC495
331
1C8CDE6AC454
  5
1C8CDE6AC456
331
1C8CDE6AC2A2
  5
1C8CDE6AC2A4
331
1C8CDE6AC1F8
  5
1C8CDE6AC1FB
331
1C8CDE6AC450
  5
1C8CDE6AC452
331
1C8CDE6AC6AC
  5
1C8CDE6AC6AE
331
1C8CDE6AB7CF
  5
1C8CDE6AB7D1
331
1C8CDE6A901E
  5
1C8CDE6A901E
331
1C8CDE6A8F47
  5
1C8CDE6A8F47
331
1C8CDE6AB85E
  5
1C8CDE6AB860
331
1C8CDE6AB7CB
  5
1C8CDE6AB7CD
331
1C8CDE6A8ED0
  5
1C8CDE6A8ED0
331
1C8CDE6AC415
  5
1C8CDE6AC417
331
1C8CDE6AC48F
  5
1C8CDE6AC491
331
1C8CDE6AC29E
  5
1C8CDE6AC2A0
331
1C8CDE6AC1F4
  5
1C8CDE6AC1F7
331
1C8CDE6AB85A
  5
1C8CDE6AB85C
331
1C8CDE6AB7C7
  5
1C8CDE6AB7C9
331
1C8CDE6A8F43
  5
1C8CDE6A8F43
331
1C8CDE6AC411
  5
1C8CDE6AC413
331
1C8CDE6AC48B
  5
1C8CDE6AC48D
331
1C8CDE6AC44C
  5
1C8CDE6AC44E
331
1C8CDE6AC29A
  5
1C8CDE6AC29C
331
1C8CDE6AB895
  5
1C8CDE6ABE97
331
1C8CDE6AB7C3
  5
1C8CDE6AB7C5
331
1C8CDE6A900A
  5
1C8CDE6A900A
331
1C8CDE6AC487
  5
1C8CDE6AC489
331
1C8CDE6AC448
  5
1C8CDE6AC44A
331
1C8CDE6AC40D
  5
1C8CDE6AC40F
331
1C8CDE6AB891
  5
1C8CDE6AB893
331
1C8CDE6AC483
  5
1C8CDE6AC485
331
1C8CDE6AC444
  5
1C8CDE6AC446
331
1C8CDE6AC409
  5
1C8CDE6AC40B
331
1C8CDE6ABE98
  5
1C8CDE6AC1F5
331
1C8CDE6AC440
  5
1C8CDE6AC442
331
1C8CDE6AB7BF
  5
1C8CDE6AB7C1
331
1C8CDE6A8E72
  5
1C8CDE6A8E72
331
1C8CDE6AB88D
  5
1C8CDE6AB88F
331
1C8CDE6AB7BB
  5
1C8CDE6AB7BD
331
1C8CDE6A8F2F
  5
1C8CDE6A8F2F
331
1C8CDE6AC47F
  5
1C8CDE6AC481
331
1C8CDE6AC405
  5
1C8CDE6AC407
331
1C8CDE6AB889
  5
1C8CDE6AB88B
331
1C8CDE6AB7B7
  5
1C8CDE6AB7B9
331
1C8CDE6AC47B
  5
1C8CDE6AC47D
331
1C8CDE6AC22F
  5
1C8CDE6AC249
331
1C8CDE6AB885
  5
1C8CDE6AB887
331
1C8CDE6AB7B3
  5
1C8CDE6AB7B5
331
1C8CDE6AA808
  5
1C8CDE6AA809
331
1C8CDE6AC477
  5
1C8CDE6AC479
331
1C8CDE6AC43C
  5
1C8CDE6AC43E
331
1C8CDE6AC28A
  5
1C8CDE6AC297
331
1C8CDE6AB881
  5
1C8CDE6AB883
331
1C8CDE6AC473
  5
1C8CDE6AC475
331
1C8CDE6AC438
  5
1C8CDE6AC43A
331
1C8CDE6A8E6E
  5
1C8CDE6A8E6E
331
1C8CDE6A8E6A
  5
1C8CDE6A8E6A
331
1C8CDE6A8E66
  5
1C8CDE6A8E66
331
1C8CDE6AB7AF
  5
1C8CDE6AB7B1
331
1C8CDE6A92AD
  5
1C8CDE6A92AD
331
1C8CDE6A8E62
  5
1C8CDE6A8E62
331
1C8CDE6AB87D
  5
1C8CDE6AB87F
331
1C8CDE6AB7AB
  5
1C8CDE6AB7AD
331
1C8CDE6A92A9
  5
1C8CDE6A92A9
331
1C8CDE6A8FD2
  5
1C8CDE6A8FD2
331
1C8CDE6AB7E6
  5
1C8CDE6AB859
331
1C8CDE6AC46F
  5
1C8CDE6AC471
331
1C8CDE6AC434
  5
1C8CDE6AC436
331
1C8CDE6AC282
  5
1C8CDE6AC28A
331
1C8CDE6AB879
  5
1C8CDE6AB87B
331
1C8CDE6AB7A7
  5
1C8CDE6AB7A9
331
1C8CDE6A92A5
  5
1C8CDE6A92A5
331
1C8CDE6A8F0B
  5
1C8CDE6A8F0B
331
1C8CDE6AB7E2
  5
1C8CDE6AB7E4
331
1C8CDE6AC46B
  5
1C8CDE6AC46D
331
1C8CDE6AC430
  5
1C8CDE6AC432
331
1C8CDE6AB7A3
  5
1C8CDE6AB7A5
331
1C8CDE6A92A1
  5
1C8CDE6A92A1
331
1C8CDE6AC467
  5
1C8CDE6AC469
331
1C8CDE6AC42C
  5
1C8CDE6AC42E
331
1C8CDE6AB871
  5
1C8CDE6AB873
331
1C8CDE6AC4A2
  5
1C8CDE6AC6AB
331
1C8CDE6AC463
  5
1C8CDE6AC465
331
1C8CDE6AC428
  5
1C8CDE6AC42A
331
1C8CDE6AC707
  5
1C8CDE6AA71B
331
1C8CDE6AB7DE
  5
1C8CDE6AB7E0
331
1C8CDE6AB7DA
  5
1C8CDE6AB7DC
331
1C8CDE6AC207
  5
1C8CDE6AC22F
331
1C8CDE6AB86D
  5
1C8CDE6AB86F
331
1C8CDE6AB79B
  5
1C8CDE6AB7A2
331
1C8CDE6A8FBE
  5
1C8CDE6A8FBE
331
1C8CDE6AB7D6
  5
1C8CDE6AB7D8
331
1C8CDE6AC49E
  5
1C8CDE6AC4A0
331
1C8CDE6AC45F
  5
1C8CDE6AC461
331
1C8CDE6AC424
  5
1C8CDE6AC426
331
1C8CDE6AC203
  5
1C8CDE6AC207
331
1C8CDE6AB869
  5
1C8CDE6AB86B
331
1C8CDE6AB797
  5
1C8CDE6AB799
331
1C8CDE6A8FBA
  5
1C8CDE6A8FBA
331
1C8CDE6AC420
  5
1C8CDE6AC422
331
1C8CDE6AC49A
  5
1C8CDE6AC49C
331
1C8CDE6AC45B
  5
1C8CDE6AC45D
331
1C8CDE6AC2A9
  5
1C8CDE6AC2E2
331
1C8CDE6AC1FF
  5
1C8CDE6AC201
331
1C8CDE6AB865
  5
1C8CDE6AB867
331
1C8CDE6AB7D2
  5
1C8CDE6AB7D4
331
1C8CDE6A9031
  5
1C8CDE6A9031
331
1C8CDE6AC41C
  5
1C8CDE6AC41E
331
1C8CDE6AC496
  5
1C8CDE6AC498
331
1C8CDE6AC457
  5
1C8CDE6AC459
331
1C8CDE6AC2A5
  5
1C8CDE6AC2A8
331
1C8CDE6AC1FB
  5
1C8CDE6AC1FD
331
1C8CDE6AB861
  5
1C8CDE6AB863
331
1C8CDE6AC418
  5
1C8CDE6AC41A
331
1C8CDE6AC492
  5
1C8CDE6AC494
331
1C8CDE6AC453
  5
1C8CDE6AC455
331
1C8CDE6AC2A1
  5
1C8CDE6AC2A3
331
1C8CDE6AC6AB
  5
1C8CDE6AC6AD
331
1C8CDE6AB7CE
  5
1C8CDE6AB7D0
331
1C8CDE6A901D
  5
1C8CDE6A901D
331
1C8CDE6AC1F7
  5
1C8CDE6AC1F9
331
1C8CDE6AB85D
  5
1C8CDE6AB85F
331
1C8CDE6AB7CA
  5
1C8CDE6AB7CC
331
1C8CDE6A8F46
  5
1C8CDE6A8F46
331
1C8CDE6AC48E
  5
1C8CDE6AC490
331
1C8CDE6AC44F
  5
1C8CDE6AC451
331
1C8CDE6AC414
  5
1C8CDE6AC416
331
1C8CDE6AB859
  5
1C8CDE6AB85B
331
1C8CDE6AB7C6
  5
1C8CDE6AB7C8
331
1C8CDE6A8F42
  5
1C8CDE6A8F42
331
1C8CDE6A9910
  5
1C8CDE6A9910
331
1C8CDE6AC48A
  5
1C8CDE6AC48C
331
1C8CDE6AC44B
  5
1C8CDE6AC44D
331
1C8CDE6AC410
  5
1C8CDE6AC412
331
1C8CDE6AB894
  5
1C8CDE6ABE8B
331
1C8CDE6AB7C2
  5
1C8CDE6AB7C4
331
1C8CDE6A9009
  5
1C8CDE6A9009
331
1C8CDE6AC486
  5
1C8CDE6AC488
331
1C8CDE6AC447
  5
1C8CDE6AC449
331
1C8CDE6AC40C
  5
1C8CDE6AC40E
331
1C8CDE6AB890
  5
1C8CDE6AB892
331
1C8CDE6AC482
  5
1C8CDE6AC484
331
1C8CDE6AC443
  5
1C8CDE6AC445
331
1C8CDE6AC408
  5
1C8CDE6AC40A
331
1C8CDE6AB7BE
  5
1C8CDE6AB7C0
331
1C8CDE6A990C
  5
1C8CDE6A990C
331
1C8CDE6A8E71
  5
1C8CDE6A8E71
331
1C8CDE6AB88C
  5
1C8CDE6AB88E
331
1C8CDE6AB7BA
  5
1C8CDE6AB7BC
331
1C8CDE6ABE97
  5
1C8CDE6AC1F4
331
1C8CDE6AC47E
  5
1C8CDE6AC480
331
1C8CDE6AC404
  5
1C8CDE6AC406
331
1C8CDE6AB888
  5
1C8CDE6AB88A
331
1C8CDE6AB7B6
  5
1C8CDE6AB7B8
331
1C8CDE6AC47A
  5
1C8CDE6AC47C
331
1C8CDE6AC43F
  5
1C8CDE6AC441
331
1C8CDE6AB884
  5
1C8CDE6AB886
331
1C8CDE6AB7B2
  5
1C8CDE6AB7B4
331
1C8CDE6A92B0
  5
1C8CDE6A92B0
331
1C8CDE6AC476
  5
1C8CDE6AC478
331
1C8CDE6AC43B
  5
1C8CDE6AC43D
331
1C8CDE6AC472
  5
1C8CDE6AC474
331
1C8CDE6AC716
  5
1C8CDE6AB2BD
331
1C8CDE6A8E6D
  5
1C8CDE6A8E6D
331
1C8CDE6A8E69
  5
1C8CDE6A8E69
331
1C8CDE6A8FE5
  5
1C8CDE6A8FE5
331
1C8CDE6A8E65
  5
1C8CDE6A8E65
331
1C8CDE6AA71B
  5
1C8CDE6AA808
331
1C8CDE6AB7AE
  5
1C8CDE6AB7B0
331
1C8CDE6A92AC
  5
1C8CDE6A92AC
331
1C8CDE6ABE8B
  5
1C8CDE6ABE98
331
1C8CDE6AC437
  5
1C8CDE6AC439
331
1C8CDE6AB87C
  5
1C8CDE6AB87E
331
1C8CDE6AB7AA
  5
1C8CDE6AB7AC
331
1C8CDE6A92A8
  5
1C8CDE6A92A8
331
1C8CDE6AB7E5
  5
1C8CDE6AB858
331
1C8CDE6AC281
  5
1C8CDE6AC283
331
1C8CDE6AC46E
  5
1C8CDE6AC470
331
1C8CDE6AC433
  5
1C8CDE6AC435
331
1C8CDE6AC222
  5
1C8CDE6AC23C
331
1C8CDE6AB878
  5
1C8CDE6AB87A
331
1C8CDE6AB7A6
  5
1C8CDE6AB7A8
331
1C8CDE6A92A4
  5
1C8CDE6A92A4
331
1C8CDE6AB7E1
  5
1C8CDE6AB7E3
331
1C8CDE6AC46A
  5
1C8CDE6AC46C
331
1C8CDE6AC42F
  5
1C8CDE6AC431
331
1C8CDE6AB7A2
  5
1C8CDE6AB7A4
331
1C8CDE6A92A0
  5
1C8CDE6A92A0
331
1C8CDE6AC466
  5
1C8CDE6AC468
331
1C8CDE6AC42B
  5
1C8CDE6AC42D
331
1C8CDE6AB870
  5
1C8CDE6AB872
331
1C8CDE6AC4A1
  5
1C8CDE6AC4A3
331
1C8CDE6AC462
  5
1C8CDE6AC464
331
1C8CDE6AB7DD
  5
1C8CDE6AB7DF
331
1C8CDE6A8FBD
  5
1C8CDE6A8FBD
331
1C8CDE6AB7D9
  5
1C8CDE6AB7DB
331
1C8CDE6AC427
  5
1C8CDE6AC429
331
1C8CDE6AB86C
  5
1C8CDE6AB86E
331
1C8CDE6AB79A
  5
1C8CDE6AB7A1
331
1C8CDE6A8EE6
  5
1C8CDE6A8EE6
331
1C8CDE6AB7D5
  5
1C8CDE6AB7D7
331
1C8CDE6AC49D
  5
1C8CDE6AC49F
331
1C8CDE6AC45E
  5
1C8CDE6AC460
331
1C8CDE6AC423
  5
1C8CDE6AC425
331
1C8CDE6AC202
  5
1C8CDE6AC204
331
1C8CDE6AB868
  5
1C8CDE6AB86A
331
1C8CDE6AB796
  5
1C8CDE6AB798
331
1C8CDE6A8FB9
  5
1C8CDE6A8FB9
331
1C8CDE6AC41F
  5
1C8CDE6AC421
331
1C8CDE6AC499
  5
1C8CDE6AC49B
331
1C8CDE6AC45A
  5
1C8CDE6AC45C
331
1C8CDE6AC2A8
  5
1C8CDE6AC2AA
331
1C8CDE6AC1FE
  5
1C8CDE6AC200
331
1C8CDE6AB864
  5
1C8CDE6AB866
331
1C8CDE6AB7D1
  5
1C8CDE6AB7D3
331
1C8CDE6A9030
  5
1C8CDE6A9030
331
1C8CDE6AC41B
  5
1C8CDE6AC41D
331
1C8CDE6AC495
  5
1C8CDE6AC497
331
1C8CDE6AC456
  5
1C8CDE6AC458
331
1C8CDE6AC2A4
  5
1C8CDE6AC2A7
331
1C8CDE6AB860
  5
1C8CDE6AB862
331
1C8CDE6AC491
  5
1C8CDE6AC493
331
1C8CDE6AC452
  5
1C8CDE6AC454
331
1C8CDE6AC2A0
  5
1C8CDE6AC2A2
331
1C8CDE6AC6AE
  5
1C8CDE6AC70A
331
1C8CDE6A8F49
  5
1C8CDE6A8F49
331
1C8CDE6AB7CD
  5
1C8CDE6AB7CF
331
1C8CDE6AB2BE
  5
1C8CDE6AB796
331
1C8CDE6A901C
  5
1C8CDE6A901C
331
1C8CDE6A8ED2
  5
1C8CDE6A8ED2
331
1C8CDE6AC417
  5
1C8CDE6AC419
331
1C8CDE6AB85C
  5
1C8CDE6AB85E
331
1C8CDE6AB7C9
  5
1C8CDE6AB7CB
331
1C8CDE6A8F45
  5
1C8CDE6A8F45
331
1C8CDE6AC413
  5
1C8CDE6AC415
331
1C8CDE6AC48D
  5
1C8CDE6AC48F
331
1C8CDE6AC44E
  5
1C8CDE6AC450
331
1C8CDE6AC29C
  5
1C8CDE6AC29F
331
1C8CDE6AC249
  5
1C8CDE6AC282
331
1C8CDE6AB858
  5
1C8CDE6AB85A
331
1C8CDE6AB7C5
  5
1C8CDE6AB7C7
331
1C8CDE6AB7C1
  5
1C8CDE6AB7C3
331
1C8CDE6AC40F
  5
1C8CDE6AC411
331
1C8CDE6AC489
  5
1C8CDE6AC48B
331
1C8CDE6AC44A
  5
1C8CDE6AC44C
331
1C8CDE6AC298
  5
1C8CDE6AC29B
331
1C8CDE6AB893
  5
1C8CDE6AB895
331
1C8CDE6AA89A
  5
1C8CDE6AB2BE
331
1C8CDE6AC485
  5
1C8CDE6AC487
331
1C8CDE6AC446
  5
1C8CDE6AC448
331
1C8CDE6AC40B
  5
1C8CDE6AC40D
331
1C8CDE6AC481
  5
1C8CDE6AC483
331
1C8CDE6AC442
  5
1C8CDE6AC444
331
1C8CDE6AB88F
  5
1C8CDE6AB891
331
1C8CDE6AB7BD
  5
1C8CDE6AB7BF
331
1C8CDE6A990B
  5
1C8CDE6A990B
331
1C8CDE6A8E70
  5
1C8CDE6A8E70
331
1C8CDE6AC407
  5
1C8CDE6AC409
331
1C8CDE6AB88B
  5
1C8CDE6AB88D
331
1C8CDE6AB7B9
  5
1C8CDE6AB7BB
331
1C8CDE6AC47D
  5
1C8CDE6AC47F
331
1C8CDE6AB887
  5
1C8CDE6AB889
331
1C8CDE6AB7B5
  5
1C8CDE6AB7B7
331
1C8CDE6AA80A
  5
1C8CDE6AA89A
331
1C8CDE6AC479
  5
1C8CDE6AC47B
331
1C8CDE6AC43E
  5
1C8CDE6AC440
331
1C8CDE6AB883
  5
1C8CDE6AB885
331
1C8CDE6AB7B1
  5
1C8CDE6AB7B3
331
1C8CDE6AC475
  5
1C8CDE6AC477
331
1C8CDE6AC43A
  5
1C8CDE6AC43C
331
1C8CDE6AC471
  5
1C8CDE6AC473
331
1C8CDE6A8E6C
  5
1C8CDE6A8E6C
331
1C8CDE6A8E68
  5
1C8CDE6A8E68
331
1C8CDE6A92AF
  5
1C8CDE6A92AF
331
1C8CDE6A8F1D
  5
1C8CDE6A8F1D
331
1C8CDE6A8E64
  5
1C8CDE6A8E64
331
1C8CDE6AB87F
  5
1C8CDE6AB882
331
1C8CDE6AB7AD
  5
1C8CDE6AB7AF
331
1C8CDE6A92AB
  5
1C8CDE6A92AB
331
1C8CDE6A8E60
  5
1C8CDE6A8E60
331
1C8CDE6AC436
  5
1C8CDE6AC438
331
1C8CDE6AB87B
  5
1C8CDE6AB87D
331
1C8CDE6AB7A9
  5
1C8CDE6AB7AB
331
1C8CDE6A92A7
  5
1C8CDE6A92A7
331
1C8CDE6AB7E4
  5
1C8CDE6AB7E6
331
1C8CDE6AC46D
  5
1C8CDE6AC46F
331
1C8CDE6AC432
  5
1C8CDE6AC434
331
1C8CDE6AB877
  5
1C8CDE6AB879
331
1C8CDE6AB7A5
  5
1C8CDE6AB7A7
331
1C8CDE6A92A3
  5
1C8CDE6A92A3
331
1C8CDE6AB7E0
  5
1C8CDE6AB7E2
331
1C8CDE6AC469
  5
1C8CDE6AC46B
331
1C8CDE6AC42E
  5
1C8CDE6AC430
331
1C8CDE6AB873
  5
1C8CDE6AB877
331
1C8CDE6AB7A1
  5
1C8CDE6AB7A3
331
1C8CDE6AC465
  5
1C8CDE6AC467
331
1C8CDE6AC42A
  5
1C8CDE6AC42C
331
1C8CDE6AC4A0
  5
1C8CDE6AC4A2
331
1C8CDE6AC461
  5
1C8CDE6AC463
331
1C8CDE6A929F
  5
1C8CDE6A929F
331
1C8CDE6A8FC0
  5
1C8CDE6A8FC0
331
1C8CDE6AB86F
  5
1C8CDE6AB871
331
1C8CDE6AB7DC
  5
1C8CDE6AB7DE
331
1C8CDE6A8EF9
  5
1C8CDE6A8EF9
331
1C8CDE6A8FBC
  5
1C8CDE6A8FBC
331
1C8CDE6AB7D8
  5
1C8CDE6AB7DA
331
1C8CDE6AC426
  5
1C8CDE6AC428
331
1C8CDE6AB86B
  5
1C8CDE6AB86D
331
1C8CDE6AB799
  5
1C8CDE6AB79B
331
1C8CDE6A9037
  5
1C8CDE6A9037
331
1C8CDE6A8EE5
  5
1C8CDE6A8EE5
331
1C8CDE6AB7D4
  5
1C8CDE6AB7D6
331
1C8CDE6AC49C
  5
1C8CDE6AC49E
331
1C8CDE6AC45D
  5
1C8CDE6AC45F
331
1C8CDE6AC422
  5
1C8CDE6AC424
331
1C8CDE6AC201
  5
1C8CDE6AC203
331
1C8CDE6AB867
  5
1C8CDE6AB869
331
1C8CDE6AB795
  5
1C8CDE6AB797
331
1C8CDE6AC41E
  5
1C8CDE6AC420
331
1C8CDE6AC498
  5
1C8CDE6AC49A
331
1C8CDE6AC459
  5
1C8CDE6AC45B
331
1C8CDE6AC2A7
  5
1C8CDE6AC2A9
331
1C8CDE6AC1FD
  5
1C8CDE6AC1FF
331
1C8CDE6AB863
  5
1C8CDE6AB865
331
1C8CDE6AB7D0
  5
1C8CDE6AB7D2
331
1C8CDE6AC41A
  5
1C8CDE6AC41C
331
1C8CDE6AC494
  5
1C8CDE6AC496
331
1C8CDE6AC455
  5
1C8CDE6AC457
331
1C8CDE6AC2A3
  5
1C8CDE6AC2A5
331
1C8CDE6AC1F9
  5
1C8CDE6AC1FC
331
1C8CDE6AC490
  5
1C8CDE6AC492
331
1C8CDE6AC451
  5
1C8CDE6AC453
331
1C8CDE6AC6AD
  5
1C8CDE6AC6FB
331
1C8CDE6A8F48
  5
1C8CDE6A8F48
331
1C8CDE6AB7CC
  5
1C8CDE6AB7CE
331
1C8CDE6AB85F
  5
1C8CDE6AB861
331
1C8CDE6AB2BD
  5
1C8CDE6AB795
331
1C8CDE6A991A
  5
1C8CDE6A991A
331
1C8CDE6A8ED1
  5
1C8CDE6A8ED1
331
1C8CDE6AC416
  5
1C8CDE6AC418
331
1C8CDE6AC29F
  5
1C8CDE6AC2A1
331
1C8CDE6AC1F5
  5
1C8CDE6AC1F8
331
1C8CDE6AB85B
  5
1C8CDE6AB85D
331
1C8CDE6AB7C8
  5
1C8CDE6AB7CA
331
1C8CDE6A8F44
  5
1C8CDE6A8F44
331
1C8CDE6AC412
  5
1C8CDE6AC414
331
1C8CDE6AC48C
  5
1C8CDE6AC48E
331
1C8CDE6AC44D
  5
1C8CDE6AC44F
331
1C8CDE6AC29B
  5
1C8CDE6AC29E
331
1C8CDE6AB7C4
  5
1C8CDE6AB7C6
331
1C8CDE6A8EB9
  5
1C8CDE6A8EB9
331
1C8CDE6AC40E
  5
1C8CDE6AC410
331
1C8CDE6AC488
  5
1C8CDE6AC48A
331
1C8CDE6AC449
  5
1C8CDE6AC44B
331
1C8CDE6AC297
  5
1C8CDE6AC29A
331
1C8CDE6AC23C
  5
1C8CDE6AC281
331
1C8CDE6AB892
  5
1C8CDE6AB894
331
1C8CDE6AB7C0
  5
1C8CDE6AB7C2
331
1C8CDE6AC484
  5
1C8CDE6AC486
331
1C8CDE6AC445
  5
1C8CDE6AC447
331
1C8CDE6AC40A
  5
1C8CDE6AC40C
331
1C8CDE6AC480
  5
1C8CDE6AC482
331
1C8CDE6AC441
  5
1C8CDE6AC443
  0
ACDBDETAILVIEWSTYLE
  5
1C8CDE6ACA58
102
{ACAD_XDICTIONARY
360
1C8CDE6ACAA7
102
}
102
{ACAD_REACTORS
330
1C8CDE6AC939
102
}
330
1C8CDE6AC939
100
AcDbModelDocViewStyle
 70
     0
  3
Imperial24
290
     0
100
AcDbDetailViewStyle
 70
     0
 71
     0
 90
        3
 71
     1
340
1C8CDE699D4B
 40
0.24
340
0
 40
0.24
300

 40
0.36
280
     3
 71
     2
340
1C8CDE699D4F
 90
       25
 71
     3
340
1C8CDE699D4B
 40
0.24
 90
        1
 40
0.75
 90
        1
300
%<\AcVar ViewType \f "%tc1">% %<\AcVar ViewDetailId>%\PSCALE %<\AcVar ViewScale \f "%sn">%
 71
     4
340
1C8CDE699D4F
 90
       25
340
1C8CDE699D4F
 90
       25
280
     0
  0
LAYOUT
  5
1C8CDE6AC2DB
102
{ACAD_XDICTIONARY
360
1C8CDE6ACA69
102
}
102
{ACAD_REACTORS
330
1C8CDE6AC2D9
102
}
330
1C8CDE6AC2D9
100
AcDbPlotSettings
  1

  2
CNSAcrobat PDFWriter6.pc3
  4
UserDefinedMetric (168.00 X 118.00ミリ)
  6

 40
3.200000047683715
 41
3.200000047683715
 42
3.199996948242187
 43
3.199996948242187
 44
168.0
 45
118.0
 46
0.0
 47
0.0
 48
0.0
 49
0.0
140
3700.0
141
2670.0
142
1.0
143
675.9677237396314
 70
 11952
 72
     0
 73
     0
 74
     2
  7
CALCOMP_TECHJET720.ctb
 75
     0
147
0.0014793605743004
148
0.0
149
0.0
100
AcDbLayout
  1
Model
 70
     1
 71
     0
 10
0.0
 20
0.0
 11
12.0
 21
9.0
 12
0.0
 22
0.0
 32
0.0
 14
0.0
 24
0.0
 34
0.0
 15
3700.0
 25
2670.0
 35
0.0
146
0.0
 13
0.0
 23
0.0
 33
0.0
 16
1.0
 26
0.0
 36
0.0
 17
0.0
 27
1.0
 37
0.0
 76
     0
330
1C8CDE699D53
1001
ACAD_PSEXT
1000
CNSAcrobat PDFWriter6.pc3
1000
DWG To PDF
1000
ファイル
1000

1070
     0
  0
LAYOUT
  5
1C8CDE6AC2DC
102
{ACAD_XDICTIONARY
360
1C8CDE6ACA6B
102
}
102
{ACAD_REACTORS
330
1C8CDE6AC2D9
102
}
330
1C8CDE6AC2D9
100
AcDbPlotSettings
  1

  2
C:\Documents and Settings\SJC\Application Data\Autodesk\AutoCAD 2005\R16.1\jpn\plotters\RICOH imagio Neo 601 RPCS.pc3
  4

  6

 40
0.0
 41
0.0
 42
0.0
 43
0.0
 44
0.0
 45
0.0
 46
0.0
 47
0.0
 48
0.0
 49
0.0
140
0.0
141
0.0
142
1.0
143
1.0
 70
   688
 72
     0
 73
     0
 74
     5
  7
LP-8700.ctb
 75
    16
147
1.0
148
0.0
149
0.0
100
AcDbLayout
  1
レイアウト1
 70
     0
 71
     1
 10
0.0
 20
0.0
 11
12.0
 21
9.0
 12
0.0
 22
0.0
 32
0.0
 14
1.000000000000000E+20
 24
1.000000000000000E+20
 34
1.000000000000000E+20
 15
-1.000000000000000E+20
 25
-1.000000000000000E+20
 35
-1.000000000000000E+20
146
0.0
 13
0.0
 23
0.0
 33
0.0
 16
1.0
 26
0.0
 36
0.0
 17
0.0
 27
1.0
 37
0.0
 76
     0
330
1C8CDE699D50
  0
MATERIAL
  5
1C8CDE6AC7D2
102
{ACAD_XDICTIONARY
360
1C8CDE6ACA9F
102
}
102
{ACAD_REACTORS
330
1C8CDE6AC2D5
102
}
330
1C8CDE6AC2D5
100
AcDbMaterial
  1
ByBlock
 73
     1
 78
     1
172
     1
176
     1
270
     1
274
     1
  0
MATERIAL
  5
1C8CDE6AC7D1
102
{ACAD_XDICTIONARY
360
1C8CDE6ACA9D
102
}
102
{ACAD_REACTORS
330
1C8CDE6AC2D5
102
}
330
1C8CDE6AC2D5
100
AcDbMaterial
  1
ByLayer
 73
     1
 78
     1
172
     1
176
     1
270
     1
274
     1
  0
MATERIAL
  5
1C8CDE6AC7D3
102
{ACAD_XDICTIONARY
360
1C8CDE6ACAA1
102
}
102
{ACAD_REACTORS
330
1C8CDE6AC2D5
102
}
330
1C8CDE6AC2D5
100
AcDbMaterial
  1
Global
 73
     1
 78
     1
172
     1
176
     1
270
     1
274
     1
  0
MLEADERSTYLE
  5
1C8CDE6AC7D5
102
{ACAD_REACTORS
330
1C8CDE6AC7D4
102
}
330
1C8CDE6AC7D4
100
AcDbMLeaderStyle
170
     2
171
     1
172
     0
 90
        2
 40
0.0
 41
0.0
173
     1
 91
-1056964608
340
1C8CDE699D4D
 92
       -2
290
     1
 42
0.09
291
     1
 43
0.36
  3
Standard
 44
0.18
300

342
1C8CDE699D4B
174
     1
178
     6
175
     1
176
     0
 93
-1056964608
 45
0.18
292
     0
297
     0
 46
0.18
 94
-1056964608
 47
1.0
 49
1.0
140
1.0
293
     1
141
0.0
294
     1
177
     0
142
1.0
295
     0
296
     0
143
0.125
1001
ACAD_MLEADERVER
1070
     2
  0
MLINESTYLE
  5
1C8CDE699D56
102
{ACAD_REACTORS
330
1C8CDE699D49
102
}
330
1C8CDE699D49
100
AcDbMlineStyle
  2
STANDARD
 70
     0
  3

 62
     0
 51
90.0
 52
90.0
 71
     2
 49
0.5
 62
   256
  6
BYLAYER
 49
-0.5
 62
   256
  6
BYLAYER
  0
ACDBPLACEHOLDER
  5
1C8CDE6AC2D4
102
{ACAD_REACTORS
330
1C8CDE6AC2D3
102
}
330
1C8CDE6AC2D3
  0
SCALE
  5
1C8CDE6AC7B0
102
{ACAD_REACTORS
330
1C8CDE6AC7AF
102
}
330
1C8CDE6AC7AF
100
AcDbScale
 70
     0
300
1:1
140
1.0
141
1.0
290
     1
  0
SCALE
  5
1C8CDE6AC7B1
102
{ACAD_REACTORS
330
1C8CDE6AC7AF
102
}
330
1C8CDE6AC7AF
100
AcDbScale
 70
     0
300
1:2
140
1.0
141
2.0
290
     0
  0
SCALE
  5
1C8CDE6AC7B2
102
{ACAD_REACTORS
330
1C8CDE6AC7AF
102
}
330
1C8CDE6AC7AF
100
AcDbScale
 70
     0
300
1:4
140
1.0
141
4.0
290
     0
  0
SCALE
  5
1C8CDE6AC7B3
102
{ACAD_REACTORS
330
1C8CDE6AC7AF
102
}
330
1C8CDE6AC7AF
100
AcDbScale
 70
     0
300
1:5
140
1.0
141
5.0
290
     0
  0
SCALE
  5
1C8CDE6AC7B4
102
{ACAD_REACTORS
330
1C8CDE6AC7AF
102
}
330
1C8CDE6AC7AF
100
AcDbScale
 70
     0
300
1:8
140
1.0
141
8.0
290
     0
  0
SCALE
  5
1C8CDE6AC7B5
102
{ACAD_REACTORS
330
1C8CDE6AC7AF
102
}
330
1C8CDE6AC7AF
100
AcDbScale
 70
     0
300
1:10
140
1.0
141
10.0
290
     0
  0
SCALE
  5
1C8CDE6AC7B6
102
{ACAD_REACTORS
330
1C8CDE6AC7AF
102
}
330
1C8CDE6AC7AF
100
AcDbScale
 70
     0
300
1:16
140
1.0
141
16.0
290
     0
  0
SCALE
  5
1C8CDE6AC7B7
102
{ACAD_REACTORS
330
1C8CDE6AC7AF
102
}
330
1C8CDE6AC7AF
100
AcDbScale
 70
     0
300
1:20
140
1.0
141
20.0
290
     0
  0
SCALE
  5
1C8CDE6AC7B8
102
{ACAD_REACTORS
330
1C8CDE6AC7AF
102
}
330
1C8CDE6AC7AF
100
AcDbScale
 70
     0
300
1:30
140
1.0
141
30.0
290
     0
  0
SCALE
  5
1C8CDE6AC7B9
102
{ACAD_REACTORS
330
1C8CDE6AC7AF
102
}
330
1C8CDE6AC7AF
100
AcDbScale
 70
     0
300
1:40
140
1.0
141
40.0
290
     0
  0
SCALE
  5
1C8CDE6AC7BA
102
{ACAD_REACTORS
330
1C8CDE6AC7AF
102
}
330
1C8CDE6AC7AF
100
AcDbScale
 70
     0
300
1:50
140
1.0
141
50.0
290
     0
  0
SCALE
  5
1C8CDE6AC7BB
102
{ACAD_REACTORS
330
1C8CDE6AC7AF
102
}
330
1C8CDE6AC7AF
100
AcDbScale
 70
     0
300
1:100
140
1.0
141
100.0
290
     0
  0
SCALE
  5
1C8CDE6AC7BC
102
{ACAD_REACTORS
330
1C8CDE6AC7AF
102
}
330
1C8CDE6AC7AF
100
AcDbScale
 70
     0
300
2:1
140
2.0
141
1.0
290
     0
  0
SCALE
  5
1C8CDE6AC7BD
102
{ACAD_REACTORS
330
1C8CDE6AC7AF
102
}
330
1C8CDE6AC7AF
100
AcDbScale
 70
     0
300
4:1
140
4.0
141
1.0
290
     0
  0
SCALE
  5
1C8CDE6AC7BE
102
{ACAD_REACTORS
330
1C8CDE6AC7AF
102
}
330
1C8CDE6AC7AF
100
AcDbScale
 70
     0
300
8:1
140
8.0
141
1.0
290
     0
  0
SCALE
  5
1C8CDE6AC7BF
102
{ACAD_REACTORS
330
1C8CDE6AC7AF
102
}
330
1C8CDE6AC7AF
100
AcDbScale
 70
     0
300
10:1
140
10.0
141
1.0
290
     0
  0
SCALE
  5
1C8CDE6AC7C0
102
{ACAD_REACTORS
330
1C8CDE6AC7AF
102
}
330
1C8CDE6AC7AF
100
AcDbScale
 70
     0
300
100:1
140
100.0
141
1.0
290
     0
  0
SCALE
  5
1C8CDE6AC7C1
102
{ACAD_REACTORS
330
1C8CDE6AC7AF
102
}
330
1C8CDE6AC7AF
100
AcDbScale
 70
     0
300
1/128" = 1'-0"
140
0.0078125
141
12.0
290
     0
  0
SCALE
  5
1C8CDE6AC7C2
102
{ACAD_REACTORS
330
1C8CDE6AC7AF
102
}
330
1C8CDE6AC7AF
100
AcDbScale
 70
     0
300
1/64" = 1'-0"
140
0.015625
141
12.0
290
     0
  0
SCALE
  5
1C8CDE6AC7C3
102
{ACAD_REACTORS
330
1C8CDE6AC7AF
102
}
330
1C8CDE6AC7AF
100
AcDbScale
 70
     0
300
1/32" = 1'-0"
140
0.03125
141
12.0
290
     0
  0
SCALE
  5
1C8CDE6AC7C4
102
{ACAD_REACTORS
330
1C8CDE6AC7AF
102
}
330
1C8CDE6AC7AF
100
AcDbScale
 70
     0
300
1/16" = 1'-0"
140
0.0625
141
12.0
290
     0
  0
SCALE
  5
1C8CDE6AC7C5
102
{ACAD_REACTORS
330
1C8CDE6AC7AF
102
}
330
1C8CDE6AC7AF
100
AcDbScale
 70
     0
300
3/32" = 1'-0"
140
0.09375
141
12.0
290
     0
  0
SCALE
  5
1C8CDE6AC7C6
102
{ACAD_REACTORS
330
1C8CDE6AC7AF
102
}
330
1C8CDE6AC7AF
100
AcDbScale
 70
     0
300
1/8" = 1'-0"
140
0.125
141
12.0
290
     0
  0
SCALE
  5
1C8CDE6AC7C7
102
{ACAD_REACTORS
330
1C8CDE6AC7AF
102
}
330
1C8CDE6AC7AF
100
AcDbScale
 70
     0
300
3/16" = 1'-0"
140
0.1875
141
12.0
290
     0
  0
SCALE
  5
1C8CDE6AC7C8
102
{ACAD_REACTORS
330
1C8CDE6AC7AF
102
}
330
1C8CDE6AC7AF
100
AcDbScale
 70
     0
300
1/4" = 1'-0"
140
0.25
141
12.0
290
     0
  0
SCALE
  5
1C8CDE6AC7C9
102
{ACAD_REACTORS
330
1C8CDE6AC7AF
102
}
330
1C8CDE6AC7AF
100
AcDbScale
 70
     0
300
3/8" = 1'-0"
140
0.375
141
12.0
290
     0
  0
SCALE
  5
1C8CDE6AC7CA
102
{ACAD_REACTORS
330
1C8CDE6AC7AF
102
}
330
1C8CDE6AC7AF
100
AcDbScale
 70
     0
300
1/2" = 1'-0"
140
0.5
141
12.0
290
     0
  0
SCALE
  5
1C8CDE6AC7CB
102
{ACAD_REACTORS
330
1C8CDE6AC7AF
102
}
330
1C8CDE6AC7AF
100
AcDbScale
 70
     0
300
3/4" = 1'-0"
140
0.75
141
12.0
290
     0
  0
SCALE
  5
1C8CDE6AC7CC
102
{ACAD_REACTORS
330
1C8CDE6AC7AF
102
}
330
1C8CDE6AC7AF
100
AcDbScale
 70
     0
300
1" = 1'-0"
140
1.0
141
12.0
290
     0
  0
SCALE
  5
1C8CDE6AC7CD
102
{ACAD_REACTORS
330
1C8CDE6AC7AF
102
}
330
1C8CDE6AC7AF
100
AcDbScale
 70
     0
300
1-1/2" = 1'-0"
140
1.5
141
12.0
290
     0
  0
SCALE
  5
1C8CDE6AC7CE
102
{ACAD_REACTORS
330
1C8CDE6AC7AF
102
}
330
1C8CDE6AC7AF
100
AcDbScale
 70
     0
300
3" = 1'-0"
140
3.0
141
12.0
290
     0
  0
SCALE
  5
1C8CDE6AC7CF
102
{ACAD_REACTORS
330
1C8CDE6AC7AF
102
}
330
1C8CDE6AC7AF
100
AcDbScale
 70
     0
300
6" = 1'-0"
140
6.0
141
12.0
290
     0
  0
SCALE
  5
1C8CDE6AC7D0
102
{ACAD_REACTORS
330
1C8CDE6AC7AF
102
}
330
1C8CDE6AC7AF
100
AcDbScale
 70
     0
300
1'-0" = 1'-0"
140
12.0
141
12.0
290
     0
  0
ACDBSECTIONVIEWSTYLE
  5
1C8CDE6ACA57
102
{ACAD_XDICTIONARY
360
1C8CDE6ACAA5
102
}
102
{ACAD_REACTORS
330
1C8CDE6AC93A
102
}
330
1C8CDE6AC93A
100
AcDbModelDocViewStyle
 70
     0
  3
Imperial24
290
     0
100
AcDbSectionViewStyle
 70
     0
 71
     0
 90
       78
 71
     1
340
1C8CDE699D4B
 40
0.24
340
0
340
0
 40
0.24
300
I, O, Q, S, X, Z
 40
0.48
 90
        3
 40
0.18
 90
        1
 71
     2
340
1C8CDE699D4F
 90
       25
340
1C8CDE699D4F
 90
       50
 40
0.24
 40
0.0
 40
0.24
 71
     3
340
1C8CDE699D4B
 40
0.24
 90
        1
 40
0.75
 90
        1
300
%<\AcVar ViewType \f "%tc1">% %<\AcVar ViewSectionStartId>%-%<\AcVar ViewSectionEndId>%\PSCALE %<\AcVar ViewScale \f "%sn">%
 71
     4
300
ANSI31
 40
1.0
 90
        0
290
     0
290
     0
 90
        6
 40
0.0
 40
1.570796326794896
 40
0.2617993877991494
 40
1.308996938995747
 40
-0.2617993877991494
 40
1.832595714594046
  0
TABLESTYLE
  5
1C8CDE6AC2D8
102
{ACAD_XDICTIONARY
360
1C8CDE6ACA1E
102
}
102
{ACAD_REACTORS
330
1C8CDE6AC2D7
102
}
330
1C8CDE6AC2D7
100
AcDbTableStyle
  3
Standard
 70
     0
 71
     0
 40
0.06
 41
0.06
280
     0
281
     0
  7
STANDARD
140
0.18
170
     2
 62
     0
 63
     7
283
     0
274
    -2
284
     1
 64
     0
275
    -2
285
     1
 65
     0
276
    -2
286
     1
 66
     0
277
    -2
287
     1
 67
     0
278
    -2
288
     1
 68
     0
279
    -2
289
     1
 69
     0
  7
STANDARD
140
0.25
170
     5
 62
     0
 63
     7
283
     0
274
    -2
284
     1
 64
     0
275
    -2
285
     1
 65
     0
276
    -2
286
     1
 66
     0
277
    -2
287
     1
 67
     0
278
    -2
288
     1
 68
     0
279
    -2
289
     1
 69
     0
  7
STANDARD
140
0.18
170
     5
 62
     0
 63
     7
283
     0
274
    -2
284
     1
 64
     0
275
    -2
285
     1
 65
     0
276
    -2
286
     1
 66
     0
277
    -2
287
     1
 67
     0
278
    -2
288
     1
 68
     0
279
    -2
289
     1
 69
     0
  0
VISUALSTYLE
  5
1C8CDE6AC79B
102
{ACAD_XDICTIONARY
360
1C8CDE6ACA75
102
}
102
{ACAD_REACTORS
330
1C8CDE6AC796
102
}
330
1C8CDE6AC796
100
AcDbVisualStyle
  2
2dWireframe
 70
     4
 71
     0
 72
     2
 73
     0
 90
        0
 40
-0.6
 41
-30.0
 62
     5
 63
     7
 74
     1
 91
        4
 64
     7
 65
   257
 75
     1
175
     1
 42
1.0
 92
        0
 66
   257
 43
1.0
 76
     1
 77
     6
 78
     2
 67
     7
 79
     5
170
     0
171
     0
290
     0
174
     0
 93
        1
 44
0.0
173
     0
291
     0
 45
0.0
1001
ACAD
1000
AcDbSavedByObjectVersion
1070
     0
  0
VISUALSTYLE
  5
1C8CDE6AC79E
102
{ACAD_XDICTIONARY
360
1C8CDE6ACA7B
102
}
102
{ACAD_REACTORS
330
1C8CDE6AC796
102
}
330
1C8CDE6AC796
100
AcDbVisualStyle
  2
Basic
 70
     7
 71
     1
 72
     0
 73
     1
 90
        0
 40
-0.6
 41
-30.0
 62
     5
 63
     7
 74
     0
 91
        4
 64
     7
 65
   257
 75
     1
175
     1
 42
1.0
 92
        8
 66
     7
 43
1.0
 76
     1
 77
     6
 78
     2
 67
     7
 79
     5
170
     0
171
     0
290
     0
174
     0
 93
        1
 44
0.0
173
     0
291
     1
 45
0.0
1001
ACAD
1000
AcDbSavedByObjectVersion
1070
     0
  0
VISUALSTYLE
  5
1C8CDE6AC7A2
102
{ACAD_XDICTIONARY
360
1C8CDE6ACA83
102
}
102
{ACAD_REACTORS
330
1C8CDE6AC796
102
}
330
1C8CDE6AC796
100
AcDbVisualStyle
  2
Brighten
 70
    12
 71
     2
 72
     2
 73
     0
 90
        0
 40
-0.6
 41
-30.0
 62
     5
 63
     7
 74
     1
 91
        4
 64
     7
 65
   257
 75
     1
175
     1
 42
1.0
 92
        8
 66
     7
 43
1.0
 76
     1
 77
     6
 78
     2
 67
     7
 79
     5
170
     0
171
     0
290
     0
174
     0
 93
        1
 44
50.0
173
     0
291
     1
 45
0.0
1001
ACAD
1000
AcDbSavedByObjectVersion
1070
     0
  0
VISUALSTYLE
  5
1C8CDE6AC7A6
102
{ACAD_XDICTIONARY
360
1C8CDE6ACA8B
102
}
102
{ACAD_REACTORS
330
1C8CDE6AC796
102
}
330
1C8CDE6AC796
100
AcDbVisualStyle
  2
ColorChange
 70
    16
 71
     2
 72
     2
 73
     3
 90
        0
 40
-0.6
 41
-30.0
 62
     5
 63
     8
 74
     1
 91
        4
 64
     7
 65
   257
 75
     1
175
     1
 42
1.0
 92
        8
 66
     8
 43
1.0
 76
     1
 77
     6
 78
     2
 67
     7
 79
     5
170
     0
171
     0
290
     0
174
     0
 93
        1
 44
0.0
173
     0
291
     1
 45
0.0
1001
ACAD
1000
AcDbSavedByObjectVersion
1070
     0
  0
VISUALSTYLE
  5
1C8CDE6AC7A0
102
{ACAD_XDICTIONARY
360
1C8CDE6ACA7F
102
}
102
{ACAD_REACTORS
330
1C8CDE6AC796
102
}
330
1C8CDE6AC796
100
AcDbVisualStyle
  2
Conceptual
 70
     9
 71
     3
 72
     2
 73
     0
 90
        0
 40
-0.6
 41
-30.0
 62
     5
 63
     7
 74
     2
 91
        2
 64
     7
 65
   257
 75
     1
175
     1
 42
179.0
 92
        8
 66
     7
 43
1.0
 76
     1
 77
     6
 78
     2
 67
     7
 79
     3
170
     0
171
     0
290
     0
174
     0
 93
        1
 44
0.0
173
     0
291
     0
 45
0.0
1001
ACAD
1000
AcDbSavedByObjectVersion
1070
     0
  0
VISUALSTYLE
  5
1C8CDE6AC7A1
102
{ACAD_XDICTIONARY
360
1C8CDE6ACA81
102
}
102
{ACAD_REACTORS
330
1C8CDE6AC796
102
}
330
1C8CDE6AC796
100
AcDbVisualStyle
  2
Dim
 70
    11
 71
     2
 72
     2
 73
     0
 90
        0
 40
-0.6
 41
-30.0
 62
     5
 63
     7
 74
     1
 91
        4
 64
     7
 65
   257
 75
     1
175
     1
 42
1.0
 92
        8
 66
     7
 43
1.0
 76
     1
 77
     6
 78
     2
 67
     7
 79
     5
170
     0
171
     0
290
     0
174
     0
 93
        1
 44
-50.0
173
     0
291
     1
 45
0.0
1001
ACAD
1000
AcDbSavedByObjectVersion
1070
     0
  0
VISUALSTYLE
  5
1C8CDE6AC7A9
102
{ACAD_XDICTIONARY
360
1C8CDE6ACA91
102
}
102
{ACAD_REACTORS
330
1C8CDE6AC796
102
}
330
1C8CDE6AC796
100
AcDbVisualStyle
  2
EdgeColorOff
 70
    22
 71
     2
 72
     2
 73
     0
 90
        0
 40
-0.6
 41
-30.0
 62
     5
 63
     7
 74
     1
 91
        4
 64
     7
 65
   257
 75
     1
175
     1
 42
1.0
 92
        8
 66
     7
 43
1.0
 76
     1
 77
     6
 78
     2
 67
     7
 79
     5
170
     0
171
     0
290
     0
174
     0
 93
        1
 44
0.0
173
     0
291
     1
 45
0.0
1001
ACAD
1000
AcDbSavedByObjectVersion
1070
     0
  0
VISUALSTYLE
  5
1C8CDE6AC7A5
102
{ACAD_XDICTIONARY
360
1C8CDE6ACA89
102
}
102
{ACAD_REACTORS
330
1C8CDE6AC796
102
}
330
1C8CDE6AC796
100
AcDbVisualStyle
  2
Facepattern
 70
    15
 71
     2
 72
     2
 73
     0
 90
        0
 40
-0.6
 41
-30.0
 62
     5
 63
     7
 74
     1
 91
        4
 64
     7
 65
   257
 75
     1
175
     1
 42
1.0
 92
        8
 66
     7
 43
1.0
 76
     1
 77
     6
 78
     2
 67
     7
 79
     5
170
     0
171
     0
290
     0
174
     0
 93
        1
 44
0.0
173
     0
291
     1
 45
0.0
1001
ACAD
1000
AcDbSavedByObjectVersion
1070
     0
  0
VISUALSTYLE
  5
1C8CDE6AC797
102
{ACAD_XDICTIONARY
360
1C8CDE6ACA6D
102
}
102
{ACAD_REACTORS
330
1C8CDE6AC796
102
}
330
1C8CDE6AC796
100
AcDbVisualStyle
  2
Flat
 70
     0
 71
     2
 72
     1
 73
     1
 90
        2
 40
-0.6
 41
30.0
 62
     5
 63
     7
 74
     0
 91
        0
 64
     7
 65
   257
 75
     1
175
     1
 42
1.0
 92
        8
 66
     7
 43
1.0
 76
     1
 77
     6
 78
     2
 67
     7
 79
     5
170
     0
171
     0
290
     0
174
     0
 93
       13
 44
0.0
173
     0
291
     1
 45
0.0
1001
ACAD
1000
AcDbSavedByObjectVersion
1070
     0
  0
VISUALSTYLE
  5
1C8CDE6AC798
102
{ACAD_XDICTIONARY
360
1C8CDE6ACA6F
102
}
102
{ACAD_REACTORS
330
1C8CDE6AC796
102
}
330
1C8CDE6AC796
100
AcDbVisualStyle
  2
FlatWithEdges
 70
     1
 71
     2
 72
     1
 73
     1
 90
        2
 40
-0.6
 41
30.0
 62
     5
 63
     7
 74
     1
 91
        0
 64
     7
 65
   257
 75
     1
175
     1
 42
1.0
 92
        0
 66
   257
 43
1.0
 76
     1
 77
     6
 78
     2
 67
     7
 79
     5
170
     0
171
     0
290
     0
174
     0
 93
       13
 44
0.0
173
     0
291
     1
 45
0.0
1001
ACAD
1000
AcDbSavedByObjectVersion
1070
     0
  0
VISUALSTYLE
  5
1C8CDE6AC799
102
{ACAD_XDICTIONARY
360
1C8CDE6ACA71
102
}
102
{ACAD_REACTORS
330
1C8CDE6AC796
102
}
330
1C8CDE6AC796
100
AcDbVisualStyle
  2
Gouraud
 70
     2
 71
     2
 72
     2
 73
     1
 90
        2
 40
-0.6
 41
30.0
 62
     5
 63
     7
 74
     0
 91
        0
 64
     7
 65
   257
 75
     1
175
     1
 42
1.0
 92
        0
 66
     7
 43
1.0
 76
     1
 77
     6
 78
     2
 67
     7
 79
     5
170
     0
171
     0
290
     0
174
     0
 93
       13
 44
0.0
173
     0
291
     1
 45
0.0
1001
ACAD
1000
AcDbSavedByObjectVersion
1070
     0
  0
VISUALSTYLE
  5
1C8CDE6AC79A
102
{ACAD_XDICTIONARY
360
1C8CDE6ACA73
102
}
102
{ACAD_REACTORS
330
1C8CDE6AC796
102
}
330
1C8CDE6AC796
100
AcDbVisualStyle
  2
GouraudWithEdges
 70
     3
 71
     2
 72
     2
 73
     1
 90
        2
 40
-0.6
 41
30.0
 62
     5
 63
     7
 74
     1
 91
        0
 64
     7
 65
   257
 75
     1
175
     1
 42
1.0
 92
        0
 66
   257
 43
1.0
 76
     1
 77
     6
 78
     2
 67
     7
 79
     5
170
     0
171
     0
290
     0
174
     0
 93
       13
 44
0.0
173
     0
291
     1
 45
0.0
1001
ACAD
1000
AcDbSavedByObjectVersion
1070
     0
  0
VISUALSTYLE
  5
1C8CDE6AC79D
102
{ACAD_XDICTIONARY
360
1C8CDE6ACA79
102
}
102
{ACAD_REACTORS
330
1C8CDE6AC796
102
}
330
1C8CDE6AC796
100
AcDbVisualStyle
  2
Hidden
 70
     6
 71
     1
 72
     2
 73
     2
 90
        0
 40
-0.6
 41
-30.0
 62
     5
 63
     7
 74
     2
 91
        2
 64
     7
 65
   257
 75
     2
175
     1
 42
40.0
 92
        0
 66
   257
 43
1.0
 76
     1
 77
     6
 78
     2
 67
     7
 79
     3
170
     0
171
     0
290
     0
174
     0
 93
        1
 44
0.0
173
     0
291
     0
 45
0.0
1001
ACAD
1000
AcDbSavedByObjectVersion
1070
     0
  0
VISUALSTYLE
  5
1C8CDE6AC7A7
102
{ACAD_XDICTIONARY
360
1C8CDE6ACA8D
102
}
102
{ACAD_REACTORS
330
1C8CDE6AC796
102
}
330
1C8CDE6AC796
100
AcDbVisualStyle
  2
JitterOff
 70
    20
 71
     2
 72
     2
 73
     0
 90
        0
 40
-0.6
 41
-30.0
 62
     5
 63
     7
 74
     1
 91
        4
 64
     7
 65
   257
 75
     1
175
     1
 42
1.0
 92
       10
 66
     7
 43
1.0
 76
     1
 77
     6
 78
     2
 67
     7
 79
     5
170
     0
171
     0
290
     0
174
     0
 93
        1
 44
0.0
173
     0
291
     1
 45
0.0
1001
ACAD
1000
AcDbSavedByObjectVersion
1070
     0
  0
VISUALSTYLE
  5
1C8CDE6AC7A4
102
{ACAD_XDICTIONARY
360
1C8CDE6ACA87
102
}
102
{ACAD_REACTORS
330
1C8CDE6AC796
102
}
330
1C8CDE6AC796
100
AcDbVisualStyle
  2
Linepattern
 70
    14
 71
     2
 72
     2
 73
     0
 90
        0
 40
-0.6
 41
-30.0
 62
     5
 63
     7
 74
     1
 91
        4
 64
     7
 65
   257
 75
     7
175
     7
 42
1.0
 92
        8
 66
     7
 43
1.0
 76
     1
 77
     6
 78
     2
 67
     7
 79
     5
170
     0
171
     0
290
     0
174
     0
 93
        1
 44
0.0
173
     0
291
     1
 45
0.0
1001
ACAD
1000
AcDbSavedByObjectVersion
1070
     0
  0
VISUALSTYLE
  5
1C8CDE6AC7D6
102
{ACAD_XDICTIONARY
360
1C8CDE6ACAA3
102
}
102
{ACAD_REACTORS
330
1C8CDE6AC796
102
}
330
1C8CDE6AC796
100
AcDbVisualStyle
  2

 70
    10
 71
     2
 72
     3
 73
     0
 90
        2
 40
-0.6
 41
30.0
 62
     5
 63
     7
 74
     2
 91
        0
 64
     7
 65
   257
 75
     1
175
     1
 42
180.0
 92
        8
 66
     8
 43
1.0
 76
     1
 77
     6
 78
     2
 67
     7
 79
     5
170
     0
171
     0
290
     0
174
     0
 93
       13
 44
0.0
173
     0
291
     0
 45
0.0
1001
ACAD
1000
AcDbSavedByObjectVersion
1070
     0
  0
VISUALSTYLE
  5
1C8CDE6AC7A8
102
{ACAD_XDICTIONARY
360
1C8CDE6ACA8F
102
}
102
{ACAD_REACTORS
330
1C8CDE6AC796
102
}
330
1C8CDE6AC796
100
AcDbVisualStyle
  2
OverhangOff
 70
    21
 71
     2
 72
     2
 73
     0
 90
        0
 40
-0.6
 41
-30.0
 62
     5
 63
     7
 74
     1
 91
        4
 64
     7
 65
   257
 75
     1
175
     1
 42
1.0
 92
        9
 66
     7
 43
1.0
 76
     1
 77
     6
 78
     2
 67
     7
 79
     5
170
     0
171
     0
290
     0
174
     0
 93
        1
 44
0.0
173
     0
291
     1
 45
0.0
1001
ACAD
1000
AcDbSavedByObjectVersion
1070
     0
  0
VISUALSTYLE
  5
1C8CDE6AC79F
102
{ACAD_XDICTIONARY
360
1C8CDE6ACA7D
102
}
102
{ACAD_REACTORS
330
1C8CDE6AC796
102
}
330
1C8CDE6AC796
100
AcDbVisualStyle
  2
Realistic
 70
     8
 71
     2
 72
     3
 73
     0
 90
        2
 40
-0.6
 41
30.0
 62
     5
 63
     7
 74
     0
 91
        0
 64
     7
 65
   257
 75
     1
175
     1
 42
1.0
 92
        8
 66
   257
 43
1.0
 76
     1
 77
     6
 78
     2
 67
     7
 79
     3
170
     0
171
     0
290
     0
174
     0
 93
       13
 44
0.0
173
     0
291
     0
 45
0.0
1001
ACAD
1000
AcDbSavedByObjectVersion
1070
     0
  0
VISUALSTYLE
  5
1C8CDE6AC7AE
102
{ACAD_XDICTIONARY
360
1C8CDE6ACA9B
102
}
102
{ACAD_REACTORS
330
1C8CDE6AC796
102
}
330
1C8CDE6AC796
100
AcDbVisualStyle
  2
Shaded
 70
    27
 71
     2
 72
     2
 73
     1
 90
        2
 40
-0.6
 41
30.0
 62
     5
 63
     7
 74
     0
 91
        4
 64
     7
 65
   257
 75
     1
175
     1
 42
1.0
 92
        8
 66
   257
 43
1.0
 76
     1
 77
     6
 78
     2
 67
     8
 79
     3
170
     0
171
     0
290
     0
174
     0
 93
        5
 44
0.0
173
     0
291
     0
 45
0.0
1001
ACAD
1000
AcDbSavedByObjectVersion
1070
     0
  0
VISUALSTYLE
  5
1C8CDE6AC7AD
102
{ACAD_XDICTIONARY
360
1C8CDE6ACA99
102
}
102
{ACAD_REACTORS
330
1C8CDE6AC796
102
}
330
1C8CDE6AC796
100
AcDbVisualStyle
  2
Shaded with edges
 70
    26
 71
     2
 72
     2
 73
     1
 90
        2
 40
-0.6
 41
30.0
 62
     5
 63
     7
 74
     1
 91
       10
 64
     7
 65
   257
 75
     2
175
     1
 42
1.0
 92
        8
 66
   257
 43
1.0
 76
     1
 77
     6
 78
     2
 67
     7
 79
     3
170
     0
171
     0
290
     0
174
     0
 93
        5
 44
0.0
173
     0
291
     0
 45
0.0
1001
ACAD
1000
AcDbSavedByObjectVersion
1070
     0
  0
VISUALSTYLE
  5
1C8CDE6AC7AA
102
{ACAD_XDICTIONARY
360
1C8CDE6ACA93
102
}
102
{ACAD_REACTORS
330
1C8CDE6AC796
102
}
330
1C8CDE6AC796
100
AcDbVisualStyle
  2
Shades of Gray
 70
    23
 71
     2
 72
     2
 73
     3
 90
        0
 40
-0.6
 41
-30.0
 62
     5
 63
     7
 74
     2
 91
        2
 64
     7
 65
     7
 75
     1
175
     1
 42
40.0
 92
        8
 66
     7
 43
1.0
 76
     1
 77
     6
 78
     2
 67
     7
 79
     3
170
     0
171
     0
290
     0
174
     0
 93
        1
 44
0.0
173
     0
291
     0
 45
0.0
1001
ACAD
1000
AcDbSavedByObjectVersion
1070
     0
  0
VISUALSTYLE
  5
1C8CDE6AC7AB
102
{ACAD_XDICTIONARY
360
1C8CDE6ACA95
102
}
102
{ACAD_REACTORS
330
1C8CDE6AC796
102
}
330
1C8CDE6AC796
100
AcDbVisualStyle
  2
Sketchy
 70
    24
 71
     1
 72
     2
 73
     2
 90
        0
 40
-0.6
 41
-30.0
 62
     5
 63
     7
 74
     2
 91
        2
 64
     7
 65
     7
 75
     1
175
     1
 42
40.0
 92
       11
 66
     7
 43
1.0
 76
     1
 77
     6
 78
     2
 67
     7
 79
     6
170
     0
171
     0
290
     0
174
     0
 93
        1
 44
0.0
173
     0
291
     0
 45
0.0
1001
ACAD
1000
AcDbSavedByObjectVersion
1070
     0
  0
VISUALSTYLE
  5
1C8CDE6AC7A3
102
{ACAD_XDICTIONARY
360
1C8CDE6ACA85
102
}
102
{ACAD_REACTORS
330
1C8CDE6AC796
102
}
330
1C8CDE6AC796
100
AcDbVisualStyle
  2
Thicken
 70
    13
 71
     2
 72
     2
 73
     0
 90
        0
 40
-0.6
 41
-30.0
 62
     5
 63
     7
 74
     1
 91
        4
 64
     7
 65
   257
 75
     1
175
     1
 42
1.0
 92
       12
 66
     7
 43
1.0
 76
     1
 77
     6
 78
     2
 67
     7
 79
     5
170
     0
171
     0
290
     0
174
     0
 93
        1
 44
0.0
173
     0
291
     1
 45
0.0
1001
ACAD
1000
AcDbSavedByObjectVersion
1070
     0
  0
VISUALSTYLE
  5
1C8CDE6AC79C
102
{ACAD_XDICTIONARY
360
1C8CDE6ACA77
102
}
102
{ACAD_REACTORS
330
1C8CDE6AC796
102
}
330
1C8CDE6AC796
100
AcDbVisualStyle
  2
Wireframe
 70
     5
 71
     0
 72
     2
 73
     0
 90
        0
 40
-0.6
 41
-30.0
 62
     5
 63
     7
 74
     1
 91
        4
 64
     7
 65
   257
 75
     1
175
     1
 42
1.0
 92
        0
 66
   257
 43
1.0
 76
     1
 77
     6
 78
     2
 67
     7
 79
     3
170
     0
171
     0
290
     0
174
     0
 93
        1
 44
0.0
173
     0
291
     0
 45
0.0
1001
ACAD
1000
AcDbSavedByObjectVersion
1070
     0
  0
VISUALSTYLE
  5
1C8CDE6AC7AC
102
{ACAD_XDICTIONARY
360
1C8CDE6ACA97
102
}
102
{ACAD_REACTORS
330
1C8CDE6AC796
102
}
330
1C8CDE6AC796
100
AcDbVisualStyle
  2
X-Ray
 70
    25
 71
     2
 72
     2
 73
     1
 90
        1
 40
0.5
 41
-30.0
 62
     5
 63
     7
 74
     1
 91
        0
 64
     7
 65
   257
 75
     1
175
     1
 42
1.0
 92
        8
 66
     7
 43
1.0
 76
     1
 77
     6
 78
     2
 67
     7
 79
     3
170
     0
171
     0
290
     0
174
     0
 93
       13
 44
0.0
173
     0
291
     0
 45
0.0
1001
ACAD
1000
AcDbSavedByObjectVersion
1070
     0
  0
DICTIONARYVAR
  5
1C8CDE6AC8F9
102
{ACAD_REACTORS
330
1C8CDE6AC775
102
}
330
1C8CDE6AC775
100
DictionaryVariables
280
     0
  1
1:1
  0
DICTIONARYVAR
  5
1C8CDE6AC825
102
{ACAD_REACTORS
330
1C8CDE6AC775
102
}
330
1C8CDE6AC775
100
DictionaryVariables
280
     0
  1
STANDARD
  0
DICTIONARYVAR
  5
1C8CDE6AC776
102
{ACAD_REACTORS
330
1C8CDE6AC775
102
}
330
1C8CDE6AC775
100
DictionaryVariables
280
     0
  1
STANDARD
  0
DICTIONARYVAR
  5
1C8CDE6ACA5F
102
{ACAD_REACTORS
330
1C8CDE6AC775
102
}
330
1C8CDE6AC775
100
DictionaryVariables
280
     0
  1
Imperial24
  0
DICTIONARYVAR
  5
1C8CDE6ACA60
102
{ACAD_REACTORS
330
1C8CDE6AC775
102
}
330
1C8CDE6AC775
100
DictionaryVariables
280
     0
  1
Imperial24
  0
DICTIONARYVAR
  5
1C8CDE6AC777
102
{ACAD_REACTORS
330
1C8CDE6AC775
102
}
330
1C8CDE6AC775
100
DictionaryVariables
280
     0
  1
1
  0
DICTIONARYVAR
  5
1C8CDE6AC829
102
{ACAD_REACTORS
330
1C8CDE6AC775
102
}
330
1C8CDE6AC775
100
DictionaryVariables
280
     0
  1
1
  0
DICTIONARYVAR
  5
1C8CDE6ACA62
102
{ACAD_REACTORS
330
1C8CDE6AC775
102
}
330
1C8CDE6AC775
100
DictionaryVariables
280
     0
  1
0
  0
DICTIONARYVAR
  5
1C8CDE6AC826
102
{ACAD_REACTORS
330
1C8CDE6AC775
102
}
330
1C8CDE6AC775
100
DictionaryVariables
280
     0
  1
0
  0
DICTIONARYVAR
  5
1C8CDE6AC778
102
{ACAD_REACTORS
330
1C8CDE6AC775
102
}
330
1C8CDE6AC775
100
DictionaryVariables
280
     0
  1

  0
DICTIONARYVAR
  5
1C8CDE6ACA61
102
{ACAD_REACTORS
330
1C8CDE6AC775
102
}
330
1C8CDE6AC775
100
DictionaryVariables
280
     0
  1
127
  0
DICTIONARYVAR
  5
1C8CDE6ACA63
102
{ACAD_REACTORS
330
1C8CDE6AC775
102
}
330
1C8CDE6AC775
100
DictionaryVariables
280
     0
  1
2
  0
DICTIONARY
  5
1C8CDE6ACAA7
330
1C8CDE6ACA58
100
AcDbDictionary
280
     1
281
     1
  3
ACAD_XREC_ROUNDTRIP
360
1C8CDE6ACAA8
  0
DICTIONARY
  5
1C8CDE6ACA69
330
1C8CDE6AC2DB
100
AcDbDictionary
280
     1
281
     1
  3
ACAD_XREC_ROUNDTRIP
360
1C8CDE6ACA6A
  0
DICTIONARY
  5
1C8CDE6ACA6B
330
1C8CDE6AC2DC
100
AcDbDictionary
280
     1
281
     1
  3
ACAD_XREC_ROUNDTRIP
360
1C8CDE6ACA6C
  0
DICTIONARY
  5
1C8CDE6ACA9F
330
1C8CDE6AC7D2
100
AcDbDictionary
280
     1
281
     1
  3
ACAD_XREC_ROUNDTRIP
360
1C8CDE6ACAA0
  0
DICTIONARY
  5
1C8CDE6ACA9D
330
1C8CDE6AC7D1
100
AcDbDictionary
280
     1
281
     1
  3
ACAD_XREC_ROUNDTRIP
360
1C8CDE6ACA9E
  0
DICTIONARY
  5
1C8CDE6ACAA1
330
1C8CDE6AC7D3
100
AcDbDictionary
280
     1
281
     1
  3
ACAD_XREC_ROUNDTRIP
360
1C8CDE6ACAA2
  0
DICTIONARY
  5
1C8CDE6ACAA5
330
1C8CDE6ACA57
100
AcDbDictionary
280
     1
281
     1
  3
ACAD_XREC_ROUNDTRIP
360
1C8CDE6ACAA6
  0
DICTIONARY
  5
1C8CDE6ACA1E
330
1C8CDE6AC2D8
100
AcDbDictionary
280
     1
281
     1
  3
ACAD_ROUNDTRIP_2008_TABLESTYLE_CELLSTYLEMAP
360
1C8CDE6ACA65
  3
ACAD_XREC_ROUNDTRIP
360
1C8CDE6ACA68
  0
DICTIONARY
  5
1C8CDE6ACA75
330
1C8CDE6AC79B
100
AcDbDictionary
280
     1
281
     1
  3
ACAD_XREC_ROUNDTRIP
360
1C8CDE6ACA76
  0
DICTIONARY
  5
1C8CDE6ACA7B
330
1C8CDE6AC79E
100
AcDbDictionary
280
     1
281
     1
  3
ACAD_XREC_ROUNDTRIP
360
1C8CDE6ACA7C
  0
DICTIONARY
  5
1C8CDE6ACA83
330
1C8CDE6AC7A2
100
AcDbDictionary
280
     1
281
     1
  3
ACAD_XREC_ROUNDTRIP
360
1C8CDE6ACA84
  0
DICTIONARY
  5
1C8CDE6ACA8B
330
1C8CDE6AC7A6
100
AcDbDictionary
280
     1
281
     1
  3
ACAD_XREC_ROUNDTRIP
360
1C8CDE6ACA8C
  0
DICTIONARY
  5
1C8CDE6ACA7F
330
1C8CDE6AC7A0
100
AcDbDictionary
280
     1
281
     1
  3
ACAD_XREC_ROUNDTRIP
360
1C8CDE6ACA80
  0
DICTIONARY
  5
1C8CDE6ACA81
330
1C8CDE6AC7A1
100
AcDbDictionary
280
     1
281
     1
  3
ACAD_XREC_ROUNDTRIP
360
1C8CDE6ACA82
  0
DICTIONARY
  5
1C8CDE6ACA91
330
1C8CDE6AC7A9
100
AcDbDictionary
280
     1
281
     1
  3
ACAD_XREC_ROUNDTRIP
360
1C8CDE6ACA92
  0
DICTIONARY
  5
1C8CDE6ACA89
330
1C8CDE6AC7A5
100
AcDbDictionary
280
     1
281
     1
  3
ACAD_XREC_ROUNDTRIP
360
1C8CDE6ACA8A
  0
DICTIONARY
  5
1C8CDE6ACA6D
330
1C8CDE6AC797
100
AcDbDictionary
280
     1
281
     1
  3
ACAD_XREC_ROUNDTRIP
360
1C8CDE6ACA6E
  0
DICTIONARY
  5
1C8CDE6ACA6F
330
1C8CDE6AC798
100
AcDbDictionary
280
     1
281
     1
  3
ACAD_XREC_ROUNDTRIP
360
1C8CDE6ACA70
  0
DICTIONARY
  5
1C8CDE6ACA71
330
1C8CDE6AC799
100
AcDbDictionary
280
     1
281
     1
  3
ACAD_XREC_ROUNDTRIP
360
1C8CDE6ACA72
  0
DICTIONARY
  5
1C8CDE6ACA73
330
1C8CDE6AC79A
100
AcDbDictionary
280
     1
281
     1
  3
ACAD_XREC_ROUNDTRIP
360
1C8CDE6ACA74
  0
DICTIONARY
  5
1C8CDE6ACA79
330
1C8CDE6AC79D
100
AcDbDictionary
280
     1
281
     1
  3
ACAD_XREC_ROUNDTRIP
360
1C8CDE6ACA7A
  0
DICTIONARY
  5
1C8CDE6ACA8D
330
1C8CDE6AC7A7
100
AcDbDictionary
280
     1
281
     1
  3
ACAD_XREC_ROUNDTRIP
360
1C8CDE6ACA8E
  0
DICTIONARY
  5
1C8CDE6ACA87
330
1C8CDE6AC7A4
100
AcDbDictionary
280
     1
281
     1
  3
ACAD_XREC_ROUNDTRIP
360
1C8CDE6ACA88
  0
DICTIONARY
  5
1C8CDE6ACAA3
330
1C8CDE6AC7D6
100
AcDbDictionary
280
     1
281
     1
  3
ACAD_XREC_ROUNDTRIP
360
1C8CDE6ACAA4
  0
DICTIONARY
  5
1C8CDE6ACA8F
330
1C8CDE6AC7A8
100
AcDbDictionary
280
     1
281
     1
  3
ACAD_XREC_ROUNDTRIP
360
1C8CDE6ACA90
  0
DICTIONARY
  5
1C8CDE6ACA7D
330
1C8CDE6AC79F
100
AcDbDictionary
280
     1
281
     1
  3
ACAD_XREC_ROUNDTRIP
360
1C8CDE6ACA7E
  0
DICTIONARY
  5
1C8CDE6ACA9B
330
1C8CDE6AC7AE
100
AcDbDictionary
280
     1
281
     1
  3
ACAD_XREC_ROUNDTRIP
360
1C8CDE6ACA9C
  0
DICTIONARY
  5
1C8CDE6ACA99
330
1C8CDE6AC7AD
100
AcDbDictionary
280
     1
281
     1
  3
ACAD_XREC_ROUNDTRIP
360
1C8CDE6ACA9A
  0
DICTIONARY
  5
1C8CDE6ACA93
330
1C8CDE6AC7AA
100
AcDbDictionary
280
     1
281
     1
  3
ACAD_XREC_ROUNDTRIP
360
1C8CDE6ACA94
  0
DICTIONARY
  5
1C8CDE6ACA95
330
1C8CDE6AC7AB
100
AcDbDictionary
280
     1
281
     1
  3
ACAD_XREC_ROUNDTRIP
360
1C8CDE6ACA96
  0
DICTIONARY
  5
1C8CDE6ACA85
330
1C8CDE6AC7A3
100
AcDbDictionary
280
     1
281
     1
  3
ACAD_XREC_ROUNDTRIP
360
1C8CDE6ACA86
  0
DICTIONARY
  5
1C8CDE6ACA77
330
1C8CDE6AC79C
100
AcDbDictionary
280
     1
281
     1
  3
ACAD_XREC_ROUNDTRIP
360
1C8CDE6ACA78
  0
DICTIONARY
  5
1C8CDE6ACA97
330
1C8CDE6AC7AC
100
AcDbDictionary
280
     1
281
     1
  3
ACAD_XREC_ROUNDTRIP
360
1C8CDE6ACA98
  0
XRECORD
  5
1C8CDE6ACAA8
102
{ACAD_REACTORS
330
1C8CDE6ACAA7
102
}
330
1C8CDE6ACAA7
100
AcDbXrecord
280
     1
102
DISPLAYNAME
  1
Imperial24
102
FLAGS
 90
        0
  0
XRECORD
  5
1C8CDE6ACA6A
102
{ACAD_REACTORS
330
1C8CDE6ACA69
102
}
330
1C8CDE6ACA69
100
AcDbXrecord
280
     1
102
SHADEPLOT
 70
     0
102
SHADEPLOTRESLEVEL
 70
     2
102
SHADEPLOTCUSTOMDPI
 70
   300
  0
XRECORD
  5
1C8CDE6ACA6C
102
{ACAD_REACTORS
330
1C8CDE6ACA6B
102
}
330
1C8CDE6ACA6B
100
AcDbXrecord
280
     1
102
SHADEPLOT
 70
     0
102
SHADEPLOTRESLEVEL
 70
     2
102
SHADEPLOTCUSTOMDPI
 70
   300
  0
XRECORD
  5
1C8CDE6ACAA0
102
{ACAD_REACTORS
330
1C8CDE6ACA9F
102
}
330
1C8CDE6ACA9F
100
AcDbXrecord
280
     1
102
MATERIAL
148
0.0
149
0.0
149
0.0
 93
        0
 94
      127
282
     0
 72
     1
 77
     1
171
     1
175
     1
179
     1
273
     0
  0
XRECORD
  5
1C8CDE6ACA9E
102
{ACAD_REACTORS
330
1C8CDE6ACA9D
102
}
330
1C8CDE6ACA9D
100
AcDbXrecord
280
     1
102
MATERIAL
148
0.0
149
0.0
149
0.0
 93
        0
 94
      127
282
     0
 72
     1
 77
     1
171
     1
175
     1
179
     1
273
     0
  0
XRECORD
  5
1C8CDE6ACAA2
102
{ACAD_REACTORS
330
1C8CDE6ACAA1
102
}
330
1C8CDE6ACAA1
100
AcDbXrecord
280
     1
102
MATERIAL
148
0.0
149
0.0
149
0.0
 93
        0
 94
      127
282
     0
 72
     1
 77
     1
171
     1
175
     1
179
     1
273
     0
  0
XRECORD
  5
1C8CDE6ACAA6
102
{ACAD_REACTORS
330
1C8CDE6ACAA5
102
}
330
1C8CDE6ACAA5
100
AcDbXrecord
280
     1
102
DISPLAYNAME
  1
Imperial24
102
FLAGS
 90
        0
  0
CELLSTYLEMAP
  5
1C8CDE6ACA65
102
{ACAD_REACTORS
330
1C8CDE6ACA1E
102
}
330
1C8CDE6ACA1E
100
AcDbCellStyleMap
 90
        3
300
CELLSTYLE
  1
TABLEFORMAT_BEGIN
 90
        5
170
     1
 91
        0
 92
    32768
 62
   257
 93
        1
300
CONTENTFORMAT
  1
CONTENTFORMAT_BEGIN
 90
        0
 91
        0
 92
        4
 93
        0
300

 40
0.0
140
1.0
 94
        5
 62
     0
340
1C8CDE699D4B
144
0.25
309
CONTENTFORMAT_END
171
     1
301
MARGIN
  1
CELLMARGIN_BEGIN
 40
0.06
 40
0.06
 40
0.06
 40
0.06
 40
0.06
 40
0.06
309
CELLMARGIN_END
 94
        6
 95
        1
302
GRIDFORMAT
  1
GRIDFORMAT_BEGIN
 90
        0
 91
        1
 62
     0
 92
       -2
340
0
 93
        0
 40
0.045
309
GRIDFORMAT_END
 95
        2
302
GRIDFORMAT
  1
GRIDFORMAT_BEGIN
 90
        0
 91
        1
 62
     0
 92
       -2
340
0
 93
        0
 40
0.045
309
GRIDFORMAT_END
 95
        4
302
GRIDFORMAT
  1
GRIDFORMAT_BEGIN
 90
        0
 91
        1
 62
     0
 92
       -2
340
0
 93
        0
 40
0.045
309
GRIDFORMAT_END
 95
        8
302
GRIDFORMAT
  1
GRIDFORMAT_BEGIN
 90
        0
 91
        1
 62
     0
 92
       -2
340
0
 93
        0
 40
0.045
309
GRIDFORMAT_END
 95
       16
302
GRIDFORMAT
  1
GRIDFORMAT_BEGIN
 90
        0
 91
        1
 62
     0
 92
       -2
340
0
 93
        0
 40
0.045
309
GRIDFORMAT_END
 95
       32
302
GRIDFORMAT
  1
GRIDFORMAT_BEGIN
 90
        0
 91
        1
 62
     0
 92
       -2
340
0
 93
        0
 40
0.045
309
GRIDFORMAT_END
309
TABLEFORMAT_END
  1
CELLSTYLE_BEGIN
 90
        1
 91
        1
300
_TITLE
309
CELLSTYLE_END
300
CELLSTYLE
  1
TABLEFORMAT_BEGIN
 90
        5
170
     1
 91
        0
 92
        0
 62
   257
 93
        1
300
CONTENTFORMAT
  1
CONTENTFORMAT_BEGIN
 90
        0
 91
        0
 92
        4
 93
        0
300

 40
0.0
140
1.0
 94
        5
 62
     0
340
1C8CDE699D4B
144
0.18
309
CONTENTFORMAT_END
171
     1
301
MARGIN
  1
CELLMARGIN_BEGIN
 40
0.06
 40
0.06
 40
0.06
 40
0.06
 40
0.06
 40
0.06
309
CELLMARGIN_END
 94
        6
 95
        1
302
GRIDFORMAT
  1
GRIDFORMAT_BEGIN
 90
        0
 91
        1
 62
     0
 92
       -2
340
0
 93
        0
 40
0.045
309
GRIDFORMAT_END
 95
        2
302
GRIDFORMAT
  1
GRIDFORMAT_BEGIN
 90
        0
 91
        1
 62
     0
 92
       -2
340
0
 93
        0
 40
0.045
309
GRIDFORMAT_END
 95
        4
302
GRIDFORMAT
  1
GRIDFORMAT_BEGIN
 90
        0
 91
        1
 62
     0
 92
       -2
340
0
 93
        0
 40
0.045
309
GRIDFORMAT_END
 95
        8
302
GRIDFORMAT
  1
GRIDFORMAT_BEGIN
 90
        0
 91
        1
 62
     0
 92
       -2
340
0
 93
        0
 40
0.045
309
GRIDFORMAT_END
 95
       16
302
GRIDFORMAT
  1
GRIDFORMAT_BEGIN
 90
        0
 91
        1
 62
     0
 92
       -2
340
0
 93
        0
 40
0.045
309
GRIDFORMAT_END
 95
       32
302
GRIDFORMAT
  1
GRIDFORMAT_BEGIN
 90
        0
 91
        1
 62
     0
 92
       -2
340
0
 93
        0
 40
0.045
309
GRIDFORMAT_END
309
TABLEFORMAT_END
  1
CELLSTYLE_BEGIN
 90
        2
 91
        1
300
_HEADER
309
CELLSTYLE_END
300
CELLSTYLE
  1
TABLEFORMAT_BEGIN
 90
        5
170
     1
 91
        0
 92
        0
 62
   257
 93
        1
300
CONTENTFORMAT
  1
CONTENTFORMAT_BEGIN
 90
        0
 91
        0
 92
        4
 93
        0
300

 40
0.0
140
1.0
 94
        2
 62
     0
340
1C8CDE699D4B
144
0.18
309
CONTENTFORMAT_END
171
     1
301
MARGIN
  1
CELLMARGIN_BEGIN
 40
0.06
 40
0.06
 40
0.06
 40
0.06
 40
0.06
 40
0.06
309
CELLMARGIN_END
 94
        6
 95
        1
302
GRIDFORMAT
  1
GRIDFORMAT_BEGIN
 90
        0
 91
        1
 62
     0
 92
       -2
340
0
 93
        0
 40
0.045
309
GRIDFORMAT_END
 95
        2
302
GRIDFORMAT
  1
GRIDFORMAT_BEGIN
 90
        0
 91
        1
 62
     0
 92
       -2
340
0
 93
        0
 40
0.045
309
GRIDFORMAT_END
 95
        4
302
GRIDFORMAT
  1
GRIDFORMAT_BEGIN
 90
        0
 91
        1
 62
     0
 92
       -2
340
0
 93
        0
 40
0.045
309
GRIDFORMAT_END
 95
        8
302
GRIDFORMAT
  1
GRIDFORMAT_BEGIN
 90
        0
 91
        1
 62
     0
 92
       -2
340
0
 93
        0
 40
0.045
309
GRIDFORMAT_END
 95
       16
302
GRIDFORMAT
  1
GRIDFORMAT_BEGIN
 90
        0
 91
        1
 62
     0
 92
       -2
340
0
 93
        0
 40
0.045
309
GRIDFORMAT_END
 95
       32
302
GRIDFORMAT
  1
GRIDFORMAT_BEGIN
 90
        0
 91
        1
 62
     0
 92
       -2
340
0
 93
        0
 40
0.045
309
GRIDFORMAT_END
309
TABLEFORMAT_END
  1
CELLSTYLE_BEGIN
 90
        3
 91
        2
300
_DATA
309
CELLSTYLE_END
  0
XRECORD
  5
1C8CDE6ACA68
102
{ACAD_REACTORS
330
1C8CDE6ACA1E
102
}
330
1C8CDE6ACA1E
100
AcDbXrecord
280
     1
102
ACAD_ROUNDTRIP_PRE2007_TABLESTYLE
 90
        4
 91
        0
  1

 92
        4
 93
        0
  2

 94
        4
 95
        0
  3

  0
XRECORD
  5
1C8CDE6ACA76
102
{ACAD_REACTORS
330
1C8CDE6ACA75
102
}
330
1C8CDE6ACA75
100
AcDbXrecord
280
     1
102
RTVSPost2010Prop28
280
     1
102
RTVSPost2010PropOp28
 70
     1
102
RTVSPost2010Prop29
280
     1
102
RTVSPost2010PropOp29
 70
     1
102
RTVSPost2010Prop30
280
     0
102
RTVSPost2010PropOp30
 70
     1
102
RTVSPost2010Prop31
280
     0
102
RTVSPost2010PropOp31
 70
     1
102
RTVSPost2010Prop32
280
     0
102
RTVSPost2010PropOp32
 70
     1
102
RTVSPost2010Prop33
280
     0
102
RTVSPost2010PropOp33
 70
     1
102
RTVSPost2010Prop34
280
     0
102
RTVSPost2010PropOp34
 70
     1
102
RTVSPost2010Prop35
280
     0
102
RTVSPost2010PropOp35
 70
     1
102
RTVSPost2010Prop36
280
     0
102
RTVSPost2010PropOp36
 70
     1
102
RTVSPost2010Prop37
 90
       50
102
RTVSPost2010PropOp37
 70
     1
102
RTVSPost2010Prop38
140
0.0
102
RTVSPost2010PropOp38
 70
     1
102
RTVSPost2010Prop39
140
1.0
102
RTVSPost2010PropOp39
 70
     1
102
RTVSPost2010Prop40
 90
        0
102
RTVSPost2010PropOp40
 70
     1
102
RTVSPost2010Prop41ColorIndex
 90
       18
102
RTVSPost2010Prop41ColorRGB
 90
        0
102
RTVSPost2010PropOp41
 70
     1
102
RTVSPost2010Prop42
 90
       50
102
RTVSPost2010PropOp42
 70
     1
102
RTVSPost2010Prop43
 90
        3
102
RTVSPost2010PropOp43
 70
     1
102
RTVSPost2010Prop44ColorIndex
 90
        5
102
RTVSPost2010Prop44ColorRGB
 90
      255
102
RTVSPost2010PropOp44
 70
     1
102
RTVSPost2010Prop45
280
     0
102
RTVSPost2010PropOp45
 70
     1
102
RTVSPost2010Prop46
 90
       50
102
RTVSPost2010PropOp46
 70
     1
102
RTVSPost2010Prop47
 90
       50
102
RTVSPost2010PropOp47
 70
     1
102
RTVSPost2010Prop48
 90
       50
102
RTVSPost2010PropOp48
 70
     1
102
RTVSPost2010Prop49
280
     0
102
RTVSPost2010PropOp49
 70
     1
102
RTVSPost2010Prop50
 90
       50
102
RTVSPost2010PropOp50
 70
     1
102
RTVSPost2010Prop51ColorIndex
 90
      256
102
RTVSPost2010Prop51ColorRGB
 90
-16777216
102
RTVSPost2010PropOp51
 70
     0
102
RTVSPost2010Prop52
140
1.0
102
RTVSPost2010PropOp52
 70
     0
102
RTVSPost2010Prop53
 90
        2
102
RTVSPost2010PropOp53
 70
     1
102
RTVSPost2010Prop54
  1
strokes_ogs.tif
102
RTVSPost2010PropOp54
 70
     1
102
RTVSPost2010Prop55
280
     0
102
RTVSPost2010PropOp55
 70
     1
102
RTVSPost2010Prop56
140
1.0
102
RTVSPost2010PropOp56
 70
     1
102
RTVSPost2010Prop57
140
1.0
102
RTVSPost2010PropOp57
 70
     1
102
RTVSPropertyOp0
 70
     1
102
RTVSPropertyOp1
 70
     1
102
RTVSPropertyOp2
 70
     1
102
RTVSPropertyOp3
 70
     1
102
RTVSPropertyOp4
 70
     1
102
RTVSPropertyOp5
 70
     1
102
RTVSPropertyOp6
 70
     1
102
RTVSPropertyOp7
 70
     1
102
RTVSPropertyOp8
 70
     1
102
RTVSPropertyOp9
 70
     1
102
RTVSPropertyOp10
 70
     1
102
RTVSPropertyOp11
 70
     1
102
RTVSPropertyOp12
 70
     1
102
RTVSPropertyOp13
 70
     1
102
RTVSPropertyOp14
 70
     1
102
RTVSPropertyOp15
 70
     1
102
RTVSPropertyOp16
 70
     1
102
RTVSPropertyOp17
 70
     1
102
RTVSPropertyOp18
 70
     1
102
RTVSPropertyOp19
 70
     1
102
RTVSPropertyOp20
 70
     1
102
RTVSPropertyOp21
 70
     1
102
RTVSPropertyOp22
 70
     1
102
RTVSPropertyOp23
 70
     1
102
RTVSPropertyOp24
 70
     1
102
RTVSPropertyOp25
 70
     1
102
RTVSPropertyOp26
 70
     1
102
RTVSPropertyOp27
 70
     1
102
RTVSPropertyOp28
 70
     1
102
RTVSPropertyOp29
 70
     1
102
RTVSPropertyOp30
 70
     1
102
RTVSPropertyOp31
 70
     1
102
RTVSPropertyOp32
 70
     1
102
RTVSPropertyOp33
 70
     1
102
RTVSPropertyOp34
 70
     1
102
RTVSPropertyOp35
 70
     1
102
RTVSPropertyOp36
 70
     1
102
RTVSPropertyOp37
 70
     1
102
RTVSPropertyOp38
 70
     1
102
RTVSPropertyOp39
 70
     1
102
RTVSPropertyOp40
 70
     1
102
RTVSPropertyOp41
 70
     1
102
RTVSPropertyOp42
 70
     1
102
RTVSPropertyOp43
 70
     1
102
RTVSPropertyOp44
 70
     1
102
RTVSPropertyOp45
 70
     1
102
RTVSPropertyOp46
 70
     1
102
RTVSPropertyOp47
 70
     1
102
RTVSPropertyOp48
 70
     1
102
RTVSPropertyOp49
 70
     1
102
RTVSPropertyOp50
 70
     1
102
RTVSPropertyOp51
 70
     0
102
RTVSPropertyOp52
 70
     0
102
RTVSPropertyOp53
 70
     1
102
RTVSPropertyOp54
 70
     1
102
RTVSPropertyOp55
 70
     1
102
RTVSPropertyOp56
 70
     1
102
RTVSPropertyOp57
 70
     1
102
RTVSPropertyOp58
 70
     1
102
RTVSPropertyOp59
 70
     1
102
RTVSPropertyOp60
 70
     1
102
RTVSPropertyOp61
 70
     1
102
RTVSPropertyOp62
 70
     1
  0
XRECORD
  5
1C8CDE6ACA7C
102
{ACAD_REACTORS
330
1C8CDE6ACA7B
102
}
330
1C8CDE6ACA7B
100
AcDbXrecord
280
     1
102
RTVSPost2010Prop28
280
     0
102
RTVSPost2010PropOp28
 70
     1
102
RTVSPost2010Prop29
280
     1
102
RTVSPost2010PropOp29
 70
     1
102
RTVSPost2010Prop30
280
     1
102
RTVSPost2010PropOp30
 70
     1
102
RTVSPost2010Prop31
280
     0
102
RTVSPost2010PropOp31
 70
     1
102
RTVSPost2010Prop32
280
     0
102
RTVSPost2010PropOp32
 70
     1
102
RTVSPost2010Prop33
280
     0
102
RTVSPost2010PropOp33
 70
     1
102
RTVSPost2010Prop34
280
     0
102
RTVSPost2010PropOp34
 70
     1
102
RTVSPost2010Prop35
280
     0
102
RTVSPost2010PropOp35
 70
     1
102
RTVSPost2010Prop36
280
     0
102
RTVSPost2010PropOp36
 70
     1
102
RTVSPost2010Prop37
 90
       50
102
RTVSPost2010PropOp37
 70
     1
102
RTVSPost2010Prop38
140
0.0
102
RTVSPost2010PropOp38
 70
     1
102
RTVSPost2010Prop39
140
1.0
102
RTVSPost2010PropOp39
 70
     1
102
RTVSPost2010Prop40
 90
        0
102
RTVSPost2010PropOp40
 70
     1
102
RTVSPost2010Prop41ColorIndex
 90
       18
102
RTVSPost2010Prop41ColorRGB
 90
        0
102
RTVSPost2010PropOp41
 70
     1
102
RTVSPost2010Prop42
 90
       50
102
RTVSPost2010PropOp42
 70
     1
102
RTVSPost2010Prop43
 90
        3
102
RTVSPost2010PropOp43
 70
     1
102
RTVSPost2010Prop44ColorIndex
 90
        5
102
RTVSPost2010Prop44ColorRGB
 90
      255
102
RTVSPost2010PropOp44
 70
     1
102
RTVSPost2010Prop45
280
     0
102
RTVSPost2010PropOp45
 70
     1
102
RTVSPost2010Prop46
 90
       50
102
RTVSPost2010PropOp46
 70
     1
102
RTVSPost2010Prop47
 90
       50
102
RTVSPost2010PropOp47
 70
     1
102
RTVSPost2010Prop48
 90
       50
102
RTVSPost2010PropOp48
 70
     1
102
RTVSPost2010Prop49
280
     0
102
RTVSPost2010PropOp49
 70
     1
102
RTVSPost2010Prop50
 90
       50
102
RTVSPost2010PropOp50
 70
     1
102
RTVSPost2010Prop51ColorIndex
 90
      256
102
RTVSPost2010Prop51ColorRGB
 90
-16777216
102
RTVSPost2010PropOp51
 70
     0
102
RTVSPost2010Prop52
140
1.0
102
RTVSPost2010PropOp52
 70
     0
102
RTVSPost2010Prop53
 90
        2
102
RTVSPost2010PropOp53
 70
     1
102
RTVSPost2010Prop54
  1
strokes_ogs.tif
102
RTVSPost2010PropOp54
 70
     1
102
RTVSPost2010Prop55
280
     0
102
RTVSPost2010PropOp55
 70
     1
102
RTVSPost2010Prop56
140
1.0
102
RTVSPost2010PropOp56
 70
     1
102
RTVSPost2010Prop57
140
1.0
102
RTVSPost2010PropOp57
 70
     1
102
RTVSPropertyOp0
 70
     1
102
RTVSPropertyOp1
 70
     1
102
RTVSPropertyOp2
 70
     1
102
RTVSPropertyOp3
 70
     1
102
RTVSPropertyOp4
 70
     1
102
RTVSPropertyOp5
 70
     1
102
RTVSPropertyOp6
 70
     1
102
RTVSPropertyOp7
 70
     1
102
RTVSPropertyOp8
 70
     1
102
RTVSPropertyOp9
 70
     1
102
RTVSPropertyOp10
 70
     1
102
RTVSPropertyOp11
 70
     1
102
RTVSPropertyOp12
 70
     1
102
RTVSPropertyOp13
 70
     1
102
RTVSPropertyOp14
 70
     1
102
RTVSPropertyOp15
 70
     1
102
RTVSPropertyOp16
 70
     1
102
RTVSPropertyOp17
 70
     1
102
RTVSPropertyOp18
 70
     1
102
RTVSPropertyOp19
 70
     1
102
RTVSPropertyOp20
 70
     1
102
RTVSPropertyOp21
 70
     1
102
RTVSPropertyOp22
 70
     1
102
RTVSPropertyOp23
 70
     1
102
RTVSPropertyOp24
 70
     1
102
RTVSPropertyOp25
 70
     1
102
RTVSPropertyOp26
 70
     1
102
RTVSPropertyOp27
 70
     1
102
RTVSPropertyOp28
 70
     1
102
RTVSPropertyOp29
 70
     1
102
RTVSPropertyOp30
 70
     1
102
RTVSPropertyOp31
 70
     1
102
RTVSPropertyOp32
 70
     1
102
RTVSPropertyOp33
 70
     1
102
RTVSPropertyOp34
 70
     1
102
RTVSPropertyOp35
 70
     1
102
RTVSPropertyOp36
 70
     1
102
RTVSPropertyOp37
 70
     1
102
RTVSPropertyOp38
 70
     1
102
RTVSPropertyOp39
 70
     1
102
RTVSPropertyOp40
 70
     1
102
RTVSPropertyOp41
 70
     1
102
RTVSPropertyOp42
 70
     1
102
RTVSPropertyOp43
 70
     1
102
RTVSPropertyOp44
 70
     1
102
RTVSPropertyOp45
 70
     1
102
RTVSPropertyOp46
 70
     1
102
RTVSPropertyOp47
 70
     1
102
RTVSPropertyOp48
 70
     1
102
RTVSPropertyOp49
 70
     1
102
RTVSPropertyOp50
 70
     1
102
RTVSPropertyOp51
 70
     0
102
RTVSPropertyOp52
 70
     0
102
RTVSPropertyOp53
 70
     1
102
RTVSPropertyOp54
 70
     1
102
RTVSPropertyOp55
 70
     1
102
RTVSPropertyOp56
 70
     1
102
RTVSPropertyOp57
 70
     1
102
RTVSPropertyOp58
 70
     1
102
RTVSPropertyOp59
 70
     1
102
RTVSPropertyOp60
 70
     1
102
RTVSPropertyOp61
 70
     1
102
RTVSPropertyOp62
 70
     1
  0
XRECORD
  5
1C8CDE6ACA84
102
{ACAD_REACTORS
330
1C8CDE6ACA83
102
}
330
1C8CDE6ACA83
100
AcDbXrecord
280
     1
102
RTVSPost2010Prop28
280
     0
102
RTVSPost2010PropOp28
 70
     1
102
RTVSPost2010Prop29
280
     1
102
RTVSPost2010PropOp29
 70
     1
102
RTVSPost2010Prop30
280
     1
102
RTVSPost2010PropOp30
 70
     1
102
RTVSPost2010Prop31
280
     0
102
RTVSPost2010PropOp31
 70
     1
102
RTVSPost2010Prop32
280
     0
102
RTVSPost2010PropOp32
 70
     1
102
RTVSPost2010Prop33
280
     0
102
RTVSPost2010PropOp33
 70
     1
102
RTVSPost2010Prop34
280
     0
102
RTVSPost2010PropOp34
 70
     1
102
RTVSPost2010Prop35
280
     0
102
RTVSPost2010PropOp35
 70
     1
102
RTVSPost2010Prop36
280
     0
102
RTVSPost2010PropOp36
 70
     1
102
RTVSPost2010Prop37
 90
       50
102
RTVSPost2010PropOp37
 70
     1
102
RTVSPost2010Prop38
140
0.0
102
RTVSPost2010PropOp38
 70
     1
102
RTVSPost2010Prop39
140
1.0
102
RTVSPost2010PropOp39
 70
     1
102
RTVSPost2010Prop40
 90
        0
102
RTVSPost2010PropOp40
 70
     1
102
RTVSPost2010Prop41ColorIndex
 90
       18
102
RTVSPost2010Prop41ColorRGB
 90
        0
102
RTVSPost2010PropOp41
 70
     1
102
RTVSPost2010Prop42
 90
       50
102
RTVSPost2010PropOp42
 70
     1
102
RTVSPost2010Prop43
 90
        3
102
RTVSPost2010PropOp43
 70
     1
102
RTVSPost2010Prop44ColorIndex
 90
        5
102
RTVSPost2010Prop44ColorRGB
 90
      255
102
RTVSPost2010PropOp44
 70
     1
102
RTVSPost2010Prop45
280
     0
102
RTVSPost2010PropOp45
 70
     1
102
RTVSPost2010Prop46
 90
       50
102
RTVSPost2010PropOp46
 70
     1
102
RTVSPost2010Prop47
 90
       50
102
RTVSPost2010PropOp47
 70
     1
102
RTVSPost2010Prop48
 90
       50
102
RTVSPost2010PropOp48
 70
     1
102
RTVSPost2010Prop49
280
     0
102
RTVSPost2010PropOp49
 70
     1
102
RTVSPost2010Prop50
 90
       50
102
RTVSPost2010PropOp50
 70
     1
102
RTVSPost2010Prop51ColorIndex
 90
      256
102
RTVSPost2010Prop51ColorRGB
 90
-16777216
102
RTVSPost2010PropOp51
 70
     0
102
RTVSPost2010Prop52
140
1.0
102
RTVSPost2010PropOp52
 70
     0
102
RTVSPost2010Prop53
 90
        2
102
RTVSPost2010PropOp53
 70
     1
102
RTVSPost2010Prop54
  1
strokes_ogs.tif
102
RTVSPost2010PropOp54
 70
     1
102
RTVSPost2010Prop55
280
     0
102
RTVSPost2010PropOp55
 70
     1
102
RTVSPost2010Prop56
140
1.0
102
RTVSPost2010PropOp56
 70
     1
102
RTVSPost2010Prop57
140
1.0
102
RTVSPost2010PropOp57
 70
     1
102
RTVSPropertyOp0
 70
     1
102
RTVSPropertyOp1
 70
     1
102
RTVSPropertyOp2
 70
     1
102
RTVSPropertyOp3
 70
     1
102
RTVSPropertyOp4
 70
     1
102
RTVSPropertyOp5
 70
     1
102
RTVSPropertyOp6
 70
     1
102
RTVSPropertyOp7
 70
     1
102
RTVSPropertyOp8
 70
     1
102
RTVSPropertyOp9
 70
     1
102
RTVSPropertyOp10
 70
     1
102
RTVSPropertyOp11
 70
     1
102
RTVSPropertyOp12
 70
     1
102
RTVSPropertyOp13
 70
     1
102
RTVSPropertyOp14
 70
     1
102
RTVSPropertyOp15
 70
     1
102
RTVSPropertyOp16
 70
     1
102
RTVSPropertyOp17
 70
     1
102
RTVSPropertyOp18
 70
     1
102
RTVSPropertyOp19
 70
     1
102
RTVSPropertyOp20
 70
     1
102
RTVSPropertyOp21
 70
     1
102
RTVSPropertyOp22
 70
     1
102
RTVSPropertyOp23
 70
     1
102
RTVSPropertyOp24
 70
     1
102
RTVSPropertyOp25
 70
     1
102
RTVSPropertyOp26
 70
     1
102
RTVSPropertyOp27
 70
     1
102
RTVSPropertyOp28
 70
     1
102
RTVSPropertyOp29
 70
     1
102
RTVSPropertyOp30
 70
     1
102
RTVSPropertyOp31
 70
     1
102
RTVSPropertyOp32
 70
     1
102
RTVSPropertyOp33
 70
     1
102
RTVSPropertyOp34
 70
     1
102
RTVSPropertyOp35
 70
     1
102
RTVSPropertyOp36
 70
     1
102
RTVSPropertyOp37
 70
     1
102
RTVSPropertyOp38
 70
     1
102
RTVSPropertyOp39
 70
     1
102
RTVSPropertyOp40
 70
     1
102
RTVSPropertyOp41
 70
     1
102
RTVSPropertyOp42
 70
     1
102
RTVSPropertyOp43
 70
     1
102
RTVSPropertyOp44
 70
     1
102
RTVSPropertyOp45
 70
     1
102
RTVSPropertyOp46
 70
     1
102
RTVSPropertyOp47
 70
     1
102
RTVSPropertyOp48
 70
     1
102
RTVSPropertyOp49
 70
     1
102
RTVSPropertyOp50
 70
     1
102
RTVSPropertyOp51
 70
     0
102
RTVSPropertyOp52
 70
     0
102
RTVSPropertyOp53
 70
     1
102
RTVSPropertyOp54
 70
     1
102
RTVSPropertyOp55
 70
     1
102
RTVSPropertyOp56
 70
     1
102
RTVSPropertyOp57
 70
     1
102
RTVSPropertyOp58
 70
     1
102
RTVSPropertyOp59
 70
     1
102
RTVSPropertyOp60
 70
     1
102
RTVSPropertyOp61
 70
     1
102
RTVSPropertyOp62
 70
     1
  0
XRECORD
  5
1C8CDE6ACA8C
102
{ACAD_REACTORS
330
1C8CDE6ACA8B
102
}
330
1C8CDE6ACA8B
100
AcDbXrecord
280
     1
102
RTVSPost2010Prop28
280
     0
102
RTVSPost2010PropOp28
 70
     1
102
RTVSPost2010Prop29
280
     1
102
RTVSPost2010PropOp29
 70
     1
102
RTVSPost2010Prop30
280
     1
102
RTVSPost2010PropOp30
 70
     1
102
RTVSPost2010Prop31
280
     0
102
RTVSPost2010PropOp31
 70
     1
102
RTVSPost2010Prop32
280
     0
102
RTVSPost2010PropOp32
 70
     1
102
RTVSPost2010Prop33
280
     0
102
RTVSPost2010PropOp33
 70
     1
102
RTVSPost2010Prop34
280
     0
102
RTVSPost2010PropOp34
 70
     1
102
RTVSPost2010Prop35
280
     0
102
RTVSPost2010PropOp35
 70
     1
102
RTVSPost2010Prop36
280
     0
102
RTVSPost2010PropOp36
 70
     1
102
RTVSPost2010Prop37
 90
       50
102
RTVSPost2010PropOp37
 70
     1
102
RTVSPost2010Prop38
140
0.0
102
RTVSPost2010PropOp38
 70
     1
102
RTVSPost2010Prop39
140
1.0
102
RTVSPost2010PropOp39
 70
     1
102
RTVSPost2010Prop40
 90
        0
102
RTVSPost2010PropOp40
 70
     1
102
RTVSPost2010Prop41ColorIndex
 90
       18
102
RTVSPost2010Prop41ColorRGB
 90
        0
102
RTVSPost2010PropOp41
 70
     1
102
RTVSPost2010Prop42
 90
       50
102
RTVSPost2010PropOp42
 70
     1
102
RTVSPost2010Prop43
 90
        3
102
RTVSPost2010PropOp43
 70
     1
102
RTVSPost2010Prop44ColorIndex
 90
        5
102
RTVSPost2010Prop44ColorRGB
 90
      255
102
RTVSPost2010PropOp44
 70
     1
102
RTVSPost2010Prop45
280
     0
102
RTVSPost2010PropOp45
 70
     1
102
RTVSPost2010Prop46
 90
       50
102
RTVSPost2010PropOp46
 70
     1
102
RTVSPost2010Prop47
 90
       50
102
RTVSPost2010PropOp47
 70
     1
102
RTVSPost2010Prop48
 90
       50
102
RTVSPost2010PropOp48
 70
     1
102
RTVSPost2010Prop49
280
     0
102
RTVSPost2010PropOp49
 70
     1
102
RTVSPost2010Prop50
 90
       50
102
RTVSPost2010PropOp50
 70
     1
102
RTVSPost2010Prop51ColorIndex
 90
      256
102
RTVSPost2010Prop51ColorRGB
 90
-16777216
102
RTVSPost2010PropOp51
 70
     0
102
RTVSPost2010Prop52
140
1.0
102
RTVSPost2010PropOp52
 70
     0
102
RTVSPost2010Prop53
 90
        2
102
RTVSPost2010PropOp53
 70
     1
102
RTVSPost2010Prop54
  1
strokes_ogs.tif
102
RTVSPost2010PropOp54
 70
     1
102
RTVSPost2010Prop55
280
     0
102
RTVSPost2010PropOp55
 70
     1
102
RTVSPost2010Prop56
140
1.0
102
RTVSPost2010PropOp56
 70
     1
102
RTVSPost2010Prop57
140
1.0
102
RTVSPost2010PropOp57
 70
     1
102
RTVSPropertyOp0
 70
     1
102
RTVSPropertyOp1
 70
     1
102
RTVSPropertyOp2
 70
     1
102
RTVSPropertyOp3
 70
     1
102
RTVSPropertyOp4
 70
     1
102
RTVSPropertyOp5
 70
     1
102
RTVSPropertyOp6
 70
     1
102
RTVSPropertyOp7
 70
     1
102
RTVSPropertyOp8
 70
     1
102
RTVSPropertyOp9
 70
     1
102
RTVSPropertyOp10
 70
     1
102
RTVSPropertyOp11
 70
     1
102
RTVSPropertyOp12
 70
     1
102
RTVSPropertyOp13
 70
     1
102
RTVSPropertyOp14
 70
     1
102
RTVSPropertyOp15
 70
     1
102
RTVSPropertyOp16
 70
     1
102
RTVSPropertyOp17
 70
     1
102
RTVSPropertyOp18
 70
     1
102
RTVSPropertyOp19
 70
     1
102
RTVSPropertyOp20
 70
     1
102
RTVSPropertyOp21
 70
     1
102
RTVSPropertyOp22
 70
     1
102
RTVSPropertyOp23
 70
     1
102
RTVSPropertyOp24
 70
     1
102
RTVSPropertyOp25
 70
     1
102
RTVSPropertyOp26
 70
     1
102
RTVSPropertyOp27
 70
     1
102
RTVSPropertyOp28
 70
     1
102
RTVSPropertyOp29
 70
     1
102
RTVSPropertyOp30
 70
     1
102
RTVSPropertyOp31
 70
     1
102
RTVSPropertyOp32
 70
     1
102
RTVSPropertyOp33
 70
     1
102
RTVSPropertyOp34
 70
     1
102
RTVSPropertyOp35
 70
     1
102
RTVSPropertyOp36
 70
     1
102
RTVSPropertyOp37
 70
     1
102
RTVSPropertyOp38
 70
     1
102
RTVSPropertyOp39
 70
     1
102
RTVSPropertyOp40
 70
     1
102
RTVSPropertyOp41
 70
     1
102
RTVSPropertyOp42
 70
     1
102
RTVSPropertyOp43
 70
     1
102
RTVSPropertyOp44
 70
     1
102
RTVSPropertyOp45
 70
     1
102
RTVSPropertyOp46
 70
     1
102
RTVSPropertyOp47
 70
     1
102
RTVSPropertyOp48
 70
     1
102
RTVSPropertyOp49
 70
     1
102
RTVSPropertyOp50
 70
     1
102
RTVSPropertyOp51
 70
     0
102
RTVSPropertyOp52
 70
     0
102
RTVSPropertyOp53
 70
     1
102
RTVSPropertyOp54
 70
     1
102
RTVSPropertyOp55
 70
     1
102
RTVSPropertyOp56
 70
     1
102
RTVSPropertyOp57
 70
     1
102
RTVSPropertyOp58
 70
     1
102
RTVSPropertyOp59
 70
     1
102
RTVSPropertyOp60
 70
     1
102
RTVSPropertyOp61
 70
     1
102
RTVSPropertyOp62
 70
     1
  0
XRECORD
  5
1C8CDE6ACA80
102
{ACAD_REACTORS
330
1C8CDE6ACA7F
102
}
330
1C8CDE6ACA7F
100
AcDbXrecord
280
     1
102
RTVSPost2010Prop28
280
     0
102
RTVSPost2010PropOp28
 70
     1
102
RTVSPost2010Prop29
280
     1
102
RTVSPost2010PropOp29
 70
     1
102
RTVSPost2010Prop30
280
     1
102
RTVSPost2010PropOp30
 70
     1
102
RTVSPost2010Prop31
280
     0
102
RTVSPost2010PropOp31
 70
     1
102
RTVSPost2010Prop32
280
     0
102
RTVSPost2010PropOp32
 70
     1
102
RTVSPost2010Prop33
280
     0
102
RTVSPost2010PropOp33
 70
     1
102
RTVSPost2010Prop34
280
     0
102
RTVSPost2010PropOp34
 70
     1
102
RTVSPost2010Prop35
280
     0
102
RTVSPost2010PropOp35
 70
     1
102
RTVSPost2010Prop36
280
     0
102
RTVSPost2010PropOp36
 70
     1
102
RTVSPost2010Prop37
 90
       50
102
RTVSPost2010PropOp37
 70
     1
102
RTVSPost2010Prop38
140
0.0
102
RTVSPost2010PropOp38
 70
     1
102
RTVSPost2010Prop39
140
1.0
102
RTVSPost2010PropOp39
 70
     1
102
RTVSPost2010Prop40
 90
        0
102
RTVSPost2010PropOp40
 70
     1
102
RTVSPost2010Prop41ColorIndex
 90
       18
102
RTVSPost2010Prop41ColorRGB
 90
        0
102
RTVSPost2010PropOp41
 70
     1
102
RTVSPost2010Prop42
 90
       50
102
RTVSPost2010PropOp42
 70
     1
102
RTVSPost2010Prop43
 90
        3
102
RTVSPost2010PropOp43
 70
     1
102
RTVSPost2010Prop44ColorIndex
 90
        5
102
RTVSPost2010Prop44ColorRGB
 90
      255
102
RTVSPost2010PropOp44
 70
     1
102
RTVSPost2010Prop45
280
     0
102
RTVSPost2010PropOp45
 70
     1
102
RTVSPost2010Prop46
 90
       50
102
RTVSPost2010PropOp46
 70
     1
102
RTVSPost2010Prop47
 90
       50
102
RTVSPost2010PropOp47
 70
     1
102
RTVSPost2010Prop48
 90
       50
102
RTVSPost2010PropOp48
 70
     1
102
RTVSPost2010Prop49
280
     0
102
RTVSPost2010PropOp49
 70
     1
102
RTVSPost2010Prop50
 90
       50
102
RTVSPost2010PropOp50
 70
     1
102
RTVSPost2010Prop51ColorIndex
 90
      256
102
RTVSPost2010Prop51ColorRGB
 90
-16777216
102
RTVSPost2010PropOp51
 70
     0
102
RTVSPost2010Prop52
140
1.0
102
RTVSPost2010PropOp52
 70
     0
102
RTVSPost2010Prop53
 90
        2
102
RTVSPost2010PropOp53
 70
     1
102
RTVSPost2010Prop54
  1
strokes_ogs.tif
102
RTVSPost2010PropOp54
 70
     1
102
RTVSPost2010Prop55
280
     0
102
RTVSPost2010PropOp55
 70
     1
102
RTVSPost2010Prop56
140
1.0
102
RTVSPost2010PropOp56
 70
     1
102
RTVSPost2010Prop57
140
1.0
102
RTVSPost2010PropOp57
 70
     1
102
RTVSPropertyOp0
 70
     1
102
RTVSPropertyOp1
 70
     1
102
RTVSPropertyOp2
 70
     1
102
RTVSPropertyOp3
 70
     1
102
RTVSPropertyOp4
 70
     1
102
RTVSPropertyOp5
 70
     1
102
RTVSPropertyOp6
 70
     1
102
RTVSPropertyOp7
 70
     1
102
RTVSPropertyOp8
 70
     1
102
RTVSPropertyOp9
 70
     1
102
RTVSPropertyOp10
 70
     1
102
RTVSPropertyOp11
 70
     1
102
RTVSPropertyOp12
 70
     1
102
RTVSPropertyOp13
 70
     1
102
RTVSPropertyOp14
 70
     1
102
RTVSPropertyOp15
 70
     1
102
RTVSPropertyOp16
 70
     1
102
RTVSPropertyOp17
 70
     1
102
RTVSPropertyOp18
 70
     1
102
RTVSPropertyOp19
 70
     1
102
RTVSPropertyOp20
 70
     1
102
RTVSPropertyOp21
 70
     1
102
RTVSPropertyOp22
 70
     1
102
RTVSPropertyOp23
 70
     1
102
RTVSPropertyOp24
 70
     1
102
RTVSPropertyOp25
 70
     1
102
RTVSPropertyOp26
 70
     1
102
RTVSPropertyOp27
 70
     1
102
RTVSPropertyOp28
 70
     1
102
RTVSPropertyOp29
 70
     1
102
RTVSPropertyOp30
 70
     1
102
RTVSPropertyOp31
 70
     1
102
RTVSPropertyOp32
 70
     1
102
RTVSPropertyOp33
 70
     1
102
RTVSPropertyOp34
 70
     1
102
RTVSPropertyOp35
 70
     1
102
RTVSPropertyOp36
 70
     1
102
RTVSPropertyOp37
 70
     1
102
RTVSPropertyOp38
 70
     1
102
RTVSPropertyOp39
 70
     1
102
RTVSPropertyOp40
 70
     1
102
RTVSPropertyOp41
 70
     1
102
RTVSPropertyOp42
 70
     1
102
RTVSPropertyOp43
 70
     1
102
RTVSPropertyOp44
 70
     1
102
RTVSPropertyOp45
 70
     1
102
RTVSPropertyOp46
 70
     1
102
RTVSPropertyOp47
 70
     1
102
RTVSPropertyOp48
 70
     1
102
RTVSPropertyOp49
 70
     1
102
RTVSPropertyOp50
 70
     1
102
RTVSPropertyOp51
 70
     0
102
RTVSPropertyOp52
 70
     0
102
RTVSPropertyOp53
 70
     1
102
RTVSPropertyOp54
 70
     1
102
RTVSPropertyOp55
 70
     1
102
RTVSPropertyOp56
 70
     1
102
RTVSPropertyOp57
 70
     1
102
RTVSPropertyOp58
 70
     1
102
RTVSPropertyOp59
 70
     1
102
RTVSPropertyOp60
 70
     1
102
RTVSPropertyOp61
 70
     1
102
RTVSPropertyOp62
 70
     1
  0
XRECORD
  5
1C8CDE6ACA82
102
{ACAD_REACTORS
330
1C8CDE6ACA81
102
}
330
1C8CDE6ACA81
100
AcDbXrecord
280
     1
102
RTVSPost2010Prop28
280
     0
102
RTVSPost2010PropOp28
 70
     1
102
RTVSPost2010Prop29
280
     1
102
RTVSPost2010PropOp29
 70
     1
102
RTVSPost2010Prop30
280
     1
102
RTVSPost2010PropOp30
 70
     1
102
RTVSPost2010Prop31
280
     0
102
RTVSPost2010PropOp31
 70
     1
102
RTVSPost2010Prop32
280
     0
102
RTVSPost2010PropOp32
 70
     1
102
RTVSPost2010Prop33
280
     0
102
RTVSPost2010PropOp33
 70
     1
102
RTVSPost2010Prop34
280
     0
102
RTVSPost2010PropOp34
 70
     1
102
RTVSPost2010Prop35
280
     0
102
RTVSPost2010PropOp35
 70
     1
102
RTVSPost2010Prop36
280
     0
102
RTVSPost2010PropOp36
 70
     1
102
RTVSPost2010Prop37
 90
       50
102
RTVSPost2010PropOp37
 70
     1
102
RTVSPost2010Prop38
140
0.0
102
RTVSPost2010PropOp38
 70
     1
102
RTVSPost2010Prop39
140
1.0
102
RTVSPost2010PropOp39
 70
     1
102
RTVSPost2010Prop40
 90
        0
102
RTVSPost2010PropOp40
 70
     1
102
RTVSPost2010Prop41ColorIndex
 90
       18
102
RTVSPost2010Prop41ColorRGB
 90
        0
102
RTVSPost2010PropOp41
 70
     1
102
RTVSPost2010Prop42
 90
       50
102
RTVSPost2010PropOp42
 70
     1
102
RTVSPost2010Prop43
 90
        3
102
RTVSPost2010PropOp43
 70
     1
102
RTVSPost2010Prop44ColorIndex
 90
        5
102
RTVSPost2010Prop44ColorRGB
 90
      255
102
RTVSPost2010PropOp44
 70
     1
102
RTVSPost2010Prop45
280
     0
102
RTVSPost2010PropOp45
 70
     1
102
RTVSPost2010Prop46
 90
       50
102
RTVSPost2010PropOp46
 70
     1
102
RTVSPost2010Prop47
 90
       50
102
RTVSPost2010PropOp47
 70
     1
102
RTVSPost2010Prop48
 90
       50
102
RTVSPost2010PropOp48
 70
     1
102
RTVSPost2010Prop49
280
     0
102
RTVSPost2010PropOp49
 70
     1
102
RTVSPost2010Prop50
 90
       50
102
RTVSPost2010PropOp50
 70
     1
102
RTVSPost2010Prop51ColorIndex
 90
      256
102
RTVSPost2010Prop51ColorRGB
 90
-16777216
102
RTVSPost2010PropOp51
 70
     0
102
RTVSPost2010Prop52
140
1.0
102
RTVSPost2010PropOp52
 70
     0
102
RTVSPost2010Prop53
 90
        2
102
RTVSPost2010PropOp53
 70
     1
102
RTVSPost2010Prop54
  1
strokes_ogs.tif
102
RTVSPost2010PropOp54
 70
     1
102
RTVSPost2010Prop55
280
     0
102
RTVSPost2010PropOp55
 70
     1
102
RTVSPost2010Prop56
140
1.0
102
RTVSPost2010PropOp56
 70
     1
102
RTVSPost2010Prop57
140
1.0
102
RTVSPost2010PropOp57
 70
     1
102
RTVSPropertyOp0
 70
     1
102
RTVSPropertyOp1
 70
     1
102
RTVSPropertyOp2
 70
     1
102
RTVSPropertyOp3
 70
     1
102
RTVSPropertyOp4
 70
     1
102
RTVSPropertyOp5
 70
     1
102
RTVSPropertyOp6
 70
     1
102
RTVSPropertyOp7
 70
     1
102
RTVSPropertyOp8
 70
     1
102
RTVSPropertyOp9
 70
     1
102
RTVSPropertyOp10
 70
     1
102
RTVSPropertyOp11
 70
     1
102
RTVSPropertyOp12
 70
     1
102
RTVSPropertyOp13
 70
     1
102
RTVSPropertyOp14
 70
     1
102
RTVSPropertyOp15
 70
     1
102
RTVSPropertyOp16
 70
     1
102
RTVSPropertyOp17
 70
     1
102
RTVSPropertyOp18
 70
     1
102
RTVSPropertyOp19
 70
     1
102
RTVSPropertyOp20
 70
     1
102
RTVSPropertyOp21
 70
     1
102
RTVSPropertyOp22
 70
     1
102
RTVSPropertyOp23
 70
     1
102
RTVSPropertyOp24
 70
     1
102
RTVSPropertyOp25
 70
     1
102
RTVSPropertyOp26
 70
     1
102
RTVSPropertyOp27
 70
     1
102
RTVSPropertyOp28
 70
     1
102
RTVSPropertyOp29
 70
     1
102
RTVSPropertyOp30
 70
     1
102
RTVSPropertyOp31
 70
     1
102
RTVSPropertyOp32
 70
     1
102
RTVSPropertyOp33
 70
     1
102
RTVSPropertyOp34
 70
     1
102
RTVSPropertyOp35
 70
     1
102
RTVSPropertyOp36
 70
     1
102
RTVSPropertyOp37
 70
     1
102
RTVSPropertyOp38
 70
     1
102
RTVSPropertyOp39
 70
     1
102
RTVSPropertyOp40
 70
     1
102
RTVSPropertyOp41
 70
     1
102
RTVSPropertyOp42
 70
     1
102
RTVSPropertyOp43
 70
     1
102
RTVSPropertyOp44
 70
     1
102
RTVSPropertyOp45
 70
     1
102
RTVSPropertyOp46
 70
     1
102
RTVSPropertyOp47
 70
     1
102
RTVSPropertyOp48
 70
     1
102
RTVSPropertyOp49
 70
     1
102
RTVSPropertyOp50
 70
     1
102
RTVSPropertyOp51
 70
     0
102
RTVSPropertyOp52
 70
     0
102
RTVSPropertyOp53
 70
     1
102
RTVSPropertyOp54
 70
     1
102
RTVSPropertyOp55
 70
     1
102
RTVSPropertyOp56
 70
     1
102
RTVSPropertyOp57
 70
     1
102
RTVSPropertyOp58
 70
     1
102
RTVSPropertyOp59
 70
     1
102
RTVSPropertyOp60
 70
     1
102
RTVSPropertyOp61
 70
     1
102
RTVSPropertyOp62
 70
     1
  0
XRECORD
  5
1C8CDE6ACA92
102
{ACAD_REACTORS
330
1C8CDE6ACA91
102
}
330
1C8CDE6ACA91
100
AcDbXrecord
280
     1
102
RTVSPost2010Prop28
280
     0
102
RTVSPost2010PropOp28
 70
     0
102
RTVSPost2010Prop29
280
     1
102
RTVSPost2010PropOp29
 70
     0
102
RTVSPost2010Prop30
280
     1
102
RTVSPost2010PropOp30
 70
     0
102
RTVSPost2010Prop31
280
     0
102
RTVSPost2010PropOp31
 70
     0
102
RTVSPost2010Prop32
280
     0
102
RTVSPost2010PropOp32
 70
     0
102
RTVSPost2010Prop33
280
     0
102
RTVSPost2010PropOp33
 70
     0
102
RTVSPost2010Prop34
280
     0
102
RTVSPost2010PropOp34
 70
     0
102
RTVSPost2010Prop35
280
     0
102
RTVSPost2010PropOp35
 70
     0
102
RTVSPost2010Prop36
280
     0
102
RTVSPost2010PropOp36
 70
     0
102
RTVSPost2010Prop37
 90
       50
102
RTVSPost2010PropOp37
 70
     0
102
RTVSPost2010Prop38
140
0.0
102
RTVSPost2010PropOp38
 70
     0
102
RTVSPost2010Prop39
140
1.0
102
RTVSPost2010PropOp39
 70
     0
102
RTVSPost2010Prop40
 90
        0
102
RTVSPost2010PropOp40
 70
     0
102
RTVSPost2010Prop41ColorIndex
 90
       18
102
RTVSPost2010Prop41ColorRGB
 90
        0
102
RTVSPost2010PropOp41
 70
     0
102
RTVSPost2010Prop42
 90
       50
102
RTVSPost2010PropOp42
 70
     0
102
RTVSPost2010Prop43
 90
        3
102
RTVSPost2010PropOp43
 70
     0
102
RTVSPost2010Prop44ColorIndex
 90
        5
102
RTVSPost2010Prop44ColorRGB
 90
      255
102
RTVSPost2010PropOp44
 70
     0
102
RTVSPost2010Prop45
280
     0
102
RTVSPost2010PropOp45
 70
     0
102
RTVSPost2010Prop46
 90
       50
102
RTVSPost2010PropOp46
 70
     0
102
RTVSPost2010Prop47
 90
       50
102
RTVSPost2010PropOp47
 70
     0
102
RTVSPost2010Prop48
 90
       50
102
RTVSPost2010PropOp48
 70
     0
102
RTVSPost2010Prop49
280
     0
102
RTVSPost2010PropOp49
 70
     0
102
RTVSPost2010Prop50
 90
       50
102
RTVSPost2010PropOp50
 70
     0
102
RTVSPost2010Prop51ColorIndex
 90
      256
102
RTVSPost2010Prop51ColorRGB
 90
-16777216
102
RTVSPost2010PropOp51
 70
     0
102
RTVSPost2010Prop52
140
1.0
102
RTVSPost2010PropOp52
 70
     0
102
RTVSPost2010Prop53
 90
        2
102
RTVSPost2010PropOp53
 70
     0
102
RTVSPost2010Prop54
  1
strokes_ogs.tif
102
RTVSPost2010PropOp54
 70
     0
102
RTVSPost2010Prop55
280
     0
102
RTVSPost2010PropOp55
 70
     0
102
RTVSPost2010Prop56
140
1.0
102
RTVSPost2010PropOp56
 70
     0
102
RTVSPost2010Prop57
140
1.0
102
RTVSPost2010PropOp57
 70
     0
102
RTVSPropertyOp0
 70
     0
102
RTVSPropertyOp1
 70
     0
102
RTVSPropertyOp2
 70
     0
102
RTVSPropertyOp3
 70
     0
102
RTVSPropertyOp4
 70
     0
102
RTVSPropertyOp5
 70
     0
102
RTVSPropertyOp6
 70
     0
102
RTVSPropertyOp7
 70
     0
102
RTVSPropertyOp8
 70
     0
102
RTVSPropertyOp9
 70
     0
102
RTVSPropertyOp10
 70
     0
102
RTVSPropertyOp11
 70
     0
102
RTVSPropertyOp12
 70
     0
102
RTVSPropertyOp13
 70
     0
102
RTVSPropertyOp14
 70
     2
102
RTVSPropertyOp15
 70
     0
102
RTVSPropertyOp16
 70
     0
102
RTVSPropertyOp17
 70
     0
102
RTVSPropertyOp18
 70
     0
102
RTVSPropertyOp19
 70
     0
102
RTVSPropertyOp20
 70
     0
102
RTVSPropertyOp21
 70
     0
102
RTVSPropertyOp22
 70
     0
102
RTVSPropertyOp23
 70
     0
102
RTVSPropertyOp24
 70
     0
102
RTVSPropertyOp25
 70
     0
102
RTVSPropertyOp26
 70
     0
102
RTVSPropertyOp27
 70
     0
102
RTVSPropertyOp28
 70
     0
102
RTVSPropertyOp29
 70
     0
102
RTVSPropertyOp30
 70
     0
102
RTVSPropertyOp31
 70
     0
102
RTVSPropertyOp32
 70
     0
102
RTVSPropertyOp33
 70
     0
102
RTVSPropertyOp34
 70
     0
102
RTVSPropertyOp35
 70
     0
102
RTVSPropertyOp36
 70
     0
102
RTVSPropertyOp37
 70
     0
102
RTVSPropertyOp38
 70
     0
102
RTVSPropertyOp39
 70
     0
102
RTVSPropertyOp40
 70
     0
102
RTVSPropertyOp41
 70
     0
102
RTVSPropertyOp42
 70
     0
102
RTVSPropertyOp43
 70
     0
102
RTVSPropertyOp44
 70
     0
102
RTVSPropertyOp45
 70
     0
102
RTVSPropertyOp46
 70
     0
102
RTVSPropertyOp47
 70
     0
102
RTVSPropertyOp48
 70
     0
102
RTVSPropertyOp49
 70
     0
102
RTVSPropertyOp50
 70
     0
102
RTVSPropertyOp51
 70
     0
102
RTVSPropertyOp52
 70
     0
102
RTVSPropertyOp53
 70
     0
102
RTVSPropertyOp54
 70
     0
102
RTVSPropertyOp55
 70
     0
102
RTVSPropertyOp56
 70
     0
102
RTVSPropertyOp57
 70
     0
102
RTVSPropertyOp58
 70
     1
102
RTVSPropertyOp59
 70
     1
102
RTVSPropertyOp60
 70
     1
102
RTVSPropertyOp61
 70
     1
102
RTVSPropertyOp62
 70
     1
  0
XRECORD
  5
1C8CDE6ACA8A
102
{ACAD_REACTORS
330
1C8CDE6ACA89
102
}
330
1C8CDE6ACA89
100
AcDbXrecord
280
     1
102
RTVSPost2010Prop28
280
     0
102
RTVSPost2010PropOp28
 70
     1
102
RTVSPost2010Prop29
280
     1
102
RTVSPost2010PropOp29
 70
     1
102
RTVSPost2010Prop30
280
     1
102
RTVSPost2010PropOp30
 70
     1
102
RTVSPost2010Prop31
280
     0
102
RTVSPost2010PropOp31
 70
     1
102
RTVSPost2010Prop32
280
     0
102
RTVSPost2010PropOp32
 70
     1
102
RTVSPost2010Prop33
280
     0
102
RTVSPost2010PropOp33
 70
     1
102
RTVSPost2010Prop34
280
     0
102
RTVSPost2010PropOp34
 70
     1
102
RTVSPost2010Prop35
280
     0
102
RTVSPost2010PropOp35
 70
     1
102
RTVSPost2010Prop36
280
     0
102
RTVSPost2010PropOp36
 70
     1
102
RTVSPost2010Prop37
 90
       50
102
RTVSPost2010PropOp37
 70
     1
102
RTVSPost2010Prop38
140
0.0
102
RTVSPost2010PropOp38
 70
     1
102
RTVSPost2010Prop39
140
1.0
102
RTVSPost2010PropOp39
 70
     1
102
RTVSPost2010Prop40
 90
        0
102
RTVSPost2010PropOp40
 70
     1
102
RTVSPost2010Prop41ColorIndex
 90
       18
102
RTVSPost2010Prop41ColorRGB
 90
        0
102
RTVSPost2010PropOp41
 70
     1
102
RTVSPost2010Prop42
 90
       50
102
RTVSPost2010PropOp42
 70
     1
102
RTVSPost2010Prop43
 90
        3
102
RTVSPost2010PropOp43
 70
     1
102
RTVSPost2010Prop44ColorIndex
 90
        5
102
RTVSPost2010Prop44ColorRGB
 90
      255
102
RTVSPost2010PropOp44
 70
     1
102
RTVSPost2010Prop45
280
     0
102
RTVSPost2010PropOp45
 70
     1
102
RTVSPost2010Prop46
 90
       50
102
RTVSPost2010PropOp46
 70
     1
102
RTVSPost2010Prop47
 90
       50
102
RTVSPost2010PropOp47
 70
     1
102
RTVSPost2010Prop48
 90
       50
102
RTVSPost2010PropOp48
 70
     1
102
RTVSPost2010Prop49
280
     0
102
RTVSPost2010PropOp49
 70
     1
102
RTVSPost2010Prop50
 90
       50
102
RTVSPost2010PropOp50
 70
     1
102
RTVSPost2010Prop51ColorIndex
 90
      256
102
RTVSPost2010Prop51ColorRGB
 90
-16777216
102
RTVSPost2010PropOp51
 70
     0
102
RTVSPost2010Prop52
140
1.0
102
RTVSPost2010PropOp52
 70
     0
102
RTVSPost2010Prop53
 90
        2
102
RTVSPost2010PropOp53
 70
     1
102
RTVSPost2010Prop54
  1
strokes_ogs.tif
102
RTVSPost2010PropOp54
 70
     1
102
RTVSPost2010Prop55
280
     0
102
RTVSPost2010PropOp55
 70
     1
102
RTVSPost2010Prop56
140
1.0
102
RTVSPost2010PropOp56
 70
     1
102
RTVSPost2010Prop57
140
1.0
102
RTVSPost2010PropOp57
 70
     1
102
RTVSPropertyOp0
 70
     1
102
RTVSPropertyOp1
 70
     1
102
RTVSPropertyOp2
 70
     1
102
RTVSPropertyOp3
 70
     1
102
RTVSPropertyOp4
 70
     1
102
RTVSPropertyOp5
 70
     1
102
RTVSPropertyOp6
 70
     1
102
RTVSPropertyOp7
 70
     1
102
RTVSPropertyOp8
 70
     1
102
RTVSPropertyOp9
 70
     1
102
RTVSPropertyOp10
 70
     1
102
RTVSPropertyOp11
 70
     1
102
RTVSPropertyOp12
 70
     1
102
RTVSPropertyOp13
 70
     1
102
RTVSPropertyOp14
 70
     1
102
RTVSPropertyOp15
 70
     1
102
RTVSPropertyOp16
 70
     1
102
RTVSPropertyOp17
 70
     1
102
RTVSPropertyOp18
 70
     1
102
RTVSPropertyOp19
 70
     1
102
RTVSPropertyOp20
 70
     1
102
RTVSPropertyOp21
 70
     1
102
RTVSPropertyOp22
 70
     1
102
RTVSPropertyOp23
 70
     1
102
RTVSPropertyOp24
 70
     1
102
RTVSPropertyOp25
 70
     1
102
RTVSPropertyOp26
 70
     1
102
RTVSPropertyOp27
 70
     1
102
RTVSPropertyOp28
 70
     1
102
RTVSPropertyOp29
 70
     1
102
RTVSPropertyOp30
 70
     1
102
RTVSPropertyOp31
 70
     1
102
RTVSPropertyOp32
 70
     1
102
RTVSPropertyOp33
 70
     1
102
RTVSPropertyOp34
 70
     1
102
RTVSPropertyOp35
 70
     1
102
RTVSPropertyOp36
 70
     1
102
RTVSPropertyOp37
 70
     1
102
RTVSPropertyOp38
 70
     1
102
RTVSPropertyOp39
 70
     1
102
RTVSPropertyOp40
 70
     1
102
RTVSPropertyOp41
 70
     1
102
RTVSPropertyOp42
 70
     1
102
RTVSPropertyOp43
 70
     1
102
RTVSPropertyOp44
 70
     1
102
RTVSPropertyOp45
 70
     1
102
RTVSPropertyOp46
 70
     1
102
RTVSPropertyOp47
 70
     1
102
RTVSPropertyOp48
 70
     1
102
RTVSPropertyOp49
 70
     1
102
RTVSPropertyOp50
 70
     1
102
RTVSPropertyOp51
 70
     0
102
RTVSPropertyOp52
 70
     0
102
RTVSPropertyOp53
 70
     1
102
RTVSPropertyOp54
 70
     1
102
RTVSPropertyOp55
 70
     1
102
RTVSPropertyOp56
 70
     1
102
RTVSPropertyOp57
 70
     1
102
RTVSPropertyOp58
 70
     1
102
RTVSPropertyOp59
 70
     1
102
RTVSPropertyOp60
 70
     1
102
RTVSPropertyOp61
 70
     1
102
RTVSPropertyOp62
 70
     1
  0
XRECORD
  5
1C8CDE6ACA6E
102
{ACAD_REACTORS
330
1C8CDE6ACA6D
102
}
330
1C8CDE6ACA6D
100
AcDbXrecord
280
     1
102
RTVSPost2010Prop28
280
     0
102
RTVSPost2010PropOp28
 70
     1
102
RTVSPost2010Prop29
280
     1
102
RTVSPost2010PropOp29
 70
     1
102
RTVSPost2010Prop30
280
     1
102
RTVSPost2010PropOp30
 70
     1
102
RTVSPost2010Prop31
280
     0
102
RTVSPost2010PropOp31
 70
     1
102
RTVSPost2010Prop32
280
     0
102
RTVSPost2010PropOp32
 70
     1
102
RTVSPost2010Prop33
280
     0
102
RTVSPost2010PropOp33
 70
     1
102
RTVSPost2010Prop34
280
     0
102
RTVSPost2010PropOp34
 70
     1
102
RTVSPost2010Prop35
280
     0
102
RTVSPost2010PropOp35
 70
     1
102
RTVSPost2010Prop36
280
     0
102
RTVSPost2010PropOp36
 70
     1
102
RTVSPost2010Prop37
 90
       50
102
RTVSPost2010PropOp37
 70
     1
102
RTVSPost2010Prop38
140
0.0
102
RTVSPost2010PropOp38
 70
     1
102
RTVSPost2010Prop39
140
1.0
102
RTVSPost2010PropOp39
 70
     1
102
RTVSPost2010Prop40
 90
        0
102
RTVSPost2010PropOp40
 70
     1
102
RTVSPost2010Prop41ColorIndex
 90
       18
102
RTVSPost2010Prop41ColorRGB
 90
        0
102
RTVSPost2010PropOp41
 70
     1
102
RTVSPost2010Prop42
 90
       50
102
RTVSPost2010PropOp42
 70
     1
102
RTVSPost2010Prop43
 90
        3
102
RTVSPost2010PropOp43
 70
     1
102
RTVSPost2010Prop44ColorIndex
 90
        5
102
RTVSPost2010Prop44ColorRGB
 90
      255
102
RTVSPost2010PropOp44
 70
     1
102
RTVSPost2010Prop45
280
     0
102
RTVSPost2010PropOp45
 70
     1
102
RTVSPost2010Prop46
 90
       50
102
RTVSPost2010PropOp46
 70
     1
102
RTVSPost2010Prop47
 90
       50
102
RTVSPost2010PropOp47
 70
     1
102
RTVSPost2010Prop48
 90
       50
102
RTVSPost2010PropOp48
 70
     1
102
RTVSPost2010Prop49
280
     0
102
RTVSPost2010PropOp49
 70
     1
102
RTVSPost2010Prop50
 90
       50
102
RTVSPost2010PropOp50
 70
     1
102
RTVSPost2010Prop51ColorIndex
 90
      256
102
RTVSPost2010Prop51ColorRGB
 90
-16777216
102
RTVSPost2010PropOp51
 70
     0
102
RTVSPost2010Prop52
140
1.0
102
RTVSPost2010PropOp52
 70
     0
102
RTVSPost2010Prop53
 90
        2
102
RTVSPost2010PropOp53
 70
     1
102
RTVSPost2010Prop54
  1
strokes_ogs.tif
102
RTVSPost2010PropOp54
 70
     1
102
RTVSPost2010Prop55
280
     0
102
RTVSPost2010PropOp55
 70
     1
102
RTVSPost2010Prop56
140
1.0
102
RTVSPost2010PropOp56
 70
     1
102
RTVSPost2010Prop57
140
1.0
102
RTVSPost2010PropOp57
 70
     1
102
RTVSPropertyOp0
 70
     1
102
RTVSPropertyOp1
 70
     1
102
RTVSPropertyOp2
 70
     1
102
RTVSPropertyOp3
 70
     1
102
RTVSPropertyOp4
 70
     1
102
RTVSPropertyOp5
 70
     1
102
RTVSPropertyOp6
 70
     1
102
RTVSPropertyOp7
 70
     1
102
RTVSPropertyOp8
 70
     1
102
RTVSPropertyOp9
 70
     1
102
RTVSPropertyOp10
 70
     1
102
RTVSPropertyOp11
 70
     1
102
RTVSPropertyOp12
 70
     1
102
RTVSPropertyOp13
 70
     1
102
RTVSPropertyOp14
 70
     1
102
RTVSPropertyOp15
 70
     1
102
RTVSPropertyOp16
 70
     1
102
RTVSPropertyOp17
 70
     1
102
RTVSPropertyOp18
 70
     1
102
RTVSPropertyOp19
 70
     1
102
RTVSPropertyOp20
 70
     1
102
RTVSPropertyOp21
 70
     1
102
RTVSPropertyOp22
 70
     1
102
RTVSPropertyOp23
 70
     1
102
RTVSPropertyOp24
 70
     1
102
RTVSPropertyOp25
 70
     1
102
RTVSPropertyOp26
 70
     1
102
RTVSPropertyOp27
 70
     1
102
RTVSPropertyOp28
 70
     1
102
RTVSPropertyOp29
 70
     1
102
RTVSPropertyOp30
 70
     1
102
RTVSPropertyOp31
 70
     1
102
RTVSPropertyOp32
 70
     1
102
RTVSPropertyOp33
 70
     1
102
RTVSPropertyOp34
 70
     1
102
RTVSPropertyOp35
 70
     1
102
RTVSPropertyOp36
 70
     1
102
RTVSPropertyOp37
 70
     1
102
RTVSPropertyOp38
 70
     1
102
RTVSPropertyOp39
 70
     1
102
RTVSPropertyOp40
 70
     1
102
RTVSPropertyOp41
 70
     1
102
RTVSPropertyOp42
 70
     1
102
RTVSPropertyOp43
 70
     1
102
RTVSPropertyOp44
 70
     1
102
RTVSPropertyOp45
 70
     1
102
RTVSPropertyOp46
 70
     1
102
RTVSPropertyOp47
 70
     1
102
RTVSPropertyOp48
 70
     1
102
RTVSPropertyOp49
 70
     1
102
RTVSPropertyOp50
 70
     1
102
RTVSPropertyOp51
 70
     0
102
RTVSPropertyOp52
 70
     0
102
RTVSPropertyOp53
 70
     1
102
RTVSPropertyOp54
 70
     1
102
RTVSPropertyOp55
 70
     1
102
RTVSPropertyOp56
 70
     1
102
RTVSPropertyOp57
 70
     1
102
RTVSPropertyOp58
 70
     1
102
RTVSPropertyOp59
 70
     1
102
RTVSPropertyOp60
 70
     1
102
RTVSPropertyOp61
 70
     1
102
RTVSPropertyOp62
 70
     1
  0
XRECORD
  5
1C8CDE6ACA70
102
{ACAD_REACTORS
330
1C8CDE6ACA6F
102
}
330
1C8CDE6ACA6F
100
AcDbXrecord
280
     1
102
RTVSPost2010Prop28
280
     0
102
RTVSPost2010PropOp28
 70
     1
102
RTVSPost2010Prop29
280
     1
102
RTVSPost2010PropOp29
 70
     1
102
RTVSPost2010Prop30
280
     1
102
RTVSPost2010PropOp30
 70
     1
102
RTVSPost2010Prop31
280
     0
102
RTVSPost2010PropOp31
 70
     1
102
RTVSPost2010Prop32
280
     0
102
RTVSPost2010PropOp32
 70
     1
102
RTVSPost2010Prop33
280
     0
102
RTVSPost2010PropOp33
 70
     1
102
RTVSPost2010Prop34
280
     0
102
RTVSPost2010PropOp34
 70
     1
102
RTVSPost2010Prop35
280
     0
102
RTVSPost2010PropOp35
 70
     1
102
RTVSPost2010Prop36
280
     0
102
RTVSPost2010PropOp36
 70
     1
102
RTVSPost2010Prop37
 90
       50
102
RTVSPost2010PropOp37
 70
     1
102
RTVSPost2010Prop38
140
0.0
102
RTVSPost2010PropOp38
 70
     1
102
RTVSPost2010Prop39
140
1.0
102
RTVSPost2010PropOp39
 70
     1
102
RTVSPost2010Prop40
 90
        0
102
RTVSPost2010PropOp40
 70
     1
102
RTVSPost2010Prop41ColorIndex
 90
       18
102
RTVSPost2010Prop41ColorRGB
 90
        0
102
RTVSPost2010PropOp41
 70
     1
102
RTVSPost2010Prop42
 90
       50
102
RTVSPost2010PropOp42
 70
     1
102
RTVSPost2010Prop43
 90
        3
102
RTVSPost2010PropOp43
 70
     1
102
RTVSPost2010Prop44ColorIndex
 90
        5
102
RTVSPost2010Prop44ColorRGB
 90
      255
102
RTVSPost2010PropOp44
 70
     1
102
RTVSPost2010Prop45
280
     0
102
RTVSPost2010PropOp45
 70
     1
102
RTVSPost2010Prop46
 90
       50
102
RTVSPost2010PropOp46
 70
     1
102
RTVSPost2010Prop47
 90
       50
102
RTVSPost2010PropOp47
 70
     1
102
RTVSPost2010Prop48
 90
       50
102
RTVSPost2010PropOp48
 70
     1
102
RTVSPost2010Prop49
280
     0
102
RTVSPost2010PropOp49
 70
     1
102
RTVSPost2010Prop50
 90
       50
102
RTVSPost2010PropOp50
 70
     1
102
RTVSPost2010Prop51ColorIndex
 90
      256
102
RTVSPost2010Prop51ColorRGB
 90
-16777216
102
RTVSPost2010PropOp51
 70
     0
102
RTVSPost2010Prop52
140
1.0
102
RTVSPost2010PropOp52
 70
     0
102
RTVSPost2010Prop53
 90
        2
102
RTVSPost2010PropOp53
 70
     1
102
RTVSPost2010Prop54
  1
strokes_ogs.tif
102
RTVSPost2010PropOp54
 70
     1
102
RTVSPost2010Prop55
280
     0
102
RTVSPost2010PropOp55
 70
     1
102
RTVSPost2010Prop56
140
1.0
102
RTVSPost2010PropOp56
 70
     1
102
RTVSPost2010Prop57
140
1.0
102
RTVSPost2010PropOp57
 70
     1
102
RTVSPropertyOp0
 70
     1
102
RTVSPropertyOp1
 70
     1
102
RTVSPropertyOp2
 70
     1
102
RTVSPropertyOp3
 70
     1
102
RTVSPropertyOp4
 70
     1
102
RTVSPropertyOp5
 70
     1
102
RTVSPropertyOp6
 70
     1
102
RTVSPropertyOp7
 70
     1
102
RTVSPropertyOp8
 70
     1
102
RTVSPropertyOp9
 70
     1
102
RTVSPropertyOp10
 70
     1
102
RTVSPropertyOp11
 70
     1
102
RTVSPropertyOp12
 70
     1
102
RTVSPropertyOp13
 70
     1
102
RTVSPropertyOp14
 70
     1
102
RTVSPropertyOp15
 70
     1
102
RTVSPropertyOp16
 70
     1
102
RTVSPropertyOp17
 70
     1
102
RTVSPropertyOp18
 70
     1
102
RTVSPropertyOp19
 70
     1
102
RTVSPropertyOp20
 70
     1
102
RTVSPropertyOp21
 70
     1
102
RTVSPropertyOp22
 70
     1
102
RTVSPropertyOp23
 70
     1
102
RTVSPropertyOp24
 70
     1
102
RTVSPropertyOp25
 70
     1
102
RTVSPropertyOp26
 70
     1
102
RTVSPropertyOp27
 70
     1
102
RTVSPropertyOp28
 70
     1
102
RTVSPropertyOp29
 70
     1
102
RTVSPropertyOp30
 70
     1
102
RTVSPropertyOp31
 70
     1
102
RTVSPropertyOp32
 70
     1
102
RTVSPropertyOp33
 70
     1
102
RTVSPropertyOp34
 70
     1
102
RTVSPropertyOp35
 70
     1
102
RTVSPropertyOp36
 70
     1
102
RTVSPropertyOp37
 70
     1
102
RTVSPropertyOp38
 70
     1
102
RTVSPropertyOp39
 70
     1
102
RTVSPropertyOp40
 70
     1
102
RTVSPropertyOp41
 70
     1
102
RTVSPropertyOp42
 70
     1
102
RTVSPropertyOp43
 70
     1
102
RTVSPropertyOp44
 70
     1
102
RTVSPropertyOp45
 70
     1
102
RTVSPropertyOp46
 70
     1
102
RTVSPropertyOp47
 70
     1
102
RTVSPropertyOp48
 70
     1
102
RTVSPropertyOp49
 70
     1
102
RTVSPropertyOp50
 70
     1
102
RTVSPropertyOp51
 70
     0
102
RTVSPropertyOp52
 70
     0
102
RTVSPropertyOp53
 70
     1
102
RTVSPropertyOp54
 70
     1
102
RTVSPropertyOp55
 70
     1
102
RTVSPropertyOp56
 70
     1
102
RTVSPropertyOp57
 70
     1
102
RTVSPropertyOp58
 70
     1
102
RTVSPropertyOp59
 70
     1
102
RTVSPropertyOp60
 70
     1
102
RTVSPropertyOp61
 70
     1
102
RTVSPropertyOp62
 70
     1
  0
XRECORD
  5
1C8CDE6ACA72
102
{ACAD_REACTORS
330
1C8CDE6ACA71
102
}
330
1C8CDE6ACA71
100
AcDbXrecord
280
     1
102
RTVSPost2010Prop28
280
     0
102
RTVSPost2010PropOp28
 70
     1
102
RTVSPost2010Prop29
280
     1
102
RTVSPost2010PropOp29
 70
     1
102
RTVSPost2010Prop30
280
     1
102
RTVSPost2010PropOp30
 70
     1
102
RTVSPost2010Prop31
280
     0
102
RTVSPost2010PropOp31
 70
     1
102
RTVSPost2010Prop32
280
     0
102
RTVSPost2010PropOp32
 70
     1
102
RTVSPost2010Prop33
280
     0
102
RTVSPost2010PropOp33
 70
     1
102
RTVSPost2010Prop34
280
     0
102
RTVSPost2010PropOp34
 70
     1
102
RTVSPost2010Prop35
280
     0
102
RTVSPost2010PropOp35
 70
     1
102
RTVSPost2010Prop36
280
     0
102
RTVSPost2010PropOp36
 70
     1
102
RTVSPost2010Prop37
 90
       50
102
RTVSPost2010PropOp37
 70
     1
102
RTVSPost2010Prop38
140
0.0
102
RTVSPost2010PropOp38
 70
     1
102
RTVSPost2010Prop39
140
1.0
102
RTVSPost2010PropOp39
 70
     1
102
RTVSPost2010Prop40
 90
        0
102
RTVSPost2010PropOp40
 70
     1
102
RTVSPost2010Prop41ColorIndex
 90
       18
102
RTVSPost2010Prop41ColorRGB
 90
        0
102
RTVSPost2010PropOp41
 70
     1
102
RTVSPost2010Prop42
 90
       50
102
RTVSPost2010PropOp42
 70
     1
102
RTVSPost2010Prop43
 90
        3
102
RTVSPost2010PropOp43
 70
     1
102
RTVSPost2010Prop44ColorIndex
 90
        5
102
RTVSPost2010Prop44ColorRGB
 90
      255
102
RTVSPost2010PropOp44
 70
     1
102
RTVSPost2010Prop45
280
     0
102
RTVSPost2010PropOp45
 70
     1
102
RTVSPost2010Prop46
 90
       50
102
RTVSPost2010PropOp46
 70
     1
102
RTVSPost2010Prop47
 90
       50
102
RTVSPost2010PropOp47
 70
     1
102
RTVSPost2010Prop48
 90
       50
102
RTVSPost2010PropOp48
 70
     1
102
RTVSPost2010Prop49
280
     0
102
RTVSPost2010PropOp49
 70
     1
102
RTVSPost2010Prop50
 90
       50
102
RTVSPost2010PropOp50
 70
     1
102
RTVSPost2010Prop51ColorIndex
 90
      256
102
RTVSPost2010Prop51ColorRGB
 90
-16777216
102
RTVSPost2010PropOp51
 70
     0
102
RTVSPost2010Prop52
140
1.0
102
RTVSPost2010PropOp52
 70
     0
102
RTVSPost2010Prop53
 90
        2
102
RTVSPost2010PropOp53
 70
     1
102
RTVSPost2010Prop54
  1
strokes_ogs.tif
102
RTVSPost2010PropOp54
 70
     1
102
RTVSPost2010Prop55
280
     0
102
RTVSPost2010PropOp55
 70
     1
102
RTVSPost2010Prop56
140
1.0
102
RTVSPost2010PropOp56
 70
     1
102
RTVSPost2010Prop57
140
1.0
102
RTVSPost2010PropOp57
 70
     1
102
RTVSPropertyOp0
 70
     1
102
RTVSPropertyOp1
 70
     1
102
RTVSPropertyOp2
 70
     1
102
RTVSPropertyOp3
 70
     1
102
RTVSPropertyOp4
 70
     1
102
RTVSPropertyOp5
 70
     1
102
RTVSPropertyOp6
 70
     1
102
RTVSPropertyOp7
 70
     1
102
RTVSPropertyOp8
 70
     1
102
RTVSPropertyOp9
 70
     1
102
RTVSPropertyOp10
 70
     1
102
RTVSPropertyOp11
 70
     1
102
RTVSPropertyOp12
 70
     1
102
RTVSPropertyOp13
 70
     1
102
RTVSPropertyOp14
 70
     1
102
RTVSPropertyOp15
 70
     1
102
RTVSPropertyOp16
 70
     1
102
RTVSPropertyOp17
 70
     1
102
RTVSPropertyOp18
 70
     1
102
RTVSPropertyOp19
 70
     1
102
RTVSPropertyOp20
 70
     1
102
RTVSPropertyOp21
 70
     1
102
RTVSPropertyOp22
 70
     1
102
RTVSPropertyOp23
 70
     1
102
RTVSPropertyOp24
 70
     1
102
RTVSPropertyOp25
 70
     1
102
RTVSPropertyOp26
 70
     1
102
RTVSPropertyOp27
 70
     1
102
RTVSPropertyOp28
 70
     1
102
RTVSPropertyOp29
 70
     1
102
RTVSPropertyOp30
 70
     1
102
RTVSPropertyOp31
 70
     1
102
RTVSPropertyOp32
 70
     1
102
RTVSPropertyOp33
 70
     1
102
RTVSPropertyOp34
 70
     1
102
RTVSPropertyOp35
 70
     1
102
RTVSPropertyOp36
 70
     1
102
RTVSPropertyOp37
 70
     1
102
RTVSPropertyOp38
 70
     1
102
RTVSPropertyOp39
 70
     1
102
RTVSPropertyOp40
 70
     1
102
RTVSPropertyOp41
 70
     1
102
RTVSPropertyOp42
 70
     1
102
RTVSPropertyOp43
 70
     1
102
RTVSPropertyOp44
 70
     1
102
RTVSPropertyOp45
 70
     1
102
RTVSPropertyOp46
 70
     1
102
RTVSPropertyOp47
 70
     1
102
RTVSPropertyOp48
 70
     1
102
RTVSPropertyOp49
 70
     1
102
RTVSPropertyOp50
 70
     1
102
RTVSPropertyOp51
 70
     0
102
RTVSPropertyOp52
 70
     0
102
RTVSPropertyOp53
 70
     1
102
RTVSPropertyOp54
 70
     1
102
RTVSPropertyOp55
 70
     1
102
RTVSPropertyOp56
 70
     1
102
RTVSPropertyOp57
 70
     1
102
RTVSPropertyOp58
 70
     1
102
RTVSPropertyOp59
 70
     1
102
RTVSPropertyOp60
 70
     1
102
RTVSPropertyOp61
 70
     1
102
RTVSPropertyOp62
 70
     1
  0
XRECORD
  5
1C8CDE6ACA74
102
{ACAD_REACTORS
330
1C8CDE6ACA73
102
}
330
1C8CDE6ACA73
100
AcDbXrecord
280
     1
102
RTVSPost2010Prop28
280
     0
102
RTVSPost2010PropOp28
 70
     1
102
RTVSPost2010Prop29
280
     1
102
RTVSPost2010PropOp29
 70
     1
102
RTVSPost2010Prop30
280
     1
102
RTVSPost2010PropOp30
 70
     1
102
RTVSPost2010Prop31
280
     0
102
RTVSPost2010PropOp31
 70
     1
102
RTVSPost2010Prop32
280
     0
102
RTVSPost2010PropOp32
 70
     1
102
RTVSPost2010Prop33
280
     0
102
RTVSPost2010PropOp33
 70
     1
102
RTVSPost2010Prop34
280
     0
102
RTVSPost2010PropOp34
 70
     1
102
RTVSPost2010Prop35
280
     0
102
RTVSPost2010PropOp35
 70
     1
102
RTVSPost2010Prop36
280
     0
102
RTVSPost2010PropOp36
 70
     1
102
RTVSPost2010Prop37
 90
       50
102
RTVSPost2010PropOp37
 70
     1
102
RTVSPost2010Prop38
140
0.0
102
RTVSPost2010PropOp38
 70
     1
102
RTVSPost2010Prop39
140
1.0
102
RTVSPost2010PropOp39
 70
     1
102
RTVSPost2010Prop40
 90
        0
102
RTVSPost2010PropOp40
 70
     1
102
RTVSPost2010Prop41ColorIndex
 90
       18
102
RTVSPost2010Prop41ColorRGB
 90
        0
102
RTVSPost2010PropOp41
 70
     1
102
RTVSPost2010Prop42
 90
       50
102
RTVSPost2010PropOp42
 70
     1
102
RTVSPost2010Prop43
 90
        3
102
RTVSPost2010PropOp43
 70
     1
102
RTVSPost2010Prop44ColorIndex
 90
        5
102
RTVSPost2010Prop44ColorRGB
 90
      255
102
RTVSPost2010PropOp44
 70
     1
102
RTVSPost2010Prop45
280
     0
102
RTVSPost2010PropOp45
 70
     1
102
RTVSPost2010Prop46
 90
       50
102
RTVSPost2010PropOp46
 70
     1
102
RTVSPost2010Prop47
 90
       50
102
RTVSPost2010PropOp47
 70
     1
102
RTVSPost2010Prop48
 90
       50
102
RTVSPost2010PropOp48
 70
     1
102
RTVSPost2010Prop49
280
     0
102
RTVSPost2010PropOp49
 70
     1
102
RTVSPost2010Prop50
 90
       50
102
RTVSPost2010PropOp50
 70
     1
102
RTVSPost2010Prop51ColorIndex
 90
      256
102
RTVSPost2010Prop51ColorRGB
 90
-16777216
102
RTVSPost2010PropOp51
 70
     0
102
RTVSPost2010Prop52
140
1.0
102
RTVSPost2010PropOp52
 70
     0
102
RTVSPost2010Prop53
 90
        2
102
RTVSPost2010PropOp53
 70
     1
102
RTVSPost2010Prop54
  1
strokes_ogs.tif
102
RTVSPost2010PropOp54
 70
     1
102
RTVSPost2010Prop55
280
     0
102
RTVSPost2010PropOp55
 70
     1
102
RTVSPost2010Prop56
140
1.0
102
RTVSPost2010PropOp56
 70
     1
102
RTVSPost2010Prop57
140
1.0
102
RTVSPost2010PropOp57
 70
     1
102
RTVSPropertyOp0
 70
     1
102
RTVSPropertyOp1
 70
     1
102
RTVSPropertyOp2
 70
     1
102
RTVSPropertyOp3
 70
     1
102
RTVSPropertyOp4
 70
     1
102
RTVSPropertyOp5
 70
     1
102
RTVSPropertyOp6
 70
     1
102
RTVSPropertyOp7
 70
     1
102
RTVSPropertyOp8
 70
     1
102
RTVSPropertyOp9
 70
     1
102
RTVSPropertyOp10
 70
     1
102
RTVSPropertyOp11
 70
     1
102
RTVSPropertyOp12
 70
     1
102
RTVSPropertyOp13
 70
     1
102
RTVSPropertyOp14
 70
     1
102
RTVSPropertyOp15
 70
     1
102
RTVSPropertyOp16
 70
     1
102
RTVSPropertyOp17
 70
     1
102
RTVSPropertyOp18
 70
     1
102
RTVSPropertyOp19
 70
     1
102
RTVSPropertyOp20
 70
     1
102
RTVSPropertyOp21
 70
     1
102
RTVSPropertyOp22
 70
     1
102
RTVSPropertyOp23
 70
     1
102
RTVSPropertyOp24
 70
     1
102
RTVSPropertyOp25
 70
     1
102
RTVSPropertyOp26
 70
     1
102
RTVSPropertyOp27
 70
     1
102
RTVSPropertyOp28
 70
     1
102
RTVSPropertyOp29
 70
     1
102
RTVSPropertyOp30
 70
     1
102
RTVSPropertyOp31
 70
     1
102
RTVSPropertyOp32
 70
     1
102
RTVSPropertyOp33
 70
     1
102
RTVSPropertyOp34
 70
     1
102
RTVSPropertyOp35
 70
     1
102
RTVSPropertyOp36
 70
     1
102
RTVSPropertyOp37
 70
     1
102
RTVSPropertyOp38
 70
     1
102
RTVSPropertyOp39
 70
     1
102
RTVSPropertyOp40
 70
     1
102
RTVSPropertyOp41
 70
     1
102
RTVSPropertyOp42
 70
     1
102
RTVSPropertyOp43
 70
     1
102
RTVSPropertyOp44
 70
     1
102
RTVSPropertyOp45
 70
     1
102
RTVSPropertyOp46
 70
     1
102
RTVSPropertyOp47
 70
     1
102
RTVSPropertyOp48
 70
     1
102
RTVSPropertyOp49
 70
     1
102
RTVSPropertyOp50
 70
     1
102
RTVSPropertyOp51
 70
     0
102
RTVSPropertyOp52
 70
     0
102
RTVSPropertyOp53
 70
     1
102
RTVSPropertyOp54
 70
     1
102
RTVSPropertyOp55
 70
     1
102
RTVSPropertyOp56
 70
     1
102
RTVSPropertyOp57
 70
     1
102
RTVSPropertyOp58
 70
     1
102
RTVSPropertyOp59
 70
     1
102
RTVSPropertyOp60
 70
     1
102
RTVSPropertyOp61
 70
     1
102
RTVSPropertyOp62
 70
     1
  0
XRECORD
  5
1C8CDE6ACA7A
102
{ACAD_REACTORS
330
1C8CDE6ACA79
102
}
330
1C8CDE6ACA79
100
AcDbXrecord
280
     1
102
RTVSPost2010Prop28
280
     0
102
RTVSPost2010PropOp28
 70
     1
102
RTVSPost2010Prop29
280
     1
102
RTVSPost2010PropOp29
 70
     1
102
RTVSPost2010Prop30
280
     1
102
RTVSPost2010PropOp30
 70
     1
102
RTVSPost2010Prop31
280
     0
102
RTVSPost2010PropOp31
 70
     1
102
RTVSPost2010Prop32
280
     0
102
RTVSPost2010PropOp32
 70
     1
102
RTVSPost2010Prop33
280
     0
102
RTVSPost2010PropOp33
 70
     1
102
RTVSPost2010Prop34
280
     0
102
RTVSPost2010PropOp34
 70
     1
102
RTVSPost2010Prop35
280
     0
102
RTVSPost2010PropOp35
 70
     1
102
RTVSPost2010Prop36
280
     0
102
RTVSPost2010PropOp36
 70
     1
102
RTVSPost2010Prop37
 90
       50
102
RTVSPost2010PropOp37
 70
     1
102
RTVSPost2010Prop38
140
0.0
102
RTVSPost2010PropOp38
 70
     1
102
RTVSPost2010Prop39
140
1.0
102
RTVSPost2010PropOp39
 70
     1
102
RTVSPost2010Prop40
 90
        0
102
RTVSPost2010PropOp40
 70
     1
102
RTVSPost2010Prop41ColorIndex
 90
       18
102
RTVSPost2010Prop41ColorRGB
 90
        0
102
RTVSPost2010PropOp41
 70
     1
102
RTVSPost2010Prop42
 90
       50
102
RTVSPost2010PropOp42
 70
     1
102
RTVSPost2010Prop43
 90
        3
102
RTVSPost2010PropOp43
 70
     1
102
RTVSPost2010Prop44ColorIndex
 90
        5
102
RTVSPost2010Prop44ColorRGB
 90
      255
102
RTVSPost2010PropOp44
 70
     1
102
RTVSPost2010Prop45
280
     0
102
RTVSPost2010PropOp45
 70
     1
102
RTVSPost2010Prop46
 90
       50
102
RTVSPost2010PropOp46
 70
     1
102
RTVSPost2010Prop47
 90
       50
102
RTVSPost2010PropOp47
 70
     1
102
RTVSPost2010Prop48
 90
       50
102
RTVSPost2010PropOp48
 70
     1
102
RTVSPost2010Prop49
280
     0
102
RTVSPost2010PropOp49
 70
     1
102
RTVSPost2010Prop50
 90
       50
102
RTVSPost2010PropOp50
 70
     1
102
RTVSPost2010Prop51ColorIndex
 90
      256
102
RTVSPost2010Prop51ColorRGB
 90
-16777216
102
RTVSPost2010PropOp51
 70
     0
102
RTVSPost2010Prop52
140
1.0
102
RTVSPost2010PropOp52
 70
     0
102
RTVSPost2010Prop53
 90
        2
102
RTVSPost2010PropOp53
 70
     1
102
RTVSPost2010Prop54
  1
strokes_ogs.tif
102
RTVSPost2010PropOp54
 70
     1
102
RTVSPost2010Prop55
280
     0
102
RTVSPost2010PropOp55
 70
     1
102
RTVSPost2010Prop56
140
1.0
102
RTVSPost2010PropOp56
 70
     1
102
RTVSPost2010Prop57
140
1.0
102
RTVSPost2010PropOp57
 70
     1
102
RTVSPropertyOp0
 70
     1
102
RTVSPropertyOp1
 70
     1
102
RTVSPropertyOp2
 70
     1
102
RTVSPropertyOp3
 70
     1
102
RTVSPropertyOp4
 70
     1
102
RTVSPropertyOp5
 70
     1
102
RTVSPropertyOp6
 70
     1
102
RTVSPropertyOp7
 70
     1
102
RTVSPropertyOp8
 70
     1
102
RTVSPropertyOp9
 70
     1
102
RTVSPropertyOp10
 70
     1
102
RTVSPropertyOp11
 70
     1
102
RTVSPropertyOp12
 70
     1
102
RTVSPropertyOp13
 70
     1
102
RTVSPropertyOp14
 70
     1
102
RTVSPropertyOp15
 70
     1
102
RTVSPropertyOp16
 70
     1
102
RTVSPropertyOp17
 70
     1
102
RTVSPropertyOp18
 70
     1
102
RTVSPropertyOp19
 70
     1
102
RTVSPropertyOp20
 70
     1
102
RTVSPropertyOp21
 70
     1
102
RTVSPropertyOp22
 70
     1
102
RTVSPropertyOp23
 70
     1
102
RTVSPropertyOp24
 70
     1
102
RTVSPropertyOp25
 70
     1
102
RTVSPropertyOp26
 70
     1
102
RTVSPropertyOp27
 70
     1
102
RTVSPropertyOp28
 70
     1
102
RTVSPropertyOp29
 70
     1
102
RTVSPropertyOp30
 70
     1
102
RTVSPropertyOp31
 70
     1
102
RTVSPropertyOp32
 70
     1
102
RTVSPropertyOp33
 70
     1
102
RTVSPropertyOp34
 70
     1
102
RTVSPropertyOp35
 70
     1
102
RTVSPropertyOp36
 70
     1
102
RTVSPropertyOp37
 70
     1
102
RTVSPropertyOp38
 70
     1
102
RTVSPropertyOp39
 70
     1
102
RTVSPropertyOp40
 70
     1
102
RTVSPropertyOp41
 70
     1
102
RTVSPropertyOp42
 70
     1
102
RTVSPropertyOp43
 70
     1
102
RTVSPropertyOp44
 70
     1
102
RTVSPropertyOp45
 70
     1
102
RTVSPropertyOp46
 70
     1
102
RTVSPropertyOp47
 70
     1
102
RTVSPropertyOp48
 70
     1
102
RTVSPropertyOp49
 70
     1
102
RTVSPropertyOp50
 70
     1
102
RTVSPropertyOp51
 70
     0
102
RTVSPropertyOp52
 70
     0
102
RTVSPropertyOp53
 70
     1
102
RTVSPropertyOp54
 70
     1
102
RTVSPropertyOp55
 70
     1
102
RTVSPropertyOp56
 70
     1
102
RTVSPropertyOp57
 70
     1
102
RTVSPropertyOp58
 70
     1
102
RTVSPropertyOp59
 70
     1
102
RTVSPropertyOp60
 70
     1
102
RTVSPropertyOp61
 70
     1
102
RTVSPropertyOp62
 70
     1
  0
XRECORD
  5
1C8CDE6ACA8E
102
{ACAD_REACTORS
330
1C8CDE6ACA8D
102
}
330
1C8CDE6ACA8D
100
AcDbXrecord
280
     1
102
RTVSPost2010Prop28
280
     0
102
RTVSPost2010PropOp28
 70
     0
102
RTVSPost2010Prop29
280
     1
102
RTVSPost2010PropOp29
 70
     0
102
RTVSPost2010Prop30
280
     1
102
RTVSPost2010PropOp30
 70
     0
102
RTVSPost2010Prop31
280
     0
102
RTVSPost2010PropOp31
 70
     0
102
RTVSPost2010Prop32
280
     0
102
RTVSPost2010PropOp32
 70
     0
102
RTVSPost2010Prop33
280
     0
102
RTVSPost2010PropOp33
 70
     0
102
RTVSPost2010Prop34
280
     0
102
RTVSPost2010PropOp34
 70
     0
102
RTVSPost2010Prop35
280
     0
102
RTVSPost2010PropOp35
 70
     0
102
RTVSPost2010Prop36
280
     0
102
RTVSPost2010PropOp36
 70
     0
102
RTVSPost2010Prop37
 90
       50
102
RTVSPost2010PropOp37
 70
     0
102
RTVSPost2010Prop38
140
0.0
102
RTVSPost2010PropOp38
 70
     0
102
RTVSPost2010Prop39
140
1.0
102
RTVSPost2010PropOp39
 70
     0
102
RTVSPost2010Prop40
 90
        0
102
RTVSPost2010PropOp40
 70
     0
102
RTVSPost2010Prop41ColorIndex
 90
       18
102
RTVSPost2010Prop41ColorRGB
 90
        0
102
RTVSPost2010PropOp41
 70
     0
102
RTVSPost2010Prop42
 90
       50
102
RTVSPost2010PropOp42
 70
     0
102
RTVSPost2010Prop43
 90
        3
102
RTVSPost2010PropOp43
 70
     0
102
RTVSPost2010Prop44ColorIndex
 90
        5
102
RTVSPost2010Prop44ColorRGB
 90
      255
102
RTVSPost2010PropOp44
 70
     0
102
RTVSPost2010Prop45
280
     0
102
RTVSPost2010PropOp45
 70
     0
102
RTVSPost2010Prop46
 90
       50
102
RTVSPost2010PropOp46
 70
     0
102
RTVSPost2010Prop47
 90
       50
102
RTVSPost2010PropOp47
 70
     0
102
RTVSPost2010Prop48
 90
       50
102
RTVSPost2010PropOp48
 70
     0
102
RTVSPost2010Prop49
280
     0
102
RTVSPost2010PropOp49
 70
     0
102
RTVSPost2010Prop50
 90
       50
102
RTVSPost2010PropOp50
 70
     0
102
RTVSPost2010Prop51ColorIndex
 90
      256
102
RTVSPost2010Prop51ColorRGB
 90
-16777216
102
RTVSPost2010PropOp51
 70
     0
102
RTVSPost2010Prop52
140
1.0
102
RTVSPost2010PropOp52
 70
     0
102
RTVSPost2010Prop53
 90
        2
102
RTVSPost2010PropOp53
 70
     0
102
RTVSPost2010Prop54
  1
strokes_ogs.tif
102
RTVSPost2010PropOp54
 70
     0
102
RTVSPost2010Prop55
280
     0
102
RTVSPost2010PropOp55
 70
     0
102
RTVSPost2010Prop56
140
1.0
102
RTVSPost2010PropOp56
 70
     0
102
RTVSPost2010Prop57
140
1.0
102
RTVSPost2010PropOp57
 70
     0
102
RTVSPropertyOp0
 70
     0
102
RTVSPropertyOp1
 70
     0
102
RTVSPropertyOp2
 70
     0
102
RTVSPropertyOp3
 70
     0
102
RTVSPropertyOp4
 70
     0
102
RTVSPropertyOp5
 70
     0
102
RTVSPropertyOp6
 70
     0
102
RTVSPropertyOp7
 70
     0
102
RTVSPropertyOp8
 70
     0
102
RTVSPropertyOp9
 70
     0
102
RTVSPropertyOp10
 70
     0
102
RTVSPropertyOp11
 70
     0
102
RTVSPropertyOp12
 70
     0
102
RTVSPropertyOp13
 70
     0
102
RTVSPropertyOp14
 70
     2
102
RTVSPropertyOp15
 70
     0
102
RTVSPropertyOp16
 70
     0
102
RTVSPropertyOp17
 70
     0
102
RTVSPropertyOp18
 70
     0
102
RTVSPropertyOp19
 70
     0
102
RTVSPropertyOp20
 70
     0
102
RTVSPropertyOp21
 70
     0
102
RTVSPropertyOp22
 70
     0
102
RTVSPropertyOp23
 70
     0
102
RTVSPropertyOp24
 70
     0
102
RTVSPropertyOp25
 70
     0
102
RTVSPropertyOp26
 70
     0
102
RTVSPropertyOp27
 70
     0
102
RTVSPropertyOp28
 70
     0
102
RTVSPropertyOp29
 70
     0
102
RTVSPropertyOp30
 70
     0
102
RTVSPropertyOp31
 70
     0
102
RTVSPropertyOp32
 70
     0
102
RTVSPropertyOp33
 70
     0
102
RTVSPropertyOp34
 70
     0
102
RTVSPropertyOp35
 70
     0
102
RTVSPropertyOp36
 70
     0
102
RTVSPropertyOp37
 70
     0
102
RTVSPropertyOp38
 70
     0
102
RTVSPropertyOp39
 70
     0
102
RTVSPropertyOp40
 70
     0
102
RTVSPropertyOp41
 70
     0
102
RTVSPropertyOp42
 70
     0
102
RTVSPropertyOp43
 70
     0
102
RTVSPropertyOp44
 70
     0
102
RTVSPropertyOp45
 70
     0
102
RTVSPropertyOp46
 70
     0
102
RTVSPropertyOp47
 70
     0
102
RTVSPropertyOp48
 70
     0
102
RTVSPropertyOp49
 70
     0
102
RTVSPropertyOp50
 70
     0
102
RTVSPropertyOp51
 70
     0
102
RTVSPropertyOp52
 70
     0
102
RTVSPropertyOp53
 70
     0
102
RTVSPropertyOp54
 70
     0
102
RTVSPropertyOp55
 70
     0
102
RTVSPropertyOp56
 70
     0
102
RTVSPropertyOp57
 70
     0
102
RTVSPropertyOp58
 70
     1
102
RTVSPropertyOp59
 70
     1
102
RTVSPropertyOp60
 70
     1
102
RTVSPropertyOp61
 70
     1
102
RTVSPropertyOp62
 70
     1
  0
XRECORD
  5
1C8CDE6ACA88
102
{ACAD_REACTORS
330
1C8CDE6ACA87
102
}
330
1C8CDE6ACA87
100
AcDbXrecord
280
     1
102
RTVSPost2010Prop28
280
     0
102
RTVSPost2010PropOp28
 70
     1
102
RTVSPost2010Prop29
280
     1
102
RTVSPost2010PropOp29
 70
     1
102
RTVSPost2010Prop30
280
     1
102
RTVSPost2010PropOp30
 70
     1
102
RTVSPost2010Prop31
280
     0
102
RTVSPost2010PropOp31
 70
     1
102
RTVSPost2010Prop32
280
     0
102
RTVSPost2010PropOp32
 70
     1
102
RTVSPost2010Prop33
280
     0
102
RTVSPost2010PropOp33
 70
     1
102
RTVSPost2010Prop34
280
     0
102
RTVSPost2010PropOp34
 70
     1
102
RTVSPost2010Prop35
280
     0
102
RTVSPost2010PropOp35
 70
     1
102
RTVSPost2010Prop36
280
     0
102
RTVSPost2010PropOp36
 70
     1
102
RTVSPost2010Prop37
 90
       50
102
RTVSPost2010PropOp37
 70
     1
102
RTVSPost2010Prop38
140
0.0
102
RTVSPost2010PropOp38
 70
     1
102
RTVSPost2010Prop39
140
1.0
102
RTVSPost2010PropOp39
 70
     1
102
RTVSPost2010Prop40
 90
        0
102
RTVSPost2010PropOp40
 70
     1
102
RTVSPost2010Prop41ColorIndex
 90
       18
102
RTVSPost2010Prop41ColorRGB
 90
        0
102
RTVSPost2010PropOp41
 70
     1
102
RTVSPost2010Prop42
 90
       50
102
RTVSPost2010PropOp42
 70
     1
102
RTVSPost2010Prop43
 90
        3
102
RTVSPost2010PropOp43
 70
     1
102
RTVSPost2010Prop44ColorIndex
 90
        5
102
RTVSPost2010Prop44ColorRGB
 90
      255
102
RTVSPost2010PropOp44
 70
     1
102
RTVSPost2010Prop45
280
     0
102
RTVSPost2010PropOp45
 70
     1
102
RTVSPost2010Prop46
 90
       50
102
RTVSPost2010PropOp46
 70
     1
102
RTVSPost2010Prop47
 90
       50
102
RTVSPost2010PropOp47
 70
     1
102
RTVSPost2010Prop48
 90
       50
102
RTVSPost2010PropOp48
 70
     1
102
RTVSPost2010Prop49
280
     0
102
RTVSPost2010PropOp49
 70
     1
102
RTVSPost2010Prop50
 90
       50
102
RTVSPost2010PropOp50
 70
     1
102
RTVSPost2010Prop51ColorIndex
 90
      256
102
RTVSPost2010Prop51ColorRGB
 90
-16777216
102
RTVSPost2010PropOp51
 70
     0
102
RTVSPost2010Prop52
140
1.0
102
RTVSPost2010PropOp52
 70
     0
102
RTVSPost2010Prop53
 90
        2
102
RTVSPost2010PropOp53
 70
     1
102
RTVSPost2010Prop54
  1
strokes_ogs.tif
102
RTVSPost2010PropOp54
 70
     1
102
RTVSPost2010Prop55
280
     0
102
RTVSPost2010PropOp55
 70
     1
102
RTVSPost2010Prop56
140
1.0
102
RTVSPost2010PropOp56
 70
     1
102
RTVSPost2010Prop57
140
1.0
102
RTVSPost2010PropOp57
 70
     1
102
RTVSPropertyOp0
 70
     1
102
RTVSPropertyOp1
 70
     1
102
RTVSPropertyOp2
 70
     1
102
RTVSPropertyOp3
 70
     1
102
RTVSPropertyOp4
 70
     1
102
RTVSPropertyOp5
 70
     1
102
RTVSPropertyOp6
 70
     1
102
RTVSPropertyOp7
 70
     1
102
RTVSPropertyOp8
 70
     1
102
RTVSPropertyOp9
 70
     1
102
RTVSPropertyOp10
 70
     1
102
RTVSPropertyOp11
 70
     1
102
RTVSPropertyOp12
 70
     1
102
RTVSPropertyOp13
 70
     1
102
RTVSPropertyOp14
 70
     1
102
RTVSPropertyOp15
 70
     1
102
RTVSPropertyOp16
 70
     1
102
RTVSPropertyOp17
 70
     1
102
RTVSPropertyOp18
 70
     1
102
RTVSPropertyOp19
 70
     1
102
RTVSPropertyOp20
 70
     1
102
RTVSPropertyOp21
 70
     1
102
RTVSPropertyOp22
 70
     1
102
RTVSPropertyOp23
 70
     1
102
RTVSPropertyOp24
 70
     1
102
RTVSPropertyOp25
 70
     1
102
RTVSPropertyOp26
 70
     1
102
RTVSPropertyOp27
 70
     1
102
RTVSPropertyOp28
 70
     1
102
RTVSPropertyOp29
 70
     1
102
RTVSPropertyOp30
 70
     1
102
RTVSPropertyOp31
 70
     1
102
RTVSPropertyOp32
 70
     1
102
RTVSPropertyOp33
 70
     1
102
RTVSPropertyOp34
 70
     1
102
RTVSPropertyOp35
 70
     1
102
RTVSPropertyOp36
 70
     1
102
RTVSPropertyOp37
 70
     1
102
RTVSPropertyOp38
 70
     1
102
RTVSPropertyOp39
 70
     1
102
RTVSPropertyOp40
 70
     1
102
RTVSPropertyOp41
 70
     1
102
RTVSPropertyOp42
 70
     1
102
RTVSPropertyOp43
 70
     1
102
RTVSPropertyOp44
 70
     1
102
RTVSPropertyOp45
 70
     1
102
RTVSPropertyOp46
 70
     1
102
RTVSPropertyOp47
 70
     1
102
RTVSPropertyOp48
 70
     1
102
RTVSPropertyOp49
 70
     1
102
RTVSPropertyOp50
 70
     1
102
RTVSPropertyOp51
 70
     0
102
RTVSPropertyOp52
 70
     0
102
RTVSPropertyOp53
 70
     1
102
RTVSPropertyOp54
 70
     1
102
RTVSPropertyOp55
 70
     1
102
RTVSPropertyOp56
 70
     1
102
RTVSPropertyOp57
 70
     1
102
RTVSPropertyOp58
 70
     1
102
RTVSPropertyOp59
 70
     1
102
RTVSPropertyOp60
 70
     1
102
RTVSPropertyOp61
 70
     1
102
RTVSPropertyOp62
 70
     1
  0
XRECORD
  5
1C8CDE6ACAA4
102
{ACAD_REACTORS
330
1C8CDE6ACAA3
102
}
330
1C8CDE6ACAA3
100
AcDbXrecord
280
     1
102
RTVSPost2010Prop28
280
     0
102
RTVSPost2010PropOp28
 70
     1
102
RTVSPost2010Prop29
280
     1
102
RTVSPost2010PropOp29
 70
     1
102
RTVSPost2010Prop30
280
     1
102
RTVSPost2010PropOp30
 70
     1
102
RTVSPost2010Prop31
280
     0
102
RTVSPost2010PropOp31
 70
     1
102
RTVSPost2010Prop32
280
     0
102
RTVSPost2010PropOp32
 70
     1
102
RTVSPost2010Prop33
280
     0
102
RTVSPost2010PropOp33
 70
     1
102
RTVSPost2010Prop34
280
     0
102
RTVSPost2010PropOp34
 70
     1
102
RTVSPost2010Prop35
280
     0
102
RTVSPost2010PropOp35
 70
     1
102
RTVSPost2010Prop36
280
     0
102
RTVSPost2010PropOp36
 70
     1
102
RTVSPost2010Prop37
 90
       50
102
RTVSPost2010PropOp37
 70
     1
102
RTVSPost2010Prop38
140
0.0
102
RTVSPost2010PropOp38
 70
     1
102
RTVSPost2010Prop39
140
1.0
102
RTVSPost2010PropOp39
 70
     1
102
RTVSPost2010Prop40
 90
        0
102
RTVSPost2010PropOp40
 70
     1
102
RTVSPost2010Prop41ColorIndex
 90
       18
102
RTVSPost2010Prop41ColorRGB
 90
        0
102
RTVSPost2010PropOp41
 70
     1
102
RTVSPost2010Prop42
 90
       50
102
RTVSPost2010PropOp42
 70
     1
102
RTVSPost2010Prop43
 90
        3
102
RTVSPost2010PropOp43
 70
     1
102
RTVSPost2010Prop44ColorIndex
 90
        5
102
RTVSPost2010Prop44ColorRGB
 90
      255
102
RTVSPost2010PropOp44
 70
     1
102
RTVSPost2010Prop45
280
     0
102
RTVSPost2010PropOp45
 70
     1
102
RTVSPost2010Prop46
 90
       50
102
RTVSPost2010PropOp46
 70
     1
102
RTVSPost2010Prop47
 90
       50
102
RTVSPost2010PropOp47
 70
     1
102
RTVSPost2010Prop48
 90
       50
102
RTVSPost2010PropOp48
 70
     1
102
RTVSPost2010Prop49
280
     0
102
RTVSPost2010PropOp49
 70
     1
102
RTVSPost2010Prop50
 90
       50
102
RTVSPost2010PropOp50
 70
     1
102
RTVSPost2010Prop51ColorIndex
 90
      256
102
RTVSPost2010Prop51ColorRGB
 90
-16777216
102
RTVSPost2010PropOp51
 70
     0
102
RTVSPost2010Prop52
140
1.0
102
RTVSPost2010PropOp52
 70
     0
102
RTVSPost2010Prop53
 90
        2
102
RTVSPost2010PropOp53
 70
     1
102
RTVSPost2010Prop54
  1
strokes_ogs.tif
102
RTVSPost2010PropOp54
 70
     1
102
RTVSPost2010Prop55
280
     0
102
RTVSPost2010PropOp55
 70
     1
102
RTVSPost2010Prop56
140
1.0
102
RTVSPost2010PropOp56
 70
     1
102
RTVSPost2010Prop57
140
1.0
102
RTVSPost2010PropOp57
 70
     1
102
RTVSPropertyOp0
 70
     1
102
RTVSPropertyOp1
 70
     1
102
RTVSPropertyOp2
 70
     1
102
RTVSPropertyOp3
 70
     1
102
RTVSPropertyOp4
 70
     1
102
RTVSPropertyOp5
 70
     1
102
RTVSPropertyOp6
 70
     1
102
RTVSPropertyOp7
 70
     1
102
RTVSPropertyOp8
 70
     1
102
RTVSPropertyOp9
 70
     1
102
RTVSPropertyOp10
 70
     1
102
RTVSPropertyOp11
 70
     1
102
RTVSPropertyOp12
 70
     1
102
RTVSPropertyOp13
 70
     1
102
RTVSPropertyOp14
 70
     1
102
RTVSPropertyOp15
 70
     1
102
RTVSPropertyOp16
 70
     1
102
RTVSPropertyOp17
 70
     1
102
RTVSPropertyOp18
 70
     1
102
RTVSPropertyOp19
 70
     1
102
RTVSPropertyOp20
 70
     1
102
RTVSPropertyOp21
 70
     1
102
RTVSPropertyOp22
 70
     1
102
RTVSPropertyOp23
 70
     1
102
RTVSPropertyOp24
 70
     1
102
RTVSPropertyOp25
 70
     1
102
RTVSPropertyOp26
 70
     1
102
RTVSPropertyOp27
 70
     1
102
RTVSPropertyOp28
 70
     1
102
RTVSPropertyOp29
 70
     1
102
RTVSPropertyOp30
 70
     1
102
RTVSPropertyOp31
 70
     1
102
RTVSPropertyOp32
 70
     1
102
RTVSPropertyOp33
 70
     1
102
RTVSPropertyOp34
 70
     1
102
RTVSPropertyOp35
 70
     1
102
RTVSPropertyOp36
 70
     1
102
RTVSPropertyOp37
 70
     1
102
RTVSPropertyOp38
 70
     1
102
RTVSPropertyOp39
 70
     1
102
RTVSPropertyOp40
 70
     1
102
RTVSPropertyOp41
 70
     1
102
RTVSPropertyOp42
 70
     1
102
RTVSPropertyOp43
 70
     1
102
RTVSPropertyOp44
 70
     1
102
RTVSPropertyOp45
 70
     1
102
RTVSPropertyOp46
 70
     1
102
RTVSPropertyOp47
 70
     1
102
RTVSPropertyOp48
 70
     1
102
RTVSPropertyOp49
 70
     1
102
RTVSPropertyOp50
 70
     1
102
RTVSPropertyOp51
 70
     0
102
RTVSPropertyOp52
 70
     0
102
RTVSPropertyOp53
 70
     1
102
RTVSPropertyOp54
 70
     1
102
RTVSPropertyOp55
 70
     1
102
RTVSPropertyOp56
 70
     1
102
RTVSPropertyOp57
 70
     1
102
RTVSPropertyOp58
 70
     1
102
RTVSPropertyOp59
 70
     1
102
RTVSPropertyOp60
 70
     1
102
RTVSPropertyOp61
 70
     1
102
RTVSPropertyOp62
 70
     1
  0
XRECORD
  5
1C8CDE6ACA90
102
{ACAD_REACTORS
330
1C8CDE6ACA8F
102
}
330
1C8CDE6ACA8F
100
AcDbXrecord
280
     1
102
RTVSPost2010Prop28
280
     0
102
RTVSPost2010PropOp28
 70
     0
102
RTVSPost2010Prop29
280
     1
102
RTVSPost2010PropOp29
 70
     0
102
RTVSPost2010Prop30
280
     1
102
RTVSPost2010PropOp30
 70
     0
102
RTVSPost2010Prop31
280
     0
102
RTVSPost2010PropOp31
 70
     0
102
RTVSPost2010Prop32
280
     0
102
RTVSPost2010PropOp32
 70
     0
102
RTVSPost2010Prop33
280
     0
102
RTVSPost2010PropOp33
 70
     0
102
RTVSPost2010Prop34
280
     0
102
RTVSPost2010PropOp34
 70
     0
102
RTVSPost2010Prop35
280
     0
102
RTVSPost2010PropOp35
 70
     0
102
RTVSPost2010Prop36
280
     0
102
RTVSPost2010PropOp36
 70
     0
102
RTVSPost2010Prop37
 90
       50
102
RTVSPost2010PropOp37
 70
     0
102
RTVSPost2010Prop38
140
0.0
102
RTVSPost2010PropOp38
 70
     0
102
RTVSPost2010Prop39
140
1.0
102
RTVSPost2010PropOp39
 70
     0
102
RTVSPost2010Prop40
 90
        0
102
RTVSPost2010PropOp40
 70
     0
102
RTVSPost2010Prop41ColorIndex
 90
       18
102
RTVSPost2010Prop41ColorRGB
 90
        0
102
RTVSPost2010PropOp41
 70
     0
102
RTVSPost2010Prop42
 90
       50
102
RTVSPost2010PropOp42
 70
     0
102
RTVSPost2010Prop43
 90
        3
102
RTVSPost2010PropOp43
 70
     0
102
RTVSPost2010Prop44ColorIndex
 90
        5
102
RTVSPost2010Prop44ColorRGB
 90
      255
102
RTVSPost2010PropOp44
 70
     0
102
RTVSPost2010Prop45
280
     0
102
RTVSPost2010PropOp45
 70
     0
102
RTVSPost2010Prop46
 90
       50
102
RTVSPost2010PropOp46
 70
     0
102
RTVSPost2010Prop47
 90
       50
102
RTVSPost2010PropOp47
 70
     0
102
RTVSPost2010Prop48
 90
       50
102
RTVSPost2010PropOp48
 70
     0
102
RTVSPost2010Prop49
280
     0
102
RTVSPost2010PropOp49
 70
     0
102
RTVSPost2010Prop50
 90
       50
102
RTVSPost2010PropOp50
 70
     0
102
RTVSPost2010Prop51ColorIndex
 90
      256
102
RTVSPost2010Prop51ColorRGB
 90
-16777216
102
RTVSPost2010PropOp51
 70
     0
102
RTVSPost2010Prop52
140
1.0
102
RTVSPost2010PropOp52
 70
     0
102
RTVSPost2010Prop53
 90
        2
102
RTVSPost2010PropOp53
 70
     0
102
RTVSPost2010Prop54
  1
strokes_ogs.tif
102
RTVSPost2010PropOp54
 70
     0
102
RTVSPost2010Prop55
280
     0
102
RTVSPost2010PropOp55
 70
     0
102
RTVSPost2010Prop56
140
1.0
102
RTVSPost2010PropOp56
 70
     0
102
RTVSPost2010Prop57
140
1.0
102
RTVSPost2010PropOp57
 70
     0
102
RTVSPropertyOp0
 70
     0
102
RTVSPropertyOp1
 70
     0
102
RTVSPropertyOp2
 70
     0
102
RTVSPropertyOp3
 70
     0
102
RTVSPropertyOp4
 70
     0
102
RTVSPropertyOp5
 70
     0
102
RTVSPropertyOp6
 70
     0
102
RTVSPropertyOp7
 70
     0
102
RTVSPropertyOp8
 70
     0
102
RTVSPropertyOp9
 70
     0
102
RTVSPropertyOp10
 70
     0
102
RTVSPropertyOp11
 70
     0
102
RTVSPropertyOp12
 70
     0
102
RTVSPropertyOp13
 70
     0
102
RTVSPropertyOp14
 70
     2
102
RTVSPropertyOp15
 70
     0
102
RTVSPropertyOp16
 70
     0
102
RTVSPropertyOp17
 70
     0
102
RTVSPropertyOp18
 70
     0
102
RTVSPropertyOp19
 70
     0
102
RTVSPropertyOp20
 70
     0
102
RTVSPropertyOp21
 70
     0
102
RTVSPropertyOp22
 70
     0
102
RTVSPropertyOp23
 70
     0
102
RTVSPropertyOp24
 70
     0
102
RTVSPropertyOp25
 70
     0
102
RTVSPropertyOp26
 70
     0
102
RTVSPropertyOp27
 70
     0
102
RTVSPropertyOp28
 70
     0
102
RTVSPropertyOp29
 70
     0
102
RTVSPropertyOp30
 70
     0
102
RTVSPropertyOp31
 70
     0
102
RTVSPropertyOp32
 70
     0
102
RTVSPropertyOp33
 70
     0
102
RTVSPropertyOp34
 70
     0
102
RTVSPropertyOp35
 70
     0
102
RTVSPropertyOp36
 70
     0
102
RTVSPropertyOp37
 70
     0
102
RTVSPropertyOp38
 70
     0
102
RTVSPropertyOp39
 70
     0
102
RTVSPropertyOp40
 70
     0
102
RTVSPropertyOp41
 70
     0
102
RTVSPropertyOp42
 70
     0
102
RTVSPropertyOp43
 70
     0
102
RTVSPropertyOp44
 70
     0
102
RTVSPropertyOp45
 70
     0
102
RTVSPropertyOp46
 70
     0
102
RTVSPropertyOp47
 70
     0
102
RTVSPropertyOp48
 70
     0
102
RTVSPropertyOp49
 70
     0
102
RTVSPropertyOp50
 70
     0
102
RTVSPropertyOp51
 70
     0
102
RTVSPropertyOp52
 70
     0
102
RTVSPropertyOp53
 70
     0
102
RTVSPropertyOp54
 70
     0
102
RTVSPropertyOp55
 70
     0
102
RTVSPropertyOp56
 70
     0
102
RTVSPropertyOp57
 70
     0
102
RTVSPropertyOp58
 70
     1
102
RTVSPropertyOp59
 70
     1
102
RTVSPropertyOp60
 70
     1
102
RTVSPropertyOp61
 70
     1
102
RTVSPropertyOp62
 70
     1
  0
XRECORD
  5
1C8CDE6ACA7E
102
{ACAD_REACTORS
330
1C8CDE6ACA7D
102
}
330
1C8CDE6ACA7D
100
AcDbXrecord
280
     1
102
RTVSPost2010Prop28
280
     0
102
RTVSPost2010PropOp28
 70
     1
102
RTVSPost2010Prop29
280
     1
102
RTVSPost2010PropOp29
 70
     1
102
RTVSPost2010Prop30
280
     1
102
RTVSPost2010PropOp30
 70
     1
102
RTVSPost2010Prop31
280
     0
102
RTVSPost2010PropOp31
 70
     1
102
RTVSPost2010Prop32
280
     0
102
RTVSPost2010PropOp32
 70
     1
102
RTVSPost2010Prop33
280
     0
102
RTVSPost2010PropOp33
 70
     1
102
RTVSPost2010Prop34
280
     0
102
RTVSPost2010PropOp34
 70
     1
102
RTVSPost2010Prop35
280
     0
102
RTVSPost2010PropOp35
 70
     1
102
RTVSPost2010Prop36
280
     0
102
RTVSPost2010PropOp36
 70
     1
102
RTVSPost2010Prop37
 90
       50
102
RTVSPost2010PropOp37
 70
     1
102
RTVSPost2010Prop38
140
0.0
102
RTVSPost2010PropOp38
 70
     1
102
RTVSPost2010Prop39
140
1.0
102
RTVSPost2010PropOp39
 70
     1
102
RTVSPost2010Prop40
 90
        0
102
RTVSPost2010PropOp40
 70
     1
102
RTVSPost2010Prop41ColorIndex
 90
       18
102
RTVSPost2010Prop41ColorRGB
 90
        0
102
RTVSPost2010PropOp41
 70
     1
102
RTVSPost2010Prop42
 90
       50
102
RTVSPost2010PropOp42
 70
     1
102
RTVSPost2010Prop43
 90
        3
102
RTVSPost2010PropOp43
 70
     1
102
RTVSPost2010Prop44ColorIndex
 90
        5
102
RTVSPost2010Prop44ColorRGB
 90
      255
102
RTVSPost2010PropOp44
 70
     1
102
RTVSPost2010Prop45
280
     0
102
RTVSPost2010PropOp45
 70
     1
102
RTVSPost2010Prop46
 90
       50
102
RTVSPost2010PropOp46
 70
     1
102
RTVSPost2010Prop47
 90
       50
102
RTVSPost2010PropOp47
 70
     1
102
RTVSPost2010Prop48
 90
       50
102
RTVSPost2010PropOp48
 70
     1
102
RTVSPost2010Prop49
280
     0
102
RTVSPost2010PropOp49
 70
     1
102
RTVSPost2010Prop50
 90
       50
102
RTVSPost2010PropOp50
 70
     1
102
RTVSPost2010Prop51ColorIndex
 90
      256
102
RTVSPost2010Prop51ColorRGB
 90
-16777216
102
RTVSPost2010PropOp51
 70
     0
102
RTVSPost2010Prop52
140
1.0
102
RTVSPost2010PropOp52
 70
     0
102
RTVSPost2010Prop53
 90
        2
102
RTVSPost2010PropOp53
 70
     1
102
RTVSPost2010Prop54
  1
strokes_ogs.tif
102
RTVSPost2010PropOp54
 70
     1
102
RTVSPost2010Prop55
280
     0
102
RTVSPost2010PropOp55
 70
     1
102
RTVSPost2010Prop56
140
1.0
102
RTVSPost2010PropOp56
 70
     1
102
RTVSPost2010Prop57
140
1.0
102
RTVSPost2010PropOp57
 70
     1
102
RTVSPropertyOp0
 70
     1
102
RTVSPropertyOp1
 70
     1
102
RTVSPropertyOp2
 70
     1
102
RTVSPropertyOp3
 70
     1
102
RTVSPropertyOp4
 70
     1
102
RTVSPropertyOp5
 70
     1
102
RTVSPropertyOp6
 70
     1
102
RTVSPropertyOp7
 70
     1
102
RTVSPropertyOp8
 70
     1
102
RTVSPropertyOp9
 70
     1
102
RTVSPropertyOp10
 70
     1
102
RTVSPropertyOp11
 70
     1
102
RTVSPropertyOp12
 70
     1
102
RTVSPropertyOp13
 70
     1
102
RTVSPropertyOp14
 70
     1
102
RTVSPropertyOp15
 70
     1
102
RTVSPropertyOp16
 70
     1
102
RTVSPropertyOp17
 70
     1
102
RTVSPropertyOp18
 70
     1
102
RTVSPropertyOp19
 70
     1
102
RTVSPropertyOp20
 70
     1
102
RTVSPropertyOp21
 70
     1
102
RTVSPropertyOp22
 70
     1
102
RTVSPropertyOp23
 70
     1
102
RTVSPropertyOp24
 70
     1
102
RTVSPropertyOp25
 70
     1
102
RTVSPropertyOp26
 70
     1
102
RTVSPropertyOp27
 70
     1
102
RTVSPropertyOp28
 70
     1
102
RTVSPropertyOp29
 70
     1
102
RTVSPropertyOp30
 70
     1
102
RTVSPropertyOp31
 70
     1
102
RTVSPropertyOp32
 70
     1
102
RTVSPropertyOp33
 70
     1
102
RTVSPropertyOp34
 70
     1
102
RTVSPropertyOp35
 70
     1
102
RTVSPropertyOp36
 70
     1
102
RTVSPropertyOp37
 70
     1
102
RTVSPropertyOp38
 70
     1
102
RTVSPropertyOp39
 70
     1
102
RTVSPropertyOp40
 70
     1
102
RTVSPropertyOp41
 70
     1
102
RTVSPropertyOp42
 70
     1
102
RTVSPropertyOp43
 70
     1
102
RTVSPropertyOp44
 70
     1
102
RTVSPropertyOp45
 70
     1
102
RTVSPropertyOp46
 70
     1
102
RTVSPropertyOp47
 70
     1
102
RTVSPropertyOp48
 70
     1
102
RTVSPropertyOp49
 70
     1
102
RTVSPropertyOp50
 70
     1
102
RTVSPropertyOp51
 70
     0
102
RTVSPropertyOp52
 70
     0
102
RTVSPropertyOp53
 70
     1
102
RTVSPropertyOp54
 70
     1
102
RTVSPropertyOp55
 70
     1
102
RTVSPropertyOp56
 70
     1
102
RTVSPropertyOp57
 70
     1
102
RTVSPropertyOp58
 70
     1
102
RTVSPropertyOp59
 70
     1
102
RTVSPropertyOp60
 70
     1
102
RTVSPropertyOp61
 70
     1
102
RTVSPropertyOp62
 70
     1
  0
XRECORD
  5
1C8CDE6ACA9C
102
{ACAD_REACTORS
330
1C8CDE6ACA9B
102
}
330
1C8CDE6ACA9B
100
AcDbXrecord
280
     1
102
RTVSPost2010Prop28
280
     0
102
RTVSPost2010PropOp28
 70
     1
102
RTVSPost2010Prop29
280
     1
102
RTVSPost2010PropOp29
 70
     1
102
RTVSPost2010Prop30
280
     1
102
RTVSPost2010PropOp30
 70
     1
102
RTVSPost2010Prop31
280
     0
102
RTVSPost2010PropOp31
 70
     1
102
RTVSPost2010Prop32
280
     0
102
RTVSPost2010PropOp32
 70
     1
102
RTVSPost2010Prop33
280
     0
102
RTVSPost2010PropOp33
 70
     1
102
RTVSPost2010Prop34
280
     0
102
RTVSPost2010PropOp34
 70
     1
102
RTVSPost2010Prop35
280
     0
102
RTVSPost2010PropOp35
 70
     1
102
RTVSPost2010Prop36
280
     0
102
RTVSPost2010PropOp36
 70
     1
102
RTVSPost2010Prop37
 90
       50
102
RTVSPost2010PropOp37
 70
     1
102
RTVSPost2010Prop38
140
0.0
102
RTVSPost2010PropOp38
 70
     1
102
RTVSPost2010Prop39
140
1.0
102
RTVSPost2010PropOp39
 70
     1
102
RTVSPost2010Prop40
 90
        0
102
RTVSPost2010PropOp40
 70
     1
102
RTVSPost2010Prop41ColorIndex
 90
       18
102
RTVSPost2010Prop41ColorRGB
 90
        0
102
RTVSPost2010PropOp41
 70
     1
102
RTVSPost2010Prop42
 90
       50
102
RTVSPost2010PropOp42
 70
     1
102
RTVSPost2010Prop43
 90
        3
102
RTVSPost2010PropOp43
 70
     1
102
RTVSPost2010Prop44ColorIndex
 90
        5
102
RTVSPost2010Prop44ColorRGB
 90
      255
102
RTVSPost2010PropOp44
 70
     1
102
RTVSPost2010Prop45
280
     0
102
RTVSPost2010PropOp45
 70
     1
102
RTVSPost2010Prop46
 90
       50
102
RTVSPost2010PropOp46
 70
     1
102
RTVSPost2010Prop47
 90
       50
102
RTVSPost2010PropOp47
 70
     1
102
RTVSPost2010Prop48
 90
       50
102
RTVSPost2010PropOp48
 70
     1
102
RTVSPost2010Prop49
280
     0
102
RTVSPost2010PropOp49
 70
     1
102
RTVSPost2010Prop50
 90
       50
102
RTVSPost2010PropOp50
 70
     1
102
RTVSPost2010Prop51ColorIndex
 90
      256
102
RTVSPost2010Prop51ColorRGB
 90
-16777216
102
RTVSPost2010PropOp51
 70
     0
102
RTVSPost2010Prop52
140
1.0
102
RTVSPost2010PropOp52
 70
     0
102
RTVSPost2010Prop53
 90
        2
102
RTVSPost2010PropOp53
 70
     1
102
RTVSPost2010Prop54
  1
strokes_ogs.tif
102
RTVSPost2010PropOp54
 70
     1
102
RTVSPost2010Prop55
280
     0
102
RTVSPost2010PropOp55
 70
     1
102
RTVSPost2010Prop56
140
1.0
102
RTVSPost2010PropOp56
 70
     1
102
RTVSPost2010Prop57
140
1.0
102
RTVSPost2010PropOp57
 70
     1
102
RTVSPropertyOp0
 70
     1
102
RTVSPropertyOp1
 70
     1
102
RTVSPropertyOp2
 70
     1
102
RTVSPropertyOp3
 70
     1
102
RTVSPropertyOp4
 70
     1
102
RTVSPropertyOp5
 70
     1
102
RTVSPropertyOp6
 70
     1
102
RTVSPropertyOp7
 70
     1
102
RTVSPropertyOp8
 70
     1
102
RTVSPropertyOp9
 70
     1
102
RTVSPropertyOp10
 70
     1
102
RTVSPropertyOp11
 70
     1
102
RTVSPropertyOp12
 70
     1
102
RTVSPropertyOp13
 70
     1
102
RTVSPropertyOp14
 70
     1
102
RTVSPropertyOp15
 70
     1
102
RTVSPropertyOp16
 70
     1
102
RTVSPropertyOp17
 70
     1
102
RTVSPropertyOp18
 70
     1
102
RTVSPropertyOp19
 70
     1
102
RTVSPropertyOp20
 70
     1
102
RTVSPropertyOp21
 70
     1
102
RTVSPropertyOp22
 70
     1
102
RTVSPropertyOp23
 70
     1
102
RTVSPropertyOp24
 70
     1
102
RTVSPropertyOp25
 70
     1
102
RTVSPropertyOp26
 70
     1
102
RTVSPropertyOp27
 70
     1
102
RTVSPropertyOp28
 70
     1
102
RTVSPropertyOp29
 70
     1
102
RTVSPropertyOp30
 70
     1
102
RTVSPropertyOp31
 70
     1
102
RTVSPropertyOp32
 70
     1
102
RTVSPropertyOp33
 70
     1
102
RTVSPropertyOp34
 70
     1
102
RTVSPropertyOp35
 70
     1
102
RTVSPropertyOp36
 70
     1
102
RTVSPropertyOp37
 70
     1
102
RTVSPropertyOp38
 70
     1
102
RTVSPropertyOp39
 70
     1
102
RTVSPropertyOp40
 70
     1
102
RTVSPropertyOp41
 70
     1
102
RTVSPropertyOp42
 70
     1
102
RTVSPropertyOp43
 70
     1
102
RTVSPropertyOp44
 70
     1
102
RTVSPropertyOp45
 70
     1
102
RTVSPropertyOp46
 70
     1
102
RTVSPropertyOp47
 70
     1
102
RTVSPropertyOp48
 70
     1
102
RTVSPropertyOp49
 70
     1
102
RTVSPropertyOp50
 70
     1
102
RTVSPropertyOp51
 70
     0
102
RTVSPropertyOp52
 70
     0
102
RTVSPropertyOp53
 70
     1
102
RTVSPropertyOp54
 70
     1
102
RTVSPropertyOp55
 70
     1
102
RTVSPropertyOp56
 70
     1
102
RTVSPropertyOp57
 70
     1
102
RTVSPropertyOp58
 70
     1
102
RTVSPropertyOp59
 70
     1
102
RTVSPropertyOp60
 70
     1
102
RTVSPropertyOp61
 70
     1
102
RTVSPropertyOp62
 70
     1
  0
XRECORD
  5
1C8CDE6ACA9A
102
{ACAD_REACTORS
330
1C8CDE6ACA99
102
}
330
1C8CDE6ACA99
100
AcDbXrecord
280
     1
102
RTVSPost2010Prop28
280
     0
102
RTVSPost2010PropOp28
 70
     1
102
RTVSPost2010Prop29
280
     1
102
RTVSPost2010PropOp29
 70
     1
102
RTVSPost2010Prop30
280
     1
102
RTVSPost2010PropOp30
 70
     1
102
RTVSPost2010Prop31
280
     0
102
RTVSPost2010PropOp31
 70
     1
102
RTVSPost2010Prop32
280
     0
102
RTVSPost2010PropOp32
 70
     1
102
RTVSPost2010Prop33
280
     0
102
RTVSPost2010PropOp33
 70
     1
102
RTVSPost2010Prop34
280
     0
102
RTVSPost2010PropOp34
 70
     1
102
RTVSPost2010Prop35
280
     0
102
RTVSPost2010PropOp35
 70
     1
102
RTVSPost2010Prop36
280
     0
102
RTVSPost2010PropOp36
 70
     1
102
RTVSPost2010Prop37
 90
       50
102
RTVSPost2010PropOp37
 70
     1
102
RTVSPost2010Prop38
140
0.0
102
RTVSPost2010PropOp38
 70
     1
102
RTVSPost2010Prop39
140
1.0
102
RTVSPost2010PropOp39
 70
     1
102
RTVSPost2010Prop40
 90
        0
102
RTVSPost2010PropOp40
 70
     1
102
RTVSPost2010Prop41ColorIndex
 90
       18
102
RTVSPost2010Prop41ColorRGB
 90
        0
102
RTVSPost2010PropOp41
 70
     1
102
RTVSPost2010Prop42
 90
       50
102
RTVSPost2010PropOp42
 70
     1
102
RTVSPost2010Prop43
 90
        3
102
RTVSPost2010PropOp43
 70
     1
102
RTVSPost2010Prop44ColorIndex
 90
        5
102
RTVSPost2010Prop44ColorRGB
 90
      255
102
RTVSPost2010PropOp44
 70
     1
102
RTVSPost2010Prop45
280
     0
102
RTVSPost2010PropOp45
 70
     1
102
RTVSPost2010Prop46
 90
       50
102
RTVSPost2010PropOp46
 70
     1
102
RTVSPost2010Prop47
 90
       50
102
RTVSPost2010PropOp47
 70
     1
102
RTVSPost2010Prop48
 90
       50
102
RTVSPost2010PropOp48
 70
     1
102
RTVSPost2010Prop49
280
     0
102
RTVSPost2010PropOp49
 70
     1
102
RTVSPost2010Prop50
 90
       50
102
RTVSPost2010PropOp50
 70
     1
102
RTVSPost2010Prop51ColorIndex
 90
      256
102
RTVSPost2010Prop51ColorRGB
 90
-16777216
102
RTVSPost2010PropOp51
 70
     0
102
RTVSPost2010Prop52
140
1.0
102
RTVSPost2010PropOp52
 70
     0
102
RTVSPost2010Prop53
 90
        2
102
RTVSPost2010PropOp53
 70
     1
102
RTVSPost2010Prop54
  1
strokes_ogs.tif
102
RTVSPost2010PropOp54
 70
     1
102
RTVSPost2010Prop55
280
     0
102
RTVSPost2010PropOp55
 70
     1
102
RTVSPost2010Prop56
140
1.0
102
RTVSPost2010PropOp56
 70
     1
102
RTVSPost2010Prop57
140
1.0
102
RTVSPost2010PropOp57
 70
     1
102
RTVSPropertyOp0
 70
     1
102
RTVSPropertyOp1
 70
     1
102
RTVSPropertyOp2
 70
     1
102
RTVSPropertyOp3
 70
     1
102
RTVSPropertyOp4
 70
     1
102
RTVSPropertyOp5
 70
     1
102
RTVSPropertyOp6
 70
     1
102
RTVSPropertyOp7
 70
     1
102
RTVSPropertyOp8
 70
     1
102
RTVSPropertyOp9
 70
     1
102
RTVSPropertyOp10
 70
     1
102
RTVSPropertyOp11
 70
     1
102
RTVSPropertyOp12
 70
     1
102
RTVSPropertyOp13
 70
     1
102
RTVSPropertyOp14
 70
     1
102
RTVSPropertyOp15
 70
     1
102
RTVSPropertyOp16
 70
     1
102
RTVSPropertyOp17
 70
     1
102
RTVSPropertyOp18
 70
     1
102
RTVSPropertyOp19
 70
     1
102
RTVSPropertyOp20
 70
     1
102
RTVSPropertyOp21
 70
     1
102
RTVSPropertyOp22
 70
     1
102
RTVSPropertyOp23
 70
     1
102
RTVSPropertyOp24
 70
     1
102
RTVSPropertyOp25
 70
     1
102
RTVSPropertyOp26
 70
     1
102
RTVSPropertyOp27
 70
     1
102
RTVSPropertyOp28
 70
     1
102
RTVSPropertyOp29
 70
     1
102
RTVSPropertyOp30
 70
     1
102
RTVSPropertyOp31
 70
     1
102
RTVSPropertyOp32
 70
     1
102
RTVSPropertyOp33
 70
     1
102
RTVSPropertyOp34
 70
     1
102
RTVSPropertyOp35
 70
     1
102
RTVSPropertyOp36
 70
     1
102
RTVSPropertyOp37
 70
     1
102
RTVSPropertyOp38
 70
     1
102
RTVSPropertyOp39
 70
     1
102
RTVSPropertyOp40
 70
     1
102
RTVSPropertyOp41
 70
     1
102
RTVSPropertyOp42
 70
     1
102
RTVSPropertyOp43
 70
     1
102
RTVSPropertyOp44
 70
     1
102
RTVSPropertyOp45
 70
     1
102
RTVSPropertyOp46
 70
     1
102
RTVSPropertyOp47
 70
     1
102
RTVSPropertyOp48
 70
     1
102
RTVSPropertyOp49
 70
     1
102
RTVSPropertyOp50
 70
     1
102
RTVSPropertyOp51
 70
     0
102
RTVSPropertyOp52
 70
     0
102
RTVSPropertyOp53
 70
     1
102
RTVSPropertyOp54
 70
     1
102
RTVSPropertyOp55
 70
     1
102
RTVSPropertyOp56
 70
     1
102
RTVSPropertyOp57
 70
     1
102
RTVSPropertyOp58
 70
     1
102
RTVSPropertyOp59
 70
     1
102
RTVSPropertyOp60
 70
     1
102
RTVSPropertyOp61
 70
     1
102
RTVSPropertyOp62
 70
     1
  0
XRECORD
  5
1C8CDE6ACA94
102
{ACAD_REACTORS
330
1C8CDE6ACA93
102
}
330
1C8CDE6ACA93
100
AcDbXrecord
280
     1
102
RTVSPost2010Prop28
280
     0
102
RTVSPost2010PropOp28
 70
     1
102
RTVSPost2010Prop29
280
     1
102
RTVSPost2010PropOp29
 70
     1
102
RTVSPost2010Prop30
280
     1
102
RTVSPost2010PropOp30
 70
     1
102
RTVSPost2010Prop31
280
     0
102
RTVSPost2010PropOp31
 70
     1
102
RTVSPost2010Prop32
280
     0
102
RTVSPost2010PropOp32
 70
     1
102
RTVSPost2010Prop33
280
     0
102
RTVSPost2010PropOp33
 70
     1
102
RTVSPost2010Prop34
280
     0
102
RTVSPost2010PropOp34
 70
     1
102
RTVSPost2010Prop35
280
     0
102
RTVSPost2010PropOp35
 70
     1
102
RTVSPost2010Prop36
280
     0
102
RTVSPost2010PropOp36
 70
     1
102
RTVSPost2010Prop37
 90
       50
102
RTVSPost2010PropOp37
 70
     1
102
RTVSPost2010Prop38
140
0.0
102
RTVSPost2010PropOp38
 70
     1
102
RTVSPost2010Prop39
140
1.0
102
RTVSPost2010PropOp39
 70
     1
102
RTVSPost2010Prop40
 90
        0
102
RTVSPost2010PropOp40
 70
     1
102
RTVSPost2010Prop41ColorIndex
 90
       18
102
RTVSPost2010Prop41ColorRGB
 90
        0
102
RTVSPost2010PropOp41
 70
     1
102
RTVSPost2010Prop42
 90
       50
102
RTVSPost2010PropOp42
 70
     1
102
RTVSPost2010Prop43
 90
        3
102
RTVSPost2010PropOp43
 70
     1
102
RTVSPost2010Prop44ColorIndex
 90
        5
102
RTVSPost2010Prop44ColorRGB
 90
      255
102
RTVSPost2010PropOp44
 70
     1
102
RTVSPost2010Prop45
280
     0
102
RTVSPost2010PropOp45
 70
     1
102
RTVSPost2010Prop46
 90
       50
102
RTVSPost2010PropOp46
 70
     1
102
RTVSPost2010Prop47
 90
       50
102
RTVSPost2010PropOp47
 70
     1
102
RTVSPost2010Prop48
 90
       50
102
RTVSPost2010PropOp48
 70
     1
102
RTVSPost2010Prop49
280
     0
102
RTVSPost2010PropOp49
 70
     1
102
RTVSPost2010Prop50
 90
       50
102
RTVSPost2010PropOp50
 70
     1
102
RTVSPost2010Prop51ColorIndex
 90
      256
102
RTVSPost2010Prop51ColorRGB
 90
-16777216
102
RTVSPost2010PropOp51
 70
     0
102
RTVSPost2010Prop52
140
1.0
102
RTVSPost2010PropOp52
 70
     0
102
RTVSPost2010Prop53
 90
        2
102
RTVSPost2010PropOp53
 70
     1
102
RTVSPost2010Prop54
  1
strokes_ogs.tif
102
RTVSPost2010PropOp54
 70
     1
102
RTVSPost2010Prop55
280
     0
102
RTVSPost2010PropOp55
 70
     1
102
RTVSPost2010Prop56
140
1.0
102
RTVSPost2010PropOp56
 70
     1
102
RTVSPost2010Prop57
140
1.0
102
RTVSPost2010PropOp57
 70
     1
102
RTVSPropertyOp0
 70
     1
102
RTVSPropertyOp1
 70
     1
102
RTVSPropertyOp2
 70
     1
102
RTVSPropertyOp3
 70
     1
102
RTVSPropertyOp4
 70
     1
102
RTVSPropertyOp5
 70
     1
102
RTVSPropertyOp6
 70
     1
102
RTVSPropertyOp7
 70
     1
102
RTVSPropertyOp8
 70
     1
102
RTVSPropertyOp9
 70
     1
102
RTVSPropertyOp10
 70
     1
102
RTVSPropertyOp11
 70
     1
102
RTVSPropertyOp12
 70
     1
102
RTVSPropertyOp13
 70
     1
102
RTVSPropertyOp14
 70
     1
102
RTVSPropertyOp15
 70
     1
102
RTVSPropertyOp16
 70
     1
102
RTVSPropertyOp17
 70
     1
102
RTVSPropertyOp18
 70
     1
102
RTVSPropertyOp19
 70
     1
102
RTVSPropertyOp20
 70
     1
102
RTVSPropertyOp21
 70
     1
102
RTVSPropertyOp22
 70
     1
102
RTVSPropertyOp23
 70
     1
102
RTVSPropertyOp24
 70
     1
102
RTVSPropertyOp25
 70
     1
102
RTVSPropertyOp26
 70
     1
102
RTVSPropertyOp27
 70
     1
102
RTVSPropertyOp28
 70
     1
102
RTVSPropertyOp29
 70
     1
102
RTVSPropertyOp30
 70
     1
102
RTVSPropertyOp31
 70
     1
102
RTVSPropertyOp32
 70
     1
102
RTVSPropertyOp33
 70
     1
102
RTVSPropertyOp34
 70
     1
102
RTVSPropertyOp35
 70
     1
102
RTVSPropertyOp36
 70
     1
102
RTVSPropertyOp37
 70
     1
102
RTVSPropertyOp38
 70
     1
102
RTVSPropertyOp39
 70
     1
102
RTVSPropertyOp40
 70
     1
102
RTVSPropertyOp41
 70
     1
102
RTVSPropertyOp42
 70
     1
102
RTVSPropertyOp43
 70
     1
102
RTVSPropertyOp44
 70
     1
102
RTVSPropertyOp45
 70
     1
102
RTVSPropertyOp46
 70
     1
102
RTVSPropertyOp47
 70
     1
102
RTVSPropertyOp48
 70
     1
102
RTVSPropertyOp49
 70
     1
102
RTVSPropertyOp50
 70
     1
102
RTVSPropertyOp51
 70
     0
102
RTVSPropertyOp52
 70
     0
102
RTVSPropertyOp53
 70
     1
102
RTVSPropertyOp54
 70
     1
102
RTVSPropertyOp55
 70
     1
102
RTVSPropertyOp56
 70
     1
102
RTVSPropertyOp57
 70
     1
102
RTVSPropertyOp58
 70
     1
102
RTVSPropertyOp59
 70
     1
102
RTVSPropertyOp60
 70
     1
102
RTVSPropertyOp61
 70
     1
102
RTVSPropertyOp62
 70
     1
  0
XRECORD
  5
1C8CDE6ACA96
102
{ACAD_REACTORS
330
1C8CDE6ACA95
102
}
330
1C8CDE6ACA95
100
AcDbXrecord
280
     1
102
RTVSPost2010Prop28
280
     0
102
RTVSPost2010PropOp28
 70
     1
102
RTVSPost2010Prop29
280
     1
102
RTVSPost2010PropOp29
 70
     1
102
RTVSPost2010Prop30
280
     1
102
RTVSPost2010PropOp30
 70
     1
102
RTVSPost2010Prop31
280
     0
102
RTVSPost2010PropOp31
 70
     1
102
RTVSPost2010Prop32
280
     0
102
RTVSPost2010PropOp32
 70
     1
102
RTVSPost2010Prop33
280
     0
102
RTVSPost2010PropOp33
 70
     1
102
RTVSPost2010Prop34
280
     0
102
RTVSPost2010PropOp34
 70
     1
102
RTVSPost2010Prop35
280
     0
102
RTVSPost2010PropOp35
 70
     1
102
RTVSPost2010Prop36
280
     0
102
RTVSPost2010PropOp36
 70
     1
102
RTVSPost2010Prop37
 90
       50
102
RTVSPost2010PropOp37
 70
     1
102
RTVSPost2010Prop38
140
0.0
102
RTVSPost2010PropOp38
 70
     1
102
RTVSPost2010Prop39
140
1.0
102
RTVSPost2010PropOp39
 70
     1
102
RTVSPost2010Prop40
 90
        0
102
RTVSPost2010PropOp40
 70
     1
102
RTVSPost2010Prop41ColorIndex
 90
       18
102
RTVSPost2010Prop41ColorRGB
 90
        0
102
RTVSPost2010PropOp41
 70
     1
102
RTVSPost2010Prop42
 90
       50
102
RTVSPost2010PropOp42
 70
     1
102
RTVSPost2010Prop43
 90
        3
102
RTVSPost2010PropOp43
 70
     1
102
RTVSPost2010Prop44ColorIndex
 90
        5
102
RTVSPost2010Prop44ColorRGB
 90
      255
102
RTVSPost2010PropOp44
 70
     1
102
RTVSPost2010Prop45
280
     0
102
RTVSPost2010PropOp45
 70
     1
102
RTVSPost2010Prop46
 90
       50
102
RTVSPost2010PropOp46
 70
     1
102
RTVSPost2010Prop47
 90
       50
102
RTVSPost2010PropOp47
 70
     1
102
RTVSPost2010Prop48
 90
       50
102
RTVSPost2010PropOp48
 70
     1
102
RTVSPost2010Prop49
280
     0
102
RTVSPost2010PropOp49
 70
     1
102
RTVSPost2010Prop50
 90
       50
102
RTVSPost2010PropOp50
 70
     1
102
RTVSPost2010Prop51ColorIndex
 90
      256
102
RTVSPost2010Prop51ColorRGB
 90
-16777216
102
RTVSPost2010PropOp51
 70
     0
102
RTVSPost2010Prop52
140
1.0
102
RTVSPost2010PropOp52
 70
     0
102
RTVSPost2010Prop53
 90
        2
102
RTVSPost2010PropOp53
 70
     1
102
RTVSPost2010Prop54
  1
strokes_ogs.tif
102
RTVSPost2010PropOp54
 70
     1
102
RTVSPost2010Prop55
280
     0
102
RTVSPost2010PropOp55
 70
     1
102
RTVSPost2010Prop56
140
1.0
102
RTVSPost2010PropOp56
 70
     1
102
RTVSPost2010Prop57
140
1.0
102
RTVSPost2010PropOp57
 70
     1
102
RTVSPropertyOp0
 70
     1
102
RTVSPropertyOp1
 70
     1
102
RTVSPropertyOp2
 70
     1
102
RTVSPropertyOp3
 70
     1
102
RTVSPropertyOp4
 70
     1
102
RTVSPropertyOp5
 70
     1
102
RTVSPropertyOp6
 70
     1
102
RTVSPropertyOp7
 70
     1
102
RTVSPropertyOp8
 70
     1
102
RTVSPropertyOp9
 70
     1
102
RTVSPropertyOp10
 70
     1
102
RTVSPropertyOp11
 70
     1
102
RTVSPropertyOp12
 70
     1
102
RTVSPropertyOp13
 70
     1
102
RTVSPropertyOp14
 70
     1
102
RTVSPropertyOp15
 70
     1
102
RTVSPropertyOp16
 70
     1
102
RTVSPropertyOp17
 70
     1
102
RTVSPropertyOp18
 70
     1
102
RTVSPropertyOp19
 70
     1
102
RTVSPropertyOp20
 70
     1
102
RTVSPropertyOp21
 70
     1
102
RTVSPropertyOp22
 70
     1
102
RTVSPropertyOp23
 70
     1
102
RTVSPropertyOp24
 70
     1
102
RTVSPropertyOp25
 70
     1
102
RTVSPropertyOp26
 70
     1
102
RTVSPropertyOp27
 70
     1
102
RTVSPropertyOp28
 70
     1
102
RTVSPropertyOp29
 70
     1
102
RTVSPropertyOp30
 70
     1
102
RTVSPropertyOp31
 70
     1
102
RTVSPropertyOp32
 70
     1
102
RTVSPropertyOp33
 70
     1
102
RTVSPropertyOp34
 70
     1
102
RTVSPropertyOp35
 70
     1
102
RTVSPropertyOp36
 70
     1
102
RTVSPropertyOp37
 70
     1
102
RTVSPropertyOp38
 70
     1
102
RTVSPropertyOp39
 70
     1
102
RTVSPropertyOp40
 70
     1
102
RTVSPropertyOp41
 70
     1
102
RTVSPropertyOp42
 70
     1
102
RTVSPropertyOp43
 70
     1
102
RTVSPropertyOp44
 70
     1
102
RTVSPropertyOp45
 70
     1
102
RTVSPropertyOp46
 70
     1
102
RTVSPropertyOp47
 70
     1
102
RTVSPropertyOp48
 70
     1
102
RTVSPropertyOp49
 70
     1
102
RTVSPropertyOp50
 70
     1
102
RTVSPropertyOp51
 70
     0
102
RTVSPropertyOp52
 70
     0
102
RTVSPropertyOp53
 70
     1
102
RTVSPropertyOp54
 70
     1
102
RTVSPropertyOp55
 70
     1
102
RTVSPropertyOp56
 70
     1
102
RTVSPropertyOp57
 70
     1
102
RTVSPropertyOp58
 70
     1
102
RTVSPropertyOp59
 70
     1
102
RTVSPropertyOp60
 70
     1
102
RTVSPropertyOp61
 70
     1
102
RTVSPropertyOp62
 70
     1
  0
XRECORD
  5
1C8CDE6ACA86
102
{ACAD_REACTORS
330
1C8CDE6ACA85
102
}
330
1C8CDE6ACA85
100
AcDbXrecord
280
     1
102
RTVSPost2010Prop28
280
     0
102
RTVSPost2010PropOp28
 70
     1
102
RTVSPost2010Prop29
280
     1
102
RTVSPost2010PropOp29
 70
     1
102
RTVSPost2010Prop30
280
     1
102
RTVSPost2010PropOp30
 70
     1
102
RTVSPost2010Prop31
280
     0
102
RTVSPost2010PropOp31
 70
     1
102
RTVSPost2010Prop32
280
     0
102
RTVSPost2010PropOp32
 70
     1
102
RTVSPost2010Prop33
280
     0
102
RTVSPost2010PropOp33
 70
     1
102
RTVSPost2010Prop34
280
     0
102
RTVSPost2010PropOp34
 70
     1
102
RTVSPost2010Prop35
280
     0
102
RTVSPost2010PropOp35
 70
     1
102
RTVSPost2010Prop36
280
     0
102
RTVSPost2010PropOp36
 70
     1
102
RTVSPost2010Prop37
 90
       50
102
RTVSPost2010PropOp37
 70
     1
102
RTVSPost2010Prop38
140
0.0
102
RTVSPost2010PropOp38
 70
     1
102
RTVSPost2010Prop39
140
1.0
102
RTVSPost2010PropOp39
 70
     1
102
RTVSPost2010Prop40
 90
        0
102
RTVSPost2010PropOp40
 70
     1
102
RTVSPost2010Prop41ColorIndex
 90
       18
102
RTVSPost2010Prop41ColorRGB
 90
        0
102
RTVSPost2010PropOp41
 70
     1
102
RTVSPost2010Prop42
 90
       50
102
RTVSPost2010PropOp42
 70
     1
102
RTVSPost2010Prop43
 90
        3
102
RTVSPost2010PropOp43
 70
     1
102
RTVSPost2010Prop44ColorIndex
 90
        5
102
RTVSPost2010Prop44ColorRGB
 90
      255
102
RTVSPost2010PropOp44
 70
     1
102
RTVSPost2010Prop45
280
     0
102
RTVSPost2010PropOp45
 70
     1
102
RTVSPost2010Prop46
 90
       50
102
RTVSPost2010PropOp46
 70
     1
102
RTVSPost2010Prop47
 90
       50
102
RTVSPost2010PropOp47
 70
     1
102
RTVSPost2010Prop48
 90
       50
102
RTVSPost2010PropOp48
 70
     1
102
RTVSPost2010Prop49
280
     0
102
RTVSPost2010PropOp49
 70
     1
102
RTVSPost2010Prop50
 90
       50
102
RTVSPost2010PropOp50
 70
     1
102
RTVSPost2010Prop51ColorIndex
 90
      256
102
RTVSPost2010Prop51ColorRGB
 90
-16777216
102
RTVSPost2010PropOp51
 70
     0
102
RTVSPost2010Prop52
140
1.0
102
RTVSPost2010PropOp52
 70
     0
102
RTVSPost2010Prop53
 90
        2
102
RTVSPost2010PropOp53
 70
     1
102
RTVSPost2010Prop54
  1
strokes_ogs.tif
102
RTVSPost2010PropOp54
 70
     1
102
RTVSPost2010Prop55
280
     0
102
RTVSPost2010PropOp55
 70
     1
102
RTVSPost2010Prop56
140
1.0
102
RTVSPost2010PropOp56
 70
     1
102
RTVSPost2010Prop57
140
1.0
102
RTVSPost2010PropOp57
 70
     1
102
RTVSPropertyOp0
 70
     1
102
RTVSPropertyOp1
 70
     1
102
RTVSPropertyOp2
 70
     1
102
RTVSPropertyOp3
 70
     1
102
RTVSPropertyOp4
 70
     1
102
RTVSPropertyOp5
 70
     1
102
RTVSPropertyOp6
 70
     1
102
RTVSPropertyOp7
 70
     1
102
RTVSPropertyOp8
 70
     1
102
RTVSPropertyOp9
 70
     1
102
RTVSPropertyOp10
 70
     1
102
RTVSPropertyOp11
 70
     1
102
RTVSPropertyOp12
 70
     1
102
RTVSPropertyOp13
 70
     1
102
RTVSPropertyOp14
 70
     1
102
RTVSPropertyOp15
 70
     1
102
RTVSPropertyOp16
 70
     1
102
RTVSPropertyOp17
 70
     1
102
RTVSPropertyOp18
 70
     1
102
RTVSPropertyOp19
 70
     1
102
RTVSPropertyOp20
 70
     1
102
RTVSPropertyOp21
 70
     1
102
RTVSPropertyOp22
 70
     1
102
RTVSPropertyOp23
 70
     1
102
RTVSPropertyOp24
 70
     1
102
RTVSPropertyOp25
 70
     1
102
RTVSPropertyOp26
 70
     1
102
RTVSPropertyOp27
 70
     1
102
RTVSPropertyOp28
 70
     1
102
RTVSPropertyOp29
 70
     1
102
RTVSPropertyOp30
 70
     1
102
RTVSPropertyOp31
 70
     1
102
RTVSPropertyOp32
 70
     1
102
RTVSPropertyOp33
 70
     1
102
RTVSPropertyOp34
 70
     1
102
RTVSPropertyOp35
 70
     1
102
RTVSPropertyOp36
 70
     1
102
RTVSPropertyOp37
 70
     1
102
RTVSPropertyOp38
 70
     1
102
RTVSPropertyOp39
 70
     1
102
RTVSPropertyOp40
 70
     1
102
RTVSPropertyOp41
 70
     1
102
RTVSPropertyOp42
 70
     1
102
RTVSPropertyOp43
 70
     1
102
RTVSPropertyOp44
 70
     1
102
RTVSPropertyOp45
 70
     1
102
RTVSPropertyOp46
 70
     1
102
RTVSPropertyOp47
 70
     1
102
RTVSPropertyOp48
 70
     1
102
RTVSPropertyOp49
 70
     1
102
RTVSPropertyOp50
 70
     1
102
RTVSPropertyOp51
 70
     0
102
RTVSPropertyOp52
 70
     0
102
RTVSPropertyOp53
 70
     1
102
RTVSPropertyOp54
 70
     1
102
RTVSPropertyOp55
 70
     1
102
RTVSPropertyOp56
 70
     1
102
RTVSPropertyOp57
 70
     1
102
RTVSPropertyOp58
 70
     1
102
RTVSPropertyOp59
 70
     1
102
RTVSPropertyOp60
 70
     1
102
RTVSPropertyOp61
 70
     1
102
RTVSPropertyOp62
 70
     1
  0
XRECORD
  5
1C8CDE6ACA78
102
{ACAD_REACTORS
330
1C8CDE6ACA77
102
}
330
1C8CDE6ACA77
100
AcDbXrecord
280
     1
102
RTVSPost2010Prop28
280
     0
102
RTVSPost2010PropOp28
 70
     1
102
RTVSPost2010Prop29
280
     1
102
RTVSPost2010PropOp29
 70
     1
102
RTVSPost2010Prop30
280
     1
102
RTVSPost2010PropOp30
 70
     1
102
RTVSPost2010Prop31
280
     0
102
RTVSPost2010PropOp31
 70
     1
102
RTVSPost2010Prop32
280
     0
102
RTVSPost2010PropOp32
 70
     1
102
RTVSPost2010Prop33
280
     0
102
RTVSPost2010PropOp33
 70
     1
102
RTVSPost2010Prop34
280
     0
102
RTVSPost2010PropOp34
 70
     1
102
RTVSPost2010Prop35
280
     0
102
RTVSPost2010PropOp35
 70
     1
102
RTVSPost2010Prop36
280
     0
102
RTVSPost2010PropOp36
 70
     1
102
RTVSPost2010Prop37
 90
       50
102
RTVSPost2010PropOp37
 70
     1
102
RTVSPost2010Prop38
140
0.0
102
RTVSPost2010PropOp38
 70
     1
102
RTVSPost2010Prop39
140
1.0
102
RTVSPost2010PropOp39
 70
     1
102
RTVSPost2010Prop40
 90
        0
102
RTVSPost2010PropOp40
 70
     1
102
RTVSPost2010Prop41ColorIndex
 90
       18
102
RTVSPost2010Prop41ColorRGB
 90
        0
102
RTVSPost2010PropOp41
 70
     1
102
RTVSPost2010Prop42
 90
       50
102
RTVSPost2010PropOp42
 70
     1
102
RTVSPost2010Prop43
 90
        3
102
RTVSPost2010PropOp43
 70
     1
102
RTVSPost2010Prop44ColorIndex
 90
        5
102
RTVSPost2010Prop44ColorRGB
 90
      255
102
RTVSPost2010PropOp44
 70
     1
102
RTVSPost2010Prop45
280
     0
102
RTVSPost2010PropOp45
 70
     1
102
RTVSPost2010Prop46
 90
       50
102
RTVSPost2010PropOp46
 70
     1
102
RTVSPost2010Prop47
 90
       50
102
RTVSPost2010PropOp47
 70
     1
102
RTVSPost2010Prop48
 90
       50
102
RTVSPost2010PropOp48
 70
     1
102
RTVSPost2010Prop49
280
     0
102
RTVSPost2010PropOp49
 70
     1
102
RTVSPost2010Prop50
 90
       50
102
RTVSPost2010PropOp50
 70
     1
102
RTVSPost2010Prop51ColorIndex
 90
      256
102
RTVSPost2010Prop51ColorRGB
 90
-16777216
102
RTVSPost2010PropOp51
 70
     0
102
RTVSPost2010Prop52
140
1.0
102
RTVSPost2010PropOp52
 70
     0
102
RTVSPost2010Prop53
 90
        2
102
RTVSPost2010PropOp53
 70
     1
102
RTVSPost2010Prop54
  1
strokes_ogs.tif
102
RTVSPost2010PropOp54
 70
     1
102
RTVSPost2010Prop55
280
     0
102
RTVSPost2010PropOp55
 70
     1
102
RTVSPost2010Prop56
140
1.0
102
RTVSPost2010PropOp56
 70
     1
102
RTVSPost2010Prop57
140
1.0
102
RTVSPost2010PropOp57
 70
     1
102
RTVSPropertyOp0
 70
     1
102
RTVSPropertyOp1
 70
     1
102
RTVSPropertyOp2
 70
     1
102
RTVSPropertyOp3
 70
     1
102
RTVSPropertyOp4
 70
     1
102
RTVSPropertyOp5
 70
     1
102
RTVSPropertyOp6
 70
     1
102
RTVSPropertyOp7
 70
     1
102
RTVSPropertyOp8
 70
     1
102
RTVSPropertyOp9
 70
     1
102
RTVSPropertyOp10
 70
     1
102
RTVSPropertyOp11
 70
     1
102
RTVSPropertyOp12
 70
     1
102
RTVSPropertyOp13
 70
     1
102
RTVSPropertyOp14
 70
     1
102
RTVSPropertyOp15
 70
     1
102
RTVSPropertyOp16
 70
     1
102
RTVSPropertyOp17
 70
     1
102
RTVSPropertyOp18
 70
     1
102
RTVSPropertyOp19
 70
     1
102
RTVSPropertyOp20
 70
     1
102
RTVSPropertyOp21
 70
     1
102
RTVSPropertyOp22
 70
     1
102
RTVSPropertyOp23
 70
     1
102
RTVSPropertyOp24
 70
     1
102
RTVSPropertyOp25
 70
     1
102
RTVSPropertyOp26
 70
     1
102
RTVSPropertyOp27
 70
     1
102
RTVSPropertyOp28
 70
     1
102
RTVSPropertyOp29
 70
     1
102
RTVSPropertyOp30
 70
     1
102
RTVSPropertyOp31
 70
     1
102
RTVSPropertyOp32
 70
     1
102
RTVSPropertyOp33
 70
     1
102
RTVSPropertyOp34
 70
     1
102
RTVSPropertyOp35
 70
     1
102
RTVSPropertyOp36
 70
     1
102
RTVSPropertyOp37
 70
     1
102
RTVSPropertyOp38
 70
     1
102
RTVSPropertyOp39
 70
     1
102
RTVSPropertyOp40
 70
     1
102
RTVSPropertyOp41
 70
     1
102
RTVSPropertyOp42
 70
     1
102
RTVSPropertyOp43
 70
     1
102
RTVSPropertyOp44
 70
     1
102
RTVSPropertyOp45
 70
     1
102
RTVSPropertyOp46
 70
     1
102
RTVSPropertyOp47
 70
     1
102
RTVSPropertyOp48
 70
     1
102
RTVSPropertyOp49
 70
     1
102
RTVSPropertyOp50
 70
     1
102
RTVSPropertyOp51
 70
     0
102
RTVSPropertyOp52
 70
     0
102
RTVSPropertyOp53
 70
     1
102
RTVSPropertyOp54
 70
     1
102
RTVSPropertyOp55
 70
     1
102
RTVSPropertyOp56
 70
     1
102
RTVSPropertyOp57
 70
     1
102
RTVSPropertyOp58
 70
     1
102
RTVSPropertyOp59
 70
     1
102
RTVSPropertyOp60
 70
     1
102
RTVSPropertyOp61
 70
     1
102
RTVSPropertyOp62
 70
     1
  0
XRECORD
  5
1C8CDE6ACA98
102
{ACAD_REACTORS
330
1C8CDE6ACA97
102
}
330
1C8CDE6ACA97
100
AcDbXrecord
280
     1
102
RTVSPost2010Prop28
280
     0
102
RTVSPost2010PropOp28
 70
     1
102
RTVSPost2010Prop29
280
     1
102
RTVSPost2010PropOp29
 70
     1
102
RTVSPost2010Prop30
280
     1
102
RTVSPost2010PropOp30
 70
     1
102
RTVSPost2010Prop31
280
     0
102
RTVSPost2010PropOp31
 70
     1
102
RTVSPost2010Prop32
280
     0
102
RTVSPost2010PropOp32
 70
     1
102
RTVSPost2010Prop33
280
     0
102
RTVSPost2010PropOp33
 70
     1
102
RTVSPost2010Prop34
280
     0
102
RTVSPost2010PropOp34
 70
     1
102
RTVSPost2010Prop35
280
     0
102
RTVSPost2010PropOp35
 70
     1
102
RTVSPost2010Prop36
280
     0
102
RTVSPost2010PropOp36
 70
     1
102
RTVSPost2010Prop37
 90
       50
102
RTVSPost2010PropOp37
 70
     1
102
RTVSPost2010Prop38
140
0.0
102
RTVSPost2010PropOp38
 70
     1
102
RTVSPost2010Prop39
140
1.0
102
RTVSPost2010PropOp39
 70
     1
102
RTVSPost2010Prop40
 90
        0
102
RTVSPost2010PropOp40
 70
     1
102
RTVSPost2010Prop41ColorIndex
 90
       18
102
RTVSPost2010Prop41ColorRGB
 90
        0
102
RTVSPost2010PropOp41
 70
     1
102
RTVSPost2010Prop42
 90
       50
102
RTVSPost2010PropOp42
 70
     1
102
RTVSPost2010Prop43
 90
        3
102
RTVSPost2010PropOp43
 70
     1
102
RTVSPost2010Prop44ColorIndex
 90
        5
102
RTVSPost2010Prop44ColorRGB
 90
      255
102
RTVSPost2010PropOp44
 70
     1
102
RTVSPost2010Prop45
280
     0
102
RTVSPost2010PropOp45
 70
     1
102
RTVSPost2010Prop46
 90
       50
102
RTVSPost2010PropOp46
 70
     1
102
RTVSPost2010Prop47
 90
       50
102
RTVSPost2010PropOp47
 70
     1
102
RTVSPost2010Prop48
 90
       50
102
RTVSPost2010PropOp48
 70
     1
102
RTVSPost2010Prop49
280
     0
102
RTVSPost2010PropOp49
 70
     1
102
RTVSPost2010Prop50
 90
       50
102
RTVSPost2010PropOp50
 70
     1
102
RTVSPost2010Prop51ColorIndex
 90
      256
102
RTVSPost2010Prop51ColorRGB
 90
-16777216
102
RTVSPost2010PropOp51
 70
     0
102
RTVSPost2010Prop52
140
1.0
102
RTVSPost2010PropOp52
 70
     0
102
RTVSPost2010Prop53
 90
        2
102
RTVSPost2010PropOp53
 70
     1
102
RTVSPost2010Prop54
  1
strokes_ogs.tif
102
RTVSPost2010PropOp54
 70
     1
102
RTVSPost2010Prop55
280
     0
102
RTVSPost2010PropOp55
 70
     1
102
RTVSPost2010Prop56
140
1.0
102
RTVSPost2010PropOp56
 70
     1
102
RTVSPost2010Prop57
140
1.0
102
RTVSPost2010PropOp57
 70
     1
102
RTVSPropertyOp0
 70
     1
102
RTVSPropertyOp1
 70
     1
102
RTVSPropertyOp2
 70
     1
102
RTVSPropertyOp3
 70
     1
102
RTVSPropertyOp4
 70
     1
102
RTVSPropertyOp5
 70
     1
102
RTVSPropertyOp6
 70
     1
102
RTVSPropertyOp7
 70
     1
102
RTVSPropertyOp8
 70
     1
102
RTVSPropertyOp9
 70
     1
102
RTVSPropertyOp10
 70
     1
102
RTVSPropertyOp11
 70
     1
102
RTVSPropertyOp12
 70
     1
102
RTVSPropertyOp13
 70
     1
102
RTVSPropertyOp14
 70
     1
102
RTVSPropertyOp15
 70
     1
102
RTVSPropertyOp16
 70
     1
102
RTVSPropertyOp17
 70
     1
102
RTVSPropertyOp18
 70
     1
102
RTVSPropertyOp19
 70
     1
102
RTVSPropertyOp20
 70
     1
102
RTVSPropertyOp21
 70
     1
102
RTVSPropertyOp22
 70
     1
102
RTVSPropertyOp23
 70
     1
102
RTVSPropertyOp24
 70
     1
102
RTVSPropertyOp25
 70
     1
102
RTVSPropertyOp26
 70
     1
102
RTVSPropertyOp27
 70
     1
102
RTVSPropertyOp28
 70
     1
102
RTVSPropertyOp29
 70
     1
102
RTVSPropertyOp30
 70
     1
102
RTVSPropertyOp31
 70
     1
102
RTVSPropertyOp32
 70
     1
102
RTVSPropertyOp33
 70
     1
102
RTVSPropertyOp34
 70
     1
102
RTVSPropertyOp35
 70
     1
102
RTVSPropertyOp36
 70
     1
102
RTVSPropertyOp37
 70
     1
102
RTVSPropertyOp38
 70
     1
102
RTVSPropertyOp39
 70
     1
102
RTVSPropertyOp40
 70
     1
102
RTVSPropertyOp41
 70
     1
102
RTVSPropertyOp42
 70
     1
102
RTVSPropertyOp43
 70
     1
102
RTVSPropertyOp44
 70
     1
102
RTVSPropertyOp45
 70
     1
102
RTVSPropertyOp46
 70
     1
102
RTVSPropertyOp47
 70
     1
102
RTVSPropertyOp48
 70
     1
102
RTVSPropertyOp49
 70
     1
102
RTVSPropertyOp50
 70
     1
102
RTVSPropertyOp51
 70
     0
102
RTVSPropertyOp52
 70
     0
102
RTVSPropertyOp53
 70
     1
102
RTVSPropertyOp54
 70
     1
102
RTVSPropertyOp55
 70
     1
102
RTVSPropertyOp56
 70
     1
102
RTVSPropertyOp57
 70
     1
102
RTVSPropertyOp58
 70
     1
102
RTVSPropertyOp59
 70
     1
102
RTVSPropertyOp60
 70
     1
102
RTVSPropertyOp61
 70
     1
102
RTVSPropertyOp62
 70
     1
  0
ENDSEC
  0
EOF
