  0
SECTION
  2
HEADER
  9
$ACADVER
  1
AC1015
  9
$ACADMAINTVER
 70
    18
  9
$DWGCODEPAGE
  3
ANSI_932
  9
$INSBASE
 10
0.0
 20
0.0
 30
0.0
  9
$EXTMIN
 10
0.0
 20
0.0
 30
0.0
  9
$EXTMAX
 10
3700.0
 20
2670.0
 30
0.0
  9
$LIMMIN
 10
0.0
 20
0.0
  9
$LIMMAX
 10
4200.0
 20
2970.0
  9
$ORTHOMODE
 70
     0
  9
$REGENMODE
 70
     1
  9
$FILLMODE
 70
     1
  9
$QTEXTMODE
 70
     0
  9
$MIRRTEXT
 70
     0
  9
$LTSCALE
 40
100.0
  9
$ATTMODE
 70
     1
  9
$TEXTSIZE
 40
30.0
  9
$TRACEWID
 40
0.05
  9
$TEXTSTYLE
  7
EXT08
  9
$CLAYER
  8
0
  9
$CELTYPE
  6
BYLAYER
  9
$CECOLOR
 62
   256
  9
$CELTSCALE
 40
1.0
  9
$DISPSILH
 70
     0
  9
$DIMSCALE
 40
10.0
  9
$DIMASZ
 40
2.0
  9
$DIMEXO
 40
1.0
  9
$DIMDLI
 40
6.0
  9
$DIMRND
 40
0.0
  9
$DIMDLE
 40
0.0
  9
$DIMEXE
 40
1.0
  9
$DIMTP
 40
0.0
  9
$DIMTM
 40
0.0
  9
$DIMTXT
 40
3.0
  9
$DIMCEN
 40
0.1
  9
$DIMTSZ
 40
0.0
  9
$DIMTOL
 70
     0
  9
$DIMLIM
 70
     0
  9
$DIMTIH
 70
     0
  9
$DIMTOH
 70
     0
  9
$DIMSE1
 70
     0
  9
$DIMSE2
 70
     0
  9
$DIMTAD
 70
     1
  9
$DIMZIN
 70
     8
  9
$DIMBLK
  1

  9
$DIMASO
 70
     1
  9
$DIMSHO
 70
     1
  9
$DIMPOST
  1

  9
$DIMAPOST
  1

  9
$DIMALT
 70
     0
  9
$DIMALTD
 70
     2
  9
$DIMALTF
 40
25.4
  9
$DIMLFAC
 40
1.0
  9
$DIMTOFL
 70
     1
  9
$DIMTVP
 40
0.0
  9
$DIMTIX
 70
     0
  9
$DIMSOXD
 70
     0
  9
$DIMSAH
 70
     0
  9
$DIMBLK1
  1

  9
$DIMBLK2
  1

  9
$DIMSTYLE
  2
SJC
  9
$DIMCLRD
 70
     0
  9
$DIMCLRE
 70
     0
  9
$DIMCLRT
 70
     0
  9
$DIMTFAC
 40
1.0
  9
$DIMGAP
 40
1.199999999999999
  9
$DIMJUST
 70
     0
  9
$DIMSD1
 70
     0
  9
$DIMSD2
 70
     0
  9
$DIMTOLJ
 70
     1
  9
$DIMTZIN
 70
     8
  9
$DIMALTZ
 70
     8
  9
$DIMALTTZ
 70
     8
  9
$DIMUPT
 70
     0
  9
$DIMDEC
 70
     2
  9
$DIMTDEC
 70
     1
  9
$DIMALTU
 70
     2
  9
$DIMALTTD
 70
     2
  9
$DIMTXSTY
  7
EXT08
  9
$DIMAUNIT
 70
     1
  9
$DIMADEC
 70
     2
  9
$DIMALTRND
 40
0.0
  9
$DIMAZIN
 70
     0
  9
$DIMDSEP
 70
    46
  9
$DIMATFIT
 70
     3
  9
$DIMFRAC
 70
     0
  9
$DIMLDRBLK
  1

  9
$DIMLUNIT
 70
     2
  9
$DIMLWD
 70
    -2
  9
$DIMLWE
 70
    -2
  9
$DIMTMOVE
 70
     2
  9
$LUNITS
 70
     2
  9
$LUPREC
 70
     2
  9
$SKETCHINC
 40
0.1
  9
$FILLETRAD
 40
0.25
  9
$AUNITS
 70
     1
  9
$AUPREC
 70
     2
  9
$MENU
  1
C:\r13\win\SUPPORT\sjc
  9
$ELEVATION
 40
0.0
  9
$PELEVATION
 40
0.0
  9
$THICKNESS
 40
0.0
  9
$LIMCHECK
 70
     0
  9
$CHAMFERA
 40
0.0
  9
$CHAMFERB
 40
0.0
  9
$CHAMFERC
 40
0.0
  9
$CHAMFERD
 40
0.0
  9
$SKPOLY
 70
     0
  9
$TDCREATE
 40
2450469.547535764
  9
$TDUCREATE
 40
2450469.172535764
  9
$TDUPDATE
 40
2458991.602676343
  9
$TDUUPDATE
 40
2458991.227676343
  9
$TDINDWG
 40
0.9664705093
  9
$TDUSRTIMER
 40
0.9664705093
  9
$USRTIMER
 70
     1
  9
$ANGBASE
 50
0.0
  9
$ANGDIR
 70
     0
  9
$PDMODE
 70
    33
  9
$PDSIZE
 40
5.0
  9
$PLINEWID
 40
0.0
  9
$SPLFRAME
 70
     0
  9
$SPLINETYPE
 70
     6
  9
$SPLINESEGS
 70
     8
  9
$HANDSEED
  5
1C8CDE6AC8E7
  9
$SURFTAB1
 70
     6
  9
$SURFTAB2
 70
     6
  9
$SURFTYPE
 70
     6
  9
$SURFU
 70
     6
  9
$SURFV
 70
     6
  9
$UCSBASE
  2

  9
$UCSNAME
  2

  9
$UCSORG
 10
0.0
 20
0.0
 30
0.0
  9
$UCSXDIR
 10
1.0
 20
0.0
 30
0.0
  9
$UCSYDIR
 10
0.0
 20
1.0
 30
0.0
  9
$UCSORTHOREF
  2

  9
$UCSORTHOVIEW
 70
     0
  9
$UCSORGTOP
 10
0.0
 20
0.0
 30
0.0
  9
$UCSORGBOTTOM
 10
0.0
 20
0.0
 30
0.0
  9
$UCSORGLEFT
 10
0.0
 20
0.0
 30
0.0
  9
$UCSORGRIGHT
 10
0.0
 20
0.0
 30
0.0
  9
$UCSORGFRONT
 10
0.0
 20
0.0
 30
0.0
  9
$UCSORGBACK
 10
0.0
 20
0.0
 30
0.0
  9
$PUCSBASE
  2

  9
$PUCSNAME
  2

  9
$PUCSORG
 10
0.0
 20
0.0
 30
0.0
  9
$PUCSXDIR
 10
1.0
 20
0.0
 30
0.0
  9
$PUCSYDIR
 10
0.0
 20
1.0
 30
0.0
  9
$PUCSORTHOREF
  2

  9
$PUCSORTHOVIEW
 70
     0
  9
$PUCSORGTOP
 10
0.0
 20
0.0
 30
0.0
  9
$PUCSORGBOTTOM
 10
0.0
 20
0.0
 30
0.0
  9
$PUCSORGLEFT
 10
0.0
 20
0.0
 30
0.0
  9
$PUCSORGRIGHT
 10
0.0
 20
0.0
 30
0.0
  9
$PUCSORGFRONT
 10
0.0
 20
0.0
 30
0.0
  9
$PUCSORGBACK
 10
0.0
 20
0.0
 30
0.0
  9
$USERI1
 70
     3
  9
$USERI2
 70
    10
  9
$USERI3
 70
     0
  9
$USERI4
 70
     0
  9
$USERI5
 70
     0
  9
$USERR1
 40
0.1
  9
$USERR2
 40
0.0
  9
$USERR3
 40
0.0
  9
$USERR4
 40
0.0
  9
$USERR5
 40
0.0
  9
$WORLDVIEW
 70
     1
  9
$SHADEDGE
 70
     3
  9
$SHADEDIF
 70
    70
  9
$TILEMODE
 70
     1
  9
$MAXACTVP
 70
    16
  9
$PINSBASE
 10
0.0
 20
0.0
 30
0.0
  9
$PLIMCHECK
 70
     0
  9
$PEXTMIN
 10
1.000000000000000E+20
 20
1.000000000000000E+20
 30
1.000000000000000E+20
  9
$PEXTMAX
 10
-1.000000000000000E+20
 20
-1.000000000000000E+20
 30
-1.000000000000000E+20
  9
$PLIMMIN
 10
0.0
 20
0.0
  9
$PLIMMAX
 10
12.0
 20
9.0
  9
$UNITMODE
 70
     0
  9
$VISRETAIN
 70
     0
  9
$PLINEGEN
 70
     0
  9
$PSLTSCALE
 70
     0
  9
$TREEDEPTH
 70
  3020
  9
$CMLSTYLE
  2
STANDARD
  9
$CMLJUST
 70
     0
  9
$CMLSCALE
 40
1.0
  9
$PROXYGRAPHICS
 70
     1
  9
$MEASUREMENT
 70
     0
  9
$CELWEIGHT
370
    -1
  9
$ENDCAPS
280
     0
  9
$JOINSTYLE
280
     0
  9
$LWDISPLAY
290
     0
  9
$INSUNITS
 70
     0
  9
$HYPERLINKBASE
  1

  9
$STYLESHEET
  1
CALCOMP_TECHJET720.ctb
  9
$XEDIT
290
     1
  9
$CEPSNTYPE
380
     0
  9
$PSTYLEMODE
290
     1
  9
$FINGERPRINTGUID
  2
{4BED03E0-9A29-4724-997D-A703DC967F95}
  9
$VERSIONGUID
  2
{2E6F0FDB-1460-4098-AE57-6C895D7B10F9}
  9
$EXTNAMES
290
     1
  9
$PSVPSCALE
 40
0.0
  9
$OLESTARTUP
290
     0
  0
ENDSEC
  0
SECTION
  2
CLASSES
  0
CLASS
  1
ACDBDICTIONARYWDFLT
  2
AcDbDictionaryWithDefault
  3
ObjectDBX Classes
 90
        0
280
     0
281
     0
  0
CLASS
  1
TABLESTYLE
  2
AcDbTableStyle
  3
ObjectDBX Classes
 90
     4095
280
     0
281
     0
  0
CLASS
  1
SORTENTSTABLE
  2
AcDbSortentsTable
  3
ObjectDBX Classes
 90
        0
280
     0
281
     0
  0
CLASS
  1
DICTIONARYVAR
  2
AcDbDictionaryVar
  3
ObjectDBX Classes
 90
        0
280
     0
281
     0
  0
CLASS
  1
ACDBPLACEHOLDER
  2
AcDbPlaceHolder
  3
ObjectDBX Classes
 90
        0
280
     0
281
     0
  0
CLASS
  1
LAYOUT
  2
AcDbLayout
  3
ObjectDBX Classes
 90
        0
280
     0
281
     0
  0
CLASS
  1
VISUALSTYLE
  2
AcDbVisualStyle
  3
ObjectDBX Classes
 90
     4095
280
     0
281
     0
  0
CLASS
  1
SCALE
  2
AcDbScale
  3
ObjectDBX Classes
 90
     1153
280
     0
281
     0
  0
CLASS
  1
MATERIAL
  2
AcDbMaterial
  3
ObjectDBX Classes
 90
     1153
280
     0
281
     0
  0
CLASS
  1
MLEADERSTYLE
  2
AcDbMLeaderStyle
  3
ACDB_MLEADERSTYLE_CLASS
 90
     4095
280
     0
281
     0
  0
CLASS
  1
SUN
  2
AcDbSun
  3
SCENEOE
 90
     1153
280
     0
281
     0
  0
CLASS
  1
CELLSTYLEMAP
  2
AcDbCellStyleMap
  3
ObjectDBX Classes
 90
     1152
280
     0
281
     0
  0
CLASS
  1
ACDBSECTIONVIEWSTYLE
  2
AcDbSectionViewStyle
  3
ObjectDBX Classes
 90
     1025
280
     0
281
     0
  0
CLASS
  1
ACDBDETAILVIEWSTYLE
  2
AcDbDetailViewStyle
  3
ObjectDBX Classes
 90
     1025
280
     0
281
     0
  0
ENDSEC
  0
SECTION
  2
TABLES
  0
TABLE
  2
VPORT
  5
1C8CDE699D43
102
{ACAD_XDICTIONARY
360
1C8CDE6AC854
102
}
330
0
100
AcDbSymbolTable
 70
     1
  0
VPORT
  5
1C8CDE6AC4AE
330
1C8CDE699D43
100
AcDbSymbolTableRecord
100
AcDbViewportTableRecord
  2
*Active
 70
     0
 10
0.0
 20
0.0
 11
1.0
 21
1.0
 12
2203.121718901978
 22
1345.488157894737
 13
0.0
 23
0.0
 14
5.0
 24
5.0
 15
0.0
 25
0.0
 16
0.0
 26
0.0
 36
1.0
 17
0.0
 27
0.0
 37
0.0
 40
3029.4
 41
2.075975359342915
 42
50.0
 43
0.0
 44
0.0
 50
0.0
 51
0.0
 71
    16
 72
   500
 73
     1
 74
     0
 75
     0
 76
     0
 77
     0
 78
     2
281
     0
 65
     1
110
0.0
120
0.0
130
0.0
111
1.0
121
0.0
131
0.0
112
0.0
122
1.0
132
0.0
 79
     0
146
0.0
1001
ACAD_NAV_VCDISPLAY
1070
     3
  0
ENDTAB
  0
TABLE
  2
LTYPE
  5
1C8CDE699D40
330
0
100
AcDbSymbolTable
 70
     5
  0
LTYPE
  5
1C8CDE699D4D
330
1C8CDE699D40
100
AcDbSymbolTableRecord
100
AcDbLinetypeTableRecord
  2
BYBLOCK
 70
     0
  3

 72
    65
 73
     0
 40
0.0
  0
LTYPE
  5
1C8CDE699D4E
330
1C8CDE699D40
100
AcDbSymbolTableRecord
100
AcDbLinetypeTableRecord
  2
BYLAYER
 70
     0
  3

 72
    65
 73
     0
 40
0.0
  0
LTYPE
  5
1C8CDE699D4F
330
1C8CDE699D40
100
AcDbSymbolTableRecord
100
AcDbLinetypeTableRecord
  2
CONTINUOUS
 70
     0
  3
実線
 72
    65
 73
     0
 40
0.0
  0
LTYPE
  5
1C8CDE699D67
330
1C8CDE699D40
100
AcDbSymbolTableRecord
100
AcDbLinetypeTableRecord
  2
DIVIDE2
 70
     0
  3
__..__..__..__..__..__..__..__..__..__..__..__.
 72
    65
 73
     6
 40
0.625
 49
0.25
 74
     0
 49
-0.125
 74
     0
 49
0.0
 74
     0
 49
-0.125
 74
     0
 49
0.0
 74
     0
 49
-0.125
 74
     0
  0
LTYPE
  5
1C8CDE699D6A
330
1C8CDE699D40
100
AcDbSymbolTableRecord
100
AcDbLinetypeTableRecord
  2
CENTER
 70
     0
  3
____ _ ____ _ ____ _ ____ _ ____ _ ____ _ ____ 
 72
    65
 73
     4
 40
2.0
 49
1.25
 74
     0
 49
-0.25
 74
     0
 49
0.25
 74
     0
 49
-0.25
 74
     0
  0
LTYPE
  5
1C8CDE699D6B
330
1C8CDE699D40
100
AcDbSymbolTableRecord
100
AcDbLinetypeTableRecord
  2
HIDDEN
 70
     0
  3
__ __ __ __ __ __ __ __ __ __ __ __ __ __ __ __
 72
    65
 73
     2
 40
0.375
 49
0.25
 74
     0
 49
-0.125
 74
     0
  0
LTYPE
  5
1C8CDE699D6C
330
1C8CDE699D40
100
AcDbSymbolTableRecord
100
AcDbLinetypeTableRecord
  2
PHANTOM
 70
     0
  3
______  __  __  ______  __  __  ______  __  __ 
 72
    65
 73
     6
 40
2.5
 49
1.25
 74
     0
 49
-0.25
 74
     0
 49
0.25
 74
     0
 49
-0.25
 74
     0
 49
0.25
 74
     0
 49
-0.25
 74
     0
  0
ENDTAB
  0
TABLE
  2
LAYER
  5
1C8CDE699D3D
330
0
100
AcDbSymbolTable
 70
    15
  0
LAYER
  5
1C8CDE699D4A
330
1C8CDE699D3D
100
AcDbSymbolTableRecord
100
AcDbLayerTableRecord
  2
0
 70
     0
 62
    41
  6
DIVIDE2
370
    -3
390
1C8CDE6AC2F4
  0
LAYER
  5
1C8CDE699D71
330
1C8CDE699D3D
100
AcDbSymbolTableRecord
100
AcDbLayerTableRecord
  2
CENTER
 70
     0
 62
     3
  6
CENTER
370
    -3
390
1C8CDE6AC2F4
  0
LAYER
  5
1C8CDE699D72
330
1C8CDE699D3D
100
AcDbSymbolTableRecord
100
AcDbLayerTableRecord
  2
SUNPOU
 70
     0
 62
     4
  6
CONTINUOUS
370
    -3
390
1C8CDE6AC2F4
  0
LAYER
  5
1C8CDE699D73
330
1C8CDE699D3D
100
AcDbSymbolTableRecord
100
AcDbLayerTableRecord
  2
WAKU
 70
     0
 62
     5
  6
CONTINUOUS
370
    -3
390
1C8CDE6AC2F4
  0
LAYER
  5
1C8CDE699D74
330
1C8CDE699D3D
100
AcDbSymbolTableRecord
100
AcDbLayerTableRecord
  2
MOJI
 70
     0
 62
     6
  6
CONTINUOUS
370
    -3
390
1C8CDE6AC2F4
  0
LAYER
  5
1C8CDE699D75
330
1C8CDE699D3D
100
AcDbSymbolTableRecord
100
AcDbLayerTableRecord
  2
HASEN
 70
     0
 62
     7
  6
HIDDEN
370
    -3
390
1C8CDE6AC2F4
  0
LAYER
  5
1C8CDE699D77
330
1C8CDE699D3D
100
AcDbSymbolTableRecord
100
AcDbLayerTableRecord
  2
SJC
 70
     0
 62
     1
  6
CONTINUOUS
370
    -3
390
1C8CDE6AC2F4
  0
LAYER
  5
1C8CDE699D78
330
1C8CDE699D3D
100
AcDbSymbolTableRecord
100
AcDbLayerTableRecord
  2
KASOU
 70
     0
 62
     2
  6
PHANTOM
370
    -3
390
1C8CDE6AC2F4
  0
LAYER
  5
1C8CDE699D79
330
1C8CDE699D3D
100
AcDbSymbolTableRecord
100
AcDbLayerTableRecord
  2
ZWAKU
 70
     1
 62
     7
  6
CONTINUOUS
370
    -3
390
1C8CDE6AC2F4
  0
LAYER
  5
1C8CDE699D7A
330
1C8CDE699D3D
100
AcDbSymbolTableRecord
100
AcDbLayerTableRecord
  2
HOJO
 70
     0
 62
    -8
  6
CONTINUOUS
370
    -3
390
1C8CDE6AC2F4
  0
LAYER
  5
1C8CDE699D7B
330
1C8CDE699D3D
100
AcDbSymbolTableRecord
100
AcDbLayerTableRecord
  2
DEFPOINTS
 70
     0
 62
     7
  6
CONTINUOUS
290
     0
370
    -3
390
1C8CDE6AC2F4
  0
LAYER
  5
1C8CDE699D8F
330
1C8CDE699D3D
100
AcDbSymbolTableRecord
100
AcDbLayerTableRecord
  2
INFORMATION
 70
     1
 62
     7
  6
CONTINUOUS
370
    -3
390
1C8CDE6AC2F4
  0
LAYER
  5
1C8CDE699D92
330
1C8CDE699D3D
100
AcDbSymbolTableRecord
100
AcDbLayerTableRecord
  2
SJC2
 70
     0
 62
     7
  6
CONTINUOUS
370
    -3
390
1C8CDE6AC2F4
  0
LAYER
  5
1C8CDE699D93
330
1C8CDE699D3D
100
AcDbSymbolTableRecord
100
AcDbLayerTableRecord
  2
MOJI2
 70
     0
 62
     1
  6
CONTINUOUS
370
    -3
390
1C8CDE6AC2F4
  0
LAYER
  5
1C8CDE699D94
330
1C8CDE699D3D
100
AcDbSymbolTableRecord
100
AcDbLayerTableRecord
  2
HATCH
 70
     0
 62
     2
  6
CONTINUOUS
370
    -3
390
1C8CDE6AC2F4
  0
ENDTAB
  0
TABLE
  2
STYLE
  5
1C8CDE699D3E
330
0
100
AcDbSymbolTable
 70
     3
  0
STYLE
  5
1C8CDE699D4B
330
1C8CDE699D3E
100
AcDbSymbolTableRecord
100
AcDbTextStyleTableRecord
  2
STANDARD
 70
     0
 40
2.5
 41
0.8
 50
0.0
 71
     0
 42
3.0
  3
ROMANS.SHX
  4
BIGFONT
  0
STYLE
  5
1C8CDE699D66
330
1C8CDE699D3E
100
AcDbSymbolTableRecord
100
AcDbTextStyleTableRecord
  2
KANJI
 70
     0
 40
0.0
 41
1.0
 50
0.0
 71
     0
 42
0.0
  3
ROMANS.SHX
  4
BIGFONT.SHX
  0
STYLE
  5
1C8CDE699DA6
330
1C8CDE699D3E
100
AcDbSymbolTableRecord
100
AcDbTextStyleTableRecord
  2
EXT08
 70
     0
 40
0.0
 41
0.8
 50
0.0
 71
     0
 42
30.0
  3
ROMANS
  4
EXTFONT
  0
ENDTAB
  0
TABLE
  2
VIEW
  5
1C8CDE699D41
330
0
100
AcDbSymbolTable
 70
     0
  0
ENDTAB
  0
TABLE
  2
UCS
  5
1C8CDE699D42
330
0
100
AcDbSymbolTable
 70
     0
  0
ENDTAB
  0
TABLE
  2
APPID
  5
1C8CDE699D44
330
0
100
AcDbSymbolTable
 70
     4
  0
APPID
  5
1C8CDE699D4C
330
1C8CDE699D44
100
AcDbSymbolTableRecord
100
AcDbRegAppTableRecord
  2
ACAD
 70
     0
  0
APPID
  5
1C8CDE6AC3F8
330
1C8CDE699D44
100
AcDbSymbolTableRecord
100
AcDbRegAppTableRecord
  2
ACAD_PSEXT
 70
     0
  0
APPID
  5
1C8CDE6AC66C
330
1C8CDE699D44
100
AcDbSymbolTableRecord
100
AcDbRegAppTableRecord
  2
ACAD_MLEADERVER
 70
     0
  0
APPID
  5
1C8CDE6AC8A2
330
1C8CDE699D44
100
AcDbSymbolTableRecord
100
AcDbRegAppTableRecord
  2
ACAD_NAV_VCDISPLAY
 70
     0
  0
ENDTAB
  0
TABLE
  2
DIMSTYLE
  5
1C8CDE699D45
330
0
100
AcDbSymbolTable
 70
     2
100
AcDbDimStyleTable
 71
     0
  0
DIMSTYLE
105
1C8CDE699D6E
330
1C8CDE699D45
100
AcDbSymbolTableRecord
100
AcDbDimStyleTableRecord
  2
STANDARD
 70
     0
 41
20.0
 42
10.0
 43
0.4
 44
10.0
 73
     0
 74
     0
 77
     1
 78
     8
140
25.0
141
0.1
147
15.0
172
     1
176
   256
177
   256
178
   256
271
     1
272
     1
275
     1
279
     2
284
     8
285
     8
286
     8
340
1C8CDE699D66
  0
DIMSTYLE
105
1C8CDE699DA9
102
{ACAD_REACTORS
330
1C8CDE6A990B
330
1C8CDE6A990C
330
1C8CDE6AB795
330
1C8CDE6AB796
330
1C8CDE6AB797
330
1C8CDE6ABAC7
330
1C8CDE6ABAF9
330
1C8CDE6ABB29
330
1C8CDE6ABB2A
330
1C8CDE6ABB47
330
1C8CDE6AC222
330
1C8CDE6AC22F
330
1C8CDE6AC23C
330
1C8CDE6AC249
330
1C8CDE6AC318
102
}
330
1C8CDE699D45
100
AcDbSymbolTableRecord
100
AcDbDimStyleTableRecord
  2
SJC
 70
     0
 41
20.0
 42
10.0
 43
0.4
 44
10.0
 73
     0
 74
     0
 77
     1
 78
     8
140
25.0
141
0.1
147
15.0
172
     1
176
   256
177
   256
178
   256
271
     1
272
     1
275
     1
279
     2
284
     8
285
     8
286
     8
340
1C8CDE699D66
  0
ENDTAB
  0
TABLE
  2
BLOCK_RECORD
  5
1C8CDE699D3C
330
0
100
AcDbSymbolTable
 70
    16
  0
BLOCK_RECORD
  5
1C8CDE699D53
102
{ACAD_XDICTIONARY
360
1C8CDE6AC38B
102
}
330
1C8CDE699D3C
100
AcDbSymbolTableRecord
100
AcDbBlockTableRecord
  2
*MODEL_SPACE
340
1C8CDE6AC2FB
  0
BLOCK_RECORD
  5
1C8CDE699D50
330
1C8CDE699D3C
100
AcDbSymbolTableRecord
100
AcDbBlockTableRecord
  2
*PAPER_SPACE
340
1C8CDE6AC2FC
  0
BLOCK_RECORD
  5
1C8CDE6A996A
330
1C8CDE699D3C
100
AcDbSymbolTableRecord
100
AcDbBlockTableRecord
  2
*D0
340
0
  0
BLOCK_RECORD
  5
1C8CDE6A9976
330
1C8CDE699D3C
100
AcDbSymbolTableRecord
100
AcDbBlockTableRecord
  2
*D1
340
0
  0
BLOCK_RECORD
  5
1C8CDE6AB80B
330
1C8CDE699D3C
100
AcDbSymbolTableRecord
100
AcDbBlockTableRecord
  2
*D2
340
0
  0
BLOCK_RECORD
  5
1C8CDE6AB819
330
1C8CDE699D3C
100
AcDbSymbolTableRecord
100
AcDbBlockTableRecord
  2
*D3
340
0
  0
BLOCK_RECORD
  5
1C8CDE6AB825
330
1C8CDE699D3C
100
AcDbSymbolTableRecord
100
AcDbBlockTableRecord
  2
*D4
340
0
  0
BLOCK_RECORD
  5
1C8CDE6ABB75
330
1C8CDE699D3C
100
AcDbSymbolTableRecord
100
AcDbBlockTableRecord
  2
*D5
340
0
  0
BLOCK_RECORD
  5
1C8CDE6ABB81
330
1C8CDE699D3C
100
AcDbSymbolTableRecord
100
AcDbBlockTableRecord
  2
*D6
340
0
  0
BLOCK_RECORD
  5
1C8CDE6ABB8D
330
1C8CDE699D3C
100
AcDbSymbolTableRecord
100
AcDbBlockTableRecord
  2
*D7
340
0
  0
BLOCK_RECORD
  5
1C8CDE6ABB99
330
1C8CDE699D3C
100
AcDbSymbolTableRecord
100
AcDbBlockTableRecord
  2
*D8
340
0
  0
BLOCK_RECORD
  5
1C8CDE6ABBA5
330
1C8CDE699D3C
100
AcDbSymbolTableRecord
100
AcDbBlockTableRecord
  2
*D9
340
0
  0
BLOCK_RECORD
  5
1C8CDE6AC216
330
1C8CDE699D3C
100
AcDbSymbolTableRecord
100
AcDbBlockTableRecord
  2
*D10
340
0
  0
BLOCK_RECORD
  5
1C8CDE6AC223
330
1C8CDE699D3C
100
AcDbSymbolTableRecord
100
AcDbBlockTableRecord
  2
*D11
340
0
  0
BLOCK_RECORD
  5
1C8CDE6AC230
330
1C8CDE699D3C
100
AcDbSymbolTableRecord
100
AcDbBlockTableRecord
  2
*D12
340
0
  0
BLOCK_RECORD
  5
1C8CDE6AC23D
330
1C8CDE699D3C
100
AcDbSymbolTableRecord
100
AcDbBlockTableRecord
  2
*D13
340
0
  0
BLOCK_RECORD
  5
1C8CDE6AC319
330
1C8CDE699D3C
100
AcDbSymbolTableRecord
100
AcDbBlockTableRecord
  2
*D14
340
0
  0
BLOCK_RECORD
  5
1C8CDE6AC4F6
330
1C8CDE699D3C
100
AcDbSymbolTableRecord
100
AcDbBlockTableRecord
  2
CALCOMP_TECHJET720A3
340
0
102
{BLKREFS
331
1C8CDE6AC53F
102
}
  0
ENDTAB
  0
ENDSEC
  0
SECTION
  2
BLOCKS
  0
BLOCK
  5
1C8CDE699D7E
330
1C8CDE699D53
100
AcDbEntity
  8
0
100
AcDbBlockBegin
  2
*MODEL_SPACE
 70
     0
 10
0.0
 20
0.0
 30
0.0
  3
*MODEL_SPACE
  1

  0
ENDBLK
  5
1C8CDE699D7F
330
1C8CDE699D53
100
AcDbEntity
  8
0
100
AcDbBlockEnd
  0
BLOCK
  5
1C8CDE699D7C
330
1C8CDE699D50
100
AcDbEntity
 67
     1
  8
0
100
AcDbBlockBegin
  2
*PAPER_SPACE
 70
     0
 10
0.0
 20
0.0
 30
0.0
  3
*PAPER_SPACE
  1

  0
ENDBLK
  5
1C8CDE699D7D
330
1C8CDE699D50
100
AcDbEntity
 67
     1
  8
0
100
AcDbBlockEnd
  0
BLOCK
  5
1C8CDE6A996B
330
1C8CDE6A996A
100
AcDbEntity
  8
0
100
AcDbBlockBegin
  2
*D0
 70
     1
 10
0.0
 20
0.0
 30
0.0
  3
*D0
  1

  0
LINE
  5
1C8CDE6A996C
330
1C8CDE6A996A
100
AcDbEntity
  8
0
  6
ByBlock
100
AcDbLine
 10
5464.118308791123
 20
996.5498518608066
 30
0.0
 11
5464.118308791123
 21
846.5498518608072
 31
0.0
  0
LINE
  5
1C8CDE6A996D
330
1C8CDE6A996A
100
AcDbEntity
  8
0
  6
ByBlock
100
AcDbLine
 10
5764.118308791123
 20
996.5498518608066
 30
0.0
 11
5764.118308791123
 21
846.5498518608072
 31
0.0
  0
LINE
  5
1C8CDE6A996E
330
1C8CDE6A996A
100
AcDbEntity
  8
0
  6
ByBlock
100
AcDbLine
 10
5484.118308791123
 20
856.5498518608071
 30
0.0
 11
5744.118308791123
 21
856.5498518608071
 31
0.0
  0
SOLID
  5
1C8CDE6A996F
330
1C8CDE6A996A
100
AcDbEntity
  8
0
  6
ByBlock
100
AcDbTrace
 10
5484.118308791123
 20
859.8831851941405
 30
0.0
 11
5484.118308791123
 21
853.2165185274738
 31
0.0
 12
5464.118308791123
 22
856.5498518608071
 32
0.0
 13
5464.118308791123
 23
856.5498518608071
 33
0.0
  0
SOLID
  5
1C8CDE6A9970
330
1C8CDE6A996A
100
AcDbEntity
  8
0
  6
ByBlock
100
AcDbTrace
 10
5744.118308791123
 20
859.8831851941405
 30
0.0
 11
5744.118308791123
 21
853.2165185274738
 31
0.0
 12
5764.118308791123
 22
856.5498518608071
 32
0.0
 13
5764.118308791123
 23
856.5498518608071
 33
0.0
  0
MTEXT
  5
1C8CDE6A9971
330
1C8CDE6A996A
100
AcDbEntity
  8
0
  6
ByBlock
100
AcDbMText
 10
5614.118308791123
 20
883.5498518608071
 30
0.0
 40
30.0
 41
0.0
 71
     5
 72
     5
  1
\A1;□300
  7
EXT08
 73
     1
 44
1.0
1001
ACAD
1000
MTEXTBEGIN
1070
    73
1070
     1
1070
    44
1040
1.0
1070
    74
1070
     0
1000
MTEXTEND
  0
POINT
  5
1C8CDE6A9972
330
1C8CDE6A996A
100
AcDbEntity
  8
DEFPOINTS
  6
ByBlock
 62
     0
100
AcDbPoint
 10
5464.118308791123
 20
1006.549851860806
 30
0.0
  0
POINT
  5
1C8CDE6A9973
330
1C8CDE6A996A
100
AcDbEntity
  8
DEFPOINTS
  6
ByBlock
 62
     0
100
AcDbPoint
 10
5764.118308791123
 20
1006.549851860806
 30
0.0
  0
POINT
  5
1C8CDE6A9974
330
1C8CDE6A996A
100
AcDbEntity
  8
DEFPOINTS
  6
ByBlock
 62
     0
100
AcDbPoint
 10
5764.118308791123
 20
856.5498518608071
 30
0.0
  0
ENDBLK
  5
1C8CDE6A9975
330
1C8CDE6A996A
100
AcDbEntity
  8
0
100
AcDbBlockEnd
  0
BLOCK
  5
1C8CDE6A9977
330
1C8CDE6A9976
100
AcDbEntity
  8
0
100
AcDbBlockBegin
  2
*D1
 70
     1
 10
0.0
 20
0.0
 30
0.0
  3
*D1
  1

  0
LINE
  5
1C8CDE6A9978
330
1C8CDE6A9976
100
AcDbEntity
  8
0
  6
ByBlock
100
AcDbLine
 10
5414.118308791123
 20
996.5498518608072
 30
0.0
 11
5414.118308791123
 21
746.5498518608072
 31
0.0
  0
LINE
  5
1C8CDE6A9979
330
1C8CDE6A9976
100
AcDbEntity
  8
0
  6
ByBlock
100
AcDbLine
 10
5814.118308791123
 20
996.5498518608072
 30
0.0
 11
5814.118308791123
 21
746.5498518608072
 31
0.0
  0
LINE
  5
1C8CDE6A997A
330
1C8CDE6A9976
100
AcDbEntity
  8
0
  6
ByBlock
100
AcDbLine
 10
5434.118308791124
 20
756.5498518608071
 30
0.0
 11
5794.118308791123
 21
756.5498518608071
 31
0.0
  0
SOLID
  5
1C8CDE6A997B
330
1C8CDE6A9976
100
AcDbEntity
  8
0
  6
ByBlock
100
AcDbTrace
 10
5434.118308791124
 20
759.8831851941405
 30
0.0
 11
5434.118308791124
 21
753.2165185274737
 31
0.0
 12
5414.118308791123
 22
756.5498518608071
 32
0.0
 13
5414.118308791123
 23
756.5498518608071
 33
0.0
  0
SOLID
  5
1C8CDE6A997C
330
1C8CDE6A9976
100
AcDbEntity
  8
0
  6
ByBlock
100
AcDbTrace
 10
5794.118308791123
 20
759.8831851941405
 30
0.0
 11
5794.118308791123
 21
753.2165185274737
 31
0.0
 12
5814.118308791123
 22
756.5498518608071
 32
0.0
 13
5814.118308791123
 23
756.5498518608071
 33
0.0
  0
MTEXT
  5
1C8CDE6A997D
330
1C8CDE6A9976
100
AcDbEntity
  8
0
  6
ByBlock
100
AcDbMText
 10
5614.118308791123
 20
783.5498518608071
 30
0.0
 40
30.0
 41
0.0
 71
     5
 72
     5
  1
\A1;□400
  7
EXT08
 73
     1
 44
1.0
1001
ACAD
1000
MTEXTBEGIN
1070
    73
1070
     1
1070
    44
1040
1.0
1070
    74
1070
     0
1000
MTEXTEND
  0
POINT
  5
1C8CDE6A997E
330
1C8CDE6A9976
100
AcDbEntity
  8
DEFPOINTS
  6
ByBlock
 62
     0
100
AcDbPoint
 10
5414.118308791123
 20
1006.549851860807
 30
0.0
  0
POINT
  5
1C8CDE6A997F
330
1C8CDE6A9976
100
AcDbEntity
  8
DEFPOINTS
  6
ByBlock
 62
     0
100
AcDbPoint
 10
5814.118308791123
 20
1006.549851860807
 30
0.0
  0
POINT
  5
1C8CDE6A9980
330
1C8CDE6A9976
100
AcDbEntity
  8
DEFPOINTS
  6
ByBlock
 62
     0
100
AcDbPoint
 10
5814.118308791123
 20
756.5498518608071
 30
0.0
  0
ENDBLK
  5
1C8CDE6A9981
330
1C8CDE6A9976
100
AcDbEntity
  8
0
100
AcDbBlockEnd
  0
BLOCK
  5
1C8CDE6ABE6A
330
1C8CDE6AB80B
100
AcDbEntity
  8
0
100
AcDbBlockBegin
  2
*D2
 70
     1
 10
0.0
 20
0.0
 30
0.0
  3
*D2
  1

  0
LINE
  5
1C8CDE6ABE6B
330
1C8CDE6AB80B
100
AcDbEntity
  8
0
  6
ByBlock
100
AcDbLine
 10
1412.751861180948
 20
563.407702183824
 30
0.0
 11
1605.252729695829
 21
563.407702183824
 31
0.0
  0
LINE
  5
1C8CDE6ABE6C
330
1C8CDE6AB80B
100
AcDbEntity
  8
0
  6
ByBlock
100
AcDbLine
 10
1405.250987637066
 20
513.407711124524
 30
0.0
 11
1605.252729695829
 21
513.407711124524
 31
0.0
  0
LINE
  5
1C8CDE6ABE6D
330
1C8CDE6AB80B
100
AcDbEntity
  8
0
  6
ByBlock
100
AcDbLine
 10
1595.252729695828
 20
583.4077021838241
 30
0.0
 11
1595.252729695828
 21
603.4077021838241
 31
0.0
  0
LINE
  5
1C8CDE6ABE6E
330
1C8CDE6AB80B
100
AcDbEntity
  8
0
  6
ByBlock
100
AcDbLine
 10
1595.252729695828
 20
493.4077111245239
 30
0.0
 11
1595.252729695828
 21
473.4077111245239
 31
0.0
  0
MTEXT
  5
1C8CDE6ABE6F
330
1C8CDE6AB80B
100
AcDbEntity
  8
0
  6
ByBlock
100
AcDbMText
 10
1567.602563353088
 20
540.6947962026138
 30
0.0
 40
30.0
 41
0.0
 71
     5
 72
     5
  1
\A1;50
  7
EXT08
 11
0.0
 21
1.0
 31
0.0
 73
     1
 44
1.0
1001
ACAD
1000
MTEXTBEGIN
1070
    73
1070
     1
1070
    44
1040
1.0
1070
    74
1070
     0
1000
MTEXTEND
  0
LINE
  5
1C8CDE6ABE70
330
1C8CDE6AB80B
100
AcDbEntity
  8
0
  6
ByBlock
100
AcDbLine
 10
1595.252729695828
 20
563.407702183824
 30
0.0
 11
1595.252729695828
 21
513.407711124524
 31
0.0
  0
SOLID
  5
1C8CDE6ABE71
330
1C8CDE6AB80B
100
AcDbEntity
  8
0
  6
ByBlock
100
AcDbTrace
 10
1591.919396362495
 20
583.4077021838241
 30
0.0
 11
1598.586063029162
 21
583.4077021838241
 31
0.0
 12
1595.252729695828
 22
563.407702183824
 32
0.0
 13
1595.252729695828
 23
563.407702183824
 33
0.0
  0
SOLID
  5
1C8CDE6ABE72
330
1C8CDE6AB80B
100
AcDbEntity
  8
0
  6
ByBlock
100
AcDbTrace
 10
1591.919396362495
 20
493.4077111245239
 30
0.0
 11
1598.586063029162
 21
493.4077111245239
 31
0.0
 12
1595.252729695828
 22
513.407711124524
 32
0.0
 13
1595.252729695828
 23
513.407711124524
 33
0.0
  0
POINT
  5
1C8CDE6ABE73
330
1C8CDE6AB80B
100
AcDbEntity
  8
DEFPOINTS
  6
ByBlock
 62
     0
100
AcDbPoint
 10
1402.751861180948
 20
563.407702183824
 30
0.0
  0
POINT
  5
1C8CDE6ABE74
330
1C8CDE6AB80B
100
AcDbEntity
  8
DEFPOINTS
  6
ByBlock
 62
     0
100
AcDbPoint
 10
1395.250987637066
 20
513.407711124524
 30
0.0
  0
POINT
  5
1C8CDE6ABE75
330
1C8CDE6AB80B
100
AcDbEntity
  8
DEFPOINTS
  6
ByBlock
 62
     0
100
AcDbPoint
 10
1595.252729695828
 20
513.407711124524
 30
0.0
  0
ENDBLK
  5
1C8CDE6ABE76
330
1C8CDE6AB80B
100
AcDbEntity
  8
0
100
AcDbBlockEnd
  0
BLOCK
  5
1C8CDE6AB81A
330
1C8CDE6AB819
100
AcDbEntity
  8
0
100
AcDbBlockBegin
  2
*D3
 70
     1
 10
0.0
 20
0.0
 30
0.0
  3
*D3
  1

  0
LINE
  5
1C8CDE6AC402
330
1C8CDE6AB819
100
AcDbEntity
  8
SUNPOU
370
    -2
100
AcDbLine
 10
1284.037696236502
 20
1063.407711124524
 30
0.0
 11
1455.252729695829
 21
1063.407711124524
 31
0.0
  0
LINE
  5
1C8CDE6AC403
330
1C8CDE6AB819
100
AcDbEntity
  8
SUNPOU
370
    -2
100
AcDbLine
 10
1400.844751357401
 20
963.4077111245241
 30
0.0
 11
1455.252729695829
 21
963.4077111245241
 31
0.0
  0
LINE
  5
1C8CDE6AC404
330
1C8CDE6AB819
100
AcDbEntity
  8
SUNPOU
370
    -2
100
AcDbLine
 10
1445.252729695829
 20
1043.407711124523
 30
0.0
 11
1445.252729695829
 21
983.4077111245242
 31
0.0
  0
MTEXT
  5
1C8CDE6AC405
330
1C8CDE6AB819
100
AcDbEntity
  8
SUNPOU
100
AcDbMText
 10
1422.209695338514
 20
1013.407711124524
 30
0.0
 40
30.0
 41
0.0
 71
     5
 72
     1
  1
\A1;100
  7
EXT08
 11
0.0000000000000001
 21
1.0
 31
0.0
 73
     1
 44
1.0
1001
ACAD
1000
MTEXTBEGIN
1070
    73
1070
     1
1070
    44
1040
1.0
1070
    74
1070
     0
1000
MTEXTEND
  0
SOLID
  5
1C8CDE6AC406
330
1C8CDE6AB819
100
AcDbEntity
  8
SUNPOU
100
AcDbTrace
 10
1441.919396362496
 20
1043.407711124523
 30
0.0
 11
1448.586063029163
 21
1043.407711124523
 31
0.0
 12
1445.252729695829
 22
1063.407711124524
 32
0.0
 13
1445.252729695829
 23
1063.407711124524
 33
0.0
  0
SOLID
  5
1C8CDE6AC407
330
1C8CDE6AB819
100
AcDbEntity
  8
SUNPOU
100
AcDbTrace
 10
1441.919396362496
 20
983.4077111245242
 30
0.0
 11
1448.586063029163
 21
983.4077111245242
 31
0.0
 12
1445.252729695829
 22
963.4077111245241
 32
0.0
 13
1445.252729695829
 23
963.4077111245241
 33
0.0
  0
POINT
  5
1C8CDE6AC408
330
1C8CDE6AB819
100
AcDbEntity
  8
DEFPOINTS
 62
     0
100
AcDbPoint
 10
1274.037696236502
 20
1063.407711124524
 30
0.0
  0
POINT
  5
1C8CDE6AC409
330
1C8CDE6AB819
100
AcDbEntity
  8
DEFPOINTS
 62
     0
100
AcDbPoint
 10
1390.844751357401
 20
963.4077111245241
 30
0.0
  0
POINT
  5
1C8CDE6AC40A
330
1C8CDE6AB819
100
AcDbEntity
  8
DEFPOINTS
 62
     0
100
AcDbPoint
 10
1445.252729695829
 20
963.4077111245241
 30
0.0
  0
ENDBLK
  5
1C8CDE6AB824
330
1C8CDE6AB819
100
AcDbEntity
  8
0
100
AcDbBlockEnd
  0
BLOCK
  5
1C8CDE6ABE45
330
1C8CDE6AB825
100
AcDbEntity
  8
0
100
AcDbBlockBegin
  2
*D4
 70
     1
 10
0.0
 20
0.0
 30
0.0
  3
*D4
  1

  0
LINE
  5
1C8CDE6AC3CB
330
1C8CDE6AB825
100
AcDbEntity
  8
SUNPOU
370
    -2
100
AcDbLine
 10
1400.844751357401
 20
963.4077111245241
 30
0.0
 11
1530.252729695829
 21
963.4077111245241
 31
0.0
  0
LINE
  5
1C8CDE6AC3CC
330
1C8CDE6AB825
100
AcDbEntity
  8
SUNPOU
370
    -2
100
AcDbLine
 10
1402.751861180948
 20
563.407702183824
 30
0.0
 11
1530.252729695829
 21
563.407702183824
 31
0.0
  0
LINE
  5
1C8CDE6AC3CD
330
1C8CDE6AB825
100
AcDbEntity
  8
SUNPOU
370
    -2
100
AcDbLine
 10
1520.252729695829
 20
943.4077111245242
 30
0.0
 11
1520.252729695829
 21
583.4077021838241
 31
0.0
  0
SOLID
  5
1C8CDE6AC3CE
330
1C8CDE6AB825
100
AcDbEntity
  8
SUNPOU
100
AcDbTrace
 10
1516.919396362495
 20
943.4077111245242
 30
0.0
 11
1523.586063029162
 21
943.4077111245242
 31
0.0
 12
1520.252729695829
 22
963.4077111245241
 32
0.0
 13
1520.252729695829
 23
963.4077111245241
 33
0.0
  0
SOLID
  5
1C8CDE6AC3CF
330
1C8CDE6AB825
100
AcDbEntity
  8
SUNPOU
100
AcDbTrace
 10
1516.919396362495
 20
583.4077021838241
 30
0.0
 11
1523.586063029162
 21
583.4077021838241
 31
0.0
 12
1520.252729695829
 22
563.407702183824
 32
0.0
 13
1520.252729695829
 23
563.407702183824
 33
0.0
  0
MTEXT
  5
1C8CDE6AC3D0
330
1C8CDE6AB825
100
AcDbEntity
  8
SUNPOU
100
AcDbMText
 10
1493.252729695828
 20
763.4077066541744
 30
0.0
 40
30.0
 41
0.0
 71
     5
 72
     1
  1
\A1;400
  7
EXT08
 11
0.0000000000000001
 21
1.0
 31
0.0
 73
     1
 44
1.0
1001
ACAD
1000
MTEXTBEGIN
1070
    73
1070
     1
1070
    44
1040
1.0
1070
    74
1070
     0
1000
MTEXTEND
  0
POINT
  5
1C8CDE6AC3D1
330
1C8CDE6AB825
100
AcDbEntity
  8
DEFPOINTS
 62
     0
100
AcDbPoint
 10
1390.844751357401
 20
963.4077111245241
 30
0.0
  0
POINT
  5
1C8CDE6AC3D2
330
1C8CDE6AB825
100
AcDbEntity
  8
DEFPOINTS
 62
     0
100
AcDbPoint
 10
1392.751861180948
 20
563.407702183824
 30
0.0
  0
POINT
  5
1C8CDE6AC3D3
330
1C8CDE6AB825
100
AcDbEntity
  8
DEFPOINTS
 62
     0
100
AcDbPoint
 10
1520.252729695829
 20
563.407702183824
 30
0.0
  0
ENDBLK
  5
1C8CDE6ABE4F
330
1C8CDE6AB825
100
AcDbEntity
  8
0
100
AcDbBlockEnd
  0
BLOCK
  5
1C8CDE6ABB76
330
1C8CDE6ABB75
100
AcDbEntity
  8
0
100
AcDbBlockBegin
  2
*D5
 70
     1
 10
0.0
 20
0.0
 30
0.0
  3
*D5
  1

  0
LINE
  5
1C8CDE6AC30F
330
1C8CDE6ABB75
100
AcDbEntity
  8
SUNPOU
370
    -2
100
AcDbLine
 10
3191.906424969391
 20
1525.336067023497
 30
0.0
 11
3264.506424969392
 21
1525.336067023497
 31
0.0
  0
LINE
  5
1C8CDE6AC310
330
1C8CDE6ABB75
100
AcDbEntity
  8
SUNPOU
370
    -2
100
AcDbLine
 10
3177.506384969392
 20
1125.336067023496
 30
0.0
 11
3264.506424969392
 21
1125.336067023496
 31
0.0
  0
LINE
  5
1C8CDE6AC311
330
1C8CDE6ABB75
100
AcDbEntity
  8
SUNPOU
370
    -2
100
AcDbLine
 10
3254.506424969392
 20
1505.336067023496
 30
0.0
 11
3254.506424969392
 21
1145.336067023497
 31
0.0
  0
SOLID
  5
1C8CDE6AC312
330
1C8CDE6ABB75
100
AcDbEntity
  8
SUNPOU
100
AcDbTrace
 10
3251.173091636058
 20
1505.336067023496
 30
0.0
 11
3257.839758302725
 21
1505.336067023496
 31
0.0
 12
3254.506424969392
 22
1525.336067023497
 32
0.0
 13
3254.506424969392
 23
1525.336067023497
 33
0.0
  0
SOLID
  5
1C8CDE6AC313
330
1C8CDE6ABB75
100
AcDbEntity
  8
SUNPOU
100
AcDbTrace
 10
3251.173091636058
 20
1145.336067023497
 30
0.0
 11
3257.839758302725
 21
1145.336067023497
 31
0.0
 12
3254.506424969392
 22
1125.336067023496
 32
0.0
 13
3254.506424969392
 23
1125.336067023496
 33
0.0
  0
MTEXT
  5
1C8CDE6AC314
330
1C8CDE6ABB75
100
AcDbEntity
  8
SUNPOU
100
AcDbMText
 10
3227.506424969391
 20
1325.336067023497
 30
0.0
 40
30.0
 41
0.0
 71
     5
 72
     1
  1
\A1;400
  7
EXT08
 11
0.0000000000000001
 21
1.0
 31
0.0
 73
     1
 44
1.0
1001
ACAD
1000
MTEXTBEGIN
1070
    73
1070
     1
1070
    44
1040
1.0
1070
    74
1070
     0
1000
MTEXTEND
  0
POINT
  5
1C8CDE6AC315
330
1C8CDE6ABB75
100
AcDbEntity
  8
DEFPOINTS
 62
     0
100
AcDbPoint
 10
3181.906424969391
 20
1525.336067023497
 30
0.0
  0
POINT
  5
1C8CDE6AC316
330
1C8CDE6ABB75
100
AcDbEntity
  8
DEFPOINTS
 62
     0
100
AcDbPoint
 10
3167.506384969392
 20
1125.336067023496
 30
0.0
  0
POINT
  5
1C8CDE6AC317
330
1C8CDE6ABB75
100
AcDbEntity
  8
DEFPOINTS
 62
     0
100
AcDbPoint
 10
3254.506424969392
 20
1125.336067023496
 30
0.0
  0
ENDBLK
  5
1C8CDE6ABB80
330
1C8CDE6ABB75
100
AcDbEntity
  8
0
100
AcDbBlockEnd
  0
BLOCK
  5
1C8CDE6ABB82
330
1C8CDE6ABB81
100
AcDbEntity
  8
0
100
AcDbBlockBegin
  2
*D6
 70
     1
 10
0.0
 20
0.0
 30
0.0
  3
*D6
  1

  0
LINE
  5
1C8CDE6AC381
330
1C8CDE6ABB81
100
AcDbEntity
  8
SUNPOU
370
    -2
100
AcDbLine
 10
2785.844519742767
 20
1113.736067023497
 30
0.0
 11
2785.844519742767
 21
1007.471987023496
 31
0.0
  0
LINE
  5
1C8CDE6AC382
330
1C8CDE6ABB81
100
AcDbEntity
  8
SUNPOU
370
    -2
100
AcDbLine
 10
2910.844519742767
 20
1113.736067023497
 30
0.0
 11
2910.844519742767
 21
1007.471987023496
 31
0.0
  0
LINE
  5
1C8CDE6AC383
330
1C8CDE6ABB81
100
AcDbEntity
  8
SUNPOU
370
    -2
100
AcDbLine
 10
2805.844519742768
 20
1017.471987023496
 30
0.0
 11
2890.844519742767
 21
1017.471987023496
 31
0.0
  0
MTEXT
  5
1C8CDE6AC384
330
1C8CDE6ABB81
100
AcDbEntity
  8
SUNPOU
100
AcDbMText
 10
2848.344519742767
 20
1017.471987023496
 30
0.0
 40
30.0
 41
0.0
 71
     5
 72
     1
  1
\A1;%%C125\P（底板径）
  7
EXT08
 73
     1
 44
1.0
1001
ACAD
1000
MTEXTBEGIN
1070
    73
1070
     1
1070
    44
1040
1.0
1070
    74
1070
     0
1000
MTEXTEND
  0
SOLID
  5
1C8CDE6AC385
330
1C8CDE6ABB81
100
AcDbEntity
  8
SUNPOU
100
AcDbTrace
 10
2805.844519742768
 20
1020.80532035683
 30
0.0
 11
2805.844519742768
 21
1014.138653690163
 31
0.0
 12
2785.844519742767
 22
1017.471987023496
 32
0.0
 13
2785.844519742767
 23
1017.471987023496
 33
0.0
  0
SOLID
  5
1C8CDE6AC386
330
1C8CDE6ABB81
100
AcDbEntity
  8
SUNPOU
100
AcDbTrace
 10
2890.844519742767
 20
1020.80532035683
 30
0.0
 11
2890.844519742767
 21
1014.138653690163
 31
0.0
 12
2910.844519742767
 22
1017.471987023496
 32
0.0
 13
2910.844519742767
 23
1017.471987023496
 33
0.0
  0
POINT
  5
1C8CDE6AC387
330
1C8CDE6ABB81
100
AcDbEntity
  8
DEFPOINTS
 62
     0
100
AcDbPoint
 10
2785.844519742767
 20
1123.736067023497
 30
0.0
  0
POINT
  5
1C8CDE6AC388
330
1C8CDE6ABB81
100
AcDbEntity
  8
DEFPOINTS
 62
     0
100
AcDbPoint
 10
2910.844519742767
 20
1123.736067023497
 30
0.0
  0
POINT
  5
1C8CDE6AC389
330
1C8CDE6ABB81
100
AcDbEntity
  8
DEFPOINTS
 62
     0
100
AcDbPoint
 10
2910.844519742767
 20
1017.471987023496
 30
0.0
  0
ENDBLK
  5
1C8CDE6ABB8C
330
1C8CDE6ABB81
100
AcDbEntity
  8
0
100
AcDbBlockEnd
  0
BLOCK
  5
1C8CDE6ABB8E
330
1C8CDE6ABB8D
100
AcDbEntity
  8
0
100
AcDbBlockBegin
  2
*D7
 70
     1
 10
0.0
 20
0.0
 30
0.0
  3
*D7
  1

  0
LINE
  5
1C8CDE6ABB8F
330
1C8CDE6ABB8D
100
AcDbEntity
  8
0
  6
ByBlock
100
AcDbLine
 10
7019.448661671963
 20
1504.318714591805
 30
0.0
 11
7019.448661671963
 21
1687.450754591804
 31
0.0
  0
LINE
  5
1C8CDE6ABB90
330
1C8CDE6ABB8D
100
AcDbEntity
  8
0
  6
ByBlock
100
AcDbLine
 10
6844.448661671963
 20
1504.318714591805
 30
0.0
 11
6844.448661671963
 21
1687.450754591804
 31
0.0
  0
LINE
  5
1C8CDE6ABB91
330
1C8CDE6ABB8D
100
AcDbEntity
  8
0
  6
ByBlock
100
AcDbLine
 10
6999.448661671962
 20
1677.450754591804
 30
0.0
 11
6864.448661671961
 21
1677.450754591804
 31
0.0
  0
SOLID
  5
1C8CDE6ABB92
330
1C8CDE6ABB8D
100
AcDbEntity
  8
0
  6
ByBlock
100
AcDbTrace
 10
6999.448661671962
 20
1680.784087925137
 30
0.0
 11
6999.448661671962
 21
1674.11742125847
 31
0.0
 12
7019.448661671963
 22
1677.450754591804
 32
0.0
 13
7019.448661671963
 23
1677.450754591804
 33
0.0
  0
SOLID
  5
1C8CDE6ABB93
330
1C8CDE6ABB8D
100
AcDbEntity
  8
0
  6
ByBlock
100
AcDbTrace
 10
6864.448661671961
 20
1680.784087925137
 30
0.0
 11
6864.448661671961
 21
1674.11742125847
 31
0.0
 12
6844.448661671963
 22
1677.450754591804
 32
0.0
 13
6844.448661671963
 23
1677.450754591804
 33
0.0
  0
MTEXT
  5
1C8CDE6ABB94
330
1C8CDE6ABB8D
100
AcDbEntity
  8
0
  6
ByBlock
100
AcDbMText
 10
6931.948661671963
 20
1704.450754591803
 30
0.0
 40
30.0
 41
0.0
 71
     5
 72
     5
  1
\A1;175
  7
EXT08
 73
     1
 44
1.0
1001
ACAD
1000
MTEXTBEGIN
1070
    73
1070
     1
1070
    44
1040
1.0
1070
    74
1070
     0
1000
MTEXTEND
  0
POINT
  5
1C8CDE6ABB95
330
1C8CDE6ABB8D
100
AcDbEntity
  8
DEFPOINTS
  6
ByBlock
 62
     0
100
AcDbPoint
 10
7019.448661671963
 20
1494.318714591806
 30
0.0
  0
POINT
  5
1C8CDE6ABB96
330
1C8CDE6ABB8D
100
AcDbEntity
  8
DEFPOINTS
  6
ByBlock
 62
     0
100
AcDbPoint
 10
6844.448661671963
 20
1494.318714591806
 30
0.0
  0
POINT
  5
1C8CDE6ABB97
330
1C8CDE6ABB8D
100
AcDbEntity
  8
DEFPOINTS
  6
ByBlock
 62
     0
100
AcDbPoint
 10
6844.448661671963
 20
1677.450754591804
 30
0.0
  0
ENDBLK
  5
1C8CDE6ABB98
330
1C8CDE6ABB8D
100
AcDbEntity
  8
0
100
AcDbBlockEnd
  0
BLOCK
  5
1C8CDE6ABB9A
330
1C8CDE6ABB99
100
AcDbEntity
  8
0
100
AcDbBlockBegin
  2
*D8
 70
     1
 10
0.0
 20
0.0
 30
0.0
  3
*D8
  1

  0
LINE
  5
1C8CDE6AC365
330
1C8CDE6ABB99
100
AcDbEntity
  8
SUNPOU
370
    -2
100
AcDbLine
 10
2781.871524085254
 20
1601.941093642492
 30
0.0
 11
2781.871524085254
 21
1718.468087023495
 31
0.0
  0
LINE
  5
1C8CDE6AC366
330
1C8CDE6ABB99
100
AcDbEntity
  8
SUNPOU
370
    -2
100
AcDbLine
 10
2914.844519742768
 20
1603.836047023471
 30
0.0
 11
2914.844519742768
 21
1718.468087023495
 31
0.0
  0
LINE
  5
1C8CDE6AC367
330
1C8CDE6ABB99
100
AcDbEntity
  8
SUNPOU
370
    -2
100
AcDbLine
 10
2801.871524085253
 20
1708.468087023496
 30
0.0
 11
2894.844519742767
 21
1708.468087023496
 31
0.0
  0
SOLID
  5
1C8CDE6AC368
330
1C8CDE6ABB99
100
AcDbEntity
  8
SUNPOU
100
AcDbTrace
 10
2801.871524085253
 20
1711.801420356829
 30
0.0
 11
2801.871524085253
 21
1705.134753690162
 31
0.0
 12
2781.871524085254
 22
1708.468087023496
 32
0.0
 13
2781.871524085254
 23
1708.468087023496
 33
0.0
  0
SOLID
  5
1C8CDE6AC369
330
1C8CDE6ABB99
100
AcDbEntity
  8
SUNPOU
100
AcDbTrace
 10
2894.844519742767
 20
1711.801420356829
 30
0.0
 11
2894.844519742767
 21
1705.134753690162
 31
0.0
 12
2914.844519742768
 22
1708.468087023496
 32
0.0
 13
2914.844519742768
 23
1708.468087023496
 33
0.0
  0
MTEXT
  5
1C8CDE6AC36A
330
1C8CDE6ABB99
100
AcDbEntity
  8
SUNPOU
100
AcDbMText
 10
2848.358021914011
 20
1735.468087023496
 30
0.0
 40
30.0
 41
0.0
 71
     5
 72
     1
  1
\A1;%%C133
  7
EXT08
 73
     1
 44
1.0
1001
ACAD
1000
MTEXTBEGIN
1070
    73
1070
     1
1070
    44
1040
1.0
1070
    74
1070
     0
1000
MTEXTEND
  0
POINT
  5
1C8CDE6AC36B
330
1C8CDE6ABB99
100
AcDbEntity
  8
DEFPOINTS
 62
     0
100
AcDbPoint
 10
2781.871524085254
 20
1591.941093642492
 30
0.0
  0
POINT
  5
1C8CDE6AC36C
330
1C8CDE6ABB99
100
AcDbEntity
  8
DEFPOINTS
 62
     0
100
AcDbPoint
 10
2914.844519742768
 20
1593.836047023471
 30
0.0
  0
POINT
  5
1C8CDE6AC36D
330
1C8CDE6ABB99
100
AcDbEntity
  8
DEFPOINTS
 62
     0
100
AcDbPoint
 10
2914.844519742768
 20
1708.468087023496
 30
0.0
  0
ENDBLK
  5
1C8CDE6ABBA4
330
1C8CDE6ABB99
100
AcDbEntity
  8
0
100
AcDbBlockEnd
  0
BLOCK
  5
1C8CDE6ABBA6
330
1C8CDE6ABBA5
100
AcDbEntity
  8
0
100
AcDbBlockBegin
  2
*D9
 70
     1
 10
0.0
 20
0.0
 30
0.0
  3
*D9
  1

  0
LINE
  5
1C8CDE6AC35C
330
1C8CDE6ABBA5
100
AcDbEntity
  8
SUNPOU
370
    -2
100
AcDbLine
 10
2923.344519742768
 20
1535.336047023498
 30
0.0
 11
2923.344519742768
 21
1818.468087023495
 31
0.0
  0
LINE
  5
1C8CDE6AC35D
330
1C8CDE6ABBA5
100
AcDbEntity
  8
SUNPOU
370
    -2
100
AcDbLine
 10
2773.344519742768
 20
1535.336047023496
 30
0.0
 11
2773.344519742768
 21
1818.468087023495
 31
0.0
  0
LINE
  5
1C8CDE6AC35E
330
1C8CDE6ABBA5
100
AcDbEntity
  8
SUNPOU
370
    -2
100
AcDbLine
 10
2903.344519742768
 20
1808.468087023495
 30
0.0
 11
2793.344519742767
 21
1808.468087023495
 31
0.0
  0
SOLID
  5
1C8CDE6AC35F
330
1C8CDE6ABBA5
100
AcDbEntity
  8
SUNPOU
100
AcDbTrace
 10
2903.344519742768
 20
1811.801420356828
 30
0.0
 11
2903.344519742768
 21
1805.134753690162
 31
0.0
 12
2923.344519742768
 22
1808.468087023495
 32
0.0
 13
2923.344519742768
 23
1808.468087023495
 33
0.0
  0
SOLID
  5
1C8CDE6AC360
330
1C8CDE6ABBA5
100
AcDbEntity
  8
SUNPOU
100
AcDbTrace
 10
2793.344519742767
 20
1811.801420356828
 30
0.0
 11
2793.344519742767
 21
1805.134753690162
 31
0.0
 12
2773.344519742768
 22
1808.468087023495
 32
0.0
 13
2773.344519742768
 23
1808.468087023495
 33
0.0
  0
MTEXT
  5
1C8CDE6AC361
330
1C8CDE6ABBA5
100
AcDbEntity
  8
SUNPOU
100
AcDbMText
 10
2848.344519742767
 20
1835.468087023495
 30
0.0
 40
30.0
 41
0.0
 71
     5
 72
     1
  1
\A1;%%C150
  7
EXT08
 73
     1
 44
1.0
1001
ACAD
1000
MTEXTBEGIN
1070
    73
1070
     1
1070
    44
1040
1.0
1070
    74
1070
     0
1000
MTEXTEND
  0
POINT
  5
1C8CDE6AC362
330
1C8CDE6ABBA5
100
AcDbEntity
  8
DEFPOINTS
 62
     0
100
AcDbPoint
 10
2923.344519742768
 20
1525.336047023498
 30
0.0
  0
POINT
  5
1C8CDE6AC363
330
1C8CDE6ABBA5
100
AcDbEntity
  8
DEFPOINTS
 62
     0
100
AcDbPoint
 10
2773.344519742768
 20
1525.336047023496
 30
0.0
  0
POINT
  5
1C8CDE6AC364
330
1C8CDE6ABBA5
100
AcDbEntity
  8
DEFPOINTS
 62
     0
100
AcDbPoint
 10
2773.344519742768
 20
1808.468087023495
 30
0.0
  0
ENDBLK
  5
1C8CDE6ABBB0
330
1C8CDE6ABBA5
100
AcDbEntity
  8
0
100
AcDbBlockEnd
  0
BLOCK
  5
1C8CDE6AC2D4
330
1C8CDE6AC216
100
AcDbEntity
  8
0
100
AcDbBlockBegin
  2
*D10
 70
     1
 10
0.0
 20
0.0
 30
0.0
  3
*D10
  1

  0
LINE
  5
1C8CDE6AC3AE
330
1C8CDE6AC216
100
AcDbEntity
  8
SUNPOU
370
    -2
100
AcDbLine
 10
1205.251858666447
 20
1763.407711124524
 30
0.0
 11
1530.252729695829
 21
1763.407711124524
 31
0.0
  0
LINE
  5
1C8CDE6AC3AF
330
1C8CDE6AC216
100
AcDbEntity
  8
SUNPOU
370
    -2
100
AcDbLine
 10
1400.844751357401
 20
963.4077111245241
 30
0.0
 11
1530.252729695829
 21
963.4077111245241
 31
0.0
  0
LINE
  5
1C8CDE6AC3B0
330
1C8CDE6AC216
100
AcDbEntity
  8
SUNPOU
370
    -2
100
AcDbLine
 10
1520.252729695829
 20
1743.407711124524
 30
0.0
 11
1520.252729695829
 21
983.4077111245242
 31
0.0
  0
SOLID
  5
1C8CDE6AC3B1
330
1C8CDE6AC216
100
AcDbEntity
  8
SUNPOU
100
AcDbTrace
 10
1516.919396362496
 20
1743.407711124524
 30
0.0
 11
1523.586063029162
 21
1743.407711124524
 31
0.0
 12
1520.252729695829
 22
1763.407711124524
 32
0.0
 13
1520.252729695829
 23
1763.407711124524
 33
0.0
  0
SOLID
  5
1C8CDE6AC3B2
330
1C8CDE6AC216
100
AcDbEntity
  8
SUNPOU
100
AcDbTrace
 10
1516.919396362495
 20
983.4077111245242
 30
0.0
 11
1523.586063029162
 21
983.4077111245242
 31
0.0
 12
1520.252729695829
 22
963.4077111245241
 32
0.0
 13
1520.252729695829
 23
963.4077111245241
 33
0.0
  0
MTEXT
  5
1C8CDE6AC3B3
330
1C8CDE6AC216
100
AcDbEntity
  8
SUNPOU
100
AcDbMText
 10
1493.252729695828
 20
1363.407711124524
 30
0.0
 40
30.0
 41
0.0
 71
     5
 72
     1
  1
\A1;800
  7
EXT08
 11
0.0000000000000001
 21
1.0
 31
0.0
 73
     1
 44
1.0
1001
ACAD
1000
MTEXTBEGIN
1070
    73
1070
     1
1070
    44
1040
1.0
1070
    74
1070
     0
1000
MTEXTEND
  0
POINT
  5
1C8CDE6AC3B4
330
1C8CDE6AC216
100
AcDbEntity
  8
DEFPOINTS
 62
     0
100
AcDbPoint
 10
1195.251858666447
 20
1763.407711124524
 30
0.0
  0
POINT
  5
1C8CDE6AC3B5
330
1C8CDE6AC216
100
AcDbEntity
  8
DEFPOINTS
 62
     0
100
AcDbPoint
 10
1390.844751357401
 20
963.4077111245241
 30
0.0
  0
POINT
  5
1C8CDE6AC3B6
330
1C8CDE6AC216
100
AcDbEntity
  8
DEFPOINTS
 62
     0
100
AcDbPoint
 10
1520.252729695829
 20
963.4077111245241
 30
0.0
  0
ENDBLK
  5
1C8CDE6AC2DE
330
1C8CDE6AC216
100
AcDbEntity
  8
0
100
AcDbBlockEnd
  0
BLOCK
  5
1C8CDE6AC2C9
330
1C8CDE6AC223
100
AcDbEntity
  8
0
100
AcDbBlockBegin
  2
*D11
 70
     1
 10
0.0
 20
0.0
 30
0.0
  3
*D11
  1

  0
LINE
  5
1C8CDE6AC2CA
330
1C8CDE6AC223
100
AcDbEntity
  8
0
  6
ByBlock
100
AcDbLine
 10
1205.251858666447
 20
1763.407711124524
 30
0.0
 11
1605.252729695829
 21
1763.407711124524
 31
0.0
  0
LINE
  5
1C8CDE6AC2CB
330
1C8CDE6AC223
100
AcDbEntity
  8
0
  6
ByBlock
100
AcDbLine
 10
1405.251858666447
 20
563.4077111245241
 30
0.0
 11
1605.252729695829
 21
563.4077111245241
 31
0.0
  0
LINE
  5
1C8CDE6AC2CC
330
1C8CDE6AC223
100
AcDbEntity
  8
0
  6
ByBlock
100
AcDbLine
 10
1595.252729695828
 20
1743.407711124524
 30
0.0
 11
1595.252729695828
 21
583.4077111245242
 31
0.0
  0
SOLID
  5
1C8CDE6AC2CD
330
1C8CDE6AC223
100
AcDbEntity
  8
0
  6
ByBlock
100
AcDbTrace
 10
1591.919396362495
 20
1743.407711124524
 30
0.0
 11
1598.586063029162
 21
1743.407711124524
 31
0.0
 12
1595.252729695828
 22
1763.407711124524
 32
0.0
 13
1595.252729695828
 23
1763.407711124524
 33
0.0
  0
SOLID
  5
1C8CDE6AC2CE
330
1C8CDE6AC223
100
AcDbEntity
  8
0
  6
ByBlock
100
AcDbTrace
 10
1591.919396362495
 20
583.4077111245242
 30
0.0
 11
1598.586063029162
 21
583.4077111245242
 31
0.0
 12
1595.252729695828
 22
563.4077111245241
 32
0.0
 13
1595.252729695828
 23
563.4077111245241
 33
0.0
  0
MTEXT
  5
1C8CDE6AC2CF
330
1C8CDE6AC223
100
AcDbEntity
  8
0
  6
ByBlock
100
AcDbMText
 10
1568.252729695829
 20
1163.407711124524
 30
0.0
 40
30.0
 41
0.0
 71
     5
 72
     5
  1
\A1;1200
  7
EXT08
 11
0.0
 21
1.0
 31
0.0
 73
     1
 44
1.0
1001
ACAD
1000
MTEXTBEGIN
1070
    73
1070
     1
1070
    44
1040
1.0
1070
    74
1070
     0
1000
MTEXTEND
  0
POINT
  5
1C8CDE6AC2D0
330
1C8CDE6AC223
100
AcDbEntity
  8
DEFPOINTS
  6
ByBlock
 62
     0
100
AcDbPoint
 10
1195.251858666447
 20
1763.407711124524
 30
0.0
  0
POINT
  5
1C8CDE6AC2D1
330
1C8CDE6AC223
100
AcDbEntity
  8
DEFPOINTS
  6
ByBlock
 62
     0
100
AcDbPoint
 10
1395.251858666447
 20
563.4077111245241
 30
0.0
  0
POINT
  5
1C8CDE6AC2D2
330
1C8CDE6AC223
100
AcDbEntity
  8
DEFPOINTS
  6
ByBlock
 62
     0
100
AcDbPoint
 10
1595.252729695828
 20
563.4077111245241
 30
0.0
  0
ENDBLK
  5
1C8CDE6AC2D3
330
1C8CDE6AC223
100
AcDbEntity
  8
0
100
AcDbBlockEnd
  0
BLOCK
  5
1C8CDE6AC260
330
1C8CDE6AC230
100
AcDbEntity
  8
0
100
AcDbBlockBegin
  2
*D12
 70
     1
 10
0.0
 20
0.0
 30
0.0
  3
*D12
  1

  0
LINE
  5
1C8CDE6AC261
330
1C8CDE6AC230
100
AcDbEntity
  8
0
  6
ByBlock
100
AcDbLine
 10
1205.251858666447
 20
1863.407711124524
 30
0.0
 11
1455.252729695829
 21
1863.407711124524
 31
0.0
  0
LINE
  5
1C8CDE6AC262
330
1C8CDE6AC230
100
AcDbEntity
  8
0
  6
ByBlock
100
AcDbLine
 10
1261.951858666447
 20
1763.407711124524
 30
0.0
 11
1455.252729695829
 21
1763.407711124524
 31
0.0
  0
LINE
  5
1C8CDE6AC263
330
1C8CDE6AC230
100
AcDbEntity
  8
0
  6
ByBlock
100
AcDbLine
 10
1445.252729695829
 20
1843.407711124524
 30
0.0
 11
1445.252729695829
 21
1783.407711124525
 31
0.0
  0
MTEXT
  5
1C8CDE6AC264
330
1C8CDE6AC230
100
AcDbEntity
  8
0
  6
ByBlock
100
AcDbMText
 10
1413.030223278656
 20
1813.407711124524
 30
0.0
 40
30.0
 41
0.0
 71
     5
 72
     5
  1
\A1;100
  7
EXT08
 11
0.0
 21
1.0
 31
0.0
 73
     1
 44
1.0
1001
ACAD
1000
MTEXTBEGIN
1070
    73
1070
     1
1070
    44
1040
1.0
1070
    74
1070
     0
1000
MTEXTEND
  0
SOLID
  5
1C8CDE6AC265
330
1C8CDE6AC230
100
AcDbEntity
  8
0
  6
ByBlock
100
AcDbTrace
 10
1441.919396362496
 20
1843.407711124524
 30
0.0
 11
1448.586063029163
 21
1843.407711124524
 31
0.0
 12
1445.252729695829
 22
1863.407711124524
 32
0.0
 13
1445.252729695829
 23
1863.407711124524
 33
0.0
  0
SOLID
  5
1C8CDE6AC266
330
1C8CDE6AC230
100
AcDbEntity
  8
0
  6
ByBlock
100
AcDbTrace
 10
1441.919396362496
 20
1783.407711124525
 30
0.0
 11
1448.586063029163
 21
1783.407711124525
 31
0.0
 12
1445.252729695829
 22
1763.407711124524
 32
0.0
 13
1445.252729695829
 23
1763.407711124524
 33
0.0
  0
POINT
  5
1C8CDE6AC267
330
1C8CDE6AC230
100
AcDbEntity
  8
DEFPOINTS
  6
ByBlock
 62
     0
100
AcDbPoint
 10
1195.251858666447
 20
1863.407711124524
 30
0.0
  0
POINT
  5
1C8CDE6AC268
330
1C8CDE6AC230
100
AcDbEntity
  8
DEFPOINTS
  6
ByBlock
 62
     0
100
AcDbPoint
 10
1251.951858666447
 20
1763.407711124524
 30
0.0
  0
POINT
  5
1C8CDE6AC269
330
1C8CDE6AC230
100
AcDbEntity
  8
DEFPOINTS
  6
ByBlock
 62
     0
100
AcDbPoint
 10
1445.252729695829
 20
1763.407711124524
 30
0.0
  0
ENDBLK
  5
1C8CDE6AC26A
330
1C8CDE6AC230
100
AcDbEntity
  8
0
100
AcDbBlockEnd
  0
BLOCK
  5
1C8CDE6AC276
330
1C8CDE6AC23D
100
AcDbEntity
  8
0
100
AcDbBlockBegin
  2
*D13
 70
     1
 10
0.0
 20
0.0
 30
0.0
  3
*D13
  1

  0
LINE
  5
1C8CDE6AC277
330
1C8CDE6AC23D
100
AcDbEntity
  8
0
  6
ByBlock
100
AcDbLine
 10
1261.951858666447
 20
1763.407711124524
 30
0.0
 11
1455.252729695829
 21
1763.407711124524
 31
0.0
  0
LINE
  5
1C8CDE6AC278
330
1C8CDE6AC23D
100
AcDbEntity
  8
0
  6
ByBlock
100
AcDbLine
 10
1260.401858666446
 20
1643.411812739661
 30
0.0
 11
1455.252729695829
 21
1643.411812739661
 31
0.0
  0
LINE
  5
1C8CDE6AC279
330
1C8CDE6AC23D
100
AcDbEntity
  8
0
  6
ByBlock
100
AcDbLine
 10
1445.252729695829
 20
1743.407711124524
 30
0.0
 11
1445.252729695829
 21
1663.411812739661
 31
0.0
  0
MTEXT
  5
1C8CDE6AC27A
330
1C8CDE6AC23D
100
AcDbEntity
  8
0
  6
ByBlock
100
AcDbMText
 10
1413.030223278656
 20
1703.409761932093
 30
0.0
 40
30.0
 41
0.0
 71
     5
 72
     5
  1
\A1;120
  7
EXT08
 11
0.0
 21
1.0
 31
0.0
 73
     1
 44
1.0
1001
ACAD
1000
MTEXTBEGIN
1070
    73
1070
     1
1070
    44
1040
1.0
1070
    74
1070
     0
1000
MTEXTEND
  0
SOLID
  5
1C8CDE6AC27B
330
1C8CDE6AC23D
100
AcDbEntity
  8
0
  6
ByBlock
100
AcDbTrace
 10
1441.919396362496
 20
1743.407711124524
 30
0.0
 11
1448.586063029163
 21
1743.407711124524
 31
0.0
 12
1445.252729695829
 22
1763.407711124524
 32
0.0
 13
1445.252729695829
 23
1763.407711124524
 33
0.0
  0
SOLID
  5
1C8CDE6AC27C
330
1C8CDE6AC23D
100
AcDbEntity
  8
0
  6
ByBlock
100
AcDbTrace
 10
1441.919396362496
 20
1663.411812739661
 30
0.0
 11
1448.586063029163
 21
1663.411812739661
 31
0.0
 12
1445.252729695829
 22
1643.411812739661
 32
0.0
 13
1445.252729695829
 23
1643.411812739661
 33
0.0
  0
POINT
  5
1C8CDE6AC27D
330
1C8CDE6AC23D
100
AcDbEntity
  8
DEFPOINTS
  6
ByBlock
 62
     0
100
AcDbPoint
 10
1251.951858666447
 20
1763.407711124524
 30
0.0
  0
POINT
  5
1C8CDE6AC27E
330
1C8CDE6AC23D
100
AcDbEntity
  8
DEFPOINTS
  6
ByBlock
 62
     0
100
AcDbPoint
 10
1250.401858666446
 20
1643.411812739661
 30
0.0
  0
POINT
  5
1C8CDE6AC27F
330
1C8CDE6AC23D
100
AcDbEntity
  8
DEFPOINTS
  6
ByBlock
 62
     0
100
AcDbPoint
 10
1445.252729695829
 20
1643.411812739661
 30
0.0
  0
ENDBLK
  5
1C8CDE6AC280
330
1C8CDE6AC23D
100
AcDbEntity
  8
0
100
AcDbBlockEnd
  0
BLOCK
  5
1C8CDE6AC325
330
1C8CDE6AC319
100
AcDbEntity
  8
0
100
AcDbBlockBegin
  2
*D14
 70
     1
 10
0.0
 20
0.0
 30
0.0
  3
*D14
  1

  0
LINE
  5
1C8CDE6AC3DD
330
1C8CDE6AC319
100
AcDbEntity
  8
SUNPOU
370
    -2
100
AcDbLine
 10
3177.506384969392
 20
1125.336067023496
 30
0.0
 11
3264.506424969392
 21
1125.336067023496
 31
0.0
  0
LINE
  5
1C8CDE6AC3DE
330
1C8CDE6AC319
100
AcDbEntity
  8
SUNPOU
370
    -2
100
AcDbLine
 10
3166.906424969391
 20
1123.736067023497
 30
0.0
 11
3264.506424969392
 21
1123.736067023497
 31
0.0
  0
LINE
  5
1C8CDE6AC3DF
330
1C8CDE6AC319
100
AcDbEntity
  8
SUNPOU
370
    -2
100
AcDbLine
 10
3254.506424969392
 20
1145.336067023497
 30
0.0
 11
3254.506424969392
 21
1165.336067023496
 31
0.0
  0
LINE
  5
1C8CDE6AC3E0
330
1C8CDE6AC319
100
AcDbEntity
  8
SUNPOU
370
    -2
100
AcDbLine
 10
3254.506424969392
 20
1103.736067023496
 30
0.0
 11
3254.506424969392
 21
1083.736067023497
 31
0.0
  0
MTEXT
  5
1C8CDE6AC3E1
330
1C8CDE6AC319
100
AcDbEntity
  8
SUNPOU
100
AcDbMText
 10
3227.905633428716
 20
1075.389824084094
 30
0.0
 40
30.0
 41
0.0
 71
     5
 72
     1
  1
\A1;t1.6
  7
EXT08
 11
0.0000000000000001
 21
1.0
 31
0.0
 73
     1
 44
1.0
1001
ACAD
1000
MTEXTBEGIN
1070
    73
1070
     1
1070
    44
1040
1.0
1070
    74
1070
     0
1000
MTEXTEND
  0
LINE
  5
1C8CDE6AC3E2
330
1C8CDE6AC319
100
AcDbEntity
  8
SUNPOU
370
    -2
100
AcDbLine
 10
3254.506424969392
 20
1125.336067023496
 30
0.0
 11
3254.506424969392
 21
1123.736067023497
 31
0.0
  0
SOLID
  5
1C8CDE6AC3E3
330
1C8CDE6AC319
100
AcDbEntity
  8
SUNPOU
100
AcDbTrace
 10
3251.173091636058
 20
1145.336067023497
 30
0.0
 11
3257.839758302725
 21
1145.336067023497
 31
0.0
 12
3254.506424969392
 22
1125.336067023496
 32
0.0
 13
3254.506424969392
 23
1125.336067023496
 33
0.0
  0
SOLID
  5
1C8CDE6AC3E4
330
1C8CDE6AC319
100
AcDbEntity
  8
SUNPOU
100
AcDbTrace
 10
3251.173091636058
 20
1103.736067023496
 30
0.0
 11
3257.839758302725
 21
1103.736067023496
 31
0.0
 12
3254.506424969392
 22
1123.736067023497
 32
0.0
 13
3254.506424969392
 23
1123.736067023497
 33
0.0
  0
POINT
  5
1C8CDE6AC3E5
330
1C8CDE6AC319
100
AcDbEntity
  8
DEFPOINTS
 62
     0
100
AcDbPoint
 10
3167.506384969392
 20
1125.336067023496
 30
0.0
  0
POINT
  5
1C8CDE6AC3E6
330
1C8CDE6AC319
100
AcDbEntity
  8
DEFPOINTS
 62
     0
100
AcDbPoint
 10
3156.906424969391
 20
1123.736067023497
 30
0.0
  0
POINT
  5
1C8CDE6AC3E7
330
1C8CDE6AC319
100
AcDbEntity
  8
DEFPOINTS
 62
     0
100
AcDbPoint
 10
3254.506424969392
 20
1123.736067023497
 30
0.0
  0
ENDBLK
  5
1C8CDE6AC326
330
1C8CDE6AC319
100
AcDbEntity
  8
0
100
AcDbBlockEnd
  0
BLOCK
  5
1C8CDE6AC53D
330
1C8CDE6AC4F6
100
AcDbEntity
  8
0
100
AcDbBlockBegin
  2
CALCOMP_TECHJET720A3
 70
     0
 10
0.0
 20
0.0
 30
0.0
  3
CALCOMP_TECHJET720A3
  1

  0
LWPOLYLINE
  5
1C8CDE6AC53C
330
1C8CDE6AC4F6
100
AcDbEntity
  8
ZWAKU
100
AcDbPolyline
 90
        4
 70
     1
 43
0.0
 10
0.0
 20
0.0
 10
0.0
 20
267.0
 10
370.0
 20
267.0
 10
370.0
 20
0.0
  0
ENDBLK
  5
1C8CDE6AC53E
330
1C8CDE6AC4F6
100
AcDbEntity
  8
0
100
AcDbBlockEnd
  0
ENDSEC
  0
SECTION
  2
ENTITIES
  0
LINE
  5
1C8CDE6A8E60
330
1C8CDE699D53
100
AcDbEntity
  8
HATCH
100
AcDbLine
 10
1293.251858666447
 20
957.9251049796122
 30
0.0
 11
1298.734464811359
 21
963.4077111245241
 31
0.0
  0
LINE
  5
1C8CDE6A8E62
330
1C8CDE699D53
100
AcDbEntity
  8
HATCH
100
AcDbLine
 10
1255.851838666447
 20
898.4279980675323
 30
0.0
 11
1320.831551723439
 21
963.4077111245241
 31
0.0
  0
LINE
  5
1C8CDE6A8E63
330
1C8CDE699D53
100
AcDbEntity
  8
HATCH
100
AcDbLine
 10
1255.851838666447
 20
589.0687812984177
 30
0.0
 11
1345.251858666447
 21
678.468801298417
 31
0.0
  0
LINE
  5
1C8CDE6A8E64
330
1C8CDE699D53
100
AcDbEntity
  8
HATCH
100
AcDbLine
 10
1255.851838666447
 20
566.971694386338
 30
0.0
 11
1345.251858666447
 21
656.3717143863377
 31
0.0
  0
LINE
  5
1C8CDE6A8E65
330
1C8CDE699D53
100
AcDbEntity
  8
HATCH
100
AcDbLine
 10
1274.384942316713
 20
563.4077111245241
 30
0.0
 11
1345.251858666447
 21
634.274627474258
 31
0.0
  0
LINE
  5
1C8CDE6A8E66
330
1C8CDE699D53
100
AcDbEntity
  8
HATCH
100
AcDbLine
 10
1075.511160107996
 20
563.4077111245241
 30
0.0
 11
1134.651898666447
 21
622.548449682974
 31
0.0
  0
LINE
  5
1C8CDE6A8E67
330
1C8CDE699D53
100
AcDbEntity
  8
HATCH
100
AcDbLine
 10
1053.414073195917
 20
563.4077111245237
 30
0.0
 11
1134.651898666447
 21
644.6455365950535
 31
0.0
  0
LINE
  5
1C8CDE6A8E68
330
1C8CDE699D53
100
AcDbEntity
  8
HATCH
100
AcDbLine
 10
1255.851838666447
 20
721.651302770895
 30
0.0
 11
1263.075650931878
 21
728.875115036326
 31
0.0
  0
LINE
  5
1C8CDE6A8E69
330
1C8CDE699D53
100
AcDbEntity
  8
HATCH
100
AcDbLine
 10
1045.251858666447
 20
687.8280180675319
 30
0.0
 11
1095.251858666445
 21
737.8280180675301
 31
0.0
  0
LINE
  5
1C8CDE6A8E6A
330
1C8CDE699D53
100
AcDbEntity
  8
HATCH
100
AcDbLine
 10
1045.251858666447
 20
732.0221918916908
 30
0.0
 11
1134.651898666447
 21
821.4222318916906
 31
0.0
  0
LINE
  5
1C8CDE6A8E6B
330
1C8CDE699D53
100
AcDbEntity
  8
HATCH
100
AcDbLine
 10
1045.251858666447
 20
709.9251049796111
 30
0.0
 11
1134.651898666447
 21
799.3251449796111
 31
0.0
  0
LINE
  5
1C8CDE6A8E6C
330
1C8CDE699D53
100
AcDbEntity
  8
HATCH
100
AcDbLine
 10
1095.298955635241
 20
737.8751150363259
 30
0.0
 11
1134.651898666447
 21
777.2280580675316
 31
0.0
  0
LINE
  5
1C8CDE6A8E6D
330
1C8CDE699D53
100
AcDbEntity
  8
HATCH
100
AcDbLine
 10
1255.851838666447
 20
765.8454765950546
 30
0.0
 11
1345.251858666447
 21
855.2454965950541
 31
0.0
  0
LINE
  5
1C8CDE6A8E6E
330
1C8CDE699D53
100
AcDbEntity
  8
HATCH
100
AcDbLine
 10
1255.851838666447
 20
743.7483896829749
 30
0.0
 11
1345.251858666447
 21
833.1484096829745
 31
0.0
  0
LINE
  5
1C8CDE6A8E6F
330
1C8CDE699D53
100
AcDbEntity
  8
HATCH
100
AcDbLine
 10
1255.851838666447
 20
721.6513027708956
 30
0.0
 11
1345.251858666447
 21
811.0513227708947
 31
0.0
  0
LINE
  5
1C8CDE6A8E70
330
1C8CDE699D53
100
AcDbEntity
  8
HATCH
100
AcDbLine
 10
1045.251858666447
 20
908.7988871883281
 30
0.0
 11
1099.860682602643
 21
963.4077111245233
 31
0.0
  0
LINE
  5
1C8CDE6A8E71
330
1C8CDE699D53
100
AcDbEntity
  8
HATCH
100
AcDbLine
 10
1045.251858666447
 20
886.7018002762479
 30
0.0
 11
1120.251858666447
 21
961.7018002762479
 31
0.0
  0
LINE
  5
1C8CDE6A8E72
330
1C8CDE699D53
100
AcDbEntity
  8
HATCH
100
AcDbLine
 10
1045.251858666447
 20
864.6047133641687
 30
0.0
 11
1134.651898666447
 21
954.0047533641683
 31
0.0
  0
LINE
  5
1C8CDE6A8EB9
330
1C8CDE699D53
100
AcDbEntity
  8
SJC
100
AcDbLine
 10
1252.401257469166
 20
963.4077111245241
 30
0.0
 11
1390.844751357401
 21
963.4077111245241
 31
0.0
  0
LINE
  5
1C8CDE6A8ED0
330
1C8CDE699D53
100
AcDbEntity
  8
SJC
  6
Continuous
100
AcDbLine
 10
1045.251858666447
 20
963.4077111245241
 30
0.0
 11
1045.251858666447
 21
563.4077111245241
 31
0.0
  0
LINE
  5
1C8CDE6A8ED1
330
1C8CDE699D53
100
AcDbEntity
  8
SJC
  6
Continuous
100
AcDbLine
 10
1345.251858666447
 20
563.4077111245241
 30
0.0
 11
1345.251858666447
 21
963.4077111245241
 31
0.0
  0
LWPOLYLINE
  5
1C8CDE6A8ED2
330
1C8CDE699D53
100
AcDbEntity
  8
HATCH
  6
Continuous
100
AcDbPolyline
 90
       16
 70
     1
 43
0.0
 10
1336.465720043227
 20
513.812311124524
 42
0.138281
 10
1342.909795043227
 20
513.8962161245236
 42
0.107061
 10
1350.155258043228
 20
517.8652471245241
 42
0.08054
 10
1355.723449043226
 20
524.5353121245243
 42
0.068375
 10
1359.686169043226
 20
533.9516801245244
 42
0.068375
 10
1360.962537043227
 20
544.0878541245238
 42
0.08054
 10
1359.475375043227
 20
552.6483951245245
 42
0.107061
 10
1355.185135043227
 20
559.7084091245242
 42
0.138281
 10
1349.646355043226
 20
563.003110124524
 42
0.138281
 10
1343.202280043227
 20
562.9192051245245
 42
0.107061
 10
1335.956816043227
 20
558.9501741245239
 42
0.08054
 10
1330.388625043227
 20
552.2801091245237
 42
0.068375
 10
1326.425905043227
 20
542.8637411245236
 42
0.068375
 10
1325.149538043227
 20
532.7275671245242
 42
0.08054
 10
1326.636700043228
 20
524.1670261245235
 42
0.107061
 10
1330.926940043227
 20
517.1070131245232
 42
0.138281
  0
LINE
  5
1C8CDE6A8EE4
330
1C8CDE699D53
100
AcDbEntity
  8
SJC
  6
Continuous
100
AcDbLine
 10
1395.251858666447
 20
513.4077111245241
 30
0.0
 11
995.2518586664472
 21
513.4077111245241
 31
0.0
  0
LINE
  5
1C8CDE6A8EE5
330
1C8CDE699D53
100
AcDbEntity
  8
SJC
  6
Continuous
100
AcDbLine
 10
1395.251858666447
 20
563.4077111245241
 30
0.0
 11
995.2518586664472
 21
563.4077111245241
 31
0.0
  0
LWPOLYLINE
  5
1C8CDE6A8EE6
330
1C8CDE699D53
100
AcDbEntity
  8
HATCH
  6
Continuous
100
AcDbPolyline
 90
       16
 70
     1
 43
0.0
 10
1007.696841081927
 20
513.812311124524
 42
0.138281
 10
1014.140916081928
 20
513.8962161245236
 42
0.107061
 10
1021.386380081928
 20
517.8652471245241
 42
0.08054
 10
1026.954571081928
 20
524.5353121245243
 42
0.068375
 10
1030.917291081928
 20
533.9516801245244
 42
0.068375
 10
1032.193658081928
 20
544.0878541245238
 42
0.08054
 10
1030.706496081929
 20
552.6483951245245
 42
0.107061
 10
1026.416256081928
 20
559.7084091245242
 42
0.138281
 10
1020.877476081928
 20
563.003110124524
 42
0.138281
 10
1014.433401081928
 20
562.9192051245245
 42
0.107061
 10
1007.187938081929
 20
558.9501741245239
 42
0.08054
 10
1001.619747081927
 20
552.2801091245237
 42
0.068375
 10
997.6570270819275
 20
542.8637411245236
 42
0.068375
 10
996.3806590819286
 20
532.7275671245242
 42
0.08054
 10
997.867821081928
 20
524.1670261245235
 42
0.107061
 10
1002.158062081928
 20
517.1070131245232
 42
0.138281
  0
LINE
  5
1C8CDE6A8EF8
330
1C8CDE699D53
100
AcDbEntity
  8
SJC
  6
Continuous
100
AcDbLine
 10
995.2518586664472
 20
563.4077111245241
 30
0.0
 11
995.2518586664472
 21
513.4077111245241
 31
0.0
  0
LWPOLYLINE
  5
1C8CDE6A8EF9
330
1C8CDE699D53
100
AcDbEntity
  8
HATCH
  6
Continuous
100
AcDbPolyline
 90
       16
 70
     1
 43
0.0
 10
1042.774544081928
 20
513.812311124524
 42
0.138281
 10
1049.218619081929
 20
513.8962161245236
 42
0.107061
 10
1056.464083081929
 20
517.8652471245241
 42
0.08054
 10
1062.032273081927
 20
524.5353121245243
 42
0.068375
 10
1065.994994081927
 20
533.9516801245244
 42
0.068375
 10
1067.271361081929
 20
544.0878541245238
 42
0.08054
 10
1065.784199081928
 20
552.6483951245245
 42
0.107061
 10
1061.493959081927
 20
559.7084091245242
 42
0.138281
 10
1055.955179081927
 20
563.003110124524
 42
0.138281
 10
1049.511104081927
 20
562.9192051245245
 42
0.107061
 10
1042.265640081928
 20
558.9501741245239
 42
0.08054
 10
1036.697450081928
 20
552.2801091245237
 42
0.068375
 10
1032.734729081928
 20
542.8637411245236
 42
0.068375
 10
1031.458362081927
 20
532.7275671245242
 42
0.08054
 10
1032.945524081929
 20
524.1670261245235
 42
0.107061
 10
1037.235764081927
 20
517.1070131245232
 42
0.138281
  0
LWPOLYLINE
  5
1C8CDE6A8F0B
330
1C8CDE699D53
100
AcDbEntity
  8
HATCH
  6
Continuous
100
AcDbPolyline
 90
       16
 70
     1
 43
0.0
 10
1077.852247081929
 20
513.812311124524
 42
0.138281
 10
1084.296321081928
 20
513.8962161245236
 42
0.107061
 10
1091.541785081927
 20
517.8652471245241
 42
0.08054
 10
1097.109976081928
 20
524.5353121245243
 42
0.068375
 10
1101.072696081929
 20
533.9516801245244
 42
0.068375
 10
1102.349064081928
 20
544.0878541245238
 42
0.08054
 10
1100.861901081928
 20
552.6483951245245
 42
0.107061
 10
1096.571661081928
 20
559.7084091245242
 42
0.138281
 10
1091.032882081927
 20
563.003110124524
 42
0.138281
 10
1084.588807081928
 20
562.9192051245245
 42
0.107061
 10
1077.343343081929
 20
558.9501741245239
 42
0.08054
 10
1071.775152081928
 20
552.2801091245237
 42
0.068375
 10
1067.812432081929
 20
542.8637411245236
 42
0.068375
 10
1066.536064081928
 20
532.7275671245242
 42
0.08054
 10
1068.023227081928
 20
524.1670261245235
 42
0.107061
 10
1072.313467081928
 20
517.1070131245232
 42
0.138281
  0
LWPOLYLINE
  5
1C8CDE6A8F1D
330
1C8CDE699D53
100
AcDbEntity
  8
HATCH
  6
Continuous
100
AcDbPolyline
 90
       16
 70
     1
 43
0.0
 10
1371.543422043228
 20
513.812311124524
 42
0.138281
 10
1377.987497043227
 20
513.8962161245236
 42
0.107061
 10
1385.232961043227
 20
517.8652471245241
 42
0.08054
 10
1390.801152043227
 20
524.5353121245243
 42
0.068375
 10
1394.763872043227
 20
533.9516801245244
 42
0.068375
 10
1396.040239043227
 20
544.0878541245238
 42
0.08054
 10
1394.553077043226
 20
552.6483951245245
 42
0.107061
 10
1390.262837043227
 20
559.7084091245242
 42
0.138281
 10
1384.724057043227
 20
563.003110124524
 42
0.138281
 10
1378.279982043227
 20
562.9192051245245
 42
0.107061
 10
1371.034519043226
 20
558.9501741245239
 42
0.08054
 10
1365.466328043227
 20
552.2801091245237
 42
0.068375
 10
1361.503608043228
 20
542.8637411245236
 42
0.068375
 10
1360.227240043227
 20
532.7275671245242
 42
0.08054
 10
1361.714402043227
 20
524.1670261245235
 42
0.107061
 10
1366.004642043227
 20
517.1070131245232
 42
0.138281
  0
LINE
  5
1C8CDE6A8F2F
330
1C8CDE699D53
100
AcDbEntity
  8
SJC
  6
Continuous
100
AcDbLine
 10
1395.251858666447
 20
563.4077111245241
 30
0.0
 11
1395.251858666447
 21
513.4077111245241
 31
0.0
  0
LWPOLYLINE
  5
1C8CDE6A8F30
330
1C8CDE699D53
100
AcDbEntity
  8
HATCH
  6
Continuous
100
AcDbPolyline
 90
       16
 70
     1
 43
0.0
 10
1301.387720043227
 20
513.812311124524
 42
0.138281
 10
1307.831795043226
 20
513.8962161245236
 42
0.107061
 10
1315.077258043227
 20
517.8652471245241
 42
0.08054
 10
1320.645449043226
 20
524.5353121245243
 42
0.068375
 10
1324.608169043226
 20
533.9516801245244
 42
0.068375
 10
1325.884537043226
 20
544.0878541245238
 42
0.08054
 10
1324.397375043227
 20
552.6483951245245
 42
0.107061
 10
1320.107135043226
 20
559.7084091245242
 42
0.138281
 10
1314.568355043226
 20
563.003110124524
 42
0.138281
 10
1308.124280043226
 20
562.9192051245245
 42
0.107061
 10
1300.878816043227
 20
558.9501741245239
 42
0.08054
 10
1295.310625043226
 20
552.2801091245237
 42
0.068375
 10
1291.347905043227
 20
542.8637411245236
 42
0.068375
 10
1290.071538043227
 20
532.7275671245242
 42
0.08054
 10
1291.558700043228
 20
524.1670261245235
 42
0.107061
 10
1295.848940043226
 20
517.1070131245232
 42
0.138281
  0
TEXT
  5
1C8CDE6A8F42
330
1C8CDE699D53
100
AcDbEntity
  8
MOJI
100
AcDbText
 10
950.1547971502004
 20
974.0822821975161
 30
0.0
 40
30.0
  1
GL
 41
0.8
  7
EXT08
100
AcDbText
  0
LINE
  5
1C8CDE6A8F43
330
1C8CDE699D53
100
AcDbEntity
  8
HATCH
100
AcDbLine
 10
986.3394620625186
 20
948.4077111245232
 30
0.0
 11
1005.356760466957
 21
929.3904127200848
 31
0.0
  0
LINE
  5
1C8CDE6A8F44
330
1C8CDE699D53
100
AcDbEntity
  8
HATCH
100
AcDbLine
 10
1001.339462062518
 20
963.4077111245241
 30
0.0
 11
1035.356760466957
 21
929.3904127200848
 31
0.0
  0
LINE
  5
1C8CDE6A8F45
330
1C8CDE699D53
100
AcDbEntity
  8
HATCH
100
AcDbLine
 10
993.8394620625185
 20
955.9077111245233
 30
0.0
 11
1020.356760466957
 21
929.3904127200848
 31
0.0
  0
LINE
  5
1C8CDE6A8F46
330
1C8CDE699D53
100
AcDbEntity
  8
HATCH
100
AcDbLine
 10
1001.339462062518
 20
963.4077111245241
 30
0.0
 11
967.3221636580802
 21
929.3904127200848
 31
0.0
  0
LINE
  5
1C8CDE6A8F47
330
1C8CDE699D53
100
AcDbEntity
  8
HATCH
100
AcDbLine
 10
986.3394620625186
 20
963.4077111245241
 30
0.0
 11
952.3221636580801
 21
929.3904127200848
 31
0.0
  0
LINE
  5
1C8CDE6A8F48
330
1C8CDE699D53
100
AcDbEntity
  8
HATCH
100
AcDbLine
 10
971.3394620625185
 20
963.4077111245241
 30
0.0
 11
937.3221636580801
 21
929.3904127200848
 31
0.0
  0
LINE
  5
1C8CDE6A8F49
330
1C8CDE699D53
100
AcDbEntity
  8
SJC
100
AcDbLine
 10
915.4200305018866
 20
963.4077111245241
 30
0.0
 11
1138.100717804964
 21
963.4077111245241
 31
0.0
  0
LINE
  5
1C8CDE6A8FB9
330
1C8CDE699D53
100
AcDbEntity
  8
HATCH
100
AcDbLine
 10
1795.907894898606
 20
963.4077111245241
 30
0.0
 11
1761.890596494168
 21
929.3904127200848
 31
0.0
  0
LINE
  5
1C8CDE6A8FBA
330
1C8CDE699D53
100
AcDbEntity
  8
HATCH
100
AcDbLine
 10
1810.907894898606
 20
963.4077111245241
 30
0.0
 11
1776.890596494167
 21
929.3904127200848
 31
0.0
  0
LINE
  5
1C8CDE6A8FBB
330
1C8CDE699D53
100
AcDbEntity
  8
HATCH
100
AcDbLine
 10
1803.407894898606
 20
955.9077111245233
 30
0.0
 11
1829.925193303045
 21
929.3904127200848
 31
0.0
  0
LINE
  5
1C8CDE6A8FBC
330
1C8CDE699D53
100
AcDbEntity
  8
HATCH
100
AcDbLine
 10
1810.907894898606
 20
963.4077111245241
 30
0.0
 11
1844.925193303044
 21
929.3904127200848
 31
0.0
  0
LINE
  5
1C8CDE6A8FBD
330
1C8CDE699D53
100
AcDbEntity
  8
HATCH
100
AcDbLine
 10
1795.907894898606
 20
948.4077111245232
 30
0.0
 11
1814.925193303044
 21
929.3904127200848
 31
0.0
  0
TEXT
  5
1C8CDE6A8FBE
330
1C8CDE699D53
100
AcDbEntity
  8
MOJI
100
AcDbText
 10
1759.723229986288
 20
974.0822821975161
 30
0.0
 40
30.0
  1
GL
 41
0.8
  7
EXT08
100
AcDbText
  0
LWPOLYLINE
  5
1C8CDE6A8FC0
330
1C8CDE699D53
100
AcDbEntity
  8
HATCH
  6
Continuous
100
AcDbPolyline
 90
       16
 70
     1
 43
0.0
 10
2110.956152879315
 20
513.812311124524
 42
0.138281
 10
2117.400227879314
 20
513.8962161245236
 42
0.107061
 10
2124.645690879315
 20
517.8652471245241
 42
0.08054
 10
2130.213881879313
 20
524.5353121245243
 42
0.068375
 10
2134.176601879314
 20
533.9516801245244
 42
0.068375
 10
2135.452969879314
 20
544.0878541245238
 42
0.08054
 10
2133.965807879315
 20
552.6483951245245
 42
0.107061
 10
2129.675567879314
 20
559.7084091245242
 42
0.138281
 10
2124.136787879313
 20
563.003110124524
 42
0.138281
 10
2117.692712879314
 20
562.9192051245245
 42
0.107061
 10
2110.447248879315
 20
558.9501741245239
 42
0.08054
 10
2104.879057879314
 20
552.2801091245237
 42
0.068375
 10
2100.916337879315
 20
542.8637411245236
 42
0.068375
 10
2099.639970879314
 20
532.7275671245242
 42
0.08054
 10
2101.127132879315
 20
524.1670261245235
 42
0.107061
 10
2105.417372879314
 20
517.1070131245232
 42
0.138281
  0
LINE
  5
1C8CDE6A8FD2
330
1C8CDE699D53
100
AcDbEntity
  8
SJC
  6
Continuous
100
AcDbLine
 10
2204.820291502535
 20
563.4077111245241
 30
0.0
 11
2204.820291502535
 21
513.4077111245241
 31
0.0
  0
LWPOLYLINE
  5
1C8CDE6A8FD3
330
1C8CDE699D53
100
AcDbEntity
  8
HATCH
  6
Continuous
100
AcDbPolyline
 90
       16
 70
     1
 43
0.0
 10
2181.111854879316
 20
513.812311124524
 42
0.138281
 10
2187.555929879315
 20
513.8962161245236
 42
0.107061
 10
2194.801393879314
 20
517.8652471245241
 42
0.08054
 10
2200.369584879315
 20
524.5353121245243
 42
0.068375
 10
2204.332304879315
 20
533.9516801245244
 42
0.068375
 10
2205.608671879315
 20
544.0878541245238
 42
0.08054
 10
2204.121509879314
 20
552.6483951245245
 42
0.107061
 10
2199.831269879315
 20
559.7084091245242
 42
0.138281
 10
2194.292489879314
 20
563.003110124524
 42
0.138281
 10
2187.848414879315
 20
562.9192051245245
 42
0.107061
 10
2180.602951879314
 20
558.9501741245239
 42
0.08054
 10
2175.034760879316
 20
552.2801091245237
 42
0.068375
 10
2171.072040879316
 20
542.8637411245236
 42
0.068375
 10
2169.795672879315
 20
532.7275671245242
 42
0.08054
 10
2171.282834879315
 20
524.1670261245235
 42
0.107061
 10
2175.573074879315
 20
517.1070131245232
 42
0.138281
  0
LWPOLYLINE
  5
1C8CDE6A8FE5
330
1C8CDE699D53
100
AcDbEntity
  8
HATCH
  6
Continuous
100
AcDbPolyline
 90
       16
 70
     1
 43
0.0
 10
1887.420679918016
 20
513.812311124524
 42
0.138281
 10
1893.864753918015
 20
513.8962161245236
 42
0.107061
 10
1901.110217918015
 20
517.8652471245241
 42
0.08054
 10
1906.678408918016
 20
524.5353121245243
 42
0.068375
 10
1910.641128918017
 20
533.9516801245244
 42
0.068375
 10
1911.917496918016
 20
544.0878541245238
 42
0.08054
 10
1910.430333918016
 20
552.6483951245245
 42
0.107061
 10
1906.140093918016
 20
559.7084091245242
 42
0.138281
 10
1900.601314918015
 20
563.003110124524
 42
0.138281
 10
1894.157239918016
 20
562.9192051245245
 42
0.107061
 10
1886.911775918016
 20
558.9501741245239
 42
0.08054
 10
1881.343584918016
 20
552.2801091245237
 42
0.068375
 10
1877.380864918016
 20
542.8637411245236
 42
0.068375
 10
1876.104496918016
 20
532.7275671245242
 42
0.08054
 10
1877.591659918016
 20
524.1670261245235
 42
0.107061
 10
1881.881899918016
 20
517.1070131245232
 42
0.138281
  0
LWPOLYLINE
  5
1C8CDE6A8FF7
330
1C8CDE699D53
100
AcDbEntity
  8
HATCH
  6
Continuous
100
AcDbPolyline
 90
       16
 70
     1
 43
0.0
 10
1852.342976918016
 20
513.812311124524
 42
0.138281
 10
1858.787051918017
 20
513.8962161245236
 42
0.107061
 10
1866.032515918016
 20
517.8652471245241
 42
0.08054
 10
1871.600705918014
 20
524.5353121245243
 42
0.068375
 10
1875.563426918014
 20
533.9516801245244
 42
0.068375
 10
1876.839793918017
 20
544.0878541245238
 42
0.08054
 10
1875.352631918016
 20
552.6483951245245
 42
0.107061
 10
1871.062391918015
 20
559.7084091245242
 42
0.138281
 10
1865.523611918014
 20
563.003110124524
 42
0.138281
 10
1859.079536918015
 20
562.9192051245245
 42
0.107061
 10
1851.834072918015
 20
558.9501741245239
 42
0.08054
 10
1846.265882918015
 20
552.2801091245237
 42
0.068375
 10
1842.303161918016
 20
542.8637411245236
 42
0.068375
 10
1841.026794918015
 20
532.7275671245242
 42
0.08054
 10
1842.513956918016
 20
524.1670261245235
 42
0.107061
 10
1846.804196918015
 20
517.1070131245232
 42
0.138281
  0
LINE
  5
1C8CDE6A9009
330
1C8CDE699D53
100
AcDbEntity
  8
SJC
  6
Continuous
100
AcDbLine
 10
1804.820291502535
 20
563.4077111245241
 30
0.0
 11
1804.820291502535
 21
513.4077111245241
 31
0.0
  0
LWPOLYLINE
  5
1C8CDE6A900A
330
1C8CDE699D53
100
AcDbEntity
  8
HATCH
  6
Continuous
100
AcDbPolyline
 90
       16
 70
     1
 43
0.0
 10
1817.265273918015
 20
513.812311124524
 42
0.138281
 10
1823.709348918016
 20
513.8962161245236
 42
0.107061
 10
1830.954812918015
 20
517.8652471245241
 42
0.08054
 10
1836.523003918016
 20
524.5353121245243
 42
0.068375
 10
1840.485723918015
 20
533.9516801245244
 42
0.068375
 10
1841.762090918016
 20
544.0878541245238
 42
0.08054
 10
1840.274928918016
 20
552.6483951245245
 42
0.107061
 10
1835.984688918016
 20
559.7084091245242
 42
0.138281
 10
1830.445908918015
 20
563.003110124524
 42
0.138281
 10
1824.001833918016
 20
562.9192051245245
 42
0.107061
 10
1816.756370918017
 20
558.9501741245239
 42
0.08054
 10
1811.188179918014
 20
552.2801091245237
 42
0.068375
 10
1807.225459918015
 20
542.8637411245236
 42
0.068375
 10
1805.949091918016
 20
532.7275671245242
 42
0.08054
 10
1807.436253918016
 20
524.1670261245235
 42
0.107061
 10
1811.726494918016
 20
517.1070131245232
 42
0.138281
  0
LINE
  5
1C8CDE6A901C
330
1C8CDE699D53
100
AcDbEntity
  8
SJC
  6
Continuous
100
AcDbLine
 10
2204.820291502535
 20
563.4077111245241
 30
0.0
 11
1804.820291502535
 21
563.4077111245241
 31
0.0
  0
LINE
  5
1C8CDE6A901D
330
1C8CDE699D53
100
AcDbEntity
  8
SJC
  6
Continuous
100
AcDbLine
 10
2204.820291502535
 20
513.4077111245241
 30
0.0
 11
1804.820291502535
 21
513.4077111245241
 31
0.0
  0
LWPOLYLINE
  5
1C8CDE6A901E
330
1C8CDE699D53
100
AcDbEntity
  8
HATCH
  6
Continuous
100
AcDbPolyline
 90
       16
 70
     1
 43
0.0
 10
2146.034152879315
 20
513.812311124524
 42
0.138281
 10
2152.478227879315
 20
513.8962161245236
 42
0.107061
 10
2159.723690879316
 20
517.8652471245241
 42
0.08054
 10
2165.291881879314
 20
524.5353121245243
 42
0.068375
 10
2169.254601879314
 20
533.9516801245244
 42
0.068375
 10
2170.530969879314
 20
544.0878541245238
 42
0.08054
 10
2169.043807879315
 20
552.6483951245245
 42
0.107061
 10
2164.753567879315
 20
559.7084091245242
 42
0.138281
 10
2159.214787879314
 20
563.003110124524
 42
0.138281
 10
2152.770712879314
 20
562.9192051245245
 42
0.107061
 10
2145.525248879315
 20
558.9501741245239
 42
0.08054
 10
2139.957057879315
 20
552.2801091245237
 42
0.068375
 10
2135.994337879315
 20
542.8637411245236
 42
0.068375
 10
2134.717970879314
 20
532.7275671245242
 42
0.08054
 10
2136.205132879316
 20
524.1670261245235
 42
0.107061
 10
2140.495372879314
 20
517.1070131245232
 42
0.138281
  0
LINE
  5
1C8CDE6A9030
330
1C8CDE699D53
100
AcDbEntity
  8
SJC
  6
Continuous
100
AcDbLine
 10
2154.820291502535
 20
563.4077111245241
 30
0.0
 11
2154.820291502535
 21
963.4077111245241
 31
0.0
  0
LINE
  5
1C8CDE6A9031
330
1C8CDE699D53
100
AcDbEntity
  8
SJC
  6
Continuous
100
AcDbLine
 10
1854.820291502535
 20
963.4077111245241
 30
0.0
 11
1854.820291502535
 21
563.4077111245241
 31
0.0
  0
LINE
  5
1C8CDE6A9032
330
1C8CDE699D53
100
AcDbEntity
  8
SJC
100
AcDbLine
 10
2061.969690305254
 20
963.4077111245241
 30
0.0
 11
2289.941097870111
 21
963.4077111245241
 31
0.0
  0
LINE
  5
1C8CDE6A9036
330
1C8CDE699D53
100
AcDbEntity
  8
HATCH
100
AcDbLine
 10
1780.907894898606
 20
963.4077111245241
 30
0.0
 11
1746.890596494168
 21
929.3904127200848
 31
0.0
  0
LINE
  5
1C8CDE6A9037
330
1C8CDE699D53
100
AcDbEntity
  8
SJC
100
AcDbLine
 10
1724.988463337974
 20
963.4077111245241
 30
0.0
 11
1947.669150641052
 21
963.4077111245241
 31
0.0
  0
LINE
  5
1C8CDE6A929E
330
1C8CDE699D53
100
AcDbEntity
  8
HATCH
100
AcDbLine
 10
2065.420271502535
 20
721.6513027708957
 30
0.0
 11
2154.820291502535
 21
811.0513227708947
 31
0.0
  0
LINE
  5
1C8CDE6A929F
330
1C8CDE699D53
100
AcDbEntity
  8
HATCH
100
AcDbLine
 10
2065.420271502535
 20
589.068781298418
 30
0.0
 11
2154.820291502535
 21
678.468801298417
 31
0.0
  0
LINE
  5
1C8CDE6A92A0
330
1C8CDE699D53
100
AcDbEntity
  8
HATCH
100
AcDbLine
 10
2065.420271502535
 20
566.9716943863378
 30
0.0
 11
2154.820291502535
 21
656.3717143863377
 31
0.0
  0
LINE
  5
1C8CDE6A92A1
330
1C8CDE699D53
100
AcDbEntity
  8
HATCH
100
AcDbLine
 10
2083.9533751528
 20
563.4077111245241
 30
0.0
 11
2154.820291502535
 21
634.274627474258
 31
0.0
  0
LINE
  5
1C8CDE6A92A2
330
1C8CDE699D53
100
AcDbEntity
  8
HATCH
100
AcDbLine
 10
1862.982506032004
 20
563.4077111245237
 30
0.0
 11
1944.220331502534
 21
644.6455365950537
 31
0.0
  0
LINE
  5
1C8CDE6A92A3
330
1C8CDE699D53
100
AcDbEntity
  8
HATCH
100
AcDbLine
 10
1885.079592944084
 20
563.4077111245241
 30
0.0
 11
1944.220331502534
 21
622.5484496829742
 31
0.0
  0
LINE
  5
1C8CDE6A92A4
330
1C8CDE699D53
100
AcDbEntity
  8
HATCH
100
AcDbLine
 10
1854.820291502535
 20
864.6047133641687
 30
0.0
 11
1944.220331502535
 21
954.0047533641688
 31
0.0
  0
LINE
  5
1C8CDE6A92A5
330
1C8CDE699D53
100
AcDbEntity
  8
HATCH
100
AcDbLine
 10
1854.820291502535
 20
886.7018002762479
 30
0.0
 11
1929.820291502535
 21
961.7018002762479
 31
0.0
  0
LINE
  5
1C8CDE6A92A6
330
1C8CDE699D53
100
AcDbEntity
  8
HATCH
100
AcDbLine
 10
1854.820291502535
 20
908.7988871883281
 30
0.0
 11
1909.429115438731
 21
963.4077111245233
 31
0.0
  0
LINE
  5
1C8CDE6A92A7
330
1C8CDE699D53
100
AcDbEntity
  8
HATCH
100
AcDbLine
 10
2065.420271502535
 20
743.7483896829746
 30
0.0
 11
2154.820291502535
 21
833.1484096829745
 31
0.0
  0
LINE
  5
1C8CDE6A92A8
330
1C8CDE699D53
100
AcDbEntity
  8
HATCH
100
AcDbLine
 10
2065.420271502535
 20
765.8454765950541
 30
0.0
 11
2154.820291502535
 21
855.2454965950541
 31
0.0
  0
LINE
  5
1C8CDE6A92A9
330
1C8CDE699D53
100
AcDbEntity
  8
HATCH
100
AcDbLine
 10
1904.867388471329
 20
737.8751150363259
 30
0.0
 11
1944.220331502535
 21
777.2280580675316
 31
0.0
  0
LINE
  5
1C8CDE6A92AA
330
1C8CDE699D53
100
AcDbEntity
  8
HATCH
100
AcDbLine
 10
1854.820291502535
 20
709.9251049796111
 30
0.0
 11
1944.220331502535
 21
799.3251449796114
 31
0.0
  0
LINE
  5
1C8CDE6A92AB
330
1C8CDE699D53
100
AcDbEntity
  8
HATCH
100
AcDbLine
 10
1854.820291502535
 20
732.0221918916908
 30
0.0
 11
1944.220331502535
 21
821.4222318916906
 31
0.0
  0
LINE
  5
1C8CDE6A92AC
330
1C8CDE699D53
100
AcDbEntity
  8
HATCH
100
AcDbLine
 10
1854.820291502535
 20
687.8280180675319
 30
0.0
 11
1904.820291502533
 21
737.8280180675301
 31
0.0
  0
LINE
  5
1C8CDE6A92AD
330
1C8CDE699D53
100
AcDbEntity
  8
HATCH
100
AcDbLine
 10
2065.420271502535
 20
721.6513027708953
 30
0.0
 11
2072.644083767966
 21
728.875115036326
 31
0.0
  0
LINE
  5
1C8CDE6A92AE
330
1C8CDE699D53
100
AcDbEntity
  8
HATCH
100
AcDbLine
 10
2065.420271502535
 20
898.4279980675323
 30
0.0
 11
2130.399984559527
 21
963.4077111245241
 31
0.0
  0
LINE
  5
1C8CDE6A92AF
330
1C8CDE699D53
100
AcDbEntity
  8
HATCH
100
AcDbLine
 10
2065.420271502535
 20
942.6221718916913
 30
0.0
 11
2086.205810735367
 21
963.4077111245233
 31
0.0
  0
LINE
  5
1C8CDE6A92B0
330
1C8CDE699D53
100
AcDbEntity
  8
HATCH
100
AcDbLine
 10
2065.420271502535
 20
920.5250849796122
 30
0.0
 11
2108.302897647447
 21
963.4077111245241
 31
0.0
  0
DIMENSION
  5
1C8CDE6A990B
330
1C8CDE699D53
100
AcDbEntity
  8
SUNPOU
100
AcDbDimension
  2
*D1
 10
1395.251858666447
 20
263.4077111245245
 30
0.0
 11
1195.251858666447
 21
290.4077111245245
 31
0.0
 12
-4418.866450124675
 22
-493.1421407362827
 32
0.0
 70
    32
  1
□<>
 71
     5
 42
-1.0
  3
SJC
100
AcDbAlignedDimension
 13
995.2518586664472
 23
513.4077111245244
 33
0.0
 14
1395.251858666447
 24
513.4077111245244
 34
0.0
100
AcDbRotatedDimension
1001
ACAD
1000
DSTYLE
1002
{
1070
   340
1005
1C8CDE699DA6
1070
   140
1040
3.0
1070
    40
1040
10.0
1070
   147
1040
1.199999999999999
1070
    42
1040
1.0
1070
    44
1040
1.0
1070
    43
1040
6.0
1070
   271
1070
     4
1070
    41
1040
2.0
1002
}
  0
DIMENSION
  5
1C8CDE6A990C
330
1C8CDE699D53
100
AcDbEntity
  8
SUNPOU
100
AcDbDimension
  2
*D0
 10
1345.251858666447
 20
363.4077111245245
 30
0.0
 11
1195.251858666447
 21
390.4077111245245
 31
0.0
 12
-4418.866450124675
 22
-493.1421407362827
 32
0.0
 70
    32
  1
□300
 71
     5
 42
-1.0
  3
SJC
100
AcDbAlignedDimension
 13
1045.251858666447
 23
513.407711124524
 33
0.0
 14
1345.251858666447
 24
513.407711124524
 34
0.0
100
AcDbRotatedDimension
1001
ACAD
1000
DSTYLE
1002
{
1070
   340
1005
1C8CDE699DA6
1070
   140
1040
3.0
1070
    40
1040
10.0
1070
   147
1040
1.199999999999999
1070
    42
1040
1.0
1070
    44
1040
1.0
1070
    43
1040
6.0
1070
   271
1070
     4
1070
    41
1040
2.0
1002
}
  0
LINE
  5
1C8CDE6A990E
330
1C8CDE699D53
100
AcDbEntity
  8
CENTER
100
AcDbLine
 10
1195.250987637066
 20
1887.71573275961
 30
0.0
 11
1195.250987637066
 21
2143.743438016139
 31
0.0
  0
LINE
  5
1C8CDE6A9910
330
1C8CDE699D53
100
AcDbEntity
  8
CENTER
100
AcDbLine
 10
1067.237135008801
 20
2015.729585387875
 30
0.0
 11
1323.26484026533
 21
2015.729585387875
 31
0.0
  0
POINT
  5
1C8CDE6A991A
330
1C8CDE699D53
100
AcDbEntity
  8
DEFPOINTS
  6
ByBlock
 62
     0
100
AcDbPoint
 10
1195.250987637066
 20
2015.729585387875
 30
0.0
  0
LINE
  5
1C8CDE6AA71B
102
{ACAD_REACTORS
330
1C8CDE6AC39E
102
}
330
1C8CDE699D53
100
AcDbEntity
  8
CENTER
100
AcDbLine
 10
1195.251858666447
 20
468.2457429969481
 30
0.0
 11
1195.251858666447
 21
1816.610861205601
 31
0.0
  0
TEXT
  5
1C8CDE6AA808
330
1C8CDE699D53
100
AcDbEntity
  8
MOJI2
  6
Continuous
100
AcDbText
 10
998.6795679329269
 20
2340.834209955682
 30
0.0
 40
40.0
  1
CK-114HR-80D
 41
0.8
  7
KANJI
 72
     1
 11
1195.250996504355
 21
2340.834209955682
 31
0.0
100
AcDbText
  0
LINE
  5
1C8CDE6AA809
330
1C8CDE699D53
100
AcDbEntity
  8
MOJI2
100
AcDbLine
 10
1000.250987637066
 20
2329.121390402812
 30
0.0
 11
1390.250987637066
 21
2329.121390402812
 31
0.0
  0
LINE
  5
1C8CDE6AA80A
330
1C8CDE699D53
100
AcDbEntity
  8
MOJI2
100
AcDbLine
 10
1000.250987637066
 20
2319.121390402813
 30
0.0
 11
1390.250987637066
 21
2319.121390402813
 31
0.0
  0
LINE
  5
1C8CDE6AA89A
102
{ACAD_REACTORS
330
1C8CDE6AC3AD
102
}
330
1C8CDE699D53
100
AcDbEntity
  8
CENTER
100
AcDbLine
 10
2004.819690305254
 20
1816.610861205601
 30
0.0
 11
2004.819690305254
 21
468.3591450614808
 31
0.0
  0
LINE
  5
1C8CDE6AB2BD
330
1C8CDE699D53
100
AcDbEntity
  8
MOJI
  6
Continuous
100
AcDbLine
 10
747.7023157266253
 20
1298.62423718083
 30
0.0
 11
1043.643342443588
 21
1298.62423718083
 31
0.0
  0
TEXT
  5
1C8CDE6AB2BE
330
1C8CDE699D53
100
AcDbEntity
  8
MOJI
100
AcDbText
 10
754.4177581366944
 20
1310.066719180678
 30
0.0
 40
30.0
  1
支柱%%C114.3\U+00D7t4.5
 41
0.8
  7
EXT08
100
AcDbText
  0
DIMENSION
  5
1C8CDE6AB795
330
1C8CDE699D53
100
AcDbEntity
  8
SUNPOU
100
AcDbDimension
  2
*D4
 10
1520.252729695829
 20
563.407702183824
 30
0.0
 11
1493.252729695828
 21
763.4077066541744
 31
0.0
 70
    32
 71
     5
 42
400.0000089407
  3
SJC
100
AcDbAlignedDimension
 13
1390.844751357401
 23
963.4077111245241
 33
0.0
 14
1392.751861180948
 24
563.407702183824
 34
0.0
 50
90.0
100
AcDbRotatedDimension
1001
ACAD
1000
DSTYLE
1002
{
1070
   340
1005
1C8CDE699DA6
1070
   140
1040
3.0
1070
    40
1040
10.0
1070
   147
1040
1.199999999999999
1070
    42
1040
1.0
1070
    44
1040
1.0
1070
    43
1040
6.0
1070
   271
1070
     4
1070
    41
1040
2.0
1002
}
  0
DIMENSION
  5
1C8CDE6AB796
330
1C8CDE699D53
100
AcDbEntity
  8
SUNPOU
100
AcDbDimension
  2
*D2
 10
1595.252729695828
 20
513.407711124524
 30
0.0
 11
1567.602563353088
 21
540.6947962026138
 31
0.0
 70
   160
 71
     5
 42
-1.0
  3
SJC
100
AcDbAlignedDimension
 13
1402.751861180948
 23
563.407702183824
 33
0.0
 14
1395.250987637066
 24
513.407711124524
 34
0.0
 50
270.0
100
AcDbRotatedDimension
1001
ACAD
1000
DSTYLE
1002
{
1070
   340
1005
1C8CDE699DA6
1070
   140
1040
3.0
1070
    40
1040
10.0
1070
   147
1040
1.199999999999999
1070
    42
1040
1.0
1070
    44
1040
1.0
1070
    43
1040
6.0
1070
   271
1070
     4
1070
    41
1040
2.0
1002
}
  0
DIMENSION
  5
1C8CDE6AB797
330
1C8CDE699D53
100
AcDbEntity
  8
SUNPOU
100
AcDbDimension
  2
*D3
 10
1445.252729695829
 20
963.4077111245241
 30
0.0
 11
1422.209695338514
 21
1013.407711124524
 31
0.0
 70
   160
 71
     5
 42
99.99999999999943
  3
SJC
100
AcDbAlignedDimension
 13
1274.037696236502
 23
1063.407711124524
 33
0.0
 14
1390.844751357401
 24
963.4077111245241
 34
0.0
 50
90.0
100
AcDbRotatedDimension
1001
ACAD
1000
DSTYLE
1002
{
1070
    40
1040
10.0
1070
    41
1040
2.0
1070
    42
1040
1.0
1070
    43
1040
6.0
1070
    44
1040
1.0
1070
    77
1070
     0
1070
   140
1040
3.0
1070
   145
1040
1.0
1070
   147
1040
0.0
1070
   271
1070
     2
1070
   340
1005
1C8CDE699DA6
1002
}
  0
LINE
  5
1C8CDE6AB798
330
1C8CDE699D53
100
AcDbEntity
  8
SJC
100
AcDbLine
 10
1252.402128498547
 20
963.4077111245241
 30
0.0
 11
1390.845622386782
 21
963.4077111245241
 31
0.0
  0
LINE
  5
1C8CDE6AB799
330
1C8CDE699D53
100
AcDbEntity
  8
MOJI
100
AcDbLine
 10
1023.323713036443
 20
1121.760784786368
 30
0.0
 11
727.6890901439911
 21
1121.760784786368
 31
0.0
  0
TEXT
  5
1C8CDE6AB79A
330
1C8CDE699D53
100
AcDbEntity
  8
MOJI
100
AcDbText
 10
735.5285762879068
 20
1131.760784786369
 30
0.0
 40
30.0
  1
ロックピン（南京錠付）
 41
0.8
  7
EXT08
 72
     2
 11
1029.128576287907
 21
1146.760784786369
 31
0.0
100
AcDbText
 73
     2
  0
TEXT
  5
1C8CDE6AB79B
330
1C8CDE699D53
100
AcDbEntity
  8
MOJI
100
AcDbText
 10
778.3117078597538
 20
1083.949118657387
 30
0.0
 40
30.0
  1
（%%C14貫通穴）
 41
0.8
  7
EXT08
 72
     2
 11
966.5402792883252
 21
1098.949118657387
 31
0.0
100
AcDbText
 73
     2
  0
LINE
  5
1C8CDE6AB79C
330
1C8CDE699D53
100
AcDbEntity
  8
MOJI
100
AcDbLine
 10
1043.323713036443
 20
1121.760784786368
 30
0.0
 11
1023.323713036443
 21
1121.760784786368
 31
0.0
  0
LINE
  5
1C8CDE6AB7A1
330
1C8CDE699D53
100
AcDbEntity
  8
SJC2
100
AcDbLine
 10
1131.488521978805
 20
1045.75085040039
 30
0.0
 11
1131.488521978805
 21
1062.41636340039
 31
0.0
  0
LINE
  5
1C8CDE6AB7A2
330
1C8CDE699D53
100
AcDbEntity
  8
SJC2
100
AcDbLine
 10
1134.488521978805
 20
1045.75085040039
 30
0.0
 11
1134.488521978805
 21
1062.41636340039
 31
0.0
  0
CIRCLE
  5
1C8CDE6AB7A3
330
1C8CDE699D53
100
AcDbEntity
  8
SJC2
100
AcDbCircle
 10
1133.037696236502
 20
1063.407711124524
 30
0.0
 40
4.0
  0
LINE
  5
1C8CDE6AB7A4
330
1C8CDE699D53
100
AcDbEntity
  8
SJC2
100
AcDbLine
 10
1126.037696236502
 20
1057.407711124524
 30
0.0
 11
1126.037696236502
 21
1069.407711124524
 31
0.0
  0
LINE
  5
1C8CDE6AB7A5
330
1C8CDE699D53
100
AcDbEntity
  8
SJC2
100
AcDbLine
 10
1126.037696236502
 20
1057.407711124524
 30
0.0
 11
1137.091223404794
 21
1057.407711124524
 31
0.0
  0
LINE
  5
1C8CDE6AB7A6
330
1C8CDE699D53
100
AcDbEntity
  8
SJC2
100
AcDbLine
 10
1135.488521978805
 20
1045.75085040039
 30
0.0
 11
1130.488521978805
 21
1045.75085040039
 31
0.0
  0
LINE
  5
1C8CDE6AB7A7
330
1C8CDE699D53
100
AcDbEntity
  8
HASEN
100
AcDbLine
 10
1138.101588834346
 20
1057.407711124524
 30
0.0
 11
1137.091223404794
 21
1057.407711124524
 31
0.0
  0
LINE
  5
1C8CDE6AB7A8
330
1C8CDE699D53
100
AcDbEntity
  8
SJC2
100
AcDbLine
 10
1130.488521978805
 20
1020.75085040039
 30
0.0
 11
1135.488521978805
 21
1020.75085040039
 31
0.0
  0
LINE
  5
1C8CDE6AB7A9
330
1C8CDE699D53
100
AcDbEntity
  8
SJC2
100
AcDbLine
 10
1135.488521978805
 20
1020.75085040039
 30
0.0
 11
1135.488521978805
 21
1045.75085040039
 31
0.0
  0
LINE
  5
1C8CDE6AB7AA
330
1C8CDE699D53
100
AcDbEntity
  8
SJC2
100
AcDbLine
 10
1130.488521978805
 20
1020.75085040039
 30
0.0
 11
1130.488521978805
 21
1045.75085040039
 31
0.0
  0
LINE
  5
1C8CDE6AB7AB
330
1C8CDE699D53
100
AcDbEntity
  8
SJC2
100
AcDbLine
 10
1126.037696236502
 20
1069.407711124524
 30
0.0
 11
1137.091223404794
 21
1069.407711124524
 31
0.0
  0
ARC
  5
1C8CDE6AB7AC
330
1C8CDE699D53
100
AcDbEntity
  8
SJC2
100
AcDbCircle
 10
1132.988521978805
 20
1062.24058640039
 30
0.0
 40
1.510264
100
AcDbArc
 50
6.683733
 51
173.316267
  0
LINE
  5
1C8CDE6AB7AD
330
1C8CDE699D53
100
AcDbEntity
  8
HASEN
100
AcDbLine
 10
1137.091223404794
 20
1069.407711124524
 30
0.0
 11
1138.101588834346
 21
1069.407711124524
 31
0.0
  0
LINE
  5
1C8CDE6AB7AE
330
1C8CDE699D53
100
AcDbEntity
  8
HASEN
100
AcDbLine
 10
1252.40212849855
 20
1057.407711124524
 30
0.0
 11
1138.101588834346
 21
1057.407711124524
 31
0.0
  0
LINE
  5
1C8CDE6AB7AF
330
1C8CDE699D53
100
AcDbEntity
  8
HASEN
100
AcDbLine
 10
1252.40212849855
 20
1069.407711124524
 30
0.0
 11
1138.101588834346
 21
1069.407711124524
 31
0.0
  0
LINE
  5
1C8CDE6AB7B0
330
1C8CDE699D53
100
AcDbEntity
  8
SJC2
100
AcDbLine
 10
1274.037696236502
 20
1054.157711124523
 30
0.0
 11
1274.037696236502
 21
1072.657711124524
 31
0.0
  0
LINE
  5
1C8CDE6AB7B1
330
1C8CDE699D53
100
AcDbEntity
  8
SJC2
100
AcDbLine
 10
1272.537696236502
 20
1052.157711124524
 30
0.0
 11
1272.537696236502
 21
1074.657711124524
 31
0.0
  0
LINE
  5
1C8CDE6AB7B2
330
1C8CDE699D53
100
AcDbEntity
  8
SJC2
100
AcDbLine
 10
1266.037696236502
 20
1052.157711124524
 30
0.0
 11
1266.037696236502
 21
1074.657711124524
 31
0.0
  0
LINE
  5
1C8CDE6AB7B3
330
1C8CDE699D53
100
AcDbEntity
  8
SJC2
100
AcDbLine
 10
1272.537696236502
 20
1052.157711124524
 30
0.0
 11
1274.037696236502
 21
1054.157711124524
 31
0.0
  0
LINE
  5
1C8CDE6AB7B4
330
1C8CDE699D53
100
AcDbEntity
  8
SJC2
100
AcDbLine
 10
1266.037696236502
 20
1057.407711124524
 30
0.0
 11
1265.032955587549
 21
1057.407711124524
 31
0.0
  0
LINE
  5
1C8CDE6AB7B5
330
1C8CDE699D53
100
AcDbEntity
  8
SJC2
100
AcDbLine
 10
1272.537696236502
 20
1052.157711124524
 30
0.0
 11
1266.037696236502
 21
1052.157711124524
 31
0.0
  0
LINE
  5
1C8CDE6AB7B6
330
1C8CDE699D53
100
AcDbEntity
  8
HASEN
100
AcDbLine
 10
1252.40212849855
 20
1057.407711124524
 30
0.0
 11
1265.032955587549
 21
1057.407711124524
 31
0.0
  0
LINE
  5
1C8CDE6AB7B7
330
1C8CDE699D53
100
AcDbEntity
  8
SJC2
100
AcDbLine
 10
1257.45351834291
 20
1084.253971053609
 30
0.0
 11
1259.736634665129
 21
1082.645501663408
 31
0.0
  0
ARC
  5
1C8CDE6AB7B8
330
1C8CDE699D53
100
AcDbEntity
  8
SJC2
100
AcDbCircle
 10
1258.029324493503
 20
1085.071401933464
 30
0.0
 40
1.0
100
AcDbArc
 50
189.8357838414962
 51
234.8357938414963
  0
LINE
  5
1C8CDE6AB7B9
330
1C8CDE699D53
100
AcDbEntity
  8
SJC2
100
AcDbLine
 10
1255.150594106479
 20
1095.823469226428
 30
0.0
 11
1257.044145484913
 21
1084.90057367867
 31
0.0
  0
LINE
  5
1C8CDE6AB7BA
330
1C8CDE699D53
100
AcDbEntity
  8
SJC2
100
AcDbLine
 10
1253.180035199382
 20
1095.481819292626
 30
0.0
 11
1255.150594106479
 21
1095.823469226428
 31
0.0
  0
ARC
  5
1C8CDE6AB7BB
330
1C8CDE699D53
100
AcDbEntity
  8
SJC2
100
AcDbCircle
 10
1258.296737577931
 20
1080.601638287378
 30
0.0
 40
2.5
100
AcDbArc
 50
9.83578404149626
 51
54.83578484149627
  0
LINE
  5
1C8CDE6AB7BC
330
1C8CDE699D53
100
AcDbEntity
  8
SJC2
100
AcDbLine
 10
1272.537696236502
 20
1074.657711124524
 30
0.0
 11
1274.037696236502
 21
1072.657711124524
 31
0.0
  0
LINE
  5
1C8CDE6AB7BD
330
1C8CDE699D53
100
AcDbEntity
  8
SJC2
100
AcDbLine
 10
1266.037696236502
 20
1069.407711124524
 30
0.0
 11
1263.771720174262
 21
1069.407711124524
 31
0.0
  0
LINE
  5
1C8CDE6AB7BE
330
1C8CDE699D53
100
AcDbEntity
  8
SJC2
100
AcDbLine
 10
1272.537696236502
 20
1074.657711124524
 30
0.0
 11
1266.037696236502
 21
1074.657711124524
 31
0.0
  0
LINE
  5
1C8CDE6AB7BF
330
1C8CDE699D53
100
AcDbEntity
  8
HASEN
100
AcDbLine
 10
1252.40212849855
 20
1069.407711124524
 30
0.0
 11
1263.771720174262
 21
1069.407711124524
 31
0.0
  0
LINE
  5
1C8CDE6AB7C0
330
1C8CDE699D53
100
AcDbEntity
  8
SJC2
100
AcDbLine
 10
1255.15063788792
 20
1095.823469763029
 30
0.0
 11
1277.661765530161
 21
965.9817382370356
 31
0.0
  0
LINE
  5
1C8CDE6AB7C1
330
1C8CDE699D53
100
AcDbEntity
  8
SJC2
100
AcDbLine
 10
1253.180035199382
 20
1095.481819292626
 30
0.0
 11
1275.75380338498
 21
965.2787839375887
 31
0.0
  0
LINE
  5
1C8CDE6AB7C2
330
1C8CDE699D53
100
AcDbEntity
  8
SJC2
100
AcDbLine
 10
1260.760283086363
 20
1081.028759040197
 30
0.0
 11
1278.349069357103
 21
979.577584593645
 31
0.0
  0
LINE
  5
1C8CDE6AB7C3
330
1C8CDE699D53
100
AcDbEntity
  8
SJC2
100
AcDbLine
 10
1275.905940182478
 20
976.1091475353891
 30
0.0
 11
1278.34912858543
 21
979.5773321190079
 31
0.0
  0
LINE
  5
1C8CDE6AB7C4
330
1C8CDE699D53
100
AcDbEntity
  8
SJC2
100
AcDbLine
 10
1278.349069357103
 20
979.577584593645
 30
0.0
 11
1282.142379353373
 21
963.4077111245241
 31
0.0
  0
ARC
  5
1C8CDE6AB7C5
330
1C8CDE699D53
100
AcDbEntity
  8
SJC2
100
AcDbCircle
 10
1288.951818666447
 20
945.8903111245243
 30
0.0
 40
4.3000002
100
AcDbArc
 50
300.0
 51
0.0
  0
LINE
  5
1C8CDE6AB7C6
330
1C8CDE699D53
100
AcDbEntity
  8
SJC2
100
AcDbLine
 10
1253.851838666447
 20
955.4077111245241
 30
0.0
 11
1253.851838666447
 21
921.5410511245243
 31
0.0
  0
LINE
  5
1C8CDE6AB7C7
330
1C8CDE699D53
100
AcDbEntity
  8
SJC2
100
AcDbLine
 10
1253.851838666447
 20
921.5410511245243
 30
0.0
 11
1255.851838666447
 21
921.5410511245243
 31
0.0
  0
LINE
  5
1C8CDE6AB7C8
330
1C8CDE699D53
100
AcDbEntity
  8
SJC2
100
AcDbLine
 10
1255.377718666447
 20
921.5410511245243
 30
0.0
 11
1291.101958666447
 21
942.1664311245242
 31
0.0
  0
LINE
  5
1C8CDE6AB7C9
330
1C8CDE699D53
100
AcDbEntity
  8
SJC2
100
AcDbLine
 10
1128.135538666447
 20
955.4077111245241
 30
0.0
 11
1260.868198666447
 21
955.4077111245241
 31
0.0
  0
LINE
  5
1C8CDE6AB7CA
330
1C8CDE699D53
100
AcDbEntity
  8
SJC
100
AcDbLine
 10
1138.101588834346
 20
963.4077111245241
 30
0.0
 11
1252.402128498548
 21
963.4077111245241
 31
0.0
  0
LINE
  5
1C8CDE6AB7CB
330
1C8CDE699D53
100
AcDbEntity
  8
SJC2
100
AcDbLine
 10
1120.251858666447
 20
961.4077111245242
 30
0.0
 11
1295.251858666447
 21
961.4077111245242
 31
0.0
  0
LINE
  5
1C8CDE6AB7CC
330
1C8CDE699D53
100
AcDbEntity
  8
SJC
100
AcDbLine
 10
1120.251858666447
 20
963.4077111245241
 30
0.0
 11
1295.251858666447
 21
963.4077111245241
 31
0.0
  0
ARC
  5
1C8CDE6AB7CD
330
1C8CDE699D53
100
AcDbEntity
  8
SJC2
100
AcDbCircle
 10
1128.135538666447
 20
957.9077111245242
 30
0.0
 40
2.5
100
AcDbArc
 50
195.00001
 51
270.0
  0
LINE
  5
1C8CDE6AB7CE
330
1C8CDE699D53
100
AcDbEntity
  8
SJC2
100
AcDbLine
 10
1124.808138666447
 20
960.6665711245241
 30
0.0
 11
1125.720738666447
 21
957.2606511245242
 31
0.0
  0
ARC
  5
1C8CDE6AB7CF
330
1C8CDE699D53
100
AcDbEntity
  8
SJC2
100
AcDbCircle
 10
1123.842198666447
 20
960.4077111245242
 30
0.0
 40
1.0
100
AcDbArc
 50
15.0
 51
90.00000300000001
  0
LINE
  5
1C8CDE6AB7D0
330
1C8CDE699D53
100
AcDbEntity
  8
SJC2
100
AcDbLine
 10
1120.251858666447
 20
963.4077111245241
 30
0.0
 11
1120.251858666447
 21
961.4077111245242
 31
0.0
  0
ARC
  5
1C8CDE6AB7D1
330
1C8CDE699D53
100
AcDbEntity
  8
SJC2
100
AcDbCircle
 10
1278.893392210499
 20
966.1952697810376
 30
0.0
 40
1.25
100
AcDbArc
 50
189.8358034297691
 51
241.9705543628765
  0
LINE
  5
1C8CDE6AB7D2
330
1C8CDE699D53
100
AcDbEntity
  8
SJC2
100
AcDbLine
 10
1278.305985625342
 20
965.0918870261808
 30
0.0
 11
1280.568825688838
 21
963.8872215113334
 31
0.0
  0
ARC
  5
1C8CDE6AB7D3
330
1C8CDE699D53
100
AcDbEntity
  8
SJC2
100
AcDbCircle
 10
1278.216755856834
 20
965.7057807403415
 30
0.0
 40
2.5
100
AcDbArc
 50
189.8357838414962
 51
235.903030728778
  0
LINE
  5
1C8CDE6AB7D4
330
1C8CDE699D53
100
AcDbEntity
  8
HASEN
100
AcDbLine
 10
1281.46911780647
 20
963.407711124524
 30
0.0
 11
1280.568825688838
 21
963.8872215113334
 31
0.0
  0
CIRCLE
  5
1C8CDE6AB7D5
330
1C8CDE699D53
100
AcDbEntity
  8
HASEN
100
AcDbCircle
 10
1273.751858666447
 20
953.4077111245242
 30
0.0
 40
2.6
  0
LINE
  5
1C8CDE6AB7D6
330
1C8CDE699D53
100
AcDbEntity
  8
SJC2
100
AcDbLine
 10
1293.251858666447
 20
961.4077111245242
 30
0.0
 11
1293.251858666447
 21
945.8903111245243
 31
0.0
  0
ARC
  5
1C8CDE6AB7D7
330
1C8CDE699D53
100
AcDbEntity
  8
SJC2
100
AcDbCircle
 10
1265.161538666447
 20
960.4077111245242
 30
0.0
 40
1.0
100
AcDbArc
 50
90.00000300000001
 51
164.99999
  0
LINE
  5
1C8CDE6AB7D8
330
1C8CDE699D53
100
AcDbEntity
  8
SJC2
100
AcDbLine
 10
1264.195718666447
 20
960.6664911245241
 30
0.0
 11
1263.283118666447
 21
957.2606511245242
 31
0.0
  0
ARC
  5
1C8CDE6AB7D9
330
1C8CDE699D53
100
AcDbEntity
  8
SJC2
100
AcDbCircle
 10
1265.161458666448
 20
960.4077111245242
 30
0.0
 40
1.0
100
AcDbArc
 50
90.00000300000001
 51
164.99999
  0
ARC
  5
1C8CDE6AB7DA
330
1C8CDE699D53
100
AcDbEntity
  8
SJC2
100
AcDbCircle
 10
1260.868198666447
 20
957.9077111245242
 30
0.0
 40
2.5
100
AcDbArc
 50
270.0
 51
345.0
  0
LINE
  5
1C8CDE6AB7DB
330
1C8CDE699D53
100
AcDbEntity
  8
SJC2
100
AcDbLine
 10
1295.251858666447
 20
963.4077111245241
 30
0.0
 11
1295.251858666447
 21
961.4077111245242
 31
0.0
  0
LINE
  5
1C8CDE6AB7DC
330
1C8CDE699D53
100
AcDbEntity
  8
HATCH
100
AcDbLine
 10
1293.251858666447
 20
957.9242339502293
 30
0.0
 11
1298.735335840742
 21
963.4077111245241
 31
0.0
  0
LINE
  5
1C8CDE6AB7DD
330
1C8CDE699D53
100
AcDbEntity
  8
HASEN
100
AcDbLine
 10
1254.251838666447
 20
921.8148111245243
 30
0.0
 11
1254.251838666447
 21
563.4077111245241
 31
0.0
  0
LINE
  5
1C8CDE6AB7DE
330
1C8CDE699D53
100
AcDbEntity
  8
SJC2
100
AcDbLine
 10
1252.40212849855
 20
963.4077111245245
 30
0.0
 11
1252.40212849855
 21
563.4077111245241
 31
0.0
  0
LINE
  5
1C8CDE6AB7DF
330
1C8CDE699D53
100
AcDbEntity
  8
SJC2
100
AcDbLine
 10
1255.851838666447
 20
921.8148111245243
 30
0.0
 11
1255.851838666447
 21
563.4077111245241
 31
0.0
  0
LINE
  5
1C8CDE6AB7E0
330
1C8CDE699D53
100
AcDbEntity
  8
HASEN
100
AcDbLine
 10
1136.251898666447
 20
955.4077111245241
 30
0.0
 11
1136.251898666446
 21
563.4077111245241
 31
0.0
  0
LINE
  5
1C8CDE6AB7E1
330
1C8CDE699D53
100
AcDbEntity
  8
SJC2
100
AcDbLine
 10
1138.101588834346
 20
963.4077111245245
 30
0.0
 11
1138.101588834346
 21
563.4077111245241
 31
0.0
  0
LINE
  5
1C8CDE6AB7E2
330
1C8CDE699D53
100
AcDbEntity
  8
SJC2
100
AcDbLine
 10
1134.651898666447
 20
955.4077111245241
 30
0.0
 11
1134.651898666447
 21
563.4077111245241
 31
0.0
  0
LINE
  5
1C8CDE6AB7E3
330
1C8CDE699D53
100
AcDbEntity
  8
SJC2
100
AcDbLine
 10
1132.751858666447
 20
563.4076911245243
 30
0.0
 11
1257.751858666447
 21
563.4076911245243
 31
0.0
  0
LINE
  5
1C8CDE6AB7E4
330
1C8CDE699D53
100
AcDbEntity
  8
SJC2
100
AcDbLine
 10
1132.751858666447
 20
561.8077111245242
 30
0.0
 11
1257.751858666447
 21
561.8077111245242
 31
0.0
  0
LINE
  5
1C8CDE6AB7E5
330
1C8CDE699D53
100
AcDbEntity
  8
SJC2
100
AcDbLine
 10
1132.751858666447
 20
563.4076911245243
 30
0.0
 11
1132.751858666447
 21
561.8077111245242
 31
0.0
  0
LINE
  5
1C8CDE6AB7E6
330
1C8CDE699D53
100
AcDbEntity
  8
SJC2
100
AcDbLine
 10
1257.751858666447
 20
563.4076911245243
 30
0.0
 11
1257.751858666447
 21
561.8077111245242
 31
0.0
  0
CIRCLE
  5
1C8CDE6AB858
330
1C8CDE699D53
100
AcDbEntity
  8
SJC2
100
AcDbCircle
 10
2004.820291502536
 20
1063.521122129757
 30
0.0
 40
11.25
  0
CIRCLE
  5
1C8CDE6AB859
330
1C8CDE699D53
100
AcDbEntity
  8
SJC2
100
AcDbCircle
 10
2004.820291502536
 20
1063.521122129757
 30
0.0
 40
9.249999999999772
  0
ARC
  5
1C8CDE6AB85A
330
1C8CDE699D53
100
AcDbEntity
  8
SJC2
100
AcDbCircle
 10
2004.820291502532
 20
1029.389206605825
 30
0.0
 40
66.54767362583673
100
AcDbArc
 50
2.168883442014078
 51
177.8311165579858
  0
ARC
  5
1C8CDE6AB85B
330
1C8CDE699D53
100
AcDbEntity
  8
SJC2
100
AcDbCircle
 10
2004.820291502532
 20
1029.379640498218
 30
0.0
 40
55.05807062631134
100
AcDbArc
 50
2.631743565752763
 51
177.368256434247
  0
ARC
  5
1C8CDE6AB85C
330
1C8CDE699D53
100
AcDbEntity
  8
SJC2
100
AcDbCircle
 10
2004.820291502531
 20
1029.350344585632
 30
0.0
 40
52.06284782466878
100
AcDbArc
 50
2.815545131476595
 51
177.184454868523
  0
ARC
  5
1C8CDE6AB85D
330
1C8CDE699D53
100
AcDbEntity
  8
SJC2
100
AcDbCircle
 10
2021.453161502535
 20
972.180429124524
 30
0.0
 40
10.0
100
AcDbArc
 50
105.56145
 51
164.99999
  0
LINE
  5
1C8CDE6AB85E
330
1C8CDE699D53
100
AcDbEntity
  8
SJC2
100
AcDbLine
 10
2009.449561502535
 20
966.0195501245238
 30
0.0
 11
2014.321941502534
 21
966.0195501245238
 31
0.0
  0
LINE
  5
1C8CDE6AB85F
330
1C8CDE699D53
100
AcDbEntity
  8
SJC2
100
AcDbLine
 10
1991.241253781729
 20
943.0714508410604
 30
0.0
 11
2018.399329223341
 21
943.0714508410604
 31
0.0
  0
LINE
  5
1C8CDE6AB860
330
1C8CDE699D53
100
AcDbEntity
  8
SJC2
100
AcDbLine
 10
1937.703971502535
 20
955.4077111245241
 30
0.0
 11
2071.936611502535
 21
955.4077111245241
 31
0.0
  0
LINE
  5
1C8CDE6AB861
330
1C8CDE699D53
100
AcDbEntity
  8
SJC2
100
AcDbLine
 10
1929.820291502535
 20
961.4077111245242
 30
0.0
 11
2079.820291502535
 21
961.4077111245242
 31
0.0
  0
LINE
  5
1C8CDE6AB862
330
1C8CDE699D53
100
AcDbEntity
  8
SJC2
100
AcDbLine
 10
1929.820291502535
 20
963.4077111245241
 30
0.0
 11
2079.820291502535
 21
963.4077111245241
 31
0.0
  0
ARC
  5
1C8CDE6AB863
330
1C8CDE699D53
100
AcDbEntity
  8
SJC2
100
AcDbCircle
 10
2004.820291502535
 20
1031.907711124524
 30
0.0
 40
52.0
100
AcDbArc
 50
180.0
 51
0.0
  0
LINE
  5
1C8CDE6AB864
330
1C8CDE699D53
100
AcDbEntity
  8
HASEN
100
AcDbLine
 10
2012.260209853686
 20
1055.082513540172
 30
0.0
 11
2012.265632388588
 21
1065.841535825718
 31
0.0
  0
LINE
  5
1C8CDE6AB865
330
1C8CDE699D53
100
AcDbEntity
  8
HASEN
100
AcDbLine
 10
1997.380373151385
 20
1055.082513540173
 30
0.0
 11
1997.374950616484
 21
1065.841535825718
 31
0.0
  0
ARC
  5
1C8CDE6AB866
330
1C8CDE699D53
100
AcDbEntity
  8
SJC2
100
AcDbCircle
 10
2004.820291502535
 20
1031.907711124524
 30
0.0
 40
55.0
100
AcDbArc
 50
180.0
 51
261.44989
  0
ARC
  5
1C8CDE6AB867
330
1C8CDE699D53
100
AcDbEntity
  8
SJC2
100
AcDbCircle
 10
2004.820291502535
 20
1031.907711124524
 30
0.0
 40
66.5
100
AcDbArc
 50
180.0
 51
261.48038
  0
ARC
  5
1C8CDE6AB868
330
1C8CDE699D53
100
AcDbEntity
  8
SJC2
100
AcDbCircle
 10
1933.410631502535
 20
960.4077111245242
 30
0.0
 40
1.0
100
AcDbArc
 50
15.0
 51
90.00000300000001
  0
ARC
  5
1C8CDE6AB869
330
1C8CDE699D53
100
AcDbEntity
  8
SJC2
100
AcDbCircle
 10
1937.703971502535
 20
957.9077111245242
 30
0.0
 40
2.5
100
AcDbArc
 50
195.00001
 51
270.0
  0
LINE
  5
1C8CDE6AB86A
330
1C8CDE699D53
100
AcDbEntity
  8
SJC2
100
AcDbLine
 10
1934.376571502535
 20
960.6665711245241
 30
0.0
 11
1935.289171502534
 21
957.2606511245242
 31
0.0
  0
LINE
  5
1C8CDE6AB86B
330
1C8CDE699D53
100
AcDbEntity
  8
SJC2
100
AcDbLine
 10
1929.820291502535
 20
963.4077111245241
 30
0.0
 11
1929.820291502535
 21
961.4077111245242
 31
0.0
  0
LINE
  5
1C8CDE6AB86C
330
1C8CDE699D53
100
AcDbEntity
  8
SJC2
100
AcDbLine
 10
2011.793861502534
 20
974.7686251245241
 30
0.0
 11
2008.888411502535
 21
963.925349124524
 31
0.0
  0
ARC
  5
1C8CDE6AB86D
330
1C8CDE699D53
100
AcDbEntity
  8
SJC2
100
AcDbCircle
 10
2010.820291502535
 20
963.4077111245241
 30
0.0
 40
2.0
100
AcDbArc
 50
164.99999
 51
180.0
  0
ARC
  5
1C8CDE6AB86E
330
1C8CDE699D53
100
AcDbEntity
  8
SJC2
100
AcDbCircle
 10
1994.820291502534
 20
965.1525611245242
 30
0.0
 40
1.0
100
AcDbArc
 50
0.0000025044777
 51
81.48038000000001
  0
ARC
  5
1C8CDE6AB86F
330
1C8CDE699D53
100
AcDbEntity
  8
SJC2
100
AcDbCircle
 10
1988.187421502534
 20
972.180429124524
 30
0.0
 40
10.0
100
AcDbArc
 50
15.0
 51
74.43854300000001
  0
LINE
  5
1C8CDE6AB870
330
1C8CDE699D53
100
AcDbEntity
  8
SJC2
100
AcDbLine
 10
1997.846721502535
 20
974.7686271245243
 30
0.0
 11
2000.752171502535
 21
963.925352124524
 31
0.0
  0
LINE
  5
1C8CDE6AB871
330
1C8CDE699D53
100
AcDbEntity
  8
SJC2
100
AcDbLine
 10
1995.318641502535
 20
966.0195501245238
 30
0.0
 11
2000.191021502535
 21
966.0195501245238
 31
0.0
  0
ARC
  5
1C8CDE6AB872
330
1C8CDE699D53
100
AcDbEntity
  8
SJC2
100
AcDbCircle
 10
1998.820291502535
 20
963.4077111245241
 30
0.0
 40
2.0
100
AcDbArc
 50
0.0
 51
15.0
  0
LINE
  5
1C8CDE6AB873
330
1C8CDE699D53
100
AcDbEntity
  8
SJC2
100
AcDbLine
 10
1995.820291502535
 20
965.1525611245242
 30
0.0
 11
1995.820291502535
 21
963.4077111245241
 31
0.0
  0
LINE
  5
1C8CDE6AB876
330
1C8CDE699D53
100
AcDbEntity
  8
SJC2
100
AcDbLine
 10
2012.260209853686
 20
1055.082513540172
 30
0.0
 11
2012.257127332327
 21
1048.96638582332
 31
0.0
  0
LINE
  5
1C8CDE6AB877
330
1C8CDE699D53
100
AcDbEntity
  8
SJC2
100
AcDbLine
 10
1997.383455672747
 20
1048.966385823318
 30
0.0
 11
1997.380373151387
 21
1055.08251354017
 31
0.0
  0
ARC
  5
1C8CDE6AB878
330
1C8CDE699D53
100
AcDbEntity
  8
SJC2
100
AcDbCircle
 10
2004.820291502536
 20
1049.937711124524
 30
0.0
 40
7.5
100
AcDbArc
 50
187.4412803380886
 51
352.5587196619325
  0
ARC
  5
1C8CDE6AB879
330
1C8CDE699D53
100
AcDbEntity
  8
SJC2
100
AcDbCircle
 10
2004.820291502536
 20
1064.937711124524
 30
0.0
 40
7.5
100
AcDbArc
 50
6.92153473253363
 51
173.0784652674452
  0
LINE
  5
1C8CDE6AB87A
330
1C8CDE699D53
100
AcDbEntity
  8
SJC2
100
AcDbLine
 10
1955.004319985237
 20
1073.513597216902
 30
0.0
 11
1954.809957213065
 21
1073.513597216902
 31
0.0
  0
LINE
  5
1C8CDE6AB87B
330
1C8CDE699D53
100
AcDbEntity
  8
SJC2
100
AcDbLine
 10
1955.004319985237
 20
1073.513597216902
 30
0.0
 11
1954.809957213066
 21
1073.513597216902
 31
0.0
  0
LINE
  5
1C8CDE6AB87C
330
1C8CDE699D53
100
AcDbEntity
  8
HATCH
100
AcDbLine
 10
2065.420271502535
 20
942.6213008623101
 30
0.0
 11
2086.206681764748
 21
963.4077111245233
 31
0.0
  0
LINE
  5
1C8CDE6AB87D
330
1C8CDE699D53
100
AcDbEntity
  8
HATCH
100
AcDbLine
 10
2065.420271502535
 20
942.621300862309
 30
0.0
 11
2086.206681764749
 21
963.4077111245233
 31
0.0
  0
ARC
  5
1C8CDE6AB87E
330
1C8CDE699D53
100
AcDbEntity
  8
SJC2
100
AcDbCircle
 10
2004.820291502535
 20
1031.907711124524
 30
0.0
 40
55.0
100
AcDbArc
 50
278.55011
 51
0.0
  0
ARC
  5
1C8CDE6AB87F
330
1C8CDE699D53
100
AcDbEntity
  8
SJC2
100
AcDbCircle
 10
2004.820291502535
 20
1031.907711124524
 30
0.0
 40
66.5
100
AcDbArc
 50
278.51962
 51
0.0
  0
LINE
  5
1C8CDE6AB881
330
1C8CDE699D53
100
AcDbEntity
  8
SJC2
100
AcDbLine
 10
2075.264011502535
 20
960.6665711245243
 30
0.0
 11
2074.351411502536
 21
957.2606511245243
 31
0.0
  0
ARC
  5
1C8CDE6AB882
330
1C8CDE699D53
100
AcDbEntity
  8
SJC2
100
AcDbCircle
 10
2071.936611502535
 20
957.9077111245242
 30
0.0
 40
2.5
100
AcDbArc
 50
270.0000000000001
 51
344.9999900000001
  0
ARC
  5
1C8CDE6AB883
330
1C8CDE699D53
100
AcDbEntity
  8
SJC2
100
AcDbCircle
 10
2076.229951502535
 20
960.4077111245244
 30
0.0
 40
1.0
100
AcDbArc
 50
89.99999700000008
 51
165.0000000000001
  0
ARC
  5
1C8CDE6AB884
330
1C8CDE699D53
100
AcDbEntity
  8
SJC2
100
AcDbCircle
 10
2014.820291502535
 20
965.1525611245242
 30
0.0
 40
1.0
100
AcDbArc
 50
98.51961800000001
 51
179.99999
  0
LINE
  5
1C8CDE6AB885
330
1C8CDE699D53
100
AcDbEntity
  8
SJC2
100
AcDbLine
 10
2013.820291502535
 20
965.1525611245242
 30
0.0
 11
2013.820291502535
 21
963.4077111245241
 31
0.0
  0
LINE
  5
1C8CDE6AB886
330
1C8CDE699D53
100
AcDbEntity
  8
SJC2
100
AcDbLine
 10
2079.820291502535
 20
963.4077111245245
 30
0.0
 11
2079.820291502535
 21
961.4077111245244
 31
0.0
  0
LINE
  5
1C8CDE6AB887
330
1C8CDE699D53
100
AcDbEntity
  8
SJC2
100
AcDbLine
 10
2054.636263019828
 20
1073.513597216902
 30
0.0
 11
2054.830625792006
 21
1073.513597216902
 31
0.0
  0
LINE
  5
1C8CDE6AB888
330
1C8CDE699D53
100
AcDbEntity
  8
SJC2
100
AcDbLine
 10
2054.636263019828
 20
1073.513597216902
 30
0.0
 11
2054.830625792006
 21
1073.513597216902
 31
0.0
  0
LINE
  5
1C8CDE6AB889
330
1C8CDE699D53
100
AcDbEntity
  8
HASEN
100
AcDbLine
 10
2063.820271502535
 20
955.4077111245241
 30
0.0
 11
2063.820271502535
 21
563.4077111245241
 31
0.0
  0
LINE
  5
1C8CDE6AB88A
330
1C8CDE699D53
100
AcDbEntity
  8
SJC2
100
AcDbLine
 10
2061.970561334641
 20
963.407711124524
 30
0.0
 11
2061.970561334637
 21
563.4077111245241
 31
0.0
  0
LINE
  5
1C8CDE6AB88B
330
1C8CDE699D53
100
AcDbEntity
  8
SJC2
100
AcDbLine
 10
2065.420271502535
 20
955.4077111245241
 30
0.0
 11
2065.420271502535
 21
563.4077111245241
 31
0.0
  0
LINE
  5
1C8CDE6AB88C
330
1C8CDE699D53
100
AcDbEntity
  8
HASEN
100
AcDbLine
 10
1945.820331502535
 20
955.4077111245241
 30
0.0
 11
1945.820331502535
 21
563.4077111245241
 31
0.0
  0
LINE
  5
1C8CDE6AB88D
330
1C8CDE699D53
100
AcDbEntity
  8
SJC2
100
AcDbLine
 10
1947.670021670434
 20
963.4077111245241
 30
0.0
 11
1947.670021670434
 21
563.4077111245241
 31
0.0
  0
LINE
  5
1C8CDE6AB88E
330
1C8CDE699D53
100
AcDbEntity
  8
SJC2
100
AcDbLine
 10
1944.220331502534
 20
955.4077111245241
 30
0.0
 11
1944.220331502534
 21
563.4077111245241
 31
0.0
  0
LINE
  5
1C8CDE6AB88F
330
1C8CDE699D53
100
AcDbEntity
  8
SJC2
100
AcDbLine
 10
2020.120291502535
 20
921.5410511245247
 30
0.0
 11
1989.520291502534
 21
921.5410511245245
 31
0.0
  0
LINE
  5
1C8CDE6AB890
330
1C8CDE699D53
100
AcDbEntity
  8
SJC2
100
AcDbLine
 10
1989.520291502534
 20
961.4077111245242
 30
0.0
 11
1989.520291502534
 21
921.5410511245245
 31
0.0
  0
LINE
  5
1C8CDE6AB891
330
1C8CDE699D53
100
AcDbEntity
  8
SJC2
100
AcDbLine
 10
2020.120291502535
 20
961.4077111245242
 30
0.0
 11
2020.120291502535
 21
921.5410511245245
 31
0.0
  0
LINE
  5
1C8CDE6AB892
330
1C8CDE699D53
100
AcDbEntity
  8
SJC2
100
AcDbLine
 10
1942.320291502535
 20
563.4077111245241
 30
0.0
 11
2067.320291502535
 21
563.4077111245241
 31
0.0
  0
LINE
  5
1C8CDE6AB893
330
1C8CDE699D53
100
AcDbEntity
  8
SJC2
100
AcDbLine
 10
1942.320291502535
 20
561.8077311245242
 30
0.0
 11
2067.320291502535
 21
561.8077311245242
 31
0.0
  0
LINE
  5
1C8CDE6AB894
330
1C8CDE699D53
100
AcDbEntity
  8
SJC2
100
AcDbLine
 10
1942.320291502535
 20
563.4077111245241
 30
0.0
 11
1942.320291502535
 21
561.8077311245242
 31
0.0
  0
LINE
  5
1C8CDE6AB895
330
1C8CDE699D53
100
AcDbEntity
  8
SJC2
100
AcDbLine
 10
2067.320291502535
 20
563.4077111245241
 30
0.0
 11
2067.320291502535
 21
561.8077311245242
 31
0.0
  0
LINE
  5
1C8CDE6ABAC0
330
1C8CDE699D53
100
AcDbEntity
  8
CENTER
100
AcDbLine
 10
3028.406424969392
 20
1525.366500920757
 30
0.0
 11
3028.406424969392
 21
1505.305633126236
 31
0.0
  0
LINE
  5
1C8CDE6ABAC1
330
1C8CDE699D53
100
AcDbEntity
  8
CENTER
100
AcDbLine
 10
3028.406424969392
 20
1517.936073023497
 30
0.0
 11
3028.406424969392
 21
1512.736061023496
 31
0.0
  0
CIRCLE
  5
1C8CDE6ABAC2
330
1C8CDE699D53
100
AcDbEntity
  8
SJC
  6
Continuous
100
AcDbCircle
 10
3028.406424969392
 20
1515.336067023496
 30
0.0
 40
4.75
  0
ARC
  5
1C8CDE6ABAC3
330
1C8CDE699D53
100
AcDbEntity
  8
SJC
  6
Continuous
100
AcDbCircle
 10
3026.341824969391
 20
1515.336067023496
 30
0.0
 40
1.0
100
AcDbArc
 50
315.0
 51
45.0
  0
ARC
  5
1C8CDE6ABAC4
330
1C8CDE699D53
100
AcDbEntity
  8
SJC
  6
Continuous
100
AcDbCircle
 10
3030.471024969391
 20
1515.336067023496
 30
0.0
 40
1.0
100
AcDbArc
 50
134.999999
 51
225.0
  0
LINE
  5
1C8CDE6ABAC5
330
1C8CDE699D53
100
AcDbEntity
  8
CENTER
100
AcDbLine
 10
3028.406424969392
 20
1525.366500920757
 30
0.0
 11
3028.406424969392
 21
1505.305633126236
 31
0.0
  0
LINE
  5
1C8CDE6ABAC6
330
1C8CDE699D53
100
AcDbEntity
  8
SJC
100
AcDbLine
 10
3008.906424969391
 20
1523.336067023496
 30
0.0
 11
3008.906424969391
 21
1507.818667023497
 31
0.0
  0
DIMENSION
  5
1C8CDE6ABAC7
330
1C8CDE699D53
100
AcDbEntity
  8
SUNPOU
100
AcDbDimension
  2
*D5
 10
3254.506424969392
 20
1125.336067023496
 30
0.0
 11
3227.506424969391
 21
1325.336067023497
 31
0.0
 70
    32
 71
     5
 42
400.0
  3
SJC
100
AcDbAlignedDimension
 13
3181.906424969391
 23
1525.336067023497
 33
0.0
 14
3167.506384969392
 24
1125.336067023496
 34
0.0
 50
270.0
100
AcDbRotatedDimension
1001
ACAD
1000
DSTYLE
1002
{
1070
   140
1040
3.0
1070
   340
1005
1C8CDE699DA6
1070
    40
1040
10.0
1070
   147
1040
1.199999999999999
1070
    42
1040
1.0
1070
    44
1040
1.0
1070
    43
1040
6.0
1070
   271
1070
     2
1070
    41
1040
2.0
1002
}
  0
LINE
  5
1C8CDE6ABAC8
330
1C8CDE699D53
100
AcDbEntity
  8
CENTER
100
AcDbLine
 10
3106.906424969392
 20
1094.360877309381
 30
0.0
 11
3106.906424969392
 21
1688.97632584475
 31
0.0
  0
LINE
  5
1C8CDE6ABAC9
330
1C8CDE699D53
100
AcDbEntity
  8
HASEN
100
AcDbLine
 10
3165.906384969391
 20
1517.336067023497
 30
0.0
 11
3165.906384969392
 21
1125.336067023496
 31
0.0
  0
LINE
  5
1C8CDE6ABACA
330
1C8CDE699D53
100
AcDbEntity
  8
HASEN
100
AcDbLine
 10
2907.344499742767
 20
1517.336047023496
 30
0.0
 11
2907.344499742767
 21
1125.336047023496
 31
0.0
  0
LINE
  5
1C8CDE6ABACB
330
1C8CDE699D53
100
AcDbEntity
  8
HASEN
100
AcDbLine
 10
2789.344559742767
 20
1517.336047023496
 30
0.0
 11
2789.344559742767
 21
1125.336047023496
 31
0.0
  0
LINE
  5
1C8CDE6ABACC
330
1C8CDE699D53
100
AcDbEntity
  8
SJC
100
AcDbLine
 10
3048.30644496939
 20
1517.336067023497
 30
0.0
 11
3048.30644496939
 21
1483.469407023497
 31
0.0
  0
LINE
  5
1C8CDE6ABACD
330
1C8CDE699D53
100
AcDbEntity
  8
SJC
100
AcDbLine
 10
3167.506384969391
 20
1517.336067023497
 30
0.0
 11
3167.506384969392
 21
1125.336067023496
 31
0.0
  0
LINE
  5
1C8CDE6ABACE
330
1C8CDE699D53
100
AcDbEntity
  8
CENTER
100
AcDbLine
 10
2848.344519742767
 20
1094.360877309381
 30
0.0
 11
2848.344519742767
 21
1688.97632584475
 31
0.0
  0
LINE
  5
1C8CDE6ABACF
330
1C8CDE699D53
100
AcDbEntity
  8
SJC
100
AcDbLine
 10
2833.044519742767
 20
1523.336047023496
 30
0.0
 11
2833.044519742767
 21
1483.469387023497
 31
0.0
  0
LINE
  5
1C8CDE6ABAD0
330
1C8CDE699D53
100
AcDbEntity
  8
SJC
100
AcDbLine
 10
2863.644519742768
 20
1523.336047023496
 30
0.0
 11
2863.644519742768
 21
1483.469387023497
 31
0.0
  0
LINE
  5
1C8CDE6ABAD1
330
1C8CDE699D53
100
AcDbEntity
  8
SJC
100
AcDbLine
 10
2908.944499742768
 20
1517.336047023496
 30
0.0
 11
2908.944499742768
 21
1125.336047023496
 31
0.0
  0
LINE
  5
1C8CDE6ABAD2
330
1C8CDE699D53
100
AcDbEntity
  8
SJC
100
AcDbLine
 10
2787.744559742767
 20
1517.336047023496
 30
0.0
 11
2787.744559742767
 21
1125.336047023496
 31
0.0
  0
LINE
  5
1C8CDE6ABAF3
330
1C8CDE699D53
100
AcDbEntity
  8
SJC2
100
AcDbLine
 10
2834.765482021961
 20
1504.999786740033
 30
0.0
 11
2861.923557463573
 21
1504.999786740033
 31
0.0
  0
LINE
  5
1C8CDE6ABAF4
330
1C8CDE699D53
100
AcDbEntity
  8
SJC
100
AcDbLine
 10
2863.644519742768
 20
1483.469387023497
 30
0.0
 11
2833.044519742767
 21
1483.469387023497
 31
0.0
  0
LINE
  5
1C8CDE6ABAF5
330
1C8CDE699D53
100
AcDbEntity
  8
SJC
100
AcDbLine
 10
2785.844519742767
 20
1123.736067023497
 30
0.0
 11
2910.844519742767
 21
1123.736067023497
 31
0.0
  0
LINE
  5
1C8CDE6ABAF6
330
1C8CDE699D53
100
AcDbEntity
  8
SJC
100
AcDbLine
 10
2785.844519742767
 20
1125.336047023496
 30
0.0
 11
2910.844519742767
 21
1125.336047023496
 31
0.0
  0
DIMENSION
  5
1C8CDE6ABAF9
330
1C8CDE699D53
100
AcDbEntity
  8
SUNPOU
100
AcDbDimension
  2
*D6
 10
2910.844519742767
 20
1017.471987023496
 30
0.0
 11
2848.344519742767
 21
1017.471987023496
 31
0.0
 70
   160
  1
%%C<>\X（底板径）
 71
     5
 42
125.0
  3
SJC
100
AcDbAlignedDimension
 13
2785.844519742767
 23
1123.736067023497
 33
0.0
 14
2910.844519742767
 24
1123.736067023497
 34
0.0
100
AcDbRotatedDimension
1001
ACAD
1000
DSTYLE
1002
{
1070
   140
1040
3.0
1070
   340
1005
1C8CDE699DA6
1070
    40
1040
10.0
1070
   147
1040
1.199999999999999
1070
    42
1040
1.0
1070
    44
1040
1.0
1070
    43
1040
6.0
1070
   271
1070
     2
1070
    41
1040
2.0
1002
}
  0
LINE
  5
1C8CDE6ABAFD
330
1C8CDE699D53
100
AcDbEntity
  8
MOJI
100
AcDbLine
 10
2710.429911828139
 20
1385.345938805083
 30
0.0
 11
2514.826768317942
 21
1385.345938805083
 31
0.0
  0
TEXT
  5
1C8CDE6ABAFE
330
1C8CDE699D53
100
AcDbEntity
  8
MOJI
100
AcDbText
 10
2515.973989631811
 20
1395.345938805083
 30
0.0
 40
30.0
  1
サヤ管 %%C121
 41
0.8
  7
EXT08
 72
     2
 11
2696.773989631811
 21
1410.345938805083
 31
0.0
100
AcDbText
 73
     2
  0
LINE
  5
1C8CDE6ABB01
330
1C8CDE699D53
100
AcDbEntity
  8
SJC
100
AcDbLine
 10
2785.844519742767
 20
1125.336047023496
 30
0.0
 11
2785.844519742767
 21
1123.736067023497
 31
0.0
  0
LINE
  5
1C8CDE6ABB09
330
1C8CDE699D53
100
AcDbEntity
  8
HASEN
100
AcDbLine
 10
3047.906444969391
 20
1483.743167023497
 30
0.0
 11
3047.906444969391
 21
1125.336067023496
 31
0.0
  0
LINE
  5
1C8CDE6ABB0A
330
1C8CDE699D53
100
AcDbEntity
  8
SJC
100
AcDbLine
 10
3046.306444969391
 20
1483.743167023497
 30
0.0
 11
3046.306444969391
 21
1125.336067023496
 31
0.0
  0
LINE
  5
1C8CDE6ABB0B
330
1C8CDE699D53
100
AcDbEntity
  8
SJC
100
AcDbLine
 10
2910.844519742767
 20
1125.336047023496
 30
0.0
 11
2910.844519742767
 21
1123.736067023497
 31
0.0
  0
LINE
  5
1C8CDE6ABB0C
330
1C8CDE699D53
100
AcDbEntity
  8
SJC
100
AcDbLine
 10
3156.906424969391
 20
1123.736067023497
 30
0.0
 11
3056.906424969391
 21
1123.736067023497
 31
0.0
  0
LINE
  5
1C8CDE6ABB0D
330
1C8CDE699D53
100
AcDbEntity
  8
SJC
100
AcDbLine
 10
3167.506384969392
 20
1125.336047023496
 30
0.0
 11
3046.306444969391
 21
1125.336047023496
 31
0.0
  0
LINE
  5
1C8CDE6ABB0E
330
1C8CDE699D53
100
AcDbEntity
  8
SJC
100
AcDbLine
 10
3056.906424969391
 20
1123.736067023497
 30
0.0
 11
3056.906424969391
 21
1125.336047023496
 31
0.0
  0
LINE
  5
1C8CDE6ABB0F
330
1C8CDE699D53
100
AcDbEntity
  8
SJC
100
AcDbLine
 10
3156.906424969391
 20
1123.736067023497
 30
0.0
 11
3156.906424969391
 21
1125.336047023496
 31
0.0
  0
LINE
  5
1C8CDE6ABB10
330
1C8CDE699D53
100
AcDbEntity
  8
CENTER
100
AcDbLine
 10
3018.375991072131
 20
1515.336067023496
 30
0.0
 11
3038.436858866651
 21
1515.336067023496
 31
0.0
  0
LINE
  5
1C8CDE6ABB11
330
1C8CDE699D53
100
AcDbEntity
  8
CENTER
100
AcDbLine
 10
3018.375991072131
 20
1515.336067023496
 30
0.0
 11
3038.436858866651
 21
1515.336067023496
 31
0.0
  0
LINE
  5
1C8CDE6ABB12
330
1C8CDE699D53
100
AcDbEntity
  8
SJC
100
AcDbLine
 10
3046.780564969391
 20
1483.469407023497
 30
0.0
 11
3011.056324969392
 21
1504.094787023497
 31
0.0
  0
ARC
  5
1C8CDE6ABB13
330
1C8CDE699D53
100
AcDbEntity
  8
SJC
100
AcDbCircle
 10
3013.206464969391
 20
1507.818667023497
 30
0.0
 40
4.3000002
100
AcDbArc
 50
180.0
 51
240.0
  0
LINE
  5
1C8CDE6ABB14
330
1C8CDE699D53
100
AcDbEntity
  8
CENTER
100
AcDbLine
 10
3031.006424969392
 20
1515.336067023496
 30
0.0
 11
3025.806424969391
 21
1515.336067023496
 31
0.0
  0
LINE
  5
1C8CDE6ABB16
330
1C8CDE699D53
100
AcDbEntity
  8
SJC
  6
Continuous
100
AcDbLine
 10
3030.177424969392
 20
1512.914597023497
 30
0.0
 11
3029.113424969392
 21
1513.978455023497
 31
0.0
  0
LINE
  5
1C8CDE6ABB17
330
1C8CDE699D53
100
AcDbEntity
  8
SJC
  6
Continuous
100
AcDbLine
 10
3030.828024969391
 20
1513.565171023496
 30
0.0
 11
3029.764024969391
 21
1514.629021023497
 31
0.0
  0
LINE
  5
1C8CDE6ABB18
330
1C8CDE699D53
100
AcDbEntity
  8
SJC
  6
Continuous
100
AcDbLine
 10
3027.699424969391
 20
1513.978455023497
 30
0.0
 11
3026.63542496939
 21
1512.914597023497
 31
0.0
  0
LINE
  5
1C8CDE6ABB19
330
1C8CDE699D53
100
AcDbEntity
  8
SJC
  6
Continuous
100
AcDbLine
 10
3027.048824969392
 20
1514.628937023497
 30
0.0
 11
3025.98502496939
 21
1513.565087023497
 31
0.0
  0
ARC
  5
1C8CDE6ABB1A
330
1C8CDE699D53
100
AcDbEntity
  8
SJC
  6
Continuous
100
AcDbCircle
 10
3028.406424969392
 20
1515.336067023496
 30
0.0
 40
3.0
100
AcDbArc
 50
306.17985
 51
323.8201500000001
  0
ARC
  5
1C8CDE6ABB1B
330
1C8CDE699D53
100
AcDbEntity
  8
SJC
  6
Continuous
100
AcDbCircle
 10
3028.406424969392
 20
1515.336067023496
 30
0.0
 40
3.0
100
AcDbArc
 50
216.17985
 51
233.82015
  0
ARC
  5
1C8CDE6ABB1C
330
1C8CDE699D53
100
AcDbEntity
  8
SJC
  6
Continuous
100
AcDbCircle
 10
3028.406424969392
 20
1513.271317023496
 30
0.0
 40
1.0
100
AcDbArc
 50
45.0
 51
134.999999
  0
LINE
  5
1C8CDE6ABB1E
330
1C8CDE699D53
100
AcDbEntity
  8
SJC
100
AcDbLine
 10
3048.30644496939
 20
1483.469407023497
 30
0.0
 11
3046.306444969391
 21
1483.469407023497
 31
0.0
  0
LINE
  5
1C8CDE6ABB20
330
1C8CDE699D53
100
AcDbEntity
  8
SJC2
100
AcDbLine
 10
2852.973789742767
 20
1527.947886023496
 30
0.0
 11
2857.846169742767
 21
1527.947886023496
 31
0.0
  0
ARC
  5
1C8CDE6ABB21
330
1C8CDE699D53
100
AcDbEntity
  8
SJC2
100
AcDbCircle
 10
2864.977389742767
 20
1534.108765023496
 30
0.0
 40
10.0
100
AcDbArc
 50
105.56145
 51
164.99999
  0
LINE
  5
1C8CDE6ABB22
330
1C8CDE699D53
100
AcDbEntity
  8
SJC
100
AcDbLine
 10
2781.228199742767
 20
1517.336047023496
 30
0.0
 11
2915.460839742767
 21
1517.336047023496
 31
0.0
  0
ARC
  5
1C8CDE6ABB23
330
1C8CDE699D53
100
AcDbEntity
  8
SJC2
100
AcDbCircle
 10
2848.344519742767
 20
1593.836047023496
 30
0.0
 40
52.0
100
AcDbArc
 50
180.0
 51
0.0
  0
ARC
  5
1C8CDE6ABB24
330
1C8CDE699D53
100
AcDbEntity
  8
SJC2
100
AcDbCircle
 10
2848.344519742764
 20
1591.278680484605
 30
0.0
 40
52.06284782466878
100
AcDbArc
 50
2.815545131476595
 51
177.184454868523
  0
ARC
  5
1C8CDE6ABB25
330
1C8CDE699D53
100
AcDbEntity
  8
SJC2
100
AcDbCircle
 10
2848.344519742765
 20
1591.307976397191
 30
0.0
 40
55.05807062631134
100
AcDbArc
 50
2.631743565752763
 51
177.368256434247
  0
ARC
  5
1C8CDE6ABB26
330
1C8CDE699D53
100
AcDbEntity
  8
SJC2
100
AcDbCircle
 10
2848.344519742765
 20
1591.317542504798
 30
0.0
 40
66.54767362583673
100
AcDbArc
 50
2.168883442014078
 51
177.8311165579858
  0
LINE
  5
1C8CDE6ABB27
330
1C8CDE699D53
100
AcDbEntity
  8
SJC
100
AcDbLine
 10
2773.344519742768
 20
1525.336047023496
 30
0.0
 11
2923.344519742768
 21
1525.336047023496
 31
0.0
  0
LINE
  5
1C8CDE6ABB28
330
1C8CDE699D53
100
AcDbEntity
  8
SJC
100
AcDbLine
 10
2773.344519742768
 20
1523.336047023496
 30
0.0
 11
2923.344519742768
 21
1523.336047023496
 31
0.0
  0
DIMENSION
  5
1C8CDE6ABB29
330
1C8CDE699D53
100
AcDbEntity
  8
SUNPOU
100
AcDbDimension
  2
*D9
 10
2773.344519742768
 20
1808.468087023495
 30
0.0
 11
2848.344519742767
 21
1835.468087023495
 31
0.0
 70
    32
  1
%%C<>
 71
     5
 42
150.0
  3
SJC
100
AcDbAlignedDimension
 13
2923.344519742768
 23
1525.336047023498
 33
0.0
 14
2773.344519742768
 24
1525.336047023496
 34
0.0
100
AcDbRotatedDimension
1001
ACAD
1000
DSTYLE
1002
{
1070
   140
1040
3.0
1070
   340
1005
1C8CDE699DA6
1070
    40
1040
10.0
1070
   147
1040
1.199999999999999
1070
    42
1040
1.0
1070
    44
1040
1.0
1070
    43
1040
6.0
1070
   271
1070
     2
1070
    41
1040
2.0
1002
}
  0
DIMENSION
  5
1C8CDE6ABB2A
330
1C8CDE699D53
100
AcDbEntity
  8
SUNPOU
100
AcDbDimension
  2
*D8
 10
2914.844519742768
 20
1708.468087023496
 30
0.0
 11
2848.358021914011
 21
1735.468087023496
 31
0.0
 70
    32
  1
%%C133
 71
     5
 42
132.9729956575138
  3
SJC
100
AcDbAlignedDimension
 13
2781.871524085254
 23
1591.941093642492
 33
0.0
 14
2914.844519742768
 24
1593.836047023471
 34
0.0
100
AcDbRotatedDimension
1001
ACAD
1000
DSTYLE
1002
{
1070
   140
1040
3.0
1070
   340
1005
1C8CDE699DA6
1070
    40
1040
10.0
1070
   147
1040
1.199999999999999
1070
    42
1040
1.0
1070
    44
1040
1.0
1070
    43
1040
6.0
1070
   271
1070
     2
1070
    41
1040
2.0
1002
}
  0
LINE
  5
1C8CDE6ABB2D
330
1C8CDE699D53
100
AcDbEntity
  8
MOJI
100
AcDbLine
 10
2710.408559635175
 20
1730.127171252677
 30
0.0
 11
2558.026672578861
 21
1730.127171252677
 31
0.0
  0
TEXT
  5
1C8CDE6ABB2E
330
1C8CDE699D53
100
AcDbEntity
  8
MOJI
100
AcDbText
 10
2557.376586741023
 20
1740.127171252677
 30
0.0
 40
30.0
  1
サヤ管フタ
 41
0.8
  7
EXT08
 72
     2
 11
2692.576586741023
 21
1755.127171252677
 31
0.0
100
AcDbText
 73
     2
  0
ARC
  5
1C8CDE6ABB30
330
1C8CDE699D53
100
AcDbEntity
  8
SJC2
100
AcDbCircle
 10
2848.344519742768
 20
1626.866047023497
 30
0.0
 40
7.5
100
AcDbArc
 50
6.92153473253363
 51
173.0784652674452
  0
ARC
  5
1C8CDE6ABB33
330
1C8CDE699D53
100
AcDbEntity
  8
SJC2
100
AcDbCircle
 10
2848.344519742767
 20
1593.836047023496
 30
0.0
 40
66.5
100
AcDbArc
 50
180.0
 51
261.48038
  0
LINE
  5
1C8CDE6ABB34
330
1C8CDE699D53
100
AcDbEntity
  8
SJC
100
AcDbLine
 10
2773.344519742768
 20
1525.336047023496
 30
0.0
 11
2773.344519742768
 21
1523.336047023496
 31
0.0
  0
ARC
  5
1C8CDE6ABB35
330
1C8CDE699D53
100
AcDbEntity
  8
SJC2
100
AcDbCircle
 10
2848.344519742767
 20
1593.836047023496
 30
0.0
 40
55.0
100
AcDbArc
 50
180.0
 51
261.44989
  0
ARC
  5
1C8CDE6ABB36
330
1C8CDE699D53
100
AcDbEntity
  8
SJC
100
AcDbCircle
 10
2776.934859742767
 20
1522.336047023496
 30
0.0
 40
1.0
100
AcDbArc
 50
15.0
 51
90.00000300000001
  0
ARC
  5
1C8CDE6ABB37
330
1C8CDE699D53
100
AcDbEntity
  8
SJC
100
AcDbCircle
 10
2781.228199742767
 20
1519.836047023497
 30
0.0
 40
2.5
100
AcDbArc
 50
195.00001
 51
270.0
  0
LINE
  5
1C8CDE6ABB38
330
1C8CDE699D53
100
AcDbEntity
  8
SJC
100
AcDbLine
 10
2777.900799742767
 20
1522.594907023496
 30
0.0
 11
2778.813399742767
 21
1519.188987023496
 31
0.0
  0
ARC
  5
1C8CDE6ABB39
330
1C8CDE699D53
100
AcDbEntity
  8
SJC2
100
AcDbCircle
 10
2854.344519742767
 20
1525.336047023496
 30
0.0
 40
2.0
100
AcDbArc
 50
164.99999
 51
180.0
  0
LINE
  5
1C8CDE6ABB3A
330
1C8CDE699D53
100
AcDbEntity
  8
SJC2
100
AcDbLine
 10
2839.344519742768
 20
1527.080897023497
 30
0.0
 11
2839.344519742768
 21
1525.336047023496
 31
0.0
  0
ARC
  5
1C8CDE6ABB3B
330
1C8CDE699D53
100
AcDbEntity
  8
SJC2
100
AcDbCircle
 10
2842.344519742767
 20
1525.336047023496
 30
0.0
 40
2.0
100
AcDbArc
 50
0.0
 51
15.0
  0
LINE
  5
1C8CDE6ABB3C
330
1C8CDE699D53
100
AcDbEntity
  8
SJC2
100
AcDbLine
 10
2838.842869742767
 20
1527.947886023496
 30
0.0
 11
2843.715249742767
 21
1527.947886023496
 31
0.0
  0
LINE
  5
1C8CDE6ABB3D
330
1C8CDE699D53
100
AcDbEntity
  8
SJC2
100
AcDbLine
 10
2841.370949742767
 20
1536.696963023497
 30
0.0
 11
2844.276399742767
 21
1525.853688023496
 31
0.0
  0
ARC
  5
1C8CDE6ABB3E
330
1C8CDE699D53
100
AcDbEntity
  8
SJC2
100
AcDbCircle
 10
2838.344519742767
 20
1527.080897023497
 30
0.0
 40
1.0
100
AcDbArc
 50
0.0000025044777
 51
81.48038000000001
  0
LINE
  5
1C8CDE6ABB3F
330
1C8CDE699D53
100
AcDbEntity
  8
SJC2
100
AcDbLine
 10
2855.318089742766
 20
1536.696961023496
 30
0.0
 11
2852.412639742767
 21
1525.853685023496
 31
0.0
  0
ARC
  5
1C8CDE6ABB40
330
1C8CDE699D53
100
AcDbEntity
  8
SJC2
100
AcDbCircle
 10
2831.711649742767
 20
1534.108765023496
 30
0.0
 40
10.0
100
AcDbArc
 50
15.0
 51
74.43854300000001
  0
ARC
  5
1C8CDE6ABB41
330
1C8CDE699D53
100
AcDbEntity
  8
SJC2
100
AcDbCircle
 10
2848.344519742768
 20
1611.866047023497
 30
0.0
 40
7.5
100
AcDbArc
 50
187.4412803380886
 51
352.5587196619325
  0
LINE
  5
1C8CDE6ABB42
330
1C8CDE699D53
100
AcDbEntity
  8
SJC2
100
AcDbLine
 10
2840.90768391298
 20
1610.89472172229
 30
0.0
 11
2840.90460139162
 21
1617.010849439143
 31
0.0
  0
LINE
  5
1C8CDE6ABB43
330
1C8CDE699D53
100
AcDbEntity
  8
HASEN
100
AcDbLine
 10
2840.904601391618
 20
1617.010849439145
 30
0.0
 11
2840.899178856716
 21
1627.76987172469
 31
0.0
  0
LINE
  5
1C8CDE6ABB44
330
1C8CDE699D53
100
AcDbEntity
  8
SJC2
100
AcDbLine
 10
2855.784438093919
 20
1617.010849439145
 30
0.0
 11
2855.781355572559
 21
1610.894721722293
 31
0.0
  0
LINE
  5
1C8CDE6ABB45
330
1C8CDE699D53
100
AcDbEntity
  8
HASEN
100
AcDbLine
 10
2855.784438093919
 20
1617.010849439145
 30
0.0
 11
2855.78986062882
 21
1627.76987172469
 31
0.0
  0
ARC
  5
1C8CDE6ABB46
330
1C8CDE699D53
100
AcDbEntity
  8
KASOU
 48
0.5
100
AcDbCircle
 10
3028.560508325061
 20
1515.403493325678
 30
0.0
 40
143.4670059833463
100
AcDbArc
 50
3.96990343829884
 51
81.81807838508607
  0
DIMENSION
  5
1C8CDE6ABB47
330
1C8CDE699D53
100
AcDbEntity
  8
SUNPOU
100
AcDbDimension
  2
*D7
 10
3006.906424969391
 20
1708.468107023495
 30
0.0
 11
3094.406424969391
 21
1735.468107023495
 31
0.0
 12
-3837.542236702571
 22
31.01735243169105
 32
0.0
 70
    32
 71
     5
 42
-1.0
  3
SJC
100
AcDbAlignedDimension
 13
3181.906424969391
 23
1525.336067023497
 33
0.0
 14
3006.906424969391
 24
1525.336067023497
 34
0.0
100
AcDbRotatedDimension
1001
ACAD
1000
DSTYLE
1002
{
1070
   140
1040
3.0
1070
   340
1005
1C8CDE699DA6
1070
    40
1040
10.0
1070
   147
1040
1.199999999999999
1070
    42
1040
1.0
1070
    44
1040
1.0
1070
    43
1040
6.0
1070
   271
1070
     2
1070
    41
1040
2.0
1002
}
  0
LINE
  5
1C8CDE6ABB48
330
1C8CDE699D53
100
AcDbEntity
  8
SJC2
100
AcDbLine
 10
3023.809214278736
 20
1541.505940492617
 30
0.0
 11
3020.015904282465
 21
1525.336067023497
 31
0.0
  0
LINE
  5
1C8CDE6ABB49
330
1C8CDE699D53
100
AcDbEntity
  8
SJC
100
AcDbLine
 10
3181.906424969391
 20
1525.336067023497
 30
0.0
 11
3006.906424969391
 21
1525.336067023497
 31
0.0
  0
LINE
  5
1C8CDE6ABB4A
330
1C8CDE699D53
100
AcDbEntity
  8
SJC
100
AcDbLine
 10
3181.906424969391
 20
1523.336067023496
 30
0.0
 11
3006.906424969391
 21
1523.336067023496
 31
0.0
  0
ARC
  5
1C8CDE6ABB4B
330
1C8CDE699D53
100
AcDbEntity
  8
SJC2
100
AcDbCircle
 10
2848.344519742767
 20
1593.836047023496
 30
0.0
 40
55.0
100
AcDbArc
 50
278.55011
 51
0.0
  0
ARC
  5
1C8CDE6ABB4C
330
1C8CDE699D53
100
AcDbEntity
  8
SJC2
100
AcDbCircle
 10
2848.344519742767
 20
1593.836047023496
 30
0.0
 40
66.5
100
AcDbArc
 50
278.51962
 51
0.0
  0
LINE
  5
1C8CDE6ABB4D
330
1C8CDE699D53
100
AcDbEntity
  8
SJC2
100
AcDbLine
 10
2857.344519742767
 20
1527.080897023497
 30
0.0
 11
2857.344519742767
 21
1525.336047023496
 31
0.0
  0
ARC
  5
1C8CDE6ABB4E
330
1C8CDE699D53
100
AcDbEntity
  8
SJC2
100
AcDbCircle
 10
2858.344519742767
 20
1527.080897023497
 30
0.0
 40
1.0
100
AcDbArc
 50
98.51961800000001
 51
179.99999
  0
LINE
  5
1C8CDE6ABB4F
330
1C8CDE699D53
100
AcDbEntity
  8
SJC
100
AcDbLine
 10
2923.344519742768
 20
1525.336047023497
 30
0.0
 11
2923.344519742768
 21
1523.336047023497
 31
0.0
  0
ARC
  5
1C8CDE6ABB50
330
1C8CDE699D53
100
AcDbEntity
  8
SJC
100
AcDbCircle
 10
2919.754179742767
 20
1522.336047023497
 30
0.0
 40
1.0
100
AcDbArc
 50
89.99999700000008
 51
165.0000000000001
  0
ARC
  5
1C8CDE6ABB51
330
1C8CDE699D53
100
AcDbEntity
  8
SJC
100
AcDbCircle
 10
2915.460839742767
 20
1519.836047023497
 30
0.0
 40
2.5
100
AcDbArc
 50
270.0000000000001
 51
344.9999900000001
  0
LINE
  5
1C8CDE6ABB52
330
1C8CDE699D53
100
AcDbEntity
  8
SJC
100
AcDbLine
 10
2918.788239742768
 20
1522.594907023497
 30
0.0
 11
2917.875639742768
 21
1519.188987023497
 31
0.0
  0
LINE
  5
1C8CDE6ABB53
330
1C8CDE699D53
100
AcDbEntity
  8
SJC
100
AcDbLine
 10
3006.906424969391
 20
1525.336067023497
 30
0.0
 11
3006.906424969391
 21
1523.336067023496
 31
0.0
  0
LINE
  5
1C8CDE6ABB54
330
1C8CDE699D53
100
AcDbEntity
  8
SJC2
100
AcDbLine
 10
3041.398000549474
 20
1642.95711493917
 30
0.0
 11
3023.809214278736
 21
1541.505940492617
 31
0.0
  0
LINE
  5
1C8CDE6ABB55
330
1C8CDE699D53
100
AcDbEntity
  8
SJC2
100
AcDbLine
 10
3048.978248436455
 20
1657.410175191599
 30
0.0
 11
3026.404480250858
 21
1527.207139836561
 31
0.0
  0
LINE
  5
1C8CDE6ABB56
330
1C8CDE699D53
100
AcDbEntity
  8
SJC2
100
AcDbLine
 10
3047.007645747918
 20
1657.751825662002
 30
0.0
 11
3024.496518105676
 21
1527.910094136008
 31
0.0
  0
LINE
  5
1C8CDE6ABB57
330
1C8CDE699D53
100
AcDbEntity
  8
SJC
100
AcDbLine
 10
3164.056694801491
 20
1525.336067023497
 30
0.0
 11
3049.75615513729
 21
1525.336067023497
 31
0.0
  0
LINE
  5
1C8CDE6ABB58
330
1C8CDE699D53
100
AcDbEntity
  8
SJC
100
AcDbLine
 10
3174.02274496939
 20
1517.336067023497
 30
0.0
 11
3041.290084969391
 21
1517.336067023497
 31
0.0
  0
LINE
  5
1C8CDE6ABB59
330
1C8CDE699D53
100
AcDbEntity
  8
SJC
  6
Continuous
100
AcDbLine
 10
3030.177424969392
 20
1517.757575023497
 30
0.0
 11
3029.11362496939
 21
1516.693717023497
 31
0.0
  0
LINE
  5
1C8CDE6ABB5A
330
1C8CDE699D53
100
AcDbEntity
  8
SJC
  6
Continuous
100
AcDbLine
 10
3030.828024969391
 20
1517.107093023497
 30
0.0
 11
3029.764024969391
 21
1516.043235023497
 31
0.0
  0
LINE
  5
1C8CDE6ABB5B
330
1C8CDE699D53
100
AcDbEntity
  8
SJC
  6
Continuous
100
AcDbLine
 10
3027.048824969392
 20
1516.043151023497
 30
0.0
 11
3025.98502496939
 21
1517.107003023497
 31
0.0
  0
LINE
  5
1C8CDE6ABB5C
330
1C8CDE699D53
100
AcDbEntity
  8
SJC
  6
Continuous
100
AcDbLine
 10
3027.699424969391
 20
1516.693717023497
 30
0.0
 11
3026.63542496939
 21
1517.757575023497
 31
0.0
  0
ARC
  5
1C8CDE6ABB5D
330
1C8CDE699D53
100
AcDbEntity
  8
SJC
  6
Continuous
100
AcDbCircle
 10
3028.406424969392
 20
1515.336067023496
 30
0.0
 40
3.0
100
AcDbArc
 50
126.179851
 51
143.820146
  0
ARC
  5
1C8CDE6ABB5E
330
1C8CDE699D53
100
AcDbEntity
  8
SJC
  6
Continuous
100
AcDbCircle
 10
3028.406424969392
 20
1515.336067023496
 30
0.0
 40
3.0
100
AcDbArc
 50
36.17984999999997
 51
53.82014999999999
  0
ARC
  5
1C8CDE6ABB5F
330
1C8CDE699D53
100
AcDbEntity
  8
SJC
  6
Continuous
100
AcDbCircle
 10
3028.406424969392
 20
1517.400817023497
 30
0.0
 40
1.0
100
AcDbArc
 50
225.0
 51
315.0
  0
LINE
  5
1C8CDE6ABB60
330
1C8CDE699D53
100
AcDbEntity
  8
HASEN
100
AcDbLine
 10
3020.689165829367
 20
1525.336067023496
 30
0.0
 11
3021.589457947001
 21
1525.815577410306
 31
0.0
  0
ARC
  5
1C8CDE6ABB61
330
1C8CDE699D53
100
AcDbEntity
  8
SJC2
100
AcDbCircle
 10
3023.941527779003
 20
1527.634136639314
 30
0.0
 40
2.5
100
AcDbArc
 50
304.096969271222
 51
350.1642161585037
  0
ARC
  5
1C8CDE6ABB62
330
1C8CDE699D53
100
AcDbEntity
  8
SJC
100
AcDbCircle
 10
3036.99682496939
 20
1522.336067023497
 30
0.0
 40
1.0
100
AcDbArc
 50
15.00000999999999
 51
89.999997
  0
ARC
  5
1C8CDE6ABB63
330
1C8CDE699D53
100
AcDbEntity
  8
SJC
100
AcDbCircle
 10
3036.996744969391
 20
1522.336067023497
 30
0.0
 40
1.0
100
AcDbArc
 50
15.00000999999999
 51
89.999997
  0
LINE
  5
1C8CDE6ABB64
330
1C8CDE699D53
100
AcDbEntity
  8
SJC2
100
AcDbLine
 10
3023.852298010496
 20
1527.020242925153
 30
0.0
 11
3021.589457947001
 21
1525.815577410306
 31
0.0
  0
ARC
  5
1C8CDE6ABB65
330
1C8CDE699D53
100
AcDbEntity
  8
SJC2
100
AcDbCircle
 10
3023.264891425339
 20
1528.12362568001
 30
0.0
 40
1.25
100
AcDbArc
 50
298.0294456371235
 51
350.1641965702308
  0
LINE
  5
1C8CDE6ABB66
330
1C8CDE699D53
100
AcDbEntity
  8
SJC2
100
AcDbLine
 10
3026.252343453359
 20
1538.037503434362
 30
0.0
 11
3023.809155050407
 21
1541.50568801798
 31
0.0
  0
ARC
  5
1C8CDE6ABB67
330
1C8CDE699D53
100
AcDbEntity
  8
SJC
100
AcDbCircle
 10
3041.290084969391
 20
1519.836067023496
 30
0.0
 40
2.5
100
AcDbArc
 50
195.0
 51
270.0
  0
LINE
  5
1C8CDE6ABB68
330
1C8CDE699D53
100
AcDbEntity
  8
SJC
100
AcDbLine
 10
3037.962564969392
 20
1522.594847023496
 30
0.0
 11
3038.875164969392
 21
1519.189007023497
 31
0.0
  0
ARC
  5
1C8CDE6ABB69
330
1C8CDE699D53
100
AcDbEntity
  8
SJC
100
AcDbCircle
 10
3178.31608496939
 20
1522.336067023497
 30
0.0
 40
1.0
100
AcDbArc
 50
89.999997
 51
165.0
  0
LINE
  5
1C8CDE6ABB6A
330
1C8CDE699D53
100
AcDbEntity
  8
SJC
100
AcDbLine
 10
3181.906424969391
 20
1525.336067023497
 30
0.0
 11
3181.906424969391
 21
1523.336067023496
 31
0.0
  0
ARC
  5
1C8CDE6ABB6B
330
1C8CDE699D53
100
AcDbEntity
  8
SJC
100
AcDbCircle
 10
3174.02274496939
 20
1519.836067023496
 30
0.0
 40
2.5
100
AcDbArc
 50
270.0
 51
344.99999
  0
LINE
  5
1C8CDE6ABB6C
330
1C8CDE699D53
100
AcDbEntity
  8
SJC
100
AcDbLine
 10
3177.35014496939
 20
1522.594927023497
 30
0.0
 11
3176.437544969391
 21
1519.189007023497
 31
0.0
  0
LINE
  5
1C8CDE6ABB6D
330
1C8CDE699D53
100
AcDbEntity
  8
SJC2
100
AcDbLine
 10
3048.978248436455
 20
1657.410175191599
 30
0.0
 11
3047.007689529359
 21
1657.7518251254
 31
0.0
  0
LINE
  5
1C8CDE6ABB6E
330
1C8CDE699D53
100
AcDbEntity
  8
SJC2
100
AcDbLine
 10
3047.007689529359
 20
1657.7518251254
 30
0.0
 11
3045.114138150924
 21
1646.828929577643
 31
0.0
  0
ARC
  5
1C8CDE6ABB6F
330
1C8CDE699D53
100
AcDbEntity
  8
SJC2
100
AcDbCircle
 10
3044.128959142336
 20
1646.999757832437
 30
0.0
 40
1.0
100
AcDbArc
 50
305.1642061585037
 51
350.1642161585037
  0
ARC
  5
1C8CDE6ABB70
330
1C8CDE699D53
100
AcDbEntity
  8
SJC2
100
AcDbCircle
 10
3043.861546057906
 20
1642.52999418635
 30
0.0
 40
2.5
100
AcDbArc
 50
125.1642151585037
 51
170.1642159585037
  0
LINE
  5
1C8CDE6ABB71
330
1C8CDE699D53
100
AcDbEntity
  8
SJC2
100
AcDbLine
 10
3044.704765292927
 20
1646.182326952582
 30
0.0
 11
3042.421648970709
 21
1644.57385756238
 31
0.0
  0
LINE
  5
1C8CDE6ABB72
330
1C8CDE699D53
100
AcDbEntity
  8
MOJI2
100
AcDbLine
 10
2916.264011552403
 20
1979.99239518315
 30
0.0
 11
3042.493282125362
 21
1979.99239518315
 31
0.0
  0
LINE
  5
1C8CDE6ABB73
330
1C8CDE699D53
100
AcDbEntity
  8
MOJI2
100
AcDbLine
 10
2916.264011552403
 20
1969.992395183151
 30
0.0
 11
3042.493282125362
 21
1969.992395183151
 31
0.0
  0
TEXT
  5
1C8CDE6ABB74
330
1C8CDE699D53
100
AcDbEntity
  8
MOJI2
  6
Continuous
100
AcDbText
 10
2919.541568568734
 20
1990.82813130161
 30
0.0
 40
40.0
  1
サヤ管
 41
0.8
  7
KANJI
100
AcDbText
  0
ARC
  5
1C8CDE6ABE8B
330
1C8CDE699D53
100
AcDbEntity
  8
SJC
100
AcDbCircle
 10
1947.919690305254
 20
1663.157711124524
 30
0.0
 40
0.25
100
AcDbArc
 50
90.0
 51
180.0
  0
ARC
  5
1C8CDE6ABE97
330
1C8CDE699D53
100
AcDbEntity
  8
SJC
100
AcDbCircle
 10
1020.500987637066
 20
2319.371390402812
 30
0.0
 40
0.25
100
AcDbArc
 50
180.0
 51
270.0
  0
ARC
  5
1C8CDE6ABE98
330
1C8CDE699D53
100
AcDbEntity
  8
SJC
100
AcDbCircle
 10
1370.000987637066
 20
2319.371390402812
 30
0.0
 40
0.25
100
AcDbArc
 50
270.0
 51
0.0
  0
LINE
  5
1C8CDE6AC1F4
330
1C8CDE699D53
100
AcDbEntity
  8
SJC
100
AcDbLine
 10
1138.101858666446
 20
1539.947711124525
 30
0.0
 11
1138.101858666445
 21
963.4077111245243
 31
0.0
  0
LINE
  5
1C8CDE6AC1F5
330
1C8CDE699D53
100
AcDbEntity
  8
SJC
100
AcDbLine
 10
1252.401858666445
 20
1539.947711124524
 30
0.0
 11
1252.401858666445
 21
963.4077111245243
 31
0.0
  0
ARC
  5
1C8CDE6AC1F7
330
1C8CDE699D53
100
AcDbEntity
  8
SJC
100
AcDbCircle
 10
1195.251858666447
 20
1705.707711124524
 30
0.0
 40
57.7
100
AcDbArc
 50
0.0
 51
180.0
  0
LINE
  5
1C8CDE6AC1F8
102
{ACAD_REACTORS
330
1C8CDE6AC39E
102
}
330
1C8CDE699D53
100
AcDbEntity
  8
SJC
100
AcDbLine
 10
1251.951858666447
 20
1663.407711124524
 30
0.0
 11
1138.551858666447
 21
1663.407711124524
 31
0.0
  0
LINE
  5
1C8CDE6AC1F9
102
{ACAD_REACTORS
330
1C8CDE6AC39E
102
}
330
1C8CDE699D53
100
AcDbEntity
  8
SJC
100
AcDbLine
 10
1250.401862872262
 20
1543.407711124524
 30
0.0
 11
1140.10185446063
 21
1543.407711124524
 31
0.0
  0
LINE
  5
1C8CDE6AC1FB
102
{ACAD_REACTORS
330
1C8CDE6AC39E
102
}
330
1C8CDE699D53
100
AcDbEntity
  8
SJC
100
AcDbLine
 10
1140.101858666447
 20
1663.407711124525
 30
0.0
 11
1140.101858666446
 21
1543.411812739662
 31
0.0
  0
ARC
  5
1C8CDE6AC1FC
330
1C8CDE699D53
100
AcDbEntity
  8
SJC
100
AcDbCircle
 10
1140.101858666446
 20
1539.947711124525
 30
0.0
 40
2.0
100
AcDbArc
 50
119.9999999999916
 51
180.0
  0
ARC
  5
1C8CDE6AC1FD
330
1C8CDE699D53
100
AcDbEntity
  8
SJC
100
AcDbCircle
 10
1138.101858666446
 20
1543.411812739662
 30
0.0
 40
2.0
100
AcDbArc
 50
299.9999999999949
 51
0.0
  0
LINE
  5
1C8CDE6AC1FE
330
1C8CDE699D53
100
AcDbEntity
  8
SJC
100
AcDbLine
 10
1137.551858666446
 20
1705.707711124524
 30
0.0
 11
1137.551858666447
 21
1664.407711124525
 31
0.0
  0
LINE
  5
1C8CDE6AC1FF
330
1C8CDE699D53
100
AcDbEntity
  8
SJC
100
AcDbLine
 10
1137.551858666447
 20
1664.407711124524
 30
0.0
 11
1138.551858666447
 21
1663.407711124524
 31
0.0
  0
LINE
  5
1C8CDE6AC200
102
{ACAD_REACTORS
330
1C8CDE6AC39E
102
}
330
1C8CDE699D53
100
AcDbEntity
  8
SJC
100
AcDbLine
 10
1250.401858666447
 20
1663.407711124524
 30
0.0
 11
1250.401858666446
 21
1543.411812739661
 31
0.0
  0
ARC
  5
1C8CDE6AC201
330
1C8CDE699D53
100
AcDbEntity
  8
SJC
100
AcDbCircle
 10
1250.401858666445
 20
1539.947711124524
 30
0.0
 40
2.0
100
AcDbArc
 50
0.0
 51
59.99999999998492
  0
ARC
  5
1C8CDE6AC202
330
1C8CDE699D53
100
AcDbEntity
  8
SJC
100
AcDbCircle
 10
1252.401858666446
 20
1543.411812739661
 30
0.0
 40
2.0
100
AcDbArc
 50
180.0
 51
239.9999999999793
  0
LINE
  5
1C8CDE6AC203
330
1C8CDE699D53
100
AcDbEntity
  8
SJC
100
AcDbLine
 10
1252.951858666447
 20
1705.707711124524
 30
0.0
 11
1252.951858666447
 21
1664.407711124524
 31
0.0
  0
LINE
  5
1C8CDE6AC204
330
1C8CDE699D53
100
AcDbEntity
  8
SJC
100
AcDbLine
 10
1252.951858666447
 20
1664.407711124524
 30
0.0
 11
1251.951858666447
 21
1663.407711124524
 31
0.0
  0
CIRCLE
  5
1C8CDE6AC207
330
1C8CDE699D53
100
AcDbEntity
  8
SJC
100
AcDbCircle
 10
1195.250987637065
 20
2015.729585387875
 30
0.0
 40
57.7
  0
DIMENSION
  5
1C8CDE6AC222
330
1C8CDE699D53
100
AcDbEntity
  8
SUNPOU
100
AcDbDimension
  2
*D10
 10
1520.252729695829
 20
963.4077111245241
 30
0.0
 11
1493.252729695828
 21
1363.407711124524
 31
0.0
 70
    32
 71
     5
 42
799.9999999999999
  3
SJC
100
AcDbAlignedDimension
 13
1195.251858666447
 23
1763.407711124524
 33
0.0
 14
1390.844751357401
 24
963.4077111245241
 34
0.0
 50
90.0
100
AcDbRotatedDimension
1001
ACAD
1000
DSTYLE
1002
{
1070
   140
1040
3.0
1070
   340
1005
1C8CDE699DA6
1070
    40
1040
10.0
1070
   147
1040
1.199999999999999
1070
    42
1040
1.0
1070
    44
1040
1.0
1070
    43
1040
6.0
1070
   271
1070
     2
1070
    41
1040
2.0
1002
}
  0
DIMENSION
  5
1C8CDE6AC22F
330
1C8CDE699D53
100
AcDbEntity
  8
SUNPOU
100
AcDbDimension
  2
*D11
 10
1595.252729695828
 20
563.4077111245241
 30
0.0
 11
1568.252729695829
 21
1163.407711124524
 31
0.0
 70
    32
 71
     5
 42
-1.0
  3
SJC
100
AcDbAlignedDimension
 13
1195.251858666447
 23
1763.407711124524
 33
0.0
 14
1395.251858666447
 24
563.4077111245241
 34
0.0
 50
90.0
100
AcDbRotatedDimension
1001
ACAD
1000
DSTYLE
1002
{
1070
   140
1040
3.0
1070
   340
1005
1C8CDE699DA6
1070
    40
1040
10.0
1070
   147
1040
1.199999999999999
1070
    42
1040
1.0
1070
    44
1040
1.0
1070
    43
1040
6.0
1070
   271
1070
     2
1070
    41
1040
2.0
1002
}
  0
DIMENSION
  5
1C8CDE6AC23C
330
1C8CDE699D53
100
AcDbEntity
  8
SUNPOU
100
AcDbDimension
  2
*D12
 10
1445.252729695829
 20
1663.407711124524
 30
0.0
 11
1413.030223278656
 21
1713.407711124524
 31
0.0
 12
0.0
 22
-100.0
 32
0.0
 70
   160
 71
     5
 42
-1.0
  3
SJC
100
AcDbAlignedDimension
 13
1195.251858666447
 23
1763.407711124524
 33
0.0
 14
1251.951858666447
 24
1663.407711124524
 34
0.0
 50
90.0
100
AcDbRotatedDimension
1001
ACAD
1000
DSTYLE
1002
{
1070
   140
1040
3.0
1070
   340
1005
1C8CDE699DA6
1070
    40
1040
10.0
1070
   147
1040
1.199999999999999
1070
    42
1040
1.0
1070
    44
1040
1.0
1070
    43
1040
6.0
1070
   271
1070
     2
1070
    41
1040
2.0
1002
}
  0
DIMENSION
  5
1C8CDE6AC249
330
1C8CDE699D53
100
AcDbEntity
  8
SUNPOU
100
AcDbDimension
  2
*D13
 10
1445.252729695829
 20
1543.411812739661
 30
0.0
 11
1413.030223278656
 21
1603.409761932093
 31
0.0
 12
0.0
 22
-100.0
 32
0.0
 70
   160
 71
     5
 42
-1.0
  3
SJC
100
AcDbAlignedDimension
 13
1251.951858666447
 23
1663.407711124524
 33
0.0
 14
1250.401858666446
 24
1543.411812739661
 34
0.0
 50
90.0
100
AcDbRotatedDimension
1001
ACAD
1000
DSTYLE
1002
{
1070
   140
1040
3.0
1070
   340
1005
1C8CDE699DA6
1070
    40
1040
10.0
1070
   147
1040
1.199999999999999
1070
    42
1040
1.0
1070
    44
1040
1.0
1070
    43
1040
6.0
1070
   271
1070
     2
1070
    41
1040
2.0
1002
}
  0
TEXT
  5
1C8CDE6AC281
330
1C8CDE699D53
100
AcDbEntity
  8
MOJI
100
AcDbText
 10
874.4717472673713
 20
1616.317296445133
 30
0.0
 40
30.0
  1
高輝度（赤色）
 41
0.8
  7
EXT08
 72
     2
 11
1052.871747267371
 21
1631.317296445133
 31
0.0
100
AcDbText
 73
     2
  0
TEXT
  5
1C8CDE6AC282
330
1C8CDE699D53
100
AcDbEntity
  8
MOJI
100
AcDbText
 10
891.8390893975141
 20
1664.128962574115
 30
0.0
 40
30.0
  1
反射シート
 41
0.8
  7
EXT08
 72
     2
 11
1026.239089397514
 21
1679.128962574115
 31
0.0
100
AcDbText
 73
     2
  0
LINE
  5
1C8CDE6AC283
330
1C8CDE699D53
100
AcDbEntity
  8
MOJI
100
AcDbLine
 10
1032.275949006485
 20
1654.128962574114
 30
0.0
 11
866.33798524162
 21
1654.128962574114
 31
0.0
  0
LINE
  5
1C8CDE6AC284
330
1C8CDE699D53
100
AcDbEntity
  8
MOJI
100
AcDbLine
 10
1052.275949006485
 20
1654.128962574114
 30
0.0
 11
1032.275949006485
 21
1654.128962574114
 31
0.0
  0
TEXT
  5
1C8CDE6AC28A
330
1C8CDE699D53
100
AcDbEntity
  8
MOJI
100
AcDbText
 10
878.8348537314213
 20
1801.225725242547
 30
0.0
 40
30.0
  1
頭部キャップ
 41
0.8
  7
EXT08
 72
     2
 11
1046.834853731421
 21
1816.225725242546
 31
0.0
100
AcDbText
 73
     2
  0
LINE
  5
1C8CDE6AC28B
330
1C8CDE699D53
100
AcDbEntity
  8
MOJI
100
AcDbLine
 10
1061.029990479958
 20
1791.225725242546
 30
0.0
 11
875.6089488764446
 21
1791.225725242546
 31
0.0
  0
LINE
  5
1C8CDE6AC297
102
{ACAD_REACTORS
330
1C8CDE6AC3AD
102
}
330
1C8CDE699D53
100
AcDbEntity
  8
SJC
100
AcDbLine
 10
2059.969690305254
 20
1663.407711124524
 30
0.0
 11
2059.969690305253
 21
1543.411812739661
 31
0.0
  0
LINE
  5
1C8CDE6AC298
102
{ACAD_REACTORS
330
1C8CDE6AC3AD
102
}
330
1C8CDE699D53
100
AcDbEntity
  8
SJC
100
AcDbLine
 10
1949.669690305254
 20
1663.407711124525
 30
0.0
 11
1949.669690305253
 21
1543.411812739662
 31
0.0
  0
LINE
  5
1C8CDE6AC29A
102
{ACAD_REACTORS
330
1C8CDE6AC3AD
102
}
330
1C8CDE699D53
100
AcDbEntity
  8
SJC
100
AcDbLine
 10
2059.96969451107
 20
1543.407711124524
 30
0.0
 11
1949.669686099437
 21
1543.407711124524
 31
0.0
  0
ARC
  5
1C8CDE6AC29B
330
1C8CDE699D53
100
AcDbEntity
  8
SJC
100
AcDbCircle
 10
1947.669690305253
 20
1543.411812739662
 30
0.0
 40
2.0
100
AcDbArc
 50
299.9999999999949
 51
0.0
  0
ARC
  5
1C8CDE6AC29C
330
1C8CDE699D53
100
AcDbEntity
  8
SJC
100
AcDbCircle
 10
1949.669690305253
 20
1539.947711124525
 30
0.0
 40
2.0
100
AcDbArc
 50
119.9999999999916
 51
180.0
  0
ARC
  5
1C8CDE6AC29E
330
1C8CDE699D53
100
AcDbEntity
  8
SJC
100
AcDbCircle
 10
2061.969690305253
 20
1543.411812739661
 30
0.0
 40
2.0
100
AcDbArc
 50
180.0
 51
239.9999999999793
  0
ARC
  5
1C8CDE6AC29F
330
1C8CDE699D53
100
AcDbEntity
  8
SJC
100
AcDbCircle
 10
2059.969690305252
 20
1539.947711124524
 30
0.0
 40
2.0
100
AcDbArc
 50
0.0
 51
59.99999999998492
  0
ARC
  5
1C8CDE6AC2A0
330
1C8CDE699D53
100
AcDbEntity
  8
SJC
100
AcDbCircle
 10
2004.819690305255
 20
1705.707711124524
 30
0.0
 40
57.7
100
AcDbArc
 50
0.0
 51
180.0
  0
LINE
  5
1C8CDE6AC2A1
102
{ACAD_REACTORS
330
1C8CDE6AC3AD
102
}
330
1C8CDE699D53
100
AcDbEntity
  8
SJC
100
AcDbLine
 10
2061.519690305254
 20
1663.407711124524
 30
0.0
 11
1948.119690305254
 21
1663.407711124524
 31
0.0
  0
LINE
  5
1C8CDE6AC2A2
330
1C8CDE699D53
100
AcDbEntity
  8
SJC
100
AcDbLine
 10
1947.119690305253
 20
1705.707711124524
 30
0.0
 11
1947.119690305255
 21
1664.407711124525
 31
0.0
  0
LINE
  5
1C8CDE6AC2A3
330
1C8CDE699D53
100
AcDbEntity
  8
SJC
100
AcDbLine
 10
1947.119690305255
 20
1664.407711124524
 30
0.0
 11
1948.119690305254
 21
1663.407711124524
 31
0.0
  0
LINE
  5
1C8CDE6AC2A4
330
1C8CDE699D53
100
AcDbEntity
  8
SJC
100
AcDbLine
 10
2062.519690305254
 20
1705.707711124524
 30
0.0
 11
2062.519690305254
 21
1664.407711124524
 31
0.0
  0
LINE
  5
1C8CDE6AC2A5
330
1C8CDE699D53
100
AcDbEntity
  8
SJC
100
AcDbLine
 10
2062.519690305254
 20
1664.407711124524
 30
0.0
 11
2061.519690305254
 21
1663.407711124524
 31
0.0
  0
LINE
  5
1C8CDE6AC2A7
330
1C8CDE699D53
100
AcDbEntity
  8
SJC
100
AcDbLine
 10
2061.969690305252
 20
1539.947711124524
 30
0.0
 11
2061.969690305252
 21
1063.485233962375
 31
0.0
  0
LINE
  5
1C8CDE6AC2A8
330
1C8CDE699D53
100
AcDbEntity
  8
SJC
100
AcDbLine
 10
1947.669690305253
 20
1539.947711124525
 30
0.0
 11
1947.669690305252
 21
1063.483218511149
 31
0.0
  0
LINE
  5
1C8CDE6AC2A9
330
1C8CDE699D53
100
AcDbEntity
  8
SJC
100
AcDbLine
 10
1947.669690305252
 20
997.9068466827319
 30
0.0
 11
1947.669690305252
 21
963.4077111245243
 31
0.0
  0
LINE
  5
1C8CDE6AC2AA
330
1C8CDE699D53
100
AcDbEntity
  8
SJC
100
AcDbLine
 10
2061.969690305252
 20
997.9048257103714
 30
0.0
 11
2061.969690305252
 21
963.4077111245243
 31
0.0
  0
DIMENSION
  5
1C8CDE6AC318
330
1C8CDE699D53
100
AcDbEntity
  8
SUNPOU
100
AcDbDimension
  2
*D14
 10
3254.506424969392
 20
1123.736067023497
 30
0.0
 11
3227.905633428716
 21
1075.389824084094
 31
0.0
 70
   160
  1
t<>
 71
     5
 42
1.600000000000136
  3
SJC
100
AcDbAlignedDimension
 13
3167.506384969392
 23
1125.336067023496
 33
0.0
 14
3156.906424969391
 24
1123.736067023497
 34
0.0
 50
270.0
100
AcDbRotatedDimension
1001
ACAD
1000
DSTYLE
1002
{
1070
    40
1040
10.0
1070
    41
1040
2.0
1070
    42
1040
1.0
1070
    43
1040
6.0
1070
    44
1040
1.0
1070
   140
1040
3.0
1070
   147
1040
1.199999999999999
1070
   271
1070
     2
1070
   340
1005
1C8CDE699DA6
1002
}
  0
HATCH
  5
1C8CDE6AC39E
330
1C8CDE699D53
100
AcDbEntity
  8
HATCH
100
AcDbHatch
 10
0.0
 20
0.0
 30
0.0
210
0.0
220
0.0
230
1.0
  2
ANSI31
 70
     0
 71
     1
 91
        2
 92
        7
 72
     0
 73
     1
 93
        4
 10
1195.251858666447
 20
1663.407711124524
 10
1140.101858666447
 20
1663.407711124525
 10
1140.101858666446
 20
1543.407711124524
 10
1195.251858666447
 20
1543.407711124524
 97
        4
330
1C8CDE6AC1F8
330
1C8CDE6AC1FB
330
1C8CDE6AC1F9
330
1C8CDE6AA71B
 92
        7
 72
     0
 73
     1
 93
        4
 10
1250.401858666447
 20
1663.407711124524
 10
1195.251858666447
 20
1663.407711124525
 10
1195.251858666447
 20
1543.407711124524
 10
1250.401858666446
 20
1543.407711124524
 97
        4
330
1C8CDE6AC1F8
330
1C8CDE6AA71B
330
1C8CDE6AC1F9
330
1C8CDE6AC200
 75
     0
 76
     1
 52
0.0
 41
50.0
 77
     0
 78
     1
 53
45.0
 43
0.0
 44
0.0
 45
-4.419417382415921
 46
4.419417382415922
 79
     0
 47
1.864171168979836
 98
        2
 10
1170.402960906896
 20
1609.662969101662
 10
1226.361311897997
 20
1611.527134511921
  0
HATCH
  5
1C8CDE6AC3AD
330
1C8CDE699D53
100
AcDbEntity
  8
HATCH
100
AcDbHatch
 10
0.0
 20
0.0
 30
0.0
210
0.0
220
0.0
230
1.0
  2
ANSI31
 70
     0
 71
     1
 91
        2
 92
        7
 72
     0
 73
     1
 93
        4
 10
1949.669690305253
 20
1543.407711124524
 10
2004.819690305254
 20
1543.407711124524
 10
2004.819690305254
 20
1663.407711124524
 10
1949.669690305254
 20
1663.407711124524
 97
        4
330
1C8CDE6AC2A1
330
1C8CDE6AC298
330
1C8CDE6AC29A
330
1C8CDE6AA89A
 92
        7
 72
     0
 73
     1
 93
        4
 10
2004.819690305254
 20
1543.407711124524
 10
2059.969690305253
 20
1543.407711124524
 10
2059.969690305254
 20
1663.407711124524
 10
2004.819690305254
 20
1663.407711124525
 97
        4
330
1C8CDE6AC2A1
330
1C8CDE6AA89A
330
1C8CDE6AC29A
330
1C8CDE6AC297
 75
     0
 76
     1
 52
0.0
 41
50.0
 77
     0
 78
     1
 53
45.0
 43
0.0
 44
0.0
 45
-4.419417382415921
 46
4.419417382415922
 79
     0
 47
1.456962946744592
 98
        2
 10
1971.129466791964
 20
1592.370297597654
 10
2017.779976856611
 20
1590.913332190462
  0
LEADER
  5
1C8CDE6AC3D4
330
1C8CDE699D53
100
AcDbEntity
  8
MOJI
100
AcDbLeader
  3
SJC
 76
     2
 10
1138.714605305351
 20
1717.232856780144
 30
0.0
 10
1061.029990479958
 20
1791.225725242546
 30
0.0
1001
ACAD
1000
DSTYLE
1002
{
1070
    40
1040
10.0
1070
    41
1040
2.0
1070
    42
1040
1.0
1070
    43
1040
6.0
1070
    44
1040
1.0
1070
   140
1040
3.0
1070
   147
1040
1.199999999999999
1070
   176
1070
     0
1070
   177
1070
     0
1070
   178
1070
     0
1070
   179
1070
     2
1070
   271
1070
     2
1070
   340
1005
1C8CDE699DA6
1002
}
  0
LEADER
  5
1C8CDE6AC3D5
330
1C8CDE699D53
100
AcDbEntity
  8
MOJI
100
AcDbLeader
  3
SJC
 76
     2
 10
1140.101858666446
 20
1587.694789926018
 30
0.0
 10
1052.275949006485
 20
1654.128962574114
 30
0.0
1001
ACAD
1000
DSTYLE
1002
{
1070
    40
1040
10.0
1070
    41
1040
2.0
1070
    42
1040
1.0
1070
    43
1040
6.0
1070
    44
1040
1.0
1070
   140
1040
3.0
1070
   147
1040
1.199999999999999
1070
   176
1070
     0
1070
   177
1070
     0
1070
   178
1070
     0
1070
   179
1070
     2
1070
   271
1070
     2
1070
   340
1005
1C8CDE699DA6
1002
}
  0
LEADER
  5
1C8CDE6AC3D6
330
1C8CDE699D53
100
AcDbEntity
  8
MOJI
100
AcDbLeader
  3
SJC
 76
     2
 10
1138.101858666445
 20
1225.557457969838
 30
0.0
 10
1043.643342443588
 20
1298.62423718083
 30
0.0
1001
ACAD
1000
DSTYLE
1002
{
1070
    40
1040
10.0
1070
    41
1040
2.0
1070
    42
1040
1.0
1070
    43
1040
6.0
1070
    44
1040
1.0
1070
   140
1040
3.0
1070
   147
1040
1.199999999999999
1070
   176
1070
     0
1070
   177
1070
     0
1070
   178
1070
     0
1070
   179
1070
     2
1070
   271
1070
     2
1070
   340
1005
1C8CDE699DA6
1002
}
  0
LEADER
  5
1C8CDE6AC3D7
330
1C8CDE699D53
100
AcDbEntity
  8
MOJI
100
AcDbLeader
  3
SJC
 76
     2
 10
1126.037696236502
 20
1064.9345983404
 30
0.0
 10
1043.323713036443
 20
1121.760784786368
 30
0.0
1001
ACAD
1000
DSTYLE
1002
{
1070
    40
1040
10.0
1070
    41
1040
2.0
1070
    42
1040
1.0
1070
    43
1040
6.0
1070
    44
1040
1.0
1070
   140
1040
3.0
1070
   147
1040
1.199999999999999
1070
   176
1070
     0
1070
   177
1070
     0
1070
   178
1070
     0
1070
   179
1070
     2
1070
   271
1070
     2
1070
   340
1005
1C8CDE699DA6
1002
}
  0
LEADER
  5
1C8CDE6AC3DB
330
1C8CDE699D53
100
AcDbEntity
  8
MOJI
100
AcDbLeader
  3
SJC
 76
     2
 10
2787.744559742767
 20
1305.399193817977
 30
0.0
 10
2710.429911828139
 20
1385.345938805083
 30
0.0
1001
ACAD
1000
DSTYLE
1002
{
1070
    40
1040
10.0
1070
    41
1040
2.0
1070
    42
1040
1.0
1070
    43
1040
6.0
1070
    44
1040
1.0
1070
   140
1040
3.0
1070
   147
1040
1.199999999999999
1070
   176
1070
     0
1070
   177
1070
     0
1070
   178
1070
     0
1070
   179
1070
     2
1070
   271
1070
     2
1070
   340
1005
1C8CDE699DA6
1002
}
  0
LEADER
  5
1C8CDE6AC3DC
330
1C8CDE699D53
100
AcDbEntity
  8
MOJI
100
AcDbLeader
  3
SJC
 76
     2
 10
2804.867075858031
 20
1641.69913376848
 30
0.0
 10
2710.408559635175
 20
1730.127171252677
 30
0.0
1001
ACAD
1000
DSTYLE
1002
{
1070
    40
1040
10.0
1070
    41
1040
2.0
1070
    42
1040
1.0
1070
    43
1040
6.0
1070
    44
1040
1.0
1070
   140
1040
3.0
1070
   147
1040
1.199999999999999
1070
   176
1070
     0
1070
   177
1070
     0
1070
   178
1070
     0
1070
   179
1070
     2
1070
   271
1070
     2
1070
   340
1005
1C8CDE699DA6
1002
}
  0
LINE
  5
1C8CDE6AC452
330
1C8CDE699D53
100
AcDbEntity
  8
MOJI
100
AcDbLine
 10
2572.964450742334
 20
459.3972903773019
 30
0.0
 11
3457.744025971712
 21
459.3972903773019
 31
0.0
  0
LINE
  5
1C8CDE6AC453
330
1C8CDE699D53
100
AcDbEntity
  8
MOJI
100
AcDbLine
 10
2572.964450742334
 20
399.3972903773019
 30
0.0
 11
3457.744025971712
 21
399.3972903773019
 31
0.0
  0
LINE
  5
1C8CDE6AC454
330
1C8CDE699D53
100
AcDbEntity
  8
MOJI
100
AcDbLine
 10
2572.964450742334
 20
339.3972903773019
 30
0.0
 11
3457.744025971712
 21
339.3972903773019
 31
0.0
  0
LINE
  5
1C8CDE6AC455
330
1C8CDE699D53
100
AcDbEntity
  8
MOJI
100
AcDbLine
 10
2572.964450742334
 20
519.3972903773019
 30
0.0
 11
3457.744025971714
 21
519.3972903773019
 31
0.0
  0
LINE
  5
1C8CDE6AC456
330
1C8CDE699D53
100
AcDbEntity
  8
MOJI
100
AcDbLine
 10
2572.964450742334
 20
579.3972903773019
 30
0.0
 11
3457.744025971714
 21
579.3972903773019
 31
0.0
  0
LINE
  5
1C8CDE6AC457
330
1C8CDE699D53
100
AcDbEntity
  8
MOJI
100
AcDbLine
 10
2572.964450742334
 20
699.3972903773017
 30
0.0
 11
3457.744025971714
 21
699.3972903773017
 31
0.0
  0
LINE
  5
1C8CDE6AC458
330
1C8CDE699D53
100
AcDbEntity
  8
MOJI
100
AcDbLine
 10
3055.329635440648
 20
639.3972903773017
 30
0.0
 11
3457.744025971714
 21
639.3972903773017
 31
0.0
  0
LINE
  5
1C8CDE6AC459
330
1C8CDE699D53
100
AcDbEntity
  8
MOJI
100
AcDbLine
 10
2789.776968609037
 20
699.3972903773017
 30
0.0
 11
2789.776968609038
 21
339.3972903773019
 31
0.0
  0
LINE
  5
1C8CDE6AC45A
330
1C8CDE699D53
100
AcDbEntity
  8
MOJI
100
AcDbLine
 10
2572.964450742334
 20
699.3972903773017
 30
0.0
 11
2572.964450742333
 21
339.3972903773019
 31
0.0
  0
LINE
  5
1C8CDE6AC45B
330
1C8CDE699D53
100
AcDbEntity
  8
MOJI
100
AcDbLine
 10
2991.414360109227
 20
699.3972903773017
 30
0.0
 11
2991.414360109231
 21
339.3972903773019
 31
0.0
  0
LINE
  5
1C8CDE6AC45C
330
1C8CDE699D53
100
AcDbEntity
  8
MOJI
100
AcDbLine
 10
2572.964450742334
 20
459.3972903773019
 30
0.0
 11
3322.59376511284
 21
459.3972903773019
 31
0.0
  0
TEXT
  5
1C8CDE6AC45D
330
1C8CDE699D53
100
AcDbEntity
  8
MOJI
100
AcDbText
 10
2609.835889135292
 20
414.4331832792777
 30
0.0
 40
30.0
  1
サヤ管フタ
 41
0.8
  7
EXT08
 72
     1
 11
2677.835889135292
 21
414.4331832792777
 31
0.0
100
AcDbText
  0
TEXT
  5
1C8CDE6AC45E
330
1C8CDE699D53
100
AcDbEntity
  8
MOJI
100
AcDbText
 10
2606.235889135292
 20
354.4331832792777
 30
0.0
 40
30.0
  1
ロックピン
 41
0.8
  7
EXT08
 72
     1
 11
2677.835889135292
 21
354.4331832792777
 31
0.0
100
AcDbText
  0
TEXT
  5
1C8CDE6AC45F
330
1C8CDE699D53
100
AcDbEntity
  8
MOJI
100
AcDbText
 10
2637.435889135292
 20
474.4331832792777
 30
0.0
 40
30.0
  1
サヤ管
 41
0.8
  7
EXT08
 72
     1
 11
2677.835889135292
 21
474.4331832792777
 31
0.0
100
AcDbText
  0
TEXT
  5
1C8CDE6AC460
330
1C8CDE699D53
100
AcDbEntity
  8
MOJI
100
AcDbText
 10
2636.635889135292
 20
534.4331832792777
 30
0.0
 40
30.0
  1
支  柱
 41
0.8
  7
EXT08
 72
     1
 11
2677.835889135291
 21
534.4331832792777
 31
0.0
100
AcDbText
  0
TEXT
  5
1C8CDE6AC461
330
1C8CDE699D53
100
AcDbEntity
  8
MOJI
100
AcDbText
 10
3008.068757713731
 20
354.4331832792777
 30
0.0
 40
30.0
  1
%%C12\U+00D7140・南京錠 25m/m
 41
0.8
  7
EXT08
 72
     1
 11
3224.411614856588
 21
354.4331832792777
 31
0.0
100
AcDbText
  0
TEXT
  5
1C8CDE6AC462
330
1C8CDE699D53
100
AcDbEntity
  8
MOJI
100
AcDbText
 10
3009.954471999444
 20
534.4331832792777
 30
0.0
 40
30.0
  1
高耐食溶融めっき+静電粉体塗装
 41
0.8
  7
EXT08
 72
     1
 11
3224.411614856587
 21
534.4331832792777
 31
0.0
100
AcDbText
  0
TEXT
  5
1C8CDE6AC463
330
1C8CDE699D53
100
AcDbEntity
  8
MOJI
100
AcDbText
 10
2851.744654122376
 20
414.4331832792777
 30
0.0
 40
30.0
  1
SUS
 41
0.8
  7
EXT08
 72
     1
 11
2887.173225550947
 21
414.4331832792777
 31
0.0
100
AcDbText
  0
TEXT
  5
1C8CDE6AC464
330
1C8CDE699D53
100
AcDbEntity
  8
MOJI
100
AcDbText
 10
2851.744654122376
 20
354.4331832792777
 30
0.0
 40
30.0
  1
SUS
 41
0.8
  7
EXT08
 72
     1
 11
2887.173225550947
 21
354.4331832792777
 31
0.0
100
AcDbText
  0
TEXT
  5
1C8CDE6AC465
330
1C8CDE699D53
100
AcDbEntity
  8
MOJI
100
AcDbText
 10
2839.744654122375
 20
474.4331832792777
 30
0.0
 40
30.0
  1
SPCC
 41
0.8
  7
EXT08
 72
     1
 11
2887.173225550947
 21
474.4331832792777
 31
0.0
100
AcDbText
  0
TEXT
  5
1C8CDE6AC466
330
1C8CDE699D53
100
AcDbEntity
  8
MOJI
100
AcDbText
 10
2793.801796979519
 20
534.4331832792777
 30
0.0
 40
30.0
  1
STK400相当
 41
0.8
  7
EXT08
 72
     1
 11
2887.173225550947
 21
534.4331832792777
 31
0.0
100
AcDbText
  0
TEXT
  5
1C8CDE6AC467
330
1C8CDE699D53
100
AcDbEntity
  8
MOJI
100
AcDbText
 10
3128.011614856587
 20
474.4331832792777
 30
0.0
 40
30.0
  1
溶融亜鉛めっき
 41
0.8
  7
EXT08
 72
     1
 11
3224.411614856587
 21
474.4331832792777
 31
0.0
100
AcDbText
  0
LINE
  5
1C8CDE6AC468
330
1C8CDE699D53
100
AcDbEntity
  8
MOJI
100
AcDbLine
 10
2572.964450742334
 20
639.3972903773017
 30
0.0
 11
3322.59376511284
 21
639.3972903773017
 31
0.0
  0
TEXT
  5
1C8CDE6AC469
330
1C8CDE699D53
100
AcDbEntity
  8
MOJI
100
AcDbText
 10
2593.835889135292
 20
594.4331832792776
 30
0.0
 40
30.0
  1
頭部キャップ
 41
0.8
  7
EXT08
 72
     1
 11
2677.835889135292
 21
594.4331832792776
 31
0.0
100
AcDbText
  0
TEXT
  5
1C8CDE6AC46A
330
1C8CDE699D53
100
AcDbEntity
  8
MOJI
100
AcDbText
 10
2636.635889135292
 20
654.4331832792774
 30
0.0
 40
30.0
  1
品  名
 41
0.8
  7
EXT08
 72
     1
 11
2677.835889135292
 21
654.4331832792774
 31
0.0
100
AcDbText
  0
TEXT
  5
1C8CDE6AC46B
330
1C8CDE699D53
100
AcDbEntity
  8
MOJI
100
AcDbText
 10
2845.973225550947
 20
654.4331832792774
 30
0.0
 40
30.0
  1
材  質
 41
0.8
  7
EXT08
 72
     1
 11
2887.173225550947
 21
654.4331832792774
 31
0.0
100
AcDbText
  0
TEXT
  5
1C8CDE6AC46C
330
1C8CDE699D53
100
AcDbEntity
  8
MOJI
100
AcDbText
 10
3183.611614856587
 20
654.4331832792774
 30
0.0
 40
30.0
  1
摘  要
 41
0.8
  7
EXT08
 72
     1
 11
3224.411614856587
 21
654.4331832792774
 31
0.0
100
AcDbText
  0
LINE
  5
1C8CDE6AC46D
330
1C8CDE699D53
100
AcDbEntity
  8
MOJI
100
AcDbLine
 10
3457.744025971714
 20
699.3972903773017
 30
0.0
 11
3457.744025971711
 21
339.3972903773019
 31
0.0
  0
TEXT
  5
1C8CDE6AC46E
330
1C8CDE699D53
100
AcDbEntity
  8
MOJI
100
AcDbText
 10
2839.173225550947
 20
594.4331832792776
 30
0.0
 40
30.0
  1
SGHC
 41
0.8
  7
EXT08
 72
     1
 11
2887.173225550947
 21
594.4331832792776
 31
0.0
100
AcDbText
  0
TEXT
  5
1C8CDE6AC46F
330
1C8CDE699D53
100
AcDbEntity
  8
MOJI
100
AcDbText
 10
3054.011614856587
 20
594.4331832792776
 30
0.0
 40
30.0
  1
亜鉛めっき＋静電粉体塗装
 41
0.8
  7
EXT08
 72
     1
 11
3224.411614856587
 21
594.4331832792776
 31
0.0
100
AcDbText
  0
INSERT
  5
1C8CDE6AC53F
330
1C8CDE699D53
100
AcDbEntity
  8
ZWAKU
100
AcDbBlockReference
  2
CALCOMP_TECHJET720A3
 10
0.0
 20
0.0
 30
0.0
 41
10.0
 42
10.0
 43
10.0
  0
TEXT
  5
1C8CDE6AC540
330
1C8CDE699D53
100
AcDbEntity
  8
INFORMATION
100
AcDbText
 10
1.0
 20
2.0
 30
0.0
 40
0.8
  1
PLOTTER=CALCOMP_TECHJET720
100
AcDbText
  0
TEXT
  5
1C8CDE6AC541
330
1C8CDE699D53
100
AcDbEntity
  8
INFORMATION
100
AcDbText
 10
1.0
 20
3.0
 30
0.0
 40
0.8
  1
PAPER=A3
100
AcDbText
  0
TEXT
  5
1C8CDE6AC5AC
330
1C8CDE699D53
100
AcDbEntity
  8
INFORMATION
100
AcDbText
 10
1.0
 20
1.0
 30
0.0
 40
0.8
  1
VERSION=3.0
100
AcDbText
  0
TEXT
  5
1C8CDE6AC6AA
330
1C8CDE699D53
100
AcDbEntity
  8
MOJI
100
AcDbText
 10
3188.990519568088
 20
2580.063834164814
 30
0.0
 40
30.0
  1
シティ車止め
 41
0.8
  7
EXT08
100
AcDbText
  0
TEXT
  5
1C8CDE6AC6AB
330
1C8CDE699D53
100
AcDbEntity
  8
MOJI
100
AcDbText
 10
3188.990519568088
 20
2530.063834164814
 30
0.0
 40
30.0
  1
CK-114HR-80D
 41
0.8
  7
EXT08
100
AcDbText
  0
LINE
  5
1C8CDE6AC6AC
330
1C8CDE699D53
100
AcDbEntity
  8
SJC
100
AcDbLine
 10
3650.0
 20
2570.0
 30
0.0
 11
3008.054725952008
 21
2570.0
 31
0.0
  0
LINE
  5
1C8CDE6AC6AD
330
1C8CDE699D53
100
AcDbEntity
  8
SJC
100
AcDbLine
 10
3650.0
 20
2520.0
 30
0.0
 11
3008.054725952008
 21
2520.0
 31
0.0
  0
LINE
  5
1C8CDE6AC6AE
330
1C8CDE699D53
100
AcDbEntity
  8
SJC
100
AcDbLine
 10
3023.054725952008
 20
2470.0
 30
0.0
 11
3635.0
 21
2470.0
 31
0.0
  0
LINE
  5
1C8CDE6AC6AF
330
1C8CDE699D53
100
AcDbEntity
  8
SJC
100
AcDbLine
 10
3635.0
 20
2620.0
 30
0.0
 11
3023.054725952008
 21
2620.0
 31
0.0
  0
LINE
  5
1C8CDE6AC6B0
330
1C8CDE699D53
100
AcDbEntity
  8
SJC
100
AcDbLine
 10
3008.054725952008
 20
2605.0
 30
0.0
 11
3008.054725952008
 21
2485.0
 31
0.0
  0
TEXT
  5
1C8CDE6AC6B1
330
1C8CDE699D53
100
AcDbEntity
  8
MOJI
100
AcDbText
 10
3038.990519568088
 20
2530.063834164814
 30
0.0
 40
30.0
  1
品　番
 41
0.8
  7
EXT08
100
AcDbText
  0
ARC
  5
1C8CDE6AC6B2
330
1C8CDE699D53
100
AcDbEntity
  8
SJC
100
AcDbCircle
 10
3023.054725952008
 20
2485.0
 30
0.0
 40
15.0
100
AcDbArc
 50
180.0
 51
270.0
  0
TEXT
  5
1C8CDE6AC6B3
330
1C8CDE699D53
100
AcDbEntity
  8
MOJI
100
AcDbText
 10
3028.938294113912
 20
2480.063834164814
 30
0.0
 40
30.0
  1
図面番号
 41
0.8
  7
EXT08
100
AcDbText
  0
TEXT
  5
1C8CDE6AC6B4
330
1C8CDE699D53
100
AcDbEntity
  8
MOJI
100
AcDbText
 10
3042.312968266521
 20
2580.063834164814
 30
0.0
 40
30.0
  1
タイプ
 41
0.8
  7
EXT08
100
AcDbText
  0
ARC
  5
1C8CDE6AC6B5
330
1C8CDE699D53
100
AcDbEntity
  8
SJC
100
AcDbCircle
 10
3023.054725952008
 20
2605.0
 30
0.0
 40
15.0
100
AcDbArc
 50
90.0
 51
180.0
  0
LINE
  5
1C8CDE6AC6B6
330
1C8CDE699D53
100
AcDbEntity
  8
SJC
100
AcDbLine
 10
3158.054725952008
 20
2620.0
 30
0.0
 11
3158.054725952008
 21
2470.0
 31
0.0
  0
TEXT
  5
1C8CDE6AC6B7
330
1C8CDE699D53
100
AcDbEntity
  8
MOJI
100
AcDbText
 10
3188.990519568088
 20
2480.063834164814
 30
0.0
 40
30.0
  1
KEKH00095※1
 41
0.8
  7
EXT08
100
AcDbText
  0
LINE
  5
1C8CDE6AC6B8
330
1C8CDE699D53
100
AcDbEntity
  8
SJC
100
AcDbLine
 10
3650.0
 20
2485.0
 30
0.0
 11
3650.0
 21
2605.0
 31
0.0
  0
ARC
  5
1C8CDE6AC6B9
330
1C8CDE699D53
100
AcDbEntity
  8
SJC
100
AcDbCircle
 10
3635.0
 20
2485.0
 30
0.0
 40
15.0
100
AcDbArc
 50
270.0
 51
0.0
  0
ARC
  5
1C8CDE6AC6BA
330
1C8CDE699D53
100
AcDbEntity
  8
SJC
100
AcDbCircle
 10
3635.0
 20
2605.0
 30
0.0
 40
15.0
100
AcDbArc
 50
0.0
 51
90.0
  0
ENDSEC
  0
SECTION
  2
OBJECTS
  0
DICTIONARY
  5
1C8CDE699D47
330
0
100
AcDbDictionary
281
     1
  3
ACAD_CIP_PREVIOUS_PRODUCT_INFO
350
1C8CDE6AC89C
  3
ACAD_COLOR
350
1C8CDE6AC2F6
  3
ACAD_DETAILVIEWSTYLE
350
1C8CDE6AC71A
  3
ACAD_GROUP
350
1C8CDE699D48
  3
ACAD_LAYOUT
350
1C8CDE6AC2F9
  3
ACAD_MATERIAL
350
1C8CDE6AC2F5
  3
ACAD_MLEADERSTYLE
350
1C8CDE6AC4F2
  3
ACAD_MLINESTYLE
350
1C8CDE699D49
  3
ACAD_PLOTSETTINGS
350
1C8CDE6AC2FA
  3
ACAD_PLOTSTYLENAME
350
1C8CDE6AC2F3
  3
ACAD_SCALELIST
350
1C8CDE6AC4CD
  3
ACAD_SECTIONVIEWSTYLE
350
1C8CDE6AC71B
  3
ACAD_TABLESTYLE
350
1C8CDE6AC2F7
  3
ACAD_VISUALSTYLE
350
1C8CDE6AC4B4
  3
ACDB_RECOMPOSE_DATA
350
1C8CDE6AC8A4
  3
AcDbVariableDictionary
350
1C8CDE6AC3D9
  3
DWGPROPS
350
1C8CDE6AC8A5
  0
DICTIONARY
  5
1C8CDE6AC854
330
1C8CDE699D43
100
AcDbDictionary
280
     1
281
     1
  0
DICTIONARY
  5
1C8CDE6AC38B
330
1C8CDE699D53
100
AcDbDictionary
280
     1
281
     1
  3
ACAD_SORTENTS
360
1C8CDE6AC38C
  0
XRECORD
  5
1C8CDE6AC89C
102
{ACAD_REACTORS
330
1C8CDE699D47
102
}
330
1C8CDE699D47
100
AcDbXrecord
280
     1
300
ACD
300
2015
300
ACD_F_S
  0
DICTIONARY
  5
1C8CDE6AC2F6
102
{ACAD_REACTORS
330
1C8CDE699D47
102
}
330
1C8CDE699D47
100
AcDbDictionary
281
     1
  0
DICTIONARY
  5
1C8CDE6AC71A
102
{ACAD_REACTORS
330
1C8CDE699D47
102
}
330
1C8CDE699D47
100
AcDbDictionary
281
     1
  3
Imperial24
350
1C8CDE6AC896
  0
DICTIONARY
  5
1C8CDE699D48
102
{ACAD_REACTORS
330
1C8CDE699D47
102
}
330
1C8CDE699D47
100
AcDbDictionary
281
     1
  0
DICTIONARY
  5
1C8CDE6AC2F9
102
{ACAD_REACTORS
330
1C8CDE699D47
102
}
330
1C8CDE699D47
100
AcDbDictionary
281
     1
  3
Model
350
1C8CDE6AC2FB
  3
レイアウト1
350
1C8CDE6AC2FC
  0
DICTIONARY
  5
1C8CDE6AC2F5
102
{ACAD_REACTORS
330
1C8CDE699D47
102
}
330
1C8CDE699D47
100
AcDbDictionary
281
     1
  3
ByBlock
350
1C8CDE6AC4F0
  3
ByLayer
350
1C8CDE6AC4EF
  3
Global
350
1C8CDE6AC4F1
  0
DICTIONARY
  5
1C8CDE6AC4F2
102
{ACAD_REACTORS
330
1C8CDE699D47
102
}
330
1C8CDE699D47
100
AcDbDictionary
281
     1
  3
Standard
350
1C8CDE6AC4F3
  0
DICTIONARY
  5
1C8CDE699D49
102
{ACAD_REACTORS
330
1C8CDE699D47
102
}
330
1C8CDE699D47
100
AcDbDictionary
281
     1
  3
STANDARD
350
1C8CDE699D56
  0
DICTIONARY
  5
1C8CDE6AC2FA
102
{ACAD_REACTORS
330
1C8CDE699D47
102
}
330
1C8CDE699D47
100
AcDbDictionary
281
     1
  0
ACDBDICTIONARYWDFLT
  5
1C8CDE6AC2F3
102
{ACAD_REACTORS
330
1C8CDE699D47
102
}
330
1C8CDE699D47
100
AcDbDictionary
281
     1
  3
Normal
350
1C8CDE6AC2F4
100
AcDbDictionaryWithDefault
340
1C8CDE6AC2F4
  0
DICTIONARY
  5
1C8CDE6AC4CD
102
{ACAD_REACTORS
330
1C8CDE699D47
102
}
330
1C8CDE699D47
100
AcDbDictionary
281
     1
  3
A0
350
1C8CDE6AC4CE
  3
A1
350
1C8CDE6AC4CF
  3
A2
350
1C8CDE6AC4D0
  3
A3
350
1C8CDE6AC4D1
  3
A4
350
1C8CDE6AC4D2
  3
A5
350
1C8CDE6AC4D3
  3
A6
350
1C8CDE6AC4D4
  3
A7
350
1C8CDE6AC4D5
  3
A8
350
1C8CDE6AC4D6
  3
A9
350
1C8CDE6AC4D7
  3
B0
350
1C8CDE6AC4D8
  3
B1
350
1C8CDE6AC4D9
  3
B2
350
1C8CDE6AC4DA
  3
B3
350
1C8CDE6AC4DB
  3
B4
350
1C8CDE6AC4DC
  3
B5
350
1C8CDE6AC4DD
  3
B6
350
1C8CDE6AC4DE
  3
B7
350
1C8CDE6AC4DF
  3
B8
350
1C8CDE6AC4E0
  3
B9
350
1C8CDE6AC4E1
  3
C0
350
1C8CDE6AC4E2
  3
C1
350
1C8CDE6AC4E3
  3
C2
350
1C8CDE6AC4E4
  3
C3
350
1C8CDE6AC4E5
  3
C4
350
1C8CDE6AC4E6
  3
C5
350
1C8CDE6AC4E7
  3
C6
350
1C8CDE6AC4E8
  3
C7
350
1C8CDE6AC4E9
  3
C8
350
1C8CDE6AC4EA
  3
C9
350
1C8CDE6AC4EB
  3
D0
350
1C8CDE6AC4EC
  3
D1
350
1C8CDE6AC4ED
  3
D2
350
1C8CDE6AC4EE
  0
DICTIONARY
  5
1C8CDE6AC71B
102
{ACAD_REACTORS
330
1C8CDE699D47
102
}
330
1C8CDE699D47
100
AcDbDictionary
281
     1
  3
Imperial24
350
1C8CDE6AC895
  0
DICTIONARY
  5
1C8CDE6AC2F7
102
{ACAD_REACTORS
330
1C8CDE699D47
102
}
330
1C8CDE699D47
100
AcDbDictionary
281
     1
  3
Standard
350
1C8CDE6AC2F8
  0
DICTIONARY
  5
1C8CDE6AC4B4
102
{ACAD_REACTORS
330
1C8CDE699D47
102
}
330
1C8CDE699D47
100
AcDbDictionary
281
     1
  3
2dWireframe
350
1C8CDE6AC4B9
  3
Basic
350
1C8CDE6AC4BC
  3
Brighten
350
1C8CDE6AC4C0
  3
ColorChange
350
1C8CDE6AC4C4
  3
Conceptual
350
1C8CDE6AC4BE
  3
Dim
350
1C8CDE6AC4BF
  3
EdgeColorOff
350
1C8CDE6AC4C7
  3
Facepattern
350
1C8CDE6AC4C3
  3
Flat
350
1C8CDE6AC4B5
  3
FlatWithEdges
350
1C8CDE6AC4B6
  3
Gouraud
350
1C8CDE6AC4B7
  3
GouraudWithEdges
350
1C8CDE6AC4B8
  3
Hidden
350
1C8CDE6AC4BB
  3
JitterOff
350
1C8CDE6AC4C5
  3
Linepattern
350
1C8CDE6AC4C2
  3
Modeling
350
1C8CDE6AC4F4
  3
OverhangOff
350
1C8CDE6AC4C6
  3
Realistic
350
1C8CDE6AC4BD
  3
Shaded
350
1C8CDE6AC4CC
  3
Shaded with edges
350
1C8CDE6AC4CB
  3
Shades of Gray
350
1C8CDE6AC4C8
  3
Sketchy
350
1C8CDE6AC4C9
  3
Thicken
350
1C8CDE6AC4C1
  3
Wireframe
350
1C8CDE6AC4BA
  3
X-Ray
350
1C8CDE6AC4CA
  0
XRECORD
  5
1C8CDE6AC8A4
102
{ACAD_REACTORS
330
1C8CDE699D47
102
}
330
1C8CDE699D47
100
AcDbXrecord
280
     1
 90
        1
330
1C8CDE6AC2F8
  0
DICTIONARY
  5
1C8CDE6AC3D9
102
{ACAD_REACTORS
330
1C8CDE699D47
102
}
330
1C8CDE699D47
100
AcDbDictionary
281
     1
  3
CANNOSCALE
350
1C8CDE6AC6DB
  3
CMLEADERSTYLE
350
1C8CDE6AC543
  3
CTABLESTYLE
350
1C8CDE6AC3DA
  3
CVIEWDETAILSTYLE
350
1C8CDE6AC89D
  3
CVIEWSECTIONSTYLE
350
1C8CDE6AC89E
  3
DIMASSOC
350
1C8CDE6AC419
  3
HIDETEXT
350
1C8CDE6AC547
  3
INDEXCTL
350
1C8CDE6AC8A0
  3
MSLTSCALE
350
1C8CDE6AC544
  3
PROJECTNAME
350
1C8CDE6AC41A
  3
SORTENTS
350
1C8CDE6AC89F
  3
XCLIPFRAME
350
1C8CDE6AC8A1
  0
XRECORD
  5
1C8CDE6AC8A5
102
{ACAD_REACTORS
330
1C8CDE699D47
102
}
330
1C8CDE699D47
100
AcDbXrecord
280
     1
  1
DWGPROPS COOKIE
  2

  3

  4

  6

  7

  8
SK000184
  9

300
=
301
=
302
=
303
=
304
=
305
=
306
=
307
=
308
=
309
=
 40
0.966445775462963
 41
2450469.547535764
 42
2458991.602676343
  1

 90
        0
  0
SORTENTSTABLE
  5
1C8CDE6AC38C
102
{ACAD_REACTORS
330
1C8CDE6AC38B
102
}
330
1C8CDE6AC38B
100
AcDbSortentsTable
330
1C8CDE699D53
331
1C8CDE6A990E
  5
1C8CDE6A990E
331
1C8CDE6A8FF7
  5
1C8CDE6A8FF7
331
1C8CDE6AB886
  5
1C8CDE6AB88B
331
1C8CDE6AB7B4
  5
1C8CDE6AB7B9
331
1C8CDE6A8F30
  5
1C8CDE6A8F30
331
1C8CDE6ABB3C
  5
1C8CDE6ABB41
331
1C8CDE6AB882
  5
1C8CDE6AB887
331
1C8CDE6AB7B0
  5
1C8CDE6AB7B5
331
1C8CDE6ABAFD
  5
1C8CDE6ABB06
331
1C8CDE6ABB38
  5
1C8CDE6ABB3D
331
1C8CDE6AB87E
  5
1C8CDE6AB884
331
1C8CDE6AB7AC
  5
1C8CDE6AB7B1
331
1C8CDE6ABAF9
  5
1C8CDE6ABB03
331
1C8CDE6ABB73
  5
1C8CDE6AC1F4
331
1C8CDE6AC29F
  5
1C8CDE6AC2A5
331
1C8CDE6AC1FD
  5
1C8CDE6AC202
331
1C8CDE6ABB34
  5
1C8CDE6ABB39
331
1C8CDE6AB87A
  5
1C8CDE6AB87F
331
1C8CDE6AB7A8
  5
1C8CDE6AB7AD
331
1C8CDE6AC29B
  5
1C8CDE6AC2A2
331
1C8CDE6AC1F9
  5
1C8CDE6AC1FF
331
1C8CDE6ABB30
  5
1C8CDE6ABB35
331
1C8CDE6A8E6F
  5
1C8CDE6A8E6F
331
1C8CDE6A8E6B
  5
1C8CDE6A8E6B
331
1C8CDE6A8E67
  5
1C8CDE6A8E67
331
1C8CDE6A92AE
  5
1C8CDE6A92AE
331
1C8CDE6A8E63
  5
1C8CDE6A8E63
331
1C8CDE6AB7E3
  5
1C8CDE6AB859
331
1C8CDE6ABAF5
  5
1C8CDE6ABAFC
331
1C8CDE6ABB6F
  5
1C8CDE6ABB74
331
1C8CDE6AB876
  5
1C8CDE6AB87B
331
1C8CDE6AB7A4
  5
1C8CDE6AB7A9
331
1C8CDE6A92AA
  5
1C8CDE6A92AA
331
1C8CDE6AC297
  5
1C8CDE6AC29E
331
1C8CDE6AC1F5
  5
1C8CDE6AC1FB
331
1C8CDE6ABB6B
  5
1C8CDE6ABB70
331
1C8CDE6AB872
  5
1C8CDE6AB879
331
1C8CDE6AB7DF
  5
1C8CDE6AB7E4
331
1C8CDE6A92A6
  5
1C8CDE6A92A6
331
1C8CDE6A8FD3
  5
1C8CDE6A8FD3
331
1C8CDE6AB7DB
  5
1C8CDE6AB7E0
331
1C8CDE6ABB67
  5
1C8CDE6ABB6C
331
1C8CDE6AC23C
  5
1C8CDE6AC285
331
1C8CDE6ABB28
  5
1C8CDE6ABB30
331
1C8CDE6AB86E
  5
1C8CDE6AB873
331
1C8CDE6AB79C
  5
1C8CDE6AB7A3
331
1C8CDE6A92A2
  5
1C8CDE6A92A2
331
1C8CDE6ABAD1
  5
1C8CDE6ABAD7
331
1C8CDE6ABB63
  5
1C8CDE6ABB68
331
1C8CDE6ABB24
  5
1C8CDE6ABB29
331
1C8CDE6AB86A
  5
1C8CDE6AB86F
331
1C8CDE6AB798
  5
1C8CDE6AB79F
331
1C8CDE6AC28B
  5
1C8CDE6AC29C
331
1C8CDE6ABB20
  5
1C8CDE6ABB25
331
1C8CDE6AC3AD
  5
1C8CDE6AB796
331
1C8CDE6AB7D7
  5
1C8CDE6AB7DC
331
1C8CDE6A929E
  5
1C8CDE6A929E
331
1C8CDE6ABACD
  5
1C8CDE6ABAD2
331
1C8CDE6ABB5F
  5
1C8CDE6ABB64
331
1C8CDE6AB866
  5
1C8CDE6AB86B
331
1C8CDE6AB7D3
  5
1C8CDE6AB7D8
331
1C8CDE6A8EF8
  5
1C8CDE6A8EF8
331
1C8CDE6A8FBB
  5
1C8CDE6A8FBB
331
1C8CDE6ABAC9
  5
1C8CDE6ABACE
331
1C8CDE6ABB5B
  5
1C8CDE6ABB60
331
1C8CDE6ABB1C
  5
1C8CDE6ABB22
331
1C8CDE6AB862
  5
1C8CDE6AB867
331
1C8CDE6AB7CF
  5
1C8CDE6AB7D4
331
1C8CDE6A9036
  5
1C8CDE6A9036
331
1C8CDE6A8EE4
  5
1C8CDE6A8EE4
331
1C8CDE6ABAC5
  5
1C8CDE6ABACA
331
1C8CDE6ABB57
  5
1C8CDE6ABB5C
331
1C8CDE6AC283
  5
1C8CDE6AC299
331
1C8CDE6ABB18
  5
1C8CDE6ABB1E
331
1C8CDE6AB85E
  5
1C8CDE6AB863
331
1C8CDE6AB7CB
  5
1C8CDE6AB7D0
331
1C8CDE6A9032
  5
1C8CDE6A9032
331
1C8CDE6ABAC1
  5
1C8CDE6ABAC6
331
1C8CDE6ABB53
  5
1C8CDE6ABB58
331
1C8CDE6ABB14
  5
1C8CDE6ABB1A
331
1C8CDE6AB85A
  5
1C8CDE6AB85F
331
1C8CDE6ABB10
  5
1C8CDE6ABB16
331
1C8CDE6AC2A7
  5
1C8CDE6AC302
331
1C8CDE6AC2A3
  5
1C8CDE6AC2AA
331
1C8CDE6AB7C7
  5
1C8CDE6AB7CC
331
1C8CDE6A901E
  5
1C8CDE6A901E
331
1C8CDE6A8F47
  5
1C8CDE6A8F47
331
1C8CDE6ABB4F
  5
1C8CDE6ABB54
331
1C8CDE6AB895
  5
1C8CDE6ABAC4
331
1C8CDE6AB7C3
  5
1C8CDE6AB7C8
331
1C8CDE6A8ED0
  5
1C8CDE6A8ED0
331
1C8CDE6ABB4B
  5
1C8CDE6ABB50
331
1C8CDE6ABB0C
  5
1C8CDE6ABB11
331
1C8CDE6AB891
  5
1C8CDE6ABAC0
331
1C8CDE6AB7BF
  5
1C8CDE6AB7C4
331
1C8CDE6A8F43
  5
1C8CDE6A8F43
331
1C8CDE6ABB47
  5
1C8CDE6ABB4C
331
1C8CDE6AB88D
  5
1C8CDE6AB892
331
1C8CDE6AB7BB
  5
1C8CDE6AB7C0
331
1C8CDE6A900A
  5
1C8CDE6A900A
331
1C8CDE6ABB43
  5
1C8CDE6ABB48
331
1C8CDE6AB889
  5
1C8CDE6AB88E
331
1C8CDE6AA808
  5
1C8CDE6AB2BD
331
1C8CDE6AC204
  5
1C8CDE6AC281
331
1C8CDE6AC200
  5
1C8CDE6AC207
331
1C8CDE6AB7B7
  5
1C8CDE6AB7BC
331
1C8CDE6A8E72
  5
1C8CDE6A8E72
331
1C8CDE6ABB3F
  5
1C8CDE6ABB44
331
1C8CDE6AB885
  5
1C8CDE6AB88A
331
1C8CDE6AB7B3
  5
1C8CDE6AB7B8
331
1C8CDE6A8F2F
  5
1C8CDE6A8F2F
331
1C8CDE6ABB3B
  5
1C8CDE6ABB40
331
1C8CDE6AB881
  5
1C8CDE6AB886
331
1C8CDE6AB7AF
  5
1C8CDE6AB7B4
331
1C8CDE6ABB37
  5
1C8CDE6ABB3C
331
1C8CDE6AB87D
  5
1C8CDE6AB883
331
1C8CDE6AB7AB
  5
1C8CDE6AB7B0
331
1C8CDE6ABB72
  5
1C8CDE6ABE98
331
1C8CDE6AC29E
  5
1C8CDE6AC2A4
331
1C8CDE6AC1FC
  5
1C8CDE6AC201
331
1C8CDE6ABB33
  5
1C8CDE6ABB38
331
1C8CDE6AB879
  5
1C8CDE6AB87E
331
1C8CDE6AC29A
  5
1C8CDE6AC2A1
331
1C8CDE6AC1F8
  5
1C8CDE6AC1FD
331
1C8CDE6A8E6E
  5
1C8CDE6A8E6E
331
1C8CDE6A8E6A
  5
1C8CDE6A8E6A
331
1C8CDE6A8E66
  5
1C8CDE6A8E66
331
1C8CDE6AB7E6
  5
1C8CDE6AB85C
331
1C8CDE6AB7A7
  5
1C8CDE6AB7AC
331
1C8CDE6A92AD
  5
1C8CDE6A92AD
331
1C8CDE6A8E62
  5
1C8CDE6A8E62
331
1C8CDE6AB7E2
  5
1C8CDE6AB858
331
1C8CDE6ABB6E
  5
1C8CDE6ABB73
331
1C8CDE6ABAF4
  5
1C8CDE6ABAF9
331
1C8CDE6AB7A3
  5
1C8CDE6AB7A8
331
1C8CDE6A92A9
  5
1C8CDE6A92A9
331
1C8CDE6A8FD2
  5
1C8CDE6A8FD2
331
1C8CDE6AC1F4
  5
1C8CDE6AC1FA
331
1C8CDE6ABB6A
  5
1C8CDE6ABB6F
331
1C8CDE6AB871
  5
1C8CDE6AB878
331
1C8CDE6AB7DE
  5
1C8CDE6AB7E3
331
1C8CDE6A92A5
  5
1C8CDE6A92A5
331
1C8CDE6A8F0B
  5
1C8CDE6A8F0B
331
1C8CDE6AB7DA
  5
1C8CDE6AB7DF
331
1C8CDE6ABB66
  5
1C8CDE6ABB6B
331
1C8CDE6ABB27
  5
1C8CDE6ABB2E
331
1C8CDE6AB86D
  5
1C8CDE6AB872
331
1C8CDE6AB79B
  5
1C8CDE6AB7A2
331
1C8CDE6A92A1
  5
1C8CDE6A92A1
331
1C8CDE6ABAD0
  5
1C8CDE6ABAD6
331
1C8CDE6ABB62
  5
1C8CDE6ABB67
331
1C8CDE6ABB23
  5
1C8CDE6ABB28
331
1C8CDE6AB869
  5
1C8CDE6AB86E
331
1C8CDE6AC28A
  5
1C8CDE6AC29B
331
1C8CDE6ABE98
  5
1C8CDE6AC1F9
331
1C8CDE6AB7D6
  5
1C8CDE6AB7DB
331
1C8CDE6AB797
  5
1C8CDE6AB79C
331
1C8CDE6ABACC
  5
1C8CDE6ABAD1
331
1C8CDE6ABB5E
  5
1C8CDE6ABB63
331
1C8CDE6AB865
  5
1C8CDE6AB86A
331
1C8CDE6AB7D2
  5
1C8CDE6AB7D7
331
1C8CDE6A8FBE
  5
1C8CDE6A8FBE
331
1C8CDE6ABAC8
  5
1C8CDE6ABACD
331
1C8CDE6ABB5A
  5
1C8CDE6ABB5F
331
1C8CDE6AC22F
  5
1C8CDE6AC284
331
1C8CDE6ABB1B
  5
1C8CDE6ABB21
331
1C8CDE6AB861
  5
1C8CDE6AB866
331
1C8CDE6AB7CE
  5
1C8CDE6AB7D3
331
1C8CDE6A8FBA
  5
1C8CDE6A8FBA
331
1C8CDE6ABAC4
  5
1C8CDE6ABAC9
331
1C8CDE6ABB56
  5
1C8CDE6ABB5B
331
1C8CDE6AC282
  5
1C8CDE6AC298
331
1C8CDE6ABB17
  5
1C8CDE6ABB1C
331
1C8CDE6AB85D
  5
1C8CDE6AB862
331
1C8CDE6AB7CA
  5
1C8CDE6AB7CF
331
1C8CDE6A9031
  5
1C8CDE6A9031
331
1C8CDE6ABAC0
  5
1C8CDE6ABAC5
331
1C8CDE6ABB52
  5
1C8CDE6ABB57
331
1C8CDE6ABB13
  5
1C8CDE6ABB19
331
1C8CDE6AB859
  5
1C8CDE6AB85E
331
1C8CDE6AC2AA
  5
1C8CDE6AC305
331
1C8CDE6AC2A2
  5
1C8CDE6AC2A9
331
1C8CDE6AB7C6
  5
1C8CDE6AB7CB
331
1C8CDE6A901D
  5
1C8CDE6A901D
331
1C8CDE6ABB4E
  5
1C8CDE6ABB53
331
1C8CDE6ABB0F
  5
1C8CDE6ABB14
331
1C8CDE6AB894
  5
1C8CDE6ABAC3
331
1C8CDE6AB7C2
  5
1C8CDE6AB7C7
331
1C8CDE6A8F46
  5
1C8CDE6A8F46
331
1C8CDE6ABB4A
  5
1C8CDE6ABB4F
331
1C8CDE6ABB0B
  5
1C8CDE6ABB10
331
1C8CDE6AB890
  5
1C8CDE6AB895
331
1C8CDE6AB7BE
  5
1C8CDE6AB7C3
331
1C8CDE6A8F42
  5
1C8CDE6A8F42
331
1C8CDE6A9910
  5
1C8CDE6A9910
331
1C8CDE6ABB46
  5
1C8CDE6ABB4B
331
1C8CDE6AB88C
  5
1C8CDE6AB891
331
1C8CDE6AB7BA
  5
1C8CDE6AB7BF
331
1C8CDE6A9009
  5
1C8CDE6A9009
331
1C8CDE6AC207
  5
1C8CDE6AC282
331
1C8CDE6ABB42
  5
1C8CDE6ABB47
331
1C8CDE6AB888
  5
1C8CDE6AB88D
331
1C8CDE6AC203
  5
1C8CDE6AC249
331
1C8CDE6AB7B6
  5
1C8CDE6AB7BB
331
1C8CDE6A990C
  5
1C8CDE6A990C
331
1C8CDE6A8E71
  5
1C8CDE6A8E71
331
1C8CDE6ABB3E
  5
1C8CDE6ABB43
331
1C8CDE6AB884
  5
1C8CDE6AB889
331
1C8CDE6AB7B2
  5
1C8CDE6AB7B7
331
1C8CDE6ABB3A
  5
1C8CDE6ABB3F
331
1C8CDE6AB7AE
  5
1C8CDE6AB7B3
331
1C8CDE6AA71B
  5
1C8CDE6AA89A
331
1C8CDE6AC1FF
  5
1C8CDE6AC204
331
1C8CDE6ABB36
  5
1C8CDE6ABB3B
331
1C8CDE6AB87C
  5
1C8CDE6AB882
331
1C8CDE6AB7AA
  5
1C8CDE6AB7AF
331
1C8CDE6A92B0
  5
1C8CDE6A92B0
331
1C8CDE6AC1FB
  5
1C8CDE6AC200
331
1C8CDE6ABB71
  5
1C8CDE6ABE97
331
1C8CDE6AB878
  5
1C8CDE6AB87D
331
1C8CDE6A8E6D
  5
1C8CDE6A8E6D
331
1C8CDE6A8E69
  5
1C8CDE6A8E69
331
1C8CDE6A8FE5
  5
1C8CDE6A8FE5
331
1C8CDE6A8E65
  5
1C8CDE6A8E65
331
1C8CDE6AB7E5
  5
1C8CDE6AB85B
331
1C8CDE6AB7A6
  5
1C8CDE6AB7AB
331
1C8CDE6A92AC
  5
1C8CDE6A92AC
331
1C8CDE6AB7E1
  5
1C8CDE6AB7E6
331
1C8CDE6ABB6D
  5
1C8CDE6ABB72
331
1C8CDE6AC1F7
  5
1C8CDE6AC1FC
331
1C8CDE6ABB2E
  5
1C8CDE6ABB34
331
1C8CDE6ABAF3
  5
1C8CDE6ABAF8
331
1C8CDE6AB7A2
  5
1C8CDE6AB7A7
331
1C8CDE6A92A8
  5
1C8CDE6A92A8
331
1C8CDE6ABB69
  5
1C8CDE6ABB6E
331
1C8CDE6ABB2A
  5
1C8CDE6ABB32
331
1C8CDE6AB870
  5
1C8CDE6AB877
331
1C8CDE6AB7DD
  5
1C8CDE6AB7E2
331
1C8CDE6A92A4
  5
1C8CDE6A92A4
331
1C8CDE6AB7D9
  5
1C8CDE6AB7DE
331
1C8CDE6ABB65
  5
1C8CDE6ABB6A
331
1C8CDE6ABB26
  5
1C8CDE6ABB2D
331
1C8CDE6AB86C
  5
1C8CDE6AB871
331
1C8CDE6AB79A
  5
1C8CDE6AB7A1
331
1C8CDE6A92A0
  5
1C8CDE6A92A0
331
1C8CDE6ABB61
  5
1C8CDE6ABB66
331
1C8CDE6ABB22
  5
1C8CDE6ABB27
331
1C8CDE6AB868
  5
1C8CDE6AB86D
331
1C8CDE6AB7D5
  5
1C8CDE6AB7DA
331
1C8CDE6ABACF
  5
1C8CDE6ABAD5
331
1C8CDE6AB796
  5
1C8CDE6AB79B
331
1C8CDE6A8FBD
  5
1C8CDE6A8FBD
331
1C8CDE6ABACB
  5
1C8CDE6ABAD0
331
1C8CDE6ABB5D
  5
1C8CDE6ABB62
331
1C8CDE6ABE97
  5
1C8CDE6AC1F8
331
1C8CDE6ABB1E
  5
1C8CDE6ABB23
331
1C8CDE6AB864
  5
1C8CDE6AB869
331
1C8CDE6AB7D1
  5
1C8CDE6AB7D6
331
1C8CDE6A8EE6
  5
1C8CDE6A8EE6
331
1C8CDE6AB7CD
  5
1C8CDE6AB7D2
331
1C8CDE6ABAC7
  5
1C8CDE6ABACC
331
1C8CDE6ABB59
  5
1C8CDE6ABB5E
331
1C8CDE6ABB1A
  5
1C8CDE6ABB20
331
1C8CDE6AB860
  5
1C8CDE6AB865
331
1C8CDE6AB2BE
  5
1C8CDE6AB799
331
1C8CDE6A8FB9
  5
1C8CDE6A8FB9
331
1C8CDE6ABAC3
  5
1C8CDE6ABAC8
331
1C8CDE6ABB55
  5
1C8CDE6ABB5A
331
1C8CDE6AC281
  5
1C8CDE6AC28D
331
1C8CDE6ABB16
  5
1C8CDE6ABB1B
331
1C8CDE6AB85C
  5
1C8CDE6AB861
331
1C8CDE6AB7C9
  5
1C8CDE6AB7CE
331
1C8CDE6A9030
  5
1C8CDE6A9030
331
1C8CDE6ABB51
  5
1C8CDE6ABB56
331
1C8CDE6ABE8B
  5
1C8CDE6AC1F7
331
1C8CDE6ABB12
  5
1C8CDE6ABB18
331
1C8CDE6AB858
  5
1C8CDE6AB85D
331
1C8CDE6AC222
  5
1C8CDE6AC283
331
1C8CDE6AC318
  5
1C8CDE6AC39F
331
1C8CDE6AC2A9
  5
1C8CDE6AC304
331
1C8CDE6AC2A5
  5
1C8CDE6AC2AD
331
1C8CDE6AC2A1
  5
1C8CDE6AC2A8
331
1C8CDE6A8F49
  5
1C8CDE6A8F49
331
1C8CDE6AB7C5
  5
1C8CDE6AB7CA
331
1C8CDE6A901C
  5
1C8CDE6A901C
331
1C8CDE6A8ED2
  5
1C8CDE6A8ED2
331
1C8CDE6AB7C1
  5
1C8CDE6AB7C6
331
1C8CDE6ABB4D
  5
1C8CDE6ABB52
331
1C8CDE6ABB0E
  5
1C8CDE6ABB13
331
1C8CDE6AB893
  5
1C8CDE6ABAC2
331
1C8CDE6AA89A
  5
1C8CDE6AB797
331
1C8CDE6A8F45
  5
1C8CDE6A8F45
331
1C8CDE6ABB49
  5
1C8CDE6ABB4E
331
1C8CDE6ABB0A
  5
1C8CDE6ABB0F
331
1C8CDE6AB88F
  5
1C8CDE6AB894
331
1C8CDE6AB7BD
  5
1C8CDE6AB7C2
331
1C8CDE6AB7B9
  5
1C8CDE6AB7BE
331
1C8CDE6ABB45
  5
1C8CDE6ABB4A
331
1C8CDE6AB88B
  5
1C8CDE6AB890
331
1C8CDE6AA80A
  5
1C8CDE6AB795
331
1C8CDE6ABB41
  5
1C8CDE6ABB46
331
1C8CDE6AC202
  5
1C8CDE6AC23C
331
1C8CDE6AB887
  5
1C8CDE6AB88C
331
1C8CDE6AB7B5
  5
1C8CDE6AB7BA
331
1C8CDE6A990B
  5
1C8CDE6A990B
331
1C8CDE6A8E70
  5
1C8CDE6A8E70
331
1C8CDE6ABB3D
  5
1C8CDE6ABB42
331
1C8CDE6AB883
  5
1C8CDE6AB888
331
1C8CDE6AB7B1
  5
1C8CDE6AB7B6
331
1C8CDE6ABAFE
  5
1C8CDE6ABB08
331
1C8CDE6ABB39
  5
1C8CDE6ABB3E
331
1C8CDE6AB87F
  5
1C8CDE6AB885
331
1C8CDE6AB7AD
  5
1C8CDE6AB7B2
331
1C8CDE6ABB74
  5
1C8CDE6AC1F5
331
1C8CDE6AC1FE
  5
1C8CDE6AC203
331
1C8CDE6ABB35
  5
1C8CDE6ABB3A
331
1C8CDE6AB87B
  5
1C8CDE6AB881
331
1C8CDE6AB7A9
  5
1C8CDE6AB7AE
331
1C8CDE6AC29C
  5
1C8CDE6AC2A3
331
1C8CDE6ABB70
  5
1C8CDE6ABE8B
331
1C8CDE6AC298
  5
1C8CDE6AC2A0
331
1C8CDE6AC249
  5
1C8CDE6AC28B
331
1C8CDE6A8E6C
  5
1C8CDE6A8E6C
331
1C8CDE6A8E68
  5
1C8CDE6A8E68
331
1C8CDE6A92AF
  5
1C8CDE6A92AF
331
1C8CDE6A8F1D
  5
1C8CDE6A8F1D
331
1C8CDE6A8E64
  5
1C8CDE6A8E64
331
1C8CDE6AB7E4
  5
1C8CDE6AB85A
331
1C8CDE6ABAF6
  5
1C8CDE6ABAFD
331
1C8CDE6AB877
  5
1C8CDE6AB87C
331
1C8CDE6AB7A5
  5
1C8CDE6AB7AA
331
1C8CDE6A92AB
  5
1C8CDE6A92AB
331
1C8CDE6A8E60
  5
1C8CDE6A8E60
331
1C8CDE6AB7E0
  5
1C8CDE6AB7E5
331
1C8CDE6ABB6C
  5
1C8CDE6ABB71
331
1C8CDE6ABB2D
  5
1C8CDE6ABB33
331
1C8CDE6AB873
  5
1C8CDE6AB87A
331
1C8CDE6AB7A1
  5
1C8CDE6AB7A6
331
1C8CDE6A92A7
  5
1C8CDE6A92A7
331
1C8CDE6ABB68
  5
1C8CDE6ABB6D
331
1C8CDE6ABB29
  5
1C8CDE6ABB31
331
1C8CDE6AB86F
  5
1C8CDE6AB876
331
1C8CDE6AB7DC
  5
1C8CDE6AB7E1
331
1C8CDE6A92A3
  5
1C8CDE6A92A3
331
1C8CDE6AB7D8
  5
1C8CDE6AB7DD
331
1C8CDE6ABAD2
  5
1C8CDE6ABAD8
331
1C8CDE6ABB64
  5
1C8CDE6ABB69
331
1C8CDE6ABB25
  5
1C8CDE6ABB2A
331
1C8CDE6AB86B
  5
1C8CDE6AB870
331
1C8CDE6AB799
  5
1C8CDE6AB7A0
331
1C8CDE6ABB60
  5
1C8CDE6ABB65
331
1C8CDE6ABB21
  5
1C8CDE6ABB26
331
1C8CDE6A929F
  5
1C8CDE6A929F
331
1C8CDE6A8FC0
  5
1C8CDE6A8FC0
331
1C8CDE6AB7D4
  5
1C8CDE6AB7D9
331
1C8CDE6ABACE
  5
1C8CDE6ABAD4
331
1C8CDE6AB867
  5
1C8CDE6AB86C
331
1C8CDE6AB795
  5
1C8CDE6AB79A
331
1C8CDE6A8EF9
  5
1C8CDE6A8EF9
331
1C8CDE6A8FBC
  5
1C8CDE6A8FBC
331
1C8CDE6ABACA
  5
1C8CDE6ABACF
331
1C8CDE6ABB5C
  5
1C8CDE6ABB61
331
1C8CDE6AB863
  5
1C8CDE6AB868
331
1C8CDE6AB7D0
  5
1C8CDE6AB7D5
331
1C8CDE6A9037
  5
1C8CDE6A9037
331
1C8CDE6A8EE5
  5
1C8CDE6A8EE5
331
1C8CDE6AB7CC
  5
1C8CDE6AB7D1
331
1C8CDE6ABAC6
  5
1C8CDE6ABACB
331
1C8CDE6ABB58
  5
1C8CDE6ABB5D
331
1C8CDE6AC284
  5
1C8CDE6AC29A
331
1C8CDE6ABB19
  5
1C8CDE6ABB1F
331
1C8CDE6AB85F
  5
1C8CDE6AB864
331
1C8CDE6AB2BD
  5
1C8CDE6AB798
331
1C8CDE6ABAC2
  5
1C8CDE6ABAC7
331
1C8CDE6ABB54
  5
1C8CDE6ABB59
331
1C8CDE6AB85B
  5
1C8CDE6AB860
331
1C8CDE6AB7C8
  5
1C8CDE6AB7CD
331
1C8CDE6ABB50
  5
1C8CDE6ABB55
331
1C8CDE6ABB11
  5
1C8CDE6ABB17
331
1C8CDE6AC39E
  5
1C8CDE6AA80A
331
1C8CDE6AC2A8
  5
1C8CDE6AC303
331
1C8CDE6AC2A4
  5
1C8CDE6AC2AC
331
1C8CDE6AC2A0
  5
1C8CDE6AC2A7
331
1C8CDE6A8F48
  5
1C8CDE6A8F48
331
1C8CDE6AB7C4
  5
1C8CDE6AB7C9
331
1C8CDE6A991A
  5
1C8CDE6A991A
331
1C8CDE6A8ED1
  5
1C8CDE6A8ED1
331
1C8CDE6ABB4C
  5
1C8CDE6ABB51
331
1C8CDE6ABB0D
  5
1C8CDE6ABB12
331
1C8CDE6AB892
  5
1C8CDE6ABAC1
331
1C8CDE6AB7C0
  5
1C8CDE6AB7C5
331
1C8CDE6A8F44
  5
1C8CDE6A8F44
331
1C8CDE6ABB48
  5
1C8CDE6ABB4D
331
1C8CDE6ABB09
  5
1C8CDE6ABB0E
331
1C8CDE6AB88E
  5
1C8CDE6AB893
331
1C8CDE6AB7BC
  5
1C8CDE6AB7C1
331
1C8CDE6A8EB9
  5
1C8CDE6A8EB9
331
1C8CDE6AB7B8
  5
1C8CDE6AB7BD
331
1C8CDE6ABB44
  5
1C8CDE6ABB49
331
1C8CDE6AB88A
  5
1C8CDE6AB88F
331
1C8CDE6AA809
  5
1C8CDE6AB2BE
331
1C8CDE6ABB40
  5
1C8CDE6ABB45
331
1C8CDE6ABB01
  5
1C8CDE6ABB09
331
1C8CDE6AC201
  5
1C8CDE6AC22F
  0
ACDBDETAILVIEWSTYLE
  5
1C8CDE6AC896
102
{ACAD_XDICTIONARY
360
1C8CDE6AC8E5
102
}
102
{ACAD_REACTORS
330
1C8CDE6AC71A
102
}
330
1C8CDE6AC71A
100
AcDbModelDocViewStyle
 70
     0
  3
Imperial24
290
     0
100
AcDbDetailViewStyle
 70
     0
 71
     0
 90
        3
 71
     1
340
1C8CDE699D4B
 40
0.24
340
0
 40
0.24
300

 40
0.36
280
     3
 71
     2
340
1C8CDE699D4F
 90
       25
 71
     3
340
1C8CDE699D4B
 40
0.24
 90
        1
 40
0.75
 90
        1
300
%<\AcVar ViewType \f "%tc1">% %<\AcVar ViewDetailId>%\PSCALE %<\AcVar ViewScale \f "%sn">%
 71
     4
340
1C8CDE699D4F
 90
       25
340
1C8CDE699D4F
 90
       25
280
     0
  0
LAYOUT
  5
1C8CDE6AC2FB
102
{ACAD_XDICTIONARY
360
1C8CDE6AC8A7
102
}
102
{ACAD_REACTORS
330
1C8CDE6AC2F9
102
}
330
1C8CDE6AC2F9
100
AcDbPlotSettings
  1

  2
CNSAcrobat PDFWriter6.pc3
  4
UserDefinedMetric (168.00 X 118.00ミリ)
  6

 40
3.200000047683715
 41
3.200000047683715
 42
3.199996948242187
 43
3.199996948242187
 44
168.0
 45
118.0
 46
0.0
 47
0.0
 48
0.0
 49
0.0
140
3700.0
141
2670.0
142
1.0
143
675.9677237396314
 70
 11952
 72
     0
 73
     0
 74
     2
  7
CALCOMP_TECHJET720.ctb
 75
     0
147
0.0014793605743004
148
0.0
149
0.0
100
AcDbLayout
  1
Model
 70
     1
 71
     0
 10
0.0
 20
0.0
 11
12.0
 21
9.0
 12
0.0
 22
0.0
 32
0.0
 14
0.0
 24
0.0
 34
0.0
 15
3700.0
 25
2670.0
 35
0.0
146
0.0
 13
0.0
 23
0.0
 33
0.0
 16
1.0
 26
0.0
 36
0.0
 17
0.0
 27
1.0
 37
0.0
 76
     0
330
1C8CDE699D53
1001
ACAD_PSEXT
1000
CNSAcrobat PDFWriter6.pc3
1000
DWG To PDF
1000
ファイル
1000

1070
     0
  0
LAYOUT
  5
1C8CDE6AC2FC
102
{ACAD_XDICTIONARY
360
1C8CDE6AC8A9
102
}
102
{ACAD_REACTORS
330
1C8CDE6AC2F9
102
}
330
1C8CDE6AC2F9
100
AcDbPlotSettings
  1

  2
C:\Documents and Settings\SJC\Application Data\Autodesk\AutoCAD 2005\R16.1\jpn\plotters\RICOH imagio Neo 601 RPCS.pc3
  4

  6

 40
0.0
 41
0.0
 42
0.0
 43
0.0
 44
0.0
 45
0.0
 46
0.0
 47
0.0
 48
0.0
 49
0.0
140
0.0
141
0.0
142
1.0
143
1.0
 70
   688
 72
     0
 73
     0
 74
     5
  7
LP-8700.ctb
 75
    16
147
1.0
148
0.0
149
0.0
100
AcDbLayout
  1
レイアウト1
 70
     0
 71
     1
 10
0.0
 20
0.0
 11
12.0
 21
9.0
 12
0.0
 22
0.0
 32
0.0
 14
1.000000000000000E+20
 24
1.000000000000000E+20
 34
1.000000000000000E+20
 15
-1.000000000000000E+20
 25
-1.000000000000000E+20
 35
-1.000000000000000E+20
146
0.0
 13
0.0
 23
0.0
 33
0.0
 16
1.0
 26
0.0
 36
0.0
 17
0.0
 27
1.0
 37
0.0
 76
     0
330
1C8CDE699D50
  0
MATERIAL
  5
1C8CDE6AC4F0
102
{ACAD_XDICTIONARY
360
1C8CDE6AC8DD
102
}
102
{ACAD_REACTORS
330
1C8CDE6AC2F5
102
}
330
1C8CDE6AC2F5
100
AcDbMaterial
  1
ByBlock
 73
     1
 78
     1
172
     1
176
     1
270
     1
274
     1
  0
MATERIAL
  5
1C8CDE6AC4EF
102
{ACAD_XDICTIONARY
360
1C8CDE6AC8DB
102
}
102
{ACAD_REACTORS
330
1C8CDE6AC2F5
102
}
330
1C8CDE6AC2F5
100
AcDbMaterial
  1
ByLayer
 73
     1
 78
     1
172
     1
176
     1
270
     1
274
     1
  0
MATERIAL
  5
1C8CDE6AC4F1
102
{ACAD_XDICTIONARY
360
1C8CDE6AC8DF
102
}
102
{ACAD_REACTORS
330
1C8CDE6AC2F5
102
}
330
1C8CDE6AC2F5
100
AcDbMaterial
  1
Global
 73
     1
 78
     1
172
     1
176
     1
270
     1
274
     1
  0
MLEADERSTYLE
  5
1C8CDE6AC4F3
102
{ACAD_REACTORS
330
1C8CDE6AC4F2
102
}
330
1C8CDE6AC4F2
100
AcDbMLeaderStyle
170
     2
171
     1
172
     0
 90
        2
 40
0.0
 41
0.0
173
     1
 91
-1056964608
340
1C8CDE699D4D
 92
       -2
290
     1
 42
0.09
291
     1
 43
0.36
  3
Standard
 44
0.18
300

342
1C8CDE699D4B
174
     1
178
     6
175
     1
176
     0
 93
-1056964608
 45
0.18
292
     0
297
     0
 46
0.18
 94
-1056964608
 47
1.0
 49
1.0
140
1.0
293
     1
141
0.0
294
     1
177
     0
142
1.0
295
     0
296
     0
143
0.125
1001
ACAD_MLEADERVER
1070
     2
  0
MLINESTYLE
  5
1C8CDE699D56
102
{ACAD_REACTORS
330
1C8CDE699D49
102
}
330
1C8CDE699D49
100
AcDbMlineStyle
  2
STANDARD
 70
     0
  3

 62
     0
 51
90.0
 52
90.0
 71
     2
 49
0.5
 62
   256
  6
BYLAYER
 49
-0.5
 62
   256
  6
BYLAYER
  0
ACDBPLACEHOLDER
  5
1C8CDE6AC2F4
102
{ACAD_REACTORS
330
1C8CDE6AC2F3
102
}
330
1C8CDE6AC2F3
  0
SCALE
  5
1C8CDE6AC4CE
102
{ACAD_REACTORS
330
1C8CDE6AC4CD
102
}
330
1C8CDE6AC4CD
100
AcDbScale
 70
     0
300
1:1
140
1.0
141
1.0
290
     1
  0
SCALE
  5
1C8CDE6AC4CF
102
{ACAD_REACTORS
330
1C8CDE6AC4CD
102
}
330
1C8CDE6AC4CD
100
AcDbScale
 70
     0
300
1:2
140
1.0
141
2.0
290
     0
  0
SCALE
  5
1C8CDE6AC4D0
102
{ACAD_REACTORS
330
1C8CDE6AC4CD
102
}
330
1C8CDE6AC4CD
100
AcDbScale
 70
     0
300
1:4
140
1.0
141
4.0
290
     0
  0
SCALE
  5
1C8CDE6AC4D1
102
{ACAD_REACTORS
330
1C8CDE6AC4CD
102
}
330
1C8CDE6AC4CD
100
AcDbScale
 70
     0
300
1:5
140
1.0
141
5.0
290
     0
  0
SCALE
  5
1C8CDE6AC4D2
102
{ACAD_REACTORS
330
1C8CDE6AC4CD
102
}
330
1C8CDE6AC4CD
100
AcDbScale
 70
     0
300
1:8
140
1.0
141
8.0
290
     0
  0
SCALE
  5
1C8CDE6AC4D3
102
{ACAD_REACTORS
330
1C8CDE6AC4CD
102
}
330
1C8CDE6AC4CD
100
AcDbScale
 70
     0
300
1:10
140
1.0
141
10.0
290
     0
  0
SCALE
  5
1C8CDE6AC4D4
102
{ACAD_REACTORS
330
1C8CDE6AC4CD
102
}
330
1C8CDE6AC4CD
100
AcDbScale
 70
     0
300
1:16
140
1.0
141
16.0
290
     0
  0
SCALE
  5
1C8CDE6AC4D5
102
{ACAD_REACTORS
330
1C8CDE6AC4CD
102
}
330
1C8CDE6AC4CD
100
AcDbScale
 70
     0
300
1:20
140
1.0
141
20.0
290
     0
  0
SCALE
  5
1C8CDE6AC4D6
102
{ACAD_REACTORS
330
1C8CDE6AC4CD
102
}
330
1C8CDE6AC4CD
100
AcDbScale
 70
     0
300
1:30
140
1.0
141
30.0
290
     0
  0
SCALE
  5
1C8CDE6AC4D7
102
{ACAD_REACTORS
330
1C8CDE6AC4CD
102
}
330
1C8CDE6AC4CD
100
AcDbScale
 70
     0
300
1:40
140
1.0
141
40.0
290
     0
  0
SCALE
  5
1C8CDE6AC4D8
102
{ACAD_REACTORS
330
1C8CDE6AC4CD
102
}
330
1C8CDE6AC4CD
100
AcDbScale
 70
     0
300
1:50
140
1.0
141
50.0
290
     0
  0
SCALE
  5
1C8CDE6AC4D9
102
{ACAD_REACTORS
330
1C8CDE6AC4CD
102
}
330
1C8CDE6AC4CD
100
AcDbScale
 70
     0
300
1:100
140
1.0
141
100.0
290
     0
  0
SCALE
  5
1C8CDE6AC4DA
102
{ACAD_REACTORS
330
1C8CDE6AC4CD
102
}
330
1C8CDE6AC4CD
100
AcDbScale
 70
     0
300
2:1
140
2.0
141
1.0
290
     0
  0
SCALE
  5
1C8CDE6AC4DB
102
{ACAD_REACTORS
330
1C8CDE6AC4CD
102
}
330
1C8CDE6AC4CD
100
AcDbScale
 70
     0
300
4:1
140
4.0
141
1.0
290
     0
  0
SCALE
  5
1C8CDE6AC4DC
102
{ACAD_REACTORS
330
1C8CDE6AC4CD
102
}
330
1C8CDE6AC4CD
100
AcDbScale
 70
     0
300
8:1
140
8.0
141
1.0
290
     0
  0
SCALE
  5
1C8CDE6AC4DD
102
{ACAD_REACTORS
330
1C8CDE6AC4CD
102
}
330
1C8CDE6AC4CD
100
AcDbScale
 70
     0
300
10:1
140
10.0
141
1.0
290
     0
  0
SCALE
  5
1C8CDE6AC4DE
102
{ACAD_REACTORS
330
1C8CDE6AC4CD
102
}
330
1C8CDE6AC4CD
100
AcDbScale
 70
     0
300
100:1
140
100.0
141
1.0
290
     0
  0
SCALE
  5
1C8CDE6AC4DF
102
{ACAD_REACTORS
330
1C8CDE6AC4CD
102
}
330
1C8CDE6AC4CD
100
AcDbScale
 70
     0
300
1/128" = 1'-0"
140
0.0078125
141
12.0
290
     0
  0
SCALE
  5
1C8CDE6AC4E0
102
{ACAD_REACTORS
330
1C8CDE6AC4CD
102
}
330
1C8CDE6AC4CD
100
AcDbScale
 70
     0
300
1/64" = 1'-0"
140
0.015625
141
12.0
290
     0
  0
SCALE
  5
1C8CDE6AC4E1
102
{ACAD_REACTORS
330
1C8CDE6AC4CD
102
}
330
1C8CDE6AC4CD
100
AcDbScale
 70
     0
300
1/32" = 1'-0"
140
0.03125
141
12.0
290
     0
  0
SCALE
  5
1C8CDE6AC4E2
102
{ACAD_REACTORS
330
1C8CDE6AC4CD
102
}
330
1C8CDE6AC4CD
100
AcDbScale
 70
     0
300
1/16" = 1'-0"
140
0.0625
141
12.0
290
     0
  0
SCALE
  5
1C8CDE6AC4E3
102
{ACAD_REACTORS
330
1C8CDE6AC4CD
102
}
330
1C8CDE6AC4CD
100
AcDbScale
 70
     0
300
3/32" = 1'-0"
140
0.09375
141
12.0
290
     0
  0
SCALE
  5
1C8CDE6AC4E4
102
{ACAD_REACTORS
330
1C8CDE6AC4CD
102
}
330
1C8CDE6AC4CD
100
AcDbScale
 70
     0
300
1/8" = 1'-0"
140
0.125
141
12.0
290
     0
  0
SCALE
  5
1C8CDE6AC4E5
102
{ACAD_REACTORS
330
1C8CDE6AC4CD
102
}
330
1C8CDE6AC4CD
100
AcDbScale
 70
     0
300
3/16" = 1'-0"
140
0.1875
141
12.0
290
     0
  0
SCALE
  5
1C8CDE6AC4E6
102
{ACAD_REACTORS
330
1C8CDE6AC4CD
102
}
330
1C8CDE6AC4CD
100
AcDbScale
 70
     0
300
1/4" = 1'-0"
140
0.25
141
12.0
290
     0
  0
SCALE
  5
1C8CDE6AC4E7
102
{ACAD_REACTORS
330
1C8CDE6AC4CD
102
}
330
1C8CDE6AC4CD
100
AcDbScale
 70
     0
300
3/8" = 1'-0"
140
0.375
141
12.0
290
     0
  0
SCALE
  5
1C8CDE6AC4E8
102
{ACAD_REACTORS
330
1C8CDE6AC4CD
102
}
330
1C8CDE6AC4CD
100
AcDbScale
 70
     0
300
1/2" = 1'-0"
140
0.5
141
12.0
290
     0
  0
SCALE
  5
1C8CDE6AC4E9
102
{ACAD_REACTORS
330
1C8CDE6AC4CD
102
}
330
1C8CDE6AC4CD
100
AcDbScale
 70
     0
300
3/4" = 1'-0"
140
0.75
141
12.0
290
     0
  0
SCALE
  5
1C8CDE6AC4EA
102
{ACAD_REACTORS
330
1C8CDE6AC4CD
102
}
330
1C8CDE6AC4CD
100
AcDbScale
 70
     0
300
1" = 1'-0"
140
1.0
141
12.0
290
     0
  0
SCALE
  5
1C8CDE6AC4EB
102
{ACAD_REACTORS
330
1C8CDE6AC4CD
102
}
330
1C8CDE6AC4CD
100
AcDbScale
 70
     0
300
1-1/2" = 1'-0"
140
1.5
141
12.0
290
     0
  0
SCALE
  5
1C8CDE6AC4EC
102
{ACAD_REACTORS
330
1C8CDE6AC4CD
102
}
330
1C8CDE6AC4CD
100
AcDbScale
 70
     0
300
3" = 1'-0"
140
3.0
141
12.0
290
     0
  0
SCALE
  5
1C8CDE6AC4ED
102
{ACAD_REACTORS
330
1C8CDE6AC4CD
102
}
330
1C8CDE6AC4CD
100
AcDbScale
 70
     0
300
6" = 1'-0"
140
6.0
141
12.0
290
     0
  0
SCALE
  5
1C8CDE6AC4EE
102
{ACAD_REACTORS
330
1C8CDE6AC4CD
102
}
330
1C8CDE6AC4CD
100
AcDbScale
 70
     0
300
1'-0" = 1'-0"
140
12.0
141
12.0
290
     0
  0
ACDBSECTIONVIEWSTYLE
  5
1C8CDE6AC895
102
{ACAD_XDICTIONARY
360
1C8CDE6AC8E3
102
}
102
{ACAD_REACTORS
330
1C8CDE6AC71B
102
}
330
1C8CDE6AC71B
100
AcDbModelDocViewStyle
 70
     0
  3
Imperial24
290
     0
100
AcDbSectionViewStyle
 70
     0
 71
     0
 90
       78
 71
     1
340
1C8CDE699D4B
 40
0.24
340
0
340
0
 40
0.24
300
I, O, Q, S, X, Z
 40
0.48
 90
        3
 40
0.18
 90
        1
 71
     2
340
1C8CDE699D4F
 90
       25
340
1C8CDE699D4F
 90
       50
 40
0.24
 40
0.0
 40
0.24
 71
     3
340
1C8CDE699D4B
 40
0.24
 90
        1
 40
0.75
 90
        1
300
%<\AcVar ViewType \f "%tc1">% %<\AcVar ViewSectionStartId>%-%<\AcVar ViewSectionEndId>%\PSCALE %<\AcVar ViewScale \f "%sn">%
 71
     4
300
ANSI31
 40
1.0
 90
        0
290
     0
290
     0
 90
        6
 40
0.0
 40
1.570796326794896
 40
0.2617993877991494
 40
1.308996938995747
 40
-0.2617993877991494
 40
1.832595714594046
  0
TABLESTYLE
  5
1C8CDE6AC2F8
102
{ACAD_XDICTIONARY
360
1C8CDE6AC85C
102
}
102
{ACAD_REACTORS
330
1C8CDE6AC2F7
102
}
330
1C8CDE6AC2F7
100
AcDbTableStyle
  3
Standard
 70
     0
 71
     0
 40
0.06
 41
0.06
280
     0
281
     0
  7
STANDARD
140
0.18
170
     2
 62
     0
 63
     7
283
     0
274
    -2
284
     1
 64
     0
275
    -2
285
     1
 65
     0
276
    -2
286
     1
 66
     0
277
    -2
287
     1
 67
     0
278
    -2
288
     1
 68
     0
279
    -2
289
     1
 69
     0
  7
STANDARD
140
0.25
170
     5
 62
     0
 63
     7
283
     0
274
    -2
284
     1
 64
     0
275
    -2
285
     1
 65
     0
276
    -2
286
     1
 66
     0
277
    -2
287
     1
 67
     0
278
    -2
288
     1
 68
     0
279
    -2
289
     1
 69
     0
  7
STANDARD
140
0.18
170
     5
 62
     0
 63
     7
283
     0
274
    -2
284
     1
 64
     0
275
    -2
285
     1
 65
     0
276
    -2
286
     1
 66
     0
277
    -2
287
     1
 67
     0
278
    -2
288
     1
 68
     0
279
    -2
289
     1
 69
     0
  0
VISUALSTYLE
  5
1C8CDE6AC4B9
102
{ACAD_XDICTIONARY
360
1C8CDE6AC8B3
102
}
102
{ACAD_REACTORS
330
1C8CDE6AC4B4
102
}
330
1C8CDE6AC4B4
100
AcDbVisualStyle
  2
2dWireframe
 70
     4
 71
     0
 72
     2
 73
     0
 90
        0
 40
-0.6
 41
-30.0
 62
     5
 63
     7
 74
     1
 91
        4
 64
     7
 65
   257
 75
     1
175
     1
 42
1.0
 92
        0
 66
   257
 43
1.0
 76
     1
 77
     6
 78
     2
 67
     7
 79
     5
170
     0
171
     0
290
     0
174
     0
 93
        1
 44
0.0
173
     0
291
     0
 45
0.0
1001
ACAD
1000
AcDbSavedByObjectVersion
1070
     0
  0
VISUALSTYLE
  5
1C8CDE6AC4BC
102
{ACAD_XDICTIONARY
360
1C8CDE6AC8B9
102
}
102
{ACAD_REACTORS
330
1C8CDE6AC4B4
102
}
330
1C8CDE6AC4B4
100
AcDbVisualStyle
  2
Basic
 70
     7
 71
     1
 72
     0
 73
     1
 90
        0
 40
-0.6
 41
-30.0
 62
     5
 63
     7
 74
     0
 91
        4
 64
     7
 65
   257
 75
     1
175
     1
 42
1.0
 92
        8
 66
     7
 43
1.0
 76
     1
 77
     6
 78
     2
 67
     7
 79
     5
170
     0
171
     0
290
     0
174
     0
 93
        1
 44
0.0
173
     0
291
     1
 45
0.0
1001
ACAD
1000
AcDbSavedByObjectVersion
1070
     0
  0
VISUALSTYLE
  5
1C8CDE6AC4C0
102
{ACAD_XDICTIONARY
360
1C8CDE6AC8C1
102
}
102
{ACAD_REACTORS
330
1C8CDE6AC4B4
102
}
330
1C8CDE6AC4B4
100
AcDbVisualStyle
  2
Brighten
 70
    12
 71
     2
 72
     2
 73
     0
 90
        0
 40
-0.6
 41
-30.0
 62
     5
 63
     7
 74
     1
 91
        4
 64
     7
 65
   257
 75
     1
175
     1
 42
1.0
 92
        8
 66
     7
 43
1.0
 76
     1
 77
     6
 78
     2
 67
     7
 79
     5
170
     0
171
     0
290
     0
174
     0
 93
        1
 44
50.0
173
     0
291
     1
 45
0.0
1001
ACAD
1000
AcDbSavedByObjectVersion
1070
     0
  0
VISUALSTYLE
  5
1C8CDE6AC4C4
102
{ACAD_XDICTIONARY
360
1C8CDE6AC8C9
102
}
102
{ACAD_REACTORS
330
1C8CDE6AC4B4
102
}
330
1C8CDE6AC4B4
100
AcDbVisualStyle
  2
ColorChange
 70
    16
 71
     2
 72
     2
 73
     3
 90
        0
 40
-0.6
 41
-30.0
 62
     5
 63
     8
 74
     1
 91
        4
 64
     7
 65
   257
 75
     1
175
     1
 42
1.0
 92
        8
 66
     8
 43
1.0
 76
     1
 77
     6
 78
     2
 67
     7
 79
     5
170
     0
171
     0
290
     0
174
     0
 93
        1
 44
0.0
173
     0
291
     1
 45
0.0
1001
ACAD
1000
AcDbSavedByObjectVersion
1070
     0
  0
VISUALSTYLE
  5
1C8CDE6AC4BE
102
{ACAD_XDICTIONARY
360
1C8CDE6AC8BD
102
}
102
{ACAD_REACTORS
330
1C8CDE6AC4B4
102
}
330
1C8CDE6AC4B4
100
AcDbVisualStyle
  2
Conceptual
 70
     9
 71
     3
 72
     2
 73
     0
 90
        0
 40
-0.6
 41
-30.0
 62
     5
 63
     7
 74
     2
 91
        2
 64
     7
 65
   257
 75
     1
175
     1
 42
179.0
 92
        8
 66
     7
 43
1.0
 76
     1
 77
     6
 78
     2
 67
     7
 79
     3
170
     0
171
     0
290
     0
174
     0
 93
        1
 44
0.0
173
     0
291
     0
 45
0.0
1001
ACAD
1000
AcDbSavedByObjectVersion
1070
     0
  0
VISUALSTYLE
  5
1C8CDE6AC4BF
102
{ACAD_XDICTIONARY
360
1C8CDE6AC8BF
102
}
102
{ACAD_REACTORS
330
1C8CDE6AC4B4
102
}
330
1C8CDE6AC4B4
100
AcDbVisualStyle
  2
Dim
 70
    11
 71
     2
 72
     2
 73
     0
 90
        0
 40
-0.6
 41
-30.0
 62
     5
 63
     7
 74
     1
 91
        4
 64
     7
 65
   257
 75
     1
175
     1
 42
1.0
 92
        8
 66
     7
 43
1.0
 76
     1
 77
     6
 78
     2
 67
     7
 79
     5
170
     0
171
     0
290
     0
174
     0
 93
        1
 44
-50.0
173
     0
291
     1
 45
0.0
1001
ACAD
1000
AcDbSavedByObjectVersion
1070
     0
  0
VISUALSTYLE
  5
1C8CDE6AC4C7
102
{ACAD_XDICTIONARY
360
1C8CDE6AC8CF
102
}
102
{ACAD_REACTORS
330
1C8CDE6AC4B4
102
}
330
1C8CDE6AC4B4
100
AcDbVisualStyle
  2
EdgeColorOff
 70
    22
 71
     2
 72
     2
 73
     0
 90
        0
 40
-0.6
 41
-30.0
 62
     5
 63
     7
 74
     1
 91
        4
 64
     7
 65
   257
 75
     1
175
     1
 42
1.0
 92
        8
 66
     7
 43
1.0
 76
     1
 77
     6
 78
     2
 67
     7
 79
     5
170
     0
171
     0
290
     0
174
     0
 93
        1
 44
0.0
173
     0
291
     1
 45
0.0
1001
ACAD
1000
AcDbSavedByObjectVersion
1070
     0
  0
VISUALSTYLE
  5
1C8CDE6AC4C3
102
{ACAD_XDICTIONARY
360
1C8CDE6AC8C7
102
}
102
{ACAD_REACTORS
330
1C8CDE6AC4B4
102
}
330
1C8CDE6AC4B4
100
AcDbVisualStyle
  2
Facepattern
 70
    15
 71
     2
 72
     2
 73
     0
 90
        0
 40
-0.6
 41
-30.0
 62
     5
 63
     7
 74
     1
 91
        4
 64
     7
 65
   257
 75
     1
175
     1
 42
1.0
 92
        8
 66
     7
 43
1.0
 76
     1
 77
     6
 78
     2
 67
     7
 79
     5
170
     0
171
     0
290
     0
174
     0
 93
        1
 44
0.0
173
     0
291
     1
 45
0.0
1001
ACAD
1000
AcDbSavedByObjectVersion
1070
     0
  0
VISUALSTYLE
  5
1C8CDE6AC4B5
102
{ACAD_XDICTIONARY
360
1C8CDE6AC8AB
102
}
102
{ACAD_REACTORS
330
1C8CDE6AC4B4
102
}
330
1C8CDE6AC4B4
100
AcDbVisualStyle
  2
Flat
 70
     0
 71
     2
 72
     1
 73
     1
 90
        2
 40
-0.6
 41
30.0
 62
     5
 63
     7
 74
     0
 91
        0
 64
     7
 65
   257
 75
     1
175
     1
 42
1.0
 92
        8
 66
     7
 43
1.0
 76
     1
 77
     6
 78
     2
 67
     7
 79
     5
170
     0
171
     0
290
     0
174
     0
 93
       13
 44
0.0
173
     0
291
     1
 45
0.0
1001
ACAD
1000
AcDbSavedByObjectVersion
1070
     0
  0
VISUALSTYLE
  5
1C8CDE6AC4B6
102
{ACAD_XDICTIONARY
360
1C8CDE6AC8AD
102
}
102
{ACAD_REACTORS
330
1C8CDE6AC4B4
102
}
330
1C8CDE6AC4B4
100
AcDbVisualStyle
  2
FlatWithEdges
 70
     1
 71
     2
 72
     1
 73
     1
 90
        2
 40
-0.6
 41
30.0
 62
     5
 63
     7
 74
     1
 91
        0
 64
     7
 65
   257
 75
     1
175
     1
 42
1.0
 92
        0
 66
   257
 43
1.0
 76
     1
 77
     6
 78
     2
 67
     7
 79
     5
170
     0
171
     0
290
     0
174
     0
 93
       13
 44
0.0
173
     0
291
     1
 45
0.0
1001
ACAD
1000
AcDbSavedByObjectVersion
1070
     0
  0
VISUALSTYLE
  5
1C8CDE6AC4B7
102
{ACAD_XDICTIONARY
360
1C8CDE6AC8AF
102
}
102
{ACAD_REACTORS
330
1C8CDE6AC4B4
102
}
330
1C8CDE6AC4B4
100
AcDbVisualStyle
  2
Gouraud
 70
     2
 71
     2
 72
     2
 73
     1
 90
        2
 40
-0.6
 41
30.0
 62
     5
 63
     7
 74
     0
 91
        0
 64
     7
 65
   257
 75
     1
175
     1
 42
1.0
 92
        0
 66
     7
 43
1.0
 76
     1
 77
     6
 78
     2
 67
     7
 79
     5
170
     0
171
     0
290
     0
174
     0
 93
       13
 44
0.0
173
     0
291
     1
 45
0.0
1001
ACAD
1000
AcDbSavedByObjectVersion
1070
     0
  0
VISUALSTYLE
  5
1C8CDE6AC4B8
102
{ACAD_XDICTIONARY
360
1C8CDE6AC8B1
102
}
102
{ACAD_REACTORS
330
1C8CDE6AC4B4
102
}
330
1C8CDE6AC4B4
100
AcDbVisualStyle
  2
GouraudWithEdges
 70
     3
 71
     2
 72
     2
 73
     1
 90
        2
 40
-0.6
 41
30.0
 62
     5
 63
     7
 74
     1
 91
        0
 64
     7
 65
   257
 75
     1
175
     1
 42
1.0
 92
        0
 66
   257
 43
1.0
 76
     1
 77
     6
 78
     2
 67
     7
 79
     5
170
     0
171
     0
290
     0
174
     0
 93
       13
 44
0.0
173
     0
291
     1
 45
0.0
1001
ACAD
1000
AcDbSavedByObjectVersion
1070
     0
  0
VISUALSTYLE
  5
1C8CDE6AC4BB
102
{ACAD_XDICTIONARY
360
1C8CDE6AC8B7
102
}
102
{ACAD_REACTORS
330
1C8CDE6AC4B4
102
}
330
1C8CDE6AC4B4
100
AcDbVisualStyle
  2
Hidden
 70
     6
 71
     1
 72
     2
 73
     2
 90
        0
 40
-0.6
 41
-30.0
 62
     5
 63
     7
 74
     2
 91
        2
 64
     7
 65
   257
 75
     2
175
     1
 42
40.0
 92
        0
 66
   257
 43
1.0
 76
     1
 77
     6
 78
     2
 67
     7
 79
     3
170
     0
171
     0
290
     0
174
     0
 93
        1
 44
0.0
173
     0
291
     0
 45
0.0
1001
ACAD
1000
AcDbSavedByObjectVersion
1070
     0
  0
VISUALSTYLE
  5
1C8CDE6AC4C5
102
{ACAD_XDICTIONARY
360
1C8CDE6AC8CB
102
}
102
{ACAD_REACTORS
330
1C8CDE6AC4B4
102
}
330
1C8CDE6AC4B4
100
AcDbVisualStyle
  2
JitterOff
 70
    20
 71
     2
 72
     2
 73
     0
 90
        0
 40
-0.6
 41
-30.0
 62
     5
 63
     7
 74
     1
 91
        4
 64
     7
 65
   257
 75
     1
175
     1
 42
1.0
 92
       10
 66
     7
 43
1.0
 76
     1
 77
     6
 78
     2
 67
     7
 79
     5
170
     0
171
     0
290
     0
174
     0
 93
        1
 44
0.0
173
     0
291
     1
 45
0.0
1001
ACAD
1000
AcDbSavedByObjectVersion
1070
     0
  0
VISUALSTYLE
  5
1C8CDE6AC4C2
102
{ACAD_XDICTIONARY
360
1C8CDE6AC8C5
102
}
102
{ACAD_REACTORS
330
1C8CDE6AC4B4
102
}
330
1C8CDE6AC4B4
100
AcDbVisualStyle
  2
Linepattern
 70
    14
 71
     2
 72
     2
 73
     0
 90
        0
 40
-0.6
 41
-30.0
 62
     5
 63
     7
 74
     1
 91
        4
 64
     7
 65
   257
 75
     7
175
     7
 42
1.0
 92
        8
 66
     7
 43
1.0
 76
     1
 77
     6
 78
     2
 67
     7
 79
     5
170
     0
171
     0
290
     0
174
     0
 93
        1
 44
0.0
173
     0
291
     1
 45
0.0
1001
ACAD
1000
AcDbSavedByObjectVersion
1070
     0
  0
VISUALSTYLE
  5
1C8CDE6AC4F4
102
{ACAD_XDICTIONARY
360
1C8CDE6AC8E1
102
}
102
{ACAD_REACTORS
330
1C8CDE6AC4B4
102
}
330
1C8CDE6AC4B4
100
AcDbVisualStyle
  2

 70
    10
 71
     2
 72
     3
 73
     0
 90
        2
 40
-0.6
 41
30.0
 62
     5
 63
     7
 74
     2
 91
        0
 64
     7
 65
   257
 75
     1
175
     1
 42
180.0
 92
        8
 66
     8
 43
1.0
 76
     1
 77
     6
 78
     2
 67
     7
 79
     5
170
     0
171
     0
290
     0
174
     0
 93
       13
 44
0.0
173
     0
291
     0
 45
0.0
1001
ACAD
1000
AcDbSavedByObjectVersion
1070
     0
  0
VISUALSTYLE
  5
1C8CDE6AC4C6
102
{ACAD_XDICTIONARY
360
1C8CDE6AC8CD
102
}
102
{ACAD_REACTORS
330
1C8CDE6AC4B4
102
}
330
1C8CDE6AC4B4
100
AcDbVisualStyle
  2
OverhangOff
 70
    21
 71
     2
 72
     2
 73
     0
 90
        0
 40
-0.6
 41
-30.0
 62
     5
 63
     7
 74
     1
 91
        4
 64
     7
 65
   257
 75
     1
175
     1
 42
1.0
 92
        9
 66
     7
 43
1.0
 76
     1
 77
     6
 78
     2
 67
     7
 79
     5
170
     0
171
     0
290
     0
174
     0
 93
        1
 44
0.0
173
     0
291
     1
 45
0.0
1001
ACAD
1000
AcDbSavedByObjectVersion
1070
     0
  0
VISUALSTYLE
  5
1C8CDE6AC4BD
102
{ACAD_XDICTIONARY
360
1C8CDE6AC8BB
102
}
102
{ACAD_REACTORS
330
1C8CDE6AC4B4
102
}
330
1C8CDE6AC4B4
100
AcDbVisualStyle
  2
Realistic
 70
     8
 71
     2
 72
     3
 73
     0
 90
        2
 40
-0.6
 41
30.0
 62
     5
 63
     7
 74
     0
 91
        0
 64
     7
 65
   257
 75
     1
175
     1
 42
1.0
 92
        8
 66
   257
 43
1.0
 76
     1
 77
     6
 78
     2
 67
     7
 79
     3
170
     0
171
     0
290
     0
174
     0
 93
       13
 44
0.0
173
     0
291
     0
 45
0.0
1001
ACAD
1000
AcDbSavedByObjectVersion
1070
     0
  0
VISUALSTYLE
  5
1C8CDE6AC4CC
102
{ACAD_XDICTIONARY
360
1C8CDE6AC8D9
102
}
102
{ACAD_REACTORS
330
1C8CDE6AC4B4
102
}
330
1C8CDE6AC4B4
100
AcDbVisualStyle
  2
Shaded
 70
    27
 71
     2
 72
     2
 73
     1
 90
        2
 40
-0.6
 41
30.0
 62
     5
 63
     7
 74
     0
 91
        4
 64
     7
 65
   257
 75
     1
175
     1
 42
1.0
 92
        8
 66
   257
 43
1.0
 76
     1
 77
     6
 78
     2
 67
     8
 79
     3
170
     0
171
     0
290
     0
174
     0
 93
        5
 44
0.0
173
     0
291
     0
 45
0.0
1001
ACAD
1000
AcDbSavedByObjectVersion
1070
     0
  0
VISUALSTYLE
  5
1C8CDE6AC4CB
102
{ACAD_XDICTIONARY
360
1C8CDE6AC8D7
102
}
102
{ACAD_REACTORS
330
1C8CDE6AC4B4
102
}
330
1C8CDE6AC4B4
100
AcDbVisualStyle
  2
Shaded with edges
 70
    26
 71
     2
 72
     2
 73
     1
 90
        2
 40
-0.6
 41
30.0
 62
     5
 63
     7
 74
     1
 91
       10
 64
     7
 65
   257
 75
     2
175
     1
 42
1.0
 92
        8
 66
   257
 43
1.0
 76
     1
 77
     6
 78
     2
 67
     7
 79
     3
170
     0
171
     0
290
     0
174
     0
 93
        5
 44
0.0
173
     0
291
     0
 45
0.0
1001
ACAD
1000
AcDbSavedByObjectVersion
1070
     0
  0
VISUALSTYLE
  5
1C8CDE6AC4C8
102
{ACAD_XDICTIONARY
360
1C8CDE6AC8D1
102
}
102
{ACAD_REACTORS
330
1C8CDE6AC4B4
102
}
330
1C8CDE6AC4B4
100
AcDbVisualStyle
  2
Shades of Gray
 70
    23
 71
     2
 72
     2
 73
     3
 90
        0
 40
-0.6
 41
-30.0
 62
     5
 63
     7
 74
     2
 91
        2
 64
     7
 65
     7
 75
     1
175
     1
 42
40.0
 92
        8
 66
     7
 43
1.0
 76
     1
 77
     6
 78
     2
 67
     7
 79
     3
170
     0
171
     0
290
     0
174
     0
 93
        1
 44
0.0
173
     0
291
     0
 45
0.0
1001
ACAD
1000
AcDbSavedByObjectVersion
1070
     0
  0
VISUALSTYLE
  5
1C8CDE6AC4C9
102
{ACAD_XDICTIONARY
360
1C8CDE6AC8D3
102
}
102
{ACAD_REACTORS
330
1C8CDE6AC4B4
102
}
330
1C8CDE6AC4B4
100
AcDbVisualStyle
  2
Sketchy
 70
    24
 71
     1
 72
     2
 73
     2
 90
        0
 40
-0.6
 41
-30.0
 62
     5
 63
     7
 74
     2
 91
        2
 64
     7
 65
     7
 75
     1
175
     1
 42
40.0
 92
       11
 66
     7
 43
1.0
 76
     1
 77
     6
 78
     2
 67
     7
 79
     6
170
     0
171
     0
290
     0
174
     0
 93
        1
 44
0.0
173
     0
291
     0
 45
0.0
1001
ACAD
1000
AcDbSavedByObjectVersion
1070
     0
  0
VISUALSTYLE
  5
1C8CDE6AC4C1
102
{ACAD_XDICTIONARY
360
1C8CDE6AC8C3
102
}
102
{ACAD_REACTORS
330
1C8CDE6AC4B4
102
}
330
1C8CDE6AC4B4
100
AcDbVisualStyle
  2
Thicken
 70
    13
 71
     2
 72
     2
 73
     0
 90
        0
 40
-0.6
 41
-30.0
 62
     5
 63
     7
 74
     1
 91
        4
 64
     7
 65
   257
 75
     1
175
     1
 42
1.0
 92
       12
 66
     7
 43
1.0
 76
     1
 77
     6
 78
     2
 67
     7
 79
     5
170
     0
171
     0
290
     0
174
     0
 93
        1
 44
0.0
173
     0
291
     1
 45
0.0
1001
ACAD
1000
AcDbSavedByObjectVersion
1070
     0
  0
VISUALSTYLE
  5
1C8CDE6AC4BA
102
{ACAD_XDICTIONARY
360
1C8CDE6AC8B5
102
}
102
{ACAD_REACTORS
330
1C8CDE6AC4B4
102
}
330
1C8CDE6AC4B4
100
AcDbVisualStyle
  2
Wireframe
 70
     5
 71
     0
 72
     2
 73
     0
 90
        0
 40
-0.6
 41
-30.0
 62
     5
 63
     7
 74
     1
 91
        4
 64
     7
 65
   257
 75
     1
175
     1
 42
1.0
 92
        0
 66
   257
 43
1.0
 76
     1
 77
     6
 78
     2
 67
     7
 79
     3
170
     0
171
     0
290
     0
174
     0
 93
        1
 44
0.0
173
     0
291
     0
 45
0.0
1001
ACAD
1000
AcDbSavedByObjectVersion
1070
     0
  0
VISUALSTYLE
  5
1C8CDE6AC4CA
102
{ACAD_XDICTIONARY
360
1C8CDE6AC8D5
102
}
102
{ACAD_REACTORS
330
1C8CDE6AC4B4
102
}
330
1C8CDE6AC4B4
100
AcDbVisualStyle
  2
X-Ray
 70
    25
 71
     2
 72
     2
 73
     1
 90
        1
 40
0.5
 41
-30.0
 62
     5
 63
     7
 74
     1
 91
        0
 64
     7
 65
   257
 75
     1
175
     1
 42
1.0
 92
        8
 66
     7
 43
1.0
 76
     1
 77
     6
 78
     2
 67
     7
 79
     3
170
     0
171
     0
290
     0
174
     0
 93
       13
 44
0.0
173
     0
291
     0
 45
0.0
1001
ACAD
1000
AcDbSavedByObjectVersion
1070
     0
  0
DICTIONARYVAR
  5
1C8CDE6AC6DB
102
{ACAD_REACTORS
330
1C8CDE6AC3D9
102
}
330
1C8CDE6AC3D9
100
DictionaryVariables
280
     0
  1
1:1
  0
DICTIONARYVAR
  5
1C8CDE6AC543
102
{ACAD_REACTORS
330
1C8CDE6AC3D9
102
}
330
1C8CDE6AC3D9
100
DictionaryVariables
280
     0
  1
STANDARD
  0
DICTIONARYVAR
  5
1C8CDE6AC3DA
102
{ACAD_REACTORS
330
1C8CDE6AC3D9
102
}
330
1C8CDE6AC3D9
100
DictionaryVariables
280
     0
  1
STANDARD
  0
DICTIONARYVAR
  5
1C8CDE6AC89D
102
{ACAD_REACTORS
330
1C8CDE6AC3D9
102
}
330
1C8CDE6AC3D9
100
DictionaryVariables
280
     0
  1
Imperial24
  0
DICTIONARYVAR
  5
1C8CDE6AC89E
102
{ACAD_REACTORS
330
1C8CDE6AC3D9
102
}
330
1C8CDE6AC3D9
100
DictionaryVariables
280
     0
  1
Imperial24
  0
DICTIONARYVAR
  5
1C8CDE6AC419
102
{ACAD_REACTORS
330
1C8CDE6AC3D9
102
}
330
1C8CDE6AC3D9
100
DictionaryVariables
280
     0
  1
1
  0
DICTIONARYVAR
  5
1C8CDE6AC547
102
{ACAD_REACTORS
330
1C8CDE6AC3D9
102
}
330
1C8CDE6AC3D9
100
DictionaryVariables
280
     0
  1
1
  0
DICTIONARYVAR
  5
1C8CDE6AC8A0
102
{ACAD_REACTORS
330
1C8CDE6AC3D9
102
}
330
1C8CDE6AC3D9
100
DictionaryVariables
280
     0
  1
0
  0
DICTIONARYVAR
  5
1C8CDE6AC544
102
{ACAD_REACTORS
330
1C8CDE6AC3D9
102
}
330
1C8CDE6AC3D9
100
DictionaryVariables
280
     0
  1
0
  0
DICTIONARYVAR
  5
1C8CDE6AC41A
102
{ACAD_REACTORS
330
1C8CDE6AC3D9
102
}
330
1C8CDE6AC3D9
100
DictionaryVariables
280
     0
  1

  0
DICTIONARYVAR
  5
1C8CDE6AC89F
102
{ACAD_REACTORS
330
1C8CDE6AC3D9
102
}
330
1C8CDE6AC3D9
100
DictionaryVariables
280
     0
  1
127
  0
DICTIONARYVAR
  5
1C8CDE6AC8A1
102
{ACAD_REACTORS
330
1C8CDE6AC3D9
102
}
330
1C8CDE6AC3D9
100
DictionaryVariables
280
     0
  1
2
  0
DICTIONARY
  5
1C8CDE6AC8E5
330
1C8CDE6AC896
100
AcDbDictionary
280
     1
281
     1
  3
ACAD_XREC_ROUNDTRIP
360
1C8CDE6AC8E6
  0
DICTIONARY
  5
1C8CDE6AC8A7
330
1C8CDE6AC2FB
100
AcDbDictionary
280
     1
281
     1
  3
ACAD_XREC_ROUNDTRIP
360
1C8CDE6AC8A8
  0
DICTIONARY
  5
1C8CDE6AC8A9
330
1C8CDE6AC2FC
100
AcDbDictionary
280
     1
281
     1
  3
ACAD_XREC_ROUNDTRIP
360
1C8CDE6AC8AA
  0
DICTIONARY
  5
1C8CDE6AC8DD
330
1C8CDE6AC4F0
100
AcDbDictionary
280
     1
281
     1
  3
ACAD_XREC_ROUNDTRIP
360
1C8CDE6AC8DE
  0
DICTIONARY
  5
1C8CDE6AC8DB
330
1C8CDE6AC4EF
100
AcDbDictionary
280
     1
281
     1
  3
ACAD_XREC_ROUNDTRIP
360
1C8CDE6AC8DC
  0
DICTIONARY
  5
1C8CDE6AC8DF
330
1C8CDE6AC4F1
100
AcDbDictionary
280
     1
281
     1
  3
ACAD_XREC_ROUNDTRIP
360
1C8CDE6AC8E0
  0
DICTIONARY
  5
1C8CDE6AC8E3
330
1C8CDE6AC895
100
AcDbDictionary
280
     1
281
     1
  3
ACAD_XREC_ROUNDTRIP
360
1C8CDE6AC8E4
  0
DICTIONARY
  5
1C8CDE6AC85C
330
1C8CDE6AC2F8
100
AcDbDictionary
280
     1
281
     1
  3
ACAD_ROUNDTRIP_2008_TABLESTYLE_CELLSTYLEMAP
360
1C8CDE6AC8A3
  3
ACAD_XREC_ROUNDTRIP
360
1C8CDE6AC8A6
  0
DICTIONARY
  5
1C8CDE6AC8B3
330
1C8CDE6AC4B9
100
AcDbDictionary
280
     1
281
     1
  3
ACAD_XREC_ROUNDTRIP
360
1C8CDE6AC8B4
  0
DICTIONARY
  5
1C8CDE6AC8B9
330
1C8CDE6AC4BC
100
AcDbDictionary
280
     1
281
     1
  3
ACAD_XREC_ROUNDTRIP
360
1C8CDE6AC8BA
  0
DICTIONARY
  5
1C8CDE6AC8C1
330
1C8CDE6AC4C0
100
AcDbDictionary
280
     1
281
     1
  3
ACAD_XREC_ROUNDTRIP
360
1C8CDE6AC8C2
  0
DICTIONARY
  5
1C8CDE6AC8C9
330
1C8CDE6AC4C4
100
AcDbDictionary
280
     1
281
     1
  3
ACAD_XREC_ROUNDTRIP
360
1C8CDE6AC8CA
  0
DICTIONARY
  5
1C8CDE6AC8BD
330
1C8CDE6AC4BE
100
AcDbDictionary
280
     1
281
     1
  3
ACAD_XREC_ROUNDTRIP
360
1C8CDE6AC8BE
  0
DICTIONARY
  5
1C8CDE6AC8BF
330
1C8CDE6AC4BF
100
AcDbDictionary
280
     1
281
     1
  3
ACAD_XREC_ROUNDTRIP
360
1C8CDE6AC8C0
  0
DICTIONARY
  5
1C8CDE6AC8CF
330
1C8CDE6AC4C7
100
AcDbDictionary
280
     1
281
     1
  3
ACAD_XREC_ROUNDTRIP
360
1C8CDE6AC8D0
  0
DICTIONARY
  5
1C8CDE6AC8C7
330
1C8CDE6AC4C3
100
AcDbDictionary
280
     1
281
     1
  3
ACAD_XREC_ROUNDTRIP
360
1C8CDE6AC8C8
  0
DICTIONARY
  5
1C8CDE6AC8AB
330
1C8CDE6AC4B5
100
AcDbDictionary
280
     1
281
     1
  3
ACAD_XREC_ROUNDTRIP
360
1C8CDE6AC8AC
  0
DICTIONARY
  5
1C8CDE6AC8AD
330
1C8CDE6AC4B6
100
AcDbDictionary
280
     1
281
     1
  3
ACAD_XREC_ROUNDTRIP
360
1C8CDE6AC8AE
  0
DICTIONARY
  5
1C8CDE6AC8AF
330
1C8CDE6AC4B7
100
AcDbDictionary
280
     1
281
     1
  3
ACAD_XREC_ROUNDTRIP
360
1C8CDE6AC8B0
  0
DICTIONARY
  5
1C8CDE6AC8B1
330
1C8CDE6AC4B8
100
AcDbDictionary
280
     1
281
     1
  3
ACAD_XREC_ROUNDTRIP
360
1C8CDE6AC8B2
  0
DICTIONARY
  5
1C8CDE6AC8B7
330
1C8CDE6AC4BB
100
AcDbDictionary
280
     1
281
     1
  3
ACAD_XREC_ROUNDTRIP
360
1C8CDE6AC8B8
  0
DICTIONARY
  5
1C8CDE6AC8CB
330
1C8CDE6AC4C5
100
AcDbDictionary
280
     1
281
     1
  3
ACAD_XREC_ROUNDTRIP
360
1C8CDE6AC8CC
  0
DICTIONARY
  5
1C8CDE6AC8C5
330
1C8CDE6AC4C2
100
AcDbDictionary
280
     1
281
     1
  3
ACAD_XREC_ROUNDTRIP
360
1C8CDE6AC8C6
  0
DICTIONARY
  5
1C8CDE6AC8E1
330
1C8CDE6AC4F4
100
AcDbDictionary
280
     1
281
     1
  3
ACAD_XREC_ROUNDTRIP
360
1C8CDE6AC8E2
  0
DICTIONARY
  5
1C8CDE6AC8CD
330
1C8CDE6AC4C6
100
AcDbDictionary
280
     1
281
     1
  3
ACAD_XREC_ROUNDTRIP
360
1C8CDE6AC8CE
  0
DICTIONARY
  5
1C8CDE6AC8BB
330
1C8CDE6AC4BD
100
AcDbDictionary
280
     1
281
     1
  3
ACAD_XREC_ROUNDTRIP
360
1C8CDE6AC8BC
  0
DICTIONARY
  5
1C8CDE6AC8D9
330
1C8CDE6AC4CC
100
AcDbDictionary
280
     1
281
     1
  3
ACAD_XREC_ROUNDTRIP
360
1C8CDE6AC8DA
  0
DICTIONARY
  5
1C8CDE6AC8D7
330
1C8CDE6AC4CB
100
AcDbDictionary
280
     1
281
     1
  3
ACAD_XREC_ROUNDTRIP
360
1C8CDE6AC8D8
  0
DICTIONARY
  5
1C8CDE6AC8D1
330
1C8CDE6AC4C8
100
AcDbDictionary
280
     1
281
     1
  3
ACAD_XREC_ROUNDTRIP
360
1C8CDE6AC8D2
  0
DICTIONARY
  5
1C8CDE6AC8D3
330
1C8CDE6AC4C9
100
AcDbDictionary
280
     1
281
     1
  3
ACAD_XREC_ROUNDTRIP
360
1C8CDE6AC8D4
  0
DICTIONARY
  5
1C8CDE6AC8C3
330
1C8CDE6AC4C1
100
AcDbDictionary
280
     1
281
     1
  3
ACAD_XREC_ROUNDTRIP
360
1C8CDE6AC8C4
  0
DICTIONARY
  5
1C8CDE6AC8B5
330
1C8CDE6AC4BA
100
AcDbDictionary
280
     1
281
     1
  3
ACAD_XREC_ROUNDTRIP
360
1C8CDE6AC8B6
  0
DICTIONARY
  5
1C8CDE6AC8D5
330
1C8CDE6AC4CA
100
AcDbDictionary
280
     1
281
     1
  3
ACAD_XREC_ROUNDTRIP
360
1C8CDE6AC8D6
  0
XRECORD
  5
1C8CDE6AC8E6
102
{ACAD_REACTORS
330
1C8CDE6AC8E5
102
}
330
1C8CDE6AC8E5
100
AcDbXrecord
280
     1
102
DISPLAYNAME
  1
Imperial24
102
FLAGS
 90
        0
  0
XRECORD
  5
1C8CDE6AC8A8
102
{ACAD_REACTORS
330
1C8CDE6AC8A7
102
}
330
1C8CDE6AC8A7
100
AcDbXrecord
280
     1
102
SHADEPLOT
 70
     0
102
SHADEPLOTRESLEVEL
 70
     2
102
SHADEPLOTCUSTOMDPI
 70
   300
  0
XRECORD
  5
1C8CDE6AC8AA
102
{ACAD_REACTORS
330
1C8CDE6AC8A9
102
}
330
1C8CDE6AC8A9
100
AcDbXrecord
280
     1
102
SHADEPLOT
 70
     0
102
SHADEPLOTRESLEVEL
 70
     2
102
SHADEPLOTCUSTOMDPI
 70
   300
  0
XRECORD
  5
1C8CDE6AC8DE
102
{ACAD_REACTORS
330
1C8CDE6AC8DD
102
}
330
1C8CDE6AC8DD
100
AcDbXrecord
280
     1
102
MATERIAL
148
0.0
149
0.0
149
0.0
 93
        0
 94
      127
282
     0
 72
     1
 77
     1
171
     1
175
     1
179
     1
273
     0
  0
XRECORD
  5
1C8CDE6AC8DC
102
{ACAD_REACTORS
330
1C8CDE6AC8DB
102
}
330
1C8CDE6AC8DB
100
AcDbXrecord
280
     1
102
MATERIAL
148
0.0
149
0.0
149
0.0
 93
        0
 94
      127
282
     0
 72
     1
 77
     1
171
     1
175
     1
179
     1
273
     0
  0
XRECORD
  5
1C8CDE6AC8E0
102
{ACAD_REACTORS
330
1C8CDE6AC8DF
102
}
330
1C8CDE6AC8DF
100
AcDbXrecord
280
     1
102
MATERIAL
148
0.0
149
0.0
149
0.0
 93
        0
 94
      127
282
     0
 72
     1
 77
     1
171
     1
175
     1
179
     1
273
     0
  0
XRECORD
  5
1C8CDE6AC8E4
102
{ACAD_REACTORS
330
1C8CDE6AC8E3
102
}
330
1C8CDE6AC8E3
100
AcDbXrecord
280
     1
102
DISPLAYNAME
  1
Imperial24
102
FLAGS
 90
        0
  0
CELLSTYLEMAP
  5
1C8CDE6AC8A3
102
{ACAD_REACTORS
330
1C8CDE6AC85C
102
}
330
1C8CDE6AC85C
100
AcDbCellStyleMap
 90
        3
300
CELLSTYLE
  1
TABLEFORMAT_BEGIN
 90
        5
170
     1
 91
        0
 92
    32768
 62
   257
 93
        1
300
CONTENTFORMAT
  1
CONTENTFORMAT_BEGIN
 90
        0
 91
        0
 92
        4
 93
        0
300

 40
0.0
140
1.0
 94
        5
 62
     0
340
1C8CDE699D4B
144
0.25
309
CONTENTFORMAT_END
171
     1
301
MARGIN
  1
CELLMARGIN_BEGIN
 40
0.06
 40
0.06
 40
0.06
 40
0.06
 40
0.06
 40
0.06
309
CELLMARGIN_END
 94
        6
 95
        1
302
GRIDFORMAT
  1
GRIDFORMAT_BEGIN
 90
        0
 91
        1
 62
     0
 92
       -2
340
0
 93
        0
 40
0.045
309
GRIDFORMAT_END
 95
        2
302
GRIDFORMAT
  1
GRIDFORMAT_BEGIN
 90
        0
 91
        1
 62
     0
 92
       -2
340
0
 93
        0
 40
0.045
309
GRIDFORMAT_END
 95
        4
302
GRIDFORMAT
  1
GRIDFORMAT_BEGIN
 90
        0
 91
        1
 62
     0
 92
       -2
340
0
 93
        0
 40
0.045
309
GRIDFORMAT_END
 95
        8
302
GRIDFORMAT
  1
GRIDFORMAT_BEGIN
 90
        0
 91
        1
 62
     0
 92
       -2
340
0
 93
        0
 40
0.045
309
GRIDFORMAT_END
 95
       16
302
GRIDFORMAT
  1
GRIDFORMAT_BEGIN
 90
        0
 91
        1
 62
     0
 92
       -2
340
0
 93
        0
 40
0.045
309
GRIDFORMAT_END
 95
       32
302
GRIDFORMAT
  1
GRIDFORMAT_BEGIN
 90
        0
 91
        1
 62
     0
 92
       -2
340
0
 93
        0
 40
0.045
309
GRIDFORMAT_END
309
TABLEFORMAT_END
  1
CELLSTYLE_BEGIN
 90
        1
 91
        1
300
_TITLE
309
CELLSTYLE_END
300
CELLSTYLE
  1
TABLEFORMAT_BEGIN
 90
        5
170
     1
 91
        0
 92
        0
 62
   257
 93
        1
300
CONTENTFORMAT
  1
CONTENTFORMAT_BEGIN
 90
        0
 91
        0
 92
        4
 93
        0
300

 40
0.0
140
1.0
 94
        5
 62
     0
340
1C8CDE699D4B
144
0.18
309
CONTENTFORMAT_END
171
     1
301
MARGIN
  1
CELLMARGIN_BEGIN
 40
0.06
 40
0.06
 40
0.06
 40
0.06
 40
0.06
 40
0.06
309
CELLMARGIN_END
 94
        6
 95
        1
302
GRIDFORMAT
  1
GRIDFORMAT_BEGIN
 90
        0
 91
        1
 62
     0
 92
       -2
340
0
 93
        0
 40
0.045
309
GRIDFORMAT_END
 95
        2
302
GRIDFORMAT
  1
GRIDFORMAT_BEGIN
 90
        0
 91
        1
 62
     0
 92
       -2
340
0
 93
        0
 40
0.045
309
GRIDFORMAT_END
 95
        4
302
GRIDFORMAT
  1
GRIDFORMAT_BEGIN
 90
        0
 91
        1
 62
     0
 92
       -2
340
0
 93
        0
 40
0.045
309
GRIDFORMAT_END
 95
        8
302
GRIDFORMAT
  1
GRIDFORMAT_BEGIN
 90
        0
 91
        1
 62
     0
 92
       -2
340
0
 93
        0
 40
0.045
309
GRIDFORMAT_END
 95
       16
302
GRIDFORMAT
  1
GRIDFORMAT_BEGIN
 90
        0
 91
        1
 62
     0
 92
       -2
340
0
 93
        0
 40
0.045
309
GRIDFORMAT_END
 95
       32
302
GRIDFORMAT
  1
GRIDFORMAT_BEGIN
 90
        0
 91
        1
 62
     0
 92
       -2
340
0
 93
        0
 40
0.045
309
GRIDFORMAT_END
309
TABLEFORMAT_END
  1
CELLSTYLE_BEGIN
 90
        2
 91
        1
300
_HEADER
309
CELLSTYLE_END
300
CELLSTYLE
  1
TABLEFORMAT_BEGIN
 90
        5
170
     1
 91
        0
 92
        0
 62
   257
 93
        1
300
CONTENTFORMAT
  1
CONTENTFORMAT_BEGIN
 90
        0
 91
        0
 92
        4
 93
        0
300

 40
0.0
140
1.0
 94
        2
 62
     0
340
1C8CDE699D4B
144
0.18
309
CONTENTFORMAT_END
171
     1
301
MARGIN
  1
CELLMARGIN_BEGIN
 40
0.06
 40
0.06
 40
0.06
 40
0.06
 40
0.06
 40
0.06
309
CELLMARGIN_END
 94
        6
 95
        1
302
GRIDFORMAT
  1
GRIDFORMAT_BEGIN
 90
        0
 91
        1
 62
     0
 92
       -2
340
0
 93
        0
 40
0.045
309
GRIDFORMAT_END
 95
        2
302
GRIDFORMAT
  1
GRIDFORMAT_BEGIN
 90
        0
 91
        1
 62
     0
 92
       -2
340
0
 93
        0
 40
0.045
309
GRIDFORMAT_END
 95
        4
302
GRIDFORMAT
  1
GRIDFORMAT_BEGIN
 90
        0
 91
        1
 62
     0
 92
       -2
340
0
 93
        0
 40
0.045
309
GRIDFORMAT_END
 95
        8
302
GRIDFORMAT
  1
GRIDFORMAT_BEGIN
 90
        0
 91
        1
 62
     0
 92
       -2
340
0
 93
        0
 40
0.045
309
GRIDFORMAT_END
 95
       16
302
GRIDFORMAT
  1
GRIDFORMAT_BEGIN
 90
        0
 91
        1
 62
     0
 92
       -2
340
0
 93
        0
 40
0.045
309
GRIDFORMAT_END
 95
       32
302
GRIDFORMAT
  1
GRIDFORMAT_BEGIN
 90
        0
 91
        1
 62
     0
 92
       -2
340
0
 93
        0
 40
0.045
309
GRIDFORMAT_END
309
TABLEFORMAT_END
  1
CELLSTYLE_BEGIN
 90
        3
 91
        2
300
_DATA
309
CELLSTYLE_END
  0
XRECORD
  5
1C8CDE6AC8A6
102
{ACAD_REACTORS
330
1C8CDE6AC85C
102
}
330
1C8CDE6AC85C
100
AcDbXrecord
280
     1
102
ACAD_ROUNDTRIP_PRE2007_TABLESTYLE
 90
        4
 91
        0
  1

 92
        4
 93
        0
  2

 94
        4
 95
        0
  3

  0
XRECORD
  5
1C8CDE6AC8B4
102
{ACAD_REACTORS
330
1C8CDE6AC8B3
102
}
330
1C8CDE6AC8B3
100
AcDbXrecord
280
     1
102
RTVSPost2010Prop28
280
     1
102
RTVSPost2010PropOp28
 70
     1
102
RTVSPost2010Prop29
280
     1
102
RTVSPost2010PropOp29
 70
     1
102
RTVSPost2010Prop30
280
     0
102
RTVSPost2010PropOp30
 70
     1
102
RTVSPost2010Prop31
280
     0
102
RTVSPost2010PropOp31
 70
     1
102
RTVSPost2010Prop32
280
     0
102
RTVSPost2010PropOp32
 70
     1
102
RTVSPost2010Prop33
280
     0
102
RTVSPost2010PropOp33
 70
     1
102
RTVSPost2010Prop34
280
     0
102
RTVSPost2010PropOp34
 70
     1
102
RTVSPost2010Prop35
280
     0
102
RTVSPost2010PropOp35
 70
     1
102
RTVSPost2010Prop36
280
     0
102
RTVSPost2010PropOp36
 70
     1
102
RTVSPost2010Prop37
 90
       50
102
RTVSPost2010PropOp37
 70
     1
102
RTVSPost2010Prop38
140
0.0
102
RTVSPost2010PropOp38
 70
     1
102
RTVSPost2010Prop39
140
1.0
102
RTVSPost2010PropOp39
 70
     1
102
RTVSPost2010Prop40
 90
        0
102
RTVSPost2010PropOp40
 70
     1
102
RTVSPost2010Prop41ColorIndex
 90
       18
102
RTVSPost2010Prop41ColorRGB
 90
        0
102
RTVSPost2010PropOp41
 70
     1
102
RTVSPost2010Prop42
 90
       50
102
RTVSPost2010PropOp42
 70
     1
102
RTVSPost2010Prop43
 90
        3
102
RTVSPost2010PropOp43
 70
     1
102
RTVSPost2010Prop44ColorIndex
 90
        5
102
RTVSPost2010Prop44ColorRGB
 90
      255
102
RTVSPost2010PropOp44
 70
     1
102
RTVSPost2010Prop45
280
     0
102
RTVSPost2010PropOp45
 70
     1
102
RTVSPost2010Prop46
 90
       50
102
RTVSPost2010PropOp46
 70
     1
102
RTVSPost2010Prop47
 90
       50
102
RTVSPost2010PropOp47
 70
     1
102
RTVSPost2010Prop48
 90
       50
102
RTVSPost2010PropOp48
 70
     1
102
RTVSPost2010Prop49
280
     0
102
RTVSPost2010PropOp49
 70
     1
102
RTVSPost2010Prop50
 90
       50
102
RTVSPost2010PropOp50
 70
     1
102
RTVSPost2010Prop51ColorIndex
 90
      256
102
RTVSPost2010Prop51ColorRGB
 90
-16777216
102
RTVSPost2010PropOp51
 70
     0
102
RTVSPost2010Prop52
140
1.0
102
RTVSPost2010PropOp52
 70
     0
102
RTVSPost2010Prop53
 90
        2
102
RTVSPost2010PropOp53
 70
     1
102
RTVSPost2010Prop54
  1
strokes_ogs.tif
102
RTVSPost2010PropOp54
 70
     1
102
RTVSPost2010Prop55
280
     0
102
RTVSPost2010PropOp55
 70
     1
102
RTVSPost2010Prop56
140
1.0
102
RTVSPost2010PropOp56
 70
     1
102
RTVSPost2010Prop57
140
1.0
102
RTVSPost2010PropOp57
 70
     1
102
RTVSPropertyOp0
 70
     1
102
RTVSPropertyOp1
 70
     1
102
RTVSPropertyOp2
 70
     1
102
RTVSPropertyOp3
 70
     1
102
RTVSPropertyOp4
 70
     1
102
RTVSPropertyOp5
 70
     1
102
RTVSPropertyOp6
 70
     1
102
RTVSPropertyOp7
 70
     1
102
RTVSPropertyOp8
 70
     1
102
RTVSPropertyOp9
 70
     1
102
RTVSPropertyOp10
 70
     1
102
RTVSPropertyOp11
 70
     1
102
RTVSPropertyOp12
 70
     1
102
RTVSPropertyOp13
 70
     1
102
RTVSPropertyOp14
 70
     1
102
RTVSPropertyOp15
 70
     1
102
RTVSPropertyOp16
 70
     1
102
RTVSPropertyOp17
 70
     1
102
RTVSPropertyOp18
 70
     1
102
RTVSPropertyOp19
 70
     1
102
RTVSPropertyOp20
 70
     1
102
RTVSPropertyOp21
 70
     1
102
RTVSPropertyOp22
 70
     1
102
RTVSPropertyOp23
 70
     1
102
RTVSPropertyOp24
 70
     1
102
RTVSPropertyOp25
 70
     1
102
RTVSPropertyOp26
 70
     1
102
RTVSPropertyOp27
 70
     1
102
RTVSPropertyOp28
 70
     1
102
RTVSPropertyOp29
 70
     1
102
RTVSPropertyOp30
 70
     1
102
RTVSPropertyOp31
 70
     1
102
RTVSPropertyOp32
 70
     1
102
RTVSPropertyOp33
 70
     1
102
RTVSPropertyOp34
 70
     1
102
RTVSPropertyOp35
 70
     1
102
RTVSPropertyOp36
 70
     1
102
RTVSPropertyOp37
 70
     1
102
RTVSPropertyOp38
 70
     1
102
RTVSPropertyOp39
 70
     1
102
RTVSPropertyOp40
 70
     1
102
RTVSPropertyOp41
 70
     1
102
RTVSPropertyOp42
 70
     1
102
RTVSPropertyOp43
 70
     1
102
RTVSPropertyOp44
 70
     1
102
RTVSPropertyOp45
 70
     1
102
RTVSPropertyOp46
 70
     1
102
RTVSPropertyOp47
 70
     1
102
RTVSPropertyOp48
 70
     1
102
RTVSPropertyOp49
 70
     1
102
RTVSPropertyOp50
 70
     1
102
RTVSPropertyOp51
 70
     0
102
RTVSPropertyOp52
 70
     0
102
RTVSPropertyOp53
 70
     1
102
RTVSPropertyOp54
 70
     1
102
RTVSPropertyOp55
 70
     1
102
RTVSPropertyOp56
 70
     1
102
RTVSPropertyOp57
 70
     1
102
RTVSPropertyOp58
 70
     1
102
RTVSPropertyOp59
 70
     1
102
RTVSPropertyOp60
 70
     1
102
RTVSPropertyOp61
 70
     1
102
RTVSPropertyOp62
 70
     1
  0
XRECORD
  5
1C8CDE6AC8BA
102
{ACAD_REACTORS
330
1C8CDE6AC8B9
102
}
330
1C8CDE6AC8B9
100
AcDbXrecord
280
     1
102
RTVSPost2010Prop28
280
     0
102
RTVSPost2010PropOp28
 70
     1
102
RTVSPost2010Prop29
280
     1
102
RTVSPost2010PropOp29
 70
     1
102
RTVSPost2010Prop30
280
     1
102
RTVSPost2010PropOp30
 70
     1
102
RTVSPost2010Prop31
280
     0
102
RTVSPost2010PropOp31
 70
     1
102
RTVSPost2010Prop32
280
     0
102
RTVSPost2010PropOp32
 70
     1
102
RTVSPost2010Prop33
280
     0
102
RTVSPost2010PropOp33
 70
     1
102
RTVSPost2010Prop34
280
     0
102
RTVSPost2010PropOp34
 70
     1
102
RTVSPost2010Prop35
280
     0
102
RTVSPost2010PropOp35
 70
     1
102
RTVSPost2010Prop36
280
     0
102
RTVSPost2010PropOp36
 70
     1
102
RTVSPost2010Prop37
 90
       50
102
RTVSPost2010PropOp37
 70
     1
102
RTVSPost2010Prop38
140
0.0
102
RTVSPost2010PropOp38
 70
     1
102
RTVSPost2010Prop39
140
1.0
102
RTVSPost2010PropOp39
 70
     1
102
RTVSPost2010Prop40
 90
        0
102
RTVSPost2010PropOp40
 70
     1
102
RTVSPost2010Prop41ColorIndex
 90
       18
102
RTVSPost2010Prop41ColorRGB
 90
        0
102
RTVSPost2010PropOp41
 70
     1
102
RTVSPost2010Prop42
 90
       50
102
RTVSPost2010PropOp42
 70
     1
102
RTVSPost2010Prop43
 90
        3
102
RTVSPost2010PropOp43
 70
     1
102
RTVSPost2010Prop44ColorIndex
 90
        5
102
RTVSPost2010Prop44ColorRGB
 90
      255
102
RTVSPost2010PropOp44
 70
     1
102
RTVSPost2010Prop45
280
     0
102
RTVSPost2010PropOp45
 70
     1
102
RTVSPost2010Prop46
 90
       50
102
RTVSPost2010PropOp46
 70
     1
102
RTVSPost2010Prop47
 90
       50
102
RTVSPost2010PropOp47
 70
     1
102
RTVSPost2010Prop48
 90
       50
102
RTVSPost2010PropOp48
 70
     1
102
RTVSPost2010Prop49
280
     0
102
RTVSPost2010PropOp49
 70
     1
102
RTVSPost2010Prop50
 90
       50
102
RTVSPost2010PropOp50
 70
     1
102
RTVSPost2010Prop51ColorIndex
 90
      256
102
RTVSPost2010Prop51ColorRGB
 90
-16777216
102
RTVSPost2010PropOp51
 70
     0
102
RTVSPost2010Prop52
140
1.0
102
RTVSPost2010PropOp52
 70
     0
102
RTVSPost2010Prop53
 90
        2
102
RTVSPost2010PropOp53
 70
     1
102
RTVSPost2010Prop54
  1
strokes_ogs.tif
102
RTVSPost2010PropOp54
 70
     1
102
RTVSPost2010Prop55
280
     0
102
RTVSPost2010PropOp55
 70
     1
102
RTVSPost2010Prop56
140
1.0
102
RTVSPost2010PropOp56
 70
     1
102
RTVSPost2010Prop57
140
1.0
102
RTVSPost2010PropOp57
 70
     1
102
RTVSPropertyOp0
 70
     1
102
RTVSPropertyOp1
 70
     1
102
RTVSPropertyOp2
 70
     1
102
RTVSPropertyOp3
 70
     1
102
RTVSPropertyOp4
 70
     1
102
RTVSPropertyOp5
 70
     1
102
RTVSPropertyOp6
 70
     1
102
RTVSPropertyOp7
 70
     1
102
RTVSPropertyOp8
 70
     1
102
RTVSPropertyOp9
 70
     1
102
RTVSPropertyOp10
 70
     1
102
RTVSPropertyOp11
 70
     1
102
RTVSPropertyOp12
 70
     1
102
RTVSPropertyOp13
 70
     1
102
RTVSPropertyOp14
 70
     1
102
RTVSPropertyOp15
 70
     1
102
RTVSPropertyOp16
 70
     1
102
RTVSPropertyOp17
 70
     1
102
RTVSPropertyOp18
 70
     1
102
RTVSPropertyOp19
 70
     1
102
RTVSPropertyOp20
 70
     1
102
RTVSPropertyOp21
 70
     1
102
RTVSPropertyOp22
 70
     1
102
RTVSPropertyOp23
 70
     1
102
RTVSPropertyOp24
 70
     1
102
RTVSPropertyOp25
 70
     1
102
RTVSPropertyOp26
 70
     1
102
RTVSPropertyOp27
 70
     1
102
RTVSPropertyOp28
 70
     1
102
RTVSPropertyOp29
 70
     1
102
RTVSPropertyOp30
 70
     1
102
RTVSPropertyOp31
 70
     1
102
RTVSPropertyOp32
 70
     1
102
RTVSPropertyOp33
 70
     1
102
RTVSPropertyOp34
 70
     1
102
RTVSPropertyOp35
 70
     1
102
RTVSPropertyOp36
 70
     1
102
RTVSPropertyOp37
 70
     1
102
RTVSPropertyOp38
 70
     1
102
RTVSPropertyOp39
 70
     1
102
RTVSPropertyOp40
 70
     1
102
RTVSPropertyOp41
 70
     1
102
RTVSPropertyOp42
 70
     1
102
RTVSPropertyOp43
 70
     1
102
RTVSPropertyOp44
 70
     1
102
RTVSPropertyOp45
 70
     1
102
RTVSPropertyOp46
 70
     1
102
RTVSPropertyOp47
 70
     1
102
RTVSPropertyOp48
 70
     1
102
RTVSPropertyOp49
 70
     1
102
RTVSPropertyOp50
 70
     1
102
RTVSPropertyOp51
 70
     0
102
RTVSPropertyOp52
 70
     0
102
RTVSPropertyOp53
 70
     1
102
RTVSPropertyOp54
 70
     1
102
RTVSPropertyOp55
 70
     1
102
RTVSPropertyOp56
 70
     1
102
RTVSPropertyOp57
 70
     1
102
RTVSPropertyOp58
 70
     1
102
RTVSPropertyOp59
 70
     1
102
RTVSPropertyOp60
 70
     1
102
RTVSPropertyOp61
 70
     1
102
RTVSPropertyOp62
 70
     1
  0
XRECORD
  5
1C8CDE6AC8C2
102
{ACAD_REACTORS
330
1C8CDE6AC8C1
102
}
330
1C8CDE6AC8C1
100
AcDbXrecord
280
     1
102
RTVSPost2010Prop28
280
     0
102
RTVSPost2010PropOp28
 70
     1
102
RTVSPost2010Prop29
280
     1
102
RTVSPost2010PropOp29
 70
     1
102
RTVSPost2010Prop30
280
     1
102
RTVSPost2010PropOp30
 70
     1
102
RTVSPost2010Prop31
280
     0
102
RTVSPost2010PropOp31
 70
     1
102
RTVSPost2010Prop32
280
     0
102
RTVSPost2010PropOp32
 70
     1
102
RTVSPost2010Prop33
280
     0
102
RTVSPost2010PropOp33
 70
     1
102
RTVSPost2010Prop34
280
     0
102
RTVSPost2010PropOp34
 70
     1
102
RTVSPost2010Prop35
280
     0
102
RTVSPost2010PropOp35
 70
     1
102
RTVSPost2010Prop36
280
     0
102
RTVSPost2010PropOp36
 70
     1
102
RTVSPost2010Prop37
 90
       50
102
RTVSPost2010PropOp37
 70
     1
102
RTVSPost2010Prop38
140
0.0
102
RTVSPost2010PropOp38
 70
     1
102
RTVSPost2010Prop39
140
1.0
102
RTVSPost2010PropOp39
 70
     1
102
RTVSPost2010Prop40
 90
        0
102
RTVSPost2010PropOp40
 70
     1
102
RTVSPost2010Prop41ColorIndex
 90
       18
102
RTVSPost2010Prop41ColorRGB
 90
        0
102
RTVSPost2010PropOp41
 70
     1
102
RTVSPost2010Prop42
 90
       50
102
RTVSPost2010PropOp42
 70
     1
102
RTVSPost2010Prop43
 90
        3
102
RTVSPost2010PropOp43
 70
     1
102
RTVSPost2010Prop44ColorIndex
 90
        5
102
RTVSPost2010Prop44ColorRGB
 90
      255
102
RTVSPost2010PropOp44
 70
     1
102
RTVSPost2010Prop45
280
     0
102
RTVSPost2010PropOp45
 70
     1
102
RTVSPost2010Prop46
 90
       50
102
RTVSPost2010PropOp46
 70
     1
102
RTVSPost2010Prop47
 90
       50
102
RTVSPost2010PropOp47
 70
     1
102
RTVSPost2010Prop48
 90
       50
102
RTVSPost2010PropOp48
 70
     1
102
RTVSPost2010Prop49
280
     0
102
RTVSPost2010PropOp49
 70
     1
102
RTVSPost2010Prop50
 90
       50
102
RTVSPost2010PropOp50
 70
     1
102
RTVSPost2010Prop51ColorIndex
 90
      256
102
RTVSPost2010Prop51ColorRGB
 90
-16777216
102
RTVSPost2010PropOp51
 70
     0
102
RTVSPost2010Prop52
140
1.0
102
RTVSPost2010PropOp52
 70
     0
102
RTVSPost2010Prop53
 90
        2
102
RTVSPost2010PropOp53
 70
     1
102
RTVSPost2010Prop54
  1
strokes_ogs.tif
102
RTVSPost2010PropOp54
 70
     1
102
RTVSPost2010Prop55
280
     0
102
RTVSPost2010PropOp55
 70
     1
102
RTVSPost2010Prop56
140
1.0
102
RTVSPost2010PropOp56
 70
     1
102
RTVSPost2010Prop57
140
1.0
102
RTVSPost2010PropOp57
 70
     1
102
RTVSPropertyOp0
 70
     1
102
RTVSPropertyOp1
 70
     1
102
RTVSPropertyOp2
 70
     1
102
RTVSPropertyOp3
 70
     1
102
RTVSPropertyOp4
 70
     1
102
RTVSPropertyOp5
 70
     1
102
RTVSPropertyOp6
 70
     1
102
RTVSPropertyOp7
 70
     1
102
RTVSPropertyOp8
 70
     1
102
RTVSPropertyOp9
 70
     1
102
RTVSPropertyOp10
 70
     1
102
RTVSPropertyOp11
 70
     1
102
RTVSPropertyOp12
 70
     1
102
RTVSPropertyOp13
 70
     1
102
RTVSPropertyOp14
 70
     1
102
RTVSPropertyOp15
 70
     1
102
RTVSPropertyOp16
 70
     1
102
RTVSPropertyOp17
 70
     1
102
RTVSPropertyOp18
 70
     1
102
RTVSPropertyOp19
 70
     1
102
RTVSPropertyOp20
 70
     1
102
RTVSPropertyOp21
 70
     1
102
RTVSPropertyOp22
 70
     1
102
RTVSPropertyOp23
 70
     1
102
RTVSPropertyOp24
 70
     1
102
RTVSPropertyOp25
 70
     1
102
RTVSPropertyOp26
 70
     1
102
RTVSPropertyOp27
 70
     1
102
RTVSPropertyOp28
 70
     1
102
RTVSPropertyOp29
 70
     1
102
RTVSPropertyOp30
 70
     1
102
RTVSPropertyOp31
 70
     1
102
RTVSPropertyOp32
 70
     1
102
RTVSPropertyOp33
 70
     1
102
RTVSPropertyOp34
 70
     1
102
RTVSPropertyOp35
 70
     1
102
RTVSPropertyOp36
 70
     1
102
RTVSPropertyOp37
 70
     1
102
RTVSPropertyOp38
 70
     1
102
RTVSPropertyOp39
 70
     1
102
RTVSPropertyOp40
 70
     1
102
RTVSPropertyOp41
 70
     1
102
RTVSPropertyOp42
 70
     1
102
RTVSPropertyOp43
 70
     1
102
RTVSPropertyOp44
 70
     1
102
RTVSPropertyOp45
 70
     1
102
RTVSPropertyOp46
 70
     1
102
RTVSPropertyOp47
 70
     1
102
RTVSPropertyOp48
 70
     1
102
RTVSPropertyOp49
 70
     1
102
RTVSPropertyOp50
 70
     1
102
RTVSPropertyOp51
 70
     0
102
RTVSPropertyOp52
 70
     0
102
RTVSPropertyOp53
 70
     1
102
RTVSPropertyOp54
 70
     1
102
RTVSPropertyOp55
 70
     1
102
RTVSPropertyOp56
 70
     1
102
RTVSPropertyOp57
 70
     1
102
RTVSPropertyOp58
 70
     1
102
RTVSPropertyOp59
 70
     1
102
RTVSPropertyOp60
 70
     1
102
RTVSPropertyOp61
 70
     1
102
RTVSPropertyOp62
 70
     1
  0
XRECORD
  5
1C8CDE6AC8CA
102
{ACAD_REACTORS
330
1C8CDE6AC8C9
102
}
330
1C8CDE6AC8C9
100
AcDbXrecord
280
     1
102
RTVSPost2010Prop28
280
     0
102
RTVSPost2010PropOp28
 70
     1
102
RTVSPost2010Prop29
280
     1
102
RTVSPost2010PropOp29
 70
     1
102
RTVSPost2010Prop30
280
     1
102
RTVSPost2010PropOp30
 70
     1
102
RTVSPost2010Prop31
280
     0
102
RTVSPost2010PropOp31
 70
     1
102
RTVSPost2010Prop32
280
     0
102
RTVSPost2010PropOp32
 70
     1
102
RTVSPost2010Prop33
280
     0
102
RTVSPost2010PropOp33
 70
     1
102
RTVSPost2010Prop34
280
     0
102
RTVSPost2010PropOp34
 70
     1
102
RTVSPost2010Prop35
280
     0
102
RTVSPost2010PropOp35
 70
     1
102
RTVSPost2010Prop36
280
     0
102
RTVSPost2010PropOp36
 70
     1
102
RTVSPost2010Prop37
 90
       50
102
RTVSPost2010PropOp37
 70
     1
102
RTVSPost2010Prop38
140
0.0
102
RTVSPost2010PropOp38
 70
     1
102
RTVSPost2010Prop39
140
1.0
102
RTVSPost2010PropOp39
 70
     1
102
RTVSPost2010Prop40
 90
        0
102
RTVSPost2010PropOp40
 70
     1
102
RTVSPost2010Prop41ColorIndex
 90
       18
102
RTVSPost2010Prop41ColorRGB
 90
        0
102
RTVSPost2010PropOp41
 70
     1
102
RTVSPost2010Prop42
 90
       50
102
RTVSPost2010PropOp42
 70
     1
102
RTVSPost2010Prop43
 90
        3
102
RTVSPost2010PropOp43
 70
     1
102
RTVSPost2010Prop44ColorIndex
 90
        5
102
RTVSPost2010Prop44ColorRGB
 90
      255
102
RTVSPost2010PropOp44
 70
     1
102
RTVSPost2010Prop45
280
     0
102
RTVSPost2010PropOp45
 70
     1
102
RTVSPost2010Prop46
 90
       50
102
RTVSPost2010PropOp46
 70
     1
102
RTVSPost2010Prop47
 90
       50
102
RTVSPost2010PropOp47
 70
     1
102
RTVSPost2010Prop48
 90
       50
102
RTVSPost2010PropOp48
 70
     1
102
RTVSPost2010Prop49
280
     0
102
RTVSPost2010PropOp49
 70
     1
102
RTVSPost2010Prop50
 90
       50
102
RTVSPost2010PropOp50
 70
     1
102
RTVSPost2010Prop51ColorIndex
 90
      256
102
RTVSPost2010Prop51ColorRGB
 90
-16777216
102
RTVSPost2010PropOp51
 70
     0
102
RTVSPost2010Prop52
140
1.0
102
RTVSPost2010PropOp52
 70
     0
102
RTVSPost2010Prop53
 90
        2
102
RTVSPost2010PropOp53
 70
     1
102
RTVSPost2010Prop54
  1
strokes_ogs.tif
102
RTVSPost2010PropOp54
 70
     1
102
RTVSPost2010Prop55
280
     0
102
RTVSPost2010PropOp55
 70
     1
102
RTVSPost2010Prop56
140
1.0
102
RTVSPost2010PropOp56
 70
     1
102
RTVSPost2010Prop57
140
1.0
102
RTVSPost2010PropOp57
 70
     1
102
RTVSPropertyOp0
 70
     1
102
RTVSPropertyOp1
 70
     1
102
RTVSPropertyOp2
 70
     1
102
RTVSPropertyOp3
 70
     1
102
RTVSPropertyOp4
 70
     1
102
RTVSPropertyOp5
 70
     1
102
RTVSPropertyOp6
 70
     1
102
RTVSPropertyOp7
 70
     1
102
RTVSPropertyOp8
 70
     1
102
RTVSPropertyOp9
 70
     1
102
RTVSPropertyOp10
 70
     1
102
RTVSPropertyOp11
 70
     1
102
RTVSPropertyOp12
 70
     1
102
RTVSPropertyOp13
 70
     1
102
RTVSPropertyOp14
 70
     1
102
RTVSPropertyOp15
 70
     1
102
RTVSPropertyOp16
 70
     1
102
RTVSPropertyOp17
 70
     1
102
RTVSPropertyOp18
 70
     1
102
RTVSPropertyOp19
 70
     1
102
RTVSPropertyOp20
 70
     1
102
RTVSPropertyOp21
 70
     1
102
RTVSPropertyOp22
 70
     1
102
RTVSPropertyOp23
 70
     1
102
RTVSPropertyOp24
 70
     1
102
RTVSPropertyOp25
 70
     1
102
RTVSPropertyOp26
 70
     1
102
RTVSPropertyOp27
 70
     1
102
RTVSPropertyOp28
 70
     1
102
RTVSPropertyOp29
 70
     1
102
RTVSPropertyOp30
 70
     1
102
RTVSPropertyOp31
 70
     1
102
RTVSPropertyOp32
 70
     1
102
RTVSPropertyOp33
 70
     1
102
RTVSPropertyOp34
 70
     1
102
RTVSPropertyOp35
 70
     1
102
RTVSPropertyOp36
 70
     1
102
RTVSPropertyOp37
 70
     1
102
RTVSPropertyOp38
 70
     1
102
RTVSPropertyOp39
 70
     1
102
RTVSPropertyOp40
 70
     1
102
RTVSPropertyOp41
 70
     1
102
RTVSPropertyOp42
 70
     1
102
RTVSPropertyOp43
 70
     1
102
RTVSPropertyOp44
 70
     1
102
RTVSPropertyOp45
 70
     1
102
RTVSPropertyOp46
 70
     1
102
RTVSPropertyOp47
 70
     1
102
RTVSPropertyOp48
 70
     1
102
RTVSPropertyOp49
 70
     1
102
RTVSPropertyOp50
 70
     1
102
RTVSPropertyOp51
 70
     0
102
RTVSPropertyOp52
 70
     0
102
RTVSPropertyOp53
 70
     1
102
RTVSPropertyOp54
 70
     1
102
RTVSPropertyOp55
 70
     1
102
RTVSPropertyOp56
 70
     1
102
RTVSPropertyOp57
 70
     1
102
RTVSPropertyOp58
 70
     1
102
RTVSPropertyOp59
 70
     1
102
RTVSPropertyOp60
 70
     1
102
RTVSPropertyOp61
 70
     1
102
RTVSPropertyOp62
 70
     1
  0
XRECORD
  5
1C8CDE6AC8BE
102
{ACAD_REACTORS
330
1C8CDE6AC8BD
102
}
330
1C8CDE6AC8BD
100
AcDbXrecord
280
     1
102
RTVSPost2010Prop28
280
     0
102
RTVSPost2010PropOp28
 70
     1
102
RTVSPost2010Prop29
280
     1
102
RTVSPost2010PropOp29
 70
     1
102
RTVSPost2010Prop30
280
     1
102
RTVSPost2010PropOp30
 70
     1
102
RTVSPost2010Prop31
280
     0
102
RTVSPost2010PropOp31
 70
     1
102
RTVSPost2010Prop32
280
     0
102
RTVSPost2010PropOp32
 70
     1
102
RTVSPost2010Prop33
280
     0
102
RTVSPost2010PropOp33
 70
     1
102
RTVSPost2010Prop34
280
     0
102
RTVSPost2010PropOp34
 70
     1
102
RTVSPost2010Prop35
280
     0
102
RTVSPost2010PropOp35
 70
     1
102
RTVSPost2010Prop36
280
     0
102
RTVSPost2010PropOp36
 70
     1
102
RTVSPost2010Prop37
 90
       50
102
RTVSPost2010PropOp37
 70
     1
102
RTVSPost2010Prop38
140
0.0
102
RTVSPost2010PropOp38
 70
     1
102
RTVSPost2010Prop39
140
1.0
102
RTVSPost2010PropOp39
 70
     1
102
RTVSPost2010Prop40
 90
        0
102
RTVSPost2010PropOp40
 70
     1
102
RTVSPost2010Prop41ColorIndex
 90
       18
102
RTVSPost2010Prop41ColorRGB
 90
        0
102
RTVSPost2010PropOp41
 70
     1
102
RTVSPost2010Prop42
 90
       50
102
RTVSPost2010PropOp42
 70
     1
102
RTVSPost2010Prop43
 90
        3
102
RTVSPost2010PropOp43
 70
     1
102
RTVSPost2010Prop44ColorIndex
 90
        5
102
RTVSPost2010Prop44ColorRGB
 90
      255
102
RTVSPost2010PropOp44
 70
     1
102
RTVSPost2010Prop45
280
     0
102
RTVSPost2010PropOp45
 70
     1
102
RTVSPost2010Prop46
 90
       50
102
RTVSPost2010PropOp46
 70
     1
102
RTVSPost2010Prop47
 90
       50
102
RTVSPost2010PropOp47
 70
     1
102
RTVSPost2010Prop48
 90
       50
102
RTVSPost2010PropOp48
 70
     1
102
RTVSPost2010Prop49
280
     0
102
RTVSPost2010PropOp49
 70
     1
102
RTVSPost2010Prop50
 90
       50
102
RTVSPost2010PropOp50
 70
     1
102
RTVSPost2010Prop51ColorIndex
 90
      256
102
RTVSPost2010Prop51ColorRGB
 90
-16777216
102
RTVSPost2010PropOp51
 70
     0
102
RTVSPost2010Prop52
140
1.0
102
RTVSPost2010PropOp52
 70
     0
102
RTVSPost2010Prop53
 90
        2
102
RTVSPost2010PropOp53
 70
     1
102
RTVSPost2010Prop54
  1
strokes_ogs.tif
102
RTVSPost2010PropOp54
 70
     1
102
RTVSPost2010Prop55
280
     0
102
RTVSPost2010PropOp55
 70
     1
102
RTVSPost2010Prop56
140
1.0
102
RTVSPost2010PropOp56
 70
     1
102
RTVSPost2010Prop57
140
1.0
102
RTVSPost2010PropOp57
 70
     1
102
RTVSPropertyOp0
 70
     1
102
RTVSPropertyOp1
 70
     1
102
RTVSPropertyOp2
 70
     1
102
RTVSPropertyOp3
 70
     1
102
RTVSPropertyOp4
 70
     1
102
RTVSPropertyOp5
 70
     1
102
RTVSPropertyOp6
 70
     1
102
RTVSPropertyOp7
 70
     1
102
RTVSPropertyOp8
 70
     1
102
RTVSPropertyOp9
 70
     1
102
RTVSPropertyOp10
 70
     1
102
RTVSPropertyOp11
 70
     1
102
RTVSPropertyOp12
 70
     1
102
RTVSPropertyOp13
 70
     1
102
RTVSPropertyOp14
 70
     1
102
RTVSPropertyOp15
 70
     1
102
RTVSPropertyOp16
 70
     1
102
RTVSPropertyOp17
 70
     1
102
RTVSPropertyOp18
 70
     1
102
RTVSPropertyOp19
 70
     1
102
RTVSPropertyOp20
 70
     1
102
RTVSPropertyOp21
 70
     1
102
RTVSPropertyOp22
 70
     1
102
RTVSPropertyOp23
 70
     1
102
RTVSPropertyOp24
 70
     1
102
RTVSPropertyOp25
 70
     1
102
RTVSPropertyOp26
 70
     1
102
RTVSPropertyOp27
 70
     1
102
RTVSPropertyOp28
 70
     1
102
RTVSPropertyOp29
 70
     1
102
RTVSPropertyOp30
 70
     1
102
RTVSPropertyOp31
 70
     1
102
RTVSPropertyOp32
 70
     1
102
RTVSPropertyOp33
 70
     1
102
RTVSPropertyOp34
 70
     1
102
RTVSPropertyOp35
 70
     1
102
RTVSPropertyOp36
 70
     1
102
RTVSPropertyOp37
 70
     1
102
RTVSPropertyOp38
 70
     1
102
RTVSPropertyOp39
 70
     1
102
RTVSPropertyOp40
 70
     1
102
RTVSPropertyOp41
 70
     1
102
RTVSPropertyOp42
 70
     1
102
RTVSPropertyOp43
 70
     1
102
RTVSPropertyOp44
 70
     1
102
RTVSPropertyOp45
 70
     1
102
RTVSPropertyOp46
 70
     1
102
RTVSPropertyOp47
 70
     1
102
RTVSPropertyOp48
 70
     1
102
RTVSPropertyOp49
 70
     1
102
RTVSPropertyOp50
 70
     1
102
RTVSPropertyOp51
 70
     0
102
RTVSPropertyOp52
 70
     0
102
RTVSPropertyOp53
 70
     1
102
RTVSPropertyOp54
 70
     1
102
RTVSPropertyOp55
 70
     1
102
RTVSPropertyOp56
 70
     1
102
RTVSPropertyOp57
 70
     1
102
RTVSPropertyOp58
 70
     1
102
RTVSPropertyOp59
 70
     1
102
RTVSPropertyOp60
 70
     1
102
RTVSPropertyOp61
 70
     1
102
RTVSPropertyOp62
 70
     1
  0
XRECORD
  5
1C8CDE6AC8C0
102
{ACAD_REACTORS
330
1C8CDE6AC8BF
102
}
330
1C8CDE6AC8BF
100
AcDbXrecord
280
     1
102
RTVSPost2010Prop28
280
     0
102
RTVSPost2010PropOp28
 70
     1
102
RTVSPost2010Prop29
280
     1
102
RTVSPost2010PropOp29
 70
     1
102
RTVSPost2010Prop30
280
     1
102
RTVSPost2010PropOp30
 70
     1
102
RTVSPost2010Prop31
280
     0
102
RTVSPost2010PropOp31
 70
     1
102
RTVSPost2010Prop32
280
     0
102
RTVSPost2010PropOp32
 70
     1
102
RTVSPost2010Prop33
280
     0
102
RTVSPost2010PropOp33
 70
     1
102
RTVSPost2010Prop34
280
     0
102
RTVSPost2010PropOp34
 70
     1
102
RTVSPost2010Prop35
280
     0
102
RTVSPost2010PropOp35
 70
     1
102
RTVSPost2010Prop36
280
     0
102
RTVSPost2010PropOp36
 70
     1
102
RTVSPost2010Prop37
 90
       50
102
RTVSPost2010PropOp37
 70
     1
102
RTVSPost2010Prop38
140
0.0
102
RTVSPost2010PropOp38
 70
     1
102
RTVSPost2010Prop39
140
1.0
102
RTVSPost2010PropOp39
 70
     1
102
RTVSPost2010Prop40
 90
        0
102
RTVSPost2010PropOp40
 70
     1
102
RTVSPost2010Prop41ColorIndex
 90
       18
102
RTVSPost2010Prop41ColorRGB
 90
        0
102
RTVSPost2010PropOp41
 70
     1
102
RTVSPost2010Prop42
 90
       50
102
RTVSPost2010PropOp42
 70
     1
102
RTVSPost2010Prop43
 90
        3
102
RTVSPost2010PropOp43
 70
     1
102
RTVSPost2010Prop44ColorIndex
 90
        5
102
RTVSPost2010Prop44ColorRGB
 90
      255
102
RTVSPost2010PropOp44
 70
     1
102
RTVSPost2010Prop45
280
     0
102
RTVSPost2010PropOp45
 70
     1
102
RTVSPost2010Prop46
 90
       50
102
RTVSPost2010PropOp46
 70
     1
102
RTVSPost2010Prop47
 90
       50
102
RTVSPost2010PropOp47
 70
     1
102
RTVSPost2010Prop48
 90
       50
102
RTVSPost2010PropOp48
 70
     1
102
RTVSPost2010Prop49
280
     0
102
RTVSPost2010PropOp49
 70
     1
102
RTVSPost2010Prop50
 90
       50
102
RTVSPost2010PropOp50
 70
     1
102
RTVSPost2010Prop51ColorIndex
 90
      256
102
RTVSPost2010Prop51ColorRGB
 90
-16777216
102
RTVSPost2010PropOp51
 70
     0
102
RTVSPost2010Prop52
140
1.0
102
RTVSPost2010PropOp52
 70
     0
102
RTVSPost2010Prop53
 90
        2
102
RTVSPost2010PropOp53
 70
     1
102
RTVSPost2010Prop54
  1
strokes_ogs.tif
102
RTVSPost2010PropOp54
 70
     1
102
RTVSPost2010Prop55
280
     0
102
RTVSPost2010PropOp55
 70
     1
102
RTVSPost2010Prop56
140
1.0
102
RTVSPost2010PropOp56
 70
     1
102
RTVSPost2010Prop57
140
1.0
102
RTVSPost2010PropOp57
 70
     1
102
RTVSPropertyOp0
 70
     1
102
RTVSPropertyOp1
 70
     1
102
RTVSPropertyOp2
 70
     1
102
RTVSPropertyOp3
 70
     1
102
RTVSPropertyOp4
 70
     1
102
RTVSPropertyOp5
 70
     1
102
RTVSPropertyOp6
 70
     1
102
RTVSPropertyOp7
 70
     1
102
RTVSPropertyOp8
 70
     1
102
RTVSPropertyOp9
 70
     1
102
RTVSPropertyOp10
 70
     1
102
RTVSPropertyOp11
 70
     1
102
RTVSPropertyOp12
 70
     1
102
RTVSPropertyOp13
 70
     1
102
RTVSPropertyOp14
 70
     1
102
RTVSPropertyOp15
 70
     1
102
RTVSPropertyOp16
 70
     1
102
RTVSPropertyOp17
 70
     1
102
RTVSPropertyOp18
 70
     1
102
RTVSPropertyOp19
 70
     1
102
RTVSPropertyOp20
 70
     1
102
RTVSPropertyOp21
 70
     1
102
RTVSPropertyOp22
 70
     1
102
RTVSPropertyOp23
 70
     1
102
RTVSPropertyOp24
 70
     1
102
RTVSPropertyOp25
 70
     1
102
RTVSPropertyOp26
 70
     1
102
RTVSPropertyOp27
 70
     1
102
RTVSPropertyOp28
 70
     1
102
RTVSPropertyOp29
 70
     1
102
RTVSPropertyOp30
 70
     1
102
RTVSPropertyOp31
 70
     1
102
RTVSPropertyOp32
 70
     1
102
RTVSPropertyOp33
 70
     1
102
RTVSPropertyOp34
 70
     1
102
RTVSPropertyOp35
 70
     1
102
RTVSPropertyOp36
 70
     1
102
RTVSPropertyOp37
 70
     1
102
RTVSPropertyOp38
 70
     1
102
RTVSPropertyOp39
 70
     1
102
RTVSPropertyOp40
 70
     1
102
RTVSPropertyOp41
 70
     1
102
RTVSPropertyOp42
 70
     1
102
RTVSPropertyOp43
 70
     1
102
RTVSPropertyOp44
 70
     1
102
RTVSPropertyOp45
 70
     1
102
RTVSPropertyOp46
 70
     1
102
RTVSPropertyOp47
 70
     1
102
RTVSPropertyOp48
 70
     1
102
RTVSPropertyOp49
 70
     1
102
RTVSPropertyOp50
 70
     1
102
RTVSPropertyOp51
 70
     0
102
RTVSPropertyOp52
 70
     0
102
RTVSPropertyOp53
 70
     1
102
RTVSPropertyOp54
 70
     1
102
RTVSPropertyOp55
 70
     1
102
RTVSPropertyOp56
 70
     1
102
RTVSPropertyOp57
 70
     1
102
RTVSPropertyOp58
 70
     1
102
RTVSPropertyOp59
 70
     1
102
RTVSPropertyOp60
 70
     1
102
RTVSPropertyOp61
 70
     1
102
RTVSPropertyOp62
 70
     1
  0
XRECORD
  5
1C8CDE6AC8D0
102
{ACAD_REACTORS
330
1C8CDE6AC8CF
102
}
330
1C8CDE6AC8CF
100
AcDbXrecord
280
     1
102
RTVSPost2010Prop28
280
     0
102
RTVSPost2010PropOp28
 70
     0
102
RTVSPost2010Prop29
280
     1
102
RTVSPost2010PropOp29
 70
     0
102
RTVSPost2010Prop30
280
     1
102
RTVSPost2010PropOp30
 70
     0
102
RTVSPost2010Prop31
280
     0
102
RTVSPost2010PropOp31
 70
     0
102
RTVSPost2010Prop32
280
     0
102
RTVSPost2010PropOp32
 70
     0
102
RTVSPost2010Prop33
280
     0
102
RTVSPost2010PropOp33
 70
     0
102
RTVSPost2010Prop34
280
     0
102
RTVSPost2010PropOp34
 70
     0
102
RTVSPost2010Prop35
280
     0
102
RTVSPost2010PropOp35
 70
     0
102
RTVSPost2010Prop36
280
     0
102
RTVSPost2010PropOp36
 70
     0
102
RTVSPost2010Prop37
 90
       50
102
RTVSPost2010PropOp37
 70
     0
102
RTVSPost2010Prop38
140
0.0
102
RTVSPost2010PropOp38
 70
     0
102
RTVSPost2010Prop39
140
1.0
102
RTVSPost2010PropOp39
 70
     0
102
RTVSPost2010Prop40
 90
        0
102
RTVSPost2010PropOp40
 70
     0
102
RTVSPost2010Prop41ColorIndex
 90
       18
102
RTVSPost2010Prop41ColorRGB
 90
        0
102
RTVSPost2010PropOp41
 70
     0
102
RTVSPost2010Prop42
 90
       50
102
RTVSPost2010PropOp42
 70
     0
102
RTVSPost2010Prop43
 90
        3
102
RTVSPost2010PropOp43
 70
     0
102
RTVSPost2010Prop44ColorIndex
 90
        5
102
RTVSPost2010Prop44ColorRGB
 90
      255
102
RTVSPost2010PropOp44
 70
     0
102
RTVSPost2010Prop45
280
     0
102
RTVSPost2010PropOp45
 70
     0
102
RTVSPost2010Prop46
 90
       50
102
RTVSPost2010PropOp46
 70
     0
102
RTVSPost2010Prop47
 90
       50
102
RTVSPost2010PropOp47
 70
     0
102
RTVSPost2010Prop48
 90
       50
102
RTVSPost2010PropOp48
 70
     0
102
RTVSPost2010Prop49
280
     0
102
RTVSPost2010PropOp49
 70
     0
102
RTVSPost2010Prop50
 90
       50
102
RTVSPost2010PropOp50
 70
     0
102
RTVSPost2010Prop51ColorIndex
 90
      256
102
RTVSPost2010Prop51ColorRGB
 90
-16777216
102
RTVSPost2010PropOp51
 70
     0
102
RTVSPost2010Prop52
140
1.0
102
RTVSPost2010PropOp52
 70
     0
102
RTVSPost2010Prop53
 90
        2
102
RTVSPost2010PropOp53
 70
     0
102
RTVSPost2010Prop54
  1
strokes_ogs.tif
102
RTVSPost2010PropOp54
 70
     0
102
RTVSPost2010Prop55
280
     0
102
RTVSPost2010PropOp55
 70
     0
102
RTVSPost2010Prop56
140
1.0
102
RTVSPost2010PropOp56
 70
     0
102
RTVSPost2010Prop57
140
1.0
102
RTVSPost2010PropOp57
 70
     0
102
RTVSPropertyOp0
 70
     0
102
RTVSPropertyOp1
 70
     0
102
RTVSPropertyOp2
 70
     0
102
RTVSPropertyOp3
 70
     0
102
RTVSPropertyOp4
 70
     0
102
RTVSPropertyOp5
 70
     0
102
RTVSPropertyOp6
 70
     0
102
RTVSPropertyOp7
 70
     0
102
RTVSPropertyOp8
 70
     0
102
RTVSPropertyOp9
 70
     0
102
RTVSPropertyOp10
 70
     0
102
RTVSPropertyOp11
 70
     0
102
RTVSPropertyOp12
 70
     0
102
RTVSPropertyOp13
 70
     0
102
RTVSPropertyOp14
 70
     2
102
RTVSPropertyOp15
 70
     0
102
RTVSPropertyOp16
 70
     0
102
RTVSPropertyOp17
 70
     0
102
RTVSPropertyOp18
 70
     0
102
RTVSPropertyOp19
 70
     0
102
RTVSPropertyOp20
 70
     0
102
RTVSPropertyOp21
 70
     0
102
RTVSPropertyOp22
 70
     0
102
RTVSPropertyOp23
 70
     0
102
RTVSPropertyOp24
 70
     0
102
RTVSPropertyOp25
 70
     0
102
RTVSPropertyOp26
 70
     0
102
RTVSPropertyOp27
 70
     0
102
RTVSPropertyOp28
 70
     0
102
RTVSPropertyOp29
 70
     0
102
RTVSPropertyOp30
 70
     0
102
RTVSPropertyOp31
 70
     0
102
RTVSPropertyOp32
 70
     0
102
RTVSPropertyOp33
 70
     0
102
RTVSPropertyOp34
 70
     0
102
RTVSPropertyOp35
 70
     0
102
RTVSPropertyOp36
 70
     0
102
RTVSPropertyOp37
 70
     0
102
RTVSPropertyOp38
 70
     0
102
RTVSPropertyOp39
 70
     0
102
RTVSPropertyOp40
 70
     0
102
RTVSPropertyOp41
 70
     0
102
RTVSPropertyOp42
 70
     0
102
RTVSPropertyOp43
 70
     0
102
RTVSPropertyOp44
 70
     0
102
RTVSPropertyOp45
 70
     0
102
RTVSPropertyOp46
 70
     0
102
RTVSPropertyOp47
 70
     0
102
RTVSPropertyOp48
 70
     0
102
RTVSPropertyOp49
 70
     0
102
RTVSPropertyOp50
 70
     0
102
RTVSPropertyOp51
 70
     0
102
RTVSPropertyOp52
 70
     0
102
RTVSPropertyOp53
 70
     0
102
RTVSPropertyOp54
 70
     0
102
RTVSPropertyOp55
 70
     0
102
RTVSPropertyOp56
 70
     0
102
RTVSPropertyOp57
 70
     0
102
RTVSPropertyOp58
 70
     1
102
RTVSPropertyOp59
 70
     1
102
RTVSPropertyOp60
 70
     1
102
RTVSPropertyOp61
 70
     1
102
RTVSPropertyOp62
 70
     1
  0
XRECORD
  5
1C8CDE6AC8C8
102
{ACAD_REACTORS
330
1C8CDE6AC8C7
102
}
330
1C8CDE6AC8C7
100
AcDbXrecord
280
     1
102
RTVSPost2010Prop28
280
     0
102
RTVSPost2010PropOp28
 70
     1
102
RTVSPost2010Prop29
280
     1
102
RTVSPost2010PropOp29
 70
     1
102
RTVSPost2010Prop30
280
     1
102
RTVSPost2010PropOp30
 70
     1
102
RTVSPost2010Prop31
280
     0
102
RTVSPost2010PropOp31
 70
     1
102
RTVSPost2010Prop32
280
     0
102
RTVSPost2010PropOp32
 70
     1
102
RTVSPost2010Prop33
280
     0
102
RTVSPost2010PropOp33
 70
     1
102
RTVSPost2010Prop34
280
     0
102
RTVSPost2010PropOp34
 70
     1
102
RTVSPost2010Prop35
280
     0
102
RTVSPost2010PropOp35
 70
     1
102
RTVSPost2010Prop36
280
     0
102
RTVSPost2010PropOp36
 70
     1
102
RTVSPost2010Prop37
 90
       50
102
RTVSPost2010PropOp37
 70
     1
102
RTVSPost2010Prop38
140
0.0
102
RTVSPost2010PropOp38
 70
     1
102
RTVSPost2010Prop39
140
1.0
102
RTVSPost2010PropOp39
 70
     1
102
RTVSPost2010Prop40
 90
        0
102
RTVSPost2010PropOp40
 70
     1
102
RTVSPost2010Prop41ColorIndex
 90
       18
102
RTVSPost2010Prop41ColorRGB
 90
        0
102
RTVSPost2010PropOp41
 70
     1
102
RTVSPost2010Prop42
 90
       50
102
RTVSPost2010PropOp42
 70
     1
102
RTVSPost2010Prop43
 90
        3
102
RTVSPost2010PropOp43
 70
     1
102
RTVSPost2010Prop44ColorIndex
 90
        5
102
RTVSPost2010Prop44ColorRGB
 90
      255
102
RTVSPost2010PropOp44
 70
     1
102
RTVSPost2010Prop45
280
     0
102
RTVSPost2010PropOp45
 70
     1
102
RTVSPost2010Prop46
 90
       50
102
RTVSPost2010PropOp46
 70
     1
102
RTVSPost2010Prop47
 90
       50
102
RTVSPost2010PropOp47
 70
     1
102
RTVSPost2010Prop48
 90
       50
102
RTVSPost2010PropOp48
 70
     1
102
RTVSPost2010Prop49
280
     0
102
RTVSPost2010PropOp49
 70
     1
102
RTVSPost2010Prop50
 90
       50
102
RTVSPost2010PropOp50
 70
     1
102
RTVSPost2010Prop51ColorIndex
 90
      256
102
RTVSPost2010Prop51ColorRGB
 90
-16777216
102
RTVSPost2010PropOp51
 70
     0
102
RTVSPost2010Prop52
140
1.0
102
RTVSPost2010PropOp52
 70
     0
102
RTVSPost2010Prop53
 90
        2
102
RTVSPost2010PropOp53
 70
     1
102
RTVSPost2010Prop54
  1
strokes_ogs.tif
102
RTVSPost2010PropOp54
 70
     1
102
RTVSPost2010Prop55
280
     0
102
RTVSPost2010PropOp55
 70
     1
102
RTVSPost2010Prop56
140
1.0
102
RTVSPost2010PropOp56
 70
     1
102
RTVSPost2010Prop57
140
1.0
102
RTVSPost2010PropOp57
 70
     1
102
RTVSPropertyOp0
 70
     1
102
RTVSPropertyOp1
 70
     1
102
RTVSPropertyOp2
 70
     1
102
RTVSPropertyOp3
 70
     1
102
RTVSPropertyOp4
 70
     1
102
RTVSPropertyOp5
 70
     1
102
RTVSPropertyOp6
 70
     1
102
RTVSPropertyOp7
 70
     1
102
RTVSPropertyOp8
 70
     1
102
RTVSPropertyOp9
 70
     1
102
RTVSPropertyOp10
 70
     1
102
RTVSPropertyOp11
 70
     1
102
RTVSPropertyOp12
 70
     1
102
RTVSPropertyOp13
 70
     1
102
RTVSPropertyOp14
 70
     1
102
RTVSPropertyOp15
 70
     1
102
RTVSPropertyOp16
 70
     1
102
RTVSPropertyOp17
 70
     1
102
RTVSPropertyOp18
 70
     1
102
RTVSPropertyOp19
 70
     1
102
RTVSPropertyOp20
 70
     1
102
RTVSPropertyOp21
 70
     1
102
RTVSPropertyOp22
 70
     1
102
RTVSPropertyOp23
 70
     1
102
RTVSPropertyOp24
 70
     1
102
RTVSPropertyOp25
 70
     1
102
RTVSPropertyOp26
 70
     1
102
RTVSPropertyOp27
 70
     1
102
RTVSPropertyOp28
 70
     1
102
RTVSPropertyOp29
 70
     1
102
RTVSPropertyOp30
 70
     1
102
RTVSPropertyOp31
 70
     1
102
RTVSPropertyOp32
 70
     1
102
RTVSPropertyOp33
 70
     1
102
RTVSPropertyOp34
 70
     1
102
RTVSPropertyOp35
 70
     1
102
RTVSPropertyOp36
 70
     1
102
RTVSPropertyOp37
 70
     1
102
RTVSPropertyOp38
 70
     1
102
RTVSPropertyOp39
 70
     1
102
RTVSPropertyOp40
 70
     1
102
RTVSPropertyOp41
 70
     1
102
RTVSPropertyOp42
 70
     1
102
RTVSPropertyOp43
 70
     1
102
RTVSPropertyOp44
 70
     1
102
RTVSPropertyOp45
 70
     1
102
RTVSPropertyOp46
 70
     1
102
RTVSPropertyOp47
 70
     1
102
RTVSPropertyOp48
 70
     1
102
RTVSPropertyOp49
 70
     1
102
RTVSPropertyOp50
 70
     1
102
RTVSPropertyOp51
 70
     0
102
RTVSPropertyOp52
 70
     0
102
RTVSPropertyOp53
 70
     1
102
RTVSPropertyOp54
 70
     1
102
RTVSPropertyOp55
 70
     1
102
RTVSPropertyOp56
 70
     1
102
RTVSPropertyOp57
 70
     1
102
RTVSPropertyOp58
 70
     1
102
RTVSPropertyOp59
 70
     1
102
RTVSPropertyOp60
 70
     1
102
RTVSPropertyOp61
 70
     1
102
RTVSPropertyOp62
 70
     1
  0
XRECORD
  5
1C8CDE6AC8AC
102
{ACAD_REACTORS
330
1C8CDE6AC8AB
102
}
330
1C8CDE6AC8AB
100
AcDbXrecord
280
     1
102
RTVSPost2010Prop28
280
     0
102
RTVSPost2010PropOp28
 70
     1
102
RTVSPost2010Prop29
280
     1
102
RTVSPost2010PropOp29
 70
     1
102
RTVSPost2010Prop30
280
     1
102
RTVSPost2010PropOp30
 70
     1
102
RTVSPost2010Prop31
280
     0
102
RTVSPost2010PropOp31
 70
     1
102
RTVSPost2010Prop32
280
     0
102
RTVSPost2010PropOp32
 70
     1
102
RTVSPost2010Prop33
280
     0
102
RTVSPost2010PropOp33
 70
     1
102
RTVSPost2010Prop34
280
     0
102
RTVSPost2010PropOp34
 70
     1
102
RTVSPost2010Prop35
280
     0
102
RTVSPost2010PropOp35
 70
     1
102
RTVSPost2010Prop36
280
     0
102
RTVSPost2010PropOp36
 70
     1
102
RTVSPost2010Prop37
 90
       50
102
RTVSPost2010PropOp37
 70
     1
102
RTVSPost2010Prop38
140
0.0
102
RTVSPost2010PropOp38
 70
     1
102
RTVSPost2010Prop39
140
1.0
102
RTVSPost2010PropOp39
 70
     1
102
RTVSPost2010Prop40
 90
        0
102
RTVSPost2010PropOp40
 70
     1
102
RTVSPost2010Prop41ColorIndex
 90
       18
102
RTVSPost2010Prop41ColorRGB
 90
        0
102
RTVSPost2010PropOp41
 70
     1
102
RTVSPost2010Prop42
 90
       50
102
RTVSPost2010PropOp42
 70
     1
102
RTVSPost2010Prop43
 90
        3
102
RTVSPost2010PropOp43
 70
     1
102
RTVSPost2010Prop44ColorIndex
 90
        5
102
RTVSPost2010Prop44ColorRGB
 90
      255
102
RTVSPost2010PropOp44
 70
     1
102
RTVSPost2010Prop45
280
     0
102
RTVSPost2010PropOp45
 70
     1
102
RTVSPost2010Prop46
 90
       50
102
RTVSPost2010PropOp46
 70
     1
102
RTVSPost2010Prop47
 90
       50
102
RTVSPost2010PropOp47
 70
     1
102
RTVSPost2010Prop48
 90
       50
102
RTVSPost2010PropOp48
 70
     1
102
RTVSPost2010Prop49
280
     0
102
RTVSPost2010PropOp49
 70
     1
102
RTVSPost2010Prop50
 90
       50
102
RTVSPost2010PropOp50
 70
     1
102
RTVSPost2010Prop51ColorIndex
 90
      256
102
RTVSPost2010Prop51ColorRGB
 90
-16777216
102
RTVSPost2010PropOp51
 70
     0
102
RTVSPost2010Prop52
140
1.0
102
RTVSPost2010PropOp52
 70
     0
102
RTVSPost2010Prop53
 90
        2
102
RTVSPost2010PropOp53
 70
     1
102
RTVSPost2010Prop54
  1
strokes_ogs.tif
102
RTVSPost2010PropOp54
 70
     1
102
RTVSPost2010Prop55
280
     0
102
RTVSPost2010PropOp55
 70
     1
102
RTVSPost2010Prop56
140
1.0
102
RTVSPost2010PropOp56
 70
     1
102
RTVSPost2010Prop57
140
1.0
102
RTVSPost2010PropOp57
 70
     1
102
RTVSPropertyOp0
 70
     1
102
RTVSPropertyOp1
 70
     1
102
RTVSPropertyOp2
 70
     1
102
RTVSPropertyOp3
 70
     1
102
RTVSPropertyOp4
 70
     1
102
RTVSPropertyOp5
 70
     1
102
RTVSPropertyOp6
 70
     1
102
RTVSPropertyOp7
 70
     1
102
RTVSPropertyOp8
 70
     1
102
RTVSPropertyOp9
 70
     1
102
RTVSPropertyOp10
 70
     1
102
RTVSPropertyOp11
 70
     1
102
RTVSPropertyOp12
 70
     1
102
RTVSPropertyOp13
 70
     1
102
RTVSPropertyOp14
 70
     1
102
RTVSPropertyOp15
 70
     1
102
RTVSPropertyOp16
 70
     1
102
RTVSPropertyOp17
 70
     1
102
RTVSPropertyOp18
 70
     1
102
RTVSPropertyOp19
 70
     1
102
RTVSPropertyOp20
 70
     1
102
RTVSPropertyOp21
 70
     1
102
RTVSPropertyOp22
 70
     1
102
RTVSPropertyOp23
 70
     1
102
RTVSPropertyOp24
 70
     1
102
RTVSPropertyOp25
 70
     1
102
RTVSPropertyOp26
 70
     1
102
RTVSPropertyOp27
 70
     1
102
RTVSPropertyOp28
 70
     1
102
RTVSPropertyOp29
 70
     1
102
RTVSPropertyOp30
 70
     1
102
RTVSPropertyOp31
 70
     1
102
RTVSPropertyOp32
 70
     1
102
RTVSPropertyOp33
 70
     1
102
RTVSPropertyOp34
 70
     1
102
RTVSPropertyOp35
 70
     1
102
RTVSPropertyOp36
 70
     1
102
RTVSPropertyOp37
 70
     1
102
RTVSPropertyOp38
 70
     1
102
RTVSPropertyOp39
 70
     1
102
RTVSPropertyOp40
 70
     1
102
RTVSPropertyOp41
 70
     1
102
RTVSPropertyOp42
 70
     1
102
RTVSPropertyOp43
 70
     1
102
RTVSPropertyOp44
 70
     1
102
RTVSPropertyOp45
 70
     1
102
RTVSPropertyOp46
 70
     1
102
RTVSPropertyOp47
 70
     1
102
RTVSPropertyOp48
 70
     1
102
RTVSPropertyOp49
 70
     1
102
RTVSPropertyOp50
 70
     1
102
RTVSPropertyOp51
 70
     0
102
RTVSPropertyOp52
 70
     0
102
RTVSPropertyOp53
 70
     1
102
RTVSPropertyOp54
 70
     1
102
RTVSPropertyOp55
 70
     1
102
RTVSPropertyOp56
 70
     1
102
RTVSPropertyOp57
 70
     1
102
RTVSPropertyOp58
 70
     1
102
RTVSPropertyOp59
 70
     1
102
RTVSPropertyOp60
 70
     1
102
RTVSPropertyOp61
 70
     1
102
RTVSPropertyOp62
 70
     1
  0
XRECORD
  5
1C8CDE6AC8AE
102
{ACAD_REACTORS
330
1C8CDE6AC8AD
102
}
330
1C8CDE6AC8AD
100
AcDbXrecord
280
     1
102
RTVSPost2010Prop28
280
     0
102
RTVSPost2010PropOp28
 70
     1
102
RTVSPost2010Prop29
280
     1
102
RTVSPost2010PropOp29
 70
     1
102
RTVSPost2010Prop30
280
     1
102
RTVSPost2010PropOp30
 70
     1
102
RTVSPost2010Prop31
280
     0
102
RTVSPost2010PropOp31
 70
     1
102
RTVSPost2010Prop32
280
     0
102
RTVSPost2010PropOp32
 70
     1
102
RTVSPost2010Prop33
280
     0
102
RTVSPost2010PropOp33
 70
     1
102
RTVSPost2010Prop34
280
     0
102
RTVSPost2010PropOp34
 70
     1
102
RTVSPost2010Prop35
280
     0
102
RTVSPost2010PropOp35
 70
     1
102
RTVSPost2010Prop36
280
     0
102
RTVSPost2010PropOp36
 70
     1
102
RTVSPost2010Prop37
 90
       50
102
RTVSPost2010PropOp37
 70
     1
102
RTVSPost2010Prop38
140
0.0
102
RTVSPost2010PropOp38
 70
     1
102
RTVSPost2010Prop39
140
1.0
102
RTVSPost2010PropOp39
 70
     1
102
RTVSPost2010Prop40
 90
        0
102
RTVSPost2010PropOp40
 70
     1
102
RTVSPost2010Prop41ColorIndex
 90
       18
102
RTVSPost2010Prop41ColorRGB
 90
        0
102
RTVSPost2010PropOp41
 70
     1
102
RTVSPost2010Prop42
 90
       50
102
RTVSPost2010PropOp42
 70
     1
102
RTVSPost2010Prop43
 90
        3
102
RTVSPost2010PropOp43
 70
     1
102
RTVSPost2010Prop44ColorIndex
 90
        5
102
RTVSPost2010Prop44ColorRGB
 90
      255
102
RTVSPost2010PropOp44
 70
     1
102
RTVSPost2010Prop45
280
     0
102
RTVSPost2010PropOp45
 70
     1
102
RTVSPost2010Prop46
 90
       50
102
RTVSPost2010PropOp46
 70
     1
102
RTVSPost2010Prop47
 90
       50
102
RTVSPost2010PropOp47
 70
     1
102
RTVSPost2010Prop48
 90
       50
102
RTVSPost2010PropOp48
 70
     1
102
RTVSPost2010Prop49
280
     0
102
RTVSPost2010PropOp49
 70
     1
102
RTVSPost2010Prop50
 90
       50
102
RTVSPost2010PropOp50
 70
     1
102
RTVSPost2010Prop51ColorIndex
 90
      256
102
RTVSPost2010Prop51ColorRGB
 90
-16777216
102
RTVSPost2010PropOp51
 70
     0
102
RTVSPost2010Prop52
140
1.0
102
RTVSPost2010PropOp52
 70
     0
102
RTVSPost2010Prop53
 90
        2
102
RTVSPost2010PropOp53
 70
     1
102
RTVSPost2010Prop54
  1
strokes_ogs.tif
102
RTVSPost2010PropOp54
 70
     1
102
RTVSPost2010Prop55
280
     0
102
RTVSPost2010PropOp55
 70
     1
102
RTVSPost2010Prop56
140
1.0
102
RTVSPost2010PropOp56
 70
     1
102
RTVSPost2010Prop57
140
1.0
102
RTVSPost2010PropOp57
 70
     1
102
RTVSPropertyOp0
 70
     1
102
RTVSPropertyOp1
 70
     1
102
RTVSPropertyOp2
 70
     1
102
RTVSPropertyOp3
 70
     1
102
RTVSPropertyOp4
 70
     1
102
RTVSPropertyOp5
 70
     1
102
RTVSPropertyOp6
 70
     1
102
RTVSPropertyOp7
 70
     1
102
RTVSPropertyOp8
 70
     1
102
RTVSPropertyOp9
 70
     1
102
RTVSPropertyOp10
 70
     1
102
RTVSPropertyOp11
 70
     1
102
RTVSPropertyOp12
 70
     1
102
RTVSPropertyOp13
 70
     1
102
RTVSPropertyOp14
 70
     1
102
RTVSPropertyOp15
 70
     1
102
RTVSPropertyOp16
 70
     1
102
RTVSPropertyOp17
 70
     1
102
RTVSPropertyOp18
 70
     1
102
RTVSPropertyOp19
 70
     1
102
RTVSPropertyOp20
 70
     1
102
RTVSPropertyOp21
 70
     1
102
RTVSPropertyOp22
 70
     1
102
RTVSPropertyOp23
 70
     1
102
RTVSPropertyOp24
 70
     1
102
RTVSPropertyOp25
 70
     1
102
RTVSPropertyOp26
 70
     1
102
RTVSPropertyOp27
 70
     1
102
RTVSPropertyOp28
 70
     1
102
RTVSPropertyOp29
 70
     1
102
RTVSPropertyOp30
 70
     1
102
RTVSPropertyOp31
 70
     1
102
RTVSPropertyOp32
 70
     1
102
RTVSPropertyOp33
 70
     1
102
RTVSPropertyOp34
 70
     1
102
RTVSPropertyOp35
 70
     1
102
RTVSPropertyOp36
 70
     1
102
RTVSPropertyOp37
 70
     1
102
RTVSPropertyOp38
 70
     1
102
RTVSPropertyOp39
 70
     1
102
RTVSPropertyOp40
 70
     1
102
RTVSPropertyOp41
 70
     1
102
RTVSPropertyOp42
 70
     1
102
RTVSPropertyOp43
 70
     1
102
RTVSPropertyOp44
 70
     1
102
RTVSPropertyOp45
 70
     1
102
RTVSPropertyOp46
 70
     1
102
RTVSPropertyOp47
 70
     1
102
RTVSPropertyOp48
 70
     1
102
RTVSPropertyOp49
 70
     1
102
RTVSPropertyOp50
 70
     1
102
RTVSPropertyOp51
 70
     0
102
RTVSPropertyOp52
 70
     0
102
RTVSPropertyOp53
 70
     1
102
RTVSPropertyOp54
 70
     1
102
RTVSPropertyOp55
 70
     1
102
RTVSPropertyOp56
 70
     1
102
RTVSPropertyOp57
 70
     1
102
RTVSPropertyOp58
 70
     1
102
RTVSPropertyOp59
 70
     1
102
RTVSPropertyOp60
 70
     1
102
RTVSPropertyOp61
 70
     1
102
RTVSPropertyOp62
 70
     1
  0
XRECORD
  5
1C8CDE6AC8B0
102
{ACAD_REACTORS
330
1C8CDE6AC8AF
102
}
330
1C8CDE6AC8AF
100
AcDbXrecord
280
     1
102
RTVSPost2010Prop28
280
     0
102
RTVSPost2010PropOp28
 70
     1
102
RTVSPost2010Prop29
280
     1
102
RTVSPost2010PropOp29
 70
     1
102
RTVSPost2010Prop30
280
     1
102
RTVSPost2010PropOp30
 70
     1
102
RTVSPost2010Prop31
280
     0
102
RTVSPost2010PropOp31
 70
     1
102
RTVSPost2010Prop32
280
     0
102
RTVSPost2010PropOp32
 70
     1
102
RTVSPost2010Prop33
280
     0
102
RTVSPost2010PropOp33
 70
     1
102
RTVSPost2010Prop34
280
     0
102
RTVSPost2010PropOp34
 70
     1
102
RTVSPost2010Prop35
280
     0
102
RTVSPost2010PropOp35
 70
     1
102
RTVSPost2010Prop36
280
     0
102
RTVSPost2010PropOp36
 70
     1
102
RTVSPost2010Prop37
 90
       50
102
RTVSPost2010PropOp37
 70
     1
102
RTVSPost2010Prop38
140
0.0
102
RTVSPost2010PropOp38
 70
     1
102
RTVSPost2010Prop39
140
1.0
102
RTVSPost2010PropOp39
 70
     1
102
RTVSPost2010Prop40
 90
        0
102
RTVSPost2010PropOp40
 70
     1
102
RTVSPost2010Prop41ColorIndex
 90
       18
102
RTVSPost2010Prop41ColorRGB
 90
        0
102
RTVSPost2010PropOp41
 70
     1
102
RTVSPost2010Prop42
 90
       50
102
RTVSPost2010PropOp42
 70
     1
102
RTVSPost2010Prop43
 90
        3
102
RTVSPost2010PropOp43
 70
     1
102
RTVSPost2010Prop44ColorIndex
 90
        5
102
RTVSPost2010Prop44ColorRGB
 90
      255
102
RTVSPost2010PropOp44
 70
     1
102
RTVSPost2010Prop45
280
     0
102
RTVSPost2010PropOp45
 70
     1
102
RTVSPost2010Prop46
 90
       50
102
RTVSPost2010PropOp46
 70
     1
102
RTVSPost2010Prop47
 90
       50
102
RTVSPost2010PropOp47
 70
     1
102
RTVSPost2010Prop48
 90
       50
102
RTVSPost2010PropOp48
 70
     1
102
RTVSPost2010Prop49
280
     0
102
RTVSPost2010PropOp49
 70
     1
102
RTVSPost2010Prop50
 90
       50
102
RTVSPost2010PropOp50
 70
     1
102
RTVSPost2010Prop51ColorIndex
 90
      256
102
RTVSPost2010Prop51ColorRGB
 90
-16777216
102
RTVSPost2010PropOp51
 70
     0
102
RTVSPost2010Prop52
140
1.0
102
RTVSPost2010PropOp52
 70
     0
102
RTVSPost2010Prop53
 90
        2
102
RTVSPost2010PropOp53
 70
     1
102
RTVSPost2010Prop54
  1
strokes_ogs.tif
102
RTVSPost2010PropOp54
 70
     1
102
RTVSPost2010Prop55
280
     0
102
RTVSPost2010PropOp55
 70
     1
102
RTVSPost2010Prop56
140
1.0
102
RTVSPost2010PropOp56
 70
     1
102
RTVSPost2010Prop57
140
1.0
102
RTVSPost2010PropOp57
 70
     1
102
RTVSPropertyOp0
 70
     1
102
RTVSPropertyOp1
 70
     1
102
RTVSPropertyOp2
 70
     1
102
RTVSPropertyOp3
 70
     1
102
RTVSPropertyOp4
 70
     1
102
RTVSPropertyOp5
 70
     1
102
RTVSPropertyOp6
 70
     1
102
RTVSPropertyOp7
 70
     1
102
RTVSPropertyOp8
 70
     1
102
RTVSPropertyOp9
 70
     1
102
RTVSPropertyOp10
 70
     1
102
RTVSPropertyOp11
 70
     1
102
RTVSPropertyOp12
 70
     1
102
RTVSPropertyOp13
 70
     1
102
RTVSPropertyOp14
 70
     1
102
RTVSPropertyOp15
 70
     1
102
RTVSPropertyOp16
 70
     1
102
RTVSPropertyOp17
 70
     1
102
RTVSPropertyOp18
 70
     1
102
RTVSPropertyOp19
 70
     1
102
RTVSPropertyOp20
 70
     1
102
RTVSPropertyOp21
 70
     1
102
RTVSPropertyOp22
 70
     1
102
RTVSPropertyOp23
 70
     1
102
RTVSPropertyOp24
 70
     1
102
RTVSPropertyOp25
 70
     1
102
RTVSPropertyOp26
 70
     1
102
RTVSPropertyOp27
 70
     1
102
RTVSPropertyOp28
 70
     1
102
RTVSPropertyOp29
 70
     1
102
RTVSPropertyOp30
 70
     1
102
RTVSPropertyOp31
 70
     1
102
RTVSPropertyOp32
 70
     1
102
RTVSPropertyOp33
 70
     1
102
RTVSPropertyOp34
 70
     1
102
RTVSPropertyOp35
 70
     1
102
RTVSPropertyOp36
 70
     1
102
RTVSPropertyOp37
 70
     1
102
RTVSPropertyOp38
 70
     1
102
RTVSPropertyOp39
 70
     1
102
RTVSPropertyOp40
 70
     1
102
RTVSPropertyOp41
 70
     1
102
RTVSPropertyOp42
 70
     1
102
RTVSPropertyOp43
 70
     1
102
RTVSPropertyOp44
 70
     1
102
RTVSPropertyOp45
 70
     1
102
RTVSPropertyOp46
 70
     1
102
RTVSPropertyOp47
 70
     1
102
RTVSPropertyOp48
 70
     1
102
RTVSPropertyOp49
 70
     1
102
RTVSPropertyOp50
 70
     1
102
RTVSPropertyOp51
 70
     0
102
RTVSPropertyOp52
 70
     0
102
RTVSPropertyOp53
 70
     1
102
RTVSPropertyOp54
 70
     1
102
RTVSPropertyOp55
 70
     1
102
RTVSPropertyOp56
 70
     1
102
RTVSPropertyOp57
 70
     1
102
RTVSPropertyOp58
 70
     1
102
RTVSPropertyOp59
 70
     1
102
RTVSPropertyOp60
 70
     1
102
RTVSPropertyOp61
 70
     1
102
RTVSPropertyOp62
 70
     1
  0
XRECORD
  5
1C8CDE6AC8B2
102
{ACAD_REACTORS
330
1C8CDE6AC8B1
102
}
330
1C8CDE6AC8B1
100
AcDbXrecord
280
     1
102
RTVSPost2010Prop28
280
     0
102
RTVSPost2010PropOp28
 70
     1
102
RTVSPost2010Prop29
280
     1
102
RTVSPost2010PropOp29
 70
     1
102
RTVSPost2010Prop30
280
     1
102
RTVSPost2010PropOp30
 70
     1
102
RTVSPost2010Prop31
280
     0
102
RTVSPost2010PropOp31
 70
     1
102
RTVSPost2010Prop32
280
     0
102
RTVSPost2010PropOp32
 70
     1
102
RTVSPost2010Prop33
280
     0
102
RTVSPost2010PropOp33
 70
     1
102
RTVSPost2010Prop34
280
     0
102
RTVSPost2010PropOp34
 70
     1
102
RTVSPost2010Prop35
280
     0
102
RTVSPost2010PropOp35
 70
     1
102
RTVSPost2010Prop36
280
     0
102
RTVSPost2010PropOp36
 70
     1
102
RTVSPost2010Prop37
 90
       50
102
RTVSPost2010PropOp37
 70
     1
102
RTVSPost2010Prop38
140
0.0
102
RTVSPost2010PropOp38
 70
     1
102
RTVSPost2010Prop39
140
1.0
102
RTVSPost2010PropOp39
 70
     1
102
RTVSPost2010Prop40
 90
        0
102
RTVSPost2010PropOp40
 70
     1
102
RTVSPost2010Prop41ColorIndex
 90
       18
102
RTVSPost2010Prop41ColorRGB
 90
        0
102
RTVSPost2010PropOp41
 70
     1
102
RTVSPost2010Prop42
 90
       50
102
RTVSPost2010PropOp42
 70
     1
102
RTVSPost2010Prop43
 90
        3
102
RTVSPost2010PropOp43
 70
     1
102
RTVSPost2010Prop44ColorIndex
 90
        5
102
RTVSPost2010Prop44ColorRGB
 90
      255
102
RTVSPost2010PropOp44
 70
     1
102
RTVSPost2010Prop45
280
     0
102
RTVSPost2010PropOp45
 70
     1
102
RTVSPost2010Prop46
 90
       50
102
RTVSPost2010PropOp46
 70
     1
102
RTVSPost2010Prop47
 90
       50
102
RTVSPost2010PropOp47
 70
     1
102
RTVSPost2010Prop48
 90
       50
102
RTVSPost2010PropOp48
 70
     1
102
RTVSPost2010Prop49
280
     0
102
RTVSPost2010PropOp49
 70
     1
102
RTVSPost2010Prop50
 90
       50
102
RTVSPost2010PropOp50
 70
     1
102
RTVSPost2010Prop51ColorIndex
 90
      256
102
RTVSPost2010Prop51ColorRGB
 90
-16777216
102
RTVSPost2010PropOp51
 70
     0
102
RTVSPost2010Prop52
140
1.0
102
RTVSPost2010PropOp52
 70
     0
102
RTVSPost2010Prop53
 90
        2
102
RTVSPost2010PropOp53
 70
     1
102
RTVSPost2010Prop54
  1
strokes_ogs.tif
102
RTVSPost2010PropOp54
 70
     1
102
RTVSPost2010Prop55
280
     0
102
RTVSPost2010PropOp55
 70
     1
102
RTVSPost2010Prop56
140
1.0
102
RTVSPost2010PropOp56
 70
     1
102
RTVSPost2010Prop57
140
1.0
102
RTVSPost2010PropOp57
 70
     1
102
RTVSPropertyOp0
 70
     1
102
RTVSPropertyOp1
 70
     1
102
RTVSPropertyOp2
 70
     1
102
RTVSPropertyOp3
 70
     1
102
RTVSPropertyOp4
 70
     1
102
RTVSPropertyOp5
 70
     1
102
RTVSPropertyOp6
 70
     1
102
RTVSPropertyOp7
 70
     1
102
RTVSPropertyOp8
 70
     1
102
RTVSPropertyOp9
 70
     1
102
RTVSPropertyOp10
 70
     1
102
RTVSPropertyOp11
 70
     1
102
RTVSPropertyOp12
 70
     1
102
RTVSPropertyOp13
 70
     1
102
RTVSPropertyOp14
 70
     1
102
RTVSPropertyOp15
 70
     1
102
RTVSPropertyOp16
 70
     1
102
RTVSPropertyOp17
 70
     1
102
RTVSPropertyOp18
 70
     1
102
RTVSPropertyOp19
 70
     1
102
RTVSPropertyOp20
 70
     1
102
RTVSPropertyOp21
 70
     1
102
RTVSPropertyOp22
 70
     1
102
RTVSPropertyOp23
 70
     1
102
RTVSPropertyOp24
 70
     1
102
RTVSPropertyOp25
 70
     1
102
RTVSPropertyOp26
 70
     1
102
RTVSPropertyOp27
 70
     1
102
RTVSPropertyOp28
 70
     1
102
RTVSPropertyOp29
 70
     1
102
RTVSPropertyOp30
 70
     1
102
RTVSPropertyOp31
 70
     1
102
RTVSPropertyOp32
 70
     1
102
RTVSPropertyOp33
 70
     1
102
RTVSPropertyOp34
 70
     1
102
RTVSPropertyOp35
 70
     1
102
RTVSPropertyOp36
 70
     1
102
RTVSPropertyOp37
 70
     1
102
RTVSPropertyOp38
 70
     1
102
RTVSPropertyOp39
 70
     1
102
RTVSPropertyOp40
 70
     1
102
RTVSPropertyOp41
 70
     1
102
RTVSPropertyOp42
 70
     1
102
RTVSPropertyOp43
 70
     1
102
RTVSPropertyOp44
 70
     1
102
RTVSPropertyOp45
 70
     1
102
RTVSPropertyOp46
 70
     1
102
RTVSPropertyOp47
 70
     1
102
RTVSPropertyOp48
 70
     1
102
RTVSPropertyOp49
 70
     1
102
RTVSPropertyOp50
 70
     1
102
RTVSPropertyOp51
 70
     0
102
RTVSPropertyOp52
 70
     0
102
RTVSPropertyOp53
 70
     1
102
RTVSPropertyOp54
 70
     1
102
RTVSPropertyOp55
 70
     1
102
RTVSPropertyOp56
 70
     1
102
RTVSPropertyOp57
 70
     1
102
RTVSPropertyOp58
 70
     1
102
RTVSPropertyOp59
 70
     1
102
RTVSPropertyOp60
 70
     1
102
RTVSPropertyOp61
 70
     1
102
RTVSPropertyOp62
 70
     1
  0
XRECORD
  5
1C8CDE6AC8B8
102
{ACAD_REACTORS
330
1C8CDE6AC8B7
102
}
330
1C8CDE6AC8B7
100
AcDbXrecord
280
     1
102
RTVSPost2010Prop28
280
     0
102
RTVSPost2010PropOp28
 70
     1
102
RTVSPost2010Prop29
280
     1
102
RTVSPost2010PropOp29
 70
     1
102
RTVSPost2010Prop30
280
     1
102
RTVSPost2010PropOp30
 70
     1
102
RTVSPost2010Prop31
280
     0
102
RTVSPost2010PropOp31
 70
     1
102
RTVSPost2010Prop32
280
     0
102
RTVSPost2010PropOp32
 70
     1
102
RTVSPost2010Prop33
280
     0
102
RTVSPost2010PropOp33
 70
     1
102
RTVSPost2010Prop34
280
     0
102
RTVSPost2010PropOp34
 70
     1
102
RTVSPost2010Prop35
280
     0
102
RTVSPost2010PropOp35
 70
     1
102
RTVSPost2010Prop36
280
     0
102
RTVSPost2010PropOp36
 70
     1
102
RTVSPost2010Prop37
 90
       50
102
RTVSPost2010PropOp37
 70
     1
102
RTVSPost2010Prop38
140
0.0
102
RTVSPost2010PropOp38
 70
     1
102
RTVSPost2010Prop39
140
1.0
102
RTVSPost2010PropOp39
 70
     1
102
RTVSPost2010Prop40
 90
        0
102
RTVSPost2010PropOp40
 70
     1
102
RTVSPost2010Prop41ColorIndex
 90
       18
102
RTVSPost2010Prop41ColorRGB
 90
        0
102
RTVSPost2010PropOp41
 70
     1
102
RTVSPost2010Prop42
 90
       50
102
RTVSPost2010PropOp42
 70
     1
102
RTVSPost2010Prop43
 90
        3
102
RTVSPost2010PropOp43
 70
     1
102
RTVSPost2010Prop44ColorIndex
 90
        5
102
RTVSPost2010Prop44ColorRGB
 90
      255
102
RTVSPost2010PropOp44
 70
     1
102
RTVSPost2010Prop45
280
     0
102
RTVSPost2010PropOp45
 70
     1
102
RTVSPost2010Prop46
 90
       50
102
RTVSPost2010PropOp46
 70
     1
102
RTVSPost2010Prop47
 90
       50
102
RTVSPost2010PropOp47
 70
     1
102
RTVSPost2010Prop48
 90
       50
102
RTVSPost2010PropOp48
 70
     1
102
RTVSPost2010Prop49
280
     0
102
RTVSPost2010PropOp49
 70
     1
102
RTVSPost2010Prop50
 90
       50
102
RTVSPost2010PropOp50
 70
     1
102
RTVSPost2010Prop51ColorIndex
 90
      256
102
RTVSPost2010Prop51ColorRGB
 90
-16777216
102
RTVSPost2010PropOp51
 70
     0
102
RTVSPost2010Prop52
140
1.0
102
RTVSPost2010PropOp52
 70
     0
102
RTVSPost2010Prop53
 90
        2
102
RTVSPost2010PropOp53
 70
     1
102
RTVSPost2010Prop54
  1
strokes_ogs.tif
102
RTVSPost2010PropOp54
 70
     1
102
RTVSPost2010Prop55
280
     0
102
RTVSPost2010PropOp55
 70
     1
102
RTVSPost2010Prop56
140
1.0
102
RTVSPost2010PropOp56
 70
     1
102
RTVSPost2010Prop57
140
1.0
102
RTVSPost2010PropOp57
 70
     1
102
RTVSPropertyOp0
 70
     1
102
RTVSPropertyOp1
 70
     1
102
RTVSPropertyOp2
 70
     1
102
RTVSPropertyOp3
 70
     1
102
RTVSPropertyOp4
 70
     1
102
RTVSPropertyOp5
 70
     1
102
RTVSPropertyOp6
 70
     1
102
RTVSPropertyOp7
 70
     1
102
RTVSPropertyOp8
 70
     1
102
RTVSPropertyOp9
 70
     1
102
RTVSPropertyOp10
 70
     1
102
RTVSPropertyOp11
 70
     1
102
RTVSPropertyOp12
 70
     1
102
RTVSPropertyOp13
 70
     1
102
RTVSPropertyOp14
 70
     1
102
RTVSPropertyOp15
 70
     1
102
RTVSPropertyOp16
 70
     1
102
RTVSPropertyOp17
 70
     1
102
RTVSPropertyOp18
 70
     1
102
RTVSPropertyOp19
 70
     1
102
RTVSPropertyOp20
 70
     1
102
RTVSPropertyOp21
 70
     1
102
RTVSPropertyOp22
 70
     1
102
RTVSPropertyOp23
 70
     1
102
RTVSPropertyOp24
 70
     1
102
RTVSPropertyOp25
 70
     1
102
RTVSPropertyOp26
 70
     1
102
RTVSPropertyOp27
 70
     1
102
RTVSPropertyOp28
 70
     1
102
RTVSPropertyOp29
 70
     1
102
RTVSPropertyOp30
 70
     1
102
RTVSPropertyOp31
 70
     1
102
RTVSPropertyOp32
 70
     1
102
RTVSPropertyOp33
 70
     1
102
RTVSPropertyOp34
 70
     1
102
RTVSPropertyOp35
 70
     1
102
RTVSPropertyOp36
 70
     1
102
RTVSPropertyOp37
 70
     1
102
RTVSPropertyOp38
 70
     1
102
RTVSPropertyOp39
 70
     1
102
RTVSPropertyOp40
 70
     1
102
RTVSPropertyOp41
 70
     1
102
RTVSPropertyOp42
 70
     1
102
RTVSPropertyOp43
 70
     1
102
RTVSPropertyOp44
 70
     1
102
RTVSPropertyOp45
 70
     1
102
RTVSPropertyOp46
 70
     1
102
RTVSPropertyOp47
 70
     1
102
RTVSPropertyOp48
 70
     1
102
RTVSPropertyOp49
 70
     1
102
RTVSPropertyOp50
 70
     1
102
RTVSPropertyOp51
 70
     0
102
RTVSPropertyOp52
 70
     0
102
RTVSPropertyOp53
 70
     1
102
RTVSPropertyOp54
 70
     1
102
RTVSPropertyOp55
 70
     1
102
RTVSPropertyOp56
 70
     1
102
RTVSPropertyOp57
 70
     1
102
RTVSPropertyOp58
 70
     1
102
RTVSPropertyOp59
 70
     1
102
RTVSPropertyOp60
 70
     1
102
RTVSPropertyOp61
 70
     1
102
RTVSPropertyOp62
 70
     1
  0
XRECORD
  5
1C8CDE6AC8CC
102
{ACAD_REACTORS
330
1C8CDE6AC8CB
102
}
330
1C8CDE6AC8CB
100
AcDbXrecord
280
     1
102
RTVSPost2010Prop28
280
     0
102
RTVSPost2010PropOp28
 70
     0
102
RTVSPost2010Prop29
280
     1
102
RTVSPost2010PropOp29
 70
     0
102
RTVSPost2010Prop30
280
     1
102
RTVSPost2010PropOp30
 70
     0
102
RTVSPost2010Prop31
280
     0
102
RTVSPost2010PropOp31
 70
     0
102
RTVSPost2010Prop32
280
     0
102
RTVSPost2010PropOp32
 70
     0
102
RTVSPost2010Prop33
280
     0
102
RTVSPost2010PropOp33
 70
     0
102
RTVSPost2010Prop34
280
     0
102
RTVSPost2010PropOp34
 70
     0
102
RTVSPost2010Prop35
280
     0
102
RTVSPost2010PropOp35
 70
     0
102
RTVSPost2010Prop36
280
     0
102
RTVSPost2010PropOp36
 70
     0
102
RTVSPost2010Prop37
 90
       50
102
RTVSPost2010PropOp37
 70
     0
102
RTVSPost2010Prop38
140
0.0
102
RTVSPost2010PropOp38
 70
     0
102
RTVSPost2010Prop39
140
1.0
102
RTVSPost2010PropOp39
 70
     0
102
RTVSPost2010Prop40
 90
        0
102
RTVSPost2010PropOp40
 70
     0
102
RTVSPost2010Prop41ColorIndex
 90
       18
102
RTVSPost2010Prop41ColorRGB
 90
        0
102
RTVSPost2010PropOp41
 70
     0
102
RTVSPost2010Prop42
 90
       50
102
RTVSPost2010PropOp42
 70
     0
102
RTVSPost2010Prop43
 90
        3
102
RTVSPost2010PropOp43
 70
     0
102
RTVSPost2010Prop44ColorIndex
 90
        5
102
RTVSPost2010Prop44ColorRGB
 90
      255
102
RTVSPost2010PropOp44
 70
     0
102
RTVSPost2010Prop45
280
     0
102
RTVSPost2010PropOp45
 70
     0
102
RTVSPost2010Prop46
 90
       50
102
RTVSPost2010PropOp46
 70
     0
102
RTVSPost2010Prop47
 90
       50
102
RTVSPost2010PropOp47
 70
     0
102
RTVSPost2010Prop48
 90
       50
102
RTVSPost2010PropOp48
 70
     0
102
RTVSPost2010Prop49
280
     0
102
RTVSPost2010PropOp49
 70
     0
102
RTVSPost2010Prop50
 90
       50
102
RTVSPost2010PropOp50
 70
     0
102
RTVSPost2010Prop51ColorIndex
 90
      256
102
RTVSPost2010Prop51ColorRGB
 90
-16777216
102
RTVSPost2010PropOp51
 70
     0
102
RTVSPost2010Prop52
140
1.0
102
RTVSPost2010PropOp52
 70
     0
102
RTVSPost2010Prop53
 90
        2
102
RTVSPost2010PropOp53
 70
     0
102
RTVSPost2010Prop54
  1
strokes_ogs.tif
102
RTVSPost2010PropOp54
 70
     0
102
RTVSPost2010Prop55
280
     0
102
RTVSPost2010PropOp55
 70
     0
102
RTVSPost2010Prop56
140
1.0
102
RTVSPost2010PropOp56
 70
     0
102
RTVSPost2010Prop57
140
1.0
102
RTVSPost2010PropOp57
 70
     0
102
RTVSPropertyOp0
 70
     0
102
RTVSPropertyOp1
 70
     0
102
RTVSPropertyOp2
 70
     0
102
RTVSPropertyOp3
 70
     0
102
RTVSPropertyOp4
 70
     0
102
RTVSPropertyOp5
 70
     0
102
RTVSPropertyOp6
 70
     0
102
RTVSPropertyOp7
 70
     0
102
RTVSPropertyOp8
 70
     0
102
RTVSPropertyOp9
 70
     0
102
RTVSPropertyOp10
 70
     0
102
RTVSPropertyOp11
 70
     0
102
RTVSPropertyOp12
 70
     0
102
RTVSPropertyOp13
 70
     0
102
RTVSPropertyOp14
 70
     2
102
RTVSPropertyOp15
 70
     0
102
RTVSPropertyOp16
 70
     0
102
RTVSPropertyOp17
 70
     0
102
RTVSPropertyOp18
 70
     0
102
RTVSPropertyOp19
 70
     0
102
RTVSPropertyOp20
 70
     0
102
RTVSPropertyOp21
 70
     0
102
RTVSPropertyOp22
 70
     0
102
RTVSPropertyOp23
 70
     0
102
RTVSPropertyOp24
 70
     0
102
RTVSPropertyOp25
 70
     0
102
RTVSPropertyOp26
 70
     0
102
RTVSPropertyOp27
 70
     0
102
RTVSPropertyOp28
 70
     0
102
RTVSPropertyOp29
 70
     0
102
RTVSPropertyOp30
 70
     0
102
RTVSPropertyOp31
 70
     0
102
RTVSPropertyOp32
 70
     0
102
RTVSPropertyOp33
 70
     0
102
RTVSPropertyOp34
 70
     0
102
RTVSPropertyOp35
 70
     0
102
RTVSPropertyOp36
 70
     0
102
RTVSPropertyOp37
 70
     0
102
RTVSPropertyOp38
 70
     0
102
RTVSPropertyOp39
 70
     0
102
RTVSPropertyOp40
 70
     0
102
RTVSPropertyOp41
 70
     0
102
RTVSPropertyOp42
 70
     0
102
RTVSPropertyOp43
 70
     0
102
RTVSPropertyOp44
 70
     0
102
RTVSPropertyOp45
 70
     0
102
RTVSPropertyOp46
 70
     0
102
RTVSPropertyOp47
 70
     0
102
RTVSPropertyOp48
 70
     0
102
RTVSPropertyOp49
 70
     0
102
RTVSPropertyOp50
 70
     0
102
RTVSPropertyOp51
 70
     0
102
RTVSPropertyOp52
 70
     0
102
RTVSPropertyOp53
 70
     0
102
RTVSPropertyOp54
 70
     0
102
RTVSPropertyOp55
 70
     0
102
RTVSPropertyOp56
 70
     0
102
RTVSPropertyOp57
 70
     0
102
RTVSPropertyOp58
 70
     1
102
RTVSPropertyOp59
 70
     1
102
RTVSPropertyOp60
 70
     1
102
RTVSPropertyOp61
 70
     1
102
RTVSPropertyOp62
 70
     1
  0
XRECORD
  5
1C8CDE6AC8C6
102
{ACAD_REACTORS
330
1C8CDE6AC8C5
102
}
330
1C8CDE6AC8C5
100
AcDbXrecord
280
     1
102
RTVSPost2010Prop28
280
     0
102
RTVSPost2010PropOp28
 70
     1
102
RTVSPost2010Prop29
280
     1
102
RTVSPost2010PropOp29
 70
     1
102
RTVSPost2010Prop30
280
     1
102
RTVSPost2010PropOp30
 70
     1
102
RTVSPost2010Prop31
280
     0
102
RTVSPost2010PropOp31
 70
     1
102
RTVSPost2010Prop32
280
     0
102
RTVSPost2010PropOp32
 70
     1
102
RTVSPost2010Prop33
280
     0
102
RTVSPost2010PropOp33
 70
     1
102
RTVSPost2010Prop34
280
     0
102
RTVSPost2010PropOp34
 70
     1
102
RTVSPost2010Prop35
280
     0
102
RTVSPost2010PropOp35
 70
     1
102
RTVSPost2010Prop36
280
     0
102
RTVSPost2010PropOp36
 70
     1
102
RTVSPost2010Prop37
 90
       50
102
RTVSPost2010PropOp37
 70
     1
102
RTVSPost2010Prop38
140
0.0
102
RTVSPost2010PropOp38
 70
     1
102
RTVSPost2010Prop39
140
1.0
102
RTVSPost2010PropOp39
 70
     1
102
RTVSPost2010Prop40
 90
        0
102
RTVSPost2010PropOp40
 70
     1
102
RTVSPost2010Prop41ColorIndex
 90
       18
102
RTVSPost2010Prop41ColorRGB
 90
        0
102
RTVSPost2010PropOp41
 70
     1
102
RTVSPost2010Prop42
 90
       50
102
RTVSPost2010PropOp42
 70
     1
102
RTVSPost2010Prop43
 90
        3
102
RTVSPost2010PropOp43
 70
     1
102
RTVSPost2010Prop44ColorIndex
 90
        5
102
RTVSPost2010Prop44ColorRGB
 90
      255
102
RTVSPost2010PropOp44
 70
     1
102
RTVSPost2010Prop45
280
     0
102
RTVSPost2010PropOp45
 70
     1
102
RTVSPost2010Prop46
 90
       50
102
RTVSPost2010PropOp46
 70
     1
102
RTVSPost2010Prop47
 90
       50
102
RTVSPost2010PropOp47
 70
     1
102
RTVSPost2010Prop48
 90
       50
102
RTVSPost2010PropOp48
 70
     1
102
RTVSPost2010Prop49
280
     0
102
RTVSPost2010PropOp49
 70
     1
102
RTVSPost2010Prop50
 90
       50
102
RTVSPost2010PropOp50
 70
     1
102
RTVSPost2010Prop51ColorIndex
 90
      256
102
RTVSPost2010Prop51ColorRGB
 90
-16777216
102
RTVSPost2010PropOp51
 70
     0
102
RTVSPost2010Prop52
140
1.0
102
RTVSPost2010PropOp52
 70
     0
102
RTVSPost2010Prop53
 90
        2
102
RTVSPost2010PropOp53
 70
     1
102
RTVSPost2010Prop54
  1
strokes_ogs.tif
102
RTVSPost2010PropOp54
 70
     1
102
RTVSPost2010Prop55
280
     0
102
RTVSPost2010PropOp55
 70
     1
102
RTVSPost2010Prop56
140
1.0
102
RTVSPost2010PropOp56
 70
     1
102
RTVSPost2010Prop57
140
1.0
102
RTVSPost2010PropOp57
 70
     1
102
RTVSPropertyOp0
 70
     1
102
RTVSPropertyOp1
 70
     1
102
RTVSPropertyOp2
 70
     1
102
RTVSPropertyOp3
 70
     1
102
RTVSPropertyOp4
 70
     1
102
RTVSPropertyOp5
 70
     1
102
RTVSPropertyOp6
 70
     1
102
RTVSPropertyOp7
 70
     1
102
RTVSPropertyOp8
 70
     1
102
RTVSPropertyOp9
 70
     1
102
RTVSPropertyOp10
 70
     1
102
RTVSPropertyOp11
 70
     1
102
RTVSPropertyOp12
 70
     1
102
RTVSPropertyOp13
 70
     1
102
RTVSPropertyOp14
 70
     1
102
RTVSPropertyOp15
 70
     1
102
RTVSPropertyOp16
 70
     1
102
RTVSPropertyOp17
 70
     1
102
RTVSPropertyOp18
 70
     1
102
RTVSPropertyOp19
 70
     1
102
RTVSPropertyOp20
 70
     1
102
RTVSPropertyOp21
 70
     1
102
RTVSPropertyOp22
 70
     1
102
RTVSPropertyOp23
 70
     1
102
RTVSPropertyOp24
 70
     1
102
RTVSPropertyOp25
 70
     1
102
RTVSPropertyOp26
 70
     1
102
RTVSPropertyOp27
 70
     1
102
RTVSPropertyOp28
 70
     1
102
RTVSPropertyOp29
 70
     1
102
RTVSPropertyOp30
 70
     1
102
RTVSPropertyOp31
 70
     1
102
RTVSPropertyOp32
 70
     1
102
RTVSPropertyOp33
 70
     1
102
RTVSPropertyOp34
 70
     1
102
RTVSPropertyOp35
 70
     1
102
RTVSPropertyOp36
 70
     1
102
RTVSPropertyOp37
 70
     1
102
RTVSPropertyOp38
 70
     1
102
RTVSPropertyOp39
 70
     1
102
RTVSPropertyOp40
 70
     1
102
RTVSPropertyOp41
 70
     1
102
RTVSPropertyOp42
 70
     1
102
RTVSPropertyOp43
 70
     1
102
RTVSPropertyOp44
 70
     1
102
RTVSPropertyOp45
 70
     1
102
RTVSPropertyOp46
 70
     1
102
RTVSPropertyOp47
 70
     1
102
RTVSPropertyOp48
 70
     1
102
RTVSPropertyOp49
 70
     1
102
RTVSPropertyOp50
 70
     1
102
RTVSPropertyOp51
 70
     0
102
RTVSPropertyOp52
 70
     0
102
RTVSPropertyOp53
 70
     1
102
RTVSPropertyOp54
 70
     1
102
RTVSPropertyOp55
 70
     1
102
RTVSPropertyOp56
 70
     1
102
RTVSPropertyOp57
 70
     1
102
RTVSPropertyOp58
 70
     1
102
RTVSPropertyOp59
 70
     1
102
RTVSPropertyOp60
 70
     1
102
RTVSPropertyOp61
 70
     1
102
RTVSPropertyOp62
 70
     1
  0
XRECORD
  5
1C8CDE6AC8E2
102
{ACAD_REACTORS
330
1C8CDE6AC8E1
102
}
330
1C8CDE6AC8E1
100
AcDbXrecord
280
     1
102
RTVSPost2010Prop28
280
     0
102
RTVSPost2010PropOp28
 70
     1
102
RTVSPost2010Prop29
280
     1
102
RTVSPost2010PropOp29
 70
     1
102
RTVSPost2010Prop30
280
     1
102
RTVSPost2010PropOp30
 70
     1
102
RTVSPost2010Prop31
280
     0
102
RTVSPost2010PropOp31
 70
     1
102
RTVSPost2010Prop32
280
     0
102
RTVSPost2010PropOp32
 70
     1
102
RTVSPost2010Prop33
280
     0
102
RTVSPost2010PropOp33
 70
     1
102
RTVSPost2010Prop34
280
     0
102
RTVSPost2010PropOp34
 70
     1
102
RTVSPost2010Prop35
280
     0
102
RTVSPost2010PropOp35
 70
     1
102
RTVSPost2010Prop36
280
     0
102
RTVSPost2010PropOp36
 70
     1
102
RTVSPost2010Prop37
 90
       50
102
RTVSPost2010PropOp37
 70
     1
102
RTVSPost2010Prop38
140
0.0
102
RTVSPost2010PropOp38
 70
     1
102
RTVSPost2010Prop39
140
1.0
102
RTVSPost2010PropOp39
 70
     1
102
RTVSPost2010Prop40
 90
        0
102
RTVSPost2010PropOp40
 70
     1
102
RTVSPost2010Prop41ColorIndex
 90
       18
102
RTVSPost2010Prop41ColorRGB
 90
        0
102
RTVSPost2010PropOp41
 70
     1
102
RTVSPost2010Prop42
 90
       50
102
RTVSPost2010PropOp42
 70
     1
102
RTVSPost2010Prop43
 90
        3
102
RTVSPost2010PropOp43
 70
     1
102
RTVSPost2010Prop44ColorIndex
 90
        5
102
RTVSPost2010Prop44ColorRGB
 90
      255
102
RTVSPost2010PropOp44
 70
     1
102
RTVSPost2010Prop45
280
     0
102
RTVSPost2010PropOp45
 70
     1
102
RTVSPost2010Prop46
 90
       50
102
RTVSPost2010PropOp46
 70
     1
102
RTVSPost2010Prop47
 90
       50
102
RTVSPost2010PropOp47
 70
     1
102
RTVSPost2010Prop48
 90
       50
102
RTVSPost2010PropOp48
 70
     1
102
RTVSPost2010Prop49
280
     0
102
RTVSPost2010PropOp49
 70
     1
102
RTVSPost2010Prop50
 90
       50
102
RTVSPost2010PropOp50
 70
     1
102
RTVSPost2010Prop51ColorIndex
 90
      256
102
RTVSPost2010Prop51ColorRGB
 90
-16777216
102
RTVSPost2010PropOp51
 70
     0
102
RTVSPost2010Prop52
140
1.0
102
RTVSPost2010PropOp52
 70
     0
102
RTVSPost2010Prop53
 90
        2
102
RTVSPost2010PropOp53
 70
     1
102
RTVSPost2010Prop54
  1
strokes_ogs.tif
102
RTVSPost2010PropOp54
 70
     1
102
RTVSPost2010Prop55
280
     0
102
RTVSPost2010PropOp55
 70
     1
102
RTVSPost2010Prop56
140
1.0
102
RTVSPost2010PropOp56
 70
     1
102
RTVSPost2010Prop57
140
1.0
102
RTVSPost2010PropOp57
 70
     1
102
RTVSPropertyOp0
 70
     1
102
RTVSPropertyOp1
 70
     1
102
RTVSPropertyOp2
 70
     1
102
RTVSPropertyOp3
 70
     1
102
RTVSPropertyOp4
 70
     1
102
RTVSPropertyOp5
 70
     1
102
RTVSPropertyOp6
 70
     1
102
RTVSPropertyOp7
 70
     1
102
RTVSPropertyOp8
 70
     1
102
RTVSPropertyOp9
 70
     1
102
RTVSPropertyOp10
 70
     1
102
RTVSPropertyOp11
 70
     1
102
RTVSPropertyOp12
 70
     1
102
RTVSPropertyOp13
 70
     1
102
RTVSPropertyOp14
 70
     1
102
RTVSPropertyOp15
 70
     1
102
RTVSPropertyOp16
 70
     1
102
RTVSPropertyOp17
 70
     1
102
RTVSPropertyOp18
 70
     1
102
RTVSPropertyOp19
 70
     1
102
RTVSPropertyOp20
 70
     1
102
RTVSPropertyOp21
 70
     1
102
RTVSPropertyOp22
 70
     1
102
RTVSPropertyOp23
 70
     1
102
RTVSPropertyOp24
 70
     1
102
RTVSPropertyOp25
 70
     1
102
RTVSPropertyOp26
 70
     1
102
RTVSPropertyOp27
 70
     1
102
RTVSPropertyOp28
 70
     1
102
RTVSPropertyOp29
 70
     1
102
RTVSPropertyOp30
 70
     1
102
RTVSPropertyOp31
 70
     1
102
RTVSPropertyOp32
 70
     1
102
RTVSPropertyOp33
 70
     1
102
RTVSPropertyOp34
 70
     1
102
RTVSPropertyOp35
 70
     1
102
RTVSPropertyOp36
 70
     1
102
RTVSPropertyOp37
 70
     1
102
RTVSPropertyOp38
 70
     1
102
RTVSPropertyOp39
 70
     1
102
RTVSPropertyOp40
 70
     1
102
RTVSPropertyOp41
 70
     1
102
RTVSPropertyOp42
 70
     1
102
RTVSPropertyOp43
 70
     1
102
RTVSPropertyOp44
 70
     1
102
RTVSPropertyOp45
 70
     1
102
RTVSPropertyOp46
 70
     1
102
RTVSPropertyOp47
 70
     1
102
RTVSPropertyOp48
 70
     1
102
RTVSPropertyOp49
 70
     1
102
RTVSPropertyOp50
 70
     1
102
RTVSPropertyOp51
 70
     0
102
RTVSPropertyOp52
 70
     0
102
RTVSPropertyOp53
 70
     1
102
RTVSPropertyOp54
 70
     1
102
RTVSPropertyOp55
 70
     1
102
RTVSPropertyOp56
 70
     1
102
RTVSPropertyOp57
 70
     1
102
RTVSPropertyOp58
 70
     1
102
RTVSPropertyOp59
 70
     1
102
RTVSPropertyOp60
 70
     1
102
RTVSPropertyOp61
 70
     1
102
RTVSPropertyOp62
 70
     1
  0
XRECORD
  5
1C8CDE6AC8CE
102
{ACAD_REACTORS
330
1C8CDE6AC8CD
102
}
330
1C8CDE6AC8CD
100
AcDbXrecord
280
     1
102
RTVSPost2010Prop28
280
     0
102
RTVSPost2010PropOp28
 70
     0
102
RTVSPost2010Prop29
280
     1
102
RTVSPost2010PropOp29
 70
     0
102
RTVSPost2010Prop30
280
     1
102
RTVSPost2010PropOp30
 70
     0
102
RTVSPost2010Prop31
280
     0
102
RTVSPost2010PropOp31
 70
     0
102
RTVSPost2010Prop32
280
     0
102
RTVSPost2010PropOp32
 70
     0
102
RTVSPost2010Prop33
280
     0
102
RTVSPost2010PropOp33
 70
     0
102
RTVSPost2010Prop34
280
     0
102
RTVSPost2010PropOp34
 70
     0
102
RTVSPost2010Prop35
280
     0
102
RTVSPost2010PropOp35
 70
     0
102
RTVSPost2010Prop36
280
     0
102
RTVSPost2010PropOp36
 70
     0
102
RTVSPost2010Prop37
 90
       50
102
RTVSPost2010PropOp37
 70
     0
102
RTVSPost2010Prop38
140
0.0
102
RTVSPost2010PropOp38
 70
     0
102
RTVSPost2010Prop39
140
1.0
102
RTVSPost2010PropOp39
 70
     0
102
RTVSPost2010Prop40
 90
        0
102
RTVSPost2010PropOp40
 70
     0
102
RTVSPost2010Prop41ColorIndex
 90
       18
102
RTVSPost2010Prop41ColorRGB
 90
        0
102
RTVSPost2010PropOp41
 70
     0
102
RTVSPost2010Prop42
 90
       50
102
RTVSPost2010PropOp42
 70
     0
102
RTVSPost2010Prop43
 90
        3
102
RTVSPost2010PropOp43
 70
     0
102
RTVSPost2010Prop44ColorIndex
 90
        5
102
RTVSPost2010Prop44ColorRGB
 90
      255
102
RTVSPost2010PropOp44
 70
     0
102
RTVSPost2010Prop45
280
     0
102
RTVSPost2010PropOp45
 70
     0
102
RTVSPost2010Prop46
 90
       50
102
RTVSPost2010PropOp46
 70
     0
102
RTVSPost2010Prop47
 90
       50
102
RTVSPost2010PropOp47
 70
     0
102
RTVSPost2010Prop48
 90
       50
102
RTVSPost2010PropOp48
 70
     0
102
RTVSPost2010Prop49
280
     0
102
RTVSPost2010PropOp49
 70
     0
102
RTVSPost2010Prop50
 90
       50
102
RTVSPost2010PropOp50
 70
     0
102
RTVSPost2010Prop51ColorIndex
 90
      256
102
RTVSPost2010Prop51ColorRGB
 90
-16777216
102
RTVSPost2010PropOp51
 70
     0
102
RTVSPost2010Prop52
140
1.0
102
RTVSPost2010PropOp52
 70
     0
102
RTVSPost2010Prop53
 90
        2
102
RTVSPost2010PropOp53
 70
     0
102
RTVSPost2010Prop54
  1
strokes_ogs.tif
102
RTVSPost2010PropOp54
 70
     0
102
RTVSPost2010Prop55
280
     0
102
RTVSPost2010PropOp55
 70
     0
102
RTVSPost2010Prop56
140
1.0
102
RTVSPost2010PropOp56
 70
     0
102
RTVSPost2010Prop57
140
1.0
102
RTVSPost2010PropOp57
 70
     0
102
RTVSPropertyOp0
 70
     0
102
RTVSPropertyOp1
 70
     0
102
RTVSPropertyOp2
 70
     0
102
RTVSPropertyOp3
 70
     0
102
RTVSPropertyOp4
 70
     0
102
RTVSPropertyOp5
 70
     0
102
RTVSPropertyOp6
 70
     0
102
RTVSPropertyOp7
 70
     0
102
RTVSPropertyOp8
 70
     0
102
RTVSPropertyOp9
 70
     0
102
RTVSPropertyOp10
 70
     0
102
RTVSPropertyOp11
 70
     0
102
RTVSPropertyOp12
 70
     0
102
RTVSPropertyOp13
 70
     0
102
RTVSPropertyOp14
 70
     2
102
RTVSPropertyOp15
 70
     0
102
RTVSPropertyOp16
 70
     0
102
RTVSPropertyOp17
 70
     0
102
RTVSPropertyOp18
 70
     0
102
RTVSPropertyOp19
 70
     0
102
RTVSPropertyOp20
 70
     0
102
RTVSPropertyOp21
 70
     0
102
RTVSPropertyOp22
 70
     0
102
RTVSPropertyOp23
 70
     0
102
RTVSPropertyOp24
 70
     0
102
RTVSPropertyOp25
 70
     0
102
RTVSPropertyOp26
 70
     0
102
RTVSPropertyOp27
 70
     0
102
RTVSPropertyOp28
 70
     0
102
RTVSPropertyOp29
 70
     0
102
RTVSPropertyOp30
 70
     0
102
RTVSPropertyOp31
 70
     0
102
RTVSPropertyOp32
 70
     0
102
RTVSPropertyOp33
 70
     0
102
RTVSPropertyOp34
 70
     0
102
RTVSPropertyOp35
 70
     0
102
RTVSPropertyOp36
 70
     0
102
RTVSPropertyOp37
 70
     0
102
RTVSPropertyOp38
 70
     0
102
RTVSPropertyOp39
 70
     0
102
RTVSPropertyOp40
 70
     0
102
RTVSPropertyOp41
 70
     0
102
RTVSPropertyOp42
 70
     0
102
RTVSPropertyOp43
 70
     0
102
RTVSPropertyOp44
 70
     0
102
RTVSPropertyOp45
 70
     0
102
RTVSPropertyOp46
 70
     0
102
RTVSPropertyOp47
 70
     0
102
RTVSPropertyOp48
 70
     0
102
RTVSPropertyOp49
 70
     0
102
RTVSPropertyOp50
 70
     0
102
RTVSPropertyOp51
 70
     0
102
RTVSPropertyOp52
 70
     0
102
RTVSPropertyOp53
 70
     0
102
RTVSPropertyOp54
 70
     0
102
RTVSPropertyOp55
 70
     0
102
RTVSPropertyOp56
 70
     0
102
RTVSPropertyOp57
 70
     0
102
RTVSPropertyOp58
 70
     1
102
RTVSPropertyOp59
 70
     1
102
RTVSPropertyOp60
 70
     1
102
RTVSPropertyOp61
 70
     1
102
RTVSPropertyOp62
 70
     1
  0
XRECORD
  5
1C8CDE6AC8BC
102
{ACAD_REACTORS
330
1C8CDE6AC8BB
102
}
330
1C8CDE6AC8BB
100
AcDbXrecord
280
     1
102
RTVSPost2010Prop28
280
     0
102
RTVSPost2010PropOp28
 70
     1
102
RTVSPost2010Prop29
280
     1
102
RTVSPost2010PropOp29
 70
     1
102
RTVSPost2010Prop30
280
     1
102
RTVSPost2010PropOp30
 70
     1
102
RTVSPost2010Prop31
280
     0
102
RTVSPost2010PropOp31
 70
     1
102
RTVSPost2010Prop32
280
     0
102
RTVSPost2010PropOp32
 70
     1
102
RTVSPost2010Prop33
280
     0
102
RTVSPost2010PropOp33
 70
     1
102
RTVSPost2010Prop34
280
     0
102
RTVSPost2010PropOp34
 70
     1
102
RTVSPost2010Prop35
280
     0
102
RTVSPost2010PropOp35
 70
     1
102
RTVSPost2010Prop36
280
     0
102
RTVSPost2010PropOp36
 70
     1
102
RTVSPost2010Prop37
 90
       50
102
RTVSPost2010PropOp37
 70
     1
102
RTVSPost2010Prop38
140
0.0
102
RTVSPost2010PropOp38
 70
     1
102
RTVSPost2010Prop39
140
1.0
102
RTVSPost2010PropOp39
 70
     1
102
RTVSPost2010Prop40
 90
        0
102
RTVSPost2010PropOp40
 70
     1
102
RTVSPost2010Prop41ColorIndex
 90
       18
102
RTVSPost2010Prop41ColorRGB
 90
        0
102
RTVSPost2010PropOp41
 70
     1
102
RTVSPost2010Prop42
 90
       50
102
RTVSPost2010PropOp42
 70
     1
102
RTVSPost2010Prop43
 90
        3
102
RTVSPost2010PropOp43
 70
     1
102
RTVSPost2010Prop44ColorIndex
 90
        5
102
RTVSPost2010Prop44ColorRGB
 90
      255
102
RTVSPost2010PropOp44
 70
     1
102
RTVSPost2010Prop45
280
     0
102
RTVSPost2010PropOp45
 70
     1
102
RTVSPost2010Prop46
 90
       50
102
RTVSPost2010PropOp46
 70
     1
102
RTVSPost2010Prop47
 90
       50
102
RTVSPost2010PropOp47
 70
     1
102
RTVSPost2010Prop48
 90
       50
102
RTVSPost2010PropOp48
 70
     1
102
RTVSPost2010Prop49
280
     0
102
RTVSPost2010PropOp49
 70
     1
102
RTVSPost2010Prop50
 90
       50
102
RTVSPost2010PropOp50
 70
     1
102
RTVSPost2010Prop51ColorIndex
 90
      256
102
RTVSPost2010Prop51ColorRGB
 90
-16777216
102
RTVSPost2010PropOp51
 70
     0
102
RTVSPost2010Prop52
140
1.0
102
RTVSPost2010PropOp52
 70
     0
102
RTVSPost2010Prop53
 90
        2
102
RTVSPost2010PropOp53
 70
     1
102
RTVSPost2010Prop54
  1
strokes_ogs.tif
102
RTVSPost2010PropOp54
 70
     1
102
RTVSPost2010Prop55
280
     0
102
RTVSPost2010PropOp55
 70
     1
102
RTVSPost2010Prop56
140
1.0
102
RTVSPost2010PropOp56
 70
     1
102
RTVSPost2010Prop57
140
1.0
102
RTVSPost2010PropOp57
 70
     1
102
RTVSPropertyOp0
 70
     1
102
RTVSPropertyOp1
 70
     1
102
RTVSPropertyOp2
 70
     1
102
RTVSPropertyOp3
 70
     1
102
RTVSPropertyOp4
 70
     1
102
RTVSPropertyOp5
 70
     1
102
RTVSPropertyOp6
 70
     1
102
RTVSPropertyOp7
 70
     1
102
RTVSPropertyOp8
 70
     1
102
RTVSPropertyOp9
 70
     1
102
RTVSPropertyOp10
 70
     1
102
RTVSPropertyOp11
 70
     1
102
RTVSPropertyOp12
 70
     1
102
RTVSPropertyOp13
 70
     1
102
RTVSPropertyOp14
 70
     1
102
RTVSPropertyOp15
 70
     1
102
RTVSPropertyOp16
 70
     1
102
RTVSPropertyOp17
 70
     1
102
RTVSPropertyOp18
 70
     1
102
RTVSPropertyOp19
 70
     1
102
RTVSPropertyOp20
 70
     1
102
RTVSPropertyOp21
 70
     1
102
RTVSPropertyOp22
 70
     1
102
RTVSPropertyOp23
 70
     1
102
RTVSPropertyOp24
 70
     1
102
RTVSPropertyOp25
 70
     1
102
RTVSPropertyOp26
 70
     1
102
RTVSPropertyOp27
 70
     1
102
RTVSPropertyOp28
 70
     1
102
RTVSPropertyOp29
 70
     1
102
RTVSPropertyOp30
 70
     1
102
RTVSPropertyOp31
 70
     1
102
RTVSPropertyOp32
 70
     1
102
RTVSPropertyOp33
 70
     1
102
RTVSPropertyOp34
 70
     1
102
RTVSPropertyOp35
 70
     1
102
RTVSPropertyOp36
 70
     1
102
RTVSPropertyOp37
 70
     1
102
RTVSPropertyOp38
 70
     1
102
RTVSPropertyOp39
 70
     1
102
RTVSPropertyOp40
 70
     1
102
RTVSPropertyOp41
 70
     1
102
RTVSPropertyOp42
 70
     1
102
RTVSPropertyOp43
 70
     1
102
RTVSPropertyOp44
 70
     1
102
RTVSPropertyOp45
 70
     1
102
RTVSPropertyOp46
 70
     1
102
RTVSPropertyOp47
 70
     1
102
RTVSPropertyOp48
 70
     1
102
RTVSPropertyOp49
 70
     1
102
RTVSPropertyOp50
 70
     1
102
RTVSPropertyOp51
 70
     0
102
RTVSPropertyOp52
 70
     0
102
RTVSPropertyOp53
 70
     1
102
RTVSPropertyOp54
 70
     1
102
RTVSPropertyOp55
 70
     1
102
RTVSPropertyOp56
 70
     1
102
RTVSPropertyOp57
 70
     1
102
RTVSPropertyOp58
 70
     1
102
RTVSPropertyOp59
 70
     1
102
RTVSPropertyOp60
 70
     1
102
RTVSPropertyOp61
 70
     1
102
RTVSPropertyOp62
 70
     1
  0
XRECORD
  5
1C8CDE6AC8DA
102
{ACAD_REACTORS
330
1C8CDE6AC8D9
102
}
330
1C8CDE6AC8D9
100
AcDbXrecord
280
     1
102
RTVSPost2010Prop28
280
     0
102
RTVSPost2010PropOp28
 70
     1
102
RTVSPost2010Prop29
280
     1
102
RTVSPost2010PropOp29
 70
     1
102
RTVSPost2010Prop30
280
     1
102
RTVSPost2010PropOp30
 70
     1
102
RTVSPost2010Prop31
280
     0
102
RTVSPost2010PropOp31
 70
     1
102
RTVSPost2010Prop32
280
     0
102
RTVSPost2010PropOp32
 70
     1
102
RTVSPost2010Prop33
280
     0
102
RTVSPost2010PropOp33
 70
     1
102
RTVSPost2010Prop34
280
     0
102
RTVSPost2010PropOp34
 70
     1
102
RTVSPost2010Prop35
280
     0
102
RTVSPost2010PropOp35
 70
     1
102
RTVSPost2010Prop36
280
     0
102
RTVSPost2010PropOp36
 70
     1
102
RTVSPost2010Prop37
 90
       50
102
RTVSPost2010PropOp37
 70
     1
102
RTVSPost2010Prop38
140
0.0
102
RTVSPost2010PropOp38
 70
     1
102
RTVSPost2010Prop39
140
1.0
102
RTVSPost2010PropOp39
 70
     1
102
RTVSPost2010Prop40
 90
        0
102
RTVSPost2010PropOp40
 70
     1
102
RTVSPost2010Prop41ColorIndex
 90
       18
102
RTVSPost2010Prop41ColorRGB
 90
        0
102
RTVSPost2010PropOp41
 70
     1
102
RTVSPost2010Prop42
 90
       50
102
RTVSPost2010PropOp42
 70
     1
102
RTVSPost2010Prop43
 90
        3
102
RTVSPost2010PropOp43
 70
     1
102
RTVSPost2010Prop44ColorIndex
 90
        5
102
RTVSPost2010Prop44ColorRGB
 90
      255
102
RTVSPost2010PropOp44
 70
     1
102
RTVSPost2010Prop45
280
     0
102
RTVSPost2010PropOp45
 70
     1
102
RTVSPost2010Prop46
 90
       50
102
RTVSPost2010PropOp46
 70
     1
102
RTVSPost2010Prop47
 90
       50
102
RTVSPost2010PropOp47
 70
     1
102
RTVSPost2010Prop48
 90
       50
102
RTVSPost2010PropOp48
 70
     1
102
RTVSPost2010Prop49
280
     0
102
RTVSPost2010PropOp49
 70
     1
102
RTVSPost2010Prop50
 90
       50
102
RTVSPost2010PropOp50
 70
     1
102
RTVSPost2010Prop51ColorIndex
 90
      256
102
RTVSPost2010Prop51ColorRGB
 90
-16777216
102
RTVSPost2010PropOp51
 70
     0
102
RTVSPost2010Prop52
140
1.0
102
RTVSPost2010PropOp52
 70
     0
102
RTVSPost2010Prop53
 90
        2
102
RTVSPost2010PropOp53
 70
     1
102
RTVSPost2010Prop54
  1
strokes_ogs.tif
102
RTVSPost2010PropOp54
 70
     1
102
RTVSPost2010Prop55
280
     0
102
RTVSPost2010PropOp55
 70
     1
102
RTVSPost2010Prop56
140
1.0
102
RTVSPost2010PropOp56
 70
     1
102
RTVSPost2010Prop57
140
1.0
102
RTVSPost2010PropOp57
 70
     1
102
RTVSPropertyOp0
 70
     1
102
RTVSPropertyOp1
 70
     1
102
RTVSPropertyOp2
 70
     1
102
RTVSPropertyOp3
 70
     1
102
RTVSPropertyOp4
 70
     1
102
RTVSPropertyOp5
 70
     1
102
RTVSPropertyOp6
 70
     1
102
RTVSPropertyOp7
 70
     1
102
RTVSPropertyOp8
 70
     1
102
RTVSPropertyOp9
 70
     1
102
RTVSPropertyOp10
 70
     1
102
RTVSPropertyOp11
 70
     1
102
RTVSPropertyOp12
 70
     1
102
RTVSPropertyOp13
 70
     1
102
RTVSPropertyOp14
 70
     1
102
RTVSPropertyOp15
 70
     1
102
RTVSPropertyOp16
 70
     1
102
RTVSPropertyOp17
 70
     1
102
RTVSPropertyOp18
 70
     1
102
RTVSPropertyOp19
 70
     1
102
RTVSPropertyOp20
 70
     1
102
RTVSPropertyOp21
 70
     1
102
RTVSPropertyOp22
 70
     1
102
RTVSPropertyOp23
 70
     1
102
RTVSPropertyOp24
 70
     1
102
RTVSPropertyOp25
 70
     1
102
RTVSPropertyOp26
 70
     1
102
RTVSPropertyOp27
 70
     1
102
RTVSPropertyOp28
 70
     1
102
RTVSPropertyOp29
 70
     1
102
RTVSPropertyOp30
 70
     1
102
RTVSPropertyOp31
 70
     1
102
RTVSPropertyOp32
 70
     1
102
RTVSPropertyOp33
 70
     1
102
RTVSPropertyOp34
 70
     1
102
RTVSPropertyOp35
 70
     1
102
RTVSPropertyOp36
 70
     1
102
RTVSPropertyOp37
 70
     1
102
RTVSPropertyOp38
 70
     1
102
RTVSPropertyOp39
 70
     1
102
RTVSPropertyOp40
 70
     1
102
RTVSPropertyOp41
 70
     1
102
RTVSPropertyOp42
 70
     1
102
RTVSPropertyOp43
 70
     1
102
RTVSPropertyOp44
 70
     1
102
RTVSPropertyOp45
 70
     1
102
RTVSPropertyOp46
 70
     1
102
RTVSPropertyOp47
 70
     1
102
RTVSPropertyOp48
 70
     1
102
RTVSPropertyOp49
 70
     1
102
RTVSPropertyOp50
 70
     1
102
RTVSPropertyOp51
 70
     0
102
RTVSPropertyOp52
 70
     0
102
RTVSPropertyOp53
 70
     1
102
RTVSPropertyOp54
 70
     1
102
RTVSPropertyOp55
 70
     1
102
RTVSPropertyOp56
 70
     1
102
RTVSPropertyOp57
 70
     1
102
RTVSPropertyOp58
 70
     1
102
RTVSPropertyOp59
 70
     1
102
RTVSPropertyOp60
 70
     1
102
RTVSPropertyOp61
 70
     1
102
RTVSPropertyOp62
 70
     1
  0
XRECORD
  5
1C8CDE6AC8D8
102
{ACAD_REACTORS
330
1C8CDE6AC8D7
102
}
330
1C8CDE6AC8D7
100
AcDbXrecord
280
     1
102
RTVSPost2010Prop28
280
     0
102
RTVSPost2010PropOp28
 70
     1
102
RTVSPost2010Prop29
280
     1
102
RTVSPost2010PropOp29
 70
     1
102
RTVSPost2010Prop30
280
     1
102
RTVSPost2010PropOp30
 70
     1
102
RTVSPost2010Prop31
280
     0
102
RTVSPost2010PropOp31
 70
     1
102
RTVSPost2010Prop32
280
     0
102
RTVSPost2010PropOp32
 70
     1
102
RTVSPost2010Prop33
280
     0
102
RTVSPost2010PropOp33
 70
     1
102
RTVSPost2010Prop34
280
     0
102
RTVSPost2010PropOp34
 70
     1
102
RTVSPost2010Prop35
280
     0
102
RTVSPost2010PropOp35
 70
     1
102
RTVSPost2010Prop36
280
     0
102
RTVSPost2010PropOp36
 70
     1
102
RTVSPost2010Prop37
 90
       50
102
RTVSPost2010PropOp37
 70
     1
102
RTVSPost2010Prop38
140
0.0
102
RTVSPost2010PropOp38
 70
     1
102
RTVSPost2010Prop39
140
1.0
102
RTVSPost2010PropOp39
 70
     1
102
RTVSPost2010Prop40
 90
        0
102
RTVSPost2010PropOp40
 70
     1
102
RTVSPost2010Prop41ColorIndex
 90
       18
102
RTVSPost2010Prop41ColorRGB
 90
        0
102
RTVSPost2010PropOp41
 70
     1
102
RTVSPost2010Prop42
 90
       50
102
RTVSPost2010PropOp42
 70
     1
102
RTVSPost2010Prop43
 90
        3
102
RTVSPost2010PropOp43
 70
     1
102
RTVSPost2010Prop44ColorIndex
 90
        5
102
RTVSPost2010Prop44ColorRGB
 90
      255
102
RTVSPost2010PropOp44
 70
     1
102
RTVSPost2010Prop45
280
     0
102
RTVSPost2010PropOp45
 70
     1
102
RTVSPost2010Prop46
 90
       50
102
RTVSPost2010PropOp46
 70
     1
102
RTVSPost2010Prop47
 90
       50
102
RTVSPost2010PropOp47
 70
     1
102
RTVSPost2010Prop48
 90
       50
102
RTVSPost2010PropOp48
 70
     1
102
RTVSPost2010Prop49
280
     0
102
RTVSPost2010PropOp49
 70
     1
102
RTVSPost2010Prop50
 90
       50
102
RTVSPost2010PropOp50
 70
     1
102
RTVSPost2010Prop51ColorIndex
 90
      256
102
RTVSPost2010Prop51ColorRGB
 90
-16777216
102
RTVSPost2010PropOp51
 70
     0
102
RTVSPost2010Prop52
140
1.0
102
RTVSPost2010PropOp52
 70
     0
102
RTVSPost2010Prop53
 90
        2
102
RTVSPost2010PropOp53
 70
     1
102
RTVSPost2010Prop54
  1
strokes_ogs.tif
102
RTVSPost2010PropOp54
 70
     1
102
RTVSPost2010Prop55
280
     0
102
RTVSPost2010PropOp55
 70
     1
102
RTVSPost2010Prop56
140
1.0
102
RTVSPost2010PropOp56
 70
     1
102
RTVSPost2010Prop57
140
1.0
102
RTVSPost2010PropOp57
 70
     1
102
RTVSPropertyOp0
 70
     1
102
RTVSPropertyOp1
 70
     1
102
RTVSPropertyOp2
 70
     1
102
RTVSPropertyOp3
 70
     1
102
RTVSPropertyOp4
 70
     1
102
RTVSPropertyOp5
 70
     1
102
RTVSPropertyOp6
 70
     1
102
RTVSPropertyOp7
 70
     1
102
RTVSPropertyOp8
 70
     1
102
RTVSPropertyOp9
 70
     1
102
RTVSPropertyOp10
 70
     1
102
RTVSPropertyOp11
 70
     1
102
RTVSPropertyOp12
 70
     1
102
RTVSPropertyOp13
 70
     1
102
RTVSPropertyOp14
 70
     1
102
RTVSPropertyOp15
 70
     1
102
RTVSPropertyOp16
 70
     1
102
RTVSPropertyOp17
 70
     1
102
RTVSPropertyOp18
 70
     1
102
RTVSPropertyOp19
 70
     1
102
RTVSPropertyOp20
 70
     1
102
RTVSPropertyOp21
 70
     1
102
RTVSPropertyOp22
 70
     1
102
RTVSPropertyOp23
 70
     1
102
RTVSPropertyOp24
 70
     1
102
RTVSPropertyOp25
 70
     1
102
RTVSPropertyOp26
 70
     1
102
RTVSPropertyOp27
 70
     1
102
RTVSPropertyOp28
 70
     1
102
RTVSPropertyOp29
 70
     1
102
RTVSPropertyOp30
 70
     1
102
RTVSPropertyOp31
 70
     1
102
RTVSPropertyOp32
 70
     1
102
RTVSPropertyOp33
 70
     1
102
RTVSPropertyOp34
 70
     1
102
RTVSPropertyOp35
 70
     1
102
RTVSPropertyOp36
 70
     1
102
RTVSPropertyOp37
 70
     1
102
RTVSPropertyOp38
 70
     1
102
RTVSPropertyOp39
 70
     1
102
RTVSPropertyOp40
 70
     1
102
RTVSPropertyOp41
 70
     1
102
RTVSPropertyOp42
 70
     1
102
RTVSPropertyOp43
 70
     1
102
RTVSPropertyOp44
 70
     1
102
RTVSPropertyOp45
 70
     1
102
RTVSPropertyOp46
 70
     1
102
RTVSPropertyOp47
 70
     1
102
RTVSPropertyOp48
 70
     1
102
RTVSPropertyOp49
 70
     1
102
RTVSPropertyOp50
 70
     1
102
RTVSPropertyOp51
 70
     0
102
RTVSPropertyOp52
 70
     0
102
RTVSPropertyOp53
 70
     1
102
RTVSPropertyOp54
 70
     1
102
RTVSPropertyOp55
 70
     1
102
RTVSPropertyOp56
 70
     1
102
RTVSPropertyOp57
 70
     1
102
RTVSPropertyOp58
 70
     1
102
RTVSPropertyOp59
 70
     1
102
RTVSPropertyOp60
 70
     1
102
RTVSPropertyOp61
 70
     1
102
RTVSPropertyOp62
 70
     1
  0
XRECORD
  5
1C8CDE6AC8D2
102
{ACAD_REACTORS
330
1C8CDE6AC8D1
102
}
330
1C8CDE6AC8D1
100
AcDbXrecord
280
     1
102
RTVSPost2010Prop28
280
     0
102
RTVSPost2010PropOp28
 70
     1
102
RTVSPost2010Prop29
280
     1
102
RTVSPost2010PropOp29
 70
     1
102
RTVSPost2010Prop30
280
     1
102
RTVSPost2010PropOp30
 70
     1
102
RTVSPost2010Prop31
280
     0
102
RTVSPost2010PropOp31
 70
     1
102
RTVSPost2010Prop32
280
     0
102
RTVSPost2010PropOp32
 70
     1
102
RTVSPost2010Prop33
280
     0
102
RTVSPost2010PropOp33
 70
     1
102
RTVSPost2010Prop34
280
     0
102
RTVSPost2010PropOp34
 70
     1
102
RTVSPost2010Prop35
280
     0
102
RTVSPost2010PropOp35
 70
     1
102
RTVSPost2010Prop36
280
     0
102
RTVSPost2010PropOp36
 70
     1
102
RTVSPost2010Prop37
 90
       50
102
RTVSPost2010PropOp37
 70
     1
102
RTVSPost2010Prop38
140
0.0
102
RTVSPost2010PropOp38
 70
     1
102
RTVSPost2010Prop39
140
1.0
102
RTVSPost2010PropOp39
 70
     1
102
RTVSPost2010Prop40
 90
        0
102
RTVSPost2010PropOp40
 70
     1
102
RTVSPost2010Prop41ColorIndex
 90
       18
102
RTVSPost2010Prop41ColorRGB
 90
        0
102
RTVSPost2010PropOp41
 70
     1
102
RTVSPost2010Prop42
 90
       50
102
RTVSPost2010PropOp42
 70
     1
102
RTVSPost2010Prop43
 90
        3
102
RTVSPost2010PropOp43
 70
     1
102
RTVSPost2010Prop44ColorIndex
 90
        5
102
RTVSPost2010Prop44ColorRGB
 90
      255
102
RTVSPost2010PropOp44
 70
     1
102
RTVSPost2010Prop45
280
     0
102
RTVSPost2010PropOp45
 70
     1
102
RTVSPost2010Prop46
 90
       50
102
RTVSPost2010PropOp46
 70
     1
102
RTVSPost2010Prop47
 90
       50
102
RTVSPost2010PropOp47
 70
     1
102
RTVSPost2010Prop48
 90
       50
102
RTVSPost2010PropOp48
 70
     1
102
RTVSPost2010Prop49
280
     0
102
RTVSPost2010PropOp49
 70
     1
102
RTVSPost2010Prop50
 90
       50
102
RTVSPost2010PropOp50
 70
     1
102
RTVSPost2010Prop51ColorIndex
 90
      256
102
RTVSPost2010Prop51ColorRGB
 90
-16777216
102
RTVSPost2010PropOp51
 70
     0
102
RTVSPost2010Prop52
140
1.0
102
RTVSPost2010PropOp52
 70
     0
102
RTVSPost2010Prop53
 90
        2
102
RTVSPost2010PropOp53
 70
     1
102
RTVSPost2010Prop54
  1
strokes_ogs.tif
102
RTVSPost2010PropOp54
 70
     1
102
RTVSPost2010Prop55
280
     0
102
RTVSPost2010PropOp55
 70
     1
102
RTVSPost2010Prop56
140
1.0
102
RTVSPost2010PropOp56
 70
     1
102
RTVSPost2010Prop57
140
1.0
102
RTVSPost2010PropOp57
 70
     1
102
RTVSPropertyOp0
 70
     1
102
RTVSPropertyOp1
 70
     1
102
RTVSPropertyOp2
 70
     1
102
RTVSPropertyOp3
 70
     1
102
RTVSPropertyOp4
 70
     1
102
RTVSPropertyOp5
 70
     1
102
RTVSPropertyOp6
 70
     1
102
RTVSPropertyOp7
 70
     1
102
RTVSPropertyOp8
 70
     1
102
RTVSPropertyOp9
 70
     1
102
RTVSPropertyOp10
 70
     1
102
RTVSPropertyOp11
 70
     1
102
RTVSPropertyOp12
 70
     1
102
RTVSPropertyOp13
 70
     1
102
RTVSPropertyOp14
 70
     1
102
RTVSPropertyOp15
 70
     1
102
RTVSPropertyOp16
 70
     1
102
RTVSPropertyOp17
 70
     1
102
RTVSPropertyOp18
 70
     1
102
RTVSPropertyOp19
 70
     1
102
RTVSPropertyOp20
 70
     1
102
RTVSPropertyOp21
 70
     1
102
RTVSPropertyOp22
 70
     1
102
RTVSPropertyOp23
 70
     1
102
RTVSPropertyOp24
 70
     1
102
RTVSPropertyOp25
 70
     1
102
RTVSPropertyOp26
 70
     1
102
RTVSPropertyOp27
 70
     1
102
RTVSPropertyOp28
 70
     1
102
RTVSPropertyOp29
 70
     1
102
RTVSPropertyOp30
 70
     1
102
RTVSPropertyOp31
 70
     1
102
RTVSPropertyOp32
 70
     1
102
RTVSPropertyOp33
 70
     1
102
RTVSPropertyOp34
 70
     1
102
RTVSPropertyOp35
 70
     1
102
RTVSPropertyOp36
 70
     1
102
RTVSPropertyOp37
 70
     1
102
RTVSPropertyOp38
 70
     1
102
RTVSPropertyOp39
 70
     1
102
RTVSPropertyOp40
 70
     1
102
RTVSPropertyOp41
 70
     1
102
RTVSPropertyOp42
 70
     1
102
RTVSPropertyOp43
 70
     1
102
RTVSPropertyOp44
 70
     1
102
RTVSPropertyOp45
 70
     1
102
RTVSPropertyOp46
 70
     1
102
RTVSPropertyOp47
 70
     1
102
RTVSPropertyOp48
 70
     1
102
RTVSPropertyOp49
 70
     1
102
RTVSPropertyOp50
 70
     1
102
RTVSPropertyOp51
 70
     0
102
RTVSPropertyOp52
 70
     0
102
RTVSPropertyOp53
 70
     1
102
RTVSPropertyOp54
 70
     1
102
RTVSPropertyOp55
 70
     1
102
RTVSPropertyOp56
 70
     1
102
RTVSPropertyOp57
 70
     1
102
RTVSPropertyOp58
 70
     1
102
RTVSPropertyOp59
 70
     1
102
RTVSPropertyOp60
 70
     1
102
RTVSPropertyOp61
 70
     1
102
RTVSPropertyOp62
 70
     1
  0
XRECORD
  5
1C8CDE6AC8D4
102
{ACAD_REACTORS
330
1C8CDE6AC8D3
102
}
330
1C8CDE6AC8D3
100
AcDbXrecord
280
     1
102
RTVSPost2010Prop28
280
     0
102
RTVSPost2010PropOp28
 70
     1
102
RTVSPost2010Prop29
280
     1
102
RTVSPost2010PropOp29
 70
     1
102
RTVSPost2010Prop30
280
     1
102
RTVSPost2010PropOp30
 70
     1
102
RTVSPost2010Prop31
280
     0
102
RTVSPost2010PropOp31
 70
     1
102
RTVSPost2010Prop32
280
     0
102
RTVSPost2010PropOp32
 70
     1
102
RTVSPost2010Prop33
280
     0
102
RTVSPost2010PropOp33
 70
     1
102
RTVSPost2010Prop34
280
     0
102
RTVSPost2010PropOp34
 70
     1
102
RTVSPost2010Prop35
280
     0
102
RTVSPost2010PropOp35
 70
     1
102
RTVSPost2010Prop36
280
     0
102
RTVSPost2010PropOp36
 70
     1
102
RTVSPost2010Prop37
 90
       50
102
RTVSPost2010PropOp37
 70
     1
102
RTVSPost2010Prop38
140
0.0
102
RTVSPost2010PropOp38
 70
     1
102
RTVSPost2010Prop39
140
1.0
102
RTVSPost2010PropOp39
 70
     1
102
RTVSPost2010Prop40
 90
        0
102
RTVSPost2010PropOp40
 70
     1
102
RTVSPost2010Prop41ColorIndex
 90
       18
102
RTVSPost2010Prop41ColorRGB
 90
        0
102
RTVSPost2010PropOp41
 70
     1
102
RTVSPost2010Prop42
 90
       50
102
RTVSPost2010PropOp42
 70
     1
102
RTVSPost2010Prop43
 90
        3
102
RTVSPost2010PropOp43
 70
     1
102
RTVSPost2010Prop44ColorIndex
 90
        5
102
RTVSPost2010Prop44ColorRGB
 90
      255
102
RTVSPost2010PropOp44
 70
     1
102
RTVSPost2010Prop45
280
     0
102
RTVSPost2010PropOp45
 70
     1
102
RTVSPost2010Prop46
 90
       50
102
RTVSPost2010PropOp46
 70
     1
102
RTVSPost2010Prop47
 90
       50
102
RTVSPost2010PropOp47
 70
     1
102
RTVSPost2010Prop48
 90
       50
102
RTVSPost2010PropOp48
 70
     1
102
RTVSPost2010Prop49
280
     0
102
RTVSPost2010PropOp49
 70
     1
102
RTVSPost2010Prop50
 90
       50
102
RTVSPost2010PropOp50
 70
     1
102
RTVSPost2010Prop51ColorIndex
 90
      256
102
RTVSPost2010Prop51ColorRGB
 90
-16777216
102
RTVSPost2010PropOp51
 70
     0
102
RTVSPost2010Prop52
140
1.0
102
RTVSPost2010PropOp52
 70
     0
102
RTVSPost2010Prop53
 90
        2
102
RTVSPost2010PropOp53
 70
     1
102
RTVSPost2010Prop54
  1
strokes_ogs.tif
102
RTVSPost2010PropOp54
 70
     1
102
RTVSPost2010Prop55
280
     0
102
RTVSPost2010PropOp55
 70
     1
102
RTVSPost2010Prop56
140
1.0
102
RTVSPost2010PropOp56
 70
     1
102
RTVSPost2010Prop57
140
1.0
102
RTVSPost2010PropOp57
 70
     1
102
RTVSPropertyOp0
 70
     1
102
RTVSPropertyOp1
 70
     1
102
RTVSPropertyOp2
 70
     1
102
RTVSPropertyOp3
 70
     1
102
RTVSPropertyOp4
 70
     1
102
RTVSPropertyOp5
 70
     1
102
RTVSPropertyOp6
 70
     1
102
RTVSPropertyOp7
 70
     1
102
RTVSPropertyOp8
 70
     1
102
RTVSPropertyOp9
 70
     1
102
RTVSPropertyOp10
 70
     1
102
RTVSPropertyOp11
 70
     1
102
RTVSPropertyOp12
 70
     1
102
RTVSPropertyOp13
 70
     1
102
RTVSPropertyOp14
 70
     1
102
RTVSPropertyOp15
 70
     1
102
RTVSPropertyOp16
 70
     1
102
RTVSPropertyOp17
 70
     1
102
RTVSPropertyOp18
 70
     1
102
RTVSPropertyOp19
 70
     1
102
RTVSPropertyOp20
 70
     1
102
RTVSPropertyOp21
 70
     1
102
RTVSPropertyOp22
 70
     1
102
RTVSPropertyOp23
 70
     1
102
RTVSPropertyOp24
 70
     1
102
RTVSPropertyOp25
 70
     1
102
RTVSPropertyOp26
 70
     1
102
RTVSPropertyOp27
 70
     1
102
RTVSPropertyOp28
 70
     1
102
RTVSPropertyOp29
 70
     1
102
RTVSPropertyOp30
 70
     1
102
RTVSPropertyOp31
 70
     1
102
RTVSPropertyOp32
 70
     1
102
RTVSPropertyOp33
 70
     1
102
RTVSPropertyOp34
 70
     1
102
RTVSPropertyOp35
 70
     1
102
RTVSPropertyOp36
 70
     1
102
RTVSPropertyOp37
 70
     1
102
RTVSPropertyOp38
 70
     1
102
RTVSPropertyOp39
 70
     1
102
RTVSPropertyOp40
 70
     1
102
RTVSPropertyOp41
 70
     1
102
RTVSPropertyOp42
 70
     1
102
RTVSPropertyOp43
 70
     1
102
RTVSPropertyOp44
 70
     1
102
RTVSPropertyOp45
 70
     1
102
RTVSPropertyOp46
 70
     1
102
RTVSPropertyOp47
 70
     1
102
RTVSPropertyOp48
 70
     1
102
RTVSPropertyOp49
 70
     1
102
RTVSPropertyOp50
 70
     1
102
RTVSPropertyOp51
 70
     0
102
RTVSPropertyOp52
 70
     0
102
RTVSPropertyOp53
 70
     1
102
RTVSPropertyOp54
 70
     1
102
RTVSPropertyOp55
 70
     1
102
RTVSPropertyOp56
 70
     1
102
RTVSPropertyOp57
 70
     1
102
RTVSPropertyOp58
 70
     1
102
RTVSPropertyOp59
 70
     1
102
RTVSPropertyOp60
 70
     1
102
RTVSPropertyOp61
 70
     1
102
RTVSPropertyOp62
 70
     1
  0
XRECORD
  5
1C8CDE6AC8C4
102
{ACAD_REACTORS
330
1C8CDE6AC8C3
102
}
330
1C8CDE6AC8C3
100
AcDbXrecord
280
     1
102
RTVSPost2010Prop28
280
     0
102
RTVSPost2010PropOp28
 70
     1
102
RTVSPost2010Prop29
280
     1
102
RTVSPost2010PropOp29
 70
     1
102
RTVSPost2010Prop30
280
     1
102
RTVSPost2010PropOp30
 70
     1
102
RTVSPost2010Prop31
280
     0
102
RTVSPost2010PropOp31
 70
     1
102
RTVSPost2010Prop32
280
     0
102
RTVSPost2010PropOp32
 70
     1
102
RTVSPost2010Prop33
280
     0
102
RTVSPost2010PropOp33
 70
     1
102
RTVSPost2010Prop34
280
     0
102
RTVSPost2010PropOp34
 70
     1
102
RTVSPost2010Prop35
280
     0
102
RTVSPost2010PropOp35
 70
     1
102
RTVSPost2010Prop36
280
     0
102
RTVSPost2010PropOp36
 70
     1
102
RTVSPost2010Prop37
 90
       50
102
RTVSPost2010PropOp37
 70
     1
102
RTVSPost2010Prop38
140
0.0
102
RTVSPost2010PropOp38
 70
     1
102
RTVSPost2010Prop39
140
1.0
102
RTVSPost2010PropOp39
 70
     1
102
RTVSPost2010Prop40
 90
        0
102
RTVSPost2010PropOp40
 70
     1
102
RTVSPost2010Prop41ColorIndex
 90
       18
102
RTVSPost2010Prop41ColorRGB
 90
        0
102
RTVSPost2010PropOp41
 70
     1
102
RTVSPost2010Prop42
 90
       50
102
RTVSPost2010PropOp42
 70
     1
102
RTVSPost2010Prop43
 90
        3
102
RTVSPost2010PropOp43
 70
     1
102
RTVSPost2010Prop44ColorIndex
 90
        5
102
RTVSPost2010Prop44ColorRGB
 90
      255
102
RTVSPost2010PropOp44
 70
     1
102
RTVSPost2010Prop45
280
     0
102
RTVSPost2010PropOp45
 70
     1
102
RTVSPost2010Prop46
 90
       50
102
RTVSPost2010PropOp46
 70
     1
102
RTVSPost2010Prop47
 90
       50
102
RTVSPost2010PropOp47
 70
     1
102
RTVSPost2010Prop48
 90
       50
102
RTVSPost2010PropOp48
 70
     1
102
RTVSPost2010Prop49
280
     0
102
RTVSPost2010PropOp49
 70
     1
102
RTVSPost2010Prop50
 90
       50
102
RTVSPost2010PropOp50
 70
     1
102
RTVSPost2010Prop51ColorIndex
 90
      256
102
RTVSPost2010Prop51ColorRGB
 90
-16777216
102
RTVSPost2010PropOp51
 70
     0
102
RTVSPost2010Prop52
140
1.0
102
RTVSPost2010PropOp52
 70
     0
102
RTVSPost2010Prop53
 90
        2
102
RTVSPost2010PropOp53
 70
     1
102
RTVSPost2010Prop54
  1
strokes_ogs.tif
102
RTVSPost2010PropOp54
 70
     1
102
RTVSPost2010Prop55
280
     0
102
RTVSPost2010PropOp55
 70
     1
102
RTVSPost2010Prop56
140
1.0
102
RTVSPost2010PropOp56
 70
     1
102
RTVSPost2010Prop57
140
1.0
102
RTVSPost2010PropOp57
 70
     1
102
RTVSPropertyOp0
 70
     1
102
RTVSPropertyOp1
 70
     1
102
RTVSPropertyOp2
 70
     1
102
RTVSPropertyOp3
 70
     1
102
RTVSPropertyOp4
 70
     1
102
RTVSPropertyOp5
 70
     1
102
RTVSPropertyOp6
 70
     1
102
RTVSPropertyOp7
 70
     1
102
RTVSPropertyOp8
 70
     1
102
RTVSPropertyOp9
 70
     1
102
RTVSPropertyOp10
 70
     1
102
RTVSPropertyOp11
 70
     1
102
RTVSPropertyOp12
 70
     1
102
RTVSPropertyOp13
 70
     1
102
RTVSPropertyOp14
 70
     1
102
RTVSPropertyOp15
 70
     1
102
RTVSPropertyOp16
 70
     1
102
RTVSPropertyOp17
 70
     1
102
RTVSPropertyOp18
 70
     1
102
RTVSPropertyOp19
 70
     1
102
RTVSPropertyOp20
 70
     1
102
RTVSPropertyOp21
 70
     1
102
RTVSPropertyOp22
 70
     1
102
RTVSPropertyOp23
 70
     1
102
RTVSPropertyOp24
 70
     1
102
RTVSPropertyOp25
 70
     1
102
RTVSPropertyOp26
 70
     1
102
RTVSPropertyOp27
 70
     1
102
RTVSPropertyOp28
 70
     1
102
RTVSPropertyOp29
 70
     1
102
RTVSPropertyOp30
 70
     1
102
RTVSPropertyOp31
 70
     1
102
RTVSPropertyOp32
 70
     1
102
RTVSPropertyOp33
 70
     1
102
RTVSPropertyOp34
 70
     1
102
RTVSPropertyOp35
 70
     1
102
RTVSPropertyOp36
 70
     1
102
RTVSPropertyOp37
 70
     1
102
RTVSPropertyOp38
 70
     1
102
RTVSPropertyOp39
 70
     1
102
RTVSPropertyOp40
 70
     1
102
RTVSPropertyOp41
 70
     1
102
RTVSPropertyOp42
 70
     1
102
RTVSPropertyOp43
 70
     1
102
RTVSPropertyOp44
 70
     1
102
RTVSPropertyOp45
 70
     1
102
RTVSPropertyOp46
 70
     1
102
RTVSPropertyOp47
 70
     1
102
RTVSPropertyOp48
 70
     1
102
RTVSPropertyOp49
 70
     1
102
RTVSPropertyOp50
 70
     1
102
RTVSPropertyOp51
 70
     0
102
RTVSPropertyOp52
 70
     0
102
RTVSPropertyOp53
 70
     1
102
RTVSPropertyOp54
 70
     1
102
RTVSPropertyOp55
 70
     1
102
RTVSPropertyOp56
 70
     1
102
RTVSPropertyOp57
 70
     1
102
RTVSPropertyOp58
 70
     1
102
RTVSPropertyOp59
 70
     1
102
RTVSPropertyOp60
 70
     1
102
RTVSPropertyOp61
 70
     1
102
RTVSPropertyOp62
 70
     1
  0
XRECORD
  5
1C8CDE6AC8B6
102
{ACAD_REACTORS
330
1C8CDE6AC8B5
102
}
330
1C8CDE6AC8B5
100
AcDbXrecord
280
     1
102
RTVSPost2010Prop28
280
     0
102
RTVSPost2010PropOp28
 70
     1
102
RTVSPost2010Prop29
280
     1
102
RTVSPost2010PropOp29
 70
     1
102
RTVSPost2010Prop30
280
     1
102
RTVSPost2010PropOp30
 70
     1
102
RTVSPost2010Prop31
280
     0
102
RTVSPost2010PropOp31
 70
     1
102
RTVSPost2010Prop32
280
     0
102
RTVSPost2010PropOp32
 70
     1
102
RTVSPost2010Prop33
280
     0
102
RTVSPost2010PropOp33
 70
     1
102
RTVSPost2010Prop34
280
     0
102
RTVSPost2010PropOp34
 70
     1
102
RTVSPost2010Prop35
280
     0
102
RTVSPost2010PropOp35
 70
     1
102
RTVSPost2010Prop36
280
     0
102
RTVSPost2010PropOp36
 70
     1
102
RTVSPost2010Prop37
 90
       50
102
RTVSPost2010PropOp37
 70
     1
102
RTVSPost2010Prop38
140
0.0
102
RTVSPost2010PropOp38
 70
     1
102
RTVSPost2010Prop39
140
1.0
102
RTVSPost2010PropOp39
 70
     1
102
RTVSPost2010Prop40
 90
        0
102
RTVSPost2010PropOp40
 70
     1
102
RTVSPost2010Prop41ColorIndex
 90
       18
102
RTVSPost2010Prop41ColorRGB
 90
        0
102
RTVSPost2010PropOp41
 70
     1
102
RTVSPost2010Prop42
 90
       50
102
RTVSPost2010PropOp42
 70
     1
102
RTVSPost2010Prop43
 90
        3
102
RTVSPost2010PropOp43
 70
     1
102
RTVSPost2010Prop44ColorIndex
 90
        5
102
RTVSPost2010Prop44ColorRGB
 90
      255
102
RTVSPost2010PropOp44
 70
     1
102
RTVSPost2010Prop45
280
     0
102
RTVSPost2010PropOp45
 70
     1
102
RTVSPost2010Prop46
 90
       50
102
RTVSPost2010PropOp46
 70
     1
102
RTVSPost2010Prop47
 90
       50
102
RTVSPost2010PropOp47
 70
     1
102
RTVSPost2010Prop48
 90
       50
102
RTVSPost2010PropOp48
 70
     1
102
RTVSPost2010Prop49
280
     0
102
RTVSPost2010PropOp49
 70
     1
102
RTVSPost2010Prop50
 90
       50
102
RTVSPost2010PropOp50
 70
     1
102
RTVSPost2010Prop51ColorIndex
 90
      256
102
RTVSPost2010Prop51ColorRGB
 90
-16777216
102
RTVSPost2010PropOp51
 70
     0
102
RTVSPost2010Prop52
140
1.0
102
RTVSPost2010PropOp52
 70
     0
102
RTVSPost2010Prop53
 90
        2
102
RTVSPost2010PropOp53
 70
     1
102
RTVSPost2010Prop54
  1
strokes_ogs.tif
102
RTVSPost2010PropOp54
 70
     1
102
RTVSPost2010Prop55
280
     0
102
RTVSPost2010PropOp55
 70
     1
102
RTVSPost2010Prop56
140
1.0
102
RTVSPost2010PropOp56
 70
     1
102
RTVSPost2010Prop57
140
1.0
102
RTVSPost2010PropOp57
 70
     1
102
RTVSPropertyOp0
 70
     1
102
RTVSPropertyOp1
 70
     1
102
RTVSPropertyOp2
 70
     1
102
RTVSPropertyOp3
 70
     1
102
RTVSPropertyOp4
 70
     1
102
RTVSPropertyOp5
 70
     1
102
RTVSPropertyOp6
 70
     1
102
RTVSPropertyOp7
 70
     1
102
RTVSPropertyOp8
 70
     1
102
RTVSPropertyOp9
 70
     1
102
RTVSPropertyOp10
 70
     1
102
RTVSPropertyOp11
 70
     1
102
RTVSPropertyOp12
 70
     1
102
RTVSPropertyOp13
 70
     1
102
RTVSPropertyOp14
 70
     1
102
RTVSPropertyOp15
 70
     1
102
RTVSPropertyOp16
 70
     1
102
RTVSPropertyOp17
 70
     1
102
RTVSPropertyOp18
 70
     1
102
RTVSPropertyOp19
 70
     1
102
RTVSPropertyOp20
 70
     1
102
RTVSPropertyOp21
 70
     1
102
RTVSPropertyOp22
 70
     1
102
RTVSPropertyOp23
 70
     1
102
RTVSPropertyOp24
 70
     1
102
RTVSPropertyOp25
 70
     1
102
RTVSPropertyOp26
 70
     1
102
RTVSPropertyOp27
 70
     1
102
RTVSPropertyOp28
 70
     1
102
RTVSPropertyOp29
 70
     1
102
RTVSPropertyOp30
 70
     1
102
RTVSPropertyOp31
 70
     1
102
RTVSPropertyOp32
 70
     1
102
RTVSPropertyOp33
 70
     1
102
RTVSPropertyOp34
 70
     1
102
RTVSPropertyOp35
 70
     1
102
RTVSPropertyOp36
 70
     1
102
RTVSPropertyOp37
 70
     1
102
RTVSPropertyOp38
 70
     1
102
RTVSPropertyOp39
 70
     1
102
RTVSPropertyOp40
 70
     1
102
RTVSPropertyOp41
 70
     1
102
RTVSPropertyOp42
 70
     1
102
RTVSPropertyOp43
 70
     1
102
RTVSPropertyOp44
 70
     1
102
RTVSPropertyOp45
 70
     1
102
RTVSPropertyOp46
 70
     1
102
RTVSPropertyOp47
 70
     1
102
RTVSPropertyOp48
 70
     1
102
RTVSPropertyOp49
 70
     1
102
RTVSPropertyOp50
 70
     1
102
RTVSPropertyOp51
 70
     0
102
RTVSPropertyOp52
 70
     0
102
RTVSPropertyOp53
 70
     1
102
RTVSPropertyOp54
 70
     1
102
RTVSPropertyOp55
 70
     1
102
RTVSPropertyOp56
 70
     1
102
RTVSPropertyOp57
 70
     1
102
RTVSPropertyOp58
 70
     1
102
RTVSPropertyOp59
 70
     1
102
RTVSPropertyOp60
 70
     1
102
RTVSPropertyOp61
 70
     1
102
RTVSPropertyOp62
 70
     1
  0
XRECORD
  5
1C8CDE6AC8D6
102
{ACAD_REACTORS
330
1C8CDE6AC8D5
102
}
330
1C8CDE6AC8D5
100
AcDbXrecord
280
     1
102
RTVSPost2010Prop28
280
     0
102
RTVSPost2010PropOp28
 70
     1
102
RTVSPost2010Prop29
280
     1
102
RTVSPost2010PropOp29
 70
     1
102
RTVSPost2010Prop30
280
     1
102
RTVSPost2010PropOp30
 70
     1
102
RTVSPost2010Prop31
280
     0
102
RTVSPost2010PropOp31
 70
     1
102
RTVSPost2010Prop32
280
     0
102
RTVSPost2010PropOp32
 70
     1
102
RTVSPost2010Prop33
280
     0
102
RTVSPost2010PropOp33
 70
     1
102
RTVSPost2010Prop34
280
     0
102
RTVSPost2010PropOp34
 70
     1
102
RTVSPost2010Prop35
280
     0
102
RTVSPost2010PropOp35
 70
     1
102
RTVSPost2010Prop36
280
     0
102
RTVSPost2010PropOp36
 70
     1
102
RTVSPost2010Prop37
 90
       50
102
RTVSPost2010PropOp37
 70
     1
102
RTVSPost2010Prop38
140
0.0
102
RTVSPost2010PropOp38
 70
     1
102
RTVSPost2010Prop39
140
1.0
102
RTVSPost2010PropOp39
 70
     1
102
RTVSPost2010Prop40
 90
        0
102
RTVSPost2010PropOp40
 70
     1
102
RTVSPost2010Prop41ColorIndex
 90
       18
102
RTVSPost2010Prop41ColorRGB
 90
        0
102
RTVSPost2010PropOp41
 70
     1
102
RTVSPost2010Prop42
 90
       50
102
RTVSPost2010PropOp42
 70
     1
102
RTVSPost2010Prop43
 90
        3
102
RTVSPost2010PropOp43
 70
     1
102
RTVSPost2010Prop44ColorIndex
 90
        5
102
RTVSPost2010Prop44ColorRGB
 90
      255
102
RTVSPost2010PropOp44
 70
     1
102
RTVSPost2010Prop45
280
     0
102
RTVSPost2010PropOp45
 70
     1
102
RTVSPost2010Prop46
 90
       50
102
RTVSPost2010PropOp46
 70
     1
102
RTVSPost2010Prop47
 90
       50
102
RTVSPost2010PropOp47
 70
     1
102
RTVSPost2010Prop48
 90
       50
102
RTVSPost2010PropOp48
 70
     1
102
RTVSPost2010Prop49
280
     0
102
RTVSPost2010PropOp49
 70
     1
102
RTVSPost2010Prop50
 90
       50
102
RTVSPost2010PropOp50
 70
     1
102
RTVSPost2010Prop51ColorIndex
 90
      256
102
RTVSPost2010Prop51ColorRGB
 90
-16777216
102
RTVSPost2010PropOp51
 70
     0
102
RTVSPost2010Prop52
140
1.0
102
RTVSPost2010PropOp52
 70
     0
102
RTVSPost2010Prop53
 90
        2
102
RTVSPost2010PropOp53
 70
     1
102
RTVSPost2010Prop54
  1
strokes_ogs.tif
102
RTVSPost2010PropOp54
 70
     1
102
RTVSPost2010Prop55
280
     0
102
RTVSPost2010PropOp55
 70
     1
102
RTVSPost2010Prop56
140
1.0
102
RTVSPost2010PropOp56
 70
     1
102
RTVSPost2010Prop57
140
1.0
102
RTVSPost2010PropOp57
 70
     1
102
RTVSPropertyOp0
 70
     1
102
RTVSPropertyOp1
 70
     1
102
RTVSPropertyOp2
 70
     1
102
RTVSPropertyOp3
 70
     1
102
RTVSPropertyOp4
 70
     1
102
RTVSPropertyOp5
 70
     1
102
RTVSPropertyOp6
 70
     1
102
RTVSPropertyOp7
 70
     1
102
RTVSPropertyOp8
 70
     1
102
RTVSPropertyOp9
 70
     1
102
RTVSPropertyOp10
 70
     1
102
RTVSPropertyOp11
 70
     1
102
RTVSPropertyOp12
 70
     1
102
RTVSPropertyOp13
 70
     1
102
RTVSPropertyOp14
 70
     1
102
RTVSPropertyOp15
 70
     1
102
RTVSPropertyOp16
 70
     1
102
RTVSPropertyOp17
 70
     1
102
RTVSPropertyOp18
 70
     1
102
RTVSPropertyOp19
 70
     1
102
RTVSPropertyOp20
 70
     1
102
RTVSPropertyOp21
 70
     1
102
RTVSPropertyOp22
 70
     1
102
RTVSPropertyOp23
 70
     1
102
RTVSPropertyOp24
 70
     1
102
RTVSPropertyOp25
 70
     1
102
RTVSPropertyOp26
 70
     1
102
RTVSPropertyOp27
 70
     1
102
RTVSPropertyOp28
 70
     1
102
RTVSPropertyOp29
 70
     1
102
RTVSPropertyOp30
 70
     1
102
RTVSPropertyOp31
 70
     1
102
RTVSPropertyOp32
 70
     1
102
RTVSPropertyOp33
 70
     1
102
RTVSPropertyOp34
 70
     1
102
RTVSPropertyOp35
 70
     1
102
RTVSPropertyOp36
 70
     1
102
RTVSPropertyOp37
 70
     1
102
RTVSPropertyOp38
 70
     1
102
RTVSPropertyOp39
 70
     1
102
RTVSPropertyOp40
 70
     1
102
RTVSPropertyOp41
 70
     1
102
RTVSPropertyOp42
 70
     1
102
RTVSPropertyOp43
 70
     1
102
RTVSPropertyOp44
 70
     1
102
RTVSPropertyOp45
 70
     1
102
RTVSPropertyOp46
 70
     1
102
RTVSPropertyOp47
 70
     1
102
RTVSPropertyOp48
 70
     1
102
RTVSPropertyOp49
 70
     1
102
RTVSPropertyOp50
 70
     1
102
RTVSPropertyOp51
 70
     0
102
RTVSPropertyOp52
 70
     0
102
RTVSPropertyOp53
 70
     1
102
RTVSPropertyOp54
 70
     1
102
RTVSPropertyOp55
 70
     1
102
RTVSPropertyOp56
 70
     1
102
RTVSPropertyOp57
 70
     1
102
RTVSPropertyOp58
 70
     1
102
RTVSPropertyOp59
 70
     1
102
RTVSPropertyOp60
 70
     1
102
RTVSPropertyOp61
 70
     1
102
RTVSPropertyOp62
 70
     1
  0
ENDSEC
  0
EOF
