  0
SECTION
  2
HEADER
  9
$ACADVER
  1
AC1018
  9
$ACADMAINTVER
 70
    39
  9
$DWGCODEPAGE
  3
ANSI_932
  9
$INSBASE
 10
0.0
 20
0.0
 30
0.0
  9
$EXTMIN
 10
-0.1281640493871237
 20
-0.0906302920675444
 30
-0.0015258207003583
  9
$EXTMAX
 10
3700.250253337727
 20
2670.081488499512
 30
0.0000000349246037
  9
$LIMMIN
 10
0.0
 20
0.0
  9
$LIMMAX
 10
4200.0
 20
2970.0
  9
$ORTHOMODE
 70
     1
  9
$REGENMODE
 70
     1
  9
$FILLMODE
 70
     1
  9
$QTEXTMODE
 70
     0
  9
$MIRRTEXT
 70
     0
  9
$LTSCALE
 40
100.0
  9
$ATTMODE
 70
     1
  9
$TEXTSIZE
 40
30.0
  9
$TRACEWID
 40
0.05
  9
$TEXTSTYLE
  7
EXT08
  9
$CLAYER
  8
SJC
  9
$CELTYPE
  6
BYLAYER
  9
$CECOLOR
 62
   256
  9
$CELTSCALE
 40
1.0
  9
$DISPSILH
 70
     0
  9
$DIMSCALE
 40
10.0
  9
$DIMASZ
 40
2.0
  9
$DIMEXO
 40
1.0
  9
$DIMDLI
 40
6.0
  9
$DIMRND
 40
0.0
  9
$DIMDLE
 40
0.0
  9
$DIMEXE
 40
1.0
  9
$DIMTP
 40
0.0
  9
$DIMTM
 40
0.0
  9
$DIMTXT
 40
3.0
  9
$DIMCEN
 40
0.09
  9
$DIMTSZ
 40
0.0
  9
$DIMTOL
 70
     0
  9
$DIMLIM
 70
     0
  9
$DIMTIH
 70
     0
  9
$DIMTOH
 70
     0
  9
$DIMSE1
 70
     0
  9
$DIMSE2
 70
     0
  9
$DIMTAD
 70
     1
  9
$DIMZIN
 70
     8
  9
$DIMBLK
  1

  9
$DIMASO
 70
     1
  9
$DIMSHO
 70
     1
  9
$DIMPOST
  1

  9
$DIMAPOST
  1

  9
$DIMALT
 70
     0
  9
$DIMALTD
 70
     2
  9
$DIMALTF
 40
25.4
  9
$DIMLFAC
 40
1.0
  9
$DIMTOFL
 70
     1
  9
$DIMTVP
 40
0.0
  9
$DIMTIX
 70
     0
  9
$DIMSOXD
 70
     0
  9
$DIMSAH
 70
     0
  9
$DIMBLK1
  1

  9
$DIMBLK2
  1

  9
$DIMSTYLE
  2
SJC
  9
$DIMCLRD
 70
   256
  9
$DIMCLRE
 70
   256
  9
$DIMCLRT
 70
   256
  9
$DIMTFAC
 40
1.0
  9
$DIMGAP
 40
1.199999999999999
  9
$DIMJUST
 70
     0
  9
$DIMSD1
 70
     0
  9
$DIMSD2
 70
     0
  9
$DIMTOLJ
 70
     1
  9
$DIMTZIN
 70
     0
  9
$DIMALTZ
 70
     0
  9
$DIMALTTZ
 70
     0
  9
$DIMUPT
 70
     0
  9
$DIMDEC
 70
     2
  9
$DIMTDEC
 70
     4
  9
$DIMALTU
 70
     2
  9
$DIMALTTD
 70
     2
  9
$DIMTXSTY
  7
EXT08
  9
$DIMAUNIT
 70
     0
  9
$DIMADEC
 70
     0
  9
$DIMALTRND
 40
0.0
  9
$DIMAZIN
 70
     0
  9
$DIMDSEP
 70
    46
  9
$DIMATFIT
 70
     3
  9
$DIMFRAC
 70
     0
  9
$DIMLDRBLK
  1

  9
$DIMLUNIT
 70
     2
  9
$DIMLWD
 70
    -2
  9
$DIMLWE
 70
    -2
  9
$DIMTMOVE
 70
     2
  9
$LUNITS
 70
     2
  9
$LUPREC
 70
     2
  9
$SKETCHINC
 40
0.1
  9
$FILLETRAD
 40
0.0
  9
$AUNITS
 70
     1
  9
$AUPREC
 70
     2
  9
$MENU
  1
C:\r13\win\SUPPORT\sjc
  9
$ELEVATION
 40
0.0
  9
$PELEVATION
 40
0.0
  9
$THICKNESS
 40
0.0
  9
$LIMCHECK
 70
     0
  9
$CHAMFERA
 40
0.0
  9
$CHAMFERB
 40
0.0
  9
$CHAMFERC
 40
0.0
  9
$CHAMFERD
 40
0.0
  9
$SKPOLY
 70
     0
  9
$TDCREATE
 40
2449345.113256482
  9
$TDUCREATE
 40
2449344.738256482
  9
$TDUPDATE
 40
2453858.700109039
  9
$TDUUPDATE
 40
2453858.325109040
  9
$TDINDWG
 40
0.0878561574
  9
$TDUSRTIMER
 40
0.0878561574
  9
$USRTIMER
 70
     1
  9
$ANGBASE
 50
0.0
  9
$ANGDIR
 70
     0
  9
$PDMODE
 70
     0
  9
$PDSIZE
 40
0.0
  9
$PLINEWID
 40
0.0
  9
$SPLFRAME
 70
     0
  9
$SPLINETYPE
 70
     6
  9
$SPLINESEGS
 70
     8
  9
$HANDSEED
  5
D2A
  9
$SURFTAB1
 70
     6
  9
$SURFTAB2
 70
     6
  9
$SURFTYPE
 70
     6
  9
$SURFU
 70
     6
  9
$SURFV
 70
     6
  9
$UCSBASE
  2

  9
$UCSNAME
  2

  9
$UCSORG
 10
0.0
 20
0.0
 30
0.0
  9
$UCSXDIR
 10
1.0
 20
0.0
 30
0.0
  9
$UCSYDIR
 10
0.0
 20
1.0
 30
0.0
  9
$UCSORTHOREF
  2

  9
$UCSORTHOVIEW
 70
     0
  9
$UCSORGTOP
 10
0.0
 20
0.0
 30
0.0
  9
$UCSORGBOTTOM
 10
0.0
 20
0.0
 30
0.0
  9
$UCSORGLEFT
 10
0.0
 20
0.0
 30
0.0
  9
$UCSORGRIGHT
 10
0.0
 20
0.0
 30
0.0
  9
$UCSORGFRONT
 10
0.0
 20
0.0
 30
0.0
  9
$UCSORGBACK
 10
0.0
 20
0.0
 30
0.0
  9
$PUCSBASE
  2

  9
$PUCSNAME
  2

  9
$PUCSORG
 10
0.0
 20
0.0
 30
0.0
  9
$PUCSXDIR
 10
1.0
 20
0.0
 30
0.0
  9
$PUCSYDIR
 10
0.0
 20
1.0
 30
0.0
  9
$PUCSORTHOREF
  2

  9
$PUCSORTHOVIEW
 70
     0
  9
$PUCSORGTOP
 10
0.0
 20
0.0
 30
0.0
  9
$PUCSORGBOTTOM
 10
0.0
 20
0.0
 30
0.0
  9
$PUCSORGLEFT
 10
0.0
 20
0.0
 30
0.0
  9
$PUCSORGRIGHT
 10
0.0
 20
0.0
 30
0.0
  9
$PUCSORGFRONT
 10
0.0
 20
0.0
 30
0.0
  9
$PUCSORGBACK
 10
0.0
 20
0.0
 30
0.0
  9
$USERI1
 70
     3
  9
$USERI2
 70
    10
  9
$USERI3
 70
     0
  9
$USERI4
 70
     0
  9
$USERI5
 70
     0
  9
$USERR1
 40
0.0
  9
$USERR2
 40
0.0
  9
$USERR3
 40
0.0
  9
$USERR4
 40
0.0
  9
$USERR5
 40
0.0
  9
$WORLDVIEW
 70
     1
  9
$SHADEDGE
 70
     3
  9
$SHADEDIF
 70
    70
  9
$TILEMODE
 70
     1
  9
$MAXACTVP
 70
    16
  9
$PINSBASE
 10
0.0
 20
0.0
 30
0.0
  9
$PLIMCHECK
 70
     0
  9
$PEXTMIN
 10
1.000000000000000E+20
 20
1.000000000000000E+20
 30
1.000000000000000E+20
  9
$PEXTMAX
 10
-1.000000000000000E+20
 20
-1.000000000000000E+20
 30
-1.000000000000000E+20
  9
$PLIMMIN
 10
0.0
 20
0.0
  9
$PLIMMAX
 10
12.0
 20
9.0
  9
$UNITMODE
 70
     0
  9
$VISRETAIN
 70
     0
  9
$PLINEGEN
 70
     0
  9
$PSLTSCALE
 70
     1
  9
$TREEDEPTH
 70
  3020
  9
$CMLSTYLE
  2
STANDARD
  9
$CMLJUST
 70
     0
  9
$CMLSCALE
 40
1.0
  9
$PROXYGRAPHICS
 70
     1
  9
$MEASUREMENT
 70
     0
  9
$CELWEIGHT
370
    -1
  9
$ENDCAPS
280
     0
  9
$JOINSTYLE
280
     0
  9
$LWDISPLAY
290
     0
  9
$INSUNITS
 70
     0
  9
$HYPERLINKBASE
  1

  9
$STYLESHEET
  1
CALCOMP_TECHJET720.CTB
  9
$XEDIT
290
     1
  9
$CEPSNTYPE
380
     0
  9
$PSTYLEMODE
290
     1
  9
$FINGERPRINTGUID
  2
{CFB3231E-014B-414B-9D90-9A1DD6202D76}
  9
$VERSIONGUID
  2
{642BFD9C-7047-4194-B383-3F908AA14AC4}
  9
$EXTNAMES
290
     1
  9
$PSVPSCALE
 40
0.0
  9
$OLESTARTUP
290
     0
  9
$SORTENTS
280
   127
  9
$INDEXCTL
280
     0
  9
$HIDETEXT
280
     0
  9
$XCLIPFRAME
290
     0
  9
$HALOGAP
280
     0
  9
$OBSCOLOR
 70
   257
  9
$OBSLTYPE
280
     0
  9
$INTERSECTIONDISPLAY
280
     0
  9
$INTERSECTIONCOLOR
 70
   257
  9
$DIMASSOC
280
     1
  9
$PROJECTNAME
  1

  0
ENDSEC
  0
SECTION
  2
CLASSES
  0
CLASS
  1
ACDBDICTIONARYWDFLT
  2
AcDbDictionaryWithDefault
  3
ObjectDBX Classes
 90
        0
 91
        1
280
     0
281
     0
  0
CLASS
  1
TABLESTYLE
  2
AcDbTableStyle
  3
ObjectDBX Classes
 90
     2047
 91
        1
280
     0
281
     0
  0
CLASS
  1
DICTIONARYVAR
  2
AcDbDictionaryVar
  3
ObjectDBX Classes
 90
        0
 91
        1
280
     0
281
     0
  0
ENDSEC
  0
SECTION
  2
TABLES
  0
TABLE
  2
VPORT
  5
8
330
0
100
AcDbSymbolTable
 70
     2
  0
VPORT
  5
D29
330
8
100
AcDbSymbolTableRecord
100
AcDbViewportTableRecord
  2
*Active
 70
     0
 10
0.0
 20
0.0
 11
1.0
 21
1.0
 12
2099.935917975306
 22
1484.954684853966
 13
0.0
 23
0.0
 14
10.0
 24
10.0
 15
0.0
 25
0.0
 16
0.0
 26
0.0
 36
1.0
 17
0.0
 27
0.0
 37
0.0
 40
2992.14575873483
 41
1.560099132589838
 42
50.0
 43
0.0
 44
0.0
 50
0.0
 51
0.0
 71
     0
 72
 10000
 73
     1
 74
     1
 75
     0
 76
     0
 77
     0
 78
     0
281
     0
 65
     1
110
0.0
120
0.0
130
0.0
111
1.0
121
0.0
131
0.0
112
0.0
122
1.0
132
0.0
 79
     0
146
0.0
  0
ENDTAB
  0
TABLE
  2
LTYPE
  5
5
330
0
100
AcDbSymbolTable
 70
     5
  0
LTYPE
  5
12
330
5
100
AcDbSymbolTableRecord
100
AcDbLinetypeTableRecord
  2
BYBLOCK
 70
     0
  3

 72
    65
 73
     0
 40
0.0
  0
LTYPE
  5
13
330
5
100
AcDbSymbolTableRecord
100
AcDbLinetypeTableRecord
  2
BYLAYER
 70
     0
  3

 72
    65
 73
     0
 40
0.0
  0
LTYPE
  5
14
330
5
100
AcDbSymbolTableRecord
100
AcDbLinetypeTableRecord
  2
CONTINUOUS
 70
     0
  3
Solid line
 72
    65
 73
     0
 40
0.0
  0
LTYPE
  5
28
330
5
100
AcDbSymbolTableRecord
100
AcDbLinetypeTableRecord
  2
CENTER
 70
     0
  3
____ _ ____ _ ____ _ ____ _ ____ _ ____ _ ____ 
 72
    65
 73
     4
 40
2.0
 49
1.25
 74
     0
 49
-0.25
 74
     0
 49
0.25
 74
     0
 49
-0.25
 74
     0
  0
LTYPE
  5
29
330
5
100
AcDbSymbolTableRecord
100
AcDbLinetypeTableRecord
  2
HIDDEN
 70
     0
  3
__ __ __ __ __ __ __ __ __ __ __ __ __ __ __ __
 72
    65
 73
     2
 40
0.375
 49
0.25
 74
     0
 49
-0.125
 74
     0
  0
LTYPE
  5
2A
330
5
100
AcDbSymbolTableRecord
100
AcDbLinetypeTableRecord
  2
HIDDEN2
 70
     0
  3
_ _ _ _ _ _ _ _ _ _ _ _ _ _ _ _ _ _ _ _ _ _ _ _
 72
    65
 73
     2
 40
0.1875
 49
0.125
 74
     0
 49
-0.0625
 74
     0
  0
LTYPE
  5
2B
330
5
100
AcDbSymbolTableRecord
100
AcDbLinetypeTableRecord
  2
PHANTOM
 70
     0
  3
______  __  __  ______  __  __  ______  __  __ 
 72
    65
 73
     6
 40
2.5
 49
1.25
 74
     0
 49
-0.25
 74
     0
 49
0.25
 74
     0
 49
-0.25
 74
     0
 49
0.25
 74
     0
 49
-0.25
 74
     0
  0
ENDTAB
  0
TABLE
  2
LAYER
  5
2
330
0
100
AcDbSymbolTable
 70
    15
  0
LAYER
  5
F
330
2
100
AcDbSymbolTableRecord
100
AcDbLayerTableRecord
  2
0
 70
     0
 62
     7
  6
CONTINUOUS
370
    -3
390
D16
  0
LAYER
  5
32
330
2
100
AcDbSymbolTableRecord
100
AcDbLayerTableRecord
  2
CENTER
 70
     0
 62
     3
  6
CENTER
370
    -3
390
D16
  0
LAYER
  5
33
330
2
100
AcDbSymbolTableRecord
100
AcDbLayerTableRecord
  2
HASEN
 70
     0
 62
     7
  6
HIDDEN
370
    -3
390
D16
  0
LAYER
  5
34
330
2
100
AcDbSymbolTableRecord
100
AcDbLayerTableRecord
  2
HOJO
 70
     0
 62
     8
  6
CONTINUOUS
370
    -3
390
D16
  0
LAYER
  5
35
330
2
100
AcDbSymbolTableRecord
100
AcDbLayerTableRecord
  2
KASOU
 70
     0
 62
     2
  6
PHANTOM
370
    -3
390
D16
  0
LAYER
  5
36
330
2
100
AcDbSymbolTableRecord
100
AcDbLayerTableRecord
  2
MOJI
 70
     0
 62
     6
  6
CONTINUOUS
370
    -3
390
D16
  0
LAYER
  5
37
330
2
100
AcDbSymbolTableRecord
100
AcDbLayerTableRecord
  2
SJC
 70
     0
 62
     1
  6
CONTINUOUS
370
    -3
390
D16
  0
LAYER
  5
38
330
2
100
AcDbSymbolTableRecord
100
AcDbLayerTableRecord
  2
SUNPOU
 70
     0
 62
     4
  6
CONTINUOUS
370
    -3
390
D16
  0
LAYER
  5
39
330
2
100
AcDbSymbolTableRecord
100
AcDbLayerTableRecord
  2
WAKU
 70
     0
 62
    -5
  6
CONTINUOUS
370
    -3
390
D16
  0
LAYER
  5
3A
330
2
100
AcDbSymbolTableRecord
100
AcDbLayerTableRecord
  2
DEFPOINTS
 70
     0
 62
     7
  6
CONTINUOUS
290
     0
370
    -3
390
D16
  0
LAYER
  5
36B
330
2
100
AcDbSymbolTableRecord
100
AcDbLayerTableRecord
  2
SJC2
 70
     0
 62
     7
  6
CONTINUOUS
370
    -3
390
D16
  0
LAYER
  5
36C
330
2
100
AcDbSymbolTableRecord
100
AcDbLayerTableRecord
  2
MOJI2
 70
     0
 62
     1
  6
CONTINUOUS
370
    -3
390
D16
  0
LAYER
  5
36D
330
2
100
AcDbSymbolTableRecord
100
AcDbLayerTableRecord
  2
HATCH
 70
     0
 62
     2
  6
CONTINUOUS
370
    -3
390
D16
  0
LAYER
  5
36E
330
2
100
AcDbSymbolTableRecord
100
AcDbLayerTableRecord
  2
ZWAKU
 70
     0
 62
    -7
  6
CONTINUOUS
370
    -3
390
D16
  0
LAYER
  5
36F
330
2
100
AcDbSymbolTableRecord
100
AcDbLayerTableRecord
  2
INFORMATION
 70
     1
 62
     7
  6
CONTINUOUS
370
    -3
390
D16
  0
ENDTAB
  0
TABLE
  2
STYLE
  5
3
330
0
100
AcDbSymbolTable
 70
    10
  0
STYLE
  5
10
330
3
100
AcDbSymbolTableRecord
100
AcDbTextStyleTableRecord
  2
STANDARD
 70
     0
 40
0.0
 41
1.0
 50
0.0
 71
     0
 42
30.0
  3
TXT
  4
BIGFONT
  0
STYLE
  5
26
330
3
100
AcDbSymbolTableRecord
100
AcDbTextStyleTableRecord
  2
USER
 70
     0
 40
0.0
 41
1.0
 50
0.0
 71
     0
 42
30.0
  3
TXT
  4
BIGFONT
  0
STYLE
  5
27
330
3
100
AcDbSymbolTableRecord
100
AcDbTextStyleTableRecord
  2
TEXT3030
 70
     0
 40
30.0
 41
1.0
 50
0.0
 71
     0
 42
30.0
  3
TXT
  4
BIGFONT
  0
STYLE
  5
370
330
3
100
AcDbSymbolTableRecord
100
AcDbTextStyleTableRecord
  2
KANJI
 70
     0
 40
0.0
 41
1.0
 50
0.0
 71
     0
 42
30.0
  3
ROMANS.SHX
  4
BIGFONT.SHX
  0
STYLE
  5
371
330
3
100
AcDbSymbolTableRecord
100
AcDbTextStyleTableRecord
  2
SIMPLEX
 70
     0
 40
0.0
 41
1.0
 50
0.0
 71
     0
 42
30.0
  3
SCRIPTS.SHX
  4

  0
STYLE
  5
372
330
3
100
AcDbSymbolTableRecord
100
AcDbTextStyleTableRecord
  2
TATEEXT
 70
     4
 40
0.0
 41
1.0
 50
0.0
 71
     0
 42
30.0
  3
ROMANS
  4
EXTFONT
  0
STYLE
  5
373
330
3
100
AcDbSymbolTableRecord
100
AcDbTextStyleTableRecord
  2
TATEBIG
 70
     4
 40
0.0
 41
5.0
 50
0.0
 71
     0
 42
30.0
  3
ROMANS
  4
BIGFONT
  0
STYLE
  5
374
330
3
100
AcDbSymbolTableRecord
100
AcDbTextStyleTableRecord
  2
EXT08
 70
     0
 40
0.0
 41
0.8
 50
0.0
 71
     0
 42
30.0
  3
ROMANS
  4
EXTFONT
  0
STYLE
  5
375
330
3
100
AcDbSymbolTableRecord
100
AcDbTextStyleTableRecord
  2
EXT
 70
     0
 40
0.0
 41
1.0
 50
0.0
 71
     0
 42
30.0
  3
ROMANS
  4
EXTFONT
  0
STYLE
  5
376
330
3
100
AcDbSymbolTableRecord
100
AcDbTextStyleTableRecord
  2
KANJI08
 70
     0
 40
0.0
 41
0.8
 50
0.0
 71
     0
 42
30.0
  3
ROMANS
  4
BIGFONT
  0
ENDTAB
  0
TABLE
  2
VIEW
  5
6
330
0
100
AcDbSymbolTable
 70
     0
  0
ENDTAB
  0
TABLE
  2
UCS
  5
7
330
0
100
AcDbSymbolTable
 70
     0
  0
ENDTAB
  0
TABLE
  2
APPID
  5
9
330
0
100
AcDbSymbolTable
 70
     2
  0
APPID
  5
11
330
9
100
AcDbSymbolTableRecord
100
AcDbRegAppTableRecord
  2
ACAD
 70
     0
  0
APPID
  5
D26
330
9
100
AcDbSymbolTableRecord
100
AcDbRegAppTableRecord
  2
ACAD_PSEXT
 70
     0
  0
ENDTAB
  0
TABLE
  2
DIMSTYLE
  5
A
330
0
100
AcDbSymbolTable
 70
     5
100
AcDbDimStyleTable
 71
     0
  0
DIMSTYLE
105
2E
330
A
100
AcDbSymbolTableRecord
100
AcDbDimStyleTableRecord
  2
S01-10AX
 70
     0
 41
20.0
 44
10.0
 73
     0
 74
     0
 77
     1
 78
     8
140
30.0
146
0.006
172
     1
174
     1
279
     2
284
     8
285
     8
286
     8
340
27
  0
DIMSTYLE
105
6A9
102
{ACAD_REACTORS
330
32B
330
32C
330
331
330
34A
330
34D
330
7FD
102
}
330
A
100
AcDbSymbolTableRecord
100
AcDbDimStyleTableRecord
  2
SJC
 70
     0
 41
2.0
 42
1.0
 43
6.0
 44
1.0
 73
     0
 74
     0
 77
     1
 78
     8
140
3.0
147
1.5
172
     1
174
     1
176
   256
177
   256
178
   256
271
     1
275
     1
279
     2
340
370
  0
DIMSTYLE
105
954
330
A
100
AcDbSymbolTableRecord
100
AcDbDimStyleTableRecord
  2
STANDARD
 70
     0
340
10
  0
DIMSTYLE
105
AC3
330
A
100
AcDbSymbolTableRecord
100
AcDbDimStyleTableRecord
  2
RUISEKI1
 70
     0
 40
10.0
 41
2.0
 42
1.0
 43
6.0
 44
30.0
 73
     0
 74
     0
 77
     1
 78
     8
140
3.0
147
1.5
172
     1
173
     1
176
   256
177
   256
178
   256
271
     2
275
     1
279
     2
340
374
  0
DIMSTYLE
105
AC4
330
A
100
AcDbSymbolTableRecord
100
AcDbDimStyleTableRecord
  2
RUISEKI2
 70
     0
 40
10.0
 41
2.0
 42
1.0
 43
6.0
 44
30.0
 73
     0
 74
     0
 77
     1
 78
     8
140
3.0
147
1.5
172
     1
173
     1
176
   256
177
   256
178
   256
271
     2
275
     1
279
     2
340
374
  0
ENDTAB
  0
TABLE
  2
BLOCK_RECORD
  5
1
330
0
100
AcDbSymbolTable
 70
    12
  0
BLOCK_RECORD
  5
18
330
1
100
AcDbSymbolTableRecord
100
AcDbBlockTableRecord
  2
*MODEL_SPACE
340
D1D
  0
BLOCK_RECORD
  5
15
330
1
100
AcDbSymbolTableRecord
100
AcDbBlockTableRecord
  2
*PAPER_SPACE
340
D1E
  0
BLOCK_RECORD
  5
69D
330
1
100
AcDbSymbolTableRecord
100
AcDbBlockTableRecord
  2
*D0
340
0
  0
BLOCK_RECORD
  5
6B6
330
1
100
AcDbSymbolTableRecord
100
AcDbBlockTableRecord
  2
*D1
340
0
  0
BLOCK_RECORD
  5
6C2
330
1
100
AcDbSymbolTableRecord
100
AcDbBlockTableRecord
  2
*D2
340
0
  0
BLOCK_RECORD
  5
6FE
330
1
100
AcDbSymbolTableRecord
100
AcDbBlockTableRecord
  2
*D3
340
0
  0
BLOCK_RECORD
  5
726
330
1
100
AcDbSymbolTableRecord
100
AcDbBlockTableRecord
  2
*D4
340
0
  0
BLOCK_RECORD
  5
7CB
330
1
100
AcDbSymbolTableRecord
100
AcDbBlockTableRecord
  2
*X5
340
0
102
{BLKREFS
331
7CD
102
}
  0
BLOCK_RECORD
  5
7F1
330
1
100
AcDbSymbolTableRecord
100
AcDbBlockTableRecord
  2
*D6
340
0
  0
BLOCK_RECORD
  5
8C2
330
1
100
AcDbSymbolTableRecord
100
AcDbBlockTableRecord
  2
*X7
340
0
102
{BLKREFS
331
8C4
331
8EE
331
8F1
331
8F2
331
8F3
331
8F4
102
}
  0
BLOCK_RECORD
  5
8F5
330
1
100
AcDbSymbolTableRecord
100
AcDbBlockTableRecord
  2
B0040021
340
0
102
{BLKREFS
331
904
331
905
102
}
  0
BLOCK_RECORD
  5
955
330
1
100
AcDbSymbolTableRecord
100
AcDbBlockTableRecord
  2
CALCOMP_TECHJET720A3
340
0
102
{BLKREFS
331
95E
102
}
  0
BLOCK_RECORD
  5
C90
330
1
100
AcDbSymbolTableRecord
100
AcDbBlockTableRecord
  2
*X10
340
0
102
{BLKREFS
331
C92
102
}
  0
BLOCK_RECORD
  5
CCF
330
1
100
AcDbSymbolTableRecord
100
AcDbBlockTableRecord
  2
*X11
340
0
102
{BLKREFS
331
CD1
102
}
  0
ENDTAB
  0
ENDSEC
  0
SECTION
  2
BLOCKS
  0
BLOCK
  5
3D
330
18
100
AcDbEntity
  8
0
100
AcDbBlockBegin
  2
*MODEL_SPACE
 70
     0
 10
0.0
 20
0.0
 30
0.0
  3
*MODEL_SPACE
  1

  0
ENDBLK
  5
3E
330
18
100
AcDbEntity
  8
0
100
AcDbBlockEnd
  0
BLOCK
  5
3B
330
15
100
AcDbEntity
 67
     1
  8
0
100
AcDbBlockBegin
  2
*PAPER_SPACE
 70
     0
 10
0.0
 20
0.0
 30
0.0
  3
*PAPER_SPACE
  1

  0
ENDBLK
  5
3C
330
15
100
AcDbEntity
 67
     1
  8
0
100
AcDbBlockEnd
  0
BLOCK
  5
9E0
330
69D
100
AcDbEntity
  8
0
100
AcDbBlockBegin
  2
*D0
 70
     1
 10
0.0
 20
0.0
 30
0.0
  3
*D0
  1

  0
LINE
  5
9E1
330
69D
100
AcDbEntity
  8
0
  6
ByBlock
100
AcDbLine
 10
672.8566827283757
 20
1461.85
 30
0.0
 11
672.8566827283757
 21
2034.790418515718
 31
0.0
  0
LINE
  5
9E2
330
69D
100
AcDbEntity
  8
0
  6
ByBlock
100
AcDbLine
 10
1472.856682728376
 20
1461.85
 30
0.0
 11
1472.856682728376
 21
2034.790418515718
 31
0.0
  0
LINE
  5
9E3
330
69D
100
AcDbEntity
  8
0
  6
ByBlock
100
AcDbLine
 10
692.8566827283757
 20
2024.790418515718
 30
0.0
 11
1452.856682728375
 21
2024.790418515718
 31
0.0
  0
SOLID
  5
9E4
330
69D
100
AcDbEntity
  8
0
  6
ByBlock
100
AcDbTrace
 10
692.8566827283757
 20
2028.123751849051
 30
0.0
 11
692.8566827283757
 21
2021.457085182384
 31
0.0
 12
672.8566827283757
 22
2024.790418515718
 32
0.0
 13
672.8566827283757
 23
2024.790418515718
 33
0.0
  0
SOLID
  5
9E5
330
69D
100
AcDbEntity
  8
0
  6
ByBlock
100
AcDbTrace
 10
1452.856682728375
 20
2028.123751849051
 30
0.0
 11
1452.856682728375
 21
2021.457085182384
 31
0.0
 12
1472.856682728376
 22
2024.790418515718
 32
0.0
 13
1472.856682728376
 23
2024.790418515718
 33
0.0
  0
MTEXT
  5
9E6
330
69D
100
AcDbEntity
  8
0
  6
ByBlock
100
AcDbMText
 10
1072.856682728375
 20
2051.790418515718
 30
0.0
 40
30.0
 41
0.0
 71
     5
 72
     5
  1
\A1;800
  7
EXT08
 73
     1
 44
1.0
  0
POINT
  5
9E7
330
69D
100
AcDbEntity
  8
DEFPOINTS
  6
ByBlock
 62
     0
100
AcDbPoint
 10
672.8566827283757
 20
1451.85
 30
0.0
  0
POINT
  5
9E8
330
69D
100
AcDbEntity
  8
DEFPOINTS
  6
ByBlock
 62
     0
100
AcDbPoint
 10
1472.856682728376
 20
1451.85
 30
0.0
  0
POINT
  5
9E9
330
69D
100
AcDbEntity
  8
DEFPOINTS
  6
ByBlock
 62
     0
100
AcDbPoint
 10
1472.856682728376
 20
2024.790418515718
 30
0.0
  0
ENDBLK
  5
9EA
330
69D
100
AcDbEntity
  8
0
100
AcDbBlockEnd
  0
BLOCK
  5
9B8
330
6B6
100
AcDbEntity
  8
0
100
AcDbBlockBegin
  2
*D1
 70
     1
 10
0.0
 20
0.0
 30
0.0
  3
*D1
  1

  0
LINE
  5
9B9
330
6B6
100
AcDbEntity
  8
0
  6
ByBlock
100
AcDbLine
 10
1786.252736970924
 20
1790.0
 30
0.0
 11
1786.252736970924
 21
1790.0
 31
0.0
  0
LINE
  5
9BA
330
6B6
100
AcDbEntity
  8
0
  6
ByBlock
100
AcDbLine
 10
1786.252736970924
 20
1190.000000000001
 30
0.0
 11
1786.252736970924
 21
1190.000000000001
 31
0.0
  0
LINE
  5
9BB
330
6B6
100
AcDbEntity
  8
0
  6
ByBlock
100
AcDbLine
 10
1796.252736970924
 20
1770.0
 30
0.0
 11
1796.252736970924
 21
1210.000000000001
 31
0.0
  0
SOLID
  5
9BC
330
6B6
100
AcDbEntity
  8
0
  6
ByBlock
100
AcDbTrace
 10
1792.919403637591
 20
1770.0
 30
0.0
 11
1799.586070304257
 21
1770.0
 31
0.0
 12
1796.252736970924
 22
1790.0
 32
0.0
 13
1796.252736970924
 23
1790.0
 33
0.0
  0
SOLID
  5
9BD
330
6B6
100
AcDbEntity
  8
0
  6
ByBlock
100
AcDbTrace
 10
1792.919403637591
 20
1210.000000000001
 30
0.0
 11
1799.586070304257
 21
1210.000000000001
 31
0.0
 12
1796.252736970924
 22
1190.000000000001
 32
0.0
 13
1796.252736970924
 23
1190.000000000001
 33
0.0
  0
MTEXT
  5
9BE
330
6B6
100
AcDbEntity
  8
0
  6
ByBlock
100
AcDbMText
 10
1769.252736970924
 20
1490.0
 30
0.0
 40
30.0
 41
0.0
 71
     5
 72
     5
  1
\A1;600
  7
EXT08
 11
0.0
 21
1.0
 31
0.0
 73
     1
 44
1.0
  0
POINT
  5
9BF
330
6B6
100
AcDbEntity
  8
DEFPOINTS
  6
ByBlock
 62
     0
100
AcDbPoint
 10
1796.252736970924
 20
1790.0
 30
0.0
  0
POINT
  5
9C0
330
6B6
100
AcDbEntity
  8
DEFPOINTS
  6
ByBlock
 62
     0
100
AcDbPoint
 10
1796.252736970924
 20
1190.000000000001
 30
0.0
  0
POINT
  5
9C1
330
6B6
100
AcDbEntity
  8
DEFPOINTS
  6
ByBlock
 62
     0
100
AcDbPoint
 10
1796.252736970924
 20
1190.000000000001
 30
0.0
  0
ENDBLK
  5
9C2
330
6B6
100
AcDbEntity
  8
0
100
AcDbBlockEnd
  0
BLOCK
  5
9D5
330
6C2
100
AcDbEntity
  8
0
100
AcDbBlockBegin
  2
*D2
 70
     1
 10
0.0
 20
0.0
 30
0.0
  3
*D2
  1

  0
LINE
  5
9D6
330
6C2
100
AcDbEntity
  8
0
  6
ByBlock
100
AcDbLine
 10
1316.252736970924
 20
1790.0
 30
0.0
 11
1871.252736970924
 21
1790.0
 31
0.0
  0
LINE
  5
9D7
330
6C2
100
AcDbEntity
  8
0
  6
ByBlock
100
AcDbLine
 10
1726.252736970924
 20
890.0
 30
0.0
 11
1871.252736970924
 21
890.0
 31
0.0
  0
LINE
  5
9D8
330
6C2
100
AcDbEntity
  8
0
  6
ByBlock
100
AcDbLine
 10
1861.252736970924
 20
1770.0
 30
0.0
 11
1861.252736970924
 21
910.0
 31
0.0
  0
SOLID
  5
9D9
330
6C2
100
AcDbEntity
  8
0
  6
ByBlock
100
AcDbTrace
 10
1857.919403637591
 20
1770.0
 30
0.0
 11
1864.586070304257
 21
1770.0
 31
0.0
 12
1861.252736970924
 22
1790.0
 32
0.0
 13
1861.252736970924
 23
1790.0
 33
0.0
  0
SOLID
  5
9DA
330
6C2
100
AcDbEntity
  8
0
  6
ByBlock
100
AcDbTrace
 10
1857.919403637591
 20
910.0
 30
0.0
 11
1864.586070304257
 21
910.0
 31
0.0
 12
1861.252736970924
 22
890.0
 32
0.0
 13
1861.252736970924
 23
890.0
 33
0.0
  0
MTEXT
  5
9DB
330
6C2
100
AcDbEntity
  8
0
  6
ByBlock
100
AcDbMText
 10
1834.252736970924
 20
1340.0
 30
0.0
 40
30.0
 41
0.0
 71
     5
 72
     5
  1
\A1;900
  7
EXT08
 11
0.0
 21
1.0
 31
0.0
 73
     1
 44
1.0
  0
POINT
  5
9DC
330
6C2
100
AcDbEntity
  8
DEFPOINTS
  6
ByBlock
 62
     0
100
AcDbPoint
 10
1306.252736970924
 20
1790.0
 30
0.0
  0
POINT
  5
9DD
330
6C2
100
AcDbEntity
  8
DEFPOINTS
  6
ByBlock
 62
     0
100
AcDbPoint
 10
1716.252736970924
 20
890.0
 30
0.0
  0
POINT
  5
9DE
330
6C2
100
AcDbEntity
  8
DEFPOINTS
  6
ByBlock
 62
     0
100
AcDbPoint
 10
1861.252736970924
 20
890.0
 30
0.0
  0
ENDBLK
  5
9DF
330
6C2
100
AcDbEntity
  8
0
100
AcDbBlockEnd
  0
BLOCK
  5
CA8
330
6FE
100
AcDbEntity
  8
0
100
AcDbBlockBegin
  2
*D3
 70
     1
 10
0.0
 20
0.0
 30
0.0
  3
*D3
  1

  0
LINE
  5
CA9
330
6FE
100
AcDbEntity
  8
0
  6
ByBlock
100
AcDbLine
 10
1531.006682728376
 20
1290.0
 30
0.0
 11
1657.856682728376
 21
1290.0
 31
0.0
  0
LINE
  5
CAA
330
6FE
100
AcDbEntity
  8
0
  6
ByBlock
100
AcDbLine
 10
1692.856682728375
 20
1190.0
 30
0.0
 11
1637.856682728376
 21
1190.0
 31
0.0
  0
LINE
  5
CAB
330
6FE
100
AcDbEntity
  8
0
  6
ByBlock
100
AcDbLine
 10
1647.856682728376
 20
1270.0
 30
0.0
 11
1647.856682728376
 21
1210.0
 31
0.0
  0
MTEXT
  5
CAC
330
6FE
100
AcDbEntity
  8
0
  6
ByBlock
100
AcDbMText
 10
1618.079761156239
 20
1240.0
 30
0.0
 40
30.0
 41
0.0
 71
     5
 72
     5
  1
\A1;100
  7
EXT08
 11
0.0
 21
1.0
 31
0.0
 73
     1
 44
1.0
  0
SOLID
  5
CAD
330
6FE
100
AcDbEntity
  8
0
  6
ByBlock
100
AcDbTrace
 10
1644.523349395042
 20
1270.0
 30
0.0
 11
1651.190016061709
 21
1270.0
 31
0.0
 12
1647.856682728376
 22
1290.0
 32
0.0
 13
1647.856682728376
 23
1290.0
 33
0.0
  0
SOLID
  5
CAE
330
6FE
100
AcDbEntity
  8
0
  6
ByBlock
100
AcDbTrace
 10
1644.523349395042
 20
1210.0
 30
0.0
 11
1651.190016061709
 21
1210.0
 31
0.0
 12
1647.856682728376
 22
1190.0
 32
0.0
 13
1647.856682728376
 23
1190.0
 33
0.0
  0
POINT
  5
CAF
330
6FE
100
AcDbEntity
  8
DEFPOINTS
  6
ByBlock
 62
     0
100
AcDbPoint
 10
1521.006682728376
 20
1290.0
 30
0.0
  0
POINT
  5
CB0
330
6FE
100
AcDbEntity
  8
DEFPOINTS
  6
ByBlock
 62
     0
100
AcDbPoint
 10
1702.856682728375
 20
1190.0
 30
0.0
  0
POINT
  5
CB1
330
6FE
100
AcDbEntity
  8
DEFPOINTS
  6
ByBlock
 62
     0
100
AcDbPoint
 10
1647.856682728376
 20
1190.0
 30
0.0
  0
ENDBLK
  5
CB2
330
6FE
100
AcDbEntity
  8
0
100
AcDbBlockEnd
  0
BLOCK
  5
9CE
330
726
100
AcDbEntity
  8
0
100
AcDbBlockBegin
  2
*D4
 70
     1
 10
0.0
 20
0.0
 30
0.0
  3
*D4
  1

  0
LINE
  5
9CF
330
726
100
AcDbEntity
  8
0
  6
ByBlock
100
AcDbLine
 10
1172.856682728377
 20
1451.850000000001
 30
0.0
 11
1378.481841073615
 21
1641.898136679885
 31
0.0
  0
SOLID
  5
9D0
330
726
100
AcDbEntity
  8
0
  6
ByBlock
100
AcDbTrace
 10
1376.219363255997
 20
1644.346055231614
 30
0.0
 11
1380.744318891233
 21
1639.450218128156
 31
0.0
 12
1393.169352383989
 22
1655.473003585591
 32
0.0
 13
1393.169352383989
 23
1655.473003585591
 33
0.0
  0
MTEXT
  5
9D1
330
726
100
AcDbEntity
  8
0
  6
ByBlock
100
AcDbMText
 10
1264.68694723348
 20
1573.489642061801
 30
0.0
 40
30.0
 41
0.0
 71
     5
 72
     5
  1
\A1;R300
  7
EXT08
 11
0.7343755655187064
 21
0.6787433452853003
 31
0.0
 73
     1
 44
1.0
  0
POINT
  5
9D2
330
726
100
AcDbEntity
  8
DEFPOINTS
  6
ByBlock
 62
     0
100
AcDbPoint
 10
1393.169352383989
 20
1655.473003585591
 30
0.0
  0
POINT
  5
9D3
330
726
100
AcDbEntity
  8
DEFPOINTS
  6
ByBlock
 62
     0
100
AcDbPoint
 10
1172.856682728377
 20
1451.850000000001
 30
0.0
  0
ENDBLK
  5
9D4
330
726
100
AcDbEntity
  8
0
100
AcDbBlockEnd
  0
BLOCK
  5
7CC
330
7CB
100
AcDbEntity
  8
0
100
AcDbBlockBegin
  2
*X5
 70
     1
 10
0.0
 20
0.0
 30
0.0
  3
*X5
  1

  0
LINE
  5
7CE
330
7CB
100
AcDbEntity
  8
0
 62
     0
100
AcDbLine
 10
1400.0
 20
1046.446609406726
 30
0.0
 11
1511.85
 21
1158.296609406726
 31
0.0
  0
LINE
  5
7CF
330
7CB
100
AcDbEntity
  8
0
 62
     0
100
AcDbLine
 10
1420.330085889911
 20
890.0000000000002
 30
0.0
 11
1511.85
 21
981.5199141100894
 31
0.0
  0
LINE
  5
7D0
330
7CB
100
AcDbEntity
  8
0
 62
     0
100
AcDbLine
 10
1588.15
 20
1057.81991411009
 30
0.0
 11
1700.0
 21
1169.669914110089
 31
0.0
  0
LINE
  5
7D1
330
7CB
100
AcDbEntity
  8
0
 62
     0
100
AcDbLine
 10
1597.106781186547
 20
890.0000000000002
 30
0.0
 11
1700.0
 21
992.8932188134526
 31
0.0
  0
LINE
  5
7D2
330
7CB
100
AcDbEntity
  8
0
 62
     0
100
AcDbLine
 10
1400.0
 20
891.7670010221689
 30
0.0
 11
1511.85
 21
1003.617001022169
 31
0.0
  0
LINE
  5
7D3
330
7CB
100
AcDbEntity
  8
0
 62
     0
100
AcDbLine
 10
1588.15
 20
1079.917001022169
 30
0.0
 11
1698.232998977831
 21
1190.0
 31
0.0
  0
LINE
  5
7D4
330
7CB
100
AcDbEntity
  8
0
 62
     0
100
AcDbLine
 10
1400.0
 20
1068.543696318806
 30
0.0
 11
1511.85
 21
1180.393696318805
 31
0.0
  0
LINE
  5
7D5
330
7CB
100
AcDbEntity
  8
0
 62
     0
100
AcDbLine
 10
1588.15
 20
903.1403057255323
 30
0.0
 11
1700.0
 21
1014.990305725532
 31
0.0
  0
LINE
  5
7D6
330
7CB
100
AcDbEntity
  8
0
 62
     0
100
AcDbLine
 10
1400.0
 20
913.8640879342485
 30
0.0
 11
1511.85
 21
1025.714087934248
 31
0.0
  0
LINE
  5
7D7
330
7CB
100
AcDbEntity
  8
0
 62
     0
100
AcDbLine
 10
1588.15
 20
1102.014087934249
 30
0.0
 11
1676.135912065751
 21
1190.0
 31
0.0
  0
LINE
  5
7D8
330
7CB
100
AcDbEntity
  8
0
 62
     0
100
AcDbLine
 10
1400.0
 20
1090.640783230885
 30
0.0
 11
1499.359216769114
 21
1190.0
 31
0.0
  0
LINE
  5
7D9
330
7CB
100
AcDbEntity
  8
0
 62
     0
100
AcDbLine
 10
1588.15
 20
925.2373926376119
 30
0.0
 11
1700.0
 21
1037.087392637612
 31
0.0
  0
ENDBLK
  5
7DA
330
7CB
100
AcDbEntity
  8
0
100
AcDbBlockEnd
  0
BLOCK
  5
9AD
330
7F1
100
AcDbEntity
  8
0
100
AcDbBlockBegin
  2
*D6
 70
     1
 10
0.0
 20
0.0
 30
0.0
  3
*D6
  1

  0
LINE
  5
9AE
330
7F1
100
AcDbEntity
  8
0
  6
ByBlock
100
AcDbLine
 10
1682.856682728376
 20
890.0
 30
0.0
 11
1806.252736970924
 21
890.0
 31
0.0
  0
LINE
  5
9AF
330
7F1
100
AcDbEntity
  8
0
  6
ByBlock
100
AcDbLine
 10
1729.957312866447
 20
1190.0
 30
0.0
 11
1806.252736970924
 21
1190.0
 31
0.0
  0
LINE
  5
9B0
330
7F1
100
AcDbEntity
  8
0
  6
ByBlock
100
AcDbLine
 10
1796.252736970924
 20
910.0
 30
0.0
 11
1796.252736970924
 21
1170.0
 31
0.0
  0
SOLID
  5
9B1
330
7F1
100
AcDbEntity
  8
0
  6
ByBlock
100
AcDbTrace
 10
1792.919403637591
 20
910.0
 30
0.0
 11
1799.586070304257
 21
910.0
 31
0.0
 12
1796.252736970924
 22
890.0
 32
0.0
 13
1796.252736970924
 23
890.0
 33
0.0
  0
SOLID
  5
9B2
330
7F1
100
AcDbEntity
  8
0
  6
ByBlock
100
AcDbTrace
 10
1792.919403637591
 20
1170.0
 30
0.0
 11
1799.586070304257
 21
1170.0
 31
0.0
 12
1796.252736970924
 22
1190.0
 32
0.0
 13
1796.252736970924
 23
1190.0
 33
0.0
  0
MTEXT
  5
9B3
330
7F1
100
AcDbEntity
  8
0
  6
ByBlock
100
AcDbMText
 10
1769.252736970924
 20
1040.0
 30
0.0
 40
30.0
 41
0.0
 71
     5
 72
     5
  1
\A1;300
  7
EXT08
 11
0.0
 21
1.0
 31
0.0
 73
     1
 44
1.0
  0
POINT
  5
9B4
330
7F1
100
AcDbEntity
  8
DEFPOINTS
  6
ByBlock
 62
     0
100
AcDbPoint
 10
1672.856682728375
 20
890.0
 30
0.0
  0
POINT
  5
9B5
330
7F1
100
AcDbEntity
  8
DEFPOINTS
  6
ByBlock
 62
     0
100
AcDbPoint
 10
1719.957312866447
 20
1190.0
 30
0.0
  0
POINT
  5
9B6
330
7F1
100
AcDbEntity
  8
DEFPOINTS
  6
ByBlock
 62
     0
100
AcDbPoint
 10
1796.252736970924
 20
1190.0
 30
0.0
  0
ENDBLK
  5
9B7
330
7F1
100
AcDbEntity
  8
0
100
AcDbBlockEnd
  0
BLOCK
  5
8C3
330
8C2
100
AcDbEntity
  8
0
100
AcDbBlockBegin
  2
*X7
 70
     1
 10
0.0
 20
0.0
 30
0.0
  3
*X7
  1

  0
LINE
  5
8C5
330
8C2
100
AcDbEntity
  8
0
 62
     0
100
AcDbLine
 10
727.0873926376122
 20
1390.0
 30
0.0
 11
750.0
 21
1412.912607362388
 31
0.0
  0
LINE
  5
8C6
330
8C2
100
AcDbEntity
  8
0
 62
     0
100
AcDbLine
 10
750.0
 20
1412.912607362388
 30
0.0
 11
777.0873926376122
 21
1440.0
 31
0.0
  0
LINE
  5
8C7
330
8C2
100
AcDbEntity
  8
0
 62
     0
100
AcDbLine
 10
718.2485578727803
 20
1390.0
 30
0.0
 11
750.0
 21
1421.75144212722
 31
0.0
  0
LINE
  5
8C8
330
8C2
100
AcDbEntity
  8
0
 62
     0
100
AcDbLine
 10
750.0
 20
1421.75144212722
 30
0.0
 11
768.2485578727805
 21
1440.0
 31
0.0
  0
LINE
  5
8C9
330
8C2
100
AcDbEntity
  8
0
 62
     0
100
AcDbLine
 10
711.8499999999999
 20
1392.440276892052
 30
0.0
 11
750.0
 21
1430.590276892052
 31
0.0
  0
LINE
  5
8CA
330
8C2
100
AcDbEntity
  8
0
 62
     0
100
AcDbLine
 10
750.0
 20
1430.590276892052
 30
0.0
 11
759.4097231079484
 21
1440.0
 31
0.0
  0
LINE
  5
8CB
330
8C2
100
AcDbEntity
  8
0
 62
     0
100
AcDbLine
 10
711.8499999999999
 20
1401.279111656883
 30
0.0
 11
750.0
 21
1439.429111656884
 31
0.0
  0
LINE
  5
8CC
330
8C2
100
AcDbEntity
  8
0
 62
     0
100
AcDbLine
 10
750.0
 20
1439.429111656884
 30
0.0
 11
750.5708883431167
 21
1440.0
 31
0.0
  0
LINE
  5
8CD
330
8C2
100
AcDbEntity
  8
0
 62
     0
100
AcDbLine
 10
711.8499999999999
 20
1410.117946421715
 30
0.0
 11
741.7320535782844
 21
1440.0
 31
0.0
  0
LINE
  5
8CE
330
8C2
100
AcDbEntity
  8
0
 62
     0
100
AcDbLine
 10
711.85
 20
1418.956781186547
 30
0.0
 11
732.8932188134525
 21
1440.0
 31
0.0
  0
LINE
  5
8CF
330
8C2
100
AcDbEntity
  8
0
 62
     0
100
AcDbLine
 10
711.85
 20
1427.795615951379
 30
0.0
 11
724.0543840486207
 21
1440.0
 31
0.0
  0
LINE
  5
8D0
330
8C2
100
AcDbEntity
  8
0
 62
     0
100
AcDbLine
 10
711.85
 20
1436.634450716211
 30
0.0
 11
715.2155492837888
 21
1440.0
 31
0.0
  0
LINE
  5
8D1
330
8C2
100
AcDbEntity
  8
0
 62
     0
100
AcDbLine
 10
735.9262274024437
 20
1390.0
 30
0.0
 11
749.9999999999999
 21
1404.073772597556
 31
0.0
  0
LINE
  5
8D2
330
8C2
100
AcDbEntity
  8
0
 62
     0
100
AcDbLine
 10
750.0000000000002
 20
1404.073772597556
 30
0.0
 11
785.9262274024437
 21
1440.0
 31
0.0
  0
LINE
  5
8D3
330
8C2
100
AcDbEntity
  8
0
 62
     0
100
AcDbLine
 10
744.7650621672758
 20
1390.0
 30
0.0
 11
749.9999999999999
 21
1395.234937832724
 31
0.0
  0
LINE
  5
8D4
330
8C2
100
AcDbEntity
  8
0
 62
     0
100
AcDbLine
 10
750.0000000000002
 20
1395.234937832725
 30
0.0
 11
788.1499999999999
 21
1433.384937832724
 31
0.0
  0
LINE
  5
8D5
330
8C2
100
AcDbEntity
  8
0
 62
     0
100
AcDbLine
 10
753.6038969321073
 20
1390.0
 30
0.0
 11
788.1499999999999
 21
1424.546103067892
 31
0.0
  0
LINE
  5
8D6
330
8C2
100
AcDbEntity
  8
0
 62
     0
100
AcDbLine
 10
762.4427316969391
 20
1390.0
 30
0.0
 11
788.1499999999999
 21
1415.70726830306
 31
0.0
  0
LINE
  5
8D7
330
8C2
100
AcDbEntity
  8
0
 62
     0
100
AcDbLine
 10
771.2815664617709
 20
1390.0
 30
0.0
 11
788.1499999999999
 21
1406.868433538229
 31
0.0
  0
LINE
  5
8D8
330
8C2
100
AcDbEntity
  8
0
 62
     0
100
AcDbLine
 10
780.1204012266029
 20
1390.0
 30
0.0
 11
788.1499999999997
 21
1398.029598773397
 31
0.0
  0
LINE
  5
8D9
330
8C2
100
AcDbEntity
  8
0
 62
     0
100
AcDbLine
 10
766.6756826189695
 20
1390.0
 30
0.0
 11
750.0
 21
1406.675682618969
 31
0.0
  0
LINE
  5
8DA
330
8C2
100
AcDbEntity
  8
0
 62
     0
100
AcDbLine
 10
750.0
 20
1406.675682618969
 30
0.0
 11
716.6756826189695
 21
1440.0
 31
0.0
  0
LINE
  5
8DB
330
8C2
100
AcDbEntity
  8
0
 62
     0
100
AcDbLine
 10
757.836847854138
 20
1390.0
 30
0.0
 11
750.0
 21
1397.836847854138
 31
0.0
  0
LINE
  5
8DC
330
8C2
100
AcDbEntity
  8
0
 62
     0
100
AcDbLine
 10
750.0
 20
1397.836847854138
 30
0.0
 11
711.85
 21
1435.986847854138
 31
0.0
  0
LINE
  5
8DD
330
8C2
100
AcDbEntity
  8
0
 62
     0
100
AcDbLine
 10
748.9980130893054
 20
1390.0
 30
0.0
 11
711.85
 21
1427.148013089306
 31
0.0
  0
LINE
  5
8DE
330
8C2
100
AcDbEntity
  8
0
 62
     0
100
AcDbLine
 10
740.1591783244736
 20
1390.0
 30
0.0
 11
711.85
 21
1418.309178324474
 31
0.0
  0
LINE
  5
8DF
330
8C2
100
AcDbEntity
  8
0
 62
     0
100
AcDbLine
 10
731.320343559642
 20
1390.0
 30
0.0
 11
711.85
 21
1409.470343559642
 31
0.0
  0
LINE
  5
8E0
330
8C2
100
AcDbEntity
  8
0
 62
     0
100
AcDbLine
 10
722.4815087948103
 20
1390.0
 30
0.0
 11
711.85
 21
1400.63150879481
 31
0.0
  0
LINE
  5
8E1
330
8C2
100
AcDbEntity
  8
0
 62
     0
100
AcDbLine
 10
713.6426740299782
 20
1390.0
 30
0.0
 11
711.85
 21
1391.792674029978
 31
0.0
  0
LINE
  5
8E2
330
8C2
100
AcDbEntity
  8
0
 62
     0
100
AcDbLine
 10
775.5145173838013
 20
1390.0
 30
0.0
 11
750.0
 21
1415.514517383801
 31
0.0
  0
LINE
  5
8E3
330
8C2
100
AcDbEntity
  8
0
 62
     0
100
AcDbLine
 10
750.0
 20
1415.514517383801
 30
0.0
 11
725.5145173838013
 21
1440.0
 31
0.0
  0
LINE
  5
8E4
330
8C2
100
AcDbEntity
  8
0
 62
     0
100
AcDbLine
 10
784.3533521486335
 20
1390.0
 30
0.0
 11
750.0
 21
1424.353352148633
 31
0.0
  0
LINE
  5
8E5
330
8C2
100
AcDbEntity
  8
0
 62
     0
100
AcDbLine
 10
750.0
 20
1424.353352148633
 30
0.0
 11
734.3533521486334
 21
1440.0
 31
0.0
  0
LINE
  5
8E6
330
8C2
100
AcDbEntity
  8
0
 62
     0
100
AcDbLine
 10
788.1499999999999
 20
1395.042186913466
 30
0.0
 11
750.0
 21
1433.192186913465
 31
0.0
  0
LINE
  5
8E7
330
8C2
100
AcDbEntity
  8
0
 62
     0
100
AcDbLine
 10
750.0
 20
1433.192186913465
 30
0.0
 11
743.1921869134653
 21
1440.0
 31
0.0
  0
LINE
  5
8E8
330
8C2
100
AcDbEntity
  8
0
 62
     0
100
AcDbLine
 10
788.1499999999999
 20
1403.881021678297
 30
0.0
 11
752.0310216782965
 21
1440.0
 31
0.0
  0
LINE
  5
8E9
330
8C2
100
AcDbEntity
  8
0
 62
     0
100
AcDbLine
 10
788.1499999999999
 20
1412.719856443129
 30
0.0
 11
760.8698564431285
 21
1440.0
 31
0.0
  0
LINE
  5
8EA
330
8C2
100
AcDbEntity
  8
0
 62
     0
100
AcDbLine
 10
788.1499999999999
 20
1421.558691207961
 30
0.0
 11
769.7086912079606
 21
1440.0
 31
0.0
  0
LINE
  5
8EB
330
8C2
100
AcDbEntity
  8
0
 62
     0
100
AcDbLine
 10
788.1499999999999
 20
1430.397525972792
 30
0.0
 11
778.5475259727921
 21
1440.0
 31
0.0
  0
LINE
  5
8EC
330
8C2
100
AcDbEntity
  8
0
 62
     0
100
AcDbLine
 10
788.1499999999999
 20
1439.236360737624
 30
0.0
 11
787.3863607376241
 21
1440.0
 31
0.0
  0
ENDBLK
  5
8ED
330
8C2
100
AcDbEntity
  8
0
100
AcDbBlockEnd
  0
BLOCK
  5
902
330
8F5
100
AcDbEntity
  8
0
100
AcDbBlockBegin
  2
B0040021
 70
     0
 10
0.0
 20
0.0
 30
0.0
  3
B0040021
  1

  0
LINE
  5
8F6
330
8F5
100
AcDbEntity
  8
HATCH
100
AcDbLine
 10
90.53459680887726
 20
-7.500000000000227
 30
0.0
 11
117.0518952133159
 21
-34.01729840443886
 31
0.0
  0
LINE
  5
8F7
330
8F5
100
AcDbEntity
  8
HATCH
100
AcDbLine
 10
98.03459680887726
 20
0.0
 30
0.0
 11
132.0518952133159
 21
-34.01729840443886
 31
0.0
  0
LINE
  5
8F8
330
8F5
100
AcDbEntity
  8
HATCH
100
AcDbLine
 10
22.5
 20
-7.500000000000227
 30
0.0
 11
49.01729840443863
 21
-34.01729840443886
 31
0.0
  0
LINE
  5
8F9
330
8F5
100
AcDbEntity
  8
HATCH
100
AcDbLine
 10
30.0
 20
0.0
 30
0.0
 11
-4.017298404438633
 21
-34.01729840443886
 31
0.0
  0
LINE
  5
8FA
330
8F5
100
AcDbEntity
  8
HATCH
100
AcDbLine
 10
15.0
 20
-15.00000000000023
 30
0.0
 11
34.01729840443863
 21
-34.01729840443886
 31
0.0
  0
LINE
  5
8FB
330
8F5
100
AcDbEntity
  8
HATCH
100
AcDbLine
 10
0.0
 20
0.0
 30
0.0
 11
-34.01729840443863
 21
-34.01729840443886
 31
0.0
  0
LINE
  5
8FC
330
8F5
100
AcDbEntity
  8
HATCH
100
AcDbLine
 10
15.0
 20
0.0
 30
0.0
 11
-19.01729840443863
 21
-34.01729840443886
 31
0.0
  0
LINE
  5
8FD
330
8F5
100
AcDbEntity
  8
HATCH
100
AcDbLine
 10
83.03459680887726
 20
0.0
 30
0.0
 11
56.51729840443886
 21
-26.51729840443863
 31
0.0
  0
LINE
  5
8FE
330
8F5
100
AcDbEntity
  8
HATCH
100
AcDbLine
 10
98.03459680887726
 20
0.0
 30
0.0
 11
64.01729840443863
 21
-34.01729840443886
 31
0.0
  0
LINE
  5
8FF
330
8F5
100
AcDbEntity
  8
HATCH
100
AcDbLine
 10
68.03459680887726
 20
0.0
 30
0.0
 11
49.01729840443886
 21
-19.01729840443863
 31
0.0
  0
LINE
  5
900
330
8F5
100
AcDbEntity
  8
HATCH
100
AcDbLine
 10
30.0
 20
0.0
 30
0.0
 11
64.01729840443863
 21
-34.01729840443886
 31
0.0
  0
LINE
  5
901
330
8F5
100
AcDbEntity
  8
HATCH
100
AcDbLine
 10
83.03459680887726
 20
-15.00000000000023
 30
0.0
 11
102.0518952133159
 21
-34.01729840443886
 31
0.0
  0
ENDBLK
  5
903
330
8F5
100
AcDbEntity
  8
0
100
AcDbBlockEnd
  0
BLOCK
  5
95C
330
955
100
AcDbEntity
  8
0
100
AcDbBlockBegin
  2
CALCOMP_TECHJET720A3
 70
     0
 10
0.0
 20
0.0
 30
0.0
  3
CALCOMP_TECHJET720A3
  1

  0
LWPOLYLINE
  5
956
330
955
100
AcDbEntity
  8
ZWAKU
100
AcDbPolyline
 90
        4
 70
     1
 43
0.0
 10
0.0
 20
0.0
 10
0.0
 20
267.0
 10
370.0
 20
267.0
 10
370.0
 20
0.0
  0
ENDBLK
  5
95D
330
955
100
AcDbEntity
  8
0
100
AcDbBlockEnd
  0
BLOCK
  5
C91
330
C90
100
AcDbEntity
  8
0
100
AcDbBlockBegin
  2
*X10
 70
     1
 10
0.0
 20
0.0
 30
0.0
  3
*X10
  1

  0
LINE
  5
C93
330
C90
100
AcDbEntity
  8
0
 62
     0
100
AcDbLine
 10
2078.634968461704
 20
1017.974796681882
 30
0.0
 11
2190.484968461703
 21
1129.824796681882
 31
0.0
  0
LINE
  5
C94
330
C90
100
AcDbEntity
  8
0
 62
     0
100
AcDbLine
 10
2127.436867076458
 20
890.0
 30
0.0
 11
2190.484968461704
 21
953.0481013852456
 31
0.0
  0
LINE
  5
C95
330
C90
100
AcDbEntity
  8
0
 62
     0
100
AcDbLine
 10
2266.784968461704
 20
1029.348101385245
 30
0.0
 11
2378.634968461704
 21
1141.198101385246
 31
0.0
  0
LINE
  5
C96
330
C90
100
AcDbEntity
  8
0
 62
     0
100
AcDbLine
 10
2304.213562373095
 20
890.0
 30
0.0
 11
2378.634968461704
 21
964.4214060886088
 31
0.0
  0
LINE
  5
C97
330
C90
100
AcDbEntity
  8
0
 62
     0
100
AcDbLine
 10
2078.634968461704
 20
1040.071883593962
 30
0.0
 11
2190.484968461703
 21
1151.921883593962
 31
0.0
  0
LINE
  5
C98
330
C90
100
AcDbEntity
  8
0
 62
     0
100
AcDbLine
 10
2105.339780164378
 20
890.0
 30
0.0
 11
2190.484968461704
 21
975.1451882973254
 31
0.0
  0
LINE
  5
C99
330
C90
100
AcDbEntity
  8
0
 62
     0
100
AcDbLine
 10
2266.784968461704
 20
1051.445188297325
 30
0.0
 11
2378.634968461704
 21
1163.295188297325
 31
0.0
  0
LINE
  5
C9A
330
C90
100
AcDbEntity
  8
0
 62
     0
100
AcDbLine
 10
2282.116475461016
 20
890.0
 30
0.0
 11
2378.634968461704
 21
986.5184930006885
 31
0.0
  0
LINE
  5
C9B
330
C90
100
AcDbEntity
  8
0
 62
     0
100
AcDbLine
 10
2078.634968461704
 20
1062.168970506042
 30
0.0
 11
2190.484968461703
 21
1174.018970506041
 31
0.0
  0
LINE
  5
C9C
330
C90
100
AcDbEntity
  8
0
 62
     0
100
AcDbLine
 10
2083.242693252298
 20
890.0
 30
0.0
 11
2190.484968461704
 21
997.2422752094049
 31
0.0
  0
LINE
  5
C9D
330
C90
100
AcDbEntity
  8
0
 62
     0
100
AcDbLine
 10
2266.784968461704
 20
1073.542275209405
 30
0.0
 11
2378.634968461704
 21
1185.392275209405
 31
0.0
  0
LINE
  5
C9E
330
C90
100
AcDbEntity
  8
0
 62
     0
100
AcDbLine
 10
2266.784968461704
 20
896.765579912768
 30
0.0
 11
2378.634968461704
 21
1008.615579912768
 31
0.0
  0
ENDBLK
  5
C9F
330
C90
100
AcDbEntity
  8
0
100
AcDbBlockEnd
  0
BLOCK
  5
CD0
330
CCF
100
AcDbEntity
  8
0
100
AcDbBlockBegin
  2
*X11
 70
     1
 10
0.0
 20
0.0
 30
0.0
  3
*X11
  1

  0
LINE
  5
CD2
330
CCF
100
AcDbEntity
  8
0
 62
     0
100
AcDbLine
 10
536.4466094067263
 20
890.0000000000002
 30
0.0
 11
634.7066827283756
 21
988.2600733216493
 31
0.0
  0
LINE
  5
CD3
330
CCF
100
AcDbEntity
  8
0
 62
     0
100
AcDbLine
 10
711.0066827283758
 20
1064.560073321649
 30
0.0
 11
822.8566827283756
 21
1176.410073321649
 31
0.0
  0
LINE
  5
CD4
330
CCF
100
AcDbEntity
  8
0
 62
     0
100
AcDbLine
 10
522.8566827283757
 20
1053.186768618286
 30
0.0
 11
634.7066827283756
 21
1165.036768618286
 31
0.0
  0
LINE
  5
CD5
330
CCF
100
AcDbEntity
  8
0
 62
     0
100
AcDbLine
 10
713.2233047033631
 20
890.0
 30
0.0
 11
822.8566827283756
 21
999.6333780250125
 31
0.0
  0
LINE
  5
CD6
330
CCF
100
AcDbEntity
  8
0
 62
     0
100
AcDbLine
 10
711.0066827283758
 20
909.8804649370922
 30
0.0
 11
822.8566827283756
 21
1021.730464937092
 31
0.0
  0
LINE
  5
CD7
330
CCF
100
AcDbEntity
  8
0
 62
     0
100
AcDbLine
 10
522.8566827283755
 20
898.507160233729
 30
0.0
 11
634.7066827283756
 21
1010.357160233729
 31
0.0
  0
LINE
  5
CD8
330
CCF
100
AcDbEntity
  8
0
 62
     0
100
AcDbLine
 10
711.0066827283758
 20
1086.657160233729
 30
0.0
 11
814.3495224946468
 21
1190.0
 31
0.0
  0
LINE
  5
CD9
330
CCF
100
AcDbEntity
  8
0
 62
     0
100
AcDbLine
 10
522.8566827283757
 20
1075.283855530366
 30
0.0
 11
634.7066827283755
 21
1187.133855530365
 31
0.0
  0
LINE
  5
CDA
330
CCF
100
AcDbEntity
  8
0
 62
     0
100
AcDbLine
 10
711.0066827283758
 20
931.9775518491718
 30
0.0
 11
822.8566827283756
 21
1043.827551849172
 31
0.0
  0
LINE
  5
CDB
330
CCF
100
AcDbEntity
  8
0
 62
     0
100
AcDbLine
 10
522.8566827283755
 20
920.6042471458086
 30
0.0
 11
634.7066827283756
 21
1032.454247145808
 31
0.0
  0
LINE
  5
CDC
330
CCF
100
AcDbEntity
  8
0
 62
     0
100
AcDbLine
 10
711.0066827283758
 20
1108.754247145809
 30
0.0
 11
792.2524355825672
 21
1190.0
 31
0.0
  0
LINE
  5
CDD
330
CCF
100
AcDbEntity
  8
0
 62
     0
100
AcDbLine
 10
522.8566827283757
 20
1097.380942442445
 30
0.0
 11
615.4757402859303
 21
1190.0
 31
0.0
  0
ENDBLK
  5
CDE
330
CCF
100
AcDbEntity
  8
0
100
AcDbBlockEnd
  0
ENDSEC
  0
SECTION
  2
ENTITIES
  0
LINE
  5
1C4
330
18
100
AcDbEntity
  8
CENTER
100
AcDbLine
 10
672.8566827283757
 20
800.0
 30
0.0
 11
672.8566827283757
 21
1451.85
 31
0.0
1001
ACAD
1000
ASC_BOUNDS
1002
{
1070
    19
1005
8C4
1005
8C4
1002
}
  0
LINE
  5
1C5
330
18
100
AcDbEntity
  8
CENTER
100
AcDbLine
 10
1472.856682728376
 20
1451.85
 30
0.0
 11
1472.856682728376
 21
800.0
 31
0.0
1001
ACAD
1000
ASC_BOUNDS
1002
{
1070
    19
1002
}
  0
LINE
  5
1C6
330
18
100
AcDbEntity
  8
SJC
100
AcDbLine
 10
425.7560525903045
 20
1190.0
 30
0.0
 11
634.7066827283758
 21
1190.0
 31
0.0
1001
ACAD
1000
ASC_BOUNDS
1002
{
1070
    19
1005
CD1
1002
}
  0
LINE
  5
1C7
330
18
100
AcDbEntity
  8
SJC
100
AcDbLine
 10
522.8566827283757
 20
890.0
 30
0.0
 11
522.8566827283757
 21
1190.0
 31
0.0
1001
ACAD
1000
ASC_BOUNDS
1002
{
1070
    19
1005
CD1
1002
}
  0
LINE
  5
1C8
330
18
100
AcDbEntity
  8
SJC
100
AcDbLine
 10
822.8566827283756
 20
890.0
 30
0.0
 11
822.8566827283756
 21
1190.0
 31
0.0
1001
ACAD
1000
ASC_BOUNDS
1002
{
1070
    19
1005
CD1
1002
}
  0
LINE
  5
1C9
330
18
100
AcDbEntity
  8
SJC
100
AcDbLine
 10
1322.856682728376
 20
1190.0
 30
0.0
 11
1322.856682728376
 21
890.0
 31
0.0
1001
ACAD
1000
ASC_BOUNDS
1002
{
1070
    19
1005
7CD
1002
}
  0
LINE
  5
1CA
330
18
100
AcDbEntity
  8
SJC
100
AcDbLine
 10
1622.856682728375
 20
1190.0
 30
0.0
 11
1622.856682728375
 21
890.0
 31
0.0
1001
ACAD
1000
ASC_BOUNDS
1002
{
1070
    19
1005
7CD
1002
}
  0
LINE
  5
1CB
330
18
100
AcDbEntity
  8
SJC
100
AcDbLine
 10
634.7066827283758
 20
890.0
 30
0.0
 11
634.7066827283756
 21
1451.85
 31
0.0
1001
ACAD
1000
ASC_BOUNDS
1002
{
1070
    19
1005
CD1
1005
8C4
1002
}
  0
LINE
  5
1CC
330
18
100
AcDbEntity
  8
SJC
100
AcDbLine
 10
711.0066827283758
 20
890.0
 30
0.0
 11
711.0066827283758
 21
1451.85
 31
0.0
1001
ACAD
1000
ASC_BOUNDS
1002
{
1070
    19
1005
CD1
1005
8C4
1002
}
  0
LINE
  5
1CD
330
18
100
AcDbEntity
  8
SJC
100
AcDbLine
 10
1434.706682728375
 20
1451.85
 30
0.0
 11
1434.706682728376
 21
890.0
 31
0.0
1001
ACAD
1000
ASC_BOUNDS
1002
{
1070
    19
1005
7CD
1002
}
  0
LINE
  5
1CE
330
18
100
AcDbEntity
  8
SJC
100
AcDbLine
 10
1511.006682728376
 20
1451.85
 30
0.0
 11
1511.006682728376
 21
890.0
 31
0.0
1001
ACAD
1000
ASC_BOUNDS
1002
{
1070
    19
1005
7CD
1002
}
  0
LINE
  5
1CF
330
18
100
AcDbEntity
  8
SJC
100
AcDbLine
 10
472.8566827283757
 20
840.0
 30
0.0
 11
872.8566827283756
 21
840.0
 31
0.0
  0
LINE
  5
1D0
330
18
100
AcDbEntity
  8
SJC
100
AcDbLine
 10
472.8566827283757
 20
890.0
 30
0.0
 11
872.8566827283756
 21
890.0
 31
0.0
1001
ACAD
1000
ASC_BOUNDS
1002
{
1070
    19
1005
CD1
1005
0
1005
0
1005
0
1005
CD1
1002
}
  0
LINE
  5
1D2
330
18
100
AcDbEntity
  8
SJC
100
AcDbLine
 10
472.8566827283757
 20
840.0
 30
0.0
 11
472.8566827283757
 21
890.0
 31
0.0
  0
LINE
  5
1D3
330
18
100
AcDbEntity
  8
SJC
100
AcDbLine
 10
872.8566827283756
 20
840.0
 30
0.0
 11
872.8566827283756
 21
890.0
 31
0.0
  0
LINE
  5
1D4
330
18
100
AcDbEntity
  8
SJC
100
AcDbLine
 10
1272.856682728376
 20
840.0
 30
0.0
 11
1272.856682728376
 21
890.0
 31
0.0
  0
LINE
  5
1D5
330
18
100
AcDbEntity
  8
SJC
100
AcDbLine
 10
1672.856682728375
 20
840.0
 30
0.0
 11
1672.856682728375
 21
890.0
 31
0.0
  0
LINE
  5
1D6
330
18
100
AcDbEntity
  8
CENTER
100
AcDbLine
 10
2228.634968461704
 20
1830.0
 30
0.0
 11
2228.634968461704
 21
800.0
 31
0.0
1001
ACAD
1000
ASC_BOUNDS
1002
{
1070
    19
1002
}
  0
LINE
  5
1D7
330
18
100
AcDbEntity
  8
SJC
100
AcDbLine
 10
2190.484968461704
 20
1751.85
 30
0.0
 11
2190.484968461704
 21
890.0000000000002
 31
0.0
1001
ACAD
1000
ASC_BOUNDS
1002
{
1070
    19
1005
C92
1002
}
  0
LINE
  5
1D8
330
18
100
AcDbEntity
  8
SJC
100
AcDbLine
 10
2266.784968461704
 20
1751.85
 30
0.0
 11
2266.784968461704
 21
890.0000000000002
 31
0.0
1001
ACAD
1000
ASC_BOUNDS
1002
{
1070
    19
1005
C92
1002
}
  0
LINE
  5
1D9
330
18
100
AcDbEntity
  8
SJC
100
AcDbLine
 10
2078.634968461704
 20
1190.0
 30
0.0
 11
2078.634968461704
 21
890.0
 31
0.0
1001
ACAD
1000
ASC_BOUNDS
1002
{
1070
    19
1005
C92
1002
}
  0
LINE
  5
1DA
330
18
100
AcDbEntity
  8
SJC
100
AcDbLine
 10
2378.634968461704
 20
1190.0
 30
0.0
 11
2378.634968461704
 21
890.0
 31
0.0
1001
ACAD
1000
ASC_BOUNDS
1002
{
1070
    19
1005
C92
1002
}
  0
LINE
  5
1DB
330
18
100
AcDbEntity
  8
SJC
100
AcDbLine
 10
2028.634968461703
 20
890.0
 30
0.0
 11
2028.634968461703
 21
840.0
 31
0.0
  0
LINE
  5
1DC
330
18
100
AcDbEntity
  8
SJC
100
AcDbLine
 10
2428.634968461704
 20
890.0
 30
0.0
 11
2428.634968461704
 21
840.0
 31
0.0
  0
LINE
  5
1DD
330
18
100
AcDbEntity
  8
SJC
100
AcDbLine
 10
1978.101499269605
 20
1190.0
 30
0.0
 11
2190.484968461704
 21
1190.0
 31
0.0
1001
ACAD
1000
ASC_BOUNDS
1002
{
1070
    19
1005
C92
1002
}
  0
LINE
  5
1DE
330
18
100
AcDbEntity
  8
SJC
100
AcDbLine
 10
2028.634968461703
 20
890.0
 30
0.0
 11
2428.634968461704
 21
890.0
 31
0.0
1001
ACAD
1000
ASC_BOUNDS
1002
{
1070
    19
1005
C92
1005
0
1005
0
1005
0
1005
0
1005
C92
1002
}
  0
LINE
  5
1DF
330
18
100
AcDbEntity
  8
SJC
100
AcDbLine
 10
2028.634968461703
 20
840.0
 30
0.0
 11
2428.634968461704
 21
840.0
 31
0.0
  0
ARC
  5
21C
330
18
100
AcDbEntity
  8
CENTER
100
AcDbCircle
 10
972.8566827283756
 20
1451.85
 30
0.0
 40
300.0
100
AcDbArc
 50
90.0
 51
180.0
  0
ARC
  5
21D
330
18
100
AcDbEntity
  8
CENTER
100
AcDbCircle
 10
1172.856682728375
 20
1451.85
 30
0.0
 40
300.0
100
AcDbArc
 50
0.0
 51
90.0
  0
LINE
  5
21E
330
18
100
AcDbEntity
  8
CENTER
100
AcDbLine
 10
1172.856682728375
 20
1751.85
 30
0.0
 11
972.8566827283756
 21
1751.85
 31
0.0
  0
ARC
  5
21F
330
18
100
AcDbEntity
  8
SJC
100
AcDbCircle
 10
972.8566827283756
 20
1451.85
 30
0.0
 40
338.15
100
AcDbArc
 50
90.0
 51
180.0
  0
ARC
  5
220
330
18
100
AcDbEntity
  8
SJC
100
AcDbCircle
 10
972.8566827283756
 20
1451.85
 30
0.0
 40
261.85
100
AcDbArc
 50
90.0
 51
180.0
  0
ARC
  5
221
330
18
100
AcDbEntity
  8
SJC
100
AcDbCircle
 10
1172.856682728375
 20
1451.85
 30
0.0
 40
338.15
100
AcDbArc
 50
0.0
 51
90.0
  0
ARC
  5
222
330
18
100
AcDbEntity
  8
SJC
100
AcDbCircle
 10
1172.856682728375
 20
1451.85
 30
0.0
 40
261.85
100
AcDbArc
 50
0.0
 51
90.0
  0
LINE
  5
223
330
18
100
AcDbEntity
  8
SJC
100
AcDbLine
 10
1172.856682728375
 20
1790.0
 30
0.0
 11
972.8566827283756
 21
1790.0
 31
0.0
  0
LINE
  5
224
330
18
100
AcDbEntity
  8
SJC
100
AcDbLine
 10
1172.856682728375
 20
1713.7
 30
0.0
 11
972.8566827283756
 21
1713.7
 31
0.0
  0
ARC
  5
225
330
18
100
AcDbEntity
  8
SJC
100
AcDbCircle
 10
2228.634968461704
 20
1751.85
 30
0.0
 40
38.15000000000009
100
AcDbArc
 50
0.0
 51
180.0
  0
LINE
  5
226
330
18
100
AcDbEntity
  8
SJC
100
AcDbLine
 10
1272.856682728376
 20
890.0
 30
0.0
 11
1672.856682728375
 21
890.0
 31
0.0
1001
ACAD
1000
ASC_BOUNDS
1002
{
1070
    19
1005
7CD
1005
0
1005
0
1005
7CD
1002
}
  0
LINE
  5
227
330
18
100
AcDbEntity
  8
SJC
100
AcDbLine
 10
1272.856682728376
 20
840.0
 30
0.0
 11
1672.856682728375
 21
840.0
 31
0.0
  0
LWPOLYLINE
  5
229
330
18
100
AcDbEntity
  8
SJC
100
AcDbPolyline
 90
        2
 70
     0
 43
0.0
 10
2190.484968461704
 20
1440.0
 10
2266.784968461704
 20
1440.0
1001
ACAD
1000
ASC_BOUNDS
1002
{
1070
    19
1002
}
  0
LWPOLYLINE
  5
22D
330
18
100
AcDbEntity
  8
SJC
100
AcDbPolyline
 90
        2
 70
     0
 43
0.0
 10
2266.784968461704
 20
1390.0
 10
2190.484968461704
 20
1390.0
1001
ACAD
1000
ASC_BOUNDS
1002
{
1070
    19
1002
}
  0
LWPOLYLINE
  5
231
330
18
100
AcDbEntity
  8
SJC
100
AcDbPolyline
 90
        2
 70
     0
 43
0.0
 10
2190.484968461704
 20
1340.0
 10
2266.784968461704
 20
1340.0
1001
ACAD
1000
ASC_BOUNDS
1002
{
1070
    19
1002
}
  0
LWPOLYLINE
  5
235
330
18
100
AcDbEntity
  8
SJC
100
AcDbPolyline
 90
        2
 70
     0
 43
0.0
 10
2266.784968461704
 20
1290.0
 10
2190.484968461704
 20
1290.0
1001
ACAD
1000
ASC_BOUNDS
1002
{
1070
    19
1002
}
  0
LWPOLYLINE
  5
239
330
18
100
AcDbEntity
  8
SJC
100
AcDbPolyline
 90
        2
 70
     0
 43
0.0
 10
634.7066827283756
 20
1440.0
 10
711.0066827283758
 20
1440.0
1001
ACAD
1000
ASC_BOUNDS
1002
{
1070
    19
1005
8C4
1005
8C4
1002
}
  0
LWPOLYLINE
  5
23D
330
18
100
AcDbEntity
  8
SJC
100
AcDbPolyline
 90
        2
 70
     0
 43
0.0
 10
711.0066827283758
 20
1390.0
 10
634.7066827283756
 20
1390.0
1001
ACAD
1000
ASC_BOUNDS
1002
{
1070
    19
1005
8C4
1005
8C4
1002
}
  0
LWPOLYLINE
  5
241
330
18
100
AcDbEntity
  8
SJC
100
AcDbPolyline
 90
        2
 70
     0
 43
0.0
 10
634.7066827283756
 20
1340.0
 10
711.0066827283758
 20
1340.0
1001
ACAD
1000
ASC_BOUNDS
1002
{
1070
    19
1002
}
  0
LWPOLYLINE
  5
245
330
18
100
AcDbEntity
  8
SJC
100
AcDbPolyline
 90
        2
 70
     0
 43
0.0
 10
711.0066827283758
 20
1290.0
 10
634.7066827283756
 20
1290.0
1001
ACAD
1000
ASC_BOUNDS
1002
{
1070
    19
1002
}
  0
LWPOLYLINE
  5
249
330
18
100
AcDbEntity
  8
SJC
100
AcDbPolyline
 90
        2
 70
     0
 43
0.0
 10
1434.706682728375
 20
1440.0
 10
1511.006682728376
 20
1440.0
1001
ACAD
1000
ASC_BOUNDS
1002
{
1070
    19
1002
}
  0
LWPOLYLINE
  5
24D
330
18
100
AcDbEntity
  8
SJC
100
AcDbPolyline
 90
        2
 70
     0
 43
0.0
 10
1511.006682728376
 20
1390.0
 10
1434.706682728375
 20
1390.0
1001
ACAD
1000
ASC_BOUNDS
1002
{
1070
    19
1002
}
  0
LWPOLYLINE
  5
251
330
18
100
AcDbEntity
  8
SJC
100
AcDbPolyline
 90
        2
 70
     0
 43
0.0
 10
1434.706682728375
 20
1340.0
 10
1511.006682728376
 20
1340.0
1001
ACAD
1000
ASC_BOUNDS
1002
{
1070
    19
1002
}
  0
LWPOLYLINE
  5
255
330
18
100
AcDbEntity
  8
SJC
100
AcDbPolyline
 90
        2
 70
     0
 43
0.0
 10
1511.006682728376
 20
1290.0
 10
1434.706682728376
 20
1290.0
1001
ACAD
1000
ASC_BOUNDS
1002
{
1070
    19
1002
}
  0
POLYLINE
  5
259
330
18
100
AcDbEntity
  8
HATCH
100
AcDb2dPolyline
 66
     1
 10
0.0
 20
0.0
 30
0.0
 70
     3
  0
VERTEX
  5
25A
330
259
100
AcDbEntity
  8
HATCH
100
AcDbVertex
100
AcDb2dVertex
 10
472.8566827283757
 20
865.0
 30
0.0
 42
-0.1359329595457255
  0
VERTEX
  5
25B
330
259
100
AcDbEntity
  8
HATCH
100
AcDbVertex
100
AcDb2dVertex
 10
478.2793029912627
 20
884.5773797371132
 30
0.0
 42
-0.2634471391023026
 70
     1
  0
VERTEX
  5
25C
330
259
100
AcDbEntity
  8
HATCH
100
AcDbVertex
100
AcDb2dVertex
 10
487.8566827283757
 20
890.0
 30
0.0
 42
-0.2634471391023005
  0
VERTEX
  5
25D
330
259
100
AcDbEntity
  8
HATCH
100
AcDbVertex
100
AcDb2dVertex
 10
497.4340624654887
 20
884.5773797371132
 30
0.0
 42
-0.1359329595457275
 70
     1
  0
VERTEX
  5
25E
330
259
100
AcDbEntity
  8
HATCH
100
AcDbVertex
100
AcDb2dVertex
 10
502.8566827283757
 20
865.0
 30
0.0
 42
-0.1359329595457261
  0
VERTEX
  5
25F
330
259
100
AcDbEntity
  8
HATCH
100
AcDbVertex
100
AcDb2dVertex
 10
497.4340624654887
 20
845.4226202628868
 30
0.0
 42
-0.2634471391022992
 70
     1
  0
VERTEX
  5
260
330
259
100
AcDbEntity
  8
HATCH
100
AcDbVertex
100
AcDb2dVertex
 10
487.8566827283757
 20
840.0
 30
0.0
 42
-0.2634471391022978
  0
VERTEX
  5
261
330
259
100
AcDbEntity
  8
HATCH
100
AcDbVertex
100
AcDb2dVertex
 10
478.2793029912627
 20
845.4226202628868
 30
0.0
 42
-0.1359329595457247
 70
     1
  0
SEQEND
  5
262
330
259
100
AcDbEntity
  8
HATCH
  0
POLYLINE
  5
263
330
18
100
AcDbEntity
  8
HATCH
100
AcDb2dPolyline
 66
     1
 10
0.0
 20
0.0
 30
0.0
 70
     3
  0
VERTEX
  5
264
330
263
100
AcDbEntity
  8
HATCH
100
AcDbVertex
100
AcDb2dVertex
 10
502.8566827283757
 20
865.0
 30
0.0
 42
-0.1359329595457255
  0
VERTEX
  5
265
330
263
100
AcDbEntity
  8
HATCH
100
AcDbVertex
100
AcDb2dVertex
 10
508.2793029912624
 20
884.5773797371132
 30
0.0
 42
-0.2634471391023026
 70
     1
  0
VERTEX
  5
266
330
263
100
AcDbEntity
  8
HATCH
100
AcDbVertex
100
AcDb2dVertex
 10
517.8566827283757
 20
890.0
 30
0.0
 42
-0.2634471391023005
  0
VERTEX
  5
267
330
263
100
AcDbEntity
  8
HATCH
100
AcDbVertex
100
AcDb2dVertex
 10
527.434062465489
 20
884.5773797371132
 30
0.0
 42
-0.1359329595457275
 70
     1
  0
VERTEX
  5
268
330
263
100
AcDbEntity
  8
HATCH
100
AcDbVertex
100
AcDb2dVertex
 10
532.8566827283757
 20
865.0
 30
0.0
 42
-0.1359329595457261
  0
VERTEX
  5
269
330
263
100
AcDbEntity
  8
HATCH
100
AcDbVertex
100
AcDb2dVertex
 10
527.434062465489
 20
845.4226202628868
 30
0.0
 42
-0.2634471391022992
 70
     1
  0
VERTEX
  5
26A
330
263
100
AcDbEntity
  8
HATCH
100
AcDbVertex
100
AcDb2dVertex
 10
517.8566827283757
 20
840.0
 30
0.0
 42
-0.2634471391022978
  0
VERTEX
  5
26B
330
263
100
AcDbEntity
  8
HATCH
100
AcDbVertex
100
AcDb2dVertex
 10
508.2793029912624
 20
845.4226202628868
 30
0.0
 42
-0.1359329595457247
 70
     1
  0
SEQEND
  5
26C
330
263
100
AcDbEntity
  8
HATCH
  0
POLYLINE
  5
26D
330
18
100
AcDbEntity
  8
HATCH
100
AcDb2dPolyline
 66
     1
 10
0.0
 20
0.0
 30
0.0
 70
     3
  0
VERTEX
  5
26E
330
26D
100
AcDbEntity
  8
HATCH
100
AcDbVertex
100
AcDb2dVertex
 10
532.8566827283757
 20
865.0
 30
0.0
 42
-0.1359329595457255
  0
VERTEX
  5
26F
330
26D
100
AcDbEntity
  8
HATCH
100
AcDbVertex
100
AcDb2dVertex
 10
538.2793029912625
 20
884.5773797371132
 30
0.0
 42
-0.2634471391023026
 70
     1
  0
VERTEX
  5
270
330
26D
100
AcDbEntity
  8
HATCH
100
AcDbVertex
100
AcDb2dVertex
 10
547.8566827283757
 20
890.0
 30
0.0
 42
-0.2634471391023005
  0
VERTEX
  5
271
330
26D
100
AcDbEntity
  8
HATCH
100
AcDbVertex
100
AcDb2dVertex
 10
557.4340624654889
 20
884.5773797371132
 30
0.0
 42
-0.1359329595457275
 70
     1
  0
VERTEX
  5
272
330
26D
100
AcDbEntity
  8
HATCH
100
AcDbVertex
100
AcDb2dVertex
 10
562.8566827283757
 20
865.0
 30
0.0
 42
-0.1359329595457261
  0
VERTEX
  5
273
330
26D
100
AcDbEntity
  8
HATCH
100
AcDbVertex
100
AcDb2dVertex
 10
557.4340624654889
 20
845.4226202628868
 30
0.0
 42
-0.2634471391022992
 70
     1
  0
VERTEX
  5
274
330
26D
100
AcDbEntity
  8
HATCH
100
AcDbVertex
100
AcDb2dVertex
 10
547.8566827283757
 20
840.0
 30
0.0
 42
-0.2634471391022978
  0
VERTEX
  5
275
330
26D
100
AcDbEntity
  8
HATCH
100
AcDbVertex
100
AcDb2dVertex
 10
538.2793029912625
 20
845.4226202628868
 30
0.0
 42
-0.1359329595457247
 70
     1
  0
SEQEND
  5
276
330
26D
100
AcDbEntity
  8
HATCH
  0
POLYLINE
  5
277
330
18
100
AcDbEntity
  8
HATCH
100
AcDb2dPolyline
 66
     1
 10
0.0
 20
0.0
 30
0.0
 70
     3
  0
VERTEX
  5
278
330
277
100
AcDbEntity
  8
HATCH
100
AcDbVertex
100
AcDb2dVertex
 10
842.8566827283757
 20
865.0
 30
0.0
 42
-0.1359329595457255
  0
VERTEX
  5
279
330
277
100
AcDbEntity
  8
HATCH
100
AcDbVertex
100
AcDb2dVertex
 10
848.2793029912622
 20
884.5773797371132
 30
0.0
 42
-0.2634471391023026
 70
     1
  0
VERTEX
  5
27A
330
277
100
AcDbEntity
  8
HATCH
100
AcDbVertex
100
AcDb2dVertex
 10
857.8566827283758
 20
890.0
 30
0.0
 42
-0.2634471391023005
  0
VERTEX
  5
27B
330
277
100
AcDbEntity
  8
HATCH
100
AcDbVertex
100
AcDb2dVertex
 10
867.4340624654886
 20
884.5773797371132
 30
0.0
 42
-0.1359329595457275
 70
     1
  0
VERTEX
  5
27C
330
277
100
AcDbEntity
  8
HATCH
100
AcDbVertex
100
AcDb2dVertex
 10
872.8566827283756
 20
865.0
 30
0.0
 42
-0.1359329595457261
  0
VERTEX
  5
27D
330
277
100
AcDbEntity
  8
HATCH
100
AcDbVertex
100
AcDb2dVertex
 10
867.434062465489
 20
845.4226202628868
 30
0.0
 42
-0.2634471391022992
 70
     1
  0
VERTEX
  5
27E
330
277
100
AcDbEntity
  8
HATCH
100
AcDbVertex
100
AcDb2dVertex
 10
857.8566827283758
 20
840.0
 30
0.0
 42
-0.2634471391022978
  0
VERTEX
  5
27F
330
277
100
AcDbEntity
  8
HATCH
100
AcDbVertex
100
AcDb2dVertex
 10
848.2793029912622
 20
845.4226202628868
 30
0.0
 42
-0.1359329595457247
 70
     1
  0
SEQEND
  5
280
330
277
100
AcDbEntity
  8
HATCH
  0
POLYLINE
  5
281
330
18
100
AcDbEntity
  8
HATCH
100
AcDb2dPolyline
 66
     1
 10
0.0
 20
0.0
 30
0.0
 70
     3
  0
VERTEX
  5
282
330
281
100
AcDbEntity
  8
HATCH
100
AcDbVertex
100
AcDb2dVertex
 10
812.8566827283757
 20
865.0
 30
0.0
 42
-0.1359329595457255
  0
VERTEX
  5
283
330
281
100
AcDbEntity
  8
HATCH
100
AcDbVertex
100
AcDb2dVertex
 10
818.2793029912623
 20
884.5773797371132
 30
0.0
 42
-0.2634471391023026
 70
     1
  0
VERTEX
  5
284
330
281
100
AcDbEntity
  8
HATCH
100
AcDbVertex
100
AcDb2dVertex
 10
827.8566827283757
 20
890.0
 30
0.0
 42
-0.2634471391023005
  0
VERTEX
  5
285
330
281
100
AcDbEntity
  8
HATCH
100
AcDbVertex
100
AcDb2dVertex
 10
837.4340624654887
 20
884.5773797371132
 30
0.0
 42
-0.1359329595457275
 70
     1
  0
VERTEX
  5
286
330
281
100
AcDbEntity
  8
HATCH
100
AcDbVertex
100
AcDb2dVertex
 10
842.8566827283757
 20
865.0
 30
0.0
 42
-0.1359329595457261
  0
VERTEX
  5
287
330
281
100
AcDbEntity
  8
HATCH
100
AcDbVertex
100
AcDb2dVertex
 10
837.4340624654889
 20
845.4226202628868
 30
0.0
 42
-0.2634471391022992
 70
     1
  0
VERTEX
  5
288
330
281
100
AcDbEntity
  8
HATCH
100
AcDbVertex
100
AcDb2dVertex
 10
827.8566827283757
 20
840.0
 30
0.0
 42
-0.2634471391022978
  0
VERTEX
  5
289
330
281
100
AcDbEntity
  8
HATCH
100
AcDbVertex
100
AcDb2dVertex
 10
818.2793029912623
 20
845.4226202628868
 30
0.0
 42
-0.1359329595457247
 70
     1
  0
SEQEND
  5
28A
330
281
100
AcDbEntity
  8
HATCH
  0
POLYLINE
  5
28B
330
18
100
AcDbEntity
  8
HATCH
100
AcDb2dPolyline
 66
     1
 10
0.0
 20
0.0
 30
0.0
 70
     3
  0
VERTEX
  5
28C
330
28B
100
AcDbEntity
  8
HATCH
100
AcDbVertex
100
AcDb2dVertex
 10
782.8566827283757
 20
865.0
 30
0.0
 42
-0.1359329595457255
  0
VERTEX
  5
28D
330
28B
100
AcDbEntity
  8
HATCH
100
AcDbVertex
100
AcDb2dVertex
 10
788.2793029912622
 20
884.5773797371132
 30
0.0
 42
-0.2634471391023026
 70
     1
  0
VERTEX
  5
28E
330
28B
100
AcDbEntity
  8
HATCH
100
AcDbVertex
100
AcDb2dVertex
 10
797.8566827283757
 20
890.0
 30
0.0
 42
-0.2634471391023005
  0
VERTEX
  5
28F
330
28B
100
AcDbEntity
  8
HATCH
100
AcDbVertex
100
AcDb2dVertex
 10
807.4340624654887
 20
884.5773797371132
 30
0.0
 42
-0.1359329595457275
 70
     1
  0
VERTEX
  5
290
330
28B
100
AcDbEntity
  8
HATCH
100
AcDbVertex
100
AcDb2dVertex
 10
812.8566827283757
 20
865.0
 30
0.0
 42
-0.1359329595457261
  0
VERTEX
  5
291
330
28B
100
AcDbEntity
  8
HATCH
100
AcDbVertex
100
AcDb2dVertex
 10
807.434062465489
 20
845.4226202628868
 30
0.0
 42
-0.2634471391022992
 70
     1
  0
VERTEX
  5
292
330
28B
100
AcDbEntity
  8
HATCH
100
AcDbVertex
100
AcDb2dVertex
 10
797.8566827283757
 20
840.0
 30
0.0
 42
-0.2634471391022978
  0
VERTEX
  5
293
330
28B
100
AcDbEntity
  8
HATCH
100
AcDbVertex
100
AcDb2dVertex
 10
788.2793029912622
 20
845.4226202628868
 30
0.0
 42
-0.1359329595457247
 70
     1
  0
SEQEND
  5
294
330
28B
100
AcDbEntity
  8
HATCH
  0
LWPOLYLINE
  5
295
330
18
100
AcDbEntity
  8
HATCH
100
AcDbPolyline
 90
        7
 70
     0
 43
0.0
 10
762.8566827283757
 20
888.8183257025717
 42
-0.1165619263718565
 10
767.8566827283757
 20
890.0
 42
-0.2634471391023005
 10
777.4340624654887
 20
884.5773797371132
 42
-0.1359329595457275
 10
782.8566827283757
 20
865.0
 42
-0.1359329595457261
 10
777.434062465489
 20
845.4226202628868
 42
-0.2634471391022992
 10
767.8566827283757
 20
840.0
 42
-0.1165619263718558
 10
762.8566827283757
 20
841.1816742974282
 42
-0.1359329595457247
  0
POLYLINE
  5
29E
330
18
100
AcDbEntity
  8
HATCH
100
AcDb2dPolyline
 66
     1
 10
0.0
 20
0.0
 30
0.0
 70
     3
  0
VERTEX
  5
29F
330
29E
100
AcDbEntity
  8
HATCH
100
AcDbVertex
100
AcDb2dVertex
 10
1642.856682728375
 20
865.0
 30
0.0
 42
-0.1359329595457255
  0
VERTEX
  5
2A0
330
29E
100
AcDbEntity
  8
HATCH
100
AcDbVertex
100
AcDb2dVertex
 10
1648.279302991262
 20
884.5773797371132
 30
0.0
 42
-0.2634471391023026
 70
     1
  0
VERTEX
  5
2A1
330
29E
100
AcDbEntity
  8
HATCH
100
AcDbVertex
100
AcDb2dVertex
 10
1657.856682728376
 20
890.0
 30
0.0
 42
-0.2634471391023005
  0
VERTEX
  5
2A2
330
29E
100
AcDbEntity
  8
HATCH
100
AcDbVertex
100
AcDb2dVertex
 10
1667.434062465489
 20
884.5773797371132
 30
0.0
 42
-0.1359329595457275
 70
     1
  0
VERTEX
  5
2A3
330
29E
100
AcDbEntity
  8
HATCH
100
AcDbVertex
100
AcDb2dVertex
 10
1672.856682728375
 20
865.0
 30
0.0
 42
-0.1359329595457261
  0
VERTEX
  5
2A4
330
29E
100
AcDbEntity
  8
HATCH
100
AcDbVertex
100
AcDb2dVertex
 10
1667.434062465489
 20
845.4226202628868
 30
0.0
 42
-0.2634471391022992
 70
     1
  0
VERTEX
  5
2A5
330
29E
100
AcDbEntity
  8
HATCH
100
AcDbVertex
100
AcDb2dVertex
 10
1657.856682728376
 20
840.0
 30
0.0
 42
-0.2634471391022978
  0
VERTEX
  5
2A6
330
29E
100
AcDbEntity
  8
HATCH
100
AcDbVertex
100
AcDb2dVertex
 10
1648.279302991262
 20
845.4226202628868
 30
0.0
 42
-0.1359329595457247
 70
     1
  0
SEQEND
  5
2A7
330
29E
100
AcDbEntity
  8
HATCH
  0
LWPOLYLINE
  5
2A8
330
18
100
AcDbEntity
  8
HATCH
100
AcDbPolyline
 90
        7
 70
     0
 43
0.0
 10
1562.856682728376
 20
888.8183257025717
 42
-0.1165619263718565
 10
1567.856682728376
 20
890.0
 42
-0.2634471391023005
 10
1577.434062465489
 20
884.5773797371132
 42
-0.1359329595457275
 10
1582.856682728376
 20
865.0
 42
-0.1359329595457261
 10
1577.434062465489
 20
845.4226202628868
 42
-0.2634471391022992
 10
1567.856682728376
 20
840.0
 42
-0.1165619263718558
 10
1562.856682728376
 20
841.1816742974282
 42
-0.1359329595457247
  0
POLYLINE
  5
2B1
330
18
100
AcDbEntity
  8
HATCH
100
AcDb2dPolyline
 66
     1
 10
0.0
 20
0.0
 30
0.0
 70
     3
  0
VERTEX
  5
2B2
330
2B1
100
AcDbEntity
  8
HATCH
100
AcDbVertex
100
AcDb2dVertex
 10
1582.856682728376
 20
865.0
 30
0.0
 42
-0.1359329595457255
  0
VERTEX
  5
2B3
330
2B1
100
AcDbEntity
  8
HATCH
100
AcDbVertex
100
AcDb2dVertex
 10
1588.279302991262
 20
884.5773797371132
 30
0.0
 42
-0.2634471391023026
 70
     1
  0
VERTEX
  5
2B4
330
2B1
100
AcDbEntity
  8
HATCH
100
AcDbVertex
100
AcDb2dVertex
 10
1597.856682728376
 20
890.0
 30
0.0
 42
-0.2634471391023005
  0
VERTEX
  5
2B5
330
2B1
100
AcDbEntity
  8
HATCH
100
AcDbVertex
100
AcDb2dVertex
 10
1607.434062465489
 20
884.5773797371132
 30
0.0
 42
-0.1359329595457275
 70
     1
  0
VERTEX
  5
2B6
330
2B1
100
AcDbEntity
  8
HATCH
100
AcDbVertex
100
AcDb2dVertex
 10
1612.856682728376
 20
865.0
 30
0.0
 42
-0.1359329595457261
  0
VERTEX
  5
2B7
330
2B1
100
AcDbEntity
  8
HATCH
100
AcDbVertex
100
AcDb2dVertex
 10
1607.434062465489
 20
845.4226202628868
 30
0.0
 42
-0.2634471391022992
 70
     1
  0
VERTEX
  5
2B8
330
2B1
100
AcDbEntity
  8
HATCH
100
AcDbVertex
100
AcDb2dVertex
 10
1597.856682728376
 20
840.0
 30
0.0
 42
-0.2634471391022978
  0
VERTEX
  5
2B9
330
2B1
100
AcDbEntity
  8
HATCH
100
AcDbVertex
100
AcDb2dVertex
 10
1588.279302991262
 20
845.4226202628868
 30
0.0
 42
-0.1359329595457247
 70
     1
  0
SEQEND
  5
2BA
330
2B1
100
AcDbEntity
  8
HATCH
  0
POLYLINE
  5
2BB
330
18
100
AcDbEntity
  8
HATCH
100
AcDb2dPolyline
 66
     1
 10
0.0
 20
0.0
 30
0.0
 70
     3
  0
VERTEX
  5
2BC
330
2BB
100
AcDbEntity
  8
HATCH
100
AcDbVertex
100
AcDb2dVertex
 10
1612.856682728376
 20
865.0
 30
0.0
 42
-0.1359329595457255
  0
VERTEX
  5
2BD
330
2BB
100
AcDbEntity
  8
HATCH
100
AcDbVertex
100
AcDb2dVertex
 10
1618.279302991262
 20
884.5773797371132
 30
0.0
 42
-0.2634471391023026
 70
     1
  0
VERTEX
  5
2BE
330
2BB
100
AcDbEntity
  8
HATCH
100
AcDbVertex
100
AcDb2dVertex
 10
1627.856682728376
 20
890.0
 30
0.0
 42
-0.2634471391023005
  0
VERTEX
  5
2BF
330
2BB
100
AcDbEntity
  8
HATCH
100
AcDbVertex
100
AcDb2dVertex
 10
1637.434062465489
 20
884.5773797371132
 30
0.0
 42
-0.1359329595457275
 70
     1
  0
VERTEX
  5
2C0
330
2BB
100
AcDbEntity
  8
HATCH
100
AcDbVertex
100
AcDb2dVertex
 10
1642.856682728375
 20
865.0
 30
0.0
 42
-0.1359329595457261
  0
VERTEX
  5
2C1
330
2BB
100
AcDbEntity
  8
HATCH
100
AcDbVertex
100
AcDb2dVertex
 10
1637.434062465489
 20
845.4226202628868
 30
0.0
 42
-0.2634471391022992
 70
     1
  0
VERTEX
  5
2C2
330
2BB
100
AcDbEntity
  8
HATCH
100
AcDbVertex
100
AcDb2dVertex
 10
1627.856682728376
 20
840.0
 30
0.0
 42
-0.2634471391022978
  0
VERTEX
  5
2C3
330
2BB
100
AcDbEntity
  8
HATCH
100
AcDbVertex
100
AcDb2dVertex
 10
1618.279302991262
 20
845.4226202628868
 30
0.0
 42
-0.1359329595457247
 70
     1
  0
SEQEND
  5
2C4
330
2BB
100
AcDbEntity
  8
HATCH
  0
POLYLINE
  5
2C5
330
18
100
AcDbEntity
  8
HATCH
100
AcDb2dPolyline
 66
     1
 10
0.0
 20
0.0
 30
0.0
 70
     3
  0
VERTEX
  5
2C6
330
2C5
100
AcDbEntity
  8
HATCH
100
AcDbVertex
100
AcDb2dVertex
 10
1332.856682728376
 20
865.0
 30
0.0
 42
-0.1359329595457255
  0
VERTEX
  5
2C7
330
2C5
100
AcDbEntity
  8
HATCH
100
AcDbVertex
100
AcDb2dVertex
 10
1338.279302991262
 20
884.5773797371132
 30
0.0
 42
-0.2634471391023026
 70
     1
  0
VERTEX
  5
2C8
330
2C5
100
AcDbEntity
  8
HATCH
100
AcDbVertex
100
AcDb2dVertex
 10
1347.856682728375
 20
890.0
 30
0.0
 42
-0.2634471391023005
  0
VERTEX
  5
2C9
330
2C5
100
AcDbEntity
  8
HATCH
100
AcDbVertex
100
AcDb2dVertex
 10
1357.434062465489
 20
884.5773797371132
 30
0.0
 42
-0.1359329595457275
 70
     1
  0
VERTEX
  5
2CA
330
2C5
100
AcDbEntity
  8
HATCH
100
AcDbVertex
100
AcDb2dVertex
 10
1362.856682728376
 20
865.0
 30
0.0
 42
-0.1359329595457261
  0
VERTEX
  5
2CB
330
2C5
100
AcDbEntity
  8
HATCH
100
AcDbVertex
100
AcDb2dVertex
 10
1357.434062465489
 20
845.4226202628868
 30
0.0
 42
-0.2634471391022992
 70
     1
  0
VERTEX
  5
2CC
330
2C5
100
AcDbEntity
  8
HATCH
100
AcDbVertex
100
AcDb2dVertex
 10
1347.856682728375
 20
840.0
 30
0.0
 42
-0.2634471391022978
  0
VERTEX
  5
2CD
330
2C5
100
AcDbEntity
  8
HATCH
100
AcDbVertex
100
AcDb2dVertex
 10
1338.279302991262
 20
845.4226202628868
 30
0.0
 42
-0.1359329595457247
 70
     1
  0
SEQEND
  5
2CE
330
2C5
100
AcDbEntity
  8
HATCH
  0
POLYLINE
  5
2CF
330
18
100
AcDbEntity
  8
HATCH
100
AcDb2dPolyline
 66
     1
 10
0.0
 20
0.0
 30
0.0
 70
     3
  0
VERTEX
  5
2D0
330
2CF
100
AcDbEntity
  8
HATCH
100
AcDbVertex
100
AcDb2dVertex
 10
1302.856682728376
 20
865.0
 30
0.0
 42
-0.1359329595457255
  0
VERTEX
  5
2D1
330
2CF
100
AcDbEntity
  8
HATCH
100
AcDbVertex
100
AcDb2dVertex
 10
1308.279302991262
 20
884.5773797371132
 30
0.0
 42
-0.2634471391023026
 70
     1
  0
VERTEX
  5
2D2
330
2CF
100
AcDbEntity
  8
HATCH
100
AcDbVertex
100
AcDb2dVertex
 10
1317.856682728376
 20
890.0
 30
0.0
 42
-0.2634471391023005
  0
VERTEX
  5
2D3
330
2CF
100
AcDbEntity
  8
HATCH
100
AcDbVertex
100
AcDb2dVertex
 10
1327.434062465489
 20
884.5773797371132
 30
0.0
 42
-0.1359329595457275
 70
     1
  0
VERTEX
  5
2D4
330
2CF
100
AcDbEntity
  8
HATCH
100
AcDbVertex
100
AcDb2dVertex
 10
1332.856682728376
 20
865.0
 30
0.0
 42
-0.1359329595457261
  0
VERTEX
  5
2D5
330
2CF
100
AcDbEntity
  8
HATCH
100
AcDbVertex
100
AcDb2dVertex
 10
1327.434062465489
 20
845.4226202628868
 30
0.0
 42
-0.2634471391022992
 70
     1
  0
VERTEX
  5
2D6
330
2CF
100
AcDbEntity
  8
HATCH
100
AcDbVertex
100
AcDb2dVertex
 10
1317.856682728376
 20
840.0
 30
0.0
 42
-0.2634471391022978
  0
VERTEX
  5
2D7
330
2CF
100
AcDbEntity
  8
HATCH
100
AcDbVertex
100
AcDb2dVertex
 10
1308.279302991262
 20
845.4226202628868
 30
0.0
 42
-0.1359329595457247
 70
     1
  0
SEQEND
  5
2D8
330
2CF
100
AcDbEntity
  8
HATCH
  0
POLYLINE
  5
2D9
330
18
100
AcDbEntity
  8
HATCH
100
AcDb2dPolyline
 66
     1
 10
0.0
 20
0.0
 30
0.0
 70
     3
  0
VERTEX
  5
2DA
330
2D9
100
AcDbEntity
  8
HATCH
100
AcDbVertex
100
AcDb2dVertex
 10
1272.856682728376
 20
865.0
 30
0.0
 42
-0.1359329595457255
  0
VERTEX
  5
2DB
330
2D9
100
AcDbEntity
  8
HATCH
100
AcDbVertex
100
AcDb2dVertex
 10
1278.279302991262
 20
884.5773797371132
 30
0.0
 42
-0.2634471391023026
 70
     1
  0
VERTEX
  5
2DC
330
2D9
100
AcDbEntity
  8
HATCH
100
AcDbVertex
100
AcDb2dVertex
 10
1287.856682728375
 20
890.0
 30
0.0
 42
-0.2634471391023005
  0
VERTEX
  5
2DD
330
2D9
100
AcDbEntity
  8
HATCH
100
AcDbVertex
100
AcDb2dVertex
 10
1297.434062465489
 20
884.5773797371132
 30
0.0
 42
-0.1359329595457275
 70
     1
  0
VERTEX
  5
2DE
330
2D9
100
AcDbEntity
  8
HATCH
100
AcDbVertex
100
AcDb2dVertex
 10
1302.856682728376
 20
865.0
 30
0.0
 42
-0.1359329595457261
  0
VERTEX
  5
2DF
330
2D9
100
AcDbEntity
  8
HATCH
100
AcDbVertex
100
AcDb2dVertex
 10
1297.434062465489
 20
845.4226202628868
 30
0.0
 42
-0.2634471391022992
 70
     1
  0
VERTEX
  5
2E0
330
2D9
100
AcDbEntity
  8
HATCH
100
AcDbVertex
100
AcDb2dVertex
 10
1287.856682728375
 20
840.0
 30
0.0
 42
-0.2634471391022978
  0
VERTEX
  5
2E1
330
2D9
100
AcDbEntity
  8
HATCH
100
AcDbVertex
100
AcDb2dVertex
 10
1278.279302991262
 20
845.4226202628868
 30
0.0
 42
-0.1359329595457247
 70
     1
  0
SEQEND
  5
2E2
330
2D9
100
AcDbEntity
  8
HATCH
  0
POLYLINE
  5
2E3
330
18
100
AcDbEntity
  8
HATCH
100
AcDb2dPolyline
 66
     1
 10
0.0
 20
0.0
 30
0.0
 70
     3
  0
VERTEX
  5
2E4
330
2E3
100
AcDbEntity
  8
HATCH
100
AcDbVertex
100
AcDb2dVertex
 10
2398.634968461704
 20
865.0
 30
0.0
 42
-0.1359329595457255
  0
VERTEX
  5
2E5
330
2E3
100
AcDbEntity
  8
HATCH
100
AcDbVertex
100
AcDb2dVertex
 10
2404.05758872459
 20
884.5773797371132
 30
0.0
 42
-0.2634471391023026
 70
     1
  0
VERTEX
  5
2E6
330
2E3
100
AcDbEntity
  8
HATCH
100
AcDbVertex
100
AcDb2dVertex
 10
2413.634968461704
 20
890.0
 30
0.0
 42
-0.2634471391023005
  0
VERTEX
  5
2E7
330
2E3
100
AcDbEntity
  8
HATCH
100
AcDbVertex
100
AcDb2dVertex
 10
2423.212348198817
 20
884.5773797371132
 30
0.0
 42
-0.1359329595457275
 70
     1
  0
VERTEX
  5
2E8
330
2E3
100
AcDbEntity
  8
HATCH
100
AcDbVertex
100
AcDb2dVertex
 10
2428.634968461704
 20
865.0
 30
0.0
 42
-0.1359329595457261
  0
VERTEX
  5
2E9
330
2E3
100
AcDbEntity
  8
HATCH
100
AcDbVertex
100
AcDb2dVertex
 10
2423.212348198817
 20
845.4226202628868
 30
0.0
 42
-0.2634471391022992
 70
     1
  0
VERTEX
  5
2EA
330
2E3
100
AcDbEntity
  8
HATCH
100
AcDbVertex
100
AcDb2dVertex
 10
2413.634968461704
 20
840.0
 30
0.0
 42
-0.2634471391022978
  0
VERTEX
  5
2EB
330
2E3
100
AcDbEntity
  8
HATCH
100
AcDbVertex
100
AcDb2dVertex
 10
2404.05758872459
 20
845.4226202628868
 30
0.0
 42
-0.1359329595457247
 70
     1
  0
SEQEND
  5
2EC
330
2E3
100
AcDbEntity
  8
HATCH
  0
LWPOLYLINE
  5
2ED
330
18
100
AcDbEntity
  8
HATCH
100
AcDbPolyline
 90
        7
 70
     0
 43
0.0
 10
2318.634968461704
 20
888.8183257025717
 42
-0.1165619263718565
 10
2323.634968461703
 20
890.0
 42
-0.2634471391023005
 10
2333.212348198816
 20
884.5773797371132
 42
-0.1359329595457275
 10
2338.634968461704
 20
865.0
 42
-0.1359329595457261
 10
2333.212348198816
 20
845.4226202628868
 42
-0.2634471391022992
 10
2323.634968461703
 20
840.0
 42
-0.1165619263718558
 10
2318.634968461704
 20
841.1816742974282
 42
-0.1359329595457247
  0
POLYLINE
  5
2F6
330
18
100
AcDbEntity
  8
HATCH
100
AcDb2dPolyline
 66
     1
 10
0.0
 20
0.0
 30
0.0
 70
     3
  0
VERTEX
  5
2F7
330
2F6
100
AcDbEntity
  8
HATCH
100
AcDbVertex
100
AcDb2dVertex
 10
2338.634968461704
 20
865.0
 30
0.0
 42
-0.1359329595457255
  0
VERTEX
  5
2F8
330
2F6
100
AcDbEntity
  8
HATCH
100
AcDbVertex
100
AcDb2dVertex
 10
2344.05758872459
 20
884.5773797371132
 30
0.0
 42
-0.2634471391023026
 70
     1
  0
VERTEX
  5
2F9
330
2F6
100
AcDbEntity
  8
HATCH
100
AcDbVertex
100
AcDb2dVertex
 10
2353.634968461704
 20
890.0
 30
0.0
 42
-0.2634471391023005
  0
VERTEX
  5
2FA
330
2F6
100
AcDbEntity
  8
HATCH
100
AcDbVertex
100
AcDb2dVertex
 10
2363.212348198817
 20
884.5773797371132
 30
0.0
 42
-0.1359329595457275
 70
     1
  0
VERTEX
  5
2FB
330
2F6
100
AcDbEntity
  8
HATCH
100
AcDbVertex
100
AcDb2dVertex
 10
2368.634968461703
 20
865.0
 30
0.0
 42
-0.1359329595457261
  0
VERTEX
  5
2FC
330
2F6
100
AcDbEntity
  8
HATCH
100
AcDbVertex
100
AcDb2dVertex
 10
2363.212348198817
 20
845.4226202628868
 30
0.0
 42
-0.2634471391022992
 70
     1
  0
VERTEX
  5
2FD
330
2F6
100
AcDbEntity
  8
HATCH
100
AcDbVertex
100
AcDb2dVertex
 10
2353.634968461704
 20
840.0
 30
0.0
 42
-0.2634471391022978
  0
VERTEX
  5
2FE
330
2F6
100
AcDbEntity
  8
HATCH
100
AcDbVertex
100
AcDb2dVertex
 10
2344.05758872459
 20
845.4226202628868
 30
0.0
 42
-0.1359329595457247
 70
     1
  0
SEQEND
  5
2FF
330
2F6
100
AcDbEntity
  8
HATCH
  0
POLYLINE
  5
300
330
18
100
AcDbEntity
  8
HATCH
100
AcDb2dPolyline
 66
     1
 10
0.0
 20
0.0
 30
0.0
 70
     3
  0
VERTEX
  5
301
330
300
100
AcDbEntity
  8
HATCH
100
AcDbVertex
100
AcDb2dVertex
 10
2368.634968461703
 20
865.0
 30
0.0
 42
-0.1359329595457255
  0
VERTEX
  5
302
330
300
100
AcDbEntity
  8
HATCH
100
AcDbVertex
100
AcDb2dVertex
 10
2374.05758872459
 20
884.5773797371132
 30
0.0
 42
-0.2634471391023026
 70
     1
  0
VERTEX
  5
303
330
300
100
AcDbEntity
  8
HATCH
100
AcDbVertex
100
AcDb2dVertex
 10
2383.634968461703
 20
890.0
 30
0.0
 42
-0.2634471391023005
  0
VERTEX
  5
304
330
300
100
AcDbEntity
  8
HATCH
100
AcDbVertex
100
AcDb2dVertex
 10
2393.212348198817
 20
884.5773797371132
 30
0.0
 42
-0.1359329595457275
 70
     1
  0
VERTEX
  5
305
330
300
100
AcDbEntity
  8
HATCH
100
AcDbVertex
100
AcDb2dVertex
 10
2398.634968461704
 20
865.0
 30
0.0
 42
-0.1359329595457261
  0
VERTEX
  5
306
330
300
100
AcDbEntity
  8
HATCH
100
AcDbVertex
100
AcDb2dVertex
 10
2393.212348198817
 20
845.4226202628868
 30
0.0
 42
-0.2634471391022992
 70
     1
  0
VERTEX
  5
307
330
300
100
AcDbEntity
  8
HATCH
100
AcDbVertex
100
AcDb2dVertex
 10
2383.634968461703
 20
840.0
 30
0.0
 42
-0.2634471391022978
  0
VERTEX
  5
308
330
300
100
AcDbEntity
  8
HATCH
100
AcDbVertex
100
AcDb2dVertex
 10
2374.05758872459
 20
845.4226202628868
 30
0.0
 42
-0.1359329595457247
 70
     1
  0
SEQEND
  5
309
330
300
100
AcDbEntity
  8
HATCH
  0
POLYLINE
  5
30A
330
18
100
AcDbEntity
  8
HATCH
100
AcDb2dPolyline
 66
     1
 10
0.0
 20
0.0
 30
0.0
 70
     3
  0
VERTEX
  5
30B
330
30A
100
AcDbEntity
  8
HATCH
100
AcDbVertex
100
AcDb2dVertex
 10
2088.634968461704
 20
865.0
 30
0.0
 42
-0.1359329595457255
  0
VERTEX
  5
30C
330
30A
100
AcDbEntity
  8
HATCH
100
AcDbVertex
100
AcDb2dVertex
 10
2094.057588724591
 20
884.5773797371132
 30
0.0
 42
-0.2634471391023026
 70
     1
  0
VERTEX
  5
30D
330
30A
100
AcDbEntity
  8
HATCH
100
AcDbVertex
100
AcDb2dVertex
 10
2103.634968461704
 20
890.0
 30
0.0
 42
-0.2634471391023005
  0
VERTEX
  5
30E
330
30A
100
AcDbEntity
  8
HATCH
100
AcDbVertex
100
AcDb2dVertex
 10
2113.212348198817
 20
884.5773797371132
 30
0.0
 42
-0.1359329595457275
 70
     1
  0
VERTEX
  5
30F
330
30A
100
AcDbEntity
  8
HATCH
100
AcDbVertex
100
AcDb2dVertex
 10
2118.634968461703
 20
865.0
 30
0.0
 42
-0.1359329595457261
  0
VERTEX
  5
310
330
30A
100
AcDbEntity
  8
HATCH
100
AcDbVertex
100
AcDb2dVertex
 10
2113.212348198817
 20
845.4226202628868
 30
0.0
 42
-0.2634471391022992
 70
     1
  0
VERTEX
  5
311
330
30A
100
AcDbEntity
  8
HATCH
100
AcDbVertex
100
AcDb2dVertex
 10
2103.634968461704
 20
840.0
 30
0.0
 42
-0.2634471391022978
  0
VERTEX
  5
312
330
30A
100
AcDbEntity
  8
HATCH
100
AcDbVertex
100
AcDb2dVertex
 10
2094.057588724591
 20
845.4226202628868
 30
0.0
 42
-0.1359329595457247
 70
     1
  0
SEQEND
  5
313
330
30A
100
AcDbEntity
  8
HATCH
  0
POLYLINE
  5
314
330
18
100
AcDbEntity
  8
HATCH
100
AcDb2dPolyline
 66
     1
 10
0.0
 20
0.0
 30
0.0
 70
     3
  0
VERTEX
  5
315
330
314
100
AcDbEntity
  8
HATCH
100
AcDbVertex
100
AcDb2dVertex
 10
2058.634968461703
 20
865.0
 30
0.0
 42
-0.1359329595457255
  0
VERTEX
  5
316
330
314
100
AcDbEntity
  8
HATCH
100
AcDbVertex
100
AcDb2dVertex
 10
2064.05758872459
 20
884.5773797371132
 30
0.0
 42
-0.2634471391023026
 70
     1
  0
VERTEX
  5
317
330
314
100
AcDbEntity
  8
HATCH
100
AcDbVertex
100
AcDb2dVertex
 10
2073.634968461703
 20
890.0
 30
0.0
 42
-0.2634471391023005
  0
VERTEX
  5
318
330
314
100
AcDbEntity
  8
HATCH
100
AcDbVertex
100
AcDb2dVertex
 10
2083.212348198816
 20
884.5773797371132
 30
0.0
 42
-0.1359329595457275
 70
     1
  0
VERTEX
  5
319
330
314
100
AcDbEntity
  8
HATCH
100
AcDbVertex
100
AcDb2dVertex
 10
2088.634968461704
 20
865.0
 30
0.0
 42
-0.1359329595457261
  0
VERTEX
  5
31A
330
314
100
AcDbEntity
  8
HATCH
100
AcDbVertex
100
AcDb2dVertex
 10
2083.212348198816
 20
845.4226202628868
 30
0.0
 42
-0.2634471391022992
 70
     1
  0
VERTEX
  5
31B
330
314
100
AcDbEntity
  8
HATCH
100
AcDbVertex
100
AcDb2dVertex
 10
2073.634968461703
 20
840.0
 30
0.0
 42
-0.2634471391022978
  0
VERTEX
  5
31C
330
314
100
AcDbEntity
  8
HATCH
100
AcDbVertex
100
AcDb2dVertex
 10
2064.05758872459
 20
845.4226202628868
 30
0.0
 42
-0.1359329595457247
 70
     1
  0
SEQEND
  5
31D
330
314
100
AcDbEntity
  8
HATCH
  0
POLYLINE
  5
31E
330
18
100
AcDbEntity
  8
HATCH
100
AcDb2dPolyline
 66
     1
 10
0.0
 20
0.0
 30
0.0
 70
     3
  0
VERTEX
  5
31F
330
31E
100
AcDbEntity
  8
HATCH
100
AcDbVertex
100
AcDb2dVertex
 10
2028.634968461703
 20
865.0
 30
0.0
 42
-0.1359329595457255
  0
VERTEX
  5
320
330
31E
100
AcDbEntity
  8
HATCH
100
AcDbVertex
100
AcDb2dVertex
 10
2034.057588724591
 20
884.5773797371132
 30
0.0
 42
-0.2634471391023026
 70
     1
  0
VERTEX
  5
321
330
31E
100
AcDbEntity
  8
HATCH
100
AcDbVertex
100
AcDb2dVertex
 10
2043.634968461704
 20
890.0
 30
0.0
 42
-0.2634471391023005
  0
VERTEX
  5
322
330
31E
100
AcDbEntity
  8
HATCH
100
AcDbVertex
100
AcDb2dVertex
 10
2053.212348198817
 20
884.5773797371132
 30
0.0
 42
-0.1359329595457275
 70
     1
  0
VERTEX
  5
323
330
31E
100
AcDbEntity
  8
HATCH
100
AcDbVertex
100
AcDb2dVertex
 10
2058.634968461703
 20
865.0
 30
0.0
 42
-0.1359329595457261
  0
VERTEX
  5
324
330
31E
100
AcDbEntity
  8
HATCH
100
AcDbVertex
100
AcDb2dVertex
 10
2053.212348198817
 20
845.4226202628868
 30
0.0
 42
-0.2634471391022992
 70
     1
  0
VERTEX
  5
325
330
31E
100
AcDbEntity
  8
HATCH
100
AcDbVertex
100
AcDb2dVertex
 10
2043.634968461704
 20
840.0
 30
0.0
 42
-0.2634471391022978
  0
VERTEX
  5
326
330
31E
100
AcDbEntity
  8
HATCH
100
AcDbVertex
100
AcDb2dVertex
 10
2034.057588724591
 20
845.4226202628868
 30
0.0
 42
-0.1359329595457247
 70
     1
  0
SEQEND
  5
327
330
31E
100
AcDbEntity
  8
HATCH
  0
LINE
  5
328
330
18
100
AcDbEntity
  8
SJC
100
AcDbLine
 10
711.0066827283758
 20
1190.0
 30
0.0
 11
1434.706682728375
 21
1190.0
 31
0.0
1001
ACAD
1000
ASC_BOUNDS
1002
{
1070
    19
1005
CD1
1005
7CD
1002
}
  0
LINE
  5
329
330
18
100
AcDbEntity
  8
SJC
100
AcDbLine
 10
1511.006682728376
 20
1190.0
 30
0.0
 11
1719.957312866447
 21
1190.0
 31
0.0
1001
ACAD
1000
ASC_BOUNDS
1002
{
1070
    19
1005
7CD
1002
}
  0
LINE
  5
32A
330
18
100
AcDbEntity
  8
SJC
100
AcDbLine
 10
2266.784968461703
 20
1190.0
 30
0.0
 11
2479.168437653802
 21
1190.0
 31
0.0
1001
ACAD
1000
ASC_BOUNDS
1002
{
1070
    19
1005
C92
1002
}
  0
DIMENSION
  5
32B
330
18
100
AcDbEntity
  8
SUNPOU
100
AcDbDimension
  2
*D0
 10
1472.856682728376
 20
2024.790418515718
 30
0.0
 11
1072.856682728375
 21
2051.790418515718
 31
0.0
 70
    32
 71
     5
 42
-1.0
  3
SJC
100
AcDbAlignedDimension
 13
672.8566827283757
 23
1451.85
 33
0.0
 14
1472.856682728376
 24
1451.85
 34
0.0
100
AcDbRotatedDimension
1001
ACAD
1000
DSTYLE
1002
{
1070
   340
1005
374
1070
   140
1040
3.0
1070
   174
1070
     0
1070
    40
1040
10.0
1070
   147
1040
1.199999999999999
1070
   271
1070
     2
1070
   275
1070
     0
1002
}
  0
DIMENSION
  5
32C
330
18
100
AcDbEntity
  8
SUNPOU
100
AcDbDimension
  2
*D2
 10
1861.252736970924
 20
890.0
 30
0.0
 11
1834.252736970924
 21
1340.0
 31
0.0
 70
    32
 71
     5
 42
-1.0
  3
SJC
100
AcDbAlignedDimension
 13
1306.252736970924
 23
1790.0
 33
0.0
 14
1716.252736970924
 24
890.0
 34
0.0
 50
90.0
100
AcDbRotatedDimension
1001
ACAD
1000
DSTYLE
1002
{
1070
   340
1005
374
1070
   140
1040
3.0
1070
   174
1070
     0
1070
    40
1040
10.0
1070
   147
1040
1.199999999999999
1070
   271
1070
     2
1070
   275
1070
     0
1002
}
  0
SOLID
  5
32D
330
18
100
AcDbEntity
  8
MOJI
100
AcDbTrace
 10
1115.369225057911
 20
1804.623865506357
 30
0.0
 11
1109.867176649578
 21
1808.388424943636
 31
0.0
 12
1101.324522541905
 22
1790.0
 32
0.0
 13
1101.324522541905
 23
1790.0
 33
0.0
  0
LINE
  5
32E
330
18
100
AcDbEntity
  8
MOJI
100
AcDbLine
 10
1112.618200853745
 20
1806.506145224997
 30
0.0
 11
1166.171497500116
 21
1884.776348015847
 31
0.0
  0
LINE
  5
32F
330
18
100
AcDbEntity
  8
MOJI
100
AcDbLine
 10
1379.411669120493
 20
1884.776348015847
 30
0.0
 11
1166.261497500116
 21
1884.776348015847
 31
0.0
  0
DIMENSION
  5
331
330
18
100
AcDbEntity
  8
SUNPOU
100
AcDbDimension
  2
*D4
 10
1172.856682728377
 20
1451.850000000001
 30
0.0
 11
1264.68694723348
 21
1573.489642061801
 31
0.0
 70
    36
 71
     5
 42
-1.0
  3
SJC
100
AcDbRadialDimension
 15
1393.169352383989
 25
1655.473003585591
 35
0.0
 40
0.0
1001
ACAD
1000
DSTYLE
1002
{
1070
   340
1005
374
1070
   140
1040
3.0
1070
   174
1070
     0
1070
    40
1040
10.0
1070
   147
1040
1.199999999999999
1070
   271
1070
     2
1070
   275
1070
     0
1002
}
  0
LINE
  5
334
330
18
100
AcDbEntity
  8
MOJI
100
AcDbLine
 10
522.8566827283757
 20
1365.0
 30
0.0
 11
370.95831645002
 21
1365.0
 31
0.0
  0
LINE
  5
335
330
18
100
AcDbEntity
  8
MOJI
100
AcDbLine
 10
370.95831645002
 20
1440.0
 30
0.0
 11
370.8683164500198
 21
1440.0
 31
0.0
  0
TEXT
  5
336
330
18
100
AcDbEntity
  8
MOJI
100
AcDbText
 10
1173.230326808582
 20
1894.776348015847
 30
0.0
 40
30.0
  1
%%C76.3×t2.3
 41
0.8
  7
EXT08
100
AcDbText
  0
TEXT
  5
337
330
18
100
AcDbEntity
  8
MOJI
100
AcDbText
 10
383.0560196863844
 20
1375.0
 30
0.0
 40
30.0
  1
反射テープ
 41
0.8
  7
EXT08
100
AcDbText
  0
TEXT
  5
338
330
18
100
AcDbEntity
  8
MOJI
100
AcDbText
 10
409.6894635267163
 20
1325.0
 30
0.0
 40
30.0
  1
(赤色)
 41
0.8
  7
EXT08
100
AcDbText
  0
TEXT
  5
339
330
18
100
AcDbEntity
  8
MOJI
100
AcDbText
 10
1990.766392658821
 20
1200.0
 30
0.0
 40
30.0
  1
GL
 41
0.8
  7
EXT08
100
AcDbText
  0
DIMENSION
  5
34A
330
18
100
AcDbEntity
  8
SUNPOU
100
AcDbDimension
  2
*D3
 10
1647.856682728376
 20
1190.0
 30
0.0
 11
1618.079761156239
 21
1240.0
 31
0.0
 70
   160
 71
     5
 42
-1.0
  3
SJC
100
AcDbAlignedDimension
 13
1521.006682728376
 23
1290.0
 33
0.0
 14
1702.856682728375
 24
1190.0
 34
0.0
 50
90.0
100
AcDbRotatedDimension
1001
ACAD
1000
DSTYLE
1002
{
1070
   340
1005
374
1070
   140
1040
3.0
1070
   174
1070
     0
1070
    40
1040
10.0
1070
   147
1040
1.199999999999999
1070
   271
1070
     2
1070
   275
1070
     0
1002
}
  0
DIMENSION
  5
34D
330
18
100
AcDbEntity
  8
SUNPOU
100
AcDbDimension
  2
*D1
 10
1796.252736970924
 20
1190.000000000001
 30
0.0
 11
1769.252736970924
 21
1490.0
 31
0.0
 70
    32
 71
     5
 42
-1.0
  3
SJC
100
AcDbAlignedDimension
 13
1796.252736970924
 23
1790.0
 33
0.0
 14
1796.252736970924
 24
1190.000000000001
 34
0.0
 50
90.0
100
AcDbRotatedDimension
1001
ACAD
1000
DSTYLE
1002
{
1070
   340
1005
374
1070
   140
1040
3.0
1070
   174
1070
     0
1070
    40
1040
10.0
1070
   147
1040
1.199999999999999
1070
   271
1070
     2
1070
   275
1070
     0
1002
}
  0
LWPOLYLINE
  5
34E
330
18
100
AcDbEntity
  8
HATCH
100
AcDbPolyline
 90
        7
 70
     0
 43
0.0
 10
1382.856682728376
 20
841.1816742974282
 42
-0.1165619263718576
 10
1377.856682728376
 20
840.0
 42
-0.2634471391022978
 10
1368.279302991262
 20
845.4226202628868
 42
-0.1359329595457247
 10
1362.856682728376
 20
865.0
 42
-0.1359329595457255
 10
1368.279302991262
 20
884.5773797371132
 42
-0.2634471391023026
 10
1377.856682728376
 20
890.0
 42
-0.1165619263718579
 10
1382.856682728376
 20
888.8183257025717
 42
-0.1359329595457275
  0
LWPOLYLINE
  5
357
330
18
100
AcDbEntity
  8
HATCH
100
AcDbPolyline
 90
        7
 70
     0
 43
0.0
 10
2138.634968461703
 20
841.1816742974282
 42
-0.1165619263718576
 10
2133.634968461703
 20
840.0
 42
-0.2634471391022978
 10
2124.057588724591
 20
845.4226202628868
 42
-0.1359329595457247
 10
2118.634968461703
 20
865.0
 42
-0.1359329595457255
 10
2124.057588724591
 20
884.5773797371132
 42
-0.2634471391023026
 10
2133.634968461703
 20
890.0
 42
-0.1165619263718579
 10
2138.634968461703
 20
888.8183257025717
 42
-0.1359329595457275
  0
LWPOLYLINE
  5
360
330
18
100
AcDbEntity
  8
HATCH
100
AcDbPolyline
 90
        7
 70
     0
 43
0.0
 10
582.8566827283757
 20
841.1816742974282
 42
-0.1165619263718576
 10
577.8566827283757
 20
840.0
 42
-0.2634471391022978
 10
568.2793029912625
 20
845.4226202628868
 42
-0.1359329595457247
 10
562.8566827283757
 20
865.0
 42
-0.1359329595457255
 10
568.2793029912625
 20
884.5773797371132
 42
-0.2634471391023026
 10
577.8566827283757
 20
890.0
 42
-0.1165619263718579
 10
582.8566827283757
 20
888.8183257025717
 42
-0.1359329595457275
  0
TEXT
  5
38C
330
18
100
AcDbEntity
  8
INFORMATION
100
AcDbText
 10
1.0
 20
2.0
 30
0.0
 40
0.8
  1
PLOTTER=CALCOMP_TECHJET720
  7
EXT08
100
AcDbText
  0
TEXT
  5
38D
330
18
100
AcDbEntity
  8
INFORMATION
100
AcDbText
 10
1.0
 20
3.0
 30
0.0
 40
0.8
  1
PAPER=A3
  7
EXT08
100
AcDbText
  0
LINE
  5
73C
330
18
100
AcDbEntity
  8
SUNPOU
  6
ByBlock
100
AcDbLine
 10
1531.006682728376
 20
1390.0
 30
0.0
 11
1657.856682728376
 21
1390.0
 31
0.0
  0
LINE
  5
73E
330
18
100
AcDbEntity
  8
SUNPOU
  6
ByBlock
100
AcDbLine
 10
1647.856682728376
 20
1370.0
 30
0.0
 11
1647.856682728376
 21
1350.0
 31
0.0
  0
SOLID
  5
742
330
18
100
AcDbEntity
  8
SUNPOU
  6
ByBlock
100
AcDbTrace
 10
1644.523349395042
 20
1370.0
 30
0.0
 11
1651.190016061709
 21
1370.0
 31
0.0
 12
1647.856682728376
 22
1390.0
 32
0.0
 13
1647.856682728376
 23
1390.0
 33
0.0
  0
POINT
  5
743
330
18
100
AcDbEntity
  8
DEFPOINTS
  6
ByBlock
 62
     0
100
AcDbPoint
 10
1521.006682728376
 20
1440.0
 30
0.0
  0
POINT
  5
744
330
18
100
AcDbEntity
  8
DEFPOINTS
  6
ByBlock
 62
     0
100
AcDbPoint
 10
1521.006682728376
 20
1390.0
 30
0.0
  0
POINT
  5
745
330
18
100
AcDbEntity
  8
SUNPOU
  6
ByBlock
 62
     0
100
AcDbPoint
 10
1647.856682728376
 20
1390.0
 30
0.0
  0
LINE
  5
746
330
18
100
AcDbEntity
  8
SUNPOU
  6
ByBlock
100
AcDbLine
 10
1637.856682728376
 20
1340.0
 30
0.0
 11
1637.856682728376
 21
1340.0
 31
0.0
  0
LINE
  5
748
330
18
100
AcDbEntity
  8
SUNPOU
  6
ByBlock
100
AcDbLine
 10
1647.856682728376
 20
1360.0
 30
0.0
 11
1647.856682728376
 21
1380.0
 31
0.0
  0
SOLID
  5
74C
330
18
100
AcDbEntity
  8
SUNPOU
  6
ByBlock
100
AcDbTrace
 10
1644.523349395042
 20
1360.0
 30
0.0
 11
1651.190016061709
 21
1360.0
 31
0.0
 12
1647.856682728376
 22
1340.0
 32
0.0
 13
1647.856682728376
 23
1340.0
 33
0.0
  0
POINT
  5
74E
330
18
100
AcDbEntity
  8
SUNPOU
  6
ByBlock
 62
     0
100
AcDbPoint
 10
1647.856682728376
 20
1340.0
 30
0.0
  0
LINE
  5
751
330
18
100
AcDbEntity
  8
SUNPOU
  6
ByBlock
100
AcDbLine
 10
1637.856682728376
 20
1390.0
 30
0.0
 11
1637.856682728376
 21
1390.0
 31
0.0
  0
LINE
  5
752
330
18
100
AcDbEntity
  8
SUNPOU
  6
ByBlock
100
AcDbLine
 10
1531.006682728376
 20
1340.0
 30
0.0
 11
1657.856682728376
 21
1340.0
 31
0.0
  0
MTEXT
  5
755
330
18
100
AcDbEntity
  8
SUNPOU
  6
ByBlock
100
AcDbMText
 10
1618.951053813074
 20
1365.0
 30
0.0
 40
30.0
 41
0.0
 71
     5
 72
     5
  1
\A1;50
  7
EXT08
 11
0.0
 21
1.0
 31
0.0
 73
     1
 44
1.0
  0
LINE
  5
756
330
18
100
AcDbEntity
  8
SUNPOU
  6
ByBlock
100
AcDbLine
 10
1647.856682728376
 20
1390.0
 30
0.0
 11
1647.856682728376
 21
1340.0
 31
0.0
  0
POINT
  5
759
330
18
100
AcDbEntity
  8
SUNPOU
  6
ByBlock
 62
     0
100
AcDbPoint
 10
1647.856682728376
 20
1390.0
 30
0.0
  0
POINT
  5
75A
330
18
100
AcDbEntity
  8
DEFPOINTS
  6
ByBlock
 62
     0
100
AcDbPoint
 10
1521.006682728376
 20
1340.0
 30
0.0
  0
POINT
  5
75B
330
18
100
AcDbEntity
  8
SUNPOU
  6
ByBlock
 62
     0
100
AcDbPoint
 10
1647.856682728376
 20
1340.0
 30
0.0
  0
LINE
  5
75C
330
18
100
AcDbEntity
  8
SUNPOU
  6
ByBlock
100
AcDbLine
 10
1647.856682728376
 20
1440.0
 30
0.0
 11
1647.856682728376
 21
1390.0
 31
0.0
  0
MTEXT
  5
75D
330
18
100
AcDbEntity
  8
SUNPOU
  6
ByBlock
100
AcDbMText
 10
1618.951053813074
 20
1415.0
 30
0.0
 40
30.0
 41
0.0
 71
     5
 72
     5
  1
\A1;50
  7
EXT08
 11
0.0
 21
1.0
 31
0.0
 73
     1
 44
1.0
  0
LINE
  5
75E
330
18
100
AcDbEntity
  8
SUNPOU
  6
ByBlock
100
AcDbLine
 10
1647.856682728376
 20
1410.0
 30
0.0
 11
1647.856682728376
 21
1430.0
 31
0.0
  0
LINE
  5
75F
330
18
100
AcDbEntity
  8
SUNPOU
  6
ByBlock
100
AcDbLine
 10
1647.856682728376
 20
1420.0
 30
0.0
 11
1647.856682728376
 21
1400.0
 31
0.0
  0
SOLID
  5
760
330
18
100
AcDbEntity
  8
SUNPOU
  6
ByBlock
100
AcDbTrace
 10
1644.523349395042
 20
1410.0
 30
0.0
 11
1651.190016061709
 21
1410.0
 31
0.0
 12
1647.856682728376
 22
1390.0
 32
0.0
 13
1647.856682728376
 23
1390.0
 33
0.0
  0
SOLID
  5
761
330
18
100
AcDbEntity
  8
SUNPOU
  6
ByBlock
100
AcDbTrace
 10
1644.523349395042
 20
1420.0
 30
0.0
 11
1651.190016061709
 21
1420.0
 31
0.0
 12
1647.856682728376
 22
1440.0
 32
0.0
 13
1647.856682728376
 23
1440.0
 33
0.0
  0
LINE
  5
762
330
18
100
AcDbEntity
  8
SUNPOU
  6
ByBlock
100
AcDbLine
 10
1531.006682728376
 20
1440.0
 30
0.0
 11
1657.856682728376
 21
1440.0
 31
0.0
  0
LINE
  5
763
330
18
100
AcDbEntity
  8
SUNPOU
  6
ByBlock
100
AcDbLine
 10
1647.856682728376
 20
1340.0
 30
0.0
 11
1647.856682728376
 21
1290.0
 31
0.0
  0
MTEXT
  5
764
330
18
100
AcDbEntity
  8
SUNPOU
  6
ByBlock
100
AcDbMText
 10
1618.951053813074
 20
1315.0
 30
0.0
 40
30.0
 41
0.0
 71
     5
 72
     5
  1
\A1;50
  7
EXT08
 11
0.0
 21
1.0
 31
0.0
 73
     1
 44
1.0
  0
LINE
  5
765
330
18
100
AcDbEntity
  8
SUNPOU
  6
ByBlock
100
AcDbLine
 10
1647.856682728376
 20
1310.0
 30
0.0
 11
1647.856682728376
 21
1330.0
 31
0.0
  0
LINE
  5
766
330
18
100
AcDbEntity
  8
SUNPOU
  6
ByBlock
100
AcDbLine
 10
1647.856682728376
 20
1320.0
 30
0.0
 11
1647.856682728376
 21
1300.0
 31
0.0
  0
SOLID
  5
76A
330
18
100
AcDbEntity
  8
SUNPOU
  6
ByBlock
100
AcDbTrace
 10
1644.523349395042
 20
1310.0
 30
0.0
 11
1651.190016061709
 21
1310.0
 31
0.0
 12
1647.856682728376
 22
1290.0
 32
0.0
 13
1647.856682728376
 23
1290.0
 33
0.0
  0
SOLID
  5
76C
330
18
100
AcDbEntity
  8
SUNPOU
  6
ByBlock
100
AcDbTrace
 10
1644.523349395042
 20
1320.0
 30
0.0
 11
1651.190016061709
 21
1320.0
 31
0.0
 12
1647.856682728376
 22
1340.0
 32
0.0
 13
1647.856682728376
 23
1340.0
 33
0.0
  0
LINE
  5
78A
330
18
100
AcDbEntity
  8
MOJI2
100
AcDbLine
 10
502.8477151823863
 20
2179.051034782893
 30
0.0
 11
614.3200995510178
 21
2179.051034782893
 31
0.0
  0
LINE
  5
78B
330
18
100
AcDbEntity
  8
MOJI2
100
AcDbLine
 10
502.8477151823863
 20
2189.051034782893
 30
0.0
 11
614.3200995510178
 21
2189.051034782893
 31
0.0
  0
TEXT
  5
78D
330
18
100
AcDbEntity
  8
MOJI2
100
AcDbText
 10
506.7506137217661
 20
2195.725237504698
 30
0.0
 40
40.0
  1
設置図 (1/10)
 41
0.8
  7
EXT08
100
AcDbText
  0
TEXT
  5
799
330
18
100
AcDbEntity
  8
MOJI
100
AcDbText
 10
424.9485893495911
 20
1200.0
 30
0.0
 40
30.0
  1
GL
 41
0.8
  7
EXT08
100
AcDbText
  0
INSERT
  5
7CD
330
18
100
AcDbEntity
  8
HATCH
100
AcDbBlockReference
  2
*X5
 10
-77.14331727162425
 20
0.0
 30
0.0
1001
ACAD
1000
HATCH
1002
{
1070
    19
1000
PLAST
1040
500.0
1040
0.7853981633974483
1000
ASC_BOUNDS
1070
     2
1070
     1
1070
     4
1005
329
1005
1CE
1005
226
1005
1CA
1070
     1
1070
     4
1005
328
1005
1C9
1005
226
1005
1CD
1000
ASC_SEEDPOINT
1011
1378.781682728376
1021
1102.371609406726
1031
0.0
1002
}
  0
DIMENSION
  5
7FD
330
18
100
AcDbEntity
  8
SUNPOU
100
AcDbDimension
  2
*D6
 10
1796.252736970924
 20
1190.0
 30
0.0
 11
1769.252736970924
 21
1040.0
 31
0.0
 70
    32
 71
     5
 42
-1.0
  3
SJC
100
AcDbAlignedDimension
 13
1672.856682728375
 23
890.0
 33
0.0
 14
1719.957312866447
 24
1190.0
 34
0.0
 50
90.0
100
AcDbRotatedDimension
1001
ACAD
1000
DSTYLE
1002
{
1070
   340
1005
374
1070
   140
1040
3.0
1070
   174
1070
     0
1070
    40
1040
10.0
1070
   147
1040
1.199999999999999
1070
   271
1070
     2
1070
   275
1070
     0
1002
}
  0
INSERT
  5
8C4
330
18
100
AcDbEntity
  8
HATCH
100
AcDbBlockReference
  2
*X7
 10
-77.14331727162425
 20
0.0
 30
0.0
1001
ACAD
1000
HATCH
1002
{
1070
    19
1000
ANSI37
1040
50.0
1040
0.0
1000
ASC_BOUNDS
1070
     2
1070
     1
1070
     4
1005
239
1005
1CB
1005
23D
1005
1C4
1070
     1
1070
     4
1005
239
1005
1C4
1005
23D
1005
1CC
1000
ASC_SEEDPOINT
1011
687.337108487396
1021
1407.713231258292
1031
0.0
1002
}
  0
INSERT
  5
8EE
330
18
100
AcDbEntity
  8
HATCH
100
AcDbBlockReference
  2
*X7
 10
-77.14331727162425
 20
-100.0
 30
0.0
1001
ACAD
1000
HATCH
1002
{
1070
    19
1000
ANSI37
1040
50.0
1040
0.0
1002
}
  0
INSERT
  5
8F1
330
18
100
AcDbEntity
  8
HATCH
100
AcDbBlockReference
  2
*X7
 10
722.8566827283757
 20
0.0
 30
0.0
1001
ACAD
1000
HATCH
1002
{
1070
    19
1000
ANSI37
1040
50.0
1040
0.0
1002
}
  0
INSERT
  5
8F2
330
18
100
AcDbEntity
  8
HATCH
100
AcDbBlockReference
  2
*X7
 10
722.8566827283757
 20
-100.0
 30
0.0
1001
ACAD
1000
HATCH
1002
{
1070
    19
1000
ANSI37
1040
50.0
1040
0.0
1002
}
  0
INSERT
  5
8F3
330
18
100
AcDbEntity
  8
HATCH
100
AcDbBlockReference
  2
*X7
 10
1478.634968461703
 20
0.0
 30
0.0
1001
ACAD
1000
HATCH
1002
{
1070
    19
1000
ANSI37
1040
50.0
1040
0.0
1002
}
  0
INSERT
  5
8F4
330
18
100
AcDbEntity
  8
HATCH
100
AcDbBlockReference
  2
*X7
 10
1478.634968461703
 20
-100.0
 30
0.0
1001
ACAD
1000
HATCH
1002
{
1070
    19
1000
ANSI37
1040
50.0
1040
0.0
1002
}
  0
INSERT
  5
904
330
18
100
AcDbEntity
  8
HATCH
100
AcDbBlockReference
  2
B0040021
 10
447.7878821543308
 20
1190.0
 30
0.0
 41
0.5
 42
0.5
 43
0.5
  0
INSERT
  5
905
330
18
100
AcDbEntity
  8
HATCH
100
AcDbBlockReference
  2
B0040021
 10
2000.39408853613
 20
1190.0
 30
0.0
 41
0.5
 42
0.5
 43
0.5
  0
INSERT
  5
95E
330
18
100
AcDbEntity
  8
ZWAKU
100
AcDbBlockReference
  2
CALCOMP_TECHJET720A3
 10
0.0
 20
0.0
 30
0.0
 41
10.0
 42
10.0
 43
10.0
  0
TEXT
  5
9AC
330
18
100
AcDbEntity
  8
INFORMATION
100
AcDbText
 10
1.0
 20
1.0
 30
0.0
 40
0.8
  1
VERSION=3.0
  7
EXT08
100
AcDbText
  0
TEXT
  5
AC6
330
18
100
AcDbEntity
  8
INFORMATION
100
AcDbText
 10
3701.0
 20
2.0
 30
0.0
 40
0.8
  1
PLOTTER=CALCOMP_TECHJET720
  7
EXT08
100
AcDbText
  0
TEXT
  5
AC7
330
18
100
AcDbEntity
  8
INFORMATION
100
AcDbText
 10
3701.0
 20
3.0
 30
0.0
 40
0.8
  1
PAPER=A3
  7
EXT08
100
AcDbText
  0
TEXT
  5
AC8
330
18
100
AcDbEntity
  8
INFORMATION
100
AcDbText
 10
3701.0
 20
1.0
 30
0.0
 40
0.8
  1
VERSION=3.0
  7
EXT08
100
AcDbText
  0
TEXT
  5
AC9
330
18
100
AcDbEntity
  8
INFORMATION
100
AcDbText
 10
7401.0
 20
2.0
 30
0.0
 40
0.8
  1
PLOTTER=CALCOMP_TECHJET720
100
AcDbText
  0
TEXT
  5
ACA
330
18
100
AcDbEntity
  8
INFORMATION
100
AcDbText
 10
7401.0
 20
3.0
 30
0.0
 40
0.8
  1
PAPER=A3
100
AcDbText
  0
TEXT
  5
ACB
330
18
100
AcDbEntity
  8
INFORMATION
100
AcDbText
 10
7401.0
 20
1.0
 30
0.0
 40
0.8
  1
VERSION=3.0
100
AcDbText
  0
INSERT
  5
C92
330
18
100
AcDbEntity
  8
HATCH
100
AcDbBlockReference
  2
*X10
 10
0.0
 20
0.0
 30
0.0
1001
ACAD
1000
HATCH
1002
{
1070
    19
1000
PLAST
1040
500.0
1040
0.7853981633974483
1000
ASC_BOUNDS
1070
     2
1070
     1
1070
     4
1005
32A
1005
1D8
1005
1DE
1005
1DA
1070
     1
1070
     4
1005
1DD
1005
1D9
1005
1DE
1005
1D7
1000
ASC_SEEDPOINT
1011
2134.559968461704
1021
1073.899796681882
1031
0.0
1002
}
  0
SOLID
  5
CA4
330
18
100
AcDbEntity
  8
MOJI
  6
Continuous
100
AcDbTrace
 10
617.5343064914188
 20
1329.089744426841
 30
0.0
 11
614.9661432277837
 21
1322.937591803916
 31
0.0
 12
634.7066827283754
 22
1318.309178324473
 32
0.0
 13
634.7066827283754
 23
1318.309178324473
 33
0.0
  0
LINE
  5
CA5
330
18
100
AcDbEntity
  8
MOJI
  6
Continuous
100
AcDbLine
 10
616.2502248596013
 20
1326.013668115379
 30
0.0
 11
522.8566827283753
 21
1364.999999999999
 31
0.0
  0
LINE
  5
CA6
330
18
100
AcDbEntity
  8
MOJI
  6
Continuous
100
AcDbLine
 10
616.2502248596013
 20
1403.986331884619
 30
0.0
 11
522.8566827283753
 21
1364.999999999999
 31
0.0
  0
SOLID
  5
CA7
330
18
100
AcDbEntity
  8
MOJI
  6
Continuous
100
AcDbTrace
 10
617.5343064914188
 20
1400.910255573156
 30
0.0
 11
614.9661432277837
 21
1407.062408196081
 31
0.0
 12
634.7066827283754
 22
1411.690821675524
 32
0.0
 13
634.7066827283754
 23
1411.690821675524
 33
0.0
  0
LINE
  5
CB3
330
18
100
AcDbEntity
  8
MOJI
100
AcDbLine
 10
2701.822231011507
 20
1014.781668734286
 30
0.0
 11
2701.822231011507
 21
1114.781668734286
 31
0.0
  0
LINE
  5
CB4
330
18
100
AcDbEntity
  8
MOJI
100
AcDbLine
 10
2701.822231011507
 20
1114.781668734286
 30
0.0
 11
3351.277629072014
 21
1114.781668734286
 31
0.0
  0
LINE
  5
CB5
330
18
100
AcDbEntity
  8
MOJI
100
AcDbLine
 10
3351.277629072014
 20
1114.781668734286
 30
0.0
 11
3351.277629072014
 21
1014.781668734286
 31
0.0
  0
LINE
  5
CB6
330
18
100
AcDbEntity
  8
MOJI
100
AcDbLine
 10
2845.417956151932
 20
1014.781668734286
 30
0.0
 11
2845.417956151932
 21
1114.781668734286
 31
0.0
  0
LINE
  5
CB7
330
18
100
AcDbEntity
  8
MOJI
100
AcDbLine
 10
2995.236426539059
 20
1014.781668734286
 30
0.0
 11
2995.236426539059
 21
1114.781668734286
 31
0.0
  0
TEXT
  5
CB8
330
18
100
AcDbEntity
  8
MOJI
100
AcDbText
 10
2717.753127115179
 20
1072.710664241059
 30
0.0
 40
30.0
  1
部 品 名
 41
0.8
  7
EXT08
100
AcDbText
  0
TEXT
  5
CB9
330
18
100
AcDbEntity
  8
MOJI
100
AcDbText
 10
2867.215818722147
 20
1072.710664241059
 30
0.0
 40
30.0
  1
材    質
 41
0.8
  7
EXT08
100
AcDbText
  0
TEXT
  5
CBA
330
18
100
AcDbEntity
  8
MOJI
100
AcDbText
 10
3097.135021743639
 20
1072.710664241059
 30
0.0
 40
30.0
  1
摘       要
 41
0.8
  7
EXT08
100
AcDbText
  0
TEXT
  5
CBB
330
18
100
AcDbEntity
  8
MOJI
100
AcDbText
 10
2717.294387855669
 20
1022.355634859847
 30
0.0
 40
30.0
  1
支    柱
 41
0.8
  7
EXT08
100
AcDbText
  0
TEXT
  5
CBC
330
18
100
AcDbEntity
  8
MOJI
100
AcDbText
 10
2853.073224494639
 20
1022.355634859847
 30
0.0
 40
30.0
  1
STK400
 41
0.8
  7
EXT08
100
AcDbText
  0
TEXT
  5
CBD
330
18
100
AcDbEntity
  8
MOJI
100
AcDbText
 10
3002.617133314865
 20
1022.355634859847
 30
0.0
 40
30.0
  1
亜鉛めっき＋静電粉体塗装
 41
0.8
  7
EXT08
100
AcDbText
  0
TEXT
  5
CBE
330
18
100
AcDbEntity
  8
MOJI2
100
AcDbText
 10
2707.329959408224
 20
1134.151138349329
 30
0.0
 40
40.0
  1
車止め3型
 41
0.8
  7
EXT08
100
AcDbText
  0
LINE
  5
CBF
330
18
100
AcDbEntity
  8
MOJI
100
AcDbLine
 10
2701.822231011507
 20
1064.781668734286
 30
0.0
 11
3351.277629072014
 21
1064.781668734286
 31
0.0
  0
LINE
  5
CC0
330
18
100
AcDbEntity
  8
MOJI
100
AcDbLine
 10
2701.822231011507
 20
1014.781668734286
 30
0.0
 11
3351.277629072014
 21
1014.781668734286
 31
0.0
  0
INSERT
  5
CD1
330
18
100
AcDbEntity
  8
HATCH
100
AcDbBlockReference
  2
*X11
 10
0.0
 20
0.0
 30
0.0
1001
ACAD
1000
HATCH
1002
{
1070
    19
1000
PLAST
1040
500.0
1040
0.7853981633974483
1000
ASC_BOUNDS
1070
     2
1070
     1
1070
     4
1005
328
1005
1CC
1005
1D0
1005
1C8
1070
     1
1070
     4
1005
1C6
1005
1C7
1005
1D0
1005
1CB
1000
ASC_SEEDPOINT
1011
585.576646067551
1021
939.1300366608247
1031
0.0
1002
}
  0
ARC
  5
CE8
330
18
100
AcDbEntity
  8
HASEN
100
AcDbCircle
 10
2228.634968461704
 20
1751.85
 30
0.0
 40
38.15000000000009
100
AcDbArc
 50
180.0
 51
0.0
  0
ENDSEC
  0
SECTION
  2
OBJECTS
  0
DICTIONARY
  5
C
330
0
100
AcDbDictionary
281
     1
  3
ACAD_COLOR
350
D18
  3
ACAD_GROUP
350
D
  3
ACAD_LAYOUT
350
D1B
  3
ACAD_MATERIAL
350
D17
  3
ACAD_MLINESTYLE
350
E
  3
ACAD_PLOTSETTINGS
350
D1C
  3
ACAD_PLOTSTYLENAME
350
D15
  3
ACAD_TABLESTYLE
350
D19
  3
AcDbVariableDictionary
350
D27
  0
DICTIONARY
  5
D18
102
{ACAD_REACTORS
330
C
102
}
330
C
100
AcDbDictionary
281
     1
  0
DICTIONARY
  5
D
102
{ACAD_REACTORS
330
C
102
}
330
C
100
AcDbDictionary
281
     1
  0
DICTIONARY
  5
D1B
102
{ACAD_REACTORS
330
C
102
}
330
C
100
AcDbDictionary
281
     1
  3
Model
350
D1D
  3
レイアウト1
350
D1E
  0
DICTIONARY
  5
D17
102
{ACAD_REACTORS
330
C
102
}
330
C
100
AcDbDictionary
281
     1
  0
DICTIONARY
  5
E
102
{ACAD_REACTORS
330
C
102
}
330
C
100
AcDbDictionary
281
     1
  3
STANDARD
350
1B
  0
DICTIONARY
  5
D1C
102
{ACAD_REACTORS
330
C
102
}
330
C
100
AcDbDictionary
281
     1
  0
ACDBDICTIONARYWDFLT
  5
D15
102
{ACAD_REACTORS
330
C
102
}
330
C
100
AcDbDictionary
281
     1
  3
Normal
350
D16
100
AcDbDictionaryWithDefault
340
D16
  0
DICTIONARY
  5
D19
102
{ACAD_REACTORS
330
C
102
}
330
C
100
AcDbDictionary
281
     1
  3
Standard
350
D1A
  0
DICTIONARY
  5
D27
102
{ACAD_REACTORS
330
C
102
}
330
C
100
AcDbDictionary
281
     1
  3
CTABLESTYLE
350
D28
  0
LAYOUT
  5
D1D
102
{ACAD_REACTORS
330
D1B
102
}
330
D1B
100
AcDbPlotSettings
  1

  2
none_device
  4
Letter_(8.50_x_11.00_Inches)
  6

 40
6.349999904632568
 41
6.349999904632568
 42
6.350006103515625
 43
6.350006103515625
 44
215.8999938964844
 45
279.3999938964844
 46
0.0
 47
0.0
 48
0.0
 49
0.0
140
0.0
141
0.0
142
1.0
143
444.575639502358
 70
 11952
 72
     0
 73
     1
 74
     0
  7
acad.stb
 75
     0
147
0.0022493360210185
 76
     0
 77
     2
 78
   300
148
5945.786518791322
149
282.4021406416045
100
AcDbLayout
  1
Model
 70
     1
 71
     0
 10
0.0
 20
0.0
 11
12.0
 21
9.0
 12
0.0
 22
0.0
 32
0.0
 14
0.0
 24
0.0
 34
0.0
 15
0.0
 25
0.0
 35
0.0
146
0.0
 13
0.0
 23
0.0
 33
0.0
 16
1.0
 26
0.0
 36
0.0
 17
0.0
 27
1.0
 37
0.0
 76
     0
330
18
1001
ACAD_PSEXT
1000
なし
1000
なし
1000
適切ではありません
1000
新しいプロッタ環境設定名を選択しない限り、レイアウトは印刷されません。
1070
     0
  0
LAYOUT
  5
D1E
102
{ACAD_REACTORS
330
D1B
102
}
330
D1B
100
AcDbPlotSettings
  1

  2
RICOH imagio MF5550 RPS
  4

  6

 40
0.0
 41
0.0
 42
0.0
 43
0.0
 44
0.0
 45
0.0
 46
0.0
 47
0.0
 48
0.0
 49
0.0
140
0.0
141
0.0
142
1.0
143
1.0
 70
   688
 72
     0
 73
     0
 74
     5
  7
acad.stb
 75
    16
147
1.0
 76
     0
 77
     2
 78
   300
148
0.0
149
0.0
100
AcDbLayout
  1
レイアウト1
 70
     1
 71
     1
 10
0.0
 20
0.0
 11
12.0
 21
9.0
 12
0.0
 22
0.0
 32
0.0
 14
1.000000000000000E+20
 24
1.000000000000000E+20
 34
1.000000000000000E+20
 15
-1.000000000000000E+20
 25
-1.000000000000000E+20
 35
-1.000000000000000E+20
146
0.0
 13
0.0
 23
0.0
 33
0.0
 16
1.0
 26
0.0
 36
0.0
 17
0.0
 27
1.0
 37
0.0
 76
     0
330
15
  0
MLINESTYLE
  5
1B
102
{ACAD_REACTORS
330
E
102
}
330
E
100
AcDbMlineStyle
  2
STANDARD
 70
     0
  3

 62
     0
 51
90.0
 52
90.0
 71
     2
 49
0.5
 62
   256
  6
BYLAYER
 49
-0.5
 62
   256
  6
BYLAYER
  0
ACDBPLACEHOLDER
  5
D16
102
{ACAD_REACTORS
330
D15
102
}
330
D15
  0
TABLESTYLE
  5
D1A
102
{ACAD_REACTORS
330
D19
102
}
330
D19
100
AcDbTableStyle
  3
Standard
 70
     0
 71
     0
 40
0.06
 41
0.06
280
     0
281
     0
  7
STANDARD
140
0.18
170
     2
 62
     0
 63
     7
283
     0
274
    -2
284
     1
 64
     0
275
    -2
285
     1
 65
     0
276
    -2
286
     1
 66
     0
277
    -2
287
     1
 67
     0
278
    -2
288
     1
 68
     0
279
    -2
289
     1
 69
     0
  7
STANDARD
140
0.25
170
     5
 62
     0
 63
     7
283
     0
274
    -2
284
     1
 64
     0
275
    -2
285
     1
 65
     0
276
    -2
286
     1
 66
     0
277
    -2
287
     1
 67
     0
278
    -2
288
     1
 68
     0
279
    -2
289
     1
 69
     0
  7
STANDARD
140
0.18
170
     5
 62
     0
 63
     7
283
     0
274
    -2
284
     1
 64
     0
275
    -2
285
     1
 65
     0
276
    -2
286
     1
 66
     0
277
    -2
287
     1
 67
     0
278
    -2
288
     1
 68
     0
279
    -2
289
     1
 69
     0
  0
DICTIONARYVAR
  5
D28
102
{ACAD_REACTORS
330
D27
102
}
330
D27
100
DictionaryVariables
280
     0
  1
STANDARD
  0
ENDSEC
  0
EOF
