  0
SECTION
  2
HEADER
  9
$ACADVER
  1
AC1018
  9
$ACADMAINTVER
 70
    39
  9
$DWGCODEPAGE
  3
ANSI_932
  9
$INSBASE
 10
0.0
 20
0.0
 30
0.0
  9
$EXTMIN
 10
-0.1281640493871237
 20
-0.0906302920675444
 30
-0.0015258207003583
  9
$EXTMAX
 10
3700.250253337727
 20
2670.081488499512
 30
0.0000000349246037
  9
$LIMMIN
 10
0.0
 20
0.0
  9
$LIMMAX
 10
4200.0
 20
2970.0
  9
$ORTHOMODE
 70
     0
  9
$REGENMODE
 70
     1
  9
$FILLMODE
 70
     1
  9
$QTEXTMODE
 70
     0
  9
$MIRRTEXT
 70
     0
  9
$LTSCALE
 40
100.0
  9
$ATTMODE
 70
     1
  9
$TEXTSIZE
 40
30.0
  9
$TRACEWID
 40
0.05
  9
$TEXTSTYLE
  7
EXT08
  9
$CLAYER
  8
SJC
  9
$CELTYPE
  6
BYLAYER
  9
$CECOLOR
 62
   256
  9
$CELTSCALE
 40
1.0
  9
$DISPSILH
 70
     0
  9
$DIMSCALE
 40
10.0
  9
$DIMASZ
 40
2.0
  9
$DIMEXO
 40
1.0
  9
$DIMDLI
 40
6.0
  9
$DIMRND
 40
0.0
  9
$DIMDLE
 40
0.0
  9
$DIMEXE
 40
1.0
  9
$DIMTP
 40
0.0
  9
$DIMTM
 40
0.0
  9
$DIMTXT
 40
3.0
  9
$DIMCEN
 40
0.09
  9
$DIMTSZ
 40
0.0
  9
$DIMTOL
 70
     0
  9
$DIMLIM
 70
     0
  9
$DIMTIH
 70
     0
  9
$DIMTOH
 70
     0
  9
$DIMSE1
 70
     0
  9
$DIMSE2
 70
     0
  9
$DIMTAD
 70
     1
  9
$DIMZIN
 70
     8
  9
$DIMBLK
  1

  9
$DIMASO
 70
     1
  9
$DIMSHO
 70
     1
  9
$DIMPOST
  1

  9
$DIMAPOST
  1

  9
$DIMALT
 70
     0
  9
$DIMALTD
 70
     2
  9
$DIMALTF
 40
25.4
  9
$DIMLFAC
 40
1.0
  9
$DIMTOFL
 70
     1
  9
$DIMTVP
 40
0.0
  9
$DIMTIX
 70
     0
  9
$DIMSOXD
 70
     0
  9
$DIMSAH
 70
     0
  9
$DIMBLK1
  1

  9
$DIMBLK2
  1

  9
$DIMSTYLE
  2
SJC
  9
$DIMCLRD
 70
   256
  9
$DIMCLRE
 70
   256
  9
$DIMCLRT
 70
   256
  9
$DIMTFAC
 40
1.0
  9
$DIMGAP
 40
1.199999999999999
  9
$DIMJUST
 70
     0
  9
$DIMSD1
 70
     0
  9
$DIMSD2
 70
     0
  9
$DIMTOLJ
 70
     1
  9
$DIMTZIN
 70
     0
  9
$DIMALTZ
 70
     0
  9
$DIMALTTZ
 70
     0
  9
$DIMUPT
 70
     0
  9
$DIMDEC
 70
     2
  9
$DIMTDEC
 70
     4
  9
$DIMALTU
 70
     2
  9
$DIMALTTD
 70
     2
  9
$DIMTXSTY
  7
EXT08
  9
$DIMAUNIT
 70
     1
  9
$DIMADEC
 70
     0
  9
$DIMALTRND
 40
0.0
  9
$DIMAZIN
 70
     0
  9
$DIMDSEP
 70
    46
  9
$DIMATFIT
 70
     3
  9
$DIMFRAC
 70
     0
  9
$DIMLDRBLK
  1

  9
$DIMLUNIT
 70
     2
  9
$DIMLWD
 70
    -2
  9
$DIMLWE
 70
    -2
  9
$DIMTMOVE
 70
     0
  9
$LUNITS
 70
     2
  9
$LUPREC
 70
     2
  9
$SKETCHINC
 40
0.1
  9
$FILLETRAD
 40
0.0
  9
$AUNITS
 70
     1
  9
$AUPREC
 70
     2
  9
$MENU
  1
C:\r13\win\SUPPORT\sjc
  9
$ELEVATION
 40
0.0
  9
$PELEVATION
 40
0.0
  9
$THICKNESS
 40
0.0
  9
$LIMCHECK
 70
     0
  9
$CHAMFERA
 40
0.0
  9
$CHAMFERB
 40
0.0
  9
$CHAMFERC
 40
0.0
  9
$CHAMFERD
 40
0.0
  9
$SKPOLY
 70
     0
  9
$TDCREATE
 40
2449346.392672107
  9
$TDUCREATE
 40
2449346.017672107
  9
$TDUPDATE
 40
2453858.699435220
  9
$TDUUPDATE
 40
2453858.324435220
  9
$TDINDWG
 40
0.1119967708
  9
$TDUSRTIMER
 40
0.1119967708
  9
$USRTIMER
 70
     1
  9
$ANGBASE
 50
0.0
  9
$ANGDIR
 70
     0
  9
$PDMODE
 70
     0
  9
$PDSIZE
 40
0.0
  9
$PLINEWID
 40
0.0
  9
$SPLFRAME
 70
     0
  9
$SPLINETYPE
 70
     6
  9
$SPLINESEGS
 70
     8
  9
$HANDSEED
  5
1BCF
  9
$SURFTAB1
 70
     6
  9
$SURFTAB2
 70
     6
  9
$SURFTYPE
 70
     6
  9
$SURFU
 70
     6
  9
$SURFV
 70
     6
  9
$UCSBASE
  2

  9
$UCSNAME
  2

  9
$UCSORG
 10
0.0
 20
0.0
 30
0.0
  9
$UCSXDIR
 10
1.0
 20
0.0
 30
0.0
  9
$UCSYDIR
 10
0.0
 20
1.0
 30
0.0
  9
$UCSORTHOREF
  2

  9
$UCSORTHOVIEW
 70
     0
  9
$UCSORGTOP
 10
0.0
 20
0.0
 30
0.0
  9
$UCSORGBOTTOM
 10
0.0
 20
0.0
 30
0.0
  9
$UCSORGLEFT
 10
0.0
 20
0.0
 30
0.0
  9
$UCSORGRIGHT
 10
0.0
 20
0.0
 30
0.0
  9
$UCSORGFRONT
 10
0.0
 20
0.0
 30
0.0
  9
$UCSORGBACK
 10
0.0
 20
0.0
 30
0.0
  9
$PUCSBASE
  2

  9
$PUCSNAME
  2

  9
$PUCSORG
 10
0.0
 20
0.0
 30
0.0
  9
$PUCSXDIR
 10
1.0
 20
0.0
 30
0.0
  9
$PUCSYDIR
 10
0.0
 20
1.0
 30
0.0
  9
$PUCSORTHOREF
  2

  9
$PUCSORTHOVIEW
 70
     0
  9
$PUCSORGTOP
 10
0.0
 20
0.0
 30
0.0
  9
$PUCSORGBOTTOM
 10
0.0
 20
0.0
 30
0.0
  9
$PUCSORGLEFT
 10
0.0
 20
0.0
 30
0.0
  9
$PUCSORGRIGHT
 10
0.0
 20
0.0
 30
0.0
  9
$PUCSORGFRONT
 10
0.0
 20
0.0
 30
0.0
  9
$PUCSORGBACK
 10
0.0
 20
0.0
 30
0.0
  9
$USERI1
 70
     3
  9
$USERI2
 70
    10
  9
$USERI3
 70
     0
  9
$USERI4
 70
     0
  9
$USERI5
 70
     0
  9
$USERR1
 40
0.1
  9
$USERR2
 40
0.0
  9
$USERR3
 40
0.0
  9
$USERR4
 40
0.0
  9
$USERR5
 40
0.0
  9
$WORLDVIEW
 70
     1
  9
$SHADEDGE
 70
     3
  9
$SHADEDIF
 70
    70
  9
$TILEMODE
 70
     1
  9
$MAXACTVP
 70
    16
  9
$PINSBASE
 10
0.0
 20
0.0
 30
0.0
  9
$PLIMCHECK
 70
     0
  9
$PEXTMIN
 10
1.000000000000000E+20
 20
1.000000000000000E+20
 30
1.000000000000000E+20
  9
$PEXTMAX
 10
-1.000000000000000E+20
 20
-1.000000000000000E+20
 30
-1.000000000000000E+20
  9
$PLIMMIN
 10
0.0
 20
0.0
  9
$PLIMMAX
 10
12.0
 20
9.0
  9
$UNITMODE
 70
     0
  9
$VISRETAIN
 70
     0
  9
$PLINEGEN
 70
     0
  9
$PSLTSCALE
 70
     1
  9
$TREEDEPTH
 70
  3020
  9
$CMLSTYLE
  2
STANDARD
  9
$CMLJUST
 70
     0
  9
$CMLSCALE
 40
1.0
  9
$PROXYGRAPHICS
 70
     1
  9
$MEASUREMENT
 70
     0
  9
$CELWEIGHT
370
    -1
  9
$ENDCAPS
280
     0
  9
$JOINSTYLE
280
     0
  9
$LWDISPLAY
290
     0
  9
$INSUNITS
 70
     0
  9
$HYPERLINKBASE
  1

  9
$STYLESHEET
  1
CALCOMP_TECHJET720.CTB
  9
$XEDIT
290
     1
  9
$CEPSNTYPE
380
     0
  9
$PSTYLEMODE
290
     1
  9
$FINGERPRINTGUID
  2
{41F79FF7-B094-4C16-817C-C8E1F93C0E7C}
  9
$VERSIONGUID
  2
{A739815F-C93A-493F-8F83-8B4A0F0722FF}
  9
$EXTNAMES
290
     1
  9
$PSVPSCALE
 40
0.0
  9
$OLESTARTUP
290
     0
  9
$SORTENTS
280
   127
  9
$INDEXCTL
280
     0
  9
$HIDETEXT
280
     0
  9
$XCLIPFRAME
290
     0
  9
$HALOGAP
280
     0
  9
$OBSCOLOR
 70
   257
  9
$OBSLTYPE
280
     0
  9
$INTERSECTIONDISPLAY
280
     0
  9
$INTERSECTIONCOLOR
 70
   257
  9
$DIMASSOC
280
     1
  9
$PROJECTNAME
  1

  0
ENDSEC
  0
SECTION
  2
CLASSES
  0
CLASS
  1
ACDBDICTIONARYWDFLT
  2
AcDbDictionaryWithDefault
  3
ObjectDBX Classes
 90
        0
 91
        1
280
     0
281
     0
  0
CLASS
  1
TABLESTYLE
  2
AcDbTableStyle
  3
ObjectDBX Classes
 90
     2047
 91
        1
280
     0
281
     0
  0
CLASS
  1
DICTIONARYVAR
  2
AcDbDictionaryVar
  3
ObjectDBX Classes
 90
        0
 91
        1
280
     0
281
     0
  0
ENDSEC
  0
SECTION
  2
TABLES
  0
TABLE
  2
VPORT
  5
8
330
0
100
AcDbSymbolTable
 70
     2
  0
VPORT
  5
1BCE
330
8
100
AcDbSymbolTableRecord
100
AcDbViewportTableRecord
  2
*Active
 70
     0
 10
0.0
 20
0.0
 11
1.0
 21
1.0
 12
2099.935917975306
 22
1484.954684853966
 13
0.0
 23
0.0
 14
10.0
 24
10.0
 15
0.0
 25
0.0
 16
0.0
 26
0.0
 36
1.0
 17
0.0
 27
0.0
 37
0.0
 40
2992.14575873483
 41
1.560099132589838
 42
50.0
 43
0.0
 44
0.0
 50
0.0
 51
0.0
 71
     0
 72
 10000
 73
     1
 74
     1
 75
     0
 76
     0
 77
     0
 78
     0
281
     0
 65
     1
110
0.0
120
0.0
130
0.0
111
1.0
121
0.0
131
0.0
112
0.0
122
1.0
132
0.0
 79
     0
146
0.0
  0
ENDTAB
  0
TABLE
  2
LTYPE
  5
5
330
0
100
AcDbSymbolTable
 70
     5
  0
LTYPE
  5
12
330
5
100
AcDbSymbolTableRecord
100
AcDbLinetypeTableRecord
  2
BYBLOCK
 70
     0
  3

 72
    65
 73
     0
 40
0.0
  0
LTYPE
  5
13
330
5
100
AcDbSymbolTableRecord
100
AcDbLinetypeTableRecord
  2
BYLAYER
 70
     0
  3

 72
    65
 73
     0
 40
0.0
  0
LTYPE
  5
14
330
5
100
AcDbSymbolTableRecord
100
AcDbLinetypeTableRecord
  2
CONTINUOUS
 70
     0
  3
Solid line
 72
    65
 73
     0
 40
0.0
  0
LTYPE
  5
3E
330
5
100
AcDbSymbolTableRecord
100
AcDbLinetypeTableRecord
  2
CENTER
 70
     0
  3
____ _ ____ _ ____ _ ____ _ ____ _ ____ _ ____ 
 72
    65
 73
     4
 40
2.0
 49
1.25
 74
     0
 49
-0.25
 74
     0
 49
0.25
 74
     0
 49
-0.25
 74
     0
  0
LTYPE
  5
3F
330
5
100
AcDbSymbolTableRecord
100
AcDbLinetypeTableRecord
  2
HIDDEN
 70
     0
  3
__ __ __ __ __ __ __ __ __ __ __ __ __ __ __ __
 72
    65
 73
     2
 40
0.375
 49
0.25
 74
     0
 49
-0.125
 74
     0
  0
LTYPE
  5
40
330
5
100
AcDbSymbolTableRecord
100
AcDbLinetypeTableRecord
  2
HIDDEN2
 70
     0
  3
_ _ _ _ _ _ _ _ _ _ _ _ _ _ _ _ _ _ _ _ _ _ _ _
 72
    65
 73
     2
 40
0.1875
 49
0.125
 74
     0
 49
-0.0625
 74
     0
  0
LTYPE
  5
41
330
5
100
AcDbSymbolTableRecord
100
AcDbLinetypeTableRecord
  2
PHANTOM
 70
     0
  3
______  __  __  ______  __  __  ______  __  __ 
 72
    65
 73
     6
 40
2.5
 49
1.25
 74
     0
 49
-0.25
 74
     0
 49
0.25
 74
     0
 49
-0.25
 74
     0
 49
0.25
 74
     0
 49
-0.25
 74
     0
  0
ENDTAB
  0
TABLE
  2
LAYER
  5
2
330
0
100
AcDbSymbolTable
 70
    18
  0
LAYER
  5
F
330
2
100
AcDbSymbolTableRecord
100
AcDbLayerTableRecord
  2
0
 70
     0
 62
     7
  6
CONTINUOUS
370
    -3
390
1BBB
  0
LAYER
  5
47
330
2
100
AcDbSymbolTableRecord
100
AcDbLayerTableRecord
  2
CENTER
 70
     0
 62
     3
  6
CENTER
370
    -3
390
1BBB
  0
LAYER
  5
48
330
2
100
AcDbSymbolTableRecord
100
AcDbLayerTableRecord
  2
HASEN
 70
     0
 62
     7
  6
HIDDEN
370
    -3
390
1BBB
  0
LAYER
  5
49
330
2
100
AcDbSymbolTableRecord
100
AcDbLayerTableRecord
  2
HOJO
 70
     0
 62
     8
  6
CONTINUOUS
370
    -3
390
1BBB
  0
LAYER
  5
4A
330
2
100
AcDbSymbolTableRecord
100
AcDbLayerTableRecord
  2
KASOU
 70
     0
 62
     2
  6
PHANTOM
370
    -3
390
1BBB
  0
LAYER
  5
4B
330
2
100
AcDbSymbolTableRecord
100
AcDbLayerTableRecord
  2
MOJI
 70
     0
 62
     6
  6
CONTINUOUS
370
    -3
390
1BBB
  0
LAYER
  5
4C
330
2
100
AcDbSymbolTableRecord
100
AcDbLayerTableRecord
  2
SJC
 70
     0
 62
     1
  6
CONTINUOUS
370
    -3
390
1BBB
  0
LAYER
  5
4D
330
2
100
AcDbSymbolTableRecord
100
AcDbLayerTableRecord
  2
SUNPOU
 70
     0
 62
     4
  6
CONTINUOUS
370
    -3
390
1BBB
  0
LAYER
  5
4E
330
2
100
AcDbSymbolTableRecord
100
AcDbLayerTableRecord
  2
WAKU
 70
     0
 62
     5
  6
CONTINUOUS
370
    -3
390
1BBB
  0
LAYER
  5
4F
330
2
100
AcDbSymbolTableRecord
100
AcDbLayerTableRecord
  2
DEFPOINTS
 70
     0
 62
     7
  6
CONTINUOUS
290
     0
370
    -3
390
1BBB
  0
LAYER
  5
50
330
2
100
AcDbSymbolTableRecord
100
AcDbLayerTableRecord
  2
ZWAKU
 70
     0
 62
    -7
  6
CONTINUOUS
370
    -3
390
1BBB
  0
LAYER
  5
728
330
2
100
AcDbSymbolTableRecord
100
AcDbLayerTableRecord
  2
INFORMATION
 70
     1
 62
     7
  6
CONTINUOUS
370
    -3
390
1BBB
  0
LAYER
  5
72B
330
2
100
AcDbSymbolTableRecord
100
AcDbLayerTableRecord
  2
SJC2
 70
     0
 62
     7
  6
CONTINUOUS
370
    -3
390
1BBB
  0
LAYER
  5
72C
330
2
100
AcDbSymbolTableRecord
100
AcDbLayerTableRecord
  2
MOJI2
 70
     0
 62
     1
  6
CONTINUOUS
370
    -3
390
1BBB
  0
LAYER
  5
72D
330
2
100
AcDbSymbolTableRecord
100
AcDbLayerTableRecord
  2
HATCH
 70
     0
 62
     2
  6
CONTINUOUS
370
    -3
390
1BBB
  0
LAYER
  5
12C1
330
2
100
AcDbSymbolTableRecord
100
AcDbLayerTableRecord
  2
1
 70
     0
 62
     7
  6
CONTINUOUS
370
    -3
390
1BBB
  0
LAYER
  5
12C2
330
2
100
AcDbSymbolTableRecord
100
AcDbLayerTableRecord
  2
2
 70
     0
 62
     7
  6
CONTINUOUS
370
    -3
390
1BBB
  0
LAYER
  5
12C3
330
2
100
AcDbSymbolTableRecord
100
AcDbLayerTableRecord
  2
7
 70
     0
 62
     7
  6
CONTINUOUS
370
    -3
390
1BBB
  0
ENDTAB
  0
TABLE
  2
STYLE
  5
3
330
0
100
AcDbSymbolTable
 70
    14
  0
STYLE
  5
10
330
3
100
AcDbSymbolTableRecord
100
AcDbTextStyleTableRecord
  2
STANDARD
 70
     0
 40
0.0
 41
1.0
 50
0.0
 71
     0
 42
30.0
  3
ROMANS.SHX
  4
BIGFONT
  0
STYLE
  5
3A
330
3
100
AcDbSymbolTableRecord
100
AcDbTextStyleTableRecord
  2
USER
 70
     0
 40
0.0
 41
1.0
 50
0.0
 71
     0
 42
30.0
  3
TXT
  4
BIGFONT
  0
STYLE
  5
3B
330
3
100
AcDbSymbolTableRecord
100
AcDbTextStyleTableRecord
  2
TEXT3030
 70
     0
 40
30.0
 41
1.0
 50
0.0
 71
     0
 42
30.0
  3
TXT
  4
BIGFONT
  0
STYLE
  5
3C
330
3
100
AcDbSymbolTableRecord
100
AcDbTextStyleTableRecord
  2
SIMPLEX
 70
     0
 40
0.0
 41
1.0
 50
0.0
 71
     0
 42
30.0
  3
SCRIPTS.SHX
  4

  0
STYLE
  5
3D
330
3
100
AcDbSymbolTableRecord
100
AcDbTextStyleTableRecord
  2
KANJI
 70
     0
 40
0.0
 41
1.0
 50
0.0
 71
     0
 42
30.0
  3
ROMANS.SHX
  4
BIGFONT.SHX
  0
STYLE
  5
73E
330
3
100
AcDbSymbolTableRecord
100
AcDbTextStyleTableRecord
  2
TATEEXT
 70
     4
 40
0.0
 41
1.0
 50
0.0
 71
     0
 42
30.0
  3
ROMANS
  4
EXTFONT
  0
STYLE
  5
73F
330
3
100
AcDbSymbolTableRecord
100
AcDbTextStyleTableRecord
  2
TATEBIG
 70
     4
 40
0.0
 41
1.0
 50
0.0
 71
     0
 42
30.0
  3
ROMANS
  4
BIGFONT
  0
STYLE
  5
740
330
3
100
AcDbSymbolTableRecord
100
AcDbTextStyleTableRecord
  2
EXT08
 70
     0
 40
0.0
 41
0.8
 50
0.0
 71
     0
 42
30.0
  3
ROMANS
  4
EXTFONT
  0
STYLE
  5
741
330
3
100
AcDbSymbolTableRecord
100
AcDbTextStyleTableRecord
  2
EXT
 70
     0
 40
0.0
 41
1.0
 50
0.0
 71
     0
 42
30.0
  3
ROMANS
  4
EXTFONT
  0
STYLE
  5
742
330
3
100
AcDbSymbolTableRecord
100
AcDbTextStyleTableRecord
  2
KANJI08
 70
     0
 40
0.0
 41
0.8
 50
0.0
 71
     0
 42
30.0
  3
ROMANS
  4
BIGFONT
  0
STYLE
  5
12C4
330
3
100
AcDbSymbolTableRecord
100
AcDbTextStyleTableRecord
  2
TEXT4545
 70
     0
 40
45.0
 41
1.0
 50
0.0
 71
     0
 42
30.0
  3
TXT
  4
BIGFONT
  0
STYLE
  5
12C5
330
3
100
AcDbSymbolTableRecord
100
AcDbTextStyleTableRecord
  2
TEXT6060
 70
     0
 40
60.0
 41
1.0
 50
0.0
 71
     0
 42
30.0
  3
txt
  4
bigfont
  0
STYLE
  5
12C6
330
3
100
AcDbSymbolTableRecord
100
AcDbTextStyleTableRecord
  2
A
 70
     0
 40
2.5
 41
0.6
 50
0.0
 71
     0
 42
30.0
  3
TXT
  4
BIGFONT
  0
STYLE
  5
12C7
330
3
100
AcDbSymbolTableRecord
100
AcDbTextStyleTableRecord
  2
TATE
 70
     4
 40
0.0
 41
1.0
 50
0.0
 71
     0
 42
30.0
  3
SIMPLEX
  4
BIGFONT
  0
ENDTAB
  0
TABLE
  2
VIEW
  5
6
330
0
100
AcDbSymbolTable
 70
     0
  0
ENDTAB
  0
TABLE
  2
UCS
  5
7
330
0
100
AcDbSymbolTable
 70
     0
  0
ENDTAB
  0
TABLE
  2
APPID
  5
9
330
0
100
AcDbSymbolTable
 70
     2
  0
APPID
  5
11
330
9
100
AcDbSymbolTableRecord
100
AcDbRegAppTableRecord
  2
ACAD
 70
     0
  0
APPID
  5
1BCB
330
9
100
AcDbSymbolTableRecord
100
AcDbRegAppTableRecord
  2
ACAD_PSEXT
 70
     0
  0
ENDTAB
  0
TABLE
  2
DIMSTYLE
  5
A
330
0
100
AcDbSymbolTable
 70
    29
100
AcDbDimStyleTable
 71
     0
  0
DIMSTYLE
105
44
330
A
100
AcDbSymbolTableRecord
100
AcDbDimStyleTableRecord
  2
S01-10AX
 70
     0
 41
20.0
 44
10.0
 73
     0
 74
     0
 77
     1
 78
     8
140
30.0
146
0.006
172
     1
174
     1
271
     1
272
     1
275
     1
279
     2
284
     8
285
     8
286
     8
340
3D
  0
DIMSTYLE
105
743
102
{ACAD_REACTORS
330
D3F
330
D56
330
D74
330
D75
330
16BF
330
16E0
102
}
330
A
100
AcDbSymbolTableRecord
100
AcDbDimStyleTableRecord
  2
SJC
 70
     0
340
10
  0
DIMSTYLE
105
B69
330
A
100
AcDbSymbolTableRecord
100
AcDbDimStyleTableRecord
  2
STANDARD
 70
     0
 40
10.0
 41
2.0
 42
1.0
 43
6.0
 44
1.0
 73
     0
 74
     0
 77
     1
 78
     8
140
3.0
147
1.199999999999999
172
     1
176
   256
177
   256
178
   256
271
     2
275
     1
279
     2
340
740
  0
DIMSTYLE
105
B6A
330
A
100
AcDbSymbolTableRecord
100
AcDbDimStyleTableRecord
  2
RUISEKI1
 70
     0
 40
10.0
 41
2.0
 42
1.0
 43
6.0
 44
30.0
 73
     0
 74
     0
 77
     1
 78
     8
140
3.0
147
1.5
172
     1
173
     1
176
   256
177
   256
178
   256
271
     2
275
     1
279
     2
340
740
  0
DIMSTYLE
105
B6B
330
A
100
AcDbSymbolTableRecord
100
AcDbDimStyleTableRecord
  2
RUISEKI2
 70
     0
 40
10.0
 41
2.0
 42
1.0
 43
6.0
 44
30.0
 73
     0
 74
     0
 77
     1
 78
     8
140
3.0
147
1.5
172
     1
173
     1
176
   256
177
   256
178
   256
271
     2
275
     1
279
     2
340
740
  0
DIMSTYLE
105
12C8
330
A
100
AcDbSymbolTableRecord
100
AcDbDimStyleTableRecord
  2
S01-10BX
 70
     0
 41
20.0
 44
10.0
 73
     0
 74
     0
 75
     1
 77
     1
 78
     8
140
30.0
146
0.006
172
     1
174
     1
271
     1
272
     1
275
     1
279
     2
284
     8
285
     8
286
     8
340
3D
  0
DIMSTYLE
105
12C9
330
A
100
AcDbSymbolTableRecord
100
AcDbDimStyleTableRecord
  2
S01-10CX
 70
     0
 41
20.0
 44
10.0
 73
     0
 74
     0
 76
     1
 77
     1
 78
     8
140
30.0
146
0.006
172
     1
174
     1
271
     1
272
     1
275
     1
279
     2
284
     8
285
     8
286
     8
340
3D
  0
DIMSTYLE
105
12CA
330
A
100
AcDbSymbolTableRecord
100
AcDbDimStyleTableRecord
  2
S01-10DX
 70
     0
 41
20.0
 44
10.0
 73
     0
 74
     0
 75
     1
 76
     1
 77
     1
 78
     8
140
30.0
146
0.006
172
     1
174
     1
271
     1
272
     1
275
     1
279
     2
284
     8
285
     8
286
     8
340
3D
  0
DIMSTYLE
105
12CB
330
A
100
AcDbSymbolTableRecord
100
AcDbDimStyleTableRecord
  2
S01-10AA
 70
     0
  3
□<>
 41
20.0
 44
10.0
 73
     0
 74
     0
 77
     1
 78
     8
140
30.0
146
0.006
172
     1
174
     1
271
     1
272
     1
275
     1
279
     2
284
     8
285
     8
286
     8
340
3D
  0
DIMSTYLE
105
12CC
330
A
100
AcDbSymbolTableRecord
100
AcDbDimStyleTableRecord
  2
S01-05AX
 70
     0
 41
20.0
 44
10.0
 73
     0
 74
     0
 77
     1
 78
     8
140
30.0
144
0.5
146
0.006
172
     1
174
     1
271
     1
272
     1
275
     1
279
     2
284
     8
285
     8
286
     8
340
3D
  0
DIMSTYLE
105
12CD
330
A
100
AcDbSymbolTableRecord
100
AcDbDimStyleTableRecord
  2
S01-05AB
 70
     0
  3
φ<>
 41
20.0
 44
10.0
 73
     0
 74
     0
 77
     1
 78
     8
140
30.0
144
0.5
146
0.006
172
     1
174
     1
271
     1
272
     1
275
     1
279
     2
284
     8
285
     8
286
     8
340
3D
  0
DIMSTYLE
105
12CE
330
A
100
AcDbSymbolTableRecord
100
AcDbDimStyleTableRecord
  2
S01-05DB
 70
     0
  3
φ<>
 41
20.0
 44
10.0
 73
     0
 74
     0
 75
     1
 76
     1
 77
     1
 78
     8
140
30.0
144
0.5
146
0.006
172
     1
174
     1
271
     1
272
     1
275
     1
279
     2
284
     8
285
     8
286
     8
340
3D
  0
DIMSTYLE
105
12CF
330
A
100
AcDbSymbolTableRecord
100
AcDbDimStyleTableRecord
  2
S01-05CX
 70
     0
 41
20.0
 44
10.0
 73
     0
 74
     0
 76
     1
 77
     1
 78
     8
140
30.0
144
0.5
146
0.006
172
     1
174
     1
271
     1
272
     1
275
     1
279
     2
284
     8
285
     8
286
     8
340
3D
  0
DIMSTYLE
105
12D0
330
A
100
AcDbSymbolTableRecord
100
AcDbDimStyleTableRecord
  2
S01-15AX
 70
     0
 41
30.0
 44
15.0
 73
     0
 74
     0
 77
     1
 78
     8
140
45.0
146
0.004
172
     1
174
     1
279
     2
284
     8
285
     8
286
     8
340
12C4
  0
DIMSTYLE
105
12D1
330
A
100
AcDbSymbolTableRecord
100
AcDbDimStyleTableRecord
  2
S01-15BX
 70
     0
 41
30.0
 44
15.0
 73
     0
 74
     0
 75
     1
 77
     1
 78
     8
140
45.0
146
0.004
172
     1
174
     1
271
     1
272
     1
275
     1
279
     2
284
     8
285
     8
286
     8
340
3D
  0
DIMSTYLE
105
12D2
330
A
100
AcDbSymbolTableRecord
100
AcDbDimStyleTableRecord
  2
S01-25AX
 70
     0
 41
50.0
 42
25.0
 43
0.4
 44
25.0
 73
     0
 74
     0
 77
     1
 78
     8
140
62.5
141
0.1
146
0.0032
147
0.1
172
     1
176
   256
177
   256
178
   256
271
     1
272
     1
275
     1
279
     2
284
     8
285
     8
286
     8
340
3D
  0
DIMSTYLE
105
12D3
330
A
100
AcDbSymbolTableRecord
100
AcDbDimStyleTableRecord
  2
S01-04AX
 70
     0
 41
50.0
 42
25.0
 43
0.4
 44
25.0
 73
     0
 74
     0
 77
     1
 78
     8
140
62.5
141
0.1
144
0.16
146
0.0032
147
0.1
172
     1
176
   256
177
   256
178
   256
271
     1
272
     1
275
     1
279
     2
284
     8
285
     8
286
     8
340
3D
  0
DIMSTYLE
105
12D4
330
A
100
AcDbSymbolTableRecord
100
AcDbDimStyleTableRecord
  2
S01-25BX
 70
     0
 41
50.0
 42
25.0
 43
0.4
 44
25.0
 73
     0
 74
     0
 75
     1
 77
     1
 78
     8
140
62.5
141
0.1
146
0.0032
147
0.1
172
     1
176
   256
177
   256
178
   256
271
     1
272
     1
275
     1
279
     2
284
     8
285
     8
286
     8
340
3D
  0
DIMSTYLE
105
12D5
330
A
100
AcDbSymbolTableRecord
100
AcDbDimStyleTableRecord
  2
S01-04BX
 70
     0
 41
50.0
 42
25.0
 43
0.4
 44
25.0
 73
     0
 74
     0
 75
     1
 77
     1
 78
     8
140
62.5
141
0.1
144
0.16
146
0.0032
147
0.1
172
     1
176
   256
177
   256
178
   256
271
     1
272
     1
275
     1
279
     2
284
     8
285
     8
286
     8
340
3D
  0
DIMSTYLE
105
12D6
330
A
100
AcDbSymbolTableRecord
100
AcDbDimStyleTableRecord
  2
S01-20AX
 70
     0
 41
40.0
 44
20.0
 73
     0
 74
     0
 77
     1
 78
     8
140
60.0
146
0.003
172
     1
174
     1
271
     1
272
     1
275
     1
279
     2
284
     8
285
     8
286
     8
340
3D
  0
DIMSTYLE
105
12D7
330
A
100
AcDbSymbolTableRecord
100
AcDbDimStyleTableRecord
  2
S01-20AA
 70
     0
  3
□<>
 41
40.0
 44
20.0
 73
     0
 74
     0
 77
     1
 78
     8
140
60.0
146
0.003
172
     1
174
     1
271
     1
272
     1
275
     1
279
     2
284
     8
285
     8
286
     8
340
3D
  0
DIMSTYLE
105
12D8
330
A
100
AcDbSymbolTableRecord
100
AcDbDimStyleTableRecord
  2
S01-03BX
 70
     0
 41
40.0
 44
20.0
 73
     0
 74
     0
 75
     1
 77
     1
 78
     8
140
60.0
144
0.15
146
0.003
172
     1
174
     1
271
     1
272
     1
275
     1
279
     2
284
     8
285
     8
286
     8
340
3D
  0
DIMSTYLE
105
12D9
330
A
100
AcDbSymbolTableRecord
100
AcDbDimStyleTableRecord
  2
S01-03AB
 70
     0
  3
φ<>
 41
40.0
 44
20.0
 73
     0
 74
     0
 77
     1
 78
     8
140
60.0
144
0.15
146
0.003
172
     1
174
     1
271
     1
272
     1
275
     1
279
     2
284
     8
285
     8
286
     8
340
3D
  0
DIMSTYLE
105
12DA
330
A
100
AcDbSymbolTableRecord
100
AcDbDimStyleTableRecord
  2
S01-03AX
 70
     0
 41
40.0
 44
20.0
 73
     0
 74
     0
 77
     1
 78
     8
140
60.0
144
0.15
146
0.003
172
     1
174
     1
271
     1
272
     1
275
     1
279
     2
284
     8
285
     8
286
     8
340
3D
  0
DIMSTYLE
105
12DB
330
A
100
AcDbSymbolTableRecord
100
AcDbDimStyleTableRecord
  2
1-15
 70
     0
 41
27.0
 42
22.5
 44
22.5
 73
     0
 74
     0
 77
     1
 78
     8
140
52.5
172
     1
176
   256
177
   256
178
   256
271
     2
272
     2
275
     1
279
     2
284
     8
285
     8
286
     8
340
3D
  0
DIMSTYLE
105
12DC
330
A
100
AcDbSymbolTableRecord
100
AcDbDimStyleTableRecord
  2
S01-20BX
 70
     0
 41
40.0
 44
20.0
 73
     0
 74
     0
 75
     1
 77
     1
 78
     8
140
60.0
146
0.003
172
     1
174
     1
271
     1
272
     1
275
     1
279
     2
284
     8
285
     8
286
     8
340
3D
  0
DIMSTYLE
105
12DD
330
A
100
AcDbSymbolTableRecord
100
AcDbDimStyleTableRecord
  2
S01-05BX
 70
     0
 41
40.0
 44
20.0
 73
     0
 74
     0
 75
     1
 77
     1
 78
     8
140
60.0
144
0.25
146
0.003
172
     1
174
     1
271
     1
272
     1
275
     1
279
     2
284
     8
285
     8
286
     8
340
3D
  0
DIMSTYLE
105
12DE
330
A
100
AcDbSymbolTableRecord
100
AcDbDimStyleTableRecord
  2
S01-03DX
 70
     0
 41
40.0
 44
20.0
 73
     0
 74
     0
 75
     1
 76
     1
 77
     1
 78
     8
140
60.0
144
0.15
146
0.003
172
     1
174
     1
271
     1
272
     1
275
     1
279
     2
284
     8
285
     8
286
     8
340
3D
  0
DIMSTYLE
105
12DF
330
A
100
AcDbSymbolTableRecord
100
AcDbDimStyleTableRecord
  2
S01-20DX
 70
     0
 41
40.0
 44
20.0
 73
     0
 74
     0
 75
     1
 76
     1
 77
     1
 78
     8
140
60.0
146
0.003
172
     1
174
     1
271
     1
272
     1
275
     1
279
     2
284
     8
285
     8
286
     8
340
3D
  0
ENDTAB
  0
TABLE
  2
BLOCK_RECORD
  5
1
330
0
100
AcDbSymbolTable
 70
    12
  0
BLOCK_RECORD
  5
18
330
1
100
AcDbSymbolTableRecord
100
AcDbBlockTableRecord
  2
*MODEL_SPACE
340
1BC2
  0
BLOCK_RECORD
  5
15
330
1
100
AcDbSymbolTableRecord
100
AcDbBlockTableRecord
  2
*PAPER_SPACE
340
1BC3
  0
BLOCK_RECORD
  5
71E
330
1
100
AcDbSymbolTableRecord
100
AcDbBlockTableRecord
  2
CALCOMP_TECHJET720A3
340
0
102
{BLKREFS
331
727
102
}
  0
BLOCK_RECORD
  5
A88
330
1
100
AcDbSymbolTableRecord
100
AcDbBlockTableRecord
  2
B0040021
340
0
102
{BLKREFS
331
D54
331
D55
102
}
  0
BLOCK_RECORD
  5
EB6
330
1
100
AcDbSymbolTableRecord
100
AcDbBlockTableRecord
  2
*D2
340
0
  0
BLOCK_RECORD
  5
EC2
330
1
100
AcDbSymbolTableRecord
100
AcDbBlockTableRecord
  2
*D3
340
0
  0
BLOCK_RECORD
  5
EE2
330
1
100
AcDbSymbolTableRecord
100
AcDbBlockTableRecord
  2
*D4
340
0
  0
BLOCK_RECORD
  5
EEE
330
1
100
AcDbSymbolTableRecord
100
AcDbBlockTableRecord
  2
*D5
340
0
  0
BLOCK_RECORD
  5
1039
330
1
100
AcDbSymbolTableRecord
100
AcDbBlockTableRecord
  2
*X6
340
0
102
{BLKREFS
331
16F5
102
}
  0
BLOCK_RECORD
  5
16E1
330
1
100
AcDbSymbolTableRecord
100
AcDbBlockTableRecord
  2
*D7
340
0
  0
BLOCK_RECORD
  5
16ED
330
1
100
AcDbSymbolTableRecord
100
AcDbBlockTableRecord
  2
*D8
340
0
  0
BLOCK_RECORD
  5
19C9
330
1
100
AcDbSymbolTableRecord
100
AcDbBlockTableRecord
  2
*X9
340
0
102
{BLKREFS
331
19CB
102
}
  0
BLOCK_RECORD
  5
1AFC
330
1
100
AcDbSymbolTableRecord
100
AcDbBlockTableRecord
  2
*X10
340
0
102
{BLKREFS
331
1AFE
102
}
  0
BLOCK_RECORD
  5
1B5C
330
1
100
AcDbSymbolTableRecord
100
AcDbBlockTableRecord
  2
*X11
340
0
102
{BLKREFS
331
1B5E
102
}
  0
ENDTAB
  0
ENDSEC
  0
SECTION
  2
BLOCKS
  0
BLOCK
  5
53
330
18
100
AcDbEntity
  8
0
100
AcDbBlockBegin
  2
*MODEL_SPACE
 70
     0
 10
0.0
 20
0.0
 30
0.0
  3
*MODEL_SPACE
  1

  0
ENDBLK
  5
54
330
18
100
AcDbEntity
  8
0
100
AcDbBlockEnd
  0
BLOCK
  5
51
330
15
100
AcDbEntity
 67
     1
  8
0
100
AcDbBlockBegin
  2
*PAPER_SPACE
 70
     0
 10
0.0
 20
0.0
 30
0.0
  3
*PAPER_SPACE
  1

  0
ENDBLK
  5
52
330
15
100
AcDbEntity
 67
     1
  8
0
100
AcDbBlockEnd
  0
BLOCK
  5
725
330
71E
100
AcDbEntity
  8
0
100
AcDbBlockBegin
  2
CALCOMP_TECHJET720A3
 70
     0
 10
0.0
 20
0.0
 30
0.0
  3
CALCOMP_TECHJET720A3
  1

  0
LWPOLYLINE
  5
71F
330
71E
100
AcDbEntity
  8
ZWAKU
100
AcDbPolyline
 90
        4
 70
     1
 43
0.0
 10
0.0
 20
0.0
 10
0.0
 20
267.0
 10
370.0
 20
267.0
 10
370.0
 20
0.0
  0
ENDBLK
  5
726
330
71E
100
AcDbEntity
  8
0
100
AcDbBlockEnd
  0
BLOCK
  5
A95
330
A88
100
AcDbEntity
  8
0
100
AcDbBlockBegin
  2
B0040021
 70
     0
 10
0.0
 20
0.0
 30
0.0
  3
B0040021
  1

  0
LINE
  5
A89
330
A88
100
AcDbEntity
  8
HATCH
100
AcDbLine
 10
90.53459680887726
 20
-7.500000000000227
 30
0.0
 11
117.0518952133159
 21
-34.01729840443886
 31
0.0
  0
LINE
  5
A8A
330
A88
100
AcDbEntity
  8
HATCH
100
AcDbLine
 10
98.03459680887726
 20
0.0
 30
0.0
 11
132.0518952133159
 21
-34.01729840443886
 31
0.0
  0
LINE
  5
A8B
330
A88
100
AcDbEntity
  8
HATCH
100
AcDbLine
 10
22.5
 20
-7.500000000000227
 30
0.0
 11
49.01729840443863
 21
-34.01729840443886
 31
0.0
  0
LINE
  5
A8C
330
A88
100
AcDbEntity
  8
HATCH
100
AcDbLine
 10
30.0
 20
0.0
 30
0.0
 11
-4.017298404438633
 21
-34.01729840443886
 31
0.0
  0
LINE
  5
A8D
330
A88
100
AcDbEntity
  8
HATCH
100
AcDbLine
 10
15.0
 20
-15.00000000000023
 30
0.0
 11
34.01729840443863
 21
-34.01729840443886
 31
0.0
  0
LINE
  5
A8E
330
A88
100
AcDbEntity
  8
HATCH
100
AcDbLine
 10
0.0
 20
0.0
 30
0.0
 11
-34.01729840443863
 21
-34.01729840443886
 31
0.0
  0
LINE
  5
A8F
330
A88
100
AcDbEntity
  8
HATCH
100
AcDbLine
 10
15.0
 20
0.0
 30
0.0
 11
-19.01729840443863
 21
-34.01729840443886
 31
0.0
  0
LINE
  5
A90
330
A88
100
AcDbEntity
  8
HATCH
100
AcDbLine
 10
83.03459680887726
 20
0.0
 30
0.0
 11
56.51729840443886
 21
-26.51729840443863
 31
0.0
  0
LINE
  5
A91
330
A88
100
AcDbEntity
  8
HATCH
100
AcDbLine
 10
98.03459680887726
 20
0.0
 30
0.0
 11
64.01729840443863
 21
-34.01729840443886
 31
0.0
  0
LINE
  5
A92
330
A88
100
AcDbEntity
  8
HATCH
100
AcDbLine
 10
68.03459680887726
 20
0.0
 30
0.0
 11
49.01729840443886
 21
-19.01729840443863
 31
0.0
  0
LINE
  5
A93
330
A88
100
AcDbEntity
  8
HATCH
100
AcDbLine
 10
30.0
 20
0.0
 30
0.0
 11
64.01729840443863
 21
-34.01729840443886
 31
0.0
  0
LINE
  5
A94
330
A88
100
AcDbEntity
  8
HATCH
100
AcDbLine
 10
83.03459680887726
 20
-15.00000000000023
 30
0.0
 11
102.0518952133159
 21
-34.01729840443886
 31
0.0
  0
ENDBLK
  5
A96
330
A88
100
AcDbEntity
  8
0
100
AcDbBlockEnd
  0
BLOCK
  5
F10
330
EB6
100
AcDbEntity
  8
0
100
AcDbBlockBegin
  2
*D2
 70
     1
 10
0.0
 20
0.0
 30
0.0
  3
*D2
  1

  0
LINE
  5
F11
330
EB6
100
AcDbEntity
  8
0
  6
ByBlock
100
AcDbLine
 10
719.0096224952976
 20
1396.631668734286
 30
0.0
 11
719.0096224952976
 21
1851.414069691811
 31
0.0
  0
LINE
  5
F12
330
EB6
100
AcDbEntity
  8
0
  6
ByBlock
100
AcDbLine
 10
1319.009622495298
 20
1424.854493785217
 30
0.0
 11
1319.009622495298
 21
1851.414069691811
 31
0.0
  0
LINE
  5
F13
330
EB6
100
AcDbEntity
  8
0
  6
ByBlock
100
AcDbLine
 10
739.0096224952976
 20
1841.414069691811
 30
0.0
 11
1299.009622495298
 21
1841.414069691811
 31
0.0
  0
SOLID
  5
F14
330
EB6
100
AcDbEntity
  8
0
  6
ByBlock
100
AcDbTrace
 10
739.0096224952976
 20
1844.747403025144
 30
0.0
 11
739.0096224952976
 21
1838.080736358477
 31
0.0
 12
719.0096224952976
 22
1841.414069691811
 32
0.0
 13
719.0096224952976
 23
1841.414069691811
 33
0.0
  0
SOLID
  5
F15
330
EB6
100
AcDbEntity
  8
0
  6
ByBlock
100
AcDbTrace
 10
1299.009622495298
 20
1844.747403025144
 30
0.0
 11
1299.009622495298
 21
1838.080736358477
 31
0.0
 12
1319.009622495298
 22
1841.414069691811
 32
0.0
 13
1319.009622495298
 23
1841.414069691811
 33
0.0
  0
MTEXT
  5
F16
330
EB6
100
AcDbEntity
  8
0
  6
ByBlock
100
AcDbMText
 10
1019.009622495298
 20
1868.414069691811
 30
0.0
 40
30.0
 41
0.0
 71
     5
 72
     5
  1
\A1;600
  7
EXT08
 73
     1
 44
1.0
  0
POINT
  5
F17
330
EB6
100
AcDbEntity
  8
DEFPOINTS
  6
ByBlock
 62
     0
100
AcDbPoint
 10
719.0096224952976
 20
1386.631668734286
 30
0.0
  0
POINT
  5
F18
330
EB6
100
AcDbEntity
  8
DEFPOINTS
  6
ByBlock
 62
     0
100
AcDbPoint
 10
1319.009622495298
 20
1414.854493785217
 30
0.0
  0
POINT
  5
F19
330
EB6
100
AcDbEntity
  8
DEFPOINTS
  6
ByBlock
 62
     0
100
AcDbPoint
 10
1319.009622495298
 20
1841.414069691811
 30
0.0
  0
ENDBLK
  5
F1A
330
EB6
100
AcDbEntity
  8
0
100
AcDbBlockEnd
  0
BLOCK
  5
F05
330
EC2
100
AcDbEntity
  8
0
100
AcDbBlockBegin
  2
*D3
 70
     1
 10
0.0
 20
0.0
 30
0.0
  3
*D3
  1

  0
LINE
  5
F06
330
EC2
100
AcDbEntity
  8
0
  6
ByBlock
100
AcDbLine
 10
1054.376467400281
 20
1724.781668734286
 30
0.0
 11
1779.718265916068
 21
1724.781668734286
 31
0.0
  0
LINE
  5
F07
330
EC2
100
AcDbEntity
  8
0
  6
ByBlock
100
AcDbLine
 10
1533.165169809688
 20
624.7816687342862
 30
0.0
 11
1779.718265916068
 21
624.7816687342862
 31
0.0
  0
LINE
  5
F08
330
EC2
100
AcDbEntity
  8
0
  6
ByBlock
100
AcDbLine
 10
1769.718265916068
 20
1704.781668734286
 30
0.0
 11
1769.718265916068
 21
644.7816687342863
 31
0.0
  0
SOLID
  5
F09
330
EC2
100
AcDbEntity
  8
0
  6
ByBlock
100
AcDbTrace
 10
1766.384932582735
 20
1704.781668734286
 30
0.0
 11
1773.051599249401
 21
1704.781668734286
 31
0.0
 12
1769.718265916068
 22
1724.781668734286
 32
0.0
 13
1769.718265916068
 23
1724.781668734286
 33
0.0
  0
SOLID
  5
F0A
330
EC2
100
AcDbEntity
  8
0
  6
ByBlock
100
AcDbTrace
 10
1766.384932582735
 20
644.7816687342863
 30
0.0
 11
1773.051599249401
 21
644.7816687342863
 31
0.0
 12
1769.718265916068
 22
624.7816687342862
 32
0.0
 13
1769.718265916068
 23
624.7816687342862
 33
0.0
  0
MTEXT
  5
F0B
330
EC2
100
AcDbEntity
  8
0
  6
ByBlock
100
AcDbMText
 10
1742.718265916068
 20
1174.781668734286
 30
0.0
 40
30.0
 41
0.0
 71
     5
 72
     5
  1
\A1;1100
  7
EXT08
 11
0.0
 21
1.0
 31
0.0
 73
     1
 44
1.0
  0
POINT
  5
F0C
330
EC2
100
AcDbEntity
  8
DEFPOINTS
  6
ByBlock
 62
     0
100
AcDbPoint
 10
1044.376467400281
 20
1724.781668734286
 30
0.0
  0
POINT
  5
F0D
330
EC2
100
AcDbEntity
  8
DEFPOINTS
  6
ByBlock
 62
     0
100
AcDbPoint
 10
1523.165169809688
 20
624.7816687342862
 30
0.0
  0
POINT
  5
F0E
330
EC2
100
AcDbEntity
  8
DEFPOINTS
  6
ByBlock
 62
     0
100
AcDbPoint
 10
1769.718265916068
 20
624.7816687342862
 30
0.0
  0
ENDBLK
  5
F0F
330
EC2
100
AcDbEntity
  8
0
100
AcDbBlockEnd
  0
BLOCK
  5
EE3
330
EE2
100
AcDbEntity
  8
0
100
AcDbBlockBegin
  2
*D4
 70
     1
 10
0.0
 20
0.0
 30
0.0
  3
*D4
  1

  0
LINE
  5
EE4
330
EE2
100
AcDbEntity
  8
0
  6
ByBlock
100
AcDbLine
 10
5361.77993272054
 20
1724.781668734286
 30
0.0
 11
5361.77993272054
 21
1724.781668734286
 31
0.0
  0
LINE
  5
EE5
330
EE2
100
AcDbEntity
  8
0
  6
ByBlock
100
AcDbLine
 10
5361.77993272054
 20
924.7816687342863
 30
0.0
 11
5361.77993272054
 21
924.7816687342863
 31
0.0
  0
LINE
  5
EE6
330
EE2
100
AcDbEntity
  8
0
  6
ByBlock
100
AcDbLine
 10
5371.779932720539
 20
1704.781668734286
 30
0.0
 11
5371.779932720539
 21
944.7816687342863
 31
0.0
  0
SOLID
  5
EE7
330
EE2
100
AcDbEntity
  8
0
  6
ByBlock
100
AcDbTrace
 10
5368.446599387207
 20
1704.781668734286
 30
0.0
 11
5375.113266053872
 21
1704.781668734286
 31
0.0
 12
5371.779932720539
 22
1724.781668734286
 32
0.0
 13
5371.779932720539
 23
1724.781668734286
 33
0.0
  0
SOLID
  5
EE8
330
EE2
100
AcDbEntity
  8
0
  6
ByBlock
100
AcDbTrace
 10
5368.446599387207
 20
944.7816687342863
 30
0.0
 11
5375.113266053872
 21
944.7816687342863
 31
0.0
 12
5371.779932720539
 22
924.7816687342863
 32
0.0
 13
5371.779932720539
 23
924.7816687342863
 33
0.0
  0
MTEXT
  5
EE9
330
EE2
100
AcDbEntity
  8
0
  6
ByBlock
100
AcDbMText
 10
5344.779932720539
 20
1324.781668734286
 30
0.0
 40
30.0
 41
0.0
 71
     5
 72
     5
  1
\A1;800
  7
EXT08
 11
0.0
 21
1.0
 31
0.0
 73
     1
 44
1.0
  0
POINT
  5
EEA
330
EE2
100
AcDbEntity
  8
DEFPOINTS
  6
ByBlock
 62
     0
100
AcDbPoint
 10
5371.779932720539
 20
1724.781668734286
 30
0.0
  0
POINT
  5
EEB
330
EE2
100
AcDbEntity
  8
DEFPOINTS
  6
ByBlock
 62
     0
100
AcDbPoint
 10
5371.779932720539
 20
924.7816687342863
 30
0.0
  0
POINT
  5
EEC
330
EE2
100
AcDbEntity
  8
DEFPOINTS
  6
ByBlock
 62
     0
100
AcDbPoint
 10
5371.779932720539
 20
924.7816687342863
 30
0.0
  0
ENDBLK
  5
EED
330
EE2
100
AcDbEntity
  8
0
100
AcDbBlockEnd
  0
BLOCK
  5
EEF
330
EEE
100
AcDbEntity
  8
0
100
AcDbBlockBegin
  2
*D5
 70
     1
 10
0.0
 20
0.0
 30
0.0
  3
*D5
  1

  0
LINE
  5
EF0
330
EEE
100
AcDbEntity
  8
0
  6
ByBlock
100
AcDbLine
 10
5229.009622495297
 20
624.7816687342862
 30
0.0
 11
5381.779932720539
 21
624.7816687342862
 31
0.0
  0
LINE
  5
EF1
330
EEE
100
AcDbEntity
  8
0
  6
ByBlock
100
AcDbLine
 10
5314.009622495298
 20
924.7816687342863
 30
0.0
 11
5381.779932720539
 21
924.7816687342863
 31
0.0
  0
LINE
  5
EF2
330
EEE
100
AcDbEntity
  8
0
  6
ByBlock
100
AcDbLine
 10
5371.779932720539
 20
644.7816687342863
 30
0.0
 11
5371.779932720539
 21
904.7816687342862
 31
0.0
  0
SOLID
  5
EF3
330
EEE
100
AcDbEntity
  8
0
  6
ByBlock
100
AcDbTrace
 10
5368.446599387207
 20
644.7816687342863
 30
0.0
 11
5375.113266053872
 21
644.7816687342863
 31
0.0
 12
5371.779932720539
 22
624.7816687342862
 32
0.0
 13
5371.779932720539
 23
624.7816687342862
 33
0.0
  0
SOLID
  5
EF4
330
EEE
100
AcDbEntity
  8
0
  6
ByBlock
100
AcDbTrace
 10
5368.446599387207
 20
904.7816687342862
 30
0.0
 11
5375.113266053872
 21
904.7816687342862
 31
0.0
 12
5371.779932720539
 22
924.7816687342863
 32
0.0
 13
5371.779932720539
 23
924.7816687342863
 33
0.0
  0
MTEXT
  5
EF5
330
EEE
100
AcDbEntity
  8
0
  6
ByBlock
100
AcDbMText
 10
5344.779932720539
 20
774.7816687342862
 30
0.0
 40
30.0
 41
0.0
 71
     5
 72
     5
  1
\A1;300
  7
EXT08
 11
0.0
 21
1.0
 31
0.0
 73
     1
 44
1.0
  0
POINT
  5
EF6
330
EEE
100
AcDbEntity
  8
DEFPOINTS
  6
ByBlock
 62
     0
100
AcDbPoint
 10
5219.009622495298
 20
624.7816687342862
 30
0.0
  0
POINT
  5
EF7
330
EEE
100
AcDbEntity
  8
DEFPOINTS
  6
ByBlock
 62
     0
100
AcDbPoint
 10
5304.009622495297
 20
924.7816687342863
 30
0.0
  0
POINT
  5
EF8
330
EEE
100
AcDbEntity
  8
DEFPOINTS
  6
ByBlock
 62
     0
100
AcDbPoint
 10
5371.779932720539
 20
924.7816687342863
 30
0.0
  0
ENDBLK
  5
EF9
330
EEE
100
AcDbEntity
  8
0
100
AcDbBlockEnd
  0
BLOCK
  5
10A0
330
1039
100
AcDbEntity
  8
0
100
AcDbBlockBegin
  2
*X6
 70
     1
 10
0.0
 20
0.0
 30
0.0
  3
*X6
  1

  0
LINE
  5
103A
330
1039
100
AcDbEntity
  8
0
 62
     0
100
AcDbLine
 10
1098.162338159264
 20
1480.0
 30
0.0
 11
1100.25
 21
1482.087661840735
 31
0.0
  0
LINE
  5
103B
330
1039
100
AcDbEntity
  8
0
 62
     0
100
AcDbLine
 10
1091.091270347399
 20
1480.0
 30
0.0
 11
1100.25
 21
1489.158729652601
 31
0.0
  0
LINE
  5
103C
330
1039
100
AcDbEntity
  8
0
 62
     0
100
AcDbLine
 10
1084.020202535533
 20
1480.0
 30
0.0
 11
1100.25
 21
1496.229797464466
 31
0.0
  0
LINE
  5
103D
330
1039
100
AcDbEntity
  8
0
 62
     0
100
AcDbLine
 10
1076.949134723668
 20
1480.0
 30
0.0
 11
1100.25
 21
1503.300865276332
 31
0.0
  0
LINE
  5
103E
330
1039
100
AcDbEntity
  8
0
 62
     0
100
AcDbLine
 10
1069.878066911802
 20
1480.0
 30
0.0
 11
1099.878066911803
 21
1510.0
 31
0.0
  0
LINE
  5
103F
330
1039
100
AcDbEntity
  8
0
 62
     0
100
AcDbLine
 10
1062.806999099937
 20
1480.0
 30
0.0
 11
1092.806999099937
 21
1510.0
 31
0.0
  0
LINE
  5
1040
330
1039
100
AcDbEntity
  8
0
 62
     0
100
AcDbLine
 10
1055.735931288071
 20
1480.0
 30
0.0
 11
1085.735931288072
 21
1510.0
 31
0.0
  0
LINE
  5
1041
330
1039
100
AcDbEntity
  8
0
 62
     0
100
AcDbLine
 10
1048.664863476206
 20
1480.0
 30
0.0
 11
1078.664863476206
 21
1510.0
 31
0.0
  0
LINE
  5
1042
330
1039
100
AcDbEntity
  8
0
 62
     0
100
AcDbLine
 10
1041.59379566434
 20
1480.0
 30
0.0
 11
1071.593795664341
 21
1510.0
 31
0.0
  0
LINE
  5
1043
330
1039
100
AcDbEntity
  8
0
 62
     0
100
AcDbLine
 10
1039.75
 20
1485.227272147525
 30
0.0
 11
1064.522727852475
 21
1510.0
 31
0.0
  0
LINE
  5
1044
330
1039
100
AcDbEntity
  8
0
 62
     0
100
AcDbLine
 10
1094.522727852475
 20
1540.0
 30
0.0
 11
1100.25
 21
1545.727272147525
 31
0.0
  0
LINE
  5
1045
330
1039
100
AcDbEntity
  8
0
 62
     0
100
AcDbLine
 10
1039.75
 20
1492.29833995939
 30
0.0
 11
1057.45166004061
 21
1510.0
 31
0.0
  0
LINE
  5
1046
330
1039
100
AcDbEntity
  8
0
 62
     0
100
AcDbLine
 10
1087.45166004061
 20
1540.0
 30
0.0
 11
1100.25
 21
1552.79833995939
 31
0.0
  0
LINE
  5
1047
330
1039
100
AcDbEntity
  8
0
 62
     0
100
AcDbLine
 10
1039.75
 20
1499.369407771256
 30
0.0
 11
1050.380592228744
 21
1510.0
 31
0.0
  0
LINE
  5
1048
330
1039
100
AcDbEntity
  8
0
 62
     0
100
AcDbLine
 10
1080.380592228744
 20
1540.0
 30
0.0
 11
1100.25
 21
1559.869407771256
 31
0.0
  0
LINE
  5
1049
330
1039
100
AcDbEntity
  8
0
 62
     0
100
AcDbLine
 10
1039.75
 20
1506.440475583121
 30
0.0
 11
1043.309524416879
 21
1510.0
 31
0.0
  0
LINE
  5
104A
330
1039
100
AcDbEntity
  8
0
 62
     0
100
AcDbLine
 10
1073.309524416878
 20
1540.0
 30
0.0
 11
1100.25
 21
1566.940475583121
 31
0.0
  0
LINE
  5
104B
330
1039
100
AcDbEntity
  8
0
 62
     0
100
AcDbLine
 10
1066.238456605013
 20
1540.0
 30
0.0
 11
1096.005993847946
 21
1569.767537242933
 31
0.0
  0
LINE
  5
104C
330
1039
100
AcDbEntity
  8
0
 62
     0
100
AcDbLine
 10
1059.167388793148
 20
1540.0
 30
0.0
 11
1088.9640251259
 21
1569.796636332752
 31
0.0
  0
LINE
  5
104D
330
1039
100
AcDbEntity
  8
0
 62
     0
100
AcDbLine
 10
1052.096320981282
 20
1540.0
 30
0.0
 11
1081.922056403853
 21
1569.82573542257
 31
0.0
  0
LINE
  5
104E
330
1039
100
AcDbEntity
  8
0
 62
     0
100
AcDbLine
 10
1045.025253169417
 20
1540.0
 30
0.0
 11
1074.880087681806
 21
1569.854834512389
 31
0.0
  0
LINE
  5
104F
330
1039
100
AcDbEntity
  8
0
 62
     0
100
AcDbLine
 10
1039.75
 20
1541.795814642449
 30
0.0
 11
1067.838118959759
 21
1569.883933602208
 31
0.0
  0
LINE
  5
1050
330
1039
100
AcDbEntity
  8
0
 62
     0
100
AcDbLine
 10
1039.75
 20
1548.866882454314
 30
0.0
 11
1060.796150237712
 21
1569.913032692026
 31
0.0
  0
LINE
  5
1051
330
1039
100
AcDbEntity
  8
0
 62
     0
100
AcDbLine
 10
1039.75
 20
1555.93795026618
 30
0.0
 11
1053.754181515665
 21
1569.942131781845
 31
0.0
  0
LINE
  5
1052
330
1039
100
AcDbEntity
  8
0
 62
     0
100
AcDbLine
 10
1039.75
 20
1563.009018078045
 30
0.0
 11
1046.712212793618
 21
1569.971230871663
 31
0.0
  0
LINE
  5
1053
330
1039
100
AcDbEntity
  8
0
 62
     0
100
AcDbLine
 10
1639.749887862156
 20
1569.039209743501
 30
0.0
 11
1640.706724241558
 21
1569.996046122903
 31
0.0
  0
LINE
  5
1054
330
1039
100
AcDbEntity
  8
0
 62
     0
100
AcDbLine
 10
1639.749915167694
 20
1561.968169237174
 30
0.0
 11
1647.748693064421
 21
1569.9669471339
 31
0.0
  0
LINE
  5
1055
330
1039
100
AcDbEntity
  8
0
 62
     0
100
AcDbLine
 10
1639.749942473232
 20
1554.897128730846
 30
0.0
 11
1654.790661887284
 21
1569.937848144898
 31
0.0
  0
LINE
  5
1056
330
1039
100
AcDbEntity
  8
0
 62
     0
100
AcDbLine
 10
1639.749969778769
 20
1547.826088224518
 30
0.0
 11
1661.832630710146
 21
1569.908749155895
 31
0.0
  0
LINE
  5
1057
330
1039
100
AcDbEntity
  8
0
 62
     0
100
AcDbLine
 10
1639.749997084306
 20
1540.75504771819
 30
0.0
 11
1668.874599533009
 21
1569.879650166893
 31
0.0
  0
LINE
  5
1058
330
1039
100
AcDbEntity
  8
0
 62
     0
100
AcDbLine
 10
1646.066017177982
 20
1540.0
 30
0.0
 11
1675.916568355872
 21
1569.85055117789
 31
0.0
  0
LINE
  5
1059
330
1039
100
AcDbEntity
  8
0
 62
     0
100
AcDbLine
 10
1653.137084989848
 20
1540.0
 30
0.0
 11
1682.958537178735
 21
1569.821452188888
 31
0.0
  0
LINE
  5
105A
330
1039
100
AcDbEntity
  8
0
 62
     0
100
AcDbLine
 10
1660.208152801713
 20
1540.0
 30
0.0
 11
1690.000506001598
 21
1569.792353199885
 31
0.0
  0
LINE
  5
105B
330
1039
100
AcDbEntity
  8
0
 62
     0
100
AcDbLine
 10
1667.279220613579
 20
1540.0
 30
0.0
 11
1697.042474824461
 21
1569.763254210882
 31
0.0
  0
LINE
  5
105C
330
1039
100
AcDbEntity
  8
0
 62
     0
100
AcDbLine
 10
1639.75
 20
1505.399711574556
 30
0.0
 11
1644.350288425444
 21
1510.0
 31
0.0
  0
LINE
  5
105D
330
1039
100
AcDbEntity
  8
0
 62
     0
100
AcDbLine
 10
1674.350288425444
 20
1540.0
 30
0.0
 11
1700.25
 21
1565.899711574556
 31
0.0
  0
LINE
  5
105E
330
1039
100
AcDbEntity
  8
0
 62
     0
100
AcDbLine
 10
1639.75
 20
1498.32864376269
 30
0.0
 11
1651.421356237309
 21
1510.0
 31
0.0
  0
LINE
  5
105F
330
1039
100
AcDbEntity
  8
0
 62
     0
100
AcDbLine
 10
1681.42135623731
 20
1540.0
 30
0.0
 11
1700.25
 21
1558.82864376269
 31
0.0
  0
LINE
  5
1060
330
1039
100
AcDbEntity
  8
0
 62
     0
100
AcDbLine
 10
1639.75
 20
1491.257575950825
 30
0.0
 11
1658.492424049175
 21
1510.0
 31
0.0
  0
LINE
  5
1061
330
1039
100
AcDbEntity
  8
0
 62
     0
100
AcDbLine
 10
1688.492424049175
 20
1540.0
 30
0.0
 11
1700.25
 21
1551.757575950825
 31
0.0
  0
LINE
  5
1062
330
1039
100
AcDbEntity
  8
0
 62
     0
100
AcDbLine
 10
1639.75
 20
1484.18650813896
 30
0.0
 11
1665.56349186104
 21
1510.0
 31
0.0
  0
LINE
  5
1063
330
1039
100
AcDbEntity
  8
0
 62
     0
100
AcDbLine
 10
1695.56349186104
 20
1540.0
 30
0.0
 11
1700.25
 21
1544.686508138959
 31
0.0
  0
LINE
  5
1064
330
1039
100
AcDbEntity
  8
0
 62
     0
100
AcDbLine
 10
1642.634559672906
 20
1480.0
 30
0.0
 11
1672.634559672905
 21
1510.0
 31
0.0
  0
LINE
  5
1065
330
1039
100
AcDbEntity
  8
0
 62
     0
100
AcDbLine
 10
1649.705627484771
 20
1480.0
 30
0.0
 11
1679.705627484771
 21
1510.0
 31
0.0
  0
LINE
  5
1066
330
1039
100
AcDbEntity
  8
0
 62
     0
100
AcDbLine
 10
1656.776695296637
 20
1480.0
 30
0.0
 11
1686.776695296637
 21
1510.0
 31
0.0
  0
LINE
  5
1067
330
1039
100
AcDbEntity
  8
0
 62
     0
100
AcDbLine
 10
1663.847763108502
 20
1480.0
 30
0.0
 11
1693.847763108502
 21
1510.0
 31
0.0
  0
LINE
  5
1068
330
1039
100
AcDbEntity
  8
0
 62
     0
100
AcDbLine
 10
1670.918830920368
 20
1480.0
 30
0.0
 11
1700.25
 21
1509.331169079632
 31
0.0
  0
LINE
  5
1069
330
1039
100
AcDbEntity
  8
0
 62
     0
100
AcDbLine
 10
1677.989898732233
 20
1480.0
 30
0.0
 11
1700.25
 21
1502.260101267767
 31
0.0
  0
LINE
  5
106A
330
1039
100
AcDbEntity
  8
0
 62
     0
100
AcDbLine
 10
1685.060966544099
 20
1480.0
 30
0.0
 11
1700.25
 21
1495.189033455901
 31
0.0
  0
LINE
  5
106B
330
1039
100
AcDbEntity
  8
0
 62
     0
100
AcDbLine
 10
1692.132034355964
 20
1480.0
 30
0.0
 11
1700.25
 21
1488.117965644036
 31
0.0
  0
LINE
  5
106C
330
1039
100
AcDbEntity
  8
0
 62
     0
100
AcDbLine
 10
1699.20310216783
 20
1480.0
 30
0.0
 11
1700.25
 21
1481.04689783217
 31
0.0
  0
LINE
  5
106D
330
1039
100
AcDbEntity
  8
0
 62
     0
100
AcDbLine
 10
1100.25
 20
1565.542565073284
 30
0.0
 11
1096.025106809655
 21
1569.767458263629
 31
0.0
  0
LINE
  5
106E
330
1039
100
AcDbEntity
  8
0
 62
     0
100
AcDbLine
 10
1100.25
 20
1558.471497261418
 30
0.0
 11
1088.924698421368
 21
1569.79679884005
 31
0.0
  0
LINE
  5
106F
330
1039
100
AcDbEntity
  8
0
 62
     0
100
AcDbLine
 10
1100.25
 20
1551.400429449553
 30
0.0
 11
1081.824290033083
 21
1569.82613941647
 31
0.0
  0
LINE
  5
1070
330
1039
100
AcDbEntity
  8
0
 62
     0
100
AcDbLine
 10
1100.25
 20
1544.329361637688
 30
0.0
 11
1074.723881644797
 21
1569.855479992891
 31
0.0
  0
LINE
  5
1071
330
1039
100
AcDbEntity
  8
0
 62
     0
100
AcDbLine
 10
1097.508293825821
 20
1540.0
 30
0.0
 11
1067.623473256511
 21
1569.884820569311
 31
0.0
  0
LINE
  5
1072
330
1039
100
AcDbEntity
  8
0
 62
     0
100
AcDbLine
 10
1090.437226013956
 20
1540.0
 30
0.0
 11
1060.523064868225
 21
1569.914161145731
 31
0.0
  0
LINE
  5
1073
330
1039
100
AcDbEntity
  8
0
 62
     0
100
AcDbLine
 10
1083.366158202091
 20
1540.0
 30
0.0
 11
1053.422656479939
 21
1569.943501722152
 31
0.0
  0
LINE
  5
1074
330
1039
100
AcDbEntity
  8
0
 62
     0
100
AcDbLine
 10
1076.295090390225
 20
1540.0
 30
0.0
 11
1046.322248091654
 21
1569.972842298572
 31
0.0
  0
LINE
  5
1075
330
1039
100
AcDbEntity
  8
0
 62
     0
100
AcDbLine
 10
1100.25
 20
1508.97402257836
 30
0.0
 11
1099.22402257836
 21
1510.0
 31
0.0
  0
LINE
  5
1076
330
1039
100
AcDbEntity
  8
0
 62
     0
100
AcDbLine
 10
1069.22402257836
 20
1540.0
 30
0.0
 11
1039.75
 21
1569.47402257836
 31
0.0
  0
LINE
  5
1077
330
1039
100
AcDbEntity
  8
0
 62
     0
100
AcDbLine
 10
1100.25
 20
1501.902954766494
 30
0.0
 11
1092.152954766494
 21
1510.0
 31
0.0
  0
LINE
  5
1078
330
1039
100
AcDbEntity
  8
0
 62
     0
100
AcDbLine
 10
1062.152954766494
 20
1540.0
 30
0.0
 11
1039.75
 21
1562.402954766495
 31
0.0
  0
LINE
  5
1079
330
1039
100
AcDbEntity
  8
0
 62
     0
100
AcDbLine
 10
1100.25
 20
1494.831886954629
 30
0.0
 11
1085.081886954629
 21
1510.0
 31
0.0
  0
LINE
  5
107A
330
1039
100
AcDbEntity
  8
0
 62
     0
100
AcDbLine
 10
1055.081886954629
 20
1540.0
 30
0.0
 11
1039.75
 21
1555.331886954629
 31
0.0
  0
LINE
  5
107B
330
1039
100
AcDbEntity
  8
0
 62
     0
100
AcDbLine
 10
1100.25
 20
1487.760819142764
 30
0.0
 11
1078.010819142763
 21
1510.0
 31
0.0
  0
LINE
  5
107C
330
1039
100
AcDbEntity
  8
0
 62
     0
100
AcDbLine
 10
1048.010819142763
 20
1540.0
 30
0.0
 11
1039.75
 21
1548.260819142764
 31
0.0
  0
LINE
  5
107D
330
1039
100
AcDbEntity
  8
0
 62
     0
100
AcDbLine
 10
1100.25
 20
1480.689751330898
 30
0.0
 11
1070.939751330898
 21
1510.0
 31
0.0
  0
LINE
  5
107E
330
1039
100
AcDbEntity
  8
0
 62
     0
100
AcDbLine
 10
1040.939751330897
 20
1540.0
 30
0.0
 11
1039.75
 21
1541.189751330898
 31
0.0
  0
LINE
  5
107F
330
1039
100
AcDbEntity
  8
0
 62
     0
100
AcDbLine
 10
1093.868683519032
 20
1480.0
 30
0.0
 11
1063.868683519032
 21
1510.0
 31
0.0
  0
LINE
  5
1080
330
1039
100
AcDbEntity
  8
0
 62
     0
100
AcDbLine
 10
1086.797615707167
 20
1480.0
 30
0.0
 11
1056.797615707167
 21
1510.0
 31
0.0
  0
LINE
  5
1081
330
1039
100
AcDbEntity
  8
0
 62
     0
100
AcDbLine
 10
1079.726547895302
 20
1480.0
 30
0.0
 11
1049.726547895302
 21
1510.0
 31
0.0
  0
LINE
  5
1082
330
1039
100
AcDbEntity
  8
0
 62
     0
100
AcDbLine
 10
1072.655480083436
 20
1480.0
 30
0.0
 11
1042.655480083436
 21
1510.0
 31
0.0
  0
LINE
  5
1083
330
1039
100
AcDbEntity
  8
0
 62
     0
100
AcDbLine
 10
1065.58441227157
 20
1480.0
 30
0.0
 11
1039.75
 21
1505.83441227157
 31
0.0
  0
LINE
  5
1084
330
1039
100
AcDbEntity
  8
0
 62
     0
100
AcDbLine
 10
1058.513344459705
 20
1480.0
 30
0.0
 11
1039.75
 21
1498.763344459705
 31
0.0
  0
LINE
  5
1085
330
1039
100
AcDbEntity
  8
0
 62
     0
100
AcDbLine
 10
1051.44227664784
 20
1480.0
 30
0.0
 11
1039.75
 21
1491.69227664784
 31
0.0
  0
LINE
  5
1086
330
1039
100
AcDbEntity
  8
0
 62
     0
100
AcDbLine
 10
1044.371208835974
 20
1480.0
 30
0.0
 11
1039.75
 21
1484.621208835974
 31
0.0
  0
LINE
  5
1087
330
1039
100
AcDbEntity
  8
0
 62
     0
100
AcDbLine
 10
1645.411972844539
 20
1480.0
 30
0.0
 11
1639.75
 21
1485.661972844539
 31
0.0
  0
LINE
  5
1088
330
1039
100
AcDbEntity
  8
0
 62
     0
100
AcDbLine
 10
1652.483040656405
 20
1480.0
 30
0.0
 11
1639.75
 21
1492.733040656405
 31
0.0
  0
LINE
  5
1089
330
1039
100
AcDbEntity
  8
0
 62
     0
100
AcDbLine
 10
1659.55410846827
 20
1480.0
 30
0.0
 11
1639.75
 21
1499.804108468271
 31
0.0
  0
LINE
  5
108A
330
1039
100
AcDbEntity
  8
0
 62
     0
100
AcDbLine
 10
1666.625176280136
 20
1480.0
 30
0.0
 11
1639.75
 21
1506.875176280136
 31
0.0
  0
LINE
  5
108B
330
1039
100
AcDbEntity
  8
0
 62
     0
100
AcDbLine
 10
1673.696244092001
 20
1480.0
 30
0.0
 11
1643.696244092001
 21
1510.0
 31
0.0
  0
LINE
  5
108C
330
1039
100
AcDbEntity
  8
0
 62
     0
100
AcDbLine
 10
1680.767311903867
 20
1480.0
 30
0.0
 11
1650.767311903867
 21
1510.0
 31
0.0
  0
LINE
  5
108D
330
1039
100
AcDbEntity
  8
0
 62
     0
100
AcDbLine
 10
1687.838379715732
 20
1480.0
 30
0.0
 11
1657.838379715732
 21
1510.0
 31
0.0
  0
LINE
  5
108E
330
1039
100
AcDbEntity
  8
0
 62
     0
100
AcDbLine
 10
1694.909447527598
 20
1480.0
 30
0.0
 11
1664.909447527598
 21
1510.0
 31
0.0
  0
LINE
  5
108F
330
1039
100
AcDbEntity
  8
0
 62
     0
100
AcDbLine
 10
1700.25
 20
1481.730515339463
 30
0.0
 11
1671.980515339463
 21
1510.0
 31
0.0
  0
LINE
  5
1090
330
1039
100
AcDbEntity
  8
0
 62
     0
100
AcDbLine
 10
1641.980515339463
 20
1540.0
 30
0.0
 11
1639.749991386606
 21
1542.230523952857
 31
0.0
  0
LINE
  5
1091
330
1039
100
AcDbEntity
  8
0
 62
     0
100
AcDbLine
 10
1700.25
 20
1488.801583151329
 30
0.0
 11
1679.051583151329
 21
1510.0
 31
0.0
  0
LINE
  5
1092
330
1039
100
AcDbEntity
  8
0
 62
     0
100
AcDbLine
 10
1649.051583151329
 20
1540.0
 30
0.0
 11
1639.749964080858
 21
1549.301619070471
 31
0.0
  0
LINE
  5
1093
330
1039
100
AcDbEntity
  8
0
 62
     0
100
AcDbLine
 10
1700.25
 20
1495.872650963194
 30
0.0
 11
1686.122650963194
 21
1510.0
 31
0.0
  0
LINE
  5
1094
330
1039
100
AcDbEntity
  8
0
 62
     0
100
AcDbLine
 10
1656.122650963194
 20
1540.0
 30
0.0
 11
1639.749936775109
 21
1556.372714188085
 31
0.0
  0
LINE
  5
1095
330
1039
100
AcDbEntity
  8
0
 62
     0
100
AcDbLine
 10
1700.25
 20
1502.94371877506
 30
0.0
 11
1693.19371877506
 21
1510.0
 31
0.0
  0
LINE
  5
1096
330
1039
100
AcDbEntity
  8
0
 62
     0
100
AcDbLine
 10
1663.193718775059
 20
1540.0
 30
0.0
 11
1639.749909469361
 21
1563.443809305699
 31
0.0
  0
LINE
  5
1097
330
1039
100
AcDbEntity
  8
0
 62
     0
100
AcDbLine
 10
1670.264786586925
 20
1540.0
 30
0.0
 11
1640.266923107444
 21
1569.997863479481
 31
0.0
  0
LINE
  5
1098
330
1039
100
AcDbEntity
  8
0
 62
     0
100
AcDbLine
 10
1677.335854398791
 20
1540.0
 30
0.0
 11
1647.367331393233
 21
1569.968523005557
 31
0.0
  0
LINE
  5
1099
330
1039
100
AcDbEntity
  8
0
 62
     0
100
AcDbLine
 10
1684.406922210656
 20
1540.0
 30
0.0
 11
1654.467739679023
 21
1569.939182531633
 31
0.0
  0
LINE
  5
109A
330
1039
100
AcDbEntity
  8
0
 62
     0
100
AcDbLine
 10
1691.477990022521
 20
1540.0
 30
0.0
 11
1661.568147964813
 21
1569.909842057709
 31
0.0
  0
LINE
  5
109B
330
1039
100
AcDbEntity
  8
0
 62
     0
100
AcDbLine
 10
1698.549057834387
 20
1540.0
 30
0.0
 11
1668.668556250602
 21
1569.880501583785
 31
0.0
  0
LINE
  5
109C
330
1039
100
AcDbEntity
  8
0
 62
     0
100
AcDbLine
 10
1700.25
 20
1545.370125646253
 30
0.0
 11
1675.768964536391
 21
1569.85116110986
 31
0.0
  0
LINE
  5
109D
330
1039
100
AcDbEntity
  8
0
 62
     0
100
AcDbLine
 10
1700.25
 20
1552.441193458118
 30
0.0
 11
1682.869372822182
 21
1569.821820635936
 31
0.0
  0
LINE
  5
109E
330
1039
100
AcDbEntity
  8
0
 62
     0
100
AcDbLine
 10
1700.25
 20
1559.512261269984
 30
0.0
 11
1689.969781107971
 21
1569.792480162012
 31
0.0
  0
LINE
  5
109F
330
1039
100
AcDbEntity
  8
0
 62
     0
100
AcDbLine
 10
1700.25
 20
1566.583329081849
 30
0.0
 11
1697.070189393761
 21
1569.763139688088
 31
0.0
  0
ENDBLK
  5
10A1
330
1039
100
AcDbEntity
  8
0
100
AcDbBlockEnd
  0
BLOCK
  5
16E2
330
16E1
100
AcDbEntity
  8
0
100
AcDbBlockBegin
  2
*D7
 70
     1
 10
0.0
 20
0.0
 30
0.0
  3
*D7
  1

  0
LINE
  5
16E3
330
16E1
100
AcDbEntity
  8
0
  6
ByBlock
100
AcDbLine
 10
4904.532100941348
 20
1502.943653948291
 30
0.0
 11
4904.532100941348
 21
1502.943653948291
 31
0.0
  0
LINE
  5
16E4
330
16E1
100
AcDbEntity
  8
0
  6
ByBlock
100
AcDbLine
 10
4883.125638169406
 20
1122.943653948291
 30
0.0
 11
4924.532100941347
 21
1122.943653948291
 31
0.0
  0
LINE
  5
16E5
330
16E1
100
AcDbEntity
  8
0
  6
ByBlock
100
AcDbLine
 10
4914.532100941347
 20
1482.943653948291
 30
0.0
 11
4914.532100941347
 21
1142.943653948291
 31
0.0
  0
SOLID
  5
16E6
330
16E1
100
AcDbEntity
  8
0
  6
ByBlock
100
AcDbTrace
 10
4911.198767608015
 20
1482.943653948291
 30
0.0
 11
4917.865434274681
 21
1482.943653948291
 31
0.0
 12
4914.532100941347
 22
1502.943653948291
 32
0.0
 13
4914.532100941347
 23
1502.943653948291
 33
0.0
  0
SOLID
  5
16E7
330
16E1
100
AcDbEntity
  8
0
  6
ByBlock
100
AcDbTrace
 10
4911.198767608015
 20
1142.943653948291
 30
0.0
 11
4917.865434274681
 21
1142.943653948291
 31
0.0
 12
4914.532100941347
 22
1122.943653948291
 32
0.0
 13
4914.532100941347
 23
1122.943653948291
 33
0.0
  0
MTEXT
  5
16E8
330
16E1
100
AcDbEntity
  8
0
  6
ByBlock
100
AcDbMText
 10
4887.532100941347
 20
1312.943653948291
 30
0.0
 40
30.0
 41
0.0
 71
     5
 72
     5
  1
\A1;380
  7
EXT08
 11
0.0
 21
1.0
 31
0.0
 73
     1
 44
1.0
  0
POINT
  5
16E9
330
16E1
100
AcDbEntity
  8
DEFPOINTS
  6
ByBlock
 62
     0
100
AcDbPoint
 10
4914.532100941347
 20
1502.943653948291
 30
0.0
  0
POINT
  5
16EA
330
16E1
100
AcDbEntity
  8
DEFPOINTS
  6
ByBlock
 62
     0
100
AcDbPoint
 10
4873.125638169407
 20
1122.943653948291
 30
0.0
  0
POINT
  5
16EB
330
16E1
100
AcDbEntity
  8
DEFPOINTS
  6
ByBlock
 62
     0
100
AcDbPoint
 10
4914.532100941347
 20
1122.943653948291
 30
0.0
  0
ENDBLK
  5
16EC
330
16E1
100
AcDbEntity
  8
0
100
AcDbBlockEnd
  0
BLOCK
  5
16EE
330
16ED
100
AcDbEntity
  8
0
100
AcDbBlockBegin
  2
*D8
 70
     1
 10
0.0
 20
0.0
 30
0.0
  3
*D8
  1

  0
LINE
  5
16EF
330
16ED
100
AcDbEntity
  8
0
  6
ByBlock
100
AcDbLine
 10
4451.550638169406
 20
1592.693653948293
 30
0.0
 11
4707.868961933392
 21
1705.391998669145
 31
0.0
  0
SOLID
  5
16F0
330
16ED
100
AcDbEntity
  8
0
  6
ByBlock
100
AcDbTrace
 10
4706.527314972427
 20
1708.443407285388
 30
0.0
 11
4709.210608894353
 21
1702.340590052912
 31
0.0
 12
4726.177413630817
 22
1713.441880434925
 32
0.0
 13
4726.177413630817
 23
1713.441880434925
 33
0.0
  0
MTEXT
  5
16F1
330
16ED
100
AcDbEntity
  8
0
  6
ByBlock
100
AcDbMText
 10
4577.996685516313
 20
1677.784176983139
 30
0.0
 40
30.0
 41
0.0
 71
     5
 72
     5
  1
\A1;R300
  7
EXT08
 11
0.9154225848713823
 21
0.402494088288756
 31
0.0
 73
     1
 44
1.0
  0
POINT
  5
16F2
330
16ED
100
AcDbEntity
  8
DEFPOINTS
  6
ByBlock
 62
     0
100
AcDbPoint
 10
4726.177413630817
 20
1713.441880434925
 30
0.0
  0
POINT
  5
16F3
330
16ED
100
AcDbEntity
  8
DEFPOINTS
  6
ByBlock
 62
     0
100
AcDbPoint
 10
4451.550638169406
 20
1592.693653948293
 30
0.0
  0
ENDBLK
  5
16F4
330
16ED
100
AcDbEntity
  8
0
100
AcDbBlockEnd
  0
BLOCK
  5
19CA
330
19C9
100
AcDbEntity
  8
0
100
AcDbBlockBegin
  2
*X9
 70
     1
 10
0.0
 20
0.0
 30
0.0
  3
*X9
  1

  0
LINE
  5
19CC
330
19C9
100
AcDbEntity
  8
0
 62
     0
100
AcDbLine
 10
1349.259622495297
 20
818.9295366053867
 30
0.0
 11
1455.111754624197
 21
924.7816687342863
 31
0.0
  0
LINE
  5
19CD
330
19C9
100
AcDbEntity
  8
0
 62
     0
100
AcDbLine
 10
1349.259622495297
 20
642.1528413087501
 30
0.0
 11
1514.009622495297
 21
806.9028413087503
 31
0.0
  0
LINE
  5
19CE
330
19C9
100
AcDbEntity
  8
0
 62
     0
100
AcDbLine
 10
1508.66514521747
 20
624.7816687342862
 30
0.0
 11
1514.009622495297
 21
630.1261460121135
 31
0.0
  0
LINE
  5
19CF
330
19C9
100
AcDbEntity
  8
0
 62
     0
100
AcDbLine
 10
1349.259622495297
 20
841.0266235174665
 30
0.0
 11
1433.014667712118
 21
924.7816687342863
 31
0.0
  0
LINE
  5
19D0
330
19C9
100
AcDbEntity
  8
0
 62
     0
100
AcDbLine
 10
1349.259622495297
 20
664.2499282208297
 30
0.0
 11
1514.009622495297
 21
828.9999282208297
 31
0.0
  0
LINE
  5
19D1
330
19C9
100
AcDbEntity
  8
0
 62
     0
100
AcDbLine
 10
1486.568058305391
 20
624.7816687342862
 30
0.0
 11
1514.009622495297
 21
652.2232329241931
 31
0.0
  0
LINE
  5
19D2
330
19C9
100
AcDbEntity
  8
0
 62
     0
100
AcDbLine
 10
1349.259622495297
 20
863.1237104295461
 30
0.0
 11
1410.917580800037
 21
924.7816687342863
 31
0.0
  0
LINE
  5
19D3
330
19C9
100
AcDbEntity
  8
0
 62
     0
100
AcDbLine
 10
1349.259622495297
 20
686.3470151329092
 30
0.0
 11
1514.009622495297
 21
851.0970151329093
 31
0.0
  0
LINE
  5
19D4
330
19C9
100
AcDbEntity
  8
0
 62
     0
100
AcDbLine
 10
1464.470971393311
 20
624.7816687342862
 30
0.0
 11
1514.009622495297
 21
674.3203198362727
 31
0.0
  0
ENDBLK
  5
19D5
330
19C9
100
AcDbEntity
  8
0
100
AcDbBlockEnd
  0
BLOCK
  5
1AFD
330
1AFC
100
AcDbEntity
  8
0
100
AcDbBlockBegin
  2
*X10
 70
     1
 10
0.0
 20
0.0
 30
0.0
  3
*X10
  1

  0
LINE
  5
1AFF
330
1AFC
100
AcDbEntity
  8
0
 62
     0
100
AcDbLine
 10
2065.176852526477
 20
1322.714732280603
 30
0.0
 11
2077.243788980161
 21
1334.781668734286
 31
0.0
  0
LINE
  5
1B00
330
1AFC
100
AcDbEntity
  8
0
 62
     0
100
AcDbLine
 10
2107.243788980161
 20
1364.781668734287
 30
0.0
 11
2125.676852526478
 21
1383.214732280602
 31
0.0
  0
LINE
  5
1B01
330
1AFC
100
AcDbEntity
  8
0
 62
     0
100
AcDbLine
 10
2065.176852526477
 20
1329.785800092468
 30
0.0
 11
2070.172721168296
 21
1334.781668734286
 31
0.0
  0
LINE
  5
1B02
330
1AFC
100
AcDbEntity
  8
0
 62
     0
100
AcDbLine
 10
2100.172721168296
 20
1364.781668734287
 30
0.0
 11
2125.676852526478
 21
1390.285800092468
 31
0.0
  0
LINE
  5
1B03
330
1AFC
100
AcDbEntity
  8
0
 62
     0
100
AcDbLine
 10
2093.101653356431
 20
1364.781668734286
 30
0.0
 11
2095.426852526478
 21
1367.106867904334
 31
0.0
  0
LINE
  5
1B04
330
1AFC
100
AcDbEntity
  8
0
 62
     0
100
AcDbLine
 10
2095.426852526478
 20
1367.106867904334
 30
0.0
 11
2123.10165335643
 21
1394.781668734286
 31
0.0
  0
LINE
  5
1B05
330
1AFC
100
AcDbEntity
  8
0
 62
     0
100
AcDbLine
 10
2086.030585544565
 20
1364.781668734286
 30
0.0
 11
2095.426852526478
 21
1374.177935716199
 31
0.0
  0
LINE
  5
1B06
330
1AFC
100
AcDbEntity
  8
0
 62
     0
100
AcDbLine
 10
2095.426852526478
 20
1374.177935716199
 30
0.0
 11
2116.030585544565
 21
1394.781668734286
 31
0.0
  0
LINE
  5
1B07
330
1AFC
100
AcDbEntity
  8
0
 62
     0
100
AcDbLine
 10
2078.959517732699
 20
1364.781668734286
 30
0.0
 11
2095.426852526478
 21
1381.249003528065
 31
0.0
  0
LINE
  5
1B08
330
1AFC
100
AcDbEntity
  8
0
 62
     0
100
AcDbLine
 10
2095.426852526478
 20
1381.249003528065
 30
0.0
 11
2108.959517732699
 21
1394.781668734286
 31
0.0
  0
LINE
  5
1B09
330
1AFC
100
AcDbEntity
  8
0
 62
     0
100
AcDbLine
 10
2071.888449920834
 20
1364.781668734286
 30
0.0
 11
2095.426852526478
 21
1388.32007133993
 31
0.0
  0
LINE
  5
1B0A
330
1AFC
100
AcDbEntity
  8
0
 62
     0
100
AcDbLine
 10
2095.426852526478
 20
1388.32007133993
 30
0.0
 11
2101.888449920833
 21
1394.781668734286
 31
0.0
  0
LINE
  5
1B0B
330
1AFC
100
AcDbEntity
  8
0
 62
     0
100
AcDbLine
 10
2065.176852526478
 20
1365.141139151796
 30
0.0
 11
2094.817382108968
 21
1394.781668734286
 31
0.0
  0
LINE
  5
1B0C
330
1AFC
100
AcDbEntity
  8
0
 62
     0
100
AcDbLine
 10
2065.176852526478
 20
1372.212206963661
 30
0.0
 11
2087.746314297103
 21
1394.781668734286
 31
0.0
  0
LINE
  5
1B0D
330
1AFC
100
AcDbEntity
  8
0
 62
     0
100
AcDbLine
 10
2065.176852526478
 20
1379.283274775527
 30
0.0
 11
2080.675246485237
 21
1394.781668734286
 31
0.0
  0
LINE
  5
1B0E
330
1AFC
100
AcDbEntity
  8
0
 62
     0
100
AcDbLine
 10
2065.176852526478
 20
1386.354342587392
 30
0.0
 11
2073.604178673372
 21
1394.781668734286
 31
0.0
  0
LINE
  5
1B0F
330
1AFC
100
AcDbEntity
  8
0
 62
     0
100
AcDbLine
 10
2065.176852526478
 20
1393.425410399258
 30
0.0
 11
2066.533110861506
 21
1394.781668734286
 31
0.0
  0
LINE
  5
1B10
330
1AFC
100
AcDbEntity
  8
0
 62
     0
100
AcDbLine
 10
2065.176852526477
 20
1315.643664468737
 30
0.0
 11
2084.314856792027
 21
1334.781668734286
 31
0.0
  0
LINE
  5
1B11
330
1AFC
100
AcDbEntity
  8
0
 62
     0
100
AcDbLine
 10
2114.314856792027
 20
1364.781668734287
 30
0.0
 11
2125.676852526478
 21
1376.143664468737
 31
0.0
  0
LINE
  5
1B12
330
1AFC
100
AcDbEntity
  8
0
 62
     0
100
AcDbLine
 10
2065.176852526477
 20
1308.572596656872
 30
0.0
 11
2091.385924603892
 21
1334.781668734286
 31
0.0
  0
LINE
  5
1B13
330
1AFC
100
AcDbEntity
  8
0
 62
     0
100
AcDbLine
 10
2121.385924603893
 20
1364.781668734287
 30
0.0
 11
2125.676852526478
 21
1369.072596656871
 31
0.0
  0
LINE
  5
1B14
330
1AFC
100
AcDbEntity
  8
0
 62
     0
100
AcDbLine
 10
2068.456992415758
 20
1304.781668734287
 30
0.0
 11
2095.426852526478
 21
1331.751528845007
 31
0.0
  0
LINE
  5
1B15
330
1AFC
100
AcDbEntity
  8
0
 62
     0
100
AcDbLine
 10
2095.426852526478
 20
1331.751528845007
 30
0.0
 11
2098.456992415758
 21
1334.781668734287
 31
0.0
  0
LINE
  5
1B16
330
1AFC
100
AcDbEntity
  8
0
 62
     0
100
AcDbLine
 10
2075.528060227623
 20
1304.781668734287
 30
0.0
 11
2095.426852526478
 21
1324.680461033141
 31
0.0
  0
LINE
  5
1B17
330
1AFC
100
AcDbEntity
  8
0
 62
     0
100
AcDbLine
 10
2095.426852526478
 20
1324.680461033141
 30
0.0
 11
2105.528060227623
 21
1334.781668734287
 31
0.0
  0
LINE
  5
1B18
330
1AFC
100
AcDbEntity
  8
0
 62
     0
100
AcDbLine
 10
2082.599128039489
 20
1304.781668734287
 30
0.0
 11
2095.426852526478
 21
1317.609393221276
 31
0.0
  0
LINE
  5
1B19
330
1AFC
100
AcDbEntity
  8
0
 62
     0
100
AcDbLine
 10
2095.426852526478
 20
1317.609393221276
 30
0.0
 11
2112.599128039489
 21
1334.781668734287
 31
0.0
  0
LINE
  5
1B1A
330
1AFC
100
AcDbEntity
  8
0
 62
     0
100
AcDbLine
 10
2089.670195851354
 20
1304.781668734287
 30
0.0
 11
2095.426852526478
 21
1310.53832540941
 31
0.0
  0
LINE
  5
1B1B
330
1AFC
100
AcDbEntity
  8
0
 62
     0
100
AcDbLine
 10
2095.426852526478
 20
1310.53832540941
 30
0.0
 11
2119.670195851355
 21
1334.781668734287
 31
0.0
  0
LINE
  5
1B1C
330
1AFC
100
AcDbEntity
  8
0
 62
     0
100
AcDbLine
 10
2096.74126366322
 20
1304.781668734287
 30
0.0
 11
2125.676852526478
 21
1333.717257597544
 31
0.0
  0
LINE
  5
1B1D
330
1AFC
100
AcDbEntity
  8
0
 62
     0
100
AcDbLine
 10
2103.812331475085
 20
1304.781668734287
 30
0.0
 11
2125.676852526478
 21
1326.646189785679
 31
0.0
  0
LINE
  5
1B1E
330
1AFC
100
AcDbEntity
  8
0
 62
     0
100
AcDbLine
 10
2110.88339928695
 20
1304.781668734286
 30
0.0
 11
2125.676852526478
 21
1319.575121973813
 31
0.0
  0
LINE
  5
1B1F
330
1AFC
100
AcDbEntity
  8
0
 62
     0
100
AcDbLine
 10
2117.954467098816
 20
1304.781668734286
 30
0.0
 11
2125.676852526478
 21
1312.504054161948
 31
0.0
  0
LINE
  5
1B20
330
1AFC
100
AcDbEntity
  8
0
 62
     0
100
AcDbLine
 10
2125.025534910681
 20
1304.781668734286
 30
0.0
 11
2125.676852526478
 21
1305.432986350082
 31
0.0
  0
LINE
  5
1B21
330
1AFC
100
AcDbEntity
  8
0
 62
     0
100
AcDbLine
 10
2125.676852526478
 20
1317.933171852008
 30
0.0
 11
2108.8283556442
 21
1334.781668734287
 31
0.0
  0
LINE
  5
1B22
330
1AFC
100
AcDbEntity
  8
0
 62
     0
100
AcDbLine
 10
2078.828355644199
 20
1364.781668734286
 30
0.0
 11
2065.176852526478
 21
1378.433171852008
 31
0.0
  0
LINE
  5
1B23
330
1AFC
100
AcDbEntity
  8
0
 62
     0
100
AcDbLine
 10
2125.676852526478
 20
1310.862104040143
 30
0.0
 11
2101.757287832334
 21
1334.781668734287
 31
0.0
  0
LINE
  5
1B24
330
1AFC
100
AcDbEntity
  8
0
 62
     0
100
AcDbLine
 10
2071.757287832334
 20
1364.781668734286
 30
0.0
 11
2065.176852526478
 21
1371.362104040143
 31
0.0
  0
LINE
  5
1B25
330
1AFC
100
AcDbEntity
  8
0
 62
     0
100
AcDbLine
 10
2124.686220020469
 20
1304.781668734286
 30
0.0
 11
2095.426852526478
 21
1334.041036228277
 31
0.0
  0
LINE
  5
1B26
330
1AFC
100
AcDbEntity
  8
0
 62
     0
100
AcDbLine
 10
2095.426852526478
 20
1334.041036228277
 30
0.0
 11
2094.686220020469
 21
1334.781668734287
 31
0.0
  0
LINE
  5
1B27
330
1AFC
100
AcDbEntity
  8
0
 62
     0
100
AcDbLine
 10
2117.615152208603
 20
1304.781668734286
 30
0.0
 11
2095.426852526478
 21
1326.969968416412
 31
0.0
  0
LINE
  5
1B28
330
1AFC
100
AcDbEntity
  8
0
 62
     0
100
AcDbLine
 10
2095.426852526478
 20
1326.969968416412
 30
0.0
 11
2087.615152208603
 21
1334.781668734286
 31
0.0
  0
LINE
  5
1B29
330
1AFC
100
AcDbEntity
  8
0
 62
     0
100
AcDbLine
 10
2110.544084396738
 20
1304.781668734286
 30
0.0
 11
2095.426852526478
 21
1319.898900604546
 31
0.0
  0
LINE
  5
1B2A
330
1AFC
100
AcDbEntity
  8
0
 62
     0
100
AcDbLine
 10
2095.426852526478
 20
1319.898900604546
 30
0.0
 11
2080.544084396738
 21
1334.781668734286
 31
0.0
  0
LINE
  5
1B2B
330
1AFC
100
AcDbEntity
  8
0
 62
     0
100
AcDbLine
 10
2103.473016584873
 20
1304.781668734286
 30
0.0
 11
2095.426852526478
 21
1312.827832792681
 31
0.0
  0
LINE
  5
1B2C
330
1AFC
100
AcDbEntity
  8
0
 62
     0
100
AcDbLine
 10
2095.426852526478
 20
1312.827832792681
 30
0.0
 11
2073.473016584872
 21
1334.781668734286
 31
0.0
  0
LINE
  5
1B2D
330
1AFC
100
AcDbEntity
  8
0
 62
     0
100
AcDbLine
 10
2096.401948773007
 20
1304.781668734287
 30
0.0
 11
2095.426852526478
 21
1305.756764980815
 31
0.0
  0
LINE
  5
1B2E
330
1AFC
100
AcDbEntity
  8
0
 62
     0
100
AcDbLine
 10
2095.426852526478
 20
1305.756764980815
 30
0.0
 11
2066.401948773007
 21
1334.781668734286
 31
0.0
  0
LINE
  5
1B2F
330
1AFC
100
AcDbEntity
  8
0
 62
     0
100
AcDbLine
 10
2089.330880961141
 20
1304.781668734287
 30
0.0
 11
2065.176852526477
 21
1328.93569716895
 31
0.0
  0
LINE
  5
1B30
330
1AFC
100
AcDbEntity
  8
0
 62
     0
100
AcDbLine
 10
2082.259813149276
 20
1304.781668734287
 30
0.0
 11
2065.176852526477
 21
1321.864629357085
 31
0.0
  0
LINE
  5
1B31
330
1AFC
100
AcDbEntity
  8
0
 62
     0
100
AcDbLine
 10
2075.188745337411
 20
1304.781668734287
 30
0.0
 11
2065.176852526477
 21
1314.793561545219
 31
0.0
  0
LINE
  5
1B32
330
1AFC
100
AcDbEntity
  8
0
 62
     0
100
AcDbLine
 10
2068.117677525545
 20
1304.781668734287
 30
0.0
 11
2065.176852526477
 21
1307.722493733354
 31
0.0
  0
LINE
  5
1B33
330
1AFC
100
AcDbEntity
  8
0
 62
     0
100
AcDbLine
 10
2125.676852526478
 20
1325.004239663874
 30
0.0
 11
2115.899423456065
 21
1334.781668734287
 31
0.0
  0
LINE
  5
1B34
330
1AFC
100
AcDbEntity
  8
0
 62
     0
100
AcDbLine
 10
2085.899423456065
 20
1364.781668734286
 30
0.0
 11
2065.176852526478
 21
1385.504239663874
 31
0.0
  0
LINE
  5
1B35
330
1AFC
100
AcDbEntity
  8
0
 62
     0
100
AcDbLine
 10
2125.676852526478
 20
1332.075307475739
 30
0.0
 11
2122.970491267931
 21
1334.781668734287
 31
0.0
  0
LINE
  5
1B36
330
1AFC
100
AcDbEntity
  8
0
 62
     0
100
AcDbLine
 10
2092.97049126793
 20
1364.781668734286
 30
0.0
 11
2065.176852526478
 21
1392.575307475739
 31
0.0
  0
LINE
  5
1B37
330
1AFC
100
AcDbEntity
  8
0
 62
     0
100
AcDbLine
 10
2100.041559079796
 20
1364.781668734287
 30
0.0
 11
2095.426852526478
 21
1369.396375287604
 31
0.0
  0
LINE
  5
1B38
330
1AFC
100
AcDbEntity
  8
0
 62
     0
100
AcDbLine
 10
2095.426852526478
 20
1369.396375287604
 30
0.0
 11
2070.041559079797
 21
1394.781668734286
 31
0.0
  0
LINE
  5
1B39
330
1AFC
100
AcDbEntity
  8
0
 62
     0
100
AcDbLine
 10
2107.112626891661
 20
1364.781668734287
 30
0.0
 11
2095.426852526478
 21
1376.46744309947
 31
0.0
  0
LINE
  5
1B3A
330
1AFC
100
AcDbEntity
  8
0
 62
     0
100
AcDbLine
 10
2095.426852526478
 20
1376.46744309947
 30
0.0
 11
2077.112626891663
 21
1394.781668734286
 31
0.0
  0
LINE
  5
1B3B
330
1AFC
100
AcDbEntity
  8
0
 62
     0
100
AcDbLine
 10
2114.183694703527
 20
1364.781668734287
 30
0.0
 11
2095.426852526478
 21
1383.538510911336
 31
0.0
  0
LINE
  5
1B3C
330
1AFC
100
AcDbEntity
  8
0
 62
     0
100
AcDbLine
 10
2095.426852526478
 20
1383.538510911336
 30
0.0
 11
2084.183694703527
 21
1394.781668734286
 31
0.0
  0
LINE
  5
1B3D
330
1AFC
100
AcDbEntity
  8
0
 62
     0
100
AcDbLine
 10
2121.254762515393
 20
1364.781668734287
 30
0.0
 11
2095.426852526478
 21
1390.609578723202
 31
0.0
  0
LINE
  5
1B3E
330
1AFC
100
AcDbEntity
  8
0
 62
     0
100
AcDbLine
 10
2095.426852526478
 20
1390.609578723202
 30
0.0
 11
2091.254762515393
 21
1394.781668734286
 31
0.0
  0
LINE
  5
1B3F
330
1AFC
100
AcDbEntity
  8
0
 62
     0
100
AcDbLine
 10
2125.676852526478
 20
1367.430646535067
 30
0.0
 11
2098.325830327259
 21
1394.781668734286
 31
0.0
  0
LINE
  5
1B40
330
1AFC
100
AcDbEntity
  8
0
 62
     0
100
AcDbLine
 10
2125.676852526478
 20
1374.501714346932
 30
0.0
 11
2105.396898139125
 21
1394.781668734286
 31
0.0
  0
LINE
  5
1B41
330
1AFC
100
AcDbEntity
  8
0
 62
     0
100
AcDbLine
 10
2125.676852526478
 20
1381.572782158798
 30
0.0
 11
2112.46796595099
 21
1394.781668734286
 31
0.0
  0
LINE
  5
1B42
330
1AFC
100
AcDbEntity
  8
0
 62
     0
100
AcDbLine
 10
2125.676852526478
 20
1388.643849970663
 30
0.0
 11
2119.539033762855
 21
1394.781668734286
 31
0.0
  0
ENDBLK
  5
1B43
330
1AFC
100
AcDbEntity
  8
0
100
AcDbBlockEnd
  0
BLOCK
  5
1B5D
330
1B5C
100
AcDbEntity
  8
0
100
AcDbBlockBegin
  2
*X11
 70
     1
 10
0.0
 20
0.0
 30
0.0
  3
*X11
  1

  0
LINE
  5
1B5F
330
1B5C
100
AcDbEntity
  8
0
 62
     0
100
AcDbLine
 10
1155.111754624197
 20
624.7816687342862
 30
0.0
 11
1288.759622495297
 21
758.4295366053868
 31
0.0
  0
LINE
  5
1B60
330
1B5C
100
AcDbEntity
  8
0
 62
     0
100
AcDbLine
 10
978.3350593275601
 20
624.7816687342862
 30
0.0
 11
1278.33505932756
 21
924.7816687342861
 31
0.0
  0
LINE
  5
1B61
330
1B5C
100
AcDbEntity
  8
0
 62
     0
100
AcDbLine
 10
801.5583640309232
 20
624.7816687342862
 30
0.0
 11
1101.558364030923
 21
924.7816687342861
 31
0.0
  0
LINE
  5
1B62
330
1B5C
100
AcDbEntity
  8
0
 62
     0
100
AcDbLine
 10
624.7816687342862
 20
624.7816687342862
 30
0.0
 11
688.7596224952971
 21
688.7596224952971
 31
0.0
  0
LINE
  5
1B63
330
1B5C
100
AcDbEntity
  8
0
 62
     0
100
AcDbLine
 10
749.259622495297
 20
749.259622495297
 30
0.0
 11
924.7816687342861
 21
924.7816687342861
 31
0.0
  0
LINE
  5
1B64
330
1B5C
100
AcDbEntity
  8
0
 62
     0
100
AcDbLine
 10
524.0096224952976
 20
700.7863177919345
 30
0.0
 11
688.759622495297
 21
865.5363177919339
 31
0.0
  0
LINE
  5
1B65
330
1B5C
100
AcDbEntity
  8
0
 62
     0
100
AcDbLine
 10
524.0096224952976
 20
877.5630130885714
 30
0.0
 11
571.2282781410125
 21
924.7816687342863
 31
0.0
  0
LINE
  5
1B66
330
1B5C
100
AcDbEntity
  8
0
 62
     0
100
AcDbLine
 10
1940.426852526478
 20
879.7666807466566
 30
0.0
 11
1985.441840514107
 21
924.7816687342861
 31
0.0
  0
LINE
  5
1B67
330
1B5C
100
AcDbEntity
  8
0
 62
     0
100
AcDbLine
 10
1940.426852526478
 20
702.98998545002
 30
0.0
 11
2065.176852526477
 21
827.7399854500194
 31
0.0
  0
LINE
  5
1B68
330
1B5C
100
AcDbEntity
  8
0
 62
     0
100
AcDbLine
 10
2125.676852526478
 20
888.2399854500199
 30
0.0
 11
2162.218535810744
 21
924.7816687342863
 31
0.0
  0
LINE
  5
1B69
330
1B5C
100
AcDbEntity
  8
0
 62
     0
100
AcDbLine
 10
2038.995231107382
 20
624.7816687342862
 30
0.0
 11
2065.176852526477
 21
650.9632901533824
 31
0.0
  0
LINE
  5
1B6A
330
1B5C
100
AcDbEntity
  8
0
 62
     0
100
AcDbLine
 10
2125.676852526478
 20
711.4632901533826
 30
0.0
 11
2250.426852526478
 21
836.2132901533829
 31
0.0
  0
LINE
  5
1B6B
330
1B5C
100
AcDbEntity
  8
0
 62
     0
100
AcDbLine
 10
2215.771926404018
 20
624.7816687342861
 30
0.0
 11
2250.426852526478
 21
659.4365948567461
 31
0.0
  0
LINE
  5
1B6C
330
1B5C
100
AcDbEntity
  8
0
 62
     0
100
AcDbLine
 10
1133.014667712117
 20
624.7816687342862
 30
0.0
 11
1288.759622495297
 21
780.5266235174664
 31
0.0
  0
LINE
  5
1B6D
330
1B5C
100
AcDbEntity
  8
0
 62
     0
100
AcDbLine
 10
956.2379724154807
 20
624.7816687342862
 30
0.0
 11
1256.23797241548
 21
924.7816687342861
 31
0.0
  0
LINE
  5
1B6E
330
1B5C
100
AcDbEntity
  8
0
 62
     0
100
AcDbLine
 10
779.4612771188436
 20
624.7816687342862
 30
0.0
 11
1079.461277118843
 21
924.7816687342861
 31
0.0
  0
LINE
  5
1B6F
330
1B5C
100
AcDbEntity
  8
0
 62
     0
100
AcDbLine
 10
602.6845818222068
 20
624.7816687342862
 30
0.0
 11
688.7596224952971
 21
710.8567094073767
 31
0.0
  0
LINE
  5
1B70
330
1B5C
100
AcDbEntity
  8
0
 62
     0
100
AcDbLine
 10
749.259622495297
 20
771.3567094073766
 30
0.0
 11
902.6845818222065
 21
924.7816687342861
 31
0.0
  0
LINE
  5
1B71
330
1B5C
100
AcDbEntity
  8
0
 62
     0
100
AcDbLine
 10
524.0096224952976
 20
722.883404704014
 30
0.0
 11
688.759622495297
 21
887.6334047040133
 31
0.0
  0
LINE
  5
1B72
330
1B5C
100
AcDbEntity
  8
0
 62
     0
100
AcDbLine
 10
524.0096224952976
 20
899.660100000651
 30
0.0
 11
549.1311912289329
 21
924.7816687342863
 31
0.0
  0
LINE
  5
1B73
330
1B5C
100
AcDbEntity
  8
0
 62
     0
100
AcDbLine
 10
1940.426852526478
 20
901.8637676587362
 30
0.0
 11
1963.344753602027
 21
924.781668734286
 31
0.0
  0
LINE
  5
1B74
330
1B5C
100
AcDbEntity
  8
0
 62
     0
100
AcDbLine
 10
1940.426852526478
 20
725.0870723620996
 30
0.0
 11
2065.176852526477
 21
849.8370723620991
 31
0.0
  0
LINE
  5
1B75
330
1B5C
100
AcDbEntity
  8
0
 62
     0
100
AcDbLine
 10
2125.676852526478
 20
910.3370723620995
 30
0.0
 11
2140.121448898664
 21
924.7816687342863
 31
0.0
  0
LINE
  5
1B76
330
1B5C
100
AcDbEntity
  8
0
 62
     0
100
AcDbLine
 10
2016.898144195302
 20
624.7816687342862
 30
0.0
 11
2065.176852526477
 21
673.060377065462
 31
0.0
  0
LINE
  5
1B77
330
1B5C
100
AcDbEntity
  8
0
 62
     0
100
AcDbLine
 10
2125.676852526478
 20
733.5603770654622
 30
0.0
 11
2250.426852526478
 21
858.3103770654625
 31
0.0
  0
LINE
  5
1B78
330
1B5C
100
AcDbEntity
  8
0
 62
     0
100
AcDbLine
 10
2193.674839491938
 20
624.7816687342861
 30
0.0
 11
2250.426852526478
 21
681.5336817688257
 31
0.0
  0
LINE
  5
1B79
330
1B5C
100
AcDbEntity
  8
0
 62
     0
100
AcDbLine
 10
1110.917580800037
 20
624.7816687342862
 30
0.0
 11
1288.759622495297
 21
802.6237104295461
 31
0.0
  0
LINE
  5
1B7A
330
1B5C
100
AcDbEntity
  8
0
 62
     0
100
AcDbLine
 10
934.1408855034007
 20
624.7816687342862
 30
0.0
 11
1234.140885503401
 21
924.7816687342861
 31
0.0
  0
LINE
  5
1B7B
330
1B5C
100
AcDbEntity
  8
0
 62
     0
100
AcDbLine
 10
757.3641902067641
 20
624.7816687342862
 30
0.0
 11
1057.364190206764
 21
924.7816687342861
 31
0.0
  0
LINE
  5
1B7C
330
1B5C
100
AcDbEntity
  8
0
 62
     0
100
AcDbLine
 10
580.5874949101271
 20
624.7816687342862
 30
0.0
 11
688.7596224952971
 21
732.9537963194562
 31
0.0
  0
LINE
  5
1B7D
330
1B5C
100
AcDbEntity
  8
0
 62
     0
100
AcDbLine
 10
749.259622495297
 20
793.4537963194562
 30
0.0
 11
880.5874949101269
 21
924.7816687342861
 31
0.0
  0
LINE
  5
1B7E
330
1B5C
100
AcDbEntity
  8
0
 62
     0
100
AcDbLine
 10
524.0096224952976
 20
744.9804916160937
 30
0.0
 11
688.759622495297
 21
909.7304916160929
 31
0.0
  0
LINE
  5
1B7F
330
1B5C
100
AcDbEntity
  8
0
 62
     0
100
AcDbLine
 10
524.0096224952976
 20
921.7571869127306
 30
0.0
 11
527.0341043168533
 21
924.7816687342863
 31
0.0
  0
LINE
  5
1B80
330
1B5C
100
AcDbEntity
  8
0
 62
     0
100
AcDbLine
 10
1287.694276096674
 20
624.7816687342862
 30
0.0
 11
1288.759622495297
 21
625.8470151329093
 31
0.0
  0
LINE
  5
1B81
330
1B5C
100
AcDbEntity
  8
0
 62
     0
100
AcDbLine
 10
1940.426852526478
 20
923.9608545708158
 30
0.0
 11
1941.247666689948
 21
924.781668734286
 31
0.0
  0
LINE
  5
1B82
330
1B5C
100
AcDbEntity
  8
0
 62
     0
100
AcDbLine
 10
1940.426852526478
 20
747.1841592741791
 30
0.0
 11
2065.176852526477
 21
871.9341592741786
 31
0.0
  0
LINE
  5
1B83
330
1B5C
100
AcDbEntity
  8
0
 62
     0
100
AcDbLine
 10
1994.801057283222
 20
624.7816687342862
 30
0.0
 11
2065.176852526477
 21
695.1574639775417
 31
0.0
  0
LINE
  5
1B84
330
1B5C
100
AcDbEntity
  8
0
 62
     0
100
AcDbLine
 10
2125.676852526478
 20
755.6574639775418
 30
0.0
 11
2250.426852526478
 21
880.4074639775421
 31
0.0
  0
LINE
  5
1B85
330
1B5C
100
AcDbEntity
  8
0
 62
     0
100
AcDbLine
 10
2171.577752579859
 20
624.7816687342861
 30
0.0
 11
2250.426852526478
 21
703.6307686809053
 31
0.0
  0
ENDBLK
  5
1B86
330
1B5C
100
AcDbEntity
  8
0
100
AcDbBlockEnd
  0
ENDSEC
  0
SECTION
  2
ENTITIES
  0
INSERT
  5
727
330
18
100
AcDbEntity
  8
ZWAKU
100
AcDbBlockReference
  2
CALCOMP_TECHJET720A3
 10
0.0
 20
0.0
 30
0.0
 41
10.0
 42
10.0
 43
10.0
  0
TEXT
  5
729
330
18
100
AcDbEntity
  8
INFORMATION
100
AcDbText
 10
1.0
 20
2.0
 30
0.0
 40
0.8
  1
PLOTTER=CALCOMP_TECHJET720
  7
EXT08
100
AcDbText
  0
TEXT
  5
72A
330
18
100
AcDbEntity
  8
INFORMATION
100
AcDbText
 10
1.0
 20
3.0
 30
0.0
 40
0.8
  1
PAPER=A3
  7
EXT08
100
AcDbText
  0
TEXT
  5
9CD
330
18
100
AcDbEntity
  8
INFORMATION
100
AcDbText
 10
1.0
 20
1.0
 30
0.0
 40
0.8
  1
VERSION=3.0
  7
EXT08
100
AcDbText
  0
TEXT
  5
CE8
330
18
100
AcDbEntity
  8
INFORMATION
100
AcDbText
 10
3701.0
 20
2.0
 30
0.0
 40
0.8
  1
PLOTTER=CALCOMP_TECHJET720
100
AcDbText
  0
TEXT
  5
CE9
330
18
100
AcDbEntity
  8
INFORMATION
100
AcDbText
 10
3701.0
 20
3.0
 30
0.0
 40
0.8
  1
PAPER=A3
100
AcDbText
  0
TEXT
  5
CEA
330
18
100
AcDbEntity
  8
INFORMATION
100
AcDbText
 10
3701.0
 20
1.0
 30
0.0
 40
0.8
  1
VERSION=3.0
100
AcDbText
  0
LINE
  5
D39
330
18
100
AcDbEntity
  8
MOJI
100
AcDbLine
 10
2648.751342480058
 20
1014.781668734286
 30
0.0
 11
3298.206740540565
 21
1014.781668734286
 31
0.0
  0
LINE
  5
D3A
330
18
100
AcDbEntity
  8
MOJI
100
AcDbLine
 10
2648.751342480058
 20
1064.781668734286
 30
0.0
 11
3298.206740540565
 21
1064.781668734286
 31
0.0
  0
LINE
  5
D3B
330
18
100
AcDbEntity
  8
MOJI2
100
AcDbLine
 10
504.8381565723011
 20
1997.812580070752
 30
0.0
 11
627.4883989916088
 21
1997.812580070752
 31
0.0
  0
LINE
  5
D3C
330
18
100
AcDbEntity
  8
MOJI2
100
AcDbLine
 10
504.8381565723011
 20
2007.812580070752
 30
0.0
 11
627.4883989916088
 21
2007.812580070752
 31
0.0
  0
TEXT
  5
D3D
330
18
100
AcDbEntity
  8
MOJI2
100
AcDbText
 10
513.6356658630448
 20
2017.290731394691
 30
0.0
 40
40.0
  1
設置図 (1/10)
 41
0.8
  7
EXT08
100
AcDbText
  0
TEXT
  5
D3E
330
18
100
AcDbEntity
  8
MOJI2
100
AcDbText
 10
2654.259070876775
 20
1134.151138349329
 30
0.0
 40
40.0
  1
車止め2型
 41
0.8
  7
EXT08
100
AcDbText
  0
DIMENSION
  5
D3F
330
18
100
AcDbEntity
  8
SUNPOU
100
AcDbDimension
  2
*D5
 10
1666.779932720539
 20
924.7816687342863
 30
0.0
 11
1644.779932720539
 21
774.7816687342862
 31
0.0
 12
-3705.0
 22
0.0
 32
0.0
 70
    32
 71
     5
 42
-1.0
  3
SJC
100
AcDbAlignedDimension
 13
1514.009622495297
 23
624.7816687342862
 33
0.0
 14
1599.009622495297
 24
924.7816687342863
 34
0.0
 50
90.0
100
AcDbRotatedDimension
1001
ACAD
1000
DSTYLE
1002
{
1070
    40
1040
10.0
1070
    41
1040
2.0
1070
    42
1040
1.0
1070
    43
1040
6.0
1070
    44
1040
1.0
1070
    73
1070
     0
1070
    74
1070
     0
1070
    77
1070
     1
1070
    78
1070
     8
1070
   140
1040
3.0
1070
   147
1040
1.199999999999999
1070
   172
1070
     1
1070
   176
1070
   256
1070
   177
1070
   256
1070
   178
1070
   256
1070
   271
1070
     1
1070
   275
1070
     1
1070
   279
1070
     2
1070
   340
1005
740
1002
}
  0
INSERT
  5
D54
330
18
100
AcDbEntity
  8
SJC
100
AcDbBlockReference
  2
B0040021
 10
1867.496344653011
 20
924.7816687342863
 30
0.0
 41
0.5
 42
0.5
 43
0.5
  0
INSERT
  5
D55
330
18
100
AcDbEntity
  8
SJC
100
AcDbBlockReference
  2
B0040021
 10
442.612675764969
 20
924.7816687342863
 30
0.0
 41
0.5
 42
0.5
 43
0.5
  0
DIMENSION
  5
D56
330
18
100
AcDbEntity
  8
SUNPOU
100
AcDbDimension
  2
*D4
 10
1666.779932720539
 20
924.7816687342863
 30
0.0
 11
1644.779932720539
 21
1324.781668734286
 31
0.0
 12
-3705.0
 22
0.0
 32
0.0
 70
    32
 71
     5
 42
-1.0
  3
SJC
100
AcDbAlignedDimension
 13
1666.779932720539
 23
1724.781668734286
 33
0.0
 14
1666.779932720539
 24
924.7816687342863
 34
0.0
 50
90.0
100
AcDbRotatedDimension
1001
ACAD
1000
DSTYLE
1002
{
1070
    40
1040
10.0
1070
    41
1040
2.0
1070
    42
1040
1.0
1070
    43
1040
6.0
1070
    44
1040
1.0
1070
    73
1070
     0
1070
    74
1070
     0
1070
    77
1070
     1
1070
    78
1070
     8
1070
   140
1040
3.0
1070
   147
1040
1.199999999999999
1070
   172
1070
     1
1070
   176
1070
   256
1070
   177
1070
   256
1070
   178
1070
   256
1070
   271
1070
     1
1070
   275
1070
     1
1070
   279
1070
     2
1070
   340
1005
740
1002
}
  0
LINE
  5
D59
330
18
100
AcDbEntity
  8
SJC
100
AcDbLine
 10
1349.259622495297
 20
924.7816687342863
 30
0.0
 11
1599.009622495297
 21
924.7816687342863
 31
0.0
1001
ACAD
1000
ASC_BOUNDS
1002
{
1070
    19
1005
19CB
1002
}
  0
LINE
  5
D5A
330
18
100
AcDbEntity
  8
SJC
100
AcDbLine
 10
749.2596224952969
 20
924.7816687342863
 30
0.0
 11
1288.759622495297
 21
924.7816687342863
 31
0.0
1001
ACAD
1000
ASC_BOUNDS
1002
{
1070
    19
1005
1B5E
1002
}
  0
TEXT
  5
D5B
330
18
100
AcDbEntity
  8
MOJI
100
AcDbText
 10
2949.546244783416
 20
1022.355634859847
 30
0.0
 40
30.0
  1
亜鉛めっき＋静電粉体塗装
 41
0.8
  7
EXT08
100
AcDbText
  0
TEXT
  5
D5C
330
18
100
AcDbEntity
  8
MOJI
100
AcDbText
 10
2800.002335963191
 20
1022.355634859847
 30
0.0
 40
30.0
  1
STK400
 41
0.8
  7
EXT08
100
AcDbText
  0
TEXT
  5
D5D
330
18
100
AcDbEntity
  8
MOJI
100
AcDbText
 10
2664.22349932422
 20
1022.355634859847
 30
0.0
 40
30.0
  1
支    柱
 41
0.8
  7
EXT08
100
AcDbText
  0
TEXT
  5
D5E
330
18
100
AcDbEntity
  8
MOJI
100
AcDbText
 10
3044.064133212191
 20
1072.710664241059
 30
0.0
 40
30.0
  1
摘       要
 41
0.8
  7
EXT08
100
AcDbText
  0
TEXT
  5
D5F
330
18
100
AcDbEntity
  8
MOJI
100
AcDbText
 10
2814.144930190698
 20
1072.710664241059
 30
0.0
 40
30.0
  1
材    質
 41
0.8
  7
EXT08
100
AcDbText
  0
TEXT
  5
D60
330
18
100
AcDbEntity
  8
MOJI
100
AcDbText
 10
2664.68223858373
 20
1072.710664241059
 30
0.0
 40
30.0
  1
部 品 名
 41
0.8
  7
EXT08
100
AcDbText
  0
LINE
  5
D61
330
18
100
AcDbEntity
  8
MOJI
100
AcDbLine
 10
2942.16553800761
 20
1014.781668734286
 30
0.0
 11
2942.16553800761
 21
1114.781668734286
 31
0.0
  0
LINE
  5
D62
330
18
100
AcDbEntity
  8
MOJI
100
AcDbLine
 10
2792.347067620483
 20
1014.781668734286
 30
0.0
 11
2792.347067620483
 21
1114.781668734286
 31
0.0
  0
LINE
  5
D63
330
18
100
AcDbEntity
  8
MOJI
100
AcDbLine
 10
3298.206740540565
 20
1114.781668734286
 30
0.0
 11
3298.206740540565
 21
1014.781668734286
 31
0.0
  0
LINE
  5
D64
330
18
100
AcDbEntity
  8
MOJI
100
AcDbLine
 10
2648.751342480058
 20
1114.781668734286
 30
0.0
 11
3298.206740540565
 21
1114.781668734286
 31
0.0
  0
LINE
  5
D65
330
18
100
AcDbEntity
  8
MOJI
100
AcDbLine
 10
2648.751342480058
 20
1014.781668734286
 30
0.0
 11
2648.751342480058
 21
1114.781668734286
 31
0.0
  0
TEXT
  5
D66
330
18
100
AcDbEntity
  8
MOJI
100
AcDbText
 10
1849.69819169804
 20
934.7816687342863
 30
0.0
 40
30.0
  1
GL
 41
0.8
  7
EXT08
100
AcDbText
  0
TEXT
  5
D67
330
18
100
AcDbEntity
  8
MOJI
100
AcDbText
 10
409.5352681840922
 20
934.7816687342863
 30
0.0
 40
30.0
  1
GL
 41
0.8
  7
EXT08
100
AcDbText
  0
DIMENSION
  5
D74
330
18
100
AcDbEntity
  8
SUNPOU
100
AcDbDimension
  2
*D3
 10
1769.718265916068
 20
624.7816687342862
 30
0.0
 11
1742.718265916068
 21
1174.781668734286
 31
0.0
 70
    32
 71
     5
 42
-1.0
  3
SJC
100
AcDbAlignedDimension
 13
1044.376467400281
 23
1724.781668734286
 33
0.0
 14
1523.165169809688
 24
624.7816687342862
 34
0.0
 50
90.0
100
AcDbRotatedDimension
1001
ACAD
1000
DSTYLE
1002
{
1070
    40
1040
10.0
1070
    41
1040
2.0
1070
    42
1040
1.0
1070
    43
1040
6.0
1070
    44
1040
1.0
1070
    73
1070
     0
1070
    74
1070
     0
1070
    77
1070
     1
1070
    78
1070
     8
1070
   140
1040
3.0
1070
   147
1040
1.199999999999999
1070
   172
1070
     1
1070
   176
1070
   256
1070
   177
1070
   256
1070
   178
1070
   256
1070
   271
1070
     1
1070
   275
1070
     1
1070
   279
1070
     2
1070
   340
1005
740
1002
}
  0
DIMENSION
  5
D75
330
18
100
AcDbEntity
  8
SUNPOU
100
AcDbDimension
  2
*D2
 10
1319.009622495298
 20
1841.414069691811
 30
0.0
 11
1019.009622495298
 21
1868.414069691811
 31
0.0
 70
    32
 71
     5
 42
-1.0
  3
SJC
100
AcDbAlignedDimension
 13
719.0096224952976
 23
1386.631668734286
 33
0.0
 14
1319.009622495298
 24
1414.854493785217
 34
0.0
100
AcDbRotatedDimension
1001
ACAD
1000
DSTYLE
1002
{
1070
    40
1040
10.0
1070
    41
1040
2.0
1070
    42
1040
1.0
1070
    43
1040
6.0
1070
    44
1040
1.0
1070
    73
1070
     0
1070
    74
1070
     0
1070
    77
1070
     1
1070
    78
1070
     8
1070
   140
1040
3.0
1070
   147
1040
1.199999999999999
1070
   172
1070
     1
1070
   176
1070
   256
1070
   177
1070
   256
1070
   178
1070
   256
1070
   271
1070
     1
1070
   275
1070
     1
1070
   279
1070
     2
1070
   340
1005
740
1002
}
  0
LINE
  5
D78
330
18
100
AcDbEntity
  8
SJC
100
AcDbLine
 10
2125.676852526478
 20
924.7816687342863
 30
0.0
 11
2345.414440372318
 21
924.781668734286
 31
0.0
1001
ACAD
1000
ASC_BOUNDS
1002
{
1070
    19
1005
1B5E
1002
}
  0
POLYLINE
  5
D79
330
18
100
AcDbEntity
  8
HATCH
100
AcDb2dPolyline
 66
     1
 10
0.0
 20
0.0
 30
0.0
 70
     3
  0
VERTEX
  5
D7A
330
D79
100
AcDbEntity
  8
HATCH
100
AcDbVertex
100
AcDb2dVertex
 10
2234.926852526478
 20
574.7816687342865
 30
0.0
 42
-0.2595538891301936
  0
VERTEX
  5
D7B
330
D79
100
AcDbEntity
  8
HATCH
100
AcDbVertex
100
AcDb2dVertex
 10
2224.969286446395
 20
580.3241026542036
 30
0.0
 42
-0.1396462061370757
 70
     1
  0
VERTEX
  5
D7C
330
D79
100
AcDbEntity
  8
HATCH
100
AcDbVertex
100
AcDb2dVertex
 10
2219.426852526478
 20
599.7816687342865
 30
0.0
 42
-0.1396462061370706
  0
VERTEX
  5
D7D
330
D79
100
AcDbEntity
  8
HATCH
100
AcDbVertex
100
AcDb2dVertex
 10
2224.969286446394
 20
619.2392348143694
 30
0.0
 42
-0.2595538891301907
 70
     1
  0
VERTEX
  5
D7E
330
D79
100
AcDbEntity
  8
HATCH
100
AcDbVertex
100
AcDb2dVertex
 10
2234.926852526478
 20
624.7816687342862
 30
0.0
 42
-0.2595538891301854
  0
VERTEX
  5
D7F
330
D79
100
AcDbEntity
  8
HATCH
100
AcDbVertex
100
AcDb2dVertex
 10
2244.88441860656
 20
619.2392348143694
 30
0.0
 42
-0.1396462061370651
 70
     1
  0
VERTEX
  5
D80
330
D79
100
AcDbEntity
  8
HATCH
100
AcDbVertex
100
AcDb2dVertex
 10
2250.426852526478
 20
599.7816687342865
 30
0.0
 42
-0.1396462061370655
  0
VERTEX
  5
D81
330
D79
100
AcDbEntity
  8
HATCH
100
AcDbVertex
100
AcDb2dVertex
 10
2244.88441860656
 20
580.3241026542036
 30
0.0
 42
-0.2595538891301878
 70
     1
  0
SEQEND
  5
D82
330
D79
100
AcDbEntity
  8
HATCH
  0
POLYLINE
  5
D83
330
18
100
AcDbEntity
  8
HATCH
100
AcDb2dPolyline
 66
     1
 10
0.0
 20
0.0
 30
0.0
 70
     3
  0
VERTEX
  5
D84
330
D83
100
AcDbEntity
  8
HATCH
100
AcDbVertex
100
AcDb2dVertex
 10
2141.926852526478
 20
574.7816687342865
 30
0.0
 42
-0.2595538891301936
  0
VERTEX
  5
D85
330
D83
100
AcDbEntity
  8
HATCH
100
AcDbVertex
100
AcDb2dVertex
 10
2131.969286446395
 20
580.3241026542036
 30
0.0
 42
-0.1396462061370757
 70
     1
  0
VERTEX
  5
D86
330
D83
100
AcDbEntity
  8
HATCH
100
AcDbVertex
100
AcDb2dVertex
 10
2126.426852526478
 20
599.7816687342865
 30
0.0
 42
-0.1396462061370706
  0
VERTEX
  5
D87
330
D83
100
AcDbEntity
  8
HATCH
100
AcDbVertex
100
AcDb2dVertex
 10
2131.969286446394
 20
619.2392348143694
 30
0.0
 42
-0.2595538891301907
 70
     1
  0
VERTEX
  5
D88
330
D83
100
AcDbEntity
  8
HATCH
100
AcDbVertex
100
AcDb2dVertex
 10
2141.926852526478
 20
624.7816687342862
 30
0.0
 42
-0.2595538891301854
  0
VERTEX
  5
D89
330
D83
100
AcDbEntity
  8
HATCH
100
AcDbVertex
100
AcDb2dVertex
 10
2151.88441860656
 20
619.2392348143694
 30
0.0
 42
-0.1396462061370651
 70
     1
  0
VERTEX
  5
D8A
330
D83
100
AcDbEntity
  8
HATCH
100
AcDbVertex
100
AcDb2dVertex
 10
2157.426852526478
 20
599.7816687342865
 30
0.0
 42
-0.1396462061370655
  0
VERTEX
  5
D8B
330
D83
100
AcDbEntity
  8
HATCH
100
AcDbVertex
100
AcDb2dVertex
 10
2151.88441860656
 20
580.3241026542036
 30
0.0
 42
-0.2595538891301878
 70
     1
  0
SEQEND
  5
D8C
330
D83
100
AcDbEntity
  8
HATCH
  0
POLYLINE
  5
D8D
330
18
100
AcDbEntity
  8
HATCH
100
AcDb2dPolyline
 66
     1
 10
0.0
 20
0.0
 30
0.0
 70
     3
  0
VERTEX
  5
D8E
330
D8D
100
AcDbEntity
  8
HATCH
100
AcDbVertex
100
AcDb2dVertex
 10
2172.926852526478
 20
574.7816687342865
 30
0.0
 42
-0.2595538891301936
  0
VERTEX
  5
D8F
330
D8D
100
AcDbEntity
  8
HATCH
100
AcDbVertex
100
AcDb2dVertex
 10
2162.969286446395
 20
580.3241026542036
 30
0.0
 42
-0.1396462061370757
 70
     1
  0
VERTEX
  5
D90
330
D8D
100
AcDbEntity
  8
HATCH
100
AcDbVertex
100
AcDb2dVertex
 10
2157.426852526478
 20
599.7816687342865
 30
0.0
 42
-0.1396462061370706
  0
VERTEX
  5
D91
330
D8D
100
AcDbEntity
  8
HATCH
100
AcDbVertex
100
AcDb2dVertex
 10
2162.969286446394
 20
619.2392348143694
 30
0.0
 42
-0.2595538891301907
 70
     1
  0
VERTEX
  5
D92
330
D8D
100
AcDbEntity
  8
HATCH
100
AcDbVertex
100
AcDb2dVertex
 10
2172.926852526478
 20
624.7816687342862
 30
0.0
 42
-0.2595538891301854
  0
VERTEX
  5
D93
330
D8D
100
AcDbEntity
  8
HATCH
100
AcDbVertex
100
AcDb2dVertex
 10
2182.88441860656
 20
619.2392348143694
 30
0.0
 42
-0.1396462061370651
 70
     1
  0
VERTEX
  5
D94
330
D8D
100
AcDbEntity
  8
HATCH
100
AcDbVertex
100
AcDb2dVertex
 10
2188.426852526478
 20
599.7816687342865
 30
0.0
 42
-0.1396462061370655
  0
VERTEX
  5
D95
330
D8D
100
AcDbEntity
  8
HATCH
100
AcDbVertex
100
AcDb2dVertex
 10
2182.88441860656
 20
580.3241026542036
 30
0.0
 42
-0.2595538891301878
 70
     1
  0
SEQEND
  5
D96
330
D8D
100
AcDbEntity
  8
HATCH
  0
POLYLINE
  5
D97
330
18
100
AcDbEntity
  8
HATCH
100
AcDb2dPolyline
 66
     1
 10
0.0
 20
0.0
 30
0.0
 70
     3
  0
VERTEX
  5
D98
330
D97
100
AcDbEntity
  8
HATCH
100
AcDbVertex
100
AcDb2dVertex
 10
2203.926852526478
 20
574.7816687342865
 30
0.0
 42
-0.2595538891301936
  0
VERTEX
  5
D99
330
D97
100
AcDbEntity
  8
HATCH
100
AcDbVertex
100
AcDb2dVertex
 10
2193.969286446395
 20
580.3241026542036
 30
0.0
 42
-0.1396462061370757
 70
     1
  0
VERTEX
  5
D9A
330
D97
100
AcDbEntity
  8
HATCH
100
AcDbVertex
100
AcDb2dVertex
 10
2188.426852526478
 20
599.7816687342865
 30
0.0
 42
-0.1396462061370706
  0
VERTEX
  5
D9B
330
D97
100
AcDbEntity
  8
HATCH
100
AcDbVertex
100
AcDb2dVertex
 10
2193.969286446394
 20
619.2392348143694
 30
0.0
 42
-0.2595538891301907
 70
     1
  0
VERTEX
  5
D9C
330
D97
100
AcDbEntity
  8
HATCH
100
AcDbVertex
100
AcDb2dVertex
 10
2203.926852526478
 20
624.7816687342862
 30
0.0
 42
-0.2595538891301854
  0
VERTEX
  5
D9D
330
D97
100
AcDbEntity
  8
HATCH
100
AcDbVertex
100
AcDb2dVertex
 10
2213.88441860656
 20
619.2392348143694
 30
0.0
 42
-0.1396462061370651
 70
     1
  0
VERTEX
  5
D9E
330
D97
100
AcDbEntity
  8
HATCH
100
AcDbVertex
100
AcDb2dVertex
 10
2219.426852526478
 20
599.7816687342865
 30
0.0
 42
-0.1396462061370655
  0
VERTEX
  5
D9F
330
D97
100
AcDbEntity
  8
HATCH
100
AcDbVertex
100
AcDb2dVertex
 10
2213.88441860656
 20
580.3241026542036
 30
0.0
 42
-0.2595538891301878
 70
     1
  0
SEQEND
  5
DA0
330
D97
100
AcDbEntity
  8
HATCH
  0
LINE
  5
DA1
330
18
100
AcDbEntity
  8
SJC
100
AcDbLine
 10
2250.426852526478
 20
924.7816687342863
 30
0.0
 11
2250.426852526478
 21
574.7816687342865
 31
0.0
1001
ACAD
1000
ASC_BOUNDS
1002
{
1070
    19
1005
1B5E
1002
}
  0
LINE
  5
DA2
330
18
100
AcDbEntity
  8
SJC
100
AcDbLine
 10
1845.439264680637
 20
924.7816687342863
 30
0.0
 11
2065.176852526477
 21
924.7816687342861
 31
0.0
1001
ACAD
1000
ASC_BOUNDS
1002
{
1070
    19
1005
1B5E
1002
}
  0
POLYLINE
  5
DA3
330
18
100
AcDbEntity
  8
HATCH
100
AcDb2dPolyline
 66
     1
 10
0.0
 20
0.0
 30
0.0
 70
     3
  0
VERTEX
  5
DA4
330
DA3
100
AcDbEntity
  8
HATCH
100
AcDbVertex
100
AcDb2dVertex
 10
2079.926852526478
 20
574.7816687342865
 30
0.0
 42
-0.2595538891301936
  0
VERTEX
  5
DA5
330
DA3
100
AcDbEntity
  8
HATCH
100
AcDbVertex
100
AcDb2dVertex
 10
2069.969286446395
 20
580.3241026542036
 30
0.0
 42
-0.1396462061370757
 70
     1
  0
VERTEX
  5
DA6
330
DA3
100
AcDbEntity
  8
HATCH
100
AcDbVertex
100
AcDb2dVertex
 10
2064.426852526478
 20
599.7816687342865
 30
0.0
 42
-0.1396462061370706
  0
VERTEX
  5
DA7
330
DA3
100
AcDbEntity
  8
HATCH
100
AcDbVertex
100
AcDb2dVertex
 10
2069.969286446394
 20
619.2392348143694
 30
0.0
 42
-0.2595538891301907
 70
     1
  0
VERTEX
  5
DA8
330
DA3
100
AcDbEntity
  8
HATCH
100
AcDbVertex
100
AcDb2dVertex
 10
2079.926852526478
 20
624.7816687342862
 30
0.0
 42
-0.2595538891301854
  0
VERTEX
  5
DA9
330
DA3
100
AcDbEntity
  8
HATCH
100
AcDbVertex
100
AcDb2dVertex
 10
2089.88441860656
 20
619.2392348143694
 30
0.0
 42
-0.1396462061370651
 70
     1
  0
VERTEX
  5
DAA
330
DA3
100
AcDbEntity
  8
HATCH
100
AcDbVertex
100
AcDb2dVertex
 10
2095.426852526478
 20
599.7816687342865
 30
0.0
 42
-0.1396462061370655
  0
VERTEX
  5
DAB
330
DA3
100
AcDbEntity
  8
HATCH
100
AcDbVertex
100
AcDb2dVertex
 10
2089.88441860656
 20
580.3241026542036
 30
0.0
 42
-0.2595538891301878
 70
     1
  0
SEQEND
  5
DAC
330
DA3
100
AcDbEntity
  8
HATCH
  0
POLYLINE
  5
DAD
330
18
100
AcDbEntity
  8
HATCH
100
AcDb2dPolyline
 66
     1
 10
0.0
 20
0.0
 30
0.0
 70
     3
  0
VERTEX
  5
DAE
330
DAD
100
AcDbEntity
  8
HATCH
100
AcDbVertex
100
AcDb2dVertex
 10
2017.926852526478
 20
574.7816687342865
 30
0.0
 42
-0.2595538891301936
  0
VERTEX
  5
DAF
330
DAD
100
AcDbEntity
  8
HATCH
100
AcDbVertex
100
AcDb2dVertex
 10
2007.969286446395
 20
580.3241026542036
 30
0.0
 42
-0.1396462061370757
 70
     1
  0
VERTEX
  5
DB0
330
DAD
100
AcDbEntity
  8
HATCH
100
AcDbVertex
100
AcDb2dVertex
 10
2002.426852526478
 20
599.7816687342865
 30
0.0
 42
-0.1396462061370706
  0
VERTEX
  5
DB1
330
DAD
100
AcDbEntity
  8
HATCH
100
AcDbVertex
100
AcDb2dVertex
 10
2007.969286446394
 20
619.2392348143694
 30
0.0
 42
-0.2595538891301907
 70
     1
  0
VERTEX
  5
DB2
330
DAD
100
AcDbEntity
  8
HATCH
100
AcDbVertex
100
AcDb2dVertex
 10
2017.926852526478
 20
624.7816687342862
 30
0.0
 42
-0.2595538891301854
  0
VERTEX
  5
DB3
330
DAD
100
AcDbEntity
  8
HATCH
100
AcDbVertex
100
AcDb2dVertex
 10
2027.88441860656
 20
619.2392348143694
 30
0.0
 42
-0.1396462061370651
 70
     1
  0
VERTEX
  5
DB4
330
DAD
100
AcDbEntity
  8
HATCH
100
AcDbVertex
100
AcDb2dVertex
 10
2033.426852526478
 20
599.7816687342865
 30
0.0
 42
-0.1396462061370655
  0
VERTEX
  5
DB5
330
DAD
100
AcDbEntity
  8
HATCH
100
AcDbVertex
100
AcDb2dVertex
 10
2027.88441860656
 20
580.3241026542036
 30
0.0
 42
-0.2595538891301878
 70
     1
  0
SEQEND
  5
DB6
330
DAD
100
AcDbEntity
  8
HATCH
  0
POLYLINE
  5
DB7
330
18
100
AcDbEntity
  8
HATCH
100
AcDb2dPolyline
 66
     1
 10
0.0
 20
0.0
 30
0.0
 70
     3
  0
VERTEX
  5
DB8
330
DB7
100
AcDbEntity
  8
HATCH
100
AcDbVertex
100
AcDb2dVertex
 10
1986.926852526478
 20
574.7816687342865
 30
0.0
 42
-0.2595538891301936
  0
VERTEX
  5
DB9
330
DB7
100
AcDbEntity
  8
HATCH
100
AcDbVertex
100
AcDb2dVertex
 10
1976.969286446395
 20
580.3241026542036
 30
0.0
 42
-0.1396462061370757
 70
     1
  0
VERTEX
  5
DBA
330
DB7
100
AcDbEntity
  8
HATCH
100
AcDbVertex
100
AcDb2dVertex
 10
1971.426852526478
 20
599.7816687342865
 30
0.0
 42
-0.1396462061370706
  0
VERTEX
  5
DBB
330
DB7
100
AcDbEntity
  8
HATCH
100
AcDbVertex
100
AcDb2dVertex
 10
1976.969286446394
 20
619.2392348143694
 30
0.0
 42
-0.2595538891301907
 70
     1
  0
VERTEX
  5
DBC
330
DB7
100
AcDbEntity
  8
HATCH
100
AcDbVertex
100
AcDb2dVertex
 10
1986.926852526478
 20
624.7816687342862
 30
0.0
 42
-0.2595538891301854
  0
VERTEX
  5
DBD
330
DB7
100
AcDbEntity
  8
HATCH
100
AcDbVertex
100
AcDb2dVertex
 10
1996.88441860656
 20
619.2392348143694
 30
0.0
 42
-0.1396462061370651
 70
     1
  0
VERTEX
  5
DBE
330
DB7
100
AcDbEntity
  8
HATCH
100
AcDbVertex
100
AcDb2dVertex
 10
2002.426852526478
 20
599.7816687342865
 30
0.0
 42
-0.1396462061370655
  0
VERTEX
  5
DBF
330
DB7
100
AcDbEntity
  8
HATCH
100
AcDbVertex
100
AcDb2dVertex
 10
1996.88441860656
 20
580.3241026542036
 30
0.0
 42
-0.2595538891301878
 70
     1
  0
SEQEND
  5
DC0
330
DB7
100
AcDbEntity
  8
HATCH
  0
POLYLINE
  5
DC1
330
18
100
AcDbEntity
  8
HATCH
100
AcDb2dPolyline
 66
     1
 10
0.0
 20
0.0
 30
0.0
 70
     3
  0
VERTEX
  5
DC2
330
DC1
100
AcDbEntity
  8
HATCH
100
AcDbVertex
100
AcDb2dVertex
 10
2048.926852526478
 20
574.7816687342865
 30
0.0
 42
-0.2595538891301936
  0
VERTEX
  5
DC3
330
DC1
100
AcDbEntity
  8
HATCH
100
AcDbVertex
100
AcDb2dVertex
 10
2038.969286446395
 20
580.3241026542036
 30
0.0
 42
-0.1396462061370757
 70
     1
  0
VERTEX
  5
DC4
330
DC1
100
AcDbEntity
  8
HATCH
100
AcDbVertex
100
AcDb2dVertex
 10
2033.426852526478
 20
599.7816687342865
 30
0.0
 42
-0.1396462061370706
  0
VERTEX
  5
DC5
330
DC1
100
AcDbEntity
  8
HATCH
100
AcDbVertex
100
AcDb2dVertex
 10
2038.969286446394
 20
619.2392348143694
 30
0.0
 42
-0.2595538891301907
 70
     1
  0
VERTEX
  5
DC6
330
DC1
100
AcDbEntity
  8
HATCH
100
AcDbVertex
100
AcDb2dVertex
 10
2048.926852526478
 20
624.7816687342862
 30
0.0
 42
-0.2595538891301854
  0
VERTEX
  5
DC7
330
DC1
100
AcDbEntity
  8
HATCH
100
AcDbVertex
100
AcDb2dVertex
 10
2058.88441860656
 20
619.2392348143694
 30
0.0
 42
-0.1396462061370651
 70
     1
  0
VERTEX
  5
DC8
330
DC1
100
AcDbEntity
  8
HATCH
100
AcDbVertex
100
AcDb2dVertex
 10
2064.426852526478
 20
599.7816687342865
 30
0.0
 42
-0.1396462061370655
  0
VERTEX
  5
DC9
330
DC1
100
AcDbEntity
  8
HATCH
100
AcDbVertex
100
AcDb2dVertex
 10
2058.88441860656
 20
580.3241026542036
 30
0.0
 42
-0.2595538891301878
 70
     1
  0
SEQEND
  5
DCA
330
DC1
100
AcDbEntity
  8
HATCH
  0
POLYLINE
  5
DCB
330
18
100
AcDbEntity
  8
HATCH
100
AcDb2dPolyline
 66
     1
 10
0.0
 20
0.0
 30
0.0
 70
     3
  0
VERTEX
  5
DCC
330
DCB
100
AcDbEntity
  8
HATCH
100
AcDbVertex
100
AcDb2dVertex
 10
1955.926852526478
 20
574.7816687342865
 30
0.0
 42
-0.2595538891301936
  0
VERTEX
  5
DCD
330
DCB
100
AcDbEntity
  8
HATCH
100
AcDbVertex
100
AcDb2dVertex
 10
1945.969286446395
 20
580.3241026542036
 30
0.0
 42
-0.1396462061370757
 70
     1
  0
VERTEX
  5
DCE
330
DCB
100
AcDbEntity
  8
HATCH
100
AcDbVertex
100
AcDb2dVertex
 10
1940.426852526478
 20
599.7816687342865
 30
0.0
 42
-0.1396462061370706
  0
VERTEX
  5
DCF
330
DCB
100
AcDbEntity
  8
HATCH
100
AcDbVertex
100
AcDb2dVertex
 10
1945.969286446394
 20
619.2392348143694
 30
0.0
 42
-0.2595538891301907
 70
     1
  0
VERTEX
  5
DD0
330
DCB
100
AcDbEntity
  8
HATCH
100
AcDbVertex
100
AcDb2dVertex
 10
1955.926852526478
 20
624.7816687342862
 30
0.0
 42
-0.2595538891301854
  0
VERTEX
  5
DD1
330
DCB
100
AcDbEntity
  8
HATCH
100
AcDbVertex
100
AcDb2dVertex
 10
1965.88441860656
 20
619.2392348143694
 30
0.0
 42
-0.1396462061370651
 70
     1
  0
VERTEX
  5
DD2
330
DCB
100
AcDbEntity
  8
HATCH
100
AcDbVertex
100
AcDb2dVertex
 10
1971.426852526478
 20
599.7816687342865
 30
0.0
 42
-0.1396462061370655
  0
VERTEX
  5
DD3
330
DCB
100
AcDbEntity
  8
HATCH
100
AcDbVertex
100
AcDb2dVertex
 10
1965.88441860656
 20
580.3241026542036
 30
0.0
 42
-0.2595538891301878
 70
     1
  0
SEQEND
  5
DD4
330
DCB
100
AcDbEntity
  8
HATCH
  0
LINE
  5
E11
330
18
100
AcDbEntity
  8
SJC
100
AcDbLine
 10
1514.009622495297
 20
574.7816687342865
 30
0.0
 11
1514.009622495297
 21
924.7816687342863
 31
0.0
1001
ACAD
1000
ASC_BOUNDS
1002
{
1070
    19
1005
19CB
1002
}
  0
LINE
  5
E12
330
18
100
AcDbEntity
  8
SJC
100
AcDbLine
 10
1940.426852526478
 20
574.7816687342865
 30
0.0
 11
1940.426852526478
 21
924.7816687342863
 31
0.0
1001
ACAD
1000
ASC_BOUNDS
1002
{
1070
    19
1005
1B5E
1002
}
  0
LINE
  5
E13
330
18
100
AcDbEntity
  8
SJC
100
AcDbLine
 10
1940.426852526478
 20
574.7816687342865
 30
0.0
 11
2250.426852526478
 21
574.7816687342865
 31
0.0
  0
LINE
  5
E14
330
18
100
AcDbEntity
  8
SJC
100
AcDbLine
 10
1940.426852526478
 20
624.7816687342862
 30
0.0
 11
2250.426852526478
 21
624.7816687342862
 31
0.0
1001
ACAD
1000
ASC_BOUNDS
1002
{
1070
    19
1005
1B5E
1005
0
1005
0
1005
1B5E
1002
}
  0
POLYLINE
  5
E15
330
18
100
AcDbEntity
  8
HATCH
100
AcDb2dPolyline
 66
     1
 10
0.0
 20
0.0
 30
0.0
 70
     3
  0
VERTEX
  5
E16
330
E15
100
AcDbEntity
  8
HATCH
100
AcDbVertex
100
AcDb2dVertex
 10
2110.926852526478
 20
574.7816687342865
 30
0.0
 42
-0.2595538891301936
  0
VERTEX
  5
E17
330
E15
100
AcDbEntity
  8
HATCH
100
AcDbVertex
100
AcDb2dVertex
 10
2100.969286446395
 20
580.3241026542036
 30
0.0
 42
-0.1396462061370757
 70
     1
  0
VERTEX
  5
E18
330
E15
100
AcDbEntity
  8
HATCH
100
AcDbVertex
100
AcDb2dVertex
 10
2095.426852526478
 20
599.7816687342865
 30
0.0
 42
-0.1396462061370706
  0
VERTEX
  5
E19
330
E15
100
AcDbEntity
  8
HATCH
100
AcDbVertex
100
AcDb2dVertex
 10
2100.969286446394
 20
619.2392348143694
 30
0.0
 42
-0.2595538891301907
 70
     1
  0
VERTEX
  5
E1A
330
E15
100
AcDbEntity
  8
HATCH
100
AcDbVertex
100
AcDb2dVertex
 10
2110.926852526478
 20
624.7816687342862
 30
0.0
 42
-0.2595538891301854
  0
VERTEX
  5
E1B
330
E15
100
AcDbEntity
  8
HATCH
100
AcDbVertex
100
AcDb2dVertex
 10
2120.88441860656
 20
619.2392348143694
 30
0.0
 42
-0.1396462061370651
 70
     1
  0
VERTEX
  5
E1C
330
E15
100
AcDbEntity
  8
HATCH
100
AcDbVertex
100
AcDb2dVertex
 10
2126.426852526478
 20
599.7816687342865
 30
0.0
 42
-0.1396462061370655
  0
VERTEX
  5
E1D
330
E15
100
AcDbEntity
  8
HATCH
100
AcDbVertex
100
AcDb2dVertex
 10
2120.88441860656
 20
580.3241026542036
 30
0.0
 42
-0.2595538891301878
 70
     1
  0
SEQEND
  5
E1E
330
E15
100
AcDbEntity
  8
HATCH
  0
LINE
  5
E21
330
18
100
AcDbEntity
  8
CENTER
100
AcDbLine
 10
2095.426852526478
 20
519.7816687342865
 30
0.0
 11
2095.426852526478
 21
1774.781668734286
 31
0.0
1001
ACAD
1000
ASC_BOUNDS
1002
{
1070
    19
1005
1AFE
1005
0
1005
0
1005
0
1005
0
1005
0
1005
0
1005
0
1005
0
1005
0
1005
1AFE
1005
1AFE
1005
1AFE
1002
}
  0
LINE
  5
E23
330
18
100
AcDbEntity
  8
CENTER
100
AcDbLine
 10
1319.009622495298
 20
599.7816687342865
 30
0.0
 11
1319.009622495298
 21
1386.631668734286
 31
0.0
1001
ACAD
1000
ASC_BOUNDS
1002
{
1070
    19
1002
}
  0
LWPOLYLINE
  5
E4C
330
18
100
AcDbEntity
  8
HATCH
100
AcDbPolyline
 90
        5
 70
     0
 43
0.0
 10
698.0096224952976
 20
599.7816687342865
 42
-0.1321573863745694
 10
703.3092764786788
 20
619.4820147509044
 42
-0.2674173791456541
 10
712.5096224952976
 20
624.7816687342862
 42
-0.2674173791456531
 10
721.7099685119156
 20
619.4820147509044
 42
-0.0105337566772499
 10
722.5096224952976
 20
618.0338442278062
 42
-0.1321573863745684
  0
LWPOLYLINE
  5
E53
330
18
100
AcDbEntity
  8
HATCH
100
AcDbPolyline
 90
        5
 70
     0
 43
0.0
 10
722.5096224952976
 20
581.5294932407669
 42
-0.0105337566772515
 10
721.7099685119156
 20
580.0813227176677
 42
-0.2674173791456551
 10
712.5096224952976
 20
574.7816687342865
 42
-0.2674173791456566
 10
703.3092764786788
 20
580.0813227176677
 42
-0.1321573863745698
 10
698.0096224952976
 20
599.7816687342865
 42
-0.1321573863745694
  0
POLYLINE
  5
E5A
330
18
100
AcDbEntity
  8
HATCH
100
AcDb2dPolyline
 66
     1
 10
0.0
 20
0.0
 30
0.0
 70
     3
  0
VERTEX
  5
E5B
330
E5A
100
AcDbEntity
  8
HATCH
100
AcDbVertex
100
AcDb2dVertex
 10
640.0096224952976
 20
599.7816687342865
 30
0.0
 42
-0.1321573863745694
  0
VERTEX
  5
E5C
330
E5A
100
AcDbEntity
  8
HATCH
100
AcDbVertex
100
AcDb2dVertex
 10
645.3092764786788
 20
619.4820147509044
 30
0.0
 42
-0.2674173791456541
 70
     1
  0
VERTEX
  5
E5D
330
E5A
100
AcDbEntity
  8
HATCH
100
AcDbVertex
100
AcDb2dVertex
 10
654.5096224952977
 20
624.7816687342862
 30
0.0
 42
-0.2674173791456531
  0
VERTEX
  5
E5E
330
E5A
100
AcDbEntity
  8
HATCH
100
AcDbVertex
100
AcDb2dVertex
 10
663.7099685119156
 20
619.4820147509044
 30
0.0
 42
-0.1321573863745705
 70
     1
  0
VERTEX
  5
E5F
330
E5A
100
AcDbEntity
  8
HATCH
100
AcDbVertex
100
AcDb2dVertex
 10
669.0096224952976
 20
599.7816687342865
 30
0.0
 42
-0.1321573863745684
  0
VERTEX
  5
E60
330
E5A
100
AcDbEntity
  8
HATCH
100
AcDbVertex
100
AcDb2dVertex
 10
663.7099685119156
 20
580.0813227176677
 30
0.0
 42
-0.2674173791456551
 70
     1
  0
VERTEX
  5
E61
330
E5A
100
AcDbEntity
  8
HATCH
100
AcDbVertex
100
AcDb2dVertex
 10
654.5096224952977
 20
574.7816687342865
 30
0.0
 42
-0.2674173791456566
  0
VERTEX
  5
E62
330
E5A
100
AcDbEntity
  8
HATCH
100
AcDbVertex
100
AcDb2dVertex
 10
645.3092764786788
 20
580.0813227176677
 30
0.0
 42
-0.1321573863745698
 70
     1
  0
SEQEND
  5
E63
330
E5A
100
AcDbEntity
  8
HATCH
  0
POLYLINE
  5
E64
330
18
100
AcDbEntity
  8
HATCH
100
AcDb2dPolyline
 66
     1
 10
0.0
 20
0.0
 30
0.0
 70
     3
  0
VERTEX
  5
E65
330
E64
100
AcDbEntity
  8
HATCH
100
AcDbVertex
100
AcDb2dVertex
 10
669.0096224952976
 20
599.7816687342865
 30
0.0
 42
-0.1321573863745694
  0
VERTEX
  5
E66
330
E64
100
AcDbEntity
  8
HATCH
100
AcDbVertex
100
AcDb2dVertex
 10
674.3092764786788
 20
619.4820147509044
 30
0.0
 42
-0.2674173791456541
 70
     1
  0
VERTEX
  5
E67
330
E64
100
AcDbEntity
  8
HATCH
100
AcDbVertex
100
AcDb2dVertex
 10
683.5096224952977
 20
624.7816687342862
 30
0.0
 42
-0.2674173791456531
  0
VERTEX
  5
E68
330
E64
100
AcDbEntity
  8
HATCH
100
AcDbVertex
100
AcDb2dVertex
 10
692.7099685119156
 20
619.4820147509044
 30
0.0
 42
-0.1321573863745705
 70
     1
  0
VERTEX
  5
E69
330
E64
100
AcDbEntity
  8
HATCH
100
AcDbVertex
100
AcDb2dVertex
 10
698.0096224952976
 20
599.7816687342865
 30
0.0
 42
-0.1321573863745684
  0
VERTEX
  5
E6A
330
E64
100
AcDbEntity
  8
HATCH
100
AcDbVertex
100
AcDb2dVertex
 10
692.7099685119156
 20
580.0813227176677
 30
0.0
 42
-0.2674173791456551
 70
     1
  0
VERTEX
  5
E6B
330
E64
100
AcDbEntity
  8
HATCH
100
AcDbVertex
100
AcDb2dVertex
 10
683.5096224952977
 20
574.7816687342865
 30
0.0
 42
-0.2674173791456566
  0
VERTEX
  5
E6C
330
E64
100
AcDbEntity
  8
HATCH
100
AcDbVertex
100
AcDb2dVertex
 10
674.3092764786788
 20
580.0813227176677
 30
0.0
 42
-0.1321573863745698
 70
     1
  0
SEQEND
  5
E6D
330
E64
100
AcDbEntity
  8
HATCH
  0
POLYLINE
  5
E6E
330
18
100
AcDbEntity
  8
HATCH
100
AcDb2dPolyline
 66
     1
 10
0.0
 20
0.0
 30
0.0
 70
     3
  0
VERTEX
  5
E6F
330
E6E
100
AcDbEntity
  8
HATCH
100
AcDbVertex
100
AcDb2dVertex
 10
553.0096224952976
 20
599.7816687342865
 30
0.0
 42
-0.1321573863745694
  0
VERTEX
  5
E70
330
E6E
100
AcDbEntity
  8
HATCH
100
AcDbVertex
100
AcDb2dVertex
 10
558.3092764786788
 20
619.4820147509044
 30
0.0
 42
-0.2674173791456541
 70
     1
  0
VERTEX
  5
E71
330
E6E
100
AcDbEntity
  8
HATCH
100
AcDbVertex
100
AcDb2dVertex
 10
567.5096224952977
 20
624.7816687342862
 30
0.0
 42
-0.2674173791456531
  0
VERTEX
  5
E72
330
E6E
100
AcDbEntity
  8
HATCH
100
AcDbVertex
100
AcDb2dVertex
 10
576.7099685119156
 20
619.4820147509044
 30
0.0
 42
-0.1321573863745705
 70
     1
  0
VERTEX
  5
E73
330
E6E
100
AcDbEntity
  8
HATCH
100
AcDbVertex
100
AcDb2dVertex
 10
582.0096224952976
 20
599.7816687342865
 30
0.0
 42
-0.1321573863745684
  0
VERTEX
  5
E74
330
E6E
100
AcDbEntity
  8
HATCH
100
AcDbVertex
100
AcDb2dVertex
 10
576.7099685119156
 20
580.0813227176677
 30
0.0
 42
-0.2674173791456551
 70
     1
  0
VERTEX
  5
E75
330
E6E
100
AcDbEntity
  8
HATCH
100
AcDbVertex
100
AcDb2dVertex
 10
567.5096224952977
 20
574.7816687342865
 30
0.0
 42
-0.2674173791456566
  0
VERTEX
  5
E76
330
E6E
100
AcDbEntity
  8
HATCH
100
AcDbVertex
100
AcDb2dVertex
 10
558.3092764786788
 20
580.0813227176677
 30
0.0
 42
-0.1321573863745698
 70
     1
  0
SEQEND
  5
E77
330
E6E
100
AcDbEntity
  8
HATCH
  0
POLYLINE
  5
E78
330
18
100
AcDbEntity
  8
HATCH
100
AcDb2dPolyline
 66
     1
 10
0.0
 20
0.0
 30
0.0
 70
     3
  0
VERTEX
  5
E79
330
E78
100
AcDbEntity
  8
HATCH
100
AcDbVertex
100
AcDb2dVertex
 10
582.0096224952976
 20
599.7816687342865
 30
0.0
 42
-0.1321573863745694
  0
VERTEX
  5
E7A
330
E78
100
AcDbEntity
  8
HATCH
100
AcDbVertex
100
AcDb2dVertex
 10
587.3092764786788
 20
619.4820147509044
 30
0.0
 42
-0.2674173791456541
 70
     1
  0
VERTEX
  5
E7B
330
E78
100
AcDbEntity
  8
HATCH
100
AcDbVertex
100
AcDb2dVertex
 10
596.5096224952977
 20
624.7816687342862
 30
0.0
 42
-0.2674173791456531
  0
VERTEX
  5
E7C
330
E78
100
AcDbEntity
  8
HATCH
100
AcDbVertex
100
AcDb2dVertex
 10
605.7099685119156
 20
619.4820147509044
 30
0.0
 42
-0.1321573863745705
 70
     1
  0
VERTEX
  5
E7D
330
E78
100
AcDbEntity
  8
HATCH
100
AcDbVertex
100
AcDb2dVertex
 10
611.0096224952976
 20
599.7816687342865
 30
0.0
 42
-0.1321573863745684
  0
VERTEX
  5
E7E
330
E78
100
AcDbEntity
  8
HATCH
100
AcDbVertex
100
AcDb2dVertex
 10
605.7099685119156
 20
580.0813227176677
 30
0.0
 42
-0.2674173791456551
 70
     1
  0
VERTEX
  5
E7F
330
E78
100
AcDbEntity
  8
HATCH
100
AcDbVertex
100
AcDb2dVertex
 10
596.5096224952977
 20
574.7816687342865
 30
0.0
 42
-0.2674173791456566
  0
VERTEX
  5
E80
330
E78
100
AcDbEntity
  8
HATCH
100
AcDbVertex
100
AcDb2dVertex
 10
587.3092764786788
 20
580.0813227176677
 30
0.0
 42
-0.1321573863745698
 70
     1
  0
SEQEND
  5
E81
330
E78
100
AcDbEntity
  8
HATCH
  0
POLYLINE
  5
E82
330
18
100
AcDbEntity
  8
HATCH
100
AcDb2dPolyline
 66
     1
 10
0.0
 20
0.0
 30
0.0
 70
     3
  0
VERTEX
  5
E83
330
E82
100
AcDbEntity
  8
HATCH
100
AcDbVertex
100
AcDb2dVertex
 10
524.0096224952976
 20
599.7816687342865
 30
0.0
 42
-0.1321573863745694
  0
VERTEX
  5
E84
330
E82
100
AcDbEntity
  8
HATCH
100
AcDbVertex
100
AcDb2dVertex
 10
529.3092764786788
 20
619.4820147509044
 30
0.0
 42
-0.2674173791456541
 70
     1
  0
VERTEX
  5
E85
330
E82
100
AcDbEntity
  8
HATCH
100
AcDbVertex
100
AcDb2dVertex
 10
538.5096224952977
 20
624.7816687342862
 30
0.0
 42
-0.2674173791456531
  0
VERTEX
  5
E86
330
E82
100
AcDbEntity
  8
HATCH
100
AcDbVertex
100
AcDb2dVertex
 10
547.7099685119156
 20
619.4820147509044
 30
0.0
 42
-0.1321573863745705
 70
     1
  0
VERTEX
  5
E87
330
E82
100
AcDbEntity
  8
HATCH
100
AcDbVertex
100
AcDb2dVertex
 10
553.0096224952976
 20
599.7816687342865
 30
0.0
 42
-0.1321573863745684
  0
VERTEX
  5
E88
330
E82
100
AcDbEntity
  8
HATCH
100
AcDbVertex
100
AcDb2dVertex
 10
547.7099685119156
 20
580.0813227176677
 30
0.0
 42
-0.2674173791456551
 70
     1
  0
VERTEX
  5
E89
330
E82
100
AcDbEntity
  8
HATCH
100
AcDbVertex
100
AcDb2dVertex
 10
538.5096224952977
 20
574.7816687342865
 30
0.0
 42
-0.2674173791456566
  0
VERTEX
  5
E8A
330
E82
100
AcDbEntity
  8
HATCH
100
AcDbVertex
100
AcDb2dVertex
 10
529.3092764786788
 20
580.0813227176677
 30
0.0
 42
-0.1321573863745698
 70
     1
  0
SEQEND
  5
E8B
330
E82
100
AcDbEntity
  8
HATCH
  0
LINE
  5
E8C
330
18
100
AcDbEntity
  8
SJC
100
AcDbLine
 10
524.0096224952976
 20
574.7816687342865
 30
0.0
 11
524.0096224952976
 21
924.7816687342863
 31
0.0
1001
ACAD
1000
ASC_BOUNDS
1002
{
1070
    19
1005
1B5E
1002
}
  0
POLYLINE
  5
E8D
330
18
100
AcDbEntity
  8
HATCH
100
AcDb2dPolyline
 66
     1
 10
0.0
 20
0.0
 30
0.0
 70
     3
  0
VERTEX
  5
E8E
330
E8D
100
AcDbEntity
  8
HATCH
100
AcDbVertex
100
AcDb2dVertex
 10
611.0096224952976
 20
599.7816687342865
 30
0.0
 42
-0.1321573863745694
  0
VERTEX
  5
E8F
330
E8D
100
AcDbEntity
  8
HATCH
100
AcDbVertex
100
AcDb2dVertex
 10
616.3092764786788
 20
619.4820147509044
 30
0.0
 42
-0.2674173791456541
 70
     1
  0
VERTEX
  5
E90
330
E8D
100
AcDbEntity
  8
HATCH
100
AcDbVertex
100
AcDb2dVertex
 10
625.5096224952977
 20
624.7816687342862
 30
0.0
 42
-0.2674173791456531
  0
VERTEX
  5
E91
330
E8D
100
AcDbEntity
  8
HATCH
100
AcDbVertex
100
AcDb2dVertex
 10
634.7099685119156
 20
619.4820147509044
 30
0.0
 42
-0.1321573863745705
 70
     1
  0
VERTEX
  5
E92
330
E8D
100
AcDbEntity
  8
HATCH
100
AcDbVertex
100
AcDb2dVertex
 10
640.0096224952976
 20
599.7816687342865
 30
0.0
 42
-0.1321573863745684
  0
VERTEX
  5
E93
330
E8D
100
AcDbEntity
  8
HATCH
100
AcDbVertex
100
AcDb2dVertex
 10
634.7099685119156
 20
580.0813227176677
 30
0.0
 42
-0.2674173791456551
 70
     1
  0
VERTEX
  5
E94
330
E8D
100
AcDbEntity
  8
HATCH
100
AcDbVertex
100
AcDb2dVertex
 10
625.5096224952977
 20
574.7816687342865
 30
0.0
 42
-0.2674173791456566
  0
VERTEX
  5
E95
330
E8D
100
AcDbEntity
  8
HATCH
100
AcDbVertex
100
AcDb2dVertex
 10
616.3092764786788
 20
580.0813227176677
 30
0.0
 42
-0.1321573863745698
 70
     1
  0
SEQEND
  5
E96
330
E8D
100
AcDbEntity
  8
HATCH
  0
LINE
  5
E99
330
18
100
AcDbEntity
  8
CENTER
100
AcDbLine
 10
719.0096224952976
 20
599.7816687342865
 30
0.0
 11
719.0096224952976
 21
1386.631668734286
 31
0.0
  0
LINE
  5
E9C
330
18
100
AcDbEntity
  8
SJC
100
AcDbLine
 10
524.0096224952976
 20
574.7816687342865
 30
0.0
 11
1514.009622495297
 21
574.7816687342865
 31
0.0
  0
LINE
  5
E9D
330
18
100
AcDbEntity
  8
SJC
100
AcDbLine
 10
409.0096224952977
 20
924.7816687342863
 30
0.0
 11
688.7596224952971
 21
924.7816687342863
 31
0.0
1001
ACAD
1000
ASC_BOUNDS
1002
{
1070
    19
1005
1B5E
1002
}
  0
LINE
  5
E9E
330
18
100
AcDbEntity
  8
SJC
100
AcDbLine
 10
524.0096224952976
 20
624.7816687342862
 30
0.0
 11
1514.009622495297
 21
624.7816687342862
 31
0.0
1001
ACAD
1000
ASC_BOUNDS
1002
{
1070
    19
1005
19CB
1005
1B5E
1005
0
1005
0
1005
1B5E
1002
}
  0
ARC
  5
F1F
330
18
100
AcDbEntity
  8
HATCH
100
AcDbCircle
 10
0.0
 20
0.0
 30
0.0
 40
300.0
100
AcDbArc
 50
0.0
 51
0.0
  0
POLYLINE
  5
FE6
330
18
100
AcDbEntity
  8
HATCH
100
AcDb2dPolyline
 66
     1
 10
0.0
 20
0.0
 30
0.0
 70
     3
  0
VERTEX
  5
FE7
330
FE6
100
AcDbEntity
  8
HATCH
100
AcDbVertex
100
AcDb2dVertex
 10
1427.009622495298
 20
599.7816687342865
 30
0.0
 42
0.1321573863745694
  0
VERTEX
  5
FE8
330
FE6
100
AcDbEntity
  8
HATCH
100
AcDbVertex
100
AcDb2dVertex
 10
1421.709968511916
 20
619.4820147509044
 30
0.0
 42
0.2674173791456541
 70
     1
  0
VERTEX
  5
FE9
330
FE6
100
AcDbEntity
  8
HATCH
100
AcDbVertex
100
AcDb2dVertex
 10
1412.509622495297
 20
624.7816687342862
 30
0.0
 42
0.2674173791456531
  0
VERTEX
  5
FEA
330
FE6
100
AcDbEntity
  8
HATCH
100
AcDbVertex
100
AcDb2dVertex
 10
1403.30927647868
 20
619.4820147509044
 30
0.0
 42
0.1321573863745705
 70
     1
  0
VERTEX
  5
FEB
330
FE6
100
AcDbEntity
  8
HATCH
100
AcDbVertex
100
AcDb2dVertex
 10
1398.009622495298
 20
599.7816687342865
 30
0.0
 42
0.1321573863745684
  0
VERTEX
  5
FEC
330
FE6
100
AcDbEntity
  8
HATCH
100
AcDbVertex
100
AcDb2dVertex
 10
1403.30927647868
 20
580.0813227176677
 30
0.0
 42
0.2674173791456551
 70
     1
  0
VERTEX
  5
FED
330
FE6
100
AcDbEntity
  8
HATCH
100
AcDbVertex
100
AcDb2dVertex
 10
1412.509622495297
 20
574.7816687342865
 30
0.0
 42
0.2674173791456566
  0
VERTEX
  5
FEE
330
FE6
100
AcDbEntity
  8
HATCH
100
AcDbVertex
100
AcDb2dVertex
 10
1421.709968511916
 20
580.0813227176677
 30
0.0
 42
0.1321573863745698
 70
     1
  0
SEQEND
  5
FEF
330
FE6
100
AcDbEntity
  8
HATCH
  0
POLYLINE
  5
FF0
330
18
100
AcDbEntity
  8
HATCH
100
AcDb2dPolyline
 66
     1
 10
0.0
 20
0.0
 30
0.0
 70
     3
  0
VERTEX
  5
FF1
330
FF0
100
AcDbEntity
  8
HATCH
100
AcDbVertex
100
AcDb2dVertex
 10
1514.009622495297
 20
599.7816687342865
 30
0.0
 42
0.1321573863745694
  0
VERTEX
  5
FF2
330
FF0
100
AcDbEntity
  8
HATCH
100
AcDbVertex
100
AcDb2dVertex
 10
1508.709968511916
 20
619.4820147509044
 30
0.0
 42
0.2674173791456541
 70
     1
  0
VERTEX
  5
FF3
330
FF0
100
AcDbEntity
  8
HATCH
100
AcDbVertex
100
AcDb2dVertex
 10
1499.509622495297
 20
624.7816687342862
 30
0.0
 42
0.2674173791456531
  0
VERTEX
  5
FF4
330
FF0
100
AcDbEntity
  8
HATCH
100
AcDbVertex
100
AcDb2dVertex
 10
1490.30927647868
 20
619.4820147509044
 30
0.0
 42
0.1321573863745705
 70
     1
  0
VERTEX
  5
FF5
330
FF0
100
AcDbEntity
  8
HATCH
100
AcDbVertex
100
AcDb2dVertex
 10
1485.009622495297
 20
599.7816687342865
 30
0.0
 42
0.1321573863745684
  0
VERTEX
  5
FF6
330
FF0
100
AcDbEntity
  8
HATCH
100
AcDbVertex
100
AcDb2dVertex
 10
1490.30927647868
 20
580.0813227176677
 30
0.0
 42
0.2674173791456551
 70
     1
  0
VERTEX
  5
FF7
330
FF0
100
AcDbEntity
  8
HATCH
100
AcDbVertex
100
AcDb2dVertex
 10
1499.509622495297
 20
574.7816687342865
 30
0.0
 42
0.2674173791456566
  0
VERTEX
  5
FF8
330
FF0
100
AcDbEntity
  8
HATCH
100
AcDbVertex
100
AcDb2dVertex
 10
1508.709968511916
 20
580.0813227176677
 30
0.0
 42
0.1321573863745698
 70
     1
  0
SEQEND
  5
FF9
330
FF0
100
AcDbEntity
  8
HATCH
  0
POLYLINE
  5
FFA
330
18
100
AcDbEntity
  8
HATCH
100
AcDb2dPolyline
 66
     1
 10
0.0
 20
0.0
 30
0.0
 70
     3
  0
VERTEX
  5
FFB
330
FFA
100
AcDbEntity
  8
HATCH
100
AcDbVertex
100
AcDb2dVertex
 10
1456.009622495298
 20
599.7816687342865
 30
0.0
 42
0.1321573863745694
  0
VERTEX
  5
FFC
330
FFA
100
AcDbEntity
  8
HATCH
100
AcDbVertex
100
AcDb2dVertex
 10
1450.709968511916
 20
619.4820147509044
 30
0.0
 42
0.2674173791456541
 70
     1
  0
VERTEX
  5
FFD
330
FFA
100
AcDbEntity
  8
HATCH
100
AcDbVertex
100
AcDb2dVertex
 10
1441.509622495298
 20
624.7816687342862
 30
0.0
 42
0.2674173791456531
  0
VERTEX
  5
FFE
330
FFA
100
AcDbEntity
  8
HATCH
100
AcDbVertex
100
AcDb2dVertex
 10
1432.30927647868
 20
619.4820147509044
 30
0.0
 42
0.1321573863745705
 70
     1
  0
VERTEX
  5
FFF
330
FFA
100
AcDbEntity
  8
HATCH
100
AcDbVertex
100
AcDb2dVertex
 10
1427.009622495298
 20
599.7816687342865
 30
0.0
 42
0.1321573863745684
  0
VERTEX
  5
1000
330
FFA
100
AcDbEntity
  8
HATCH
100
AcDbVertex
100
AcDb2dVertex
 10
1432.30927647868
 20
580.0813227176677
 30
0.0
 42
0.2674173791456551
 70
     1
  0
VERTEX
  5
1001
330
FFA
100
AcDbEntity
  8
HATCH
100
AcDbVertex
100
AcDb2dVertex
 10
1441.509622495298
 20
574.7816687342865
 30
0.0
 42
0.2674173791456566
  0
VERTEX
  5
1002
330
FFA
100
AcDbEntity
  8
HATCH
100
AcDbVertex
100
AcDb2dVertex
 10
1450.709968511916
 20
580.0813227176677
 30
0.0
 42
0.1321573863745698
 70
     1
  0
SEQEND
  5
1003
330
FFA
100
AcDbEntity
  8
HATCH
  0
POLYLINE
  5
1004
330
18
100
AcDbEntity
  8
HATCH
100
AcDb2dPolyline
 66
     1
 10
0.0
 20
0.0
 30
0.0
 70
     3
  0
VERTEX
  5
1005
330
1004
100
AcDbEntity
  8
HATCH
100
AcDbVertex
100
AcDb2dVertex
 10
1485.009622495297
 20
599.7816687342865
 30
0.0
 42
0.1321573863745694
  0
VERTEX
  5
1006
330
1004
100
AcDbEntity
  8
HATCH
100
AcDbVertex
100
AcDb2dVertex
 10
1479.709968511916
 20
619.4820147509044
 30
0.0
 42
0.2674173791456541
 70
     1
  0
VERTEX
  5
1007
330
1004
100
AcDbEntity
  8
HATCH
100
AcDbVertex
100
AcDb2dVertex
 10
1470.509622495297
 20
624.7816687342862
 30
0.0
 42
0.2674173791456531
  0
VERTEX
  5
1008
330
1004
100
AcDbEntity
  8
HATCH
100
AcDbVertex
100
AcDb2dVertex
 10
1461.30927647868
 20
619.4820147509044
 30
0.0
 42
0.1321573863745705
 70
     1
  0
VERTEX
  5
1009
330
1004
100
AcDbEntity
  8
HATCH
100
AcDbVertex
100
AcDb2dVertex
 10
1456.009622495298
 20
599.7816687342865
 30
0.0
 42
0.1321573863745684
  0
VERTEX
  5
100A
330
1004
100
AcDbEntity
  8
HATCH
100
AcDbVertex
100
AcDb2dVertex
 10
1461.30927647868
 20
580.0813227176677
 30
0.0
 42
0.2674173791456551
 70
     1
  0
VERTEX
  5
100B
330
1004
100
AcDbEntity
  8
HATCH
100
AcDbVertex
100
AcDb2dVertex
 10
1470.509622495297
 20
574.7816687342865
 30
0.0
 42
0.2674173791456566
  0
VERTEX
  5
100C
330
1004
100
AcDbEntity
  8
HATCH
100
AcDbVertex
100
AcDb2dVertex
 10
1479.709968511916
 20
580.0813227176677
 30
0.0
 42
0.1321573863745698
 70
     1
  0
SEQEND
  5
100D
330
1004
100
AcDbEntity
  8
HATCH
  0
POLYLINE
  5
100E
330
18
100
AcDbEntity
  8
HATCH
100
AcDb2dPolyline
 66
     1
 10
0.0
 20
0.0
 30
0.0
 70
     3
  0
VERTEX
  5
100F
330
100E
100
AcDbEntity
  8
HATCH
100
AcDbVertex
100
AcDb2dVertex
 10
1369.009622495298
 20
599.7816687342865
 30
0.0
 42
0.1321573863745694
  0
VERTEX
  5
1010
330
100E
100
AcDbEntity
  8
HATCH
100
AcDbVertex
100
AcDb2dVertex
 10
1363.709968511916
 20
619.4820147509044
 30
0.0
 42
0.2674173791456541
 70
     1
  0
VERTEX
  5
1011
330
100E
100
AcDbEntity
  8
HATCH
100
AcDbVertex
100
AcDb2dVertex
 10
1354.509622495297
 20
624.7816687342862
 30
0.0
 42
0.2674173791456531
  0
VERTEX
  5
1012
330
100E
100
AcDbEntity
  8
HATCH
100
AcDbVertex
100
AcDb2dVertex
 10
1345.30927647868
 20
619.4820147509044
 30
0.0
 42
0.1321573863745705
 70
     1
  0
VERTEX
  5
1013
330
100E
100
AcDbEntity
  8
HATCH
100
AcDbVertex
100
AcDb2dVertex
 10
1340.009622495297
 20
599.7816687342865
 30
0.0
 42
0.1321573863745684
  0
VERTEX
  5
1014
330
100E
100
AcDbEntity
  8
HATCH
100
AcDbVertex
100
AcDb2dVertex
 10
1345.30927647868
 20
580.0813227176677
 30
0.0
 42
0.2674173791456551
 70
     1
  0
VERTEX
  5
1015
330
100E
100
AcDbEntity
  8
HATCH
100
AcDbVertex
100
AcDb2dVertex
 10
1354.509622495297
 20
574.7816687342865
 30
0.0
 42
0.2674173791456566
  0
VERTEX
  5
1016
330
100E
100
AcDbEntity
  8
HATCH
100
AcDbVertex
100
AcDb2dVertex
 10
1363.709968511916
 20
580.0813227176677
 30
0.0
 42
0.1321573863745698
 70
     1
  0
SEQEND
  5
1017
330
100E
100
AcDbEntity
  8
HATCH
  0
POLYLINE
  5
1018
330
18
100
AcDbEntity
  8
HATCH
100
AcDb2dPolyline
 66
     1
 10
0.0
 20
0.0
 30
0.0
 70
     3
  0
VERTEX
  5
1019
330
1018
100
AcDbEntity
  8
HATCH
100
AcDbVertex
100
AcDb2dVertex
 10
1398.009622495298
 20
599.7816687342865
 30
0.0
 42
0.1321573863745694
  0
VERTEX
  5
101A
330
1018
100
AcDbEntity
  8
HATCH
100
AcDbVertex
100
AcDb2dVertex
 10
1392.709968511916
 20
619.4820147509044
 30
0.0
 42
0.2674173791456541
 70
     1
  0
VERTEX
  5
101B
330
1018
100
AcDbEntity
  8
HATCH
100
AcDbVertex
100
AcDb2dVertex
 10
1383.509622495298
 20
624.7816687342862
 30
0.0
 42
0.2674173791456531
  0
VERTEX
  5
101C
330
1018
100
AcDbEntity
  8
HATCH
100
AcDbVertex
100
AcDb2dVertex
 10
1374.30927647868
 20
619.4820147509044
 30
0.0
 42
0.1321573863745705
 70
     1
  0
VERTEX
  5
101D
330
1018
100
AcDbEntity
  8
HATCH
100
AcDbVertex
100
AcDb2dVertex
 10
1369.009622495298
 20
599.7816687342865
 30
0.0
 42
0.1321573863745684
  0
VERTEX
  5
101E
330
1018
100
AcDbEntity
  8
HATCH
100
AcDbVertex
100
AcDb2dVertex
 10
1374.30927647868
 20
580.0813227176677
 30
0.0
 42
0.2674173791456551
 70
     1
  0
VERTEX
  5
101F
330
1018
100
AcDbEntity
  8
HATCH
100
AcDbVertex
100
AcDb2dVertex
 10
1383.509622495298
 20
574.7816687342865
 30
0.0
 42
0.2674173791456566
  0
VERTEX
  5
1020
330
1018
100
AcDbEntity
  8
HATCH
100
AcDbVertex
100
AcDb2dVertex
 10
1392.709968511916
 20
580.0813227176677
 30
0.0
 42
0.1321573863745698
 70
     1
  0
SEQEND
  5
1021
330
1018
100
AcDbEntity
  8
HATCH
  0
LWPOLYLINE
  5
1022
330
18
100
AcDbEntity
  8
HATCH
100
AcDbPolyline
 90
        5
 70
     0
 43
0.0
 10
1315.509622495298
 20
581.5294932407669
 42
0.0105337566772515
 10
1316.30927647868
 20
580.0813227176677
 42
0.2674173791456551
 10
1325.509622495298
 20
574.7816687342865
 42
0.2674173791456566
 10
1334.709968511916
 20
580.0813227176677
 42
0.1321573863745698
 10
1340.009622495297
 20
599.7816687342865
 42
0.1321573863745694
  0
LWPOLYLINE
  5
1029
330
18
100
AcDbEntity
  8
HATCH
100
AcDbPolyline
 90
        5
 70
     0
 43
0.0
 10
1340.009622495297
 20
599.7816687342865
 42
0.1321573863745694
 10
1334.709968511916
 20
619.4820147509044
 42
0.2674173791456541
 10
1325.509622495298
 20
624.7816687342862
 42
0.2674173791456531
 10
1316.30927647868
 20
619.4820147509044
 42
0.0105337566772499
 10
1315.509622495298
 20
618.0338442278062
 42
0.1321573863745684
  0
TEXT
  5
130E
330
18
100
AcDbEntity
  8
INFORMATION
100
AcDbText
 10
3701.0
 20
2.0
 30
0.0
 40
0.8
  1
PLOTTER=CALCOMP_TECHJET720
  7
EXT08
100
AcDbText
  0
TEXT
  5
130F
330
18
100
AcDbEntity
  8
INFORMATION
100
AcDbText
 10
3701.0
 20
3.0
 30
0.0
 40
0.8
  1
PAPER=A3
  7
EXT08
100
AcDbText
  0
TEXT
  5
1310
330
18
100
AcDbEntity
  8
INFORMATION
100
AcDbText
 10
3701.0
 20
1.0
 30
0.0
 40
0.8
  1
VERSION=2.1
  7
EXT08
100
AcDbText
  0
TEXT
  5
1332
330
18
100
AcDbEntity
  8
INFORMATION
100
AcDbText
 10
7401.0
 20
2.0
 30
0.0
 40
0.8
  1
PLOTTER=CALCOMP_TECHJET720
  7
EXT08
100
AcDbText
  0
TEXT
  5
1333
330
18
100
AcDbEntity
  8
INFORMATION
100
AcDbText
 10
7401.0
 20
3.0
 30
0.0
 40
0.8
  1
PAPER=A3
  7
EXT08
100
AcDbText
  0
TEXT
  5
14D7
330
18
100
AcDbEntity
  8
INFORMATION
100
AcDbText
 10
3701.0
 20
1.0
 30
0.0
 40
0.8
  1
VERSION=3.0
  7
EXT08
100
AcDbText
  0
TEXT
  5
151C
330
18
100
AcDbEntity
  8
INFORMATION
100
AcDbText
 10
7596.274752344
 20
59.11538195573758
 30
0.0
 40
0.8
  1
PLOTTER=CALCOMP_TECHJET720
  7
EXT08
100
AcDbText
  0
TEXT
  5
151D
330
18
100
AcDbEntity
  8
INFORMATION
100
AcDbText
 10
7596.274752344
 20
60.11538195573757
 30
0.0
 40
0.8
  1
PAPER=A3
  7
EXT08
100
AcDbText
  0
TEXT
  5
151E
330
18
100
AcDbEntity
  8
INFORMATION
100
AcDbText
 10
7596.274752344
 20
58.11538195573757
 30
0.0
 40
0.8
  1
VERSION=3.0
  7
EXT08
100
AcDbText
  0
TEXT
  5
1566
330
18
100
AcDbEntity
  8
INFORMATION
100
AcDbText
 10
12078.66205673476
 20
695.8695008902459
 30
0.0
 40
0.8
  1
PLOTTER=CALCOMP_TECHJET720
  7
EXT08
100
AcDbText
  0
TEXT
  5
1567
330
18
100
AcDbEntity
  8
INFORMATION
100
AcDbText
 10
12078.66205673476
 20
696.8695008902459
 30
0.0
 40
0.8
  1
PAPER=A3
  7
EXT08
100
AcDbText
  0
TEXT
  5
1568
330
18
100
AcDbEntity
  8
INFORMATION
100
AcDbText
 10
12078.66205673476
 20
694.8695008902459
 30
0.0
 40
0.8
  1
VERSION=2.1
  7
EXT08
100
AcDbText
  0
TEXT
  5
1569
330
18
100
AcDbEntity
  8
INFORMATION
100
AcDbText
 10
12078.66205673476
 20
695.8695008902459
 30
0.0
 40
0.8
  1
PLOTTER=CALCOMP_TECHJET720
  7
EXT08
100
AcDbText
  0
TEXT
  5
156A
330
18
100
AcDbEntity
  8
INFORMATION
100
AcDbText
 10
12078.66205673476
 20
696.8695008902459
 30
0.0
 40
0.8
  1
PAPER=A3
  7
EXT08
100
AcDbText
  0
TEXT
  5
156B
330
18
100
AcDbEntity
  8
INFORMATION
100
AcDbText
 10
12078.66205673476
 20
694.8695008902459
 30
0.0
 40
0.8
  1
VERSION=2.1
  7
EXT08
100
AcDbText
  0
TEXT
  5
156C
330
18
100
AcDbEntity
  8
INFORMATION
100
AcDbText
 10
15778.66205673476
 20
695.8695008902459
 30
0.0
 40
0.8
  1
PLOTTER=CALCOMP_TECHJET720
  7
EXT08
100
AcDbText
  0
TEXT
  5
156D
330
18
100
AcDbEntity
  8
INFORMATION
100
AcDbText
 10
15778.66205673476
 20
696.8695008902459
 30
0.0
 40
0.8
  1
PAPER=A3
  7
EXT08
100
AcDbText
  0
TEXT
  5
156E
330
18
100
AcDbEntity
  8
INFORMATION
100
AcDbText
 10
15778.66205673476
 20
694.8695008902459
 30
0.0
 40
0.8
  1
VERSION=2.1
  7
EXT08
100
AcDbText
  0
TEXT
  5
156F
330
18
100
AcDbEntity
  8
INFORMATION
100
AcDbText
 10
19478.66205673476
 20
695.8695008902459
 30
0.0
 40
0.8
  1
PLOTTER=CALCOMP_TECHJET720
  7
EXT08
100
AcDbText
  0
TEXT
  5
1570
330
18
100
AcDbEntity
  8
INFORMATION
100
AcDbText
 10
19478.66205673476
 20
696.8695008902459
 30
0.0
 40
0.8
  1
PAPER=A3
  7
EXT08
100
AcDbText
  0
TEXT
  5
1571
330
18
100
AcDbEntity
  8
INFORMATION
100
AcDbText
 10
19478.66205673476
 20
694.8695008902459
 30
0.0
 40
0.8
  1
VERSION=2.1
  7
EXT08
100
AcDbText
  0
TEXT
  5
1572
330
18
100
AcDbEntity
  8
INFORMATION
100
AcDbText
 10
16699.34149736824
 20
1294.884512078366
 30
0.0
 40
0.8
  1
PLOTTER=CALCOMP_TECHJET720
  7
EXT08
100
AcDbText
  0
TEXT
  5
1573
330
18
100
AcDbEntity
  8
INFORMATION
100
AcDbText
 10
16699.34149736824
 20
1295.884512078366
 30
0.0
 40
0.8
  1
PAPER=A3
  7
EXT08
100
AcDbText
  0
TEXT
  5
1574
330
18
100
AcDbEntity
  8
INFORMATION
100
AcDbText
 10
16699.34149736824
 20
1293.884512078366
 30
0.0
 40
0.8
  1
VERSION=2.1
  7
EXT08
100
AcDbText
  0
TEXT
  5
1575
330
18
100
AcDbEntity
  8
INFORMATION
100
AcDbText
 10
20399.34149736824
 20
1294.884512078366
 30
0.0
 40
0.8
  1
PLOTTER=CALCOMP_TECHJET720
  7
EXT08
100
AcDbText
  0
TEXT
  5
1576
330
18
100
AcDbEntity
  8
INFORMATION
100
AcDbText
 10
20399.34149736824
 20
1295.884512078366
 30
0.0
 40
0.8
  1
PAPER=A3
  7
EXT08
100
AcDbText
  0
TEXT
  5
1577
330
18
100
AcDbEntity
  8
INFORMATION
100
AcDbText
 10
20399.34149736824
 20
1293.884512078366
 30
0.0
 40
0.8
  1
VERSION=2.1
  7
EXT08
100
AcDbText
  0
TEXT
  5
1578
330
18
100
AcDbEntity
  8
INFORMATION
100
AcDbText
 10
26342.32619195123
 20
1747.484115134903
 30
0.0
 40
0.8
  1
PLOTTER=CALCOMP_TECHJET720
  7
EXT08
100
AcDbText
  0
TEXT
  5
1579
330
18
100
AcDbEntity
  8
INFORMATION
100
AcDbText
 10
26342.32619195123
 20
1748.484115134903
 30
0.0
 40
0.8
  1
PAPER=A3
  7
EXT08
100
AcDbText
  0
TEXT
  5
157A
330
18
100
AcDbEntity
  8
INFORMATION
100
AcDbText
 10
26342.32619195123
 20
1746.484115134903
 30
0.0
 40
0.8
  1
VERSION=2.1
  7
EXT08
100
AcDbText
  0
TEXT
  5
157B
330
18
100
AcDbEntity
  8
INFORMATION
100
AcDbText
 10
26231.2838667374
 20
2559.501044356021
 30
0.0
 40
0.8
  1
PLOTTER=CALCOMP_TECHJET720
  7
EXT08
100
AcDbText
  0
TEXT
  5
157C
330
18
100
AcDbEntity
  8
INFORMATION
100
AcDbText
 10
26231.2838667374
 20
2560.50104435602
 30
0.0
 40
0.8
  1
PAPER=A3
  7
EXT08
100
AcDbText
  0
TEXT
  5
157D
330
18
100
AcDbEntity
  8
INFORMATION
100
AcDbText
 10
26231.2838667374
 20
2558.501044356021
 30
0.0
 40
0.8
  1
VERSION=2.1
  7
EXT08
100
AcDbText
  0
TEXT
  5
157E
330
18
100
AcDbEntity
  8
INFORMATION
100
AcDbText
 10
24287.30307855532
 20
2078.798856747115
 30
0.0
 40
0.8
  1
PLOTTER=CALCOMP_TECHJET720
  7
EXT08
100
AcDbText
  0
TEXT
  5
157F
330
18
100
AcDbEntity
  8
INFORMATION
100
AcDbText
 10
24287.30307855532
 20
2079.798856747115
 30
0.0
 40
0.8
  1
PAPER=A3
  7
EXT08
100
AcDbText
  0
TEXT
  5
1580
330
18
100
AcDbEntity
  8
INFORMATION
100
AcDbText
 10
24287.30307855532
 20
2077.798856747115
 30
0.0
 40
0.8
  1
VERSION=2.1
  7
EXT08
100
AcDbText
  0
TEXT
  5
1581
330
18
100
AcDbEntity
  8
INFORMATION
100
AcDbText
 10
30230.2877731383
 20
2531.398459803651
 30
0.0
 40
0.8
  1
PLOTTER=CALCOMP_TECHJET720
  7
EXT08
100
AcDbText
  0
TEXT
  5
1582
330
18
100
AcDbEntity
  8
INFORMATION
100
AcDbText
 10
30230.2877731383
 20
2532.398459803652
 30
0.0
 40
0.8
  1
PAPER=A3
  7
EXT08
100
AcDbText
  0
TEXT
  5
1583
330
18
100
AcDbEntity
  8
INFORMATION
100
AcDbText
 10
30230.2877731383
 20
2530.398459803651
 30
0.0
 40
0.8
  1
VERSION=2.1
  7
EXT08
100
AcDbText
  0
TEXT
  5
1584
330
18
100
AcDbEntity
  8
INFORMATION
100
AcDbText
 10
16699.34149736824
 20
3964.884512078366
 30
0.0
 40
0.8
  1
PLOTTER=CALCOMP_TECHJET720
  7
EXT08
100
AcDbText
  0
TEXT
  5
1585
330
18
100
AcDbEntity
  8
INFORMATION
100
AcDbText
 10
16699.34149736824
 20
3965.884512078366
 30
0.0
 40
0.8
  1
PAPER=A3
  7
EXT08
100
AcDbText
  0
TEXT
  5
1586
330
18
100
AcDbEntity
  8
INFORMATION
100
AcDbText
 10
16699.34149736824
 20
3963.884512078367
 30
0.0
 40
0.8
  1
VERSION=2.1
  7
EXT08
100
AcDbText
  0
TEXT
  5
1587
330
18
100
AcDbEntity
  8
INFORMATION
100
AcDbText
 10
16699.34149736824
 20
3964.884512078366
 30
0.0
 40
0.8
  1
PLOTTER=CALCOMP_TECHJET720
  7
EXT08
100
AcDbText
  0
TEXT
  5
1588
330
18
100
AcDbEntity
  8
INFORMATION
100
AcDbText
 10
16699.34149736824
 20
3965.884512078366
 30
0.0
 40
0.8
  1
PAPER=A3
  7
EXT08
100
AcDbText
  0
TEXT
  5
1589
330
18
100
AcDbEntity
  8
INFORMATION
100
AcDbText
 10
16699.34149736824
 20
3963.884512078367
 30
0.0
 40
0.8
  1
VERSION=2.1
  7
EXT08
100
AcDbText
  0
TEXT
  5
158A
330
18
100
AcDbEntity
  8
INFORMATION
100
AcDbText
 10
20399.34149736824
 20
3964.884512078366
 30
0.0
 40
0.8
  1
PLOTTER=CALCOMP_TECHJET720
  7
EXT08
100
AcDbText
  0
TEXT
  5
158B
330
18
100
AcDbEntity
  8
INFORMATION
100
AcDbText
 10
20399.34149736824
 20
3965.884512078366
 30
0.0
 40
0.8
  1
PAPER=A3
  7
EXT08
100
AcDbText
  0
TEXT
  5
158C
330
18
100
AcDbEntity
  8
INFORMATION
100
AcDbText
 10
20399.34149736824
 20
3963.884512078367
 30
0.0
 40
0.8
  1
VERSION=2.1
  7
EXT08
100
AcDbText
  0
TEXT
  5
158D
330
18
100
AcDbEntity
  8
INFORMATION
100
AcDbText
 10
24099.34149736824
 20
3964.884512078366
 30
0.0
 40
0.8
  1
PLOTTER=CALCOMP_TECHJET720
  7
EXT08
100
AcDbText
  0
TEXT
  5
158E
330
18
100
AcDbEntity
  8
INFORMATION
100
AcDbText
 10
24099.34149736824
 20
3965.884512078366
 30
0.0
 40
0.8
  1
PAPER=A3
  7
EXT08
100
AcDbText
  0
TEXT
  5
158F
330
18
100
AcDbEntity
  8
INFORMATION
100
AcDbText
 10
7639.827786672412
 20
107.0714230393687
 30
0.0
 40
0.8
  1
VERSION=3.0
  7
EXT08
100
AcDbText
  0
TEXT
  5
1592
330
18
100
AcDbEntity
  8
INFORMATION
100
AcDbText
 10
11628.73743736036
 20
178.3883181003111
 30
0.0
 40
0.8
  1
PLOTTER=CALCOMP_TECHJET720
  7
EXT08
100
AcDbText
  0
TEXT
  5
1593
330
18
100
AcDbEntity
  8
INFORMATION
100
AcDbText
 10
11628.73743736036
 20
179.3883181003111
 30
0.0
 40
0.8
  1
PAPER=A3
  7
EXT08
100
AcDbText
  0
TEXT
  5
1594
330
18
100
AcDbEntity
  8
INFORMATION
100
AcDbText
 10
11628.73743736036
 20
177.3883181003111
 30
0.0
 40
0.8
  1
VERSION=3.0
  7
EXT08
100
AcDbText
  0
LINE
  5
16A9
330
18
100
AcDbEntity
  8
SJC
  6
Continuous
100
AcDbLine
 10
749.259622495297
 20
624.7816687342862
 30
0.0
 11
749.2596224952972
 21
1394.531668734286
 31
0.0
1001
ACAD
1000
ASC_BOUNDS
1002
{
1070
    19
1005
1B5E
1002
}
  0
LINE
  5
16AA
330
18
100
AcDbEntity
  8
SJC
  6
Continuous
100
AcDbLine
 10
688.7596224952971
 20
624.7816687342862
 30
0.0
 11
688.7596224952972
 21
1394.531668734286
 31
0.0
1001
ACAD
1000
ASC_BOUNDS
1002
{
1070
    19
1005
1B5E
1002
}
  0
LINE
  5
16AB
330
18
100
AcDbEntity
  8
SJC
100
AcDbLine
 10
749.2596224952972
 20
1334.781668734286
 30
0.0
 11
688.7596224952972
 21
1334.781668734286
 31
0.0
  0
LINE
  5
16AC
330
18
100
AcDbEntity
  8
SJC
100
AcDbLine
 10
749.2596224952972
 20
1304.781668734287
 30
0.0
 11
688.7596224952972
 21
1304.781668734287
 31
0.0
  0
LINE
  5
16AD
330
18
100
AcDbEntity
  8
SJC
100
AcDbLine
 10
749.2596224952972
 20
1364.781668734286
 30
0.0
 11
688.7596224952972
 21
1364.781668734286
 31
0.0
  0
LINE
  5
16AE
330
18
100
AcDbEntity
  8
SJC
100
AcDbLine
 10
749.259738343329
 20
1394.781668734286
 30
0.0
 11
688.7597171205948
 21
1394.781668734286
 31
0.0
  0
TEXT
  5
16AF
330
18
100
AcDbEntity
  8
MOJI
100
AcDbText
 10
499.0822988871346
 20
1313.615014364317
 30
0.0
 40
30.0
  1
（黄色）
 41
0.8
  7
EXT08
100
AcDbText
  0
TEXT
  5
16B0
330
18
100
AcDbEntity
  8
MOJI
100
AcDbText
 10
489.0822988871345
 20
1363.615014364317
 30
0.0
 40
30.0
  1
反射テープ
 41
0.8
  7
EXT08
100
AcDbText
  0
LINE
  5
16B1
330
18
100
AcDbEntity
  8
MOJI
100
AcDbLine
 10
671.0713923165172
 20
1327.949172770007
 30
0.0
 11
631.9096224952978
 21
1348.615014364318
 31
0.0
  0
SOLID
  5
16B2
330
18
100
AcDbEntity
  8
MOJI
100
AcDbTrace
 10
672.6270853841319
 20
1330.897211133137
 30
0.0
 11
669.5156992489024
 21
1325.001134406877
 31
0.0
 12
688.7596224952972
 22
1318.615014364318
 32
0.0
 13
688.7596224952972
 23
1318.615014364318
 33
0.0
  0
LINE
  5
16B3
330
18
100
AcDbEntity
  8
MOJI
100
AcDbLine
 10
631.9096224952968
 20
1348.615014364317
 30
0.0
 11
478.4719100719025
 21
1348.615014364317
 31
0.0
  0
LINE
  5
16B4
330
18
100
AcDbEntity
  8
MOJI
100
AcDbLine
 10
671.0713923165163
 20
1369.280855958629
 30
0.0
 11
631.9096224952968
 21
1348.615014364317
 31
0.0
  0
SOLID
  5
16B5
330
18
100
AcDbEntity
  8
MOJI
100
AcDbTrace
 10
669.5156992489024
 20
1372.228894321758
 30
0.0
 11
672.6270853841319
 21
1366.332817595498
 31
0.0
 12
688.7596224952972
 22
1378.615014364317
 32
0.0
 13
688.7596224952972
 23
1378.615014364317
 33
0.0
  0
LINE
  5
16B8
330
18
100
AcDbEntity
  8
MOJI
100
AcDbLine
 10
628.6610786577548
 20
1635.431847376811
 30
0.0
 11
408.9961568374455
 21
1635.431847376811
 31
0.0
  0
TEXT
  5
16B9
330
18
100
AcDbEntity
  8
MOJI
100
AcDbText
 10
416.4068104258395
 20
1645.43184737681
 30
0.0
 40
30.0
  1
%%C60.5×t2.3
 41
0.8
  7
EXT08
100
AcDbText
  0
LINE
  5
16BA
330
18
100
AcDbEntity
  8
MOJI
100
AcDbLine
 10
725.8901323058749
 20
1586.022301182547
 30
0.0
 11
628.6610786577548
 21
1635.431847376811
 31
0.0
  0
SOLID
  5
16BB
330
18
100
AcDbEntity
  8
MOJI
100
AcDbTrace
 10
727.4002513413019
 20
1588.993942414249
 30
0.0
 11
724.3800132704486
 21
1583.050659950844
 31
0.0
 12
743.719979696088
 22
1576.961586969985
 32
0.0
 13
743.719979696088
 23
1576.961586969985
 33
0.0
  0
ARC
  5
16BC
330
18
100
AcDbEntity
  8
CENTER
100
AcDbCircle
 10
1019.009622495297
 20
1394.531668734286
 30
0.0
 40
300.0
100
AcDbArc
 50
0.0
 51
180.0
  0
ARC
  5
16BD
330
18
100
AcDbEntity
  8
SJC
100
AcDbCircle
 10
1019.009622495297
 20
1394.531668734286
 30
0.0
 40
269.75
100
AcDbArc
 50
0.0
 51
180.0
  0
ARC
  5
16BE
330
18
100
AcDbEntity
  8
SJC
100
AcDbCircle
 10
1019.009622495297
 20
1394.531668734286
 30
0.0
 40
330.25
100
AcDbArc
 50
0.0
 51
180.0
  0
DIMENSION
  5
16BF
330
18
100
AcDbEntity
  8
SUNPOU
100
AcDbDimension
  2
*D8
 10
1019.009622495296
 20
1394.531668734289
 30
0.0
 11
1145.455669842204
 21
1479.622191769134
 31
0.0
 12
-3432.54101567411
 22
-198.1619852140045
 32
0.0
 70
    36
 71
     5
 42
-1.0
  3
SJC
100
AcDbRadialDimension
 15
1293.636397956708
 25
1515.27989522092
 35
0.0
 40
0.0
1001
ACAD
1000
DSTYLE
1002
{
1070
   340
1005
740
1070
   140
1040
3.0
1070
    78
1070
     8
1070
    74
1070
     0
1070
   172
1070
     1
1070
    73
1070
     0
1070
    77
1070
     1
1070
    40
1040
10.0
1070
   147
1040
1.199999999999999
1070
    42
1040
1.0
1070
    44
1040
1.0
1070
    43
1040
6.0
1070
   271
1070
     1
1070
   178
1070
   256
1070
   177
1070
   256
1070
   176
1070
   256
1070
   275
1070
     1
1070
    41
1040
2.0
1002
}
  0
LINE
  5
16C0
330
18
100
AcDbEntity
  8
SJC
  6
Continuous
100
AcDbLine
 10
1288.759622495297
 20
624.7816687342862
 30
0.0
 11
1288.759622495297
 21
1394.531668734286
 31
0.0
1001
ACAD
1000
ASC_BOUNDS
1002
{
1070
    19
1005
1B5E
1002
}
  0
LINE
  5
16C1
330
18
100
AcDbEntity
  8
SJC
  6
Continuous
100
AcDbLine
 10
1349.259622495297
 20
624.7816687342862
 30
0.0
 11
1349.259622495297
 21
1394.531668734286
 31
0.0
1001
ACAD
1000
ASC_BOUNDS
1002
{
1070
    19
1005
19CB
1002
}
  0
LWPOLYLINE
  5
16C2
330
18
100
AcDbEntity
  8
SUNPOU
100
AcDbPolyline
 90
        2
 70
     1
 43
5.0
 10
1479.491085267238
 20
1334.781668734286
 42
1.0
 10
1484.491085267238
 20
1334.781668734286
 42
1.0
  0
LWPOLYLINE
  5
16C6
330
18
100
AcDbEntity
  8
SUNPOU
100
AcDbPolyline
 90
        2
 70
     1
 43
5.0
 10
1479.491085267238
 20
1364.781668734286
 42
1.0
 10
1484.491085267238
 20
1364.781668734286
 42
1.0
  0
POINT
  5
16CA
330
18
100
AcDbEntity
  8
SUNPOU
  6
ByBlock
 62
     0
100
AcDbPoint
 10
1481.991085267238
 20
1334.781668734286
 30
0.0
  0
POINT
  5
16CB
330
18
100
AcDbEntity
  8
DEFPOINTS
  6
ByBlock
 62
     0
100
AcDbPoint
 10
1353.099963191178
 20
1334.781668734286
 30
0.0
  0
POINT
  5
16CC
330
18
100
AcDbEntity
  8
SUNPOU
  6
ByBlock
 62
     0
100
AcDbPoint
 10
1481.991085267238
 20
1364.781668734286
 30
0.0
  0
LINE
  5
16CD
330
18
100
AcDbEntity
  8
SUNPOU
  6
ByBlock
100
AcDbLine
 10
1363.099963191178
 20
1334.781668734286
 30
0.0
 11
1491.991085267238
 21
1334.781668734286
 31
0.0
  0
LINE
  5
16CE
330
18
100
AcDbEntity
  8
SUNPOU
  6
ByBlock
100
AcDbLine
 10
1471.991085267238
 20
1364.781668734286
 30
0.0
 11
1471.991085267238
 21
1364.781668734286
 31
0.0
  0
POINT
  5
16CF
330
18
100
AcDbEntity
  8
DEFPOINTS
  6
ByBlock
 62
     0
100
AcDbPoint
 10
1353.037463191179
 20
1304.781668734286
 30
0.0
  0
POINT
  5
16D0
330
18
100
AcDbEntity
  8
SUNPOU
  6
ByBlock
 62
     0
100
AcDbPoint
 10
1481.991085267238
 20
1334.781668734286
 30
0.0
  0
MTEXT
  5
16D1
330
18
100
AcDbEntity
  8
SUNPOU
  6
ByBlock
100
AcDbMText
 10
1451.991085267238
 20
1274.781668734286
 30
0.0
 40
30.0
 41
0.0
 71
     5
 72
     5
  1
\A1;30
  7
EXT08
 11
0.0
 21
1.0
 31
0.0
 73
     1
 44
1.0
  0
LINE
  5
16D2
330
18
100
AcDbEntity
  8
SUNPOU
  6
ByBlock
100
AcDbLine
 10
1363.037463191179
 20
1304.781668734286
 30
0.0
 11
1491.991085267238
 21
1304.781668734286
 31
0.0
  0
LINE
  5
16D3
330
18
100
AcDbEntity
  8
SUNPOU
  6
ByBlock
100
AcDbLine
 10
1471.991085267238
 20
1334.781668734286
 30
0.0
 11
1471.991085267238
 21
1334.781668734286
 31
0.0
  0
POINT
  5
16D4
330
18
100
AcDbEntity
  8
SUNPOU
  6
ByBlock
 62
     0
100
AcDbPoint
 10
1481.991085267238
 20
1364.781668734286
 30
0.0
  0
POINT
  5
16D5
330
18
100
AcDbEntity
  8
DEFPOINTS
  6
ByBlock
 62
     0
100
AcDbPoint
 10
1353.037463191179
 20
1364.781668734286
 30
0.0
  0
POINT
  5
16D6
330
18
100
AcDbEntity
  8
DEFPOINTS
  6
ByBlock
 62
     0
100
AcDbPoint
 10
1353.037463191179
 20
1394.781668734286
 30
0.0
  0
SOLID
  5
16D7
330
18
100
AcDbEntity
  8
SUNPOU
  6
ByBlock
100
AcDbTrace
 10
1478.657751933904
 20
1414.781668734286
 30
0.0
 11
1485.324418600571
 21
1414.781668734286
 31
0.0
 12
1481.991085267238
 22
1394.781668734286
 32
0.0
 13
1481.991085267238
 23
1394.781668734286
 33
0.0
  0
LINE
  5
16D8
330
18
100
AcDbEntity
  8
SUNPOU
  6
ByBlock
100
AcDbLine
 10
1363.037463191179
 20
1364.781668734286
 30
0.0
 11
1491.991085267238
 21
1364.781668734286
 31
0.0
  0
LINE
  5
16D9
330
18
100
AcDbEntity
  8
SUNPOU
  6
ByBlock
100
AcDbLine
 10
1363.037463191179
 20
1394.781668734286
 30
0.0
 11
1491.991085267238
 21
1394.781668734286
 31
0.0
  0
LINE
  5
16DA
330
18
100
AcDbEntity
  8
SJC
100
AcDbLine
 10
1288.759506647265
 20
1394.781668734286
 30
0.0
 11
1349.259527869999
 21
1394.781668734286
 31
0.0
  0
LINE
  5
16DB
330
18
100
AcDbEntity
  8
SJC
100
AcDbLine
 10
1288.759622495297
 20
1364.781668734286
 30
0.0
 11
1349.259622495297
 21
1364.781668734286
 31
0.0
1001
ACAD
1000
ASC_BOUNDS
1002
{
1070
    19
1002
}
  0
LINE
  5
16DC
330
18
100
AcDbEntity
  8
SJC
100
AcDbLine
 10
1288.759622495297
 20
1334.781668734286
 30
0.0
 11
1349.259622495297
 21
1334.781668734286
 31
0.0
1001
ACAD
1000
ASC_BOUNDS
1002
{
1070
    19
1002
}
  0
LINE
  5
16DD
330
18
100
AcDbEntity
  8
SJC
100
AcDbLine
 10
1288.759622495297
 20
1304.781668734287
 30
0.0
 11
1349.259622495297
 21
1304.781668734287
 31
0.0
  0
MTEXT
  5
16DE
330
18
100
AcDbEntity
  8
SUNPOU
  6
ByBlock
100
AcDbMText
 10
1516.416085267238
 20
1349.781668734286
 30
0.0
 40
30.0
 41
0.0
 71
     5
 72
     5
  1
\A1;30
  7
EXT08
 11
0.0
 21
1.0
 31
0.0
 73
     1
 44
1.0
  0
LINE
  5
16DF
330
18
100
AcDbEntity
  8
SUNPOU
  6
ByBlock
100
AcDbLine
 10
1481.991085267238
 20
1304.781668734287
 30
0.0
 11
1481.991085267238
 21
1449.299540364215
 31
0.0
  0
DIMENSION
  5
16E0
330
18
100
AcDbEntity
  8
SUNPOU
100
AcDbDimension
  2
*D7
 10
1481.991085267238
 20
924.7816687342863
 30
0.0
 11
1454.991085267238
 21
1114.781668734286
 31
0.0
 12
-3432.54101567411
 22
-198.1619852140045
 32
0.0
 70
    32
 71
     5
 42
-1.0
  3
SJC
100
AcDbAlignedDimension
 13
1481.991085267238
 23
1304.781668734286
 33
0.0
 14
1440.584622495297
 24
924.7816687342863
 34
0.0
 50
90.0
100
AcDbRotatedDimension
1001
ACAD
1000
DSTYLE
1002
{
1070
   340
1005
740
1070
   140
1040
3.0
1070
    78
1070
     8
1070
    74
1070
     0
1070
   172
1070
     1
1070
    73
1070
     0
1070
    77
1070
     1
1070
    40
1040
10.0
1070
   147
1040
1.199999999999999
1070
    42
1040
1.0
1070
    44
1040
1.0
1070
    43
1040
6.0
1070
   271
1070
     1
1070
   178
1070
   256
1070
   177
1070
   256
1070
   176
1070
   256
1070
   275
1070
     1
1070
    41
1040
2.0
1002
}
  0
INSERT
  5
16F5
330
18
100
AcDbEntity
  8
HATCH
100
AcDbBlockReference
  2
*X6
 10
-350.9903775047028
 20
-175.2183312657137
 30
0.0
1001
ACAD
1000
HATCH
1002
{
1070
    16
1000
ANSI37
1040
40.0
1040
0.0
1002
}
  0
LINE
  5
16F6
330
18
100
AcDbEntity
  8
SJC
100
AcDbLine
 10
2065.176852526477
 20
624.7816687342862
 30
0.0
 11
2065.176852526478
 21
1694.531668734287
 31
0.0
1001
ACAD
1000
ASC_BOUNDS
1002
{
1070
    19
1005
1AFE
1005
0
1005
0
1005
1B5E
1005
0
1005
1AFE
1002
}
  0
LINE
  5
16F7
330
18
100
AcDbEntity
  8
SJC
100
AcDbLine
 10
2125.676852526478
 20
624.7816687342862
 30
0.0
 11
2125.676852526478
 21
1694.531668734287
 31
0.0
1001
ACAD
1000
ASC_BOUNDS
1002
{
1070
    19
1005
1AFE
1005
0
1005
0
1005
1B5E
1005
0
1005
1AFE
1002
}
  0
ARC
  5
16F9
330
18
100
AcDbEntity
  8
SJC
100
AcDbCircle
 10
2095.426852526478
 20
1694.531668734286
 30
0.0
 40
30.25
100
AcDbArc
 50
0.0
 51
180.0
  0
ARC
  5
16FB
330
18
100
AcDbEntity
  8
HASEN
100
AcDbCircle
 10
2095.426852526478
 20
1694.531668734286
 30
0.0
 40
30.25
100
AcDbArc
 50
180.0
 51
0.0
  0
LINE
  5
16FC
330
18
100
AcDbEntity
  8
SJC
100
AcDbLine
 10
2065.176736678446
 20
1394.781668734286
 30
0.0
 11
2125.67675790118
 21
1394.781668734286
 31
0.0
1001
ACAD
1000
ASC_BOUNDS
1002
{
1070
    19
1005
1AFE
1005
0
1005
0
1005
0
1005
1AFE
1002
}
  0
POINT
  5
16FD
330
18
100
AcDbEntity
  8
DEFPOINTS
  6
ByBlock
 62
     0
100
AcDbPoint
 10
2129.454693222359
 20
1394.781668734286
 30
0.0
  0
LINE
  5
16FE
330
18
100
AcDbEntity
  8
SJC
100
AcDbLine
 10
2065.176852526478
 20
1364.781668734286
 30
0.0
 11
2125.676852526478
 21
1364.781668734286
 31
0.0
1001
ACAD
1000
ASC_BOUNDS
1002
{
1070
    19
1005
1AFE
1005
0
1005
0
1005
0
1005
1AFE
1002
}
  0
POINT
  5
16FF
330
18
100
AcDbEntity
  8
DEFPOINTS
  6
ByBlock
 62
     0
100
AcDbPoint
 10
2129.454693222359
 20
1364.781668734286
 30
0.0
  0
LINE
  5
1700
330
18
100
AcDbEntity
  8
SJC
100
AcDbLine
 10
2065.176852526478
 20
1334.781668734286
 30
0.0
 11
2125.676852526478
 21
1334.781668734286
 31
0.0
1001
ACAD
1000
ASC_BOUNDS
1002
{
1070
    19
1005
1AFE
1005
0
1005
0
1005
0
1005
1AFE
1002
}
  0
POINT
  5
1701
330
18
100
AcDbEntity
  8
DEFPOINTS
  6
ByBlock
 62
     0
100
AcDbPoint
 10
2129.517193222359
 20
1334.781668734286
 30
0.0
  0
LINE
  5
1702
330
18
100
AcDbEntity
  8
SJC
100
AcDbLine
 10
2065.176852526478
 20
1304.781668734287
 30
0.0
 11
2125.676852526478
 21
1304.781668734287
 31
0.0
1001
ACAD
1000
ASC_BOUNDS
1002
{
1070
    19
1005
1AFE
1005
0
1005
0
1005
0
1005
1AFE
1002
}
  0
POINT
  5
1703
330
18
100
AcDbEntity
  8
DEFPOINTS
  6
ByBlock
 62
     0
100
AcDbPoint
 10
2129.454693222359
 20
1304.781668734286
 30
0.0
  0
INSERT
  5
19CB
330
18
100
AcDbEntity
  8
HATCH
100
AcDbBlockReference
  2
*X9
 10
0.0
 20
0.0
 30
0.0
1001
ACAD
1000
HATCH
1002
{
1070
    19
1000
PLAST
1040
500.0
1040
0.7853981633974483
1000
ASC_BOUNDS
1070
     1
1070
     1
1070
     4
1005
D59
1005
16C1
1005
E9E
1005
E11
1000
ASC_SEEDPOINT
1011
1468.602197238722
1021
774.5985094151428
1031
0.0
1002
}
  0
INSERT
  5
1AFE
330
18
100
AcDbEntity
  8
HATCH
100
AcDbBlockReference
  2
*X10
 10
0.0
 20
0.0
 30
0.0
1001
ACAD
1000
HATCH
1002
{
1070
    19
1000
ANSI37
1040
40.0
1040
0.0
1000
ASC_BOUNDS
1070
     4
1070
     1
1070
     4
1005
1700
1005
16F6
1005
1702
1005
E21
1070
     1
1070
     4
1005
1700
1005
E21
1005
1702
1005
16F7
1070
     1
1070
     4
1005
16FC
1005
E21
1005
16FE
1005
16F7
1070
     1
1070
     4
1005
16FC
1005
16F6
1005
16FE
1005
E21
1000
ASC_SEEDPOINT
1011
2071.210320753319
1021
1328.748200507444
1031
0.0
1002
}
  0
INSERT
  5
1B5E
330
18
100
AcDbEntity
  8
HATCH
100
AcDbBlockReference
  2
*X11
 10
0.0
 20
0.0
 30
0.0
1001
ACAD
1000
HATCH
1002
{
1070
    19
1000
PLAST
1040
500.0
1040
0.7853981633974483
1000
ASC_BOUNDS
1070
     4
1070
     1
1070
     4
1005
DA2
1005
E12
1005
E14
1005
16F6
1070
     1
1070
     4
1005
D78
1005
16F7
1005
E14
1005
DA1
1070
     1
1070
     4
1005
E9D
1005
E8C
1005
E9E
1005
16AA
1070
     1
1070
     4
1005
D5A
1005
16A9
1005
E9E
1005
16C0
1000
ASC_SEEDPOINT
1011
1221.935688559747
1021
691.6056026698365
1031
0.0
1002
}
  0
MTEXT
  5
1B9D
330
18
100
AcDbEntity
  8
SUNPOU
  6
ByBlock
100
AcDbMText
 10
1454.925631947799
 20
1425.84647197703
 30
0.0
 40
30.0
 41
0.0
 71
     5
 72
     5
  1
\A1;30
  7
EXT08
 11
0.0
 21
1.0
 31
0.0
 73
     1
 44
1.0
  0
ENDSEC
  0
SECTION
  2
OBJECTS
  0
DICTIONARY
  5
C
330
0
100
AcDbDictionary
281
     1
  3
ACAD_COLOR
350
1BBD
  3
ACAD_GROUP
350
D
  3
ACAD_LAYOUT
350
1BC0
  3
ACAD_MATERIAL
350
1BBC
  3
ACAD_MLINESTYLE
350
E
  3
ACAD_PLOTSETTINGS
350
1BC1
  3
ACAD_PLOTSTYLENAME
350
1BBA
  3
ACAD_TABLESTYLE
350
1BBE
  3
AcDbVariableDictionary
350
1BCC
  0
DICTIONARY
  5
1BBD
102
{ACAD_REACTORS
330
C
102
}
330
C
100
AcDbDictionary
281
     1
  0
DICTIONARY
  5
D
102
{ACAD_REACTORS
330
C
102
}
330
C
100
AcDbDictionary
281
     1
  0
DICTIONARY
  5
1BC0
102
{ACAD_REACTORS
330
C
102
}
330
C
100
AcDbDictionary
281
     1
  3
Model
350
1BC2
  3
レイアウト1
350
1BC3
  0
DICTIONARY
  5
1BBC
102
{ACAD_REACTORS
330
C
102
}
330
C
100
AcDbDictionary
281
     1
  0
DICTIONARY
  5
E
102
{ACAD_REACTORS
330
C
102
}
330
C
100
AcDbDictionary
281
     1
  3
STANDARD
350
1B
  0
DICTIONARY
  5
1BC1
102
{ACAD_REACTORS
330
C
102
}
330
C
100
AcDbDictionary
281
     1
  0
ACDBDICTIONARYWDFLT
  5
1BBA
102
{ACAD_REACTORS
330
C
102
}
330
C
100
AcDbDictionary
281
     1
  3
Normal
350
1BBB
100
AcDbDictionaryWithDefault
340
1BBB
  0
DICTIONARY
  5
1BBE
102
{ACAD_REACTORS
330
C
102
}
330
C
100
AcDbDictionary
281
     1
  3
Standard
350
1BBF
  0
DICTIONARY
  5
1BCC
102
{ACAD_REACTORS
330
C
102
}
330
C
100
AcDbDictionary
281
     1
  3
CTABLESTYLE
350
1BCD
  0
LAYOUT
  5
1BC2
102
{ACAD_REACTORS
330
1BC0
102
}
330
1BC0
100
AcDbPlotSettings
  1

  2
none_device
  4
Letter_(8.50_x_11.00_Inches)
  6

 40
6.349999904632568
 41
6.349999904632568
 42
6.350006103515625
 43
6.350006103515625
 44
215.8999938964844
 45
279.3999938964844
 46
0.0
 47
0.0
 48
0.0
 49
0.0
140
0.0
141
0.0
142
1.0
143
444.575639502358
 70
 11952
 72
     0
 73
     1
 74
     0
  7
acad.stb
 75
     0
147
0.0022493360210185
 76
     0
 77
     2
 78
   300
148
5945.786518791322
149
282.4021406416045
100
AcDbLayout
  1
Model
 70
     1
 71
     0
 10
0.0
 20
0.0
 11
12.0
 21
9.0
 12
0.0
 22
0.0
 32
0.0
 14
0.0
 24
0.0
 34
0.0
 15
0.0
 25
0.0
 35
0.0
146
0.0
 13
0.0
 23
0.0
 33
0.0
 16
1.0
 26
0.0
 36
0.0
 17
0.0
 27
1.0
 37
0.0
 76
     0
330
18
1001
ACAD_PSEXT
1000
なし
1000
なし
1000
適切ではありません
1000
新しいプロッタ環境設定名を選択しない限り、レイアウトは印刷されません。
1070
     0
  0
LAYOUT
  5
1BC3
102
{ACAD_REACTORS
330
1BC0
102
}
330
1BC0
100
AcDbPlotSettings
  1

  2
RICOH imagio MF5550 RPS
  4

  6

 40
0.0
 41
0.0
 42
0.0
 43
0.0
 44
0.0
 45
0.0
 46
0.0
 47
0.0
 48
0.0
 49
0.0
140
0.0
141
0.0
142
1.0
143
1.0
 70
   688
 72
     0
 73
     0
 74
     5
  7
acad.stb
 75
    16
147
1.0
 76
     0
 77
     2
 78
   300
148
0.0
149
0.0
100
AcDbLayout
  1
レイアウト1
 70
     1
 71
     1
 10
0.0
 20
0.0
 11
12.0
 21
9.0
 12
0.0
 22
0.0
 32
0.0
 14
1.000000000000000E+20
 24
1.000000000000000E+20
 34
1.000000000000000E+20
 15
-1.000000000000000E+20
 25
-1.000000000000000E+20
 35
-1.000000000000000E+20
146
0.0
 13
0.0
 23
0.0
 33
0.0
 16
1.0
 26
0.0
 36
0.0
 17
0.0
 27
1.0
 37
0.0
 76
     0
330
15
  0
MLINESTYLE
  5
1B
102
{ACAD_REACTORS
330
E
102
}
330
E
100
AcDbMlineStyle
  2
STANDARD
 70
     0
  3

 62
     0
 51
90.0
 52
90.0
 71
     2
 49
0.5
 62
   256
  6
BYLAYER
 49
-0.5
 62
   256
  6
BYLAYER
  0
ACDBPLACEHOLDER
  5
1BBB
102
{ACAD_REACTORS
330
1BBA
102
}
330
1BBA
  0
TABLESTYLE
  5
1BBF
102
{ACAD_REACTORS
330
1BBE
102
}
330
1BBE
100
AcDbTableStyle
  3
Standard
 70
     0
 71
     0
 40
0.06
 41
0.06
280
     0
281
     0
  7
STANDARD
140
0.18
170
     2
 62
     0
 63
     7
283
     0
274
    -2
284
     1
 64
     0
275
    -2
285
     1
 65
     0
276
    -2
286
     1
 66
     0
277
    -2
287
     1
 67
     0
278
    -2
288
     1
 68
     0
279
    -2
289
     1
 69
     0
  7
STANDARD
140
0.25
170
     5
 62
     0
 63
     7
283
     0
274
    -2
284
     1
 64
     0
275
    -2
285
     1
 65
     0
276
    -2
286
     1
 66
     0
277
    -2
287
     1
 67
     0
278
    -2
288
     1
 68
     0
279
    -2
289
     1
 69
     0
  7
STANDARD
140
0.18
170
     5
 62
     0
 63
     7
283
     0
274
    -2
284
     1
 64
     0
275
    -2
285
     1
 65
     0
276
    -2
286
     1
 66
     0
277
    -2
287
     1
 67
     0
278
    -2
288
     1
 68
     0
279
    -2
289
     1
 69
     0
  0
DICTIONARYVAR
  5
1BCD
102
{ACAD_REACTORS
330
1BCC
102
}
330
1BCC
100
DictionaryVariables
280
     0
  1
STANDARD
  0
ENDSEC
  0
EOF
