  0
SECTION
  2
HEADER
  9
$ACADVER
  1
AC1018
  9
$ACADMAINTVER
 70
    39
  9
$DWGCODEPAGE
  3
ANSI_932
  9
$INSBASE
 10
0.0
 20
0.0
 30
0.0
  9
$EXTMIN
 10
-0.1281640493871237
 20
-0.0906302920675444
 30
-0.0015258207003583
  9
$EXTMAX
 10
3700.250253337727
 20
2670.081488499512
 30
0.0000000349246037
  9
$LIMMIN
 10
0.0
 20
0.0
  9
$LIMMAX
 10
4200.0
 20
2970.0
  9
$ORTHOMODE
 70
     1
  9
$REGENMODE
 70
     1
  9
$FILLMODE
 70
     1
  9
$QTEXTMODE
 70
     0
  9
$MIRRTEXT
 70
     0
  9
$LTSCALE
 40
100.0
  9
$ATTMODE
 70
     1
  9
$TEXTSIZE
 40
30.0
  9
$TRACEWID
 40
0.05
  9
$TEXTSTYLE
  7
EXT08
  9
$CLAYER
  8
SJC
  9
$CELTYPE
  6
BYLAYER
  9
$CECOLOR
 62
   256
  9
$CELTSCALE
 40
1.0
  9
$DISPSILH
 70
     0
  9
$DIMSCALE
 40
10.0
  9
$DIMASZ
 40
2.0
  9
$DIMEXO
 40
1.0
  9
$DIMDLI
 40
6.0
  9
$DIMRND
 40
0.0
  9
$DIMDLE
 40
0.0
  9
$DIMEXE
 40
1.0
  9
$DIMTP
 40
0.0
  9
$DIMTM
 40
0.0
  9
$DIMTXT
 40
3.0
  9
$DIMCEN
 40
0.09
  9
$DIMTSZ
 40
0.0
  9
$DIMTOL
 70
     0
  9
$DIMLIM
 70
     0
  9
$DIMTIH
 70
     0
  9
$DIMTOH
 70
     0
  9
$DIMSE1
 70
     0
  9
$DIMSE2
 70
     0
  9
$DIMTAD
 70
     1
  9
$DIMZIN
 70
     8
  9
$DIMBLK
  1

  9
$DIMASO
 70
     1
  9
$DIMSHO
 70
     1
  9
$DIMPOST
  1

  9
$DIMAPOST
  1

  9
$DIMALT
 70
     0
  9
$DIMALTD
 70
     2
  9
$DIMALTF
 40
25.4
  9
$DIMLFAC
 40
1.0
  9
$DIMTOFL
 70
     1
  9
$DIMTVP
 40
0.0
  9
$DIMTIX
 70
     0
  9
$DIMSOXD
 70
     0
  9
$DIMSAH
 70
     0
  9
$DIMBLK1
  1

  9
$DIMBLK2
  1

  9
$DIMSTYLE
  2
SJC
  9
$DIMCLRD
 70
     0
  9
$DIMCLRE
 70
     0
  9
$DIMCLRT
 70
     0
  9
$DIMTFAC
 40
1.0
  9
$DIMGAP
 40
1.199999999999999
  9
$DIMJUST
 70
     0
  9
$DIMSD1
 70
     0
  9
$DIMSD2
 70
     0
  9
$DIMTOLJ
 70
     1
  9
$DIMTZIN
 70
     0
  9
$DIMALTZ
 70
     0
  9
$DIMALTTZ
 70
     0
  9
$DIMUPT
 70
     0
  9
$DIMDEC
 70
     2
  9
$DIMTDEC
 70
     4
  9
$DIMALTU
 70
     2
  9
$DIMALTTD
 70
     2
  9
$DIMTXSTY
  7
EXT08
  9
$DIMAUNIT
 70
     0
  9
$DIMADEC
 70
     0
  9
$DIMALTRND
 40
0.0
  9
$DIMAZIN
 70
     0
  9
$DIMDSEP
 70
    46
  9
$DIMATFIT
 70
     3
  9
$DIMFRAC
 70
     0
  9
$DIMLDRBLK
  1

  9
$DIMLUNIT
 70
     2
  9
$DIMLWD
 70
    -2
  9
$DIMLWE
 70
    -2
  9
$DIMTMOVE
 70
     2
  9
$LUNITS
 70
     2
  9
$LUPREC
 70
     2
  9
$SKETCHINC
 40
0.1
  9
$FILLETRAD
 40
0.0
  9
$AUNITS
 70
     1
  9
$AUPREC
 70
     2
  9
$MENU
  1
C:\r13\win\SUPPORT\sjc
  9
$ELEVATION
 40
0.0
  9
$PELEVATION
 40
0.0
  9
$THICKNESS
 40
0.0
  9
$LIMCHECK
 70
     0
  9
$CHAMFERA
 40
0.0
  9
$CHAMFERB
 40
0.0
  9
$CHAMFERC
 40
0.0
  9
$CHAMFERD
 40
0.0
  9
$SKPOLY
 70
     0
  9
$TDCREATE
 40
2449345.000964931
  9
$TDUCREATE
 40
2449344.625964931
  9
$TDUPDATE
 40
2453858.698727569
  9
$TDUUPDATE
 40
2453858.323727569
  9
$TDINDWG
 40
0.2510698495
  9
$TDUSRTIMER
 40
0.2510698495
  9
$USRTIMER
 70
     1
  9
$ANGBASE
 50
0.0
  9
$ANGDIR
 70
     0
  9
$PDMODE
 70
     0
  9
$PDSIZE
 40
5.0
  9
$PLINEWID
 40
0.0
  9
$SPLFRAME
 70
     0
  9
$SPLINETYPE
 70
     6
  9
$SPLINESEGS
 70
     8
  9
$HANDSEED
  5
8A4
  9
$SURFTAB1
 70
     6
  9
$SURFTAB2
 70
     6
  9
$SURFTYPE
 70
     6
  9
$SURFU
 70
     6
  9
$SURFV
 70
     6
  9
$UCSBASE
  2

  9
$UCSNAME
  2

  9
$UCSORG
 10
0.0
 20
0.0
 30
0.0
  9
$UCSXDIR
 10
1.0
 20
0.0
 30
0.0
  9
$UCSYDIR
 10
0.0
 20
1.0
 30
0.0
  9
$UCSORTHOREF
  2

  9
$UCSORTHOVIEW
 70
     0
  9
$UCSORGTOP
 10
0.0
 20
0.0
 30
0.0
  9
$UCSORGBOTTOM
 10
0.0
 20
0.0
 30
0.0
  9
$UCSORGLEFT
 10
0.0
 20
0.0
 30
0.0
  9
$UCSORGRIGHT
 10
0.0
 20
0.0
 30
0.0
  9
$UCSORGFRONT
 10
0.0
 20
0.0
 30
0.0
  9
$UCSORGBACK
 10
0.0
 20
0.0
 30
0.0
  9
$PUCSBASE
  2

  9
$PUCSNAME
  2

  9
$PUCSORG
 10
0.0
 20
0.0
 30
0.0
  9
$PUCSXDIR
 10
1.0
 20
0.0
 30
0.0
  9
$PUCSYDIR
 10
0.0
 20
1.0
 30
0.0
  9
$PUCSORTHOREF
  2

  9
$PUCSORTHOVIEW
 70
     0
  9
$PUCSORGTOP
 10
0.0
 20
0.0
 30
0.0
  9
$PUCSORGBOTTOM
 10
0.0
 20
0.0
 30
0.0
  9
$PUCSORGLEFT
 10
0.0
 20
0.0
 30
0.0
  9
$PUCSORGRIGHT
 10
0.0
 20
0.0
 30
0.0
  9
$PUCSORGFRONT
 10
0.0
 20
0.0
 30
0.0
  9
$PUCSORGBACK
 10
0.0
 20
0.0
 30
0.0
  9
$USERI1
 70
     3
  9
$USERI2
 70
    10
  9
$USERI3
 70
     0
  9
$USERI4
 70
     0
  9
$USERI5
 70
     0
  9
$USERR1
 40
0.1
  9
$USERR2
 40
0.0
  9
$USERR3
 40
0.0
  9
$USERR4
 40
0.0
  9
$USERR5
 40
0.0
  9
$WORLDVIEW
 70
     1
  9
$SHADEDGE
 70
     3
  9
$SHADEDIF
 70
    70
  9
$TILEMODE
 70
     1
  9
$MAXACTVP
 70
    16
  9
$PINSBASE
 10
0.0
 20
0.0
 30
0.0
  9
$PLIMCHECK
 70
     0
  9
$PEXTMIN
 10
1.000000000000000E+20
 20
1.000000000000000E+20
 30
1.000000000000000E+20
  9
$PEXTMAX
 10
-1.000000000000000E+20
 20
-1.000000000000000E+20
 30
-1.000000000000000E+20
  9
$PLIMMIN
 10
0.0
 20
0.0
  9
$PLIMMAX
 10
12.0
 20
9.0
  9
$UNITMODE
 70
     0
  9
$VISRETAIN
 70
     0
  9
$PLINEGEN
 70
     0
  9
$PSLTSCALE
 70
     1
  9
$TREEDEPTH
 70
  3020
  9
$CMLSTYLE
  2
STANDARD
  9
$CMLJUST
 70
     0
  9
$CMLSCALE
 40
1.0
  9
$PROXYGRAPHICS
 70
     1
  9
$MEASUREMENT
 70
     0
  9
$CELWEIGHT
370
    -1
  9
$ENDCAPS
280
     0
  9
$JOINSTYLE
280
     0
  9
$LWDISPLAY
290
     0
  9
$INSUNITS
 70
     0
  9
$HYPERLINKBASE
  1

  9
$STYLESHEET
  1
CALCOMP_TECHJET720.CTB
  9
$XEDIT
290
     1
  9
$CEPSNTYPE
380
     0
  9
$PSTYLEMODE
290
     1
  9
$FINGERPRINTGUID
  2
{8CF343E0-595F-409B-A0EB-8E7378F5EBD0}
  9
$VERSIONGUID
  2
{92774F4E-A863-410F-AB1A-0CBA0F58D1E8}
  9
$EXTNAMES
290
     1
  9
$PSVPSCALE
 40
0.0
  9
$OLESTARTUP
290
     0
  9
$SORTENTS
280
   127
  9
$INDEXCTL
280
     0
  9
$HIDETEXT
280
     0
  9
$XCLIPFRAME
290
     0
  9
$HALOGAP
280
     0
  9
$OBSCOLOR
 70
   257
  9
$OBSLTYPE
280
     0
  9
$INTERSECTIONDISPLAY
280
     0
  9
$INTERSECTIONCOLOR
 70
   257
  9
$DIMASSOC
280
     1
  9
$PROJECTNAME
  1

  0
ENDSEC
  0
SECTION
  2
CLASSES
  0
CLASS
  1
ACDBDICTIONARYWDFLT
  2
AcDbDictionaryWithDefault
  3
ObjectDBX Classes
 90
        0
 91
        1
280
     0
281
     0
  0
CLASS
  1
TABLESTYLE
  2
AcDbTableStyle
  3
ObjectDBX Classes
 90
     2047
 91
        1
280
     0
281
     0
  0
CLASS
  1
DICTIONARYVAR
  2
AcDbDictionaryVar
  3
ObjectDBX Classes
 90
        0
 91
        1
280
     0
281
     0
  0
ENDSEC
  0
SECTION
  2
TABLES
  0
TABLE
  2
VPORT
  5
8
330
0
100
AcDbSymbolTable
 70
     2
  0
VPORT
  5
8A3
330
8
100
AcDbSymbolTableRecord
100
AcDbViewportTableRecord
  2
*Active
 70
     0
 10
0.0
 20
0.0
 11
1.0
 21
1.0
 12
2099.935917975306
 22
1484.954684853966
 13
0.0
 23
0.0
 14
10.0
 24
10.0
 15
0.0
 25
0.0
 16
0.0
 26
0.0
 36
1.0
 17
0.0
 27
0.0
 37
0.0
 40
2992.14575873483
 41
1.560099132589838
 42
50.0
 43
0.0
 44
0.0
 50
0.0
 51
0.0
 71
     0
 72
 10000
 73
     1
 74
     1
 75
     0
 76
     0
 77
     0
 78
     0
281
     0
 65
     1
110
0.0
120
0.0
130
0.0
111
1.0
121
0.0
131
0.0
112
0.0
122
1.0
132
0.0
 79
     0
146
0.0
  0
ENDTAB
  0
TABLE
  2
LTYPE
  5
5
330
0
100
AcDbSymbolTable
 70
     5
  0
LTYPE
  5
12
330
5
100
AcDbSymbolTableRecord
100
AcDbLinetypeTableRecord
  2
BYBLOCK
 70
     0
  3

 72
    65
 73
     0
 40
0.0
  0
LTYPE
  5
13
330
5
100
AcDbSymbolTableRecord
100
AcDbLinetypeTableRecord
  2
BYLAYER
 70
     0
  3

 72
    65
 73
     0
 40
0.0
  0
LTYPE
  5
14
330
5
100
AcDbSymbolTableRecord
100
AcDbLinetypeTableRecord
  2
CONTINUOUS
 70
     0
  3
Solid line
 72
    65
 73
     0
 40
0.0
  0
LTYPE
  5
33
330
5
100
AcDbSymbolTableRecord
100
AcDbLinetypeTableRecord
  2
CENTER
 70
     0
  3
____ _ ____ _ ____ _ ____ _ ____ _ ____ _ ____ 
 72
    65
 73
     4
 40
2.0
 49
1.25
 74
     0
 49
-0.25
 74
     0
 49
0.25
 74
     0
 49
-0.25
 74
     0
  0
LTYPE
  5
34
330
5
100
AcDbSymbolTableRecord
100
AcDbLinetypeTableRecord
  2
HIDDEN
 70
     0
  3
__ __ __ __ __ __ __ __ __ __ __ __ __ __ __ __
 72
    65
 73
     2
 40
0.375
 49
0.25
 74
     0
 49
-0.125
 74
     0
  0
LTYPE
  5
35
330
5
100
AcDbSymbolTableRecord
100
AcDbLinetypeTableRecord
  2
HIDDEN2
 70
     0
  3
_ _ _ _ _ _ _ _ _ _ _ _ _ _ _ _ _ _ _ _ _ _ _ _
 72
    65
 73
     2
 40
0.1875
 49
0.125
 74
     0
 49
-0.0625
 74
     0
  0
LTYPE
  5
36
330
5
100
AcDbSymbolTableRecord
100
AcDbLinetypeTableRecord
  2
PHANTOM
 70
     0
  3
______  __  __  ______  __  __  ______  __  __ 
 72
    65
 73
     6
 40
2.5
 49
1.25
 74
     0
 49
-0.25
 74
     0
 49
0.25
 74
     0
 49
-0.25
 74
     0
 49
0.25
 74
     0
 49
-0.25
 74
     0
  0
ENDTAB
  0
TABLE
  2
LAYER
  5
2
330
0
100
AcDbSymbolTable
 70
    15
  0
LAYER
  5
F
330
2
100
AcDbSymbolTableRecord
100
AcDbLayerTableRecord
  2
0
 70
     0
 62
     7
  6
CONTINUOUS
370
    -3
390
890
  0
LAYER
  5
3C
330
2
100
AcDbSymbolTableRecord
100
AcDbLayerTableRecord
  2
CENTER
 70
     0
 62
     3
  6
CENTER
370
    -3
390
890
  0
LAYER
  5
3D
330
2
100
AcDbSymbolTableRecord
100
AcDbLayerTableRecord
  2
HASEN
 70
     0
 62
     7
  6
HIDDEN
370
    -3
390
890
  0
LAYER
  5
3E
330
2
100
AcDbSymbolTableRecord
100
AcDbLayerTableRecord
  2
HOJO
 70
     0
 62
     8
  6
CONTINUOUS
370
    -3
390
890
  0
LAYER
  5
3F
330
2
100
AcDbSymbolTableRecord
100
AcDbLayerTableRecord
  2
KASOU
 70
     0
 62
     2
  6
PHANTOM
370
    -3
390
890
  0
LAYER
  5
40
330
2
100
AcDbSymbolTableRecord
100
AcDbLayerTableRecord
  2
MOJI
 70
     0
 62
     6
  6
CONTINUOUS
370
    -3
390
890
  0
LAYER
  5
41
330
2
100
AcDbSymbolTableRecord
100
AcDbLayerTableRecord
  2
SJC
 70
     0
 62
     1
  6
CONTINUOUS
370
    -3
390
890
  0
LAYER
  5
42
330
2
100
AcDbSymbolTableRecord
100
AcDbLayerTableRecord
  2
SUNPOU
 70
     0
 62
     4
  6
CONTINUOUS
370
    -3
390
890
  0
LAYER
  5
43
330
2
100
AcDbSymbolTableRecord
100
AcDbLayerTableRecord
  2
WAKU
 70
     0
 62
     5
  6
CONTINUOUS
370
    -3
390
890
  0
LAYER
  5
44
330
2
100
AcDbSymbolTableRecord
100
AcDbLayerTableRecord
  2
DEFPOINTS
 70
     0
 62
     7
  6
CONTINUOUS
290
     0
370
    -3
390
890
  0
LAYER
  5
45
330
2
100
AcDbSymbolTableRecord
100
AcDbLayerTableRecord
  2
ZWAKU
 70
     0
 62
    -7
  6
CONTINUOUS
370
    -3
390
890
  0
LAYER
  5
369
330
2
100
AcDbSymbolTableRecord
100
AcDbLayerTableRecord
  2
INFORMATION
 70
     1
 62
     7
  6
CONTINUOUS
370
    -3
390
890
  0
LAYER
  5
36C
330
2
100
AcDbSymbolTableRecord
100
AcDbLayerTableRecord
  2
SJC2
 70
     0
 62
     7
  6
CONTINUOUS
370
    -3
390
890
  0
LAYER
  5
36D
330
2
100
AcDbSymbolTableRecord
100
AcDbLayerTableRecord
  2
MOJI2
 70
     0
 62
     1
  6
CONTINUOUS
370
    -3
390
890
  0
LAYER
  5
36E
330
2
100
AcDbSymbolTableRecord
100
AcDbLayerTableRecord
  2
HATCH
 70
     0
 62
     2
  6
CONTINUOUS
370
    -3
390
890
  0
ENDTAB
  0
TABLE
  2
STYLE
  5
3
330
0
100
AcDbSymbolTable
 70
    10
  0
STYLE
  5
10
330
3
100
AcDbSymbolTableRecord
100
AcDbTextStyleTableRecord
  2
STANDARD
 70
     0
 40
0.0
 41
1.0
 50
0.0
 71
     0
 42
3.0
  3
ROMANS.SHX
  4
BIGFONT
  0
STYLE
  5
2F
330
3
100
AcDbSymbolTableRecord
100
AcDbTextStyleTableRecord
  2
USER
 70
     0
 40
0.0
 41
1.0
 50
0.0
 71
     0
 42
30.0
  3
TXT
  4
BIGFONT
  0
STYLE
  5
30
330
3
100
AcDbSymbolTableRecord
100
AcDbTextStyleTableRecord
  2
TEXT3030
 70
     0
 40
30.0
 41
1.0
 50
0.0
 71
     0
 42
30.0
  3
TXT
  4
BIGFONT
  0
STYLE
  5
31
330
3
100
AcDbSymbolTableRecord
100
AcDbTextStyleTableRecord
  2
SIMPLEX
 70
     0
 40
0.0
 41
1.0
 50
0.0
 71
     0
 42
0.0
  3
SCRIPTS.SHX
  4

  0
STYLE
  5
32
330
3
100
AcDbSymbolTableRecord
100
AcDbTextStyleTableRecord
  2
KANJI
 70
     0
 40
0.0
 41
1.0
 50
0.0
 71
     0
 42
0.0
  3
ROMANS.SHX
  4
BIGFONT.SHX
  0
STYLE
  5
37F
330
3
100
AcDbSymbolTableRecord
100
AcDbTextStyleTableRecord
  2
TATEEXT
 70
     4
 40
0.0
 41
1.0
 50
0.0
 71
     0
 42
0.0
  3
ROMANS
  4
EXTFONT
  0
STYLE
  5
380
330
3
100
AcDbSymbolTableRecord
100
AcDbTextStyleTableRecord
  2
TATEBIG
 70
     4
 40
0.0
 41
1.0
 50
0.0
 71
     0
 42
0.0
  3
ROMANS
  4
BIGFONT
  0
STYLE
  5
381
330
3
100
AcDbSymbolTableRecord
100
AcDbTextStyleTableRecord
  2
EXT08
 70
     0
 40
0.0
 41
0.8
 50
0.0
 71
     0
 42
30.0
  3
ROMANS
  4
EXTFONT
  0
STYLE
  5
382
330
3
100
AcDbSymbolTableRecord
100
AcDbTextStyleTableRecord
  2
EXT
 70
     0
 40
0.0
 41
1.0
 50
0.0
 71
     0
 42
0.0
  3
ROMANS
  4
EXTFONT
  0
STYLE
  5
383
330
3
100
AcDbSymbolTableRecord
100
AcDbTextStyleTableRecord
  2
KANJI08
 70
     0
 40
0.0
 41
0.8
 50
0.0
 71
     0
 42
0.0
  3
ROMANS
  4
BIGFONT
  0
ENDTAB
  0
TABLE
  2
VIEW
  5
6
330
0
100
AcDbSymbolTable
 70
     0
  0
ENDTAB
  0
TABLE
  2
UCS
  5
7
330
0
100
AcDbSymbolTable
 70
     0
  0
ENDTAB
  0
TABLE
  2
APPID
  5
9
330
0
100
AcDbSymbolTable
 70
     2
  0
APPID
  5
11
330
9
100
AcDbSymbolTableRecord
100
AcDbRegAppTableRecord
  2
ACAD
 70
     0
  0
APPID
  5
8A0
330
9
100
AcDbSymbolTableRecord
100
AcDbRegAppTableRecord
  2
ACAD_PSEXT
 70
     0
  0
ENDTAB
  0
TABLE
  2
DIMSTYLE
  5
A
330
0
100
AcDbSymbolTable
 70
     5
100
AcDbDimStyleTable
 71
     0
  0
DIMSTYLE
105
39
330
A
100
AcDbSymbolTableRecord
100
AcDbDimStyleTableRecord
  2
S01-10AX
 70
     0
 41
20.0
 44
10.0
 73
     0
 74
     0
 77
     1
 78
     8
140
30.0
146
0.006
172
     1
174
     1
271
     1
272
     1
275
     1
279
     2
284
     8
285
     8
286
     8
340
32
  0
DIMSTYLE
105
384
102
{ACAD_REACTORS
330
300
330
301
330
302
330
350
330
351
330
55C
102
}
330
A
100
AcDbSymbolTableRecord
100
AcDbDimStyleTableRecord
  2
SJC
 70
     0
340
10
  0
DIMSTYLE
105
63D
330
A
100
AcDbSymbolTableRecord
100
AcDbDimStyleTableRecord
  2
STANDARD
 70
     0
 40
10.0
 41
2.0
 42
1.0
 43
6.0
 44
1.0
 73
     0
 74
     0
 77
     1
 78
     8
140
3.0
147
1.199999999999999
172
     1
176
   256
177
   256
178
   256
271
     2
275
     1
279
     2
340
381
  0
DIMSTYLE
105
646
330
A
100
AcDbSymbolTableRecord
100
AcDbDimStyleTableRecord
  2
RUISEKI1
 70
     0
 40
10.0
 41
2.0
 42
1.0
 43
6.0
 44
30.0
 73
     0
 74
     0
 77
     1
 78
     8
140
3.0
147
1.5
172
     1
173
     1
176
   256
177
   256
178
   256
271
     2
275
     1
279
     2
340
381
  0
DIMSTYLE
105
64B
330
A
100
AcDbSymbolTableRecord
100
AcDbDimStyleTableRecord
  2
RUISEKI2
 70
     0
 40
10.0
 41
2.0
 42
1.0
 43
6.0
 44
30.0
 73
     0
 74
     0
 77
     1
 78
     8
140
3.0
147
1.5
172
     1
173
     1
176
   256
177
   256
178
   256
271
     2
275
     1
279
     2
340
381
  0
ENDTAB
  0
TABLE
  2
BLOCK_RECORD
  5
1
330
0
100
AcDbSymbolTable
 70
    13
  0
BLOCK_RECORD
  5
18
330
1
100
AcDbSymbolTableRecord
100
AcDbBlockTableRecord
  2
*MODEL_SPACE
340
897
  0
BLOCK_RECORD
  5
15
330
1
100
AcDbSymbolTableRecord
100
AcDbBlockTableRecord
  2
*PAPER_SPACE
340
898
  0
BLOCK_RECORD
  5
1E
330
1
100
AcDbSymbolTableRecord
100
AcDbBlockTableRecord
  2
*X0
340
0
102
{BLKREFS
331
31F
102
}
  0
BLOCK_RECORD
  5
35F
330
1
100
AcDbSymbolTableRecord
100
AcDbBlockTableRecord
  2
CALCOMP_TECHJET720A3
340
0
102
{BLKREFS
331
63A
102
}
  0
BLOCK_RECORD
  5
386
330
1
100
AcDbSymbolTableRecord
100
AcDbBlockTableRecord
  2
B0040021
340
0
102
{BLKREFS
331
395
331
396
102
}
  0
BLOCK_RECORD
  5
3CC
330
1
100
AcDbSymbolTableRecord
100
AcDbBlockTableRecord
  2
*X3
340
0
102
{BLKREFS
331
3CE
102
}
  0
BLOCK_RECORD
  5
424
330
1
100
AcDbSymbolTableRecord
100
AcDbBlockTableRecord
  2
*D4
340
0
  0
BLOCK_RECORD
  5
430
330
1
100
AcDbSymbolTableRecord
100
AcDbBlockTableRecord
  2
*D5
340
0
  0
BLOCK_RECORD
  5
438
330
1
100
AcDbSymbolTableRecord
100
AcDbBlockTableRecord
  2
*D6
340
0
  0
BLOCK_RECORD
  5
444
330
1
100
AcDbSymbolTableRecord
100
AcDbBlockTableRecord
  2
*D7
340
0
  0
BLOCK_RECORD
  5
45E
330
1
100
AcDbSymbolTableRecord
100
AcDbBlockTableRecord
  2
*D8
340
0
  0
BLOCK_RECORD
  5
550
330
1
100
AcDbSymbolTableRecord
100
AcDbBlockTableRecord
  2
*D9
340
0
  0
BLOCK_RECORD
  5
771
330
1
100
AcDbSymbolTableRecord
100
AcDbBlockTableRecord
  2
*X10
340
0
102
{BLKREFS
331
773
102
}
  0
BLOCK_RECORD
  5
7A7
330
1
100
AcDbSymbolTableRecord
100
AcDbBlockTableRecord
  2
*X11
340
0
102
{BLKREFS
331
7A9
102
}
  0
BLOCK_RECORD
  5
7F1
330
1
100
AcDbSymbolTableRecord
100
AcDbBlockTableRecord
  2
*X12
340
0
102
{BLKREFS
331
7F3
102
}
  0
ENDTAB
  0
ENDSEC
  0
SECTION
  2
BLOCKS
  0
BLOCK
  5
48
330
18
100
AcDbEntity
  8
0
100
AcDbBlockBegin
  2
*MODEL_SPACE
 70
     0
 10
0.0
 20
0.0
 30
0.0
  3
*MODEL_SPACE
  1

  0
ENDBLK
  5
49
330
18
100
AcDbEntity
  8
0
100
AcDbBlockEnd
  0
BLOCK
  5
46
330
15
100
AcDbEntity
 67
     1
  8
0
100
AcDbBlockBegin
  2
*PAPER_SPACE
 70
     0
 10
0.0
 20
0.0
 30
0.0
  3
*PAPER_SPACE
  1

  0
ENDBLK
  5
47
330
15
100
AcDbEntity
 67
     1
  8
0
100
AcDbBlockEnd
  0
BLOCK
  5
5C
330
1E
100
AcDbEntity
  8
0
100
AcDbBlockBegin
  2
*X0
 70
     1
 10
0.0
 20
0.0
 30
0.0
  3
*X0
  1

  0
LINE
  5
5D
330
1E
100
AcDbEntity
  8
0
 62
     0
100
AcDbLine
 10
1098.162338159264
 20
1479.999999999999
 30
0.0
 11
1103.15
 21
1484.987661840736
 31
0.0
  0
LINE
  5
5E
330
1E
100
AcDbEntity
  8
0
 62
     0
100
AcDbLine
 10
1091.091270347398
 20
1479.999999999999
 30
0.0
 11
1103.15
 21
1492.058729652601
 31
0.0
  0
LINE
  5
5F
330
1E
100
AcDbEntity
  8
0
 62
     0
100
AcDbLine
 10
1084.020202535533
 20
1479.999999999999
 30
0.0
 11
1103.15
 21
1499.129797464467
 31
0.0
  0
LINE
  5
60
330
1E
100
AcDbEntity
  8
0
 62
     0
100
AcDbLine
 10
1076.949134723668
 20
1479.999999999999
 30
0.0
 11
1103.15
 21
1506.200865276332
 31
0.0
  0
LINE
  5
61
330
1E
100
AcDbEntity
  8
0
 62
     0
100
AcDbLine
 10
1069.878066911802
 20
1479.999999999999
 30
0.0
 11
1099.878066911802
 21
1510.0
 31
0.0
  0
LINE
  5
62
330
1E
100
AcDbEntity
  8
0
 62
     0
100
AcDbLine
 10
1062.806999099937
 20
1479.999999999999
 30
0.0
 11
1092.806999099937
 21
1510.0
 31
0.0
  0
LINE
  5
63
330
1E
100
AcDbEntity
  8
0
 62
     0
100
AcDbLine
 10
1055.735931288071
 20
1479.999999999999
 30
0.0
 11
1085.735931288072
 21
1510.0
 31
0.0
  0
LINE
  5
64
330
1E
100
AcDbEntity
  8
0
 62
     0
100
AcDbLine
 10
1048.664863476206
 20
1479.999999999999
 30
0.0
 11
1078.664863476206
 21
1510.0
 31
0.0
  0
LINE
  5
65
330
1E
100
AcDbEntity
  8
0
 62
     0
100
AcDbLine
 10
1041.59379566434
 20
1479.999999999999
 30
0.0
 11
1071.59379566434
 21
1510.0
 31
0.0
  0
LINE
  5
66
330
1E
100
AcDbEntity
  8
0
 62
     0
100
AcDbLine
 10
1101.59379566434
 20
1540.0
 30
0.0
 11
1103.15
 21
1541.55620433566
 31
0.0
  0
LINE
  5
67
330
1E
100
AcDbEntity
  8
0
 62
     0
100
AcDbLine
 10
1034.522727852475
 20
1479.999999999999
 30
0.0
 11
1064.522727852475
 21
1510.0
 31
0.0
  0
LINE
  5
68
330
1E
100
AcDbEntity
  8
0
 62
     0
100
AcDbLine
 10
1094.522727852475
 20
1540.0
 30
0.0
 11
1103.15
 21
1548.627272147525
 31
0.0
  0
LINE
  5
69
330
1E
100
AcDbEntity
  8
0
 62
     0
100
AcDbLine
 10
1027.451660040609
 20
1479.999999999999
 30
0.0
 11
1057.451660040609
 21
1510.0
 31
0.0
  0
LINE
  5
6A
330
1E
100
AcDbEntity
  8
0
 62
     0
100
AcDbLine
 10
1087.451660040609
 20
1540.0
 30
0.0
 11
1103.15
 21
1555.69833995939
 31
0.0
  0
LINE
  5
6B
330
1E
100
AcDbEntity
  8
0
 62
     0
100
AcDbLine
 10
1026.85
 20
1486.469407771255
 30
0.0
 11
1050.380592228744
 21
1510.0
 31
0.0
  0
LINE
  5
6C
330
1E
100
AcDbEntity
  8
0
 62
     0
100
AcDbLine
 10
1080.380592228744
 20
1540.0
 30
0.0
 11
1103.16453790645
 21
1562.783945677706
 31
0.0
  0
LINE
  5
6D
330
1E
100
AcDbEntity
  8
0
 62
     0
100
AcDbLine
 10
1026.85
 20
1493.540475583121
 30
0.0
 11
1043.309524416879
 21
1510.0
 31
0.0
  0
LINE
  5
6E
330
1E
100
AcDbEntity
  8
0
 62
     0
100
AcDbLine
 10
1073.309524416878
 20
1540.0
 30
0.0
 11
1103.276347405527
 21
1569.966822988649
 31
0.0
  0
LINE
  5
6F
330
1E
100
AcDbEntity
  8
0
 62
     0
100
AcDbLine
 10
1026.85
 20
1500.611543394986
 30
0.0
 11
1036.238456605013
 21
1510.0
 31
0.0
  0
LINE
  5
70
330
1E
100
AcDbEntity
  8
0
 62
     0
100
AcDbLine
 10
1066.238456605013
 20
1540.0
 30
0.0
 11
1096.238456605013
 21
1570.0
 31
0.0
  0
LINE
  5
71
330
1E
100
AcDbEntity
  8
0
 62
     0
100
AcDbLine
 10
1026.85
 20
1507.682611206852
 30
0.0
 11
1029.167388793148
 21
1510.0
 31
0.0
  0
LINE
  5
72
330
1E
100
AcDbEntity
  8
0
 62
     0
100
AcDbLine
 10
1059.167388793147
 20
1540.0
 30
0.0
 11
1089.167388793148
 21
1570.0
 31
0.0
  0
LINE
  5
73
330
1E
100
AcDbEntity
  8
0
 62
     0
100
AcDbLine
 10
1052.096320981282
 20
1540.0
 30
0.0
 11
1082.096320981282
 21
1570.0
 31
0.0
  0
LINE
  5
74
330
1E
100
AcDbEntity
  8
0
 62
     0
100
AcDbLine
 10
1045.025253169417
 20
1540.0
 30
0.0
 11
1075.025253169417
 21
1570.0
 31
0.0
  0
LINE
  5
75
330
1E
100
AcDbEntity
  8
0
 62
     0
100
AcDbLine
 10
1037.954185357551
 20
1540.0
 30
0.0
 11
1067.954185357551
 21
1570.0
 31
0.0
  0
LINE
  5
76
330
1E
100
AcDbEntity
  8
0
 62
     0
100
AcDbLine
 10
1030.883117545686
 20
1540.0
 30
0.0
 11
1060.883117545686
 21
1570.0
 31
0.0
  0
LINE
  5
77
330
1E
100
AcDbEntity
  8
0
 62
     0
100
AcDbLine
 10
1026.85
 20
1543.037950266179
 30
0.0
 11
1053.81204973382
 21
1570.0
 31
0.0
  0
LINE
  5
78
330
1E
100
AcDbEntity
  8
0
 62
     0
100
AcDbLine
 10
1026.85
 20
1550.109018078045
 30
0.0
 11
1046.740981921955
 21
1570.0
 31
0.0
  0
LINE
  5
79
330
1E
100
AcDbEntity
  8
0
 62
     0
100
AcDbLine
 10
1026.85
 20
1557.18008588991
 30
0.0
 11
1039.669914110089
 21
1570.0
 31
0.0
  0
LINE
  5
7A
330
1E
100
AcDbEntity
  8
0
 62
     0
100
AcDbLine
 10
1026.879293242699
 20
1564.280446944476
 30
0.0
 11
1032.598846298224
 21
1570.0
 31
0.0
  0
LINE
  5
7B
330
1E
100
AcDbEntity
  8
0
 62
     0
100
AcDbLine
 10
1636.784255308908
 20
1566.073577190253
 30
0.0
 11
1640.710678118654
 21
1570.0
 31
0.0
  0
LINE
  5
7C
330
1E
100
AcDbEntity
  8
0
 62
     0
100
AcDbLine
 10
1636.85
 20
1559.068254069479
 30
0.0
 11
1647.78174593052
 21
1570.0
 31
0.0
  0
LINE
  5
7D
330
1E
100
AcDbEntity
  8
0
 62
     0
100
AcDbLine
 10
1636.85
 20
1551.997186257614
 30
0.0
 11
1654.852813742386
 21
1570.0
 31
0.0
  0
LINE
  5
7E
330
1E
100
AcDbEntity
  8
0
 62
     0
100
AcDbLine
 10
1636.85
 20
1544.926118445749
 30
0.0
 11
1661.923881554251
 21
1570.0
 31
0.0
  0
LINE
  5
7F
330
1E
100
AcDbEntity
  8
0
 62
     0
100
AcDbLine
 10
1638.994949366116
 20
1540.0
 30
0.0
 11
1668.994949366117
 21
1570.0
 31
0.0
  0
LINE
  5
80
330
1E
100
AcDbEntity
  8
0
 62
     0
100
AcDbLine
 10
1646.066017177982
 20
1540.0
 30
0.0
 11
1676.066017177982
 21
1570.0
 31
0.0
  0
LINE
  5
81
330
1E
100
AcDbEntity
  8
0
 62
     0
100
AcDbLine
 10
1653.137084989847
 20
1540.0
 30
0.0
 11
1683.137084989847
 21
1570.0
 31
0.0
  0
LINE
  5
82
330
1E
100
AcDbEntity
  8
0
 62
     0
100
AcDbLine
 10
1660.208152801713
 20
1540.0
 30
0.0
 11
1690.208152801713
 21
1570.0
 31
0.0
  0
LINE
  5
83
330
1E
100
AcDbEntity
  8
0
 62
     0
100
AcDbLine
 10
1636.85
 20
1509.570779386421
 30
0.0
 11
1637.279220613579
 21
1510.0
 31
0.0
  0
LINE
  5
84
330
1E
100
AcDbEntity
  8
0
 62
     0
100
AcDbLine
 10
1667.279220613579
 20
1540.0
 30
0.0
 11
1697.279220613578
 21
1570.0
 31
0.0
  0
LINE
  5
85
330
1E
100
AcDbEntity
  8
0
 62
     0
100
AcDbLine
 10
1636.85
 20
1502.499711574556
 30
0.0
 11
1644.350288425444
 21
1510.0
 31
0.0
  0
LINE
  5
86
330
1E
100
AcDbEntity
  8
0
 62
     0
100
AcDbLine
 10
1674.350288425444
 20
1540.0
 30
0.0
 11
1704.350288425444
 21
1570.0
 31
0.0
  0
LINE
  5
87
330
1E
100
AcDbEntity
  8
0
 62
     0
100
AcDbLine
 10
1636.85
 20
1495.42864376269
 30
0.0
 11
1651.421356237309
 21
1510.0
 31
0.0
  0
LINE
  5
88
330
1E
100
AcDbEntity
  8
0
 62
     0
100
AcDbLine
 10
1681.421356237309
 20
1540.0
 30
0.0
 11
1711.421356237309
 21
1570.0
 31
0.0
  0
LINE
  5
89
330
1E
100
AcDbEntity
  8
0
 62
     0
100
AcDbLine
 10
1636.85
 20
1488.357575950825
 30
0.0
 11
1658.492424049175
 21
1510.0
 31
0.0
  0
LINE
  5
8A
330
1E
100
AcDbEntity
  8
0
 62
     0
100
AcDbLine
 10
1688.492424049174
 20
1540.0
 30
0.0
 11
1713.116564353359
 21
1564.624140304184
 31
0.0
  0
LINE
  5
8B
330
1E
100
AcDbEntity
  8
0
 62
     0
100
AcDbLine
 10
1636.85
 20
1481.286508138959
 30
0.0
 11
1665.56349186104
 21
1510.0
 31
0.0
  0
LINE
  5
8C
330
1E
100
AcDbEntity
  8
0
 62
     0
100
AcDbLine
 10
1695.56349186104
 20
1540.0
 30
0.0
 11
1713.15
 21
1557.58650813896
 31
0.0
  0
LINE
  5
8D
330
1E
100
AcDbEntity
  8
0
 62
     0
100
AcDbLine
 10
1642.634559672905
 20
1479.999999999999
 30
0.0
 11
1672.634559672905
 21
1510.0
 31
0.0
  0
LINE
  5
8E
330
1E
100
AcDbEntity
  8
0
 62
     0
100
AcDbLine
 10
1702.634559672906
 20
1540.0
 30
0.0
 11
1713.15
 21
1550.515440327094
 31
0.0
  0
LINE
  5
8F
330
1E
100
AcDbEntity
  8
0
 62
     0
100
AcDbLine
 10
1649.705627484771
 20
1479.999999999999
 30
0.0
 11
1679.705627484771
 21
1510.0
 31
0.0
  0
LINE
  5
90
330
1E
100
AcDbEntity
  8
0
 62
     0
100
AcDbLine
 10
1709.705627484771
 20
1540.0
 30
0.0
 11
1713.15
 21
1543.444372515229
 31
0.0
  0
LINE
  5
91
330
1E
100
AcDbEntity
  8
0
 62
     0
100
AcDbLine
 10
1656.776695296636
 20
1479.999999999999
 30
0.0
 11
1686.776695296637
 21
1510.0
 31
0.0
  0
LINE
  5
92
330
1E
100
AcDbEntity
  8
0
 62
     0
100
AcDbLine
 10
1663.847763108502
 20
1479.999999999999
 30
0.0
 11
1693.847763108502
 21
1510.0
 31
0.0
  0
LINE
  5
93
330
1E
100
AcDbEntity
  8
0
 62
     0
100
AcDbLine
 10
1670.918830920367
 20
1479.999999999999
 30
0.0
 11
1700.918830920368
 21
1510.0
 31
0.0
  0
LINE
  5
94
330
1E
100
AcDbEntity
  8
0
 62
     0
100
AcDbLine
 10
1677.989898732233
 20
1479.999999999999
 30
0.0
 11
1707.989898732233
 21
1510.0
 31
0.0
  0
LINE
  5
95
330
1E
100
AcDbEntity
  8
0
 62
     0
100
AcDbLine
 10
1685.060966544099
 20
1479.999999999999
 30
0.0
 11
1713.15
 21
1508.089033455901
 31
0.0
  0
LINE
  5
96
330
1E
100
AcDbEntity
  8
0
 62
     0
100
AcDbLine
 10
1692.132034355964
 20
1479.999999999999
 30
0.0
 11
1713.15
 21
1501.017965644036
 31
0.0
  0
LINE
  5
97
330
1E
100
AcDbEntity
  8
0
 62
     0
100
AcDbLine
 10
1699.203102167829
 20
1479.999999999999
 30
0.0
 11
1713.15
 21
1493.94689783217
 31
0.0
  0
LINE
  5
98
330
1E
100
AcDbEntity
  8
0
 62
     0
100
AcDbLine
 10
1706.274169979695
 20
1479.999999999999
 30
0.0
 11
1713.15
 21
1486.875830020304
 31
0.0
  0
LINE
  5
99
330
1E
100
AcDbEntity
  8
0
 62
     0
100
AcDbLine
 10
1103.270530034628
 20
1569.593102850521
 30
0.0
 11
1102.86363288515
 21
1570.0
 31
0.0
  0
LINE
  5
9A
330
1E
100
AcDbEntity
  8
0
 62
     0
100
AcDbLine
 10
1103.162148061478
 20
1562.630417011806
 30
0.0
 11
1095.792565073284
 21
1570.0
 31
0.0
  0
LINE
  5
9B
330
1E
100
AcDbEntity
  8
0
 62
     0
100
AcDbLine
 10
1103.15
 20
1555.571497261418
 30
0.0
 11
1088.721497261418
 21
1570.0
 31
0.0
  0
LINE
  5
9C
330
1E
100
AcDbEntity
  8
0
 62
     0
100
AcDbLine
 10
1103.15
 20
1548.500429449553
 30
0.0
 11
1081.650429449553
 21
1570.0
 31
0.0
  0
LINE
  5
9D
330
1E
100
AcDbEntity
  8
0
 62
     0
100
AcDbLine
 10
1103.15
 20
1541.429361637687
 30
0.0
 11
1074.579361637687
 21
1570.0
 31
0.0
  0
LINE
  5
9E
330
1E
100
AcDbEntity
  8
0
 62
     0
100
AcDbLine
 10
1097.508293825821
 20
1540.0
 30
0.0
 11
1067.508293825822
 21
1570.0
 31
0.0
  0
LINE
  5
9F
330
1E
100
AcDbEntity
  8
0
 62
     0
100
AcDbLine
 10
1090.437226013956
 20
1540.0
 30
0.0
 11
1060.437226013956
 21
1570.0
 31
0.0
  0
LINE
  5
A0
330
1E
100
AcDbEntity
  8
0
 62
     0
100
AcDbLine
 10
1083.366158202091
 20
1540.0
 30
0.0
 11
1053.366158202091
 21
1570.0
 31
0.0
  0
LINE
  5
A1
330
1E
100
AcDbEntity
  8
0
 62
     0
100
AcDbLine
 10
1076.295090390225
 20
1540.0
 30
0.0
 11
1046.295090390226
 21
1570.0
 31
0.0
  0
LINE
  5
A2
330
1E
100
AcDbEntity
  8
0
 62
     0
100
AcDbLine
 10
1103.15
 20
1506.07402257836
 30
0.0
 11
1099.22402257836
 21
1510.0
 31
0.0
  0
LINE
  5
A3
330
1E
100
AcDbEntity
  8
0
 62
     0
100
AcDbLine
 10
1069.22402257836
 20
1540.0
 30
0.0
 11
1039.22402257836
 21
1570.0
 31
0.0
  0
LINE
  5
A4
330
1E
100
AcDbEntity
  8
0
 62
     0
100
AcDbLine
 10
1103.15
 20
1499.002954766494
 30
0.0
 11
1092.152954766494
 21
1510.0
 31
0.0
  0
LINE
  5
A5
330
1E
100
AcDbEntity
  8
0
 62
     0
100
AcDbLine
 10
1062.152954766494
 20
1540.0
 30
0.0
 11
1032.152954766495
 21
1570.0
 31
0.0
  0
LINE
  5
A6
330
1E
100
AcDbEntity
  8
0
 62
     0
100
AcDbLine
 10
1103.15
 20
1491.931886954629
 30
0.0
 11
1085.081886954629
 21
1510.0
 31
0.0
  0
LINE
  5
A7
330
1E
100
AcDbEntity
  8
0
 62
     0
100
AcDbLine
 10
1055.081886954629
 20
1540.0
 30
0.0
 11
1026.926002402376
 21
1568.155884552253
 31
0.0
  0
LINE
  5
A8
330
1E
100
AcDbEntity
  8
0
 62
     0
100
AcDbLine
 10
1103.15
 20
1484.860819142764
 30
0.0
 11
1078.010819142764
 21
1510.0
 31
0.0
  0
LINE
  5
A9
330
1E
100
AcDbEntity
  8
0
 62
     0
100
AcDbLine
 10
1048.010819142764
 20
1540.0
 30
0.0
 11
1026.85
 21
1561.160819142764
 31
0.0
  0
LINE
  5
AA
330
1E
100
AcDbEntity
  8
0
 62
     0
100
AcDbLine
 10
1100.939751330898
 20
1479.999999999999
 30
0.0
 11
1070.939751330898
 21
1510.0
 31
0.0
  0
LINE
  5
AB
330
1E
100
AcDbEntity
  8
0
 62
     0
100
AcDbLine
 10
1040.939751330898
 20
1540.0
 30
0.0
 11
1026.85
 21
1554.089751330898
 31
0.0
  0
LINE
  5
AC
330
1E
100
AcDbEntity
  8
0
 62
     0
100
AcDbLine
 10
1093.868683519033
 20
1479.999999999999
 30
0.0
 11
1063.868683519033
 21
1510.0
 31
0.0
  0
LINE
  5
AD
330
1E
100
AcDbEntity
  8
0
 62
     0
100
AcDbLine
 10
1033.868683519033
 20
1540.0
 30
0.0
 11
1026.85
 21
1547.018683519033
 31
0.0
  0
LINE
  5
AE
330
1E
100
AcDbEntity
  8
0
 62
     0
100
AcDbLine
 10
1086.797615707167
 20
1479.999999999999
 30
0.0
 11
1056.797615707167
 21
1510.0
 31
0.0
  0
LINE
  5
AF
330
1E
100
AcDbEntity
  8
0
 62
     0
100
AcDbLine
 10
1079.726547895302
 20
1479.999999999999
 30
0.0
 11
1049.726547895302
 21
1510.0
 31
0.0
  0
LINE
  5
B0
330
1E
100
AcDbEntity
  8
0
 62
     0
100
AcDbLine
 10
1072.655480083437
 20
1479.999999999999
 30
0.0
 11
1042.655480083436
 21
1510.0
 31
0.0
  0
LINE
  5
B1
330
1E
100
AcDbEntity
  8
0
 62
     0
100
AcDbLine
 10
1065.58441227157
 20
1479.999999999999
 30
0.0
 11
1035.58441227157
 21
1510.0
 31
0.0
  0
LINE
  5
B2
330
1E
100
AcDbEntity
  8
0
 62
     0
100
AcDbLine
 10
1058.513344459706
 20
1479.999999999999
 30
0.0
 11
1028.513344459705
 21
1510.0
 31
0.0
  0
LINE
  5
B3
330
1E
100
AcDbEntity
  8
0
 62
     0
100
AcDbLine
 10
1051.44227664784
 20
1479.999999999999
 30
0.0
 11
1026.85
 21
1504.59227664784
 31
0.0
  0
LINE
  5
B4
330
1E
100
AcDbEntity
  8
0
 62
     0
100
AcDbLine
 10
1044.371208835974
 20
1479.999999999999
 30
0.0
 11
1026.85
 21
1497.521208835974
 31
0.0
  0
LINE
  5
B5
330
1E
100
AcDbEntity
  8
0
 62
     0
100
AcDbLine
 10
1037.300141024109
 20
1479.999999999999
 30
0.0
 11
1026.85
 21
1490.450141024109
 31
0.0
  0
LINE
  5
B6
330
1E
100
AcDbEntity
  8
0
 62
     0
100
AcDbLine
 10
1030.229073212243
 20
1479.999999999999
 30
0.0
 11
1026.85
 21
1483.379073212243
 31
0.0
  0
LINE
  5
B7
330
1E
100
AcDbEntity
  8
0
 62
     0
100
AcDbLine
 10
1638.340905032674
 20
1479.999999999999
 30
0.0
 11
1636.85
 21
1481.490905032674
 31
0.0
  0
LINE
  5
B8
330
1E
100
AcDbEntity
  8
0
 62
     0
100
AcDbLine
 10
1645.41197284454
 20
1479.999999999999
 30
0.0
 11
1636.85
 21
1488.56197284454
 31
0.0
  0
LINE
  5
B9
330
1E
100
AcDbEntity
  8
0
 62
     0
100
AcDbLine
 10
1652.483040656405
 20
1479.999999999999
 30
0.0
 11
1636.85
 21
1495.633040656405
 31
0.0
  0
LINE
  5
BA
330
1E
100
AcDbEntity
  8
0
 62
     0
100
AcDbLine
 10
1659.55410846827
 20
1479.999999999999
 30
0.0
 11
1636.85
 21
1502.70410846827
 31
0.0
  0
LINE
  5
BB
330
1E
100
AcDbEntity
  8
0
 62
     0
100
AcDbLine
 10
1666.625176280136
 20
1479.999999999999
 30
0.0
 11
1636.85
 21
1509.775176280136
 31
0.0
  0
LINE
  5
BC
330
1E
100
AcDbEntity
  8
0
 62
     0
100
AcDbLine
 10
1673.696244092002
 20
1479.999999999999
 30
0.0
 11
1643.696244092001
 21
1510.0
 31
0.0
  0
LINE
  5
BD
330
1E
100
AcDbEntity
  8
0
 62
     0
100
AcDbLine
 10
1680.767311903867
 20
1479.999999999999
 30
0.0
 11
1650.767311903867
 21
1510.0
 31
0.0
  0
LINE
  5
BE
330
1E
100
AcDbEntity
  8
0
 62
     0
100
AcDbLine
 10
1687.838379715733
 20
1479.999999999999
 30
0.0
 11
1657.838379715732
 21
1510.0
 31
0.0
  0
LINE
  5
BF
330
1E
100
AcDbEntity
  8
0
 62
     0
100
AcDbLine
 10
1694.909447527598
 20
1479.999999999999
 30
0.0
 11
1664.909447527598
 21
1510.0
 31
0.0
  0
LINE
  5
C0
330
1E
100
AcDbEntity
  8
0
 62
     0
100
AcDbLine
 10
1701.980515339463
 20
1479.999999999999
 30
0.0
 11
1671.980515339463
 21
1510.0
 31
0.0
  0
LINE
  5
C1
330
1E
100
AcDbEntity
  8
0
 62
     0
100
AcDbLine
 10
1641.980515339463
 20
1540.0
 30
0.0
 11
1636.85
 21
1545.130515339464
 31
0.0
  0
LINE
  5
C2
330
1E
100
AcDbEntity
  8
0
 62
     0
100
AcDbLine
 10
1709.051583151329
 20
1479.999999999999
 30
0.0
 11
1679.051583151329
 21
1510.0
 31
0.0
  0
LINE
  5
C3
330
1E
100
AcDbEntity
  8
0
 62
     0
100
AcDbLine
 10
1649.051583151329
 20
1540.0
 30
0.0
 11
1636.85
 21
1552.201583151329
 31
0.0
  0
LINE
  5
C4
330
1E
100
AcDbEntity
  8
0
 62
     0
100
AcDbLine
 10
1713.15
 20
1482.972650963194
 30
0.0
 11
1686.122650963194
 21
1510.0
 31
0.0
  0
LINE
  5
C5
330
1E
100
AcDbEntity
  8
0
 62
     0
100
AcDbLine
 10
1656.122650963194
 20
1540.0
 30
0.0
 11
1636.85
 21
1559.272650963194
 31
0.0
  0
LINE
  5
C6
330
1E
100
AcDbEntity
  8
0
 62
     0
100
AcDbLine
 10
1713.15
 20
1490.043718775059
 30
0.0
 11
1693.19371877506
 21
1510.0
 31
0.0
  0
LINE
  5
C7
330
1E
100
AcDbEntity
  8
0
 62
     0
100
AcDbLine
 10
1663.19371877506
 20
1540.0
 30
0.0
 11
1636.778944190806
 21
1566.414774584254
 31
0.0
  0
LINE
  5
C8
330
1E
100
AcDbEntity
  8
0
 62
     0
100
AcDbLine
 10
1713.15
 20
1497.114786586926
 30
0.0
 11
1700.264786586925
 21
1510.0
 31
0.0
  0
LINE
  5
C9
330
1E
100
AcDbEntity
  8
0
 62
     0
100
AcDbLine
 10
1670.264786586925
 20
1540.0
 30
0.0
 11
1640.264786586925
 21
1570.0
 31
0.0
  0
LINE
  5
CA
330
1E
100
AcDbEntity
  8
0
 62
     0
100
AcDbLine
 10
1713.15
 20
1504.185854398791
 30
0.0
 11
1707.335854398791
 21
1510.0
 31
0.0
  0
LINE
  5
CB
330
1E
100
AcDbEntity
  8
0
 62
     0
100
AcDbLine
 10
1677.335854398791
 20
1540.0
 30
0.0
 11
1647.335854398791
 21
1570.0
 31
0.0
  0
LINE
  5
CC
330
1E
100
AcDbEntity
  8
0
 62
     0
100
AcDbLine
 10
1684.406922210656
 20
1540.0
 30
0.0
 11
1654.406922210656
 21
1570.0
 31
0.0
  0
LINE
  5
CD
330
1E
100
AcDbEntity
  8
0
 62
     0
100
AcDbLine
 10
1691.477990022522
 20
1540.0
 30
0.0
 11
1661.477990022521
 21
1570.0
 31
0.0
  0
LINE
  5
CE
330
1E
100
AcDbEntity
  8
0
 62
     0
100
AcDbLine
 10
1698.549057834387
 20
1540.0
 30
0.0
 11
1668.549057834387
 21
1570.0
 31
0.0
  0
LINE
  5
CF
330
1E
100
AcDbEntity
  8
0
 62
     0
100
AcDbLine
 10
1705.620125646253
 20
1540.0
 30
0.0
 11
1675.620125646252
 21
1570.0
 31
0.0
  0
LINE
  5
D0
330
1E
100
AcDbEntity
  8
0
 62
     0
100
AcDbLine
 10
1712.691193458118
 20
1540.0
 30
0.0
 11
1682.691193458118
 21
1570.0
 31
0.0
  0
LINE
  5
D1
330
1E
100
AcDbEntity
  8
0
 62
     0
100
AcDbLine
 10
1713.15
 20
1546.612261269983
 30
0.0
 11
1689.762261269984
 21
1570.0
 31
0.0
  0
LINE
  5
D2
330
1E
100
AcDbEntity
  8
0
 62
     0
100
AcDbLine
 10
1713.15
 20
1553.683329081849
 30
0.0
 11
1696.833329081849
 21
1570.0
 31
0.0
  0
LINE
  5
D3
330
1E
100
AcDbEntity
  8
0
 62
     0
100
AcDbLine
 10
1713.15
 20
1560.754396893714
 30
0.0
 11
1703.904396893714
 21
1570.0
 31
0.0
  0
LINE
  5
D4
330
1E
100
AcDbEntity
  8
0
 62
     0
100
AcDbLine
 10
1713.077101402239
 20
1567.89836330334
 30
0.0
 11
1710.97546470558
 21
1570.0
 31
0.0
  0
ENDBLK
  5
D5
330
1E
100
AcDbEntity
  8
0
100
AcDbBlockEnd
  0
BLOCK
  5
366
330
35F
100
AcDbEntity
  8
0
100
AcDbBlockBegin
  2
CALCOMP_TECHJET720A3
 70
     0
 10
0.0
 20
0.0
 30
0.0
  3
CALCOMP_TECHJET720A3
  1

  0
LWPOLYLINE
  5
360
330
35F
100
AcDbEntity
  8
ZWAKU
100
AcDbPolyline
 90
        4
 70
     1
 43
0.0
 10
0.0
 20
0.0
 10
0.0
 20
267.0
 10
370.0
 20
267.0
 10
370.0
 20
0.0
  0
ENDBLK
  5
367
330
35F
100
AcDbEntity
  8
0
100
AcDbBlockEnd
  0
BLOCK
  5
393
330
386
100
AcDbEntity
  8
0
100
AcDbBlockBegin
  2
B0040021
 70
     0
 10
0.0
 20
0.0
 30
0.0
  3
B0040021
  1

  0
LINE
  5
387
330
386
100
AcDbEntity
  8
HATCH
100
AcDbLine
 10
90.53459680887726
 20
-7.500000000000227
 30
0.0
 11
117.0518952133159
 21
-34.01729840443886
 31
0.0
  0
LINE
  5
388
330
386
100
AcDbEntity
  8
HATCH
100
AcDbLine
 10
98.03459680887726
 20
0.0
 30
0.0
 11
132.0518952133159
 21
-34.01729840443886
 31
0.0
  0
LINE
  5
389
330
386
100
AcDbEntity
  8
HATCH
100
AcDbLine
 10
22.5
 20
-7.500000000000227
 30
0.0
 11
49.01729840443863
 21
-34.01729840443886
 31
0.0
  0
LINE
  5
38A
330
386
100
AcDbEntity
  8
HATCH
100
AcDbLine
 10
30.0
 20
0.0
 30
0.0
 11
-4.017298404438633
 21
-34.01729840443886
 31
0.0
  0
LINE
  5
38B
330
386
100
AcDbEntity
  8
HATCH
100
AcDbLine
 10
15.0
 20
-15.00000000000023
 30
0.0
 11
34.01729840443863
 21
-34.01729840443886
 31
0.0
  0
LINE
  5
38C
330
386
100
AcDbEntity
  8
HATCH
100
AcDbLine
 10
0.0
 20
0.0
 30
0.0
 11
-34.01729840443863
 21
-34.01729840443886
 31
0.0
  0
LINE
  5
38D
330
386
100
AcDbEntity
  8
HATCH
100
AcDbLine
 10
15.0
 20
0.0
 30
0.0
 11
-19.01729840443863
 21
-34.01729840443886
 31
0.0
  0
LINE
  5
38E
330
386
100
AcDbEntity
  8
HATCH
100
AcDbLine
 10
83.03459680887726
 20
0.0
 30
0.0
 11
56.51729840443886
 21
-26.51729840443863
 31
0.0
  0
LINE
  5
38F
330
386
100
AcDbEntity
  8
HATCH
100
AcDbLine
 10
98.03459680887726
 20
0.0
 30
0.0
 11
64.01729840443863
 21
-34.01729840443886
 31
0.0
  0
LINE
  5
390
330
386
100
AcDbEntity
  8
HATCH
100
AcDbLine
 10
68.03459680887726
 20
0.0
 30
0.0
 11
49.01729840443886
 21
-19.01729840443863
 31
0.0
  0
LINE
  5
391
330
386
100
AcDbEntity
  8
HATCH
100
AcDbLine
 10
30.0
 20
0.0
 30
0.0
 11
64.01729840443863
 21
-34.01729840443886
 31
0.0
  0
LINE
  5
392
330
386
100
AcDbEntity
  8
HATCH
100
AcDbLine
 10
83.03459680887726
 20
-15.00000000000023
 30
0.0
 11
102.0518952133159
 21
-34.01729840443886
 31
0.0
  0
ENDBLK
  5
394
330
386
100
AcDbEntity
  8
0
100
AcDbBlockEnd
  0
BLOCK
  5
3CD
330
3CC
100
AcDbEntity
  8
0
100
AcDbBlockBegin
  2
*X3
 70
     1
 10
0.0
 20
0.0
 30
0.0
  3
*X3
  1

  0
LINE
  5
3CF
330
3CC
100
AcDbEntity
  8
0
 62
     0
100
AcDbLine
 10
801.5583640309234
 20
624.7816687342864
 30
0.0
 11
1019.009622495297
 21
842.2329271986603
 31
0.0
  0
LINE
  5
3D0
330
3CC
100
AcDbEntity
  8
0
 62
     0
100
AcDbLine
 10
1019.009622495297
 20
842.2329271986603
 30
0.0
 11
1101.558364030923
 21
924.7816687342863
 31
0.0
  0
LINE
  5
3D1
330
3CC
100
AcDbEntity
  8
0
 62
     0
100
AcDbLine
 10
624.7816687342862
 20
624.7816687342862
 30
0.0
 11
675.8596224952971
 21
675.8596224952971
 31
0.0
  0
LINE
  5
3D2
330
3CC
100
AcDbEntity
  8
0
 62
     0
100
AcDbLine
 10
752.1596224952974
 20
752.1596224952974
 30
0.0
 11
924.7816687342861
 21
924.7816687342861
 31
0.0
  0
LINE
  5
3D3
330
3CC
100
AcDbEntity
  8
0
 62
     0
100
AcDbLine
 10
519.0096224952972
 20
695.7863177919342
 30
0.0
 11
675.8596224952971
 21
852.6363177919339
 31
0.0
  0
LINE
  5
3D4
330
3CC
100
AcDbEntity
  8
0
 62
     0
100
AcDbLine
 10
519.0096224952972
 20
872.563013088571
 30
0.0
 11
571.2282781410123
 21
924.781668734286
 31
0.0
  0
LINE
  5
3D5
330
3CC
100
AcDbEntity
  8
0
 62
     0
100
AcDbLine
 10
978.3350593275601
 20
624.7816687342864
 30
0.0
 11
1019.009622495297
 21
665.456231902023
 31
0.0
  0
LINE
  5
3D6
330
3CC
100
AcDbEntity
  8
0
 62
     0
100
AcDbLine
 10
1019.009622495297
 20
665.4562319020235
 30
0.0
 11
1278.33505932756
 21
924.7816687342863
 31
0.0
  0
LINE
  5
3D7
330
3CC
100
AcDbEntity
  8
0
 62
     0
100
AcDbLine
 10
1155.111754624197
 20
624.7816687342861
 30
0.0
 11
1285.859622495297
 21
755.5295366053866
 31
0.0
  0
LINE
  5
3D8
330
3CC
100
AcDbEntity
  8
0
 62
     0
100
AcDbLine
 10
1362.159622495297
 20
831.8295366053865
 30
0.0
 11
1455.111754624196
 21
924.7816687342863
 31
0.0
  0
LINE
  5
3D9
330
3CC
100
AcDbEntity
  8
0
 62
     0
100
AcDbLine
 10
1362.159622495297
 20
655.0528413087497
 30
0.0
 11
1519.009622495297
 21
811.9028413087498
 31
0.0
  0
LINE
  5
3DA
330
3CC
100
AcDbEntity
  8
0
 62
     0
100
AcDbLine
 10
1508.665145217471
 20
624.7816687342864
 30
0.0
 11
1519.009622495297
 21
635.1261460121128
 31
0.0
  0
LINE
  5
3DB
330
3CC
100
AcDbEntity
  8
0
 62
     0
100
AcDbLine
 10
779.4612771188436
 20
624.7816687342864
 30
0.0
 11
1019.009622495297
 21
864.3300141107399
 31
0.0
  0
LINE
  5
3DC
330
3CC
100
AcDbEntity
  8
0
 62
     0
100
AcDbLine
 10
1019.009622495297
 20
864.3300141107399
 30
0.0
 11
1079.461277118843
 21
924.7816687342863
 31
0.0
  0
LINE
  5
3DD
330
3CC
100
AcDbEntity
  8
0
 62
     0
100
AcDbLine
 10
602.6845818222067
 20
624.7816687342862
 30
0.0
 11
675.8596224952971
 21
697.9567094073766
 31
0.0
  0
LINE
  5
3DE
330
3CC
100
AcDbEntity
  8
0
 62
     0
100
AcDbLine
 10
752.1596224952974
 20
774.256709407377
 30
0.0
 11
902.6845818222065
 21
924.7816687342861
 31
0.0
  0
LINE
  5
3DF
330
3CC
100
AcDbEntity
  8
0
 62
     0
100
AcDbLine
 10
519.0096224952972
 20
717.8834047040137
 30
0.0
 11
675.8596224952971
 21
874.7334047040137
 31
0.0
  0
LINE
  5
3E0
330
3CC
100
AcDbEntity
  8
0
 62
     0
100
AcDbLine
 10
519.0096224952972
 20
894.6601000006506
 30
0.0
 11
549.1311912289327
 21
924.781668734286
 31
0.0
  0
LINE
  5
3E1
330
3CC
100
AcDbEntity
  8
0
 62
     0
100
AcDbLine
 10
956.2379724154805
 20
624.7816687342864
 30
0.0
 11
1019.009622495297
 21
687.5533188141027
 31
0.0
  0
LINE
  5
3E2
330
3CC
100
AcDbEntity
  8
0
 62
     0
100
AcDbLine
 10
1019.009622495297
 20
687.5533188141031
 30
0.0
 11
1256.23797241548
 21
924.7816687342863
 31
0.0
  0
LINE
  5
3E3
330
3CC
100
AcDbEntity
  8
0
 62
     0
100
AcDbLine
 10
1133.014667712117
 20
624.7816687342861
 30
0.0
 11
1285.859622495297
 21
777.6266235174662
 31
0.0
  0
LINE
  5
3E4
330
3CC
100
AcDbEntity
  8
0
 62
     0
100
AcDbLine
 10
1362.159622495297
 20
853.9266235174661
 30
0.0
 11
1433.014667712117
 21
924.7816687342863
 31
0.0
  0
LINE
  5
3E5
330
3CC
100
AcDbEntity
  8
0
 62
     0
100
AcDbLine
 10
1362.159622495297
 20
677.1499282208293
 30
0.0
 11
1519.009622495297
 21
833.9999282208292
 31
0.0
  0
LINE
  5
3E6
330
3CC
100
AcDbEntity
  8
0
 62
     0
100
AcDbLine
 10
1486.568058305391
 20
624.7816687342864
 30
0.0
 11
1519.009622495297
 21
657.2232329241924
 31
0.0
  0
LINE
  5
3E7
330
3CC
100
AcDbEntity
  8
0
 62
     0
100
AcDbLine
 10
757.3641902067641
 20
624.7816687342864
 30
0.0
 11
1019.009622495297
 21
886.4271010228195
 31
0.0
  0
LINE
  5
3E8
330
3CC
100
AcDbEntity
  8
0
 62
     0
100
AcDbLine
 10
1019.009622495297
 20
886.4271010228195
 30
0.0
 11
1057.364190206764
 21
924.7816687342863
 31
0.0
  0
LINE
  5
3E9
330
3CC
100
AcDbEntity
  8
0
 62
     0
100
AcDbLine
 10
580.5874949101271
 20
624.7816687342862
 30
0.0
 11
675.8596224952971
 21
720.0537963194562
 31
0.0
  0
LINE
  5
3EA
330
3CC
100
AcDbEntity
  8
0
 62
     0
100
AcDbLine
 10
752.1596224952974
 20
796.3537963194567
 30
0.0
 11
880.5874949101269
 21
924.7816687342861
 31
0.0
  0
LINE
  5
3EB
330
3CC
100
AcDbEntity
  8
0
 62
     0
100
AcDbLine
 10
519.0096224952972
 20
739.9804916160933
 30
0.0
 11
675.8596224952971
 21
896.8304916160931
 31
0.0
  0
LINE
  5
3EC
330
3CC
100
AcDbEntity
  8
0
 62
     0
100
AcDbLine
 10
519.0096224952972
 20
916.7571869127302
 30
0.0
 11
527.0341043168531
 21
924.781668734286
 31
0.0
  0
LINE
  5
3ED
330
3CC
100
AcDbEntity
  8
0
 62
     0
100
AcDbLine
 10
934.1408855034009
 20
624.7816687342864
 30
0.0
 11
1019.009622495297
 21
709.6504057261824
 31
0.0
  0
LINE
  5
3EE
330
3CC
100
AcDbEntity
  8
0
 62
     0
100
AcDbLine
 10
1019.009622495297
 20
709.6504057261827
 30
0.0
 11
1234.140885503401
 21
924.7816687342863
 31
0.0
  0
LINE
  5
3EF
330
3CC
100
AcDbEntity
  8
0
 62
     0
100
AcDbLine
 10
1110.917580800037
 20
624.7816687342861
 30
0.0
 11
1285.859622495297
 21
799.7237104295458
 31
0.0
  0
LINE
  5
3F0
330
3CC
100
AcDbEntity
  8
0
 62
     0
100
AcDbLine
 10
1362.159622495297
 20
876.0237104295457
 30
0.0
 11
1410.917580800037
 21
924.7816687342863
 31
0.0
  0
LINE
  5
3F1
330
3CC
100
AcDbEntity
  8
0
 62
     0
100
AcDbLine
 10
1362.159622495297
 20
699.2470151329089
 30
0.0
 11
1519.009622495297
 21
856.0970151329089
 31
0.0
  0
LINE
  5
3F2
330
3CC
100
AcDbEntity
  8
0
 62
     0
100
AcDbLine
 10
1464.470971393311
 20
624.7816687342864
 30
0.0
 11
1519.009622495297
 21
679.320319836272
 31
0.0
  0
ENDBLK
  5
3F3
330
3CC
100
AcDbEntity
  8
0
100
AcDbBlockEnd
  0
BLOCK
  5
62F
330
424
100
AcDbEntity
  8
0
100
AcDbBlockBegin
  2
*D4
 70
     1
 10
0.0
 20
0.0
 30
0.0
  3
*D4
  1

  0
LINE
  5
630
330
424
100
AcDbEntity
  8
0
  6
ByBlock
100
AcDbLine
 10
714.0096224952972
 20
1396.631668734286
 30
0.0
 11
714.0096224952972
 21
1851.414069691811
 31
0.0
  0
LINE
  5
631
330
424
100
AcDbEntity
  8
0
  6
ByBlock
100
AcDbLine
 10
1324.009622495297
 20
1424.854493785217
 30
0.0
 11
1324.009622495297
 21
1851.414069691811
 31
0.0
  0
LINE
  5
632
330
424
100
AcDbEntity
  8
0
  6
ByBlock
100
AcDbLine
 10
734.0096224952972
 20
1841.414069691811
 30
0.0
 11
1304.009622495297
 21
1841.414069691811
 31
0.0
  0
SOLID
  5
633
330
424
100
AcDbEntity
  8
0
  6
ByBlock
100
AcDbTrace
 10
734.0096224952972
 20
1844.747403025144
 30
0.0
 11
734.0096224952972
 21
1838.080736358477
 31
0.0
 12
714.0096224952972
 22
1841.414069691811
 32
0.0
 13
714.0096224952972
 23
1841.414069691811
 33
0.0
  0
SOLID
  5
634
330
424
100
AcDbEntity
  8
0
  6
ByBlock
100
AcDbTrace
 10
1304.009622495297
 20
1844.747403025144
 30
0.0
 11
1304.009622495297
 21
1838.080736358477
 31
0.0
 12
1324.009622495297
 22
1841.414069691811
 32
0.0
 13
1324.009622495297
 23
1841.414069691811
 33
0.0
  0
MTEXT
  5
635
330
424
100
AcDbEntity
  8
0
  6
ByBlock
100
AcDbMText
 10
1019.009622495297
 20
1868.414069691811
 30
0.0
 40
30.0
 41
0.0
 71
     5
 72
     5
  1
\A1;610
  7
EXT08
 73
     1
 44
1.0
  0
POINT
  5
636
330
424
100
AcDbEntity
  8
DEFPOINTS
  6
ByBlock
 62
     0
100
AcDbPoint
 10
714.0096224952972
 20
1386.631668734286
 30
0.0
  0
POINT
  5
637
330
424
100
AcDbEntity
  8
DEFPOINTS
  6
ByBlock
 62
     0
100
AcDbPoint
 10
1324.009622495297
 20
1414.854493785217
 30
0.0
  0
POINT
  5
638
330
424
100
AcDbEntity
  8
DEFPOINTS
  6
ByBlock
 62
     0
100
AcDbPoint
 10
1324.009622495297
 20
1841.414069691811
 30
0.0
  0
ENDBLK
  5
639
330
424
100
AcDbEntity
  8
0
100
AcDbBlockEnd
  0
BLOCK
  5
61D
330
430
100
AcDbEntity
  8
0
100
AcDbBlockBegin
  2
*D5
 70
     1
 10
0.0
 20
0.0
 30
0.0
  3
*D5
  1

  0
LINE
  5
61E
330
430
100
AcDbEntity
  8
0
  6
ByBlock
100
AcDbLine
 10
1024.009622495298
 20
1386.631668734287
 30
0.0
 11
1270.44968267916
 21
1519.550052476247
 31
0.0
  0
SOLID
  5
61F
330
430
100
AcDbEntity
  8
0
  6
ByBlock
100
AcDbTrace
 10
1268.867320967946
 20
1522.48386271653
 30
0.0
 11
1272.032044390374
 21
1516.616242235962
 31
0.0
 12
1288.052544120865
 22
1529.044222743529
 32
0.0
 13
1288.052544120865
 23
1529.044222743529
 33
0.0
  0
MTEXT
  5
620
330
430
100
AcDbEntity
  8
0
  6
ByBlock
100
AcDbMText
 10
1143.21395344725
 20
1481.601808685209
 30
0.0
 40
30.0
 41
0.0
 71
     5
 72
     5
  1
\A1;R300
  7
EXT08
 11
0.88014307208522
 21
0.4747085133641395
 31
0.0
 73
     1
 44
1.0
  0
POINT
  5
621
330
430
100
AcDbEntity
  8
DEFPOINTS
  6
ByBlock
 62
     0
100
AcDbPoint
 10
1288.052544120865
 20
1529.044222743529
 30
0.0
  0
POINT
  5
622
330
430
100
AcDbEntity
  8
DEFPOINTS
  6
ByBlock
 62
     0
100
AcDbPoint
 10
1024.009622495298
 20
1386.631668734287
 30
0.0
  0
ENDBLK
  5
623
330
430
100
AcDbEntity
  8
0
100
AcDbBlockEnd
  0
BLOCK
  5
624
330
438
100
AcDbEntity
  8
0
100
AcDbBlockBegin
  2
*D6
 70
     1
 10
0.0
 20
0.0
 30
0.0
  3
*D6
  1

  0
LINE
  5
625
330
438
100
AcDbEntity
  8
0
  6
ByBlock
100
AcDbLine
 10
1054.376467400281
 20
1724.781668734286
 30
0.0
 11
1784.718265916067
 21
1724.781668734286
 31
0.0
  0
LINE
  5
626
330
438
100
AcDbEntity
  8
0
  6
ByBlock
100
AcDbLine
 10
1538.165169809688
 20
624.7816687342862
 30
0.0
 11
1784.718265916067
 21
624.7816687342862
 31
0.0
  0
LINE
  5
627
330
438
100
AcDbEntity
  8
0
  6
ByBlock
100
AcDbLine
 10
1774.718265916067
 20
1704.781668734286
 30
0.0
 11
1774.718265916067
 21
644.7816687342863
 31
0.0
  0
SOLID
  5
628
330
438
100
AcDbEntity
  8
0
  6
ByBlock
100
AcDbTrace
 10
1771.384932582734
 20
1704.781668734286
 30
0.0
 11
1778.051599249401
 21
1704.781668734286
 31
0.0
 12
1774.718265916067
 22
1724.781668734286
 32
0.0
 13
1774.718265916067
 23
1724.781668734286
 33
0.0
  0
SOLID
  5
629
330
438
100
AcDbEntity
  8
0
  6
ByBlock
100
AcDbTrace
 10
1771.384932582734
 20
644.7816687342863
 30
0.0
 11
1778.051599249401
 21
644.7816687342863
 31
0.0
 12
1774.718265916067
 22
624.7816687342862
 32
0.0
 13
1774.718265916067
 23
624.7816687342862
 33
0.0
  0
MTEXT
  5
62A
330
438
100
AcDbEntity
  8
0
  6
ByBlock
100
AcDbMText
 10
1747.718265916067
 20
1174.781668734286
 30
0.0
 40
30.0
 41
0.0
 71
     5
 72
     5
  1
\A1;1100
  7
EXT08
 11
0.0
 21
1.0
 31
0.0
 73
     1
 44
1.0
  0
POINT
  5
62B
330
438
100
AcDbEntity
  8
DEFPOINTS
  6
ByBlock
 62
     0
100
AcDbPoint
 10
1044.376467400281
 20
1724.781668734286
 30
0.0
  0
POINT
  5
62C
330
438
100
AcDbEntity
  8
DEFPOINTS
  6
ByBlock
 62
     0
100
AcDbPoint
 10
1528.165169809688
 20
624.7816687342862
 30
0.0
  0
POINT
  5
62D
330
438
100
AcDbEntity
  8
DEFPOINTS
  6
ByBlock
 62
     0
100
AcDbPoint
 10
1774.718265916067
 20
624.7816687342862
 30
0.0
  0
ENDBLK
  5
62E
330
438
100
AcDbEntity
  8
0
100
AcDbBlockEnd
  0
BLOCK
  5
607
330
444
100
AcDbEntity
  8
0
100
AcDbBlockBegin
  2
*D7
 70
     1
 10
0.0
 20
0.0
 30
0.0
  3
*D7
  1

  0
LINE
  5
608
330
444
100
AcDbEntity
  8
0
  6
ByBlock
100
AcDbLine
 10
1661.779932720539
 20
1724.781668734286
 30
0.0
 11
1661.779932720539
 21
1724.781668734286
 31
0.0
  0
LINE
  5
609
330
444
100
AcDbEntity
  8
0
  6
ByBlock
100
AcDbLine
 10
1661.779932720539
 20
924.7816687342863
 30
0.0
 11
1661.779932720539
 21
924.7816687342863
 31
0.0
  0
LINE
  5
60A
330
444
100
AcDbEntity
  8
0
  6
ByBlock
100
AcDbLine
 10
1671.779932720539
 20
1704.781668734286
 30
0.0
 11
1671.779932720539
 21
944.7816687342863
 31
0.0
  0
SOLID
  5
60B
330
444
100
AcDbEntity
  8
0
  6
ByBlock
100
AcDbTrace
 10
1668.446599387205
 20
1704.781668734286
 30
0.0
 11
1675.113266053872
 21
1704.781668734286
 31
0.0
 12
1671.779932720539
 22
1724.781668734286
 32
0.0
 13
1671.779932720539
 23
1724.781668734286
 33
0.0
  0
SOLID
  5
60C
330
444
100
AcDbEntity
  8
0
  6
ByBlock
100
AcDbTrace
 10
1668.446599387205
 20
944.7816687342863
 30
0.0
 11
1675.113266053872
 21
944.7816687342863
 31
0.0
 12
1671.779932720539
 22
924.7816687342863
 32
0.0
 13
1671.779932720539
 23
924.7816687342863
 33
0.0
  0
MTEXT
  5
60D
330
444
100
AcDbEntity
  8
0
  6
ByBlock
100
AcDbMText
 10
1644.779932720538
 20
1324.781668734286
 30
0.0
 40
30.0
 41
0.0
 71
     5
 72
     5
  1
\A1;800
  7
EXT08
 11
0.0
 21
1.0
 31
0.0
 73
     1
 44
1.0
  0
POINT
  5
60E
330
444
100
AcDbEntity
  8
DEFPOINTS
  6
ByBlock
 62
     0
100
AcDbPoint
 10
1671.779932720539
 20
1724.781668734286
 30
0.0
  0
POINT
  5
60F
330
444
100
AcDbEntity
  8
DEFPOINTS
  6
ByBlock
 62
     0
100
AcDbPoint
 10
1671.779932720539
 20
924.7816687342863
 30
0.0
  0
POINT
  5
610
330
444
100
AcDbEntity
  8
DEFPOINTS
  6
ByBlock
 62
     0
100
AcDbPoint
 10
1671.779932720539
 20
924.7816687342863
 30
0.0
  0
ENDBLK
  5
611
330
444
100
AcDbEntity
  8
0
100
AcDbBlockEnd
  0
BLOCK
  5
612
330
45E
100
AcDbEntity
  8
0
100
AcDbBlockBegin
  2
*D8
 70
     1
 10
0.0
 20
0.0
 30
0.0
  3
*D8
  1

  0
LINE
  5
613
330
45E
100
AcDbEntity
  8
0
  6
ByBlock
100
AcDbLine
 10
1430.584622495297
 20
1304.781668734286
 30
0.0
 11
1430.584622495297
 21
1304.781668734286
 31
0.0
  0
LINE
  5
614
330
45E
100
AcDbEntity
  8
0
  6
ByBlock
100
AcDbLine
 10
1430.584622495297
 20
924.7816687342863
 30
0.0
 11
1430.584622495297
 21
924.7816687342863
 31
0.0
  0
LINE
  5
615
330
45E
100
AcDbEntity
  8
0
  6
ByBlock
100
AcDbLine
 10
1440.584622495297
 20
1284.781668734286
 30
0.0
 11
1440.584622495297
 21
944.7816687342863
 31
0.0
  0
SOLID
  5
616
330
45E
100
AcDbEntity
  8
0
  6
ByBlock
100
AcDbTrace
 10
1437.251289161963
 20
1284.781668734286
 30
0.0
 11
1443.91795582863
 21
1284.781668734286
 31
0.0
 12
1440.584622495297
 22
1304.781668734286
 32
0.0
 13
1440.584622495297
 23
1304.781668734286
 33
0.0
  0
SOLID
  5
617
330
45E
100
AcDbEntity
  8
0
  6
ByBlock
100
AcDbTrace
 10
1437.251289161963
 20
944.7816687342863
 30
0.0
 11
1443.91795582863
 21
944.7816687342863
 31
0.0
 12
1440.584622495297
 22
924.7816687342863
 32
0.0
 13
1440.584622495297
 23
924.7816687342863
 33
0.0
  0
MTEXT
  5
618
330
45E
100
AcDbEntity
  8
0
  6
ByBlock
100
AcDbMText
 10
1413.584622495297
 20
1114.781668734286
 30
0.0
 40
30.0
 41
0.0
 71
     5
 72
     5
  1
\A1;380
  7
EXT08
 11
0.0
 21
1.0
 31
0.0
 73
     1
 44
1.0
  0
POINT
  5
619
330
45E
100
AcDbEntity
  8
DEFPOINTS
  6
ByBlock
 62
     0
100
AcDbPoint
 10
1440.584622495297
 20
1304.781668734286
 30
0.0
  0
POINT
  5
61A
330
45E
100
AcDbEntity
  8
DEFPOINTS
  6
ByBlock
 62
     0
100
AcDbPoint
 10
1440.584622495297
 20
924.7816687342863
 30
0.0
  0
POINT
  5
61B
330
45E
100
AcDbEntity
  8
DEFPOINTS
  6
ByBlock
 62
     0
100
AcDbPoint
 10
1440.584622495297
 20
924.7816687342863
 30
0.0
  0
ENDBLK
  5
61C
330
45E
100
AcDbEntity
  8
0
100
AcDbBlockEnd
  0
BLOCK
  5
5FC
330
550
100
AcDbEntity
  8
0
100
AcDbBlockBegin
  2
*D9
 70
     1
 10
0.0
 20
0.0
 30
0.0
  3
*D9
  1

  0
LINE
  5
5FD
330
550
100
AcDbEntity
  8
0
  6
ByBlock
100
AcDbLine
 10
1529.009622495297
 20
624.7816687342862
 30
0.0
 11
1681.779932720539
 21
624.7816687342862
 31
0.0
  0
LINE
  5
5FE
330
550
100
AcDbEntity
  8
0
  6
ByBlock
100
AcDbLine
 10
1614.009622495297
 20
924.7816687342863
 30
0.0
 11
1681.779932720539
 21
924.7816687342863
 31
0.0
  0
LINE
  5
5FF
330
550
100
AcDbEntity
  8
0
  6
ByBlock
100
AcDbLine
 10
1671.779932720539
 20
644.7816687342863
 30
0.0
 11
1671.779932720539
 21
904.7816687342862
 31
0.0
  0
SOLID
  5
600
330
550
100
AcDbEntity
  8
0
  6
ByBlock
100
AcDbTrace
 10
1668.446599387205
 20
644.7816687342863
 30
0.0
 11
1675.113266053872
 21
644.7816687342863
 31
0.0
 12
1671.779932720539
 22
624.7816687342862
 32
0.0
 13
1671.779932720539
 23
624.7816687342862
 33
0.0
  0
SOLID
  5
601
330
550
100
AcDbEntity
  8
0
  6
ByBlock
100
AcDbTrace
 10
1668.446599387205
 20
904.7816687342862
 30
0.0
 11
1675.113266053872
 21
904.7816687342862
 31
0.0
 12
1671.779932720539
 22
924.7816687342863
 32
0.0
 13
1671.779932720539
 23
924.7816687342863
 33
0.0
  0
MTEXT
  5
602
330
550
100
AcDbEntity
  8
0
  6
ByBlock
100
AcDbMText
 10
1644.779932720538
 20
774.7816687342862
 30
0.0
 40
30.0
 41
0.0
 71
     5
 72
     5
  1
\A1;300
  7
EXT08
 11
0.0
 21
1.0
 31
0.0
 73
     1
 44
1.0
  0
POINT
  5
603
330
550
100
AcDbEntity
  8
DEFPOINTS
  6
ByBlock
 62
     0
100
AcDbPoint
 10
1519.009622495297
 20
624.7816687342862
 30
0.0
  0
POINT
  5
604
330
550
100
AcDbEntity
  8
DEFPOINTS
  6
ByBlock
 62
     0
100
AcDbPoint
 10
1604.009622495297
 20
924.7816687342863
 30
0.0
  0
POINT
  5
605
330
550
100
AcDbEntity
  8
DEFPOINTS
  6
ByBlock
 62
     0
100
AcDbPoint
 10
1671.779932720539
 20
924.7816687342863
 30
0.0
  0
ENDBLK
  5
606
330
550
100
AcDbEntity
  8
0
100
AcDbBlockEnd
  0
BLOCK
  5
772
330
771
100
AcDbEntity
  8
0
100
AcDbBlockBegin
  2
*X10
 70
     1
 10
0.0
 20
0.0
 30
0.0
  3
*X10
  1

  0
LINE
  5
774
330
771
100
AcDbEntity
  8
0
 62
     0
100
AcDbLine
 10
2057.746314297103
 20
1364.781668734286
 30
0.0
 11
2087.746314297103
 21
1394.781668734287
 31
0.0
  0
LINE
  5
775
330
771
100
AcDbEntity
  8
0
 62
     0
100
AcDbLine
 10
2057.276852526477
 20
1371.383274775526
 30
0.0
 11
2080.675246485238
 21
1394.781668734287
 31
0.0
  0
LINE
  5
776
330
771
100
AcDbEntity
  8
0
 62
     0
100
AcDbLine
 10
2057.276852526477
 20
1378.454342587392
 30
0.0
 11
2073.604178673372
 21
1394.781668734287
 31
0.0
  0
LINE
  5
777
330
771
100
AcDbEntity
  8
0
 62
     0
100
AcDbLine
 10
2057.276852526477
 20
1385.525410399257
 30
0.0
 11
2066.533110861508
 21
1394.781668734287
 31
0.0
  0
LINE
  5
778
330
771
100
AcDbEntity
  8
0
 62
     0
100
AcDbLine
 10
2057.276852526477
 20
1392.596478211122
 30
0.0
 11
2059.462043049641
 21
1394.781668734287
 31
0.0
  0
LINE
  5
779
330
771
100
AcDbEntity
  8
0
 62
     0
100
AcDbLine
 10
2064.817382108969
 20
1364.781668734286
 30
0.0
 11
2094.817382108969
 21
1394.781668734287
 31
0.0
  0
LINE
  5
77A
330
771
100
AcDbEntity
  8
0
 62
     0
100
AcDbLine
 10
2071.888449920834
 20
1364.781668734286
 30
0.0
 11
2095.426852526478
 21
1388.32007133993
 31
0.0
  0
LINE
  5
77B
330
771
100
AcDbEntity
  8
0
 62
     0
100
AcDbLine
 10
2078.959517732699
 20
1364.781668734286
 30
0.0
 11
2095.426852526478
 21
1381.249003528065
 31
0.0
  0
LINE
  5
77C
330
771
100
AcDbEntity
  8
0
 62
     0
100
AcDbLine
 10
2086.030585544564
 20
1364.781668734286
 30
0.0
 11
2095.426852526478
 21
1374.177935716199
 31
0.0
  0
LINE
  5
77D
330
771
100
AcDbEntity
  8
0
 62
     0
100
AcDbLine
 10
2093.101653356431
 20
1364.781668734286
 30
0.0
 11
2095.426852526478
 21
1367.106867904334
 31
0.0
  0
LINE
  5
77E
330
771
100
AcDbEntity
  8
0
 62
     0
100
AcDbLine
 10
2085.899423456065
 20
1364.781668734286
 30
0.0
 11
2057.276852526477
 21
1393.404239663874
 31
0.0
  0
LINE
  5
77F
330
771
100
AcDbEntity
  8
0
 62
     0
100
AcDbLine
 10
2078.828355644199
 20
1364.781668734286
 30
0.0
 11
2057.276852526477
 21
1386.333171852008
 31
0.0
  0
LINE
  5
780
330
771
100
AcDbEntity
  8
0
 62
     0
100
AcDbLine
 10
2071.757287832335
 20
1364.781668734286
 30
0.0
 11
2057.276852526477
 21
1379.262104040143
 31
0.0
  0
LINE
  5
781
330
771
100
AcDbEntity
  8
0
 62
     0
100
AcDbLine
 10
2064.686220020469
 20
1364.781668734286
 30
0.0
 11
2057.276852526477
 21
1372.191036228278
 31
0.0
  0
LINE
  5
782
330
771
100
AcDbEntity
  8
0
 62
     0
100
AcDbLine
 10
2057.615152208603
 20
1364.781668734286
 30
0.0
 11
2057.276852526477
 21
1365.119968416413
 31
0.0
  0
LINE
  5
783
330
771
100
AcDbEntity
  8
0
 62
     0
100
AcDbLine
 10
2092.970491267931
 20
1364.781668734286
 30
0.0
 11
2062.970491267931
 21
1394.781668734287
 31
0.0
  0
LINE
  5
784
330
771
100
AcDbEntity
  8
0
 62
     0
100
AcDbLine
 10
2095.426852526478
 20
1369.396375287605
 30
0.0
 11
2070.041559079796
 21
1394.781668734286
 31
0.0
  0
LINE
  5
785
330
771
100
AcDbEntity
  8
0
 62
     0
100
AcDbLine
 10
2095.426852526478
 20
1376.46744309947
 30
0.0
 11
2077.112626891661
 21
1394.781668734286
 31
0.0
  0
LINE
  5
786
330
771
100
AcDbEntity
  8
0
 62
     0
100
AcDbLine
 10
2095.426852526478
 20
1383.538510911336
 30
0.0
 11
2084.183694703527
 21
1394.781668734286
 31
0.0
  0
LINE
  5
787
330
771
100
AcDbEntity
  8
0
 62
     0
100
AcDbLine
 10
2095.426852526478
 20
1390.609578723201
 30
0.0
 11
2091.254762515393
 21
1394.781668734286
 31
0.0
  0
ENDBLK
  5
788
330
771
100
AcDbEntity
  8
0
100
AcDbBlockEnd
  0
BLOCK
  5
7A8
330
7A7
100
AcDbEntity
  8
0
100
AcDbBlockBegin
  2
*X11
 70
     1
 10
0.0
 20
0.0
 30
0.0
  3
*X11
  1

  0
LINE
  5
7AA
330
7A7
100
AcDbEntity
  8
0
 62
     0
100
AcDbLine
 10
2057.276852526477
 20
1314.814732280602
 30
0.0
 11
2077.243788980161
 21
1334.781668734286
 31
0.0
  0
LINE
  5
7AB
330
7A7
100
AcDbEntity
  8
0
 62
     0
100
AcDbLine
 10
2107.243788980161
 20
1364.781668734286
 30
0.0
 11
2133.576852526477
 21
1391.114732280603
 31
0.0
  0
LINE
  5
7AC
330
7A7
100
AcDbEntity
  8
0
 62
     0
100
AcDbLine
 10
2057.276852526477
 20
1321.885800092468
 30
0.0
 11
2070.172721168296
 21
1334.781668734286
 31
0.0
  0
LINE
  5
7AD
330
7A7
100
AcDbEntity
  8
0
 62
     0
100
AcDbLine
 10
2100.172721168295
 20
1364.781668734286
 30
0.0
 11
2130.172721168296
 21
1394.781668734287
 31
0.0
  0
LINE
  5
7AE
330
7A7
100
AcDbEntity
  8
0
 62
     0
100
AcDbLine
 10
2057.276852526477
 20
1328.956867904333
 30
0.0
 11
2063.10165335643
 21
1334.781668734286
 31
0.0
  0
LINE
  5
7AF
330
7A7
100
AcDbEntity
  8
0
 62
     0
100
AcDbLine
 10
2095.426852526478
 20
1367.106867904333
 30
0.0
 11
2123.101653356431
 21
1394.781668734287
 31
0.0
  0
LINE
  5
7B0
330
7A7
100
AcDbEntity
  8
0
 62
     0
100
AcDbLine
 10
2095.426852526478
 20
1374.177935716199
 30
0.0
 11
2116.030585544565
 21
1394.781668734287
 31
0.0
  0
LINE
  5
7B1
330
7A7
100
AcDbEntity
  8
0
 62
     0
100
AcDbLine
 10
2095.426852526478
 20
1381.249003528064
 30
0.0
 11
2108.959517732699
 21
1394.781668734287
 31
0.0
  0
LINE
  5
7B2
330
7A7
100
AcDbEntity
  8
0
 62
     0
100
AcDbLine
 10
2095.426852526478
 20
1388.32007133993
 30
0.0
 11
2101.888449920834
 21
1394.781668734287
 31
0.0
  0
LINE
  5
7B3
330
7A7
100
AcDbEntity
  8
0
 62
     0
100
AcDbLine
 10
2057.276852526477
 20
1307.743664468737
 30
0.0
 11
2084.314856792027
 21
1334.781668734286
 31
0.0
  0
LINE
  5
7B4
330
7A7
100
AcDbEntity
  8
0
 62
     0
100
AcDbLine
 10
2114.314856792026
 20
1364.781668734286
 30
0.0
 11
2133.576852526477
 21
1384.043664468737
 31
0.0
  0
LINE
  5
7B5
330
7A7
100
AcDbEntity
  8
0
 62
     0
100
AcDbLine
 10
2061.385924603891
 20
1304.781668734286
 30
0.0
 11
2091.385924603892
 21
1334.781668734286
 31
0.0
  0
LINE
  5
7B6
330
7A7
100
AcDbEntity
  8
0
 62
     0
100
AcDbLine
 10
2121.385924603892
 20
1364.781668734286
 30
0.0
 11
2133.576852526477
 21
1376.972596656871
 31
0.0
  0
LINE
  5
7B7
330
7A7
100
AcDbEntity
  8
0
 62
     0
100
AcDbLine
 10
2068.456992415757
 20
1304.781668734286
 30
0.0
 11
2095.426852526478
 21
1331.751528845006
 31
0.0
  0
LINE
  5
7B8
330
7A7
100
AcDbEntity
  8
0
 62
     0
100
AcDbLine
 10
2128.456992415757
 20
1364.781668734286
 30
0.0
 11
2133.576852526477
 21
1369.901528845006
 31
0.0
  0
LINE
  5
7B9
330
7A7
100
AcDbEntity
  8
0
 62
     0
100
AcDbLine
 10
2095.426852526478
 20
1331.751528845006
 30
0.0
 11
2098.456992415758
 21
1334.781668734286
 31
0.0
  0
LINE
  5
7BA
330
7A7
100
AcDbEntity
  8
0
 62
     0
100
AcDbLine
 10
2075.528060227623
 20
1304.781668734286
 30
0.0
 11
2095.426852526478
 21
1324.680461033141
 31
0.0
  0
LINE
  5
7BB
330
7A7
100
AcDbEntity
  8
0
 62
     0
100
AcDbLine
 10
2095.426852526478
 20
1324.680461033141
 30
0.0
 11
2105.528060227623
 21
1334.781668734286
 31
0.0
  0
LINE
  5
7BC
330
7A7
100
AcDbEntity
  8
0
 62
     0
100
AcDbLine
 10
2082.599128039488
 20
1304.781668734286
 30
0.0
 11
2095.426852526478
 21
1317.609393221275
 31
0.0
  0
LINE
  5
7BD
330
7A7
100
AcDbEntity
  8
0
 62
     0
100
AcDbLine
 10
2095.426852526478
 20
1317.609393221275
 30
0.0
 11
2112.599128039489
 21
1334.781668734286
 31
0.0
  0
LINE
  5
7BE
330
7A7
100
AcDbEntity
  8
0
 62
     0
100
AcDbLine
 10
2089.670195851354
 20
1304.781668734286
 30
0.0
 11
2095.426852526478
 21
1310.53832540941
 31
0.0
  0
LINE
  5
7BF
330
7A7
100
AcDbEntity
  8
0
 62
     0
100
AcDbLine
 10
2095.426852526478
 20
1310.53832540941
 30
0.0
 11
2119.670195851355
 21
1334.781668734286
 31
0.0
  0
LINE
  5
7C0
330
7A7
100
AcDbEntity
  8
0
 62
     0
100
AcDbLine
 10
2096.741263663219
 20
1304.781668734286
 30
0.0
 11
2126.74126366322
 21
1334.781668734286
 31
0.0
  0
LINE
  5
7C1
330
7A7
100
AcDbEntity
  8
0
 62
     0
100
AcDbLine
 10
2103.812331475085
 20
1304.781668734286
 30
0.0
 11
2133.576852526478
 21
1334.546189785679
 31
0.0
  0
LINE
  5
7C2
330
7A7
100
AcDbEntity
  8
0
 62
     0
100
AcDbLine
 10
2110.88339928695
 20
1304.781668734286
 30
0.0
 11
2133.576852526478
 21
1327.475121973814
 31
0.0
  0
LINE
  5
7C3
330
7A7
100
AcDbEntity
  8
0
 62
     0
100
AcDbLine
 10
2117.954467098816
 20
1304.781668734286
 30
0.0
 11
2133.576852526478
 21
1320.404054161948
 31
0.0
  0
LINE
  5
7C4
330
7A7
100
AcDbEntity
  8
0
 62
     0
100
AcDbLine
 10
2125.025534910681
 20
1304.781668734286
 30
0.0
 11
2133.576852526478
 21
1313.332986350082
 31
0.0
  0
LINE
  5
7C5
330
7A7
100
AcDbEntity
  8
0
 62
     0
100
AcDbLine
 10
2132.096602722547
 20
1304.781668734286
 30
0.0
 11
2133.576852526477
 21
1306.261918538217
 31
0.0
  0
LINE
  5
7C6
330
7A7
100
AcDbEntity
  8
0
 62
     0
100
AcDbLine
 10
2133.576852526477
 20
1310.033171852008
 30
0.0
 11
2108.8283556442
 21
1334.781668734286
 31
0.0
  0
LINE
  5
7C7
330
7A7
100
AcDbEntity
  8
0
 62
     0
100
AcDbLine
 10
2131.757287832334
 20
1304.781668734286
 30
0.0
 11
2101.757287832334
 21
1334.781668734286
 31
0.0
  0
LINE
  5
7C8
330
7A7
100
AcDbEntity
  8
0
 62
     0
100
AcDbLine
 10
2124.686220020469
 20
1304.781668734286
 30
0.0
 11
2095.426852526478
 21
1334.041036228277
 31
0.0
  0
LINE
  5
7C9
330
7A7
100
AcDbEntity
  8
0
 62
     0
100
AcDbLine
 10
2095.426852526478
 20
1334.041036228278
 30
0.0
 11
2094.686220020469
 21
1334.781668734286
 31
0.0
  0
LINE
  5
7CA
330
7A7
100
AcDbEntity
  8
0
 62
     0
100
AcDbLine
 10
2117.615152208604
 20
1304.781668734286
 30
0.0
 11
2095.426852526478
 21
1326.969968416412
 31
0.0
  0
LINE
  5
7CB
330
7A7
100
AcDbEntity
  8
0
 62
     0
100
AcDbLine
 10
2095.426852526478
 20
1326.969968416412
 30
0.0
 11
2087.615152208604
 21
1334.781668734286
 31
0.0
  0
LINE
  5
7CC
330
7A7
100
AcDbEntity
  8
0
 62
     0
100
AcDbLine
 10
2110.544084396738
 20
1304.781668734286
 30
0.0
 11
2095.426852526478
 21
1319.898900604546
 31
0.0
  0
LINE
  5
7CD
330
7A7
100
AcDbEntity
  8
0
 62
     0
100
AcDbLine
 10
2095.426852526478
 20
1319.898900604547
 30
0.0
 11
2080.544084396738
 21
1334.781668734286
 31
0.0
  0
LINE
  5
7CE
330
7A7
100
AcDbEntity
  8
0
 62
     0
100
AcDbLine
 10
2103.473016584873
 20
1304.781668734286
 30
0.0
 11
2095.426852526478
 21
1312.827832792681
 31
0.0
  0
LINE
  5
7CF
330
7A7
100
AcDbEntity
  8
0
 62
     0
100
AcDbLine
 10
2095.426852526478
 20
1312.827832792681
 30
0.0
 11
2073.473016584872
 21
1334.781668734286
 31
0.0
  0
LINE
  5
7D0
330
7A7
100
AcDbEntity
  8
0
 62
     0
100
AcDbLine
 10
2096.401948773007
 20
1304.781668734286
 30
0.0
 11
2095.426852526478
 21
1305.756764980815
 31
0.0
  0
LINE
  5
7D1
330
7A7
100
AcDbEntity
  8
0
 62
     0
100
AcDbLine
 10
2095.426852526477
 20
1305.756764980816
 30
0.0
 11
2066.401948773007
 21
1334.781668734286
 31
0.0
  0
LINE
  5
7D2
330
7A7
100
AcDbEntity
  8
0
 62
     0
100
AcDbLine
 10
2089.330880961142
 20
1304.781668734286
 30
0.0
 11
2059.330880961142
 21
1334.781668734286
 31
0.0
  0
LINE
  5
7D3
330
7A7
100
AcDbEntity
  8
0
 62
     0
100
AcDbLine
 10
2082.259813149276
 20
1304.781668734286
 30
0.0
 11
2057.276852526477
 21
1329.764629357085
 31
0.0
  0
LINE
  5
7D4
330
7A7
100
AcDbEntity
  8
0
 62
     0
100
AcDbLine
 10
2075.188745337411
 20
1304.781668734286
 30
0.0
 11
2057.276852526477
 21
1322.693561545219
 31
0.0
  0
LINE
  5
7D5
330
7A7
100
AcDbEntity
  8
0
 62
     0
100
AcDbLine
 10
2068.117677525546
 20
1304.781668734286
 30
0.0
 11
2057.276852526477
 21
1315.622493733354
 31
0.0
  0
LINE
  5
7D6
330
7A7
100
AcDbEntity
  8
0
 62
     0
100
AcDbLine
 10
2061.04660971368
 20
1304.781668734286
 30
0.0
 11
2057.276852526477
 21
1308.551425921488
 31
0.0
  0
LINE
  5
7D7
330
7A7
100
AcDbEntity
  8
0
 62
     0
100
AcDbLine
 10
2133.576852526477
 20
1317.104239663873
 30
0.0
 11
2115.899423456065
 21
1334.781668734286
 31
0.0
  0
LINE
  5
7D8
330
7A7
100
AcDbEntity
  8
0
 62
     0
100
AcDbLine
 10
2133.576852526477
 20
1324.175307475739
 30
0.0
 11
2122.97049126793
 21
1334.781668734286
 31
0.0
  0
LINE
  5
7D9
330
7A7
100
AcDbEntity
  8
0
 62
     0
100
AcDbLine
 10
2133.576852526477
 20
1331.246375287604
 30
0.0
 11
2130.041559079796
 21
1334.781668734286
 31
0.0
  0
LINE
  5
7DA
330
7A7
100
AcDbEntity
  8
0
 62
     0
100
AcDbLine
 10
2100.041559079796
 20
1364.781668734286
 30
0.0
 11
2095.426852526478
 21
1369.396375287605
 31
0.0
  0
LINE
  5
7DB
330
7A7
100
AcDbEntity
  8
0
 62
     0
100
AcDbLine
 10
2107.112626891662
 20
1364.781668734286
 30
0.0
 11
2095.426852526478
 21
1376.46744309947
 31
0.0
  0
LINE
  5
7DC
330
7A7
100
AcDbEntity
  8
0
 62
     0
100
AcDbLine
 10
2114.183694703527
 20
1364.781668734286
 30
0.0
 11
2095.426852526478
 21
1383.538510911336
 31
0.0
  0
LINE
  5
7DD
330
7A7
100
AcDbEntity
  8
0
 62
     0
100
AcDbLine
 10
2121.254762515393
 20
1364.781668734286
 30
0.0
 11
2095.426852526478
 21
1390.609578723202
 31
0.0
  0
LINE
  5
7DE
330
7A7
100
AcDbEntity
  8
0
 62
     0
100
AcDbLine
 10
2128.325830327258
 20
1364.781668734286
 30
0.0
 11
2098.325830327258
 21
1394.781668734287
 31
0.0
  0
LINE
  5
7DF
330
7A7
100
AcDbEntity
  8
0
 62
     0
100
AcDbLine
 10
2133.576852526477
 20
1366.601714346932
 30
0.0
 11
2105.396898139123
 21
1394.781668734287
 31
0.0
  0
LINE
  5
7E0
330
7A7
100
AcDbEntity
  8
0
 62
     0
100
AcDbLine
 10
2133.576852526477
 20
1373.672782158798
 30
0.0
 11
2112.467965950989
 21
1394.781668734287
 31
0.0
  0
LINE
  5
7E1
330
7A7
100
AcDbEntity
  8
0
 62
     0
100
AcDbLine
 10
2133.576852526477
 20
1380.743849970663
 30
0.0
 11
2119.539033762854
 21
1394.781668734287
 31
0.0
  0
LINE
  5
7E2
330
7A7
100
AcDbEntity
  8
0
 62
     0
100
AcDbLine
 10
2133.576852526477
 20
1387.814917782528
 30
0.0
 11
2126.61010157472
 21
1394.781668734287
 31
0.0
  0
ENDBLK
  5
7E3
330
7A7
100
AcDbEntity
  8
0
100
AcDbBlockEnd
  0
BLOCK
  5
7F2
330
7F1
100
AcDbEntity
  8
0
100
AcDbBlockBegin
  2
*X12
 70
     1
 10
0.0
 20
0.0
 30
0.0
  3
*X12
  1

  0
LINE
  5
7F4
330
7F1
100
AcDbEntity
  8
0
 62
     0
100
AcDbLine
 10
1940.426852526477
 20
702.9899854500192
 30
0.0
 11
2057.276852526477
 21
819.8399854500193
 31
0.0
  0
LINE
  5
7F5
330
7F1
100
AcDbEntity
  8
0
 62
     0
100
AcDbLine
 10
2133.576852526477
 20
896.1399854500195
 30
0.0
 11
2162.218535810744
 21
924.781668734286
 31
0.0
  0
LINE
  5
7F6
330
7F1
100
AcDbEntity
  8
0
 62
     0
100
AcDbLine
 10
1940.426852526477
 20
879.766680746656
 30
0.0
 11
1985.441840514107
 21
924.781668734286
 31
0.0
  0
LINE
  5
7F7
330
7F1
100
AcDbEntity
  8
0
 62
     0
100
AcDbLine
 10
2038.995231107381
 20
624.7816687342861
 30
0.0
 11
2057.276852526477
 21
643.0632901533824
 31
0.0
  0
LINE
  5
7F8
330
7F1
100
AcDbEntity
  8
0
 62
     0
100
AcDbLine
 10
2133.576852526477
 20
719.3632901533826
 30
0.0
 11
2250.426852526477
 21
836.2132901533826
 31
0.0
  0
LINE
  5
7F9
330
7F1
100
AcDbEntity
  8
0
 62
     0
100
AcDbLine
 10
2215.771926404018
 20
624.7816687342861
 30
0.0
 11
2250.426852526477
 21
659.4365948567456
 31
0.0
  0
LINE
  5
7FA
330
7F1
100
AcDbEntity
  8
0
 62
     0
100
AcDbLine
 10
1940.426852526477
 20
725.0870723620989
 30
0.0
 11
2057.276852526477
 21
841.9370723620993
 31
0.0
  0
LINE
  5
7FB
330
7F1
100
AcDbEntity
  8
0
 62
     0
100
AcDbLine
 10
2133.576852526477
 20
918.2370723620994
 30
0.0
 11
2140.121448898664
 21
924.7816687342863
 31
0.0
  0
LINE
  5
7FC
330
7F1
100
AcDbEntity
  8
0
 62
     0
100
AcDbLine
 10
1940.426852526477
 20
901.8637676587356
 30
0.0
 11
1963.344753602028
 21
924.781668734286
 31
0.0
  0
LINE
  5
7FD
330
7F1
100
AcDbEntity
  8
0
 62
     0
100
AcDbLine
 10
2016.898144195301
 20
624.7816687342861
 30
0.0
 11
2057.276852526477
 21
665.160377065462
 31
0.0
  0
LINE
  5
7FE
330
7F1
100
AcDbEntity
  8
0
 62
     0
100
AcDbLine
 10
2133.576852526477
 20
741.4603770654622
 30
0.0
 11
2250.426852526477
 21
858.3103770654622
 31
0.0
  0
LINE
  5
7FF
330
7F1
100
AcDbEntity
  8
0
 62
     0
100
AcDbLine
 10
2193.674839491938
 20
624.7816687342861
 30
0.0
 11
2250.426852526477
 21
681.5336817688252
 31
0.0
  0
LINE
  5
800
330
7F1
100
AcDbEntity
  8
0
 62
     0
100
AcDbLine
 10
1940.426852526477
 20
747.1841592741784
 30
0.0
 11
2057.276852526477
 21
864.0341592741785
 31
0.0
  0
LINE
  5
801
330
7F1
100
AcDbEntity
  8
0
 62
     0
100
AcDbLine
 10
1940.426852526477
 20
923.9608545708151
 30
0.0
 11
1941.247666689948
 21
924.781668734286
 31
0.0
  0
LINE
  5
802
330
7F1
100
AcDbEntity
  8
0
 62
     0
100
AcDbLine
 10
1994.801057283222
 20
624.7816687342861
 30
0.0
 11
2057.276852526477
 21
687.2574639775416
 31
0.0
  0
LINE
  5
803
330
7F1
100
AcDbEntity
  8
0
 62
     0
100
AcDbLine
 10
2133.576852526477
 20
763.5574639775419
 30
0.0
 11
2250.426852526477
 21
880.4074639775418
 31
0.0
  0
LINE
  5
804
330
7F1
100
AcDbEntity
  8
0
 62
     0
100
AcDbLine
 10
2171.577752579858
 20
624.7816687342861
 30
0.0
 11
2250.426852526477
 21
703.6307686809049
 31
0.0
  0
ENDBLK
  5
805
330
7F1
100
AcDbEntity
  8
0
100
AcDbBlockEnd
  0
ENDSEC
  0
SECTION
  2
ENTITIES
  0
LINE
  5
188
330
18
100
AcDbEntity
  8
SJC
100
AcDbLine
 10
1362.061393678351
 20
1394.781668734286
 30
0.0
 11
1285.732758652573
 21
1394.781668734286
 31
0.0
  0
LINE
  5
189
330
18
100
AcDbEntity
  8
SJC
100
AcDbLine
 10
1362.159622495297
 20
1334.781668734286
 30
0.0
 11
1285.859622495297
 21
1334.781668734286
 31
0.0
  0
LINE
  5
18A
330
18
100
AcDbEntity
  8
SJC
100
AcDbLine
 10
1362.159622495297
 20
1304.781668734286
 30
0.0
 11
1285.859622495297
 21
1304.781668734286
 31
0.0
  0
LINE
  5
18B
330
18
100
AcDbEntity
  8
SJC
100
AcDbLine
 10
1362.159622495297
 20
1364.781668734286
 30
0.0
 11
1285.859622495297
 21
1364.781668734286
 31
0.0
  0
ARC
  5
196
330
18
100
AcDbEntity
  8
CENTER
100
AcDbCircle
 10
1024.009622495297
 20
1386.631668734286
 30
0.0
 40
300.0000000000004
100
AcDbArc
 50
0.0000000000000434
 51
89.99999999999991
  0
LWPOLYLINE
  5
197
330
18
100
AcDbEntity
  8
SJC
100
AcDbPolyline
 90
        2
 70
     0
 43
0.0
 10
1362.159622495297
 20
1386.631668734286
 42
0.4142135623730937
 10
1024.009622495297
 20
1724.781668734286
 42
0.4142135623730952
  0
LWPOLYLINE
  5
19B
330
18
100
AcDbEntity
  8
SJC
100
AcDbPolyline
 90
        2
 70
     0
 43
0.0
 10
1285.859622495297
 20
1386.631668734286
 42
0.4142135623730949
 10
1024.009622495297
 20
1648.481668734286
 42
0.4142135623730949
  0
LINE
  5
19F
330
18
100
AcDbEntity
  8
SJC
100
AcDbLine
 10
519.0096224952972
 20
624.7816687342862
 30
0.0
 11
1519.009622495297
 21
624.7816687342862
 31
0.0
1001
ACAD
1000
ASC_BOUNDS
1002
{
1070
    19
1002
}
  0
LINE
  5
1A0
330
18
100
AcDbEntity
  8
SJC
100
AcDbLine
 10
404.0096224952976
 20
924.7816687342863
 30
0.0
 11
675.8596224952971
 21
924.7816687342863
 31
0.0
1001
ACAD
1000
ASC_BOUNDS
1002
{
1070
    19
1002
}
  0
LINE
  5
1A1
330
18
100
AcDbEntity
  8
SJC
100
AcDbLine
 10
519.0096224952972
 20
574.7816687342862
 30
0.0
 11
1519.009622495297
 21
574.7816687342862
 31
0.0
  0
LINE
  5
1A2
330
18
100
AcDbEntity
  8
SJC
100
AcDbLine
 10
1285.859622495297
 20
624.7816687342862
 30
0.0
 11
1285.859622495297
 21
1386.631668734286
 31
0.0
1001
ACAD
1000
ASC_BOUNDS
1002
{
1070
    19
1002
}
  0
LINE
  5
1A4
330
18
100
AcDbEntity
  8
CENTER
100
AcDbLine
 10
714.0096224952972
 20
599.7816687342862
 30
0.0
 11
714.0096224952972
 21
1386.631668734286
 31
0.0
  0
LINE
  5
1A5
330
18
100
AcDbEntity
  8
SJC
100
AcDbLine
 10
675.8596224952971
 20
624.7816687342862
 30
0.0
 11
675.8596224952971
 21
1386.631668734286
 31
0.0
1001
ACAD
1000
ASC_BOUNDS
1002
{
1070
    19
1002
}
  0
LINE
  5
1A6
330
18
100
AcDbEntity
  8
SJC
100
AcDbLine
 10
752.1596224952973
 20
624.7816687342862
 30
0.0
 11
752.1596224952973
 21
1386.631668734286
 31
0.0
1001
ACAD
1000
ASC_BOUNDS
1002
{
1070
    19
1002
}
  0
POLYLINE
  5
1A7
330
18
100
AcDbEntity
  8
HATCH
100
AcDb2dPolyline
 66
     1
 10
0.0
 20
0.0
 30
0.0
 70
     3
  0
VERTEX
  5
1A8
330
1A7
100
AcDbEntity
  8
HATCH
100
AcDbVertex
100
AcDb2dVertex
 10
606.0096224952972
 20
599.7816687342862
 30
0.0
 42
-0.1321573863745694
  0
VERTEX
  5
1A9
330
1A7
100
AcDbEntity
  8
HATCH
100
AcDbVertex
100
AcDb2dVertex
 10
611.3092764786788
 20
619.4820147509046
 30
0.0
 42
-0.2674173791456541
 70
     1
  0
VERTEX
  5
1AA
330
1A7
100
AcDbEntity
  8
HATCH
100
AcDbVertex
100
AcDb2dVertex
 10
620.5096224952971
 20
624.7816687342862
 30
0.0
 42
-0.2674173791456531
  0
VERTEX
  5
1AB
330
1A7
100
AcDbEntity
  8
HATCH
100
AcDbVertex
100
AcDb2dVertex
 10
629.7099685119156
 20
619.4820147509046
 30
0.0
 42
-0.1321573863745705
 70
     1
  0
VERTEX
  5
1AC
330
1A7
100
AcDbEntity
  8
HATCH
100
AcDbVertex
100
AcDb2dVertex
 10
635.0096224952972
 20
599.7816687342862
 30
0.0
 42
-0.1321573863745684
  0
VERTEX
  5
1AD
330
1A7
100
AcDbEntity
  8
HATCH
100
AcDbVertex
100
AcDb2dVertex
 10
629.7099685119156
 20
580.0813227176679
 30
0.0
 42
-0.2674173791456551
 70
     1
  0
VERTEX
  5
1AE
330
1A7
100
AcDbEntity
  8
HATCH
100
AcDbVertex
100
AcDb2dVertex
 10
620.5096224952971
 20
574.7816687342862
 30
0.0
 42
-0.2674173791456566
  0
VERTEX
  5
1AF
330
1A7
100
AcDbEntity
  8
HATCH
100
AcDbVertex
100
AcDb2dVertex
 10
611.3092764786788
 20
580.0813227176679
 30
0.0
 42
-0.1321573863745698
 70
     1
  0
SEQEND
  5
1B0
330
1A7
100
AcDbEntity
  8
HATCH
  0
LINE
  5
1B1
330
18
100
AcDbEntity
  8
SJC
100
AcDbLine
 10
519.0096224952972
 20
574.7816687342862
 30
0.0
 11
519.0096224952972
 21
924.7816687342863
 31
0.0
1001
ACAD
1000
ASC_BOUNDS
1002
{
1070
    19
1002
}
  0
POLYLINE
  5
1B2
330
18
100
AcDbEntity
  8
HATCH
100
AcDb2dPolyline
 66
     1
 10
0.0
 20
0.0
 30
0.0
 70
     3
  0
VERTEX
  5
1B3
330
1B2
100
AcDbEntity
  8
HATCH
100
AcDbVertex
100
AcDb2dVertex
 10
519.0096224952972
 20
599.7816687342862
 30
0.0
 42
-0.1321573863745694
  0
VERTEX
  5
1B4
330
1B2
100
AcDbEntity
  8
HATCH
100
AcDbVertex
100
AcDb2dVertex
 10
524.3092764786788
 20
619.4820147509046
 30
0.0
 42
-0.2674173791456541
 70
     1
  0
VERTEX
  5
1B5
330
1B2
100
AcDbEntity
  8
HATCH
100
AcDbVertex
100
AcDb2dVertex
 10
533.5096224952971
 20
624.7816687342862
 30
0.0
 42
-0.2674173791456531
  0
VERTEX
  5
1B6
330
1B2
100
AcDbEntity
  8
HATCH
100
AcDbVertex
100
AcDb2dVertex
 10
542.7099685119156
 20
619.4820147509046
 30
0.0
 42
-0.1321573863745705
 70
     1
  0
VERTEX
  5
1B7
330
1B2
100
AcDbEntity
  8
HATCH
100
AcDbVertex
100
AcDb2dVertex
 10
548.0096224952972
 20
599.7816687342862
 30
0.0
 42
-0.1321573863745684
  0
VERTEX
  5
1B8
330
1B2
100
AcDbEntity
  8
HATCH
100
AcDbVertex
100
AcDb2dVertex
 10
542.7099685119156
 20
580.0813227176679
 30
0.0
 42
-0.2674173791456551
 70
     1
  0
VERTEX
  5
1B9
330
1B2
100
AcDbEntity
  8
HATCH
100
AcDbVertex
100
AcDb2dVertex
 10
533.5096224952971
 20
574.7816687342862
 30
0.0
 42
-0.2674173791456566
  0
VERTEX
  5
1BA
330
1B2
100
AcDbEntity
  8
HATCH
100
AcDbVertex
100
AcDb2dVertex
 10
524.3092764786788
 20
580.0813227176679
 30
0.0
 42
-0.1321573863745698
 70
     1
  0
SEQEND
  5
1BB
330
1B2
100
AcDbEntity
  8
HATCH
  0
POLYLINE
  5
1BC
330
18
100
AcDbEntity
  8
HATCH
100
AcDb2dPolyline
 66
     1
 10
0.0
 20
0.0
 30
0.0
 70
     3
  0
VERTEX
  5
1BD
330
1BC
100
AcDbEntity
  8
HATCH
100
AcDbVertex
100
AcDb2dVertex
 10
577.0096224952972
 20
599.7816687342862
 30
0.0
 42
-0.1321573863745694
  0
VERTEX
  5
1BE
330
1BC
100
AcDbEntity
  8
HATCH
100
AcDbVertex
100
AcDb2dVertex
 10
582.3092764786788
 20
619.4820147509046
 30
0.0
 42
-0.2674173791456541
 70
     1
  0
VERTEX
  5
1BF
330
1BC
100
AcDbEntity
  8
HATCH
100
AcDbVertex
100
AcDb2dVertex
 10
591.5096224952971
 20
624.7816687342862
 30
0.0
 42
-0.2674173791456531
  0
VERTEX
  5
1C0
330
1BC
100
AcDbEntity
  8
HATCH
100
AcDbVertex
100
AcDb2dVertex
 10
600.7099685119156
 20
619.4820147509046
 30
0.0
 42
-0.1321573863745705
 70
     1
  0
VERTEX
  5
1C1
330
1BC
100
AcDbEntity
  8
HATCH
100
AcDbVertex
100
AcDb2dVertex
 10
606.0096224952972
 20
599.7816687342862
 30
0.0
 42
-0.1321573863745684
  0
VERTEX
  5
1C2
330
1BC
100
AcDbEntity
  8
HATCH
100
AcDbVertex
100
AcDb2dVertex
 10
600.7099685119156
 20
580.0813227176679
 30
0.0
 42
-0.2674173791456551
 70
     1
  0
VERTEX
  5
1C3
330
1BC
100
AcDbEntity
  8
HATCH
100
AcDbVertex
100
AcDb2dVertex
 10
591.5096224952971
 20
574.7816687342862
 30
0.0
 42
-0.2674173791456566
  0
VERTEX
  5
1C4
330
1BC
100
AcDbEntity
  8
HATCH
100
AcDbVertex
100
AcDb2dVertex
 10
582.3092764786788
 20
580.0813227176679
 30
0.0
 42
-0.1321573863745698
 70
     1
  0
SEQEND
  5
1C5
330
1BC
100
AcDbEntity
  8
HATCH
  0
POLYLINE
  5
1C6
330
18
100
AcDbEntity
  8
HATCH
100
AcDb2dPolyline
 66
     1
 10
0.0
 20
0.0
 30
0.0
 70
     3
  0
VERTEX
  5
1C7
330
1C6
100
AcDbEntity
  8
HATCH
100
AcDbVertex
100
AcDb2dVertex
 10
548.0096224952972
 20
599.7816687342862
 30
0.0
 42
-0.1321573863745694
  0
VERTEX
  5
1C8
330
1C6
100
AcDbEntity
  8
HATCH
100
AcDbVertex
100
AcDb2dVertex
 10
553.3092764786788
 20
619.4820147509046
 30
0.0
 42
-0.2674173791456541
 70
     1
  0
VERTEX
  5
1C9
330
1C6
100
AcDbEntity
  8
HATCH
100
AcDbVertex
100
AcDb2dVertex
 10
562.5096224952971
 20
624.7816687342862
 30
0.0
 42
-0.2674173791456531
  0
VERTEX
  5
1CA
330
1C6
100
AcDbEntity
  8
HATCH
100
AcDbVertex
100
AcDb2dVertex
 10
571.7099685119156
 20
619.4820147509046
 30
0.0
 42
-0.1321573863745705
 70
     1
  0
VERTEX
  5
1CB
330
1C6
100
AcDbEntity
  8
HATCH
100
AcDbVertex
100
AcDb2dVertex
 10
577.0096224952972
 20
599.7816687342862
 30
0.0
 42
-0.1321573863745684
  0
VERTEX
  5
1CC
330
1C6
100
AcDbEntity
  8
HATCH
100
AcDbVertex
100
AcDb2dVertex
 10
571.7099685119156
 20
580.0813227176679
 30
0.0
 42
-0.2674173791456551
 70
     1
  0
VERTEX
  5
1CD
330
1C6
100
AcDbEntity
  8
HATCH
100
AcDbVertex
100
AcDb2dVertex
 10
562.5096224952971
 20
574.7816687342862
 30
0.0
 42
-0.2674173791456566
  0
VERTEX
  5
1CE
330
1C6
100
AcDbEntity
  8
HATCH
100
AcDbVertex
100
AcDb2dVertex
 10
553.3092764786788
 20
580.0813227176679
 30
0.0
 42
-0.1321573863745698
 70
     1
  0
SEQEND
  5
1CF
330
1C6
100
AcDbEntity
  8
HATCH
  0
POLYLINE
  5
1E0
330
18
100
AcDbEntity
  8
HATCH
100
AcDb2dPolyline
 66
     1
 10
0.0
 20
0.0
 30
0.0
 70
     3
  0
VERTEX
  5
1E1
330
1E0
100
AcDbEntity
  8
HATCH
100
AcDbVertex
100
AcDb2dVertex
 10
664.0096224952972
 20
599.7816687342862
 30
0.0
 42
-0.1321573863745694
  0
VERTEX
  5
1E2
330
1E0
100
AcDbEntity
  8
HATCH
100
AcDbVertex
100
AcDb2dVertex
 10
669.3092764786788
 20
619.4820147509046
 30
0.0
 42
-0.2674173791456541
 70
     1
  0
VERTEX
  5
1E3
330
1E0
100
AcDbEntity
  8
HATCH
100
AcDbVertex
100
AcDb2dVertex
 10
678.5096224952972
 20
624.7816687342862
 30
0.0
 42
-0.2674173791456531
  0
VERTEX
  5
1E4
330
1E0
100
AcDbEntity
  8
HATCH
100
AcDbVertex
100
AcDb2dVertex
 10
687.7099685119155
 20
619.4820147509046
 30
0.0
 42
-0.1321573863745705
 70
     1
  0
VERTEX
  5
1E5
330
1E0
100
AcDbEntity
  8
HATCH
100
AcDbVertex
100
AcDb2dVertex
 10
693.0096224952972
 20
599.7816687342862
 30
0.0
 42
-0.1321573863745684
  0
VERTEX
  5
1E6
330
1E0
100
AcDbEntity
  8
HATCH
100
AcDbVertex
100
AcDb2dVertex
 10
687.7099685119155
 20
580.0813227176679
 30
0.0
 42
-0.2674173791456551
 70
     1
  0
VERTEX
  5
1E7
330
1E0
100
AcDbEntity
  8
HATCH
100
AcDbVertex
100
AcDb2dVertex
 10
678.5096224952972
 20
574.7816687342862
 30
0.0
 42
-0.2674173791456566
  0
VERTEX
  5
1E8
330
1E0
100
AcDbEntity
  8
HATCH
100
AcDbVertex
100
AcDb2dVertex
 10
669.3092764786788
 20
580.0813227176679
 30
0.0
 42
-0.1321573863745698
 70
     1
  0
SEQEND
  5
1E9
330
1E0
100
AcDbEntity
  8
HATCH
  0
POLYLINE
  5
1EA
330
18
100
AcDbEntity
  8
HATCH
100
AcDb2dPolyline
 66
     1
 10
0.0
 20
0.0
 30
0.0
 70
     3
  0
VERTEX
  5
1EB
330
1EA
100
AcDbEntity
  8
HATCH
100
AcDbVertex
100
AcDb2dVertex
 10
635.0096224952972
 20
599.7816687342862
 30
0.0
 42
-0.1321573863745694
  0
VERTEX
  5
1EC
330
1EA
100
AcDbEntity
  8
HATCH
100
AcDbVertex
100
AcDb2dVertex
 10
640.3092764786788
 20
619.4820147509046
 30
0.0
 42
-0.2674173791456541
 70
     1
  0
VERTEX
  5
1ED
330
1EA
100
AcDbEntity
  8
HATCH
100
AcDbVertex
100
AcDb2dVertex
 10
649.5096224952972
 20
624.7816687342862
 30
0.0
 42
-0.2674173791456531
  0
VERTEX
  5
1EE
330
1EA
100
AcDbEntity
  8
HATCH
100
AcDbVertex
100
AcDb2dVertex
 10
658.7099685119156
 20
619.4820147509046
 30
0.0
 42
-0.1321573863745705
 70
     1
  0
VERTEX
  5
1EF
330
1EA
100
AcDbEntity
  8
HATCH
100
AcDbVertex
100
AcDb2dVertex
 10
664.0096224952972
 20
599.7816687342862
 30
0.0
 42
-0.1321573863745684
  0
VERTEX
  5
1F0
330
1EA
100
AcDbEntity
  8
HATCH
100
AcDbVertex
100
AcDb2dVertex
 10
658.7099685119156
 20
580.0813227176679
 30
0.0
 42
-0.2674173791456551
 70
     1
  0
VERTEX
  5
1F1
330
1EA
100
AcDbEntity
  8
HATCH
100
AcDbVertex
100
AcDb2dVertex
 10
649.5096224952972
 20
574.7816687342862
 30
0.0
 42
-0.2674173791456566
  0
VERTEX
  5
1F2
330
1EA
100
AcDbEntity
  8
HATCH
100
AcDbVertex
100
AcDb2dVertex
 10
640.3092764786788
 20
580.0813227176679
 30
0.0
 42
-0.1321573863745698
 70
     1
  0
SEQEND
  5
1F3
330
1EA
100
AcDbEntity
  8
HATCH
  0
LWPOLYLINE
  5
1F4
330
18
100
AcDbEntity
  8
HATCH
100
AcDbPolyline
 90
        5
 70
     0
 43
0.0
 10
717.5096224952972
 20
581.5294932407666
 42
-0.0105337566772515
 10
716.7099685119155
 20
580.0813227176679
 42
-0.2674173791456551
 10
707.5096224952972
 20
574.7816687342862
 42
-0.2674173791456566
 10
698.3092764786788
 20
580.0813227176679
 42
-0.1321573863745698
 10
693.0096224952972
 20
599.7816687342862
 42
-0.1321573863745694
  0
LWPOLYLINE
  5
1FB
330
18
100
AcDbEntity
  8
HATCH
100
AcDbPolyline
 90
        5
 70
     0
 43
0.0
 10
693.0096224952972
 20
599.7816687342862
 42
-0.1321573863745694
 10
698.3092764786788
 20
619.4820147509046
 42
-0.2674173791456541
 10
707.5096224952972
 20
624.7816687342862
 42
-0.2674173791456531
 10
716.7099685119155
 20
619.4820147509046
 42
-0.0105337566772499
 10
717.5096224952972
 20
618.0338442278059
 42
-0.1321573863745684
  0
LWPOLYLINE
  5
217
330
18
100
AcDbEntity
  8
SJC
100
AcDbPolyline
 90
        2
 70
     0
 43
0.0
 10
1014.009622495297
 20
1724.781668734286
 42
0.4142135623730952
 10
675.8596224952971
 20
1386.631668734286
 42
0.4142135623730952
  0
LWPOLYLINE
  5
21B
330
18
100
AcDbEntity
  8
CENTER
100
AcDbPolyline
 90
        2
 70
     0
 43
0.0
 10
1014.009622495297
 20
1686.631668734286
 42
0.4142135623730951
 10
714.0096224952972
 20
1386.631668734286
 42
0.4142135623730951
  0
LWPOLYLINE
  5
21F
330
18
100
AcDbEntity
  8
SJC
100
AcDbPolyline
 90
        2
 70
     0
 43
0.0
 10
1014.009622495297
 20
1648.481668734286
 42
0.4142135623730949
 10
752.1596224952973
 20
1386.631668734286
 42
0.4142135623730949
  0
LINE
  5
223
330
18
100
AcDbEntity
  8
SJC
100
AcDbLine
 10
675.8596224952971
 20
1304.781668734286
 30
0.0
 11
752.1596224952973
 21
1304.781668734286
 31
0.0
  0
LINE
  5
224
330
18
100
AcDbEntity
  8
SJC
100
AcDbLine
 10
752.1596224952973
 20
1334.781668734286
 30
0.0
 11
675.8596224952971
 21
1334.781668734286
 31
0.0
  0
LINE
  5
225
330
18
100
AcDbEntity
  8
SJC
100
AcDbLine
 10
675.8596224952971
 20
1364.781668734286
 30
0.0
 11
752.1596224952973
 21
1364.781668734286
 31
0.0
  0
LINE
  5
226
330
18
100
AcDbEntity
  8
SJC
100
AcDbLine
 10
752.2864863380209
 20
1394.781668734286
 30
0.0
 11
675.9578513122432
 21
1394.781668734286
 31
0.0
  0
LINE
  5
227
330
18
100
AcDbEntity
  8
SJC
100
AcDbLine
 10
1014.009622495297
 20
1648.481668734286
 30
0.0
 11
1024.009622495297
 21
1648.481668734286
 31
0.0
  0
LINE
  5
228
330
18
100
AcDbEntity
  8
CENTER
100
AcDbLine
 10
1014.009622495297
 20
1686.631668734286
 30
0.0
 11
1024.009622495297
 21
1686.631668734286
 31
0.0
  0
LINE
  5
229
330
18
100
AcDbEntity
  8
SJC
100
AcDbLine
 10
1014.009622495297
 20
1724.781668734286
 30
0.0
 11
1024.009622495297
 21
1724.781668734286
 31
0.0
  0
LINE
  5
22A
330
18
100
AcDbEntity
  8
CENTER
100
AcDbLine
 10
1324.009622495297
 20
599.7816687342862
 30
0.0
 11
1324.009622495297
 21
1386.631668734286
 31
0.0
  0
LINE
  5
22B
330
18
100
AcDbEntity
  8
SJC
100
AcDbLine
 10
1362.159622495297
 20
624.7816687342862
 30
0.0
 11
1362.159622495297
 21
1386.631668734286
 31
0.0
1001
ACAD
1000
ASC_BOUNDS
1002
{
1070
    19
1002
}
  0
LINE
  5
22C
330
18
100
AcDbEntity
  8
CENTER
100
AcDbLine
 10
2095.426852526478
 20
519.7816687342863
 30
0.0
 11
2095.426852526478
 21
1774.781668734286
 31
0.0
1001
ACAD
1000
ASC_BOUNDS
1002
{
1070
    19
1005
773
1005
7A9
1005
7A9
1005
7A9
1002
}
  0
LINE
  5
22D
330
18
100
AcDbEntity
  8
SJC
100
AcDbLine
 10
2057.276852526477
 20
624.7816687342862
 30
0.0
 11
2057.276852526477
 21
1686.631668734286
 31
0.0
1001
ACAD
1000
ASC_BOUNDS
1002
{
1070
    19
1005
7F3
1005
773
1005
7A9
1002
}
  0
LINE
  5
22E
330
18
100
AcDbEntity
  8
SJC
100
AcDbLine
 10
2133.576852526477
 20
624.7816687342862
 30
0.0
 11
2133.576852526477
 21
1686.631668734286
 31
0.0
1001
ACAD
1000
ASC_BOUNDS
1002
{
1070
    19
1005
7F3
1005
7A9
1005
7A9
1002
}
  0
POLYLINE
  5
22F
330
18
100
AcDbEntity
  8
HATCH
100
AcDb2dPolyline
 66
     1
 10
0.0
 20
0.0
 30
0.0
 70
     3
  0
VERTEX
  5
230
330
22F
100
AcDbEntity
  8
HATCH
100
AcDbVertex
100
AcDb2dVertex
 10
2110.926852526477
 20
574.7816687342862
 30
0.0
 42
-0.2595538891301936
  0
VERTEX
  5
231
330
22F
100
AcDbEntity
  8
HATCH
100
AcDbVertex
100
AcDb2dVertex
 10
2100.969286446395
 20
580.3241026542034
 30
0.0
 42
-0.1396462061370757
 70
     1
  0
VERTEX
  5
232
330
22F
100
AcDbEntity
  8
HATCH
100
AcDbVertex
100
AcDb2dVertex
 10
2095.426852526478
 20
599.7816687342862
 30
0.0
 42
-0.1396462061370706
  0
VERTEX
  5
233
330
22F
100
AcDbEntity
  8
HATCH
100
AcDbVertex
100
AcDb2dVertex
 10
2100.969286446395
 20
619.2392348143691
 30
0.0
 42
-0.2595538891301907
 70
     1
  0
VERTEX
  5
234
330
22F
100
AcDbEntity
  8
HATCH
100
AcDbVertex
100
AcDb2dVertex
 10
2110.926852526477
 20
624.7816687342862
 30
0.0
 42
-0.2595538891301854
  0
VERTEX
  5
235
330
22F
100
AcDbEntity
  8
HATCH
100
AcDbVertex
100
AcDb2dVertex
 10
2120.884418606561
 20
619.2392348143691
 30
0.0
 42
-0.1396462061370651
 70
     1
  0
VERTEX
  5
236
330
22F
100
AcDbEntity
  8
HATCH
100
AcDbVertex
100
AcDb2dVertex
 10
2126.426852526478
 20
599.7816687342862
 30
0.0
 42
-0.1396462061370655
  0
VERTEX
  5
237
330
22F
100
AcDbEntity
  8
HATCH
100
AcDbVertex
100
AcDb2dVertex
 10
2120.884418606561
 20
580.3241026542036
 30
0.0
 42
-0.2595538891301878
 70
     1
  0
SEQEND
  5
238
330
22F
100
AcDbEntity
  8
HATCH
  0
LINE
  5
239
330
18
100
AcDbEntity
  8
SJC
100
AcDbLine
 10
1940.426852526477
 20
624.7816687342862
 30
0.0
 11
2250.426852526477
 21
624.7816687342862
 31
0.0
1001
ACAD
1000
ASC_BOUNDS
1002
{
1070
    19
1005
7F3
1005
0
1005
7F3
1002
}
  0
LINE
  5
23A
330
18
100
AcDbEntity
  8
SJC
100
AcDbLine
 10
1940.426852526477
 20
574.7816687342862
 30
0.0
 11
2250.426852526477
 21
574.7816687342862
 31
0.0
  0
LINE
  5
23B
330
18
100
AcDbEntity
  8
SJC
100
AcDbLine
 10
1940.426852526477
 20
574.7816687342862
 30
0.0
 11
1940.426852526477
 21
924.7816687342863
 31
0.0
1001
ACAD
1000
ASC_BOUNDS
1002
{
1070
    19
1005
7F3
1002
}
  0
LINE
  5
23F
330
18
100
AcDbEntity
  8
SJC
100
AcDbLine
 10
1519.009622495297
 20
574.7816687342862
 30
0.0
 11
1519.009622495297
 21
924.7816687342863
 31
0.0
1001
ACAD
1000
ASC_BOUNDS
1002
{
1070
    19
1002
}
  0
POLYLINE
  5
27C
330
18
100
AcDbEntity
  8
HATCH
100
AcDb2dPolyline
 66
     1
 10
0.0
 20
0.0
 30
0.0
 70
     3
  0
VERTEX
  5
27D
330
27C
100
AcDbEntity
  8
HATCH
100
AcDbVertex
100
AcDb2dVertex
 10
1955.926852526477
 20
574.7816687342862
 30
0.0
 42
-0.2595538891301936
  0
VERTEX
  5
27E
330
27C
100
AcDbEntity
  8
HATCH
100
AcDbVertex
100
AcDb2dVertex
 10
1945.969286446395
 20
580.3241026542034
 30
0.0
 42
-0.1396462061370757
 70
     1
  0
VERTEX
  5
27F
330
27C
100
AcDbEntity
  8
HATCH
100
AcDbVertex
100
AcDb2dVertex
 10
1940.426852526477
 20
599.7816687342862
 30
0.0
 42
-0.1396462061370706
  0
VERTEX
  5
280
330
27C
100
AcDbEntity
  8
HATCH
100
AcDbVertex
100
AcDb2dVertex
 10
1945.969286446394
 20
619.2392348143691
 30
0.0
 42
-0.2595538891301907
 70
     1
  0
VERTEX
  5
281
330
27C
100
AcDbEntity
  8
HATCH
100
AcDbVertex
100
AcDb2dVertex
 10
1955.926852526477
 20
624.7816687342862
 30
0.0
 42
-0.2595538891301854
  0
VERTEX
  5
282
330
27C
100
AcDbEntity
  8
HATCH
100
AcDbVertex
100
AcDb2dVertex
 10
1965.88441860656
 20
619.2392348143691
 30
0.0
 42
-0.1396462061370651
 70
     1
  0
VERTEX
  5
283
330
27C
100
AcDbEntity
  8
HATCH
100
AcDbVertex
100
AcDb2dVertex
 10
1971.426852526477
 20
599.7816687342862
 30
0.0
 42
-0.1396462061370655
  0
VERTEX
  5
284
330
27C
100
AcDbEntity
  8
HATCH
100
AcDbVertex
100
AcDb2dVertex
 10
1965.88441860656
 20
580.3241026542036
 30
0.0
 42
-0.2595538891301878
 70
     1
  0
SEQEND
  5
285
330
27C
100
AcDbEntity
  8
HATCH
  0
POLYLINE
  5
286
330
18
100
AcDbEntity
  8
HATCH
100
AcDb2dPolyline
 66
     1
 10
0.0
 20
0.0
 30
0.0
 70
     3
  0
VERTEX
  5
287
330
286
100
AcDbEntity
  8
HATCH
100
AcDbVertex
100
AcDb2dVertex
 10
2048.926852526477
 20
574.7816687342862
 30
0.0
 42
-0.2595538891301936
  0
VERTEX
  5
288
330
286
100
AcDbEntity
  8
HATCH
100
AcDbVertex
100
AcDb2dVertex
 10
2038.969286446395
 20
580.3241026542034
 30
0.0
 42
-0.1396462061370757
 70
     1
  0
VERTEX
  5
289
330
286
100
AcDbEntity
  8
HATCH
100
AcDbVertex
100
AcDb2dVertex
 10
2033.426852526478
 20
599.7816687342862
 30
0.0
 42
-0.1396462061370706
  0
VERTEX
  5
28A
330
286
100
AcDbEntity
  8
HATCH
100
AcDbVertex
100
AcDb2dVertex
 10
2038.969286446395
 20
619.2392348143691
 30
0.0
 42
-0.2595538891301907
 70
     1
  0
VERTEX
  5
28B
330
286
100
AcDbEntity
  8
HATCH
100
AcDbVertex
100
AcDb2dVertex
 10
2048.926852526477
 20
624.7816687342862
 30
0.0
 42
-0.2595538891301854
  0
VERTEX
  5
28C
330
286
100
AcDbEntity
  8
HATCH
100
AcDbVertex
100
AcDb2dVertex
 10
2058.88441860656
 20
619.2392348143691
 30
0.0
 42
-0.1396462061370651
 70
     1
  0
VERTEX
  5
28D
330
286
100
AcDbEntity
  8
HATCH
100
AcDbVertex
100
AcDb2dVertex
 10
2064.426852526477
 20
599.7816687342862
 30
0.0
 42
-0.1396462061370655
  0
VERTEX
  5
28E
330
286
100
AcDbEntity
  8
HATCH
100
AcDbVertex
100
AcDb2dVertex
 10
2058.88441860656
 20
580.3241026542036
 30
0.0
 42
-0.2595538891301878
 70
     1
  0
SEQEND
  5
28F
330
286
100
AcDbEntity
  8
HATCH
  0
POLYLINE
  5
293
330
18
100
AcDbEntity
  8
HATCH
100
AcDb2dPolyline
 66
     1
 10
0.0
 20
0.0
 30
0.0
 70
     3
  0
VERTEX
  5
294
330
293
100
AcDbEntity
  8
HATCH
100
AcDbVertex
100
AcDb2dVertex
 10
1986.926852526477
 20
574.7816687342862
 30
0.0
 42
-0.2595538891301936
  0
VERTEX
  5
295
330
293
100
AcDbEntity
  8
HATCH
100
AcDbVertex
100
AcDb2dVertex
 10
1976.969286446395
 20
580.3241026542034
 30
0.0
 42
-0.1396462061370757
 70
     1
  0
VERTEX
  5
296
330
293
100
AcDbEntity
  8
HATCH
100
AcDbVertex
100
AcDb2dVertex
 10
1971.426852526477
 20
599.7816687342862
 30
0.0
 42
-0.1396462061370706
  0
VERTEX
  5
297
330
293
100
AcDbEntity
  8
HATCH
100
AcDbVertex
100
AcDb2dVertex
 10
1976.969286446394
 20
619.2392348143691
 30
0.0
 42
-0.2595538891301907
 70
     1
  0
VERTEX
  5
298
330
293
100
AcDbEntity
  8
HATCH
100
AcDbVertex
100
AcDb2dVertex
 10
1986.926852526477
 20
624.7816687342862
 30
0.0
 42
-0.2595538891301854
  0
VERTEX
  5
299
330
293
100
AcDbEntity
  8
HATCH
100
AcDbVertex
100
AcDb2dVertex
 10
1996.88441860656
 20
619.2392348143691
 30
0.0
 42
-0.1396462061370651
 70
     1
  0
VERTEX
  5
29A
330
293
100
AcDbEntity
  8
HATCH
100
AcDbVertex
100
AcDb2dVertex
 10
2002.426852526477
 20
599.7816687342862
 30
0.0
 42
-0.1396462061370655
  0
VERTEX
  5
29B
330
293
100
AcDbEntity
  8
HATCH
100
AcDbVertex
100
AcDb2dVertex
 10
1996.88441860656
 20
580.3241026542036
 30
0.0
 42
-0.2595538891301878
 70
     1
  0
SEQEND
  5
29C
330
293
100
AcDbEntity
  8
HATCH
  0
POLYLINE
  5
29D
330
18
100
AcDbEntity
  8
HATCH
100
AcDb2dPolyline
 66
     1
 10
0.0
 20
0.0
 30
0.0
 70
     3
  0
VERTEX
  5
29E
330
29D
100
AcDbEntity
  8
HATCH
100
AcDbVertex
100
AcDb2dVertex
 10
2017.926852526477
 20
574.7816687342862
 30
0.0
 42
-0.2595538891301936
  0
VERTEX
  5
29F
330
29D
100
AcDbEntity
  8
HATCH
100
AcDbVertex
100
AcDb2dVertex
 10
2007.969286446395
 20
580.3241026542034
 30
0.0
 42
-0.1396462061370757
 70
     1
  0
VERTEX
  5
2A0
330
29D
100
AcDbEntity
  8
HATCH
100
AcDbVertex
100
AcDb2dVertex
 10
2002.426852526477
 20
599.7816687342862
 30
0.0
 42
-0.1396462061370706
  0
VERTEX
  5
2A1
330
29D
100
AcDbEntity
  8
HATCH
100
AcDbVertex
100
AcDb2dVertex
 10
2007.969286446395
 20
619.2392348143691
 30
0.0
 42
-0.2595538891301907
 70
     1
  0
VERTEX
  5
2A2
330
29D
100
AcDbEntity
  8
HATCH
100
AcDbVertex
100
AcDb2dVertex
 10
2017.926852526477
 20
624.7816687342862
 30
0.0
 42
-0.2595538891301854
  0
VERTEX
  5
2A3
330
29D
100
AcDbEntity
  8
HATCH
100
AcDbVertex
100
AcDb2dVertex
 10
2027.884418606561
 20
619.2392348143691
 30
0.0
 42
-0.1396462061370651
 70
     1
  0
VERTEX
  5
2A4
330
29D
100
AcDbEntity
  8
HATCH
100
AcDbVertex
100
AcDb2dVertex
 10
2033.426852526478
 20
599.7816687342862
 30
0.0
 42
-0.1396462061370655
  0
VERTEX
  5
2A5
330
29D
100
AcDbEntity
  8
HATCH
100
AcDbVertex
100
AcDb2dVertex
 10
2027.884418606561
 20
580.3241026542036
 30
0.0
 42
-0.2595538891301878
 70
     1
  0
SEQEND
  5
2A6
330
29D
100
AcDbEntity
  8
HATCH
  0
POLYLINE
  5
2A7
330
18
100
AcDbEntity
  8
HATCH
100
AcDb2dPolyline
 66
     1
 10
0.0
 20
0.0
 30
0.0
 70
     3
  0
VERTEX
  5
2A8
330
2A7
100
AcDbEntity
  8
HATCH
100
AcDbVertex
100
AcDb2dVertex
 10
2079.926852526478
 20
574.7816687342862
 30
0.0
 42
-0.2595538891301936
  0
VERTEX
  5
2A9
330
2A7
100
AcDbEntity
  8
HATCH
100
AcDbVertex
100
AcDb2dVertex
 10
2069.969286446395
 20
580.3241026542034
 30
0.0
 42
-0.1396462061370757
 70
     1
  0
VERTEX
  5
2AA
330
2A7
100
AcDbEntity
  8
HATCH
100
AcDbVertex
100
AcDb2dVertex
 10
2064.426852526477
 20
599.7816687342862
 30
0.0
 42
-0.1396462061370706
  0
VERTEX
  5
2AB
330
2A7
100
AcDbEntity
  8
HATCH
100
AcDbVertex
100
AcDb2dVertex
 10
2069.969286446394
 20
619.2392348143691
 30
0.0
 42
-0.2595538891301907
 70
     1
  0
VERTEX
  5
2AC
330
2A7
100
AcDbEntity
  8
HATCH
100
AcDbVertex
100
AcDb2dVertex
 10
2079.926852526478
 20
624.7816687342862
 30
0.0
 42
-0.2595538891301854
  0
VERTEX
  5
2AD
330
2A7
100
AcDbEntity
  8
HATCH
100
AcDbVertex
100
AcDb2dVertex
 10
2089.88441860656
 20
619.2392348143691
 30
0.0
 42
-0.1396462061370651
 70
     1
  0
VERTEX
  5
2AE
330
2A7
100
AcDbEntity
  8
HATCH
100
AcDbVertex
100
AcDb2dVertex
 10
2095.426852526478
 20
599.7816687342862
 30
0.0
 42
-0.1396462061370655
  0
VERTEX
  5
2AF
330
2A7
100
AcDbEntity
  8
HATCH
100
AcDbVertex
100
AcDb2dVertex
 10
2089.88441860656
 20
580.3241026542036
 30
0.0
 42
-0.2595538891301878
 70
     1
  0
SEQEND
  5
2B0
330
2A7
100
AcDbEntity
  8
HATCH
  0
LINE
  5
2B7
330
18
100
AcDbEntity
  8
SJC
100
AcDbLine
 10
1845.439264680637
 20
924.7816687342863
 30
0.0
 11
2057.276852526477
 21
924.7816687342863
 31
0.0
1001
ACAD
1000
ASC_BOUNDS
1002
{
1070
    19
1005
7F3
1002
}
  0
LINE
  5
2B8
330
18
100
AcDbEntity
  8
SJC
100
AcDbLine
 10
2250.426852526477
 20
924.7816687342863
 30
0.0
 11
2250.426852526477
 21
574.7816687342862
 31
0.0
1001
ACAD
1000
ASC_BOUNDS
1002
{
1070
    19
1005
7F3
1002
}
  0
POLYLINE
  5
2BF
330
18
100
AcDbEntity
  8
HATCH
100
AcDb2dPolyline
 66
     1
 10
0.0
 20
0.0
 30
0.0
 70
     3
  0
VERTEX
  5
2C0
330
2BF
100
AcDbEntity
  8
HATCH
100
AcDbVertex
100
AcDb2dVertex
 10
2203.926852526477
 20
574.7816687342862
 30
0.0
 42
-0.2595538891301936
  0
VERTEX
  5
2C1
330
2BF
100
AcDbEntity
  8
HATCH
100
AcDbVertex
100
AcDb2dVertex
 10
2193.969286446395
 20
580.3241026542034
 30
0.0
 42
-0.1396462061370757
 70
     1
  0
VERTEX
  5
2C2
330
2BF
100
AcDbEntity
  8
HATCH
100
AcDbVertex
100
AcDb2dVertex
 10
2188.426852526478
 20
599.7816687342862
 30
0.0
 42
-0.1396462061370706
  0
VERTEX
  5
2C3
330
2BF
100
AcDbEntity
  8
HATCH
100
AcDbVertex
100
AcDb2dVertex
 10
2193.969286446395
 20
619.2392348143691
 30
0.0
 42
-0.2595538891301907
 70
     1
  0
VERTEX
  5
2C4
330
2BF
100
AcDbEntity
  8
HATCH
100
AcDbVertex
100
AcDb2dVertex
 10
2203.926852526477
 20
624.7816687342862
 30
0.0
 42
-0.2595538891301854
  0
VERTEX
  5
2C5
330
2BF
100
AcDbEntity
  8
HATCH
100
AcDbVertex
100
AcDb2dVertex
 10
2213.884418606561
 20
619.2392348143691
 30
0.0
 42
-0.1396462061370651
 70
     1
  0
VERTEX
  5
2C6
330
2BF
100
AcDbEntity
  8
HATCH
100
AcDbVertex
100
AcDb2dVertex
 10
2219.426852526478
 20
599.7816687342862
 30
0.0
 42
-0.1396462061370655
  0
VERTEX
  5
2C7
330
2BF
100
AcDbEntity
  8
HATCH
100
AcDbVertex
100
AcDb2dVertex
 10
2213.884418606561
 20
580.3241026542036
 30
0.0
 42
-0.2595538891301878
 70
     1
  0
SEQEND
  5
2C8
330
2BF
100
AcDbEntity
  8
HATCH
  0
POLYLINE
  5
2C9
330
18
100
AcDbEntity
  8
HATCH
100
AcDb2dPolyline
 66
     1
 10
0.0
 20
0.0
 30
0.0
 70
     3
  0
VERTEX
  5
2CA
330
2C9
100
AcDbEntity
  8
HATCH
100
AcDbVertex
100
AcDb2dVertex
 10
2172.926852526478
 20
574.7816687342862
 30
0.0
 42
-0.2595538891301936
  0
VERTEX
  5
2CB
330
2C9
100
AcDbEntity
  8
HATCH
100
AcDbVertex
100
AcDb2dVertex
 10
2162.969286446395
 20
580.3241026542034
 30
0.0
 42
-0.1396462061370757
 70
     1
  0
VERTEX
  5
2CC
330
2C9
100
AcDbEntity
  8
HATCH
100
AcDbVertex
100
AcDb2dVertex
 10
2157.426852526477
 20
599.7816687342862
 30
0.0
 42
-0.1396462061370706
  0
VERTEX
  5
2CD
330
2C9
100
AcDbEntity
  8
HATCH
100
AcDbVertex
100
AcDb2dVertex
 10
2162.969286446394
 20
619.2392348143691
 30
0.0
 42
-0.2595538891301907
 70
     1
  0
VERTEX
  5
2CE
330
2C9
100
AcDbEntity
  8
HATCH
100
AcDbVertex
100
AcDb2dVertex
 10
2172.926852526478
 20
624.7816687342862
 30
0.0
 42
-0.2595538891301854
  0
VERTEX
  5
2CF
330
2C9
100
AcDbEntity
  8
HATCH
100
AcDbVertex
100
AcDb2dVertex
 10
2182.88441860656
 20
619.2392348143691
 30
0.0
 42
-0.1396462061370651
 70
     1
  0
VERTEX
  5
2D0
330
2C9
100
AcDbEntity
  8
HATCH
100
AcDbVertex
100
AcDb2dVertex
 10
2188.426852526478
 20
599.7816687342862
 30
0.0
 42
-0.1396462061370655
  0
VERTEX
  5
2D1
330
2C9
100
AcDbEntity
  8
HATCH
100
AcDbVertex
100
AcDb2dVertex
 10
2182.88441860656
 20
580.3241026542036
 30
0.0
 42
-0.2595538891301878
 70
     1
  0
SEQEND
  5
2D2
330
2C9
100
AcDbEntity
  8
HATCH
  0
POLYLINE
  5
2D3
330
18
100
AcDbEntity
  8
HATCH
100
AcDb2dPolyline
 66
     1
 10
0.0
 20
0.0
 30
0.0
 70
     3
  0
VERTEX
  5
2D4
330
2D3
100
AcDbEntity
  8
HATCH
100
AcDbVertex
100
AcDb2dVertex
 10
2141.926852526478
 20
574.7816687342862
 30
0.0
 42
-0.2595538891301936
  0
VERTEX
  5
2D5
330
2D3
100
AcDbEntity
  8
HATCH
100
AcDbVertex
100
AcDb2dVertex
 10
2131.969286446395
 20
580.3241026542034
 30
0.0
 42
-0.1396462061370757
 70
     1
  0
VERTEX
  5
2D6
330
2D3
100
AcDbEntity
  8
HATCH
100
AcDbVertex
100
AcDb2dVertex
 10
2126.426852526478
 20
599.7816687342862
 30
0.0
 42
-0.1396462061370706
  0
VERTEX
  5
2D7
330
2D3
100
AcDbEntity
  8
HATCH
100
AcDbVertex
100
AcDb2dVertex
 10
2131.969286446395
 20
619.2392348143691
 30
0.0
 42
-0.2595538891301907
 70
     1
  0
VERTEX
  5
2D8
330
2D3
100
AcDbEntity
  8
HATCH
100
AcDbVertex
100
AcDb2dVertex
 10
2141.926852526478
 20
624.7816687342862
 30
0.0
 42
-0.2595538891301854
  0
VERTEX
  5
2D9
330
2D3
100
AcDbEntity
  8
HATCH
100
AcDbVertex
100
AcDb2dVertex
 10
2151.88441860656
 20
619.2392348143691
 30
0.0
 42
-0.1396462061370651
 70
     1
  0
VERTEX
  5
2DA
330
2D3
100
AcDbEntity
  8
HATCH
100
AcDbVertex
100
AcDb2dVertex
 10
2157.426852526477
 20
599.7816687342862
 30
0.0
 42
-0.1396462061370655
  0
VERTEX
  5
2DB
330
2D3
100
AcDbEntity
  8
HATCH
100
AcDbVertex
100
AcDb2dVertex
 10
2151.88441860656
 20
580.3241026542036
 30
0.0
 42
-0.2595538891301878
 70
     1
  0
SEQEND
  5
2DC
330
2D3
100
AcDbEntity
  8
HATCH
  0
POLYLINE
  5
2DD
330
18
100
AcDbEntity
  8
HATCH
100
AcDb2dPolyline
 66
     1
 10
0.0
 20
0.0
 30
0.0
 70
     3
  0
VERTEX
  5
2DE
330
2DD
100
AcDbEntity
  8
HATCH
100
AcDbVertex
100
AcDb2dVertex
 10
2234.926852526478
 20
574.7816687342862
 30
0.0
 42
-0.2595538891301936
  0
VERTEX
  5
2DF
330
2DD
100
AcDbEntity
  8
HATCH
100
AcDbVertex
100
AcDb2dVertex
 10
2224.969286446395
 20
580.3241026542034
 30
0.0
 42
-0.1396462061370757
 70
     1
  0
VERTEX
  5
2E0
330
2DD
100
AcDbEntity
  8
HATCH
100
AcDbVertex
100
AcDb2dVertex
 10
2219.426852526478
 20
599.7816687342862
 30
0.0
 42
-0.1396462061370706
  0
VERTEX
  5
2E1
330
2DD
100
AcDbEntity
  8
HATCH
100
AcDbVertex
100
AcDb2dVertex
 10
2224.969286446395
 20
619.2392348143691
 30
0.0
 42
-0.2595538891301907
 70
     1
  0
VERTEX
  5
2E2
330
2DD
100
AcDbEntity
  8
HATCH
100
AcDbVertex
100
AcDb2dVertex
 10
2234.926852526478
 20
624.7816687342862
 30
0.0
 42
-0.2595538891301854
  0
VERTEX
  5
2E3
330
2DD
100
AcDbEntity
  8
HATCH
100
AcDbVertex
100
AcDb2dVertex
 10
2244.88441860656
 20
619.2392348143691
 30
0.0
 42
-0.1396462061370651
 70
     1
  0
VERTEX
  5
2E4
330
2DD
100
AcDbEntity
  8
HATCH
100
AcDbVertex
100
AcDb2dVertex
 10
2250.426852526477
 20
599.7816687342862
 30
0.0
 42
-0.1396462061370655
  0
VERTEX
  5
2E5
330
2DD
100
AcDbEntity
  8
HATCH
100
AcDbVertex
100
AcDb2dVertex
 10
2244.88441860656
 20
580.3241026542036
 30
0.0
 42
-0.2595538891301878
 70
     1
  0
SEQEND
  5
2E6
330
2DD
100
AcDbEntity
  8
HATCH
  0
LINE
  5
2FD
330
18
100
AcDbEntity
  8
SJC
100
AcDbLine
 10
2133.576852526477
 20
924.7816687342863
 30
0.0
 11
2345.414440372318
 21
924.7816687342861
 31
0.0
1001
ACAD
1000
ASC_BOUNDS
1002
{
1070
    19
1005
7F3
1002
}
  0
ARC
  5
2FE
330
18
100
AcDbEntity
  8
SJC
100
AcDbCircle
 10
2095.426852526478
 20
1686.631668734286
 30
0.0
 40
38.15000000000009
100
AcDbArc
 50
0.0
 51
180.0
  0
ARC
  5
2FF
330
18
100
AcDbEntity
  8
HASEN
100
AcDbCircle
 10
2095.426852526478
 20
1686.631668734286
 30
0.0
 40
38.15000000000009
100
AcDbArc
 50
180.0
 51
0.0
  0
DIMENSION
  5
300
330
18
100
AcDbEntity
  8
SUNPOU
100
AcDbDimension
  2
*D4
 10
1324.009622495297
 20
1841.414069691811
 30
0.0
 11
1019.009622495297
 21
1868.414069691811
 31
0.0
 70
    32
 71
     5
 42
-1.0
  3
SJC
100
AcDbAlignedDimension
 13
714.0096224952972
 23
1386.631668734286
 33
0.0
 14
1324.009622495297
 24
1414.854493785217
 34
0.0
100
AcDbRotatedDimension
1001
ACAD
1000
DSTYLE
1002
{
1070
    40
1040
10.0
1070
    41
1040
2.0
1070
    42
1040
1.0
1070
    43
1040
6.0
1070
    44
1040
1.0
1070
    73
1070
     0
1070
    74
1070
     0
1070
    77
1070
     1
1070
    78
1070
     8
1070
   140
1040
3.0
1070
   147
1040
1.199999999999999
1070
   172
1070
     1
1070
   176
1070
   256
1070
   177
1070
   256
1070
   178
1070
   256
1070
   271
1070
     1
1070
   275
1070
     1
1070
   279
1070
     2
1070
   340
1005
381
1002
}
  0
DIMENSION
  5
301
330
18
100
AcDbEntity
  8
SUNPOU
100
AcDbDimension
  2
*D6
 10
1774.718265916067
 20
624.7816687342862
 30
0.0
 11
1747.718265916067
 21
1174.781668734286
 31
0.0
 70
    32
 71
     5
 42
-1.0
  3
SJC
100
AcDbAlignedDimension
 13
1044.376467400281
 23
1724.781668734286
 33
0.0
 14
1528.165169809688
 24
624.7816687342862
 34
0.0
 50
90.0
100
AcDbRotatedDimension
1001
ACAD
1000
DSTYLE
1002
{
1070
    40
1040
10.0
1070
    41
1040
2.0
1070
    42
1040
1.0
1070
    43
1040
6.0
1070
    44
1040
1.0
1070
    73
1070
     0
1070
    74
1070
     0
1070
    77
1070
     1
1070
    78
1070
     8
1070
   140
1040
3.0
1070
   147
1040
1.199999999999999
1070
   172
1070
     1
1070
   176
1070
   256
1070
   177
1070
   256
1070
   178
1070
   256
1070
   271
1070
     1
1070
   275
1070
     1
1070
   279
1070
     2
1070
   340
1005
381
1002
}
  0
DIMENSION
  5
302
330
18
100
AcDbEntity
  8
SUNPOU
100
AcDbDimension
  2
*D5
 10
1024.009622495298
 20
1386.631668734287
 30
0.0
 11
1143.21395344725
 21
1481.601808685209
 31
0.0
 70
    36
 71
     5
 42
-1.0
  3
SJC
100
AcDbRadialDimension
 15
1288.052544120865
 25
1529.044222743529
 35
0.0
 40
0.0
1001
ACAD
1000
DSTYLE
1002
{
1070
    40
1040
10.0
1070
    41
1040
2.0
1070
    42
1040
1.0
1070
    43
1040
6.0
1070
    44
1040
1.0
1070
    73
1070
     0
1070
    74
1070
     0
1070
    77
1070
     1
1070
    78
1070
     8
1070
   140
1040
3.0
1070
   147
1040
1.199999999999999
1070
   172
1070
     1
1070
   176
1070
   256
1070
   177
1070
   256
1070
   178
1070
   256
1070
   271
1070
     1
1070
   275
1070
     1
1070
   279
1070
     2
1070
   340
1005
381
1002
}
  0
TEXT
  5
303
330
18
100
AcDbEntity
  8
MOJI
100
AcDbText
 10
393.5216174206398
 20
1644.781668734286
 30
0.0
 40
30.0
  1
φ76.3×t2.3
 41
0.8
  7
EXT08
100
AcDbText
  0
SOLID
  5
304
330
18
100
AcDbEntity
  8
MOJI
100
AcDbTrace
 10
717.7487951788448
 20
1588.343763771725
 30
0.0
 11
714.728557107991
 21
1582.40048130832
 31
0.0
 12
734.0685235336309
 22
1576.311408327461
 32
0.0
 13
734.0685235336309
 23
1576.311408327461
 33
0.0
  0
LINE
  5
305
330
18
100
AcDbEntity
  8
MOJI
100
AcDbLine
 10
716.2386761434182
 20
1585.372122540022
 30
0.0
 11
619.0096224952976
 21
1634.781668734287
 31
0.0
  0
LINE
  5
306
330
18
100
AcDbEntity
  8
MOJI
100
AcDbLine
 10
619.0096224952976
 20
1634.781668734287
 30
0.0
 11
390.4646320148331
 21
1634.781668734286
 31
0.0
  0
SOLID
  5
307
330
18
100
AcDbEntity
  8
MOJI
100
AcDbTrace
 10
656.6156992489022
 20
1373.395548691727
 30
0.0
 11
659.7270853841319
 21
1367.499471965467
 31
0.0
 12
675.8596224952971
 22
1379.781668734286
 32
0.0
 13
675.8596224952971
 23
1379.781668734286
 33
0.0
  0
LINE
  5
308
330
18
100
AcDbEntity
  8
MOJI
100
AcDbLine
 10
658.171392316517
 20
1370.447510328597
 30
0.0
 11
619.0096224952967
 21
1349.781668734286
 31
0.0
  0
LINE
  5
309
330
18
100
AcDbEntity
  8
MOJI
100
AcDbLine
 10
619.0096224952967
 20
1349.781668734286
 30
0.0
 11
455.627039577148
 21
1349.781668734286
 31
0.0
  0
SOLID
  5
30A
330
18
100
AcDbEntity
  8
MOJI
100
AcDbTrace
 10
659.7270853841319
 20
1332.063865503105
 30
0.0
 11
656.6156992489022
 21
1326.167788776845
 31
0.0
 12
675.8596224952971
 22
1319.781668734287
 32
0.0
 13
675.8596224952971
 23
1319.781668734287
 33
0.0
  0
LINE
  5
30B
330
18
100
AcDbEntity
  8
MOJI
100
AcDbLine
 10
658.171392316517
 20
1329.115827139976
 30
0.0
 11
619.0096224952981
 21
1349.781668734286
 31
0.0
  0
TEXT
  5
30C
330
18
100
AcDbEntity
  8
MOJI
100
AcDbText
 10
471.811912295092
 20
1364.781668734286
 30
0.0
 40
30.0
  1
反射テープ
 41
0.8
  7
EXT08
100
AcDbText
  0
TEXT
  5
30D
330
18
100
AcDbEntity
  8
MOJI
100
AcDbText
 10
490.844606584631
 20
1312.074266649604
 30
0.0
 40
30.0
  1
（黄色）
 41
0.8
  7
EXT08
100
AcDbText
  0
TEXT
  5
30E
330
18
100
AcDbEntity
  8
MOJI
100
AcDbText
 10
404.5352681840922
 20
934.7816687342863
 30
0.0
 40
30.0
  1
GL
 41
0.8
  7
EXT08
100
AcDbText
  0
TEXT
  5
30F
330
18
100
AcDbEntity
  8
MOJI
100
AcDbText
 10
1849.69819169804
 20
934.7816687342863
 30
0.0
 40
30.0
  1
GL
 41
0.8
  7
EXT08
100
AcDbText
  0
LINE
  5
310
330
18
100
AcDbEntity
  8
MOJI
100
AcDbLine
 10
2648.751342480058
 20
1014.781668734286
 30
0.0
 11
2648.751342480058
 21
1114.781668734286
 31
0.0
  0
LINE
  5
311
330
18
100
AcDbEntity
  8
MOJI
100
AcDbLine
 10
2648.751342480058
 20
1114.781668734286
 30
0.0
 11
3298.206740540564
 21
1114.781668734286
 31
0.0
  0
LINE
  5
312
330
18
100
AcDbEntity
  8
MOJI
100
AcDbLine
 10
3298.206740540564
 20
1114.781668734286
 30
0.0
 11
3298.206740540564
 21
1014.781668734286
 31
0.0
  0
LINE
  5
315
330
18
100
AcDbEntity
  8
MOJI
100
AcDbLine
 10
2792.347067620483
 20
1014.781668734286
 30
0.0
 11
2792.347067620483
 21
1114.781668734286
 31
0.0
  0
LINE
  5
316
330
18
100
AcDbEntity
  8
MOJI
100
AcDbLine
 10
2942.16553800761
 20
1014.781668734286
 30
0.0
 11
2942.16553800761
 21
1114.781668734286
 31
0.0
  0
TEXT
  5
317
330
18
100
AcDbEntity
  8
MOJI
100
AcDbText
 10
2664.68223858373
 20
1072.710664241059
 30
0.0
 40
30.0
  1
部 品 名
 41
0.8
  7
EXT08
100
AcDbText
  0
TEXT
  5
318
330
18
100
AcDbEntity
  8
MOJI
100
AcDbText
 10
2814.144930190698
 20
1072.710664241059
 30
0.0
 40
30.0
  1
材    質
 41
0.8
  7
EXT08
100
AcDbText
  0
TEXT
  5
319
330
18
100
AcDbEntity
  8
MOJI
100
AcDbText
 10
3044.06413321219
 20
1072.710664241059
 30
0.0
 40
30.0
  1
摘       要
 41
0.8
  7
EXT08
100
AcDbText
  0
TEXT
  5
31A
330
18
100
AcDbEntity
  8
MOJI
100
AcDbText
 10
2664.22349932422
 20
1022.355634859847
 30
0.0
 40
30.0
  1
支    柱
 41
0.8
  7
EXT08
100
AcDbText
  0
TEXT
  5
31B
330
18
100
AcDbEntity
  8
MOJI
100
AcDbText
 10
2800.00233596319
 20
1022.355634859847
 30
0.0
 40
30.0
  1
STK400
 41
0.8
  7
EXT08
100
AcDbText
  0
TEXT
  5
31C
330
18
100
AcDbEntity
  8
MOJI
100
AcDbText
 10
2949.546244783416
 20
1022.355634859847
 30
0.0
 40
30.0
  1
亜鉛めっき＋静電粉体塗装
 41
0.8
  7
EXT08
100
AcDbText
  0
LINE
  5
31D
330
18
100
AcDbEntity
  8
SJC
100
AcDbLine
 10
752.1596224952973
 20
924.7816687342863
 30
0.0
 11
1285.859622495297
 21
924.7816687342863
 31
0.0
1001
ACAD
1000
ASC_BOUNDS
1002
{
1070
    19
1002
}
  0
LINE
  5
31E
330
18
100
AcDbEntity
  8
SJC
100
AcDbLine
 10
1362.159622495297
 20
924.7816687342863
 30
0.0
 11
1604.009622495297
 21
924.7816687342863
 31
0.0
1001
ACAD
1000
ASC_BOUNDS
1002
{
1070
    19
1002
}
  0
INSERT
  5
31F
330
18
100
AcDbEntity
  8
HATCH
100
AcDbBlockReference
  2
*X0
 10
-350.9903775047023
 20
-175.2183312657137
 30
0.0
1001
ACAD
1000
HATCH
1002
{
1070
    16
1000
ANSI37
1040
40.0
1040
0.0
1002
}
  0
DIMENSION
  5
350
330
18
100
AcDbEntity
  8
SUNPOU
100
AcDbDimension
  2
*D8
 10
1440.584622495297
 20
924.7816687342863
 30
0.0
 11
1413.584622495297
 21
1114.781668734286
 31
0.0
 70
    32
 71
     5
 42
-1.0
  3
SJC
100
AcDbAlignedDimension
 13
1440.584622495297
 23
1304.781668734286
 33
0.0
 14
1440.584622495297
 24
924.7816687342863
 34
0.0
 50
90.0
100
AcDbRotatedDimension
1001
ACAD
1000
DSTYLE
1002
{
1070
    40
1040
10.0
1070
    41
1040
2.0
1070
    42
1040
1.0
1070
    43
1040
6.0
1070
    44
1040
1.0
1070
    73
1070
     0
1070
    74
1070
     0
1070
    77
1070
     1
1070
    78
1070
     8
1070
   140
1040
3.0
1070
   147
1040
1.199999999999999
1070
   172
1070
     1
1070
   176
1070
   256
1070
   177
1070
   256
1070
   178
1070
   256
1070
   271
1070
     1
1070
   275
1070
     1
1070
   279
1070
     2
1070
   340
1005
381
1002
}
  0
DIMENSION
  5
351
330
18
100
AcDbEntity
  8
SUNPOU
100
AcDbDimension
  2
*D7
 10
1671.779932720539
 20
924.7816687342863
 30
0.0
 11
1644.779932720538
 21
1324.781668734286
 31
0.0
 70
    32
 71
     5
 42
-1.0
  3
SJC
100
AcDbAlignedDimension
 13
1671.779932720539
 23
1724.781668734286
 33
0.0
 14
1671.779932720539
 24
924.7816687342863
 34
0.0
 50
90.0
100
AcDbRotatedDimension
1001
ACAD
1000
DSTYLE
1002
{
1070
    40
1040
10.0
1070
    41
1040
2.0
1070
    42
1040
1.0
1070
    43
1040
6.0
1070
    44
1040
1.0
1070
    73
1070
     0
1070
    74
1070
     0
1070
    77
1070
     1
1070
    78
1070
     8
1070
   140
1040
3.0
1070
   147
1040
1.199999999999999
1070
   172
1070
     1
1070
   176
1070
   256
1070
   177
1070
   256
1070
   178
1070
   256
1070
   271
1070
     1
1070
   275
1070
     1
1070
   279
1070
     2
1070
   340
1005
381
1002
}
  0
INSERT
  5
395
330
18
100
AcDbEntity
  8
SJC
100
AcDbBlockReference
  2
B0040021
 10
437.612675764969
 20
924.7816687342863
 30
0.0
 41
0.5
 42
0.5
 43
0.5
  0
INSERT
  5
396
330
18
100
AcDbEntity
  8
SJC
100
AcDbBlockReference
  2
B0040021
 10
1867.496344653011
 20
924.7816687342863
 30
0.0
 41
0.5
 42
0.5
 43
0.5
  0
INSERT
  5
3CE
330
18
100
AcDbEntity
  8
HATCH
100
AcDbBlockReference
  2
*X3
 10
0.0
 20
0.0
 30
0.0
1001
ACAD
1000
HATCH
1002
{
1070
    19
1000
PLAST
1040
500.0
1040
0.7853981633974483
1002
}
  0
LINE
  5
4B3
330
18
100
AcDbEntity
  8
SUNPOU
  6
ByBlock
100
AcDbLine
 10
1430.584622495297
 20
1334.781668734286
 30
0.0
 11
1430.584622495297
 21
1334.781668734286
 31
0.0
  0
LINE
  5
4B4
330
18
100
AcDbEntity
  8
SUNPOU
  6
ByBlock
100
AcDbLine
 10
1370.321331583925
 20
1304.781668734286
 30
0.0
 11
1450.584622495297
 21
1304.781668734286
 31
0.0
  0
MTEXT
  5
4B7
330
18
100
AcDbEntity
  8
SUNPOU
  6
ByBlock
100
AcDbMText
 10
1410.584622495297
 20
1273.170060440659
 30
0.0
 40
30.0
 41
0.0
 71
     5
 72
     5
  1
\A1;30
  7
EXT08
 11
0.0
 21
1.0
 31
0.0
 73
     1
 44
1.0
  0
LINE
  5
4BE
330
18
100
AcDbEntity
  8
SUNPOU
  6
ByBlock
100
AcDbLine
 10
1430.584622495297
 20
1364.781668734286
 30
0.0
 11
1430.584622495297
 21
1364.781668734286
 31
0.0
  0
LINE
  5
4BF
330
18
100
AcDbEntity
  8
SUNPOU
  6
ByBlock
100
AcDbLine
 10
1370.321331583925
 20
1334.781668734286
 30
0.0
 11
1450.584622495297
 21
1334.781668734286
 31
0.0
  0
MTEXT
  5
4C2
330
18
100
AcDbEntity
  8
SUNPOU
  6
ByBlock
100
AcDbMText
 10
1475.729420787981
 20
1349.781668734286
 30
0.0
 40
30.0
 41
0.0
 71
     5
 72
     5
  1
\A1;30
  7
EXT08
 11
0.0
 21
1.0
 31
0.0
 73
     1
 44
1.0
  0
LINE
  5
4C9
330
18
100
AcDbEntity
  8
SUNPOU
  6
ByBlock
100
AcDbLine
 10
1370.321331583925
 20
1394.781668734286
 30
0.0
 11
1450.584622495297
 21
1394.781668734286
 31
0.0
  0
LINE
  5
4CA
330
18
100
AcDbEntity
  8
SUNPOU
  6
ByBlock
100
AcDbLine
 10
1370.321331583925
 20
1364.781668734286
 30
0.0
 11
1450.584622495297
 21
1364.781668734286
 31
0.0
  0
LINE
  5
4CB
330
18
100
AcDbEntity
  8
SUNPOU
  6
ByBlock
100
AcDbLine
 10
1440.584622495297
 20
1304.781668734286
 30
0.0
 11
1440.584622495297
 21
1448.213079121847
 31
0.0
  0
MTEXT
  5
4CD
330
18
100
AcDbEntity
  8
SUNPOU
  6
ByBlock
100
AcDbMText
 10
1410.584622495297
 20
1431.113083672391
 30
0.0
 40
30.0
 41
0.0
 71
     5
 72
     5
  1
\A1;30
  7
EXT08
 11
0.0
 21
1.0
 31
0.0
 73
     1
 44
1.0
  0
SOLID
  5
4CF
330
18
100
AcDbEntity
  8
SUNPOU
  6
ByBlock
100
AcDbTrace
 10
1437.251289161963
 20
1414.781668734286
 30
0.0
 11
1443.91795582863
 21
1414.781668734286
 31
0.0
 12
1440.584622495297
 22
1394.781668734286
 32
0.0
 13
1440.584622495297
 23
1394.781668734286
 33
0.0
  0
LWPOLYLINE
  5
4DC
330
18
100
AcDbEntity
  8
SUNPOU
100
AcDbPolyline
 90
        2
 70
     1
 43
5.0
 10
1438.084622495297
 20
1364.781668734286
 42
1.0
 10
1443.084622495297
 20
1364.781668734286
 42
1.0
  0
LWPOLYLINE
  5
4E0
330
18
100
AcDbEntity
  8
SUNPOU
100
AcDbPolyline
 90
        2
 70
     1
 43
5.0
 10
1438.084622495297
 20
1334.781668734286
 42
1.0
 10
1443.084622495297
 20
1334.781668734286
 42
1.0
  0
DIMENSION
  5
55C
330
18
100
AcDbEntity
  8
SUNPOU
100
AcDbDimension
  2
*D9
 10
1671.779932720539
 20
924.7816687342863
 30
0.0
 11
1644.779932720538
 21
774.7816687342862
 31
0.0
 70
    32
 71
     5
 42
-1.0
  3
SJC
100
AcDbAlignedDimension
 13
1519.009622495297
 23
624.7816687342862
 33
0.0
 14
1604.009622495297
 24
924.7816687342863
 34
0.0
 50
90.0
100
AcDbRotatedDimension
1001
ACAD
1000
DSTYLE
1002
{
1070
    40
1040
10.0
1070
    41
1040
2.0
1070
    42
1040
1.0
1070
    43
1040
6.0
1070
    44
1040
1.0
1070
    73
1070
     0
1070
    74
1070
     0
1070
    77
1070
     1
1070
    78
1070
     8
1070
   140
1040
3.0
1070
   147
1040
1.199999999999999
1070
   172
1070
     1
1070
   176
1070
   256
1070
   177
1070
   256
1070
   178
1070
   256
1070
   271
1070
     1
1070
   275
1070
     1
1070
   279
1070
     2
1070
   340
1005
381
1002
}
  0
TEXT
  5
599
330
18
100
AcDbEntity
  8
MOJI2
100
AcDbText
 10
2654.259070876775
 20
1134.151138349329
 30
0.0
 40
40.0
  1
車止め1型
 41
0.8
  7
EXT08
100
AcDbText
  0
TEXT
  5
59A
330
18
100
AcDbEntity
  8
MOJI2
100
AcDbText
 10
513.6356658630448
 20
2017.290731394691
 30
0.0
 40
40.0
  1
設置図 (1/10)
 41
0.8
  7
EXT08
100
AcDbText
  0
LINE
  5
59B
330
18
100
AcDbEntity
  8
MOJI2
100
AcDbLine
 10
504.8381565723011
 20
2007.812580070752
 30
0.0
 11
627.4883989916088
 21
2007.812580070752
 31
0.0
  0
LINE
  5
59C
330
18
100
AcDbEntity
  8
MOJI2
100
AcDbLine
 10
504.8381565723011
 20
1997.812580070752
 30
0.0
 11
627.4883989916088
 21
1997.812580070752
 31
0.0
  0
INSERT
  5
63A
330
18
100
AcDbEntity
  8
ZWAKU
100
AcDbBlockReference
  2
CALCOMP_TECHJET720A3
 10
0.0
 20
0.0
 30
0.0
 41
10.0
 42
10.0
 43
10.0
  0
TEXT
  5
63B
330
18
100
AcDbEntity
  8
INFORMATION
100
AcDbText
 10
1.0
 20
2.0
 30
0.0
 40
0.8
  1
PLOTTER=CALCOMP_TECHJET720
100
AcDbText
  0
TEXT
  5
63C
330
18
100
AcDbEntity
  8
INFORMATION
100
AcDbText
 10
1.0
 20
3.0
 30
0.0
 40
0.8
  1
PAPER=A3
100
AcDbText
  0
TEXT
  5
64C
330
18
100
AcDbEntity
  8
INFORMATION
100
AcDbText
 10
1.0
 20
1.0
 30
0.0
 40
0.8
  1
VERSION=3.0
100
AcDbText
  0
LINE
  5
64D
330
18
100
AcDbEntity
  8
MOJI
100
AcDbLine
 10
2648.751342480058
 20
1064.781668734286
 30
0.0
 11
3298.206740540564
 21
1064.781668734286
 31
0.0
  0
LINE
  5
64E
330
18
100
AcDbEntity
  8
MOJI
100
AcDbLine
 10
2648.751342480058
 20
1014.781668734286
 30
0.0
 11
3298.206740540564
 21
1014.781668734286
 31
0.0
  0
LINE
  5
6A2
330
18
100
AcDbEntity
  8
SJC
100
AcDbLine
 10
2133.576852526477
 20
1364.781668734286
 30
0.0
 11
2057.276852526477
 21
1364.781668734286
 31
0.0
1001
ACAD
1000
ASC_BOUNDS
1002
{
1070
    19
1005
773
1005
7A9
1002
}
  0
LINE
  5
6A3
330
18
100
AcDbEntity
  8
SJC
100
AcDbLine
 10
2133.576852526477
 20
1304.781668734286
 30
0.0
 11
2057.276852526477
 21
1304.781668734286
 31
0.0
1001
ACAD
1000
ASC_BOUNDS
1002
{
1070
    19
1005
7A9
1005
7A9
1002
}
  0
LINE
  5
6A4
330
18
100
AcDbEntity
  8
SJC
100
AcDbLine
 10
2133.576852526477
 20
1334.781668734286
 30
0.0
 11
2057.276852526477
 21
1334.781668734286
 31
0.0
1001
ACAD
1000
ASC_BOUNDS
1002
{
1070
    19
1005
7A9
1005
7A9
1002
}
  0
LINE
  5
6A5
330
18
100
AcDbEntity
  8
SJC
100
AcDbLine
 10
2133.478623709532
 20
1394.781668734286
 30
0.0
 11
2057.149988683753
 21
1394.781668734286
 31
0.0
1001
ACAD
1000
ASC_BOUNDS
1002
{
1070
    19
1005
773
1005
7A9
1002
}
  0
INSERT
  5
773
330
18
100
AcDbEntity
  8
HATCH
100
AcDbBlockReference
  2
*X10
 10
0.0
 20
0.0
 30
0.0
1001
ACAD
1000
HATCH
1002
{
1070
    19
1000
ANSI37
1040
40.0
1040
0.0
1000
ASC_BOUNDS
1070
     1
1070
     1
1070
     4
1005
6A5
1005
22D
1005
6A2
1005
22C
1000
ASC_SEEDPOINT
1011
2083.317071698497
1021
1377.51500107815
1031
0.0
1002
}
  0
INSERT
  5
7A9
330
18
100
AcDbEntity
  8
HATCH
100
AcDbBlockReference
  2
*X11
 10
0.0
 20
0.0
 30
0.0
1001
ACAD
1000
HATCH
1002
{
1070
    19
1000
ANSI37
1040
40.0
1040
0.0
1000
ASC_BOUNDS
1070
     3
1070
     1
1070
     4
1005
6A4
1005
22D
1005
6A3
1005
22C
1070
     1
1070
     4
1005
6A4
1005
22C
1005
6A3
1005
22E
1070
     1
1070
     4
1005
6A5
1005
22C
1005
6A2
1005
22E
1000
ASC_SEEDPOINT
1011
2114.076745636281
1021
1379.085296296128
1031
0.0
1002
}
  0
INSERT
  5
7F3
330
18
100
AcDbEntity
  8
HATCH
100
AcDbBlockReference
  2
*X12
 10
0.0
 20
0.0
 30
0.0
1001
ACAD
1000
HATCH
1002
{
1070
    19
1000
PLAST
1040
500.0
1040
0.7853981633974483
1000
ASC_BOUNDS
1070
     2
1070
     1
1070
     4
1005
2FD
1005
22E
1005
239
1005
2B8
1070
     1
1070
     4
1005
2B7
1005
23B
1005
239
1005
22D
1000
ASC_SEEDPOINT
1011
1998.851852526477
1021
761.4149854500192
1031
0.0
1002
}
  0
LWPOLYLINE
  5
819
330
18
100
AcDbEntity
  8
HATCH
100
AcDbPolyline
 90
        5
 70
     0
 43
0.0
 10
1345.009622495297
 20
599.7816687342862
 42
0.1321573863745694
 10
1339.709968511916
 20
619.4820147509046
 42
0.2674173791456541
 10
1330.509622495297
 20
624.7816687342862
 42
0.2674173791456531
 10
1321.309276478679
 20
619.4820147509046
 42
0.0105337566772499
 10
1320.509622495297
 20
618.0338442278059
 42
0.1321573863745684
  0
LWPOLYLINE
  5
820
330
18
100
AcDbEntity
  8
HATCH
100
AcDbPolyline
 90
        5
 70
     0
 43
0.0
 10
1320.509622495297
 20
581.5294932407666
 42
0.0105337566772515
 10
1321.309276478679
 20
580.0813227176679
 42
0.2674173791456551
 10
1330.509622495297
 20
574.7816687342862
 42
0.2674173791456566
 10
1339.709968511916
 20
580.0813227176679
 42
0.1321573863745698
 10
1345.009622495297
 20
599.7816687342862
 42
0.1321573863745694
  0
POLYLINE
  5
827
330
18
100
AcDbEntity
  8
HATCH
100
AcDb2dPolyline
 66
     1
 10
0.0
 20
0.0
 30
0.0
 70
     3
  0
VERTEX
  5
828
330
827
100
AcDbEntity
  8
HATCH
100
AcDbVertex
100
AcDb2dVertex
 10
1403.009622495297
 20
599.7816687342862
 30
0.0
 42
0.1321573863745694
  0
VERTEX
  5
829
330
827
100
AcDbEntity
  8
HATCH
100
AcDbVertex
100
AcDb2dVertex
 10
1397.709968511916
 20
619.4820147509046
 30
0.0
 42
0.2674173791456541
 70
     1
  0
VERTEX
  5
82A
330
827
100
AcDbEntity
  8
HATCH
100
AcDbVertex
100
AcDb2dVertex
 10
1388.509622495297
 20
624.7816687342862
 30
0.0
 42
0.2674173791456531
  0
VERTEX
  5
82B
330
827
100
AcDbEntity
  8
HATCH
100
AcDbVertex
100
AcDb2dVertex
 10
1379.309276478679
 20
619.4820147509046
 30
0.0
 42
0.1321573863745705
 70
     1
  0
VERTEX
  5
82C
330
827
100
AcDbEntity
  8
HATCH
100
AcDbVertex
100
AcDb2dVertex
 10
1374.009622495297
 20
599.7816687342862
 30
0.0
 42
0.1321573863745684
  0
VERTEX
  5
82D
330
827
100
AcDbEntity
  8
HATCH
100
AcDbVertex
100
AcDb2dVertex
 10
1379.309276478679
 20
580.0813227176679
 30
0.0
 42
0.2674173791456551
 70
     1
  0
VERTEX
  5
82E
330
827
100
AcDbEntity
  8
HATCH
100
AcDbVertex
100
AcDb2dVertex
 10
1388.509622495297
 20
574.7816687342862
 30
0.0
 42
0.2674173791456566
  0
VERTEX
  5
82F
330
827
100
AcDbEntity
  8
HATCH
100
AcDbVertex
100
AcDb2dVertex
 10
1397.709968511916
 20
580.0813227176679
 30
0.0
 42
0.1321573863745698
 70
     1
  0
SEQEND
  5
830
330
827
100
AcDbEntity
  8
HATCH
  0
POLYLINE
  5
831
330
18
100
AcDbEntity
  8
HATCH
100
AcDb2dPolyline
 66
     1
 10
0.0
 20
0.0
 30
0.0
 70
     3
  0
VERTEX
  5
832
330
831
100
AcDbEntity
  8
HATCH
100
AcDbVertex
100
AcDb2dVertex
 10
1374.009622495297
 20
599.7816687342862
 30
0.0
 42
0.1321573863745694
  0
VERTEX
  5
833
330
831
100
AcDbEntity
  8
HATCH
100
AcDbVertex
100
AcDb2dVertex
 10
1368.709968511915
 20
619.4820147509046
 30
0.0
 42
0.2674173791456541
 70
     1
  0
VERTEX
  5
834
330
831
100
AcDbEntity
  8
HATCH
100
AcDbVertex
100
AcDb2dVertex
 10
1359.509622495297
 20
624.7816687342862
 30
0.0
 42
0.2674173791456531
  0
VERTEX
  5
835
330
831
100
AcDbEntity
  8
HATCH
100
AcDbVertex
100
AcDb2dVertex
 10
1350.309276478679
 20
619.4820147509046
 30
0.0
 42
0.1321573863745705
 70
     1
  0
VERTEX
  5
836
330
831
100
AcDbEntity
  8
HATCH
100
AcDbVertex
100
AcDb2dVertex
 10
1345.009622495297
 20
599.7816687342862
 30
0.0
 42
0.1321573863745684
  0
VERTEX
  5
837
330
831
100
AcDbEntity
  8
HATCH
100
AcDbVertex
100
AcDb2dVertex
 10
1350.309276478679
 20
580.0813227176679
 30
0.0
 42
0.2674173791456551
 70
     1
  0
VERTEX
  5
838
330
831
100
AcDbEntity
  8
HATCH
100
AcDbVertex
100
AcDb2dVertex
 10
1359.509622495297
 20
574.7816687342862
 30
0.0
 42
0.2674173791456566
  0
VERTEX
  5
839
330
831
100
AcDbEntity
  8
HATCH
100
AcDbVertex
100
AcDb2dVertex
 10
1368.709968511915
 20
580.0813227176679
 30
0.0
 42
0.1321573863745698
 70
     1
  0
SEQEND
  5
83A
330
831
100
AcDbEntity
  8
HATCH
  0
POLYLINE
  5
83B
330
18
100
AcDbEntity
  8
HATCH
100
AcDb2dPolyline
 66
     1
 10
0.0
 20
0.0
 30
0.0
 70
     3
  0
VERTEX
  5
83C
330
83B
100
AcDbEntity
  8
HATCH
100
AcDbVertex
100
AcDb2dVertex
 10
1490.009622495297
 20
599.7816687342862
 30
0.0
 42
0.1321573863745694
  0
VERTEX
  5
83D
330
83B
100
AcDbEntity
  8
HATCH
100
AcDbVertex
100
AcDb2dVertex
 10
1484.709968511915
 20
619.4820147509046
 30
0.0
 42
0.2674173791456541
 70
     1
  0
VERTEX
  5
83E
330
83B
100
AcDbEntity
  8
HATCH
100
AcDbVertex
100
AcDb2dVertex
 10
1475.509622495297
 20
624.7816687342862
 30
0.0
 42
0.2674173791456531
  0
VERTEX
  5
83F
330
83B
100
AcDbEntity
  8
HATCH
100
AcDbVertex
100
AcDb2dVertex
 10
1466.309276478679
 20
619.4820147509046
 30
0.0
 42
0.1321573863745705
 70
     1
  0
VERTEX
  5
840
330
83B
100
AcDbEntity
  8
HATCH
100
AcDbVertex
100
AcDb2dVertex
 10
1461.009622495297
 20
599.7816687342862
 30
0.0
 42
0.1321573863745684
  0
VERTEX
  5
841
330
83B
100
AcDbEntity
  8
HATCH
100
AcDbVertex
100
AcDb2dVertex
 10
1466.309276478679
 20
580.0813227176679
 30
0.0
 42
0.2674173791456551
 70
     1
  0
VERTEX
  5
842
330
83B
100
AcDbEntity
  8
HATCH
100
AcDbVertex
100
AcDb2dVertex
 10
1475.509622495297
 20
574.7816687342862
 30
0.0
 42
0.2674173791456566
  0
VERTEX
  5
843
330
83B
100
AcDbEntity
  8
HATCH
100
AcDbVertex
100
AcDb2dVertex
 10
1484.709968511915
 20
580.0813227176679
 30
0.0
 42
0.1321573863745698
 70
     1
  0
SEQEND
  5
844
330
83B
100
AcDbEntity
  8
HATCH
  0
POLYLINE
  5
845
330
18
100
AcDbEntity
  8
HATCH
100
AcDb2dPolyline
 66
     1
 10
0.0
 20
0.0
 30
0.0
 70
     3
  0
VERTEX
  5
846
330
845
100
AcDbEntity
  8
HATCH
100
AcDbVertex
100
AcDb2dVertex
 10
1461.009622495297
 20
599.7816687342862
 30
0.0
 42
0.1321573863745694
  0
VERTEX
  5
847
330
845
100
AcDbEntity
  8
HATCH
100
AcDbVertex
100
AcDb2dVertex
 10
1455.709968511915
 20
619.4820147509046
 30
0.0
 42
0.2674173791456541
 70
     1
  0
VERTEX
  5
848
330
845
100
AcDbEntity
  8
HATCH
100
AcDbVertex
100
AcDb2dVertex
 10
1446.509622495297
 20
624.7816687342862
 30
0.0
 42
0.2674173791456531
  0
VERTEX
  5
849
330
845
100
AcDbEntity
  8
HATCH
100
AcDbVertex
100
AcDb2dVertex
 10
1437.309276478679
 20
619.4820147509046
 30
0.0
 42
0.1321573863745705
 70
     1
  0
VERTEX
  5
84A
330
845
100
AcDbEntity
  8
HATCH
100
AcDbVertex
100
AcDb2dVertex
 10
1432.009622495297
 20
599.7816687342862
 30
0.0
 42
0.1321573863745684
  0
VERTEX
  5
84B
330
845
100
AcDbEntity
  8
HATCH
100
AcDbVertex
100
AcDb2dVertex
 10
1437.309276478679
 20
580.0813227176679
 30
0.0
 42
0.2674173791456551
 70
     1
  0
VERTEX
  5
84C
330
845
100
AcDbEntity
  8
HATCH
100
AcDbVertex
100
AcDb2dVertex
 10
1446.509622495297
 20
574.7816687342862
 30
0.0
 42
0.2674173791456566
  0
VERTEX
  5
84D
330
845
100
AcDbEntity
  8
HATCH
100
AcDbVertex
100
AcDb2dVertex
 10
1455.709968511915
 20
580.0813227176679
 30
0.0
 42
0.1321573863745698
 70
     1
  0
SEQEND
  5
84E
330
845
100
AcDbEntity
  8
HATCH
  0
POLYLINE
  5
84F
330
18
100
AcDbEntity
  8
HATCH
100
AcDb2dPolyline
 66
     1
 10
0.0
 20
0.0
 30
0.0
 70
     3
  0
VERTEX
  5
850
330
84F
100
AcDbEntity
  8
HATCH
100
AcDbVertex
100
AcDb2dVertex
 10
1519.009622495297
 20
599.7816687342862
 30
0.0
 42
0.1321573863745694
  0
VERTEX
  5
851
330
84F
100
AcDbEntity
  8
HATCH
100
AcDbVertex
100
AcDb2dVertex
 10
1513.709968511915
 20
619.4820147509046
 30
0.0
 42
0.2674173791456541
 70
     1
  0
VERTEX
  5
852
330
84F
100
AcDbEntity
  8
HATCH
100
AcDbVertex
100
AcDb2dVertex
 10
1504.509622495297
 20
624.7816687342862
 30
0.0
 42
0.2674173791456531
  0
VERTEX
  5
853
330
84F
100
AcDbEntity
  8
HATCH
100
AcDbVertex
100
AcDb2dVertex
 10
1495.309276478679
 20
619.4820147509046
 30
0.0
 42
0.1321573863745705
 70
     1
  0
VERTEX
  5
854
330
84F
100
AcDbEntity
  8
HATCH
100
AcDbVertex
100
AcDb2dVertex
 10
1490.009622495297
 20
599.7816687342862
 30
0.0
 42
0.1321573863745684
  0
VERTEX
  5
855
330
84F
100
AcDbEntity
  8
HATCH
100
AcDbVertex
100
AcDb2dVertex
 10
1495.309276478679
 20
580.0813227176679
 30
0.0
 42
0.2674173791456551
 70
     1
  0
VERTEX
  5
856
330
84F
100
AcDbEntity
  8
HATCH
100
AcDbVertex
100
AcDb2dVertex
 10
1504.509622495297
 20
574.7816687342862
 30
0.0
 42
0.2674173791456566
  0
VERTEX
  5
857
330
84F
100
AcDbEntity
  8
HATCH
100
AcDbVertex
100
AcDb2dVertex
 10
1513.709968511915
 20
580.0813227176679
 30
0.0
 42
0.1321573863745698
 70
     1
  0
SEQEND
  5
858
330
84F
100
AcDbEntity
  8
HATCH
  0
POLYLINE
  5
859
330
18
100
AcDbEntity
  8
HATCH
100
AcDb2dPolyline
 66
     1
 10
0.0
 20
0.0
 30
0.0
 70
     3
  0
VERTEX
  5
85A
330
859
100
AcDbEntity
  8
HATCH
100
AcDbVertex
100
AcDb2dVertex
 10
1432.009622495297
 20
599.7816687342862
 30
0.0
 42
0.1321573863745694
  0
VERTEX
  5
85B
330
859
100
AcDbEntity
  8
HATCH
100
AcDbVertex
100
AcDb2dVertex
 10
1426.709968511915
 20
619.4820147509046
 30
0.0
 42
0.2674173791456541
 70
     1
  0
VERTEX
  5
85C
330
859
100
AcDbEntity
  8
HATCH
100
AcDbVertex
100
AcDb2dVertex
 10
1417.509622495297
 20
624.7816687342862
 30
0.0
 42
0.2674173791456531
  0
VERTEX
  5
85D
330
859
100
AcDbEntity
  8
HATCH
100
AcDbVertex
100
AcDb2dVertex
 10
1408.309276478679
 20
619.4820147509046
 30
0.0
 42
0.1321573863745705
 70
     1
  0
VERTEX
  5
85E
330
859
100
AcDbEntity
  8
HATCH
100
AcDbVertex
100
AcDb2dVertex
 10
1403.009622495297
 20
599.7816687342862
 30
0.0
 42
0.1321573863745684
  0
VERTEX
  5
85F
330
859
100
AcDbEntity
  8
HATCH
100
AcDbVertex
100
AcDb2dVertex
 10
1408.309276478679
 20
580.0813227176679
 30
0.0
 42
0.2674173791456551
 70
     1
  0
VERTEX
  5
860
330
859
100
AcDbEntity
  8
HATCH
100
AcDbVertex
100
AcDb2dVertex
 10
1417.509622495297
 20
574.7816687342862
 30
0.0
 42
0.2674173791456566
  0
VERTEX
  5
861
330
859
100
AcDbEntity
  8
HATCH
100
AcDbVertex
100
AcDb2dVertex
 10
1426.709968511915
 20
580.0813227176679
 30
0.0
 42
0.1321573863745698
 70
     1
  0
SEQEND
  5
862
330
859
100
AcDbEntity
  8
HATCH
  0
ENDSEC
  0
SECTION
  2
OBJECTS
  0
DICTIONARY
  5
C
330
0
100
AcDbDictionary
281
     1
  3
ACAD_COLOR
350
892
  3
ACAD_GROUP
350
D
  3
ACAD_LAYOUT
350
895
  3
ACAD_MATERIAL
350
891
  3
ACAD_MLINESTYLE
350
E
  3
ACAD_PLOTSETTINGS
350
896
  3
ACAD_PLOTSTYLENAME
350
88F
  3
ACAD_TABLESTYLE
350
893
  3
AcDbVariableDictionary
350
8A1
  0
DICTIONARY
  5
892
102
{ACAD_REACTORS
330
C
102
}
330
C
100
AcDbDictionary
281
     1
  0
DICTIONARY
  5
D
102
{ACAD_REACTORS
330
C
102
}
330
C
100
AcDbDictionary
281
     1
  0
DICTIONARY
  5
895
102
{ACAD_REACTORS
330
C
102
}
330
C
100
AcDbDictionary
281
     1
  3
Model
350
897
  3
レイアウト1
350
898
  0
DICTIONARY
  5
891
102
{ACAD_REACTORS
330
C
102
}
330
C
100
AcDbDictionary
281
     1
  0
DICTIONARY
  5
E
102
{ACAD_REACTORS
330
C
102
}
330
C
100
AcDbDictionary
281
     1
  3
STANDARD
350
1B
  0
DICTIONARY
  5
896
102
{ACAD_REACTORS
330
C
102
}
330
C
100
AcDbDictionary
281
     1
  0
ACDBDICTIONARYWDFLT
  5
88F
102
{ACAD_REACTORS
330
C
102
}
330
C
100
AcDbDictionary
281
     1
  3
Normal
350
890
100
AcDbDictionaryWithDefault
340
890
  0
DICTIONARY
  5
893
102
{ACAD_REACTORS
330
C
102
}
330
C
100
AcDbDictionary
281
     1
  3
Standard
350
894
  0
DICTIONARY
  5
8A1
102
{ACAD_REACTORS
330
C
102
}
330
C
100
AcDbDictionary
281
     1
  3
CTABLESTYLE
350
8A2
  0
LAYOUT
  5
897
102
{ACAD_REACTORS
330
895
102
}
330
895
100
AcDbPlotSettings
  1

  2
none_device
  4
Letter_(8.50_x_11.00_Inches)
  6

 40
6.349999904632568
 41
6.349999904632568
 42
6.350006103515625
 43
6.350006103515625
 44
215.8999938964844
 45
279.3999938964844
 46
0.0
 47
0.0
 48
0.0
 49
0.0
140
0.0
141
0.0
142
1.0
143
444.575639502358
 70
 11952
 72
     0
 73
     1
 74
     0
  7
acad.stb
 75
     0
147
0.0022493360210185
 76
     0
 77
     2
 78
   300
148
5945.786518791322
149
282.4021406416045
100
AcDbLayout
  1
Model
 70
     1
 71
     0
 10
0.0
 20
0.0
 11
12.0
 21
9.0
 12
0.0
 22
0.0
 32
0.0
 14
0.0
 24
0.0
 34
0.0
 15
0.0
 25
0.0
 35
0.0
146
0.0
 13
0.0
 23
0.0
 33
0.0
 16
1.0
 26
0.0
 36
0.0
 17
0.0
 27
1.0
 37
0.0
 76
     0
330
18
1001
ACAD_PSEXT
1000
なし
1000
なし
1000
適切ではありません
1000
新しいプロッタ環境設定名を選択しない限り、レイアウトは印刷されません。
1070
     0
  0
LAYOUT
  5
898
102
{ACAD_REACTORS
330
895
102
}
330
895
100
AcDbPlotSettings
  1

  2
RICOH imagio MF5550 RPS
  4

  6

 40
0.0
 41
0.0
 42
0.0
 43
0.0
 44
0.0
 45
0.0
 46
0.0
 47
0.0
 48
0.0
 49
0.0
140
0.0
141
0.0
142
1.0
143
1.0
 70
   688
 72
     0
 73
     0
 74
     5
  7
acad.stb
 75
    16
147
1.0
 76
     0
 77
     2
 78
   300
148
0.0
149
0.0
100
AcDbLayout
  1
レイアウト1
 70
     1
 71
     1
 10
0.0
 20
0.0
 11
12.0
 21
9.0
 12
0.0
 22
0.0
 32
0.0
 14
1.000000000000000E+20
 24
1.000000000000000E+20
 34
1.000000000000000E+20
 15
-1.000000000000000E+20
 25
-1.000000000000000E+20
 35
-1.000000000000000E+20
146
0.0
 13
0.0
 23
0.0
 33
0.0
 16
1.0
 26
0.0
 36
0.0
 17
0.0
 27
1.0
 37
0.0
 76
     0
330
15
  0
MLINESTYLE
  5
1B
102
{ACAD_REACTORS
330
E
102
}
330
E
100
AcDbMlineStyle
  2
STANDARD
 70
     0
  3

 62
     0
 51
90.0
 52
90.0
 71
     2
 49
0.5
 62
   256
  6
BYLAYER
 49
-0.5
 62
   256
  6
BYLAYER
  0
ACDBPLACEHOLDER
  5
890
102
{ACAD_REACTORS
330
88F
102
}
330
88F
  0
TABLESTYLE
  5
894
102
{ACAD_REACTORS
330
893
102
}
330
893
100
AcDbTableStyle
  3
Standard
 70
     0
 71
     0
 40
0.06
 41
0.06
280
     0
281
     0
  7
STANDARD
140
0.18
170
     2
 62
     0
 63
     7
283
     0
274
    -2
284
     1
 64
     0
275
    -2
285
     1
 65
     0
276
    -2
286
     1
 66
     0
277
    -2
287
     1
 67
     0
278
    -2
288
     1
 68
     0
279
    -2
289
     1
 69
     0
  7
STANDARD
140
0.25
170
     5
 62
     0
 63
     7
283
     0
274
    -2
284
     1
 64
     0
275
    -2
285
     1
 65
     0
276
    -2
286
     1
 66
     0
277
    -2
287
     1
 67
     0
278
    -2
288
     1
 68
     0
279
    -2
289
     1
 69
     0
  7
STANDARD
140
0.18
170
     5
 62
     0
 63
     7
283
     0
274
    -2
284
     1
 64
     0
275
    -2
285
     1
 65
     0
276
    -2
286
     1
 66
     0
277
    -2
287
     1
 67
     0
278
    -2
288
     1
 68
     0
279
    -2
289
     1
 69
     0
  0
DICTIONARYVAR
  5
8A2
102
{ACAD_REACTORS
330
8A1
102
}
330
8A1
100
DictionaryVariables
280
     0
  1
STANDARD
  0
ENDSEC
  0
EOF
