  0
SECTION
  2
HEADER
  9
$ACADVER
  1
AC1012
  9
$DWGCODEPAGE
  3
dos932
  9
$INSBASE
 10
0.0
 20
0.0
 30
0.0
  9
$EXTMIN
 10
0.0
 20
0.0
 30
0.0
  9
$EXTMAX
 10
7400.0
 20
5340.0
 30
0.0
  9
$LIMMIN
 10
0.0
 20
0.0
  9
$LIMMAX
 10
8400.0
 20
5940.0
  9
$ORTHOMODE
 70
     1
  9
$REGENMODE
 70
     1
  9
$FILLMODE
 70
     1
  9
$QTEXTMODE
 70
     0
  9
$MIRRTEXT
 70
     0
  9
$DRAGMODE
 70
     2
  9
$LTSCALE
 40
200.0
  9
$OSMODE
 70
    32
  9
$ATTMODE
 70
     1
  9
$TEXTSIZE
 40
60.0
  9
$TRACEWID
 40
0.05
  9
$TEXTSTYLE
  7
KANJI08
  9
$CLAYER
  8
SUNPOU
  9
$CELTYPE
  6
BYLAYER
  9
$CECOLOR
 62
   256
  9
$CELTSCALE
 40
1.0
  9
$DELOBJ
 70
     1
  9
$DISPSILH
 70
     0
  9
$DIMSCALE
 40
20.0
  9
$DIMASZ
 40
2.0
  9
$DIMEXO
 40
1.0
  9
$DIMDLI
 40
6.0
  9
$DIMRND
 40
0.0
  9
$DIMDLE
 40
0.0
  9
$DIMEXE
 40
1.0
  9
$DIMTP
 40
0.0
  9
$DIMTM
 40
0.0
  9
$DIMTXT
 40
3.0
  9
$DIMCEN
 40
0.09
  9
$DIMTSZ
 40
0.0
  9
$DIMTOL
 70
     0
  9
$DIMLIM
 70
     0
  9
$DIMTIH
 70
     0
  9
$DIMTOH
 70
     0
  9
$DIMSE1
 70
     0
  9
$DIMSE2
 70
     0
  9
$DIMTAD
 70
     1
  9
$DIMZIN
 70
     8
  9
$DIMBLK
  1

  9
$DIMASO
 70
     1
  9
$DIMSHO
 70
     1
  9
$DIMPOST
  1

  9
$DIMAPOST
  1

  9
$DIMALT
 70
     0
  9
$DIMALTD
 70
     2
  9
$DIMALTF
 40
25.4
  9
$DIMLFAC
 40
0.5
  9
$DIMTOFL
 70
     1
  9
$DIMTVP
 40
0.0
  9
$DIMTIX
 70
     0
  9
$DIMSOXD
 70
     0
  9
$DIMSAH
 70
     0
  9
$DIMBLK1
  1

  9
$DIMBLK2
  1

  9
$DIMSTYLE
  2
SJC
  9
$DIMCLRD
 70
   256
  9
$DIMCLRE
 70
   256
  9
$DIMCLRT
 70
   256
  9
$DIMTFAC
 40
1.0
  9
$DIMGAP
 40
1.2
  9
$DIMJUST
 70
     0
  9
$DIMSD1
 70
     0
  9
$DIMSD2
 70
     0
  9
$DIMTOLJ
 70
     1
  9
$DIMTZIN
 70
     0
  9
$DIMALTZ
 70
     0
  9
$DIMALTTZ
 70
     0
  9
$DIMFIT
 70
     5
  9
$DIMUPT
 70
     0
  9
$DIMUNIT
 70
     2
  9
$DIMDEC
 70
     1
  9
$DIMTDEC
 70
     4
  9
$DIMALTU
 70
     2
  9
$DIMALTTD
 70
     2
  9
$DIMTXSTY
  7
KANJI08
  9
$DIMAUNIT
 70
     1
  9
$LUNITS
 70
     2
  9
$LUPREC
 70
     2
  9
$SKETCHINC
 40
0.1
  9
$FILLETRAD
 40
0.0
  9
$AUNITS
 70
     1
  9
$AUPREC
 70
     2
  9
$MENU
  1
C:\r13\win\SUPPORT\sjc
  9
$ELEVATION
 40
0.0
  9
$PELEVATION
 40
0.0
  9
$THICKNESS
 40
0.0
  9
$LIMCHECK
 70
     0
  9
$BLIPMODE
 70
     1
  9
$CHAMFERA
 40
0.0
  9
$CHAMFERB
 40
0.0
  9
$CHAMFERC
 40
0.0
  9
$CHAMFERD
 40
0.0
  9
$SKPOLY
 70
     0
  9
$TDCREATE
 40
2449368.655993402
  9
$TDUPDATE
 40
2451767.705311285
  9
$TDINDWG
 40
0.1875099884
  9
$TDUSRTIMER
 40
0.1875099884
  9
$USRTIMER
 70
     1
  9
$ANGBASE
 50
0.0
  9
$ANGDIR
 70
     0
  9
$PDMODE
 70
     0
  9
$PDSIZE
 40
0.0
  9
$PLINEWID
 40
0.0
  9
$COORDS
 70
     1
  9
$SPLFRAME
 70
     0
  9
$SPLINETYPE
 70
     6
  9
$SPLINESEGS
 70
     8
  9
$ATTDIA
 70
     0
  9
$ATTREQ
 70
     1
  9
$HANDLING
 70
     1
  9
$HANDSEED
  5
A76
  9
$SURFTAB1
 70
     6
  9
$SURFTAB2
 70
     6
  9
$SURFTYPE
 70
     6
  9
$SURFU
 70
     6
  9
$SURFV
 70
     6
  9
$UCSNAME
  2

  9
$UCSORG
 10
0.0
 20
0.0
 30
0.0
  9
$UCSXDIR
 10
1.0
 20
0.0
 30
0.0
  9
$UCSYDIR
 10
0.0
 20
1.0
 30
0.0
  9
$PUCSNAME
  2

  9
$PUCSORG
 10
0.0
 20
0.0
 30
0.0
  9
$PUCSXDIR
 10
1.0
 20
0.0
 30
0.0
  9
$PUCSYDIR
 10
0.0
 20
1.0
 30
0.0
  9
$USERI1
 70
     3
  9
$USERI2
 70
    20
  9
$USERI3
 70
     0
  9
$USERI4
 70
     0
  9
$USERI5
 70
     0
  9
$USERR1
 40
0.05
  9
$USERR2
 40
0.0
  9
$USERR3
 40
0.0
  9
$USERR4
 40
0.0
  9
$USERR5
 40
0.0
  9
$WORLDVIEW
 70
     1
  9
$SHADEDGE
 70
     3
  9
$SHADEDIF
 70
    70
  9
$TILEMODE
 70
     1
  9
$MAXACTVP
 70
    16
  9
$PINSBASE
 10
0.0
 20
0.0
 30
0.0
  9
$PLIMCHECK
 70
     0
  9
$PEXTMIN
 10
1.000000E+20
 20
1.000000E+20
 30
1.000000E+20
  9
$PEXTMAX
 10
-1.000000E+20
 20
-1.000000E+20
 30
-1.000000E+20
  9
$PLIMMIN
 10
0.0
 20
0.0
  9
$PLIMMAX
 10
12.0
 20
9.0
  9
$UNITMODE
 70
     0
  9
$VISRETAIN
 70
     0
  9
$PLINEGEN
 70
     0
  9
$PSLTSCALE
 70
     1
  9
$TREEDEPTH
 70
  3020
  9
$PICKSTYLE
 70
     1
  9
$CMLSTYLE
  2
STANDARD
  9
$CMLJUST
 70
     0
  9
$CMLSCALE
 40
1.0
  9
$SAVEIMAGES
 70
     0
  0
ENDSEC
  0
SECTION
  2
CLASSES
  0
ENDSEC
  0
SECTION
  2
TABLES
  0
TABLE
  2
VPORT
  5
8
100
AcDbSymbolTable
 70
     4
  0
VPORT
  5
A75
100
AcDbSymbolTableRecord
100
AcDbViewportTableRecord
  2
*ACTIVE
 70
     0
 10
0.0
 20
0.0
 11
1.0
 21
1.0
 12
5616.203008
 22
3048.157895
 13
0.0
 23
0.0
 14
10.0
 24
10.0
 15
0.0
 25
0.0
 16
0.0
 26
0.0
 36
1.0
 17
0.0
 27
0.0
 37
0.0
 40
6096.315789
 41
1.842491
 42
50.0
 43
0.0
 44
0.0
 50
0.0
 51
0.0
 71
     0
 72
   100
 73
     1
 74
     1
 75
     0
 76
     0
 77
     0
 78
     0
  0
ENDTAB
  0
TABLE
  2
LTYPE
  5
5
100
AcDbSymbolTable
 70
     5
  0
LTYPE
  5
12
100
AcDbSymbolTableRecord
100
AcDbLinetypeTableRecord
  2
BYBLOCK
 70
     0
  3

 72
    65
 73
     0
 40
0.0
  0
LTYPE
  5
13
100
AcDbSymbolTableRecord
100
AcDbLinetypeTableRecord
  2
BYLAYER
 70
     0
  3

 72
    65
 73
     0
 40
0.0
  0
LTYPE
  5
14
100
AcDbSymbolTableRecord
100
AcDbLinetypeTableRecord
  2
CONTINUOUS
 70
    64
  3
Solid line
 72
    65
 73
     0
 40
0.0
  0
LTYPE
  5
38
100
AcDbSymbolTableRecord
100
AcDbLinetypeTableRecord
  2
CENTER
 70
    64
  3
____ _ ____ _ ____ _ ____ _ ____ _ ____ _ ____ 
 72
    65
 73
     4
 40
2.0
 49
1.25
 74
     0
 49
-0.25
 74
     0
 49
0.25
 74
     0
 49
-0.25
 74
     0
  0
LTYPE
  5
39
100
AcDbSymbolTableRecord
100
AcDbLinetypeTableRecord
  2
HIDDEN
 70
    64
  3
__ __ __ __ __ __ __ __ __ __ __ __ __ __ __ __
 72
    65
 73
     2
 40
0.375
 49
0.25
 74
     0
 49
-0.125
 74
     0
  0
LTYPE
  5
3A
100
AcDbSymbolTableRecord
100
AcDbLinetypeTableRecord
  2
HIDDEN2
 70
     0
  3
_ _ _ _ _ _ _ _ _ _ _ _ _ _ _ _ _ _ _ _ _ _ _ _
 72
    65
 73
     2
 40
0.1875
 49
0.125
 74
     0
 49
-0.0625
 74
     0
  0
LTYPE
  5
3B
100
AcDbSymbolTableRecord
100
AcDbLinetypeTableRecord
  2
PHANTOM
 70
    64
  3
______  __  __  ______  __  __  ______  __  __ 
 72
    65
 73
     6
 40
2.5
 49
1.25
 74
     0
 49
-0.25
 74
     0
 49
0.25
 74
     0
 49
-0.25
 74
     0
 49
0.25
 74
     0
 49
-0.25
 74
     0
  0
ENDTAB
  0
TABLE
  2
LAYER
  5
2
100
AcDbSymbolTable
 70
    15
  0
LAYER
  5
F
100
AcDbSymbolTableRecord
100
AcDbLayerTableRecord
  2
0
 70
    64
 62
     7
  6
CONTINUOUS
  0
LAYER
  5
43
100
AcDbSymbolTableRecord
100
AcDbLayerTableRecord
  2
CENTER
 70
    64
 62
     3
  6
CENTER
  0
LAYER
  5
44
100
AcDbSymbolTableRecord
100
AcDbLayerTableRecord
  2
HASEN
 70
    64
 62
     7
  6
HIDDEN
  0
LAYER
  5
45
100
AcDbSymbolTableRecord
100
AcDbLayerTableRecord
  2
HOJO
 70
    64
 62
     8
  6
CONTINUOUS
  0
LAYER
  5
46
100
AcDbSymbolTableRecord
100
AcDbLayerTableRecord
  2
KASOU
 70
     0
 62
     2
  6
PHANTOM
  0
LAYER
  5
47
100
AcDbSymbolTableRecord
100
AcDbLayerTableRecord
  2
MOJI
 70
    64
 62
     6
  6
CONTINUOUS
  0
LAYER
  5
48
100
AcDbSymbolTableRecord
100
AcDbLayerTableRecord
  2
SJC
 70
    64
 62
     1
  6
CONTINUOUS
  0
LAYER
  5
49
100
AcDbSymbolTableRecord
100
AcDbLayerTableRecord
  2
SUNPOU
 70
    64
 62
     4
  6
CONTINUOUS
  0
LAYER
  5
4A
100
AcDbSymbolTableRecord
100
AcDbLayerTableRecord
  2
WAKU
 70
    64
 62
     5
  6
CONTINUOUS
  0
LAYER
  5
4B
100
AcDbSymbolTableRecord
100
AcDbLayerTableRecord
  2
DEFPOINTS
 70
    64
 62
     7
  6
CONTINUOUS
  0
LAYER
  5
4C
100
AcDbSymbolTableRecord
100
AcDbLayerTableRecord
  2
ZWAKU
 70
    64
 62
    -7
  6
CONTINUOUS
  0
LAYER
  5
467
100
AcDbSymbolTableRecord
100
AcDbLayerTableRecord
  2
INFORMATION
 70
    65
 62
     7
  6
CONTINUOUS
  0
LAYER
  5
46A
100
AcDbSymbolTableRecord
100
AcDbLayerTableRecord
  2
SJC2
 70
    64
 62
     7
  6
CONTINUOUS
  0
LAYER
  5
46B
100
AcDbSymbolTableRecord
100
AcDbLayerTableRecord
  2
MOJI2
 70
    64
 62
     1
  6
CONTINUOUS
  0
LAYER
  5
46C
100
AcDbSymbolTableRecord
100
AcDbLayerTableRecord
  2
HATCH
 70
    64
 62
     2
  6
CONTINUOUS
  0
ENDTAB
  0
TABLE
  2
STYLE
  5
3
100
AcDbSymbolTable
 70
    11
  0
STYLE
  5
10
100
AcDbSymbolTableRecord
100
AcDbTextStyleTableRecord
  2
STANDARD
 70
     0
 40
0.0
 41
1.0
 50
0.0
 71
     0
 42
60.0
  3
ROMANS.SHX
  4
BIGFONT.SHX
  0
STYLE
  5
34
100
AcDbSymbolTableRecord
100
AcDbTextStyleTableRecord
  2
USER
 70
     0
 40
0.0
 41
1.0
 50
0.0
 71
     0
 42
60.0
  3
TXT
  4
BIGFONT
  0
STYLE
  5
35
100
AcDbSymbolTableRecord
100
AcDbTextStyleTableRecord
  2
TEXT6060
 70
     0
 40
60.0
 41
1.0
 50
0.0
 71
     0
 42
60.0
  3
TXT
  4
BIGFONT
  0
STYLE
  5
36
100
AcDbSymbolTableRecord
100
AcDbTextStyleTableRecord
  2
SIMPLEX
 70
     0
 40
0.0
 41
1.0
 50
0.0
 71
     0
 42
60.0
  3
SCRIPTS.SHX
  4

  0
STYLE
  5
37
100
AcDbSymbolTableRecord
100
AcDbTextStyleTableRecord
  2
KANJI
 70
    64
 40
0.0
 41
1.0
 50
0.0
 71
     0
 42
60.0
  3
ROMANS.SHX
  4
BIGFONT.SHX
  0
STYLE
  5
47D
100
AcDbSymbolTableRecord
100
AcDbTextStyleTableRecord
  2
TATEEXT
 70
    68
 40
0.0
 41
1.0
 50
0.0
 71
     0
 42
60.0
  3
ROMANS
  4
EXTFONT
  0
STYLE
  5
47E
100
AcDbSymbolTableRecord
100
AcDbTextStyleTableRecord
  2
TATEBIG
 70
    68
 40
0.0
 41
1.0
 50
0.0
 71
     0
 42
60.0
  3
ROMANS
  4
BIGFONT
  0
STYLE
  5
47F
100
AcDbSymbolTableRecord
100
AcDbTextStyleTableRecord
  2
EXT08
 70
    64
 40
0.0
 41
0.8
 50
0.0
 71
     0
 42
60.0
  3
ROMANS
  4
EXTFONT
  0
STYLE
  5
480
100
AcDbSymbolTableRecord
100
AcDbTextStyleTableRecord
  2
EXT
 70
    64
 40
0.0
 41
1.0
 50
0.0
 71
     0
 42
60.0
  3
ROMANS
  4
EXTFONT
  0
STYLE
  5
481
100
AcDbSymbolTableRecord
100
AcDbTextStyleTableRecord
  2
KANJI08
 70
    64
 40
0.0
 41
0.8
 50
0.0
 71
     0
 42
60.0
  3
ROMANS
  4
BIGFONT
  0
STYLE
  5
86B
100
AcDbSymbolTableRecord
100
AcDbTextStyleTableRecord
  2
TEXT3030
 70
    64
 40
30.0
 41
1.0
 50
0.0
 71
     0
 42
30.0
  3
TXT
  4
BIGFONT
  0
ENDTAB
  0
TABLE
  2
VIEW
  5
6
100
AcDbSymbolTable
 70
     0
  0
ENDTAB
  0
TABLE
  2
UCS
  5
7
100
AcDbSymbolTable
 70
     0
  0
ENDTAB
  0
TABLE
  2
APPID
  5
9
100
AcDbSymbolTable
 70
     1
  0
APPID
  5
11
100
AcDbSymbolTableRecord
100
AcDbRegAppTableRecord
  2
ACAD
 70
    64
  0
ENDTAB
  0
TABLE
  2
DIMSTYLE
  5
A
100
AcDbSymbolTable
 70
     2
  0
DIMSTYLE
105
457
100
AcDbSymbolTableRecord
100
AcDbDimStyleTableRecord
  2
STANDARD
 70
     0
  3

  4

  5

  6

  7

 40
1.0
 41
0.18
 42
0.0625
 43
0.38
 44
0.18
 45
0.0
 46
0.0
 47
0.0
 48
0.0
140
0.18
141
0.09
142
0.0
143
25.4
144
1.0
145
0.0
146
1.0
147
0.09
 71
     0
 72
     0
 73
     1
 74
     1
 75
     0
 76
     0
 77
     0
 78
     0
170
     0
171
     2
172
     0
173
     0
174
     0
175
     0
176
     0
177
     0
178
     0
270
     2
271
     4
272
     4
273
     2
274
     2
340
10
275
     0
280
     0
281
     0
282
     0
283
     1
284
     0
285
     0
286
     0
287
     3
288
     0
  0
DIMSTYLE
105
482
100
AcDbSymbolTableRecord
100
AcDbDimStyleTableRecord
  2
SJC
 70
     0
  3

  4

  5

  6

  7

 40
1.0
 41
0.18
 42
0.0625
 43
0.38
 44
0.18
 45
0.0
 46
0.0
 47
0.0
 48
0.0
140
0.18
141
0.09
142
0.0
143
25.4
144
1.0
145
0.0
146
1.0
147
0.09
 71
     0
 72
     0
 73
     1
 74
     1
 75
     0
 76
     0
 77
     0
 78
     0
170
     0
171
     2
172
     0
173
     0
174
     0
175
     0
176
     0
177
     0
178
     0
270
     2
271
     4
272
     4
273
     2
274
     2
340
10
275
     0
280
     0
281
     0
282
     0
283
     1
284
     0
285
     0
286
     0
287
     3
288
     0
  0
ENDTAB
  0
TABLE
  2
BLOCK_RECORD
  5
1
100
AcDbSymbolTable
 70
    23
  0
BLOCK_RECORD
  5
18
100
AcDbSymbolTableRecord
100
AcDbBlockTableRecord
  2
*MODEL_SPACE
  0
BLOCK_RECORD
  5
15
100
AcDbSymbolTableRecord
100
AcDbBlockTableRecord
  2
*PAPER_SPACE
  0
BLOCK_RECORD
  5
45D
100
AcDbSymbolTableRecord
100
AcDbBlockTableRecord
  2
CALCOMP_TECHJET720A3
  0
BLOCK_RECORD
  5
49A
100
AcDbSymbolTableRecord
100
AcDbBlockTableRecord
  2
*D1
  0
BLOCK_RECORD
  5
4A6
100
AcDbSymbolTableRecord
100
AcDbBlockTableRecord
  2
*D2
  0
BLOCK_RECORD
  5
4BD
100
AcDbSymbolTableRecord
100
AcDbBlockTableRecord
  2
*D3
  0
BLOCK_RECORD
  5
4D9
100
AcDbSymbolTableRecord
100
AcDbBlockTableRecord
  2
*D4
  0
BLOCK_RECORD
  5
4E5
100
AcDbSymbolTableRecord
100
AcDbBlockTableRecord
  2
*D5
  0
BLOCK_RECORD
  5
4FF
100
AcDbSymbolTableRecord
100
AcDbBlockTableRecord
  2
*D6
  0
BLOCK_RECORD
  5
50B
100
AcDbSymbolTableRecord
100
AcDbBlockTableRecord
  2
*D7
  0
BLOCK_RECORD
  5
531
100
AcDbSymbolTableRecord
100
AcDbBlockTableRecord
  2
*D9
  0
BLOCK_RECORD
  5
53D
100
AcDbSymbolTableRecord
100
AcDbBlockTableRecord
  2
*D10
  0
BLOCK_RECORD
  5
549
100
AcDbSymbolTableRecord
100
AcDbBlockTableRecord
  2
*D11
  0
BLOCK_RECORD
  5
555
100
AcDbSymbolTableRecord
100
AcDbBlockTableRecord
  2
*D12
  0
BLOCK_RECORD
  5
5C6
100
AcDbSymbolTableRecord
100
AcDbBlockTableRecord
  2
*D13
  0
BLOCK_RECORD
  5
5D2
100
AcDbSymbolTableRecord
100
AcDbBlockTableRecord
  2
*D14
  0
BLOCK_RECORD
  5
5DE
100
AcDbSymbolTableRecord
100
AcDbBlockTableRecord
  2
*D15
  0
BLOCK_RECORD
  5
5F6
100
AcDbSymbolTableRecord
100
AcDbBlockTableRecord
  2
*D16
  0
BLOCK_RECORD
  5
602
100
AcDbSymbolTableRecord
100
AcDbBlockTableRecord
  2
*D17
  0
BLOCK_RECORD
  5
62F
100
AcDbSymbolTableRecord
100
AcDbBlockTableRecord
  2
*D18
  0
BLOCK_RECORD
  5
7B4
100
AcDbSymbolTableRecord
100
AcDbBlockTableRecord
  2
*X19
  0
BLOCK_RECORD
  5
7C7
100
AcDbSymbolTableRecord
100
AcDbBlockTableRecord
  2
*D20
  0
BLOCK_RECORD
  5
86D
100
AcDbSymbolTableRecord
100
AcDbBlockTableRecord
  2
B0040021
  0
BLOCK_RECORD
  5
932
100
AcDbSymbolTableRecord
100
AcDbBlockTableRecord
  2
*D22
  0
ENDTAB
  0
ENDSEC
  0
SECTION
  2
BLOCKS
  0
BLOCK
  5
4F
100
AcDbEntity
  8
SJC
100
AcDbBlockBegin
  2
*MODEL_SPACE
 70
     0
 10
0.0
 20
0.0
 30
0.0
  3
*MODEL_SPACE
  1

  0
ENDBLK
  5
50
100
AcDbEntity
  8
SJC
100
AcDbBlockEnd
  0
BLOCK
  5
4D
100
AcDbEntity
 67
     1
  8
SJC
100
AcDbBlockBegin
  2
*PAPER_SPACE
 70
     0
 10
0.0
 20
0.0
 30
0.0
  3
*PAPER_SPACE
  1

  0
ENDBLK
  5
4E
100
AcDbEntity
 67
     1
  8
SJC
100
AcDbBlockEnd
  0
BLOCK
  5
464
100
AcDbEntity
  8
ZWAKU
100
AcDbBlockBegin
  2
CALCOMP_TECHJET720A3
 70
     0
 10
0.0
 20
0.0
 30
0.0
  3
CALCOMP_TECHJET720A3
  1

  0
POLYLINE
  5
45E
100
AcDbEntity
  8
ZWAKU
100
AcDb2dPolyline
 66
     1
 10
0.0
 20
0.0
 30
0.0
 70
     1
  0
VERTEX
  5
45F
100
AcDbEntity
  8
ZWAKU
100
AcDbVertex
100
AcDb2dVertex
 10
0.0
 20
0.0
 30
0.0
  0
VERTEX
  5
460
100
AcDbEntity
  8
ZWAKU
100
AcDbVertex
100
AcDb2dVertex
 10
0.0
 20
267.0
 30
0.0
  0
VERTEX
  5
461
100
AcDbEntity
  8
ZWAKU
100
AcDbVertex
100
AcDb2dVertex
 10
370.0
 20
267.0
 30
0.0
  0
VERTEX
  5
462
100
AcDbEntity
  8
ZWAKU
100
AcDbVertex
100
AcDb2dVertex
 10
370.0
 20
0.0
 30
0.0
  0
SEQEND
  5
463
100
AcDbEntity
  8
ZWAKU
  0
ENDBLK
  5
465
100
AcDbEntity
  8
ZWAKU
100
AcDbBlockEnd
  0
BLOCK
  5
A49
100
AcDbEntity
  8
0
100
AcDbBlockBegin
  2
*D1
 70
    65
 10
0.0
 20
0.0
 30
0.0
  3
*D1
  1

  0
LINE
  5
A4A
100
AcDbEntity
  8
0
  6
BYBLOCK
100
AcDbLine
 10
3162.375304
 20
4444.20709
 30
0.0
 11
3162.375304
 21
4829.020056
 31
0.0
  0
LINE
  5
A4B
100
AcDbEntity
  8
0
  6
BYBLOCK
100
AcDbLine
 10
5162.375304
 20
4467.231104
 30
0.0
 11
5162.375304
 21
4829.020056
 31
0.0
  0
LINE
  5
A4C
100
AcDbEntity
  8
0
  6
BYBLOCK
100
AcDbLine
 10
3202.375304
 20
4809.020056
 30
0.0
 11
5122.375304
 21
4809.020056
 31
0.0
  0
SOLID
  5
A4D
100
AcDbEntity
  8
0
  6
BYBLOCK
100
AcDbTrace
 10
3202.375304
 20
4815.686722
 30
0.0
 11
3202.375304
 21
4802.353389
 31
0.0
 12
3162.375304
 22
4809.020056
 32
0.0
 13
3162.375304
 23
4809.020056
 33
0.0
  0
SOLID
  5
A4E
100
AcDbEntity
  8
0
  6
BYBLOCK
100
AcDbTrace
 10
5122.375304
 20
4815.686722
 30
0.0
 11
5122.375304
 21
4802.353389
 31
0.0
 12
5162.375304
 22
4809.020056
 32
0.0
 13
5162.375304
 23
4809.020056
 33
0.0
  0
MTEXT
  5
A4F
100
AcDbEntity
  8
0
  6
BYBLOCK
100
AcDbMText
 10
4162.375304
 20
4863.020056
 30
0.0
 40
60.0
 41
0.0
 71
     5
 72
     1
  1
\A1;2000
  7
KANJI08
  0
POINT
  5
A50
100
AcDbEntity
  8
DEFPOINTS
  6
BYBLOCK
 62
     0
100
AcDbPoint
 10
3162.375304
 20
4424.20709
 30
0.0
  0
POINT
  5
A51
100
AcDbEntity
  8
DEFPOINTS
  6
BYBLOCK
 62
     0
100
AcDbPoint
 10
5162.375304
 20
4447.231104
 30
0.0
  0
POINT
  5
A52
100
AcDbEntity
  8
DEFPOINTS
  6
BYBLOCK
 62
     0
100
AcDbPoint
 10
5162.375304
 20
4809.020056
 30
0.0
  0
ENDBLK
  5
A53
100
AcDbEntity
  8
0
100
AcDbBlockEnd
  0
BLOCK
  5
A54
100
AcDbEntity
  8
0
100
AcDbBlockBegin
  2
*D2
 70
    65
 10
0.0
 20
0.0
 30
0.0
  3
*D2
  1

  0
LINE
  5
A55
100
AcDbEntity
  8
0
  6
BYBLOCK
100
AcDbLine
 10
1162.375304
 20
4450.38009
 30
0.0
 11
1162.375304
 21
4829.020056
 31
0.0
  0
LINE
  5
A56
100
AcDbEntity
  8
0
  6
BYBLOCK
100
AcDbLine
 10
3162.375304
 20
4444.14459
 30
0.0
 11
3162.375304
 21
4829.020056
 31
0.0
  0
LINE
  5
A57
100
AcDbEntity
  8
0
  6
BYBLOCK
100
AcDbLine
 10
1202.375304
 20
4809.020056
 30
0.0
 11
3122.375304
 21
4809.020056
 31
0.0
  0
SOLID
  5
A58
100
AcDbEntity
  8
0
  6
BYBLOCK
100
AcDbTrace
 10
1202.375304
 20
4815.686722
 30
0.0
 11
1202.375304
 21
4802.353389
 31
0.0
 12
1162.375304
 22
4809.020056
 32
0.0
 13
1162.375304
 23
4809.020056
 33
0.0
  0
SOLID
  5
A59
100
AcDbEntity
  8
0
  6
BYBLOCK
100
AcDbTrace
 10
3122.375304
 20
4815.686722
 30
0.0
 11
3122.375304
 21
4802.353389
 31
0.0
 12
3162.375304
 22
4809.020056
 32
0.0
 13
3162.375304
 23
4809.020056
 33
0.0
  0
MTEXT
  5
A5A
100
AcDbEntity
  8
0
  6
BYBLOCK
100
AcDbMText
 10
2162.375304
 20
4863.020056
 30
0.0
 40
60.0
 41
0.0
 71
     5
 72
     1
  1
\A1;2000
  7
KANJI08
  0
POINT
  5
A5B
100
AcDbEntity
  8
DEFPOINTS
  6
BYBLOCK
 62
     0
100
AcDbPoint
 10
1162.375304
 20
4430.38009
 30
0.0
  0
POINT
  5
A5C
100
AcDbEntity
  8
DEFPOINTS
  6
BYBLOCK
 62
     0
100
AcDbPoint
 10
3162.375304
 20
4424.14459
 30
0.0
  0
POINT
  5
A5D
100
AcDbEntity
  8
DEFPOINTS
  6
BYBLOCK
 62
     0
100
AcDbPoint
 10
3162.375304
 20
4809.020056
 30
0.0
  0
ENDBLK
  5
A5E
100
AcDbEntity
  8
0
100
AcDbBlockEnd
  0
BLOCK
  5
A5F
100
AcDbEntity
  8
0
100
AcDbBlockBegin
  2
*D3
 70
    65
 10
0.0
 20
0.0
 30
0.0
  3
*D3
  1

  0
LINE
  5
A60
100
AcDbEntity
  8
0
  6
BYBLOCK
100
AcDbLine
 10
1062.375304
 20
4326.923076
 30
0.0
 11
1062.375304
 21
4829.020056
 31
0.0
  0
LINE
  5
A61
100
AcDbEntity
  8
0
  6
BYBLOCK
100
AcDbLine
 10
1162.375304
 20
4450.31759
 30
0.0
 11
1162.375304
 21
4829.020056
 31
0.0
  0
LINE
  5
A62
100
AcDbEntity
  8
0
  6
BYBLOCK
100
AcDbLine
 10
1022.375304
 20
4809.020056
 30
0.0
 11
982.375304
 21
4809.020056
 31
0.0
  0
LINE
  5
A63
100
AcDbEntity
  8
0
  6
BYBLOCK
100
AcDbLine
 10
1202.375304
 20
4809.020056
 30
0.0
 11
1242.375304
 21
4809.020056
 31
0.0
  0
MTEXT
  5
A64
100
AcDbEntity
  8
0
  6
BYBLOCK
100
AcDbMText
 10
1115.499139
 20
4866.56704
 30
0.0
 40
60.0
 41
0.0
 71
     5
 72
     1
  1
\A1;100
  7
KANJI08
  0
LINE
  5
A65
100
AcDbEntity
  8
0
  6
BYBLOCK
100
AcDbLine
 10
1062.375304
 20
4809.020056
 30
0.0
 11
1162.375304
 21
4809.020056
 31
0.0
  0
SOLID
  5
A66
100
AcDbEntity
  8
0
  6
BYBLOCK
100
AcDbTrace
 10
1022.375304
 20
4815.686722
 30
0.0
 11
1022.375304
 21
4802.353389
 31
0.0
 12
1062.375304
 22
4809.020056
 32
0.0
 13
1062.375304
 23
4809.020056
 33
0.0
  0
SOLID
  5
A67
100
AcDbEntity
  8
0
  6
BYBLOCK
100
AcDbTrace
 10
1202.375304
 20
4815.686722
 30
0.0
 11
1202.375304
 21
4802.353389
 31
0.0
 12
1162.375304
 22
4809.020056
 32
0.0
 13
1162.375304
 23
4809.020056
 33
0.0
  0
POINT
  5
A68
100
AcDbEntity
  8
DEFPOINTS
  6
BYBLOCK
 62
     0
100
AcDbPoint
 10
1062.375304
 20
4306.923076
 30
0.0
  0
POINT
  5
A69
100
AcDbEntity
  8
DEFPOINTS
  6
BYBLOCK
 62
     0
100
AcDbPoint
 10
1162.375304
 20
4430.31759
 30
0.0
  0
POINT
  5
A6A
100
AcDbEntity
  8
DEFPOINTS
  6
BYBLOCK
 62
     0
100
AcDbPoint
 10
1162.375304
 20
4809.020056
 30
0.0
  0
ENDBLK
  5
A6B
100
AcDbEntity
  8
0
100
AcDbBlockEnd
  0
BLOCK
  5
9E6
100
AcDbEntity
  8
0
100
AcDbBlockBegin
  2
*D4
 70
    65
 10
0.0
 20
0.0
 30
0.0
  3
*D4
  1

  0
LINE
  5
9E7
100
AcDbEntity
  8
0
  6
BYBLOCK
100
AcDbLine
 10
1577.4625
 20
1380.384615
 30
0.0
 11
1986.0
 21
1380.384615
 31
0.0
  0
LINE
  5
9E8
100
AcDbEntity
  8
0
  6
BYBLOCK
100
AcDbLine
 10
1839.8
 20
425.384615
 30
0.0
 11
1986.0
 21
425.384615
 31
0.0
  0
LINE
  5
9E9
100
AcDbEntity
  8
0
  6
BYBLOCK
100
AcDbLine
 10
1966.0
 20
1340.384615
 30
0.0
 11
1966.0
 21
465.384615
 31
0.0
  0
SOLID
  5
9EA
100
AcDbEntity
  8
0
  6
BYBLOCK
100
AcDbTrace
 10
1959.333333
 20
1340.384615
 30
0.0
 11
1972.666667
 21
1340.384615
 31
0.0
 12
1966.0
 22
1380.384615
 32
0.0
 13
1966.0
 23
1380.384615
 33
0.0
  0
SOLID
  5
9EB
100
AcDbEntity
  8
0
  6
BYBLOCK
100
AcDbTrace
 10
1959.333333
 20
465.384615
 30
0.0
 11
1972.666667
 21
465.384615
 31
0.0
 12
1966.0
 22
425.384615
 32
0.0
 13
1966.0
 23
425.384615
 33
0.0
  0
MTEXT
  5
9EC
100
AcDbEntity
  8
0
  6
BYBLOCK
100
AcDbMText
 10
1912.0
 20
902.884615
 30
0.0
 40
60.0
 41
0.0
 71
     5
 72
     1
  1
\A1;477.5
  7
KANJI08
 11
0.0
 21
1.0
 31
0.0
  0
POINT
  5
9ED
100
AcDbEntity
  8
DEFPOINTS
  6
BYBLOCK
 62
     0
100
AcDbPoint
 10
1557.4625
 20
1380.384615
 30
0.0
  0
POINT
  5
9EE
100
AcDbEntity
  8
DEFPOINTS
  6
BYBLOCK
 62
     0
100
AcDbPoint
 10
1819.8
 20
425.384615
 30
0.0
  0
POINT
  5
9EF
100
AcDbEntity
  8
DEFPOINTS
  6
BYBLOCK
 62
     0
100
AcDbPoint
 10
1966.0
 20
425.384615
 30
0.0
  0
ENDBLK
  5
9F0
100
AcDbEntity
  8
0
100
AcDbBlockEnd
  0
BLOCK
  5
9F1
100
AcDbEntity
  8
0
100
AcDbBlockBegin
  2
*D5
 70
    65
 10
0.0
 20
0.0
 30
0.0
  3
*D5
  1

  0
LINE
  5
9F2
100
AcDbEntity
  8
0
  6
BYBLOCK
100
AcDbLine
 10
1577.4625
 20
1690.384615
 30
0.0
 11
1986.0
 21
1690.384615
 31
0.0
  0
LINE
  5
9F3
100
AcDbEntity
  8
0
  6
BYBLOCK
100
AcDbLine
 10
1577.4
 20
1380.384615
 30
0.0
 11
1986.0
 21
1380.384615
 31
0.0
  0
LINE
  5
9F4
100
AcDbEntity
  8
0
  6
BYBLOCK
100
AcDbLine
 10
1966.0
 20
1650.384615
 30
0.0
 11
1966.0
 21
1420.384615
 31
0.0
  0
SOLID
  5
9F5
100
AcDbEntity
  8
0
  6
BYBLOCK
100
AcDbTrace
 10
1959.333333
 20
1650.384615
 30
0.0
 11
1972.666667
 21
1650.384615
 31
0.0
 12
1966.0
 22
1690.384615
 32
0.0
 13
1966.0
 23
1690.384615
 33
0.0
  0
SOLID
  5
9F6
100
AcDbEntity
  8
0
  6
BYBLOCK
100
AcDbTrace
 10
1959.333333
 20
1420.384615
 30
0.0
 11
1972.666667
 21
1420.384615
 31
0.0
 12
1966.0
 22
1380.384615
 32
0.0
 13
1966.0
 23
1380.384615
 33
0.0
  0
MTEXT
  5
9F7
100
AcDbEntity
  8
0
  6
BYBLOCK
100
AcDbMText
 10
1912.0
 20
1535.384615
 30
0.0
 40
60.0
 41
0.0
 71
     5
 72
     1
  1
\A1;155
  7
KANJI08
 11
0.0
 21
1.0
 31
0.0
  0
POINT
  5
9F8
100
AcDbEntity
  8
DEFPOINTS
  6
BYBLOCK
 62
     0
100
AcDbPoint
 10
1557.4625
 20
1690.384615
 30
0.0
  0
POINT
  5
9F9
100
AcDbEntity
  8
DEFPOINTS
  6
BYBLOCK
 62
     0
100
AcDbPoint
 10
1557.4
 20
1380.384615
 30
0.0
  0
POINT
  5
9FA
100
AcDbEntity
  8
DEFPOINTS
  6
BYBLOCK
 62
     0
100
AcDbPoint
 10
1966.0
 20
1380.384615
 30
0.0
  0
ENDBLK
  5
9FB
100
AcDbEntity
  8
0
100
AcDbBlockEnd
  0
BLOCK
  5
9FC
100
AcDbEntity
  8
0
100
AcDbBlockBegin
  2
*D6
 70
    65
 10
0.0
 20
0.0
 30
0.0
  3
*D6
  1

  0
LINE
  5
9FD
100
AcDbEntity
  8
0
  6
BYBLOCK
100
AcDbLine
 10
1577.4625
 20
2000.384615
 30
0.0
 11
1986.0
 21
2000.384615
 31
0.0
  0
LINE
  5
9FE
100
AcDbEntity
  8
0
  6
BYBLOCK
100
AcDbLine
 10
1577.4
 20
1690.384615
 30
0.0
 11
1986.0
 21
1690.384615
 31
0.0
  0
LINE
  5
9FF
100
AcDbEntity
  8
0
  6
BYBLOCK
100
AcDbLine
 10
1966.0
 20
1960.384615
 30
0.0
 11
1966.0
 21
1730.384615
 31
0.0
  0
SOLID
  5
A00
100
AcDbEntity
  8
0
  6
BYBLOCK
100
AcDbTrace
 10
1959.333333
 20
1960.384615
 30
0.0
 11
1972.666667
 21
1960.384615
 31
0.0
 12
1966.0
 22
2000.384615
 32
0.0
 13
1966.0
 23
2000.384615
 33
0.0
  0
SOLID
  5
A01
100
AcDbEntity
  8
0
  6
BYBLOCK
100
AcDbTrace
 10
1959.333333
 20
1730.384615
 30
0.0
 11
1972.666667
 21
1730.384615
 31
0.0
 12
1966.0
 22
1690.384615
 32
0.0
 13
1966.0
 23
1690.384615
 33
0.0
  0
MTEXT
  5
A02
100
AcDbEntity
  8
0
  6
BYBLOCK
100
AcDbMText
 10
1912.0
 20
1845.384615
 30
0.0
 40
60.0
 41
0.0
 71
     5
 72
     1
  1
\A1;155
  7
KANJI08
 11
0.0
 21
1.0
 31
0.0
  0
POINT
  5
A03
100
AcDbEntity
  8
DEFPOINTS
  6
BYBLOCK
 62
     0
100
AcDbPoint
 10
1557.4625
 20
2000.384615
 30
0.0
  0
POINT
  5
A04
100
AcDbEntity
  8
DEFPOINTS
  6
BYBLOCK
 62
     0
100
AcDbPoint
 10
1557.4
 20
1690.384615
 30
0.0
  0
POINT
  5
A05
100
AcDbEntity
  8
DEFPOINTS
  6
BYBLOCK
 62
     0
100
AcDbPoint
 10
1966.0
 20
1690.384615
 30
0.0
  0
ENDBLK
  5
A06
100
AcDbEntity
  8
0
100
AcDbBlockEnd
  0
BLOCK
  5
A07
100
AcDbEntity
  8
0
100
AcDbBlockBegin
  2
*D7
 70
    65
 10
0.0
 20
0.0
 30
0.0
  3
*D7
  1

  0
LINE
  5
A08
100
AcDbEntity
  8
0
  6
BYBLOCK
100
AcDbLine
 10
839.8
 20
425.384615
 30
0.0
 11
609.423549
 21
425.384615
 31
0.0
  0
LINE
  5
A09
100
AcDbEntity
  8
0
  6
BYBLOCK
100
AcDbLine
 10
1186.0
 20
2215.384615
 30
0.0
 11
609.423549
 21
2215.384615
 31
0.0
  0
LINE
  5
A0A
100
AcDbEntity
  8
0
  6
BYBLOCK
100
AcDbLine
 10
629.423549
 20
465.384615
 30
0.0
 11
629.423549
 21
2175.384615
 31
0.0
  0
SOLID
  5
A0B
100
AcDbEntity
  8
0
  6
BYBLOCK
100
AcDbTrace
 10
622.756882
 20
465.384615
 30
0.0
 11
636.090215
 21
465.384615
 31
0.0
 12
629.423549
 22
425.384615
 32
0.0
 13
629.423549
 23
425.384615
 33
0.0
  0
SOLID
  5
A0C
100
AcDbEntity
  8
0
  6
BYBLOCK
100
AcDbTrace
 10
622.756882
 20
2175.384615
 30
0.0
 11
636.090215
 21
2175.384615
 31
0.0
 12
629.423549
 22
2215.384615
 32
0.0
 13
629.423549
 23
2215.384615
 33
0.0
  0
MTEXT
  5
A0D
100
AcDbEntity
  8
0
  6
BYBLOCK
100
AcDbMText
 10
575.423549
 20
1320.384615
 30
0.0
 40
60.0
 41
0.0
 71
     5
 72
     1
  1
\A1;895
  7
KANJI08
 11
0.0
 21
1.0
 31
0.0
  0
POINT
  5
A0E
100
AcDbEntity
  8
DEFPOINTS
  6
BYBLOCK
 62
     0
100
AcDbPoint
 10
859.8
 20
425.384615
 30
0.0
  0
POINT
  5
A0F
100
AcDbEntity
  8
DEFPOINTS
  6
BYBLOCK
 62
     0
100
AcDbPoint
 10
1206.0
 20
2215.384615
 30
0.0
  0
POINT
  5
A10
100
AcDbEntity
  8
DEFPOINTS
  6
BYBLOCK
 62
     0
100
AcDbPoint
 10
629.423549
 20
2215.384615
 30
0.0
  0
ENDBLK
  5
A11
100
AcDbEntity
  8
0
100
AcDbBlockEnd
  0
BLOCK
  5
9BA
100
AcDbEntity
  8
0
100
AcDbBlockBegin
  2
*D9
 70
    65
 10
0.0
 20
0.0
 30
0.0
  3
*D9
  1

  0
LINE
  5
9BB
100
AcDbEntity
  8
0
  6
BYBLOCK
100
AcDbLine
 10
6752.666664
 20
2187.717948
 30
0.0
 11
6962.213002
 21
2187.717948
 31
0.0
  0
LINE
  5
9BC
100
AcDbEntity
  8
0
  6
BYBLOCK
100
AcDbLine
 10
6752.666664
 20
1903.051281
 30
0.0
 11
6962.213002
 21
1903.051281
 31
0.0
  0
LINE
  5
9BD
100
AcDbEntity
  8
0
  6
BYBLOCK
100
AcDbLine
 10
6942.213002
 20
2147.717948
 30
0.0
 11
6942.213002
 21
1943.051281
 31
0.0
  0
MTEXT
  5
9BE
100
AcDbEntity
  8
0
  6
BYBLOCK
100
AcDbMText
 10
6877.133709
 20
2045.384614
 30
0.0
 40
60.0
 41
0.0
 71
     5
 72
     1
  1
\A1;\U+220542.7
  7
KANJI08
 11
0.0
 21
1.0
 31
0.0
  0
SOLID
  5
9BF
100
AcDbEntity
  8
0
  6
BYBLOCK
100
AcDbTrace
 10
6935.546335
 20
2147.717948
 30
0.0
 11
6948.879669
 21
2147.717948
 31
0.0
 12
6942.213002
 22
2187.717948
 32
0.0
 13
6942.213002
 23
2187.717948
 33
0.0
  0
SOLID
  5
9C0
100
AcDbEntity
  8
0
  6
BYBLOCK
100
AcDbTrace
 10
6935.546335
 20
1943.051281
 30
0.0
 11
6948.879669
 21
1943.051281
 31
0.0
 12
6942.213002
 22
1903.051281
 32
0.0
 13
6942.213002
 23
1903.051281
 33
0.0
  0
POINT
  5
9C1
100
AcDbEntity
  8
DEFPOINTS
  6
BYBLOCK
 62
     0
100
AcDbPoint
 10
6732.666664
 20
2187.717948
 30
0.0
  0
POINT
  5
9C2
100
AcDbEntity
  8
DEFPOINTS
  6
BYBLOCK
 62
     0
100
AcDbPoint
 10
6732.666664
 20
1903.051281
 30
0.0
  0
POINT
  5
9C3
100
AcDbEntity
  8
DEFPOINTS
  6
BYBLOCK
 62
     0
100
AcDbPoint
 10
6942.213002
 20
1903.051281
 30
0.0
  0
ENDBLK
  5
9C4
100
AcDbEntity
  8
0
100
AcDbBlockEnd
  0
BLOCK
  5
9C5
100
AcDbEntity
  8
0
100
AcDbBlockBegin
  2
*D10
 70
    65
 10
0.0
 20
0.0
 30
0.0
  3
*D10
  1

  0
LINE
  5
9C6
100
AcDbEntity
  8
0
  6
BYBLOCK
100
AcDbLine
 10
5666.666665
 20
1532.051281
 30
0.0
 11
5666.666665
 21
1296.368761
 31
0.0
  0
LINE
  5
9C7
100
AcDbEntity
  8
0
  6
BYBLOCK
100
AcDbLine
 10
6598.666664
 20
1532.051281
 30
0.0
 11
6598.666664
 21
1296.368761
 31
0.0
  0
LINE
  5
9C8
100
AcDbEntity
  8
0
  6
BYBLOCK
100
AcDbLine
 10
5706.666665
 20
1316.368761
 30
0.0
 11
6558.666664
 21
1316.368761
 31
0.0
  0
SOLID
  5
9C9
100
AcDbEntity
  8
0
  6
BYBLOCK
100
AcDbTrace
 10
5706.666665
 20
1323.035427
 30
0.0
 11
5706.666665
 21
1309.702094
 31
0.0
 12
5666.666665
 22
1316.368761
 32
0.0
 13
5666.666665
 23
1316.368761
 33
0.0
  0
SOLID
  5
9CA
100
AcDbEntity
  8
0
  6
BYBLOCK
100
AcDbTrace
 10
6558.666664
 20
1323.035427
 30
0.0
 11
6558.666664
 21
1309.702094
 31
0.0
 12
6598.666664
 22
1316.368761
 32
0.0
 13
6598.666664
 23
1316.368761
 33
0.0
  0
MTEXT
  5
9CB
100
AcDbEntity
  8
0
  6
BYBLOCK
100
AcDbMText
 10
6132.666665
 20
1370.368761
 30
0.0
 40
60.0
 41
0.0
 71
     5
 72
     1
  1
\A1;\U+2205139.8
  7
KANJI08
  0
POINT
  5
9CC
100
AcDbEntity
  8
DEFPOINTS
  6
BYBLOCK
 62
     0
100
AcDbPoint
 10
5666.666665
 20
1552.051281
 30
0.0
  0
POINT
  5
9CD
100
AcDbEntity
  8
DEFPOINTS
  6
BYBLOCK
 62
     0
100
AcDbPoint
 10
6598.666664
 20
1552.051281
 30
0.0
  0
POINT
  5
9CE
100
AcDbEntity
  8
DEFPOINTS
  6
BYBLOCK
 62
     0
100
AcDbPoint
 10
6598.666664
 20
1316.368761
 30
0.0
  0
ENDBLK
  5
9CF
100
AcDbEntity
  8
0
100
AcDbBlockEnd
  0
BLOCK
  5
9D0
100
AcDbEntity
  8
0
100
AcDbBlockBegin
  2
*D11
 70
    65
 10
0.0
 20
0.0
 30
0.0
  3
*D11
  1

  0
LINE
  5
9D1
100
AcDbEntity
  8
0
  6
BYBLOCK
100
AcDbLine
 10
5865.999998
 20
1805.384615
 30
0.0
 11
5865.999998
 21
1681.384615
 31
0.0
  0
LINE
  5
9D2
100
AcDbEntity
  8
0
  6
BYBLOCK
100
AcDbLine
 10
6399.333331
 20
1805.384615
 30
0.0
 11
6399.333331
 21
1681.384615
 31
0.0
  0
LINE
  5
9D3
100
AcDbEntity
  8
0
  6
BYBLOCK
100
AcDbLine
 10
5905.999998
 20
1701.384615
 30
0.0
 11
6359.333331
 21
1701.384615
 31
0.0
  0
SOLID
  5
9D4
100
AcDbEntity
  8
0
  6
BYBLOCK
100
AcDbTrace
 10
5905.999998
 20
1708.051281
 30
0.0
 11
5905.999998
 21
1694.717948
 31
0.0
 12
5865.999998
 22
1701.384615
 32
0.0
 13
5865.999998
 23
1701.384615
 33
0.0
  0
SOLID
  5
9D5
100
AcDbEntity
  8
0
  6
BYBLOCK
100
AcDbTrace
 10
6359.333331
 20
1708.051281
 30
0.0
 11
6359.333331
 21
1694.717948
 31
0.0
 12
6399.333331
 22
1701.384615
 32
0.0
 13
6399.333331
 23
1701.384615
 33
0.0
  0
MTEXT
  5
9D6
100
AcDbEntity
  8
0
  6
BYBLOCK
100
AcDbMText
 10
6132.666665
 20
1755.384615
 30
0.0
 40
60.0
 41
0.0
 71
     5
 72
     1
  1
\A1;80
  7
KANJI08
  0
POINT
  5
9D7
100
AcDbEntity
  8
DEFPOINTS
  6
BYBLOCK
 62
     0
100
AcDbPoint
 10
5865.999998
 20
1825.384615
 30
0.0
  0
POINT
  5
9D8
100
AcDbEntity
  8
DEFPOINTS
  6
BYBLOCK
 62
     0
100
AcDbPoint
 10
6399.333331
 20
1825.384615
 30
0.0
  0
POINT
  5
9D9
100
AcDbEntity
  8
DEFPOINTS
  6
BYBLOCK
 62
     0
100
AcDbPoint
 10
6399.333331
 20
1701.384615
 30
0.0
  0
ENDBLK
  5
9DA
100
AcDbEntity
  8
0
100
AcDbBlockEnd
  0
BLOCK
  5
9DB
100
AcDbEntity
  8
0
100
AcDbBlockBegin
  2
*D12
 70
    65
 10
0.0
 20
0.0
 30
0.0
  3
*D12
  1

  0
LINE
  5
9DC
100
AcDbEntity
  8
0
  6
BYBLOCK
100
AcDbLine
 10
5752.666665
 20
2265.384614
 30
0.0
 11
5752.666665
 21
2385.384615
 31
0.0
  0
LINE
  5
9DD
100
AcDbEntity
  8
0
  6
BYBLOCK
100
AcDbLine
 10
6512.666664
 20
2265.384614
 30
0.0
 11
6512.666664
 21
2385.384615
 31
0.0
  0
LINE
  5
9DE
100
AcDbEntity
  8
0
  6
BYBLOCK
100
AcDbLine
 10
5792.666665
 20
2365.384615
 30
0.0
 11
6472.666664
 21
2365.384615
 31
0.0
  0
MTEXT
  5
9DF
100
AcDbEntity
  8
0
  6
BYBLOCK
100
AcDbMText
 10
6132.666665
 20
2419.384615
 30
0.0
 40
60.0
 41
0.0
 71
     5
 72
     1
  1
\A1;114
  7
KANJI08
  0
SOLID
  5
9E0
100
AcDbEntity
  8
0
  6
BYBLOCK
100
AcDbTrace
 10
5792.666665
 20
2372.051281
 30
0.0
 11
5792.666665
 21
2358.717948
 31
0.0
 12
5752.666665
 22
2365.384615
 32
0.0
 13
5752.666665
 23
2365.384615
 33
0.0
  0
SOLID
  5
9E1
100
AcDbEntity
  8
0
  6
BYBLOCK
100
AcDbTrace
 10
6472.666664
 20
2372.051281
 30
0.0
 11
6472.666664
 21
2358.717948
 31
0.0
 12
6512.666664
 22
2365.384615
 32
0.0
 13
6512.666664
 23
2365.384615
 33
0.0
  0
POINT
  5
9E2
100
AcDbEntity
  8
DEFPOINTS
  6
BYBLOCK
 62
     0
100
AcDbPoint
 10
5752.666665
 20
2245.384614
 30
0.0
  0
POINT
  5
9E3
100
AcDbEntity
  8
DEFPOINTS
  6
BYBLOCK
 62
     0
100
AcDbPoint
 10
6512.666664
 20
2245.384614
 30
0.0
  0
POINT
  5
9E4
100
AcDbEntity
  8
DEFPOINTS
  6
BYBLOCK
 62
     0
100
AcDbPoint
 10
6512.666664
 20
2365.384615
 30
0.0
  0
ENDBLK
  5
9E5
100
AcDbEntity
  8
0
100
AcDbBlockEnd
  0
BLOCK
  5
A28
100
AcDbEntity
  8
0
100
AcDbBlockBegin
  2
*D13
 70
    65
 10
0.0
 20
0.0
 30
0.0
  3
*D13
  1

  0
LINE
  5
A29
100
AcDbEntity
  8
0
  6
BYBLOCK
100
AcDbLine
 10
6753.076132
 20
3486.923076
 30
0.0
 11
6919.577712
 21
3486.923076
 31
0.0
  0
LINE
  5
A2A
100
AcDbEntity
  8
0
  6
BYBLOCK
100
AcDbLine
 10
6644.437804
 20
3086.923076
 30
0.0
 11
6919.577712
 21
3086.923076
 31
0.0
  0
LINE
  5
A2B
100
AcDbEntity
  8
0
  6
BYBLOCK
100
AcDbLine
 10
6899.577712
 20
3446.923076
 30
0.0
 11
6899.577712
 21
3126.923076
 31
0.0
  0
SOLID
  5
A2C
100
AcDbEntity
  8
0
  6
BYBLOCK
100
AcDbTrace
 10
6892.911045
 20
3446.923076
 30
0.0
 11
6906.244378
 21
3446.923076
 31
0.0
 12
6899.577712
 22
3486.923076
 32
0.0
 13
6899.577712
 23
3486.923076
 33
0.0
  0
SOLID
  5
A2D
100
AcDbEntity
  8
0
  6
BYBLOCK
100
AcDbTrace
 10
6892.911045
 20
3126.923076
 30
0.0
 11
6906.244378
 21
3126.923076
 31
0.0
 12
6899.577712
 22
3086.923076
 32
0.0
 13
6899.577712
 23
3086.923076
 33
0.0
  0
MTEXT
  5
A2E
100
AcDbEntity
  8
0
  6
BYBLOCK
100
AcDbMText
 10
6845.577712
 20
3286.923076
 30
0.0
 40
60.0
 41
0.0
 71
     5
 72
     1
  1
\A1;400
  7
KANJI08
 11
0.0
 21
1.0
 31
0.0
  0
POINT
  5
A2F
100
AcDbEntity
  8
DEFPOINTS
  6
BYBLOCK
 62
     0
100
AcDbPoint
 10
6733.076132
 20
3486.923076
 30
0.0
  0
POINT
  5
A30
100
AcDbEntity
  8
DEFPOINTS
  6
BYBLOCK
 62
     0
100
AcDbPoint
 10
6624.437804
 20
3086.923076
 30
0.0
  0
POINT
  5
A31
100
AcDbEntity
  8
DEFPOINTS
  6
BYBLOCK
 62
     0
100
AcDbPoint
 10
6899.577712
 20
3086.923076
 30
0.0
  0
ENDBLK
  5
A32
100
AcDbEntity
  8
0
100
AcDbBlockEnd
  0
BLOCK
  5
A33
100
AcDbEntity
  8
0
100
AcDbBlockBegin
  2
*D14
 70
    65
 10
0.0
 20
0.0
 30
0.0
  3
*D14
  1

  0
LINE
  5
A34
100
AcDbEntity
  8
0
  6
BYBLOCK
100
AcDbLine
 10
6510.437804
 20
4381.923076
 30
0.0
 11
6919.577712
 21
4381.923076
 31
0.0
  0
LINE
  5
A35
100
AcDbEntity
  8
0
  6
BYBLOCK
100
AcDbLine
 10
6753.013632
 20
3486.923076
 30
0.0
 11
6919.577712
 21
3486.923076
 31
0.0
  0
LINE
  5
A36
100
AcDbEntity
  8
0
  6
BYBLOCK
100
AcDbLine
 10
6899.577712
 20
4341.923076
 30
0.0
 11
6899.577712
 21
3526.923076
 31
0.0
  0
SOLID
  5
A37
100
AcDbEntity
  8
0
  6
BYBLOCK
100
AcDbTrace
 10
6892.911045
 20
4341.923076
 30
0.0
 11
6906.244378
 21
4341.923076
 31
0.0
 12
6899.577712
 22
4381.923076
 32
0.0
 13
6899.577712
 23
4381.923076
 33
0.0
  0
SOLID
  5
A38
100
AcDbEntity
  8
0
  6
BYBLOCK
100
AcDbTrace
 10
6892.911045
 20
3526.923076
 30
0.0
 11
6906.244378
 21
3526.923076
 31
0.0
 12
6899.577712
 22
3486.923076
 32
0.0
 13
6899.577712
 23
3486.923076
 33
0.0
  0
MTEXT
  5
A39
100
AcDbEntity
  8
0
  6
BYBLOCK
100
AcDbMText
 10
6845.577712
 20
3934.423076
 30
0.0
 40
60.0
 41
0.0
 71
     5
 72
     1
  1
\A1;895
  7
KANJI08
 11
0.0
 21
1.0
 31
0.0
  0
POINT
  5
A3A
100
AcDbEntity
  8
DEFPOINTS
  6
BYBLOCK
 62
     0
100
AcDbPoint
 10
6490.437804
 20
4381.923076
 30
0.0
  0
POINT
  5
A3B
100
AcDbEntity
  8
DEFPOINTS
  6
BYBLOCK
 62
     0
100
AcDbPoint
 10
6733.013632
 20
3486.923076
 30
0.0
  0
POINT
  5
A3C
100
AcDbEntity
  8
DEFPOINTS
  6
BYBLOCK
 62
     0
100
AcDbPoint
 10
6899.577712
 20
3486.923076
 30
0.0
  0
ENDBLK
  5
A3D
100
AcDbEntity
  8
0
100
AcDbBlockEnd
  0
BLOCK
  5
A3E
100
AcDbEntity
  8
0
100
AcDbBlockBegin
  2
*D15
 70
    65
 10
0.0
 20
0.0
 30
0.0
  3
*D15
  1

  0
LINE
  5
A3F
100
AcDbEntity
  8
0
  6
BYBLOCK
100
AcDbLine
 10
6510.375304
 20
4381.923076
 30
0.0
 11
7059.577712
 21
4381.923076
 31
0.0
  0
LINE
  5
A40
100
AcDbEntity
  8
0
  6
BYBLOCK
100
AcDbLine
 10
6644.375304
 20
3086.923076
 30
0.0
 11
7059.577712
 21
3086.923076
 31
0.0
  0
LINE
  5
A41
100
AcDbEntity
  8
0
  6
BYBLOCK
100
AcDbLine
 10
7039.577712
 20
4341.923076
 30
0.0
 11
7039.577712
 21
3126.923076
 31
0.0
  0
SOLID
  5
A42
100
AcDbEntity
  8
0
  6
BYBLOCK
100
AcDbTrace
 10
7032.911045
 20
4341.923076
 30
0.0
 11
7046.244378
 21
4341.923076
 31
0.0
 12
7039.577712
 22
4381.923076
 32
0.0
 13
7039.577712
 23
4381.923076
 33
0.0
  0
SOLID
  5
A43
100
AcDbEntity
  8
0
  6
BYBLOCK
100
AcDbTrace
 10
7032.911045
 20
3126.923076
 30
0.0
 11
7046.244378
 21
3126.923076
 31
0.0
 12
7039.577712
 22
3086.923076
 32
0.0
 13
7039.577712
 23
3086.923076
 33
0.0
  0
MTEXT
  5
A44
100
AcDbEntity
  8
0
  6
BYBLOCK
100
AcDbMText
 10
6985.577712
 20
3734.423076
 30
0.0
 40
60.0
 41
0.0
 71
     5
 72
     1
  1
\A1;1295
  7
KANJI08
 11
0.0
 21
1.0
 31
0.0
  0
POINT
  5
A45
100
AcDbEntity
  8
DEFPOINTS
  6
BYBLOCK
 62
     0
100
AcDbPoint
 10
6490.375304
 20
4381.923076
 30
0.0
  0
POINT
  5
A46
100
AcDbEntity
  8
DEFPOINTS
  6
BYBLOCK
 62
     0
100
AcDbPoint
 10
6624.375304
 20
3086.923076
 30
0.0
  0
POINT
  5
A47
100
AcDbEntity
  8
DEFPOINTS
  6
BYBLOCK
 62
     0
100
AcDbPoint
 10
7039.577712
 20
3086.923076
 30
0.0
  0
ENDBLK
  5
A48
100
AcDbEntity
  8
0
100
AcDbBlockEnd
  0
BLOCK
  5
A12
100
AcDbEntity
  8
0
100
AcDbBlockBegin
  2
*D16
 70
    65
 10
0.0
 20
0.0
 30
0.0
  3
*D16
  1

  0
LINE
  5
A13
100
AcDbEntity
  8
0
  6
BYBLOCK
100
AcDbLine
 10
6295.312804
 20
4119.423076
 30
0.0
 11
6054.974996
 21
4119.423076
 31
0.0
  0
LINE
  5
A14
100
AcDbEntity
  8
0
  6
BYBLOCK
100
AcDbLine
 10
6295.375304
 20
3964.423076
 30
0.0
 11
6054.974996
 21
3964.423076
 31
0.0
  0
LINE
  5
A15
100
AcDbEntity
  8
0
  6
BYBLOCK
100
AcDbLine
 10
6074.974996
 20
4079.423076
 30
0.0
 11
6074.974996
 21
4004.423076
 31
0.0
  0
MTEXT
  5
A16
100
AcDbEntity
  8
0
  6
BYBLOCK
100
AcDbMText
 10
6023.215402
 20
4019.108644
 30
0.0
 40
60.0
 41
0.0
 71
     5
 72
     1
  1
\A1;155
  7
KANJI08
 11
0.0
 21
1.0
 31
0.0
  0
SOLID
  5
A17
100
AcDbEntity
  8
0
  6
BYBLOCK
100
AcDbTrace
 10
6068.30833
 20
4079.423076
 30
0.0
 11
6081.641663
 21
4079.423076
 31
0.0
 12
6074.974996
 22
4119.423076
 32
0.0
 13
6074.974996
 23
4119.423076
 33
0.0
  0
SOLID
  5
A18
100
AcDbEntity
  8
0
  6
BYBLOCK
100
AcDbTrace
 10
6068.30833
 20
4004.423076
 30
0.0
 11
6081.641663
 21
4004.423076
 31
0.0
 12
6074.974996
 22
3964.423076
 32
0.0
 13
6074.974996
 23
3964.423076
 33
0.0
  0
POINT
  5
A19
100
AcDbEntity
  8
DEFPOINTS
  6
BYBLOCK
 62
     0
100
AcDbPoint
 10
6315.312804
 20
4119.423076
 30
0.0
  0
POINT
  5
A1A
100
AcDbEntity
  8
DEFPOINTS
  6
BYBLOCK
 62
     0
100
AcDbPoint
 10
6315.375304
 20
3964.423076
 30
0.0
  0
POINT
  5
A1B
100
AcDbEntity
  8
DEFPOINTS
  6
BYBLOCK
 62
     0
100
AcDbPoint
 10
6074.974996
 20
3964.423076
 30
0.0
  0
ENDBLK
  5
A1C
100
AcDbEntity
  8
0
100
AcDbBlockEnd
  0
BLOCK
  5
A1D
100
AcDbEntity
  8
0
100
AcDbBlockBegin
  2
*D17
 70
    65
 10
0.0
 20
0.0
 30
0.0
  3
*D17
  1

  0
LINE
  5
A1E
100
AcDbEntity
  8
0
  6
BYBLOCK
100
AcDbLine
 10
6295.312804
 20
4274.423076
 30
0.0
 11
6054.974996
 21
4274.423076
 31
0.0
  0
LINE
  5
A1F
100
AcDbEntity
  8
0
  6
BYBLOCK
100
AcDbLine
 10
6295.375304
 20
4119.423076
 30
0.0
 11
6054.974996
 21
4119.423076
 31
0.0
  0
LINE
  5
A20
100
AcDbEntity
  8
0
  6
BYBLOCK
100
AcDbLine
 10
6074.974996
 20
4234.423076
 30
0.0
 11
6074.974996
 21
4159.423076
 31
0.0
  0
MTEXT
  5
A21
100
AcDbEntity
  8
0
  6
BYBLOCK
100
AcDbMText
 10
6020.586544
 20
4212.233648
 30
0.0
 40
60.0
 41
0.0
 71
     5
 72
     1
  1
\A1;155
  7
KANJI08
 11
0.0
 21
1.0
 31
0.0
  0
SOLID
  5
A22
100
AcDbEntity
  8
0
  6
BYBLOCK
100
AcDbTrace
 10
6068.30833
 20
4234.423076
 30
0.0
 11
6081.641663
 21
4234.423076
 31
0.0
 12
6074.974996
 22
4274.423076
 32
0.0
 13
6074.974996
 23
4274.423076
 33
0.0
  0
SOLID
  5
A23
100
AcDbEntity
  8
0
  6
BYBLOCK
100
AcDbTrace
 10
6068.30833
 20
4159.423076
 30
0.0
 11
6081.641663
 21
4159.423076
 31
0.0
 12
6074.974996
 22
4119.423076
 32
0.0
 13
6074.974996
 23
4119.423076
 33
0.0
  0
POINT
  5
A24
100
AcDbEntity
  8
DEFPOINTS
  6
BYBLOCK
 62
     0
100
AcDbPoint
 10
6315.312804
 20
4274.423076
 30
0.0
  0
POINT
  5
A25
100
AcDbEntity
  8
DEFPOINTS
  6
BYBLOCK
 62
     0
100
AcDbPoint
 10
6315.375304
 20
4119.423076
 30
0.0
  0
POINT
  5
A26
100
AcDbEntity
  8
DEFPOINTS
  6
BYBLOCK
 62
     0
100
AcDbPoint
 10
6074.974996
 20
4119.423076
 30
0.0
  0
ENDBLK
  5
A27
100
AcDbEntity
  8
0
100
AcDbBlockEnd
  0
BLOCK
  5
9AF
100
AcDbEntity
  8
0
100
AcDbBlockBegin
  2
*D18
 70
    65
 10
0.0
 20
0.0
 30
0.0
  3
*D18
  1

  0
LINE
  5
9B0
100
AcDbEntity
  8
0
  6
BYBLOCK
100
AcDbLine
 10
6110.542584
 20
3486.923076
 30
0.0
 11
6054.974996
 21
3486.923076
 31
0.0
  0
LINE
  5
9B1
100
AcDbEntity
  8
0
  6
BYBLOCK
100
AcDbLine
 10
6303.575304
 20
3964.423076
 30
0.0
 11
6054.974996
 21
3964.423076
 31
0.0
  0
LINE
  5
9B2
100
AcDbEntity
  8
0
  6
BYBLOCK
100
AcDbLine
 10
6074.974996
 20
3526.923076
 30
0.0
 11
6074.974996
 21
3924.423076
 31
0.0
  0
SOLID
  5
9B3
100
AcDbEntity
  8
0
  6
BYBLOCK
100
AcDbTrace
 10
6068.30833
 20
3526.923076
 30
0.0
 11
6081.641663
 21
3526.923076
 31
0.0
 12
6074.974996
 22
3486.923076
 32
0.0
 13
6074.974996
 23
3486.923076
 33
0.0
  0
SOLID
  5
9B4
100
AcDbEntity
  8
0
  6
BYBLOCK
100
AcDbTrace
 10
6068.30833
 20
3924.423076
 30
0.0
 11
6081.641663
 21
3924.423076
 31
0.0
 12
6074.974996
 22
3964.423076
 32
0.0
 13
6074.974996
 23
3964.423076
 33
0.0
  0
MTEXT
  5
9B5
100
AcDbEntity
  8
0
  6
BYBLOCK
100
AcDbMText
 10
6020.974996
 20
3725.673076
 30
0.0
 40
60.0
 41
0.0
 71
     5
 72
     1
  1
\A1;477.5
  7
KANJI08
 11
0.0
 21
1.0
 31
0.0
  0
POINT
  5
9B6
100
AcDbEntity
  8
DEFPOINTS
  6
BYBLOCK
 62
     0
100
AcDbPoint
 10
6130.542584
 20
3486.923076
 30
0.0
  0
POINT
  5
9B7
100
AcDbEntity
  8
DEFPOINTS
  6
BYBLOCK
 62
     0
100
AcDbPoint
 10
6323.575304
 20
3964.423076
 30
0.0
  0
POINT
  5
9B8
100
AcDbEntity
  8
DEFPOINTS
  6
BYBLOCK
 62
     0
100
AcDbPoint
 10
6074.974996
 20
3964.423076
 30
0.0
  0
ENDBLK
  5
9B9
100
AcDbEntity
  8
0
100
AcDbBlockEnd
  0
BLOCK
  5
7B5
100
AcDbEntity
  8
0
100
AcDbBlockBegin
  2
*X19
 70
    65
 10
0.0
 20
0.0
 30
0.0
  3
*X19
  1

  0
LINE
  5
7B7
100
AcDbEntity
  8
0
 62
     0
100
AcDbLine
 10
6312.375304
 20
3307.171484
 30
0.0
 11
6392.475304
 21
3387.271484
 31
0.0
  0
LINE
  5
7B8
100
AcDbEntity
  8
0
 62
     0
100
AcDbLine
 10
6312.375304
 20
3483.948179
 30
0.0
 11
6315.350201
 21
3486.923076
 31
0.0
  0
LINE
  5
7B9
100
AcDbEntity
  8
0
 62
     0
100
AcDbLine
 10
6312.375304
 20
3130.394788
 30
0.0
 11
6392.475304
 21
3210.494788
 31
0.0
  0
LINE
  5
7BA
100
AcDbEntity
  8
0
 62
     0
100
AcDbLine
 10
6532.275304
 20
3350.294788
 30
0.0
 11
6612.375304
 21
3430.394788
 31
0.0
  0
LINE
  5
7BB
100
AcDbEntity
  8
0
 62
     0
100
AcDbLine
 10
6532.275304
 20
3173.518093
 30
0.0
 11
6612.375304
 21
3253.618093
 31
0.0
  0
LINE
  5
7BC
100
AcDbEntity
  8
0
 62
     0
100
AcDbLine
 10
6312.375304
 20
3152.491875
 30
0.0
 11
6392.475304
 21
3232.591875
 31
0.0
  0
LINE
  5
7BD
100
AcDbEntity
  8
0
 62
     0
100
AcDbLine
 10
6532.275304
 20
3372.391875
 30
0.0
 11
6612.375304
 21
3452.491875
 31
0.0
  0
LINE
  5
7BE
100
AcDbEntity
  8
0
 62
     0
100
AcDbLine
 10
6312.375304
 20
3329.268571
 30
0.0
 11
6392.475304
 21
3409.368571
 31
0.0
  0
LINE
  5
7BF
100
AcDbEntity
  8
0
 62
     0
100
AcDbLine
 10
6532.275304
 20
3195.61518
 30
0.0
 11
6612.375304
 21
3275.71518
 31
0.0
  0
LINE
  5
7C0
100
AcDbEntity
  8
0
 62
     0
100
AcDbLine
 10
6600.359895
 20
3086.923076
 30
0.0
 11
6612.375304
 21
3098.938485
 31
0.0
  0
LINE
  5
7C1
100
AcDbEntity
  8
0
 62
     0
100
AcDbLine
 10
6312.375304
 20
3174.588962
 30
0.0
 11
6392.475304
 21
3254.688962
 31
0.0
  0
LINE
  5
7C2
100
AcDbEntity
  8
0
 62
     0
100
AcDbLine
 10
6532.275304
 20
3394.488962
 30
0.0
 11
6612.375304
 21
3474.588962
 31
0.0
  0
LINE
  5
7C3
100
AcDbEntity
  8
0
 62
     0
100
AcDbLine
 10
6312.375304
 20
3351.365657
 30
0.0
 11
6392.475304
 21
3431.465657
 31
0.0
  0
LINE
  5
7C4
100
AcDbEntity
  8
0
 62
     0
100
AcDbLine
 10
6532.275304
 20
3217.712267
 30
0.0
 11
6612.375304
 21
3297.812267
 31
0.0
  0
LINE
  5
7C5
100
AcDbEntity
  8
0
 62
     0
100
AcDbLine
 10
6578.262808
 20
3086.923076
 30
0.0
 11
6612.375304
 21
3121.035572
 31
0.0
  0
ENDBLK
  5
7C6
100
AcDbEntity
  8
0
100
AcDbBlockEnd
  0
BLOCK
  5
9A4
100
AcDbEntity
  8
0
100
AcDbBlockBegin
  2
*D20
 70
    65
 10
0.0
 20
0.0
 30
0.0
  3
*D20
  1

  0
LINE
  5
9A5
100
AcDbEntity
  8
0
  6
BYBLOCK
100
AcDbLine
 10
6312.375304
 20
3066.923076
 30
0.0
 11
6312.375304
 21
2906.963045
 31
0.0
  0
LINE
  5
9A6
100
AcDbEntity
  8
0
  6
BYBLOCK
100
AcDbLine
 10
6612.375304
 20
3066.923076
 30
0.0
 11
6612.375304
 21
2906.963045
 31
0.0
  0
LINE
  5
9A7
100
AcDbEntity
  8
0
  6
BYBLOCK
100
AcDbLine
 10
6352.375304
 20
2926.963045
 30
0.0
 11
6572.375304
 21
2926.963045
 31
0.0
  0
MTEXT
  5
9A8
100
AcDbEntity
  8
0
  6
BYBLOCK
100
AcDbMText
 10
6462.375304
 20
2988.957859
 30
0.0
 40
60.0
 41
0.0
 71
     5
 72
     1
  1
\A1;□300
  7
KANJI08
  0
SOLID
  5
9A9
100
AcDbEntity
  8
0
  6
BYBLOCK
100
AcDbTrace
 10
6352.375304
 20
2933.629711
 30
0.0
 11
6352.375304
 21
2920.296378
 31
0.0
 12
6312.375304
 22
2926.963045
 32
0.0
 13
6312.375304
 23
2926.963045
 33
0.0
  0
SOLID
  5
9AA
100
AcDbEntity
  8
0
  6
BYBLOCK
100
AcDbTrace
 10
6572.375304
 20
2933.629711
 30
0.0
 11
6572.375304
 21
2920.296378
 31
0.0
 12
6612.375304
 22
2926.963045
 32
0.0
 13
6612.375304
 23
2926.963045
 33
0.0
  0
POINT
  5
9AB
100
AcDbEntity
  8
DEFPOINTS
  6
BYBLOCK
 62
     0
100
AcDbPoint
 10
6312.375304
 20
3086.923076
 30
0.0
  0
POINT
  5
9AC
100
AcDbEntity
  8
DEFPOINTS
  6
BYBLOCK
 62
     0
100
AcDbPoint
 10
6612.375304
 20
3086.923076
 30
0.0
  0
POINT
  5
9AD
100
AcDbEntity
  8
DEFPOINTS
  6
BYBLOCK
 62
     0
100
AcDbPoint
 10
6612.375304
 20
2926.963045
 30
0.0
  0
ENDBLK
  5
9AE
100
AcDbEntity
  8
0
100
AcDbBlockEnd
  0
BLOCK
  5
87A
100
AcDbEntity
  8
SUNPOU
100
AcDbBlockBegin
  2
B0040021
 70
     0
 10
0.0
 20
0.0
 30
0.0
  3
B0040021
  1

  0
LINE
  5
86E
100
AcDbEntity
  8
HATCH
100
AcDbLine
 10
90.534597
 20
-7.5
 30
0.0
 11
117.051895
 21
-34.017298
 31
0.0
  0
LINE
  5
86F
100
AcDbEntity
  8
HATCH
100
AcDbLine
 10
98.034597
 20
0.0
 30
0.0
 11
132.051895
 21
-34.017298
 31
0.0
  0
LINE
  5
870
100
AcDbEntity
  8
HATCH
100
AcDbLine
 10
22.5
 20
-7.5
 30
0.0
 11
49.017298
 21
-34.017298
 31
0.0
  0
LINE
  5
871
100
AcDbEntity
  8
HATCH
100
AcDbLine
 10
30.0
 20
0.0
 30
0.0
 11
-4.017298
 21
-34.017298
 31
0.0
  0
LINE
  5
872
100
AcDbEntity
  8
HATCH
100
AcDbLine
 10
15.0
 20
-15.0
 30
0.0
 11
34.017298
 21
-34.017298
 31
0.0
  0
LINE
  5
873
100
AcDbEntity
  8
HATCH
100
AcDbLine
 10
0.0
 20
0.0
 30
0.0
 11
-34.017298
 21
-34.017298
 31
0.0
  0
LINE
  5
874
100
AcDbEntity
  8
HATCH
100
AcDbLine
 10
15.0
 20
0.0
 30
0.0
 11
-19.017298
 21
-34.017298
 31
0.0
  0
LINE
  5
875
100
AcDbEntity
  8
HATCH
100
AcDbLine
 10
83.034597
 20
0.0
 30
0.0
 11
56.517298
 21
-26.517298
 31
0.0
  0
LINE
  5
876
100
AcDbEntity
  8
HATCH
100
AcDbLine
 10
98.034597
 20
0.0
 30
0.0
 11
64.017298
 21
-34.017298
 31
0.0
  0
LINE
  5
877
100
AcDbEntity
  8
HATCH
100
AcDbLine
 10
68.034597
 20
0.0
 30
0.0
 11
49.017298
 21
-19.017298
 31
0.0
  0
LINE
  5
878
100
AcDbEntity
  8
HATCH
100
AcDbLine
 10
30.0
 20
0.0
 30
0.0
 11
64.017298
 21
-34.017298
 31
0.0
  0
LINE
  5
879
100
AcDbEntity
  8
HATCH
100
AcDbLine
 10
83.034597
 20
-15.0
 30
0.0
 11
102.051895
 21
-34.017298
 31
0.0
  0
ENDBLK
  5
87B
100
AcDbEntity
  8
SUNPOU
100
AcDbBlockEnd
  0
BLOCK
  5
997
100
AcDbEntity
  8
0
100
AcDbBlockBegin
  2
*D22
 70
    65
 10
0.0
 20
0.0
 30
0.0
  3
*D22
  1

  0
LINE
  5
998
100
AcDbEntity
  8
0
  6
BYBLOCK
100
AcDbLine
 10
1419.6
 20
2095.384615
 30
0.0
 11
1419.6
 21
2363.055886
 31
0.0
  0
LINE
  5
999
100
AcDbEntity
  8
0
  6
BYBLOCK
100
AcDbLine
 10
1481.6
 20
2077.064194
 30
0.0
 11
1481.6
 21
2363.055886
 31
0.0
  0
LINE
  5
99A
100
AcDbEntity
  8
0
  6
BYBLOCK
100
AcDbLine
 10
1379.6
 20
2343.055886
 30
0.0
 11
1339.6
 21
2343.055886
 31
0.0
  0
LINE
  5
99B
100
AcDbEntity
  8
0
  6
BYBLOCK
100
AcDbLine
 10
1521.6
 20
2343.055886
 30
0.0
 11
1561.6
 21
2343.055886
 31
0.0
  0
MTEXT
  5
99C
100
AcDbEntity
  8
0
  6
BYBLOCK
100
AcDbMText
 10
1451.150558
 20
2409.650855
 30
0.0
 40
60.0
 41
0.0
 71
     5
 72
     1
  1
\A1;32
  7
KANJI08
  0
LINE
  5
99D
100
AcDbEntity
  8
0
  6
BYBLOCK
100
AcDbLine
 10
1419.6
 20
2343.055886
 30
0.0
 11
1481.6
 21
2343.055886
 31
0.0
  0
SOLID
  5
99E
100
AcDbEntity
  8
0
  6
BYBLOCK
100
AcDbTrace
 10
1379.6
 20
2349.722553
 30
0.0
 11
1379.6
 21
2336.389219
 31
0.0
 12
1419.6
 22
2343.055886
 32
0.0
 13
1419.6
 23
2343.055886
 33
0.0
  0
SOLID
  5
99F
100
AcDbEntity
  8
0
  6
BYBLOCK
100
AcDbTrace
 10
1521.6
 20
2349.722553
 30
0.0
 11
1521.6
 21
2336.389219
 31
0.0
 12
1481.6
 22
2343.055886
 32
0.0
 13
1481.6
 23
2343.055886
 33
0.0
  0
POINT
  5
9A0
100
AcDbEntity
  8
DEFPOINTS
  6
BYBLOCK
 62
     0
100
AcDbPoint
 10
1419.6
 20
2075.384615
 30
0.0
  0
POINT
  5
9A1
100
AcDbEntity
  8
DEFPOINTS
  6
BYBLOCK
 62
     0
100
AcDbPoint
 10
1481.6
 20
2057.064194
 30
0.0
  0
POINT
  5
9A2
100
AcDbEntity
  8
DEFPOINTS
  6
BYBLOCK
 62
     0
100
AcDbPoint
 10
1481.6
 20
2343.055886
 30
0.0
  0
ENDBLK
  5
9A3
100
AcDbEntity
  8
0
100
AcDbBlockEnd
  0
ENDSEC
  0
SECTION
  2
ENTITIES
  0
LINE
  5
173
100
AcDbEntity
  8
SJC
100
AcDbLine
 10
1232.275304
 20
4140.773076
 30
0.0
 11
1232.275304
 21
4253.073076
 31
0.0
  0
LINE
  5
174
100
AcDbEntity
  8
SJC
100
AcDbLine
 10
1092.475304
 20
4140.773076
 30
0.0
 11
1092.475304
 21
4253.073076
 31
0.0
  0
LINE
  5
175
100
AcDbEntity
  8
CENTER
100
AcDbLine
 10
1162.375304
 20
3486.923076
 30
0.0
 11
1162.375304
 21
4430.31759
 31
0.0
  0
LINE
  5
176
100
AcDbEntity
  8
SJC
100
AcDbLine
 10
662.375304
 20
3486.923076
 30
0.0
 11
5782.375304
 21
3486.923076
 31
0.0
  0
LINE
  5
179
100
AcDbEntity
  8
SJC
100
AcDbLine
 10
1232.275304
 20
3486.923076
 30
0.0
 11
1232.275304
 21
3943.073076
 31
0.0
  0
LINE
  5
17A
100
AcDbEntity
  8
SJC
100
AcDbLine
 10
1092.475304
 20
3486.923076
 30
0.0
 11
1092.475304
 21
3943.073076
 31
0.0
  0
LINE
  5
17C
100
AcDbEntity
  8
SJC
100
AcDbLine
 10
1092.475304
 20
3985.773076
 30
0.0
 11
1092.475304
 21
4098.073076
 31
0.0
  0
LINE
  5
17D
100
AcDbEntity
  8
SJC
100
AcDbLine
 10
1232.275304
 20
3985.773076
 30
0.0
 11
1232.275304
 21
4098.073076
 31
0.0
  0
ARC
  5
17E
100
AcDbEntity
  8
SJC
100
AcDbCircle
 10
1162.375304
 20
4312.023005
 30
0.0
 40
69.900071
100
AcDbArc
 50
359.91809
 51
180.08191
  0
LINE
  5
17F
100
AcDbEntity
  8
SJC
100
AcDbLine
 10
1092.475304
 20
4311.923076
 30
0.0
 11
1232.275304
 21
4311.923076
 31
0.0
  0
LINE
  5
180
100
AcDbEntity
  8
SJC
100
AcDbLine
 10
1092.475304
 20
4295.773076
 30
0.0
 11
1092.475304
 21
4312.122933
 31
0.0
  0
LINE
  5
181
100
AcDbEntity
  8
SJC
100
AcDbLine
 10
1232.275304
 20
4295.773076
 30
0.0
 11
1232.275304
 21
4312.122933
 31
0.0
  0
LINE
  5
182
100
AcDbEntity
  8
SJC
100
AcDbLine
 10
5092.475304
 20
4140.773076
 30
0.0
 11
5092.475304
 21
4253.073076
 31
0.0
  0
LINE
  5
183
100
AcDbEntity
  8
SJC
100
AcDbLine
 10
5232.275304
 20
4140.773076
 30
0.0
 11
5232.275304
 21
4253.073076
 31
0.0
  0
LINE
  5
184
100
AcDbEntity
  8
SJC
100
AcDbLine
 10
3232.275304
 20
4140.773076
 30
0.0
 11
3232.275304
 21
4253.073076
 31
0.0
  0
LINE
  5
185
100
AcDbEntity
  8
SJC
100
AcDbLine
 10
3092.475304
 20
4140.773076
 30
0.0
 11
3092.475304
 21
4253.073076
 31
0.0
  0
LINE
  5
186
100
AcDbEntity
  8
CENTER
100
AcDbLine
 10
5162.375304
 20
3486.923076
 30
0.0
 11
5162.375304
 21
4427.231104
 31
0.0
  0
LINE
  5
188
100
AcDbEntity
  8
SJC
100
AcDbLine
 10
3232.275304
 20
3486.923076
 30
0.0
 11
3232.275304
 21
3943.073076
 31
0.0
  0
LINE
  5
18A
100
AcDbEntity
  8
SJC
100
AcDbLine
 10
3092.475304
 20
3486.923076
 30
0.0
 11
3092.475304
 21
3943.073076
 31
0.0
  0
LINE
  5
18C
100
AcDbEntity
  8
SJC
100
AcDbLine
 10
3092.475304
 20
3985.773076
 30
0.0
 11
3092.475304
 21
4098.073076
 31
0.0
  0
LINE
  5
18D
100
AcDbEntity
  8
SJC
100
AcDbLine
 10
3232.275304
 20
3985.773076
 30
0.0
 11
3232.275304
 21
4098.073076
 31
0.0
  0
LINE
  5
190
100
AcDbEntity
  8
SJC
100
AcDbLine
 10
5092.475304
 20
3486.923076
 30
0.0
 11
5092.475304
 21
3943.073076
 31
0.0
  0
LINE
  5
191
100
AcDbEntity
  8
SJC
100
AcDbLine
 10
5232.275304
 20
3486.923076
 30
0.0
 11
5232.275304
 21
3943.073076
 31
0.0
  0
LINE
  5
193
100
AcDbEntity
  8
SJC
100
AcDbLine
 10
5092.475304
 20
3985.773076
 30
0.0
 11
5092.475304
 21
4098.073076
 31
0.0
  0
LINE
  5
194
100
AcDbEntity
  8
SJC
100
AcDbLine
 10
5232.275304
 20
3985.773076
 30
0.0
 11
5232.275304
 21
4098.073076
 31
0.0
  0
ARC
  5
195
100
AcDbEntity
  8
SJC
100
AcDbCircle
 10
3162.375304
 20
4312.023005
 30
0.0
 40
69.900071
100
AcDbArc
 50
359.91809
 51
180.08191
  0
LINE
  5
196
100
AcDbEntity
  8
SJC
100
AcDbLine
 10
3092.475304
 20
4311.923076
 30
0.0
 11
3232.275304
 21
4311.923076
 31
0.0
  0
LINE
  5
197
100
AcDbEntity
  8
SJC
100
AcDbLine
 10
3092.475304
 20
4295.773076
 30
0.0
 11
3092.475304
 21
4312.122933
 31
0.0
  0
LINE
  5
198
100
AcDbEntity
  8
SJC
100
AcDbLine
 10
5092.475304
 20
4311.923076
 30
0.0
 11
5232.275304
 21
4311.923076
 31
0.0
  0
ARC
  5
199
100
AcDbEntity
  8
SJC
100
AcDbCircle
 10
5162.375304
 20
4312.023005
 30
0.0
 40
69.900071
100
AcDbArc
 50
359.91809
 51
180.08191
  0
LINE
  5
19A
100
AcDbEntity
  8
SJC
100
AcDbLine
 10
5092.475304
 20
4295.773076
 30
0.0
 11
5092.475304
 21
4312.122933
 31
0.0
  0
LINE
  5
19B
100
AcDbEntity
  8
SJC
100
AcDbLine
 10
5232.275304
 20
4295.773076
 30
0.0
 11
5232.275304
 21
4312.122933
 31
0.0
  0
LINE
  5
19C
100
AcDbEntity
  8
SJC
100
AcDbLine
 10
6392.475304
 20
4137.423076
 30
0.0
 11
6392.475304
 21
4256.423076
 31
0.0
  0
LINE
  5
19D
100
AcDbEntity
  8
SJC
100
AcDbLine
 10
6532.275304
 20
3086.923076
 30
0.0
 11
6532.275304
 21
4311.923076
 31
0.0
1001
ACAD
1000
ASC_BOUNDS
1002
{
1070
    19
1005
7B6
1002
}
  0
LINE
  5
19E
100
AcDbEntity
  8
CENTER
100
AcDbLine
 10
6462.375304
 20
3086.923076
 30
0.0
 11
6462.375304
 21
4455.900562
 31
0.0
  0
LINE
  5
19F
100
AcDbEntity
  8
SJC
100
AcDbLine
 10
6312.375304
 20
3086.923076
 30
0.0
 11
6612.375304
 21
3086.923076
 31
0.0
1001
ACAD
1000
ASC_BOUNDS
1002
{
1070
    19
1005
7B6
1005
7B6
1002
}
  0
LINE
  5
1A0
100
AcDbEntity
  8
SJC
100
AcDbLine
 10
6312.375304
 20
3086.923076
 30
0.0
 11
6312.375304
 21
3486.923076
 31
0.0
1001
ACAD
1000
ASC_BOUNDS
1002
{
1070
    19
1005
7B6
1002
}
  0
LINE
  5
1A1
100
AcDbEntity
  8
SJC
100
AcDbLine
 10
6392.475304
 20
3086.923076
 30
0.0
 11
6392.475304
 21
3946.423076
 31
0.0
1001
ACAD
1000
ASC_BOUNDS
1002
{
1070
    19
1005
7B6
1002
}
  0
LINE
  5
1A2
100
AcDbEntity
  8
SJC
100
AcDbLine
 10
6392.475304
 20
3486.923076
 30
0.0
 11
6130.542584
 21
3486.923076
 31
0.0
1001
ACAD
1000
ASC_BOUNDS
1002
{
1070
    19
1005
7B6
1002
}
  0
LINE
  5
1A3
100
AcDbEntity
  8
CENTER
100
AcDbLine
 10
6421.94957
 20
4119.423076
 30
0.0
 11
6323.575304
 21
4119.423076
 31
0.0
  0
LINE
  5
1A4
100
AcDbEntity
  8
CENTER
100
AcDbLine
 10
6421.94957
 20
3964.423076
 30
0.0
 11
6323.575304
 21
3964.423076
 31
0.0
  0
LINE
  5
1A5
100
AcDbEntity
  8
SJC
100
AcDbLine
 10
6392.475304
 20
3982.423076
 30
0.0
 11
6392.475304
 21
4101.423076
 31
0.0
  0
LINE
  5
1A6
100
AcDbEntity
  8
SJC
100
AcDbLine
 10
6612.375304
 20
3086.923076
 30
0.0
 11
6612.375304
 21
3486.923076
 31
0.0
1001
ACAD
1000
ASC_BOUNDS
1002
{
1070
    19
1005
7B6
1002
}
  0
LINE
  5
1A7
100
AcDbEntity
  8
SJC
100
AcDbLine
 10
6532.275304
 20
3486.923076
 30
0.0
 11
6733.013632
 21
3486.923076
 31
0.0
1001
ACAD
1000
ASC_BOUNDS
1002
{
1070
    19
1005
7B6
1002
}
  0
LINE
  5
1A8
100
AcDbEntity
  8
SJC
100
AcDbLine
 10
6392.475304
 20
4311.923076
 30
0.0
 11
6532.275304
 21
4311.923076
 31
0.0
  0
ARC
  5
1A9
100
AcDbEntity
  8
SJC
100
AcDbCircle
 10
6462.375304
 20
4312.023005
 30
0.0
 40
69.900071
100
AcDbArc
 50
359.91809
 51
180.08191
  0
LINE
  5
1AA
100
AcDbEntity
  8
CENTER
100
AcDbLine
 10
6421.94957
 20
4274.423076
 30
0.0
 11
6323.575304
 21
4274.423076
 31
0.0
  0
LINE
  5
1AB
100
AcDbEntity
  8
SJC
100
AcDbLine
 10
6392.475304
 20
4292.423076
 30
0.0
 11
6392.475304
 21
4311.923076
 31
0.0
  0
LINE
  5
1AE
100
AcDbEntity
  8
SJC
100
AcDbLine
 10
1219.375304
 20
4295.773076
 30
0.0
 11
3105.375304
 21
4295.773076
 31
0.0
  0
LINE
  5
1AF
100
AcDbEntity
  8
SJC
100
AcDbLine
 10
1219.375304
 20
4253.073076
 30
0.0
 11
3105.375304
 21
4253.073076
 31
0.0
  0
LINE
  5
1B0
100
AcDbEntity
  8
SJC
100
AcDbLine
 10
1219.375304
 20
4140.773076
 30
0.0
 11
3105.375304
 21
4140.773076
 31
0.0
  0
LINE
  5
1B1
100
AcDbEntity
  8
SJC
100
AcDbLine
 10
1219.375304
 20
4098.073076
 30
0.0
 11
3105.375304
 21
4098.073076
 31
0.0
  0
LINE
  5
1B2
100
AcDbEntity
  8
SJC
100
AcDbLine
 10
1219.375304
 20
3985.773076
 30
0.0
 11
3105.375304
 21
3985.773076
 31
0.0
  0
LINE
  5
1B3
100
AcDbEntity
  8
SJC
100
AcDbLine
 10
1219.375304
 20
3943.073076
 30
0.0
 11
3105.375304
 21
3943.073076
 31
0.0
  0
LINE
  5
1B4
100
AcDbEntity
  8
SJC
100
AcDbLine
 10
3219.375304
 20
4295.773076
 30
0.0
 11
5105.375304
 21
4295.773076
 31
0.0
  0
LINE
  5
1B5
100
AcDbEntity
  8
SJC
100
AcDbLine
 10
3219.375304
 20
4253.073076
 30
0.0
 11
5105.375304
 21
4253.073076
 31
0.0
  0
LINE
  5
1B6
100
AcDbEntity
  8
SJC
100
AcDbLine
 10
3219.375304
 20
4140.773076
 30
0.0
 11
5105.375304
 21
4140.773076
 31
0.0
  0
LINE
  5
1B7
100
AcDbEntity
  8
SJC
100
AcDbLine
 10
3219.375304
 20
4098.073076
 30
0.0
 11
5105.375304
 21
4098.073076
 31
0.0
  0
LINE
  5
1B8
100
AcDbEntity
  8
SJC
100
AcDbLine
 10
3219.375304
 20
3985.773076
 30
0.0
 11
5105.375304
 21
3985.773076
 31
0.0
  0
LINE
  5
1B9
100
AcDbEntity
  8
SJC
100
AcDbLine
 10
3219.375304
 20
3943.073076
 30
0.0
 11
5105.375304
 21
3943.073076
 31
0.0
  0
LINE
  5
1BA
100
AcDbEntity
  8
SJC
100
AcDbLine
 10
5219.375304
 20
4295.773076
 30
0.0
 11
5782.375304
 21
4295.773076
 31
0.0
  0
LINE
  5
1BB
100
AcDbEntity
  8
SJC
100
AcDbLine
 10
5219.375304
 20
4253.073076
 30
0.0
 11
5782.375304
 21
4253.073076
 31
0.0
  0
LINE
  5
1BC
100
AcDbEntity
  8
SJC
100
AcDbLine
 10
5219.375304
 20
4140.773076
 30
0.0
 11
5782.375304
 21
4140.773076
 31
0.0
  0
LINE
  5
1BD
100
AcDbEntity
  8
SJC
100
AcDbLine
 10
5219.375304
 20
4098.073076
 30
0.0
 11
5782.375304
 21
4098.073076
 31
0.0
  0
LINE
  5
1BE
100
AcDbEntity
  8
SJC
100
AcDbLine
 10
5219.375304
 20
3985.773076
 30
0.0
 11
5782.375304
 21
3985.773076
 31
0.0
  0
LINE
  5
1BF
100
AcDbEntity
  8
SJC
100
AcDbLine
 10
5219.375304
 20
3943.073076
 30
0.0
 11
5782.375304
 21
3943.073076
 31
0.0
  0
LINE
  5
1C0
100
AcDbEntity
  8
SJC
100
AcDbLine
 10
1083.725304
 20
4295.773076
 30
0.0
 11
1105.375304
 21
4295.773076
 31
0.0
  0
LINE
  5
1C1
100
AcDbEntity
  8
SJC
100
AcDbLine
 10
1083.725304
 20
4253.073076
 30
0.0
 11
1105.375304
 21
4253.073076
 31
0.0
  0
ARC
  5
1C2
100
AcDbEntity
  8
SJC
100
AcDbCircle
 10
1083.725304
 20
4274.423076
 30
0.0
 40
21.35
100
AcDbArc
 50
90.0
 51
270.0
  0
ARC
  5
1C3
100
AcDbEntity
  8
SJC
100
AcDbCircle
 10
1083.725304
 20
4119.423076
 30
0.0
 40
21.35
100
AcDbArc
 50
90.0
 51
270.0
  0
LINE
  5
1C4
100
AcDbEntity
  8
SJC
100
AcDbLine
 10
1083.725304
 20
4098.073076
 30
0.0
 11
1105.375304
 21
4098.073076
 31
0.0
  0
LINE
  5
1C5
100
AcDbEntity
  8
SJC
100
AcDbLine
 10
1083.725304
 20
4140.773076
 30
0.0
 11
1105.375304
 21
4140.773076
 31
0.0
  0
ARC
  5
1C6
100
AcDbEntity
  8
SJC
100
AcDbCircle
 10
1083.725304
 20
3964.423076
 30
0.0
 40
21.35
100
AcDbArc
 50
90.0
 51
270.0
  0
LINE
  5
1C7
100
AcDbEntity
  8
SJC
100
AcDbLine
 10
1083.725304
 20
3943.073076
 30
0.0
 11
1105.375304
 21
3943.073076
 31
0.0
  0
LINE
  5
1C8
100
AcDbEntity
  8
SJC
100
AcDbLine
 10
1083.725304
 20
3985.773076
 30
0.0
 11
1105.375304
 21
3985.773076
 31
0.0
  0
LINE
  5
1C9
100
AcDbEntity
  8
SUNPOU
100
AcDbLine
 10
5162.375304
 20
4447.231104
 30
0.0
 11
5162.375304
 21
4809.020056
 31
0.0
  0
LINE
  5
1CA
100
AcDbEntity
  8
SJC2
100
AcDbLine
 10
5782.375304
 20
4186.923076
 30
0.0
 11
5782.375304
 21
4357.255839
 31
0.0
  0
LINE
  5
1CB
100
AcDbEntity
  8
SJC2
100
AcDbLine
 10
5782.375304
 20
4186.923076
 30
0.0
 11
5812.375304
 21
4186.923076
 31
0.0
  0
LINE
  5
1CC
100
AcDbEntity
  8
SJC2
100
AcDbLine
 10
5782.375304
 20
3766.923076
 30
0.0
 11
5752.375304
 21
3766.923076
 31
0.0
  0
LINE
  5
1CD
100
AcDbEntity
  8
SJC2
100
AcDbLine
 10
5752.375304
 20
3766.923076
 30
0.0
 11
5812.375304
 21
4186.923076
 31
0.0
  0
LINE
  5
1CE
100
AcDbEntity
  8
SJC
100
AcDbLine
 10
3232.275304
 20
4295.773076
 30
0.0
 11
3232.275304
 21
4311.923076
 31
0.0
  0
LINE
  5
1CF
100
AcDbEntity
  8
CENTER
100
AcDbLine
 10
3162.375304
 20
3486.923076
 30
0.0
 11
3162.375304
 21
4424.14459
 31
0.0
  0
POLYLINE
  5
1D0
100
AcDbEntity
  8
WAKU
100
AcDb2dPolyline
 66
     1
 10
0.0
 20
0.0
 30
0.0
  0
VERTEX
  5
1D1
100
AcDbEntity
  8
WAKU
100
AcDbVertex
100
AcDb2dVertex
 10
2343.592392
 20
5677.530009
 30
0.0
 42
0.085722
  0
SEQEND
  5
1D2
100
AcDbEntity
  8
WAKU
  0
POLYLINE
  5
1D3
100
AcDbEntity
  8
WAKU
100
AcDb2dPolyline
 66
     1
 10
0.0
 20
0.0
 30
0.0
  0
VERTEX
  5
1D4
100
AcDbEntity
  8
WAKU
100
AcDbVertex
100
AcDb2dVertex
 10
2400.271971
 20
5677.530009
 30
0.0
 42
0.099475
  0
SEQEND
  5
1D5
100
AcDbEntity
  8
WAKU
  0
LINE
  5
1D6
100
AcDbEntity
  8
SJC
100
AcDbLine
 10
3106.875304
 20
4304.423076
 30
0.0
 11
3217.875304
 21
4304.423076
 31
0.0
  0
LINE
  5
1D7
100
AcDbEntity
  8
SJC
100
AcDbLine
 10
3106.875304
 20
4248.023076
 30
0.0
 11
3217.875304
 21
4248.023076
 31
0.0
  0
LINE
  5
1D8
100
AcDbEntity
  8
SJC
100
AcDbLine
 10
3108.875304
 20
4244.423076
 30
0.0
 11
3215.875304
 21
4244.423076
 31
0.0
  0
LINE
  5
1D9
100
AcDbEntity
  8
SJC
100
AcDbLine
 10
3107.375304
 20
4245.923076
 30
0.0
 11
3107.375304
 21
4248.023076
 31
0.0
  0
ARC
  5
1DA
100
AcDbEntity
  8
SJC
100
AcDbCircle
 10
3108.875304
 20
4245.923076
 30
0.0
 40
1.5
100
AcDbArc
 50
180.0
 51
270.0
  0
LINE
  5
1DB
100
AcDbEntity
  8
SJC
100
AcDbLine
 10
3105.375304
 20
4249.523076
 30
0.0
 11
3105.375304
 21
4302.923076
 31
0.0
  0
ARC
  5
1DC
100
AcDbEntity
  8
SJC
100
AcDbCircle
 10
3106.875304
 20
4249.523076
 30
0.0
 40
1.5
100
AcDbArc
 50
180.0
 51
270.0
  0
ARC
  5
1DD
100
AcDbEntity
  8
SJC
100
AcDbCircle
 10
3106.875304
 20
4302.923076
 30
0.0
 40
1.5
100
AcDbArc
 50
90.0
 51
180.0
  0
LINE
  5
1DE
100
AcDbEntity
  8
SJC
100
AcDbLine
 10
3219.375304
 20
4249.523076
 30
0.0
 11
3219.375304
 21
4302.923076
 31
0.0
  0
ARC
  5
1DF
100
AcDbEntity
  8
SJC
100
AcDbCircle
 10
3217.875304
 20
4249.523076
 30
0.0
 40
1.5
100
AcDbArc
 50
270.0
 51
360.0
  0
LINE
  5
1E0
100
AcDbEntity
  8
SJC
100
AcDbLine
 10
3217.375304
 20
4245.923076
 30
0.0
 11
3217.375304
 21
4248.023076
 31
0.0
  0
ARC
  5
1E1
100
AcDbEntity
  8
SJC
100
AcDbCircle
 10
3215.875304
 20
4245.923076
 30
0.0
 40
1.5
100
AcDbArc
 50
270.0
 51
360.0
  0
ARC
  5
1E2
100
AcDbEntity
  8
SJC
100
AcDbCircle
 10
3217.875304
 20
4302.923076
 30
0.0
 40
1.5
100
AcDbArc
 50
360.0
 51
90.0
  0
LINE
  5
1E3
100
AcDbEntity
  8
SJC
100
AcDbLine
 10
3106.875304
 20
4149.423076
 30
0.0
 11
3217.875304
 21
4149.423076
 31
0.0
  0
LINE
  5
1E4
100
AcDbEntity
  8
SJC
100
AcDbLine
 10
3106.875304
 20
4093.023076
 30
0.0
 11
3217.875304
 21
4093.023076
 31
0.0
  0
LINE
  5
1E5
100
AcDbEntity
  8
SJC
100
AcDbLine
 10
3108.875304
 20
4089.423076
 30
0.0
 11
3215.875304
 21
4089.423076
 31
0.0
  0
LINE
  5
1E6
100
AcDbEntity
  8
SJC
100
AcDbLine
 10
3107.375304
 20
4090.923076
 30
0.0
 11
3107.375304
 21
4093.023076
 31
0.0
  0
ARC
  5
1E7
100
AcDbEntity
  8
SJC
100
AcDbCircle
 10
3108.875304
 20
4090.923076
 30
0.0
 40
1.5
100
AcDbArc
 50
180.0
 51
270.0
  0
LINE
  5
1E8
100
AcDbEntity
  8
SJC
100
AcDbLine
 10
3105.375304
 20
4094.523076
 30
0.0
 11
3105.375304
 21
4147.923076
 31
0.0
  0
ARC
  5
1E9
100
AcDbEntity
  8
SJC
100
AcDbCircle
 10
3106.875304
 20
4094.523076
 30
0.0
 40
1.5
100
AcDbArc
 50
180.0
 51
270.0
  0
ARC
  5
1EA
100
AcDbEntity
  8
SJC
100
AcDbCircle
 10
3106.875304
 20
4147.923076
 30
0.0
 40
1.5
100
AcDbArc
 50
90.0
 51
180.0
  0
LINE
  5
1EB
100
AcDbEntity
  8
SJC
100
AcDbLine
 10
3219.375304
 20
4094.523076
 30
0.0
 11
3219.375304
 21
4147.923076
 31
0.0
  0
ARC
  5
1EC
100
AcDbEntity
  8
SJC
100
AcDbCircle
 10
3217.875304
 20
4094.523076
 30
0.0
 40
1.5
100
AcDbArc
 50
270.0
 51
360.0
  0
LINE
  5
1ED
100
AcDbEntity
  8
SJC
100
AcDbLine
 10
3217.375304
 20
4090.923076
 30
0.0
 11
3217.375304
 21
4093.023076
 31
0.0
  0
ARC
  5
1EE
100
AcDbEntity
  8
SJC
100
AcDbCircle
 10
3215.875304
 20
4090.923076
 30
0.0
 40
1.5
100
AcDbArc
 50
270.0
 51
360.0
  0
ARC
  5
1EF
100
AcDbEntity
  8
SJC
100
AcDbCircle
 10
3217.875304
 20
4147.923076
 30
0.0
 40
1.5
100
AcDbArc
 50
360.0
 51
90.0
  0
LINE
  5
1F0
100
AcDbEntity
  8
SJC
100
AcDbLine
 10
3108.875304
 20
3934.423076
 30
0.0
 11
3215.875304
 21
3934.423076
 31
0.0
  0
LINE
  5
1F1
100
AcDbEntity
  8
SJC
100
AcDbLine
 10
3106.875304
 20
3938.023076
 30
0.0
 11
3217.875304
 21
3938.023076
 31
0.0
  0
LINE
  5
1F2
100
AcDbEntity
  8
SJC
100
AcDbLine
 10
3106.875304
 20
3994.423076
 30
0.0
 11
3217.875304
 21
3994.423076
 31
0.0
  0
ARC
  5
1F3
100
AcDbEntity
  8
SJC
100
AcDbCircle
 10
3106.875304
 20
3992.923076
 30
0.0
 40
1.5
100
AcDbArc
 50
90.0
 51
180.0
  0
ARC
  5
1F4
100
AcDbEntity
  8
SJC
100
AcDbCircle
 10
3106.875304
 20
3939.523076
 30
0.0
 40
1.5
100
AcDbArc
 50
180.0
 51
270.0
  0
LINE
  5
1F5
100
AcDbEntity
  8
SJC
100
AcDbLine
 10
3105.375304
 20
3939.523076
 30
0.0
 11
3105.375304
 21
3992.923076
 31
0.0
  0
ARC
  5
1F6
100
AcDbEntity
  8
SJC
100
AcDbCircle
 10
3108.875304
 20
3935.923076
 30
0.0
 40
1.5
100
AcDbArc
 50
180.0
 51
270.0
  0
LINE
  5
1F7
100
AcDbEntity
  8
SJC
100
AcDbLine
 10
3107.375304
 20
3935.923076
 30
0.0
 11
3107.375304
 21
3938.023076
 31
0.0
  0
ARC
  5
1F8
100
AcDbEntity
  8
SJC
100
AcDbCircle
 10
3217.875304
 20
3992.923076
 30
0.0
 40
1.5
100
AcDbArc
 50
360.0
 51
90.0
  0
ARC
  5
1F9
100
AcDbEntity
  8
SJC
100
AcDbCircle
 10
3215.875304
 20
3935.923076
 30
0.0
 40
1.5
100
AcDbArc
 50
270.0
 51
360.0
  0
LINE
  5
1FA
100
AcDbEntity
  8
SJC
100
AcDbLine
 10
3217.375304
 20
3935.923076
 30
0.0
 11
3217.375304
 21
3938.023076
 31
0.0
  0
ARC
  5
1FB
100
AcDbEntity
  8
SJC
100
AcDbCircle
 10
3217.875304
 20
3939.523076
 30
0.0
 40
1.5
100
AcDbArc
 50
270.0
 51
360.0
  0
LINE
  5
1FC
100
AcDbEntity
  8
SJC
100
AcDbLine
 10
3219.375304
 20
3939.523076
 30
0.0
 11
3219.375304
 21
3992.923076
 31
0.0
  0
LINE
  5
1FD
100
AcDbEntity
  8
SJC
100
AcDbLine
 10
1219.375304
 20
4249.523076
 30
0.0
 11
1219.375304
 21
4302.923076
 31
0.0
  0
LINE
  5
1FE
100
AcDbEntity
  8
SJC
100
AcDbLine
 10
1105.375304
 20
4249.523076
 30
0.0
 11
1105.375304
 21
4302.923076
 31
0.0
  0
LINE
  5
1FF
100
AcDbEntity
  8
SJC
100
AcDbLine
 10
1108.875304
 20
4244.423076
 30
0.0
 11
1215.875304
 21
4244.423076
 31
0.0
  0
LINE
  5
200
100
AcDbEntity
  8
SJC
100
AcDbLine
 10
1106.875304
 20
4248.023076
 30
0.0
 11
1217.875304
 21
4248.023076
 31
0.0
  0
ARC
  5
201
100
AcDbEntity
  8
SJC
100
AcDbCircle
 10
1106.875304
 20
4249.523076
 30
0.0
 40
1.5
100
AcDbArc
 50
180.0
 51
270.0
  0
ARC
  5
202
100
AcDbEntity
  8
SJC
100
AcDbCircle
 10
1108.875304
 20
4245.923076
 30
0.0
 40
1.5
100
AcDbArc
 50
180.0
 51
270.0
  0
LINE
  5
203
100
AcDbEntity
  8
SJC
100
AcDbLine
 10
1107.375304
 20
4245.923076
 30
0.0
 11
1107.375304
 21
4248.023076
 31
0.0
  0
ARC
  5
204
100
AcDbEntity
  8
SJC
100
AcDbCircle
 10
1215.875304
 20
4245.923076
 30
0.0
 40
1.5
100
AcDbArc
 50
270.0
 51
360.0
  0
LINE
  5
205
100
AcDbEntity
  8
SJC
100
AcDbLine
 10
1217.375304
 20
4245.923076
 30
0.0
 11
1217.375304
 21
4248.023076
 31
0.0
  0
ARC
  5
206
100
AcDbEntity
  8
SJC
100
AcDbCircle
 10
1217.875304
 20
4249.523076
 30
0.0
 40
1.5
100
AcDbArc
 50
270.0
 51
360.0
  0
LINE
  5
207
100
AcDbEntity
  8
SJC
100
AcDbLine
 10
1106.875304
 20
4304.423076
 30
0.0
 11
1217.875304
 21
4304.423076
 31
0.0
  0
ARC
  5
208
100
AcDbEntity
  8
SJC
100
AcDbCircle
 10
1106.875304
 20
4302.923076
 30
0.0
 40
1.5
100
AcDbArc
 50
90.0
 51
180.0
  0
ARC
  5
209
100
AcDbEntity
  8
SJC
100
AcDbCircle
 10
1217.875304
 20
4302.923076
 30
0.0
 40
1.5
100
AcDbArc
 50
360.0
 51
90.0
  0
ARC
  5
20A
100
AcDbEntity
  8
SJC
100
AcDbCircle
 10
1106.875304
 20
4147.923076
 30
0.0
 40
1.5
100
AcDbArc
 50
90.0
 51
180.0
  0
ARC
  5
20B
100
AcDbEntity
  8
SJC
100
AcDbCircle
 10
1106.875304
 20
4094.523076
 30
0.0
 40
1.5
100
AcDbArc
 50
180.0
 51
270.0
  0
LINE
  5
20C
100
AcDbEntity
  8
SJC
100
AcDbLine
 10
1105.375304
 20
4094.523076
 30
0.0
 11
1105.375304
 21
4147.923076
 31
0.0
  0
LINE
  5
20D
100
AcDbEntity
  8
SJC
100
AcDbLine
 10
1106.875304
 20
4149.423076
 30
0.0
 11
1217.875304
 21
4149.423076
 31
0.0
  0
LINE
  5
20E
100
AcDbEntity
  8
SJC
100
AcDbLine
 10
1106.875304
 20
4093.023076
 30
0.0
 11
1217.875304
 21
4093.023076
 31
0.0
  0
LINE
  5
20F
100
AcDbEntity
  8
SJC
100
AcDbLine
 10
1108.875304
 20
4089.423076
 30
0.0
 11
1215.875304
 21
4089.423076
 31
0.0
  0
LINE
  5
210
100
AcDbEntity
  8
SJC
100
AcDbLine
 10
1107.375304
 20
4090.923076
 30
0.0
 11
1107.375304
 21
4093.023076
 31
0.0
  0
ARC
  5
211
100
AcDbEntity
  8
SJC
100
AcDbCircle
 10
1108.875304
 20
4090.923076
 30
0.0
 40
1.5
100
AcDbArc
 50
180.0
 51
270.0
  0
ARC
  5
212
100
AcDbEntity
  8
SJC
100
AcDbCircle
 10
1217.875304
 20
4147.923076
 30
0.0
 40
1.5
100
AcDbArc
 50
360.0
 51
90.0
  0
ARC
  5
213
100
AcDbEntity
  8
SJC
100
AcDbCircle
 10
1217.875304
 20
4094.523076
 30
0.0
 40
1.5
100
AcDbArc
 50
270.0
 51
360.0
  0
LINE
  5
214
100
AcDbEntity
  8
SJC
100
AcDbLine
 10
1217.375304
 20
4090.923076
 30
0.0
 11
1217.375304
 21
4093.023076
 31
0.0
  0
ARC
  5
215
100
AcDbEntity
  8
SJC
100
AcDbCircle
 10
1215.875304
 20
4090.923076
 30
0.0
 40
1.5
100
AcDbArc
 50
270.0
 51
360.0
  0
LINE
  5
216
100
AcDbEntity
  8
SJC
100
AcDbLine
 10
1219.375304
 20
4094.523076
 30
0.0
 11
1219.375304
 21
4147.923076
 31
0.0
  0
ARC
  5
217
100
AcDbEntity
  8
SJC
100
AcDbCircle
 10
1106.875304
 20
3992.923076
 30
0.0
 40
1.5
100
AcDbArc
 50
90.0
 51
180.0
  0
ARC
  5
218
100
AcDbEntity
  8
SJC
100
AcDbCircle
 10
1106.875304
 20
3939.523076
 30
0.0
 40
1.5
100
AcDbArc
 50
180.0
 51
270.0
  0
LINE
  5
219
100
AcDbEntity
  8
SJC
100
AcDbLine
 10
1105.375304
 20
3939.523076
 30
0.0
 11
1105.375304
 21
3992.923076
 31
0.0
  0
LINE
  5
21A
100
AcDbEntity
  8
SJC
100
AcDbLine
 10
1106.875304
 20
3994.423076
 30
0.0
 11
1217.875304
 21
3994.423076
 31
0.0
  0
LINE
  5
21B
100
AcDbEntity
  8
SJC
100
AcDbLine
 10
1106.875304
 20
3938.023076
 30
0.0
 11
1217.875304
 21
3938.023076
 31
0.0
  0
LINE
  5
21C
100
AcDbEntity
  8
SJC
100
AcDbLine
 10
1108.875304
 20
3934.423076
 30
0.0
 11
1215.875304
 21
3934.423076
 31
0.0
  0
LINE
  5
21D
100
AcDbEntity
  8
SJC
100
AcDbLine
 10
1107.375304
 20
3935.923076
 30
0.0
 11
1107.375304
 21
3938.023076
 31
0.0
  0
ARC
  5
21E
100
AcDbEntity
  8
SJC
100
AcDbCircle
 10
1108.875304
 20
3935.923076
 30
0.0
 40
1.5
100
AcDbArc
 50
180.0
 51
270.0
  0
ARC
  5
21F
100
AcDbEntity
  8
SJC
100
AcDbCircle
 10
1217.875304
 20
3992.923076
 30
0.0
 40
1.5
100
AcDbArc
 50
360.0
 51
90.0
  0
ARC
  5
220
100
AcDbEntity
  8
SJC
100
AcDbCircle
 10
1217.875304
 20
3939.523076
 30
0.0
 40
1.5
100
AcDbArc
 50
270.0
 51
360.0
  0
LINE
  5
221
100
AcDbEntity
  8
SJC
100
AcDbLine
 10
1217.375304
 20
3935.923076
 30
0.0
 11
1217.375304
 21
3938.023076
 31
0.0
  0
ARC
  5
222
100
AcDbEntity
  8
SJC
100
AcDbCircle
 10
1215.875304
 20
3935.923076
 30
0.0
 40
1.5
100
AcDbArc
 50
270.0
 51
360.0
  0
LINE
  5
223
100
AcDbEntity
  8
SJC
100
AcDbLine
 10
1219.375304
 20
3939.523076
 30
0.0
 11
1219.375304
 21
3992.923076
 31
0.0
  0
LINE
  5
224
100
AcDbEntity
  8
SJC
100
AcDbLine
 10
5106.875304
 20
4149.423076
 30
0.0
 11
5217.875304
 21
4149.423076
 31
0.0
  0
LINE
  5
225
100
AcDbEntity
  8
SJC
100
AcDbLine
 10
5106.875304
 20
4093.023076
 30
0.0
 11
5217.875304
 21
4093.023076
 31
0.0
  0
LINE
  5
226
100
AcDbEntity
  8
SJC
100
AcDbLine
 10
5108.875304
 20
4089.423076
 30
0.0
 11
5215.875304
 21
4089.423076
 31
0.0
  0
LINE
  5
227
100
AcDbEntity
  8
SJC
100
AcDbLine
 10
5105.375304
 20
4094.523076
 30
0.0
 11
5105.375304
 21
4147.923076
 31
0.0
  0
LINE
  5
228
100
AcDbEntity
  8
SJC
100
AcDbLine
 10
5107.375304
 20
4090.923076
 30
0.0
 11
5107.375304
 21
4093.023076
 31
0.0
  0
ARC
  5
229
100
AcDbEntity
  8
SJC
100
AcDbCircle
 10
5108.875304
 20
4090.923076
 30
0.0
 40
1.5
100
AcDbArc
 50
180.0
 51
270.0
  0
ARC
  5
22A
100
AcDbEntity
  8
SJC
100
AcDbCircle
 10
5106.875304
 20
4094.523076
 30
0.0
 40
1.5
100
AcDbArc
 50
180.0
 51
270.0
  0
ARC
  5
22B
100
AcDbEntity
  8
SJC
100
AcDbCircle
 10
5106.875304
 20
4147.923076
 30
0.0
 40
1.5
100
AcDbArc
 50
90.0
 51
180.0
  0
LINE
  5
22C
100
AcDbEntity
  8
SJC
100
AcDbLine
 10
5219.375304
 20
4094.523076
 30
0.0
 11
5219.375304
 21
4147.923076
 31
0.0
  0
ARC
  5
22D
100
AcDbEntity
  8
SJC
100
AcDbCircle
 10
5217.875304
 20
4094.523076
 30
0.0
 40
1.5
100
AcDbArc
 50
270.0
 51
360.0
  0
LINE
  5
22E
100
AcDbEntity
  8
SJC
100
AcDbLine
 10
5217.375304
 20
4090.923076
 30
0.0
 11
5217.375304
 21
4093.023076
 31
0.0
  0
ARC
  5
22F
100
AcDbEntity
  8
SJC
100
AcDbCircle
 10
5215.875304
 20
4090.923076
 30
0.0
 40
1.5
100
AcDbArc
 50
270.0
 51
360.0
  0
ARC
  5
230
100
AcDbEntity
  8
SJC
100
AcDbCircle
 10
5217.875304
 20
4147.923076
 30
0.0
 40
1.5
100
AcDbArc
 50
360.0
 51
90.0
  0
LINE
  5
231
100
AcDbEntity
  8
SJC
100
AcDbLine
 10
5219.375304
 20
3939.523076
 30
0.0
 11
5219.375304
 21
3992.923076
 31
0.0
  0
LINE
  5
232
100
AcDbEntity
  8
SJC
100
AcDbLine
 10
5105.375304
 20
3939.523076
 30
0.0
 11
5105.375304
 21
3992.923076
 31
0.0
  0
LINE
  5
233
100
AcDbEntity
  8
SJC
100
AcDbLine
 10
5106.875304
 20
3938.023076
 30
0.0
 11
5217.875304
 21
3938.023076
 31
0.0
  0
LINE
  5
234
100
AcDbEntity
  8
SJC
100
AcDbLine
 10
5108.875304
 20
3934.423076
 30
0.0
 11
5215.875304
 21
3934.423076
 31
0.0
  0
LINE
  5
235
100
AcDbEntity
  8
SJC
100
AcDbLine
 10
5107.375304
 20
3935.923076
 30
0.0
 11
5107.375304
 21
3938.023076
 31
0.0
  0
ARC
  5
236
100
AcDbEntity
  8
SJC
100
AcDbCircle
 10
5106.875304
 20
3939.523076
 30
0.0
 40
1.5
100
AcDbArc
 50
180.0
 51
270.0
  0
ARC
  5
237
100
AcDbEntity
  8
SJC
100
AcDbCircle
 10
5108.875304
 20
3935.923076
 30
0.0
 40
1.5
100
AcDbArc
 50
180.0
 51
270.0
  0
ARC
  5
238
100
AcDbEntity
  8
SJC
100
AcDbCircle
 10
5217.875304
 20
3939.523076
 30
0.0
 40
1.5
100
AcDbArc
 50
270.0
 51
360.0
  0
LINE
  5
239
100
AcDbEntity
  8
SJC
100
AcDbLine
 10
5217.375304
 20
3935.923076
 30
0.0
 11
5217.375304
 21
3938.023076
 31
0.0
  0
ARC
  5
23A
100
AcDbEntity
  8
SJC
100
AcDbCircle
 10
5215.875304
 20
3935.923076
 30
0.0
 40
1.5
100
AcDbArc
 50
270.0
 51
360.0
  0
LINE
  5
23B
100
AcDbEntity
  8
SJC
100
AcDbLine
 10
5106.875304
 20
3994.423076
 30
0.0
 11
5217.875304
 21
3994.423076
 31
0.0
  0
ARC
  5
23C
100
AcDbEntity
  8
SJC
100
AcDbCircle
 10
5106.875304
 20
3992.923076
 30
0.0
 40
1.5
100
AcDbArc
 50
90.0
 51
180.0
  0
ARC
  5
23D
100
AcDbEntity
  8
SJC
100
AcDbCircle
 10
5217.875304
 20
3992.923076
 30
0.0
 40
1.5
100
AcDbArc
 50
360.0
 51
90.0
  0
ARC
  5
23E
100
AcDbEntity
  8
SJC
100
AcDbCircle
 10
5217.875304
 20
4302.923076
 30
0.0
 40
1.5
100
AcDbArc
 50
360.0
 51
90.0
  0
ARC
  5
23F
100
AcDbEntity
  8
SJC
100
AcDbCircle
 10
5217.875304
 20
4249.523076
 30
0.0
 40
1.5
100
AcDbArc
 50
270.0
 51
360.0
  0
LINE
  5
240
100
AcDbEntity
  8
SJC
100
AcDbLine
 10
5106.875304
 20
4304.423076
 30
0.0
 11
5217.875304
 21
4304.423076
 31
0.0
  0
LINE
  5
241
100
AcDbEntity
  8
SJC
100
AcDbLine
 10
5108.875304
 20
4244.423076
 30
0.0
 11
5215.875304
 21
4244.423076
 31
0.0
  0
LINE
  5
242
100
AcDbEntity
  8
SJC
100
AcDbLine
 10
5106.875304
 20
4248.023076
 30
0.0
 11
5217.875304
 21
4248.023076
 31
0.0
  0
ARC
  5
243
100
AcDbEntity
  8
SJC
100
AcDbCircle
 10
5106.875304
 20
4302.923076
 30
0.0
 40
1.5
100
AcDbArc
 50
90.0
 51
180.0
  0
ARC
  5
244
100
AcDbEntity
  8
SJC
100
AcDbCircle
 10
5108.875304
 20
4245.923076
 30
0.0
 40
1.5
100
AcDbArc
 50
180.0
 51
270.0
  0
ARC
  5
245
100
AcDbEntity
  8
SJC
100
AcDbCircle
 10
5106.875304
 20
4249.523076
 30
0.0
 40
1.5
100
AcDbArc
 50
180.0
 51
270.0
  0
LINE
  5
246
100
AcDbEntity
  8
SJC
100
AcDbLine
 10
5107.375304
 20
4245.923076
 30
0.0
 11
5107.375304
 21
4248.023076
 31
0.0
  0
LINE
  5
247
100
AcDbEntity
  8
SJC
100
AcDbLine
 10
5105.375304
 20
4249.523076
 30
0.0
 11
5105.375304
 21
4302.923076
 31
0.0
  0
ARC
  5
248
100
AcDbEntity
  8
SJC
100
AcDbCircle
 10
5215.875304
 20
4245.923076
 30
0.0
 40
1.5
100
AcDbArc
 50
270.0
 51
360.0
  0
LINE
  5
249
100
AcDbEntity
  8
SJC
100
AcDbLine
 10
5217.375304
 20
4245.923076
 30
0.0
 11
5217.375304
 21
4248.023076
 31
0.0
  0
LINE
  5
24A
100
AcDbEntity
  8
SJC
100
AcDbLine
 10
5219.375304
 20
4249.523076
 30
0.0
 11
5219.375304
 21
4302.923076
 31
0.0
  0
POLYLINE
  5
24B
100
AcDbEntity
  8
WAKU
100
AcDb2dPolyline
 66
     1
 10
0.0
 20
0.0
 30
0.0
  0
VERTEX
  5
24C
100
AcDbEntity
  8
WAKU
100
AcDbVertex
100
AcDb2dVertex
 10
6277.647646
 20
5065.616845
 30
0.0
 42
0.085722
  0
SEQEND
  5
24D
100
AcDbEntity
  8
WAKU
  0
POLYLINE
  5
24E
100
AcDbEntity
  8
WAKU
100
AcDb2dPolyline
 66
     1
 10
0.0
 20
0.0
 30
0.0
  0
VERTEX
  5
24F
100
AcDbEntity
  8
WAKU
100
AcDbVertex
100
AcDb2dVertex
 10
6334.327226
 20
5065.616845
 30
0.0
 42
0.099475
  0
SEQEND
  5
250
100
AcDbEntity
  8
WAKU
  0
ARC
  5
251
100
AcDbEntity
  8
SJC2
100
AcDbCircle
 10
6358.725304
 20
4274.423076
 30
0.0
 40
38.25
100
AcDbArc
 50
331.927513
 51
28.072487
  0
LINE
  5
252
100
AcDbEntity
  8
SJC2
100
AcDbLine
 10
6352.579206
 20
4244.423076
 30
0.0
 11
6370.371402
 21
4244.423076
 31
0.0
  0
CIRCLE
  5
253
100
AcDbEntity
  8
SJC2
100
AcDbCircle
 10
6361.475304
 20
4274.423076
 30
0.0
 40
19.05
  0
CIRCLE
  5
254
100
AcDbEntity
  8
SJC2
100
AcDbCircle
 10
6361.475304
 20
4274.423076
 30
0.0
 40
21.35
  0
LINE
  5
255
100
AcDbEntity
  8
SJC2
100
AcDbLine
 10
6371.434798
 20
4247.89098
 30
0.0
 11
6370.371402
 21
4244.423076
 31
0.0
  0
LINE
  5
256
100
AcDbEntity
  8
SJC2
100
AcDbLine
 10
6351.51581
 20
4247.89098
 30
0.0
 11
6352.579206
 21
4244.423076
 31
0.0
  0
LINE
  5
257
100
AcDbEntity
  8
CENTER
100
AcDbLine
 10
6361.475304
 20
4235.423076
 30
0.0
 11
6361.475304
 21
4314.423076
 31
0.0
  0
CIRCLE
  5
258
100
AcDbEntity
  8
SJC2
100
AcDbCircle
 10
6361.475304
 20
4274.423076
 30
0.0
 40
28.33979
  0
LINE
  5
259
100
AcDbEntity
  8
SJC2
100
AcDbLine
 10
6392.475304
 20
4256.423076
 30
0.0
 11
6383.364654
 21
4256.423076
 31
0.0
  0
LINE
  5
25A
100
AcDbEntity
  8
SJC2
100
AcDbLine
 10
6392.475304
 20
4292.423076
 30
0.0
 11
6383.364654
 21
4292.423076
 31
0.0
  0
LINE
  5
25B
100
AcDbEntity
  8
SJC2
100
AcDbLine
 10
6392.475304
 20
3982.423076
 30
0.0
 11
6383.364654
 21
3982.423076
 31
0.0
  0
LINE
  5
25C
100
AcDbEntity
  8
SJC2
100
AcDbLine
 10
6392.475304
 20
3946.423076
 30
0.0
 11
6383.364654
 21
3946.423076
 31
0.0
  0
CIRCLE
  5
25D
100
AcDbEntity
  8
SJC2
100
AcDbCircle
 10
6361.475304
 20
3964.423076
 30
0.0
 40
28.33979
  0
LINE
  5
25E
100
AcDbEntity
  8
SJC2
100
AcDbLine
 10
6351.51581
 20
3937.89098
 30
0.0
 11
6352.579206
 21
3934.423076
 31
0.0
  0
LINE
  5
25F
100
AcDbEntity
  8
SJC2
100
AcDbLine
 10
6371.434798
 20
3937.89098
 30
0.0
 11
6370.371402
 21
3934.423076
 31
0.0
  0
CIRCLE
  5
260
100
AcDbEntity
  8
SJC2
100
AcDbCircle
 10
6361.475304
 20
3964.423076
 30
0.0
 40
21.35
  0
CIRCLE
  5
261
100
AcDbEntity
  8
SJC2
100
AcDbCircle
 10
6361.475304
 20
3964.423076
 30
0.0
 40
19.05
  0
LINE
  5
262
100
AcDbEntity
  8
SJC2
100
AcDbLine
 10
6352.579206
 20
3934.423076
 30
0.0
 11
6370.371402
 21
3934.423076
 31
0.0
  0
ARC
  5
263
100
AcDbEntity
  8
SJC2
100
AcDbCircle
 10
6358.725304
 20
3964.423076
 30
0.0
 40
38.25
100
AcDbArc
 50
331.927513
 51
28.072487
  0
LINE
  5
264
100
AcDbEntity
  8
CENTER
100
AcDbLine
 10
6361.475304
 20
3925.423076
 30
0.0
 11
6361.475304
 21
4004.423076
 31
0.0
  0
LINE
  5
265
100
AcDbEntity
  8
SJC2
100
AcDbLine
 10
6392.475304
 20
4137.423076
 30
0.0
 11
6383.364654
 21
4137.423076
 31
0.0
  0
LINE
  5
266
100
AcDbEntity
  8
SJC2
100
AcDbLine
 10
6392.475304
 20
4101.423076
 30
0.0
 11
6383.364654
 21
4101.423076
 31
0.0
  0
CIRCLE
  5
267
100
AcDbEntity
  8
SJC2
100
AcDbCircle
 10
6361.475304
 20
4119.423076
 30
0.0
 40
28.33979
  0
CIRCLE
  5
268
100
AcDbEntity
  8
SJC2
100
AcDbCircle
 10
6361.475304
 20
4119.423076
 30
0.0
 40
21.35
  0
CIRCLE
  5
269
100
AcDbEntity
  8
SJC2
100
AcDbCircle
 10
6361.475304
 20
4119.423076
 30
0.0
 40
19.05
  0
LINE
  5
26A
100
AcDbEntity
  8
CENTER
100
AcDbLine
 10
6361.475304
 20
4080.423076
 30
0.0
 11
6361.475304
 21
4159.423076
 31
0.0
  0
LINE
  5
26B
100
AcDbEntity
  8
SJC2
100
AcDbLine
 10
6351.51581
 20
4092.89098
 30
0.0
 11
6352.579206
 21
4089.423076
 31
0.0
  0
LINE
  5
26C
100
AcDbEntity
  8
SJC2
100
AcDbLine
 10
6371.434798
 20
4092.89098
 30
0.0
 11
6370.371402
 21
4089.423076
 31
0.0
  0
LINE
  5
26D
100
AcDbEntity
  8
SJC2
100
AcDbLine
 10
6352.579206
 20
4089.423076
 30
0.0
 11
6370.371402
 21
4089.423076
 31
0.0
  0
ARC
  5
26E
100
AcDbEntity
  8
SJC2
100
AcDbCircle
 10
6358.725304
 20
4119.423076
 30
0.0
 40
38.25
100
AcDbArc
 50
331.927513
 51
28.072487
  0
LINE
  5
26F
100
AcDbEntity
  8
SJC
100
AcDbLine
 10
2232.0
 20
425.384615
 30
0.0
 11
3791.6
 21
425.384615
 31
0.0
  0
LINE
  5
270
100
AcDbEntity
  8
CENTER
100
AcDbLine
 10
1279.8
 20
343.384615
 30
0.0
 11
1279.8
 21
2288.517823
 31
0.0
  0
LINE
  5
271
100
AcDbEntity
  8
CENTER
100
AcDbLine
 10
3011.8
 20
343.384615
 30
0.0
 11
3011.8
 21
2310.806753
 31
0.0
  0
LINE
  5
272
100
AcDbEntity
  8
SJC
100
AcDbLine
 10
859.8
 20
425.384615
 30
0.0
 11
1819.8
 21
425.384615
 31
0.0
  0
LINE
  5
273
100
AcDbEntity
  8
SJC
100
AcDbLine
 10
1419.6
 20
425.384615
 30
0.0
 11
1419.6
 21
1344.384615
 31
0.0
  0
LINE
  5
274
100
AcDbEntity
  8
SJC
100
AcDbLine
 10
1140.0
 20
425.384615
 30
0.0
 11
1140.0
 21
2075.384615
 31
0.0
  0
LINE
  5
275
100
AcDbEntity
  8
SJC
100
AcDbLine
 10
1419.6
 20
1726.384615
 30
0.0
 11
1419.6
 21
1964.384615
 31
0.0
  0
LINE
  5
276
100
AcDbEntity
  8
SJC
100
AcDbLine
 10
1419.6
 20
1416.384615
 30
0.0
 11
1419.6
 21
1654.384615
 31
0.0
  0
LINE
  5
277
100
AcDbEntity
  8
CENTER
100
AcDbLine
 10
1342.0
 20
1380.384615
 30
0.0
 11
1557.4
 21
1380.384615
 31
0.0
  0
LINE
  5
278
100
AcDbEntity
  8
CENTER
100
AcDbLine
 10
1342.0
 20
1690.384615
 30
0.0
 11
1557.4
 21
1690.384615
 31
0.0
  0
LINE
  5
279
100
AcDbEntity
  8
SJC
100
AcDbLine
 10
1419.6
 20
2075.384615
 30
0.0
 11
1140.0
 21
2075.384615
 31
0.0
  0
ARC
  5
27A
100
AcDbEntity
  8
SJC
100
AcDbCircle
 10
1279.8
 20
2075.584472
 30
0.0
 40
139.800143
100
AcDbArc
 50
359.91809
 51
180.08191
  0
LINE
  5
27B
100
AcDbEntity
  8
CENTER
100
AcDbLine
 10
1342.0
 20
2000.384615
 30
0.0
 11
1557.4
 21
2000.384615
 31
0.0
  0
LINE
  5
27C
100
AcDbEntity
  8
SJC
100
AcDbLine
 10
1419.6
 20
2036.384615
 30
0.0
 11
1419.6
 21
2075.384615
 31
0.0
  0
LINE
  5
27D
100
AcDbEntity
  8
SJC
100
AcDbLine
 10
2872.0
 20
425.384615
 30
0.0
 11
2872.0
 21
1337.684615
 31
0.0
  0
LINE
  5
27E
100
AcDbEntity
  8
SJC
100
AcDbLine
 10
3151.6
 20
425.384615
 30
0.0
 11
3151.6
 21
1337.684615
 31
0.0
  0
LINE
  5
27F
100
AcDbEntity
  8
SJC
100
AcDbLine
 10
2872.0
 20
2075.384615
 30
0.0
 11
3151.6
 21
2075.384615
 31
0.0
  0
ARC
  5
280
100
AcDbEntity
  8
SJC
100
AcDbCircle
 10
3011.8
 20
2075.584472
 30
0.0
 40
139.800143
100
AcDbArc
 50
359.91809
 51
180.08191
  0
LINE
  5
281
100
AcDbEntity
  8
SJC
100
AcDbLine
 10
2872.0
 20
1733.084615
 30
0.0
 11
2872.0
 21
1957.684615
 31
0.0
  0
LINE
  5
282
100
AcDbEntity
  8
SJC
100
AcDbLine
 10
2872.0
 20
1423.084615
 30
0.0
 11
2872.0
 21
1647.684615
 31
0.0
  0
LINE
  5
283
100
AcDbEntity
  8
SJC
100
AcDbLine
 10
2872.0
 20
2043.084615
 30
0.0
 11
2872.0
 21
2075.784329
 31
0.0
  0
LINE
  5
284
100
AcDbEntity
  8
SJC
100
AcDbLine
 10
3151.6
 20
1733.084615
 30
0.0
 11
3151.6
 21
1957.684615
 31
0.0
  0
LINE
  5
285
100
AcDbEntity
  8
SJC
100
AcDbLine
 10
3151.6
 20
1423.084615
 30
0.0
 11
3151.6
 21
1647.684615
 31
0.0
  0
LINE
  5
286
100
AcDbEntity
  8
SJC
100
AcDbLine
 10
3151.6
 20
2043.084615
 30
0.0
 11
3151.6
 21
2075.784329
 31
0.0
  0
LINE
  5
287
100
AcDbEntity
  8
SJC
100
AcDbLine
 10
2897.8
 20
2043.084615
 30
0.0
 11
2232.0
 21
2043.084615
 31
0.0
  0
LINE
  5
288
100
AcDbEntity
  8
SJC
100
AcDbLine
 10
2897.8
 20
1957.684615
 30
0.0
 11
2232.0
 21
1957.684615
 31
0.0
  0
LINE
  5
289
100
AcDbEntity
  8
SJC
100
AcDbLine
 10
3125.8
 20
1957.684615
 30
0.0
 11
3791.6
 21
1957.684615
 31
0.0
  0
LINE
  5
28A
100
AcDbEntity
  8
SJC
100
AcDbLine
 10
3125.8
 20
2043.084615
 30
0.0
 11
3791.6
 21
2043.084615
 31
0.0
  0
LINE
  5
28B
100
AcDbEntity
  8
CENTER
100
AcDbLine
 10
3911.6
 20
2000.384615
 30
0.0
 11
2112.0
 21
2000.384615
 31
0.0
  0
ARC
  5
28C
100
AcDbEntity
  8
SJC
100
AcDbCircle
 10
3731.213081
 20
1979.034615
 30
0.0
 40
64.05
100
AcDbArc
 50
340.528779
 51
19.471221
  0
ARC
  5
28D
100
AcDbEntity
  8
SJC
100
AcDbCircle
 10
3731.213081
 20
2021.734615
 30
0.0
 40
64.05
100
AcDbArc
 50
340.528779
 51
19.471221
  0
ARC
  5
28E
100
AcDbEntity
  8
SJC
100
AcDbCircle
 10
3851.986919
 20
2021.734615
 30
0.0
 40
64.05
100
AcDbArc
 50
160.528779
 51
199.471221
  0
ARC
  5
28F
100
AcDbEntity
  8
SJC
100
AcDbCircle
 10
2292.386919
 20
2021.734615
 30
0.0
 40
64.05
100
AcDbArc
 50
160.528779
 51
199.471221
  0
ARC
  5
290
100
AcDbEntity
  8
SJC
100
AcDbCircle
 10
2292.386919
 20
1979.034615
 30
0.0
 40
64.05
100
AcDbArc
 50
160.528779
 51
199.471221
  0
ARC
  5
291
100
AcDbEntity
  8
SJC
100
AcDbCircle
 10
2171.613081
 20
1979.034615
 30
0.0
 40
64.05
100
AcDbArc
 50
340.528779
 51
19.471221
  0
LINE
  5
292
100
AcDbEntity
  8
CENTER
100
AcDbLine
 10
3911.6
 20
1690.384615
 30
0.0
 11
2112.0
 21
1690.384615
 31
0.0
  0
LINE
  5
293
100
AcDbEntity
  8
SJC
100
AcDbLine
 10
2897.8
 20
1647.684615
 30
0.0
 11
2232.0
 21
1647.684615
 31
0.0
  0
LINE
  5
294
100
AcDbEntity
  8
SJC
100
AcDbLine
 10
2897.8
 20
1733.084615
 30
0.0
 11
2232.0
 21
1733.084615
 31
0.0
  0
ARC
  5
295
100
AcDbEntity
  8
SJC
100
AcDbCircle
 10
2171.613081
 20
1669.034615
 30
0.0
 40
64.05
100
AcDbArc
 50
340.528779
 51
19.471221
  0
ARC
  5
296
100
AcDbEntity
  8
SJC
100
AcDbCircle
 10
2292.386919
 20
1669.034615
 30
0.0
 40
64.05
100
AcDbArc
 50
160.528779
 51
199.471221
  0
ARC
  5
297
100
AcDbEntity
  8
SJC
100
AcDbCircle
 10
2292.386919
 20
1711.734615
 30
0.0
 40
64.05
100
AcDbArc
 50
160.528779
 51
199.471221
  0
LINE
  5
298
100
AcDbEntity
  8
SJC
100
AcDbLine
 10
3125.8
 20
1733.084615
 30
0.0
 11
3791.6
 21
1733.084615
 31
0.0
  0
LINE
  5
299
100
AcDbEntity
  8
SJC
100
AcDbLine
 10
3125.8
 20
1647.684615
 30
0.0
 11
3791.6
 21
1647.684615
 31
0.0
  0
ARC
  5
29A
100
AcDbEntity
  8
SJC
100
AcDbCircle
 10
3731.213081
 20
1669.034615
 30
0.0
 40
64.05
100
AcDbArc
 50
340.528779
 51
19.471221
  0
ARC
  5
29B
100
AcDbEntity
  8
SJC
100
AcDbCircle
 10
3851.986919
 20
1711.734615
 30
0.0
 40
64.05
100
AcDbArc
 50
160.528779
 51
199.471221
  0
ARC
  5
29C
100
AcDbEntity
  8
SJC
100
AcDbCircle
 10
3731.213081
 20
1711.734615
 30
0.0
 40
64.05
100
AcDbArc
 50
340.528779
 51
19.471221
  0
LINE
  5
29D
100
AcDbEntity
  8
CENTER
100
AcDbLine
 10
3911.6
 20
1380.384615
 30
0.0
 11
2112.0
 21
1380.384615
 31
0.0
  0
LINE
  5
29E
100
AcDbEntity
  8
SJC
100
AcDbLine
 10
2897.8
 20
1337.684615
 30
0.0
 11
2232.0
 21
1337.684615
 31
0.0
  0
LINE
  5
29F
100
AcDbEntity
  8
SJC
100
AcDbLine
 10
2897.8
 20
1423.084615
 30
0.0
 11
2232.0
 21
1423.084615
 31
0.0
  0
ARC
  5
2A0
100
AcDbEntity
  8
SJC
100
AcDbCircle
 10
2171.613081
 20
1359.034615
 30
0.0
 40
64.05
100
AcDbArc
 50
340.528779
 51
19.471221
  0
ARC
  5
2A1
100
AcDbEntity
  8
SJC
100
AcDbCircle
 10
2292.386919
 20
1359.034615
 30
0.0
 40
64.05
100
AcDbArc
 50
160.528779
 51
199.471221
  0
ARC
  5
2A2
100
AcDbEntity
  8
SJC
100
AcDbCircle
 10
2292.386919
 20
1401.734615
 30
0.0
 40
64.05
100
AcDbArc
 50
160.528779
 51
199.471221
  0
LINE
  5
2A3
100
AcDbEntity
  8
SJC
100
AcDbLine
 10
3125.8
 20
1423.084615
 30
0.0
 11
3791.6
 21
1423.084615
 31
0.0
  0
LINE
  5
2A4
100
AcDbEntity
  8
SJC
100
AcDbLine
 10
3125.8
 20
1337.684615
 30
0.0
 11
3791.6
 21
1337.684615
 31
0.0
  0
ARC
  5
2A5
100
AcDbEntity
  8
SJC
100
AcDbCircle
 10
3731.213081
 20
1359.034615
 30
0.0
 40
64.05
100
AcDbArc
 50
340.528779
 51
19.471221
  0
ARC
  5
2A6
100
AcDbEntity
  8
SJC
100
AcDbCircle
 10
3851.986919
 20
1401.734615
 30
0.0
 40
64.05
100
AcDbArc
 50
160.528779
 51
199.471221
  0
ARC
  5
2A7
100
AcDbEntity
  8
SJC
100
AcDbCircle
 10
3731.213081
 20
1401.734615
 30
0.0
 40
64.05
100
AcDbArc
 50
340.528779
 51
19.471221
  0
LINE
  5
2A8
100
AcDbEntity
  8
SJC
100
AcDbLine
 10
2900.8
 20
2060.384615
 30
0.0
 11
3122.8
 21
2060.384615
 31
0.0
  0
LINE
  5
2A9
100
AcDbEntity
  8
SJC
100
AcDbLine
 10
2900.8
 20
1947.584615
 30
0.0
 11
3122.8
 21
1947.584615
 31
0.0
  0
LINE
  5
2AA
100
AcDbEntity
  8
SJC
100
AcDbLine
 10
2904.8
 20
1940.384615
 30
0.0
 11
3118.8
 21
1940.384615
 31
0.0
  0
LINE
  5
2AB
100
AcDbEntity
  8
SJC
100
AcDbLine
 10
2897.8
 20
1950.584615
 30
0.0
 11
2897.8
 21
2057.384615
 31
0.0
  0
ARC
  5
2AC
100
AcDbEntity
  8
SJC
100
AcDbCircle
 10
2900.8
 20
1950.584615
 30
0.0
 40
3.0
100
AcDbArc
 50
180.0
 51
270.0
  0
LINE
  5
2AD
100
AcDbEntity
  8
SJC
100
AcDbLine
 10
2901.8
 20
1943.384615
 30
0.0
 11
2901.8
 21
1947.584615
 31
0.0
  0
ARC
  5
2AE
100
AcDbEntity
  8
SJC
100
AcDbCircle
 10
2904.8
 20
1943.384615
 30
0.0
 40
3.0
100
AcDbArc
 50
180.0
 51
270.0
  0
ARC
  5
2AF
100
AcDbEntity
  8
SJC
100
AcDbCircle
 10
2900.8
 20
2057.384615
 30
0.0
 40
3.0
100
AcDbArc
 50
90.0
 51
180.0
  0
LINE
  5
2B0
100
AcDbEntity
  8
SJC
100
AcDbLine
 10
3125.8
 20
1950.584615
 30
0.0
 11
3125.8
 21
2057.384615
 31
0.0
  0
ARC
  5
2B1
100
AcDbEntity
  8
SJC
100
AcDbCircle
 10
3122.8
 20
1950.584615
 30
0.0
 40
3.0
100
AcDbArc
 50
270.0
 51
360.0
  0
LINE
  5
2B2
100
AcDbEntity
  8
SJC
100
AcDbLine
 10
3121.8
 20
1943.384615
 30
0.0
 11
3121.8
 21
1947.584615
 31
0.0
  0
ARC
  5
2B3
100
AcDbEntity
  8
SJC
100
AcDbCircle
 10
3118.8
 20
1943.384615
 30
0.0
 40
3.0
100
AcDbArc
 50
270.0
 51
360.0
  0
ARC
  5
2B4
100
AcDbEntity
  8
SJC
100
AcDbCircle
 10
3122.8
 20
2057.384615
 30
0.0
 40
3.0
100
AcDbArc
 50
360.0
 51
90.0
  0
POLYLINE
  5
2B5
100
AcDbEntity
  8
WAKU
100
AcDb2dPolyline
 66
     1
 10
0.0
 20
0.0
 30
0.0
  0
VERTEX
  5
2B6
100
AcDbEntity
  8
WAKU
100
AcDbVertex
100
AcDb2dVertex
 10
1715.360291
 20
3241.569664
 30
0.0
 42
0.085722
  0
SEQEND
  5
2B7
100
AcDbEntity
  8
WAKU
  0
POLYLINE
  5
2B8
100
AcDbEntity
  8
WAKU
100
AcDb2dPolyline
 66
     1
 10
0.0
 20
0.0
 30
0.0
  0
VERTEX
  5
2B9
100
AcDbEntity
  8
WAKU
100
AcDbVertex
100
AcDb2dVertex
 10
1828.719449
 20
3241.569664
 30
0.0
 42
0.099475
  0
SEQEND
  5
2BA
100
AcDbEntity
  8
WAKU
  0
LINE
  5
2BB
100
AcDbEntity
  8
SJC
100
AcDbLine
 10
2900.8
 20
1750.384615
 30
0.0
 11
3122.8
 21
1750.384615
 31
0.0
  0
LINE
  5
2BC
100
AcDbEntity
  8
SJC
100
AcDbLine
 10
2900.8
 20
1637.584615
 30
0.0
 11
3122.8
 21
1637.584615
 31
0.0
  0
LINE
  5
2BD
100
AcDbEntity
  8
SJC
100
AcDbLine
 10
2904.8
 20
1630.384615
 30
0.0
 11
3118.8
 21
1630.384615
 31
0.0
  0
LINE
  5
2BE
100
AcDbEntity
  8
SJC
100
AcDbLine
 10
2897.8
 20
1640.584615
 30
0.0
 11
2897.8
 21
1747.384615
 31
0.0
  0
ARC
  5
2BF
100
AcDbEntity
  8
SJC
100
AcDbCircle
 10
2900.8
 20
1640.584615
 30
0.0
 40
3.0
100
AcDbArc
 50
180.0
 51
270.0
  0
LINE
  5
2C0
100
AcDbEntity
  8
SJC
100
AcDbLine
 10
2901.8
 20
1633.384615
 30
0.0
 11
2901.8
 21
1637.584615
 31
0.0
  0
ARC
  5
2C1
100
AcDbEntity
  8
SJC
100
AcDbCircle
 10
2904.8
 20
1633.384615
 30
0.0
 40
3.0
100
AcDbArc
 50
180.0
 51
270.0
  0
ARC
  5
2C2
100
AcDbEntity
  8
SJC
100
AcDbCircle
 10
2900.8
 20
1747.384615
 30
0.0
 40
3.0
100
AcDbArc
 50
90.0
 51
180.0
  0
LINE
  5
2C3
100
AcDbEntity
  8
SJC
100
AcDbLine
 10
3125.8
 20
1640.584615
 30
0.0
 11
3125.8
 21
1747.384615
 31
0.0
  0
ARC
  5
2C4
100
AcDbEntity
  8
SJC
100
AcDbCircle
 10
3122.8
 20
1640.584615
 30
0.0
 40
3.0
100
AcDbArc
 50
270.0
 51
360.0
  0
LINE
  5
2C5
100
AcDbEntity
  8
SJC
100
AcDbLine
 10
3121.8
 20
1633.384615
 30
0.0
 11
3121.8
 21
1637.584615
 31
0.0
  0
ARC
  5
2C6
100
AcDbEntity
  8
SJC
100
AcDbCircle
 10
3118.8
 20
1633.384615
 30
0.0
 40
3.0
100
AcDbArc
 50
270.0
 51
360.0
  0
ARC
  5
2C7
100
AcDbEntity
  8
SJC
100
AcDbCircle
 10
3122.8
 20
1747.384615
 30
0.0
 40
3.0
100
AcDbArc
 50
360.0
 51
90.0
  0
LINE
  5
2C8
100
AcDbEntity
  8
SJC
100
AcDbLine
 10
2904.8
 20
1320.384615
 30
0.0
 11
3118.8
 21
1320.384615
 31
0.0
  0
LINE
  5
2C9
100
AcDbEntity
  8
SJC
100
AcDbLine
 10
2900.8
 20
1327.584615
 30
0.0
 11
3122.8
 21
1327.584615
 31
0.0
  0
LINE
  5
2CA
100
AcDbEntity
  8
SJC
100
AcDbLine
 10
2900.8
 20
1440.384615
 30
0.0
 11
3122.8
 21
1440.384615
 31
0.0
  0
ARC
  5
2CB
100
AcDbEntity
  8
SJC
100
AcDbCircle
 10
2900.8
 20
1437.384615
 30
0.0
 40
3.0
100
AcDbArc
 50
90.0
 51
180.0
  0
ARC
  5
2CC
100
AcDbEntity
  8
SJC
100
AcDbCircle
 10
2904.8
 20
1323.384615
 30
0.0
 40
3.0
100
AcDbArc
 50
180.0
 51
270.0
  0
LINE
  5
2CD
100
AcDbEntity
  8
SJC
100
AcDbLine
 10
2901.8
 20
1323.384615
 30
0.0
 11
2901.8
 21
1327.584615
 31
0.0
  0
ARC
  5
2CE
100
AcDbEntity
  8
SJC
100
AcDbCircle
 10
2900.8
 20
1330.584615
 30
0.0
 40
3.0
100
AcDbArc
 50
180.0
 51
270.0
  0
LINE
  5
2CF
100
AcDbEntity
  8
SJC
100
AcDbLine
 10
2897.8
 20
1330.584615
 30
0.0
 11
2897.8
 21
1437.384615
 31
0.0
  0
ARC
  5
2D0
100
AcDbEntity
  8
SJC
100
AcDbCircle
 10
3122.8
 20
1437.384615
 30
0.0
 40
3.0
100
AcDbArc
 50
360.0
 51
90.0
  0
ARC
  5
2D1
100
AcDbEntity
  8
SJC
100
AcDbCircle
 10
3118.8
 20
1323.384615
 30
0.0
 40
3.0
100
AcDbArc
 50
270.0
 51
360.0
  0
LINE
  5
2D2
100
AcDbEntity
  8
SJC
100
AcDbLine
 10
3121.8
 20
1323.384615
 30
0.0
 11
3121.8
 21
1327.584615
 31
0.0
  0
ARC
  5
2D3
100
AcDbEntity
  8
SJC
100
AcDbCircle
 10
3122.8
 20
1330.584615
 30
0.0
 40
3.0
100
AcDbArc
 50
270.0
 51
360.0
  0
LINE
  5
2D4
100
AcDbEntity
  8
SJC
100
AcDbLine
 10
3125.8
 20
1330.584615
 30
0.0
 11
3125.8
 21
1437.384615
 31
0.0
  0
CIRCLE
  5
2D5
100
AcDbEntity
  8
SJC2
100
AcDbCircle
 10
1481.6
 20
2000.384615
 30
0.0
 40
38.1
  0
CIRCLE
  5
2D6
100
AcDbEntity
  8
SJC2
100
AcDbCircle
 10
1481.6
 20
2000.384615
 30
0.0
 40
42.7
  0
ARC
  5
2D7
100
AcDbEntity
  8
SJC2
100
AcDbCircle
 10
1487.1
 20
2000.384615
 30
0.0
 40
76.5
100
AcDbArc
 50
151.927513
 51
208.072487
  0
CIRCLE
  5
2D8
100
AcDbEntity
  8
SJC2
100
AcDbCircle
 10
1481.6
 20
2000.384615
 30
0.0
 40
56.679579
  0
LINE
  5
2D9
100
AcDbEntity
  8
SJC2
100
AcDbLine
 10
1419.6
 20
1964.384615
 30
0.0
 11
1437.821299
 21
1964.384615
 31
0.0
  0
LINE
  5
2DA
100
AcDbEntity
  8
SJC2
100
AcDbLine
 10
1499.392196
 20
1940.384615
 30
0.0
 11
1463.807804
 21
1940.384615
 31
0.0
  0
LINE
  5
2DB
100
AcDbEntity
  8
SJC2
100
AcDbLine
 10
1461.681012
 20
1947.320421
 30
0.0
 11
1463.807804
 21
1940.384615
 31
0.0
  0
LINE
  5
2DC
100
AcDbEntity
  8
SJC2
100
AcDbLine
 10
1501.518988
 20
1947.320421
 30
0.0
 11
1499.392196
 21
1940.384615
 31
0.0
  0
LINE
  5
2DD
100
AcDbEntity
  8
SJC2
100
AcDbLine
 10
1419.6
 20
2036.384615
 30
0.0
 11
1437.821299
 21
2036.384615
 31
0.0
  0
LINE
  5
2DE
100
AcDbEntity
  8
CENTER
100
AcDbLine
 10
1481.6
 20
1922.384615
 30
0.0
 11
1481.6
 21
2080.384615
 31
0.0
  0
CIRCLE
  5
2DF
100
AcDbEntity
  8
SJC2
100
AcDbCircle
 10
1481.6
 20
1690.384615
 30
0.0
 40
56.679579
  0
ARC
  5
2E0
100
AcDbEntity
  8
SJC2
100
AcDbCircle
 10
1487.1
 20
1690.384615
 30
0.0
 40
76.5
100
AcDbArc
 50
151.927513
 51
208.072487
  0
CIRCLE
  5
2E1
100
AcDbEntity
  8
SJC2
100
AcDbCircle
 10
1481.6
 20
1690.384615
 30
0.0
 40
42.7
  0
CIRCLE
  5
2E2
100
AcDbEntity
  8
SJC2
100
AcDbCircle
 10
1481.6
 20
1690.384615
 30
0.0
 40
38.1
  0
LINE
  5
2E3
100
AcDbEntity
  8
SJC2
100
AcDbLine
 10
1499.392196
 20
1630.384615
 30
0.0
 11
1463.807804
 21
1630.384615
 31
0.0
  0
LINE
  5
2E4
100
AcDbEntity
  8
SJC2
100
AcDbLine
 10
1461.681012
 20
1637.320421
 30
0.0
 11
1463.807804
 21
1630.384615
 31
0.0
  0
LINE
  5
2E5
100
AcDbEntity
  8
SJC2
100
AcDbLine
 10
1419.6
 20
1654.384615
 30
0.0
 11
1437.821299
 21
1654.384615
 31
0.0
  0
LINE
  5
2E6
100
AcDbEntity
  8
SJC2
100
AcDbLine
 10
1501.518988
 20
1637.320421
 30
0.0
 11
1499.392196
 21
1630.384615
 31
0.0
  0
LINE
  5
2E7
100
AcDbEntity
  8
SJC2
100
AcDbLine
 10
1419.6
 20
1726.384615
 30
0.0
 11
1437.821299
 21
1726.384615
 31
0.0
  0
LINE
  5
2E8
100
AcDbEntity
  8
CENTER
100
AcDbLine
 10
1481.6
 20
1612.384615
 30
0.0
 11
1481.6
 21
1770.384615
 31
0.0
  0
LINE
  5
2E9
100
AcDbEntity
  8
SJC2
100
AcDbLine
 10
1499.392196
 20
1320.384615
 30
0.0
 11
1463.807804
 21
1320.384615
 31
0.0
  0
CIRCLE
  5
2EA
100
AcDbEntity
  8
SJC2
100
AcDbCircle
 10
1481.6
 20
1380.384615
 30
0.0
 40
38.1
  0
CIRCLE
  5
2EB
100
AcDbEntity
  8
SJC2
100
AcDbCircle
 10
1481.6
 20
1380.384615
 30
0.0
 40
42.7
  0
CIRCLE
  5
2EC
100
AcDbEntity
  8
SJC2
100
AcDbCircle
 10
1481.6
 20
1380.384615
 30
0.0
 40
56.679579
  0
LINE
  5
2ED
100
AcDbEntity
  8
SJC2
100
AcDbLine
 10
1419.6
 20
1416.384615
 30
0.0
 11
1437.821299
 21
1416.384615
 31
0.0
  0
LINE
  5
2EE
100
AcDbEntity
  8
SJC2
100
AcDbLine
 10
1419.6
 20
1344.384615
 30
0.0
 11
1437.821299
 21
1344.384615
 31
0.0
  0
LINE
  5
2EF
100
AcDbEntity
  8
SJC2
100
AcDbLine
 10
1461.681012
 20
1327.320421
 30
0.0
 11
1463.807804
 21
1320.384615
 31
0.0
  0
ARC
  5
2F0
100
AcDbEntity
  8
SJC2
100
AcDbCircle
 10
1487.1
 20
1380.384615
 30
0.0
 40
76.5
100
AcDbArc
 50
151.927513
 51
208.072487
  0
LINE
  5
2F1
100
AcDbEntity
  8
SJC2
100
AcDbLine
 10
1501.518988
 20
1327.320421
 30
0.0
 11
1499.392196
 21
1320.384615
 31
0.0
  0
LINE
  5
2F2
100
AcDbEntity
  8
CENTER
100
AcDbLine
 10
1481.6
 20
1302.384615
 30
0.0
 11
1481.6
 21
1460.384615
 31
0.0
  0
LINE
  5
2F3
100
AcDbEntity
  8
HASEN
100
AcDbLine
 10
4812.453052
 20
2133.384614
 30
0.0
 11
4892.453052
 21
2133.384614
 31
0.0
  0
LINE
  5
2F4
100
AcDbEntity
  8
HASEN
100
AcDbLine
 10
4812.453052
 20
1901.384614
 30
0.0
 11
4892.453052
 21
1901.384614
 31
0.0
  0
LINE
  5
2F5
100
AcDbEntity
  8
HASEN
100
AcDbLine
 10
4800.453052
 20
2005.384614
 30
0.0
 11
4954.113824
 21
2005.384614
 31
0.0
  0
LINE
  5
2F6
100
AcDbEntity
  8
HASEN
100
AcDbLine
 10
4800.453052
 20
2085.384614
 30
0.0
 11
4952.89033
 21
2085.384614
 31
0.0
  0
ARC
  5
2F7
100
AcDbEntity
  8
SJC
100
AcDbCircle
 10
4698.999999
 20
1885.886534
 30
0.0
 40
349.5
100
AcDbArc
 50
228.189685
 51
311.810315
  0
ARC
  5
2F8
100
AcDbEntity
  8
SJC
100
AcDbCircle
 10
4698.999999
 20
1364.882696
 30
0.0
 40
349.5
100
AcDbArc
 50
48.189685
 51
131.810315
  0
ARC
  5
2F9
100
AcDbEntity
  8
SJC
100
AcDbCircle
 10
4683.999999
 20
1869.116024
 30
0.0
 40
327.0
100
AcDbArc
 50
228.189685
 51
311.810315
  0
ARC
  5
2FA
100
AcDbEntity
  8
SJC
100
AcDbCircle
 10
4683.999999
 20
1381.653205
 30
0.0
 40
327.0
100
AcDbArc
 50
48.189685
 51
131.810315
  0
ARC
  5
2FB
100
AcDbEntity
  8
SJC
100
AcDbCircle
 10
4698.999999
 20
2204.882695
 30
0.0
 40
349.5
100
AcDbArc
 50
48.189685
 51
131.810315
  0
LINE
  5
2FC
100
AcDbEntity
  8
CENTER
100
AcDbLine
 10
4728.772575
 20
2045.384614
 30
0.0
 11
5399.999999
 21
2045.384614
 31
0.0
  0
LINE
  5
2FD
100
AcDbEntity
  8
HASEN
100
AcDbLine
 10
4800.453052
 20
2005.384614
 30
0.0
 11
4800.453052
 21
2085.384614
 31
0.0
  0
LINE
  5
2FE
100
AcDbEntity
  8
HASEN
100
AcDbLine
 10
4812.453052
 20
1901.384614
 30
0.0
 11
4812.453052
 21
2005.384614
 31
0.0
  0
LINE
  5
2FF
100
AcDbEntity
  8
HASEN
100
AcDbLine
 10
4030.0
 20
1601.384777
 30
0.0
 11
4030.0
 21
2441.384776
 31
0.0
  0
LINE
  5
300
100
AcDbEntity
  8
SJC
100
AcDbLine
 10
4000.0
 20
1625.384615
 30
0.0
 11
4000.0
 21
2465.384614
 31
0.0
  0
LINE
  5
301
100
AcDbEntity
  8
CENTER
100
AcDbLine
 10
4466.0
 20
1432.051282
 30
0.0
 11
4466.0
 21
2658.717947
 31
0.0
  0
ARC
  5
302
100
AcDbEntity
  8
SJC
100
AcDbCircle
 10
4233.0
 20
1885.886534
 30
0.0
 40
349.5
100
AcDbArc
 50
228.189685
 51
311.810315
  0
CIRCLE
  5
303
100
AcDbEntity
  8
HASEN
100
AcDbCircle
 10
4852.453052
 20
2045.384614
 30
0.0
 40
12.0
  0
ARC
  5
304
100
AcDbEntity
  8
SJC
100
AcDbCircle
 10
4248.0
 20
2709.116023
 30
0.0
 40
327.0
100
AcDbArc
 50
228.189685
 51
311.810315
  0
ARC
  5
305
100
AcDbEntity
  8
SJC
100
AcDbCircle
 10
4248.0
 20
2221.653205
 30
0.0
 40
327.0
100
AcDbArc
 50
48.189685
 51
131.810315
  0
ARC
  5
306
100
AcDbEntity
  8
SJC
100
AcDbCircle
 10
4233.0
 20
2204.882695
 30
0.0
 40
349.5
100
AcDbArc
 50
48.189685
 51
131.810315
  0
ARC
  5
307
100
AcDbEntity
  8
SJC
100
AcDbCircle
 10
4233.0
 20
2725.886533
 30
0.0
 40
349.5
100
AcDbArc
 50
228.189685
 51
311.810315
  0
LINE
  5
308
100
AcDbEntity
  8
HASEN
100
AcDbLine
 10
4901.999999
 20
1649.384453
 30
0.0
 11
4901.999999
 21
2012.051281
 31
0.0
  0
LINE
  5
309
100
AcDbEntity
  8
SJC
100
AcDbLine
 10
4931.999999
 20
1625.384615
 30
0.0
 11
4931.999999
 21
1925.384614
 31
0.0
  0
LINE
  5
30A
100
AcDbEntity
  8
SJC
100
AcDbLine
 10
4931.999999
 20
2165.384614
 30
0.0
 11
4931.999999
 21
2465.384614
 31
0.0
  0
LINE
  5
30B
100
AcDbEntity
  8
SJC
100
AcDbLine
 10
4931.999999
 20
2165.384614
 30
0.0
 11
4980.217382
 21
2165.384614
 31
0.0
  0
LINE
  5
30C
100
AcDbEntity
  8
SJC
100
AcDbLine
 10
6598.666664
 20
1552.051281
 30
0.0
 11
6598.666664
 21
1903.051281
 31
0.0
  0
LINE
  5
30D
100
AcDbEntity
  8
SJC
100
AcDbLine
 10
5666.666665
 20
1552.051281
 30
0.0
 11
5666.666665
 21
1903.051281
 31
0.0
  0
LINE
  5
30E
100
AcDbEntity
  8
CENTER
100
AcDbLine
 10
6132.666665
 20
1432.051282
 30
0.0
 11
6132.666665
 21
2658.717947
 31
0.0
  0
ARC
  5
30F
100
AcDbEntity
  8
SJC
100
AcDbCircle
 10
6365.666664
 20
1812.553201
 30
0.0
 40
349.5
100
AcDbArc
 50
228.189685
 51
311.810315
  0
ARC
  5
310
100
AcDbEntity
  8
SJC
100
AcDbCircle
 10
6365.666664
 20
1291.549362
 30
0.0
 40
349.5
100
AcDbArc
 50
48.189685
 51
131.810315
  0
ARC
  5
311
100
AcDbEntity
  8
SJC
100
AcDbCircle
 10
6350.666664
 20
1795.782691
 30
0.0
 40
327.0
100
AcDbArc
 50
228.189685
 51
311.810315
  0
ARC
  5
312
100
AcDbEntity
  8
SJC
100
AcDbCircle
 10
6350.666664
 20
1308.319872
 30
0.0
 40
327.0
100
AcDbArc
 50
48.189685
 51
131.810315
  0
LINE
  5
313
100
AcDbEntity
  8
CENTER
100
AcDbLine
 10
5459.999999
 20
2045.384614
 30
0.0
 11
6805.333331
 21
2045.384614
 31
0.0
  0
ARC
  5
314
100
AcDbEntity
  8
SJC
100
AcDbCircle
 10
5899.666665
 20
1812.553201
 30
0.0
 40
349.5
100
AcDbArc
 50
228.189685
 51
311.810315
  0
ARC
  5
315
100
AcDbEntity
  8
SJC
100
AcDbCircle
 10
6365.666664
 20
2278.216028
 30
0.0
 40
349.5
100
AcDbArc
 50
48.189685
 51
131.810315
  0
ARC
  5
316
100
AcDbEntity
  8
SJC
100
AcDbCircle
 10
5899.666665
 20
2799.219866
 30
0.0
 40
349.5
100
AcDbArc
 50
228.189685
 51
311.810315
  0
ARC
  5
317
100
AcDbEntity
  8
SJC
100
AcDbCircle
 10
5914.666665
 20
2782.449356
 30
0.0
 40
327.0
100
AcDbArc
 50
228.189685
 51
311.810315
  0
ARC
  5
318
100
AcDbEntity
  8
SJC
100
AcDbCircle
 10
5899.666665
 20
2278.216028
 30
0.0
 40
349.5
100
AcDbArc
 50
48.189685
 51
131.810315
  0
ARC
  5
319
100
AcDbEntity
  8
SJC
100
AcDbCircle
 10
5914.666665
 20
2294.986538
 30
0.0
 40
327.0
100
AcDbArc
 50
48.189685
 51
131.810315
  0
LINE
  5
31A
100
AcDbEntity
  8
HASEN
100
AcDbLine
 10
4812.453052
 20
2085.384614
 30
0.0
 11
4812.453052
 21
2133.384614
 31
0.0
  0
LINE
  5
31B
100
AcDbEntity
  8
HASEN
100
AcDbLine
 10
4901.999999
 20
2078.717948
 30
0.0
 11
4901.999999
 21
2489.384452
 31
0.0
  0
LINE
  5
31C
100
AcDbEntity
  8
CENTER
100
AcDbLine
 10
6399.333331
 20
1825.384615
 30
0.0
 11
6399.333331
 21
2285.384614
 31
0.0
  0
LINE
  5
31D
100
AcDbEntity
  8
CENTER
100
AcDbLine
 10
5865.999998
 20
1825.384615
 30
0.0
 11
5865.999998
 21
2285.384614
 31
0.0
  0
LINE
  5
31E
100
AcDbEntity
  8
HASEN
100
AcDbLine
 10
5752.666665
 20
2232.051281
 30
0.0
 11
6512.666664
 21
2232.051281
 31
0.0
  0
LINE
  5
31F
100
AcDbEntity
  8
SJC
100
AcDbLine
 10
5762.666665
 20
2245.384614
 30
0.0
 11
6502.666664
 21
2245.384614
 31
0.0
  0
LINE
  5
320
100
AcDbEntity
  8
HASEN
100
AcDbLine
 10
5752.666665
 20
1903.051281
 30
0.0
 11
6512.666664
 21
1903.051281
 31
0.0
  0
LINE
  5
321
100
AcDbEntity
  8
HASEN
100
AcDbLine
 10
5965.999998
 20
2161.384614
 30
0.0
 11
6299.333331
 21
2161.384614
 31
0.0
  0
LINE
  5
322
100
AcDbEntity
  8
HASEN
100
AcDbLine
 10
5965.999998
 20
1929.384614
 30
0.0
 11
6299.333331
 21
1929.384614
 31
0.0
  0
LINE
  5
323
100
AcDbEntity
  8
HASEN
100
AcDbLine
 10
5752.666665
 20
2187.717948
 30
0.0
 11
6512.666664
 21
2187.717948
 31
0.0
  0
LINE
  5
324
100
AcDbEntity
  8
SJC
100
AcDbLine
 10
5762.666665
 20
1869.384614
 30
0.0
 11
6502.666664
 21
1869.384614
 31
0.0
  0
LINE
  5
325
100
AcDbEntity
  8
SJC
100
AcDbLine
 10
5775.999998
 20
1845.384615
 30
0.0
 11
6489.333331
 21
1845.384615
 31
0.0
  0
LINE
  5
326
100
AcDbEntity
  8
SJC
100
AcDbLine
 10
5532.666665
 20
1903.051281
 30
0.0
 11
5752.666665
 21
1903.051281
 31
0.0
  0
LINE
  5
327
100
AcDbEntity
  8
SJC
100
AcDbLine
 10
5532.666665
 20
2187.717948
 30
0.0
 11
5752.666665
 21
2187.717948
 31
0.0
  0
ARC
  5
328
100
AcDbEntity
  8
SJC
100
AcDbCircle
 10
5603.661823
 20
1981.884614
 30
0.0
 40
95.25
100
AcDbArc
 50
138.189685
 51
221.810315
  0
ARC
  5
329
100
AcDbEntity
  8
SJC
100
AcDbCircle
 10
5461.671507
 20
1981.884614
 30
0.0
 40
95.25
100
AcDbArc
 50
318.189685
 51
41.810315
  0
ARC
  5
32A
100
AcDbEntity
  8
SJC
100
AcDbCircle
 10
5453.099913
 20
1974.217948
 30
0.0
 40
106.75
100
AcDbArc
 50
318.189685
 51
41.810315
  0
ARC
  5
32B
100
AcDbEntity
  8
SJC
100
AcDbCircle
 10
5612.233417
 20
2116.551281
 30
0.0
 40
106.75
100
AcDbArc
 50
138.189685
 51
221.810315
  0
ARC
  5
32C
100
AcDbEntity
  8
SJC
100
AcDbCircle
 10
5612.233417
 20
1974.217948
 30
0.0
 40
106.75
100
AcDbArc
 50
138.189685
 51
221.810315
  0
LINE
  5
32D
100
AcDbEntity
  8
HASEN
100
AcDbLine
 10
5839.333331
 20
2187.717948
 30
0.0
 11
5819.333332
 21
2232.051281
 31
0.0
  0
LINE
  5
32E
100
AcDbEntity
  8
HASEN
100
AcDbLine
 10
5892.666665
 20
2187.717948
 30
0.0
 11
5912.666665
 21
2232.051281
 31
0.0
  0
LINE
  5
32F
100
AcDbEntity
  8
SJC
100
AcDbLine
 10
5752.666665
 20
1879.384614
 30
0.0
 11
5752.666665
 21
2235.384614
 31
0.0
  0
LINE
  5
330
100
AcDbEntity
  8
HASEN
100
AcDbLine
 10
5839.333331
 20
1885.384614
 30
0.0
 11
5839.333331
 21
2187.717948
 31
0.0
  0
LINE
  5
331
100
AcDbEntity
  8
HASEN
100
AcDbLine
 10
5892.666665
 20
1885.384614
 30
0.0
 11
5892.666665
 21
2187.717948
 31
0.0
  0
LINE
  5
332
100
AcDbEntity
  8
HASEN
100
AcDbLine
 10
5965.999998
 20
1929.384614
 30
0.0
 11
5965.999998
 21
2161.384614
 31
0.0
  0
LINE
  5
333
100
AcDbEntity
  8
HASEN
100
AcDbLine
 10
5912.666665
 20
1885.384614
 30
0.0
 11
5819.333332
 21
1885.384614
 31
0.0
  0
ARC
  5
334
100
AcDbEntity
  8
HASEN
100
AcDbCircle
 10
5900.999998
 20
1858.926281
 30
0.0
 40
13.541667
100
AcDbArc
 50
210.510237
 51
329.489763
  0
LINE
  5
335
100
AcDbEntity
  8
HASEN
100
AcDbLine
 10
5819.333332
 20
1852.051281
 30
0.0
 11
5819.333332
 21
1885.384614
 31
0.0
  0
LINE
  5
336
100
AcDbEntity
  8
HASEN
100
AcDbLine
 10
5842.666665
 20
1852.051281
 30
0.0
 11
5842.666665
 21
1885.384614
 31
0.0
  0
LINE
  5
337
100
AcDbEntity
  8
HASEN
100
AcDbLine
 10
5889.333331
 20
1852.051281
 30
0.0
 11
5889.333331
 21
1885.384614
 31
0.0
  0
ARC
  5
338
100
AcDbEntity
  8
HASEN
100
AcDbCircle
 10
5865.999998
 20
1889.551281
 30
0.0
 40
44.166667
100
AcDbArc
 50
238.109208
 51
301.890792
  0
ARC
  5
339
100
AcDbEntity
  8
HASEN
100
AcDbCircle
 10
5830.999998
 20
1858.926281
 30
0.0
 40
13.541667
100
AcDbArc
 50
210.510237
 51
329.489763
  0
LINE
  5
33A
100
AcDbEntity
  8
HASEN
100
AcDbLine
 10
5912.666665
 20
1852.051281
 30
0.0
 11
5912.666665
 21
1885.384614
 31
0.0
  0
ARC
  5
33B
100
AcDbEntity
  8
SJC
100
AcDbCircle
 10
5762.666665
 20
1879.384614
 30
0.0
 40
10.0
100
AcDbArc
 50
180.0
 51
270.0
  0
LINE
  5
33C
100
AcDbEntity
  8
SJC
100
AcDbLine
 10
5765.999998
 20
1855.384615
 30
0.0
 11
5765.999998
 21
1869.384614
 31
0.0
  0
ARC
  5
33D
100
AcDbEntity
  8
SJC
100
AcDbCircle
 10
5775.999998
 20
1855.384615
 30
0.0
 40
10.0
100
AcDbArc
 50
180.0
 51
270.0
  0
CIRCLE
  5
33E
100
AcDbEntity
  8
HASEN
100
AcDbCircle
 10
6132.666665
 20
2045.384614
 30
0.0
 40
40.0
  0
POLYLINE
  5
33F
100
AcDbEntity
  8
HASEN
100
AcDb2dPolyline
 66
     1
 10
0.0
 20
0.0
 30
0.0
 70
     1
  0
VERTEX
  5
340
100
AcDbEntity
  8
HASEN
100
AcDbVertex
100
AcDb2dVertex
 10
6132.666665
 20
2112.051281
 30
0.0
  0
VERTEX
  5
341
100
AcDbEntity
  8
HASEN
100
AcDbVertex
100
AcDb2dVertex
 10
6074.931638
 20
2078.717948
 30
0.0
  0
VERTEX
  5
342
100
AcDbEntity
  8
HASEN
100
AcDbVertex
100
AcDb2dVertex
 10
6074.931638
 20
2012.051281
 30
0.0
  0
VERTEX
  5
343
100
AcDbEntity
  8
HASEN
100
AcDbVertex
100
AcDb2dVertex
 10
6132.666665
 20
1978.717948
 30
0.0
  0
VERTEX
  5
344
100
AcDbEntity
  8
HASEN
100
AcDbVertex
100
AcDb2dVertex
 10
6190.401691
 20
2012.051281
 30
0.0
  0
VERTEX
  5
345
100
AcDbEntity
  8
HASEN
100
AcDbVertex
100
AcDb2dVertex
 10
6190.401691
 20
2078.717948
 30
0.0
  0
SEQEND
  5
346
100
AcDbEntity
  8
HASEN
  0
CIRCLE
  5
347
100
AcDbEntity
  8
HASEN
100
AcDbCircle
 10
6132.666665
 20
2045.384614
 30
0.0
 40
73.333333
  0
ARC
  5
348
100
AcDbEntity
  8
SJC
100
AcDbCircle
 10
5762.666665
 20
2235.384614
 30
0.0
 40
10.0
100
AcDbArc
 50
90.0
 51
180.0
  0
LINE
  5
349
100
AcDbEntity
  8
HASEN
100
AcDbLine
 10
6425.999998
 20
2187.717948
 30
0.0
 11
6445.999998
 21
2232.051281
 31
0.0
  0
LINE
  5
34A
100
AcDbEntity
  8
HASEN
100
AcDbLine
 10
6372.666664
 20
2187.717948
 30
0.0
 11
6352.666664
 21
2232.051281
 31
0.0
  0
LINE
  5
34B
100
AcDbEntity
  8
SJC
100
AcDbLine
 10
6512.666664
 20
1879.384614
 30
0.0
 11
6512.666664
 21
2235.384614
 31
0.0
  0
LINE
  5
34C
100
AcDbEntity
  8
SJC
100
AcDbLine
 10
6512.666664
 20
2187.717948
 30
0.0
 11
6732.666664
 21
2187.717948
 31
0.0
  0
LINE
  5
34D
100
AcDbEntity
  8
SJC
100
AcDbLine
 10
6512.666664
 20
1903.051281
 30
0.0
 11
6732.666664
 21
1903.051281
 31
0.0
  0
LINE
  5
34E
100
AcDbEntity
  8
HASEN
100
AcDbLine
 10
6372.666664
 20
1885.384614
 30
0.0
 11
6372.666664
 21
2187.717948
 31
0.0
  0
LINE
  5
34F
100
AcDbEntity
  8
HASEN
100
AcDbLine
 10
6425.999998
 20
1885.384614
 30
0.0
 11
6425.999998
 21
2187.717948
 31
0.0
  0
LINE
  5
350
100
AcDbEntity
  8
HASEN
100
AcDbLine
 10
6299.333331
 20
1929.384614
 30
0.0
 11
6299.333331
 21
2161.384614
 31
0.0
  0
LINE
  5
351
100
AcDbEntity
  8
HASEN
100
AcDbLine
 10
6445.999998
 20
1885.384614
 30
0.0
 11
6352.666664
 21
1885.384614
 31
0.0
  0
ARC
  5
352
100
AcDbEntity
  8
HASEN
100
AcDbCircle
 10
6434.333331
 20
1858.926281
 30
0.0
 40
13.541667
100
AcDbArc
 50
210.510237
 51
329.489763
  0
LINE
  5
353
100
AcDbEntity
  8
HASEN
100
AcDbLine
 10
6352.666664
 20
1852.051281
 30
0.0
 11
6352.666664
 21
1885.384614
 31
0.0
  0
LINE
  5
354
100
AcDbEntity
  8
HASEN
100
AcDbLine
 10
6375.999998
 20
1852.051281
 30
0.0
 11
6375.999998
 21
1885.384614
 31
0.0
  0
LINE
  5
355
100
AcDbEntity
  8
HASEN
100
AcDbLine
 10
6422.666664
 20
1852.051281
 30
0.0
 11
6422.666664
 21
1885.384614
 31
0.0
  0
ARC
  5
356
100
AcDbEntity
  8
HASEN
100
AcDbCircle
 10
6399.333331
 20
1889.551281
 30
0.0
 40
44.166667
100
AcDbArc
 50
238.109208
 51
301.890792
  0
ARC
  5
357
100
AcDbEntity
  8
HASEN
100
AcDbCircle
 10
6364.333331
 20
1858.926281
 30
0.0
 40
13.541667
100
AcDbArc
 50
210.510237
 51
329.489763
  0
LINE
  5
358
100
AcDbEntity
  8
HASEN
100
AcDbLine
 10
6445.999998
 20
1852.051281
 30
0.0
 11
6445.999998
 21
1885.384614
 31
0.0
  0
ARC
  5
359
100
AcDbEntity
  8
SJC
100
AcDbCircle
 10
6502.666664
 20
1879.384614
 30
0.0
 40
10.0
100
AcDbArc
 50
270.0
 51
360.0
  0
LINE
  5
35A
100
AcDbEntity
  8
SJC
100
AcDbLine
 10
6499.333331
 20
1855.384615
 30
0.0
 11
6499.333331
 21
1869.384614
 31
0.0
  0
ARC
  5
35B
100
AcDbEntity
  8
SJC
100
AcDbCircle
 10
6489.333331
 20
1855.384615
 30
0.0
 40
10.0
100
AcDbArc
 50
270.0
 51
360.0
  0
ARC
  5
35C
100
AcDbEntity
  8
SJC
100
AcDbCircle
 10
6502.666664
 20
2235.384614
 30
0.0
 40
10.0
100
AcDbArc
 50
360.0
 51
90.0
  0
LINE
  5
35D
100
AcDbEntity
  8
SJC
100
AcDbLine
 10
5666.666665
 20
2187.717948
 30
0.0
 11
5666.666665
 21
2538.717947
 31
0.0
  0
LINE
  5
35E
100
AcDbEntity
  8
SJC
100
AcDbLine
 10
6598.666664
 20
2187.717948
 30
0.0
 11
6598.666664
 21
2538.717947
 31
0.0
  0
ARC
  5
35F
100
AcDbEntity
  8
HASEN
100
AcDbCircle
 10
5103.666666
 20
1858.926281
 30
0.0
 40
13.541667
100
AcDbArc
 50
210.510237
 51
329.489763
  0
CIRCLE
  5
360
100
AcDbEntity
  8
SJC
100
AcDbCircle
 10
5138.666666
 20
2045.384614
 30
0.0
 40
142.333333
  0
CIRCLE
  5
361
100
AcDbEntity
  8
SJC
100
AcDbCircle
 10
5138.666666
 20
2045.384614
 30
0.0
 40
127.0
  0
LINE
  5
362
100
AcDbEntity
  8
SJC
100
AcDbLine
 10
5197.973985
 20
1845.384615
 30
0.0
 11
5079.359346
 21
1845.384615
 31
0.0
  0
LINE
  5
363
100
AcDbEntity
  8
HASEN
100
AcDbLine
 10
5185.333332
 20
1885.384614
 30
0.0
 11
5091.999999
 21
1885.384614
 31
0.0
  0
LINE
  5
364
100
AcDbEntity
  8
HASEN
100
AcDbLine
 10
5091.999999
 20
1852.051281
 30
0.0
 11
5091.999999
 21
1885.384614
 31
0.0
  0
LINE
  5
365
100
AcDbEntity
  8
CENTER
100
AcDbLine
 10
5138.666666
 20
1785.384615
 30
0.0
 11
5138.666666
 21
2312.051281
 31
0.0
  0
LINE
  5
366
100
AcDbEntity
  8
HASEN
100
AcDbLine
 10
5185.333332
 20
1852.051281
 30
0.0
 11
5185.333332
 21
1885.384614
 31
0.0
  0
LINE
  5
367
100
AcDbEntity
  8
SJC
100
AcDbLine
 10
5271.958276
 20
1964.944067
 30
0.0
 11
5253.56366
 21
1939.069743
 31
0.0
  0
LINE
  5
368
100
AcDbEntity
  8
SJC
100
AcDbLine
 10
5253.56366
 20
1939.069743
 30
0.0
 11
5277.872285
 21
1919.041854
 31
0.0
  0
LINE
  5
369
100
AcDbEntity
  8
SJC
100
AcDbLine
 10
5260.180693
 20
1971.269037
 30
0.0
 11
5271.958276
 21
1964.944067
 31
0.0
  0
LINE
  5
36A
100
AcDbEntity
  8
SJC
100
AcDbLine
 10
5111.999999
 20
1921.215823
 30
0.0
 11
5111.999999
 21
2169.553406
 31
0.0
  0
LINE
  5
36B
100
AcDbEntity
  8
SJC
100
AcDbLine
 10
5165.333332
 20
1921.215823
 30
0.0
 11
5165.333332
 21
2169.553406
 31
0.0
  0
LINE
  5
36C
100
AcDbEntity
  8
HASEN
100
AcDbLine
 10
5165.333332
 20
1921.215823
 30
0.0
 11
5165.333332
 21
1885.384614
 31
0.0
  0
LINE
  5
36D
100
AcDbEntity
  8
HASEN
100
AcDbLine
 10
5111.999999
 20
1921.215823
 30
0.0
 11
5111.999999
 21
1885.384614
 31
0.0
  0
ARC
  5
36E
100
AcDbEntity
  8
HASEN
100
AcDbCircle
 10
5138.666666
 20
1889.551281
 30
0.0
 40
44.166667
100
AcDbArc
 50
238.109208
 51
301.890792
  0
LINE
  5
36F
100
AcDbEntity
  8
HASEN
100
AcDbLine
 10
5161.999999
 20
1852.051281
 30
0.0
 11
5161.999999
 21
1885.384614
 31
0.0
  0
LINE
  5
370
100
AcDbEntity
  8
HASEN
100
AcDbLine
 10
5115.333332
 20
1852.051281
 30
0.0
 11
5115.333332
 21
1885.384614
 31
0.0
  0
ARC
  5
371
100
AcDbEntity
  8
HASEN
100
AcDbCircle
 10
5173.666665
 20
1858.926281
 30
0.0
 40
13.541667
100
AcDbArc
 50
210.510237
 51
329.489763
  0
LINE
  5
372
100
AcDbEntity
  8
SJC
100
AcDbLine
 10
5207.612126
 20
2232.051281
 30
0.0
 11
5069.721205
 21
2232.051281
 31
0.0
  0
LINE
  5
373
100
AcDbEntity
  8
HASEN
100
AcDbLine
 10
5102.816298
 20
2183.129048
 30
0.0
 11
5060.701422
 21
2245.384614
 31
0.0
  0
LINE
  5
374
100
AcDbEntity
  8
HASEN
100
AcDbLine
 10
5174.517033
 20
2183.129048
 30
0.0
 11
5216.631909
 21
2245.384614
 31
0.0
  0
POLYLINE
  5
375
100
AcDbEntity
  8
WAKU
100
AcDb2dPolyline
 66
     1
 10
0.0
 20
0.0
 30
0.0
  0
VERTEX
  5
376
100
AcDbEntity
  8
WAKU
100
AcDbVertex
100
AcDb2dVertex
 10
4813.333333
 20
3983.536171
 30
0.0
 42
0.085722
  0
SEQEND
  5
377
100
AcDbEntity
  8
WAKU
  0
POLYLINE
  5
378
100
AcDbEntity
  8
WAKU
100
AcDb2dPolyline
 66
     1
 10
0.0
 20
0.0
 30
0.0
  0
VERTEX
  5
379
100
AcDbEntity
  8
WAKU
100
AcDbVertex
100
AcDb2dVertex
 10
5191.197194
 20
3983.536171
 30
0.0
 42
0.099475
  0
SEQEND
  5
37A
100
AcDbEntity
  8
WAKU
  0
POLYLINE
  5
37B
100
AcDbEntity
  8
SJC
100
AcDb2dPolyline
 66
     1
 10
0.0
 20
0.0
 30
0.0
  0
VERTEX
  5
37C
100
AcDbEntity
  8
SJC
100
AcDbVertex
100
AcDb2dVertex
 10
4949.734735
 20
2045.384614
 30
0.0
 42
0.099475
  0
VERTEX
  5
37D
100
AcDbEntity
  8
SJC
100
AcDbVertex
100
AcDb2dVertex
 10
4964.084495
 20
1973.97078
 30
0.0
 42
0.098893
  0
VERTEX
  5
37E
100
AcDbEntity
  8
SJC
100
AcDbVertex
100
AcDb2dVertex
 10
5005.071616
 20
1913.247919
 30
0.0
 42
0.094458
 70
     2
 50
315.31444
  0
VERTEX
  5
37F
100
AcDbEntity
  8
SJC
100
AcDbVertex
100
AcDb2dVertex
 10
5071.999999
 20
1869.384614
 30
0.0
 42
0.071294
 50
315.31444
  0
VERTEX
  5
380
100
AcDbEntity
  8
SJC
100
AcDbVertex
100
AcDb2dVertex
 10
5138.666666
 20
1858.515108
 30
0.0
 42
0.071294
  0
VERTEX
  5
381
100
AcDbEntity
  8
SJC
100
AcDbVertex
100
AcDb2dVertex
 10
5205.333332
 20
1869.384614
 30
0.0
 42
0.094458
  0
VERTEX
  5
382
100
AcDbEntity
  8
SJC
100
AcDbVertex
100
AcDb2dVertex
 10
5272.261715
 20
1913.247919
 30
0.0
 42
0.098893
 70
     2
 50
44.68556
  0
VERTEX
  5
383
100
AcDbEntity
  8
SJC
100
AcDbVertex
100
AcDb2dVertex
 10
5313.248836
 20
1973.97078
 30
0.0
 42
0.099475
 50
44.68556
  0
VERTEX
  5
384
100
AcDbEntity
  8
SJC
100
AcDbVertex
100
AcDb2dVertex
 10
5327.598596
 20
2045.384614
 30
0.0
 42
0.099475
  0
SEQEND
  5
385
100
AcDbEntity
  8
SJC
  0
POLYLINE
  5
386
100
AcDbEntity
  8
SJC
100
AcDb2dPolyline
 66
     1
 10
0.0
 20
0.0
 30
0.0
  0
VERTEX
  5
387
100
AcDbEntity
  8
SJC
100
AcDbVertex
100
AcDb2dVertex
 10
5327.598596
 20
2045.384614
 30
0.0
 42
0.085722
  0
VERTEX
  5
388
100
AcDbEntity
  8
SJC
100
AcDbVertex
100
AcDb2dVertex
 10
5312.820491
 20
2130.94904
 30
0.0
 42
0.092254
  0
VERTEX
  5
389
100
AcDbEntity
  8
SJC
100
AcDbVertex
100
AcDb2dVertex
 10
5272.261715
 20
2200.804677
 30
0.0
 42
0.092863
 70
     2
 50
130.681498
  0
VERTEX
  5
38A
100
AcDbEntity
  8
SJC
100
AcDbVertex
100
AcDb2dVertex
 10
5216.631909
 20
2245.384614
 30
0.0
 42
0.112736
 50
130.681498
  0
SEQEND
  5
38B
100
AcDbEntity
  8
SJC
  0
POLYLINE
  5
38C
100
AcDbEntity
  8
SJC
100
AcDb2dPolyline
 66
     1
 10
0.0
 20
0.0
 30
0.0
  0
VERTEX
  5
38D
100
AcDbEntity
  8
SJC
100
AcDbVertex
100
AcDb2dVertex
 10
5060.701422
 20
2245.384614
 30
0.0
 42
0.092863
  0
VERTEX
  5
38E
100
AcDbEntity
  8
SJC
100
AcDbVertex
100
AcDb2dVertex
 10
5005.071616
 20
2200.804677
 30
0.0
 42
0.092254
 70
     2
 50
229.318502
  0
VERTEX
  5
38F
100
AcDbEntity
  8
SJC
100
AcDbVertex
100
AcDb2dVertex
 10
4964.51284
 20
2130.94904
 30
0.0
 42
0.085722
 50
229.318502
  0
VERTEX
  5
390
100
AcDbEntity
  8
SJC
100
AcDbVertex
100
AcDb2dVertex
 10
4949.734735
 20
2045.384614
 30
0.0
 42
0.085722
  0
SEQEND
  5
391
100
AcDbEntity
  8
SJC
  0
LINE
  5
392
100
AcDbEntity
  8
SJC
100
AcDbLine
 10
4931.999999
 20
1925.384614
 30
0.0
 11
4993.840564
 21
1925.384614
 31
0.0
  0
ARC
  5
393
100
AcDbEntity
  8
SJC
100
AcDbCircle
 10
5156.999999
 20
2045.384614
 30
0.0
 40
255.0
100
AcDbArc
 50
151.927513
 51
208.072487
  0
LINE
  5
394
100
AcDbEntity
  8
SJC
100
AcDbLine
 10
5205.333332
 20
1869.384614
 30
0.0
 11
5197.973985
 21
1845.384615
 31
0.0
  0
LINE
  5
395
100
AcDbEntity
  8
SJC
100
AcDbLine
 10
5071.999999
 20
1869.384614
 30
0.0
 11
5079.359346
 21
1845.384615
 31
0.0
  0
ARC
  5
396
100
AcDbEntity
  8
SJC2
100
AcDbCircle
 10
5036.58934
 20
2045.155325
 30
0.0
 40
52.0
100
AcDbArc
 50
327.795772
 51
32.204228
  0
LINE
  5
397
100
AcDbEntity
  8
SJC2
100
AcDbLine
 10
5088.58934
 20
2003.586105
 30
0.0
 11
5088.58934
 21
2086.724544
 31
0.0
  0
ARC
  5
398
100
AcDbEntity
  8
SJC2
100
AcDbCircle
 10
5072.58934
 20
2003.586105
 30
0.0
 40
16.0
100
AcDbArc
 50
300.0
 51
60.0
  0
ARC
  5
399
100
AcDbEntity
  8
SJC2
100
AcDbCircle
 10
5072.58934
 20
2086.724544
 30
0.0
 40
16.0
100
AcDbArc
 50
300.0
 51
60.0
  0
LINE
  5
39A
100
AcDbEntity
  8
SJC2
100
AcDbLine
 10
5028.58934
 20
1982.044402
 30
0.0
 11
5028.58934
 21
2108.266247
 31
0.0
  0
LINE
  5
39B
100
AcDbEntity
  8
SJC2
100
AcDbLine
 10
5040.58934
 20
1982.044402
 30
0.0
 11
5040.58934
 21
2108.266247
 31
0.0
  0
LINE
  5
39C
100
AcDbEntity
  8
SJC2
100
AcDbLine
 10
5080.58934
 20
2017.442512
 30
0.0
 11
5040.58934
 21
2017.442512
 31
0.0
  0
LINE
  5
39D
100
AcDbEntity
  8
SJC2
100
AcDbLine
 10
5080.58934
 20
1989.729699
 30
0.0
 11
5040.58934
 21
1989.729699
 31
0.0
  0
LINE
  5
39E
100
AcDbEntity
  8
SJC2
100
AcDbLine
 10
5080.58934
 20
2100.580951
 30
0.0
 11
5040.58934
 21
2100.580951
 31
0.0
  0
LINE
  5
39F
100
AcDbEntity
  8
SJC2
100
AcDbLine
 10
5080.58934
 20
2072.868138
 30
0.0
 11
5040.58934
 21
2072.868138
 31
0.0
  0
LINE
  5
3A0
100
AcDbEntity
  8
SJC2
100
AcDbLine
 10
5088.58934
 20
2085.155325
 30
0.0
 11
5111.999999
 21
2085.155325
 31
0.0
  0
LINE
  5
3A1
100
AcDbEntity
  8
SJC2
100
AcDbLine
 10
5088.58934
 20
2005.155325
 30
0.0
 11
5111.999999
 21
2005.155325
 31
0.0
  0
LINE
  5
3A2
100
AcDbEntity
  8
SJC2
100
AcDbLine
 10
5088.58934
 20
2077.155325
 30
0.0
 11
5111.999999
 21
2077.155325
 31
0.0
  0
LINE
  5
3A3
100
AcDbEntity
  8
SJC2
100
AcDbLine
 10
5088.58934
 20
2013.155325
 30
0.0
 11
5111.999999
 21
2013.155325
 31
0.0
  0
LINE
  5
3A4
100
AcDbEntity
  8
SJC2
100
AcDbLine
 10
5028.58934
 20
1982.044402
 30
0.0
 11
5040.58934
 21
1982.044402
 31
0.0
  0
LINE
  5
3A5
100
AcDbEntity
  8
SJC2
100
AcDbLine
 10
5028.58934
 20
2108.266247
 30
0.0
 11
5040.58934
 21
2108.266247
 31
0.0
  0
LINE
  5
3A6
100
AcDbEntity
  8
SJC
100
AcDbLine
 10
5017.232464
 20
2159.002024
 30
0.0
 11
4988.036144
 21
2178.202881
 31
0.0
  0
LINE
  5
3A7
100
AcDbEntity
  8
SJC
100
AcDbLine
 10
5017.232464
 20
2159.002024
 30
0.0
 11
5044.847094
 21
2181.345499
 31
0.0
  0
ARC
  5
3A8
100
AcDbEntity
  8
SJC
100
AcDbCircle
 10
6653.099912
 20
2116.551281
 30
0.0
 40
106.75
100
AcDbArc
 50
318.189685
 51
41.810315
  0
ARC
  5
3A9
100
AcDbEntity
  8
SJC
100
AcDbCircle
 10
6661.671506
 20
1981.884614
 30
0.0
 40
95.25
100
AcDbArc
 50
318.189685
 51
41.810315
  0
ARC
  5
3AA
100
AcDbEntity
  8
SJC
100
AcDbCircle
 10
6803.661822
 20
1981.884614
 30
0.0
 40
95.25
100
AcDbArc
 50
138.189685
 51
221.810315
  0
ARC
  5
3AB
100
AcDbEntity
  8
SJC
100
AcDbCircle
 10
6812.233416
 20
1974.217948
 30
0.0
 40
106.75
100
AcDbArc
 50
138.189685
 51
221.810315
  0
ARC
  5
3AC
100
AcDbEntity
  8
SJC
100
AcDbCircle
 10
6653.099912
 20
1974.217948
 30
0.0
 40
106.75
100
AcDbArc
 50
318.189685
 51
41.810315
  0
LINE
  5
3AD
100
AcDbEntity
  8
SJC
100
AcDbLine
 10
5059.859155
 20
2163.909523
 30
0.0
 11
5044.847094
 21
2181.345499
 31
0.0
  0
LINE
  5
3AE
100
AcDbEntity
  8
MOJI
100
AcDbLine
 10
4331.08888
 20
1058.517823
 30
0.0
 11
6009.009541
 21
1058.517823
 31
0.0
  0
LINE
  5
3AF
100
AcDbEntity
  8
MOJI
100
AcDbLine
 10
4331.08888
 20
938.517823
 30
0.0
 11
6009.009541
 21
938.517823
 31
0.0
  0
LINE
  5
3B0
100
AcDbEntity
  8
MOJI
100
AcDbLine
 10
4331.08888
 20
818.517823
 30
0.0
 11
6009.009541
 21
818.517823
 31
0.0
  0
LINE
  5
3B1
100
AcDbEntity
  8
MOJI
100
AcDbLine
 10
4331.08888
 20
698.517823
 30
0.0
 11
6009.009541
 21
698.517823
 31
0.0
  0
LINE
  5
3B2
100
AcDbEntity
  8
MOJI
100
AcDbLine
 10
4331.08888
 20
578.517823
 30
0.0
 11
6009.009541
 21
578.517823
 31
0.0
  0
LINE
  5
3B3
100
AcDbEntity
  8
MOJI
100
AcDbLine
 10
4331.08888
 20
458.517823
 30
0.0
 11
6009.009541
 21
458.517823
 31
0.0
  0
LINE
  5
3B4
100
AcDbEntity
  8
MOJI
100
AcDbLine
 10
4331.08888
 20
338.517823
 30
0.0
 11
6009.009541
 21
338.517823
 31
0.0
  0
LINE
  5
3B5
100
AcDbEntity
  8
MOJI
100
AcDbLine
 10
6009.009541
 20
1178.517823
 30
0.0
 11
4331.08888
 21
1178.517823
 31
0.0
  0
LINE
  5
3B6
100
AcDbEntity
  8
MOJI
100
AcDbLine
 10
4331.08888
 20
218.517823
 30
0.0
 11
6009.009541
 21
218.517823
 31
0.0
  0
LINE
  5
3B7
100
AcDbEntity
  8
MOJI
100
AcDbLine
 10
5222.819631
 20
1178.517823
 30
0.0
 11
5222.819631
 21
218.517823
 31
0.0
  0
LINE
  5
3B8
100
AcDbEntity
  8
MOJI
100
AcDbLine
 10
4470.926607
 20
1178.517823
 30
0.0
 11
4470.926607
 21
218.517823
 31
0.0
  0
LINE
  5
3B9
100
AcDbEntity
  8
MOJI
100
AcDbLine
 10
4877.90377
 20
1178.517823
 30
0.0
 11
4877.90377
 21
218.517823
 31
0.0
  0
TEXT
  5
3BA
100
AcDbEntity
  8
MOJI
100
AcDbText
 10
4913.456644
 20
738.517823
 30
0.0
 40
60.0
  1
STK400
 41
0.8
  7
KANJI08
100
AcDbText
  0
TEXT
  5
3BB
100
AcDbEntity
  8
MOJI
100
AcDbText
 10
4517.116517
 20
738.517823
 30
0.0
 40
60.0
  1
ビームパイプ
 41
0.8
  7
KANJI08
100
AcDbText
  0
TEXT
  5
3BC
100
AcDbEntity
  8
MOJI
100
AcDbText
 10
4374.055215
 20
738.517823
 30
0.0
 40
60.0
  1
3
 41
0.8
  7
KANJI08
100
AcDbText
  0
LINE
  5
3BD
100
AcDbEntity
  8
MOJI
100
AcDbLine
 10
4331.08888
 20
1178.517823
 30
0.0
 11
4331.08888
 21
218.517823
 31
0.0
  0
TEXT
  5
3BE
100
AcDbEntity
  8
MOJI
100
AcDbText
 10
4494.099684
 20
258.517823
 30
0.0
 40
60.0
  1
端末キャップ
 41
0.8
  7
KANJI08
100
AcDbText
  0
TEXT
  5
3C0
100
AcDbEntity
  8
MOJI
100
AcDbText
 10
4374.055215
 20
258.517823
 30
0.0
 40
60.0
  1
7
 41
0.8
  7
KANJI08
100
AcDbText
  0
TEXT
  5
3C1
100
AcDbEntity
  8
MOJI
100
AcDbText
 10
4374.055215
 20
498.517823
 30
0.0
 40
60.0
  1
5
 41
0.8
  7
KANJI08
100
AcDbText
  0
TEXT
  5
3C2
100
AcDbEntity
  8
MOJI
100
AcDbText
 10
4374.055215
 20
378.517823
 30
0.0
 40
60.0
  1
6
 41
0.8
  7
KANJI08
100
AcDbText
  0
TEXT
  5
3C3
100
AcDbEntity
  8
MOJI
100
AcDbText
 10
4374.055215
 20
618.517823
 30
0.0
 40
60.0
  1
4
 41
0.8
  7
KANJI08
100
AcDbText
  0
TEXT
  5
3C4
100
AcDbEntity
  8
MOJI
100
AcDbText
 10
4905.665069
 20
258.517823
 30
0.0
 40
60.0
  1
SGH400
 41
0.8
  7
KANJI08
100
AcDbText
  0
TEXT
  5
3C6
100
AcDbEntity
  8
MOJI
100
AcDbText
 10
4987.171791
 20
489.319227
 30
0.0
 40
60.0
  1
SUS
 41
0.8
  7
KANJI08
100
AcDbText
  0
TEXT
  5
3C7
100
AcDbEntity
  8
MOJI
100
AcDbText
 10
4579.261958
 20
858.517823
 30
0.0
 40
60.0
  1
擬宝珠
 41
0.8
  7
KANJI08
100
AcDbText
  0
TEXT
  5
3C8
100
AcDbEntity
  8
MOJI
100
AcDbText
 10
4559.88443
 20
1098.517823
 30
0.0
 40
60.0
  1
品    名
 41
0.8
  7
KANJI08
100
AcDbText
  0
TEXT
  5
3C9
100
AcDbEntity
  8
MOJI
100
AcDbText
 10
4579.261958
 20
978.517823
 30
0.0
 40
60.0
  1
支  柱
 41
0.8
  7
KANJI08
100
AcDbText
  0
TEXT
  5
3CA
100
AcDbEntity
  8
MOJI
100
AcDbText
 10
4374.055215
 20
858.517823
 30
0.0
 40
60.0
  1
2
 41
0.8
  7
KANJI08
100
AcDbText
  0
TEXT
  5
3CB
100
AcDbEntity
  8
MOJI
100
AcDbText
 10
4351.882138
 20
1099.517823
 30
0.0
 40
60.0
  1
部番
 41
0.8
  7
KANJI08
100
AcDbText
  0
TEXT
  5
3CC
100
AcDbEntity
  8
MOJI
100
AcDbText
 10
4374.055215
 20
978.517823
 30
0.0
 40
60.0
  1
1
 41
0.8
  7
KANJI08
100
AcDbText
  0
TEXT
  5
3CD
100
AcDbEntity
  8
MOJI
100
AcDbText
 10
4918.285763
 20
1098.517823
 30
0.0
 40
60.0
  1
材     質
 41
0.8
  7
KANJI08
100
AcDbText
  0
TEXT
  5
3CE
100
AcDbEntity
  8
MOJI
100
AcDbText
 10
4913.456644
 20
978.517823
 30
0.0
 40
60.0
  1
STK400
 41
0.8
  7
KANJI08
100
AcDbText
  0
TEXT
  5
3CF
100
AcDbEntity
  8
MOJI
100
AcDbText
 10
4913.456644
 20
858.517823
 30
0.0
 40
60.0
  1
アルミ合金
 41
0.8
  7
KANJI08
100
AcDbText
  0
TEXT
  5
3D0
100
AcDbEntity
  8
MOJI
100
AcDbText
 10
5250.484281
 20
738.517823
 30
0.0
 40
60.0
  1
亜鉛めっき＋静電粉体塗装
 41
0.8
  7
KANJI08
100
AcDbText
  0
LINE
  5
3D1
100
AcDbEntity
  8
MOJI
100
AcDbLine
 10
6009.009541
 20
218.517823
 30
0.0
 11
6009.009541
 21
1178.517823
 31
0.0
  0
TEXT
  5
3D2
100
AcDbEntity
  8
MOJI
100
AcDbText
 10
5260.020345
 20
371.618876
 30
0.0
 40
60.0
  1
溶融亜鉛めっき (M12T型)
 41
0.8
  7
KANJI08
100
AcDbText
  0
TEXT
  5
3D3
100
AcDbEntity
  8
MOJI
100
AcDbText
 10
5282.210232
 20
489.319227
 30
0.0
 40
60.0
  1
十字皿小ネジ (M8×60)
 41
0.8
  7
KANJI08
100
AcDbText
  0
TEXT
  5
3D4
100
AcDbEntity
  8
MOJI
100
AcDbText
 10
5255.517945
 20
611.618888
 30
0.0
 40
60.0
  1
　　　　焼付塗装
 41
0.8
  7
KANJI08
100
AcDbText
  0
TEXT
  5
3D5
100
AcDbEntity
  8
MOJI
100
AcDbText
 10
5250.484281
 20
978.517823
 30
0.0
 40
60.0
  1
亜鉛めっき＋静電粉体塗装
 41
0.8
  7
KANJI08
100
AcDbText
  0
TEXT
  5
3D6
100
AcDbEntity
  8
MOJI
100
AcDbText
 10
5273.501113
 20
858.517823
 30
0.0
 40
60.0
  1
    　静電粉体塗装
 41
0.8
  7
KANJI08
100
AcDbText
  0
TEXT
  5
3D7
100
AcDbEntity
  8
MOJI
100
AcDbText
 10
5451.948216
 20
1098.517823
 30
0.0
 40
60.0
  1
摘       要
 41
0.8
  7
KANJI08
100
AcDbText
  0
DIMENSION
  5
3D8
100
AcDbEntity
  8
SUNPOU
100
AcDbDimension
  2
*D3
 10
1162.375304
 20
4809.020056
 30
0.0
 11
1115.499139
 21
4866.56704
 31
0.0
 70
   160
  3
SJC
100
AcDbAlignedDimension
 13
1062.375304
 23
4306.923076
 33
0.0
 14
1162.375304
 24
4430.31759
 34
0.0
100
AcDbRotatedDimension
1001
ACAD
1000
DSTYLE
1002
{
1070
    78
1070
     8
1070
   140
1040
3.0
1070
   340
1005
481
1070
    74
1070
     0
1070
   172
1070
     1
1070
    73
1070
     0
1070
    77
1070
     1
1070
    40
1040
20.0
1070
   147
1040
1.2
1070
   287
1070
     5
1070
    42
1040
1.0
1070
    44
1040
1.0
1070
    43
1040
6.0
1070
   271
1070
     1
1070
   178
1070
   256
1070
   177
1070
   256
1070
   176
1070
   256
1070
   275
1070
     1
1070
    41
1040
2.0
1002
}
  0
DIMENSION
  5
3D9
100
AcDbEntity
  8
SUNPOU
100
AcDbDimension
  2
*D2
 10
3162.375304
 20
4809.020056
 30
0.0
 11
2162.375304
 21
4863.020056
 31
0.0
 70
    32
  3
SJC
100
AcDbAlignedDimension
 13
1162.375304
 23
4430.38009
 33
0.0
 14
3162.375304
 24
4424.14459
 34
0.0
100
AcDbRotatedDimension
1001
ACAD
1000
DSTYLE
1002
{
1070
    78
1070
     8
1070
   140
1040
3.0
1070
   340
1005
481
1070
    74
1070
     0
1070
   172
1070
     1
1070
    73
1070
     0
1070
    77
1070
     1
1070
    40
1040
20.0
1070
   147
1040
1.2
1070
   287
1070
     5
1070
    42
1040
1.0
1070
    44
1040
1.0
1070
    43
1040
6.0
1070
   271
1070
     1
1070
   178
1070
   256
1070
   177
1070
   256
1070
   176
1070
   256
1070
   275
1070
     1
1070
    41
1040
2.0
1002
}
  0
DIMENSION
  5
3DA
100
AcDbEntity
  8
SUNPOU
100
AcDbDimension
  2
*D1
 10
5162.375304
 20
4809.020056
 30
0.0
 11
4162.375304
 21
4863.020056
 31
0.0
 70
    32
  3
SJC
100
AcDbAlignedDimension
 13
3162.375304
 23
4424.20709
 33
0.0
 14
5162.375304
 24
4447.231104
 34
0.0
100
AcDbRotatedDimension
1001
ACAD
1000
DSTYLE
1002
{
1070
    78
1070
     8
1070
   140
1040
3.0
1070
   340
1005
481
1070
    74
1070
     0
1070
   172
1070
     1
1070
    73
1070
     0
1070
    77
1070
     1
1070
    40
1040
20.0
1070
   147
1040
1.2
1070
   287
1070
     5
1070
    42
1040
1.0
1070
    44
1040
1.0
1070
    43
1040
6.0
1070
   271
1070
     1
1070
   178
1070
   256
1070
   177
1070
   256
1070
   176
1070
   256
1070
   275
1070
     1
1070
    41
1040
2.0
1002
}
  0
LINE
  5
3DB
100
AcDbEntity
  8
SUNPOU
100
AcDbLine
 10
5162.375304
 20
4561.71685
 30
0.0
 11
5162.375304
 21
4829.020056
 31
0.0
  0
LINE
  5
3DC
100
AcDbEntity
  8
SUNPOU
100
AcDbLine
 10
5202.375304
 20
4809.020056
 30
0.0
 11
5782.375304
 21
4809.020056
 31
0.0
  0
SOLID
  5
3DD
100
AcDbEntity
  8
SUNPOU
100
AcDbTrace
 10
5202.375304
 20
4815.686722
 30
0.0
 11
5202.375304
 21
4802.353389
 31
0.0
 12
5162.375304
 22
4809.020056
 32
0.0
 13
5162.375304
 23
4809.020056
 33
0.0
  0
TEXT
  5
3DE
100
AcDbEntity
  8
SUNPOU
100
AcDbText
 10
5380.946732
 20
4839.020056
 30
0.0
 40
60.0
  1
2000
 41
0.8
  7
KANJI08
 72
     1
 11
5472.375304
 21
4869.020056
 31
0.0
100
AcDbText
 73
     2
  0
POINT
  5
3DF
100
AcDbEntity
  8
SUNPOU
100
AcDbPoint
 10
5162.375304
 20
4427.293604
 30
0.0
  0
DIMENSION
  5
3E0
100
AcDbEntity
  8
SUNPOU
100
AcDbDimension
  2
*D15
 10
7039.577712
 20
3086.923076
 30
0.0
 11
6985.577712
 21
3734.423076
 31
0.0
 70
    32
  3
SJC
100
AcDbAlignedDimension
 13
6490.375304
 23
4381.923076
 33
0.0
 14
6624.375304
 24
3086.923076
 34
0.0
 50
90.0
100
AcDbRotatedDimension
1001
ACAD
1000
DSTYLE
1002
{
1070
    78
1070
     8
1070
   140
1040
3.0
1070
   340
1005
481
1070
    74
1070
     0
1070
   172
1070
     1
1070
    73
1070
     0
1070
    77
1070
     1
1070
    40
1040
20.0
1070
   147
1040
1.2
1070
   287
1070
     5
1070
    42
1040
1.0
1070
    44
1040
1.0
1070
    43
1040
6.0
1070
   271
1070
     1
1070
   178
1070
   256
1070
   177
1070
   256
1070
   176
1070
   256
1070
   275
1070
     1
1070
    41
1040
2.0
1002
}
  0
DIMENSION
  5
3E1
100
AcDbEntity
  8
SUNPOU
100
AcDbDimension
  2
*D14
 10
6899.577712
 20
3486.923076
 30
0.0
 11
6845.577712
 21
3934.423076
 31
0.0
 70
    32
  3
SJC
100
AcDbAlignedDimension
 13
6490.437804
 23
4381.923076
 33
0.0
 14
6733.013632
 24
3486.923076
 34
0.0
 50
90.0
100
AcDbRotatedDimension
1001
ACAD
1000
DSTYLE
1002
{
1070
    78
1070
     8
1070
   140
1040
3.0
1070
   340
1005
481
1070
    74
1070
     0
1070
   172
1070
     1
1070
    73
1070
     0
1070
    77
1070
     1
1070
    40
1040
20.0
1070
   147
1040
1.2
1070
   287
1070
     5
1070
    42
1040
1.0
1070
    44
1040
1.0
1070
    43
1040
6.0
1070
   271
1070
     1
1070
   178
1070
   256
1070
   177
1070
   256
1070
   176
1070
   256
1070
   275
1070
     1
1070
    41
1040
2.0
1002
}
  0
DIMENSION
  5
3E2
100
AcDbEntity
  8
SUNPOU
100
AcDbDimension
  2
*D13
 10
6899.577712
 20
3086.923076
 30
0.0
 11
6845.577712
 21
3286.923076
 31
0.0
 70
    32
  3
SJC
100
AcDbAlignedDimension
 13
6733.076132
 23
3486.923076
 33
0.0
 14
6624.437804
 24
3086.923076
 34
0.0
 50
90.0
100
AcDbRotatedDimension
1001
ACAD
1000
DSTYLE
1002
{
1070
    78
1070
     8
1070
   140
1040
3.0
1070
   340
1005
481
1070
    74
1070
     0
1070
   172
1070
     1
1070
    73
1070
     0
1070
    77
1070
     1
1070
    40
1040
20.0
1070
   147
1040
1.2
1070
   287
1070
     5
1070
    42
1040
1.0
1070
    44
1040
1.0
1070
    43
1040
6.0
1070
   271
1070
     1
1070
   178
1070
   256
1070
   177
1070
   256
1070
   176
1070
   256
1070
   275
1070
     1
1070
    41
1040
2.0
1002
}
  0
DIMENSION
  5
3E4
100
AcDbEntity
  8
SUNPOU
100
AcDbDimension
  2
*D17
 10
6074.974996
 20
4119.423076
 30
0.0
 11
6020.586544
 21
4212.233648
 31
0.0
 70
   160
  3
SJC
100
AcDbAlignedDimension
 13
6315.312804
 23
4274.423076
 33
0.0
 14
6315.375304
 24
4119.423076
 34
0.0
 50
90.0
100
AcDbRotatedDimension
1001
ACAD
1000
DSTYLE
1002
{
1070
    78
1070
     8
1070
   140
1040
3.0
1070
   340
1005
481
1070
    74
1070
     0
1070
   172
1070
     1
1070
    73
1070
     0
1070
    77
1070
     1
1070
    40
1040
20.0
1070
   147
1040
1.2
1070
   287
1070
     5
1070
    42
1040
1.0
1070
    44
1040
1.0
1070
    43
1040
6.0
1070
   271
1070
     1
1070
   178
1070
   256
1070
   177
1070
   256
1070
   176
1070
   256
1070
   275
1070
     1
1070
    41
1040
2.0
1002
}
  0
DIMENSION
  5
3E5
100
AcDbEntity
  8
SUNPOU
100
AcDbDimension
  2
*D16
 10
6074.974996
 20
3964.423076
 30
0.0
 11
6023.215402
 21
4019.108644
 31
0.0
 70
   160
  3
SJC
100
AcDbAlignedDimension
 13
6315.312804
 23
4119.423076
 33
0.0
 14
6315.375304
 24
3964.423076
 34
0.0
 50
90.0
100
AcDbRotatedDimension
1001
ACAD
1000
DSTYLE
1002
{
1070
    78
1070
     8
1070
   140
1040
3.0
1070
   340
1005
481
1070
    74
1070
     0
1070
   172
1070
     1
1070
    73
1070
     0
1070
    77
1070
     1
1070
    40
1040
20.0
1070
   147
1040
1.2
1070
   287
1070
     5
1070
    42
1040
1.0
1070
    44
1040
1.0
1070
    43
1040
6.0
1070
   271
1070
     1
1070
   178
1070
   256
1070
   177
1070
   256
1070
   176
1070
   256
1070
   275
1070
     1
1070
    41
1040
2.0
1002
}
  0
DIMENSION
  5
3E7
100
AcDbEntity
  8
SUNPOU
100
AcDbDimension
  2
*D7
 10
629.423549
 20
2215.384615
 30
0.0
 11
575.423549
 21
1320.384615
 31
0.0
 70
    32
  3
SJC
100
AcDbAlignedDimension
 13
859.8
 23
425.384615
 33
0.0
 14
1206.0
 24
2215.384615
 34
0.0
 50
90.0
100
AcDbRotatedDimension
1001
ACAD
1000
DSTYLE
1002
{
1070
    78
1070
     8
1070
   140
1040
3.0
1070
   340
1005
481
1070
    74
1070
     0
1070
   172
1070
     1
1070
    73
1070
     0
1070
    77
1070
     1
1070
    40
1040
20.0
1070
   144
1040
0.5
1070
   147
1040
1.2
1070
   287
1070
     5
1070
    42
1040
1.0
1070
    44
1040
1.0
1070
    43
1040
6.0
1070
   271
1070
     1
1070
   178
1070
   256
1070
   177
1070
   256
1070
   176
1070
   256
1070
   275
1070
     1
1070
    41
1040
2.0
1002
}
  0
DIMENSION
  5
3EB
100
AcDbEntity
  8
SUNPOU
100
AcDbDimension
  2
*D6
 10
1966.0
 20
1690.384615
 30
0.0
 11
1912.0
 21
1845.384615
 31
0.0
 70
    32
  3
SJC
100
AcDbAlignedDimension
 13
1557.4625
 23
2000.384615
 33
0.0
 14
1557.4
 24
1690.384615
 34
0.0
 50
90.0
100
AcDbRotatedDimension
1001
ACAD
1000
DSTYLE
1002
{
1070
    78
1070
     8
1070
   140
1040
3.0
1070
   340
1005
481
1070
    74
1070
     0
1070
   172
1070
     1
1070
    73
1070
     0
1070
    77
1070
     1
1070
    40
1040
20.0
1070
   144
1040
0.5
1070
   147
1040
1.2
1070
   287
1070
     5
1070
    42
1040
1.0
1070
    44
1040
1.0
1070
    43
1040
6.0
1070
   271
1070
     1
1070
   178
1070
   256
1070
   177
1070
   256
1070
   176
1070
   256
1070
   275
1070
     1
1070
    41
1040
2.0
1002
}
  0
DIMENSION
  5
3EC
100
AcDbEntity
  8
SUNPOU
100
AcDbDimension
  2
*D5
 10
1966.0
 20
1380.384615
 30
0.0
 11
1912.0
 21
1535.384615
 31
0.0
 70
    32
  3
SJC
100
AcDbAlignedDimension
 13
1557.4625
 23
1690.384615
 33
0.0
 14
1557.4
 24
1380.384615
 34
0.0
 50
90.0
100
AcDbRotatedDimension
1001
ACAD
1000
DSTYLE
1002
{
1070
    78
1070
     8
1070
   140
1040
3.0
1070
   340
1005
481
1070
    74
1070
     0
1070
   172
1070
     1
1070
    73
1070
     0
1070
    77
1070
     1
1070
    40
1040
20.0
1070
   144
1040
0.5
1070
   147
1040
1.2
1070
   287
1070
     5
1070
    42
1040
1.0
1070
    44
1040
1.0
1070
    43
1040
6.0
1070
   271
1070
     1
1070
   178
1070
   256
1070
   177
1070
   256
1070
   176
1070
   256
1070
   275
1070
     1
1070
    41
1040
2.0
1002
}
  0
DIMENSION
  5
3ED
100
AcDbEntity
  8
SUNPOU
100
AcDbDimension
  2
*D4
 10
1966.0
 20
425.384615
 30
0.0
 11
1912.0
 21
902.884615
 31
0.0
 70
    32
  3
SJC
100
AcDbAlignedDimension
 13
1557.4625
 23
1380.384615
 33
0.0
 14
1819.8
 24
425.384615
 34
0.0
 50
90.0
100
AcDbRotatedDimension
1001
ACAD
1000
DSTYLE
1002
{
1070
    78
1070
     8
1070
   140
1040
3.0
1070
   340
1005
481
1070
    74
1070
     0
1070
   172
1070
     1
1070
    73
1070
     0
1070
    77
1070
     1
1070
    40
1040
20.0
1070
   144
1040
0.5
1070
   147
1040
1.2
1070
   287
1070
     5
1070
    42
1040
1.0
1070
    44
1040
1.0
1070
    43
1040
6.0
1070
   271
1070
     1
1070
   178
1070
   256
1070
   177
1070
   256
1070
   176
1070
   256
1070
   275
1070
     1
1070
    41
1040
2.0
1002
}
  0
SOLID
  5
3EE
100
AcDbEntity
  8
MOJI
100
AcDbTrace
 10
1049.434127
 20
4312.854449
 30
0.0
 11
1037.669421
 21
4306.579939
 31
0.0
 12
1062.375304
 22
4274.423076
 32
0.0
 13
1062.375304
 23
4274.423076
 33
0.0
  0
LINE
  5
3EF
100
AcDbEntity
  8
MOJI
100
AcDbLine
 10
1043.551774
 20
4309.717194
 30
0.0
 11
962.375304
 21
4461.923076
 31
0.0
  0
LINE
  5
3F0
100
AcDbEntity
  8
MOJI
100
AcDbLine
 10
962.375304
 20
4461.923076
 30
0.0
 11
922.375304
 21
4461.923076
 31
0.0
  0
LINE
  5
3F1
100
AcDbEntity
  8
MOJI
100
AcDbLine
 10
922.375304
 20
4461.923076
 30
0.0
 11
483.163721
 21
4461.923076
 31
0.0
  0
TEXT
  5
3F2
100
AcDbEntity
  8
MOJI
100
AcDbText
 10
533.945842
 20
4476.133008
 30
0.0
 40
60.0
  1
  端末キャップ
 41
0.8
  7
KANJI08
 72
     2
 11
924.345842
 21
4506.133008
 31
0.0
100
AcDbText
 73
     2
  0
LINE
  5
3F5
100
AcDbEntity
  8
MOJI
100
AcDbLine
 10
1429.960322
 20
4463.465768
 30
0.0
 11
1425.941064
 21
4463.465768
 31
0.0
  0
LINE
  5
3F6
100
AcDbEntity
  8
MOJI
100
AcDbLine
 10
1425.941064
 20
4463.465768
 30
0.0
 11
1722.032818
 21
4463.465768
 31
0.0
  0
TEXT
  5
3F7
100
AcDbEntity
  8
MOJI
100
AcDbText
 10
1426.031064
 20
4476.973132
 30
0.0
 40
60.0
  1
43AF金具
 41
0.8
  7
KANJI08
 11
1426.031064
 21
4506.973132
 31
0.0
100
AcDbText
 73
     2
  0
SOLID
  5
3F8
100
AcDbEntity
  8
MOJI
100
AcDbTrace
 10
1851.470304
 20
4324.02065
 30
0.0
 11
1840.736226
 21
4331.92997
 31
0.0
 12
1822.375304
 22
4295.773076
 32
0.0
 13
1822.375304
 23
4295.773076
 33
0.0
  0
LINE
  5
3F9
100
AcDbEntity
  8
MOJI
100
AcDbLine
 10
1593.954251
 20
3985.773076
 30
0.0
 11
1943.551553
 21
4460.226557
 31
0.0
  0
LINE
  5
3FA
100
AcDbEntity
  8
MOJI
100
AcDbLine
 10
1943.551553
 20
4460.226557
 30
0.0
 11
1983.551553
 21
4460.226557
 31
0.0
  0
LINE
  5
3FB
100
AcDbEntity
  8
MOJI
100
AcDbLine
 10
1983.551553
 20
4460.226557
 30
0.0
 11
2380.766186
 21
4460.226557
 31
0.0
  0
TEXT
  5
3FC
100
AcDbEntity
  8
MOJI
100
AcDbText
 10
1950.627103
 20
4476.48269
 30
0.0
 40
60.0
  1
φ42.7×t2.3
 41
0.8
  7
KANJI08
 11
1950.627103
 21
4506.48269
 31
0.0
100
AcDbText
 73
     2
  0
LINE
  5
3FF
100
AcDbEntity
  8
MOJI
100
AcDbLine
 10
1442.743799
 20
3220.827328
 30
0.0
 11
1462.661614
 21
3220.827328
 31
0.0
  0
LINE
  5
400
100
AcDbEntity
  8
MOJI
100
AcDbLine
 10
1462.661614
 20
3220.827328
 30
0.0
 11
2034.204204
 21
3220.827328
 31
0.0
  0
TEXT
  5
401
100
AcDbEntity
  8
MOJI
100
AcDbText
 10
1462.751614
 20
3238.559343
 30
0.0
 40
60.0
  1
支柱φ139.8×t4.5
 41
0.8
  7
KANJI08
 11
1462.751614
 21
3268.559343
 31
0.0
100
AcDbText
 73
     2
  0
LINE
  5
404
100
AcDbEntity
  8
MOJI
100
AcDbLine
 10
3383.300591
 20
2384.342425
 30
0.0
 11
3489.166231
 21
2384.342425
 31
0.0
  0
LINE
  5
405
100
AcDbEntity
  8
MOJI
100
AcDbLine
 10
3489.166231
 20
2384.342425
 30
0.0
 11
3853.903447
 21
2384.342425
 31
0.0
  0
TEXT
  5
406
100
AcDbEntity
  8
MOJI
100
AcDbText
 10
3489.256231
 20
2502.828782
 30
0.0
 40
60.0
  1
ビームパイプ
 50
0.0
 41
0.8
  7
KANJI08
 11
3489.256231
 21
2532.828782
 31
0.0
100
AcDbText
 73
     2
  0
SOLID
  5
407
100
AcDbEntity
  8
MOJI
100
AcDbTrace
 10
2976.674994
 20
2235.649817
 30
0.0
 11
2985.146141
 21
2245.946294
 31
0.0
 12
3011.8
 22
2215.384615
 32
0.0
 13
3011.8
 23
2215.384615
 33
0.0
  0
LINE
  5
408
100
AcDbEntity
  8
MOJI
100
AcDbLine
 10
2980.910568
 20
2240.798056
 30
0.0
 11
2807.6
 21
2383.384615
 31
0.0
  0
LINE
  5
409
100
AcDbEntity
  8
MOJI
100
AcDbLine
 10
2807.6
 20
2383.384615
 30
0.0
 11
2767.6
 21
2383.384615
 31
0.0
  0
LINE
  5
40A
100
AcDbEntity
  8
MOJI
100
AcDbLine
 10
2767.6
 20
2383.384615
 30
0.0
 11
2483.717523
 21
2383.384615
 31
0.0
  0
TEXT
  5
40B
100
AcDbEntity
  8
MOJI
100
AcDbText
 10
2521.012858
 20
2409.738271
 30
0.0
 40
60.0
  1
   擬宝珠
 41
0.8
  7
KANJI08
 11
2521.012858
 21
2439.738271
 31
0.0
100
AcDbText
 73
     2
  0
SOLID
  5
40C
100
AcDbEntity
  8
MOJI
100
AcDbTrace
 10
2982.129938
 20
1292.741679
 30
0.0
 11
2992.699002
 21
1284.613169
 31
0.0
 12
3011.8
 22
1320.384615
 32
0.0
 13
3011.8
 23
1320.384615
 33
0.0
  0
LINE
  5
40D
100
AcDbEntity
  8
MOJI
100
AcDbLine
 10
2987.41447
 20
1288.677424
 30
0.0
 11
2768.0
 21
1003.384615
 31
0.0
  0
LINE
  5
40E
100
AcDbEntity
  8
MOJI
100
AcDbLine
 10
2768.0
 20
1003.384615
 30
0.0
 11
2728.0
 21
1003.384615
 31
0.0
  0
LINE
  5
40F
100
AcDbEntity
  8
MOJI
100
AcDbLine
 10
2728.0
 20
1003.384615
 30
0.0
 11
2400.021752
 21
1003.384615
 31
0.0
  0
SOLID
  5
411
100
AcDbEntity
  8
MOJI
100
AcDbTrace
 10
2857.30996
 20
697.587165
 30
0.0
 11
2870.362649
 21
694.865934
 31
0.0
 12
2872.0
 22
735.384615
 32
0.0
 13
2872.0
 23
735.384615
 33
0.0
  0
LINE
  5
412
100
AcDbEntity
  8
MOJI
100
AcDbLine
 10
2863.836304
 20
696.226549
 30
0.0
 11
2754.0
 21
169.384615
 31
0.0
  0
LINE
  5
413
100
AcDbEntity
  8
MOJI
100
AcDbLine
 10
2754.0
 20
169.384615
 30
0.0
 11
2714.0
 21
169.384615
 31
0.0
  0
LINE
  5
414
100
AcDbEntity
  8
MOJI
100
AcDbLine
 10
2714.0
 20
169.384615
 30
0.0
 11
2025.936862
 21
169.384615
 31
0.0
  0
TEXT
  5
415
100
AcDbEntity
  8
MOJI
100
AcDbText
 10
2056.538571
 20
199.384615
 30
0.0
 40
60.0
  1
   支柱φ139.8×t4.5
 41
0.8
  7
KANJI08
 72
     2
 11
2713.91
 21
229.384615
 31
0.0
100
AcDbText
 73
     2
  0
DIMENSION
  5
416
100
AcDbEntity
  8
SUNPOU
100
AcDbDimension
  2
*D12
 10
6512.666664
 20
2365.384615
 30
0.0
 11
6132.666665
 21
2365.384615
 31
0.0
 70
   160
  3
SJC
100
AcDbAlignedDimension
 13
5752.666665
 23
2245.384614
 33
0.0
 14
6512.666664
 24
2245.384614
 34
0.0
100
AcDbRotatedDimension
1001
ACAD
1000
DSTYLE
1002
{
1070
    78
1070
     8
1070
   140
1040
3.0
1070
   340
1005
481
1070
    74
1070
     0
1070
   172
1070
     1
1070
    73
1070
     0
1070
    77
1070
     1
1070
    40
1040
20.0
1070
   144
1040
0.15
1070
   147
1040
1.2
1070
   287
1070
     5
1070
    42
1040
1.0
1070
    44
1040
1.0
1070
    43
1040
6.0
1070
   271
1070
     1
1070
   178
1070
   256
1070
   177
1070
   256
1070
   176
1070
   256
1070
   275
1070
     1
1070
    41
1040
2.0
1002
}
  0
DIMENSION
  5
417
100
AcDbEntity
  8
SUNPOU
100
AcDbDimension
  2
*D11
 10
6399.333331
 20
1701.384615
 30
0.0
 11
6132.666665
 21
1755.384615
 31
0.0
 70
    32
  3
SJC
100
AcDbAlignedDimension
 13
5865.999998
 23
1825.384615
 33
0.0
 14
6399.333331
 24
1825.384615
 34
0.0
100
AcDbRotatedDimension
1001
ACAD
1000
DSTYLE
1002
{
1070
    78
1070
     8
1070
   140
1040
3.0
1070
   340
1005
481
1070
    74
1070
     0
1070
   172
1070
     1
1070
    73
1070
     0
1070
    77
1070
     1
1070
    40
1040
20.0
1070
   144
1040
0.15
1070
   147
1040
1.2
1070
   287
1070
     5
1070
    42
1040
1.0
1070
    44
1040
1.0
1070
    43
1040
6.0
1070
   271
1070
     1
1070
   178
1070
   256
1070
   177
1070
   256
1070
   176
1070
   256
1070
   275
1070
     1
1070
    41
1040
2.0
1002
}
  0
SOLID
  5
418
100
AcDbEntity
  8
MOJI
100
AcDbTrace
 10
6437.415367
 20
2259.320288
 30
0.0
 11
6430.8372
 21
2270.917939
 31
0.0
 12
6399.333331
 22
2245.384614
 32
0.0
 13
6399.333331
 23
2245.384614
 33
0.0
  0
LINE
  5
419
100
AcDbEntity
  8
MOJI
100
AcDbLine
 10
6434.126283
 20
2265.119113
 30
0.0
 11
6692.0
 21
2411.384615
 31
0.0
  0
LINE
  5
41A
100
AcDbEntity
  8
MOJI
100
AcDbLine
 10
6692.0
 20
2411.384615
 30
0.0
 11
6732.0
 21
2411.384615
 31
0.0
  0
LINE
  5
41B
100
AcDbEntity
  8
MOJI
100
AcDbLine
 10
6732.0
 20
2411.384615
 30
0.0
 11
7246.883126
 21
2411.384615
 31
0.0
  0
TEXT
  5
41C
100
AcDbEntity
  8
MOJI
100
AcDbText
 10
6729.387936
 20
2444.330651
 30
0.0
 40
60.0
  1
   ボルトM8×60
 41
0.8
  7
KANJI08
 11
6729.387936
 21
2474.330651
 31
0.0
100
AcDbText
 73
     2
  0
SOLID
  5
41D
100
AcDbEntity
  8
MOJI
100
AcDbTrace
 10
4823.452161
 20
2119.226041
 30
0.0
 11
4810.416086
 21
2116.426305
 31
0.0
 12
4825.333333
 22
2078.717948
 32
0.0
 13
4825.333333
 23
2078.717948
 33
0.0
  0
LINE
  5
41E
100
AcDbEntity
  8
MOJI
100
AcDbLine
 10
4816.934124
 20
2117.826173
 30
0.0
 11
4677.0
 21
2769.384615
 31
0.0
  0
LINE
  5
41F
100
AcDbEntity
  8
MOJI
100
AcDbLine
 10
4677.0
 20
2769.384615
 30
0.0
 11
4739.0
 21
2769.384615
 31
0.0
  0
LINE
  5
420
100
AcDbEntity
  8
MOJI
100
AcDbLine
 10
4739.0
 20
2769.384615
 30
0.0
 11
5291.736439
 21
2769.384615
 31
0.0
  0
TEXT
  5
421
100
AcDbEntity
  8
MOJI
100
AcDbText
 10
4709.218372
 20
2798.451952
 30
0.0
 40
60.0
  1
   ボルトM12（T型）
 50
360.0
 41
0.8
  7
KANJI08
 11
4709.218372
 21
2828.451952
 31
0.0
100
AcDbText
 73
     2
  0
TEXT
  5
422
100
AcDbEntity
  8
MOJI
100
AcDbText
 10
6165.758596
 20
4645.418183
 30
0.0
 40
70.0
  1
43AF5-308C
 41
0.8
  7
KANJI08
100
AcDbText
  0
TEXT
  5
423
100
AcDbEntity
  8
MOJI
100
AcDbText
 10
500.996736
 20
4485.656264
 30
0.0
 40
60.0
  1
7
 41
0.8
  7
KANJI08
100
AcDbText
  0
TEXT
  5
424
100
AcDbEntity
  8
MOJI
100
AcDbText
 10
3400.877881
 20
2510.594111
 30
0.0
 40
60.0
  1
3
 41
0.8
  7
KANJI08
100
AcDbText
  0
TEXT
  5
425
100
AcDbEntity
  8
MOJI
100
AcDbText
 10
2521.964056
 20
2413.564951
 30
0.0
 40
60.0
  1
2
 41
0.8
  7
KANJI08
100
AcDbText
  0
TEXT
  5
426
100
AcDbEntity
  8
MOJI
100
AcDbText
 10
2415.520194
 20
1035.902546
 30
0.0
 40
60.0
  1
4
 41
0.8
  7
KANJI08
100
AcDbText
  0
TEXT
  5
427
100
AcDbEntity
  8
MOJI
100
AcDbText
 10
2057.6118
 20
205.703654
 30
0.0
 40
60.0
  1
1
 41
0.8
  7
KANJI08
100
AcDbText
  0
TEXT
  5
428
100
AcDbEntity
  8
MOJI
100
AcDbText
 10
4708.795806
 20
2803.451952
 30
0.0
 40
60.0
  1
6
 41
0.8
  7
KANJI08
100
AcDbText
  0
TEXT
  5
429
100
AcDbEntity
  8
MOJI
100
AcDbText
 10
6723.39837
 20
2440.159893
 30
0.0
 40
60.0
  1
5
 41
0.8
  7
KANJI08
100
AcDbText
  0
TEXT
  5
42A
100
AcDbEntity
  8
MOJI
100
AcDbText
 10
2483.57528
 20
1020.590838
 30
0.0
 40
60.0
  1
43AF金具
 41
0.8
  7
KANJI08
 72
     2
 11
2759.689565
 21
1050.590838
 31
0.0
100
AcDbText
 73
     2
  0
TEXT
  5
42B
100
AcDbEntity
  8
MOJI
100
AcDbText
 10
4519.418179
 20
611.618888
 30
0.0
 40
60.0
  1
43AF金具
 41
0.8
  7
KANJI08
100
AcDbText
  0
TEXT
  5
42C
100
AcDbEntity
  8
MOJI
100
AcDbText
 10
5285.439811
 20
258.517823
 30
0.0
 40
60.0
  1
　亜鉛めっき＋焼付塗装
 41
0.8
  7
KANJI08
100
AcDbText
  0
SOLID
  5
433
100
AcDbEntity
  8
MOJI
100
AcDbTrace
 10
1737.259778
 20
4169.02065
 30
0.0
 11
1726.5257
 21
4176.92997
 31
0.0
 12
1708.164777
 22
4140.773076
 32
0.0
 13
1708.164777
 23
4140.773076
 33
0.0
  0
SOLID
  5
434
100
AcDbEntity
  8
MOJI
100
AcDbTrace
 10
1623.049251
 20
4014.02065
 30
0.0
 11
1612.315174
 21
4021.92997
 31
0.0
 12
1593.954251
 22
3985.773076
 32
0.0
 13
1593.954251
 23
3985.773076
 33
0.0
  0
DIMENSION
  5
436
100
AcDbEntity
  8
SUNPOU
100
AcDbDimension
  2
*D10
 10
6598.666664
 20
1316.368761
 30
0.0
 11
6132.666665
 21
1370.368761
 31
0.0
 70
    32
  1
%%c139.8
  3
SJC
100
AcDbAlignedDimension
 13
5666.666665
 23
1552.051281
 33
0.0
 14
6598.666664
 24
1552.051281
 34
0.0
100
AcDbRotatedDimension
1001
ACAD
1000
DSTYLE
1002
{
1070
    78
1070
     8
1070
   140
1040
3.0
1070
   340
1005
481
1070
    74
1070
     0
1070
   172
1070
     1
1070
    73
1070
     0
1070
    77
1070
     1
1070
    40
1040
20.0
1070
   144
1040
0.15
1070
   147
1040
1.2
1070
   287
1070
     5
1070
    42
1040
1.0
1070
    44
1040
1.0
1070
    43
1040
6.0
1070
   271
1070
     1
1070
   178
1070
   256
1070
   177
1070
   256
1070
   176
1070
   256
1070
   275
1070
     1
1070
    41
1040
2.0
1002
}
  0
DIMENSION
  5
437
100
AcDbEntity
  8
SUNPOU
100
AcDbDimension
  2
*D9
 10
6942.213002
 20
1903.051281
 30
0.0
 11
6877.133709
 21
2045.384614
 31
0.0
 70
   160
  1
%%c42.7
  3
SJC
100
AcDbAlignedDimension
 13
6732.666664
 23
2187.717948
 33
0.0
 14
6732.666664
 24
1903.051281
 34
0.0
 50
90.0
100
AcDbRotatedDimension
1001
ACAD
1000
DSTYLE
1002
{
1070
    78
1070
     8
1070
   140
1040
3.0
1070
   340
1005
481
1070
    74
1070
     0
1070
   172
1070
     1
1070
    73
1070
     0
1070
    77
1070
     1
1070
    40
1040
20.0
1070
   144
1040
0.15
1070
   147
1040
1.2
1070
   287
1070
     5
1070
    42
1040
1.0
1070
    44
1040
1.0
1070
    43
1040
6.0
1070
   271
1070
     1
1070
   178
1070
   256
1070
   177
1070
   256
1070
   176
1070
   256
1070
   275
1070
     1
1070
    41
1040
2.0
1002
}
  0
TEXT
  5
438
100
AcDbEntity
  8
MOJI
100
AcDbText
 10
4519.418179
 20
487.441608
 30
0.0
 40
60.0
  1
取付ボルト
 41
0.8
  7
KANJI08
100
AcDbText
  0
POINT
  5
43C
100
AcDbEntity
  8
SUNPOU
  6
BYBLOCK
 62
     0
100
AcDbPoint
 10
6366.412804
 20
4311.923076
 30
0.0
  0
POINT
  5
43D
100
AcDbEntity
  8
SUNPOU
  6
BYBLOCK
 62
     0
100
AcDbPoint
 10
6315.375304
 20
4274.423076
 30
0.0
  0
POINT
  5
444
100
AcDbEntity
  8
SUNPOU
  6
BYBLOCK
 62
     0
100
AcDbPoint
 10
6434.375304
 20
4381.923076
 30
0.0
  0
POINT
  5
445
100
AcDbEntity
  8
SUNPOU
  6
BYBLOCK
 62
     0
100
AcDbPoint
 10
6366.475304
 20
4311.923076
 30
0.0
  0
LINE
  5
44B
100
AcDbEntity
  8
SJC2
100
AcDbLine
 10
5782.375304
 20
3426.180405
 30
0.0
 11
5782.375304
 21
3766.923076
 31
0.0
  0
INSERT
  5
466
100
AcDbEntity
  8
ZWAKU
100
AcDbBlockReference
  2
CALCOMP_TECHJET720A3
 10
0.0
 20
0.0
 30
0.0
 41
20.0
 42
20.0
 43
20.0
  0
TEXT
  5
468
100
AcDbEntity
  8
INFORMATION
100
AcDbText
 10
1.0
 20
2.0
 30
0.0
 40
0.8
  1
PLOTTER=CALCOMP_TECHJET720
100
AcDbText
  0
TEXT
  5
469
100
AcDbEntity
  8
INFORMATION
100
AcDbText
 10
1.0
 20
3.0
 30
0.0
 40
0.8
  1
PAPER=A3
100
AcDbText
  0
TEXT
  5
491
100
AcDbEntity
  8
MOJI2
100
AcDbText
 10
1872.076427
 20
2748.23469
 30
0.0
 40
80.0
  1
支柱図
 41
0.8
  7
KANJI08
100
AcDbText
  0
LINE
  5
492
100
AcDbEntity
  8
MOJI2
100
AcDbLine
 10
3861.35912
 20
2786.575563
 30
0.0
 11
4331.359639
 21
2786.575563
 31
0.0
  0
LINE
  5
493
100
AcDbEntity
  8
MOJI2
100
AcDbLine
 10
1864.27063
 20
2714.886285
 30
0.0
 11
2099.91595
 21
2714.886285
 31
0.0
  0
LINE
  5
494
100
AcDbEntity
  8
MOJI2
100
AcDbLine
 10
1864.27063
 20
2734.886285
 30
0.0
 11
2099.91595
 21
2734.886285
 31
0.0
  0
LINE
  5
495
100
AcDbEntity
  8
MOJI2
100
AcDbLine
 10
3861.35912
 20
2806.575563
 30
0.0
 11
4331.359639
 21
2806.575563
 31
0.0
  0
TEXT
  5
496
100
AcDbEntity
  8
MOJI2
100
AcDbText
 10
3869.164917
 20
2819.923968
 30
0.0
 40
80.0
  1
取付部詳細図
 41
0.8
  7
KANJI08
100
AcDbText
  0
LINE
  5
497
100
AcDbEntity
  8
MOJI2
100
AcDbLine
 10
600.159171
 20
4998.779199
 30
0.0
 11
835.80449
 21
4998.779199
 31
0.0
  0
TEXT
  5
498
100
AcDbEntity
  8
MOJI2
100
AcDbText
 10
607.964968
 20
5032.127604
 30
0.0
 40
80.0
  1
設置図
 41
0.8
  7
KANJI08
100
AcDbText
  0
LINE
  5
499
100
AcDbEntity
  8
MOJI2
100
AcDbLine
 10
600.159171
 20
5018.779199
 30
0.0
 11
835.80449
 21
5018.779199
 31
0.0
  0
TEXT
  5
575
100
AcDbEntity
  8
MOJI
100
AcDbText
 10
4519.418179
 20
376.640204
 30
0.0
 40
60.0
  1
取付ボルト
 41
0.8
  7
KANJI08
100
AcDbText
  0
TEXT
  5
576
100
AcDbEntity
  8
MOJI
100
AcDbText
 10
4913.456644
 20
611.618888
 30
0.0
 40
60.0
  1
アルミ合金
 41
0.8
  7
KANJI08
100
AcDbText
  0
CIRCLE
  5
577
100
AcDbEntity
  8
MOJI
100
AcDbCircle
 10
4731.98955
 20
2830.378352
 30
0.0
 40
48.0
  0
CIRCLE
  5
578
100
AcDbEntity
  8
MOJI
100
AcDbCircle
 10
6747.038175
 20
2470.00452
 30
0.0
 40
48.0
  0
LINE
  5
586
100
AcDbEntity
  8
SUNPOU
  6
BYBLOCK
100
AcDbLine
 10
1373.6
 20
2215.384615
 30
0.0
 11
1986.0
 21
2215.384615
 31
0.0
  0
LINE
  5
587
100
AcDbEntity
  8
SUNPOU
  6
BYBLOCK
100
AcDbLine
 10
1460.0
 20
2075.384615
 30
0.0
 11
1986.0
 21
2075.384615
 31
0.0
  0
MTEXT
  5
58A
100
AcDbEntity
  8
SUNPOU
  6
BYBLOCK
100
AcDbMText
 10
1904.43921
 20
2145.384615
 30
0.0
 40
60.0
 41
0.0
 71
     5
 72
     1
  1
\A1;70
  7
KANJI08
 11
0.0
 21
1.0
 31
0.0
  0
LINE
  5
58B
100
AcDbEntity
  8
SUNPOU
  6
BYBLOCK
100
AcDbLine
 10
1966.0
 20
2215.384615
 30
0.0
 11
1966.0
 21
2000.384615
 31
0.0
  0
POINT
  5
58E
100
AcDbEntity
  8
DEFPOINTS
  6
BYBLOCK
 62
     0
100
AcDbPoint
 10
1353.6
 20
2215.384615
 30
0.0
  0
LINE
  5
591
100
AcDbEntity
  8
SUNPOU
  6
BYBLOCK
100
AcDbLine
 10
1460.0625
 20
2075.384615
 30
0.0
 11
1986.0
 21
2075.384615
 31
0.0
  0
LINE
  5
593
100
AcDbEntity
  8
SUNPOU
  6
BYBLOCK
100
AcDbLine
 10
1966.0
 20
2115.384615
 30
0.0
 11
1966.0
 21
2155.384615
 31
0.0
  0
MTEXT
  5
595
100
AcDbEntity
  8
SUNPOU
  6
BYBLOCK
100
AcDbMText
 10
2035.0
 20
2037.884615
 30
0.0
 40
60.0
 41
0.0
 71
     5
 72
     1
  1
\A1;37.5
  7
KANJI08
 11
0.0
 21
1.0
 31
0.0
  0
SOLID
  5
597
100
AcDbEntity
  8
SUNPOU
  6
BYBLOCK
100
AcDbTrace
 10
1959.333333
 20
2115.384615
 30
0.0
 11
1972.666667
 21
2115.384615
 31
0.0
 12
1966.0
 22
2075.384615
 32
0.0
 13
1966.0
 23
2075.384615
 33
0.0
  0
POINT
  5
59A
100
AcDbEntity
  8
DEFPOINTS
  6
BYBLOCK
 62
     0
100
AcDbPoint
 10
1557.4
 20
2000.384615
 30
0.0
  0
SOLID
  5
59C
100
AcDbEntity
  8
SUNPOU
  6
BYBLOCK
100
AcDbTrace
 10
1959.333333
 20
2175.384615
 30
0.0
 11
1972.666667
 21
2175.384615
 31
0.0
 12
1966.0
 22
2215.384615
 32
0.0
 13
1966.0
 23
2215.384615
 33
0.0
  0
TEXT
  5
5A8
100
AcDbEntity
  8
MOJI
100
AcDbText
 10
886.436096
 20
464.993239
 30
0.0
 40
60.0
  1
GL
 41
0.8
  7
KANJI08
 72
     2
 11
971.007525
 21
494.993239
 31
0.0
100
AcDbText
 73
     2
  0
TEXT
  5
5A9
100
AcDbEntity
  8
MOJI
100
AcDbText
 10
2246.675943
 20
464.993239
 30
0.0
 40
60.0
  1
GL
 41
0.8
  7
KANJI08
 72
     2
 11
2331.247371
 21
494.993239
 31
0.0
100
AcDbText
 73
     2
  0
CIRCLE
  5
5AA
100
AcDbEntity
  8
MOJI
100
AcDbCircle
 10
3422.809968
 20
2541.256186
 30
0.0
 40
48.0
  0
CIRCLE
  5
5AB
100
AcDbEntity
  8
MOJI
100
AcDbCircle
 10
2545.137181
 20
2443.537228
 30
0.0
 40
48.0
  0
TEXT
  5
5AE
100
AcDbEntity
  8
MOJI
100
AcDbText
 10
3400.691579
 20
2418.556067
 30
0.0
 40
60.0
  1
φ42.7×t2.3
 50
0.0
 41
0.8
  7
KANJI08
 11
3400.691579
 21
2448.556067
 31
0.0
100
AcDbText
 73
     2
  0
SOLID
  5
5AF
100
AcDbEntity
  8
MOJI
  6
CONTINUOUS
100
AcDbTrace
 10
3236.690717
 20
1461.450577
 30
0.0
 11
3223.537766
 21
1463.63636
 31
0.0
 12
3223.556892
 22
1423.084615
 32
0.0
 13
3223.556892
 23
1423.084615
 33
0.0
  0
LINE
  5
5B0
100
AcDbEntity
  8
MOJI
  6
CONTINUOUS
100
AcDbLine
 10
3230.114242
 20
1462.543469
 30
0.0
 11
3383.300591
 21
2384.342425
 31
0.0
  0
SOLID
  5
5B1
100
AcDbEntity
  8
MOJI
  6
CONTINUOUS
100
AcDbTrace
 10
3288.207122
 20
1771.450577
 30
0.0
 11
3275.054171
 21
1773.63636
 31
0.0
 12
3275.073297
 22
1733.084615
 32
0.0
 13
3275.073297
 23
1733.084615
 33
0.0
  0
SOLID
  5
5B2
100
AcDbEntity
  8
MOJI
  6
CONTINUOUS
100
AcDbTrace
 10
3339.723527
 20
2081.450577
 30
0.0
 11
3326.570576
 21
2083.63636
 31
0.0
 12
3326.589702
 22
2043.084615
 32
0.0
 13
3326.589702
 23
2043.084615
 33
0.0
  0
CIRCLE
  5
5B3
100
AcDbEntity
  8
MOJI
100
AcDbCircle
 10
2440.594878
 20
1065.168858
 30
0.0
 40
48.0
  0
CIRCLE
  5
5B4
100
AcDbEntity
  8
MOJI
100
AcDbCircle
 10
2078.33306
 20
233.549801
 30
0.0
 40
48.0
  0
CIRCLE
  5
5B5
100
AcDbEntity
  8
MOJI
100
AcDbCircle
 10
524.183613
 20
4519.792135
 30
0.0
 40
48.0
  0
TEXT
  5
5B6
100
AcDbEntity
  8
MOJI
100
AcDbText
 10
718.296394
 20
3519.375951
 30
0.0
 40
60.0
  1
GL
 41
0.8
  7
KANJI08
 72
     2
 11
802.867822
 21
3549.375951
 31
0.0
100
AcDbText
 73
     2
  0
SOLID
  5
5B7
100
AcDbEntity
  8
MOJI
  6
CONTINUOUS
100
AcDbTrace
 10
1242.674083
 20
3647.316857
 30
0.0
 11
1254.824134
 21
3652.808126
 31
0.0
 12
1232.275304
 22
3686.512646
 32
0.0
 13
1232.275304
 23
3686.512646
 33
0.0
  0
LINE
  5
5B8
100
AcDbEntity
  8
MOJI
  6
CONTINUOUS
100
AcDbLine
 10
1248.749109
 20
3650.062491
 30
0.0
 11
1442.743799
 21
3220.827328
 31
0.0
  0
TEXT
  5
5B9
100
AcDbEntity
  8
MOJI
100
AcDbText
 10
6133.642744
 20
3519.375951
 30
0.0
 40
60.0
  1
GL
 41
0.8
  7
KANJI08
 72
     2
 11
6218.214172
 21
3549.375951
 31
0.0
100
AcDbText
 73
     2
  0
DIMENSION
  5
63B
100
AcDbEntity
  8
SUNPOU
100
AcDbDimension
  2
*D18
 10
6074.974996
 20
3964.423076
 30
0.0
 11
6020.974996
 21
3725.673076
 31
0.0
 70
    32
  3
SJC
100
AcDbAlignedDimension
 13
6130.542584
 23
3486.923076
 33
0.0
 14
6323.575304
 24
3964.423076
 34
0.0
 50
90.0
100
AcDbRotatedDimension
1001
ACAD
1000
DSTYLE
1002
{
1070
    78
1070
     8
1070
   140
1040
3.0
1070
   340
1005
481
1070
    74
1070
     0
1070
   172
1070
     1
1070
    73
1070
     0
1070
    77
1070
     1
1070
    40
1040
20.0
1070
   147
1040
1.2
1070
   287
1070
     5
1070
    42
1040
1.0
1070
    44
1040
1.0
1070
    43
1040
6.0
1070
   271
1070
     1
1070
   178
1070
   256
1070
   177
1070
   256
1070
   176
1070
   256
1070
   275
1070
     1
1070
    41
1040
2.0
1002
}
  0
INSERT
  5
7B6
100
AcDbEntity
  8
HATCH
100
AcDbBlockReference
  2
*X19
 10
0.0
 20
0.0
 30
0.0
1001
ACAD
1000
HATCH
1002
{
1070
    19
1000
PLAST
1040
500.0
1040
0.785398
1000
ASC_BOUNDS
1070
     2
1070
     1
1070
     4
1005
1A2
1005
1A0
1005
19F
1005
1A1
1070
     1
1070
     4
1005
1A7
1005
19D
1005
19F
1005
1A6
1000
ASC_SEEDPOINT
1011
6577.938049
1021
3341.065297
1031
0.0
1002
}
  0
DIMENSION
  5
7D3
100
AcDbEntity
  8
SUNPOU
100
AcDbDimension
  2
*D20
 10
6612.375304
 20
2926.963045
 30
0.0
 11
6462.375304
 21
2988.957859
 31
0.0
 70
   160
  1
□<>
  3
SJC
100
AcDbAlignedDimension
 13
6312.375304
 23
3086.923076
 33
0.0
 14
6612.375304
 24
3086.923076
 34
0.0
100
AcDbRotatedDimension
1001
ACAD
1000
DSTYLE
1002
{
1070
    78
1070
     8
1070
   140
1040
3.0
1070
   340
1005
481
1070
    74
1070
     0
1070
   172
1070
     1
1070
    73
1070
     0
1070
    77
1070
     1
1070
    40
1040
20.0
1070
   147
1040
1.2
1070
   287
1070
     5
1070
    42
1040
1.0
1070
    44
1040
1.0
1070
    43
1040
6.0
1070
   271
1070
     1
1070
   178
1070
   256
1070
   177
1070
   256
1070
   176
1070
   256
1070
   275
1070
     1
1070
    41
1040
2.0
1002
}
  0
LINE
  5
83A
100
AcDbEntity
  8
SUNPOU
  6
BYBLOCK
100
AcDbLine
 10
6372.475304
 20
4311.923076
 30
0.0
 11
6054.974996
 21
4311.923076
 31
0.0
  0
LINE
  5
83C
100
AcDbEntity
  8
SUNPOU
  6
BYBLOCK
100
AcDbLine
 10
6074.974996
 20
4351.923076
 30
0.0
 11
6074.974996
 21
4391.923076
 31
0.0
  0
MTEXT
  5
83D
100
AcDbEntity
  8
SUNPOU
  6
BYBLOCK
100
AcDbMText
 10
6154.615073
 20
4305.969468
 30
0.0
 40
60.0
 41
0.0
 71
     5
 72
     1
  1
\A1;37.5
  7
KANJI08
 11
0.0
 21
1.0
 31
0.0
  0
POINT
  5
841
100
AcDbEntity
  8
DEFPOINTS
  6
BYBLOCK
 62
     0
100
AcDbPoint
 10
6323.575304
 20
4274.423076
 30
0.0
  0
POINT
  5
842
100
AcDbEntity
  8
DEFPOINTS
  6
BYBLOCK
 62
     0
100
AcDbPoint
 10
6392.475304
 20
4311.923076
 30
0.0
  0
LINE
  5
844
100
AcDbEntity
  8
SUNPOU
  6
BYBLOCK
100
AcDbLine
 10
6054.974996
 20
4311.923076
 30
0.0
 11
6054.974996
 21
4311.923076
 31
0.0
  0
LINE
  5
845
100
AcDbEntity
  8
SUNPOU
  6
BYBLOCK
100
AcDbLine
 10
6442.375304
 20
4381.923076
 30
0.0
 11
6054.974996
 21
4381.923076
 31
0.0
  0
LINE
  5
847
100
AcDbEntity
  8
SUNPOU
  6
BYBLOCK
100
AcDbLine
 10
6074.974996
 20
4421.923076
 30
0.0
 11
6074.974996
 21
4599.637362
 31
0.0
  0
LINE
  5
848
100
AcDbEntity
  8
SUNPOU
  6
BYBLOCK
100
AcDbLine
 10
6074.974996
 20
4274.423076
 30
0.0
 11
6074.974996
 21
4381.923076
 31
0.0
  0
SOLID
  5
84A
100
AcDbEntity
  8
SUNPOU
  6
BYBLOCK
100
AcDbTrace
 10
6068.30833
 20
4421.923076
 30
0.0
 11
6081.641663
 21
4421.923076
 31
0.0
 12
6074.974996
 22
4381.923076
 32
0.0
 13
6074.974996
 23
4381.923076
 33
0.0
  0
MTEXT
  5
84B
100
AcDbEntity
  8
SUNPOU
  6
BYBLOCK
100
AcDbMText
 10
6014.974996
 20
4530.780219
 30
0.0
 40
60.0
 41
0.0
 71
     5
 72
     1
  1
\A1;70
  7
KANJI08
 11
0.0
 21
1.0
 31
0.0
  0
POINT
  5
84D
100
AcDbEntity
  8
DEFPOINTS
  6
BYBLOCK
 62
     0
100
AcDbPoint
 10
6462.375304
 20
4381.923076
 30
0.0
  0
POINT
  5
84E
100
AcDbEntity
  8
SUNPOU
  6
BYBLOCK
 62
     0
100
AcDbPoint
 10
6074.974996
 20
4381.923076
 30
0.0
  0
POLYLINE
  5
84F
100
AcDbEntity
  8
SUNPOU
100
AcDb2dPolyline
 66
     1
 10
0.0
 20
0.0
 30
0.0
 70
     1
 40
10.0
 41
10.0
  0
VERTEX
  5
850
100
AcDbEntity
  8
SUNPOU
100
AcDbVertex
100
AcDb2dVertex
 10
6069.974996
 20
4311.923076
 30
0.0
 42
1.0
  0
VERTEX
  5
851
100
AcDbEntity
  8
SUNPOU
100
AcDbVertex
100
AcDb2dVertex
 10
6079.974996
 20
4311.923076
 30
0.0
 42
1.0
  0
SEQEND
  5
852
100
AcDbEntity
  8
SUNPOU
  0
INSERT
  5
87D
100
AcDbEntity
  8
SUNPOU
100
AcDbBlockReference
  2
B0040021
 10
6173.564325
 20
3486.923076
 30
0.0
  0
SOLID
  5
91A
100
AcDbEntity
  8
MOJI
  6
CONTINUOUS
100
AcDbTrace
 10
1220.453834
 20
4320.490843
 30
0.0
 11
1213.23009
 21
4331.697774
 31
0.0
 12
1183.22117
 22
4304.423076
 32
0.0
 13
1183.22117
 23
4304.423076
 33
0.0
  0
LINE
  5
91B
100
AcDbEntity
  8
MOJI
  6
CONTINUOUS
100
AcDbLine
 10
1216.841962
 20
4326.094308
 30
0.0
 11
1429.960322
 21
4463.465768
 31
0.0
  0
DIMENSION
  5
940
100
AcDbEntity
  8
SUNPOU
100
AcDbDimension
  2
*D22
 10
1481.6
 20
2343.055886
 30
0.0
 11
1451.150558
 21
2409.650855
 31
0.0
 70
   160
  1
32
  3
SJC
100
AcDbAlignedDimension
 13
1419.6
 23
2075.384615
 33
0.0
 14
1481.6
 24
2057.064194
 34
0.0
100
AcDbRotatedDimension
1001
ACAD
1000
DSTYLE
1002
{
1070
    78
1070
     8
1070
   140
1040
3.0
1070
   340
1005
481
1070
    74
1070
     0
1070
   172
1070
     1
1070
    73
1070
     0
1070
    77
1070
     1
1070
    40
1040
20.0
1070
   144
1040
0.5
1070
   147
1040
1.2
1070
   287
1070
     5
1070
    42
1040
1.0
1070
    44
1040
1.0
1070
    43
1040
6.0
1070
   271
1070
     1
1070
   178
1070
   256
1070
   177
1070
   256
1070
   176
1070
   256
1070
   275
1070
     1
1070
    41
1040
2.0
1002
}
  0
TEXT
  5
A6C
100
AcDbEntity
  8
INFORMATION
100
AcDbText
 10
1.0
 20
1.0
 30
0.0
 40
0.8
  1
VERSION=3.0
100
AcDbText
  0
ENDSEC
  0
SECTION
  2
OBJECTS
  0
DICTIONARY
  5
C
100
AcDbDictionary
  3
ACAD_GROUP
350
D
  3
ACAD_MLINESTYLE
350
E
  0
DICTIONARY
  5
D
102
{ACAD_REACTORS
330
C
102
}
100
AcDbDictionary
  0
DICTIONARY
  5
E
102
{ACAD_REACTORS
330
C
102
}
100
AcDbDictionary
  3
STANDARD
350
1B
  0
MLINESTYLE
  5
1B
102
{ACAD_REACTORS
330
E
102
}
100
AcDbMlineStyle
  2
STANDARD
 70
     0
  3

 62
     0
 51
90.0
 52
90.0
 71
     2
 49
0.5
 62
   256
  6
BYLAYER
 49
-0.5
 62
   256
  6
BYLAYER
  0
ENDSEC
  0
EOF
