  0
SECTION
  2
HEADER
  9
$ACADVER
  1
AC1009
  9
$INSBASE
 10
0.0
 20
0.0
 30
0.0
  9
$EXTMIN
 10
-0.7058929444392561
 20
-0.1203104429660016
 30
0.0
  9
$EXTMAX
 10
4019.2941070555598
 20
2744.879689557034
 30
0.0
  9
$LIMMIN
 10
0.0
 20
0.0
  9
$LIMMAX
 10
4200.0
 20
2970.0
  9
$ORTHOMODE
 70
     1
  9
$REGENMODE
 70
     1
  9
$FILLMODE
 70
     1
  9
$QTEXTMODE
 70
     0
  9
$MIRRTEXT
 70
     0
  9
$DRAGMODE
 70
     2
  9
$LTSCALE
 40
100.0
  9
$OSMODE
 70
    37
  9
$ATTMODE
 70
     1
  9
$TEXTSIZE
 40
30.0
  9
$TRACEWID
 40
1.0
  9
$TEXTSTYLE
  7
EXT08
  9
$CLAYER
  8
0
  9
$CELTYPE
  6
BYLAYER
  9
$CECOLOR
 62
   256
  9
$DIMSCALE
 40
10.0
  9
$DIMASZ
 40
2.0
  9
$DIMEXO
 40
1.0
  9
$DIMDLI
 40
6.0
  9
$DIMRND
 40
0.0
  9
$DIMDLE
 40
0.0
  9
$DIMEXE
 40
1.0
  9
$DIMTP
 40
0.0
  9
$DIMTM
 40
0.0
  9
$DIMTXT
 40
3.0
  9
$DIMCEN
 40
0.09
  9
$DIMTSZ
 40
0.0
  9
$DIMTOL
 70
     0
  9
$DIMLIM
 70
     0
  9
$DIMTIH
 70
     0
  9
$DIMTOH
 70
     0
  9
$DIMSE1
 70
     0
  9
$DIMSE2
 70
     0
  9
$DIMTAD
 70
     1
  9
$DIMZIN
 70
     8
  9
$DIMBLK
  1

  9
$DIMASO
 70
     1
  9
$DIMSHO
 70
     1
  9
$DIMPOST
  1

  9
$DIMAPOST
  1

  9
$DIMALT
 70
     0
  9
$DIMALTD
 70
     2
  9
$DIMALTF
 40
25.399999999999999
  9
$DIMLFAC
 40
1.0
  9
$DIMTOFL
 70
     1
  9
$DIMTVP
 40
0.0
  9
$DIMTIX
 70
     0
  9
$DIMSOXD
 70
     0
  9
$DIMSAH
 70
     0
  9
$DIMBLK1
  1

  9
$DIMBLK2
  1

  9
$DIMSTYLE
  2
SJC
  9
$DIMCLRD
 70
     0
  9
$DIMCLRE
 70
     0
  9
$DIMCLRT
 70
     0
  9
$DIMTFAC
 40
1.0
  9
$DIMGAP
 40
1.1999999999999991
  9
$LUNITS
 70
     2
  9
$LUPREC
 70
     2
  9
$SKETCHINC
 40
1.0
  9
$FILLETRAD
 40
1.0
  9
$AUNITS
 70
     0
  9
$AUPREC
 70
     0
  9
$MENU
  1
.
  9
$ELEVATION
 40
0.0
  9
$PELEVATION
 40
0.0
  9
$THICKNESS
 40
0.0
  9
$LIMCHECK
 70
     0
  9
$BLIPMODE
 70
     0
  9
$CHAMFERA
 40
0.0
  9
$CHAMFERB
 40
0.0
  9
$SKPOLY
 70
     0
  9
$TDCREATE
 40
2453122.4465482058
  9
$TDUPDATE
 40
2456388.8616134962
  9
$TDINDWG
 40
1.3240050115999999
  9
$TDUSRTIMER
 40
1.324004838
  9
$USRTIMER
 70
     1
  9
$ANGBASE
 50
0.0
  9
$ANGDIR
 70
     0
  9
$PDMODE
 70
    33
  9
$PDSIZE
 40
5.0
  9
$PLINEWID
 40
0.0
  9
$COORDS
 70
     1
  9
$SPLFRAME
 70
     0
  9
$SPLINETYPE
 70
     6
  9
$SPLINESEGS
 70
     8
  9
$ATTDIA
 70
     0
  9
$ATTREQ
 70
     1
  9
$HANDLING
 70
     1
  9
$HANDSEED
  5
1CA38
  9
$SURFTAB1
 70
     6
  9
$SURFTAB2
 70
     6
  9
$SURFTYPE
 70
     6
  9
$SURFU
 70
     6
  9
$SURFV
 70
     6
  9
$UCSNAME
  2

  9
$UCSORG
 10
0.0
 20
0.0
 30
0.0
  9
$UCSXDIR
 10
1.0
 20
0.0
 30
0.0
  9
$UCSYDIR
 10
0.0
 20
1.0
 30
0.0
  9
$PUCSNAME
  2

  9
$PUCSORG
 10
0.0
 20
0.0
 30
0.0
  9
$PUCSXDIR
 10
1.0
 20
0.0
 30
0.0
  9
$PUCSYDIR
 10
0.0
 20
1.0
 30
0.0
  9
$USERI1
 70
     3
  9
$USERI2
 70
    10
  9
$USERI3
 70
     0
  9
$USERI4
 70
     0
  9
$USERI5
 70
     0
  9
$USERR1
 40
0.0
  9
$USERR2
 40
0.0
  9
$USERR3
 40
0.0
  9
$USERR4
 40
0.0
  9
$USERR5
 40
0.0
  9
$WORLDVIEW
 70
     1
  9
$SHADEDGE
 70
     3
  9
$SHADEDIF
 70
    70
  9
$TILEMODE
 70
     1
  9
$MAXACTVP
 70
    48
  9
$PLIMCHECK
 70
     0
  9
$PEXTMIN
 10
25.699999999999989
 20
19.5
 30
0.0
  9
$PEXTMAX
 10
231.30000000000001
 20
175.5
 30
0.0
  9
$PLIMMIN
 10
-20.0
 20
-7.5
  9
$PLIMMAX
 10
277.0
 20
202.5
  9
$UNITMODE
 70
     0
  9
$VISRETAIN
 70
     1
  9
$PLINEGEN
 70
     0
  9
$PSLTSCALE
 70
     1
  0
ENDSEC
  0
SECTION
  2
TABLES
  0
TABLE
  2
VPORT
 70
     2
  0
VPORT
  2
*ACTIVE
 70
     0
 10
0.0
 20
0.0
 11
1.0
 21
1.0
 12
3267.3177124932449
 22
1155.943762763987
 13
0.0
 23
0.0
 14
10.0
 24
10.0
 15
10.0
 25
10.0
 16
0.0
 26
0.0
 36
1.0
 17
0.0
 27
0.0
 37
0.0
 40
4640.7277219556354
 41
1.9010526315789471
 42
50.0
 43
0.0
 44
0.0
 50
0.0
 51
0.0
 71
     0
 72
   100
 73
     1
 74
     3
 75
     0
 76
     0
 77
     0
 78
     0
  0
ENDTAB
  0
TABLE
  2
LTYPE
 70
     4
  0
LTYPE
  2
CONTINUOUS
 70
     0
  3
Solid line
 72
    65
 73
     0
 40
0.0
  0
LTYPE
  2
CENTER
 70
     0
  3
____ _ ____ _ ____ _ ____ _ ____ _ ____ _ ____ 
 72
    65
 73
     4
 40
2.0
 49
1.25
 49
-0.25
 49
0.25
 49
-0.25
  0
LTYPE
  2
HIDDEN
 70
     0
  3
__ __ __ __ __ __ __ __ __ __ __ __ __ __ __ __
 72
    65
 73
     2
 40
0.375
 49
0.25
 49
-0.125
  0
LTYPE
  2
PHANTOM
 70
     0
  3
______  __  __  ______  __  __  ______  __  __ 
 72
    65
 73
     6
 40
2.5
 49
1.25
 49
-0.25
 49
0.25
 49
-0.25
 49
0.25
 49
-0.25
  0
ENDTAB
  0
TABLE
  2
LAYER
 70
    15
  0
LAYER
  2
0
 70
     0
 62
     7
  6
CONTINUOUS
  0
LAYER
  2
ZWAKU
 70
     1
 62
    -7
  6
CONTINUOUS
  0
LAYER
  2
CENTER
 70
     0
 62
     3
  6
CENTER
  0
LAYER
  2
HASEN
 70
     0
 62
     7
  6
HIDDEN
  0
LAYER
  2
KASOU
 70
     0
 62
     2
  6
PHANTOM
  0
LAYER
  2
MOJI
 70
     0
 62
     6
  6
CONTINUOUS
  0
LAYER
  2
WAKU
 70
     0
 62
     5
  6
CONTINUOUS
  0
LAYER
  2
HOJO
 70
     0
 62
    -8
  6
CONTINUOUS
  0
LAYER
  2
SUNPOU
 70
     0
 62
     4
  6
CONTINUOUS
  0
LAYER
  2
SJC
 70
     0
 62
     1
  6
CONTINUOUS
  0
LAYER
  2
INFORMATION
 70
     1
 62
     7
  6
CONTINUOUS
  0
LAYER
  2
SJC2
 70
     0
 62
     7
  6
CONTINUOUS
  0
LAYER
  2
MOJI2
 70
     0
 62
     1
  6
CONTINUOUS
  0
LAYER
  2
HATCH
 70
     0
 62
     2
  6
CONTINUOUS
  0
LAYER
  2
DEFPOINTS
 70
     0
 62
     7
  6
CONTINUOUS
  0
ENDTAB
  0
TABLE
  2
STYLE
 70
     3
  0
STYLE
  2
STANDARD
 70
     0
 40
0.0
 41
1.0
 50
0.0
 71
     0
 42
3.0
  3
txt
  4

  0
STYLE
  2
EXT08
 70
     0
 40
0.0
 41
0.8
 50
0.0
 71
     0
 42
30.0
  3
ROMANS.shx
  4
EXTFONT.shx
  0
STYLE
  2
MOJI1
 70
     0
 40
0.0
 41
0.8
 50
0.0
 71
     0
 42
3.0
  3
ROMANS
  4
EXTFONT
  0
ENDTAB
  0
TABLE
  2
VIEW
 70
     0
  0
ENDTAB
  0
TABLE
  2
UCS
 70
     0
  0
ENDTAB
  0
TABLE
  2
APPID
 70
     2
  0
APPID
  2
ACAD
 70
     0
  0
APPID
  2
ACAD_PSEXT
 70
     0
  0
ENDTAB
  0
TABLE
  2
DIMSTYLE
 70
     2
  0
DIMSTYLE
  2
STANDARD
 70
     0
  3

  4

  5

  6

  7

 40
1.0
 41
0.18
 42
0.0625
 43
0.38
 44
0.18
 45
0.0
 46
0.0
 47
0.0
 48
0.0
140
0.18
141
0.09
142
0.0
143
25.399999999999999
144
1.0
145
0.0
146
1.0
147
0.09
 71
     0
 72
     0
 73
     1
 74
     1
 75
     0
 76
     0
 77
     0
 78
     0
170
     0
171
     2
172
     0
173
     0
174
     0
175
     0
176
     0
177
     0
178
     0
  0
DIMSTYLE
  2
SJC
 70
     0
  3

  4

  5

  6

  7

 40
1.0
 41
0.18
 42
0.0625
 43
0.38
 44
0.18
 45
0.0
 46
0.0
 47
0.0
 48
0.0
140
0.18
141
0.09
142
0.0
143
25.399999999999999
144
1.0
145
0.0
146
1.0
147
0.09
 71
     0
 72
     0
 73
     1
 74
     1
 75
     0
 76
     0
 77
     0
 78
     0
170
     0
171
     2
172
     0
173
     0
174
     0
175
     0
176
     0
177
     0
178
     0
  0
ENDTAB
  0
ENDSEC
  0
SECTION
  2
BLOCKS
  0
BLOCK
  8
0
  2
$MODEL_SPACE
 70
     0
 10
0.0
 20
0.0
 30
0.0
  3
$MODEL_SPACE
  1

  0
ENDBLK
  5
21
  8
0
  0
BLOCK
 67
     1
  8
0
  2
$PAPER_SPACE
 70
     0
 10
0.0
 20
0.0
 30
0.0
  3
$PAPER_SPACE
  1

  0
ENDBLK
  5
1D
 67
     1
  8
0
  0
BLOCK
  8
0
  2
SYSTEMA3
 70
     0
 10
0.0
 20
0.0
 30
0.0
  3
SYSTEMA3
  1

  0
POLYLINE
  5
3B
  8
ZWAKU
 66
     1
 10
0.0
 20
0.0
 30
0.0
 70
     1
  0
VERTEX
  5
1C85C
  8
ZWAKU
 10
0.0
 20
0.0
 30
0.0
  0
VERTEX
  5
1C85D
  8
ZWAKU
 10
0.0
 20
274.5
 30
0.0
  0
VERTEX
  5
1C85E
  8
ZWAKU
 10
402.0
 20
274.5
 30
0.0
  0
VERTEX
  5
1C85F
  8
ZWAKU
 10
402.0
 20
0.0
 30
0.0
  0
SEQEND
  5
1C860
  8
ZWAKU
  0
ENDBLK
  5
3D
  8
0
  0
BLOCK
  8
0
  2
CALCOMP_TECHJET720A3
 70
     0
 10
0.0
 20
0.0
 30
0.0
  3
CALCOMP_TECHJET720A3
  1

  0
POLYLINE
  5
5B
  8
ZWAKU
 62
     2
 66
     1
 10
0.0
 20
0.0
 30
0.0
 70
     1
  0
VERTEX
  5
1C861
  8
ZWAKU
 62
     2
 10
0.0
 20
0.0
 30
0.0
  0
VERTEX
  5
1C862
  8
ZWAKU
 62
     2
 10
0.0
 20
267.0
 30
0.0
  0
VERTEX
  5
1C863
  8
ZWAKU
 62
     2
 10
370.0
 20
267.0
 30
0.0
  0
VERTEX
  5
1C864
  8
ZWAKU
 62
     2
 10
370.0
 20
0.0
 30
0.0
  0
SEQEND
  5
1C865
  8
ZWAKU
 62
     2
  0
ENDBLK
  5
5D
  8
0
  0
BLOCK
  8
0
  2
GL
 70
     0
 10
0.0
 20
0.0
 30
0.0
  3
GL
  1

  0
LINE
  5
17EC2
  8
SUNPOU
 10
2.8284271247462121
 20
0.0
 30
0.0
 11
1.4142135623728791
 21
-1.414213562373106
 31
0.0
  0
LINE
  5
17EC3
  8
SUNPOU
 10
4.9497474683057581
 20
0.0
 30
0.0
 11
2.474873734152879
 21
-2.474873734152879
 31
0.0
  0
LINE
  5
17EC4
  8
SUNPOU
 10
-2.121320343559546
 20
-2.121320343559546
 30
0.0
 11
-0.707106781186667
 21
-3.535533905932652
 31
0.0
  0
LINE
  5
17EC5
  8
SUNPOU
 10
-1.0606601717799999
 20
-1.060660171779773
 30
0.0
 11
1.4142135623728791
 21
-3.535533905932652
 31
0.0
  0
TEXT
  5
17EC6
  8
SUNPOU
 10
-3.2571428571428571
 20
0.9172380209058701
 30
0.0
 40
3.0
  1
G.L.
 41
0.8
  7
MOJI1
 72
     4
 11
0.0
 21
2.4172380209058701
 31
0.0
  0
LINE
  5
17EC7
  8
SUNPOU
 10
7.0710678118653041
 20
0.0
 30
0.0
 11
3.535533905932879
 21
-3.535533905932652
 31
0.0
  0
LINE
  5
17EC8
  8
SUNPOU
 10
0.0
 20
0.0
 30
0.0
 11
3.5355339059324251
 21
-3.535533905932652
 31
0.0
  0
LINE
  5
17EC9
  8
SUNPOU
 10
0.0
 20
0.0
 30
0.0
 11
-3.5355339059324251
 21
-3.535533905932652
 31
0.0
  0
ENDBLK
  5
17ECA
  8
0
  0
BLOCK
  8
0
  2
*D4
 70
     1
 10
0.0
 20
0.0
 30
0.0
  3
*D4
  1

  0
LINE
  5
1C890
  8
SUNPOU
 62
     0
 10
459.23142073162478
 20
2249.6479670114122
 30
0.0
 11
371.84429899027879
 21
2249.6479670114122
 31
0.0
  0
LINE
  5
1C891
  8
SUNPOU
 62
     0
 10
459.23142073162671
 20
1939.647967011412
 30
0.0
 11
371.84429899027867
 21
1939.647967011412
 31
0.0
  0
LINE
  5
1C892
  8
SUNPOU
 62
     0
 10
381.84429899027879
 20
2229.6479670114131
 30
0.0
 11
381.84429899027867
 21
1959.647967011412
 31
0.0
  0
SOLID
  5
1C893
  8
SUNPOU
 62
     0
 10
378.51096565694547
 20
2229.6479670114131
 30
0.0
 11
385.1776323236121
 21
2229.6479670114131
 31
0.0
 12
381.84429899027879
 22
2249.6479670114122
 32
0.0
 13
381.84429899027879
 23
2249.6479670114122
 33
0.0
  0
SOLID
  5
1C894
  8
SUNPOU
 62
     0
 10
378.51096565694542
 20
1959.647967011412
 30
0.0
 11
385.1776323236121
 21
1959.647967011412
 31
0.0
 12
381.84429899027867
 22
1939.647967011412
 32
0.0
 13
381.84429899027867
 23
1939.647967011412
 33
0.0
  0
TEXT
  8
SUNPOU
  40
30
  5
1CA25
  62
0
  72
0
  71
0
 10
294.844
 20
2041.55
 30
0.000000
  1
310
  7
EXT08
  0
POINT
  5
1C896
  8
DEFPOINTS
 62
     0
 10
469.23142073162489
 20
2249.6479670114122
 30
0.0
  0
POINT
  5
1C897
  8
DEFPOINTS
 62
     0
 10
469.2314207316266
 20
1939.647967011412
 30
0.0
  0
POINT
  5
1C898
  8
DEFPOINTS
 62
     0
 10
381.84429899027867
 20
1939.647967011412
 30
0.0
  0
ENDBLK
  5
1959E
  8
0
  0
BLOCK
  8
0
  2
*D5
 70
     1
 10
0.0
 20
0.0
 30
0.0
  3
*D5
  1

  0
LINE
  5
1C899
  8
SUNPOU
 62
     0
 10
457.23142073162489
 20
2247.6479670114122
 30
0.0
 11
457.23142073162489
 21
2413.6242740015468
 31
0.0
  0
LINE
  5
1C89A
  8
SUNPOU
 62
     0
 10
617.23142073162853
 20
2247.6479670114122
 30
0.0
 11
617.23142073162853
 21
2413.6242740015468
 31
0.0
  0
LINE
  5
1C89B
  8
SUNPOU
 62
     0
 10
477.23142073162489
 20
2403.6242740015468
 30
0.0
 11
597.23142073162853
 21
2403.6242740015468
 31
0.0
  0
SOLID
  5
1C89C
  8
SUNPOU
 62
     0
 10
477.23142073162489
 20
2406.9576073348799
 30
0.0
 11
477.23142073162489
 21
2400.2909406682138
 31
0.0
 12
457.23142073162489
 22
2403.6242740015468
 32
0.0
 13
457.23142073162489
 23
2403.6242740015468
 33
0.0
  0
SOLID
  5
1C89D
  8
SUNPOU
 62
     0
 10
597.23142073162853
 20
2406.9576073348799
 30
0.0
 11
597.23142073162853
 21
2400.2909406682138
 31
0.0
 12
617.23142073162853
 22
2403.6242740015468
 32
0.0
 13
617.23142073162853
 23
2403.6242740015468
 33
0.0
  0
TEXT
  8
SUNPOU
  40
30
  5
1CA26
  62
0
  72
0
  71
0
 10
477.231
 20
2377.52
 30
0.000000
  1
160
  7
EXT08
  0
POINT
  5
1C89F
  8
DEFPOINTS
 62
     0
 10
457.23142073162489
 20
2237.6479670114122
 30
0.0
  0
POINT
  5
1C8A0
  8
DEFPOINTS
 62
     0
 10
617.23142073162853
 20
2237.6479670114122
 30
0.0
  0
POINT
  5
1C8A1
  8
DEFPOINTS
 62
     0
 10
617.23142073162853
 20
2403.6242740015468
 30
0.0
  0
ENDBLK
  5
195AA
  8
0
  0
BLOCK
  8
0
  2
*D6
 70
     1
 10
0.0
 20
0.0
 30
0.0
  3
*D6
  1

  0
LINE
  5
1C8A2
  8
SUNPOU
 62
     0
 10
492.68142073162318
 20
2299.6479670114131
 30
0.0
 11
492.68142073162318
 21
2357.9946414491501
 31
0.0
  0
LINE
  5
1C8A3
  8
SUNPOU
 62
     0
 10
580.18142073162585
 20
2299.6479670114131
 30
0.0
 11
580.18142073162585
 21
2357.9946414491501
 31
0.0
  0
LINE
  5
1C8A4
  8
SUNPOU
 62
     0
 10
512.68142073162323
 20
2347.9946414491501
 30
0.0
 11
560.18142073162585
 21
2347.9946414491501
 31
0.0
  0
TEXT
  8
SUNPOU
  40
30
  5
1CA27
  62
0
  72
0
  71
0
 10
476.570
 20
2329.50
 30
0.000000
  1
φ89
  7
EXT08
  0
SOLID
  5
1C8A6
  8
SUNPOU
 62
     0
 10
512.68142073162323
 20
2351.327974782484
 30
0.0
 11
512.68142073162323
 21
2344.6613081158171
 31
0.0
 12
492.68142073162318
 22
2347.9946414491501
 32
0.0
 13
492.68142073162318
 23
2347.9946414491501
 33
0.0
  0
SOLID
  5
1C8A7
  8
SUNPOU
 62
     0
 10
560.18142073162585
 20
2351.327974782484
 30
0.0
 11
560.18142073162585
 21
2344.6613081158171
 31
0.0
 12
580.18142073162585
 22
2347.9946414491501
 32
0.0
 13
580.18142073162585
 23
2347.9946414491501
 33
0.0
  0
POINT
  5
1C8A8
  8
DEFPOINTS
 62
     0
 10
492.68142073162318
 20
2289.6479670114131
 30
0.0
  0
POINT
  5
1C8A9
  8
DEFPOINTS
 62
     0
 10
580.18142073162585
 20
2289.6479670114131
 30
0.0
  0
POINT
  5
1C8AA
  8
DEFPOINTS
 62
     0
 10
580.18142073162585
 20
2347.9946414491501
 30
0.0
  0
ENDBLK
  5
195B6
  8
0
  0
BLOCK
  8
0
  2
*D7
 70
     1
 10
0.0
 20
0.0
 30
0.0
  3
*D7
  1

  0
LINE
  5
1C8AB
  8
SUNPOU
 62
     0
 10
459.23142073162478
 20
2249.6479670114122
 30
0.0
 11
227.26448017749769
 21
2249.6479670114122
 31
0.0
  0
LINE
  5
1C8AC
  8
SUNPOU
 62
     0
 10
262.10351895608892
 20
449.64796701141222
 30
0.0
 11
227.26448017749729
 21
449.64796701141222
 31
0.0
  0
LINE
  5
1C8AD
  8
SUNPOU
 62
     0
 10
237.26448017749769
 20
2229.6479670114131
 30
0.0
 11
237.26448017749729
 21
469.64796701141222
 31
0.0
  0
SOLID
  5
1C8AE
  8
SUNPOU
 62
     0
 10
233.9311468441644
 20
2229.6479670114131
 30
0.0
 11
240.597813510831
 21
2229.6479670114131
 31
0.0
 12
237.26448017749769
 22
2249.6479670114122
 32
0.0
 13
237.26448017749769
 23
2249.6479670114122
 33
0.0
  0
SOLID
  5
1C8AF
  8
SUNPOU
 62
     0
 10
233.931146844164
 20
469.64796701141222
 30
0.0
 11
240.5978135108306
 21
469.64796701141222
 31
0.0
 12
237.26448017749729
 22
449.64796701141222
 32
0.0
 13
237.26448017749729
 23
449.64796701141222
 33
0.0
  0
TEXT
  8
SUNPOU
  40
30
  5
1CA28
  62
0
  72
0
  71
0
 10
150.264
 20
1296.55
 30
0.000000
  1
1800
  7
EXT08
  0
POINT
  5
1C8B1
  8
DEFPOINTS
 62
     0
 10
469.23142073162489
 20
2249.6479670114122
 30
0.0
  0
POINT
  5
1C8B2
  8
DEFPOINTS
 62
     0
 10
272.10351895608892
 20
449.64796701141222
 30
0.0
  0
POINT
  5
1C8B3
  8
DEFPOINTS
 62
     0
 10
237.26448017749729
 20
449.64796701141222
 30
0.0
  0
ENDBLK
  5
19629
  8
0
  0
BLOCK
  8
0
  2
*D8
 70
     1
 10
0.0
 20
0.0
 30
0.0
  3
*D8
  1

  0
LINE
  5
1C763
  8
SUNPOU
 10
3323.7254620774538
 20
921.8120740245289
 30
0.0
 11
3298.131306232016
 21
939.13804675507777
 31
0.0
  0
LINE
  5
1C764
  8
SUNPOU
 10
3326.3041388132592
 20
925.62132937068532
 30
0.0
 11
3300.7099829678209
 21
942.94730210123384
 31
0.0
  0
LINE
  5
1C765
  8
SUNPOU
 10
3295.2006581332039
 20
916.9702479983016
 30
0.0
 11
3283.9890201514431
 21
900.40826823240604
 31
0.0
  0
LINE
  5
1C766
  8
SUNPOU
 10
3320.202610832529
 20
953.90346287624914
 30
0.0
 11
3381.3861209615661
 21
1044.2845524558529
 31
0.0
  0
LINE
  5
1C767
  8
SUNPOU
 10
3306.4122961149642
 20
933.53222776419761
 30
0.0
 11
3308.9909728507678
 21
937.34148311035358
 31
0.0
  0
SOLID
  5
1C768
  8
SUNPOU
 10
3292.4403281722211
 20
918.83885432859506
 30
0.0
 11
3297.9609880941871
 21
915.10164166800791
 31
0.0
 12
3306.4122961149642
 22
933.53222776419761
 32
0.0
 13
3306.4122961149642
 23
933.53222776419761
 33
0.0
  0
SOLID
  5
1C769
  8
SUNPOU
 10
3317.4422808715458
 20
955.7720692065426
 30
0.0
 11
3322.9629407935122
 21
952.03485654595545
 31
0.0
 12
3308.9909728507678
 22
937.34148311035358
 32
0.0
 13
3308.9909728507678
 23
937.34148311035358
 33
0.0
  0
INSERT
  5
1C76A
  8
0
  2
*U40
 10
0.0
 20
0.0
 30
0.0
  0
POINT
  5
1C76B
  8
DEFPOINTS
 62
     0
 10
3332.006451960403
 20
916.20625503364863
 30
0.0
  0
POINT
  5
1C76C
  8
DEFPOINTS
 62
     0
 10
3334.5851286962061
 20
920.01551037980494
 30
0.0
  0
POINT
  5
1C76D
  8
DEFPOINTS
 62
     0
 10
3308.9909728507678
 20
937.34148311035358
 30
0.0
  0
ENDBLK
  5
1995D
  8
0
  0
BLOCK
  8
0
  2
*D9
 70
     1
 10
0.0
 20
0.0
 30
0.0
  3
*D9
  1

  0
LINE
  5
1C76E
  8
SUNPOU
 10
3010.2684258233239
 20
893.75835174689541
 30
0.0
 11
2985.8577824662498
 21
910.48112852607005
 31
0.0
  0
LINE
  5
1C76F
  8
SUNPOU
 10
3012.8681694186489
 20
897.55326060463551
 30
0.0
 11
2988.4575260615738
 21
914.27603738381003
 31
0.0
  0
LINE
  5
1C770
  8
SUNPOU
 10
2982.8043513077519
 20
888.32990828518223
 30
0.0
 11
2971.5011182845979
 21
871.83030455587107
 31
0.0
  0
LINE
  5
1C771
  8
SUNPOU
 10
3008.010560949383
 20
925.12402460154431
 30
0.0
 11
3069.693918304306
 21
1015.164719238642
 31
0.0
  0
LINE
  5
1C772
  8
SUNPOU
 10
2994.107584330905
 20
904.82951201449328
 30
0.0
 11
2996.707327926229
 21
908.62442087223315
 31
0.0
  0
SOLID
  5
1C773
  8
SUNPOU
 10
2980.0544173528669
 20
890.21378045570782
 30
0.0
 11
2985.5542852626372
 21
886.44603611465675
 31
0.0
 12
2994.107584330905
 22
904.82951201449328
 32
0.0
 13
2994.107584330905
 23
904.82951201449328
 33
0.0
  0
SOLID
  5
1C774
  8
SUNPOU
 10
3005.2606269944981
 20
927.0078967720699
 30
0.0
 11
3010.7604949042679
 21
923.24015243101894
 31
0.0
 12
2996.707327926229
 22
908.62442087223315
 32
0.0
 13
2996.707327926229
 23
908.62442087223315
 33
0.0
  0
INSERT
  5
1C775
  8
0
  2
*U41
 10
0.0
 20
0.0
 30
0.0
  0
POINT
  5
1C776
  8
DEFPOINTS
 62
     0
 10
3018.51822768798
 20
888.10673523531864
 30
0.0
  0
POINT
  5
1C777
  8
DEFPOINTS
 62
     0
 10
3021.1179712833041
 20
891.90164409305885
 30
0.0
  0
POINT
  5
1C778
  8
DEFPOINTS
 62
     0
 10
2996.707327926229
 20
908.62442087223315
 30
0.0
  0
ENDBLK
  5
1996B
  8
0
  0
BLOCK
  8
0
  2
*D10
 70
     1
 10
0.0
 20
0.0
 30
0.0
  3
*D10
  1

  0
LINE
  5
1C8B4
  8
SUNPOU
 10
3215.069067810653
 20
743.46480607534465
 30
0.0
 11
3320.7948139786399
 21
899.64427526774932
 31
0.0
  0
TEXT
  8
SUNPOU
  40
30
  5
1CA29
  72
0
  71
0
 10
3184.45
 20
784.648
 30
0.000000
  1
φD
  7
EXT08
  0
SOLID
  5
1C8B6
  8
SUNPOU
 10
3212.3087378496689
 20
745.333412405638
 30
0.0
 11
3217.8293977716362
 21
741.59619974505154
 31
0.0
 12
3203.8574298288931
 22
726.90282630944785
 32
0.0
 13
3203.8574298288931
 23
726.90282630944785
 33
0.0
  0
SOLID
  5
1C8B7
  8
SUNPOU
 10
3318.0344840176572
 20
901.51288159804278
 30
0.0
 11
3323.5551439396231
 21
897.77566893745632
 31
0.0
 12
3332.0064519604002
 22
916.20625503364658
 32
0.0
 13
3332.0064519604002
 23
916.20625503364658
 33
0.0
  0
POINT
  5
1C8B8
  8
DEFPOINTS
 62
     0
 10
3332.0064519604002
 20
916.20625503364658
 30
0.0
  0
POINT
  5
1C8B9
  8
DEFPOINTS
 62
     0
 10
3203.8574298288931
 20
726.90282630944785
 30
0.0
  0
ENDBLK
  5
19974
  8
0
  0
BLOCK
  8
0
  2
*D11
 70
     1
 10
0.0
 20
0.0
 30
0.0
  3
*D11
  1

  0
LINE
  5
1C8C2
  8
SUNPOU
 62
     0
 10
3445.9321527588659
 20
622.47337587198115
 30
0.0
 11
3526.2593673289289
 21
622.47337587198115
 31
0.0
  0
LINE
  5
1C8C3
  8
SUNPOU
 62
     0
 10
3445.9321527588659
 20
542.47337587198126
 30
0.0
 11
3526.2593673289289
 21
542.47337587198126
 31
0.0
  0
LINE
  5
1C8C4
  8
SUNPOU
 62
     0
 10
3516.2593673289289
 20
602.47337587198115
 30
0.0
 11
3516.2593673289289
 21
562.47337587198115
 31
0.0
  0
SOLID
  5
1C8C5
  8
SUNPOU
 62
     0
 10
3512.9260339955949
 20
602.47337587198115
 30
0.0
 11
3519.5927006622619
 21
602.47337587198115
 31
0.0
 12
3516.2593673289289
 22
622.47337587198115
 32
0.0
 13
3516.2593673289289
 23
622.47337587198115
 33
0.0
  0
SOLID
  5
1C8C6
  8
SUNPOU
 62
     0
 10
3512.9260339955949
 20
562.47337587198115
 30
0.0
 11
3519.5927006622619
 21
562.47337587198115
 31
0.0
 12
3516.2593673289289
 22
542.47337587198126
 32
0.0
 13
3516.2593673289289
 23
542.47337587198126
 33
0.0
  0
TEXT
  8
SUNPOU
  40
30
  5
1CA2A
  62
0
  72
0
  71
0
 10
3429.26
 20
529.373
 30
0.000000
  1
40
  7
EXT08
  0
POINT
  5
1C8C8
  8
DEFPOINTS
 62
     0
 10
3435.9321527588659
 20
622.47337587198115
 30
0.0
  0
POINT
  5
1C8C9
  8
DEFPOINTS
 62
     0
 10
3435.9321527588659
 20
542.47337587198126
 30
0.0
  0
POINT
  5
1C8CA
  8
DEFPOINTS
 62
     0
 10
3516.2593673289289
 20
542.47337587198126
 30
0.0
  0
ENDBLK
  5
19A1B
  8
0
  0
BLOCK
  8
0
  2
*D12
 70
     1
 10
0.0
 20
0.0
 30
0.0
  3
*D12
  1

  0
LINE
  5
1C8CB
  8
SUNPOU
 62
     0
 10
3019.4202039055958
 20
864.60331280173057
 30
0.0
 11
2919.3321523812301
 21
769.30576854136848
 31
0.0
  0
TEXT
  8
SUNPOU
  40
30
  5
1CA2B
  62
0
  72
0
  71
0
 10
2925.72
 20
738.743
 30
0.000000
  1
%%c89.1
  7
EXT08
  0
SOLID
  5
1C8CD
  8
SUNPOU
 62
     0
 10
3017.1216620758719
 20
867.01739991037425
 30
0.0
 11
3021.7187457353202
 21
862.18922569308722
 31
0.0
 12
3033.9047265574582
 22
878.39456378007526
 32
0.0
 13
3033.9047265574582
 23
878.39456378007526
 33
0.0
  0
SOLID
  5
1C8CE
  8
SUNPOU
 62
     0
 10
2917.0336105515048
 20
771.71985565001205
 30
0.0
 11
2921.6306942109541
 21
766.89168143272491
 31
0.0
 12
2904.8476297293669
 22
755.51451756302367
 32
0.0
 13
2904.8476297293669
 23
755.51451756302367
 33
0.0
  0
POINT
  5
1C8CF
  8
DEFPOINTS
 62
     0
 10
2904.8476297293669
 20
755.51451756302367
 30
0.0
  0
POINT
  5
1C8D0
  8
DEFPOINTS
 62
     0
 10
3033.9047265574582
 20
878.39456378007526
 30
0.0
  0
ENDBLK
  5
19B5D
  8
0
  0
BLOCK
  8
0
  2
*D13
 70
     1
 10
0.0
 20
0.0
 30
0.0
  3
*D13
  1

  0
LINE
  5
1C901
  8
SUNPOU
 62
     0
 10
459.23142073162671
 20
1939.6479670114111
 30
0.0
 11
371.84429899027867
 21
1939.6479670114111
 31
0.0
  0
LINE
  5
1C902
  8
SUNPOU
 62
     0
 10
459.23142073162671
 20
1429.647967011412
 30
0.0
 11
371.84429899027862
 21
1429.647967011412
 31
0.0
  0
LINE
  5
1C903
  8
SUNPOU
 62
     0
 10
381.84429899027867
 20
1919.6479670114111
 30
0.0
 11
381.84429899027862
 21
1449.647967011412
 31
0.0
  0
SOLID
  5
1C904
  8
SUNPOU
 62
     0
 10
378.51096565694542
 20
1919.6479670114111
 30
0.0
 11
385.17763232361199
 21
1919.6479670114111
 31
0.0
 12
381.84429899027867
 22
1939.6479670114111
 32
0.0
 13
381.84429899027867
 23
1939.6479670114111
 33
0.0
  0
SOLID
  5
1C905
  8
SUNPOU
 62
     0
 10
378.5109656569453
 20
1449.647967011412
 30
0.0
 11
385.17763232361187
 21
1449.647967011412
 31
0.0
 12
381.84429899027862
 22
1429.647967011412
 32
0.0
 13
381.84429899027862
 23
1429.647967011412
 33
0.0
  0
TEXT
  8
SUNPOU
  40
30
  5
1CA2C
  62
0
  72
0
  71
0
 10
294.844
 20
1631.55
 30
0.000000
  1
510
  7
EXT08
  0
POINT
  5
1C907
  8
DEFPOINTS
 62
     0
 10
469.2314207316266
 20
1939.6479670114111
 30
0.0
  0
POINT
  5
1C908
  8
DEFPOINTS
 62
     0
 10
469.2314207316266
 20
1429.647967011412
 30
0.0
  0
POINT
  5
1C909
  8
DEFPOINTS
 62
     0
 10
381.84429899027862
 20
1429.647967011412
 30
0.0
  0
ENDBLK
  5
1B822
  8
0
  0
BLOCK
  8
0
  2
*D14
 70
     1
 10
0.0
 20
0.0
 30
0.0
  3
*D14
  1

  0
LINE
  5
1C90A
  8
SUNPOU
 62
     0
 10
459.23142073162478
 20
2249.6479670114122
 30
0.0
 11
299.83832106489552
 21
2249.6479670114122
 31
0.0
  0
LINE
  5
1C90B
  8
SUNPOU
 62
     0
 10
459.23142073162671
 20
1429.647967011412
 30
0.0
 11
299.8383210648953
 21
1429.647967011412
 31
0.0
  0
LINE
  5
1C90C
  8
SUNPOU
 62
     0
 10
309.83832106489552
 20
2229.6479670114122
 30
0.0
 11
309.8383210648953
 21
1449.647967011412
 31
0.0
  0
SOLID
  5
1C90D
  8
SUNPOU
 62
     0
 10
306.50498773156221
 20
2229.6479670114122
 30
0.0
 11
313.17165439822878
 21
2229.6479670114122
 31
0.0
 12
309.83832106489552
 22
2249.6479670114122
 32
0.0
 13
309.83832106489552
 23
2249.6479670114122
 33
0.0
  0
SOLID
  5
1C90E
  8
SUNPOU
 62
     0
 10
306.50498773156198
 20
1449.647967011412
 30
0.0
 11
313.17165439822872
 21
1449.647967011412
 31
0.0
 12
309.8383210648953
 22
1429.647967011412
 32
0.0
 13
309.8383210648953
 23
1429.647967011412
 33
0.0
  0
TEXT
  8
SUNPOU
  40
30
  5
1CA2D
  62
0
  72
0
  71
0
 10
222.838
 20
1786.55
 30
0.000000
  1
820
  7
EXT08
  0
POINT
  5
1C910
  8
DEFPOINTS
 62
     0
 10
469.23142073162489
 20
2249.6479670114122
 30
0.0
  0
POINT
  5
1C911
  8
DEFPOINTS
 62
     0
 10
469.2314207316266
 20
1429.647967011412
 30
0.0
  0
POINT
  5
1C912
  8
DEFPOINTS
 62
     0
 10
309.8383210648953
 20
1429.647967011412
 30
0.0
  0
ENDBLK
  5
1B82F
  8
0
  0
BLOCK
  8
0
  2
*D15
 70
     1
 10
0.0
 20
0.0
 30
0.0
  3
*D15
  1

  0
LINE
  5
1C925
  8
SUNPOU
 62
     0
 10
1944.8581407805509
 20
1785.9670748361491
 30
0.0
 11
1841.5291739027771
 21
1785.9670748361491
 31
0.0
  0
LINE
  5
1C926
  8
SUNPOU
 62
     0
 10
1944.858140780555
 20
1165.9670748361491
 30
0.0
 11
1841.5291739027771
 21
1165.9670748361491
 31
0.0
  0
LINE
  5
1C927
  8
SUNPOU
 62
     0
 10
1851.5291739027771
 20
1765.9670748361491
 30
0.0
 11
1851.5291739027771
 21
1185.9670748361491
 31
0.0
  0
SOLID
  5
1C928
  8
SUNPOU
 62
     0
 10
1848.195840569444
 20
1765.9670748361491
 30
0.0
 11
1854.8625072361101
 21
1765.9670748361491
 31
0.0
 12
1851.5291739027771
 22
1785.9670748361491
 32
0.0
 13
1851.5291739027771
 23
1785.9670748361491
 33
0.0
  0
SOLID
  5
1C929
  8
SUNPOU
 62
     0
 10
1848.195840569444
 20
1185.9670748361491
 30
0.0
 11
1854.8625072361101
 21
1185.9670748361491
 31
0.0
 12
1851.5291739027771
 22
1165.9670748361491
 32
0.0
 13
1851.5291739027771
 23
1165.9670748361491
 33
0.0
  0
TEXT
  8
SUNPOU
  40
30
  5
1CA2E
  62
0
  72
0
  71
0
 10
1764.53
 20
1422.87
 30
0.000000
  1
310
  7
EXT08
  0
POINT
  5
1C92B
  8
DEFPOINTS
 62
     0
 10
1954.8581407805509
 20
1785.9670748361491
 30
0.0
  0
POINT
  5
1C92C
  8
DEFPOINTS
 62
     0
 10
1954.858140780555
 20
1165.9670748361491
 30
0.0
  0
POINT
  5
1C92D
  8
DEFPOINTS
 62
     0
 10
1851.5291739027771
 20
1165.9670748361491
 30
0.0
  0
ENDBLK
  5
1BA93
  8
0
  0
BLOCK
  8
0
  2
*D16
 70
     1
 10
0.0
 20
0.0
 30
0.0
  3
*D16
  1

  0
LINE
  5
1C92E
  8
SUNPOU
 62
     0
 10
1930.8581407805509
 20
1771.9670748361491
 30
0.0
 11
1930.8581407805509
 21
1958.4795113068319
 31
0.0
  0
LINE
  5
1C92F
  8
SUNPOU
 62
     0
 10
2250.8581407805591
 20
1771.9670748361491
 30
0.0
 11
2250.8581407805591
 21
1958.4795113068319
 31
0.0
  0
LINE
  5
1C930
  8
SUNPOU
 62
     0
 10
1950.8581407805509
 20
1948.4795113068319
 30
0.0
 11
2230.8581407805591
 21
1948.4795113068319
 31
0.0
  0
SOLID
  5
1C931
  8
SUNPOU
 62
     0
 10
1950.8581407805509
 20
1951.8128446401649
 30
0.0
 11
1950.8581407805509
 21
1945.1461779734991
 31
0.0
 12
1930.8581407805509
 22
1948.4795113068319
 32
0.0
 13
1930.8581407805509
 23
1948.4795113068319
 33
0.0
  0
SOLID
  5
1C932
  8
SUNPOU
 62
     0
 10
2230.8581407805591
 20
1951.8128446401649
 30
0.0
 11
2230.8581407805591
 21
1945.1461779734991
 31
0.0
 12
2250.8581407805591
 22
1948.4795113068319
 32
0.0
 13
2250.8581407805591
 23
1948.4795113068319
 33
0.0
  0
TEXT
  8
SUNPOU
  40
30
  5
1CA2F
  62
0
  72
0
  71
0
 10
2030.86
 20
1922.38
 30
0.000000
  1
160
  7
EXT08
  0
POINT
  5
1C934
  8
DEFPOINTS
 62
     0
 10
1930.8581407805509
 20
1761.96707483615
 30
0.0
  0
POINT
  5
1C935
  8
DEFPOINTS
 62
     0
 10
2250.8581407805591
 20
1761.96707483615
 30
0.0
  0
POINT
  5
1C936
  8
DEFPOINTS
 62
     0
 10
2250.8581407805591
 20
1948.4795113068319
 30
0.0
  0
ENDBLK
  5
1BA9F
  8
0
  0
BLOCK
  8
0
  2
*D17
 70
     1
 10
0.0
 20
0.0
 30
0.0
  3
*D17
  1

  0
LINE
  5
1C937
  8
SUNPOU
 62
     0
 10
1930.858140780553
 20
1295.96707483615
 30
0.0
 11
1930.858140780553
 21
1339.638748207537
 31
0.0
  0
LINE
  5
1C938
  8
SUNPOU
 62
     0
 10
1940.8581407805541
 20
1295.96707483615
 30
0.0
 11
1940.8581407805541
 21
1339.638748207537
 31
0.0
  0
LINE
  5
1C939
  8
SUNPOU
 62
     0
 10
1910.858140780553
 20
1329.638748207537
 30
0.0
 11
1890.858140780553
 21
1329.638748207537
 31
0.0
  0
LINE
  5
1C93A
  8
SUNPOU
 62
     0
 10
1960.8581407805541
 20
1329.638748207537
 30
0.0
 11
1980.8581407805541
 21
1329.638748207537
 31
0.0
  0
TEXT
  8
SUNPOU
  40
30
  5
1CA30
  62
0
  72
0
  71
0
 10
1850.34
 20
1303.42
 30
0.000000
  1
5
  7
EXT08
  0
LINE
  5
1C93C
  8
SUNPOU
 62
     0
 10
1930.858140780553
 20
1329.638748207537
 30
0.0
 11
1940.8581407805541
 21
1329.638748207537
 31
0.0
  0
SOLID
  5
1C93D
  8
SUNPOU
 62
     0
 10
1910.858140780553
 20
1332.97208154087
 30
0.0
 11
1910.858140780553
 21
1326.305414874204
 31
0.0
 12
1930.858140780553
 22
1329.638748207537
 32
0.0
 13
1930.858140780553
 23
1329.638748207537
 33
0.0
  0
SOLID
  5
1C93E
  8
SUNPOU
 62
     0
 10
1960.8581407805541
 20
1332.97208154087
 30
0.0
 11
1960.8581407805541
 21
1326.305414874204
 31
0.0
 12
1940.8581407805541
 22
1329.638748207537
 32
0.0
 13
1940.8581407805541
 23
1329.638748207537
 33
0.0
  0
POINT
  5
1C93F
  8
DEFPOINTS
 62
     0
 10
1930.858140780553
 20
1285.9670748361491
 30
0.0
  0
POINT
  5
1C940
  8
DEFPOINTS
 62
     0
 10
1940.8581407805541
 20
1285.9670748361491
 30
0.0
  0
POINT
  5
1C941
  8
DEFPOINTS
 62
     0
 10
1940.8581407805541
 20
1329.638748207537
 30
0.0
  0
ENDBLK
  5
1BAAD
  8
0
  0
BLOCK
  8
0
  2
*D18
 70
     1
 10
0.0
 20
0.0
 30
0.0
  3
*D18
  1

  0
LINE
  5
1C942
  8
SUNPOU
 62
     0
 10
2566.9210927522558
 20
1510.206973523414
 30
0.0
 11
2566.9210927522558
 21
1598.502617798056
 31
0.0
  0
LINE
  5
1C943
  8
SUNPOU
 62
     0
 10
2554.9210927522558
 20
1510.206973523409
 30
0.0
 11
2554.9210927522558
 21
1598.502617798056
 31
0.0
  0
LINE
  5
1C944
  8
SUNPOU
 62
     0
 10
2586.9210927522558
 20
1588.502617798056
 30
0.0
 11
2606.9210927522549
 21
1588.502617798056
 31
0.0
  0
LINE
  5
1C945
  8
SUNPOU
 62
     0
 10
2534.9210927522558
 20
1588.502617798056
 30
0.0
 11
2514.9210927522549
 21
1588.502617798056
 31
0.0
  0
TEXT
  8
SUNPOU
  40
30
  5
1CA31
  62
0
  72
0
  71
0
 10
2467.45
 20
1558.79
 30
0.000000
  1
6
  7
EXT08
  0
LINE
  5
1C947
  8
SUNPOU
 62
     0
 10
2566.9210927522558
 20
1588.502617798056
 30
0.0
 11
2554.9210927522558
 21
1588.502617798056
 31
0.0
  0
SOLID
  5
1C948
  8
SUNPOU
 62
     0
 10
2586.9210927522558
 20
1591.835951131389
 30
0.0
 11
2586.9210927522558
 21
1585.169284464723
 31
0.0
 12
2566.9210927522558
 22
1588.502617798056
 32
0.0
 13
2566.9210927522558
 23
1588.502617798056
 33
0.0
  0
SOLID
  5
1C949
  8
SUNPOU
 62
     0
 10
2534.9210927522558
 20
1591.835951131389
 30
0.0
 11
2534.9210927522558
 21
1585.169284464723
 31
0.0
 12
2554.9210927522558
 22
1588.502617798056
 32
0.0
 13
2554.9210927522558
 23
1588.502617798056
 33
0.0
  0
POINT
  5
1C94A
  8
DEFPOINTS
 62
     0
 10
2566.9210927522558
 20
1500.206973523414
 30
0.0
  0
POINT
  5
1C94B
  8
DEFPOINTS
 62
     0
 10
2554.9210927522558
 20
1500.206973523409
 30
0.0
  0
POINT
  5
1C94C
  8
DEFPOINTS
 62
     0
 10
2554.9210927522558
 20
1588.502617798056
 30
0.0
  0
ENDBLK
  5
1BABB
  8
0
  0
BLOCK
  8
0
  2
*D19
 70
     1
 10
0.0
 20
0.0
 30
0.0
  3
*D19
  1

  0
LINE
  5
1C955
  8
SUNPOU
 62
     0
 10
1944.8581407805409
 20
1165.96707483615
 30
0.0
 11
1841.5291739027771
 21
1165.96707483615
 31
0.0
  0
LINE
  5
1C956
  8
SUNPOU
 62
     0
 10
1944.858140780553
 20
145.9670748361491
 30
0.0
 11
1841.5291739027771
 21
145.9670748361491
 31
0.0
  0
LINE
  5
1C957
  8
SUNPOU
 62
     0
 10
1851.5291739027771
 20
1145.96707483615
 30
0.0
 11
1851.5291739027771
 21
165.9670748361491
 31
0.0
  0
SOLID
  5
1C958
  8
SUNPOU
 62
     0
 10
1848.195840569444
 20
1145.96707483615
 30
0.0
 11
1854.8625072361101
 21
1145.96707483615
 31
0.0
 12
1851.5291739027771
 22
1165.96707483615
 32
0.0
 13
1851.5291739027771
 23
1165.96707483615
 33
0.0
  0
SOLID
  5
1C959
  8
SUNPOU
 62
     0
 10
1848.195840569444
 20
165.9670748361491
 30
0.0
 11
1854.8625072361101
 21
165.9670748361491
 31
0.0
 12
1851.5291739027771
 22
145.9670748361491
 32
0.0
 13
1851.5291739027771
 23
145.9670748361491
 33
0.0
  0
TEXT
  8
SUNPOU
  40
30
  5
1CA32
  62
0
  72
0
  71
0
 10
1764.53
 20
602.867
 30
0.000000
  1
510
  7
EXT08
  0
POINT
  5
1C95B
  8
DEFPOINTS
 62
     0
 10
1954.8581407805409
 20
1165.96707483615
 30
0.0
  0
POINT
  5
1C95C
  8
DEFPOINTS
 62
     0
 10
1954.858140780553
 20
145.9670748361491
 30
0.0
  0
POINT
  5
1C95D
  8
DEFPOINTS
 62
     0
 10
1851.5291739027771
 20
145.9670748361491
 30
0.0
  0
ENDBLK
  5
1BAC7
  8
0
  0
BLOCK
  8
0
  2
*D20
 70
     1
 10
0.0
 20
0.0
 30
0.0
  3
*D20
  1

  0
LINE
  5
1C95E
  8
SUNPOU
 62
     0
 10
1944.8581407805509
 20
1785.9670748361491
 30
0.0
 11
1750.376075002082
 21
1785.9670748361491
 31
0.0
  0
LINE
  5
1C95F
  8
SUNPOU
 62
     0
 10
1934.858140780553
 20
145.9670748361491
 30
0.0
 11
1750.376075002082
 21
145.9670748361491
 31
0.0
  0
LINE
  5
1C960
  8
SUNPOU
 62
     0
 10
1760.376075002082
 20
1765.9670748361491
 30
0.0
 11
1760.376075002082
 21
165.9670748361491
 31
0.0
  0
SOLID
  5
1C961
  8
SUNPOU
 62
     0
 10
1757.0427416687489
 20
1765.9670748361491
 30
0.0
 11
1763.709408335415
 21
1765.9670748361491
 31
0.0
 12
1760.376075002082
 22
1785.9670748361491
 32
0.0
 13
1760.376075002082
 23
1785.9670748361491
 33
0.0
  0
SOLID
  5
1C962
  8
SUNPOU
 62
     0
 10
1757.0427416687489
 20
165.9670748361491
 30
0.0
 11
1763.709408335415
 21
165.9670748361491
 31
0.0
 12
1760.376075002082
 22
145.9670748361491
 32
0.0
 13
1760.376075002082
 23
145.9670748361491
 33
0.0
  0
TEXT
  8
SUNPOU
  40
30
  5
1CA33
  62
0
  72
0
  71
0
 10
1673.38
 20
912.867
 30
0.000000
  1
820
  7
EXT08
  0
POINT
  5
1C964
  8
DEFPOINTS
 62
     0
 10
1954.8581407805509
 20
1785.9670748361491
 30
0.0
  0
POINT
  5
1C965
  8
DEFPOINTS
 62
     0
 10
1944.858140780553
 20
145.9670748361491
 30
0.0
  0
POINT
  5
1C966
  8
DEFPOINTS
 62
     0
 10
1760.376075002082
 20
145.9670748361491
 30
0.0
  0
ENDBLK
  5
1BAD3
  8
0
  0
BLOCK
  8
0
  2
*D21
 70
     1
 10
0.0
 20
0.0
 30
0.0
  3
*D21
  1

  0
LINE
  5
1C96F
  8
SUNPOU
 62
     0
 10
459.23142073162478
 20
2249.6479670114122
 30
0.0
 11
371.8442989902789
 21
2249.6479670114122
 31
0.0
  0
LINE
  5
1C970
  8
SUNPOU
 62
     0
 10
482.68142073162329
 20
2289.6479670114131
 30
0.0
 11
371.8442989902789
 21
2289.6479670114131
 31
0.0
  0
LINE
  5
1C971
  8
SUNPOU
 62
     0
 10
381.84429899027879
 20
2229.6479670114122
 30
0.0
 11
381.84429899027879
 21
2209.6479670114122
 31
0.0
  0
LINE
  5
1C972
  8
SUNPOU
 62
     0
 10
381.84429899027879
 20
2309.6479670114131
 30
0.0
 11
381.84429899027879
 21
2329.6479670114131
 31
0.0
  0
TEXT
  8
SUNPOU
  40
30
  5
1CA34
  62
0
  72
0
  71
0
 10
278.844
 20
2216.55
 30
0.000000
  1
40
  7
EXT08
  0
LINE
  5
1C974
  8
SUNPOU
 62
     0
 10
381.84429899027879
 20
2249.6479670114122
 30
0.0
 11
381.84429899027879
 21
2289.6479670114131
 31
0.0
  0
SOLID
  5
1C975
  8
SUNPOU
 62
     0
 10
378.51096565694547
 20
2229.6479670114122
 30
0.0
 11
385.1776323236121
 21
2229.6479670114122
 31
0.0
 12
381.84429899027879
 22
2249.6479670114122
 32
0.0
 13
381.84429899027879
 23
2249.6479670114122
 33
0.0
  0
SOLID
  5
1C976
  8
SUNPOU
 62
     0
 10
378.51096565694547
 20
2309.6479670114131
 30
0.0
 11
385.1776323236121
 21
2309.6479670114131
 31
0.0
 12
381.84429899027879
 22
2289.6479670114131
 32
0.0
 13
381.84429899027879
 23
2289.6479670114131
 33
0.0
  0
POINT
  5
1C977
  8
DEFPOINTS
 62
     0
 10
469.23142073162489
 20
2249.6479670114122
 30
0.0
  0
POINT
  5
1C978
  8
DEFPOINTS
 62
     0
 10
492.68142073162329
 20
2289.6479670114131
 30
0.0
  0
POINT
  5
1C979
  8
DEFPOINTS
 62
     0
 10
381.84429899027879
 20
2289.6479670114131
 30
0.0
  0
ENDBLK
  5
1C2AA
  8
0
  0
BLOCK
  8
0
  2
*D22
 70
     1
 10
0.0
 20
0.0
 30
0.0
  3
*D22
  1

  0
LINE
  5
1C97A
  8
SUNPOU
 62
     0
 10
526.43142073162562
 20
2309.6479670114072
 30
0.0
 11
154.8482353901185
 21
2309.6479670114072
 31
0.0
  0
LINE
  5
1C97B
  8
SUNPOU
 62
     0
 10
262.10351895608892
 20
449.64796701141222
 30
0.0
 11
154.84823539011811
 21
449.64796701141222
 31
0.0
  0
LINE
  5
1C97C
  8
SUNPOU
 62
     0
 10
164.8482353901185
 20
2289.6479670114072
 30
0.0
 11
164.84823539011811
 21
469.64796701141222
 31
0.0
  0
SOLID
  5
1C97D
  8
SUNPOU
 62
     0
 10
161.5149020567851
 20
2289.6479670114072
 30
0.0
 11
168.18156872345179
 21
2289.6479670114072
 31
0.0
 12
164.8482353901185
 22
2309.6479670114072
 32
0.0
 13
164.8482353901185
 23
2309.6479670114072
 33
0.0
  0
SOLID
  5
1C97E
  8
SUNPOU
 62
     0
 10
161.51490205678471
 20
469.64796701141222
 30
0.0
 11
168.18156872345139
 21
469.64796701141222
 31
0.0
 12
164.84823539011811
 22
449.64796701141222
 32
0.0
 13
164.84823539011811
 23
449.64796701141222
 33
0.0
  0
TEXT
  8
SUNPOU
  40
30
  5
1CA35
  62
0
  72
0
  71
0
 10
77.8482
 20
1326.55
 30
0.000000
  1
1860
  7
EXT08
  0
POINT
  5
1C980
  8
DEFPOINTS
 62
     0
 10
536.43142073162551
 20
2309.6479670114072
 30
0.0
  0
POINT
  5
1C981
  8
DEFPOINTS
 62
     0
 10
272.10351895608892
 20
449.64796701141222
 30
0.0
  0
POINT
  5
1C982
  8
DEFPOINTS
 62
     0
 10
164.84823539011811
 20
449.64796701141222
 30
0.0
  0
ENDBLK
  5
1C2B7
  8
0
  0
BLOCK
  8
0
  2
*D23
 70
     1
 10
0.0
 20
0.0
 30
0.0
  3
*D23
  1

  0
LINE
  5
1CA01
  8
SUNPOU
 62
     0
 10
1253.38235386117
 20
1879.6479670114099
 30
0.0
 11
1027.4255366724781
 21
1879.6479670114099
 31
0.0
  0
LINE
  5
1CA02
  8
SUNPOU
 62
     0
 10
1253.38235386117
 20
479.64796701141211
 30
0.0
 11
1027.4255366724769
 21
479.64796701141222
 31
0.0
  0
LINE
  5
1CA03
  8
SUNPOU
 62
     0
 10
1037.4255366724781
 20
1859.6479670114099
 30
0.0
 11
1037.4255366724769
 21
499.64796701141211
 31
0.0
  0
SOLID
  5
1CA04
  8
SUNPOU
 62
     0
 10
1034.0922033391439
 20
1859.6479670114099
 30
0.0
 11
1040.7588700058111
 21
1859.6479670114099
 31
0.0
 12
1037.4255366724781
 22
1879.6479670114099
 32
0.0
 13
1037.4255366724781
 23
1879.6479670114099
 33
0.0
  0
SOLID
  5
1CA05
  8
SUNPOU
 62
     0
 10
1034.0922033391439
 20
499.64796701141211
 30
0.0
 11
1040.75887000581
 21
499.64796701141211
 31
0.0
 12
1037.4255366724769
 22
479.64796701141222
 32
0.0
 13
1037.4255366724769
 23
479.64796701141222
 33
0.0
  0
TEXT
  8
SUNPOU
  40
30
  5
1CA36
  62
0
  72
0
  71
0
 10
950.426
 20
1126.55
 30
0.000000
  1
1400
  7
EXT08
  0
POINT
  5
1CA07
  8
DEFPOINTS
 62
     0
 10
1263.38235386117
 20
1879.6479670114099
 30
0.0
  0
POINT
  5
1CA08
  8
DEFPOINTS
 62
     0
 10
1263.38235386117
 20
479.64796701141211
 30
0.0
  0
POINT
  5
1CA09
  8
DEFPOINTS
 62
     0
 10
1037.4255366724769
 20
479.64796701141222
 30
0.0
  0
ENDBLK
  5
1C5CF
  8
0
  0
BLOCK
  8
0
  2
*D24
 70
     1
 10
0.0
 20
0.0
 30
0.0
  3
*D24
  1

  0
LINE
  5
1CA0A
  8
SUNPOU
 62
     0
 10
1253.38235386117
 20
479.64796701141222
 30
0.0
 11
1027.4255366724769
 21
479.64796701141228
 31
0.0
  0
LINE
  5
1CA0B
  8
SUNPOU
 62
     0
 10
1063.3483181628919
 20
449.64796701141222
 30
0.0
 11
1027.4255366724769
 21
449.64796701141222
 31
0.0
  0
LINE
  5
1CA0C
  8
SUNPOU
 62
     0
 10
1037.4255366724769
 20
499.64796701141228
 30
0.0
 11
1037.4255366724769
 21
519.64796701141222
 31
0.0
  0
LINE
  5
1CA0D
  8
SUNPOU
 62
     0
 10
1037.4255366724769
 20
429.64796701141222
 30
0.0
 11
1037.4255366724769
 21
409.64796701141211
 31
0.0
  0
TEXT
  8
SUNPOU
  40
30
  5
1CA37
  62
0
  72
0
  71
0
 10
934.426
 20
411.548
 30
0.000000
  1
30
  7
EXT08
  0
LINE
  5
1CA0F
  8
SUNPOU
 62
     0
 10
1037.4255366724769
 20
479.64796701141228
 30
0.0
 11
1037.4255366724769
 21
449.64796701141222
 31
0.0
  0
SOLID
  5
1CA10
  8
SUNPOU
 62
     0
 10
1034.0922033391439
 20
499.64796701141228
 30
0.0
 11
1040.75887000581
 21
499.64796701141228
 31
0.0
 12
1037.4255366724769
 22
479.64796701141228
 32
0.0
 13
1037.4255366724769
 23
479.64796701141228
 33
0.0
  0
SOLID
  5
1CA11
  8
SUNPOU
 62
     0
 10
1034.0922033391439
 20
429.64796701141222
 30
0.0
 11
1040.75887000581
 21
429.64796701141222
 31
0.0
 12
1037.4255366724769
 22
449.64796701141222
 32
0.0
 13
1037.4255366724769
 23
449.64796701141222
 33
0.0
  0
POINT
  5
1CA12
  8
DEFPOINTS
 62
     0
 10
1263.38235386117
 20
479.64796701141222
 30
0.0
  0
POINT
  5
1CA13
  8
DEFPOINTS
 62
     0
 10
1073.3483181628919
 20
449.64796701141222
 30
0.0
  0
POINT
  5
1CA14
  8
DEFPOINTS
 62
     0
 10
1037.4255366724769
 20
449.64796701141222
 30
0.0
  0
ENDBLK
  5
1C622
  8
0
  0
BLOCK
  8
0
  2
*U25
 70
     1
 10
0.0
 20
0.0
 30
0.0
  3
*U25
  1

  0
SOLID
  5
1C8BB
  8
SUNPOU
 10
3427.297285453712
 20
861.72506877147578
 30
0.0
 11
3410.9321527588659
 21
849.7545406715476
 31
0.0
 12
3422.530350248609
 22
866.38562380224084
 32
0.0
 13
3422.530350248609
 23
866.38562380224084
 33
0.0
  0
POLYLINE
  5
1C8BC
  8
SUNPOU
 66
     1
 10
0.0
 20
0.0
 30
0.0
  0
VERTEX
  5
1C8BD
  8
SUNPOU
 10
3424.9138178511598
 20
864.05534628685825
 30
0.0
  0
VERTEX
  5
1C8BE
  8
SUNPOU
 10
3479.8876825991729
 20
920.28402495238799
 30
0.0
  0
SEQEND
  5
1C8BF
  8
SUNPOU
  0
ENDBLK
  5
1C8C1
  8
0
  0
BLOCK
  8
0
  2
*U26
 70
     1
 10
0.0
 20
0.0
 30
0.0
  3
*U26
  1

  0
SOLID
  5
1C8D2
  8
SUNPOU
 10
552.42673014400305
 20
1332.850705830311
 30
0.0
 11
536.4314207316271
 21
1320.3903210885189
 31
0.0
 12
547.52091296221238
 22
1337.3648394374709
 32
0.0
 13
547.52091296221238
 23
1337.3648394374709
 33
0.0
  0
POLYLINE
  5
1C8D3
  8
SUNPOU
 66
     1
 10
0.0
 20
0.0
 30
0.0
  0
VERTEX
  5
1C8D4
  8
SUNPOU
 10
549.97382155310765
 20
1335.107772633891
 30
0.0
  0
VERTEX
  5
1C8D5
  8
SUNPOU
 10
602.28013810973675
 20
1391.9526179155339
 30
0.0
  0
SEQEND
  5
1C8D6
  8
SUNPOU
  0
ENDBLK
  5
1C8D8
  8
0
  0
BLOCK
  8
0
  2
*U27
 70
     1
 10
0.0
 20
0.0
 30
0.0
  3
*U27
  1

  0
SOLID
  5
1C8DA
  8
SUNPOU
 10
630.41490332063074
 20
1798.576700259335
 30
0.0
 11
611.90363215179389
 21
1790.303614328142
 31
0.0
 12
626.73113106355004
 22
1804.1331619394341
 32
0.0
 13
626.73113106355004
 23
1804.1331619394341
 33
0.0
  0
POLYLINE
  5
1C8DB
  8
SUNPOU
 66
     1
 10
0.0
 20
0.0
 30
0.0
  0
VERTEX
  5
1C8DC
  8
SUNPOU
 10
628.57301719209045
 20
1801.3549310993851
 30
0.0
  0
VERTEX
  5
1C8DD
  8
SUNPOU
 10
721.69555919787206
 20
1863.092464173425
 30
0.0
  0
SEQEND
  5
1C8DE
  8
SUNPOU
  0
ENDBLK
  5
1C8E0
  8
0
  0
BLOCK
  8
0
  2
*U28
 70
     1
 10
0.0
 20
0.0
 30
0.0
  3
*U28
  1

  0
SOLID
  5
1C8E2
  8
SUNPOU
 10
557.04401952199248
 20
1228.1656986820831
 30
0.0
 11
541.04871010961665
 21
1215.7053139402919
 31
0.0
 12
552.13820234020181
 22
1232.6798322892439
 32
0.0
 13
552.13820234020181
 23
1232.6798322892439
 33
0.0
  0
POLYLINE
  5
1C8E3
  8
SUNPOU
 66
     1
 10
0.0
 20
0.0
 30
0.0
  0
VERTEX
  5
1C8E4
  8
SUNPOU
 10
554.59111093109709
 20
1230.4227654856629
 30
0.0
  0
VERTEX
  5
1C8E5
  8
SUNPOU
 10
606.89742748772619
 20
1287.2676107673069
 30
0.0
  0
SEQEND
  5
1C8E6
  8
SUNPOU
  0
ENDBLK
  5
1C8E8
  8
0
  0
BLOCK
  8
0
  2
*U29
 70
     1
 10
0.0
 20
0.0
 30
0.0
  3
*U29
  1

  0
SOLID
  5
1C8EA
  8
SUNPOU
 10
1331.9765539157149
 20
2317.2632681580621
 30
0.0
 11
1313.827697332368
 21
2308.2227971621328
 31
0.0
 12
1328.063489993611
 22
2322.6607096988268
 32
0.0
 13
1328.063489993611
 23
2322.6607096988268
 33
0.0
  0
POLYLINE
  5
1C8EB
  8
SUNPOU
 66
     1
 10
0.0
 20
0.0
 30
0.0
  0
VERTEX
  5
1C8EC
  8
SUNPOU
 10
1330.020021954663
 20
2319.961988928444
 30
0.0
  0
VERTEX
  5
1C8ED
  8
SUNPOU
 10
1412.5363617793921
 20
2379.7850939891482
 30
0.0
  0
SEQEND
  5
1C8EE
  8
SUNPOU
  0
ENDBLK
  5
1C8F0
  8
0
  0
BLOCK
  8
0
  2
*U30
 70
     1
 10
0.0
 20
0.0
 30
0.0
  3
*U30
  1

  0
SOLID
  5
1C8F2
  8
SUNPOU
 10
1363.295859650204
 20
2267.059156694876
 30
0.0
 11
1344.4742642775909
 21
2274.5996247666039
 31
0.0
 12
1364.724033329001
 22
2273.5710507655472
 32
0.0
 13
1364.724033329001
 23
2273.5710507655472
 33
0.0
  0
POLYLINE
  5
1C8F3
  8
SUNPOU
 66
     1
 10
0.0
 20
0.0
 30
0.0
  0
VERTEX
  5
1C8F4
  8
SUNPOU
 10
1364.009946489602
 20
2270.3151037302118
 30
0.0
  0
VERTEX
  5
1C8F5
  8
SUNPOU
 10
1443.1829287246139
 20
2252.9510667737131
 30
0.0
  0
SEQEND
  5
1C8F6
  8
SUNPOU
  0
ENDBLK
  5
1C8F8
  8
0
  0
BLOCK
  8
0
  2
*U31
 70
     1
 10
0.0
 20
0.0
 30
0.0
  3
*U31
  1

  0
SOLID
  5
1C8FA
  8
SUNPOU
 10
599.43127039461115
 20
527.30045318126986
 30
0.0
 11
583.3099181590203
 21
515.00357905785438
 31
0.0
 12
594.5716705580661
 22
531.86430395370917
 32
0.0
 13
594.5716705580661
 23
531.86430395370917
 33
0.0
  0
POLYLINE
  5
1C8FB
  8
SUNPOU
 66
     1
 10
0.0
 20
0.0
 30
0.0
  0
VERTEX
  5
1C8FC
  8
SUNPOU
 10
597.00147047633845
 20
529.58237856748963
 30
0.0
  0
VERTEX
  5
1C8FD
  8
SUNPOU
 10
649.15863553712984
 20
585.11945973909724
 30
0.0
  0
SEQEND
  5
1C8FE
  8
SUNPOU
  0
ENDBLK
  5
1C900
  8
0
  0
BLOCK
  8
0
  2
*U32
 70
     1
 10
0.0
 20
0.0
 30
0.0
  3
*U32
  1

  0
SOLID
  5
1C914
  8
SUNPOU
 10
2121.0580662080829
 20
2370.8612318955179
 30
0.0
 11
2108.7517331102958
 21
2354.7470990675479
 31
0.0
 12
2115.1666537721048
 22
2373.9814408554498
 32
0.0
 13
2115.1666537721048
 23
2373.9814408554498
 33
0.0
  0
POLYLINE
  5
1C915
  8
SUNPOU
 66
     1
 10
0.0
 20
0.0
 30
0.0
  0
VERTEX
  5
1C916
  8
SUNPOU
 10
2118.1123599900939
 20
2372.4213363754839
 30
0.0
  0
VERTEX
  5
1C917
  8
SUNPOU
 10
2146.405781054762
 20
2425.8434676677339
 30
0.0
  0
VERTEX
  5
1C918
  8
SUNPOU
 10
2352.0950639091652
 20
2425.8434676677339
 30
0.0
  0
SEQEND
  5
1C919
  8
SUNPOU
  0
ENDBLK
  5
1C91B
  8
0
  0
BLOCK
  8
0
  2
*U33
 70
     1
 10
0.0
 20
0.0
 30
0.0
  3
*U33
  1

  0
SOLID
  5
1C91D
  8
SUNPOU
 10
2006.4358395063109
 20
2309.3441859840232
 30
0.0
 11
2010.6719589460181
 21
2289.5157618609701
 31
0.0
 12
2000.2339786793591
 22
2306.8985026996279
 32
0.0
 13
2000.2339786793591
 23
2306.8985026996279
 33
0.0
  0
POLYLINE
  5
1C91E
  8
SUNPOU
 66
     1
 10
0.0
 20
0.0
 30
0.0
  0
VERTEX
  5
1C91F
  8
SUNPOU
 10
2003.334909092835
 20
2308.121344341826
 30
0.0
  0
VERTEX
  5
1C920
  8
SUNPOU
 10
1968.9490284514729
 20
2395.3184264459101
 30
0.0
  0
VERTEX
  5
1C921
  8
SUNPOU
 10
1821.229504918176
 20
2395.3184264459101
 30
0.0
  0
SEQEND
  5
1C922
  8
SUNPOU
  0
ENDBLK
  5
1C924
  8
0
  0
BLOCK
  8
0
  2
*U34
 70
     1
 10
0.0
 20
0.0
 30
0.0
  3
*U34
  1

  0
SOLID
  5
1C94E
  8
SUNPOU
 10
2681.6809868788632
 20
1211.7785551804261
 30
0.0
 11
2662.1685814171619
 21
1206.2670087359811
 31
0.0
 12
2678.838733682735
 22
1217.8089814683051
 32
0.0
 13
2678.838733682735
 23
1217.8089814683051
 33
0.0
  0
POLYLINE
  5
1C94F
  8
SUNPOU
 66
     1
 10
0.0
 20
0.0
 30
0.0
  0
VERTEX
  5
1C950
  8
SUNPOU
 10
2680.2598602807989
 20
1214.7937683243649
 30
0.0
  0
VERTEX
  5
1C951
  8
SUNPOU
 10
2799.704134769042
 20
1271.090098752243
 30
0.0
  0
SEQEND
  5
1C952
  8
SUNPOU
  0
ENDBLK
  5
1C954
  8
0
  0
BLOCK
  8
0
  2
*U35
 70
     1
 10
0.0
 20
0.0
 30
0.0
  3
*U35
  1

  0
SOLID
  5
1C968
  8
SUNPOU
 10
630.41490332063074
 20
2133.175131889328
 30
0.0
 11
611.90363215179389
 21
2124.9020459581352
 31
0.0
 12
626.73113106355004
 22
2138.7315935694269
 32
0.0
 13
626.73113106355004
 23
2138.7315935694269
 33
0.0
  0
POLYLINE
  5
1C969
  8
SUNPOU
 66
     1
 10
0.0
 20
0.0
 30
0.0
  0
VERTEX
  5
1C96A
  8
SUNPOU
 10
628.57301719209045
 20
2135.9533627293781
 30
0.0
  0
VERTEX
  5
1C96B
  8
SUNPOU
 10
721.69555919787206
 20
2197.6908958034178
 30
0.0
  0
SEQEND
  5
1C96C
  8
SUNPOU
  0
ENDBLK
  5
1C96E
  8
0
  0
BLOCK
  8
0
  2
*X36
 70
     1
 10
0.0
 20
0.0
 30
0.0
  3
*X36
  1

  0
LINE
  5
1C984
  8
0
 62
     0
 10
580.18142073162551
 20
2284.520281889434
 30
0.0
 11
575.0537356096454
 21
2289.647967011414
 31
0.0
  0
LINE
  5
1C985
  8
0
 62
     0
 10
580.18142073162539
 20
2275.540025768365
 30
0.0
 11
566.07347948857625
 21
2289.647967011414
 31
0.0
  0
LINE
  5
1C986
  8
0
 62
     0
 10
580.18142073162574
 20
2266.559769647296
 30
0.0
 11
557.09322336750711
 21
2289.6479670114149
 31
0.0
  0
LINE
  5
1C987
  8
0
 62
     0
 10
580.18142073162608
 20
2257.5795135262269
 30
0.0
 11
548.11296724643807
 21
2289.6479670114149
 31
0.0
  0
LINE
  5
1C988
  8
0
 62
     0
 10
579.13271112537132
 20
2249.6479670114122
 30
0.0
 11
539.13271112536893
 21
2289.6479670114149
 31
0.0
  0
LINE
  5
1C989
  8
0
 62
     0
 10
570.15245500430183
 20
2249.6479670114122
 30
0.0
 11
530.15245500429955
 21
2289.6479670114149
 31
0.0
  0
LINE
  5
1C98A
  8
0
 62
     0
 10
561.1721988832328
 20
2249.6479670114122
 30
0.0
 11
521.17219888323064
 21
2289.6479670114149
 31
0.0
  0
LINE
  5
1C98B
  8
0
 62
     0
 10
552.19194276216365
 20
2249.6479670114122
 30
0.0
 11
512.19194276216126
 21
2289.6479670114149
 31
0.0
  0
LINE
  5
1C98C
  8
0
 62
     0
 10
543.21168664109462
 20
2249.6479670114122
 30
0.0
 11
503.21168664109229
 21
2289.647967011414
 31
0.0
  0
LINE
  5
1C98D
  8
0
 62
     0
 10
534.23143052002536
 20
2249.6479670114122
 30
0.0
 11
494.23143052002303
 21
2289.647967011414
 31
0.0
  0
LINE
  5
1C98E
  8
0
 62
     0
 10
525.25117439895621
 20
2249.6479670114122
 30
0.0
 11
492.68142073162528
 21
2282.2177206787428
 31
0.0
  0
LINE
  5
1C98F
  8
0
 62
     0
 10
516.27091827788706
 20
2249.6479670114122
 30
0.0
 11
492.68142073162528
 21
2273.2374645576738
 31
0.0
  0
LINE
  5
1C990
  8
0
 62
     0
 10
507.29066215681809
 20
2249.6479670114122
 30
0.0
 11
492.68142073162551
 21
2264.2572084366052
 31
0.0
  0
LINE
  5
1C991
  8
0
 62
     0
 10
498.31040603574871
 20
2249.6479670114122
 30
0.0
 11
492.68142073162539
 21
2255.2769523155362
 31
0.0
  0
LINE
  5
1C992
  8
0
 62
     0
 10
579.32032849254995
 20
2249.6479670114122
 30
0.0
 11
580.18142073162619
 21
2250.5090592504889
 31
0.0
  0
LINE
  5
1C993
  8
0
 62
     0
 10
570.3400723714808
 20
2249.6479670114122
 30
0.0
 11
580.18142073162608
 21
2259.489315371558
 31
0.0
  0
LINE
  5
1C994
  8
0
 62
     0
 10
561.35981625041165
 20
2249.6479670114122
 30
0.0
 11
580.18142073162608
 21
2268.469571492627
 31
0.0
  0
LINE
  5
1C995
  8
0
 62
     0
 10
552.37956012934228
 20
2249.6479670114122
 30
0.0
 11
580.18142073162585
 21
2277.449827613696
 31
0.0
  0
LINE
  5
1C996
  8
0
 62
     0
 10
543.39930400827325
 20
2249.6479670114122
 30
0.0
 11
580.18142073162574
 21
2286.430083734765
 31
0.0
  0
LINE
  5
1C997
  8
0
 62
     0
 10
534.41904788720421
 20
2249.6479670114122
 30
0.0
 11
574.41904788720615
 21
2289.647967011414
 31
0.0
  0
LINE
  5
1C998
  8
0
 62
     0
 10
525.43879176613495
 20
2249.6479670114122
 30
0.0
 11
565.43879176613723
 21
2289.647967011414
 31
0.0
  0
LINE
  5
1C999
  8
0
 62
     0
 10
516.45853564506581
 20
2249.6479670114122
 30
0.0
 11
556.45853564506797
 21
2289.6479670114149
 31
0.0
  0
LINE
  5
1C99A
  8
0
 62
     0
 10
507.47827952399672
 20
2249.6479670114122
 30
0.0
 11
547.47827952399894
 21
2289.6479670114149
 31
0.0
  0
LINE
  5
1C99B
  8
0
 62
     0
 10
498.49802340292757
 20
2249.6479670114122
 30
0.0
 11
538.49802340292979
 21
2289.6479670114149
 31
0.0
  0
LINE
  5
1C99C
  8
0
 62
     0
 10
492.68142073162591
 20
2252.8116204611802
 30
0.0
 11
529.51776728186076
 21
2289.6479670114149
 31
0.0
  0
LINE
  5
1C99D
  8
0
 62
     0
 10
492.68142073162568
 20
2261.7918765822492
 30
0.0
 11
520.53751116079138
 21
2289.6479670114149
 31
0.0
  0
LINE
  5
1C99E
  8
0
 62
     0
 10
492.68142073162551
 20
2270.7721327033182
 30
0.0
 11
511.55725503972241
 21
2289.6479670114149
 31
0.0
  0
LINE
  5
1C99F
  8
0
 62
     0
 10
492.68142073162539
 20
2279.7523888243868
 30
0.0
 11
502.57699891865309
 21
2289.647967011414
 31
0.0
  0
LINE
  5
1C9A0
  8
0
 62
     0
 10
492.68142073162528
 20
2288.7326449454558
 30
0.0
 11
493.59674279758389
 21
2289.647967011414
 31
0.0
  0
ENDBLK
  5
1C9A2
  8
0
  0
BLOCK
  8
0
  2
*X37
 70
     1
 10
0.0
 20
0.0
 30
0.0
  3
*X37
  1

  0
LINE
  5
1C9A4
  8
0
 62
     0
 10
1344.6323538611689
 20
2284.5202818894331
 30
0.0
 11
1339.5046687391889
 21
2289.6479670114131
 31
0.0
  0
LINE
  5
1C9A5
  8
0
 62
     0
 10
1344.6323538611689
 20
2275.5400257683641
 30
0.0
 11
1330.524412618119
 21
2289.6479670114131
 31
0.0
  0
LINE
  5
1C9A6
  8
0
 62
     0
 10
1344.6323538611689
 20
2266.5597696472942
 30
0.0
 11
1321.5441564970499
 21
2289.6479670114131
 31
0.0
  0
LINE
  5
1C9A7
  8
0
 62
     0
 10
1344.6323538611689
 20
2257.5795135262251
 30
0.0
 11
1312.5639003759809
 21
2289.6479670114131
 31
0.0
  0
LINE
  5
1C9A8
  8
0
 62
     0
 10
1343.5836442549139
 20
2249.6479670114109
 30
0.0
 11
1303.5836442549121
 21
2289.6479670114131
 31
0.0
  0
LINE
  5
1C9A9
  8
0
 62
     0
 10
1334.6033881338451
 20
2249.6479670114109
 30
0.0
 11
1294.6033881338431
 21
2289.6479670114131
 31
0.0
  0
LINE
  5
1C9AA
  8
0
 62
     0
 10
1325.6231320127761
 20
2249.6479670114109
 30
0.0
 11
1285.623132012774
 21
2289.6479670114131
 31
0.0
  0
LINE
  5
1C9AB
  8
0
 62
     0
 10
1316.642875891707
 20
2249.6479670114109
 30
0.0
 11
1276.642875891705
 21
2289.6479670114131
 31
0.0
  0
LINE
  5
1C9AC
  8
0
 62
     0
 10
1307.662619770638
 20
2249.6479670114099
 30
0.0
 11
1267.662619770636
 21
2289.6479670114131
 31
0.0
  0
LINE
  5
1C9AD
  8
0
 62
     0
 10
1298.682363649569
 20
2249.6479670114099
 30
0.0
 11
1258.682363649566
 21
2289.6479670114131
 31
0.0
  0
LINE
  5
1C9AE
  8
0
 62
     0
 10
1289.7021075284999
 20
2249.6479670114109
 30
0.0
 11
1257.132353861168
 21
2282.2177206787419
 31
0.0
  0
LINE
  5
1C9AF
  8
0
 62
     0
 10
1280.7218514074309
 20
2249.6479670114109
 30
0.0
 11
1257.132353861168
 21
2273.2374645576729
 31
0.0
  0
LINE
  5
1C9B0
  8
0
 62
     0
 10
1271.741595286361
 20
2249.6479670114109
 30
0.0
 11
1257.1323538611689
 21
2264.2572084366029
 31
0.0
  0
LINE
  5
1C9B1
  8
0
 62
     0
 10
1262.7613391652919
 20
2249.6479670114109
 30
0.0
 11
1257.1323538611689
 21
2255.2769523155339
 31
0.0
  0
LINE
  5
1C9B2
  8
0
 62
     0
 10
1343.7712616220931
 20
2249.6479670114109
 30
0.0
 11
1344.6323538611689
 21
2250.5090592504871
 31
0.0
  0
LINE
  5
1C9B3
  8
0
 62
     0
 10
1334.7910055010241
 20
2249.6479670114109
 30
0.0
 11
1344.6323538611689
 21
2259.4893153715561
 31
0.0
  0
LINE
  5
1C9B4
  8
0
 62
     0
 10
1325.810749379955
 20
2249.6479670114099
 30
0.0
 11
1344.6323538611689
 21
2268.4695714926252
 31
0.0
  0
LINE
  5
1C9B5
  8
0
 62
     0
 10
1316.830493258886
 20
2249.6479670114099
 30
0.0
 11
1344.6323538611689
 21
2277.4498276136942
 31
0.0
  0
LINE
  5
1C9B6
  8
0
 62
     0
 10
1307.850237137817
 20
2249.6479670114099
 30
0.0
 11
1344.6323538611689
 21
2286.4300837347628
 31
0.0
  0
LINE
  5
1C9B7
  8
0
 62
     0
 10
1298.869981016747
 20
2249.6479670114099
 30
0.0
 11
1338.86998101675
 21
2289.6479670114131
 31
0.0
  0
LINE
  5
1C9B8
  8
0
 62
     0
 10
1289.889724895678
 20
2249.6479670114099
 30
0.0
 11
1329.889724895681
 21
2289.6479670114131
 31
0.0
  0
LINE
  5
1C9B9
  8
0
 62
     0
 10
1280.909468774609
 20
2249.6479670114109
 30
0.0
 11
1320.909468774611
 21
2289.6479670114131
 31
0.0
  0
LINE
  5
1C9BA
  8
0
 62
     0
 10
1271.9292126535399
 20
2249.6479670114109
 30
0.0
 11
1311.929212653542
 21
2289.6479670114131
 31
0.0
  0
LINE
  5
1C9BB
  8
0
 62
     0
 10
1262.9489565324709
 20
2249.6479670114109
 30
0.0
 11
1302.9489565324729
 21
2289.6479670114131
 31
0.0
  0
LINE
  5
1C9BC
  8
0
 62
     0
 10
1257.1323538611689
 20
2252.8116204611779
 30
0.0
 11
1293.9687004114039
 21
2289.6479670114131
 31
0.0
  0
LINE
  5
1C9BD
  8
0
 62
     0
 10
1257.1323538611689
 20
2261.7918765822469
 30
0.0
 11
1284.9884442903351
 21
2289.6479670114131
 31
0.0
  0
LINE
  5
1C9BE
  8
0
 62
     0
 10
1257.1323538611689
 20
2270.7721327033159
 30
0.0
 11
1276.0081881692649
 21
2289.6479670114131
 31
0.0
  0
LINE
  5
1C9BF
  8
0
 62
     0
 10
1257.1323538611689
 20
2279.752388824385
 30
0.0
 11
1267.0279320481959
 21
2289.6479670114131
 31
0.0
  0
LINE
  5
1C9C0
  8
0
 62
     0
 10
1257.132353861168
 20
2288.732644945454
 30
0.0
 11
1258.0476759271271
 21
2289.6479670114131
 31
0.0
  0
ENDBLK
  5
1C9C2
  8
0
  0
BLOCK
  8
0
  2
*X38
 70
     1
 10
0.0
 20
0.0
 30
0.0
  3
*X38
  1

  0
LINE
  5
1C9C4
  8
0
 62
     0
 10
2178.3581407805532
 20
1852.717625954705
 30
0.0
 11
2165.1086918991082
 21
1865.9670748361509
 31
0.0
  0
LINE
  5
1C9C5
  8
0
 62
     0
 10
2178.3581407805532
 20
1834.7571137125669
 30
0.0
 11
2147.1481796569692
 21
1865.9670748361509
 31
0.0
  0
LINE
  5
1C9C6
  8
0
 62
     0
 10
2178.3581407805532
 20
1816.7966014704291
 30
0.0
 11
2129.1876674148311
 21
1865.9670748361509
 31
0.0
  0
LINE
  5
1C9C7
  8
0
 62
     0
 10
2178.3581407805532
 20
1798.836089228291
 30
0.0
 11
2111.2271551726931
 21
1865.9670748361509
 31
0.0
  0
LINE
  5
1C9C8
  8
0
 62
     0
 10
2173.2666429305559
 20
1785.9670748361491
 30
0.0
 11
2093.2666429305541
 21
1865.9670748361509
 31
0.0
  0
LINE
  5
1C9C9
  8
0
 62
     0
 10
2155.3061306884179
 20
1785.9670748361491
 30
0.0
 11
2075.306130688416
 21
1865.9670748361509
 31
0.0
  0
LINE
  5
1C9CA
  8
0
 62
     0
 10
2137.3456184462798
 20
1785.9670748361491
 30
0.0
 11
2057.3456184462771
 21
1865.9670748361509
 31
0.0
  0
LINE
  5
1C9CB
  8
0
 62
     0
 10
2119.3851062041408
 20
1785.9670748361491
 30
0.0
 11
2039.385106204139
 21
1865.9670748361509
 31
0.0
  0
LINE
  5
1C9CC
  8
0
 62
     0
 10
2101.4245939620032
 20
1785.9670748361491
 30
0.0
 11
2021.4245939620009
 21
1865.9670748361509
 31
0.0
  0
LINE
  5
1C9CD
  8
0
 62
     0
 10
2083.4640817198651
 20
1785.9670748361491
 30
0.0
 11
2003.4640817198631
 21
1865.9670748361509
 31
0.0
  0
LINE
  5
1C9CE
  8
0
 62
     0
 10
2065.5035694777262
 20
1785.9670748361491
 30
0.0
 11
2003.358140780552
 21
1848.1125035333239
 31
0.0
  0
LINE
  5
1C9CF
  8
0
 62
     0
 10
2047.5430572355881
 20
1785.9670748361491
 30
0.0
 11
2003.358140780552
 21
1830.1519912911849
 31
0.0
  0
LINE
  5
1C9D0
  8
0
 62
     0
 10
2029.58254499345
 20
1785.9670748361491
 30
0.0
 11
2003.358140780553
 21
1812.1914790490459
 31
0.0
  0
LINE
  5
1C9D1
  8
0
 62
     0
 10
2011.6220327513111
 20
1785.9670748361491
 30
0.0
 11
2003.358140780553
 21
1794.230966806907
 31
0.0
  0
LINE
  5
1C9D2
  8
0
 62
     0
 10
2173.1773196669142
 20
1785.9670748361491
 30
0.0
 11
2178.3581407805532
 21
1791.1478959497881
 31
0.0
  0
LINE
  5
1C9D3
  8
0
 62
     0
 10
2155.2168074247761
 20
1785.9670748361491
 30
0.0
 11
2178.3581407805532
 21
1809.1084081919271
 31
0.0
  0
LINE
  5
1C9D4
  8
0
 62
     0
 10
2137.256295182638
 20
1785.9670748361491
 30
0.0
 11
2178.3581407805532
 21
1827.0689204340649
 31
0.0
  0
LINE
  5
1C9D5
  8
0
 62
     0
 10
2119.2957829405
 20
1785.96707483615
 30
0.0
 11
2178.3581407805532
 21
1845.029432676203
 31
0.0
  0
LINE
  5
1C9D6
  8
0
 62
     0
 10
2101.335270698361
 20
1785.9670748361491
 30
0.0
 11
2178.3581407805532
 21
1862.989944918342
 31
0.0
  0
LINE
  5
1C9D7
  8
0
 62
     0
 10
2083.3747584562229
 20
1785.9670748361491
 30
0.0
 11
2163.3747584562252
 21
1865.9670748361509
 31
0.0
  0
LINE
  5
1C9D8
  8
0
 62
     0
 10
2065.414246214084
 20
1785.9670748361491
 30
0.0
 11
2145.4142462140858
 21
1865.9670748361509
 31
0.0
  0
LINE
  5
1C9D9
  8
0
 62
     0
 10
2047.4537339719459
 20
1785.9670748361491
 30
0.0
 11
2127.4537339719491
 21
1865.9670748361521
 31
0.0
  0
LINE
  5
1C9DA
  8
0
 62
     0
 10
2029.4932217298081
 20
1785.9670748361491
 30
0.0
 11
2109.4932217298101
 21
1865.9670748361509
 31
0.0
  0
LINE
  5
1C9DB
  8
0
 62
     0
 10
2011.53270948767
 20
1785.9670748361491
 30
0.0
 11
2091.5327094876711
 21
1865.9670748361509
 31
0.0
  0
LINE
  5
1C9DC
  8
0
 62
     0
 10
2003.358140780553
 20
1795.7530183711719
 30
0.0
 11
2073.5721972455331
 21
1865.9670748361509
 31
0.0
  0
LINE
  5
1C9DD
  8
0
 62
     0
 10
2003.358140780553
 20
1813.7135306133091
 30
0.0
 11
2055.611685003395
 21
1865.9670748361509
 31
0.0
  0
LINE
  5
1C9DE
  8
0
 62
     0
 10
2003.358140780552
 20
1831.6740428554469
 30
0.0
 11
2037.651172761256
 21
1865.9670748361509
 31
0.0
  0
LINE
  5
1C9DF
  8
0
 62
     0
 10
2003.358140780552
 20
1849.634555097585
 30
0.0
 11
2019.690660519118
 21
1865.9670748361509
 31
0.0
  0
ENDBLK
  5
1C9E1
  8
0
  0
BLOCK
  8
0
  2
*X39
 70
     1
 10
0.0
 20
0.0
 30
0.0
  3
*X39
  1

  0
LINE
  5
1C9E3
  8
0
 62
     0
 10
2747.421092752259
 20
1852.717625954705
 30
0.0
 11
2734.171643870814
 21
1865.96707483615
 31
0.0
  0
LINE
  5
1C9E4
  8
0
 62
     0
 10
2747.4210927522599
 20
1834.7571137125669
 30
0.0
 11
2716.211131628676
 21
1865.9670748361509
 31
0.0
  0
LINE
  5
1C9E5
  8
0
 62
     0
 10
2747.4210927522599
 20
1816.7966014704291
 30
0.0
 11
2698.2506193865379
 21
1865.9670748361509
 31
0.0
  0
LINE
  5
1C9E6
  8
0
 62
     0
 10
2747.421092752259
 20
1798.8360892282899
 30
0.0
 11
2680.2901071443989
 21
1865.9670748361509
 31
0.0
  0
LINE
  5
1C9E7
  8
0
 62
     0
 10
2742.3295949022631
 20
1785.9670748361491
 30
0.0
 11
2662.3295949022609
 21
1865.9670748361509
 31
0.0
  0
LINE
  5
1C9E8
  8
0
 62
     0
 10
2724.3690826601241
 20
1785.9670748361491
 30
0.0
 11
2644.3690826601219
 21
1865.9670748361509
 31
0.0
  0
LINE
  5
1C9E9
  8
0
 62
     0
 10
2706.4085704179861
 20
1785.9670748361491
 30
0.0
 11
2626.4085704179838
 21
1865.9670748361509
 31
0.0
  0
LINE
  5
1C9EA
  8
0
 62
     0
 10
2688.448058175848
 20
1785.9670748361491
 30
0.0
 11
2608.4480581758462
 21
1865.9670748361509
 31
0.0
  0
LINE
  5
1C9EB
  8
0
 62
     0
 10
2670.48754593371
 20
1785.9670748361491
 30
0.0
 11
2590.4875459337081
 21
1865.9670748361509
 31
0.0
  0
LINE
  5
1C9EC
  8
0
 62
     0
 10
2652.527033691571
 20
1785.9670748361491
 30
0.0
 11
2572.5270336915692
 21
1865.9670748361509
 31
0.0
  0
LINE
  5
1C9ED
  8
0
 62
     0
 10
2634.5665214494329
 20
1785.9670748361491
 30
0.0
 11
2572.4210927522581
 21
1848.112503533323
 31
0.0
  0
LINE
  5
1C9EE
  8
0
 62
     0
 10
2616.6060092072939
 20
1785.9670748361491
 30
0.0
 11
2572.421092752259
 21
1830.1519912911849
 31
0.0
  0
LINE
  5
1C9EF
  8
0
 62
     0
 10
2598.6454969651559
 20
1785.9670748361491
 30
0.0
 11
2572.421092752259
 21
1812.1914790490459
 31
0.0
  0
LINE
  5
1C9F0
  8
0
 62
     0
 10
2580.6849847230178
 20
1785.9670748361491
 30
0.0
 11
2572.421092752259
 21
1794.230966806907
 31
0.0
  0
LINE
  5
1C9F1
  8
0
 62
     0
 10
2742.2402716386209
 20
1785.9670748361491
 30
0.0
 11
2747.4210927522599
 21
1791.1478959497881
 31
0.0
  0
LINE
  5
1C9F2
  8
0
 62
     0
 10
2724.2797593964829
 20
1785.9670748361491
 30
0.0
 11
2747.4210927522599
 21
1809.1084081919259
 31
0.0
  0
LINE
  5
1C9F3
  8
0
 62
     0
 10
2706.3192471543439
 20
1785.9670748361491
 30
0.0
 11
2747.4210927522599
 21
1827.0689204340649
 31
0.0
  0
LINE
  5
1C9F4
  8
0
 62
     0
 10
2688.3587349122049
 20
1785.9670748361491
 30
0.0
 11
2747.421092752259
 21
1845.029432676203
 31
0.0
  0
LINE
  5
1C9F5
  8
0
 62
     0
 10
2670.3982226700682
 20
1785.9670748361491
 30
0.0
 11
2747.4210927522599
 21
1862.9899449183411
 31
0.0
  0
LINE
  5
1C9F6
  8
0
 62
     0
 10
2652.4377104279288
 20
1785.9670748361491
 30
0.0
 11
2732.4377104279311
 21
1865.9670748361509
 31
0.0
  0
LINE
  5
1C9F7
  8
0
 62
     0
 10
2634.4771981857912
 20
1785.9670748361491
 30
0.0
 11
2714.477198185793
 21
1865.9670748361509
 31
0.0
  0
LINE
  5
1C9F8
  8
0
 62
     0
 10
2616.5166859436522
 20
1785.9670748361491
 30
0.0
 11
2696.516685943654
 21
1865.9670748361509
 31
0.0
  0
LINE
  5
1C9F9
  8
0
 62
     0
 10
2598.5561737015141
 20
1785.9670748361491
 30
0.0
 11
2678.5561737015159
 21
1865.9670748361509
 31
0.0
  0
LINE
  5
1C9FA
  8
0
 62
     0
 10
2580.5956614593761
 20
1785.9670748361491
 30
0.0
 11
2660.5956614593779
 21
1865.9670748361509
 31
0.0
  0
LINE
  5
1C9FB
  8
0
 62
     0
 10
2572.421092752259
 20
1795.753018371171
 30
0.0
 11
2642.6351492172398
 21
1865.9670748361509
 31
0.0
  0
LINE
  5
1C9FC
  8
0
 62
     0
 10
2572.421092752259
 20
1813.7135306133091
 30
0.0
 11
2624.6746369751008
 21
1865.9670748361509
 31
0.0
  0
LINE
  5
1C9FD
  8
0
 62
     0
 10
2572.421092752259
 20
1831.6740428554469
 30
0.0
 11
2606.7141247329628
 21
1865.9670748361509
 31
0.0
  0
LINE
  5
1C9FE
  8
0
 62
     0
 10
2572.4210927522581
 20
1849.634555097585
 30
0.0
 11
2588.7536124908252
 21
1865.9670748361509
 31
0.0
  0
ENDBLK
  5
1CA00
  8
0
  0
BLOCK
  8
0
  2
*U40
 70
     1
 10
0.0
 20
0.0
 30
0.0
  3
*U40
  1

  0
TEXT
  5
1CA16
  8
SUNPOU
 10
3326.9227136887512
 20
985.23681560320881
 30
0.0
 40
30.0
  1
t2.3
 50
55.903950501274231
 41
0.8
  7
EXT08
  0
ENDBLK
  5
1CA18
  8
0
  0
BLOCK
  8
0
  2
*U41
 70
     1
 10
0.0
 20
0.0
 30
0.0
  3
*U41
  1

  0
TEXT
  5
1CA1A
  8
SUNPOU
 10
3014.9041734890529
 20
956.41966138469809
 30
0.0
 40
30.0
  1
t2.3
 50
55.58648259352934
 41
0.8
  7
EXT08
  0
ENDBLK
  5
1CA1C
  8
0
  0
BLOCK
  8
0
  2
*U42
 70
     1
 10
0.0
 20
0.0
 30
0.0
  3
*U42
  1

  0
SOLID
  5
1CA1E
  8
SUNPOU
 10
595.00814426775139
 20
2004.6220858211821
 30
0.0
 11
576.49687309891465
 21
1996.348999889989
 31
0.0
 12
591.32437201067069
 22
2010.1785475012809
 32
0.0
 13
591.32437201067069
 23
2010.1785475012809
 33
0.0
  0
POLYLINE
  5
1CA1F
  8
SUNPOU
 66
     1
 10
0.0
 20
0.0
 30
0.0
  0
VERTEX
  5
1CA20
  8
SUNPOU
 10
593.16625813921098
 20
2007.400316661232
 30
0.0
  0
VERTEX
  5
1CA21
  8
SUNPOU
 10
686.28880014499282
 20
2069.137849735273
 30
0.0
  0
SEQEND
  5
1CA22
  8
SUNPOU
  0
ENDBLK
  5
1CA24
  8
0
  0
ENDSEC
  0
SECTION
  2
ENTITIES
  0
INSERT
  5
41
  8
ZWAKU
  2
SYSTEMA3
 10
-0.7058929444392561
 20
-0.1203104429660016
 30
0.0
 41
10.0
 42
10.0
 43
10.0
  0
TEXT
  5
43
  8
INFORMATION
 10
1.0
 20
2.0
 30
0.0
 40
0.8
  1
PLOTTER=SYSTEM
 41
0.8
  7
EXT08
  0
TEXT
  5
44
  8
INFORMATION
 10
1.0
 20
3.0
 30
0.0
 40
0.8
  1
PAPER=A3
 41
0.8
  7
EXT08
  0
INSERT
  5
5E
  8
ZWAKU
  2
CALCOMP_TECHJET720A3
 10
-0.7058929444392561
 20
-0.1203104429660016
 30
0.0
 41
10.0
 42
10.0
 43
10.0
  0
LINE
  5
DA2C
  8
MOJI
 10
3663.0844272244772
 20
2475.804040243589
 30
0.0
 11
2539.8840360922268
 21
2475.8040402435881
 31
0.0
  0
LINE
  5
DA35
  8
MOJI
 10
3663.0844272244772
 20
2283.8040402915899
 30
0.0
 11
2539.8840360922268
 21
2283.8040402915899
 31
0.0
  0
LINE
  5
DA36
  8
MOJI
 10
3663.0844272244772
 20
2235.8040403035911
 30
0.0
 11
2539.8840360922268
 21
2235.8040403035911
 31
0.0
  0
LINE
  5
DA37
  8
MOJI
 10
3663.0844272244772
 20
2043.804040351592
 30
0.0
 11
2539.8840360922259
 21
2043.804040351592
 31
0.0
  0
LINE
  5
DA39
  8
MOJI
 10
3663.0844272244772
 20
2331.8040402795918
 30
0.0
 11
2539.8840360922268
 21
2331.80404027959
 31
0.0
  0
LINE
  5
DA3A
  8
MOJI
 10
3663.0844272244772
 20
2379.8040402675888
 30
0.0
 11
2539.8840360922268
 21
2379.8040402675879
 31
0.0
  0
LINE
  5
DA3B
  8
MOJI
 10
3663.0844272244772
 20
2427.8040402555889
 30
0.0
 11
2539.8840360922268
 21
2427.8040402555889
 31
0.0
  0
LINE
  5
DA3C
  8
MOJI
 10
3663.0844272244772
 20
1995.80404036359
 30
0.0
 11
2539.8840360922259
 21
1995.80404036359
 31
0.0
  0
TEXT
  5
DA3D
  8
MOJI
 10
3060.073210921038
 20
2436.8040402495899
 30
0.0
 40
30.0
  1
材　　　質
 41
0.8
  7
EXT08
 72
     4
 11
3128.8732109210382
 21
2451.8040402495899
 31
0.0
  0
TEXT
  5
DA3E
  8
MOJI
 10
2622.014451985955
 20
2436.8040402495899
 30
0.0
 40
30.0
  1
品　　名
 41
0.8
  7
EXT08
 72
     4
 11
2675.6144519859549
 21
2451.8040402495899
 31
0.0
  0
TEXT
  5
DA40
  8
MOJI
 10
2829.5431439008812
 20
2436.8040402495899
 30
0.0
 40
30.0
  1
数 量
 41
0.8
  7
EXT08
 72
     4
 11
2862.3431439008809
 21
2451.8040402495899
 31
0.0
  0
LINE
  5
DA41
  8
MOJI
 10
3322.5108894851501
 20
2475.80404024359
 30
0.0
 11
3322.5108894851501
 21
1947.8040403755899
 31
0.0
  0
LINE
  5
DA42
  8
MOJI
 10
2910.3431438888801
 20
2475.804040243589
 30
0.0
 11
2910.343143888877
 21
1947.8040403755899
 31
0.0
  0
LINE
  5
DA43
  8
MOJI
 10
2814.343143912879
 20
2475.804040243589
 30
0.0
 11
2814.3431439128781
 21
1947.8040403755899
 31
0.0
  0
LINE
  5
DA44
  8
MOJI
 10
2539.8840360922268
 20
2475.804040243589
 30
0.0
 11
2539.884036092225
 21
1947.8040403755899
 31
0.0
  0
TEXT
  5
DA4B
  8
MOJI
 10
2619.7858805573842
 20
2341.2040402735902
 30
0.0
 40
30.0
  1
キャップ
 41
0.8
  7
EXT08
 72
     4
 11
2675.6144519859549
 21
2355.8040402735901
 31
0.0
  0
TEXT
  5
DA58
  8
MOJI
 10
2556.4144519859551
 20
2244.8040402975921
 30
0.0
 40
30.0
  1
弾性サイン板（大）
 41
0.8
  7
EXT08
 72
     4
 11
2675.6144519859549
 21
2259.8040402975921
 31
0.0
  0
TEXT
  5
DA5E
  8
MOJI
 10
2934.3431438828802
 20
2340.8040402735901
 30
0.0
 40
30.0
  1
ポリエチレン樹脂
 41
0.8
  7
EXT08
 11
2934.3431438828802
 21
2355.8040402735901
 31
0.0
 73
     2
  0
TEXT
  5
DA60
  8
MOJI
 10
2934.3431438828802
 20
2244.8040402975921
 30
0.0
 40
30.0
  1
CRゴム
 41
0.8
  7
EXT08
 11
2934.3431438828802
 21
2259.8040402975921
 31
0.0
 73
     2
  0
TEXT
  5
DA67
  8
MOJI
 10
2852.6288581865952
 20
2244.8040402975921
 30
0.0
 40
30.0
  1
1
 41
0.8
  7
EXT08
 72
     4
 11
2862.3431439008809
 21
2259.8040402975921
 31
0.0
  0
TEXT
  5
DA6A
  8
MOJI
 10
2852.6288581865952
 20
2340.8040402735901
 30
0.0
 40
30.0
  1
1
 41
0.8
  7
EXT08
 72
     4
 11
2862.3431439008809
 21
2355.8040402735901
 31
0.0
  0
LINE
  5
DA6B
  8
MOJI
 10
3663.0844272244781
 20
2475.80404024359
 30
0.0
 11
3663.0844272244781
 21
1947.8040403755899
 31
0.0
  0
TEXT
  5
DA6C
  8
MOJI
 10
3459.9976583548132
 20
2436.8040402495881
 30
0.0
 40
30.0
  1
備 考
 41
0.8
  7
EXT08
 72
     4
 11
3492.7976583548129
 21
2451.8040402495881
 31
0.0
  0
TEXT
  5
12885
  8
MOJI
 10
3459.9976583548132
 20
2388.8040402615889
 30
0.0
 40
30.0
  1
茶 色
 41
0.8
  7
EXT08
 72
     4
 11
3492.7976583548129
 21
2403.8040402615889
 31
0.0
  0
TEXT
  5
12886
  8
MOJI
 10
2606.8144519859552
 20
2388.8040402615889
 30
0.0
 40
30.0
  1
支　　　柱
 41
0.8
  7
EXT08
 72
     4
 11
2675.6144519859549
 21
2403.8040402615889
 31
0.0
  0
TEXT
  5
12887
  8
MOJI
 10
2917.6675642437458
 20
2388.8040402615889
 30
0.0
 40
30.0
  1
ポリエチレン樹脂＋ガラス繊維
 41
0.8
  7
EXT08
 11
2917.6675642437458
 21
2403.8040402615889
 31
0.0
 73
     2
  0
TEXT
  5
12888
  8
MOJI
 10
2852.6288581865952
 20
2388.8040402615889
 30
0.0
 40
30.0
  1
1
 41
0.8
  7
EXT08
 72
     4
 11
2862.3431439008809
 21
2403.8040402615889
 31
0.0
  0
TEXT
  5
12889
  8
MOJI
 10
2606.8144519859552
 20
2292.8040402855918
 30
0.0
 40
30.0
  1
反　射　材
 41
0.8
  7
EXT08
 72
     4
 11
2675.6144519859549
 21
2307.8040402855918
 31
0.0
  0
TEXT
  5
1288A
  8
MOJI
 10
2934.3431438828802
 20
2292.8040402855918
 30
0.0
 40
30.0
  1
カプセルレンズ型反射シート
 41
0.8
  7
EXT08
 11
2934.3431438828802
 21
2307.8040402855918
 31
0.0
 73
     2
  0
TEXT
  5
1288B
  8
MOJI
 10
2852.6288581865952
 20
2292.8040402855918
 30
0.0
 40
30.0
  1
1
 41
0.8
  7
EXT08
 72
     4
 11
2862.3431439008809
 21
2307.8040402855918
 31
0.0
  0
TEXT
  5
1288C
  8
MOJI
 10
3458.3976583548128
 20
2292.8040402855918
 30
0.0
 40
30.0
  1
白 色
 41
0.8
  7
EXT08
 72
     4
 11
3492.7976583548129
 21
2307.8040402855918
 31
0.0
  0
TEXT
  5
1288D
  8
MOJI
 10
2607.6144519859549
 20
2052.2162815610509
 30
0.0
 40
30.0
  1
親子バンド
 41
0.8
  7
EXT08
 72
     4
 11
2675.6144519859549
 21
2067.2162815610509
 31
0.0
  0
TEXT
  5
1288F
  8
MOJI
 10
2834.9145724723089
 20
2053.7797809906479
 30
0.0
 40
30.0
  1
(2)
 41
0.8
  7
EXT08
 72
     4
 11
2862.3431439008809
 21
2066.6369238477901
 31
0.0
  0
TEXT
  5
12894
  8
MOJI
 10
2834.9145724723089
 20
2006.9468975004499
 30
0.0
 40
30.0
  1
(8)
 41
0.8
  7
EXT08
 72
     4
 11
2862.3431439008809
 21
2019.8040403575919
 31
0.0
  0
TEXT
  5
12897
  8
MOJI
 10
3366.3976583548142
 20
2052.8040403455921
 30
0.0
 40
30.0
  1
静電粉体塗装　茶色
 41
0.8
  7
EXT08
 72
     4
 11
3492.7976583548138
 21
2067.8040403455921
 31
0.0
  0
TEXT
  5
13DD8
  8
MOJI
 10
3459.9976583548132
 20
2340.804040273591
 30
0.0
 40
30.0
  1
茶 色
 41
0.8
  7
EXT08
 72
     4
 11
3492.7976583548129
 21
2355.8040402735919
 31
0.0
  0
TEXT
  5
178E9
  8
INFORMATION
 10
1.0
 20
1.0
 30
0.0
 40
0.8
  1
VERSION=3.0
  0
TEXT
  5
17F98
  8
MOJI2
 10
367.71344309199827
 20
259.99942796608781
 30
0.0
 40
40.0
  1
設置図 S=1/10
 41
0.8
  7
EXT08
 72
     1
 11
530.15153833009344
 21
259.99942796608781
 31
0.0
 73
     1
  0
LINE
  5
17F99
  8
MOJI2
 10
352.47333899584191
 20
244.99942796608769
 30
0.0
 11
707.8257199482232
 21
244.99942796608769
 31
0.0
  0
CIRCLE
  5
17FF8
  8
SJC
 10
536.43142073162551
 20
2559.6175863355311
 30
0.0
 40
43.75
  0
LINE
  5
182DA
  8
CENTER
 10
536.43142073162551
 20
2498.5727813532981
 30
0.0
 11
536.43142073162551
 21
2615.3675863355302
 31
0.0
  0
LINE
  5
182DB
  8
SJC
 10
535.43142073162562
 20
2507.117586334788
 30
0.0
 11
535.43142073162562
 21
2515.8790164000602
 31
0.0
  0
LINE
  5
182DC
  8
SJC
 10
537.43142073162562
 20
2507.117586334788
 30
0.0
 11
537.43142073162562
 21
2515.8790164000602
 31
0.0
  0
LINE
  5
182E0
  8
CENTER
 10
592.18142073162335
 20
2559.6175863355311
 30
0.0
 11
480.68142073162608
 21
2559.6175863355311
 31
0.0
  0
LINE
  5
182E1
  8
SJC
 10
456.43142073162562
 20
2509.1175863347871
 30
0.0
 11
456.43142073162562
 21
2511.1175863347862
 31
0.0
  0
ARC
  5
182E2
  8
SJC
 10
458.43142073162522
 20
2509.1175863347871
 30
0.0
 40
2.0
 50
180.0
 51
270.0
  0
ARC
  5
182E3
  8
SJC
 10
458.43142073162608
 20
2511.1175863347862
 30
0.0
 40
2.0
 50
90.0
 51
180.0
  0
LINE
  5
182E4
  8
SJC
 10
458.68142073162642
 20
2513.1175863347862
 30
0.0
 11
458.43142073162647
 21
2513.1175863347871
 31
0.0
  0
ARC
  5
182E5
  8
SJC
 10
614.43142073162505
 20
2511.1175863347871
 30
0.0
 40
2.0
 50
0.0
 51
90.0
  0
LINE
  5
182E6
  8
SJC
 10
614.43142073162653
 20
2507.117586334788
 30
0.0
 11
458.43142073162562
 21
2507.1175863347871
 31
0.0
  0
ARC
  5
182E7
  8
SJC
 10
614.43142073162596
 20
2509.117586334788
 30
0.0
 40
2.0
 50
270.0
 51
0.0
  0
LINE
  5
182E9
  8
SJC
 10
616.43142073162653
 20
2509.117586334788
 30
0.0
 11
616.4314207316246
 21
2511.1175863347889
 31
0.0
  0
LINE
  5
182EA
  8
SJC
 10
485.68142073162522
 20
2567.6175863355252
 30
0.0
 11
485.68142073162778
 21
2516.1175863347871
 31
0.0
  0
LINE
  5
182EB
  8
SJC
 10
587.18142073162335
 20
2567.6175863355261
 30
0.0
 11
587.1814207316238
 21
2516.1175863347871
 31
0.0
  0
ARC
  5
182EC
  8
SJC
 10
590.18142073162369
 20
2516.1175863347871
 30
0.0
 40
3.0
 50
180.0
 51
270.0
  0
LINE
  5
182ED
  8
SJC
 10
590.18142073162369
 20
2513.1175863347871
 30
0.0
 11
614.43142073162562
 21
2513.1175863347871
 31
0.0
  0
LINE
  5
182EE
  8
SJC
 10
492.68142073162511
 20
2569.6175863355261
 30
0.0
 11
492.68142073162511
 21
2559.6175863355302
 31
0.0
  0
LINE
  5
182EF
  8
SJC
 10
580.1814207316238
 20
2569.6175863355261
 30
0.0
 11
580.1814207316238
 21
2559.6175863355311
 31
0.0
  0
LINE
  5
182F8
  8
SJC
 10
585.18142073162335
 20
2569.6175863355261
 30
0.0
 11
580.1814207316238
 21
2569.6175863355261
 31
0.0
  0
ARC
  5
182F9
  8
SJC
 10
585.1814207316238
 20
2567.6175863355261
 30
0.0
 40
2.0
 50
0.0
 51
90.0
  0
LINE
  5
182FA
  8
SJC
 10
492.68142073162511
 20
2569.6175863355261
 30
0.0
 11
487.68142073162511
 21
2569.6175863355252
 31
0.0
  0
ARC
  5
182FB
  8
SJC
 10
487.68142073162562
 20
2567.6175863355252
 30
0.0
 40
2.0
 50
90.0
 51
180.0
  0
ARC
  5
182FC
  8
SJC
 10
482.68142073162829
 20
2516.1175863347871
 30
0.0
 40
3.0
 50
270.0
 51
0.0
  0
LINE
  5
182FD
  8
SJC
 10
482.68142073162829
 20
2513.1175863347862
 30
0.0
 11
458.68142073162642
 21
2513.1175863347862
 31
0.0
  0
ARC
  5
18302
  8
SJC
 10
536.43142073162551
 20
2559.6175863355311
 30
0.0
 40
43.750000000000227
 50
180.0
 51
0.0
  0
LINE
  5
18601
  8
CENTER
 10
1300.882353861168
 20
2329.6479670114059
 30
0.0
 11
1300.882353861168
 21
354.3921413310581
 31
0.0
  0
LINE
  5
18608
  8
SJC
 10
1344.632353861168
 20
2289.6479670114131
 30
0.0
 11
1344.632353861168
 21
1224.368328318667
 31
0.0
1001
ACAD
1000
ASC_BOUNDS
1002
{
1070
    19
1005
0
1002
}
  0
LINE
  5
18609
  8
SJC
 10
1257.1323538611689
 20
1429.368328393625
 30
0.0
 11
1257.132353861168
 21
1224.368328318667
 31
0.0
1001
ACAD
1000
ASC_BOUNDS
1002
{
1070
    19
1005
0
1002
}
  0
LINE
  5
1860A
  8
SJC
 10
1507.310341168893
 20
449.64796701141222
 30
0.0
 11
1677.4027463457401
 21
449.64796701141222
 31
0.0
1001
ACAD
1000
ASC_BOUNDS
1002
{
1070
    19
1005
0
1002
}
  0
LINE
  5
1860D
  8
SJC
 10
1073.3483181628919
 20
449.64796701141222
 30
0.0
 11
1393.010341168899
 21
449.64796701141222
 31
0.0
1001
ACAD
1000
ASC_BOUNDS
1002
{
1070
    19
1005
0
1002
}
  0
LINE
  5
1860E
  8
SJC
 10
1257.132353861168
 20
2289.6479670114131
 30
0.0
 11
1344.632353861168
 21
2289.6479670114131
 31
0.0
  0
ARC
  5
18618
  8
SJC
 10
1300.882353861168
 20
2251.7964045113922
 30
0.0
 40
57.851562500013678
 50
40.865657358811269
 51
139.13434264118931
  0
INSERT
  5
18619
  8
SJC
  2
GL
 10
1593.7995421392909
 20
449.36832839366429
 30
0.0
 41
10.0
 42
10.0
 43
10.0
  0
LINE
  5
18648
  8
SJC
 10
1257.132353861168
 20
2289.6479670114131
 30
0.0
 11
1257.132353861168
 21
2249.647967011425
 31
0.0
  0
LINE
  5
1864B
  8
HATCH
 10
1257.132353861168
 20
2289.6479670114131
 30
0.0
 11
1344.632353861168
 21
2289.6479670114131
 31
0.0
  0
LINE
  5
1864C
  8
HATCH
 10
1344.632353861168
 20
2289.6479670114131
 30
0.0
 11
1344.632353861168
 21
2249.6479670114109
 31
0.0
  0
LINE
  5
1864E
  8
HATCH
 10
1257.132353861168
 20
2249.6479670114109
 30
0.0
 11
1257.1323538611671
 21
2289.6479670114122
 31
0.0
  0
LINE
  5
187B4
  8
SJC
 10
1249.3823538611689
 20
1934.8683283938969
 30
0.0
 11
1249.3823538611689
 21
1431.3683283936739
 31
0.0
  0
LINE
  5
187BB
  8
SJC
 10
1254.3823538613331
 20
1826.868328393856
 30
0.0
 11
1254.3823538613331
 21
1756.868328393841
 31
0.0
  0
LINE
  5
187BC
  8
SJC
 10
1254.3823538612221
 20
1934.36832839367
 30
0.0
 11
1254.3823538612221
 21
1864.3683283936559
 31
0.0
  0
LINE
  5
187BD
  8
SJC
 10
1252.3823538611659
 20
1939.3683283936639
 30
0.0
 11
1251.3823538611659
 21
1939.368328393663
 31
0.0
  0
ARC
  5
187BE
  8
SJC
 10
1252.3823538611671
 20
1937.3683283936639
 30
0.0
 40
2.0
 50
0.0000000000260551
 51
90.0
  0
ARC
  5
187BF
  8
SJC
 10
1251.3823538611671
 20
1937.368328393663
 30
0.0
 40
2.0
 50
90.0
 51
180.00000000001299
  0
LINE
  5
187C0
  8
SJC
 10
1249.3823538611671
 20
1937.368328393663
 30
0.0
 11
1249.3823538611689
 21
1934.8683283936621
 31
0.0
  0
LINE
  5
187C1
  8
SJC
 10
1254.3823538611671
 20
1937.368328393665
 30
0.0
 11
1254.382353861276
 21
1431.368328393665
 31
0.0
  0
LINE
  5
187C3
  8
SJC
 10
1310.882353861909
 20
1934.368328393643
 30
0.0
 11
1310.8823538619019
 21
1917.2806006351821
 31
0.0
  0
ARC
  5
187C4
  8
SJC
 10
1305.882353861909
 20
1934.3683283936441
 30
0.0
 40
5.0
 50
359.99999999997402
 51
90.0
  0
LINE
  5
187C5
  8
SJC
 10
1305.882353861911
 20
1939.3683283936471
 30
0.0
 11
1251.3823538611671
 21
1939.3683283936639
 31
0.0
  0
LINE
  5
187C6
  8
CENTER
 10
1300.8823538619081
 20
1924.868328393645
 30
0.0
 11
1300.8823538619049
 21
1915.868328393645
 31
0.0
  0
LINE
  5
187C7
  8
CENTER
 10
1305.3823538619069
 20
1920.3683283936441
 30
0.0
 11
1296.3823538619069
 21
1920.3683283936471
 31
0.0
  0
CIRCLE
  5
187C8
  8
SJC
 10
1300.8823538619069
 20
1920.368328393645
 30
0.0
 40
2.0
  0
CIRCLE
  5
187C9
  8
SJC
 10
1300.8823538619069
 20
1920.368328393645
 30
0.0
 40
4.5
  0
LINE
  5
187CA
  8
SJC
 10
1254.382353861334
 20
1756.868328393618
 30
0.0
 11
1254.382353861334
 21
1826.8683283936309
 31
0.0
  0
LINE
  5
187CD
  8
SJC
 10
1249.3823538611689
 20
1934.8683283936621
 30
0.0
 11
1249.3823538611689
 21
1431.368328393439
 31
0.0
  0
LINE
  5
187CE
  8
SJC
 10
1307.0849237262839
 20
1912.4273722538601
 30
0.0
 11
1254.382353861178
 21
1899.3683283936639
 31
0.0
  0
ARC
  5
187CF
  8
SJC
 10
1305.8823538619031
 20
1917.2806006351841
 30
0.0
 40
5.0
 50
283.9168774331053
 51
359.99999999997402
  0
ARC
  5
187D1
  8
SJC
 10
1252.3823538612789
 20
1431.3683283936221
 30
0.0
 40
2.0
 50
270.0
 51
359.99999999997402
  0
ARC
  5
187D2
  8
SJC
 10
1251.382353861278
 20
1431.368328393623
 30
0.0
 40
2.0
 50
179.99999999998701
 51
270.0
  0
LINE
  5
187D3
  8
SJC
 10
1249.382353861278
 20
1431.3683283936241
 30
0.0
 11
1249.3823538612801
 21
1433.8683283936241
 31
0.0
  0
LINE
  5
187D4
  8
SJC
 10
1310.8823538620211
 20
1434.3683283936441
 30
0.0
 11
1310.882353862014
 21
1451.4560561521041
 31
0.0
  0
ARC
  5
187D5
  8
SJC
 10
1305.8823538620211
 20
1434.3683283936421
 30
0.0
 40
5.0
 50
270.0
 51
0.0000000000260551
  0
LINE
  5
187D6
  8
SJC
 10
1305.8823538620229
 20
1429.3683283936391
 30
0.0
 11
1251.3823538612789
 21
1429.368328393623
 31
0.0
  0
LINE
  5
187D7
  8
CENTER
 10
1300.88235386202
 20
1443.8683283936409
 30
0.0
 11
1300.882353862017
 21
1452.8683283936409
 31
0.0
  0
LINE
  5
187D8
  8
CENTER
 10
1305.382353862019
 20
1448.3683283936421
 30
0.0
 11
1296.382353862019
 21
1448.3683283936391
 31
0.0
  0
CIRCLE
  5
187D9
  8
SJC
 10
1300.882353862019
 20
1448.3683283936409
 30
0.0
 40
2.0
  0
CIRCLE
  5
187DA
  8
SJC
 10
1300.882353862019
 20
1448.3683283936409
 30
0.0
 40
4.5
  0
LINE
  5
187DD
  8
SJC
 10
1307.084923726396
 20
1456.3092845334261
 30
0.0
 11
1254.3823538612889
 21
1469.3683283936221
 31
0.0
  0
ARC
  5
187DE
  8
SJC
 10
1305.882353862015
 20
1451.456056152103
 30
0.0
 40
5.0
 50
0.0000000000260551
 51
76.083122566894787
  0
LINE
  5
187E4
  8
SJC
 10
1310.8823538619019
 20
1693.456056152012
 30
0.0
 11
1310.8823538619019
 21
1675.2806006350891
 31
0.0
  0
ARC
  5
187E5
  8
SJC
 10
1305.8823538619031
 20
1675.2806006350911
 30
0.0
 40
5.0
 50
283.9168774331053
 51
359.99999999997402
  0
LINE
  5
187E6
  8
CENTER
 10
1300.8823538619081
 20
1688.8683283935529
 30
0.0
 11
1300.8823538619049
 21
1679.8683283935529
 31
0.0
  0
LINE
  5
187E7
  8
CENTER
 10
1305.3823538619069
 20
1684.3683283935511
 30
0.0
 11
1296.3823538619069
 21
1684.3683283935541
 31
0.0
  0
CIRCLE
  5
187E8
  8
SJC
 10
1300.8823538619069
 20
1684.368328393552
 30
0.0
 40
2.0
  0
CIRCLE
  5
187E9
  8
SJC
 10
1300.8823538619069
 20
1684.368328393552
 30
0.0
 40
4.5
  0
LINE
  5
187EA
  8
SJC
 10
1307.0849237262839
 20
1670.4273722537671
 30
0.0
 11
1254.382353861178
 21
1657.3683283935709
 31
0.0
  0
ARC
  5
187EB
  8
SJC
 10
1305.8823538619031
 20
1693.456056152012
 30
0.0
 40
5.0
 50
0.0000000000260551
 51
76.083122566894787
  0
LINE
  5
187EC
  8
SJC
 10
1307.0849237262839
 20
1698.3092845333349
 30
0.0
 11
1254.382353861178
 21
1711.3683283935311
 31
0.0
  0
TEXT
  5
191EE
  8
MOJI
 10
3459.9976583548141
 20
2244.8040402975921
 30
0.0
 40
30.0
  1
黒 色
 41
0.8
  7
EXT08
 72
     4
 11
3492.7976583548138
 21
2259.8040402975921
 31
0.0
  0
TEXT
  5
191F0
  8
MOJI
 10
2578.8144519859552
 20
2005.2434379027691
 30
0.0
 40
30.0
  1
ボルト・ナット
 41
0.8
  7
EXT08
 72
     4
 11
2675.6144519859549
 21
2019.2434379027691
 31
0.0
  0
LINE
  5
1943E
  8
SJC
 10
595.93142073162835
 20
1160.6479670114161
 30
0.0
 11
580.98142073162569
 21
1160.6479670114161
 31
0.0
  0
LINE
  5
1943F
  8
SJC
 10
595.93142073162835
 20
1149.647967011412
 30
0.0
 11
580.98142073162569
 21
1149.647967011412
 31
0.0
  0
LINE
  5
19440
  8
SJC
 10
593.58142073162253
 20
449.64796701141222
 30
0.0
 11
800.75932250716232
 21
449.64796701141222
 31
0.0
  0
ARC
  5
19441
  8
SJC2
 10
565.00642073162169
 20
332.76635431701561
 30
0.0
 40
59.251192688568317
 50
61.16631571051208
 51
118.83368428948791
  0
ARC
  5
19442
  8
SJC2
 10
565.00642073162169
 20
436.57720558060367
 30
0.0
 40
59.251192688568317
 50
241.16631571051209
 51
298.83368428948791
  0
ARC
  5
19443
  8
SJC2
 10
507.85642073162029
 20
436.57720558060367
 30
0.0
 40
59.251192688568317
 50
241.16631571051209
 51
298.83368428948791
  0
LINE
  5
19444
  8
SJC
 10
479.28142073162871
 20
1149.647967011412
 30
0.0
 11
479.28142073162871
 21
1134.9276056291601
 31
0.0
  0
LINE
  5
19445
  8
SJC
 10
593.58142073162253
 20
1084.6479670764129
 30
0.0
 11
593.58142073162253
 21
1094.9276056291601
 31
0.0
  0
LINE
  5
19446
  8
SJC
 10
272.10351895608892
 20
449.64796701141222
 30
0.0
 11
479.28142073162871
 21
449.64796701141222
 31
0.0
  0
LINE
  5
19447
  8
SJC
 10
593.58142073162253
 20
1149.647967011412
 30
0.0
 11
593.58142073162253
 21
1135.009383290005
 31
0.0
  0
ARC
  5
19448
  8
SJC2
 10
623.58142070162728
 20
1049.64796711142
 30
0.0
 40
14.999999985000001
 50
294.5420000000035
 51
65.459690177197544
  0
LINE
  5
19449
  8
SJC2
 10
643.58142068162749
 20
1224.6479669364151
 30
0.0
 11
649.81142067539349
 21
1224.6479669364151
 31
0.0
  0
LINE
  5
1944A
  8
SJC2
 10
643.58142068162749
 20
874.64796728641613
 30
0.0
 11
649.81142067539349
 21
874.64796728641613
 31
0.0
  0
LINE
  5
1944B
  8
SJC2
 10
629.81142069539328
 20
1084.6479670764129
 30
0.0
 11
629.81142069539328
 21
1014.647967146417
 31
0.0
  0
LINE
  5
1944C
  8
SJC2
 10
673.58142065162326
 20
914.64796724641656
 30
0.0
 11
643.58142068162749
 21
874.64796728641613
 31
0.0
  0
LINE
  5
1944D
  8
SJC2
 10
673.58142065162326
 20
964.64796719642163
 30
0.0
 11
673.58142065162326
 21
914.64796724641656
 31
0.0
  0
LINE
  5
1944E
  8
SJC2
 10
623.58142070162728
 20
1014.647967146417
 30
0.0
 11
673.58142065162326
 21
964.64796719642163
 31
0.0
  0
LINE
  5
1944F
  8
SJC2
 10
679.81142064539824
 20
914.64796724641656
 30
0.0
 11
649.81142067539349
 21
874.64796728641613
 31
0.0
  0
LINE
  5
19450
  8
SJC2
 10
679.81142064539824
 20
964.64796719642163
 30
0.0
 11
679.81142064539824
 21
914.64796724641656
 31
0.0
  0
LINE
  5
19451
  8
SJC2
 10
629.81142069539328
 20
1014.647967146417
 30
0.0
 11
679.81142064539824
 21
964.64796719642163
 31
0.0
  0
LINE
  5
19452
  8
SJC2
 10
673.58142065162326
 20
1184.6479669764151
 30
0.0
 11
643.58142068162749
 21
1224.6479669364151
 31
0.0
  0
LINE
  5
19453
  8
SJC2
 10
673.58142065162326
 20
1134.6479670264191
 30
0.0
 11
673.58142065162326
 21
1184.6479669764151
 31
0.0
  0
LINE
  5
19454
  8
SJC2
 10
623.58142070162728
 20
1084.6479670764129
 30
0.0
 11
673.58142065162326
 21
1134.6479670264191
 31
0.0
  0
LINE
  5
19455
  8
SJC2
 10
679.81142064539824
 20
1184.6479669764151
 30
0.0
 11
649.81142067539349
 21
1224.6479669364151
 31
0.0
  0
LINE
  5
19456
  8
SJC2
 10
679.81142064539824
 20
1134.6479670264191
 30
0.0
 11
679.81142064539824
 21
1184.6479669764151
 31
0.0
  0
LINE
  5
19457
  8
SJC2
 10
629.81142069539328
 20
1084.6479670764129
 30
0.0
 11
679.81142064539824
 21
1134.6479670264191
 31
0.0
  0
LINE
  5
19458
  8
SJC2
 10
623.58142070162728
 20
1014.647967146417
 30
0.0
 11
580.98142073162569
 21
1014.647967146417
 31
0.0
  0
LINE
  5
19459
  8
SJC2
 10
623.58142070162728
 20
1084.6479670764129
 30
0.0
 11
623.58142070162728
 21
1014.647967146417
 31
0.0
  0
LINE
  5
1945A
  8
SJC2
 10
580.98142073162569
 20
1084.6479670764129
 30
0.0
 11
623.58142070162728
 21
1084.6479670764129
 31
0.0
  0
LINE
  5
1945B
  8
SJC2
 10
619.58142070162194
 20
1060.7770587683231
 30
0.0
 11
619.58142070162194
 21
1038.5188755245119
 31
0.0
  0
LINE
  5
1945C
  8
SJC2
 10
611.58142070162
 20
1059.447967146413
 30
0.0
 11
611.58142070162
 21
1039.847967146422
 31
0.0
  0
LINE
  5
1945D
  8
SJC2
 10
603.58142070162728
 20
1054.6479671464169
 30
0.0
 11
603.58142070162728
 21
1044.6479671464169
 31
0.0
  0
LINE
  5
1945E
  8
SJC2
 10
619.58142070162194
 20
1054.6479671464169
 30
0.0
 11
603.58142070162728
 21
1054.6479671464169
 31
0.0
  0
LINE
  5
1945F
  8
SJC2
 10
619.58142070162194
 20
1044.6479671464169
 30
0.0
 11
603.58142070162728
 21
1044.6479671464169
 31
0.0
  0
LINE
  5
19460
  8
SJC2
 10
619.58142070162194
 20
1059.447967146413
 30
0.0
 11
611.58142070162
 21
1059.447967146413
 31
0.0
  0
LINE
  5
19461
  8
SJC2
 10
619.58142070162194
 20
1039.847967146422
 30
0.0
 11
611.58142070162
 21
1039.847967146422
 31
0.0
  0
LINE
  5
19462
  8
SJC2
 10
623.58142070162728
 20
1060.7770587683231
 30
0.0
 11
619.58142070162194
 21
1060.7770587683231
 31
0.0
  0
LINE
  5
19463
  8
SJC2
 10
623.58142070162728
 20
1038.5188755245119
 30
0.0
 11
619.58142070162194
 21
1038.5188755245119
 31
0.0
  0
LINE
  5
19464
  8
SJC2
 10
479.28142073162871
 20
1038.5188755245119
 30
0.0
 11
475.2814207316232
 21
1038.5188755245119
 31
0.0
  0
LINE
  5
19465
  8
SJC2
 10
479.28142073162871
 20
1060.7770587683231
 30
0.0
 11
475.2814207316232
 21
1060.7770587683231
 31
0.0
  0
LINE
  5
19466
  8
SJC2
 10
475.2814207316232
 20
1039.847967146422
 30
0.0
 11
467.28142073162138
 21
1039.847967146422
 31
0.0
  0
LINE
  5
19467
  8
SJC2
 10
475.2814207316232
 20
1059.447967146413
 30
0.0
 11
467.28142073162138
 21
1059.447967146413
 31
0.0
  0
LINE
  5
19468
  8
SJC2
 10
475.2814207316232
 20
1044.6479671464169
 30
0.0
 11
459.28142073161951
 21
1044.6479671464169
 31
0.0
  0
LINE
  5
19469
  8
SJC2
 10
475.2814207316232
 20
1054.6479671464169
 30
0.0
 11
459.28142073161951
 21
1054.6479671464169
 31
0.0
  0
LINE
  5
1946A
  8
SJC2
 10
459.28142073161951
 20
1054.6479671464169
 30
0.0
 11
459.28142073161951
 21
1044.6479671464169
 31
0.0
  0
LINE
  5
1946B
  8
SJC2
 10
467.28142073162138
 20
1059.447967146413
 30
0.0
 11
467.28142073162138
 21
1039.847967146422
 31
0.0
  0
LINE
  5
1946C
  8
SJC2
 10
475.2814207316232
 20
1060.7770587683231
 30
0.0
 11
475.2814207316232
 21
1038.5188755245119
 31
0.0
  0
LINE
  5
1946D
  8
SJC
 10
595.93142073162835
 20
1160.6479670114161
 30
0.0
 11
595.93142073162835
 21
1149.647967011412
 31
0.0
  0
LINE
  5
1946E
  8
SJC
 10
476.93142073162278
 20
1160.6479670114161
 30
0.0
 11
476.93142073162278
 21
1149.647967011412
 31
0.0
  0
ARC
  5
1946F
  8
SJC
 10
536.43142073162835
 20
1021.657636105514
 30
0.0
 40
151.190482786888
 50
66.82484629025231
 51
72.8627651820062
  0
LINE
  5
19470
  8
CENTER
 10
536.43142073162551
 20
2319.643856516539
 30
0.0
 11
536.43142073162551
 21
354.67177994880598
 31
0.0
  0
LINE
  5
19473
  8
SJC
 10
491.88142073162578
 20
1429.6479670114111
 30
0.0
 11
491.88142073162612
 21
1134.9276056291601
 31
0.0
1001
ACAD
1000
ASC_BOUNDS
1002
{
1070
    19
1002
}
  0
LINE
  5
19474
  8
SJC
 10
580.98142073162569
 20
1429.6479670114129
 30
0.0
 11
580.98142073162546
 21
1134.9276056291601
 31
0.0
1001
ACAD
1000
ASC_BOUNDS
1002
{
1070
    19
1002
}
  0
LINE
  5
19475
  8
SJC
 10
491.88142073162538
 20
449.64796701141222
 30
0.0
 11
580.98142073162626
 21
449.64796701141222
 31
0.0
1001
ACAD
1000
ASC_BOUNDS
1002
{
1070
    19
1005
0
1002
}
  0
LINE
  5
19476
  8
SJC
 10
593.58142073162253
 20
1094.9276056291601
 30
0.0
 11
593.58142073162253
 21
1084.6479670764129
 31
0.0
  0
LINE
  5
19477
  8
SJC
 10
479.2814207316282
 20
1094.9276056291601
 30
0.0
 11
479.28142073162871
 21
534.92760562916055
 31
0.0
  0
LINE
  5
19478
  8
SJC
 10
580.98142073162569
 20
494.92760562915998
 30
0.0
 11
580.98142073162569
 21
449.64796701141222
 31
0.0
1001
ACAD
1000
ASC_BOUNDS
1002
{
1070
    19
1002
}
  0
LINE
  5
19479
  8
SJC
 10
491.88142073162521
 20
494.92760562915998
 30
0.0
 11
491.88142073162538
 21
449.64796701141222
 31
0.0
1001
ACAD
1000
ASC_BOUNDS
1002
{
1070
    19
1002
}
  0
ARC
  5
1947A
  8
SJC
 10
536.43142073162835
 20
1021.657636105514
 30
0.0
 40
151.190482786888
 50
107.1372348179938
 51
113.1751537097477
  0
LINE
  5
1947B
  8
SJC
 10
491.88142073162578
 20
1160.6479670114161
 30
0.0
 11
476.93142073162278
 21
1160.6479670114161
 31
0.0
  0
LINE
  5
1947C
  8
SJC
 10
491.88142073162578
 20
1149.647967011412
 30
0.0
 11
476.93142073162278
 21
1149.647967011412
 31
0.0
  0
INSERT
  5
1947D
  8
SJC
  2
GL
 10
674.53938989140352
 20
449.36832839366429
 30
0.0
 41
10.0
 42
10.0
 43
10.0
  0
LINE
  5
1947E
  8
SJC
 10
479.2814207316282
 20
494.92760562915998
 30
0.0
 11
479.2814207316282
 21
384.6717799488024
 31
0.0
  0
LINE
  5
1947F
  8
SJC
 10
593.58142073162253
 20
494.92760562915998
 30
0.0
 11
593.58142073162253
 21
384.67177994880291
 31
0.0
  0
LINE
  5
19481
  8
SJC
 10
580.98142073162569
 20
1094.9276056291601
 30
0.0
 11
580.98142073162535
 21
534.9276056291601
 31
0.0
1001
ACAD
1000
ASC_BOUNDS
1002
{
1070
    19
1002
}
  0
LINE
  5
19482
  8
SJC
 10
491.88142073162538
 20
1094.9276056291601
 30
0.0
 11
491.88142073162652
 21
534.92760562916055
 31
0.0
1001
ACAD
1000
ASC_BOUNDS
1002
{
1070
    19
1002
}
  0
LINE
  5
19486
  8
SJC
 10
593.58142073162253
 20
1094.9276056291601
 30
0.0
 11
593.58142073162253
 21
1084.6479670764129
 31
0.0
  0
LINE
  5
19487
  8
SJC
 10
593.58142073162253
 20
1014.647967146417
 30
0.0
 11
593.58142073162253
 21
534.9276056291601
 31
0.0
  0
ARC
  5
19494
  8
SJC2
 10
540.36543640276113
 20
1114.9276056291601
 30
0.0
 40
7.2469843176835802
 50
290.7368345106234
 51
69.263165489376618
  0
LINE
  5
19495
  8
SJC2
 10
540.63142072512574
 20
1110.9276056331601
 30
0.0
 11
532.23142073812539
 21
1110.9276056331601
 31
0.0
  0
LINE
  5
19496
  8
SJC2
 10
532.23142073812539
 20
1118.9276056251599
 30
0.0
 11
540.63142072512574
 21
1118.9276056251599
 31
0.0
  0
LINE
  5
19497
  8
CENTER
 10
553.80941051708658
 20
1114.9276056291601
 30
0.0
 11
510.34000829165501
 21
1114.9276056291601
 31
0.0
  0
LINE
  5
19498
  8
SJC2
 10
529.93142073812567
 20
1121.7051056223829
 30
0.0
 11
525.25042074280691
 21
1121.7051056223829
 31
0.0
  0
LINE
  5
19499
  8
SJC2
 10
525.25042074280691
 20
1121.7051056223829
 30
0.0
 11
525.25042074280691
 21
1108.1501056359371
 31
0.0
  0
LINE
  5
1949A
  8
SJC2
 10
525.25042074280691
 20
1108.1501056359371
 30
0.0
 11
529.93142073812567
 21
1108.1501056359371
 31
0.0
  0
LINE
  5
1949B
  8
SJC2
 10
529.93142073812567
 20
1118.9276056251599
 30
0.0
 11
514.62642075343035
 21
1118.9276056251599
 31
0.0
  0
LINE
  5
1949C
  8
SJC2
 10
514.62642075343035
 20
1118.9276056251599
 30
0.0
 11
514.62642075343035
 21
1110.9276056331601
 31
0.0
  0
LINE
  5
1949D
  8
SJC2
 10
514.62642075343035
 20
1110.9276056331601
 30
0.0
 11
529.93142073812567
 21
1110.9276056331601
 31
0.0
  0
LINE
  5
1949E
  8
SJC2
 10
532.23142073812539
 20
1094.9276056291601
 30
0.0
 11
476.98142073162848
 21
1094.9276056291601
 31
0.0
  0
LINE
  5
1949F
  8
SJC2
 10
532.23142073812539
 20
1134.9276056291601
 30
0.0
 11
476.98142073162848
 21
1134.9276056291601
 31
0.0
  0
LINE
  5
194A0
  8
SJC2
 10
489.58142073162202
 20
1094.9276056291601
 30
0.0
 11
489.58142073162202
 21
1134.9276056291601
 31
0.0
  0
LINE
  5
194A1
  8
SJC2
 10
476.98142073162848
 20
1134.9276056291601
 30
0.0
 11
476.98142073162848
 21
1094.9276056291601
 31
0.0
  0
LINE
  5
194A2
  8
SJC2
 10
529.93142073812567
 20
1134.9276056291601
 30
0.0
 11
529.93142073812567
 21
1094.9276056291601
 31
0.0
  0
LINE
  5
194A3
  8
SJC2
 10
532.23142073812539
 20
1134.9276056291601
 30
0.0
 11
532.23142073812539
 21
1094.9276056291601
 31
0.0
  0
LINE
  5
194A4
  8
SJC2
 10
542.93142072512546
 20
1134.9276056291601
 30
0.0
 11
542.93142072512546
 21
1094.9276056291601
 31
0.0
  0
LINE
  5
194A5
  8
SJC2
 10
540.63142072512574
 20
1134.9276056291601
 30
0.0
 11
540.63142072512574
 21
1094.9276056291601
 31
0.0
  0
LINE
  5
194A6
  8
SJC2
 10
583.28142073162962
 20
1094.9276056291601
 30
0.0
 11
583.28142073162962
 21
1134.9276056291601
 31
0.0
  0
LINE
  5
194A7
  8
SJC2
 10
595.88142073162271
 20
1134.9276056291601
 30
0.0
 11
595.88142073162271
 21
1094.9276056291601
 31
0.0
  0
LINE
  5
194A8
  8
SJC2
 10
595.88142073162271
 20
1094.9276056291601
 30
0.0
 11
540.63142072512574
 21
1094.9276056291601
 31
0.0
  0
LINE
  5
194A9
  8
SJC2
 10
595.88142073162271
 20
1134.9276056291601
 30
0.0
 11
540.63142072512574
 21
1134.9276056291601
 31
0.0
  0
ARC
  5
194AA
  8
SJC2
 10
540.36543640276113
 20
514.9276056291601
 30
0.0
 40
7.2469843176835802
 50
290.7368345106234
 51
69.263165489376618
  0
LINE
  5
194AB
  8
SJC2
 10
540.63142072512574
 20
510.92760563316011
 30
0.0
 11
532.23142073812539
 21
510.92760563316011
 31
0.0
  0
LINE
  5
194AC
  8
SJC2
 10
532.23142073812539
 20
518.92760562516014
 30
0.0
 11
540.63142072512574
 21
518.92760562516014
 31
0.0
  0
LINE
  5
194AD
  8
CENTER
 10
553.80941051708658
 20
514.9276056291601
 30
0.0
 11
510.34000829165501
 21
514.9276056291601
 31
0.0
  0
LINE
  5
194AE
  8
SJC2
 10
529.93142073812567
 20
521.70510562238269
 30
0.0
 11
525.25042074280691
 21
521.70510562238269
 31
0.0
  0
LINE
  5
194AF
  8
SJC2
 10
525.25042074280691
 20
521.70510562238269
 30
0.0
 11
525.25042074280691
 21
508.15010563593751
 31
0.0
  0
LINE
  5
194B0
  8
SJC2
 10
525.25042074280691
 20
508.15010563593751
 30
0.0
 11
529.93142073812567
 21
508.15010563593751
 31
0.0
  0
LINE
  5
194B1
  8
SJC2
 10
529.93142073812567
 20
518.92760562516014
 30
0.0
 11
514.62642075343035
 21
518.92760562516014
 31
0.0
  0
LINE
  5
194B2
  8
SJC2
 10
514.62642075343035
 20
518.92760562516014
 30
0.0
 11
514.62642075343035
 21
510.92760563316011
 31
0.0
  0
LINE
  5
194B3
  8
SJC2
 10
514.62642075343035
 20
510.92760563316011
 30
0.0
 11
529.93142073812567
 21
510.92760563316011
 31
0.0
  0
LINE
  5
194B4
  8
SJC2
 10
532.23142073812539
 20
494.92760562915998
 30
0.0
 11
476.98142073162848
 21
494.92760562915998
 31
0.0
  0
LINE
  5
194B5
  8
SJC2
 10
532.23142073812539
 20
534.9276056291601
 30
0.0
 11
476.98142073162848
 21
534.9276056291601
 31
0.0
  0
LINE
  5
194B6
  8
SJC2
 10
489.58142073162202
 20
494.92760562915998
 30
0.0
 11
489.58142073162202
 21
534.9276056291601
 31
0.0
  0
LINE
  5
194B7
  8
SJC2
 10
476.98142073162848
 20
534.9276056291601
 30
0.0
 11
476.98142073162848
 21
494.92760562915998
 31
0.0
  0
LINE
  5
194B8
  8
SJC2
 10
529.93142073812567
 20
534.9276056291601
 30
0.0
 11
529.93142073812567
 21
494.92760562915998
 31
0.0
  0
LINE
  5
194B9
  8
SJC2
 10
532.23142073812539
 20
534.9276056291601
 30
0.0
 11
532.23142073812539
 21
494.92760562915998
 31
0.0
  0
LINE
  5
194BA
  8
SJC2
 10
542.93142072512546
 20
534.9276056291601
 30
0.0
 11
542.93142072512546
 21
494.92760562915998
 31
0.0
  0
LINE
  5
194BB
  8
SJC2
 10
540.63142072512574
 20
534.9276056291601
 30
0.0
 11
540.63142072512574
 21
494.92760562915998
 31
0.0
  0
LINE
  5
194BC
  8
SJC2
 10
583.28142073162962
 20
494.92760562915998
 30
0.0
 11
583.28142073162962
 21
534.9276056291601
 31
0.0
  0
LINE
  5
194BD
  8
SJC2
 10
595.88142073162271
 20
534.9276056291601
 30
0.0
 11
595.88142073162271
 21
494.92760562915998
 31
0.0
  0
LINE
  5
194BE
  8
SJC2
 10
595.88142073162271
 20
494.92760562915998
 30
0.0
 11
540.63142072512574
 21
494.92760562915998
 31
0.0
  0
LINE
  5
194BF
  8
SJC2
 10
595.88142073162271
 20
534.9276056291601
 30
0.0
 11
540.63142072512574
 21
534.9276056291601
 31
0.0
  0
LINE
  5
19569
  8
SJC
 10
492.68142073162488
 20
2289.6479670114149
 30
0.0
 11
580.18142073162494
 21
2289.6479670114149
 31
0.0
  0
ARC
  5
1956A
  8
SJC
 10
536.43142073162494
 20
2251.7964045113931
 30
0.0
 40
57.851562500013678
 50
40.865657358811269
 51
139.13434264118931
  0
LINE
  5
19571
  8
SJC
 10
469.23142073162489
 20
2244.6479670114109
 30
0.0
 11
605.23142073162853
 21
2244.6479670114122
 31
0.0
  0
LINE
  5
19572
  8
SJC
 10
492.68142073162551
 20
2289.6479670114131
 30
0.0
 11
492.68142073162551
 21
2249.6479670114122
 31
0.0
  0
LINE
  5
19573
  8
SJC
 10
580.18142073162608
 20
2289.6479670114131
 30
0.0
 11
580.18142073162619
 21
2249.6479670114122
 31
0.0
  0
LINE
  5
19575
  8
HATCH
 10
492.68142073162488
 20
2289.6479670114149
 30
0.0
 11
580.18142073162448
 21
2289.6479670114149
 31
0.0
1001
ACAD
1000
ASC_BOUNDS
1002
{
1070
    19
1005
1C2EB
1002
}
  0
LINE
  5
19576
  8
HATCH
 10
580.18142073162551
 20
2289.6479670114131
 30
0.0
 11
580.18142073162619
 21
2249.6479670114122
 31
0.0
1001
ACAD
1000
ASC_BOUNDS
1002
{
1070
    19
1005
1C2EB
1002
}
  0
LINE
  5
19578
  8
HATCH
 10
492.68142073162579
 20
2249.6479670114122
 30
0.0
 11
492.68142073162511
 21
2289.6479670114122
 31
0.0
1001
ACAD
1000
ASC_BOUNDS
1002
{
1070
    19
1005
1C2EB
1002
}
  0
LINE
  5
19579
  8
SJC
 10
469.2314207316266
 20
1944.647967011412
 30
0.0
 11
605.23142073162671
 21
1944.647967011412
 31
0.0
  0
LINE
  5
1957A
  8
SJC
 10
462.23142073162478
 20
2237.6479670114122
 30
0.0
 11
462.23142073162762
 21
1951.647967011412
 31
0.0
  0
LINE
  5
1957B
  8
SJC
 10
612.23142073162887
 20
2237.6479670114122
 30
0.0
 11
612.23142073162569
 21
1951.647967011412
 31
0.0
  0
LINE
  5
1957D
  8
SJC
 10
457.23142073162489
 20
2237.6479670114122
 30
0.0
 11
457.2314207316266
 21
1951.647967011412
 31
0.0
  0
ARC
  5
1957E
  8
SJC
 10
469.23142073162489
 20
2237.6479670114122
 30
0.0
 40
12.0
 50
90.0
 51
180.0
  0
ARC
  5
1957F
  8
SJC
 10
469.23142073162489
 20
2237.6479670114122
 30
0.0
 40
7.0
 50
90.0
 51
180.0
  0
LINE
  5
19580
  8
SJC
 10
617.23142073162853
 20
2237.6479670114122
 30
0.0
 11
617.23142073162671
 21
1951.647967011412
 31
0.0
  0
ARC
  5
19581
  8
SJC
 10
605.23142073162671
 20
1951.647967011412
 30
0.0
 40
12.0
 50
270.0
 51
0.0
  0
ARC
  5
19582
  8
SJC
 10
605.23142073162671
 20
1951.647967011412
 30
0.0
 40
7.0
 50
270.0
 51
0.0
  0
ARC
  5
19583
  8
SJC
 10
605.23142073162853
 20
2237.6479670114122
 30
0.0
 40
12.0
 50
0.0
 51
90.0
  0
ARC
  5
19584
  8
SJC
 10
605.23142073162853
 20
2237.6479670114122
 30
0.0
 40
7.0
 50
0.0
 51
90.0
  0
ARC
  5
19585
  8
SJC
 10
469.2314207316266
 20
1951.647967011412
 30
0.0
 40
12.0
 50
180.0
 51
270.0
  0
ARC
  5
19586
  8
SJC
 10
469.2314207316266
 20
1951.647967011412
 30
0.0
 40
7.0
 50
180.0
 51
270.0
  0
LINE
  5
19587
  8
SJC
 10
605.23142073162853
 20
2249.6479670114122
 30
0.0
 11
469.23142073162489
 21
2249.6479670114122
 31
0.0
  0
LINE
  5
19588
  8
SJC
 10
605.23142073162671
 20
1939.6479670114129
 30
0.0
 11
537.23142073162569
 21
1939.647967011412
 31
0.0
  0
LINE
  5
19589
  8
SJC
 10
537.23142073162569
 20
1939.647967011412
 30
0.0
 11
469.2314207316266
 21
1939.647967011412
 31
0.0
  0
DIMENSION
  5
1958A
  8
SUNPOU
  2
*D4
 10
381.84429899027867
 20
1939.647967011412
 30
0.0
 11
354.84429899027839
 21
2094.6479670114122
 31
0.0
 70
     0
 13
469.23142073162489
 23
2249.6479670114122
 33
0.0
 14
469.2314207316266
 24
1939.647967011412
 34
0.0
 50
90.0
1001
ACAD
1000
DSTYLE
1002
{
1070
   287
1070
     5
1070
    40
1040
10.0
1070
    41
1040
2.0
1070
    42
1040
1.0
1070
    43
1040
6.0
1070
    44
1040
1.0
1070
    73
1070
     0
1070
    74
1070
     0
1070
    77
1070
     1
1070
    78
1070
     8
1070
   140
1040
3.0
1070
   147
1040
1.1999999999999991
1070
   172
1070
     1
1070
   179
1070
     2
1070
   271
1070
     2
1070
   279
1070
     2
1070
   340
1005
55
1002
}
  0
DIMENSION
  5
1958B
  8
SUNPOU
  2
*D5
 10
617.23142073162853
 20
2403.6242740015468
 30
0.0
 11
537.23142073162671
 21
2430.6242740015468
 31
0.0
 70
     0
 13
457.23142073162489
 23
2237.6479670114122
 33
0.0
 14
617.23142073162853
 24
2237.6479670114122
 34
0.0
1001
ACAD
1000
DSTYLE
1002
{
1070
   287
1070
     5
1070
    40
1040
10.0
1070
    41
1040
2.0
1070
    42
1040
1.0
1070
    43
1040
6.0
1070
    44
1040
1.0
1070
    73
1070
     0
1070
    74
1070
     0
1070
    77
1070
     1
1070
    78
1070
     8
1070
   140
1040
3.0
1070
   147
1040
1.1999999999999991
1070
   172
1070
     1
1070
   179
1070
     2
1070
   271
1070
     2
1070
   279
1070
     2
1070
   340
1005
55
1002
}
  0
DIMENSION
  5
1958F
  8
SUNPOU
  2
*D6
 10
580.18142073162585
 20
2347.9946414491501
 30
0.0
 11
536.57028500139245
 21
2382.5974293384502
 31
0.0
 70
   128
  1
φ89
 13
492.68142073162318
 23
2289.6479670114131
 33
0.0
 14
580.18142073162585
 24
2289.6479670114131
 34
0.0
1001
ACAD
1000
DSTYLE
1002
{
1070
   287
1070
     5
1070
    40
1040
10.0
1070
    41
1040
2.0
1070
    42
1040
1.0
1070
    43
1040
6.0
1070
    44
1040
1.0
1070
    73
1070
     0
1070
    74
1070
     0
1070
    77
1070
     1
1070
    78
1070
     8
1070
   140
1040
3.0
1070
   147
1040
1.1999999999999991
1070
   172
1070
     1
1070
   179
1070
     2
1070
   271
1070
     2
1070
   279
1070
     2
1070
   340
1005
55
1002
}
  0
DIMENSION
  5
1961D
  8
SUNPOU
  2
*D7
 10
237.26448017749729
 20
449.64796701141222
 30
0.0
 11
210.26448017749729
 21
1349.647967011412
 31
0.0
 70
     0
 13
469.23142073162489
 23
2249.6479670114122
 33
0.0
 14
272.10351895608892
 24
449.64796701141222
 34
0.0
 50
90.0
1001
ACAD
1000
DSTYLE
1002
{
1070
   287
1070
     5
1070
    40
1040
10.0
1070
    41
1040
2.0
1070
    42
1040
1.0
1070
    43
1040
6.0
1070
    44
1040
1.0
1070
    73
1070
     0
1070
    74
1070
     0
1070
    77
1070
     1
1070
    78
1070
     8
1070
   140
1040
3.0
1070
   147
1040
1.1999999999999991
1070
   172
1070
     1
1070
   179
1070
     2
1070
   271
1070
     2
1070
   279
1070
     2
1070
   340
1005
55
1002
}
  0
LINE
  5
196DA
  8
SJC
 10
1257.132353861168
 20
449.64796701141222
 30
0.0
 11
1344.632353861168
 21
449.64796701141222
 31
0.0
  0
ARC
  5
196DB
  8
SJC2
 10
1478.7353411688921
 20
332.76635431701561
 30
0.0
 40
59.251192688568317
 50
61.16631571051208
 51
118.83368428948791
  0
ARC
  5
196DC
  8
SJC2
 10
1478.7353411688921
 20
436.57720558060367
 30
0.0
 40
59.251192688568317
 50
241.16631571051209
 51
298.83368428948791
  0
ARC
  5
196DD
  8
SJC2
 10
1421.5853411688911
 20
436.57720558060367
 30
0.0
 40
59.251192688568317
 50
241.16631571051209
 51
298.83368428948791
  0
LINE
  5
196DF
  8
SJC
 10
1393.0103411688981
 20
494.64796701141222
 30
0.0
 11
1393.0103411688981
 21
384.6717799488024
 31
0.0
  0
LINE
  5
196E0
  8
SJC
 10
1507.3103411688919
 20
494.64796701141222
 30
0.0
 11
1507.310341168893
 21
384.67177994880291
 31
0.0
  0
TEXT
  5
19837
  8
MOJI2
 10
2929.0843369356248
 20
444.22817997675338
 30
0.0
 40
40.0
  1
親子バンド詳細図 S=1/5
 41
0.8
  7
EXT08
 72
     1
 11
3172.284336935626
 21
444.22817997675338
 31
0.0
 73
     1
  0
LINE
  5
19838
  8
MOJI2
 10
2913.844232839469
 20
429.22817997675332
 30
0.0
 11
3430.7204233156599
 21
429.22817997675332
 31
0.0
  0
DIMENSION
  5
1983B
  8
SUNPOU
  2
*D8
 10
3308.9909728507678
 20
937.34148311035358
 30
0.0
 11
3356.4001848879279
 21
1007.374997548999
 31
0.0
 70
   129
  1
t<>
 13
3332.006451960403
 23
916.20625503364874
 33
0.0
 14
3334.5851286962079
 24
920.01551037980494
 34
0.0
1001
ACAD
1000
DSTYLE
1002
{
1070
    40
1040
10.0
1070
    41
1040
2.0
1070
    42
1040
1.0
1070
    43
1040
6.0
1070
    44
1040
1.0
1070
    73
1070
     0
1070
    74
1070
     0
1070
    77
1070
     1
1070
    78
1070
     8
1070
   140
1040
3.0
1070
   144
1040
0.5
1070
   147
1040
1.1999999999999991
1070
   172
1070
     1
1070
   176
1070
   256
1070
   177
1070
   256
1070
   178
1070
   256
1070
   271
1070
     2
1070
   340
1005
55
1002
}
  0
DIMENSION
  5
1983C
  8
SUNPOU
  2
*D9
 10
2996.707327926229
 20
908.62442087223315
 30
0.0
 11
3044.5038561384208
 21
978.39417378474809
 31
0.0
 70
   129
  1
t<>
 13
3018.51822768798
 23
888.10673523531875
 33
0.0
 14
3021.1179712833041
 24
891.90164409305874
 34
0.0
1001
ACAD
1000
DSTYLE
1002
{
1070
    40
1040
10.0
1070
    41
1040
2.0
1070
    42
1040
1.0
1070
    43
1040
6.0
1070
    44
1040
1.0
1070
    73
1070
     0
1070
    74
1070
     0
1070
    77
1070
     1
1070
    78
1070
     8
1070
   140
1040
3.0
1070
   144
1040
0.5
1070
   147
1040
1.1999999999999991
1070
   172
1070
     1
1070
   176
1070
   256
1070
   177
1070
   256
1070
   178
1070
   256
1070
   271
1070
     2
1070
   340
1005
55
1002
}
  0
DIMENSION
  5
1983D
  8
SUNPOU
  2
*D10
 10
3203.8574298288931
 20
726.90282630944785
 30
0.0
 11
3244.4515022922228
 21
837.74780392044715
 31
0.0
 70
   131
  1
φD
 15
3332.0064519604002
 25
916.20625503364658
 35
0.0
 40
0.0
1001
ACAD
1000
DSTYLE
1002
{
1070
   287
1070
     5
1070
   287
1070
     5
1070
   287
1070
     5
1070
   279
1070
     2
1070
    40
1040
10.0
1070
    41
1040
2.0
1070
    42
1040
1.0
1070
    43
1040
6.0
1070
    44
1040
1.0
1070
    73
1070
     0
1070
    74
1070
     0
1070
    77
1070
     1
1070
    78
1070
     8
1070
   140
1040
3.0
1070
   144
1040
0.5
1070
   147
1040
1.1999999999999991
1070
   172
1070
     1
1070
   176
1070
   256
1070
   177
1070
   256
1070
   178
1070
   256
1070
   271
1070
     2
1070
   340
1005
55
1002
}
  0
INSERT
  5
19840
  8
0
  2
*U25
 10
0.0
 20
0.0
 30
0.0
1001
ACAD
1000
DSTYLE
1002
{
1070
     5
1000

1070
    40
1040
10.0
1070
    41
1040
2.0
1070
    42
1040
1.0
1070
    43
1040
6.0
1070
    44
1040
1.0
1070
    73
1070
     0
1070
    74
1070
     0
1070
    77
1070
     1
1070
    78
1070
     8
1070
   140
1040
3.0
1070
   147
1040
1.1999999999999991
1070
   172
1070
     1
1070
   176
1070
   256
1070
   177
1070
   256
1070
   178
1070
   256
1070
   271
1070
     2
1070
   340
1005
55
1070
   342
1005
0
1002
}
  0
LINE
  5
19841
  8
SJC
 10
3557.1837056343152
 20
1361.4992626198571
 30
0.0
 11
3557.1837056343152
 21
996.52947686632285
 31
0.0
  0
LINE
  5
19842
  8
SJC
 10
3394.8901399343508
 20
1361.4992626198571
 30
0.0
 11
3394.8901399343508
 21
996.52947686632285
 31
0.0
  0
TEXT
  5
19843
  8
SUNPOU
 10
3403.0943219077431
 20
1085.090912500825
 30
0.0
 40
40.0
  1
101.6
 41
0.8
  7
EXT08
 72
     4
 11
3473.9514647648862
 21
1105.090912500825
 31
0.0
  0
TEXT
  5
19844
  8
SUNPOU
 10
3431.3230728630829
 20
1015.122774797105
 30
0.0
 40
40.0
  1
89.1
 41
0.8
  7
EXT08
 72
     4
 11
3480.0849776249888
 21
1035.122774797105
 31
0.0
  0
LINE
  5
19845
  8
SJC
 10
3394.8901399343508
 20
996.52947686632285
 30
0.0
 11
3557.1837056343152
 21
996.52947686632285
 31
0.0
  0
LINE
  5
19846
  8
SJC2
 10
3394.8901399343508
 20
1069.5234340170291
 30
0.0
 11
3557.1837056343152
 21
1069.5234340170291
 31
0.0
  0
TEXT
  5
19847
  8
SUNPOU
 10
3437.8371790505998
 20
1304.5628040957749
 30
0.0
 40
40.0
  1
φD
 41
0.8
  7
EXT08
 72
     4
 11
3473.9514647648862
 21
1324.5628040957749
 31
0.0
  0
TEXT
  5
19848
  8
SUNPOU
 10
3403.0943219077431
 20
1231.0788268022391
 30
0.0
 40
40.0
  1
139.8
 41
0.8
  7
EXT08
 72
     4
 11
3473.9514647648862
 21
1251.0788268022391
 31
0.0
  0
LINE
  5
19849
  8
SJC2
 10
3394.8901399343508
 20
1288.5053054691509
 30
0.0
 11
3557.1837056343152
 21
1288.5053054691509
 31
0.0
  0
LINE
  5
1984A
  8
SJC
 10
3394.8901399343508
 20
1361.4992626198571
 30
0.0
 11
3557.1837056343152
 21
1361.4992626198571
 31
0.0
  0
TEXT
  5
1984B
  8
SUNPOU
 10
3403.0943219077431
 20
1161.11068909852
 30
0.0
 40
40.0
  1
114.3
 41
0.8
  7
EXT08
 72
     4
 11
3473.9514647648862
 21
1181.1106890985191
 31
0.0
  0
LINE
  5
1984C
  8
SJC2
 10
3394.8901399343508
 20
1142.5173911677359
 30
0.0
 11
3557.1837056343152
 21
1142.5173911677359
 31
0.0
  0
LINE
  5
1984D
  8
SJC2
 10
3394.8901399343508
 20
1215.5113483184421
 30
0.0
 11
3557.1837056343152
 21
1215.5113483184421
 31
0.0
  0
ARC
  5
1984F
  8
SJC2
 10
3384.3845492810642
 20
845.55454067154835
 30
0.0
 40
4.5999999999999988
 50
11.645180104451599
 51
90.0
  0
ARC
  5
19850
  8
SJC2
 10
3387.6868990383518
 20
838.15454067154849
 30
0.0
 40
2.0
 50
187.89184458412009
 51
270.0
  0
ARC
  5
19851
  8
SJC2
 10
3387.6868990383518
 20
795.75454067154897
 30
0.0
 40
2.0
 50
90.0
 51
172.10815541587979
  0
ARC
  5
19852
  8
SJC2
 10
3387.6868990383518
 20
838.15454067154849
 30
0.0
 40
6.5999999999999091
 50
187.89184458412009
 51
270.0
  0
ARC
  5
19853
  8
SJC2
 10
3387.6868990383518
 20
795.75454067154897
 30
0.0
 40
6.5999999999999091
 50
90.0
 51
172.10815541587979
  0
ARC
  5
19854
  8
SJC2
 10
3384.3845492810642
 20
788.35454067154933
 30
0.0
 40
4.5999999999999988
 50
270.0
 51
348.3548198955483
  0
LINE
  5
19855
  8
SJC2
 10
3385.932152758865
 20
615.47337587198115
 30
0.0
 11
3392.9912565998629
 21
615.47337587198115
 31
0.0
  0
LINE
  5
19856
  8
SJC2
 10
3385.9321527588691
 20
601.47337587198115
 30
0.0
 11
3392.9912565998629
 21
601.47337587198115
 31
0.0
  0
LINE
  5
19857
  8
SJC2
 10
3385.932152758865
 20
563.47337587198115
 30
0.0
 11
3392.9912565998629
 21
563.47337587198115
 31
0.0
  0
LINE
  5
19858
  8
SJC2
 10
3385.9321527588691
 20
549.47337587198115
 30
0.0
 11
3392.9912565998629
 21
549.47337587198115
 31
0.0
  0
LINE
  5
19859
  8
CENTER
 10
2831.2202412339011
 20
816.95454067154867
 30
0.0
 11
3431.900414970663
 21
816.95454067154867
 31
0.0
  0
LINE
  5
1985A
  8
CENTER
 10
2808.1605987111711
 20
582.47337587198115
 30
0.0
 11
3441.3699987401278
 21
582.47337587198115
 31
0.0
  0
LINE
  5
1985B
  8
SJC2
 10
3139.9317290304321
 20
622.47337587198115
 30
0.0
 11
3435.9321527588659
 21
622.47337587198115
 31
0.0
  0
LINE
  5
1985C
  8
SJC2
 10
3139.9317290304321
 20
542.47337587198126
 30
0.0
 11
3435.9321527588659
 21
542.47337587198126
 31
0.0
  0
LINE
  5
1985D
  8
SJC2
 10
3131.9317290304321
 20
831.55454067154824
 30
0.0
 11
3131.9317290304321
 21
826.95454067154878
 31
0.0
  0
ARC
  5
1985E
  8
SJC2
 10
3063.6254752230179
 20
833.55454067154824
 30
0.0
 40
6.6000000000000218
 50
189.9889779059117
 51
270.0
  0
ARC
  5
1985F
  8
SJC2
 10
2875.1268810638039
 20
833.55454067154824
 30
0.0
 40
6.6000000000000218
 50
270.0
 51
350.01102209408828
  0
LINE
  5
19860
  8
SJC2
 10
2826.8206272563898
 20
831.55454067154824
 30
0.0
 11
2826.8206272563898
 21
826.95454067154878
 31
0.0
  0
LINE
  5
19861
  8
CENTER
 10
2969.3761781434109
 20
927.8824864238959
 30
0.0
 11
2969.3761781434109
 21
706.02659491920156
 31
0.0
  0
LINE
  5
19862
  8
CENTER
 10
2851.8206272563889
 20
875.7972322460846
 30
0.0
 11
2851.8206272563889
 21
789.7990269370157
 31
0.0
  0
LINE
  5
19863
  8
CENTER
 10
3267.9319408946481
 20
945.07631801550986
 30
0.0
 11
3267.9319408946481
 21
688.8327633275876
 31
0.0
  0
LINE
  5
19864
  8
CENTER
 10
3105.9317290304321
 20
781.96534307780519
 30
0.0
 11
3105.9317290304321
 21
874.52256259069065
 31
0.0
  0
CIRCLE
  5
19865
  8
SJC2
 10
3105.9317290304321
 20
542.47337587198126
 30
0.0
 40
18.0
  0
CIRCLE
  5
19866
  8
SJC2
 10
3105.9317290304321
 20
622.47337587198115
 30
0.0
 40
18.0
  0
LINE
  5
19867
  8
SJC2
 10
3087.931729030433
 20
797.75454067154885
 30
0.0
 11
3123.9317290304321
 21
797.75454067154885
 31
0.0
  0
ARC
  5
19868
  8
SJC2
 10
3105.9317290304321
 20
814.00454067154351
 30
0.0
 40
24.249999999997002
 50
222.07502205082429
 51
317.92497794917568
  0
LINE
  5
19869
  8
SJC2
 10
3131.9317290304321
 20
826.95454067154878
 30
0.0
 11
3063.6254752230179
 21
826.95454067154878
 31
0.0
  0
LINE
  5
1986A
  8
SJC2
 10
3131.9317290304321
 20
802.35454067154933
 30
0.0
 11
3063.6254752230179
 21
802.35454067154933
 31
0.0
  0
LINE
  5
1986B
  8
SJC2
 10
3131.9317290304321
 20
806.95454067154867
 30
0.0
 11
3063.6254752230179
 21
806.95454067154867
 31
0.0
  0
LINE
  5
1986C
  8
SJC2
 10
3079.9317290304321
 20
797.75454067154885
 30
0.0
 11
3148.1769827509452
 21
797.75454067154885
 31
0.0
  0
LINE
  5
1986D
  8
SJC2
 10
3079.9317290304321
 20
802.35454067154933
 30
0.0
 11
3148.1769827509452
 21
802.35454067154933
 31
0.0
  0
LINE
  5
1986E
  8
SJC2
 10
3071.9317290304321
 20
642.47337587198126
 30
0.0
 11
3139.9317290304321
 21
642.47337587198126
 31
0.0
  0
LINE
  5
1986F
  8
SJC2
 10
3071.9317290304321
 20
522.47337587198115
 30
0.0
 11
3139.9317290304321
 21
522.47337587198115
 31
0.0
  0
LINE
  5
19870
  8
SJC2
 10
3071.9317290304321
 20
622.47337587198115
 30
0.0
 11
2826.8206272563898
 21
622.47337587198115
 31
0.0
  0
LINE
  5
19871
  8
SJC2
 10
3071.9317290304321
 20
542.47337587198126
 30
0.0
 11
2826.8206272563898
 21
542.47337587198126
 31
0.0
  0
ARC
  5
19872
  8
SJC2
 10
2871.1202009522221
 20
556.47337587198308
 30
0.0
 40
9.0274503626009182
 50
309.15753220714851
 51
50.842467792851558
  0
ARC
  5
19873
  8
SJC2
 10
2869.7615234153918
 20
556.47337587198115
 30
0.0
 40
7.0
 50
90.0
 51
270.0
  0
LINE
  5
19874
  8
SJC2
 10
2826.8206272563898
 20
622.47337587198115
 30
0.0
 11
2826.8206272563898
 21
542.47337587198126
 31
0.0
  0
LINE
  5
19875
  8
SJC2
 10
2876.8206272563889
 20
549.47337587198115
 30
0.0
 11
2876.8206272563889
 21
542.47337587198126
 31
0.0
  0
LINE
  5
19876
  8
SJC2
 10
2876.8206272563862
 20
549.47337587198115
 30
0.0
 11
2869.7615234153918
 21
549.47337587198115
 31
0.0
  0
CIRCLE
  5
19877
  8
SJC2
 10
2851.8206272563889
 20
582.47337587198115
 30
0.0
 40
18.0
  0
LINE
  5
19878
  8
SJC2
 10
2876.8206272563889
 20
622.47337587198115
 30
0.0
 11
2876.8206272563889
 21
615.47337587198115
 31
0.0
  0
ARC
  5
19879
  8
SJC2
 10
2871.1202009522221
 20
608.47337587198297
 30
0.0
 40
9.0274503626009182
 50
309.15753220714851
 51
50.842467792851558
  0
ARC
  5
1987A
  8
SJC2
 10
2869.7615234153918
 20
608.47337587198126
 30
0.0
 40
7.0
 50
90.0
 51
270.0
  0
LINE
  5
1987B
  8
SJC2
 10
2876.8206272563862
 20
601.47337587198115
 30
0.0
 11
2869.7615234153918
 21
601.47337587198115
 31
0.0
  0
LINE
  5
1987C
  8
SJC2
 10
2876.8206272563889
 20
615.47337587198115
 30
0.0
 11
2869.7615234153918
 21
615.47337587198115
 31
0.0
  0
LINE
  5
1987D
  8
SJC2
 10
2876.8206272563889
 20
563.47337587198115
 30
0.0
 11
2869.7615234153918
 21
563.47337587198115
 31
0.0
  0
LINE
  5
1987E
  8
SJC2
 10
2876.8206272563889
 20
601.47337587198115
 30
0.0
 11
2876.8206272563889
 21
563.47337587198115
 31
0.0
  0
ARC
  5
1987F
  8
SJC2
 10
3068.99083287143
 20
556.47337587198115
 30
0.0
 40
7.0
 50
270.0
 51
90.0
  0
ARC
  5
19880
  8
SJC2
 10
3067.6321553345988
 20
556.47337587198308
 30
0.0
 40
9.0274503626009182
 50
129.15753220714839
 51
230.84246779285161
  0
LINE
  5
19881
  8
SJC2
 10
3079.9317290304321
 20
642.47337587198126
 30
0.0
 11
3079.9317290304321
 21
522.47337587198115
 31
0.0
  0
LINE
  5
19882
  8
SJC2
 10
3079.9317290304321
 20
642.47337587198126
 30
0.0
 11
3079.9317290304321
 21
522.47337587198115
 31
0.0
  0
LINE
  5
19883
  8
SJC2
 10
3079.9317290304321
 20
642.47337587198126
 30
0.0
 11
3079.9317290304321
 21
522.47337587198115
 31
0.0
  0
LINE
  5
19884
  8
SJC2
 10
3071.9317290304321
 20
542.47337587198126
 30
0.0
 11
3071.9317290304321
 21
522.47337587198115
 31
0.0
  0
LINE
  5
19885
  8
SJC2
 10
3061.9317290304321
 20
549.47337587198388
 30
0.0
 11
3061.9317290304321
 21
542.47337587198126
 31
0.0
  0
LINE
  5
19886
  8
SJC2
 10
3061.9317290304348
 20
549.47337587198115
 30
0.0
 11
3068.99083287143
 21
549.47337587198115
 31
0.0
  0
ARC
  5
19887
  8
SJC2
 10
3068.99083287143
 20
608.47337587198126
 30
0.0
 40
7.0
 50
270.0
 51
90.0
  0
LINE
  5
19888
  8
SJC2
 10
3061.9317290304321
 20
622.47337587198115
 30
0.0
 11
3061.9317290304321
 21
615.47337587198115
 31
0.0
  0
ARC
  5
19889
  8
SJC2
 10
3067.6321553345988
 20
608.47337587198297
 30
0.0
 40
9.0274503626009182
 50
129.15753220714839
 51
230.84246779285161
  0
LINE
  5
1988A
  8
SJC2
 10
3061.9317290304321
 20
615.47337587198115
 30
0.0
 11
3068.99083287143
 21
615.47337587198115
 31
0.0
  0
LINE
  5
1988B
  8
SJC2
 10
3061.9317290304348
 20
601.47337587198115
 30
0.0
 11
3068.99083287143
 21
601.47337587198115
 31
0.0
  0
LINE
  5
1988C
  8
SJC2
 10
3071.9317290304321
 20
642.47337587198126
 30
0.0
 11
3071.9317290304321
 21
622.47337587198115
 31
0.0
  0
LINE
  5
1988D
  8
SJC2
 10
3061.9317290304321
 20
563.47337587198115
 30
0.0
 11
3068.99083287143
 21
563.47337587198115
 31
0.0
  0
LINE
  5
1988E
  8
SJC2
 10
3061.9317290304321
 20
601.47337587198399
 30
0.0
 11
3061.9317290304321
 21
563.47337587198115
 31
0.0
  0
ARC
  5
1988F
  8
SJC2
 10
2969.3761781434109
 20
816.95454067154867
 30
0.0
 40
93.699999999999974
 50
189.9889779059117
 51
350.01102209408828
  0
ARC
  5
19890
  8
SJC2
 10
2969.3761781434109
 20
816.95454067154867
 30
0.0
 40
89.099999999999994
 50
189.9889779059117
 51
350.01102209414188
  0
LINE
  5
19891
  8
SJC2
 10
2843.8206272563889
 20
806.95454067154867
 30
0.0
 11
2843.8206272563889
 21
826.95454067154969
 31
0.0
  0
LINE
  5
19892
  8
SJC2
 10
2859.8206272563889
 20
806.95454067154867
 30
0.0
 11
2859.8206272563889
 21
826.95454067154969
 31
0.0
  0
ARC
  5
19893
  8
SJC2
 10
2851.8206272563889
 20
818.60454067154376
 30
0.0
 40
24.249999999997002
 50
222.07502205082429
 51
303.224787083921
  0
LINE
  5
19894
  8
SJC2
 10
2833.8206272563898
 20
802.35454067154933
 30
0.0
 11
2869.820627256388
 21
802.35454067154933
 31
0.0
  0
LINE
  5
19895
  8
SJC2
 10
2875.1268810638039
 20
826.95454067154878
 30
0.0
 11
2826.8206272563898
 21
826.95454067154878
 31
0.0
  0
LINE
  5
19896
  8
SJC2
 10
2880.1476513148232
 20
788.35454067154933
 30
0.0
 11
2878.8019544371059
 21
788.35454067154842
 31
0.0
  0
ARC
  5
19897
  8
SJC2
 10
2969.3761781434109
 20
816.95454067154867
 30
0.0
 40
98.299999999999997
 50
192.2024096208475
 51
194.84094484087791
  0
ARC
  5
19898
  8
SJC2
 10
2875.1268810638039
 20
800.35454067154944
 30
0.0
 40
2.0
 50
9.9889779059116854
 51
90.0
  0
ARC
  5
19899
  8
SJC2
 10
2878.8019544371059
 20
792.95454067154878
 30
0.0
 40
4.5999999999999988
 50
194.84094484087791
 51
270.0
  0
ARC
  5
1989A
  8
SJC2
 10
2875.1268810638039
 20
800.35454067154944
 30
0.0
 40
6.6000000000000218
 50
9.9889779059116854
 51
90.0
  0
LINE
  5
1989B
  8
SJC2
 10
2871.3422554431531
 20
797.75454067154885
 30
0.0
 11
2867.3151669785188
 21
797.75454067154885
 31
0.0
  0
ARC
  5
1989C
  8
SJC2
 10
2969.3761781434109
 20
816.95454067154867
 30
0.0
 40
107.6999999999999
 50
187.79110415897719
 51
188.14102578044961
  0
ARC
  5
1989D
  8
SJC2
 10
2867.3151669785188
 20
802.35454067154842
 30
0.0
 40
4.5999999999999988
 50
188.14102578044961
 51
270.0
  0
ARC
  5
1989E
  8
SJC2
 10
2871.3422554431531
 20
795.75454067154897
 30
0.0
 40
2.0
 50
12.202409620847479
 51
90.0
  0
LINE
  5
1989F
  8
SJC2
 10
2826.8206272563898
 20
806.95454067154867
 30
0.0
 11
2826.8206272563898
 21
802.35454067154933
 31
0.0
  0
LINE
  5
198A0
  8
SJC2
 10
2875.1268810638039
 20
806.95454067154867
 30
0.0
 11
2826.8206272563898
 21
806.95454067154867
 31
0.0
  0
LINE
  5
198A1
  8
SJC2
 10
2875.1268810638039
 20
802.35454067154933
 30
0.0
 11
2826.8206272563898
 21
802.35454067154933
 31
0.0
  0
LINE
  5
198A2
  8
SJC2
 10
3097.9317290304321
 20
806.95454067154776
 30
0.0
 11
3097.9317290304321
 21
826.95454067154878
 31
0.0
  0
ARC
  5
198A3
  8
SJC2
 10
2969.3761781434109
 20
816.95454067154867
 30
0.0
 40
107.6999999999999
 50
351.85897421955042
 51
352.20889584102281
  0
ARC
  5
198A4
  8
SJC2
 10
3071.437189308303
 20
802.35454067154933
 30
0.0
 40
4.5999999999999988
 50
270.0
 51
351.85897421955042
  0
ARC
  5
198A5
  8
SJC2
 10
3067.4101008436678
 20
795.75454067154897
 30
0.0
 40
2.0
 50
90.0
 51
167.7975903791525
  0
ARC
  5
198A6
  8
SJC2
 10
3063.6254752230179
 20
800.35454067154944
 30
0.0
 40
2.0
 50
90.0
 51
170.0110220940883
  0
ARC
  5
198A7
  8
SJC2
 10
2969.3761781434109
 20
816.95454067154867
 30
0.0
 40
98.299999999999997
 50
345.15905515912209
 51
347.7975903791525
  0
LINE
  5
198A8
  8
SJC2
 10
3059.9504018497169
 20
788.35454067154933
 30
0.0
 11
3058.6047049719982
 21
788.35454067154933
 31
0.0
  0
ARC
  5
198A9
  8
SJC2
 10
3063.6254752230179
 20
800.35454067154944
 30
0.0
 40
6.6000000000000218
 50
90.0
 51
170.0110220940883
  0
ARC
  5
198AA
  8
SJC2
 10
3059.9504018497169
 20
792.95454067154878
 30
0.0
 40
4.5999999999999988
 50
270.0
 51
345.15905515912209
  0
LINE
  5
198AB
  8
SJC2
 10
3071.437189308303
 20
797.75454067154885
 30
0.0
 11
3067.4101008436678
 21
797.75454067154885
 31
0.0
  0
LINE
  5
198AC
  8
SJC2
 10
3079.9317290304321
 20
797.75454067154885
 30
0.0
 11
3079.9317290304321
 21
802.35454067154933
 31
0.0
  0
ARC
  5
198AD
  8
SJC2
 10
3144.2313027262649
 20
556.47337587198308
 30
0.0
 40
9.0274503626009182
 50
309.15753220714851
 51
50.842467792851558
  0
ARC
  5
198AE
  8
SJC2
 10
3142.8726251894341
 20
556.47337587198115
 30
0.0
 40
7.0
 50
90.0
 51
270.0
  0
LINE
  5
198AF
  8
SJC2
 10
3149.9317290304289
 20
549.47337587198115
 30
0.0
 11
3142.8726251894341
 21
549.47337587198115
 31
0.0
  0
LINE
  5
198B0
  8
SJC2
 10
3139.9317290304321
 20
542.47337587198126
 30
0.0
 11
3139.9317290304321
 21
522.47337587198115
 31
0.0
  0
LINE
  5
198B1
  8
SJC2
 10
3149.9317290304321
 20
549.47337587198388
 30
0.0
 11
3149.9317290304321
 21
542.47337587198126
 31
0.0
  0
LINE
  5
198B2
  8
SJC2
 10
3149.9317290304321
 20
622.47337587198115
 30
0.0
 11
3149.9317290304321
 21
615.47337587198115
 31
0.0
  0
ARC
  5
198B3
  8
SJC2
 10
3144.2313027262649
 20
608.47337587198297
 30
0.0
 40
9.0274503626009182
 50
309.15753220714851
 51
50.842467792851558
  0
LINE
  5
198B4
  8
SJC2
 10
3149.9317290304289
 20
601.47337587198115
 30
0.0
 11
3142.8726251894341
 21
601.47337587198115
 31
0.0
  0
LINE
  5
198B5
  8
SJC2
 10
3149.9317290304321
 20
615.47337587198115
 30
0.0
 11
3142.8726251894341
 21
615.47337587198115
 31
0.0
  0
LINE
  5
198B6
  8
SJC2
 10
3139.9317290304321
 20
642.47337587198126
 30
0.0
 11
3139.9317290304321
 21
622.47337587198115
 31
0.0
  0
ARC
  5
198B7
  8
SJC2
 10
3142.8726251894341
 20
608.47337587198126
 30
0.0
 40
7.0
 50
90.0
 51
270.0
  0
LINE
  5
198B8
  8
SJC2
 10
3149.9317290304321
 20
563.47337587198115
 30
0.0
 11
3142.8726251894341
 21
563.47337587198115
 31
0.0
  0
LINE
  5
198B9
  8
SJC2
 10
3149.9317290304321
 20
601.47337587198399
 30
0.0
 11
3149.9317290304321
 21
563.47337587198115
 31
0.0
  0
ARC
  5
198BA
  8
SJC2
 10
3391.6325790630331
 20
556.47337587198308
 30
0.0
 40
9.0274503626009182
 50
129.15753220714839
 51
230.84246779285161
  0
LINE
  5
198BB
  8
SJC2
 10
3385.932152758865
 20
549.47337587198115
 30
0.0
 11
3385.932152758865
 21
542.47337587198126
 31
0.0
  0
LINE
  5
198BC
  8
SJC2
 10
3385.932152758865
 20
622.47337587198115
 30
0.0
 11
3385.932152758865
 21
615.47337587198115
 31
0.0
  0
ARC
  5
198BD
  8
SJC2
 10
3391.6325790630331
 20
608.47337587198297
 30
0.0
 40
9.0274503626009182
 50
129.15753220714839
 51
230.84246779285161
  0
LINE
  5
198BE
  8
SJC2
 10
3385.932152758865
 20
601.47337587198115
 30
0.0
 11
3385.932152758865
 21
563.47337587198115
 31
0.0
  0
ARC
  5
198BF
  8
SJC2
 10
3267.9319408946481
 20
812.35454067154933
 30
0.0
 40
114.3
 50
187.89184458412009
 51
352.10821395970322
  0
ARC
  5
198C0
  8
SJC2
 10
3267.9319408946481
 20
812.35454067154933
 30
0.0
 40
118.90000000000001
 50
187.8918161268885
 51
352.10815541587988
  0
LINE
  5
198C1
  8
SJC2
 10
3113.9317290304321
 20
806.95454067154776
 30
0.0
 11
3113.9317290304321
 21
826.95454067154878
 31
0.0
  0
LINE
  5
198C2
  8
SJC2
 10
3131.9317290304321
 20
806.95454067154867
 30
0.0
 11
3131.9317290304321
 21
802.35454067154933
 31
0.0
  0
ARC
  5
198C3
  8
SJC2
 10
3148.1769827509452
 20
795.75454067154897
 30
0.0
 40
6.6000000000000218
 50
7.8918445841201574
 51
90.0
  0
ARC
  5
198C4
  8
SJC2
 10
3148.1769827509452
 20
795.75454067154897
 30
0.0
 40
2.0
 50
7.8918445841201574
 51
90.0
  0
ARC
  5
198C5
  8
SJC2
 10
3144.235497938515
 20
791.1545406715486
 30
0.0
 40
2.0
 50
9.7252816455754072
 51
90.0
  0
ARC
  5
198C6
  8
SJC2
 10
3151.4793325082328
 20
788.35454067154933
 30
0.0
 40
4.5999999999999988
 50
191.64518010445161
 51
270.0
  0
LINE
  5
198C7
  8
SJC2
 10
3151.4793325082328
 20
783.75454067154897
 30
0.0
 11
3152.5228857906409
 21
783.75454067154897
 31
0.0
  0
ARC
  5
198C8
  8
SJC2
 10
3267.9319408946481
 20
812.35454067154933
 30
0.0
 40
123.5
 50
189.72528164557531
 51
191.64518010445161
  0
ARC
  5
198C9
  8
SJC2
 10
3140.4653570383298
 20
797.75454067154885
 30
0.0
 40
4.5999999999999988
 50
186.5341730056733
 51
270.0
  0
ARC
  5
198CA
  8
SJC2
 10
3267.9319408946481
 20
812.35454067154933
 30
0.0
 40
132.90000000000001
 50
186.3070743532017
 51
186.5341730056733
  0
LINE
  5
198CB
  8
SJC2
 10
3140.4653570383298
 20
793.1545406715486
 30
0.0
 11
3144.235497938515
 21
793.1545406715486
 31
0.0
  0
LINE
  5
198CC
  8
SJC2
 10
3383.340995998657
 20
783.75454067154897
 30
0.0
 11
3384.3845492810642
 21
783.75454067154897
 31
0.0
  0
LINE
  5
198CD
  8
SJC2
 10
3097.9317290304321
 20
866.75454067154897
 30
0.0
 11
3113.9317290304321
 21
866.75454067154897
 31
0.0
  0
LINE
  5
198CE
  8
SJC2
 10
3098.9317290304321
 20
867.75454067154897
 30
0.0
 11
3112.9317290304321
 21
867.75454067154897
 31
0.0
  0
LINE
  5
198CF
  8
SJC2
 10
3092.9317290304321
 20
836.15454067154849
 30
0.0
 11
3118.9317290304321
 21
836.15454067154849
 31
0.0
  0
ARC
  5
198D0
  8
SJC2
 10
3105.9317290304361
 20
860.99342750435244
 30
0.0
 40
24.838886832804359
 50
252.41204622600949
 51
287.58795377399048
  0
LINE
  5
198D1
  8
SJC2
 10
3092.9317290304321
 20
849.75454067154703
 30
0.0
 11
3118.9317290304321
 21
849.75454067154703
 31
0.0
  0
ARC
  5
198D2
  8
SJC2
 10
3105.9317290304361
 20
824.91565383874331
 30
0.0
 40
24.838886832804359
 50
72.412046226009537
 51
107.58795377399041
  0
LINE
  5
198D3
  8
SJC2
 10
3131.9317290304321
 20
831.55454067154824
 30
0.0
 11
3063.6254752230179
 21
831.55454067154824
 31
0.0
  0
LINE
  5
198D4
  8
SJC2
 10
3079.9317290304321
 20
836.15454067154849
 30
0.0
 11
3148.1769827509452
 21
836.15454067154849
 31
0.0
  0
LINE
  5
198D5
  8
SJC2
 10
3079.9317290304321
 20
831.55454067154824
 30
0.0
 11
3148.1769827509452
 21
831.55454067154824
 31
0.0
  0
ARC
  5
198D6
  8
SJC2
 10
2969.3761781434109
 20
816.95454067154867
 30
0.0
 40
89.099999999999994
 50
9.9889779058581052
 51
170.0110220940883
  0
ARC
  5
198D7
  8
SJC2
 10
2969.3761781434109
 20
816.95454067154867
 30
0.0
 40
93.699999999999974
 50
9.9889779059116854
 51
170.0110220940883
  0
LINE
  5
198D8
  8
SJC2
 10
2864.8206272563862
 20
845.15454067154667
 30
0.0
 11
2866.8317342553169
 21
843.99342750434687
 31
0.0
  0
LINE
  5
198D9
  8
SJC2
 10
2858.8206272563871
 20
845.15454067154667
 30
0.0
 11
2858.8206272563898
 21
872.35454067154922
 31
0.0
  0
LINE
  5
198DA
  8
SJC2
 10
2859.8206272563871
 20
845.15454067154667
 30
0.0
 11
2859.8206272563898
 21
871.35454067154933
 31
0.0
  0
LINE
  5
198DB
  8
SJC2
 10
2843.8206272563862
 20
845.15454067154667
 30
0.0
 11
2843.8206272563889
 21
871.35454067154933
 31
0.0
  0
LINE
  5
198DC
  8
SJC2
 10
2844.8206272563862
 20
845.15454067154667
 30
0.0
 11
2844.8206272563889
 21
872.35454067154922
 31
0.0
  0
ARC
  5
198DD
  8
SJC2
 10
2851.8206272563889
 20
820.31565383874283
 30
0.0
 40
24.838886832804359
 50
72.412046226009537
 51
107.58795377399041
  0
ARC
  5
198DE
  8
SJC2
 10
2840.562297007189
 20
838.50940152563078
 30
0.0
 40
6.6451391459162759
 50
55.615752532008258
 51
124.3842474679592
  0
LINE
  5
198DF
  8
SJC2
 10
2838.8206272563848
 20
845.15454067154667
 30
0.0
 11
2836.8095202574559
 21
843.99342750434687
 31
0.0
  0
ARC
  5
198E0
  8
SJC2
 10
2863.0789575055851
 20
838.50940152564544
 30
0.0
 40
6.6451391459012621
 50
55.615752531979403
 51
124.3842474680531
  0
LINE
  5
198E1
  8
SJC2
 10
2838.8206272563848
 20
845.15454067154667
 30
0.0
 11
2864.8206272563862
 21
845.15454067154667
 31
0.0
  0
ARC
  5
198E2
  8
SJC2
 10
2851.8206272563889
 20
856.39342750435196
 30
0.0
 40
24.838886832804359
 50
252.41204622600949
 51
287.58795377399048
  0
ARC
  5
198E3
  8
SJC2
 10
2840.562297007189
 20
838.19967981746595
 30
0.0
 40
6.6451391459162759
 50
235.6157525320408
 51
304.38424746799171
  0
LINE
  5
198E4
  8
SJC2
 10
2838.8206272563848
 20
831.55454067154824
 30
0.0
 11
2836.8095202574559
 21
832.71565383874974
 31
0.0
  0
ARC
  5
198E5
  8
SJC2
 10
2863.0789575055851
 20
838.19967981744958
 30
0.0
 40
6.6451391459012621
 50
235.6157525319469
 51
270.0
  0
LINE
  5
198E6
  8
SJC2
 10
2838.8206272563848
 20
831.55454067154824
 30
0.0
 11
2864.8206272563862
 21
831.55454067154824
 31
0.0
  0
LINE
  5
198E7
  8
SJC2
 10
2859.3261807558511
 20
843.99342750434516
 30
0.0
 11
2859.3261807558511
 21
832.71565383875156
 31
0.0
  0
LINE
  5
198E8
  8
SJC2
 10
2866.8317342553169
 20
843.99342750434687
 30
0.0
 11
2866.8317342553169
 21
836.1290671828001
 31
0.0
  0
LINE
  5
198E9
  8
SJC2
 10
2836.8095202574559
 20
843.99342750434687
 30
0.0
 11
2836.8095202574559
 21
832.71565383874974
 31
0.0
  0
LINE
  5
198EA
  8
SJC2
 10
2844.3150737569199
 20
843.99342750434869
 30
0.0
 11
2844.3150737569199
 21
832.71565383874633
 31
0.0
  0
LINE
  5
198EB
  8
SJC2
 10
2844.8206272563889
 20
872.35454067154922
 30
0.0
 11
2858.8206272563898
 21
872.35454067154922
 31
0.0
  0
LINE
  5
198EC
  8
SJC2
 10
2843.8206272563889
 20
871.35454067154933
 30
0.0
 11
2859.8206272563889
 21
871.35454067154933
 31
0.0
  0
LINE
  5
198ED
  8
SJC2
 10
2843.8206272563889
 20
871.35454067154933
 30
0.0
 11
2844.8206272563889
 21
872.35454067154922
 31
0.0
  0
LINE
  5
198EE
  8
SJC2
 10
2859.8206272563889
 20
871.35454067154933
 30
0.0
 11
2858.8206272563898
 21
872.35454067154922
 31
0.0
  0
ARC
  5
198EF
  8
SJC2
 10
2875.1268810638039
 20
833.55454067154824
 30
0.0
 40
2.0
 50
270.0
 51
350.01102209408828
  0
LINE
  5
198F0
  8
SJC2
 10
2880.1476513148232
 20
845.55454067154835
 30
0.0
 11
2878.8019544371059
 21
845.55454067154915
 31
0.0
  0
ARC
  5
198F1
  8
SJC2
 10
2969.3761781434109
 20
816.95454067154867
 30
0.0
 40
98.299999999999997
 50
165.15905515912209
 51
167.7975903791525
  0
ARC
  5
198F2
  8
SJC2
 10
2878.8019544371059
 20
840.95454067154867
 30
0.0
 40
4.5999999999999988
 50
90.0
 51
165.15905515912209
  0
ARC
  5
198F3
  8
SJC2
 10
2969.3761781434109
 20
816.95454067154867
 30
0.0
 40
107.6999999999999
 50
171.8589742195503
 51
172.2088958410227
  0
LINE
  5
198F4
  8
SJC2
 10
2871.3422554431531
 20
836.15454067154849
 30
0.0
 11
2867.3151669785188
 21
836.15454067154849
 31
0.0
  0
ARC
  5
198F5
  8
SJC2
 10
2867.3151669785188
 20
831.55454067154915
 30
0.0
 40
4.5999999999999988
 50
90.0
 51
171.8589742195503
  0
ARC
  5
198F6
  8
SJC2
 10
2871.3422554431531
 20
838.15454067154849
 30
0.0
 40
2.0
 50
270.0
 51
347.7975903791525
  0
LINE
  5
198F7
  8
SJC2
 10
2875.1268810638039
 20
831.55454067154824
 30
0.0
 11
2826.8206272563898
 21
831.55454067154824
 31
0.0
  0
LINE
  5
198F8
  8
SJC2
 10
3097.9317290304321
 20
866.75454067154897
 30
0.0
 11
3098.9317290304321
 21
867.75454067154897
 31
0.0
  0
LINE
  5
198F9
  8
SJC2
 10
3098.4261755309672
 20
848.59342750434917
 30
0.0
 11
3098.4261755309672
 21
837.31565383874647
 31
0.0
  0
LINE
  5
198FA
  8
SJC2
 10
3090.9206220315032
 20
848.59342750434723
 30
0.0
 11
3090.9206220315032
 21
837.31565383875011
 31
0.0
  0
LINE
  5
198FB
  8
SJC2
 10
3092.9317290304321
 20
836.15454067154849
 30
0.0
 11
3090.9206220315032
 21
837.31565383875011
 31
0.0
  0
ARC
  5
198FC
  8
SJC2
 10
3094.6733987812349
 20
842.7996798174662
 30
0.0
 40
6.6451391459162759
 50
235.6157525320408
 51
304.38424746799171
  0
LINE
  5
198FD
  8
SJC2
 10
3092.9317290304321
 20
849.75454067154703
 30
0.0
 11
3090.9206220315032
 21
848.59342750434723
 31
0.0
  0
ARC
  5
198FE
  8
SJC2
 10
3094.6733987812349
 20
843.10940152563126
 30
0.0
 40
6.6451391459162759
 50
55.615752532008258
 51
124.3842474679592
  0
LINE
  5
198FF
  8
SJC2
 10
3098.9317290304321
 20
849.75454067154703
 30
0.0
 11
3098.9317290304321
 21
867.75454067154897
 31
0.0
  0
LINE
  5
19900
  8
SJC2
 10
3097.9317290304321
 20
849.75454067154703
 30
0.0
 11
3097.9317290304321
 21
866.75454067154897
 31
0.0
  0
ARC
  5
19901
  8
SJC2
 10
2969.3761781434109
 20
816.95454067154867
 30
0.0
 40
107.6999999999999
 50
7.7911041589772276
 51
8.1410257804496347
  0
ARC
  5
19902
  8
SJC2
 10
3071.437189308303
 20
831.55454067154824
 30
0.0
 40
4.5999999999999988
 50
8.1410257804496347
 51
90.0
  0
ARC
  5
19903
  8
SJC2
 10
3063.6254752230179
 20
833.55454067154824
 30
0.0
 40
2.0
 50
189.9889779059117
 51
270.0
  0
ARC
  5
19904
  8
SJC2
 10
3067.4101008436678
 20
838.15454067154849
 30
0.0
 40
2.0
 50
192.2024096208475
 51
270.0
  0
ARC
  5
19905
  8
SJC2
 10
2969.3761781434109
 20
816.95454067154867
 30
0.0
 40
98.299999999999997
 50
12.202409620847479
 51
14.84094484087789
  0
LINE
  5
19906
  8
SJC2
 10
3059.9504018497169
 20
845.55454067154835
 30
0.0
 11
3058.6047049719982
 21
845.55454067154835
 31
0.0
  0
ARC
  5
19907
  8
SJC2
 10
3059.9504018497169
 20
840.95454067154867
 30
0.0
 40
4.5999999999999988
 50
14.84094484087789
 51
90.0
  0
LINE
  5
19908
  8
SJC2
 10
3071.437189308303
 20
836.15454067154849
 30
0.0
 11
3067.4101008436678
 21
836.15454067154849
 31
0.0
  0
LINE
  5
19909
  8
SJC2
 10
3079.9317290304321
 20
831.55454067154824
 30
0.0
 11
3079.9317290304321
 21
836.15454067154849
 31
0.0
  0
ARC
  5
1990A
  8
SJC2
 10
3267.9319408946481
 20
821.55454067154835
 30
0.0
 40
118.90000000000001
 50
7.8918445841201574
 51
172.10815541587979
  0
ARC
  5
1990B
  8
SJC2
 10
3267.9319408946481
 20
821.55454067154835
 30
0.0
 40
114.3
 50
7.8918445841201574
 51
172.10819356506209
  0
LINE
  5
1990C
  8
SJC2
 10
3113.9317290304321
 20
866.75454067154897
 30
0.0
 11
3112.9317290304321
 21
867.75454067154897
 31
0.0
  0
LINE
  5
1990D
  8
SJC2
 10
3120.9428360293618
 20
848.59342750434723
 30
0.0
 11
3120.9428360293618
 21
837.31565383875011
 31
0.0
  0
LINE
  5
1990E
  8
SJC2
 10
3113.4372825298979
 20
848.59342750434541
 30
0.0
 11
3113.4372825298979
 21
837.31565383875216
 31
0.0
  0
ARC
  5
1990F
  8
SJC2
 10
3117.1900592796319
 20
842.79967981744994
 30
0.0
 40
6.6451391459012621
 50
235.6157525319469
 51
304.38424746802059
  0
LINE
  5
19910
  8
SJC2
 10
3118.9317290304321
 20
836.15454067154849
 30
0.0
 11
3120.9428360293618
 21
837.31565383875011
 31
0.0
  0
ARC
  5
19911
  8
SJC2
 10
3117.1900592796319
 20
843.10940152564592
 30
0.0
 40
6.6451391459012621
 50
55.615752531979403
 51
124.3842474680531
  0
LINE
  5
19912
  8
SJC2
 10
3113.931729030433
 20
849.75454067154703
 30
0.0
 11
3113.931729030433
 21
866.75454067154897
 31
0.0
  0
LINE
  5
19913
  8
SJC2
 10
3112.9317290304339
 20
849.75454067154703
 30
0.0
 11
3112.9317290304321
 21
867.75454067154897
 31
0.0
  0
LINE
  5
19914
  8
SJC2
 10
3118.9317290304321
 20
849.75454067154703
 30
0.0
 11
3120.9428360293618
 21
848.59342750434723
 31
0.0
  0
LINE
  5
19915
  8
SJC2
 10
3151.4793325082328
 20
850.1545406715486
 30
0.0
 11
3152.5228857906409
 21
850.1545406715486
 31
0.0
  0
ARC
  5
19916
  8
SJC2
 10
3151.4793325082328
 20
845.55454067154835
 30
0.0
 40
4.5999999999999988
 50
90.0
 51
168.35481989554839
  0
ARC
  5
19917
  8
SJC2
 10
3144.235497938515
 20
842.75454067154897
 30
0.0
 40
2.0
 50
270.0
 51
350.27471835442458
  0
ARC
  5
19918
  8
SJC2
 10
3148.1769827509452
 20
838.15454067154849
 30
0.0
 40
2.0
 50
270.0
 51
352.10815541587988
  0
ARC
  5
19919
  8
SJC2
 10
3148.1769827509452
 20
838.15454067154849
 30
0.0
 40
6.6000000000000218
 50
270.0
 51
352.10815541587988
  0
ARC
  5
1991A
  8
SJC2
 10
3267.9319408946481
 20
821.55454067154835
 30
0.0
 40
132.90000000000001
 50
173.4658269943267
 51
173.69292564679819
  0
ARC
  5
1991B
  8
SJC2
 10
3140.4653570383298
 20
836.15454067154849
 30
0.0
 40
4.5999999999999988
 50
90.0
 51
173.4658269943267
  0
LINE
  5
1991C
  8
SJC2
 10
3140.4653570383298
 20
840.75454067154897
 30
0.0
 11
3144.235497938515
 21
840.75454067154897
 31
0.0
  0
ARC
  5
1991D
  8
SJC2
 10
3267.9319408946481
 20
821.55454067154835
 30
0.0
 40
123.5
 50
168.35481989554839
 51
170.27471835442461
  0
LINE
  5
1991E
  8
SJC2
 10
3383.340995998657
 20
850.1545406715486
 30
0.0
 11
3384.3845492810642
 21
850.1545406715486
 31
0.0
  0
LINE
  5
1991F
  8
SJC2
 10
3402.9321527588659
 20
802.35454067154933
 30
0.0
 11
3402.932152758864
 21
831.55454067154824
 31
0.0
  0
LINE
  5
19920
  8
SJC2
 10
3418.932152758865
 20
802.35454067154933
 30
0.0
 11
3418.932152758865
 21
831.55454067154824
 31
0.0
  0
LINE
  5
19921
  8
CENTER
 10
3410.9321527588659
 20
785.55594744138398
 30
0.0
 11
3410.9321527588659
 21
870.40896378408422
 31
0.0
  0
LINE
  5
19923
  8
SJC2
 10
3435.9321527588659
 20
622.47337587198115
 30
0.0
 11
3435.9321527588659
 21
542.47337587198126
 31
0.0
  0
ARC
  5
19924
  8
SJC2
 10
3392.9912565998629
 20
556.47337587198115
 30
0.0
 40
7.0
 50
270.0
 51
90.0
  0
CIRCLE
  5
19925
  8
SJC2
 10
3410.9321527588659
 20
582.47337587198115
 30
0.0
 40
18.0
  0
ARC
  5
19926
  8
SJC2
 10
3392.9912565998629
 20
608.47337587198126
 30
0.0
 40
7.0
 50
270.0
 51
90.0
  0
ARC
  5
19927
  8
SJC2
 10
3410.9321527588659
 20
814.00454067154351
 30
0.0
 40
24.249999999997002
 50
236.72481497398121
 51
317.92497794917568
  0
LINE
  5
19928
  8
SJC2
 10
3392.9321527588659
 20
797.75454067154885
 30
0.0
 11
3428.932152758865
 21
797.75454067154885
 31
0.0
  0
LINE
  5
19929
  8
SJC2
 10
3435.9321527588659
 20
797.75454067154885
 30
0.0
 11
3435.9321527588659
 21
802.35454067154933
 31
0.0
  0
LINE
  5
1992A
  8
SJC2
 10
3391.6283838507829
 20
793.1545406715486
 30
0.0
 11
3395.3985247509672
 21
793.1545406715486
 31
0.0
  0
ARC
  5
1992B
  8
SJC2
 10
3267.9319408946481
 20
812.35454067154933
 30
0.0
 40
123.5
 50
348.3548198955483
 51
350.27471835442458
  0
ARC
  5
1992C
  8
SJC2
 10
3267.9319408946481
 20
812.35454067154933
 30
0.0
 40
132.90000000000001
 50
353.46582699432679
 51
353.6929256467983
  0
ARC
  5
1992D
  8
SJC2
 10
3395.3985247509672
 20
797.75454067154885
 30
0.0
 40
4.5999999999999988
 50
270.0
 51
353.46582699432679
  0
ARC
  5
1992E
  8
SJC2
 10
3391.6283838507829
 20
791.1545406715486
 30
0.0
 40
2.0
 50
90.0
 51
170.27471835442461
  0
LINE
  5
1992F
  8
SJC2
 10
3387.6868990383518
 20
802.35454067154933
 30
0.0
 11
3435.9321527588659
 21
802.35454067154933
 31
0.0
  0
LINE
  5
19930
  8
SJC2
 10
3387.6868990383518
 20
797.75454067154885
 30
0.0
 11
3435.9321527588659
 21
797.75454067154885
 31
0.0
  0
LINE
  5
19931
  8
SJC2
 10
3423.9321527588659
 20
849.75454067154703
 30
0.0
 11
3425.9432597577961
 21
848.59342750434723
 31
0.0
  0
LINE
  5
19932
  8
SJC2
 10
3417.9321527588659
 20
849.75454067154703
 30
0.0
 11
3417.932152758865
 21
867.75454067154897
 31
0.0
  0
LINE
  5
19933
  8
SJC2
 10
3418.9321527588668
 20
849.75454067154703
 30
0.0
 11
3418.9321527588668
 21
866.75454067154897
 31
0.0
  0
LINE
  5
19934
  8
SJC2
 10
3402.9321527588659
 20
849.75454067154703
 30
0.0
 11
3402.9321527588659
 21
866.75454067154897
 31
0.0
  0
LINE
  5
19935
  8
SJC2
 10
3403.9321527588659
 20
849.75454067154703
 30
0.0
 11
3403.9321527588659
 21
867.75454067154897
 31
0.0
  0
ARC
  5
19936
  8
SJC2
 10
3410.9321527588691
 20
824.91565383874331
 30
0.0
 40
24.838886832804359
 50
72.412046226009537
 51
107.58795377399041
  0
ARC
  5
19937
  8
SJC2
 10
3399.6738225096692
 20
843.10940152563126
 30
0.0
 40
6.6451391459162759
 50
55.615752532008258
 51
124.3842474679592
  0
LINE
  5
19938
  8
SJC2
 10
3397.932152758865
 20
849.75454067154703
 30
0.0
 11
3395.9210457599361
 21
848.59342750434723
 31
0.0
  0
ARC
  5
19939
  8
SJC2
 10
3422.1904830080648
 20
843.10940152564592
 30
0.0
 40
6.6451391459012621
 50
55.615752531979403
 51
124.3842474680531
  0
LINE
  5
1993A
  8
SJC2
 10
3397.932152758865
 20
849.75454067154703
 30
0.0
 11
3423.9321527588659
 21
849.75454067154703
 31
0.0
  0
LINE
  5
1993B
  8
SJC2
 10
3423.9321527588659
 20
836.15454067154849
 30
0.0
 11
3425.9432597577961
 21
837.31565383875011
 31
0.0
  0
ARC
  5
1993C
  8
SJC2
 10
3410.9321527588691
 20
860.99342750435244
 30
0.0
 40
24.838886832804359
 50
252.41204622600949
 51
287.58795377399048
  0
ARC
  5
1993D
  8
SJC2
 10
3399.6738225096692
 20
842.7996798174662
 30
0.0
 40
6.6451391459162759
 50
273.04241505493661
 51
304.38424746799171
  0
ARC
  5
1993E
  8
SJC2
 10
3422.1904830080648
 20
842.79967981744994
 30
0.0
 40
6.6451391459012621
 50
235.6157525319469
 51
304.38424746802059
  0
LINE
  5
1993F
  8
SJC2
 10
3397.932152758865
 20
836.15454067154849
 30
0.0
 11
3423.9321527588659
 21
836.15454067154849
 31
0.0
  0
LINE
  5
19940
  8
SJC2
 10
3418.4377062583312
 20
848.59342750434541
 30
0.0
 11
3418.4377062583312
 21
837.31565383875216
 31
0.0
  0
LINE
  5
19941
  8
SJC2
 10
3425.9432597577961
 20
848.59342750434723
 30
0.0
 11
3425.9432597577961
 21
837.31565383875011
 31
0.0
  0
LINE
  5
19942
  8
SJC2
 10
3395.9210457599361
 20
848.59342750434723
 30
0.0
 11
3395.9210457599361
 21
840.72476733936116
 31
0.0
  0
LINE
  5
19943
  8
SJC2
 10
3403.4265992594001
 20
848.59342750434917
 30
0.0
 11
3403.4265992594001
 21
837.31565383874647
 31
0.0
  0
LINE
  5
19944
  8
SJC2
 10
3403.9321527588659
 20
867.75454067154897
 30
0.0
 11
3417.932152758865
 21
867.75454067154897
 31
0.0
  0
LINE
  5
19945
  8
SJC2
 10
3402.9321527588659
 20
866.75454067154897
 30
0.0
 11
3418.932152758865
 21
866.75454067154897
 31
0.0
  0
LINE
  5
19946
  8
SJC2
 10
3402.9321527588659
 20
866.75454067154897
 30
0.0
 11
3403.9321527588659
 21
867.75454067154897
 31
0.0
  0
LINE
  5
19947
  8
SJC2
 10
3418.932152758865
 20
866.75454067154897
 30
0.0
 11
3417.932152758865
 21
867.75454067154897
 31
0.0
  0
LINE
  5
19948
  8
SJC2
 10
3435.9321527588659
 20
831.55454067154824
 30
0.0
 11
3435.9321527588659
 21
836.15454067154849
 31
0.0
  0
LINE
  5
19949
  8
SJC2
 10
3391.6283838507829
 20
840.75454067154897
 30
0.0
 11
3395.3985247509672
 21
840.75454067154897
 31
0.0
  0
ARC
  5
1994A
  8
SJC2
 10
3391.6283838507829
 20
842.75454067154897
 30
0.0
 40
2.0
 50
189.72528164557531
 51
270.0
  0
ARC
  5
1994B
  8
SJC2
 10
3267.9319408946481
 20
821.55454067154835
 30
0.0
 40
132.90000000000001
 50
6.307074353201747
 51
6.5341730056732716
  0
ARC
  5
1994C
  8
SJC2
 10
3395.3985247509672
 20
836.15454067154849
 30
0.0
 40
4.5999999999999988
 50
6.5341730056732716
 51
90.0
  0
LINE
  5
1994D
  8
SJC2
 10
3387.6868990383518
 20
831.55454067154824
 30
0.0
 11
3435.9321527588659
 21
831.55454067154824
 31
0.0
  0
LINE
  5
1994E
  8
SJC2
 10
3387.6868990383518
 20
836.15454067154849
 30
0.0
 11
3435.9321527588659
 21
836.15454067154849
 31
0.0
  0
ARC
  5
1994F
  8
SJC2
 10
3267.9319408946481
 20
821.55454067154835
 30
0.0
 40
123.5
 50
9.7252816455754072
 51
11.645180104451599
  0
DIMENSION
  5
19A0F
  8
SUNPOU
  2
*D11
 10
3516.2593673289289
 20
542.47337587198126
 30
0.0
 11
3489.2593673289289
 21
582.47337587198183
 31
0.0
 70
     0
 13
3435.9321527588659
 23
622.47337587198115
 33
0.0
 14
3435.9321527588659
 24
542.47337587198126
 34
0.0
 50
90.0
1001
ACAD
1000
DSTYLE
1002
{
1070
   287
1070
     5
1070
   144
1040
0.5
1070
    40
1040
10.0
1070
    41
1040
2.0
1070
    42
1040
1.0
1070
    43
1040
6.0
1070
    44
1040
1.0
1070
    73
1070
     0
1070
    74
1070
     0
1070
    77
1070
     1
1070
    78
1070
     8
1070
   140
1040
3.0
1070
   147
1040
1.1999999999999991
1070
   172
1070
     1
1070
   179
1070
     2
1070
   271
1070
     2
1070
   279
1070
     2
1070
   340
1005
55
1002
}
  0
LINE
  5
19A26
  8
SJC2
 10
1509.1603411688959
 20
531.14796701141222
 30
0.0
 11
1512.6898930893949
 21
531.14796701141222
 31
0.0
  0
LINE
  5
19A27
  8
SJC2
 10
1509.160341168898
 20
524.14796701141222
 30
0.0
 11
1512.6898930893949
 21
524.14796701141222
 31
0.0
  0
LINE
  5
19A28
  8
SJC2
 10
1509.1603411688959
 20
505.14796701141222
 30
0.0
 11
1512.6898930893949
 21
505.14796701141222
 31
0.0
  0
LINE
  5
19A29
  8
SJC2
 10
1509.160341168898
 20
498.14796701141222
 30
0.0
 11
1512.6898930893949
 21
498.14796701141222
 31
0.0
  0
LINE
  5
19A2A
  8
CENTER
 10
1220.2745641450481
 20
514.64796701141222
 30
0.0
 11
1536.8792641595271
 21
514.64796701141222
 31
0.0
  0
LINE
  5
19A2B
  8
SJC2
 10
1386.160129304679
 20
534.64796701141211
 30
0.0
 11
1534.1603411688959
 21
534.64796701141211
 31
0.0
  0
LINE
  5
19A2C
  8
SJC2
 10
1386.160129304679
 20
494.64796701141222
 30
0.0
 11
1534.1603411688959
 21
494.64796701141222
 31
0.0
  0
CIRCLE
  5
19A2D
  8
SJC2
 10
1369.160129304679
 20
494.64796701141222
 30
0.0
 40
9.0
  0
CIRCLE
  5
19A2E
  8
SJC2
 10
1369.160129304679
 20
534.64796701141211
 30
0.0
 40
9.0
  0
LINE
  5
19A2F
  8
SJC2
 10
1352.160129304679
 20
544.64796701141222
 30
0.0
 11
1386.160129304679
 21
544.64796701141222
 31
0.0
  0
LINE
  5
19A30
  8
SJC2
 10
1352.160129304679
 20
484.64796701141211
 30
0.0
 11
1386.160129304679
 21
484.64796701141211
 31
0.0
  0
LINE
  5
19A31
  8
SJC2
 10
1352.160129304679
 20
534.64796701141211
 30
0.0
 11
1229.6045784176581
 21
534.64796701141211
 31
0.0
  0
LINE
  5
19A32
  8
SJC2
 10
1352.160129304679
 20
494.64796701141222
 30
0.0
 11
1229.6045784176581
 21
494.64796701141222
 31
0.0
  0
ARC
  5
19A33
  8
SJC2
 10
1251.7543652655741
 20
501.64796701141307
 30
0.0
 40
4.5137251813004591
 50
309.15753220714851
 51
50.842467792851558
  0
ARC
  5
19A34
  8
SJC2
 10
1251.0750264971589
 20
501.64796701141211
 30
0.0
 40
3.5
 50
90.0
 51
270.0
  0
LINE
  5
19A35
  8
SJC2
 10
1229.6045784176581
 20
534.64796701141211
 30
0.0
 11
1229.6045784176581
 21
494.64796701141222
 31
0.0
  0
LINE
  5
19A36
  8
SJC2
 10
1254.6045784176581
 20
498.14796701141222
 30
0.0
 11
1254.6045784176581
 21
494.64796701141222
 31
0.0
  0
LINE
  5
19A37
  8
SJC2
 10
1254.6045784176561
 20
498.14796701141222
 30
0.0
 11
1251.0750264971589
 21
498.14796701141222
 31
0.0
  0
CIRCLE
  5
19A38
  8
SJC2
 10
1242.1045784176581
 20
514.64796701141222
 30
0.0
 40
9.0
  0
LINE
  5
19A39
  8
SJC2
 10
1254.6045784176581
 20
534.64796701141211
 30
0.0
 11
1254.6045784176581
 21
531.14796701141222
 31
0.0
  0
ARC
  5
19A3A
  8
SJC2
 10
1251.7543652655741
 20
527.64796701141313
 30
0.0
 40
4.5137251813004591
 50
309.15753220714851
 51
50.842467792851558
  0
ARC
  5
19A3B
  8
SJC2
 10
1251.0750264971589
 20
527.64796701141222
 30
0.0
 40
3.5
 50
90.0
 51
270.0
  0
LINE
  5
19A3C
  8
SJC2
 10
1254.6045784176561
 20
524.14796701141222
 30
0.0
 11
1251.0750264971589
 21
524.14796701141222
 31
0.0
  0
LINE
  5
19A3D
  8
SJC2
 10
1254.6045784176581
 20
531.14796701141222
 30
0.0
 11
1251.0750264971589
 21
531.14796701141222
 31
0.0
  0
LINE
  5
19A3E
  8
SJC2
 10
1254.6045784176581
 20
505.14796701141222
 30
0.0
 11
1251.0750264971589
 21
505.14796701141222
 31
0.0
  0
LINE
  5
19A3F
  8
SJC2
 10
1254.6045784176581
 20
524.14796701141222
 30
0.0
 11
1254.6045784176581
 21
505.14796701141222
 31
0.0
  0
ARC
  5
19A40
  8
SJC2
 10
1350.689681225178
 20
501.64796701141211
 30
0.0
 40
3.5
 50
270.0
 51
90.0
  0
ARC
  5
19A41
  8
SJC2
 10
1350.0103424567631
 20
501.64796701141307
 30
0.0
 40
4.5137251813004591
 50
129.15753220714839
 51
230.84246779285161
  0
LINE
  5
19A42
  8
SJC2
 10
1356.160129304679
 20
544.64796701141222
 30
0.0
 11
1356.160129304679
 21
484.64796701141211
 31
0.0
  0
LINE
  5
19A43
  8
SJC2
 10
1356.160129304679
 20
544.64796701141222
 30
0.0
 11
1356.160129304679
 21
484.64796701141211
 31
0.0
  0
LINE
  5
19A44
  8
SJC2
 10
1356.160129304679
 20
544.64796701141222
 30
0.0
 11
1356.160129304679
 21
484.64796701141211
 31
0.0
  0
LINE
  5
19A45
  8
SJC2
 10
1352.160129304679
 20
494.64796701141222
 30
0.0
 11
1352.160129304679
 21
484.64796701141211
 31
0.0
  0
LINE
  5
19A46
  8
SJC2
 10
1347.160129304679
 20
498.14796701141398
 30
0.0
 11
1347.160129304679
 21
494.64796701141222
 31
0.0
  0
LINE
  5
19A47
  8
SJC2
 10
1347.160129304681
 20
498.14796701141222
 30
0.0
 11
1350.689681225178
 21
498.14796701141222
 31
0.0
  0
ARC
  5
19A48
  8
SJC2
 10
1350.689681225178
 20
527.64796701141222
 30
0.0
 40
3.5
 50
270.0
 51
90.0
  0
LINE
  5
19A49
  8
SJC2
 10
1347.160129304679
 20
534.64796701141211
 30
0.0
 11
1347.160129304679
 21
531.14796701141222
 31
0.0
  0
ARC
  5
19A4A
  8
SJC2
 10
1350.0103424567631
 20
527.64796701141313
 30
0.0
 40
4.5137251813004591
 50
129.15753220714839
 51
230.84246779285161
  0
LINE
  5
19A4B
  8
SJC2
 10
1347.160129304679
 20
531.14796701141222
 30
0.0
 11
1350.689681225178
 21
531.14796701141222
 31
0.0
  0
LINE
  5
19A4C
  8
SJC2
 10
1347.160129304681
 20
524.14796701141222
 30
0.0
 11
1350.689681225178
 21
524.14796701141222
 31
0.0
  0
LINE
  5
19A4D
  8
SJC2
 10
1352.160129304679
 20
544.64796701141222
 30
0.0
 11
1352.160129304679
 21
534.64796701141211
 31
0.0
  0
LINE
  5
19A4E
  8
SJC2
 10
1347.160129304679
 20
505.14796701141222
 30
0.0
 11
1350.689681225178
 21
505.14796701141222
 31
0.0
  0
LINE
  5
19A4F
  8
SJC2
 10
1347.160129304679
 20
524.14796701141404
 30
0.0
 11
1347.160129304679
 21
505.14796701141222
 31
0.0
  0
ARC
  5
19A50
  8
SJC2
 10
1388.3099161525961
 20
501.64796701141307
 30
0.0
 40
4.5137251813004591
 50
309.15753220714851
 51
50.842467792851558
  0
ARC
  5
19A51
  8
SJC2
 10
1387.63057738418
 20
501.64796701141211
 30
0.0
 40
3.5
 50
90.0
 51
270.0
  0
LINE
  5
19A52
  8
SJC2
 10
1391.1601293046781
 20
498.14796701141222
 30
0.0
 11
1387.63057738418
 21
498.14796701141222
 31
0.0
  0
LINE
  5
19A53
  8
SJC2
 10
1386.160129304679
 20
494.64796701141222
 30
0.0
 11
1386.160129304679
 21
484.64796701141211
 31
0.0
  0
LINE
  5
19A54
  8
SJC2
 10
1391.160129304679
 20
498.14796701141398
 30
0.0
 11
1391.160129304679
 21
494.64796701141222
 31
0.0
  0
LINE
  5
19A55
  8
SJC2
 10
1391.160129304679
 20
534.64796701141211
 30
0.0
 11
1391.160129304679
 21
531.14796701141222
 31
0.0
  0
ARC
  5
19A56
  8
SJC2
 10
1388.3099161525961
 20
527.64796701141313
 30
0.0
 40
4.5137251813004591
 50
309.15753220714851
 51
50.842467792851558
  0
LINE
  5
19A57
  8
SJC2
 10
1391.1601293046781
 20
524.14796701141222
 30
0.0
 11
1387.63057738418
 21
524.14796701141222
 31
0.0
  0
LINE
  5
19A58
  8
SJC2
 10
1391.160129304679
 20
531.14796701141222
 30
0.0
 11
1387.63057738418
 21
531.14796701141222
 31
0.0
  0
LINE
  5
19A59
  8
SJC2
 10
1386.160129304679
 20
544.64796701141222
 30
0.0
 11
1386.160129304679
 21
534.64796701141211
 31
0.0
  0
ARC
  5
19A5A
  8
SJC2
 10
1387.63057738418
 20
527.64796701141222
 30
0.0
 40
3.5
 50
90.0
 51
270.0
  0
LINE
  5
19A5B
  8
SJC2
 10
1391.160129304679
 20
505.14796701141222
 30
0.0
 11
1387.63057738418
 21
505.14796701141222
 31
0.0
  0
LINE
  5
19A5C
  8
SJC2
 10
1391.160129304679
 20
524.14796701141404
 30
0.0
 11
1391.160129304679
 21
505.14796701141222
 31
0.0
  0
ARC
  5
19A5D
  8
SJC2
 10
1512.01055432098
 20
501.64796701141307
 30
0.0
 40
4.5137251813004591
 50
129.15753220714839
 51
230.84246779285161
  0
LINE
  5
19A5E
  8
SJC2
 10
1509.1603411688959
 20
498.14796701141222
 30
0.0
 11
1509.1603411688959
 21
494.64796701141222
 31
0.0
  0
LINE
  5
19A5F
  8
SJC2
 10
1509.1603411688959
 20
534.64796701141211
 30
0.0
 11
1509.1603411688959
 21
531.14796701141222
 31
0.0
  0
ARC
  5
19A60
  8
SJC2
 10
1512.01055432098
 20
527.64796701141313
 30
0.0
 40
4.5137251813004591
 50
129.15753220714839
 51
230.84246779285161
  0
LINE
  5
19A61
  8
SJC2
 10
1509.1603411688959
 20
524.14796701141222
 30
0.0
 11
1509.1603411688959
 21
505.14796701141222
 31
0.0
  0
LINE
  5
19A62
  8
SJC2
 10
1534.1603411688959
 20
534.64796701141211
 30
0.0
 11
1534.1603411688959
 21
494.64796701141222
 31
0.0
  0
ARC
  5
19A63
  8
SJC2
 10
1512.6898930893949
 20
501.64796701141211
 30
0.0
 40
3.5
 50
270.0
 51
90.0
  0
CIRCLE
  5
19A64
  8
SJC2
 10
1521.6603411688959
 20
514.64796701141222
 30
0.0
 40
9.0
  0
ARC
  5
19A65
  8
SJC2
 10
1512.6898930893949
 20
527.64796701141222
 30
0.0
 40
3.5
 50
270.0
 51
90.0
  0
LINE
  5
19A8D
  8
SJC
 10
1393.0103411688981
 20
874.36832866866825
 30
0.0
 11
1393.0103411688981
 21
534.64796701141267
 31
0.0
  0
LINE
  5
19A8E
  8
SJC
 10
1507.3103411688919
 20
874.36832866866825
 30
0.0
 11
1507.310341168893
 21
534.64796701141211
 31
0.0
  0
LINE
  5
19A8F
  8
SJC2
 10
1073.3483181628919
 20
1224.368328318667
 30
0.0
 11
1677.4027463457401
 21
1224.368328318667
 31
0.0
  0
LINE
  5
19A90
  8
SJC2
 10
1073.3483181628919
 20
1184.368328358667
 30
0.0
 11
1677.4027463457401
 21
1184.368328358667
 31
0.0
  0
LINE
  5
19A91
  8
SJC2
 10
1073.3483181628919
 20
1134.368328408671
 30
0.0
 11
1677.4027463457401
 21
1134.368328408671
 31
0.0
  0
LINE
  5
19A92
  8
SJC2
 10
1073.3483181628919
 20
1084.3683284586659
 30
0.0
 11
1677.402746345741
 21
1084.3683284586659
 31
0.0
  0
LINE
  5
19A93
  8
SJC2
 10
1073.3483181628919
 20
1014.3683285286691
 30
0.0
 11
1677.4027463457401
 21
1014.3683285286691
 31
0.0
  0
LINE
  5
19A94
  8
SJC2
 10
1073.3483181628919
 20
964.36832857867375
 30
0.0
 11
1677.402746345741
 21
964.36832857867375
 31
0.0
  0
LINE
  5
19A95
  8
SJC2
 10
1073.3483181628919
 20
914.36832862866856
 30
0.0
 11
1677.402746345741
 21
914.36832862866856
 31
0.0
  0
LINE
  5
19A96
  8
SJC2
 10
1073.3483181628919
 20
874.36832866866825
 30
0.0
 11
1677.402746345741
 21
874.36832866866825
 31
0.0
  0
LINE
  5
19A97
  8
SUNPOU
 10
1073.3483181628919
 20
854.36832866866825
 30
0.0
 11
1073.3483181628919
 21
1029.3683284936681
 31
0.0
  0
LINE
  5
19A98
  8
SUNPOU
 10
1677.4027463457401
 20
854.36832866866825
 30
0.0
 11
1677.4027463457401
 21
1029.3683284936681
 31
0.0
  0
DIMENSION
  5
19B54
  8
SUNPOU
  2
*D12
 10
3033.9047265574582
 20
878.39456378007526
 30
0.0
 11
2985.7199371889619
 21
791.84342150551015
 31
0.0
 70
   131
 15
2904.8476297293669
 25
755.51451756302367
 35
0.0
 40
0.0
1001
ACAD
1000
DSTYLE
1002
{
1070
   287
1070
     5
1070
   144
1040
0.5
1070
    40
1040
10.0
1070
    41
1040
2.0
1070
    42
1040
1.0
1070
    43
1040
6.0
1070
    44
1040
1.0
1070
    73
1070
     0
1070
    74
1070
     0
1070
    77
1070
     1
1070
    78
1070
     8
1070
   140
1040
3.0
1070
   147
1040
1.1999999999999991
1070
   172
1070
     1
1070
   179
1070
     2
1070
   271
1070
     2
1070
   279
1070
     2
1070
   288
1070
     1
1070
   340
1005
55
1002
}
  0
LINE
  5
19BC6
  8
SJC
 10
1257.132353861168
 20
874.36832866866825
 30
0.0
 11
1257.132353861168
 21
449.64796701141222
 31
0.0
1001
ACAD
1000
ASC_BOUNDS
1002
{
1070
    19
1002
}
  0
LINE
  5
19BC9
  8
SJC
 10
1344.632353861168
 20
874.36832866866825
 30
0.0
 11
1344.632353861168
 21
449.64796701141222
 31
0.0
1001
ACAD
1000
ASC_BOUNDS
1002
{
1070
    19
1002
}
  0
LINE
  5
19BCA
  8
HASEN
 10
1257.132353861168
 20
1224.368328318667
 30
0.0
 11
1257.132353861168
 21
874.36832866866825
 31
0.0
  0
LINE
  5
19BCB
  8
HASEN
 10
1344.632353861168
 20
1224.368328318667
 30
0.0
 11
1344.632353861168
 21
874.36832866866825
 31
0.0
  0
LINE
  5
19BD2
  8
SUNPOU
 10
1073.3483181628919
 20
1069.3683284936681
 30
0.0
 11
1093.3483181628919
 21
1069.3683284936681
 31
0.0
  0
LINE
  5
19BD3
  8
SUNPOU
 10
1053.3483181628919
 20
1029.3683284936681
 30
0.0
 11
1073.3483181628919
 21
1029.3683284936681
 31
0.0
  0
LINE
  5
19BD6
  8
SUNPOU
 10
1053.3483181628919
 20
1029.3683284936681
 30
0.0
 11
1093.3483181628919
 21
1069.3683284936681
 31
0.0
  0
LINE
  5
19BD7
  8
SUNPOU
 10
1073.3483181628919
 20
1069.3683284936681
 30
0.0
 11
1073.3483181628919
 21
1244.368328318667
 31
0.0
  0
LINE
  5
19BD8
  8
SUNPOU
 10
1657.4027463457401
 20
1029.3683284936681
 30
0.0
 11
1677.4027463457401
 21
1029.3683284936681
 31
0.0
  0
LINE
  5
19BD9
  8
SUNPOU
 10
1677.4027463457401
 20
1069.3683284936681
 30
0.0
 11
1697.4027463457401
 21
1069.3683284936681
 31
0.0
  0
LINE
  5
19BDA
  8
SUNPOU
 10
1657.4027463457401
 20
1029.3683284936681
 30
0.0
 11
1697.4027463457401
 21
1069.3683284936681
 31
0.0
  0
LINE
  5
19BDB
  8
SUNPOU
 10
1677.4027463457401
 20
1069.3683284936681
 30
0.0
 11
1677.4027463457401
 21
1244.368328318667
 31
0.0
  0
LINE
  5
19CC9
  8
MOJI
 10
3663.0844272244772
 20
1947.804040375589
 30
0.0
 11
2539.8840360922259
 21
1947.804040375589
 31
0.0
  0
TEXT
  5
19CCB
  8
MOJI
 10
3345.711944069099
 20
1956.804040357591
 30
0.0
 40
30.0
  1
皿ドリルネジM4×35
 41
0.8
  7
EXT08
 72
     4
 11
3492.7976583548129
 21
1971.8040403575901
 31
0.0
  0
TEXT
  5
19CCC
  8
MOJI
 10
2840.2822390755932
 20
1956.8040403695909
 30
0.0
 40
30.0
  1
10
 41
0.8
  7
EXT08
 72
     4
 11
2864.8536676470221
 21
1971.8040403695909
 31
0.0
  0
TEXT
  5
19CCD
  8
MOJI
 10
2932.8415782590441
 20
1957.4529787501231
 30
0.0
 40
30.0
  1
SUS410
 41
0.8
  7
EXT08
 11
2932.8415782590441
 21
1972.4529787501231
 31
0.0
 73
     2
  0
TEXT
  5
19CCE
  8
MOJI
 10
2622.014451985955
 20
1956.243437914768
 30
0.0
 40
30.0
  1
固定ビス
 41
0.8
  7
EXT08
 72
     4
 11
2675.6144519859549
 21
1971.243437914768
 31
0.0
  0
TEXT
  5
19CCF
  8
MOJI
 10
2934.3431438828802
 20
2052.804040345593
 30
0.0
 40
30.0
  1
SGHC
 41
0.8
  7
EXT08
 11
2934.3431438828802
 21
2067.804040345593
 31
0.0
 73
     2
  0
TEXT
  5
19CD0
  8
MOJI
 10
3331.3119440690989
 20
2004.8040403575919
 30
0.0
 40
30.0
  1
溶融亜鉛めっきM8\U+00d735
 41
0.8
  7
EXT08
 72
     4
 11
3492.7976583548129
 21
2019.8040403575919
 31
0.0
  0
LINE
  5
19D9D
  8
HASEN
 10
1509.1603411688959
 20
1131.147967011412
 30
0.0
 11
1512.6898930893949
 21
1131.147967011412
 31
0.0
  0
LINE
  5
19D9E
  8
HASEN
 10
1509.160341168898
 20
1124.147967011412
 30
0.0
 11
1512.6898930893949
 21
1124.147967011412
 31
0.0
  0
LINE
  5
19D9F
  8
HASEN
 10
1509.1603411688959
 20
1105.147967011412
 30
0.0
 11
1512.6898930893949
 21
1105.147967011412
 31
0.0
  0
LINE
  5
19DA0
  8
HASEN
 10
1509.160341168898
 20
1098.147967011412
 30
0.0
 11
1512.6898930893949
 21
1098.147967011412
 31
0.0
  0
LINE
  5
19DA2
  8
HASEN
 10
1386.160129304679
 20
1134.647967011412
 30
0.0
 11
1534.1603411688959
 21
1134.647967011412
 31
0.0
  0
LINE
  5
19DA3
  8
HASEN
 10
1386.160129304679
 20
1094.647967011412
 30
0.0
 11
1534.1603411688959
 21
1094.647967011412
 31
0.0
  0
CIRCLE
  5
19DA4
  8
HASEN
 10
1369.160129304679
 20
1094.647967011412
 30
0.0
 40
9.0
  0
CIRCLE
  5
19DA5
  8
HASEN
 10
1369.160129304679
 20
1134.647967011412
 30
0.0
 40
9.0
  0
LINE
  5
19DA6
  8
HASEN
 10
1352.160129304679
 20
1144.647967011412
 30
0.0
 11
1386.160129304679
 21
1144.647967011412
 31
0.0
  0
LINE
  5
19DA7
  8
HASEN
 10
1352.160129304679
 20
1084.647967011412
 30
0.0
 11
1386.160129304679
 21
1084.647967011412
 31
0.0
  0
LINE
  5
19DA8
  8
HASEN
 10
1352.160129304679
 20
1134.647967011412
 30
0.0
 11
1229.6045784176581
 21
1134.647967011412
 31
0.0
  0
LINE
  5
19DA9
  8
HASEN
 10
1352.160129304679
 20
1094.647967011412
 30
0.0
 11
1229.6045784176581
 21
1094.647967011412
 31
0.0
  0
ARC
  5
19DAA
  8
HASEN
 10
1251.754365265575
 20
1101.6479670114129
 30
0.0
 40
4.5137251813004591
 50
309.15753220714851
 51
50.842467792851558
  0
ARC
  5
19DAB
  8
HASEN
 10
1251.0750264971589
 20
1101.647967011412
 30
0.0
 40
3.5
 50
90.0
 51
270.0
  0
LINE
  5
19DAC
  8
HASEN
 10
1229.6045784176581
 20
1134.647967011412
 30
0.0
 11
1229.6045784176581
 21
1094.647967011412
 31
0.0
  0
LINE
  5
19DAD
  8
HASEN
 10
1254.6045784176581
 20
1098.147967011412
 30
0.0
 11
1254.6045784176581
 21
1094.647967011412
 31
0.0
  0
LINE
  5
19DAE
  8
HASEN
 10
1254.6045784176561
 20
1098.147967011412
 30
0.0
 11
1251.0750264971589
 21
1098.147967011412
 31
0.0
  0
CIRCLE
  5
19DAF
  8
HASEN
 10
1242.1045784176581
 20
1114.647967011412
 30
0.0
 40
9.0
  0
LINE
  5
19DB0
  8
HASEN
 10
1254.6045784176581
 20
1134.647967011412
 30
0.0
 11
1254.6045784176581
 21
1131.147967011412
 31
0.0
  0
ARC
  5
19DB1
  8
HASEN
 10
1251.754365265575
 20
1127.6479670114129
 30
0.0
 40
4.5137251813004591
 50
309.15753220714851
 51
50.842467792851558
  0
ARC
  5
19DB2
  8
HASEN
 10
1251.0750264971589
 20
1127.647967011412
 30
0.0
 40
3.5
 50
90.0
 51
270.0
  0
LINE
  5
19DB3
  8
HASEN
 10
1254.6045784176561
 20
1124.147967011412
 30
0.0
 11
1251.0750264971589
 21
1124.147967011412
 31
0.0
  0
LINE
  5
19DB4
  8
HASEN
 10
1254.6045784176581
 20
1131.147967011412
 30
0.0
 11
1251.0750264971589
 21
1131.147967011412
 31
0.0
  0
LINE
  5
19DB5
  8
HASEN
 10
1254.6045784176581
 20
1105.147967011412
 30
0.0
 11
1251.0750264971589
 21
1105.147967011412
 31
0.0
  0
LINE
  5
19DB6
  8
HASEN
 10
1254.6045784176581
 20
1124.147967011412
 30
0.0
 11
1254.6045784176581
 21
1105.147967011412
 31
0.0
  0
ARC
  5
19DB7
  8
HASEN
 10
1350.689681225178
 20
1101.647967011412
 30
0.0
 40
3.5
 50
270.0
 51
90.0
  0
ARC
  5
19DB8
  8
HASEN
 10
1350.0103424567631
 20
1101.6479670114129
 30
0.0
 40
4.5137251813004591
 50
129.15753220714839
 51
230.84246779285161
  0
LINE
  5
19DB9
  8
HASEN
 10
1356.160129304679
 20
1144.647967011412
 30
0.0
 11
1356.160129304679
 21
1084.647967011412
 31
0.0
  0
LINE
  5
19DBA
  8
HASEN
 10
1356.160129304679
 20
1144.647967011412
 30
0.0
 11
1356.160129304679
 21
1084.647967011412
 31
0.0
  0
LINE
  5
19DBB
  8
HASEN
 10
1356.160129304679
 20
1144.647967011412
 30
0.0
 11
1356.160129304679
 21
1084.647967011412
 31
0.0
  0
LINE
  5
19DBC
  8
HASEN
 10
1352.160129304679
 20
1094.647967011412
 30
0.0
 11
1352.160129304679
 21
1084.647967011412
 31
0.0
  0
LINE
  5
19DBD
  8
HASEN
 10
1347.160129304679
 20
1098.147967011414
 30
0.0
 11
1347.160129304679
 21
1094.647967011412
 31
0.0
  0
LINE
  5
19DBE
  8
HASEN
 10
1347.160129304681
 20
1098.147967011412
 30
0.0
 11
1350.689681225178
 21
1098.147967011412
 31
0.0
  0
ARC
  5
19DBF
  8
HASEN
 10
1350.689681225178
 20
1127.647967011412
 30
0.0
 40
3.5
 50
270.0
 51
90.0
  0
LINE
  5
19DC0
  8
HASEN
 10
1347.160129304679
 20
1134.647967011412
 30
0.0
 11
1347.160129304679
 21
1131.147967011412
 31
0.0
  0
ARC
  5
19DC1
  8
HASEN
 10
1350.0103424567631
 20
1127.6479670114129
 30
0.0
 40
4.5137251813004591
 50
129.15753220714839
 51
230.84246779285161
  0
LINE
  5
19DC2
  8
HASEN
 10
1347.160129304679
 20
1131.147967011412
 30
0.0
 11
1350.689681225178
 21
1131.147967011412
 31
0.0
  0
LINE
  5
19DC3
  8
HASEN
 10
1347.160129304681
 20
1124.147967011412
 30
0.0
 11
1350.689681225178
 21
1124.147967011412
 31
0.0
  0
LINE
  5
19DC4
  8
HASEN
 10
1352.160129304679
 20
1144.647967011412
 30
0.0
 11
1352.160129304679
 21
1134.647967011412
 31
0.0
  0
LINE
  5
19DC5
  8
HASEN
 10
1347.160129304679
 20
1105.147967011412
 30
0.0
 11
1350.689681225178
 21
1105.147967011412
 31
0.0
  0
LINE
  5
19DC6
  8
HASEN
 10
1347.160129304679
 20
1124.147967011414
 30
0.0
 11
1347.160129304679
 21
1105.147967011412
 31
0.0
  0
ARC
  5
19DC7
  8
HASEN
 10
1388.3099161525961
 20
1101.6479670114129
 30
0.0
 40
4.5137251813004591
 50
309.15753220714851
 51
50.842467792851558
  0
ARC
  5
19DC8
  8
HASEN
 10
1387.6305773841809
 20
1101.647967011412
 30
0.0
 40
3.5
 50
90.0
 51
270.0
  0
LINE
  5
19DC9
  8
HASEN
 10
1391.1601293046781
 20
1098.147967011412
 30
0.0
 11
1387.6305773841809
 21
1098.147967011412
 31
0.0
  0
LINE
  5
19DCA
  8
HASEN
 10
1386.160129304679
 20
1094.647967011412
 30
0.0
 11
1386.160129304679
 21
1084.647967011412
 31
0.0
  0
LINE
  5
19DCB
  8
HASEN
 10
1391.160129304679
 20
1098.147967011414
 30
0.0
 11
1391.160129304679
 21
1094.647967011412
 31
0.0
  0
LINE
  5
19DCC
  8
HASEN
 10
1391.160129304679
 20
1134.647967011412
 30
0.0
 11
1391.160129304679
 21
1131.147967011412
 31
0.0
  0
ARC
  5
19DCD
  8
HASEN
 10
1388.3099161525961
 20
1127.6479670114129
 30
0.0
 40
4.5137251813004591
 50
309.15753220714851
 51
50.842467792851558
  0
LINE
  5
19DCE
  8
HASEN
 10
1391.1601293046781
 20
1124.147967011412
 30
0.0
 11
1387.6305773841809
 21
1124.147967011412
 31
0.0
  0
LINE
  5
19DCF
  8
HASEN
 10
1391.160129304679
 20
1131.147967011412
 30
0.0
 11
1387.6305773841809
 21
1131.147967011412
 31
0.0
  0
LINE
  5
19DD0
  8
HASEN
 10
1386.160129304679
 20
1144.647967011412
 30
0.0
 11
1386.160129304679
 21
1134.647967011412
 31
0.0
  0
ARC
  5
19DD1
  8
HASEN
 10
1387.6305773841809
 20
1127.647967011412
 30
0.0
 40
3.5
 50
90.0
 51
270.0
  0
LINE
  5
19DD2
  8
HASEN
 10
1391.160129304679
 20
1105.147967011412
 30
0.0
 11
1387.6305773841809
 21
1105.147967011412
 31
0.0
  0
LINE
  5
19DD3
  8
HASEN
 10
1391.160129304679
 20
1124.147967011414
 30
0.0
 11
1391.160129304679
 21
1105.147967011412
 31
0.0
  0
ARC
  5
19DD4
  8
HASEN
 10
1512.01055432098
 20
1101.6479670114129
 30
0.0
 40
4.5137251813004591
 50
129.15753220714839
 51
230.84246779285161
  0
LINE
  5
19DD5
  8
HASEN
 10
1509.1603411688959
 20
1098.147967011412
 30
0.0
 11
1509.1603411688959
 21
1094.647967011412
 31
0.0
  0
LINE
  5
19DD6
  8
HASEN
 10
1509.1603411688959
 20
1134.647967011412
 30
0.0
 11
1509.1603411688959
 21
1131.147967011412
 31
0.0
  0
ARC
  5
19DD7
  8
HASEN
 10
1512.01055432098
 20
1127.6479670114129
 30
0.0
 40
4.5137251813004591
 50
129.15753220714839
 51
230.84246779285161
  0
LINE
  5
19DD8
  8
HASEN
 10
1509.1603411688959
 20
1124.147967011412
 30
0.0
 11
1509.1603411688959
 21
1105.147967011412
 31
0.0
  0
LINE
  5
19DD9
  8
HASEN
 10
1534.1603411688959
 20
1134.647967011412
 30
0.0
 11
1534.1603411688959
 21
1094.647967011412
 31
0.0
  0
ARC
  5
19DDA
  8
HASEN
 10
1512.6898930893949
 20
1101.647967011412
 30
0.0
 40
3.5
 50
270.0
 51
90.0
  0
CIRCLE
  5
19DDB
  8
HASEN
 10
1521.6603411688959
 20
1114.647967011412
 30
0.0
 40
9.0
  0
ARC
  5
19DDC
  8
HASEN
 10
1512.6898930893949
 20
1127.647967011412
 30
0.0
 40
3.5
 50
270.0
 51
90.0
  0
LINE
  5
19DDD
  8
HASEN
 10
1393.0103411688981
 20
1149.368328393663
 30
0.0
 11
1393.0103411688981
 21
874.36832866866825
 31
0.0
  0
LINE
  5
19DDE
  8
HASEN
 10
1507.3103411688919
 20
1149.3683283936609
 30
0.0
 11
1507.3103411688919
 21
874.36832866866825
 31
0.0
  0
LINE
  5
19DE1
  8
HASEN
 10
1509.660341168898
 20
1160.368328393668
 30
0.0
 11
1509.660341168898
 21
1149.3683283936639
 31
0.0
  0
LINE
  5
19DE2
  8
HASEN
 10
1390.660341168892
 20
1160.368328393668
 30
0.0
 11
1390.660341168892
 21
1149.3683283936639
 31
0.0
  0
ARC
  5
19DE3
  8
HASEN
 10
1450.160341168898
 20
1021.377997487766
 30
0.0
 40
151.190482786888
 50
66.82484629025231
 51
90.000000000001194
  0
ARC
  5
19DE4
  8
HASEN
 10
1450.160341168898
 20
1021.377997487766
 30
0.0
 40
151.190482786888
 50
90.000000000001194
 51
113.1751537097477
  0
LINE
  5
19DE5
  8
HASEN
 10
1509.660341168898
 20
1160.368328393668
 30
0.0
 11
1390.660341168892
 21
1160.368328393668
 31
0.0
  0
LINE
  5
19DE6
  8
HASEN
 10
1509.660341168898
 20
1149.3683283936621
 30
0.0
 11
1390.660341168892
 21
1149.3683283936639
 31
0.0
  0
CIRCLE
  5
19DEB
  8
SJC2
 10
1450.160341168895
 20
1049.36832852867
 30
0.0
 40
13.64503934301888
  0
LINE
  5
19F16
  8
CENTER
 10
1450.1603411688959
 20
1194.6430747705101
 30
0.0
 11
1450.1603411688959
 21
354.67177994880598
 31
0.0
  0
LINE
  5
1A1CF
  8
HASEN
 10
498.93142073162738
 20
1879.6479670114099
 30
0.0
 11
498.93142073162738
 21
479.64796701141222
 31
0.0
  0
LINE
  5
1A1D0
  8
HASEN
 10
573.93142073162744
 20
1879.6479670114099
 30
0.0
 11
573.93142073162744
 21
479.64796701141222
 31
0.0
  0
LINE
  5
1A1D2
  8
HASEN
 10
498.93142073162738
 20
1879.6479670114099
 30
0.0
 11
573.93142073162744
 21
1879.647967011409
 31
0.0
  0
INSERT
  5
1A1D6
  8
0
  2
*U26
 10
0.0
 20
0.0
 30
0.0
1001
ACAD
1000
DSTYLE
1002
{
1070
   140
1040
30.0
1070
   144
1040
0.5
1070
   147
1040
15.0
1070
    42
1040
10.0
1070
    44
1040
10.0
1070
    43
1040
60.0
1070
    41
1040
20.0
1002
}
  0
LINE
  5
1A1D7
  8
HASEN
 10
1263.38235386117
 20
1879.6479670114099
 30
0.0
 11
1263.38235386117
 21
479.64796701141222
 31
0.0
  0
LINE
  5
1A1D8
  8
HASEN
 10
1338.38235386117
 20
1879.6479670114099
 30
0.0
 11
1338.38235386117
 21
479.64796701141222
 31
0.0
  0
LINE
  5
1A1D9
  8
HASEN
 10
1263.38235386117
 20
1879.6479670114099
 30
0.0
 11
1338.38235386117
 21
1879.647967011409
 31
0.0
  0
INSERT
  5
1A1E4
  8
0
  2
*U27
 10
0.0
 20
0.0
 30
0.0
1001
ACAD
1000
DSTYLE
1002
{
1070
   140
1040
30.0
1070
   144
1040
0.5
1070
   147
1040
15.0
1070
    42
1040
10.0
1070
    44
1040
10.0
1070
    43
1040
60.0
1070
    41
1040
20.0
1002
}
  0
TEXT
  5
1A1E5
  8
SUNPOU
 10
724.17173997394912
 20
1828.2646009165669
 30
0.0
 40
30.0
  1
ＣＲゴム
 41
0.8
  7
EXT08
  0
LINE
  5
1A1E6
  8
SUNPOU
 10
721.69555919787206
 20
1863.092464173425
 30
0.0
 11
979.85788722268808
 21
1863.092464173425
 31
0.0
1001
ACAD
1000
DSTYLE
1002
{
1070
    77
1070
     0
1070
    40
1040
10.0
1070
   147
1040
1.1999999999999991
1070
   176
1070
     0
1070
   177
1070
     0
1070
   178
1070
     0
1070
   179
1070
     2
1070
   271
1070
     2
1002
}
  0
TEXT
  5
1A1E7
  8
SUNPOU
 10
724.17173997394912
 20
1868.8504846655369
 30
0.0
 40
30.0
  1
弾性サイン板（大）
 41
0.8
  7
EXT08
  0
LINE
  5
1A1F4
  8
MOJI
 10
3663.0844272244772
 20
2091.8040403395962
 30
0.0
 11
2539.8840360922268
 21
2091.8040403395971
 31
0.0
  0
TEXT
  5
1A205
  8
MOJI
 10
2608.0144531848482
 20
2100.0938730072799
 30
0.0
 40
30.0
  1
芯      材
 41
0.8
  7
EXT08
 72
     4
 11
2676.8144531848479
 21
2115.0938730072799
 31
0.0
  0
TEXT
  5
1A206
  8
MOJI
 10
2935.5431450817732
 20
2100.0938730072799
 30
0.0
 40
30.0
  1
A6063S-T5
 41
0.8
  7
EXT08
 11
2935.5431450817732
 21
2115.0938730072799
 31
0.0
 73
     2
  0
TEXT
  5
1A207
  8
MOJI
 10
2853.8288593854882
 20
2100.0938730072799
 30
0.0
 40
30.0
  1
1
 41
0.8
  7
EXT08
 72
     4
 11
2863.5431450997739
 21
2115.0938730072799
 31
0.0
  0
INSERT
  5
1A39C
  8
0
  2
*U28
 10
0.0
 20
0.0
 30
0.0
1001
ACAD
1000
DSTYLE
1002
{
1070
   140
1040
30.0
1070
   144
1040
0.5
1070
   147
1040
15.0
1070
    42
1040
10.0
1070
    44
1040
10.0
1070
    43
1040
60.0
1070
    41
1040
20.0
1002
}
  0
INSERT
  5
1AECC
  8
0
  2
*U29
 10
0.0
 20
0.0
 30
0.0
1001
ACAD
1000
DSTYLE
1002
{
1070
   140
1040
30.0
1070
   144
1040
0.5
1070
   147
1040
15.0
1070
    42
1040
10.0
1070
    44
1040
10.0
1070
    43
1040
60.0
1070
    41
1040
20.0
1002
}
  0
TEXT
  5
1AECD
  8
SUNPOU
 10
1415.0125425554691
 20
2344.957230732291
 30
0.0
 40
30.0
  1
ポリエチレン樹脂
 41
0.8
  7
EXT08
  0
LINE
  5
1AECE
  8
SUNPOU
 10
1412.5363617793921
 20
2379.7850939891482
 30
0.0
 11
1644.1174783761201
 21
2379.7850939891482
 31
0.0
1001
ACAD
1000
DSTYLE
1002
{
1070
    77
1070
     0
1070
    40
1040
10.0
1070
   147
1040
1.1999999999999991
1070
   176
1070
     0
1070
   177
1070
     0
1070
   178
1070
     0
1070
   179
1070
     2
1070
   271
1070
     2
1002
}
  0
TEXT
  5
1AECF
  8
SUNPOU
 10
1415.0125425554691
 20
2385.5431144812601
 30
0.0
 40
30.0
  1
キャップ
 41
0.8
  7
EXT08
  0
INSERT
  5
1AED0
  8
0
  2
*U30
 10
0.0
 20
0.0
 30
0.0
1001
ACAD
1000
DSTYLE
1002
{
1070
   140
1040
30.0
1070
   144
1040
0.5
1070
   147
1040
15.0
1070
    42
1040
10.0
1070
    44
1040
10.0
1070
    43
1040
60.0
1070
    41
1040
20.0
1002
}
  0
TEXT
  5
1AED1
  8
SUNPOU
 10
1446.164266526964
 20
2218.1232035168541
 30
0.0
 40
30.0
  1
カプセルレンズ型反射シート
 41
0.8
  7
EXT08
  0
LINE
  5
1AED2
  8
SUNPOU
 10
1443.6880857508879
 20
2252.9510667737131
 30
0.0
 11
1821.9795881952271
 21
2252.9510667737131
 31
0.0
1001
ACAD
1000
DSTYLE
1002
{
1070
    77
1070
     0
1070
    40
1040
10.0
1070
   147
1040
1.1999999999999991
1070
   176
1070
     0
1070
   177
1070
     0
1070
   178
1070
     0
1070
   179
1070
     2
1070
   271
1070
     2
1002
}
  0
TEXT
  5
1AED3
  8
SUNPOU
 10
1446.164266526964
 20
2258.7090872658241
 30
0.0
 40
30.0
  1
反射材
 41
0.8
  7
EXT08
  0
TEXT
  5
1AED5
  8
SUNPOU
 10
604.75631888581393
 20
1357.124754658676
 30
0.0
 40
30.0
  1
ポリエチレン樹脂＋ガラス繊維
 41
0.8
  7
EXT08
  0
LINE
  5
1AED6
  8
SUNPOU
 10
602.28013810973687
 20
1391.9526179155339
 30
0.0
 11
1002.869491852889
 21
1391.9526179155339
 31
0.0
1001
ACAD
1000
DSTYLE
1002
{
1070
    77
1070
     0
1070
    40
1040
10.0
1070
   147
1040
1.1999999999999991
1070
   176
1070
     0
1070
   177
1070
     0
1070
   178
1070
     0
1070
   179
1070
     2
1070
   271
1070
     2
1002
}
  0
TEXT
  5
1AED7
  8
SUNPOU
 10
604.75631888581393
 20
1397.710638407646
 30
0.0
 40
30.0
  1
支柱（\U+03c689\U+00d7ｔ6）
 41
0.8
  7
EXT08
  0
TEXT
  5
1AED8
  8
SUNPOU
 10
609.37360826380336
 20
1252.439747510449
 30
0.0
 40
30.0
  1
A6063S-T5
 41
0.8
  7
EXT08
  0
LINE
  5
1AED9
  8
SUNPOU
 10
606.8974274877263
 20
1287.2676107673069
 30
0.0
 11
869.77036472934014
 21
1287.2676107673069
 31
0.0
1001
ACAD
1000
DSTYLE
1002
{
1070
    77
1070
     0
1070
    40
1040
10.0
1070
   147
1040
1.1999999999999991
1070
   176
1070
     0
1070
   177
1070
     0
1070
   178
1070
     0
1070
   179
1070
     2
1070
   271
1070
     2
1002
}
  0
TEXT
  5
1AEDA
  8
SUNPOU
 10
609.37360826380336
 20
1293.025631259419
 30
0.0
 40
30.0
  1
芯材（\U+03c675\U+00d7ｔ2）
 41
0.8
  7
EXT08
  0
LINE
  5
1AEEA
  8
SUNPOU
 10
3479.8876825991729
 20
920.28402495238788
 30
0.0
 11
3675.7091122923562
 21
920.28402495238788
 31
0.0
1001
ACAD
1000
DSTYLE
1002
{
1070
    77
1070
     0
1070
    40
1040
10.0
1070
   147
1040
1.1999999999999991
1070
   176
1070
     0
1070
   177
1070
     0
1070
   178
1070
     0
1070
   179
1070
     2
1070
   271
1070
     2
1002
}
  0
TEXT
  5
1AEEB
  8
SUNPOU
 10
3482.3638633752498
 20
926.04204544449931
 30
0.0
 40
30.0
  1
ボルト・ナット
 41
0.8
  7
EXT08
  0
INSERT
  5
1AEEC
  8
0
  2
*U31
 10
0.0
 20
0.0
 30
0.0
1001
ACAD
1000
DSTYLE
1002
{
1070
   140
1040
30.0
1070
   144
1040
0.5
1070
   147
1040
15.0
1070
    42
1040
10.0
1070
    44
1040
10.0
1070
    43
1040
60.0
1070
    41
1040
20.0
1002
}
  0
LINE
  5
1AEEE
  8
SUNPOU
 10
649.15863553713007
 20
585.11945973909724
 30
0.0
 11
794.59444535055081
 21
585.11945973909724
 31
0.0
1001
ACAD
1000
DSTYLE
1002
{
1070
    77
1070
     0
1070
    40
1040
10.0
1070
   147
1040
1.1999999999999991
1070
   176
1070
     0
1070
   177
1070
     0
1070
   178
1070
     0
1070
   179
1070
     2
1070
   271
1070
     2
1002
}
  0
TEXT
  5
1AEEF
  8
SUNPOU
 10
651.63481631320701
 20
590.87748023120866
 30
0.0
 40
30.0
  1
親子バンド
 41
0.8
  7
EXT08
  0
LINE
  5
1B134
  8
HASEN
 10
1263.38235386117
 20
479.64796701141222
 30
0.0
 11
1338.38235386117
 21
479.64796701141222
 31
0.0
  0
LINE
  5
1B135
  8
HASEN
 10
498.93142073162738
 20
479.64796701141222
 30
0.0
 11
573.93142073162755
 21
479.64796701141222
 31
0.0
  0
LINE
  5
1B48B
  8
SJC
 10
1284.382353861077
 20
1664.801956712025
 30
0.0
 11
1284.3823538611671
 21
1461.9347000751729
 31
0.0
  0
LINE
  5
1B48C
  8
SJC
 10
1284.3823538610759
 20
1703.934700075077
 30
0.0
 11
1284.3823538611659
 21
1906.8019567121401
 31
0.0
  0
LINE
  5
1B6FD
  8
SJC
 10
469.2314207316266
 20
1434.647967011412
 30
0.0
 11
605.23142073162671
 21
1434.647967011412
 31
0.0
  0
ARC
  5
1B6FE
  8
SJC
 10
605.23142073162671
 20
1441.6479670114129
 30
0.0
 40
12.0
 50
270.0
 51
0.0
  0
ARC
  5
1B6FF
  8
SJC
 10
605.23142073162671
 20
1441.6479670114129
 30
0.0
 40
7.0
 50
270.0
 51
0.0
  0
ARC
  5
1B700
  8
SJC
 10
469.2314207316266
 20
1441.647967011412
 30
0.0
 40
12.0
 50
180.0
 51
270.0
  0
ARC
  5
1B701
  8
SJC
 10
469.2314207316266
 20
1441.647967011412
 30
0.0
 40
7.0
 50
180.0
 51
270.0
  0
LINE
  5
1B703
  8
SJC
 10
605.23142073162671
 20
1429.647967011412
 30
0.0
 11
469.2314207316266
 21
1429.647967011412
 31
0.0
  0
LINE
  5
1B704
  8
SJC
 10
469.2314207316266
 20
1934.6479670114111
 30
0.0
 11
605.23142073162671
 21
1934.6479670114129
 31
0.0
  0
ARC
  5
1B705
  8
SJC
 10
605.23142073162694
 20
1927.6479670114129
 30
0.0
 40
12.0
 50
0.0000000000011697
 51
90.000000000001194
  0
ARC
  5
1B706
  8
SJC
 10
605.23142073162694
 20
1927.6479670114129
 30
0.0
 40
7.0
 50
0.0000000000011697
 51
90.000000000001194
  0
ARC
  5
1B707
  8
SJC
 10
469.23142073162688
 20
1927.6479670114111
 30
0.0
 40
12.0
 50
90.000000000001194
 51
180.00000000000111
  0
ARC
  5
1B708
  8
SJC
 10
469.23142073162688
 20
1927.6479670114111
 30
0.0
 40
7.0
 50
90.000000000001194
 51
180.00000000000111
  0
LINE
  5
1B709
  8
SJC
 10
605.23142073162671
 20
1939.6479670114129
 30
0.0
 11
537.23142073162569
 21
1939.647967011412
 31
0.0
  0
LINE
  5
1B70A
  8
SJC
 10
537.23142073162569
 20
1939.647967011412
 30
0.0
 11
469.2314207316266
 21
1939.6479670114111
 31
0.0
  0
LINE
  5
1B70C
  8
SJC
 10
462.23142073162671
 20
1441.647967011412
 30
0.0
 11
462.23142073162688
 21
1927.6479670114099
 31
0.0
  0
LINE
  5
1B70D
  8
SJC
 10
457.23142073162688
 20
1927.6479670114099
 30
0.0
 11
457.2314207316266
 21
1441.647967011412
 31
0.0
  0
LINE
  5
1B70F
  8
SJC
 10
617.23142073162671
 20
1441.6479670114129
 30
0.0
 11
617.23142073162694
 21
1927.6479670114129
 31
0.0
  0
LINE
  5
1B710
  8
SJC
 10
612.23142073162694
 20
1927.6479670114129
 30
0.0
 11
612.23142073162671
 21
1441.6479670114129
 31
0.0
  0
LINE
  5
1B7FB
  8
SJC
 10
1252.3823538611659
 20
2249.6479670114281
 30
0.0
 11
1251.3823538611659
 21
2249.6479670114272
 31
0.0
  0
ARC
  5
1B7FC
  8
SJC
 10
1252.3823538611671
 20
2247.6479670114272
 30
0.0
 40
2.0
 50
0.0000000000260551
 51
90.0
  0
ARC
  5
1B7FD
  8
SJC
 10
1251.3823538611671
 20
2247.6479670114272
 30
0.0
 40
2.0
 50
90.0
 51
180.00000000001299
  0
LINE
  5
1B7FF
  8
SJC
 10
1310.882353861909
 20
2244.6479670114059
 30
0.0
 11
1310.8823538619019
 21
2227.5602392529449
 31
0.0
  0
ARC
  5
1B800
  8
SJC
 10
1305.882353861909
 20
2244.6479670114081
 30
0.0
 40
5.0
 50
359.99999999997402
 51
90.0
  0
LINE
  5
1B801
  8
SJC
 10
1305.882353861911
 20
2249.6479670114099
 30
0.0
 11
1251.3823538611671
 21
2249.6479670114281
 31
0.0
  0
LINE
  5
1B802
  8
CENTER
 10
1300.8823538619081
 20
2235.147967011409
 30
0.0
 11
1300.8823538619049
 21
2226.1479670114081
 31
0.0
  0
LINE
  5
1B803
  8
CENTER
 10
1305.3823538619069
 20
2230.6479670114081
 30
0.0
 11
1296.3823538619069
 21
2230.6479670114099
 31
0.0
  0
CIRCLE
  5
1B804
  8
SJC
 10
1300.8823538619069
 20
2230.6479670114081
 30
0.0
 40
2.0
  0
CIRCLE
  5
1B805
  8
SJC
 10
1300.8823538619069
 20
2230.6479670114081
 30
0.0
 40
4.5
  0
LINE
  5
1B806
  8
SJC
 10
1307.0849237262839
 20
2222.7070108716248
 30
0.0
 11
1254.382353861178
 21
2209.6479670114281
 31
0.0
  0
ARC
  5
1B807
  8
SJC
 10
1305.8823538619031
 20
2227.5602392529472
 30
0.0
 40
5.0
 50
283.9168774331053
 51
359.99999999997402
  0
ARC
  5
1B808
  8
SJC
 10
1252.3823538614361
 20
1941.36832839366
 30
0.0
 40
2.0
 50
270.0
 51
359.99999999997402
  0
ARC
  5
1B809
  8
SJC
 10
1251.3823538614361
 20
1941.3683283936609
 30
0.0
 40
2.0
 50
179.99999999998701
 51
270.0
  0
LINE
  5
1B80A
  8
SJC
 10
1249.3823538614361
 20
1941.3683283936621
 30
0.0
 11
1249.3823538616591
 21
2247.6479226394331
 31
0.0
  0
LINE
  5
1B80B
  8
SJC
 10
1310.882353862178
 20
1944.3683283936821
 30
0.0
 11
1310.8823538621721
 21
1961.4560561521421
 31
0.0
  0
ARC
  5
1B80C
  8
SJC
 10
1305.882353862178
 20
1944.36832839368
 30
0.0
 40
5.0
 50
270.0
 51
0.0000000000260551
  0
LINE
  5
1B80D
  8
SJC
 10
1305.88235386218
 20
1939.3683283936771
 30
0.0
 11
1251.382353861437
 21
1939.36832839366
 31
0.0
  0
LINE
  5
1B80E
  8
CENTER
 10
1300.8823538621771
 20
1953.8683283936789
 30
0.0
 11
1300.8823538621741
 21
1962.868328393678
 31
0.0
  0
LINE
  5
1B80F
  8
CENTER
 10
1305.3823538621759
 20
1958.36832839368
 30
0.0
 11
1296.3823538621771
 21
1958.3683283936771
 31
0.0
  0
CIRCLE
  5
1B810
  8
SJC
 10
1300.8823538621759
 20
1958.368328393678
 30
0.0
 40
2.0
  0
CIRCLE
  5
1B811
  8
SJC
 10
1300.8823538621759
 20
1958.368328393678
 30
0.0
 40
4.5
  0
LINE
  5
1B812
  8
SJC
 10
1307.0849237265541
 20
1966.3092845334629
 30
0.0
 11
1254.382353861447
 21
1979.36832839366
 31
0.0
  0
ARC
  5
1B813
  8
SJC
 10
1305.8823538621721
 20
1961.45605615214
 30
0.0
 40
5.0
 50
0.0000000000260551
 51
76.083122566894787
  0
LINE
  5
1B814
  8
SJC
 10
1284.382353861216
 20
2217.081595329917
 30
0.0
 11
1284.382353861324
 21
1971.9347000752109
 31
0.0
  0
LINE
  5
1B815
  8
SJC
 10
1254.382353860944
 20
1941.3683727656571
 30
0.0
 11
1254.3823538611671
 21
2247.647967011429
 31
0.0
  0
DIMENSION
  5
1B816
  8
SUNPOU
  2
*D13
 10
381.84429899027862
 20
1429.647967011412
 30
0.0
 11
354.84429899027839
 21
1684.6479670114111
 31
0.0
 70
     0
 13
469.2314207316266
 23
1939.6479670114111
 33
0.0
 14
469.2314207316266
 24
1429.647967011412
 34
0.0
 50
90.0
1001
ACAD
1000
DSTYLE
1002
{
1070
   287
1070
     5
1070
    40
1040
10.0
1070
    41
1040
2.0
1070
    42
1040
1.0
1070
    43
1040
6.0
1070
    44
1040
1.0
1070
    73
1070
     0
1070
    74
1070
     0
1070
    77
1070
     1
1070
    78
1070
     8
1070
   140
1040
3.0
1070
   147
1040
1.1999999999999991
1070
   172
1070
     1
1070
   179
1070
     2
1070
   271
1070
     2
1070
   279
1070
     2
1070
   340
1005
55
1002
}
  0
DIMENSION
  5
1B823
  8
SUNPOU
  2
*D14
 10
309.8383210648953
 20
1429.647967011412
 30
0.0
 11
282.83832106489513
 21
1839.647967011412
 31
0.0
 70
     0
 13
469.23142073162489
 23
2249.6479670114122
 33
0.0
 14
469.2314207316266
 24
1429.647967011412
 34
0.0
 50
90.0
1001
ACAD
1000
DSTYLE
1002
{
1070
   287
1070
     5
1070
    40
1040
10.0
1070
    41
1040
2.0
1070
    42
1040
1.0
1070
    43
1040
6.0
1070
    44
1040
1.0
1070
    73
1070
     0
1070
    74
1070
     0
1070
    77
1070
     1
1070
    78
1070
     8
1070
   140
1040
3.0
1070
   147
1040
1.1999999999999991
1070
   172
1070
     1
1070
   179
1070
     2
1070
   271
1070
     2
1070
   279
1070
     2
1070
   340
1005
55
1002
}
  0
TEXT
  5
1B986
  8
MOJI2
 10
2195.288158797865
 20
18.504293663339919
 30
0.0
 40
40.0
  1
標示部詳細 S=1/5
 41
0.8
  7
EXT08
 72
     1
 11
2380.8881587978649
 21
18.504293663339919
 31
0.0
 73
     1
  0
LINE
  5
1B987
  8
MOJI2
 10
2191.9499078548702
 20
2.7988488020810101
 30
0.0
 11
2591.7168092516158
 21
2.7988488020810101
 31
0.0
  0
LINE
  5
1B988
  8
CENTER
 10
2090.8581407805532
 20
1925.967074836137
 30
0.0
 11
2090.8581407805532
 21
49.53971449517212
 31
0.0
  0
LINE
  5
1B989
  8
SUNPOU
 10
2120.8581407805532
 20
79.53971449517303
 30
0.0
 11
2120.8581407805532
 21
49.53971449517212
 31
0.0
  0
LINE
  5
1B98A
  8
SUNPOU
 10
2060.8581407805532
 20
109.53971449517211
 30
0.0
 11
2060.8581407805532
 21
79.53971449517303
 31
0.0
  0
LINE
  5
1B98B
  8
SJC
 10
2178.3581407805532
 20
145.96707483614821
 30
0.0
 11
2178.3581407805532
 21
79.539714495173484
 31
0.0
1001
ACAD
1000
ASC_BOUNDS
1002
{
1070
    19
1005
0
1002
}
  0
LINE
  5
1B98C
  8
SJC
 10
2003.358140780553
 20
145.96707483614821
 30
0.0
 11
2003.3581407805541
 21
79.53971449517212
 31
0.0
1001
ACAD
1000
ASC_BOUNDS
1002
{
1070
    19
1005
0
1002
}
  0
LINE
  5
1B98D
  8
SJC
 10
2003.358140780553
 20
1865.9670748361509
 30
0.0
 11
2178.3581407805532
 21
1865.9670748361509
 31
0.0
  0
ARC
  5
1B98E
  8
SJC
 10
2090.8581407805532
 20
1790.2639498361091
 30
0.0
 40
115.7031250000273
 50
40.865657358800291
 51
139.13434264119971
  0
LINE
  5
1B98F
  8
SJC
 10
1954.8581407805509
 20
1775.967074836148
 30
0.0
 11
2226.8581407805591
 21
1775.96707483615
 31
0.0
  0
LINE
  5
1B990
  8
SJC
 10
2003.358140780553
 20
1865.9670748361509
 30
0.0
 11
2003.358140780553
 21
1785.9670748361491
 31
0.0
  0
LINE
  5
1B991
  8
SJC
 10
2178.3581407805532
 20
1865.9670748361509
 30
0.0
 11
2178.3581407805541
 21
1785.96707483615
 31
0.0
  0
LINE
  5
1B993
  8
HATCH
 10
2003.358140780553
 20
1865.9670748361509
 30
0.0
 11
2178.3581407805532
 21
1865.9670748361509
 31
0.0
1001
ACAD
1000
ASC_BOUNDS
1002
{
1070
    19
1005
1C36C
1002
}
  0
LINE
  5
1B994
  8
HATCH
 10
2178.3581407805532
 20
1865.9670748361509
 30
0.0
 11
2178.3581407805532
 21
1785.96707483615
 31
0.0
1001
ACAD
1000
ASC_BOUNDS
1002
{
1070
    19
1005
1C36C
1002
}
  0
LINE
  5
1B995
  8
HATCH
 10
2178.3581407805532
 20
1785.9670748361491
 30
0.0
 11
2003.358140780553
 21
1785.9670748361491
 31
0.0
1001
ACAD
1000
ASC_BOUNDS
1002
{
1070
    19
1005
1C36C
1002
}
  0
LINE
  5
1B996
  8
HATCH
 10
2003.3581407805541
 20
1785.96707483615
 30
0.0
 11
2003.358140780552
 21
1865.9670748361491
 31
0.0
1001
ACAD
1000
ASC_BOUNDS
1002
{
1070
    19
1005
1C36C
1002
}
  0
LINE
  5
1B997
  8
SJC
 10
1954.858140780553
 20
155.9670748361491
 30
0.0
 11
2226.8581407805532
 21
155.96707483614949
 31
0.0
  0
LINE
  5
1B998
  8
SJC
 10
1940.8581407805509
 20
1761.96707483615
 30
0.0
 11
1940.8581407805571
 21
1189.96707483615
 31
0.0
  0
LINE
  5
1B999
  8
SJC
 10
2240.8581407805609
 20
1761.96707483615
 30
0.0
 11
2240.8581407805532
 21
1189.96707483615
 31
0.0
  0
LINE
  5
1B99A
  8
SJC
 10
1930.8581407805509
 20
1761.96707483615
 30
0.0
 11
1930.858140780555
 21
1189.9670748361491
 31
0.0
  0
ARC
  5
1B99B
  8
SJC
 10
1954.8581407805509
 20
1761.96707483615
 30
0.0
 40
24.0
 50
90.0
 51
180.0
  0
ARC
  5
1B99C
  8
SJC
 10
1954.8581407805509
 20
1761.96707483615
 30
0.0
 40
14.0
 50
90.0
 51
180.0
  0
LINE
  5
1B99D
  8
SJC
 10
2250.8581407805591
 20
1761.96707483615
 30
0.0
 11
2250.858140780555
 21
1189.96707483615
 31
0.0
  0
ARC
  5
1B99E
  8
SJC
 10
2226.8581407805532
 20
169.96707483614949
 30
0.0
 40
24.0
 50
270.0
 51
0.0
  0
ARC
  5
1B99F
  8
SJC
 10
2226.8581407805532
 20
169.96707483614949
 30
0.0
 40
14.0
 50
270.0
 51
0.0
  0
ARC
  5
1B9A0
  8
SJC
 10
2226.8581407805591
 20
1761.96707483615
 30
0.0
 40
24.0
 50
0.0
 51
90.0
  0
ARC
  5
1B9A1
  8
SJC
 10
2226.8581407805591
 20
1761.96707483615
 30
0.0
 40
14.0
 50
0.0
 51
90.0
  0
ARC
  5
1B9A2
  8
SJC
 10
1954.858140780553
 20
169.9670748361491
 30
0.0
 40
24.0
 50
180.0
 51
270.0
  0
ARC
  5
1B9A3
  8
SJC
 10
1954.858140780553
 20
169.9670748361491
 30
0.0
 40
14.0
 50
180.0
 51
270.0
  0
LINE
  5
1B9A4
  8
SJC
 10
2226.8581407805591
 20
1785.9670748361491
 30
0.0
 11
1954.8581407805509
 21
1785.9670748361491
 31
0.0
  0
LINE
  5
1B9A5
  8
SJC
 10
2226.858140780555
 20
1165.96707483615
 30
0.0
 11
2090.8581407805532
 21
1165.9670748361491
 31
0.0
  0
LINE
  5
1B9A6
  8
SUNPOU
 10
2216.8581407805568
 20
79.539714495173939
 30
0.0
 11
2120.8581407805532
 21
79.53971449517303
 31
0.0
  0
LINE
  5
1B9A7
  8
SJC
 10
2090.8581407805532
 20
1165.9670748361491
 30
0.0
 11
1954.858140780555
 21
1165.9670748361491
 31
0.0
  0
LINE
  5
1B9A8
  8
CENTER
 10
2659.9210927522599
 20
1925.9670748361559
 30
0.0
 11
2659.921092752259
 21
49.53971449517212
 31
0.0
  0
LINE
  5
1B9A9
  8
SJC
 10
2747.421092752259
 20
1865.9670748361509
 30
0.0
 11
2747.4210927522599
 21
79.539714495178941
 31
0.0
1001
ACAD
1000
ASC_BOUNDS
1002
{
1070
    19
1005
0
1002
}
  0
LINE
  5
1B9AA
  8
SJC
 10
2572.4210927522581
 20
145.96707483609089
 30
0.0
 11
2572.4210927522572
 21
79.539714495177122
 31
0.0
1001
ACAD
1000
ASC_BOUNDS
1002
{
1070
    19
1005
0
1002
}
  0
LINE
  5
1B9AD
  8
SJC
 10
2572.421092752259
 20
1865.9670748361509
 30
0.0
 11
2572.421092752259
 21
1785.9670748361491
 31
0.0
  0
LINE
  5
1B9B3
  8
SJC
 10
2566.9210927523659
 20
1775.967074836165
 30
0.0
 11
2566.9210927523659
 21
1635.967074836138
 31
0.0
  0
LINE
  5
1B9B4
  8
SJC
 10
2562.921092752254
 20
1785.9670748361541
 30
0.0
 11
2558.921092752254
 21
1785.9670748361521
 31
0.0
  0
ARC
  5
1B9B5
  8
SJC
 10
2562.9210927522549
 20
1781.9670748361541
 30
0.0
 40
4.0
 50
0.0000000000260551
 51
90.0
  0
ARC
  5
1B9B6
  8
SJC
 10
2558.9210927522549
 20
1781.9670748361521
 30
0.0
 40
4.0
 50
90.0
 51
180.00000000001299
  0
LINE
  5
1B9B7
  8
SJC
 10
2554.9210927522558
 20
1781.96707483615
 30
0.0
 11
2554.921092752701
 21
1169.9671171087909
 31
0.0
  0
LINE
  5
1B9B8
  8
SJC
 10
2566.9210927522558
 20
1781.9670748361559
 30
0.0
 11
2566.9210927523882
 21
1169.9670748361771
 31
0.0
  0
LINE
  5
1B9B9
  8
SJC
 10
2679.9210927537401
 20
1775.96707483611
 30
0.0
 11
2679.921092753727
 21
1741.7916193191891
 31
0.0
  0
ARC
  5
1B9BA
  8
SJC
 10
2669.9210927537401
 20
1775.9670748361129
 30
0.0
 40
10.0
 50
359.99999999997402
 51
90.0
  0
LINE
  5
1B9BB
  8
SJC
 10
2669.9210927537429
 20
1785.96707483612
 30
0.0
 11
2562.9210927522572
 21
1785.9670748361541
 31
0.0
  0
LINE
  5
1B9BC
  8
CENTER
 10
2659.9210927537379
 20
1756.9670748361159
 30
0.0
 11
2659.921092753732
 21
1738.9670748361159
 31
0.0
  0
LINE
  5
1B9BD
  8
CENTER
 10
2668.921092753736
 20
1747.9670748361129
 30
0.0
 11
2650.921092753736
 21
1747.9670748361179
 31
0.0
  0
LINE
  5
1B9BE
  8
SJC
 10
2672.3262324824909
 20
1732.085162556546
 30
0.0
 11
2566.9210927522781
 21
1705.967074836153
 31
0.0
  0
ARC
  5
1B9BF
  8
SJC
 10
2669.921092753727
 20
1741.791619319192
 30
0.0
 40
10.0
 50
283.9168774331053
 51
359.99999999997402
  0
LINE
  5
1B9C0
  8
SJC
 10
2562.9210927524769
 20
1165.9670748361791
 30
0.0
 11
2558.9210927524769
 21
1165.967074836178
 31
0.0
  0
ARC
  5
1B9C1
  8
SJC
 10
2562.9210927524791
 20
1161.9670748361791
 30
0.0
 40
4.0
 50
0.0000000000260551
 51
90.0
  0
ARC
  5
1B9C2
  8
SJC
 10
2558.9210927524791
 20
1161.9670748361771
 30
0.0
 40
4.0
 50
90.0
 51
180.00000000001299
  0
LINE
  5
1B9C3
  8
SJC
 10
2679.921092753963
 20
1155.9670748361359
 30
0.0
 11
2679.9210927539511
 21
1121.791619319215
 31
0.0
  0
ARC
  5
1B9C4
  8
SJC
 10
2669.9210927539639
 20
1155.967074836138
 30
0.0
 40
10.0
 50
359.99999999997402
 51
90.0
  0
LINE
  5
1B9C5
  8
SJC
 10
2669.9210927539671
 20
1165.967074836145
 30
0.0
 11
2562.9210927524809
 21
1165.9670748361791
 31
0.0
  0
LINE
  5
1B9C6
  8
CENTER
 10
2659.9210927539621
 20
1136.9670748361409
 30
0.0
 11
2659.9210927539561
 21
1118.9670748361409
 31
0.0
  0
LINE
  5
1B9C7
  8
CENTER
 10
2668.9210927539598
 20
1127.9670748361391
 30
0.0
 11
2650.9210927539598
 21
1127.9670748361441
 31
0.0
  0
LINE
  5
1B9C8
  8
SJC
 10
2672.3262324827151
 20
1112.085162556572
 30
0.0
 11
2566.921092752501
 21
1085.967074836178
 31
0.0
  0
ARC
  5
1B9C9
  8
SJC
 10
2669.9210927539511
 20
1121.7916193192179
 30
0.0
 40
10.0
 50
283.9168774331053
 51
359.99999999997402
  0
LINE
  5
1B9CA
  8
SJC
 10
2626.9210927520739
 20
211.09981819923721
 30
0.0
 11
2626.921092752174
 21
616.83433147334279
 31
0.0
  0
LINE
  5
1B9CB
  8
SJC
 10
2626.921092752194
 20
695.09981819939321
 30
0.0
 11
2626.921092752294
 21
1100.834331473086
 31
0.0
  0
CIRCLE
  5
1B9CC
  8
SJC
 10
2090.8581407805532
 20
2276.37943063069
 30
0.0
 40
86.999999999999076
  0
CIRCLE
  5
1B9CD
  8
SJC
 10
2090.8581407805532
 20
2276.37943063069
 30
0.0
 40
88.999999999999091
  0
CIRCLE
  5
1B9CE
  8
SJC
 10
2090.8581407805532
 20
2276.37943063069
 30
0.0
 40
76.999999999999091
  0
CIRCLE
  5
1B9CF
  8
SJC
 10
2090.8581407805532
 20
2357.3794306306891
 30
0.0
 40
0.5
  0
CIRCLE
  5
1B9D0
  8
SJC
 10
2065.8277642361832
 20
2353.4150084505959
 30
0.0
 40
0.5
  0
CIRCLE
  5
1B9D1
  8
SJC
 10
2078.1869491122952
 20
2356.3821862188952
 30
0.0
 40
0.5
  0
CIRCLE
  5
1B9D2
  8
SJC
 10
2043.247535344864
 20
2341.90980717506
 30
0.0
 40
0.5
  0
CIRCLE
  5
1B9D3
  8
SJC
 10
2054.0849103016508
 20
2348.5509590899478
 30
0.0
 40
0.5
  0
CIRCLE
  5
1B9D4
  8
SJC
 10
2033.5824915044429
 20
2333.6550799067991
 30
0.0
 40
0.5
  0
CIRCLE
  5
1B9D5
  8
SJC
 10
2167.89371860046
 20
2251.3490540863199
 30
0.0
 40
0.5
  0
CIRCLE
  5
1B9D6
  8
SJC
 10
2025.3277642361841
 20
2323.9900360663801
 30
0.0
 40
0.5
  0
CIRCLE
  5
1B9D7
  8
SJC
 10
2018.6866123212969
 20
2313.1526611095919
 30
0.0
 40
0.5
  0
CIRCLE
  5
1B9D8
  8
SJC
 10
2013.822562960647
 20
2301.4098071750609
 30
0.0
 40
0.5
  0
CIRCLE
  5
1B9D9
  8
SJC
 10
2010.855385192348
 20
2289.0506222989488
 30
0.0
 40
0.5
  0
CIRCLE
  5
1B9DA
  8
SJC
 10
2009.8581407805541
 20
2276.37943063069
 30
0.0
 40
0.5
  0
CIRCLE
  5
1B9DB
  8
SJC
 10
2010.855385192348
 20
2263.7082389624311
 30
0.0
 40
0.5
  0
CIRCLE
  5
1B9DC
  8
SJC
 10
2013.822562960647
 20
2251.3490540863199
 30
0.0
 40
0.5
  0
CIRCLE
  5
1B9DD
  8
SJC
 10
2018.6866123212969
 20
2239.6062001517862
 30
0.0
 40
0.5
  0
CIRCLE
  5
1B9DE
  8
SJC
 10
2025.3277642361841
 20
2228.7688251949999
 30
0.0
 40
0.5
  0
CIRCLE
  5
1B9DF
  8
SJC
 10
2033.5824915044441
 20
2219.10378135458
 30
0.0
 40
0.5
  0
CIRCLE
  5
1B9E0
  8
SJC
 10
2043.247535344864
 20
2210.8490540863199
 30
0.0
 40
0.5
  0
CIRCLE
  5
1B9E1
  8
SJC
 10
2054.0849103016499
 20
2204.2079021714321
 30
0.0
 40
0.5
  0
CIRCLE
  5
1B9E2
  8
SJC
 10
2065.8277642361841
 20
2199.343852810784
 30
0.0
 40
0.5
  0
CIRCLE
  5
1B9E3
  8
SJC
 10
2078.1869491122952
 20
2196.3766750424852
 30
0.0
 40
0.5
  0
CIRCLE
  5
1B9E4
  8
SJC
 10
2090.8581407805532
 20
2195.3794306306909
 30
0.0
 40
0.5
  0
CIRCLE
  5
1B9E5
  8
SJC
 10
2103.5293324488121
 20
2196.3766750424852
 30
0.0
 40
0.5
  0
CIRCLE
  5
1B9E6
  8
SJC
 10
2115.8885173249241
 20
2199.343852810784
 30
0.0
 40
0.5
  0
CIRCLE
  5
1B9E7
  8
SJC
 10
2127.631371259457
 20
2204.2079021714321
 30
0.0
 40
0.5
  0
CIRCLE
  5
1B9E8
  8
SJC
 10
2138.4687462162428
 20
2210.8490540863199
 30
0.0
 40
0.5
  0
CIRCLE
  5
1B9E9
  8
SJC
 10
2148.1337900566632
 20
2219.1037813545809
 30
0.0
 40
0.5
  0
CIRCLE
  5
1B9EA
  8
SJC
 10
2156.3885173249232
 20
2228.7688251949999
 30
0.0
 40
0.5
  0
CIRCLE
  5
1B9EB
  8
SJC
 10
2163.0296692398101
 20
2239.606200151788
 30
0.0
 40
0.5
  0
CIRCLE
  5
1B9EC
  8
SJC
 10
2170.8608963687589
 20
2263.708238962432
 30
0.0
 40
0.5
  0
CIRCLE
  5
1B9ED
  8
SJC
 10
2171.8581407805518
 20
2276.37943063069
 30
0.0
 40
0.5
  0
CIRCLE
  5
1B9EE
  8
SJC
 10
2170.8608963687589
 20
2289.0506222989488
 30
0.0
 40
0.5
  0
CIRCLE
  5
1B9EF
  8
SJC
 10
2167.89371860046
 20
2301.4098071750609
 30
0.0
 40
0.5
  0
CIRCLE
  5
1B9F0
  8
SJC
 10
2156.3885173249232
 20
2323.9900360663801
 30
0.0
 40
0.5
  0
CIRCLE
  5
1B9F1
  8
SJC
 10
2163.0296692398101
 20
2313.1526611095919
 30
0.0
 40
0.5
  0
CIRCLE
  5
1B9F2
  8
SJC
 10
2148.1337900566632
 20
2333.6550799067991
 30
0.0
 40
0.5
  0
CIRCLE
  5
1B9F3
  8
SJC
 10
2138.4687462162428
 20
2341.90980717506
 30
0.0
 40
0.5
  0
CIRCLE
  5
1B9F4
  8
SJC
 10
2127.631371259457
 20
2348.5509590899478
 30
0.0
 40
0.5
  0
CIRCLE
  5
1B9F5
  8
SJC
 10
2103.5293324488121
 20
2356.3821862188952
 30
0.0
 40
0.5
  0
CIRCLE
  5
1B9F6
  8
SJC
 10
2115.8885173249241
 20
2353.4150084505959
 30
0.0
 40
0.5
  0
TEXT
  5
1B9F7
  8
MOJI2
 10
1900.985772803059
 20
2111.0816722805212
 30
0.0
 40
40.0
  1
A-A 断面図 S=1/5
 41
0.8
  7
EXT08
  0
LINE
  5
1B9F8
  8
SJC
 10
1887.2694782307119
 20
2092.2904463340892
 30
0.0
 11
2324.298049659285
 21
2092.2904463340892
 31
0.0
  0
TEXT
  5
1B9F9
  8
SUNPOU
 10
1825.1660362510891
 20
2405.3184264459101
 30
0.0
 40
30.0
  1
ガラス繊維
 41
0.8
  7
EXT08
  0
TEXT
  5
1B9FA
  8
SUNPOU
 10
2148.8819618308389
 20
2435.8434676677339
 30
0.0
 40
30.0
  1
リサイクル原料
 41
0.8
  7
EXT08
  0
INSERT
  5
1B9FB
  8
0
  2
*U32
 10
0.0
 20
0.0
 30
0.0
1001
ACAD
1000
DSTYLE
1002
{
1070
    41
1040
2.0
1070
    77
1070
     0
1070
    40
1040
10.0
1070
   147
1040
1.1999999999999991
1070
   176
1070
     0
1070
   177
1070
     0
1070
   178
1070
     0
1070
   179
1070
     2
1070
   271
1070
     2
1002
}
  0
INSERT
  5
1B9FC
  8
0
  2
*U33
 10
0.0
 20
0.0
 30
0.0
1001
ACAD
1000
DSTYLE
1002
{
1070
    41
1040
2.0
1070
    77
1070
     0
1070
    40
1040
10.0
1070
   147
1040
1.1999999999999991
1070
   176
1070
     0
1070
   177
1070
     0
1070
   178
1070
     0
1070
   179
1070
     2
1070
   271
1070
     2
1002
}
  0
TEXT
  5
1B9FD
  8
SUNPOU
 10
2189.4066463946838
 20
2380.8580362217222
 30
0.0
 40
30.0
  1
(内層材)
 41
0.8
  7
EXT08
  0
LINE
  5
1B9FE
  8
SUNPOU
 10
1964.8581407805491
 20
79.539714495173939
 30
0.0
 11
2060.8581407805532
 21
79.53971449517303
 31
0.0
  0
LINE
  5
1B9FF
  8
SUNPOU
 10
2060.8581407805532
 20
109.53971449517211
 30
0.0
 11
2120.8581407805532
 21
49.53971449517212
 31
0.0
  0
LINE
  5
1BA00
  8
SUNPOU
 10
2689.921092752259
 20
79.53971449517303
 30
0.0
 11
2689.921092752259
 21
49.53971449517212
 31
0.0
  0
LINE
  5
1BA01
  8
SUNPOU
 10
2629.921092752259
 20
109.53971449517211
 30
0.0
 11
2629.921092752259
 21
79.53971449517303
 31
0.0
  0
LINE
  5
1BA02
  8
SUNPOU
 10
2785.9210927522631
 20
79.539714495173939
 30
0.0
 11
2689.921092752259
 21
79.53971449517303
 31
0.0
  0
LINE
  5
1BA03
  8
SUNPOU
 10
2533.9210927522549
 20
79.539714495173939
 30
0.0
 11
2629.921092752259
 21
79.53971449517303
 31
0.0
  0
LINE
  5
1BA04
  8
SUNPOU
 10
2629.921092752259
 20
109.53971449517211
 30
0.0
 11
2689.921092752259
 21
49.53971449517212
 31
0.0
  0
TEXT
  5
1BA05
  8
SUNPOU
 10
1876.839834681653
 20
116.08975174209991
 30
0.0
 40
30.0
  1
A
 41
0.8
  7
EXT08
  0
TEXT
  5
1BA06
  8
SUNPOU
 10
2279.037161319497
 20
116.0897599312638
 30
0.0
 40
30.0
  1
A
 41
0.8
  7
EXT08
  0
LINE
  5
1BA07
  8
SUNPOU
 10
2248.358140780475
 20
105.8545912926274
 30
0.0
 11
2278.358140780475
 21
105.8545912926274
 31
0.0
  0
LINE
  5
1BA08
  8
SUNPOU
 10
2278.358140780475
 20
105.8545912926274
 30
0.0
 11
2263.358140780475
 21
70.854591292627447
 31
0.0
  0
LINE
  5
1BA09
  8
SUNPOU
 10
2263.358140780475
 20
70.854591292627447
 30
0.0
 11
2263.358140780475
 21
129.97332984682089
 31
0.0
  0
LINE
  5
1BA0A
  8
SUNPOU
 10
2263.358140780475
 20
129.97332984682089
 30
0.0
 11
1918.358140780475
 21
129.97332984682089
 31
0.0
  0
LINE
  5
1BA0B
  8
SUNPOU
 10
1918.358140780475
 20
129.97332984682089
 30
0.0
 11
1918.358140780475
 21
70.854591292627447
 31
0.0
  0
LINE
  5
1BA0C
  8
SUNPOU
 10
1918.358140780475
 20
70.854591292627447
 30
0.0
 11
1903.358140780475
 21
105.8545912926274
 31
0.0
  0
LINE
  5
1BA0D
  8
SUNPOU
 10
1903.358140780475
 20
105.8545912926274
 30
0.0
 11
1933.358140780475
 21
105.8545912926274
 31
0.0
  0
DIMENSION
  5
1BA0E
  8
SUNPOU
  2
*D15
 10
1851.5291739027771
 20
1165.9670748361491
 30
0.0
 11
1824.5291739027771
 21
1475.96707483615
 31
0.0
 70
     0
 13
1954.8581407805509
 23
1785.9670748361491
 33
0.0
 14
1954.858140780555
 24
1165.9670748361491
 34
0.0
 50
90.0
1001
ACAD
1000
DSTYLE
1002
{
1070
   287
1070
     5
1070
   144
1040
0.5
1070
    40
1040
10.0
1070
    41
1040
2.0
1070
    42
1040
1.0
1070
    43
1040
6.0
1070
    44
1040
1.0
1070
    73
1070
     0
1070
    74
1070
     0
1070
    77
1070
     1
1070
    78
1070
     8
1070
   140
1040
3.0
1070
   147
1040
1.1999999999999991
1070
   172
1070
     1
1070
   179
1070
     2
1070
   271
1070
     2
1070
   279
1070
     2
1070
   340
1005
55
1002
}
  0
DIMENSION
  5
1BA0F
  8
SUNPOU
  2
*D16
 10
2250.8581407805591
 20
1948.4795113068319
 30
0.0
 11
2090.858140780555
 21
1975.4795113068319
 31
0.0
 70
     0
 13
1930.8581407805509
 23
1761.96707483615
 33
0.0
 14
2250.8581407805591
 24
1761.96707483615
 34
0.0
1001
ACAD
1000
DSTYLE
1002
{
1070
   287
1070
     5
1070
   144
1040
0.5
1070
    40
1040
10.0
1070
    41
1040
2.0
1070
    42
1040
1.0
1070
    43
1040
6.0
1070
    44
1040
1.0
1070
    73
1070
     0
1070
    74
1070
     0
1070
    77
1070
     1
1070
    78
1070
     8
1070
   140
1040
3.0
1070
   147
1040
1.1999999999999991
1070
   172
1070
     1
1070
   179
1070
     2
1070
   271
1070
     2
1070
   279
1070
     2
1070
   340
1005
55
1002
}
  0
DIMENSION
  5
1BA10
  8
SUNPOU
  2
*D17
 10
1940.8581407805541
 20
1329.638748207537
 30
0.0
 11
1910.3370248753481
 21
1356.5181578730769
 31
0.0
 70
   128
 13
1930.858140780553
 23
1285.9670748361491
 33
0.0
 14
1940.8581407805541
 24
1285.9670748361491
 34
0.0
1001
ACAD
1000
DSTYLE
1002
{
1070
   287
1070
     5
1070
   144
1040
0.5
1070
    40
1040
10.0
1070
    41
1040
2.0
1070
    42
1040
1.0
1070
    43
1040
6.0
1070
    44
1040
1.0
1070
    73
1070
     0
1070
    74
1070
     0
1070
    77
1070
     1
1070
    78
1070
     8
1070
   140
1040
3.0
1070
   147
1040
1.1999999999999991
1070
   172
1070
     1
1070
   179
1070
     2
1070
   271
1070
     2
1070
   279
1070
     2
1070
   340
1005
55
1002
}
  0
DIMENSION
  5
1BA11
  8
SUNPOU
  2
*D18
 10
2554.9210927522558
 20
1588.502617798056
 30
0.0
 11
2527.4475978352211
 21
1611.8889157571871
 31
0.0
 70
   128
 13
2566.9210927522558
 23
1500.206973523414
 33
0.0
 14
2554.9210927522558
 24
1500.206973523409
 34
0.0
1001
ACAD
1000
DSTYLE
1002
{
1070
   287
1070
     5
1070
   144
1040
0.5
1070
    40
1040
10.0
1070
    41
1040
2.0
1070
    42
1040
1.0
1070
    43
1040
6.0
1070
    44
1040
1.0
1070
    73
1070
     0
1070
    74
1070
     0
1070
    77
1070
     1
1070
    78
1070
     8
1070
   140
1040
3.0
1070
   147
1040
1.1999999999999991
1070
   172
1070
     1
1070
   179
1070
     2
1070
   271
1070
     2
1070
   279
1070
     2
1070
   340
1005
55
1002
}
  0
LINE
  5
1BA12
  8
CENTER
 10
2659.9210927537388
 20
1756.9670748361159
 30
0.0
 11
2659.921092753732
 21
1738.9670748361159
 31
0.0
  0
CIRCLE
  5
1BA13
  8
SJC
 10
2659.921092753736
 20
1747.9670748361159
 30
0.0
 40
9.0
  0
CIRCLE
  5
1BA14
  8
SJC
 10
2659.921092753736
 20
1747.9670748361159
 30
0.0
 40
8.0
  0
LINE
  5
1BA15
  8
SJC2
 10
2659.0700289239471
 20
1753.9245216446261
 30
0.0
 11
2660.7721565835232
 21
1753.9245216446261
 31
0.0
  0
LINE
  5
1BA16
  8
SJC2
 10
2665.8785395622472
 20
1748.8181386659021
 30
0.0
 11
2665.8785395622472
 21
1747.116011006327
 31
0.0
  0
LINE
  5
1BA17
  8
SJC2
 10
2653.963645945224
 20
1748.8181386659021
 30
0.0
 11
2653.963645945224
 21
1747.116011006327
 31
0.0
  0
LINE
  5
1BA18
  8
SJC2
 10
2659.0700289239471
 20
1742.009628027605
 30
0.0
 11
2660.7721565835232
 21
1742.009628027605
 31
0.0
  0
ARC
  5
1BA19
  8
SJC2
 10
2665.8785395622472
 20
1742.009628027605
 30
0.0
 40
5.1063829787233539
 50
90.0
 51
180.0
  0
ARC
  5
1BA1A
  8
SJC2
 10
2653.963645945224
 20
1742.009628027605
 30
0.0
 40
5.1063829787233539
 50
0.0
 51
90.0
  0
ARC
  5
1BA1B
  8
SJC2
 10
2665.8785395622472
 20
1753.9245216446261
 30
0.0
 40
5.1063829787233539
 50
180.0
 51
270.0
  0
ARC
  5
1BA1C
  8
SJC2
 10
2653.963645945224
 20
1753.9245216446261
 30
0.0
 40
5.1063829787233539
 50
270.0
 51
0.0
  0
LINE
  5
1BA1D
  8
CENTER
 10
2659.9210927554382
 20
1118.9670748361409
 30
0.0
 11
2659.9210927554318
 21
1136.9670748361409
 31
0.0
  0
LINE
  5
1BA1E
  8
CENTER
 10
2668.9210927554359
 20
1127.9670748361441
 30
0.0
 11
2650.9210927554359
 21
1127.9670748361391
 31
0.0
  0
LINE
  5
1BA1F
  8
CENTER
 10
2659.9210927554382
 20
1118.9670748361409
 30
0.0
 11
2659.9210927554318
 21
1136.9670748361409
 31
0.0
  0
LINE
  5
1BA20
  8
CENTER
 10
2659.9210927554391
 20
1118.9670748361409
 30
0.0
 11
2659.9210927554309
 21
1136.9670748361409
 31
0.0
  0
CIRCLE
  5
1BA21
  8
SJC
 10
2659.921092755435
 20
1127.9670748361409
 30
0.0
 40
9.0
  0
CIRCLE
  5
1BA22
  8
SJC
 10
2659.921092755435
 20
1127.9670748361409
 30
0.0
 40
8.0
  0
LINE
  5
1BA23
  8
SJC2
 10
2659.070028925647
 20
1122.0096280276309
 30
0.0
 11
2660.7721565852221
 21
1122.0096280276309
 31
0.0
  0
LINE
  5
1BA24
  8
SJC2
 10
2665.8785395639452
 20
1127.116011006354
 30
0.0
 11
2665.8785395639452
 21
1128.8181386659301
 31
0.0
  0
LINE
  5
1BA25
  8
SJC2
 10
2653.9636459469239
 20
1127.116011006354
 30
0.0
 11
2653.9636459469239
 21
1128.8181386659301
 31
0.0
  0
LINE
  5
1BA26
  8
SJC2
 10
2659.070028925647
 20
1133.9245216446509
 30
0.0
 11
2660.7721565852221
 21
1133.9245216446509
 31
0.0
  0
ARC
  5
1BA27
  8
SJC2
 10
2665.8785395639452
 20
1133.9245216446509
 30
0.0
 40
5.1063829787233539
 50
180.0
 51
270.0
  0
ARC
  5
1BA28
  8
SJC2
 10
2653.9636459469239
 20
1133.9245216446509
 30
0.0
 40
5.1063829787233539
 50
270.0
 51
0.0
  0
ARC
  5
1BA29
  8
SJC2
 10
2665.8785395639452
 20
1122.0096280276309
 30
0.0
 40
5.1063829787233539
 50
90.0
 51
180.0
  0
ARC
  5
1BA2A
  8
SJC2
 10
2653.9636459469239
 20
1122.0096280276309
 30
0.0
 40
5.1063829787233539
 50
0.0
 51
90.0
  0
INSERT
  5
1BA2B
  8
0
  2
*U34
 10
0.0
 20
0.0
 30
0.0
1001
ACAD
1000
DSTYLE
1002
{
1070
     5
1000

1070
    40
1040
10.0
1070
    41
1040
2.0
1070
    42
1040
1.0
1070
    43
1040
6.0
1070
    44
1040
1.0
1070
    73
1070
     0
1070
    74
1070
     0
1070
    77
1070
     1
1070
    78
1070
     8
1070
   140
1040
3.0
1070
   144
1040
0.5
1070
   147
1040
1.1999999999999991
1070
   172
1070
     1
1070
   176
1070
   256
1070
   177
1070
   256
1070
   178
1070
   256
1070
   271
1070
     0
1070
   287
1070
     5
1070
   340
1005
55
1070
   342
1005
0
1002
}
  0
TEXT
  5
1BA2C
  8
SUNPOU
 10
2802.180315545118
 20
1236.2622354953839
 30
0.0
 40
30.0
  1
SUS410
 41
0.8
  7
EXT08
  0
LINE
  5
1BA2D
  8
SUNPOU
 10
2799.704134769042
 20
1271.090098752243
 30
0.0
 11
2958.9322117222782
 21
1271.090098752243
 31
0.0
1001
ACAD
1000
DSTYLE
1002
{
1070
    77
1070
     0
1070
    40
1040
10.0
1070
   147
1040
1.1999999999999991
1070
   176
1070
     0
1070
   177
1070
     0
1070
   178
1070
     0
1070
   179
1070
     2
1070
   271
1070
     2
1002
}
  0
TEXT
  5
1BA2E
  8
SUNPOU
 10
2808.5719762154308
 20
1276.8481192443539
 30
0.0
 40
30.0
  1
固定ビス
 41
0.8
  7
EXT08
  0
LINE
  5
1BA2F
  8
SJC
 10
1954.8581407805491
 20
1155.967074836147
 30
0.0
 11
2226.8581407805568
 21
1155.9670748361491
 31
0.0
  0
LINE
  5
1BA30
  8
SJC
 10
1940.8581407805491
 20
1141.9670748361491
 30
0.0
 11
1940.858140780555
 21
169.96707483614949
 31
0.0
  0
LINE
  5
1BA31
  8
SJC
 10
2240.8581407805591
 20
1141.9670748361491
 30
0.0
 11
2240.8581407805509
 21
169.96707483615
 31
0.0
  0
LINE
  5
1BA32
  8
SJC
 10
1930.8581407805491
 20
1141.9670748361491
 30
0.0
 11
1930.858140780553
 21
169.9670748361491
 31
0.0
  0
ARC
  5
1BA33
  8
SJC
 10
1954.8581407805491
 20
1141.9670748361491
 30
0.0
 40
24.0
 50
90.0
 51
180.0
  0
ARC
  5
1BA34
  8
SJC
 10
1954.8581407805491
 20
1141.9670748361491
 30
0.0
 40
14.0
 50
90.0
 51
180.0
  0
LINE
  5
1BA35
  8
SJC
 10
2250.8581407805568
 20
1141.9670748361491
 30
0.0
 11
2250.8581407805532
 21
169.96707483614949
 31
0.0
  0
ARC
  5
1BA36
  8
SJC
 10
2226.8581407805568
 20
1141.9670748361491
 30
0.0
 40
24.0
 50
0.0
 51
90.0
  0
ARC
  5
1BA37
  8
SJC
 10
2226.8581407805568
 20
1141.9670748361491
 30
0.0
 40
14.0
 50
0.0
 51
90.0
  0
LINE
  5
1BA38
  8
SJC
 10
2226.858140780555
 20
145.96707483614821
 30
0.0
 11
1954.858140780548
 21
145.96707483614821
 31
0.0
  0
LINE
  5
1BA39
  8
SJC
 10
1954.858140780547
 20
1175.9670748361509
 30
0.0
 11
2226.8581407805468
 21
1175.9670748361509
 31
0.0
  0
ARC
  5
1BA3A
  8
SJC
 10
2226.8581407805468
 20
1189.9670748361509
 30
0.0
 40
24.0
 50
270.0
 51
0.0
  0
ARC
  5
1BA3B
  8
SJC
 10
2226.8581407805468
 20
1189.9670748361509
 30
0.0
 40
14.0
 50
270.0
 51
0.0
  0
ARC
  5
1BA3C
  8
SJC
 10
1954.858140780547
 20
1189.9670748361509
 30
0.0
 40
24.0
 50
180.0
 51
270.0
  0
ARC
  5
1BA3D
  8
SJC
 10
1954.858140780547
 20
1189.9670748361509
 30
0.0
 40
14.0
 50
180.0
 51
270.0
  0
LINE
  5
1BA3E
  8
SJC
 10
2226.8581407805491
 20
1165.96707483615
 30
0.0
 11
1954.8581407805409
 21
1165.96707483615
 31
0.0
  0
LINE
  5
1BA3F
  8
SJC
 10
2554.9210927524809
 20
1161.9670748361771
 30
0.0
 11
2554.9210927524809
 21
149.96707483619181
 31
0.0
  0
LINE
  5
1BA40
  8
SJC
 10
2566.9210927528102
 20
149.9670748360877
 30
0.0
 11
2566.9210927528102
 21
160.96707483652651
 31
0.0
  0
LINE
  5
1BA41
  8
SJC
 10
2566.9210927525878
 20
1175.967074836165
 30
0.0
 11
2566.9210927525878
 21
1315.9670748361921
 31
0.0
  0
LINE
  5
1BA42
  8
SJC
 10
2562.9210927524759
 20
1165.9670748361759
 30
0.0
 11
2558.9210927524759
 21
1165.967074836178
 31
0.0
  0
ARC
  5
1BA43
  8
SJC
 10
2562.9210927524769
 20
1169.9670748361759
 30
0.0
 40
4.0
 50
270.0
 51
359.99999999997402
  0
ARC
  5
1BA44
  8
SJC
 10
2558.9210927524769
 20
1169.9670748361771
 30
0.0
 40
4.0
 50
179.99999999998701
 51
270.0
  0
LINE
  5
1BA45
  8
SJC
 10
2566.9210927523359
 20
1161.967040865951
 30
0.0
 11
2566.921092752696
 21
149.96707483617359
 31
0.0
  0
LINE
  5
1BA46
  8
SJC
 10
2679.9210927539621
 20
1175.9670748362189
 30
0.0
 11
2679.9210927539489
 21
1210.14253035314
 31
0.0
  0
ARC
  5
1BA47
  8
SJC
 10
2669.9210927539621
 20
1175.9670748362171
 30
0.0
 40
10.0
 50
270.0
 51
0.0000000000260551
  0
LINE
  5
1BA48
  8
SJC
 10
2669.9210927539648
 20
1165.96707483621
 30
0.0
 11
2564.9210927539671
 21
1165.9670748361771
 31
0.0
  0
LINE
  5
1BA49
  8
CENTER
 10
2659.9210927539598
 20
1194.9670748362139
 30
0.0
 11
2659.9210927539539
 21
1212.9670748362139
 31
0.0
  0
LINE
  5
1BA4A
  8
CENTER
 10
2668.921092753958
 20
1203.9670748362171
 30
0.0
 11
2650.921092753958
 21
1203.9670748362109
 31
0.0
  0
LINE
  5
1BA4B
  8
SJC
 10
2566.921092752812
 20
160.96707483607901
 30
0.0
 11
2566.921092752812
 21
149.9670748360877
 31
0.0
  0
LINE
  5
1BA4C
  8
SJC
 10
2672.3262324827128
 20
1219.8489871157831
 30
0.0
 11
2566.9210927525
 21
1245.9670748361759
 31
0.0
  0
ARC
  5
1BA4D
  8
SJC
 10
2669.9210927539489
 20
1210.1425303531371
 30
0.0
 40
10.0
 50
0.0000000000260551
 51
76.083122566894787
  0
LINE
  5
1BA4E
  8
SJC
 10
2562.9210927526992
 20
145.9670748360877
 30
0.0
 11
2558.9210927526992
 21
145.96707483608949
 31
0.0
  0
ARC
  5
1BA4F
  8
SJC
 10
2562.921092752701
 20
149.9670748360877
 30
0.0
 40
4.0
 50
270.0
 51
359.99999999997402
  0
ARC
  5
1BA50
  8
SJC
 10
2558.921092752701
 20
149.96707483608949
 30
0.0
 40
4.0
 50
179.99999999998701
 51
270.0
  0
LINE
  5
1BA51
  8
SJC
 10
2554.921092752701
 20
149.96707483609131
 30
0.0
 11
2554.9210927527051
 21
154.9670748360918
 31
0.0
  0
LINE
  5
1BA52
  8
SJC
 10
2679.9210927541849
 20
155.9670748361313
 30
0.0
 11
2679.9210927541731
 21
190.14253035305231
 31
0.0
  0
ARC
  5
1BA53
  8
SJC
 10
2669.9210927541858
 20
155.9670748361286
 30
0.0
 40
10.0
 50
270.0
 51
0.0000000000260551
  0
LINE
  5
1BA54
  8
SJC
 10
2669.921092754189
 20
145.96707483612221
 30
0.0
 11
2562.9210927527029
 21
145.9670748360877
 31
0.0
  0
LINE
  5
1BA55
  8
CENTER
 10
2659.921092754184
 20
174.96707483612539
 30
0.0
 11
2659.9210927541781
 21
192.96707483612539
 31
0.0
  0
LINE
  5
1BA56
  8
CENTER
 10
2668.9210927541822
 20
183.96707483612821
 30
0.0
 11
2650.9210927541822
 21
183.96707483612269
 31
0.0
  0
LINE
  5
1BA57
  8
SJC
 10
2672.326232482937
 20
199.84898711569531
 30
0.0
 11
2566.9210927527229
 21
225.9670748360881
 31
0.0
  0
ARC
  5
1BA58
  8
SJC
 10
2669.9210927541731
 20
190.1425303530491
 30
0.0
 40
10.0
 50
0.0000000000260551
 51
76.083122566894787
  0
LINE
  5
1BA59
  8
SJC
 10
2626.9210927522959
 20
1231.0998181992679
 30
0.0
 11
2626.921092752516
 21
1720.8343314731169
 31
0.0
  0
LINE
  5
1BA5A
  8
CENTER
 10
2659.9210927539611
 20
1194.9670748362139
 30
0.0
 11
2659.9210927539539
 21
1212.9670748362139
 31
0.0
  0
CIRCLE
  5
1BA5B
  8
SJC
 10
2659.9210927539571
 20
1203.9670748362139
 30
0.0
 40
9.0
  0
CIRCLE
  5
1BA5C
  8
SJC
 10
2659.9210927539571
 20
1203.9670748362139
 30
0.0
 40
8.0
  0
LINE
  5
1BA5D
  8
SJC2
 10
2659.070028924169
 20
1198.009628027703
 30
0.0
 11
2660.7721565837451
 21
1198.009628027703
 31
0.0
  0
LINE
  5
1BA5E
  8
SJC2
 10
2665.8785395624691
 20
1203.116011006427
 30
0.0
 11
2665.8785395624691
 21
1204.8181386660019
 31
0.0
  0
LINE
  5
1BA5F
  8
SJC2
 10
2653.9636459454459
 20
1203.116011006427
 30
0.0
 11
2653.9636459454459
 21
1204.8181386660019
 31
0.0
  0
LINE
  5
1BA60
  8
SJC2
 10
2659.070028924169
 20
1209.9245216447241
 30
0.0
 11
2660.7721565837451
 21
1209.9245216447241
 31
0.0
  0
ARC
  5
1BA61
  8
SJC2
 10
2665.8785395624691
 20
1209.9245216447241
 30
0.0
 40
5.1063829787233539
 50
180.0
 51
270.0
  0
ARC
  5
1BA62
  8
SJC2
 10
2653.9636459454459
 20
1209.9245216447241
 30
0.0
 40
5.1063829787233539
 50
270.0
 51
0.0
  0
ARC
  5
1BA63
  8
SJC2
 10
2665.8785395624691
 20
1198.009628027703
 30
0.0
 40
5.1063829787233539
 50
90.0
 51
180.0
  0
ARC
  5
1BA64
  8
SJC2
 10
2653.9636459454459
 20
1198.009628027703
 30
0.0
 40
5.1063829787233539
 50
0.0
 51
90.0
  0
LINE
  5
1BA65
  8
CENTER
 10
2659.9210927556601
 20
192.96707483612539
 30
0.0
 11
2659.9210927556542
 21
174.96707483612539
 31
0.0
  0
LINE
  5
1BA66
  8
CENTER
 10
2668.9210927556578
 20
183.96707483612269
 30
0.0
 11
2650.9210927556578
 21
183.96707483612821
 31
0.0
  0
LINE
  5
1BA67
  8
CENTER
 10
2659.9210927556601
 20
192.96707483612539
 30
0.0
 11
2659.9210927556542
 21
174.96707483612539
 31
0.0
  0
LINE
  5
1BA68
  8
CENTER
 10
2659.921092755661
 20
192.96707483612539
 30
0.0
 11
2659.9210927556542
 21
174.96707483612539
 31
0.0
  0
CIRCLE
  5
1BA69
  8
SJC
 10
2659.9210927556569
 20
183.96707483612539
 30
0.0
 40
9.0
  0
CIRCLE
  5
1BA6A
  8
SJC
 10
2659.9210927556569
 20
183.96707483612539
 30
0.0
 40
8.0
  0
LINE
  5
1BA6B
  8
SJC2
 10
2659.0700289258689
 20
189.9245216446356
 30
0.0
 11
2660.772156585444
 21
189.9245216446356
 31
0.0
  0
LINE
  5
1BA6C
  8
SJC2
 10
2665.8785395641671
 20
184.8181386659121
 30
0.0
 11
2665.8785395641671
 21
183.116011006337
 31
0.0
  0
LINE
  5
1BA6D
  8
SJC2
 10
2653.9636459471458
 20
184.8181386659121
 30
0.0
 11
2653.9636459471458
 21
183.116011006337
 31
0.0
  0
LINE
  5
1BA6E
  8
SJC2
 10
2659.0700289258689
 20
178.00962802761521
 30
0.0
 11
2660.772156585444
 21
178.00962802761521
 31
0.0
  0
ARC
  5
1BA6F
  8
SJC2
 10
2665.8785395641671
 20
178.00962802761521
 30
0.0
 40
5.1063829787233539
 50
90.0
 51
180.0
  0
ARC
  5
1BA70
  8
SJC2
 10
2653.9636459471458
 20
178.00962802761521
 30
0.0
 40
5.1063829787233539
 50
0.0
 51
90.0
  0
ARC
  5
1BA71
  8
SJC2
 10
2665.8785395641671
 20
189.9245216446356
 30
0.0
 40
5.1063829787233539
 50
180.0
 51
270.0
  0
ARC
  5
1BA72
  8
SJC2
 10
2653.9636459471458
 20
189.9245216446356
 30
0.0
 40
5.1063829787233539
 50
270.0
 51
0.0
  0
DIMENSION
  5
1BA73
  8
SUNPOU
  2
*D19
 10
1851.5291739027771
 20
145.9670748361491
 30
0.0
 11
1824.5291739027771
 21
655.96707483614978
 31
0.0
 70
     0
 13
1954.8581407805409
 23
1165.96707483615
 33
0.0
 14
1954.858140780553
 24
145.9670748361491
 34
0.0
 50
90.0
1001
ACAD
1000
DSTYLE
1002
{
1070
   287
1070
     5
1070
   144
1040
0.5
1070
    40
1040
10.0
1070
    41
1040
2.0
1070
    42
1040
1.0
1070
    43
1040
6.0
1070
    44
1040
1.0
1070
    73
1070
     0
1070
    74
1070
     0
1070
    77
1070
     1
1070
    78
1070
     8
1070
   140
1040
3.0
1070
   147
1040
1.1999999999999991
1070
   172
1070
     1
1070
   179
1070
     2
1070
   271
1070
     2
1070
   279
1070
     2
1070
   340
1005
55
1002
}
  0
LINE
  5
1BA74
  8
SJC
 10
2679.921092753727
 20
637.79161931944964
 30
0.0
 11
2679.921092753727
 21
674.14253035329511
 31
0.0
  0
ARC
  5
1BA75
  8
SJC
 10
2669.921092753727
 20
674.14253035329136
 30
0.0
 40
10.0
 50
0.0000000000260551
 51
76.083122566894787
  0
LINE
  5
1BA76
  8
CENTER
 10
2659.9210927537379
 20
646.96707483636783
 30
0.0
 11
2659.921092753732
 21
664.96707483636783
 31
0.0
  0
LINE
  5
1BA77
  8
CENTER
 10
2668.921092753736
 20
655.96707483637044
 30
0.0
 11
2650.921092753736
 21
655.96707483636499
 31
0.0
  0
LINE
  5
1BA78
  8
SJC
 10
2672.3262324824909
 20
683.84898711593814
 30
0.0
 11
2566.9210927522781
 21
709.96707483633054
 31
0.0
  0
ARC
  5
1BA79
  8
SJC
 10
2669.921092753727
 20
637.79161931944964
 30
0.0
 40
10.0
 50
283.9168774331053
 51
359.99999999997402
  0
LINE
  5
1BA7A
  8
SJC
 10
2672.3262324824909
 20
628.08516255680286
 30
0.0
 11
2566.9210927522781
 21
601.96707483641057
 31
0.0
  0
LINE
  5
1BA7B
  8
CENTER
 10
2659.9210927537379
 20
646.96707483636783
 30
0.0
 11
2659.921092753732
 21
664.96707483636783
 31
0.0
  0
LINE
  5
1BA7C
  8
CENTER
 10
2659.9210927537388
 20
646.96707483636783
 30
0.0
 11
2659.921092753732
 21
664.96707483636783
 31
0.0
  0
CIRCLE
  5
1BA7D
  8
SJC
 10
2659.921092753736
 20
655.96707483636783
 30
0.0
 40
9.0
  0
CIRCLE
  5
1BA7E
  8
SJC
 10
2659.921092753736
 20
655.96707483636783
 30
0.0
 40
8.0
  0
LINE
  5
1BA7F
  8
SJC2
 10
2659.0700289239471
 20
650.00962802785762
 30
0.0
 11
2660.7721565835232
 21
650.00962802785762
 31
0.0
  0
LINE
  5
1BA80
  8
SJC2
 10
2665.8785395622472
 20
655.11601100658106
 30
0.0
 11
2665.8785395622472
 21
656.8181386661563
 31
0.0
  0
LINE
  5
1BA81
  8
SJC2
 10
2653.963645945224
 20
655.11601100658106
 30
0.0
 11
2653.963645945224
 21
656.8181386661563
 31
0.0
  0
LINE
  5
1BA82
  8
SJC2
 10
2659.0700289239471
 20
661.92452164487804
 30
0.0
 11
2660.7721565835232
 21
661.92452164487804
 31
0.0
  0
ARC
  5
1BA83
  8
SJC2
 10
2665.8785395622472
 20
661.92452164487804
 30
0.0
 40
5.1063829787233539
 50
180.0
 51
270.0
  0
ARC
  5
1BA84
  8
SJC2
 10
2653.963645945224
 20
661.92452164487804
 30
0.0
 40
5.1063829787233539
 50
270.0
 51
0.0
  0
ARC
  5
1BA85
  8
SJC2
 10
2665.8785395622472
 20
650.00962802785762
 30
0.0
 40
5.1063829787233539
 50
90.0
 51
180.0
  0
ARC
  5
1BA86
  8
SJC2
 10
2653.963645945224
 20
650.00962802785762
 30
0.0
 40
5.1063829787233539
 50
0.0
 51
90.0
  0
DIMENSION
  5
1BA87
  8
SUNPOU
  2
*D20
 10
1760.376075002082
 20
145.9670748361491
 30
0.0
 11
1733.376075002082
 21
965.96707483614966
 31
0.0
 70
     0
 13
1954.8581407805509
 23
1785.9670748361491
 33
0.0
 14
1944.858140780553
 24
145.9670748361491
 34
0.0
 50
90.0
1001
ACAD
1000
DSTYLE
1002
{
1070
   287
1070
     5
1070
   144
1040
0.5
1070
    40
1040
10.0
1070
    41
1040
2.0
1070
    42
1040
1.0
1070
    43
1040
6.0
1070
    44
1040
1.0
1070
    73
1070
     0
1070
    74
1070
     0
1070
    77
1070
     1
1070
    78
1070
     8
1070
   140
1040
3.0
1070
   147
1040
1.1999999999999991
1070
   172
1070
     1
1070
   179
1070
     2
1070
   271
1070
     2
1070
   279
1070
     2
1070
   340
1005
55
1002
}
  0
TEXT
  5
1BFB1
  8
MOJI
 10
2556.4144519859551
 20
2196.8040403095938
 30
0.0
 40
30.0
  1
弾性サイン板（小）
 41
0.8
  7
EXT08
 72
     4
 11
2675.6144519859549
 21
2211.8040403095938
 31
0.0
  0
TEXT
  5
1BFB2
  8
MOJI
 10
2934.3431438828802
 20
2196.8040403095938
 30
0.0
 40
30.0
  1
CRゴム
 41
0.8
  7
EXT08
 11
2934.3431438828802
 21
2211.8040403095938
 31
0.0
 73
     2
  0
TEXT
  5
1BFB3
  8
MOJI
 10
2852.6288581865952
 20
2196.8040403095938
 30
0.0
 40
30.0
  1
1
 41
0.8
  7
EXT08
 72
     4
 11
2862.3431439008809
 21
2211.8040403095938
 31
0.0
  0
TEXT
  5
1BFB4
  8
MOJI
 10
3459.9976583548141
 20
2196.8040403095938
 30
0.0
 40
30.0
  1
黒 色
 41
0.8
  7
EXT08
 72
     4
 11
3492.7976583548138
 21
2211.8040403095929
 31
0.0
  0
LINE
  5
1BFB5
  8
MOJI
 10
3663.0844272244772
 20
2187.8040403155928
 30
0.0
 11
2539.8840360922268
 21
2187.8040403155928
 31
0.0
  0
INSERT
  5
1C0E3
  8
0
  2
*U35
 10
0.0
 20
0.0
 30
0.0
1001
ACAD
1000
DSTYLE
1002
{
1070
   140
1040
30.0
1070
   144
1040
0.5
1070
   147
1040
15.0
1070
    42
1040
10.0
1070
    44
1040
10.0
1070
    43
1040
60.0
1070
    41
1040
20.0
1002
}
  0
TEXT
  5
1C0E4
  8
SUNPOU
 10
724.17173997394912
 20
2162.8630325465601
 30
0.0
 40
30.0
  1
ＣＲゴム
 41
0.8
  7
EXT08
  0
LINE
  5
1C0E5
  8
SUNPOU
 10
721.69555919787206
 20
2197.6908958034178
 30
0.0
 11
979.85788722268808
 21
2197.6908958034178
 31
0.0
1001
ACAD
1000
DSTYLE
1002
{
1070
    77
1070
     0
1070
    40
1040
10.0
1070
   147
1040
1.1999999999999991
1070
   176
1070
     0
1070
   177
1070
     0
1070
   178
1070
     0
1070
   179
1070
     2
1070
   271
1070
     2
1002
}
  0
TEXT
  5
1C0E6
  8
SUNPOU
 10
724.17173997394912
 20
2203.4489162955292
 30
0.0
 40
30.0
  1
弾性サイン板（小）
 41
0.8
  7
EXT08
  0
DIMENSION
  5
1C29C
  8
SUNPOU
  2
*D21
 10
381.84429899027879
 20
2289.6479670114131
 30
0.0
 11
338.8442989902785
 21
2269.6479670114122
 31
0.0
 70
     0
 13
469.23142073162489
 23
2249.6479670114122
 33
0.0
 14
492.68142073162329
 24
2289.6479670114131
 34
0.0
 50
90.0
1001
ACAD
1000
DSTYLE
1002
{
1070
   287
1070
     5
1070
    40
1040
10.0
1070
    41
1040
2.0
1070
    42
1040
1.0
1070
    43
1040
6.0
1070
    44
1040
1.0
1070
    73
1070
     0
1070
    74
1070
     0
1070
    77
1070
     1
1070
    78
1070
     8
1070
   140
1040
3.0
1070
   147
1040
1.1999999999999991
1070
   172
1070
     1
1070
   179
1070
     2
1070
   271
1070
     2
1070
   279
1070
     2
1070
   340
1005
55
1002
}
  0
DIMENSION
  5
1C2AB
  8
SUNPOU
  2
*D22
 10
164.84823539011811
 20
449.64796701141222
 30
0.0
 11
137.84823539011811
 21
1379.6479670114099
 31
0.0
 70
     0
 13
536.43142073162551
 23
2309.6479670114072
 33
0.0
 14
272.10351895608892
 24
449.64796701141222
 34
0.0
 50
90.0
1001
ACAD
1000
DSTYLE
1002
{
1070
   287
1070
     5
1070
    40
1040
10.0
1070
    41
1040
2.0
1070
    42
1040
1.0
1070
    43
1040
6.0
1070
    44
1040
1.0
1070
    73
1070
     0
1070
    74
1070
     0
1070
    77
1070
     1
1070
    78
1070
     8
1070
   140
1040
3.0
1070
   147
1040
1.1999999999999991
1070
   172
1070
     1
1070
   179
1070
     2
1070
   271
1070
     2
1070
   279
1070
     2
1070
   340
1005
55
1002
}
  0
LINE
  5
1C2EA
  8
HATCH
 10
580.18142073162608
 20
2249.6479670114122
 30
0.0
 11
492.68142073162551
 21
2249.6479670114122
 31
0.0
1001
ACAD
1000
ASC_BOUNDS
1002
{
1070
    19
1005
1C2EB
1002
}
  0
INSERT
  5
1C2EB
  8
HATCH
  6
CONTINUOUS
  2
*X36
 10
0.0
 20
0.0
 30
0.0
1001
ACAD
1000
HATCH
1002
{
1070
    19
1000
ANSI37
1040
2.0
1040
0.0
1000
ASC_BOUNDS
1070
     1
1070
     2
1070
     4
1005
19578
1005
1C2EA
1005
19576
1005
19575
1000
ASC_SEEDPOINT
1011
0.0
1021
0.0
1031
0.0
1021
0.0
1031
0.0
1000
R14_HATCH_DATA
1000
1C2EB
1011
1.0
1021
0.0
1031
0.0
1021
0.0
1031
0.0
1011
0.0
1021
0.0
1031
0.0
1021
1.0
1031
0.0
1011
0.0
1021
0.0
1031
0.0
1021
0.0
1031
1.0
1040
0.0
1010
0.0
1020
0.0
1030
1.0
1000
ANSI37
1070
     0
1070
     1
1071
        1
1071
        1
1071
        4
1070
     1
1040
492.68142073162488
1040
2289.6479670114149
1040
580.18142073162448
1040
2289.6479670114149
1070
     1
1040
580.18142073162551
1040
2289.6479670114131
1040
580.18142073162619
1040
2249.6479670114122
1070
     1
1040
580.18142073162608
1040
2249.6479670114122
1040
492.68142073162551
1040
2249.6479670114122
1070
     1
1040
492.68142073162579
1040
2249.6479670114122
1040
492.68142073162511
1040
2289.6479670114122
1071
        4
1005
19575
1005
19576
1005
1C2EA
1005
19578
1070
     0
1070
     1
1040
0.0
1040
2.0
1070
     0
1070
     2
1040
0.7853981633974483
1040
0.0
1040
0.0
1040
-4.490128060534575
1040
4.4901280605345759
1070
     0
1040
2.3561944901923439
1040
0.0
1040
0.0
1040
-4.4901280605345759
1040
-4.490128060534575
1070
     0
1071
        1
1040
0.0
1040
0.0
1040
0.0
1002
}
  0
INSERT
  5
1C2FF
  8
HATCH
  6
CONTINUOUS
  2
*X37
 10
0.0
 20
0.0
 30
0.0
1001
ACAD
1000
HATCH
1002
{
1070
    19
1000
ANSI37
1040
2.0
1040
0.0
1000
R14_HATCH_DATA
1000
1C2FF
1011
1.0
1021
0.0
1031
0.0
1021
0.0
1031
0.0
1011
0.0
1021
0.0
1031
0.0
1021
1.0
1031
0.0
1011
0.0
1021
0.0
1031
0.0
1021
0.0
1031
1.0
1040
0.0
1010
0.0
1020
0.0
1030
1.0
1000
ANSI37
1070
     0
1070
     0
1071
        1
1071
        1
1071
        4
1070
     1
1040
1257.132353861168
1040
2289.6479670114131
1040
1344.632353861168
1040
2289.6479670114131
1070
     1
1040
1344.6323538611689
1040
2289.6479670114122
1040
1344.6323538611689
1040
2249.6479670114109
1070
     1
1040
1344.6323538611689
1040
2249.6479670114109
1040
1257.1323538611689
1040
2249.6479670114109
1070
     1
1040
1257.1323538611689
1040
2249.6479670114109
1040
1257.132353861168
1040
2289.6479670114109
1071
        0
1070
     0
1070
     1
1040
0.0
1040
2.0
1070
     0
1070
     2
1040
0.7853981633974483
1040
764.45093312954339
1040
-0.0000000000013642
1040
-4.490128060534575
1040
4.4901280605345759
1070
     0
1040
2.3561944901923439
1040
764.45093312954339
1040
-0.0000000000013642
1040
-4.4901280605345759
1040
-4.490128060534575
1070
     0
1071
        1
1040
764.45093312954339
1040
-0.0000000000013642
1040
0.0
1002
}
  0
LINE
  5
1C300
  8
HATCH
 10
1344.6323538611689
 20
2249.6479670114109
 30
0.0
 11
1257.1323538611689
 21
2249.6479670114109
 31
0.0
  0
INSERT
  5
1C36C
  8
HATCH
  6
CONTINUOUS
  2
*X38
 10
0.0
 20
0.0
 30
0.0
1001
ACAD
1000
HATCH
1002
{
1070
    19
1000
ANSI37
1040
4.0
1040
0.0
1000
ASC_BOUNDS
1070
     1
1070
     2
1070
     4
1005
1B994
1005
1B993
1005
1B996
1005
1B995
1000
ASC_SEEDPOINT
1011
0.0
1021
0.0
1031
0.0
1021
-27.999999987998311
1031
0.0
1000
R14_HATCH_DATA
1000
1C36C
1011
1.0
1021
0.0
1031
0.0
1021
0.0
1031
0.0
1011
0.0
1021
0.0
1031
0.0
1021
1.0
1031
0.0
1011
0.0
1021
0.0
1031
0.0
1021
0.0
1031
1.0
1040
0.0
1010
0.0
1020
0.0
1030
1.0
1000
ANSI37
1070
     0
1070
     1
1071
        1
1071
        1
1071
        4
1070
     1
1040
2178.3581407805532
1040
1785.9670748361491
1040
2003.358140780553
1040
1785.9670748361491
1070
     1
1040
2003.3581407805541
1040
1785.96707483615
1040
2003.358140780552
1040
1865.9670748361491
1070
     1
1040
2003.358140780553
1040
1865.9670748361509
1040
2178.3581407805532
1040
1865.9670748361509
1070
     1
1040
2178.3581407805532
1040
1865.9670748361509
1040
2178.3581407805532
1040
1785.96707483615
1071
        4
1005
1B995
1005
1B996
1005
1B993
1005
1B994
1070
     0
1070
     1
1040
0.0
1040
4.0
1070
     0
1070
     2
1040
0.7853981633974483
1040
0.0
1040
-27.999999987998311
1040
-8.9802561210691518
1040
8.9802561210691536
1070
     0
1040
2.3561944901923439
1040
0.0
1040
-27.999999987998311
1040
-8.9802561210691536
1040
-8.9802561210691518
1070
     0
1071
        1
1040
0.0
1040
-27.999999987998311
1040
0.0
1002
}
  0
INSERT
  5
1C36D
  8
HATCH
  6
CONTINUOUS
  2
*X39
 10
0.0
 20
0.0
 30
0.0
1001
ACAD
1000
HATCH
1002
{
1070
    19
1000
ANSI37
1040
4.0
1040
0.0
1000
ASC_BOUNDS
1070
     1
1070
     2
1070
     4
1005
1C36F
1005
1C36E
1005
1C371
1005
1C370
1000
ASC_SEEDPOINT
1011
569.06295197170618
1021
0.0
1031
0.0
1021
-27.999999987998539
1031
0.0
1000
R14_HATCH_DATA
1000
1C36D
1011
1.0
1021
0.0
1031
0.0
1021
0.0
1031
0.0
1011
0.0
1021
0.0
1031
0.0
1021
1.0
1031
0.0
1011
0.0
1021
0.0
1031
0.0
1021
0.0
1031
1.0
1040
0.0
1010
0.0
1020
0.0
1030
1.0
1000
ANSI37
1070
     0
1070
     1
1071
        1
1071
        1
1071
        4
1070
     1
1040
2747.4210927522599
1040
1785.9670748361491
1040
2572.421092752259
1040
1785.9670748361491
1070
     1
1040
2572.4210927522599
1040
1785.9670748361491
1040
2572.4210927522581
1040
1865.9670748361491
1070
     1
1040
2572.421092752259
1040
1865.9670748361509
1040
2747.4210927522599
1040
1865.9670748361509
1070
     1
1040
2747.4210927522599
1040
1865.9670748361509
1040
2747.4210927522599
1040
1785.9670748361491
1071
        4
1005
1C370
1005
1C371
1005
1C36E
1005
1C36F
1070
     0
1070
     1
1040
0.0
1040
4.0
1070
     0
1070
     2
1040
0.7853981633974483
1040
569.06295197170618
1040
-27.999999987998539
1040
-8.9802561210691518
1040
8.9802561210691536
1070
     0
1040
2.3561944901923439
1040
569.06295197170618
1040
-27.999999987998539
1040
-8.9802561210691536
1040
-8.9802561210691518
1070
     0
1071
        1
1040
569.06295197170618
1040
-27.999999987998539
1040
0.0
1002
}
  0
LINE
  5
1C36E
  8
HATCH
 10
2572.421092752259
 20
1865.9670748361509
 30
0.0
 11
2747.4210927522599
 21
1865.9670748361509
 31
0.0
1001
ACAD
1000
ASC_BOUNDS
1002
{
1070
    19
1005
1C36D
1002
}
  0
LINE
  5
1C36F
  8
HATCH
 10
2747.4210927522599
 20
1865.9670748361509
 30
0.0
 11
2747.4210927522599
 21
1785.9670748361491
 31
0.0
1001
ACAD
1000
ASC_BOUNDS
1002
{
1070
    19
1005
1C36D
1002
}
  0
LINE
  5
1C370
  8
HATCH
 10
2747.4210927522599
 20
1785.9670748361491
 30
0.0
 11
2572.421092752259
 21
1785.9670748361491
 31
0.0
1001
ACAD
1000
ASC_BOUNDS
1002
{
1070
    19
1005
1C36D
1002
}
  0
LINE
  5
1C371
  8
HATCH
 10
2572.4210927522599
 20
1785.9670748361491
 30
0.0
 11
2572.4210927522581
 21
1865.9670748361491
 31
0.0
1001
ACAD
1000
ASC_BOUNDS
1002
{
1070
    19
1005
1C36D
1002
}
  0
LINE
  5
1C372
  8
SJC
 10
2572.4210927522422
 20
1865.9670748361709
 30
0.0
 11
2747.4210927522422
 21
1865.9670748361709
 31
0.0
  0
ARC
  5
1C373
  8
SJC
 10
2659.9210927522422
 20
1790.2639498361291
 30
0.0
 40
115.7031250000273
 50
40.865657358800291
 51
139.13434264119971
  0
DIMENSION
  5
1C5C3
  8
SUNPOU
  2
*D23
 10
1037.4255366724769
 20
479.64796701141222
 30
0.0
 11
1010.4255366724771
 21
1179.6479670114111
 31
0.0
 70
     0
 13
1263.38235386117
 23
1879.6479670114099
 33
0.0
 14
1263.38235386117
 24
479.64796701141211
 34
0.0
 50
90.0
1001
ACAD
1000
DSTYLE
1002
{
1070
   287
1070
     5
1070
    40
1040
10.0
1070
    41
1040
2.0
1070
    42
1040
1.0
1070
    43
1040
6.0
1070
    44
1040
1.0
1070
    73
1070
     0
1070
    74
1070
     0
1070
    77
1070
     1
1070
    78
1070
     8
1070
   140
1040
3.0
1070
   147
1040
1.1999999999999991
1070
   172
1070
     1
1070
   179
1070
     2
1070
   271
1070
     2
1070
   279
1070
     2
1070
   340
1005
55
1002
}
  0
DIMENSION
  5
1C614
  8
SUNPOU
  2
*D24
 10
1037.4255366724769
 20
449.64796701141222
 30
0.0
 11
994.42553667247728
 21
464.64796701141239
 31
0.0
 70
     0
 13
1263.38235386117
 23
479.64796701141222
 33
0.0
 14
1073.3483181628919
 24
449.64796701141222
 34
0.0
 50
90.0
1001
ACAD
1000
DSTYLE
1002
{
1070
   287
1070
     5
1070
    40
1040
10.0
1070
    41
1040
2.0
1070
    42
1040
1.0
1070
    43
1040
6.0
1070
    44
1040
1.0
1070
    73
1070
     0
1070
    74
1070
     0
1070
    77
1070
     1
1070
    78
1070
     8
1070
   140
1040
3.0
1070
   147
1040
1.1999999999999991
1070
   172
1070
     1
1070
   179
1070
     2
1070
   271
1070
     2
1070
   279
1070
     2
1070
   340
1005
55
1002
}
  0
LINE
  5
1C6DC
  8
SJC
 10
2953.6942880838401
 20
2651.462121184511
 30
0.0
 11
3648.6942880838401
 21
2651.462121184511
 31
0.0
  0
LINE
  5
1C6DD
  8
SJC
 10
2953.6942880838401
 20
2501.462121184511
 30
0.0
 11
3648.6942880838401
 21
2501.462121184511
 31
0.0
  0
LINE
  5
1C6DE
  8
SJC
 10
2938.6942880838401
 20
2551.462121184511
 30
0.0
 11
3663.6942880838401
 21
2551.462121184511
 31
0.0
  0
LINE
  5
1C6DF
  8
SJC
 10
2938.6942880838401
 20
2601.462121184511
 30
0.0
 11
3663.6942880838401
 21
2601.462121184511
 31
0.0
  0
TEXT
  5
1C6E0
  8
MOJI
 10
3095.6854416030642
 20
2511.7388454641582
 30
0.0
 40
30.0
  1
KEKH00580※1
 41
0.8
  7
EXT08
  0
TEXT
  5
1C6E1
  8
MOJI
 10
3095.6854416030642
 20
2611.7388454641582
 30
0.0
 40
30.0
  1
ジスロンパイプサインポール（Gr添架式）
 41
0.8
  7
EXT08
  0
TEXT
  5
1C6E2
  8
MOJI
 10
2971.4657166552688
 20
2610.8621211845111
 30
0.0
 40
30.0
  1
タイプ
 41
0.8
  7
EXT08
 72
     4
 11
3013.6942880838401
 21
2626.462121184511
 31
0.0
  0
LINE
  5
1C6E3
  8
SJC
 10
3088.6942880838401
 20
2501.462121184511
 30
0.0
 11
3088.6942880838401
 21
2651.462121184511
 31
0.0
  0
ARC
  5
1C6E4
  8
SJC
 10
2953.6942880838401
 20
2636.462121184511
 30
0.0
 40
15.0
 50
90.0
 51
180.0
  0
ARC
  5
1C6E5
  8
SJC
 10
2953.6942880838401
 20
2516.462121184511
 30
0.0
 40
15.0
 50
180.0
 51
270.0
  0
LINE
  5
1C6E6
  8
SJC
 10
2938.6942880838401
 20
2516.462121184511
 30
0.0
 11
2938.6942880838401
 21
2636.462121184511
 31
0.0
  0
TEXT
  5
1C6E7
  8
MOJI
 10
2973.6942880838401
 20
2561.4621211845101
 30
0.0
 40
30.0
  1
品  番
 41
0.8
  7
EXT08
 72
     4
 11
3013.6942880838401
 21
2576.462121184511
 31
0.0
  0
TEXT
  5
1C6E8
  8
MOJI
 10
2958.4942880838398
 20
2511.462121184511
 30
0.0
 40
30.0
  1
図面番号
 41
0.8
  7
EXT08
 72
     4
 11
3013.6942880838401
 21
2526.462121184511
 31
0.0
  0
ARC
  5
1C6E9
  8
SJC
 10
3648.6942880838401
 20
2636.462121184511
 30
0.0
 40
15.0
 50
0.0
 51
90.0
  0
ARC
  5
1C6EA
  8
SJC
 10
3648.6942880838401
 20
2516.462121184511
 30
0.0
 40
15.0
 50
270.0
 51
0.0
  0
LINE
  5
1C6EB
  8
SJC
 10
3663.6942880838401
 20
2516.462121184511
 30
0.0
 11
3663.6942880838401
 21
2636.462121184511
 31
0.0
  0
TEXT
  5
1C6EC
  8
MOJI
 10
3095.6854416030642
 20
2561.7388454641582
 30
0.0
 40
30.0
  1
89SPE-SL-G
 41
0.8
  7
EXT08
  0
LINE
  5
1C812
  8
MOJI
 10
3663.0844272244772
 20
2139.8040403275932
 30
0.0
 11
2539.8840360922268
 21
2139.8040403275918
 31
0.0
  0
TEXT
  5
1C813
  8
MOJI
 10
2593.2144519859548
 20
2148.8040403215932
 30
0.0
 40
30.0
  1
サインシート
 41
0.8
  7
EXT08
 72
     4
 11
2675.6144519859549
 21
2163.8040403215932
 31
0.0
  0
TEXT
  5
1C814
  8
MOJI
 10
2934.3431438828802
 20
2148.8040403215932
 30
0.0
 40
30.0
  1
封入レンズ型反射シート
 41
0.8
  7
EXT08
 11
2934.3431438828802
 21
2163.8040403215932
 31
0.0
 73
     2
  0
TEXT
  5
1C815
  8
MOJI
 10
2850.9145724723089
 20
2148.8040403215932
 30
0.0
 40
30.0
  1
2
 41
0.8
  7
EXT08
 72
     4
 11
2862.3431439008809
 21
2163.8040403215932
 31
0.0
  0
TEXT
  5
1C816
  8
MOJI
 10
3407.9976583548132
 20
2148.8040403215932
 30
0.0
 40
30.0
  1
デジタル印刷
 41
0.8
  7
EXT08
 72
     4
 11
3492.7976583548129
 21
2163.8040403215932
 31
0.0
  0
INSERT
  5
1C817
  8
0
  2
*U42
 10
0.0
 20
0.0
 30
0.0
1001
ACAD
1000
DSTYLE
1002
{
1070
   140
1040
30.0
1070
   144
1040
0.5
1070
   147
1040
15.0
1070
    42
1040
10.0
1070
    44
1040
10.0
1070
    43
1040
60.0
1070
    41
1040
20.0
1002
}
  0
TEXT
  5
1C818
  8
SUNPOU
 10
688.76498092106976
 20
2034.309986478414
 30
0.0
 40
30.0
  1
封入レンズ型反射シート
 41
0.8
  7
EXT08
  0
LINE
  5
1C819
  8
SUNPOU
 10
686.28880014499282
 20
2069.137849735273
 30
0.0
 11
1015.264646275569
 21
2069.137849735273
 31
0.0
1001
ACAD
1000
DSTYLE
1002
{
1070
    77
1070
     0
1070
    40
1040
10.0
1070
   147
1040
1.1999999999999991
1070
   176
1070
     0
1070
   177
1070
     0
1070
   178
1070
     0
1070
   179
1070
     2
1070
   271
1070
     2
1002
}
  0
TEXT
  5
1C81A
  8
SUNPOU
 10
688.76498092106976
 20
2074.895870227384
 30
0.0
 40
30.0
  1
サインシート
 41
0.8
  7
EXT08
  0
TEXT
  5
1C81B
  8
SUNPOU
 10
688.76498092106976
 20
1991.458968788073
 30
0.0
 40
30.0
  1
デジタル印刷
 41
0.8
  7
EXT08
  0
VIEWPORT
  5
1464C
 67
     1
  8
0
 10
128.5
 20
97.5
 30
0.0
 40
314.226
 41
243.9518146964856
 68
     1
 69
     1
1001
ACAD
1000
MVIEW
1002
{
1070
    16
1010
0.0
1020
0.0
1030
0.0
1010
0.0
1020
0.0
1030
1.0
1040
0.0
1040
243.9518146964856
1040
128.5
1040
97.5
1040
50.0
1040
0.0
1040
0.0
1070
     0
1070
   100
1070
     1
1070
     1
1070
     0
1070
     0
1070
     0
1070
     0
1040
0.0
1040
0.0
1040
0.0
1040
10.0
1040
10.0
1040
10.0
1040
10.0
1070
     0
1002
{
1002
}
1002
}
  0
VIEWPORT
  5
1464E
 67
     1
  8
SUNPOU
 10
128.5
 20
97.5
 30
0.0
 40
205.59999999999999
 41
156.0
 68
     2
 69
     2
1001
ACAD
1000
MVIEW
1002
{
1070
    16
1010
0.0
1020
0.0
1030
0.0
1010
0.0
1020
0.0
1030
1.0
1040
0.0
1040
5536.5396555471661
1040
-4689.111563369348
1040
1441.2182828350519
1040
50.0
1040
0.0
1040
0.0
1070
     0
1070
   100
1070
     1
1070
     3
1070
     0
1070
     0
1070
     0
1070
     0
1040
0.0
1040
0.0
1040
0.0
1040
10.0
1040
10.0
1040
10.0
1040
10.0
1070
     0
1002
{
1002
}
1002
}
  0
ENDSEC
  0
EOF
