  0
SECTION
  2
HEADER
  9
$ACADVER
  1
AC1009
  9
$INSBASE
 10
0.0
 20
0.0
 30
0.0
  9
$EXTMIN
 10
-0.7058929444392561
 20
-0.1203104429660016
 30
0.0
  9
$EXTMAX
 10
4019.2941070555598
 20
2744.879689557034
 30
0.0
  9
$LIMMIN
 10
0.0
 20
0.0
  9
$LIMMAX
 10
4200.0
 20
2970.0
  9
$ORTHOMODE
 70
     1
  9
$REGENMODE
 70
     1
  9
$FILLMODE
 70
     1
  9
$QTEXTMODE
 70
     0
  9
$MIRRTEXT
 70
     0
  9
$DRAGMODE
 70
     2
  9
$LTSCALE
 40
100.0
  9
$OSMODE
 70
    37
  9
$ATTMODE
 70
     1
  9
$TEXTSIZE
 40
30.0
  9
$TRACEWID
 40
1.0
  9
$TEXTSTYLE
  7
EXT08
  9
$CLAYER
  8
0
  9
$CELTYPE
  6
BYLAYER
  9
$CECOLOR
 62
   256
  9
$DIMSCALE
 40
10.0
  9
$DIMASZ
 40
2.0
  9
$DIMEXO
 40
1.0
  9
$DIMDLI
 40
6.0
  9
$DIMRND
 40
0.0
  9
$DIMDLE
 40
0.0
  9
$DIMEXE
 40
1.0
  9
$DIMTP
 40
0.0
  9
$DIMTM
 40
0.0
  9
$DIMTXT
 40
3.0
  9
$DIMCEN
 40
0.09
  9
$DIMTSZ
 40
0.0
  9
$DIMTOL
 70
     0
  9
$DIMLIM
 70
     0
  9
$DIMTIH
 70
     0
  9
$DIMTOH
 70
     0
  9
$DIMSE1
 70
     0
  9
$DIMSE2
 70
     0
  9
$DIMTAD
 70
     1
  9
$DIMZIN
 70
     8
  9
$DIMBLK
  1

  9
$DIMASO
 70
     1
  9
$DIMSHO
 70
     1
  9
$DIMPOST
  1

  9
$DIMAPOST
  1

  9
$DIMALT
 70
     0
  9
$DIMALTD
 70
     2
  9
$DIMALTF
 40
25.399999999999999
  9
$DIMLFAC
 40
1.0
  9
$DIMTOFL
 70
     1
  9
$DIMTVP
 40
0.0
  9
$DIMTIX
 70
     0
  9
$DIMSOXD
 70
     0
  9
$DIMSAH
 70
     0
  9
$DIMBLK1
  1

  9
$DIMBLK2
  1

  9
$DIMSTYLE
  2
SJC
  9
$DIMCLRD
 70
     0
  9
$DIMCLRE
 70
     0
  9
$DIMCLRT
 70
     0
  9
$DIMTFAC
 40
1.0
  9
$DIMGAP
 40
1.1999999999999991
  9
$LUNITS
 70
     2
  9
$LUPREC
 70
     2
  9
$SKETCHINC
 40
1.0
  9
$FILLETRAD
 40
1.0
  9
$AUNITS
 70
     0
  9
$AUPREC
 70
     0
  9
$MENU
  1
.
  9
$ELEVATION
 40
0.0
  9
$PELEVATION
 40
0.0
  9
$THICKNESS
 40
0.0
  9
$LIMCHECK
 70
     0
  9
$BLIPMODE
 70
     0
  9
$CHAMFERA
 40
0.0
  9
$CHAMFERB
 40
0.0
  9
$SKPOLY
 70
     0
  9
$TDCREATE
 40
2453122.4465482058
  9
$TDUPDATE
 40
2456388.8545446298
  9
$TDINDWG
 40
1.2871383218000001
  9
$TDUSRTIMER
 40
1.2871381480999999
  9
$USRTIMER
 70
     1
  9
$ANGBASE
 50
0.0
  9
$ANGDIR
 70
     0
  9
$PDMODE
 70
    33
  9
$PDSIZE
 40
5.0
  9
$PLINEWID
 40
0.0
  9
$COORDS
 70
     1
  9
$SPLFRAME
 70
     0
  9
$SPLINETYPE
 70
     6
  9
$SPLINESEGS
 70
     8
  9
$ATTDIA
 70
     0
  9
$ATTREQ
 70
     1
  9
$HANDLING
 70
     1
  9
$HANDSEED
  5
1CA02
  9
$SURFTAB1
 70
     6
  9
$SURFTAB2
 70
     6
  9
$SURFTYPE
 70
     6
  9
$SURFU
 70
     6
  9
$SURFV
 70
     6
  9
$UCSNAME
  2

  9
$UCSORG
 10
0.0
 20
0.0
 30
0.0
  9
$UCSXDIR
 10
1.0
 20
0.0
 30
0.0
  9
$UCSYDIR
 10
0.0
 20
1.0
 30
0.0
  9
$PUCSNAME
  2

  9
$PUCSORG
 10
0.0
 20
0.0
 30
0.0
  9
$PUCSXDIR
 10
1.0
 20
0.0
 30
0.0
  9
$PUCSYDIR
 10
0.0
 20
1.0
 30
0.0
  9
$USERI1
 70
     3
  9
$USERI2
 70
    10
  9
$USERI3
 70
     0
  9
$USERI4
 70
     0
  9
$USERI5
 70
     0
  9
$USERR1
 40
0.0
  9
$USERR2
 40
0.0
  9
$USERR3
 40
0.0
  9
$USERR4
 40
0.0
  9
$USERR5
 40
0.0
  9
$WORLDVIEW
 70
     1
  9
$SHADEDGE
 70
     3
  9
$SHADEDIF
 70
    70
  9
$TILEMODE
 70
     1
  9
$MAXACTVP
 70
    48
  9
$PLIMCHECK
 70
     0
  9
$PEXTMIN
 10
25.699999999999989
 20
19.5
 30
0.0
  9
$PEXTMAX
 10
231.30000000000001
 20
175.5
 30
0.0
  9
$PLIMMIN
 10
-20.0
 20
-7.5
  9
$PLIMMAX
 10
277.0
 20
202.5
  9
$UNITMODE
 70
     0
  9
$VISRETAIN
 70
     1
  9
$PLINEGEN
 70
     0
  9
$PSLTSCALE
 70
     1
  0
ENDSEC
  0
SECTION
  2
TABLES
  0
TABLE
  2
VPORT
 70
     2
  0
VPORT
  2
*ACTIVE
 70
     0
 10
0.0
 20
0.0
 11
1.0
 21
1.0
 12
3057.5091559266998
 22
1433.664408293434
 13
0.0
 23
0.0
 14
10.0
 24
10.0
 15
10.0
 25
10.0
 16
0.0
 26
0.0
 36
1.0
 17
0.0
 27
0.0
 37
0.0
 40
3359.4109132598778
 41
1.9010526315789471
 42
50.0
 43
0.0
 44
0.0
 50
0.0
 51
0.0
 71
     0
 72
   100
 73
     1
 74
     3
 75
     0
 76
     0
 77
     0
 78
     0
  0
ENDTAB
  0
TABLE
  2
LTYPE
 70
     4
  0
LTYPE
  2
CONTINUOUS
 70
     0
  3
Solid line
 72
    65
 73
     0
 40
0.0
  0
LTYPE
  2
CENTER
 70
     0
  3
____ _ ____ _ ____ _ ____ _ ____ _ ____ _ ____ 
 72
    65
 73
     4
 40
2.0
 49
1.25
 49
-0.25
 49
0.25
 49
-0.25
  0
LTYPE
  2
HIDDEN
 70
     0
  3
__ __ __ __ __ __ __ __ __ __ __ __ __ __ __ __
 72
    65
 73
     2
 40
0.375
 49
0.25
 49
-0.125
  0
LTYPE
  2
PHANTOM
 70
     0
  3
______  __  __  ______  __  __  ______  __  __ 
 72
    65
 73
     6
 40
2.5
 49
1.25
 49
-0.25
 49
0.25
 49
-0.25
 49
0.25
 49
-0.25
  0
ENDTAB
  0
TABLE
  2
LAYER
 70
    15
  0
LAYER
  2
0
 70
     0
 62
     7
  6
CONTINUOUS
  0
LAYER
  2
ZWAKU
 70
     1
 62
    -7
  6
CONTINUOUS
  0
LAYER
  2
CENTER
 70
     0
 62
     3
  6
CENTER
  0
LAYER
  2
HASEN
 70
     0
 62
     7
  6
HIDDEN
  0
LAYER
  2
KASOU
 70
     0
 62
     2
  6
PHANTOM
  0
LAYER
  2
MOJI
 70
     0
 62
     6
  6
CONTINUOUS
  0
LAYER
  2
WAKU
 70
     0
 62
     5
  6
CONTINUOUS
  0
LAYER
  2
HOJO
 70
     0
 62
    -8
  6
CONTINUOUS
  0
LAYER
  2
SUNPOU
 70
     0
 62
     4
  6
CONTINUOUS
  0
LAYER
  2
SJC
 70
     0
 62
     1
  6
CONTINUOUS
  0
LAYER
  2
INFORMATION
 70
     1
 62
     7
  6
CONTINUOUS
  0
LAYER
  2
SJC2
 70
     0
 62
     7
  6
CONTINUOUS
  0
LAYER
  2
MOJI2
 70
     0
 62
     1
  6
CONTINUOUS
  0
LAYER
  2
HATCH
 70
     0
 62
     2
  6
CONTINUOUS
  0
LAYER
  2
DEFPOINTS
 70
     0
 62
     7
  6
CONTINUOUS
  0
ENDTAB
  0
TABLE
  2
STYLE
 70
     3
  0
STYLE
  2
STANDARD
 70
     0
 40
0.0
 41
1.0
 50
0.0
 71
     0
 42
3.0
  3
txt
  4

  0
STYLE
  2
EXT08
 70
     0
 40
0.0
 41
0.8
 50
0.0
 71
     0
 42
30.0
  3
ROMANS.shx
  4
EXTFONT.shx
  0
STYLE
  2
MOJI1
 70
     0
 40
0.0
 41
0.8
 50
0.0
 71
     0
 42
3.0
  3
ROMANS
  4
EXTFONT
  0
ENDTAB
  0
TABLE
  2
VIEW
 70
     0
  0
ENDTAB
  0
TABLE
  2
UCS
 70
     0
  0
ENDTAB
  0
TABLE
  2
APPID
 70
     2
  0
APPID
  2
ACAD
 70
     0
  0
APPID
  2
ACAD_PSEXT
 70
     0
  0
ENDTAB
  0
TABLE
  2
DIMSTYLE
 70
     2
  0
DIMSTYLE
  2
STANDARD
 70
     0
  3

  4

  5

  6

  7

 40
1.0
 41
0.18
 42
0.0625
 43
0.38
 44
0.18
 45
0.0
 46
0.0
 47
0.0
 48
0.0
140
0.18
141
0.09
142
0.0
143
25.399999999999999
144
1.0
145
0.0
146
1.0
147
0.09
 71
     0
 72
     0
 73
     1
 74
     1
 75
     0
 76
     0
 77
     0
 78
     0
170
     0
171
     2
172
     0
173
     0
174
     0
175
     0
176
     0
177
     0
178
     0
  0
DIMSTYLE
  2
SJC
 70
     0
  3

  4

  5

  6

  7

 40
1.0
 41
0.18
 42
0.0625
 43
0.38
 44
0.18
 45
0.0
 46
0.0
 47
0.0
 48
0.0
140
0.18
141
0.09
142
0.0
143
25.399999999999999
144
1.0
145
0.0
146
1.0
147
0.09
 71
     0
 72
     0
 73
     1
 74
     1
 75
     0
 76
     0
 77
     0
 78
     0
170
     0
171
     2
172
     0
173
     0
174
     0
175
     0
176
     0
177
     0
178
     0
  0
ENDTAB
  0
ENDSEC
  0
SECTION
  2
BLOCKS
  0
BLOCK
  8
0
  2
$MODEL_SPACE
 70
     0
 10
0.0
 20
0.0
 30
0.0
  3
$MODEL_SPACE
  1

  0
ENDBLK
  5
21
  8
0
  0
BLOCK
 67
     1
  8
0
  2
$PAPER_SPACE
 70
     0
 10
0.0
 20
0.0
 30
0.0
  3
$PAPER_SPACE
  1

  0
ENDBLK
  5
1D
 67
     1
  8
0
  0
BLOCK
  8
0
  2
SYSTEMA3
 70
     0
 10
0.0
 20
0.0
 30
0.0
  3
SYSTEMA3
  1

  0
POLYLINE
  5
3B
  8
ZWAKU
 66
     1
 10
0.0
 20
0.0
 30
0.0
 70
     1
  0
VERTEX
  5
1C856
  8
ZWAKU
 10
0.0
 20
0.0
 30
0.0
  0
VERTEX
  5
1C857
  8
ZWAKU
 10
0.0
 20
274.5
 30
0.0
  0
VERTEX
  5
1C858
  8
ZWAKU
 10
402.0
 20
274.5
 30
0.0
  0
VERTEX
  5
1C859
  8
ZWAKU
 10
402.0
 20
0.0
 30
0.0
  0
SEQEND
  5
1C85A
  8
ZWAKU
  0
ENDBLK
  5
3D
  8
0
  0
BLOCK
  8
0
  2
CALCOMP_TECHJET720A3
 70
     0
 10
0.0
 20
0.0
 30
0.0
  3
CALCOMP_TECHJET720A3
  1

  0
POLYLINE
  5
5B
  8
ZWAKU
 62
     2
 66
     1
 10
0.0
 20
0.0
 30
0.0
 70
     1
  0
VERTEX
  5
1C85B
  8
ZWAKU
 62
     2
 10
0.0
 20
0.0
 30
0.0
  0
VERTEX
  5
1C85C
  8
ZWAKU
 62
     2
 10
0.0
 20
267.0
 30
0.0
  0
VERTEX
  5
1C85D
  8
ZWAKU
 62
     2
 10
370.0
 20
267.0
 30
0.0
  0
VERTEX
  5
1C85E
  8
ZWAKU
 62
     2
 10
370.0
 20
0.0
 30
0.0
  0
SEQEND
  5
1C85F
  8
ZWAKU
 62
     2
  0
ENDBLK
  5
5D
  8
0
  0
BLOCK
  8
0
  2
GL
 70
     0
 10
0.0
 20
0.0
 30
0.0
  3
GL
  1

  0
LINE
  5
17EC2
  8
SUNPOU
 10
2.8284271247462121
 20
0.0
 30
0.0
 11
1.4142135623728791
 21
-1.414213562373106
 31
0.0
  0
LINE
  5
17EC3
  8
SUNPOU
 10
4.9497474683057581
 20
0.0
 30
0.0
 11
2.474873734152879
 21
-2.474873734152879
 31
0.0
  0
LINE
  5
17EC4
  8
SUNPOU
 10
-2.121320343559546
 20
-2.121320343559546
 30
0.0
 11
-0.707106781186667
 21
-3.535533905932652
 31
0.0
  0
LINE
  5
17EC5
  8
SUNPOU
 10
-1.0606601717799999
 20
-1.060660171779773
 30
0.0
 11
1.4142135623728791
 21
-3.535533905932652
 31
0.0
  0
TEXT
  5
17EC6
  8
SUNPOU
 10
-3.2571428571428571
 20
0.9172380209058701
 30
0.0
 40
3.0
  1
G.L.
 41
0.8
  7
MOJI1
 72
     4
 11
0.0
 21
2.4172380209058701
 31
0.0
  0
LINE
  5
17EC7
  8
SUNPOU
 10
7.0710678118653041
 20
0.0
 30
0.0
 11
3.535533905932879
 21
-3.535533905932652
 31
0.0
  0
LINE
  5
17EC8
  8
SUNPOU
 10
0.0
 20
0.0
 30
0.0
 11
3.5355339059324251
 21
-3.535533905932652
 31
0.0
  0
LINE
  5
17EC9
  8
SUNPOU
 10
0.0
 20
0.0
 30
0.0
 11
-3.5355339059324251
 21
-3.535533905932652
 31
0.0
  0
ENDBLK
  5
17ECA
  8
0
  0
BLOCK
  8
0
  2
*D4
 70
     1
 10
0.0
 20
0.0
 30
0.0
  3
*D4
  1

  0
LINE
  5
1C88A
  8
SUNPOU
 62
     0
 10
557.23142073162489
 20
2247.6479670114122
 30
0.0
 11
557.23142073162489
 21
2413.6242740015468
 31
0.0
  0
LINE
  5
1C88B
  8
SUNPOU
 62
     0
 10
717.23142073162853
 20
2247.6479670114122
 30
0.0
 11
717.23142073162853
 21
2413.6242740015468
 31
0.0
  0
LINE
  5
1C88C
  8
SUNPOU
 62
     0
 10
577.23142073162489
 20
2403.6242740015468
 30
0.0
 11
697.23142073162853
 21
2403.6242740015468
 31
0.0
  0
SOLID
  5
1C88D
  8
SUNPOU
 62
     0
 10
577.23142073162489
 20
2406.9576073348799
 30
0.0
 11
577.23142073162489
 21
2400.2909406682138
 31
0.0
 12
557.23142073162489
 22
2403.6242740015468
 32
0.0
 13
557.23142073162489
 23
2403.6242740015468
 33
0.0
  0
SOLID
  5
1C88E
  8
SUNPOU
 62
     0
 10
697.23142073162853
 20
2406.9576073348799
 30
0.0
 11
697.23142073162853
 21
2400.2909406682138
 31
0.0
 12
717.23142073162853
 22
2403.6242740015468
 32
0.0
 13
717.23142073162853
 23
2403.6242740015468
 33
0.0
  0
TEXT
  8
SUNPOU
  40
30
  5
1C9F3
  62
0
  72
0
  71
0
 10
577.231
 20
2377.52
 30
0.000000
  1
160
  7
EXT08
  0
POINT
  5
1C890
  8
DEFPOINTS
 62
     0
 10
557.23142073162489
 20
2237.6479670114122
 30
0.0
  0
POINT
  5
1C891
  8
DEFPOINTS
 62
     0
 10
717.23142073162853
 20
2237.6479670114122
 30
0.0
  0
POINT
  5
1C892
  8
DEFPOINTS
 62
     0
 10
717.23142073162853
 20
2403.6242740015468
 30
0.0
  0
ENDBLK
  5
195AA
  8
0
  0
BLOCK
  8
0
  2
*D5
 70
     1
 10
0.0
 20
0.0
 30
0.0
  3
*D5
  1

  0
LINE
  5
1C893
  8
SUNPOU
 62
     0
 10
592.68142073162426
 20
2299.6479670114109
 30
0.0
 11
592.68142073162426
 21
2357.9946414491492
 31
0.0
  0
LINE
  5
1C894
  8
SUNPOU
 62
     0
 10
680.1814207316271
 20
2299.6479670114122
 30
0.0
 11
680.1814207316271
 21
2357.9946414491492
 31
0.0
  0
LINE
  5
1C895
  8
SUNPOU
 62
     0
 10
612.68142073162426
 20
2347.9946414491492
 30
0.0
 11
660.18142073162699
 21
2347.9946414491492
 31
0.0
  0
TEXT
  8
SUNPOU
  40
30
  5
1C9F4
  62
0
  72
0
  71
0
 10
576.570
 20
2329.50
 30
0.000000
  1
φ89
  7
EXT08
  0
SOLID
  5
1C897
  8
SUNPOU
 62
     0
 10
612.68142073162426
 20
2351.3279747824822
 30
0.0
 11
612.68142073162426
 21
2344.6613081158148
 31
0.0
 12
592.68142073162426
 22
2347.9946414491492
 32
0.0
 13
592.68142073162426
 23
2347.9946414491492
 33
0.0
  0
SOLID
  5
1C898
  8
SUNPOU
 62
     0
 10
660.18142073162699
 20
2351.3279747824822
 30
0.0
 11
660.18142073162699
 21
2344.6613081158148
 31
0.0
 12
680.1814207316271
 22
2347.9946414491492
 32
0.0
 13
680.1814207316271
 23
2347.9946414491492
 33
0.0
  0
POINT
  5
1C899
  8
DEFPOINTS
 62
     0
 10
592.68142073162426
 20
2289.6479670114109
 30
0.0
  0
POINT
  5
1C89A
  8
DEFPOINTS
 62
     0
 10
680.1814207316271
 20
2289.6479670114122
 30
0.0
  0
POINT
  5
1C89B
  8
DEFPOINTS
 62
     0
 10
680.1814207316271
 20
2347.9946414491492
 30
0.0
  0
ENDBLK
  5
195B6
  8
0
  0
BLOCK
  8
0
  2
*D6
 70
     1
 10
0.0
 20
0.0
 30
0.0
  3
*D6
  1

  0
LINE
  5
1C89C
  8
SUNPOU
 62
     0
 10
559.23142073162478
 20
2249.6479670114122
 30
0.0
 11
327.26448017749772
 21
2249.6479670114122
 31
0.0
  0
LINE
  5
1C89D
  8
SUNPOU
 62
     0
 10
362.10351895608892
 20
749.64796701141222
 30
0.0
 11
327.26448017749738
 21
749.64796701141222
 31
0.0
  0
LINE
  5
1C89E
  8
SUNPOU
 62
     0
 10
337.26448017749772
 20
2229.6479670114131
 30
0.0
 11
337.26448017749738
 21
769.64796701141222
 31
0.0
  0
SOLID
  5
1C89F
  8
SUNPOU
 62
     0
 10
333.9311468441644
 20
2229.6479670114131
 30
0.0
 11
340.59781351083097
 21
2229.6479670114131
 31
0.0
 12
337.26448017749772
 22
2249.6479670114122
 32
0.0
 13
337.26448017749772
 23
2249.6479670114122
 33
0.0
  0
SOLID
  5
1C8A0
  8
SUNPOU
 62
     0
 10
333.931146844164
 20
769.64796701141222
 30
0.0
 11
340.59781351083069
 21
769.64796701141222
 31
0.0
 12
337.26448017749738
 22
749.64796701141222
 32
0.0
 13
337.26448017749738
 23
749.64796701141222
 33
0.0
  0
TEXT
  8
SUNPOU
  40
30
  5
1C9F5
  62
0
  72
0
  71
0
 10
250.264
 20
1446.55
 30
0.000000
  1
1500
  7
EXT08
  0
POINT
  5
1C8A2
  8
DEFPOINTS
 62
     0
 10
569.23142073162489
 20
2249.6479670114122
 30
0.0
  0
POINT
  5
1C8A3
  8
DEFPOINTS
 62
     0
 10
372.10351895608892
 20
749.64796701141222
 30
0.0
  0
POINT
  5
1C8A4
  8
DEFPOINTS
 62
     0
 10
337.26448017749738
 20
749.64796701141222
 30
0.0
  0
ENDBLK
  5
19629
  8
0
  0
BLOCK
  8
0
  2
*D7
 70
     1
 10
0.0
 20
0.0
 30
0.0
  3
*D7
  1

  0
LINE
  5
19AD6
  8
SUNPOU
 10
1346.8998397839559
 20
561.37877972728938
 30
0.0
 11
1321.3056839385181
 21
578.70475245783803
 31
0.0
  0
LINE
  5
19AD7
  8
SUNPOU
 10
1349.4785165197609
 20
565.18803507344546
 30
0.0
 11
1323.884360674323
 21
582.51400780399422
 31
0.0
  0
LINE
  5
19AD8
  8
SUNPOU
 10
1318.3750358397051
 20
556.53695370106186
 30
0.0
 11
1307.163397857945
 21
539.97497393516585
 31
0.0
  0
LINE
  5
19AD9
  8
SUNPOU
 10
1343.3769885390309
 20
593.47016857900985
 30
0.0
 11
1404.5604986680671
 21
683.85125815861284
 31
0.0
  0
LINE
  5
19ADA
  8
SUNPOU
 10
1329.5866738214661
 20
573.09893346695765
 30
0.0
 11
1332.165350557271
 21
576.90818881311384
 31
0.0
  0
SOLID
  5
19ADB
  8
SUNPOU
 10
1315.614705878723
 20
558.40556003135544
 30
0.0
 11
1321.1353658006881
 21
554.66834737076852
 31
0.0
 12
1329.5866738214661
 22
573.09893346695765
 32
0.0
 13
1329.5866738214661
 23
573.09893346695765
 33
0.0
  0
SOLID
  5
19ADC
  8
SUNPOU
 10
1340.6166585780491
 20
595.33877490930331
 30
0.0
 11
1346.1373185000141
 21
591.60156224871628
 31
0.0
 12
1332.165350557271
 22
576.90818881311384
 32
0.0
 13
1332.165350557271
 23
576.90818881311384
 33
0.0
  0
INSERT
  5
19ADD
  8
0
  2
*U22
 10
0.0
 20
0.0
 30
0.0
  0
POINT
  5
19ADE
  8
DEFPOINTS
 62
     0
 10
1355.1808296669039
 20
555.77296073640889
 30
0.0
  0
POINT
  5
19ADF
  8
DEFPOINTS
 62
     0
 10
1357.7595064027089
 20
559.58221608256531
 30
0.0
  0
POINT
  5
19AE0
  8
DEFPOINTS
 62
     0
 10
1332.165350557271
 20
576.90818881311384
 30
0.0
  0
ENDBLK
  5
1995D
  8
0
  0
BLOCK
  8
0
  2
*D8
 70
     1
 10
0.0
 20
0.0
 30
0.0
  3
*D8
  1

  0
LINE
  5
19AE1
  8
SUNPOU
 10
1033.4428035298261
 20
533.3250574496559
 30
0.0
 11
1009.032160172752
 21
550.04783422882997
 31
0.0
  0
LINE
  5
19AE2
  8
SUNPOU
 10
1036.0425471251499
 20
537.11996630739554
 30
0.0
 11
1011.631903768076
 21
553.84274308656973
 31
0.0
  0
LINE
  5
19AE3
  8
SUNPOU
 10
1005.978729014255
 20
527.89661398794215
 30
0.0
 11
994.67549599110134
 21
511.39701025863121
 31
0.0
  0
LINE
  5
19AE4
  8
SUNPOU
 10
1031.1849386558861
 20
564.690730304304
 30
0.0
 11
1092.8682960108081
 21
654.73142494140086
 31
0.0
  0
LINE
  5
19AE5
  8
SUNPOU
 10
1017.281962037408
 20
544.39621771725308
 30
0.0
 11
1019.881705632732
 21
548.19112657499295
 31
0.0
  0
SOLID
  5
19AE6
  8
SUNPOU
 10
1003.228795059369
 20
529.78048615846774
 30
0.0
 11
1008.72866296914
 21
526.01274181741655
 31
0.0
 12
1017.281962037408
 22
544.39621771725308
 32
0.0
 13
1017.281962037408
 23
544.39621771725308
 33
0.0
  0
SOLID
  5
19AE7
  8
SUNPOU
 10
1028.435004701
 20
566.57460247482959
 30
0.0
 11
1033.934872610771
 21
562.80685813377829
 31
0.0
 12
1019.881705632732
 22
548.19112657499295
 32
0.0
 13
1019.881705632732
 23
548.19112657499295
 33
0.0
  0
INSERT
  5
19AE8
  8
0
  2
*U23
 10
0.0
 20
0.0
 30
0.0
  0
POINT
  5
19AE9
  8
DEFPOINTS
 62
     0
 10
1041.692605394481
 20
527.67344093807924
 30
0.0
  0
POINT
  5
19AEA
  8
DEFPOINTS
 62
     0
 10
1044.292348989806
 20
531.46834979581888
 30
0.0
  0
POINT
  5
19AEB
  8
DEFPOINTS
 62
     0
 10
1019.881705632732
 20
548.19112657499295
 30
0.0
  0
ENDBLK
  5
1996B
  8
0
  0
BLOCK
  8
0
  2
*D9
 70
     1
 10
0.0
 20
0.0
 30
0.0
  3
*D9
  1

  0
LINE
  5
1C8A5
  8
SUNPOU
 10
1238.2434455171549
 20
383.03151177810508
 30
0.0
 11
1343.9691916851421
 21
539.21098097051049
 31
0.0
  0
TEXT
  8
SUNPOU
  40
30
  5
1C9F6
  72
0
  71
0
 10
1207.63
 20
424.215
 30
0.000000
  1
φD
  7
EXT08
  0
SOLID
  5
1C8A7
  8
SUNPOU
 10
1235.4831155561719
 20
384.90011810839832
 30
0.0
 11
1241.0037754781381
 21
381.16290544781191
 31
0.0
 12
1227.031807535396
 22
366.46953201220828
 32
0.0
 13
1227.031807535396
 23
366.46953201220828
 33
0.0
  0
SOLID
  5
1C8A8
  8
SUNPOU
 10
1341.2088617241591
 20
541.07958730080372
 30
0.0
 11
1346.729521646125
 21
537.34237464021726
 31
0.0
 12
1355.180829666901
 22
555.7729607364073
 32
0.0
 13
1355.180829666901
 23
555.7729607364073
 33
0.0
  0
POINT
  5
1C8A9
  8
DEFPOINTS
 62
     0
 10
1355.180829666901
 20
555.7729607364073
 30
0.0
  0
POINT
  5
1C8AA
  8
DEFPOINTS
 62
     0
 10
1227.031807535396
 20
366.46953201220828
 30
0.0
  0
ENDBLK
  5
19974
  8
0
  0
BLOCK
  8
0
  2
*D10
 70
     1
 10
0.0
 20
0.0
 30
0.0
  3
*D10
  1

  0
LINE
  5
1C8B3
  8
SUNPOU
 62
     0
 10
1469.1065304653671
 20
262.04008157474158
 30
0.0
 11
1549.433745035431
 21
262.04008157474158
 31
0.0
  0
LINE
  5
1C8B4
  8
SUNPOU
 62
     0
 10
1469.1065304653671
 20
182.04008157474161
 30
0.0
 11
1549.433745035431
 21
182.04008157474161
 31
0.0
  0
LINE
  5
1C8B5
  8
SUNPOU
 62
     0
 10
1539.4337450354301
 20
242.04008157474169
 30
0.0
 11
1539.4337450354301
 21
202.04008157474161
 31
0.0
  0
SOLID
  5
1C8B6
  8
SUNPOU
 62
     0
 10
1536.1004117020971
 20
242.04008157474169
 30
0.0
 11
1542.767078368764
 21
242.04008157474169
 31
0.0
 12
1539.4337450354301
 22
262.04008157474158
 32
0.0
 13
1539.4337450354301
 23
262.04008157474158
 33
0.0
  0
SOLID
  5
1C8B7
  8
SUNPOU
 62
     0
 10
1536.1004117020971
 20
202.04008157474161
 30
0.0
 11
1542.767078368764
 21
202.04008157474161
 31
0.0
 12
1539.4337450354301
 22
182.04008157474161
 32
0.0
 13
1539.4337450354301
 23
182.04008157474161
 33
0.0
  0
TEXT
  8
SUNPOU
  40
30
  5
1C9F7
  62
0
  72
0
  71
0
 10
1452.43
 20
168.940
 30
0.000000
  1
40
  7
EXT08
  0
POINT
  5
1C8B9
  8
DEFPOINTS
 62
     0
 10
1459.1065304653671
 20
262.04008157474158
 30
0.0
  0
POINT
  5
1C8BA
  8
DEFPOINTS
 62
     0
 10
1459.1065304653671
 20
182.04008157474161
 30
0.0
  0
POINT
  5
1C8BB
  8
DEFPOINTS
 62
     0
 10
1539.4337450354301
 20
182.04008157474161
 30
0.0
  0
ENDBLK
  5
19A1B
  8
0
  0
BLOCK
  8
0
  2
*D11
 70
     1
 10
0.0
 20
0.0
 30
0.0
  3
*D11
  1

  0
LINE
  5
1C8C4
  8
SUNPOU
 62
     0
 10
1042.5945816120959
 20
504.17001850449032
 30
0.0
 11
942.5065300877294
 21
408.87247424412823
 31
0.0
  0
TEXT
  8
SUNPOU
  40
30
  5
1C9F8
  62
0
  72
0
  71
0
 10
948.894
 20
378.310
 30
0.000000
  1
%%c89.1
  7
EXT08
  0
SOLID
  5
1C8C6
  8
SUNPOU
 62
     0
 10
1040.296039782372
 20
506.584105613134
 30
0.0
 11
1044.8931234418201
 21
501.75593139584657
 31
0.0
 12
1057.079104263958
 22
517.96126948283495
 32
0.0
 13
1057.079104263958
 23
517.96126948283495
 33
0.0
  0
SOLID
  5
1C8C7
  8
SUNPOU
 62
     0
 10
940.20798825800534
 20
411.28656135277191
 30
0.0
 11
944.80507191745346
 21
406.45838713548449
 31
0.0
 12
928.02200743586729
 22
395.08122326578359
 32
0.0
 13
928.02200743586729
 23
395.08122326578359
 33
0.0
  0
POINT
  5
1C8C8
  8
DEFPOINTS
 62
     0
 10
928.02200743586729
 20
395.08122326578359
 30
0.0
  0
POINT
  5
1C8C9
  8
DEFPOINTS
 62
     0
 10
1057.079104263958
 20
517.96126948283495
 30
0.0
  0
ENDBLK
  5
19B5D
  8
0
  0
BLOCK
  8
0
  2
*D12
 70
     1
 10
0.0
 20
0.0
 30
0.0
  3
*D12
  1

  0
LINE
  5
1C8FA
  8
SUNPOU
 62
     0
 10
559.23142073162671
 20
1739.647967011412
 30
0.0
 11
474.05646639394928
 21
1739.647967011412
 31
0.0
  0
LINE
  5
1C8FB
  8
SUNPOU
 62
     0
 10
559.23142073162671
 20
2249.6479670114149
 30
0.0
 11
474.05646639394939
 21
2249.6479670114149
 31
0.0
  0
LINE
  5
1C8FC
  8
SUNPOU
 62
     0
 10
484.05646639394928
 20
1759.647967011412
 30
0.0
 11
484.05646639394951
 21
2229.6479670114149
 31
0.0
  0
SOLID
  5
1C8FD
  8
SUNPOU
 62
     0
 10
480.72313306061602
 20
1759.647967011412
 30
0.0
 11
487.38979972728259
 21
1759.647967011412
 31
0.0
 12
484.05646639394928
 22
1739.647967011412
 32
0.0
 13
484.05646639394928
 23
1739.647967011412
 33
0.0
  0
SOLID
  5
1C8FE
  8
SUNPOU
 62
     0
 10
480.72313306061608
 20
2229.6479670114149
 30
0.0
 11
487.38979972728271
 21
2229.6479670114149
 31
0.0
 12
484.05646639394951
 22
2249.6479670114149
 32
0.0
 13
484.05646639394951
 23
2249.6479670114149
 33
0.0
  0
TEXT
  8
SUNPOU
  40
30
  5
1C9F9
  62
0
  72
0
  71
0
 10
397.056
 20
1941.55
 30
0.000000
  1
510
  7
EXT08
  0
POINT
  5
1C900
  8
DEFPOINTS
 62
     0
 10
569.2314207316266
 20
1739.647967011412
 30
0.0
  0
POINT
  5
1C901
  8
DEFPOINTS
 62
     0
 10
569.2314207316266
 20
2249.6479670114149
 30
0.0
  0
POINT
  5
1C902
  8
DEFPOINTS
 62
     0
 10
484.05646639394951
 20
2249.6479670114149
 30
0.0
  0
ENDBLK
  5
1B69C
  8
0
  0
BLOCK
  8
0
  2
*D13
 70
     1
 10
0.0
 20
0.0
 30
0.0
  3
*D13
  1

  0
LINE
  5
1C915
  8
SUNPOU
 62
     0
 10
2069.829355828233
 20
1504.8458854014241
 30
0.0
 11
2069.829355828233
 21
1691.3583218721069
 31
0.0
  0
LINE
  5
1C916
  8
SUNPOU
 62
     0
 10
2389.8293558282398
 20
1504.8458854014241
 30
0.0
 11
2389.8293558282398
 21
1691.3583218721069
 31
0.0
  0
LINE
  5
1C917
  8
SUNPOU
 62
     0
 10
2089.829355828233
 20
1681.3583218721069
 30
0.0
 11
2369.8293558282398
 21
1681.3583218721069
 31
0.0
  0
SOLID
  5
1C918
  8
SUNPOU
 62
     0
 10
2089.829355828233
 20
1684.6916552054399
 30
0.0
 11
2089.829355828233
 21
1678.024988538773
 31
0.0
 12
2069.829355828233
 22
1681.3583218721069
 32
0.0
 13
2069.829355828233
 23
1681.3583218721069
 33
0.0
  0
SOLID
  5
1C919
  8
SUNPOU
 62
     0
 10
2369.8293558282398
 20
1684.6916552054399
 30
0.0
 11
2369.8293558282398
 21
1678.024988538773
 31
0.0
 12
2389.8293558282398
 22
1681.3583218721069
 32
0.0
 13
2389.8293558282398
 23
1681.3583218721069
 33
0.0
  0
TEXT
  8
SUNPOU
  40
30
  5
1C9FA
  62
0
  72
0
  71
0
 10
2169.83
 20
1655.26
 30
0.000000
  1
160
  7
EXT08
  0
POINT
  5
1C91B
  8
DEFPOINTS
 62
     0
 10
2069.829355828233
 20
1494.8458854014241
 30
0.0
  0
POINT
  5
1C91C
  8
DEFPOINTS
 62
     0
 10
2389.8293558282398
 20
1494.8458854014241
 30
0.0
  0
POINT
  5
1C91D
  8
DEFPOINTS
 62
     0
 10
2389.8293558282398
 20
1681.3583218721069
 30
0.0
  0
ENDBLK
  5
1BD44
  8
0
  0
BLOCK
  8
0
  2
*D14
 70
     1
 10
0.0
 20
0.0
 30
0.0
  3
*D14
  1

  0
LINE
  5
1C91E
  8
SUNPOU
 62
     0
 10
2069.8293558282348
 20
1228.8458854014241
 30
0.0
 11
2069.8293558282348
 21
1272.5175587728111
 31
0.0
  0
LINE
  5
1C91F
  8
SUNPOU
 62
     0
 10
2079.8293558282362
 20
1228.8458854014241
 30
0.0
 11
2079.8293558282362
 21
1272.5175587728111
 31
0.0
  0
LINE
  5
1C920
  8
SUNPOU
 62
     0
 10
2049.8293558282348
 20
1262.517558772812
 30
0.0
 11
2029.8293558282351
 21
1262.517558772812
 31
0.0
  0
LINE
  5
1C921
  8
SUNPOU
 62
     0
 10
2099.8293558282362
 20
1262.517558772812
 30
0.0
 11
2119.8293558282362
 21
1262.517558772812
 31
0.0
  0
TEXT
  8
SUNPOU
  40
30
  5
1C9FB
  62
0
  72
0
  71
0
 10
1989.31
 20
1236.30
 30
0.000000
  1
5
  7
EXT08
  0
LINE
  5
1C923
  8
SUNPOU
 62
     0
 10
2069.8293558282348
 20
1262.517558772812
 30
0.0
 11
2079.8293558282362
 21
1262.517558772812
 31
0.0
  0
SOLID
  5
1C924
  8
SUNPOU
 62
     0
 10
2049.8293558282348
 20
1265.850892106145
 30
0.0
 11
2049.8293558282348
 21
1259.184225439478
 31
0.0
 12
2069.8293558282348
 22
1262.517558772812
 32
0.0
 13
2069.8293558282348
 23
1262.517558772812
 33
0.0
  0
SOLID
  5
1C925
  8
SUNPOU
 62
     0
 10
2099.8293558282362
 20
1265.850892106145
 30
0.0
 11
2099.8293558282362
 21
1259.184225439478
 31
0.0
 12
2079.8293558282362
 22
1262.517558772812
 32
0.0
 13
2079.8293558282362
 23
1262.517558772812
 33
0.0
  0
POINT
  5
1C926
  8
DEFPOINTS
 62
     0
 10
2069.8293558282348
 20
1218.8458854014241
 30
0.0
  0
POINT
  5
1C927
  8
DEFPOINTS
 62
     0
 10
2079.8293558282362
 20
1218.8458854014241
 30
0.0
  0
POINT
  5
1C928
  8
DEFPOINTS
 62
     0
 10
2079.8293558282362
 20
1262.517558772812
 30
0.0
  0
ENDBLK
  5
1BD52
  8
0
  0
BLOCK
  8
0
  2
*D15
 70
     1
 10
0.0
 20
0.0
 30
0.0
  3
*D15
  1

  0
LINE
  5
1C929
  8
SUNPOU
 62
     0
 10
2888.9786626568898
 20
1524.84588540143
 30
0.0
 11
2888.9786626568898
 21
1637.473799966054
 31
0.0
  0
LINE
  5
1C92A
  8
SUNPOU
 62
     0
 10
2876.9786626568898
 20
1524.8458854014241
 30
0.0
 11
2876.9786626568898
 21
1637.473799966054
 31
0.0
  0
LINE
  5
1C92B
  8
SUNPOU
 62
     0
 10
2908.9786626568898
 20
1627.473799966054
 30
0.0
 11
2928.9786626568898
 21
1627.473799966054
 31
0.0
  0
LINE
  5
1C92C
  8
SUNPOU
 62
     0
 10
2856.9786626568898
 20
1627.473799966054
 30
0.0
 11
2836.9786626568889
 21
1627.473799966054
 31
0.0
  0
TEXT
  8
SUNPOU
  40
30
  5
1C9FC
  62
0
  72
0
  71
0
 10
2791.73
 20
1604.36
 30
0.000000
  1
6
  7
EXT08
  0
LINE
  5
1C92E
  8
SUNPOU
 62
     0
 10
2888.9786626568898
 20
1627.473799966054
 30
0.0
 11
2876.9786626568898
 21
1627.473799966054
 31
0.0
  0
SOLID
  5
1C92F
  8
SUNPOU
 62
     0
 10
2908.9786626568898
 20
1630.807133299387
 30
0.0
 11
2908.9786626568898
 21
1624.1404666327201
 31
0.0
 12
2888.9786626568898
 22
1627.473799966054
 32
0.0
 13
2888.9786626568898
 23
1627.473799966054
 33
0.0
  0
SOLID
  5
1C930
  8
SUNPOU
 62
     0
 10
2856.9786626568898
 20
1630.807133299387
 30
0.0
 11
2856.9786626568898
 21
1624.1404666327201
 31
0.0
 12
2876.9786626568898
 22
1627.473799966054
 32
0.0
 13
2876.9786626568898
 23
1627.473799966054
 33
0.0
  0
POINT
  5
1C931
  8
DEFPOINTS
 62
     0
 10
2888.9786626568898
 20
1514.8458854014291
 30
0.0
  0
POINT
  5
1C932
  8
DEFPOINTS
 62
     0
 10
2876.9786626568898
 20
1514.8458854014241
 30
0.0
  0
POINT
  5
1C933
  8
DEFPOINTS
 62
     0
 10
2876.9786626568898
 20
1627.473799966054
 30
0.0
  0
ENDBLK
  5
1BD60
  8
0
  0
BLOCK
  8
0
  2
*D16
 70
     1
 10
0.0
 20
0.0
 30
0.0
  3
*D16
  1

  0
LINE
  5
1C93C
  8
SUNPOU
 62
     0
 10
2083.829355828233
 20
1518.8458854014241
 30
0.0
 11
1903.805897383502
 21
1518.8458854014241
 31
0.0
  0
LINE
  5
1C93D
  8
SUNPOU
 62
     0
 10
2083.8293558282298
 20
498.84588540142289
 30
0.0
 11
1903.8058973835009
 21
498.845885401423
 31
0.0
  0
LINE
  5
1C93E
  8
SUNPOU
 62
     0
 10
1913.8058973835009
 20
1498.8458854014241
 30
0.0
 11
1913.8058973835009
 21
518.84588540142295
 31
0.0
  0
SOLID
  5
1C93F
  8
SUNPOU
 62
     0
 10
1910.4725640501681
 20
1498.8458854014241
 30
0.0
 11
1917.1392307168351
 21
1498.8458854014241
 31
0.0
 12
1913.8058973835009
 22
1518.8458854014241
 32
0.0
 13
1913.8058973835009
 23
1518.8458854014241
 33
0.0
  0
SOLID
  5
1C940
  8
SUNPOU
 62
     0
 10
1910.4725640501681
 20
518.84588540142295
 30
0.0
 11
1917.1392307168351
 21
518.84588540142295
 31
0.0
 12
1913.8058973835009
 22
498.845885401423
 32
0.0
 13
1913.8058973835009
 23
498.845885401423
 33
0.0
  0
TEXT
  8
SUNPOU
  40
30
  5
1C9FD
  62
0
  72
0
  71
0
 10
1826.81
 20
955.746
 30
0.000000
  1
510
  7
EXT08
  0
POINT
  5
1C942
  8
DEFPOINTS
 62
     0
 10
2093.829355828233
 20
1518.8458854014241
 30
0.0
  0
POINT
  5
1C943
  8
DEFPOINTS
 62
     0
 10
2093.8293558282289
 20
498.84588540142289
 30
0.0
  0
POINT
  5
1C944
  8
DEFPOINTS
 62
     0
 10
1913.8058973835009
 20
498.845885401423
 30
0.0
  0
ENDBLK
  5
1BD78
  8
0
  0
BLOCK
  8
0
  2
*D17
 70
     1
 10
0.0
 20
0.0
 30
0.0
  3
*D17
  1

  0
LINE
  5
1C9C3
  8
SUNPOU
 62
     0
 10
582.68142073162426
 20
2289.6479670114109
 30
0.0
 11
474.05646639394979
 21
2289.6479670114109
 31
0.0
  0
LINE
  5
1C9C4
  8
SUNPOU
 62
     0
 10
559.23142073162478
 20
2249.6479670114122
 30
0.0
 11
474.05646639394979
 21
2249.6479670114122
 31
0.0
  0
LINE
  5
1C9C5
  8
SUNPOU
 62
     0
 10
484.0564663939499
 20
2309.6479670114109
 30
0.0
 11
484.0564663939499
 21
2329.6479670114109
 31
0.0
  0
LINE
  5
1C9C6
  8
SUNPOU
 62
     0
 10
484.0564663939499
 20
2229.6479670114122
 30
0.0
 11
484.0564663939499
 21
2209.6479670114122
 31
0.0
  0
TEXT
  8
SUNPOU
  40
30
  5
1C9FE
  62
0
  72
0
  71
0
 10
381.056
 20
2216.55
 30
0.000000
  1
40
  7
EXT08
  0
LINE
  5
1C9C8
  8
SUNPOU
 62
     0
 10
484.0564663939499
 20
2289.6479670114109
 30
0.0
 11
484.0564663939499
 21
2249.6479670114122
 31
0.0
  0
SOLID
  5
1C9C9
  8
SUNPOU
 62
     0
 10
480.72313306061659
 20
2309.6479670114109
 30
0.0
 11
487.38979972728322
 21
2309.6479670114109
 31
0.0
 12
484.0564663939499
 22
2289.6479670114109
 32
0.0
 13
484.0564663939499
 23
2289.6479670114109
 33
0.0
  0
SOLID
  5
1C9CA
  8
SUNPOU
 62
     0
 10
480.72313306061659
 20
2229.6479670114122
 30
0.0
 11
487.38979972728322
 21
2229.6479670114122
 31
0.0
 12
484.0564663939499
 22
2249.6479670114122
 32
0.0
 13
484.0564663939499
 23
2249.6479670114122
 33
0.0
  0
POINT
  5
1C9CB
  8
DEFPOINTS
 62
     0
 10
592.68142073162426
 20
2289.6479670114109
 30
0.0
  0
POINT
  5
1C9CC
  8
DEFPOINTS
 62
     0
 10
569.23142073162489
 20
2249.6479670114122
 30
0.0
  0
POINT
  5
1C9CD
  8
DEFPOINTS
 62
     0
 10
484.0564663939499
 20
2249.6479670114122
 30
0.0
  0
ENDBLK
  5
1C332
  8
0
  0
BLOCK
  8
0
  2
*D18
 70
     1
 10
0.0
 20
0.0
 30
0.0
  3
*D18
  1

  0
LINE
  5
1C9CE
  8
SUNPOU
 62
     0
 10
626.43142073162574
 20
2309.6479670114059
 30
0.0
 11
262.59307829500568
 21
2309.6479670114059
 31
0.0
  0
LINE
  5
1C9CF
  8
SUNPOU
 62
     0
 10
362.10351895608892
 20
749.64796701141222
 30
0.0
 11
262.59307829500528
 21
749.64796701141222
 31
0.0
  0
LINE
  5
1C9D0
  8
SUNPOU
 62
     0
 10
272.59307829500568
 20
2289.6479670114059
 30
0.0
 11
272.5930782950054
 21
769.64796701141222
 31
0.0
  0
SOLID
  5
1C9D1
  8
SUNPOU
 62
     0
 10
269.25974496167231
 20
2289.6479670114059
 30
0.0
 11
275.926411628339
 21
2289.6479670114059
 31
0.0
 12
272.59307829500568
 22
2309.6479670114059
 32
0.0
 13
272.59307829500568
 23
2309.6479670114059
 33
0.0
  0
SOLID
  5
1C9D2
  8
SUNPOU
 62
     0
 10
269.25974496167203
 20
769.64796701141222
 30
0.0
 11
275.9264116283386
 21
769.64796701141222
 31
0.0
 12
272.5930782950054
 22
749.64796701141222
 32
0.0
 13
272.5930782950054
 23
749.64796701141222
 33
0.0
  0
TEXT
  8
SUNPOU
  40
30
  5
1C9FF
  62
0
  72
0
  71
0
 10
185.593
 20
1476.55
 30
0.000000
  1
1560
  7
EXT08
  0
POINT
  5
1C9D4
  8
DEFPOINTS
 62
     0
 10
636.43142073162574
 20
2309.6479670114059
 30
0.0
  0
POINT
  5
1C9D5
  8
DEFPOINTS
 62
     0
 10
372.10351895608892
 20
749.64796701141222
 30
0.0
  0
POINT
  5
1C9D6
  8
DEFPOINTS
 62
     0
 10
272.5930782950054
 20
749.64796701141222
 30
0.0
  0
ENDBLK
  5
1C33F
  8
0
  0
BLOCK
  8
0
  2
*D19
 70
     1
 10
0.0
 20
0.0
 30
0.0
  3
*D19
  1

  0
LINE
  5
1C9D7
  8
SUNPOU
 62
     0
 10
1369.3632148796371
 20
1779.9276056291581
 30
0.0
 11
1139.695427725595
 21
1779.9276056291581
 31
0.0
  0
LINE
  5
1C9D8
  8
SUNPOU
 62
     0
 10
1369.3632148796371
 20
779.92760562915987
 30
0.0
 11
1139.695427725595
 21
779.9276056291601
 31
0.0
  0
LINE
  5
1C9D9
  8
SUNPOU
 62
     0
 10
1149.695427725595
 20
1759.9276056291581
 30
0.0
 11
1149.695427725595
 21
799.92760562915998
 31
0.0
  0
SOLID
  5
1C9DA
  8
SUNPOU
 62
     0
 10
1146.362094392262
 20
1759.9276056291581
 30
0.0
 11
1153.0287610589289
 21
1759.9276056291581
 31
0.0
 12
1149.695427725595
 22
1779.9276056291581
 32
0.0
 13
1149.695427725595
 23
1779.9276056291581
 33
0.0
  0
SOLID
  5
1C9DB
  8
SUNPOU
 62
     0
 10
1146.362094392262
 20
799.92760562915998
 30
0.0
 11
1153.028761058928
 21
799.92760562915998
 31
0.0
 12
1149.695427725595
 22
779.9276056291601
 32
0.0
 13
1149.695427725595
 23
779.9276056291601
 33
0.0
  0
TEXT
  8
SUNPOU
  40
30
  5
1CA00
  62
0
  72
0
  71
0
 10
1062.70
 20
1226.83
 30
0.000000
  1
1000
  7
EXT08
  0
POINT
  5
1C9DD
  8
DEFPOINTS
 62
     0
 10
1379.3632148796371
 20
1779.9276056291581
 30
0.0
  0
POINT
  5
1C9DE
  8
DEFPOINTS
 62
     0
 10
1379.3632148796371
 20
779.92760562915987
 30
0.0
  0
POINT
  5
1C9DF
  8
DEFPOINTS
 62
     0
 10
1149.695427725595
 20
779.9276056291601
 30
0.0
  0
ENDBLK
  5
1C5B9
  8
0
  0
BLOCK
  8
0
  2
*D20
 70
     1
 10
0.0
 20
0.0
 30
0.0
  3
*D20
  1

  0
LINE
  5
1C9E0
  8
SUNPOU
 62
     0
 10
1369.3632148796371
 20
779.92760562915987
 30
0.0
 11
1139.695427725595
 21
779.9276056291601
 31
0.0
  0
LINE
  5
1C9E1
  8
SUNPOU
 62
     0
 10
1179.329179181359
 20
749.92760562915998
 30
0.0
 11
1139.695427725595
 21
749.92760562915998
 31
0.0
  0
LINE
  5
1C9E2
  8
SUNPOU
 62
     0
 10
1149.695427725595
 20
799.92760562915998
 30
0.0
 11
1149.695427725595
 21
819.9276056291601
 31
0.0
  0
LINE
  5
1C9E3
  8
SUNPOU
 62
     0
 10
1149.695427725595
 20
729.9276056291601
 30
0.0
 11
1149.695427725595
 21
709.9276056291601
 31
0.0
  0
TEXT
  8
SUNPOU
  40
30
  5
1CA01
  62
0
  72
0
  71
0
 10
1046.70
 20
711.828
 30
0.000000
  1
30
  7
EXT08
  0
LINE
  5
1C9E5
  8
SUNPOU
 62
     0
 10
1149.695427725595
 20
779.9276056291601
 30
0.0
 11
1149.695427725595
 21
749.92760562915998
 31
0.0
  0
SOLID
  5
1C9E6
  8
SUNPOU
 62
     0
 10
1146.362094392262
 20
799.92760562915998
 30
0.0
 11
1153.028761058928
 21
799.92760562915998
 31
0.0
 12
1149.695427725595
 22
779.9276056291601
 32
0.0
 13
1149.695427725595
 23
779.9276056291601
 33
0.0
  0
SOLID
  5
1C9E7
  8
SUNPOU
 62
     0
 10
1146.362094392262
 20
729.9276056291601
 30
0.0
 11
1153.028761058928
 21
729.9276056291601
 31
0.0
 12
1149.695427725595
 22
749.92760562915998
 32
0.0
 13
1149.695427725595
 23
749.92760562915998
 33
0.0
  0
POINT
  5
1C9E8
  8
DEFPOINTS
 62
     0
 10
1379.3632148796371
 20
779.92760562915987
 30
0.0
  0
POINT
  5
1C9E9
  8
DEFPOINTS
 62
     0
 10
1189.329179181359
 20
749.92760562915998
 30
0.0
  0
POINT
  5
1C9EA
  8
DEFPOINTS
 62
     0
 10
1149.695427725595
 20
749.92760562915998
 30
0.0
  0
ENDBLK
  5
1C5C8
  8
0
  0
BLOCK
  8
0
  2
*U21
 70
     1
 10
0.0
 20
0.0
 30
0.0
  3
*U21
  1

  0
SOLID
  5
1C8AC
  8
SUNPOU
 10
1450.4716631602139
 20
501.29177447423609
 30
0.0
 11
1434.1065304653671
 21
489.32124637430792
 31
0.0
 12
1445.70472795511
 22
505.9523295050011
 32
0.0
 13
1445.70472795511
 23
505.9523295050011
 33
0.0
  0
POLYLINE
  5
1C8AD
  8
SUNPOU
 66
     1
 10
0.0
 20
0.0
 30
0.0
  0
VERTEX
  5
1C8AE
  8
SUNPOU
 10
1448.0881955576619
 20
503.62205198961863
 30
0.0
  0
VERTEX
  5
1C8AF
  8
SUNPOU
 10
1503.062060305675
 20
559.85073065514825
 30
0.0
  0
SEQEND
  5
1C8B0
  8
SUNPOU
  0
ENDBLK
  5
1C8B2
  8
0
  0
BLOCK
  8
0
  2
*U22
 70
     1
 10
0.0
 20
0.0
 30
0.0
  3
*U22
  1

  0
TEXT
  5
1C8BD
  8
SUNPOU
 10
1350.0970913952531
 20
624.80352130596873
 30
0.0
 40
30.0
  1
t2.3
 50
55.903950501274231
 41
0.8
  7
EXT08
  0
ENDBLK
  5
1C8BF
  8
0
  0
BLOCK
  8
0
  2
*U23
 70
     1
 10
0.0
 20
0.0
 30
0.0
  3
*U23
  1

  0
TEXT
  5
1C8C1
  8
SUNPOU
 10
1038.0785511955551
 20
595.98636708745767
 30
0.0
 40
30.0
  1
t2.3
 50
55.58648259352934
 41
0.8
  7
EXT08
  0
ENDBLK
  5
1C8C3
  8
0
  0
BLOCK
  8
0
  2
*U24
 70
     1
 10
0.0
 20
0.0
 30
0.0
  3
*U24
  1

  0
SOLID
  5
1C8CB
  8
SUNPOU
 10
652.42673014400293
 20
1521.7462006717551
 30
0.0
 11
636.4314207316271
 21
1509.285815929964
 31
0.0
 12
647.52091296221215
 22
1526.2603342789159
 32
0.0
 13
647.52091296221215
 23
1526.2603342789159
 33
0.0
  0
POLYLINE
  5
1C8CC
  8
SUNPOU
 66
     1
 10
0.0
 20
0.0
 30
0.0
  0
VERTEX
  5
1C8CD
  8
SUNPOU
 10
649.97382155310754
 20
1524.003267475335
 30
0.0
  0
VERTEX
  5
1C8CE
  8
SUNPOU
 10
702.28013810973664
 20
1580.8481127569789
 30
0.0
  0
SEQEND
  5
1C8CF
  8
SUNPOU
  0
ENDBLK
  5
1C8D1
  8
0
  0
BLOCK
  8
0
  2
*U25
 70
     1
 10
0.0
 20
0.0
 30
0.0
  3
*U25
  1

  0
SOLID
  5
1C8D3
  8
SUNPOU
 10
731.55350458923601
 20
2116.4890109461121
 30
0.0
 11
713.04223342039916
 21
2108.2159250149198
 31
0.0
 12
727.86973233215519
 22
2122.045472626211
 32
0.0
 13
727.86973233215519
 23
2122.045472626211
 33
0.0
  0
POLYLINE
  5
1C8D4
  8
SUNPOU
 66
     1
 10
0.0
 20
0.0
 30
0.0
  0
VERTEX
  5
1C8D5
  8
SUNPOU
 10
729.71161846069572
 20
2119.2672417861618
 30
0.0
  0
VERTEX
  5
1C8D6
  8
SUNPOU
 10
822.83416046647733
 20
2181.0047748602028
 30
0.0
  0
SEQEND
  5
1C8D7
  8
SUNPOU
  0
ENDBLK
  5
1C8D9
  8
0
  0
BLOCK
  8
0
  2
*U26
 70
     1
 10
0.0
 20
0.0
 30
0.0
  3
*U26
  1

  0
SOLID
  5
1C8DB
  8
SUNPOU
 10
657.04401952199248
 20
1041.7711806959289
 30
0.0
 11
641.04871010961665
 21
1029.3107959541369
 31
0.0
 12
652.13820234020181
 22
1046.2853143030891
 32
0.0
 13
652.13820234020181
 23
1046.2853143030891
 33
0.0
  0
POLYLINE
  5
1C8DC
  8
SUNPOU
 66
     1
 10
0.0
 20
0.0
 30
0.0
  0
VERTEX
  5
1C8DD
  8
SUNPOU
 10
654.59111093109709
 20
1044.028247499509
 30
0.0
  0
VERTEX
  5
1C8DE
  8
SUNPOU
 10
706.89742748772619
 20
1100.8730927811521
 30
0.0
  0
SEQEND
  5
1C8DF
  8
SUNPOU
  0
ENDBLK
  5
1C8E1
  8
0
  0
BLOCK
  8
0
  2
*U27
 70
     1
 10
0.0
 20
0.0
 30
0.0
  3
*U27
  1

  0
SOLID
  5
1C8E3
  8
SUNPOU
 10
1447.9574149341811
 20
2317.5429067758091
 30
0.0
 11
1429.8085583508339
 21
2308.5024357798811
 31
0.0
 12
1444.044351012077
 22
2322.9403483165752
 32
0.0
 13
1444.044351012077
 23
2322.9403483165752
 33
0.0
  0
POLYLINE
  5
1C8E4
  8
SUNPOU
 66
     1
 10
0.0
 20
0.0
 30
0.0
  0
VERTEX
  5
1C8E5
  8
SUNPOU
 10
1446.0008829731289
 20
2320.2416275461919
 30
0.0
  0
VERTEX
  5
1C8E6
  8
SUNPOU
 10
1528.517222797858
 20
2380.0647326068961
 30
0.0
  0
SEQEND
  5
1C8E7
  8
SUNPOU
  0
ENDBLK
  5
1C8E9
  8
0
  0
BLOCK
  8
0
  2
*U28
 70
     1
 10
0.0
 20
0.0
 30
0.0
  3
*U28
  1

  0
SOLID
  5
1C8EB
  8
SUNPOU
 10
1479.2767206686699
 20
2267.3387953126239
 30
0.0
 11
1460.4551252960571
 21
2274.8792633843509
 31
0.0
 12
1480.7048943474681
 22
2273.8506893832941
 32
0.0
 13
1480.7048943474681
 23
2273.8506893832941
 33
0.0
  0
POLYLINE
  5
1C8EC
  8
SUNPOU
 66
     1
 10
0.0
 20
0.0
 30
0.0
  0
VERTEX
  5
1C8ED
  8
SUNPOU
 10
1479.9908075080691
 20
2270.5947423479588
 30
0.0
  0
VERTEX
  5
1C8EE
  8
SUNPOU
 10
1559.163789743081
 20
2253.2307053914601
 30
0.0
  0
SEQEND
  5
1C8EF
  8
SUNPOU
  0
ENDBLK
  5
1C8F1
  8
0
  0
BLOCK
  8
0
  2
*U29
 70
     1
 10
0.0
 20
0.0
 30
0.0
  3
*U29
  1

  0
SOLID
  5
1C8F3
  8
SUNPOU
 10
699.43127039461115
 20
827.30045318126975
 30
0.0
 11
683.3099181590203
 21
815.00357905785427
 31
0.0
 12
694.5716705580661
 22
831.86430395370905
 32
0.0
 13
694.5716705580661
 23
831.86430395370905
 33
0.0
  0
POLYLINE
  5
1C8F4
  8
SUNPOU
 66
     1
 10
0.0
 20
0.0
 30
0.0
  0
VERTEX
  5
1C8F5
  8
SUNPOU
 10
697.00147047633857
 20
829.5823785674894
 30
0.0
  0
VERTEX
  5
1C8F6
  8
SUNPOU
 10
749.15863553712984
 20
885.11945973909712
 30
0.0
  0
SEQEND
  5
1C8F7
  8
SUNPOU
  0
ENDBLK
  5
1C8F9
  8
0
  0
BLOCK
  8
0
  2
*U30
 70
     1
 10
0.0
 20
0.0
 30
0.0
  3
*U30
  1

  0
SOLID
  5
1C904
  8
SUNPOU
 10
2260.029281255765
 20
2075.7400424727939
 30
0.0
 11
2247.722948157978
 21
2059.6259096448248
 31
0.0
 12
2254.137868819786
 22
2078.8602514327258
 32
0.0
 13
2254.137868819786
 23
2078.8602514327258
 33
0.0
  0
POLYLINE
  5
1C905
  8
SUNPOU
 66
     1
 10
0.0
 20
0.0
 30
0.0
  0
VERTEX
  5
1C906
  8
SUNPOU
 10
2257.0835750377751
 20
2077.3001469527599
 30
0.0
  0
VERTEX
  5
1C907
  8
SUNPOU
 10
2285.3769961024441
 20
2130.7222782450108
 30
0.0
  0
VERTEX
  5
1C908
  8
SUNPOU
 10
2491.0662789568469
 20
2130.7222782450108
 30
0.0
  0
SEQEND
  5
1C909
  8
SUNPOU
  0
ENDBLK
  5
1C90B
  8
0
  0
BLOCK
  8
0
  2
*U31
 70
     1
 10
0.0
 20
0.0
 30
0.0
  3
*U31
  1

  0
SOLID
  5
1C90D
  8
SUNPOU
 10
2145.407054553993
 20
2014.2229965612989
 30
0.0
 11
2149.6431739937002
 21
1994.3945724382461
 31
0.0
 12
2139.2051937270412
 22
2011.777313276905
 32
0.0
 13
2139.2051937270412
 23
2011.777313276905
 33
0.0
  0
POLYLINE
  5
1C90E
  8
SUNPOU
 66
     1
 10
0.0
 20
0.0
 30
0.0
  0
VERTEX
  5
1C90F
  8
SUNPOU
 10
2142.3061241405171
 20
2013.000154919102
 30
0.0
  0
VERTEX
  5
1C910
  8
SUNPOU
 10
2107.9202434991548
 20
2100.1972370231861
 30
0.0
  0
VERTEX
  5
1C911
  8
SUNPOU
 10
1960.2007199658569
 20
2100.1972370231861
 30
0.0
  0
SEQEND
  5
1C912
  8
SUNPOU
  0
ENDBLK
  5
1C914
  8
0
  0
BLOCK
  8
0
  2
*U32
 70
     1
 10
0.0
 20
0.0
 30
0.0
  3
*U32
  1

  0
SOLID
  5
1C935
  8
SUNPOU
 10
3001.3918680063562
 20
1485.1418107507391
 30
0.0
 11
2981.879462544654
 21
1479.6302643062941
 31
0.0
 12
2998.549614810227
 22
1491.1722370386181
 32
0.0
 13
2998.549614810227
 23
1491.1722370386181
 33
0.0
  0
POLYLINE
  5
1C936
  8
SUNPOU
 66
     1
 10
0.0
 20
0.0
 30
0.0
  0
VERTEX
  5
1C937
  8
SUNPOU
 10
2999.9707414082909
 20
1488.157023894679
 30
0.0
  0
VERTEX
  5
1C938
  8
SUNPOU
 10
3119.415015896534
 20
1544.4533543225559
 30
0.0
  0
SEQEND
  5
1C939
  8
SUNPOU
  0
ENDBLK
  5
1C93B
  8
0
  0
BLOCK
  8
0
  2
*X33
 70
     1
 10
0.0
 20
0.0
 30
0.0
  3
*X33
  1

  0
LINE
  5
1C946
  8
0
 62
     0
 10
3069.478662656893
 20
1582.2940080569281
 30
0.0
 11
3052.9267853123952
 21
1598.8458854014259
 31
0.0
  0
LINE
  5
1C947
  8
0
 62
     0
 10
3069.478662656893
 20
1564.33349581479
 30
0.0
 11
3034.9662730702571
 21
1598.8458854014259
 31
0.0
  0
LINE
  5
1C948
  8
0
 62
     0
 10
3069.478662656893
 20
1546.3729835726519
 30
0.0
 11
3017.0057608281181
 21
1598.8458854014259
 31
0.0
  0
LINE
  5
1C949
  8
0
 62
     0
 10
3069.478662656893
 20
1528.412471330513
 30
0.0
 11
2999.0452485859801
 21
1598.8458854014259
 31
0.0
  0
LINE
  5
1C94A
  8
0
 62
     0
 10
3061.0847363438438
 20
1518.8458854014241
 30
0.0
 11
2981.084736343842
 21
1598.8458854014259
 31
0.0
  0
LINE
  5
1C94B
  8
0
 62
     0
 10
3043.1242241017048
 20
1518.8458854014241
 30
0.0
 11
2963.124224101703
 21
1598.845885401425
 31
0.0
  0
LINE
  5
1C94C
  8
0
 62
     0
 10
3025.1637118595681
 20
1518.8458854014241
 30
0.0
 11
2945.1637118595659
 21
1598.8458854014259
 31
0.0
  0
LINE
  5
1C94D
  8
0
 62
     0
 10
3007.2031996174292
 20
1518.8458854014241
 30
0.0
 11
2927.2031996174269
 21
1598.8458854014259
 31
0.0
  0
LINE
  5
1C94E
  8
0
 62
     0
 10
2989.2426873752911
 20
1518.8458854014241
 30
0.0
 11
2909.2426873752888
 21
1598.8458854014259
 31
0.0
  0
LINE
  5
1C94F
  8
0
 62
     0
 10
2971.2821751331521
 20
1518.8458854014241
 30
0.0
 11
2894.4786626568898
 21
1595.6493978776859
 31
0.0
  0
LINE
  5
1C950
  8
0
 62
     0
 10
2953.3216628910141
 20
1518.8458854014241
 30
0.0
 11
2894.4786626568912
 21
1577.688885635547
 31
0.0
  0
LINE
  5
1C951
  8
0
 62
     0
 10
2935.361150648876
 20
1518.8458854014241
 30
0.0
 11
2894.4786626568912
 21
1559.728373393408
 31
0.0
  0
LINE
  5
1C952
  8
0
 62
     0
 10
2917.4006384067379
 20
1518.8458854014241
 30
0.0
 11
2894.4786626568921
 21
1541.767861151269
 31
0.0
  0
LINE
  5
1C953
  8
0
 62
     0
 10
2899.440126164599
 20
1518.8458854014241
 30
0.0
 11
2894.478662656893
 21
1523.80734890913
 31
0.0
  0
LINE
  5
1C954
  8
0
 62
     0
 10
3063.4499382253189
 20
1518.8458854014241
 30
0.0
 11
3069.478662656893
 21
1524.874609832998
 31
0.0
  0
LINE
  5
1C955
  8
0
 62
     0
 10
3045.4894259831808
 20
1518.8458854014241
 30
0.0
 11
3069.478662656893
 21
1542.835122075137
 31
0.0
  0
LINE
  5
1C956
  8
0
 62
     0
 10
3027.5289137410432
 20
1518.8458854014241
 30
0.0
 11
3069.478662656893
 21
1560.795634317275
 31
0.0
  0
LINE
  5
1C957
  8
0
 62
     0
 10
3009.5684014989051
 20
1518.8458854014241
 30
0.0
 11
3069.478662656893
 21
1578.7561465594131
 31
0.0
  0
LINE
  5
1C958
  8
0
 62
     0
 10
2991.6078892567662
 20
1518.8458854014241
 30
0.0
 11
3069.478662656893
 21
1596.7166588015509
 31
0.0
  0
LINE
  5
1C959
  8
0
 62
     0
 10
2973.6473770146272
 20
1518.8458854014241
 30
0.0
 11
3053.647377014629
 21
1598.8458854014259
 31
0.0
  0
LINE
  5
1C95A
  8
0
 62
     0
 10
2955.6868647724891
 20
1518.8458854014241
 30
0.0
 11
3035.6868647724909
 21
1598.8458854014259
 31
0.0
  0
LINE
  5
1C95B
  8
0
 62
     0
 10
2937.7263525303511
 20
1518.8458854014241
 30
0.0
 11
3017.7263525303529
 21
1598.8458854014259
 31
0.0
  0
LINE
  5
1C95C
  8
0
 62
     0
 10
2919.765840288213
 20
1518.8458854014241
 30
0.0
 11
2999.7658402882148
 21
1598.845885401425
 31
0.0
  0
LINE
  5
1C95D
  8
0
 62
     0
 10
2901.8053280460749
 20
1518.8458854014241
 30
0.0
 11
2981.8053280460758
 21
1598.8458854014259
 31
0.0
  0
LINE
  5
1C95E
  8
0
 62
     0
 10
2894.478662656893
 20
1529.4797322543809
 30
0.0
 11
2963.8448158039382
 21
1598.8458854014259
 31
0.0
  0
LINE
  5
1C95F
  8
0
 62
     0
 10
2894.4786626568921
 20
1547.4402444965181
 30
0.0
 11
2945.8843035617988
 21
1598.8458854014259
 31
0.0
  0
LINE
  5
1C960
  8
0
 62
     0
 10
2894.4786626568912
 20
1565.4007567386559
 30
0.0
 11
2927.9237913196612
 21
1598.8458854014259
 31
0.0
  0
LINE
  5
1C961
  8
0
 62
     0
 10
2894.4786626568912
 20
1583.361268980794
 30
0.0
 11
2909.9632790775231
 21
1598.8458854014259
 31
0.0
  0
ENDBLK
  5
1C963
  8
0
  0
BLOCK
  8
0
  2
*X34
 70
     1
 10
0.0
 20
0.0
 30
0.0
  3
*X34
  1

  0
LINE
  5
1C965
  8
0
 62
     0
 10
2317.3293558282348
 20
1582.2940080569549
 30
0.0
 11
2300.7774784837379
 21
1598.845885401453
 31
0.0
  0
LINE
  5
1C966
  8
0
 62
     0
 10
2317.3293558282348
 20
1564.3334958148171
 30
0.0
 11
2282.8169662415999
 21
1598.845885401453
 31
0.0
  0
LINE
  5
1C967
  8
0
 62
     0
 10
2317.3293558282348
 20
1546.3729835726781
 30
0.0
 11
2264.8564539994609
 21
1598.845885401453
 31
0.0
  0
LINE
  5
1C968
  8
0
 62
     0
 10
2317.3293558282348
 20
1528.41247133054
 30
0.0
 11
2246.8959417573228
 21
1598.845885401453
 31
0.0
  0
LINE
  5
1C969
  8
0
 62
     0
 10
2308.9354295151861
 20
1518.8458854014509
 30
0.0
 11
2228.9354295151838
 21
1598.845885401453
 31
0.0
  0
LINE
  5
1C96A
  8
0
 62
     0
 10
2290.974917273048
 20
1518.8458854014509
 30
0.0
 11
2210.9749172730449
 21
1598.8458854014521
 31
0.0
  0
LINE
  5
1C96B
  8
0
 62
     0
 10
2273.0144050309091
 20
1518.8458854014509
 30
0.0
 11
2193.0144050309082
 21
1598.845885401453
 31
0.0
  0
LINE
  5
1C96C
  8
0
 62
     0
 10
2255.053892788771
 20
1518.8458854014509
 30
0.0
 11
2175.0538927887692
 21
1598.845885401453
 31
0.0
  0
LINE
  5
1C96D
  8
0
 62
     0
 10
2237.0933805466329
 20
1518.8458854014509
 30
0.0
 11
2157.0933805466311
 21
1598.845885401453
 31
0.0
  0
LINE
  5
1C96E
  8
0
 62
     0
 10
2219.132868304494
 20
1518.8458854014509
 30
0.0
 11
2142.3293558282321
 21
1595.6493978777121
 31
0.0
  0
LINE
  5
1C96F
  8
0
 62
     0
 10
2201.1723560623559
 20
1518.8458854014509
 30
0.0
 11
2142.329355828233
 21
1577.6888856355729
 31
0.0
  0
LINE
  5
1C970
  8
0
 62
     0
 10
2183.2118438202178
 20
1518.8458854014509
 30
0.0
 11
2142.3293558282339
 21
1559.728373393435
 31
0.0
  0
LINE
  5
1C971
  8
0
 62
     0
 10
2165.2513315780802
 20
1518.8458854014509
 30
0.0
 11
2142.3293558282348
 21
1541.7678611512961
 31
0.0
  0
LINE
  5
1C972
  8
0
 62
     0
 10
2147.2908193359408
 20
1518.8458854014509
 30
0.0
 11
2142.3293558282348
 21
1523.8073489091571
 31
0.0
  0
LINE
  5
1C973
  8
0
 62
     0
 10
2311.3006313966621
 20
1518.8458854014509
 30
0.0
 11
2317.3293558282348
 21
1524.874609833025
 31
0.0
  0
LINE
  5
1C974
  8
0
 62
     0
 10
2293.3401191545231
 20
1518.8458854014509
 30
0.0
 11
2317.3293558282348
 21
1542.8351220751631
 31
0.0
  0
LINE
  5
1C975
  8
0
 62
     0
 10
2275.379606912385
 20
1518.8458854014509
 30
0.0
 11
2317.3293558282348
 21
1560.7956343173021
 31
0.0
  0
LINE
  5
1C976
  8
0
 62
     0
 10
2257.419094670247
 20
1518.8458854014509
 30
0.0
 11
2317.3293558282348
 21
1578.7561465594399
 31
0.0
  0
LINE
  5
1C977
  8
0
 62
     0
 10
2239.458582428108
 20
1518.8458854014509
 30
0.0
 11
2317.3293558282362
 21
1596.716658801578
 31
0.0
  0
LINE
  5
1C978
  8
0
 62
     0
 10
2221.498070185969
 20
1518.8458854014509
 30
0.0
 11
2301.4980701859708
 21
1598.845885401453
 31
0.0
  0
LINE
  5
1C979
  8
0
 62
     0
 10
2203.5375579438319
 20
1518.8458854014509
 30
0.0
 11
2283.5375579438328
 21
1598.845885401453
 31
0.0
  0
LINE
  5
1C97A
  8
0
 62
     0
 10
2185.5770457016929
 20
1518.8458854014509
 30
0.0
 11
2265.5770457016952
 21
1598.845885401453
 31
0.0
  0
LINE
  5
1C97B
  8
0
 62
     0
 10
2167.6165334595548
 20
1518.8458854014509
 30
0.0
 11
2247.6165334595562
 21
1598.8458854014521
 31
0.0
  0
LINE
  5
1C97C
  8
0
 62
     0
 10
2149.6560212174172
 20
1518.8458854014509
 30
0.0
 11
2229.6560212174181
 21
1598.845885401453
 31
0.0
  0
LINE
  5
1C97D
  8
0
 62
     0
 10
2142.3293558282348
 20
1529.479732254408
 30
0.0
 11
2211.6955089752801
 21
1598.845885401453
 31
0.0
  0
LINE
  5
1C97E
  8
0
 62
     0
 10
2142.3293558282348
 20
1547.4402444965449
 30
0.0
 11
2193.734996733142
 21
1598.845885401453
 31
0.0
  0
LINE
  5
1C97F
  8
0
 62
     0
 10
2142.3293558282339
 20
1565.400756738683
 30
0.0
 11
2175.774484491003
 21
1598.845885401453
 31
0.0
  0
LINE
  5
1C980
  8
0
 62
     0
 10
2142.329355828233
 20
1583.3612689808199
 30
0.0
 11
2157.813972248865
 21
1598.845885401453
 31
0.0
  0
ENDBLK
  5
1C982
  8
0
  0
BLOCK
  8
0
  2
*X35
 70
     1
 10
0.0
 20
0.0
 30
0.0
  3
*X35
  1

  0
LINE
  5
1C984
  8
0
 62
     0
 10
1460.6132148796339
 20
2284.1535876062021
 30
0.0
 11
1454.8391968566759
 21
2289.927605629161
 31
0.0
  0
LINE
  5
1C985
  8
0
 62
     0
 10
1460.6132148796339
 20
2275.1733314851331
 30
0.0
 11
1445.8589407356069
 21
2289.927605629161
 31
0.0
  0
LINE
  5
1C986
  8
0
 62
     0
 10
1460.6132148796339
 20
2266.193075364064
 30
0.0
 11
1436.878684614537
 21
2289.927605629161
 31
0.0
  0
LINE
  5
1C987
  8
0
 62
     0
 10
1460.6132148796351
 20
2257.2128192429941
 30
0.0
 11
1427.8984284934679
 21
2289.927605629161
 31
0.0
  0
LINE
  5
1C988
  8
0
 62
     0
 10
1458.9181723724
 20
2249.9276056291601
 30
0.0
 11
1418.9181723723991
 21
2289.927605629161
 31
0.0
  0
LINE
  5
1C989
  8
0
 62
     0
 10
1449.937916251331
 20
2249.9276056291601
 30
0.0
 11
1409.9379162513301
 21
2289.927605629161
 31
0.0
  0
LINE
  5
1C98A
  8
0
 62
     0
 10
1440.957660130262
 20
2249.9276056291601
 30
0.0
 11
1400.957660130261
 21
2289.927605629161
 31
0.0
  0
LINE
  5
1C98B
  8
0
 62
     0
 10
1431.9774040091929
 20
2249.9276056291601
 30
0.0
 11
1391.977404009192
 21
2289.927605629161
 31
0.0
  0
LINE
  5
1C98C
  8
0
 62
     0
 10
1422.9971478881239
 20
2249.9276056291601
 30
0.0
 11
1382.997147888123
 21
2289.927605629161
 31
0.0
  0
LINE
  5
1C98D
  8
0
 62
     0
 10
1414.0168917670539
 20
2249.9276056291601
 30
0.0
 11
1374.016891767053
 21
2289.927605629161
 31
0.0
  0
LINE
  5
1C98E
  8
0
 62
     0
 10
1405.0366356459849
 20
2249.9276056291601
 30
0.0
 11
1373.1132148796339
 21
2281.8510263955118
 31
0.0
  0
LINE
  5
1C98F
  8
0
 62
     0
 10
1396.0563795249161
 20
2249.9276056291601
 30
0.0
 11
1373.1132148796339
 21
2272.8707702744418
 31
0.0
  0
LINE
  5
1C990
  8
0
 62
     0
 10
1387.0761234038471
 20
2249.9276056291601
 30
0.0
 11
1373.1132148796351
 21
2263.8905141533719
 31
0.0
  0
LINE
  5
1C991
  8
0
 62
     0
 10
1378.095867282778
 20
2249.9276056291601
 30
0.0
 11
1373.1132148796351
 21
2254.9102580323029
 31
0.0
  0
LINE
  5
1C992
  8
0
 62
     0
 10
1459.665066975075
 20
2249.9276056291601
 30
0.0
 11
1460.6132148796351
 21
2250.8757535337199
 31
0.0
  0
LINE
  5
1C993
  8
0
 62
     0
 10
1450.6848108540059
 20
2249.9276056291601
 30
0.0
 11
1460.6132148796351
 21
2259.856009654789
 31
0.0
  0
LINE
  5
1C994
  8
0
 62
     0
 10
1441.7045547329369
 20
2249.9276056291601
 30
0.0
 11
1460.6132148796351
 21
2268.836265775858
 31
0.0
  0
LINE
  5
1C995
  8
0
 62
     0
 10
1432.724298611867
 20
2249.9276056291601
 30
0.0
 11
1460.6132148796351
 21
2277.816521896927
 31
0.0
  0
LINE
  5
1C996
  8
0
 62
     0
 10
1423.7440424907979
 20
2249.9276056291601
 30
0.0
 11
1460.6132148796339
 21
2286.796778017997
 31
0.0
  0
LINE
  5
1C997
  8
0
 62
     0
 10
1414.7637863697289
 20
2249.9276056291601
 30
0.0
 11
1454.76378636973
 21
2289.927605629161
 31
0.0
  0
LINE
  5
1C998
  8
0
 62
     0
 10
1405.7835302486601
 20
2249.9276056291601
 30
0.0
 11
1445.783530248661
 21
2289.927605629161
 31
0.0
  0
LINE
  5
1C999
  8
0
 62
     0
 10
1396.8032741275911
 20
2249.9276056291601
 30
0.0
 11
1436.803274127592
 21
2289.927605629161
 31
0.0
  0
LINE
  5
1C99A
  8
0
 62
     0
 10
1387.823018006522
 20
2249.9276056291601
 30
0.0
 11
1427.8230180065229
 21
2289.927605629161
 31
0.0
  0
LINE
  5
1C99B
  8
0
 62
     0
 10
1378.8427618854521
 20
2249.9276056291601
 30
0.0
 11
1418.842761885453
 21
2289.927605629161
 31
0.0
  0
LINE
  5
1C99C
  8
0
 62
     0
 10
1373.1132148796351
 20
2253.1783147444112
 30
0.0
 11
1409.862505764384
 21
2289.927605629161
 31
0.0
  0
LINE
  5
1C99D
  8
0
 62
     0
 10
1373.1132148796351
 20
2262.1585708654802
 30
0.0
 11
1400.8822496433149
 21
2289.927605629161
 31
0.0
  0
LINE
  5
1C99E
  8
0
 62
     0
 10
1373.1132148796339
 20
2271.1388269865488
 30
0.0
 11
1391.9019935222459
 21
2289.927605629161
 31
0.0
  0
LINE
  5
1C99F
  8
0
 62
     0
 10
1373.1132148796339
 20
2280.1190831076192
 30
0.0
 11
1382.921737401176
 21
2289.927605629161
 31
0.0
  0
LINE
  5
1C9A0
  8
0
 62
     0
 10
1373.1132148796339
 20
2289.0993392286882
 30
0.0
 11
1373.9414812801069
 21
2289.927605629161
 31
0.0
  0
ENDBLK
  5
1C9A2
  8
0
  0
BLOCK
  8
0
  2
*X36
 70
     1
 10
0.0
 20
0.0
 30
0.0
  3
*X36
  1

  0
LINE
  5
1C9A4
  8
0
 62
     0
 10
680.18142073162539
 20
2283.8739489884538
 30
0.0
 11
674.40740270866638
 21
2289.6479670114131
 31
0.0
  0
LINE
  5
1C9A5
  8
0
 62
     0
 10
680.18142073162505
 20
2274.8936928673852
 30
0.0
 11
665.42714658759724
 21
2289.6479670114131
 31
0.0
  0
LINE
  5
1C9A6
  8
0
 62
     0
 10
680.18142073162528
 20
2265.9134367463162
 30
0.0
 11
656.44689046652809
 21
2289.6479670114131
 31
0.0
  0
LINE
  5
1C9A7
  8
0
 62
     0
 10
680.18142073162551
 20
2256.9331806252462
 30
0.0
 11
647.46663434545894
 21
2289.6479670114131
 31
0.0
  0
LINE
  5
1C9A8
  8
0
 62
     0
 10
678.48637822439105
 20
2249.6479670114122
 30
0.0
 11
638.48637822438991
 21
2289.6479670114131
 31
0.0
  0
LINE
  5
1C9A9
  8
0
 62
     0
 10
669.50612210332156
 20
2249.6479670114122
 30
0.0
 11
629.50612210332065
 21
2289.6479670114131
 31
0.0
  0
LINE
  5
1C9AA
  8
0
 62
     0
 10
660.52586598225264
 20
2249.6479670114122
 30
0.0
 11
620.5258659822515
 21
2289.6479670114131
 31
0.0
  0
LINE
  5
1C9AB
  8
0
 62
     0
 10
651.54560986118349
 20
2249.6479670114122
 30
0.0
 11
611.54560986118236
 21
2289.6479670114131
 31
0.0
  0
LINE
  5
1C9AC
  8
0
 62
     0
 10
642.56535374011435
 20
2249.6479670114122
 30
0.0
 11
602.56535374011332
 21
2289.6479670114131
 31
0.0
  0
LINE
  5
1C9AD
  8
0
 62
     0
 10
633.58509761904497
 20
2249.6479670114122
 30
0.0
 11
593.58509761904395
 21
2289.6479670114131
 31
0.0
  0
LINE
  5
1C9AE
  8
0
 62
     0
 10
624.60484149797594
 20
2249.6479670114122
 30
0.0
 11
592.68142073162471
 21
2281.5713877777639
 31
0.0
  0
LINE
  5
1C9AF
  8
0
 62
     0
 10
615.62458537690679
 20
2249.6479670114122
 30
0.0
 11
592.68142073162494
 21
2272.591131656694
 31
0.0
  0
LINE
  5
1C9B0
  8
0
 62
     0
 10
606.64432925583765
 20
2249.6479670114122
 30
0.0
 11
592.68142073162505
 21
2263.610875535624
 31
0.0
  0
LINE
  5
1C9B1
  8
0
 62
     0
 10
597.6640731347685
 20
2249.6479670114122
 30
0.0
 11
592.68142073162505
 21
2254.630619414555
 31
0.0
  0
LINE
  5
1C9B2
  8
0
 62
     0
 10
679.23327282706532
 20
2249.6479670114122
 30
0.0
 11
680.18142073162551
 21
2250.596114915973
 31
0.0
  0
LINE
  5
1C9B3
  8
0
 62
     0
 10
670.25301670599617
 20
2249.6479670114122
 30
0.0
 11
680.18142073162551
 21
2259.576371037042
 31
0.0
  0
LINE
  5
1C9B4
  8
0
 62
     0
 10
661.27276058492714
 20
2249.6479670114122
 30
0.0
 11
680.18142073162551
 21
2268.556627158111
 31
0.0
  0
LINE
  5
1C9B5
  8
0
 62
     0
 10
652.29250446385788
 20
2249.6479670114122
 30
0.0
 11
680.18142073162539
 21
2277.5368832791801
 31
0.0
  0
LINE
  5
1C9B6
  8
0
 62
     0
 10
643.31224834278885
 20
2249.6479670114122
 30
0.0
 11
680.18142073162505
 21
2286.5171394002491
 31
0.0
  0
LINE
  5
1C9B7
  8
0
 62
     0
 10
634.33199222171993
 20
2249.6479670114122
 30
0.0
 11
674.33199222172061
 21
2289.6479670114131
 31
0.0
  0
LINE
  5
1C9B8
  8
0
 62
     0
 10
625.35173610065056
 20
2249.6479670114122
 30
0.0
 11
665.35173610065135
 21
2289.6479670114131
 31
0.0
  0
LINE
  5
1C9B9
  8
0
 62
     0
 10
616.37147997958141
 20
2249.6479670114122
 30
0.0
 11
656.37147997958232
 21
2289.6479670114131
 31
0.0
  0
LINE
  5
1C9BA
  8
0
 62
     0
 10
607.39122385851238
 20
2249.6479670114122
 30
0.0
 11
647.39122385851329
 21
2289.6479670114131
 31
0.0
  0
LINE
  5
1C9BB
  8
0
 62
     0
 10
598.41096773744323
 20
2249.6479670114122
 30
0.0
 11
638.41096773744414
 21
2289.6479670114131
 31
0.0
  0
LINE
  5
1C9BC
  8
0
 62
     0
 10
592.68142073162539
 20
2252.8986761266642
 30
0.0
 11
629.43071161637465
 21
2289.6479670114131
 31
0.0
  0
LINE
  5
1C9BD
  8
0
 62
     0
 10
592.68142073162539
 20
2261.8789322477328
 30
0.0
 11
620.45045549530573
 21
2289.6479670114131
 31
0.0
  0
LINE
  5
1C9BE
  8
0
 62
     0
 10
592.68142073162494
 20
2270.8591883688018
 30
0.0
 11
611.47019937423659
 21
2289.6479670114131
 31
0.0
  0
LINE
  5
1C9BF
  8
0
 62
     0
 10
592.6814207316246
 20
2279.8394444898709
 30
0.0
 11
602.48994325316755
 21
2289.6479670114131
 31
0.0
  0
LINE
  5
1C9C0
  8
0
 62
     0
 10
592.68142073162448
 20
2288.8197006109399
 30
0.0
 11
593.50968713209829
 21
2289.6479670114131
 31
0.0
  0
ENDBLK
  5
1C9C2
  8
0
  0
BLOCK
  8
0
  2
*U37
 70
     1
 10
0.0
 20
0.0
 30
0.0
  3
*U37
  1

  0
SOLID
  5
1C9EC
  8
SUNPOU
 10
688.34351763478514
 20
1914.8885155091209
 30
0.0
 11
669.8322464659484
 21
1906.6154295779279
 31
0.0
 12
684.65974537770444
 22
1920.44497718922
 32
0.0
 13
684.65974537770444
 23
1920.44497718922
 33
0.0
  0
POLYLINE
  5
1C9ED
  8
SUNPOU
 66
     1
 10
0.0
 20
0.0
 30
0.0
  0
VERTEX
  5
1C9EE
  8
SUNPOU
 10
686.50163150624485
 20
1917.6667463491699
 30
0.0
  0
VERTEX
  5
1C9EF
  8
SUNPOU
 10
779.62417351202657
 20
1979.4042794232109
 30
0.0
  0
SEQEND
  5
1C9F0
  8
SUNPOU
  0
ENDBLK
  5
1C9F2
  8
0
  0
ENDSEC
  0
SECTION
  2
ENTITIES
  0
INSERT
  5
41
  8
ZWAKU
  2
SYSTEMA3
 10
-0.7058929444392561
 20
-0.1203104429660016
 30
0.0
 41
10.0
 42
10.0
 43
10.0
  0
TEXT
  5
43
  8
INFORMATION
 10
1.0
 20
2.0
 30
0.0
 40
0.8
  1
PLOTTER=SYSTEM
 41
0.8
  7
EXT08
  0
TEXT
  5
44
  8
INFORMATION
 10
1.0
 20
3.0
 30
0.0
 40
0.8
  1
PAPER=A3
 41
0.8
  7
EXT08
  0
INSERT
  5
5E
  8
ZWAKU
  2
CALCOMP_TECHJET720A3
 10
-0.7058929444392561
 20
-0.1203104429660016
 30
0.0
 41
10.0
 42
10.0
 43
10.0
  0
LINE
  5
DA2C
  8
MOJI
 10
3663.0844272244772
 20
2427.8040402555912
 30
0.0
 11
2539.8840360922268
 21
2427.8040402555898
 31
0.0
  0
LINE
  5
DA35
  8
MOJI
 10
3663.0844272244772
 20
2235.804040303592
 30
0.0
 11
2539.8840360922268
 21
2235.8040403035911
 31
0.0
  0
LINE
  5
DA36
  8
MOJI
 10
3663.0844272244772
 20
2139.804040327595
 30
0.0
 11
2539.8840360922268
 21
2139.804040327595
 31
0.0
  0
LINE
  5
DA37
  8
MOJI
 10
3663.0844272244772
 20
2043.804040351592
 30
0.0
 11
2539.8840360922259
 21
2043.804040351592
 31
0.0
  0
LINE
  5
DA39
  8
MOJI
 10
3663.0844272244772
 20
2283.804040291594
 30
0.0
 11
2539.8840360922268
 21
2283.8040402915922
 31
0.0
  0
LINE
  5
DA3A
  8
MOJI
 10
3663.0844272244772
 20
2331.8040402795909
 30
0.0
 11
2539.8840360922268
 21
2331.80404027959
 31
0.0
  0
LINE
  5
DA3B
  8
MOJI
 10
3663.0844272244772
 20
2379.8040402675911
 30
0.0
 11
2539.8840360922268
 21
2379.8040402675911
 31
0.0
  0
LINE
  5
DA3C
  8
MOJI
 10
3663.0844272244772
 20
1995.804040363591
 30
0.0
 11
2539.8840360922259
 21
1995.804040363591
 31
0.0
  0
TEXT
  5
DA3D
  8
MOJI
 10
3060.073210921038
 20
2388.804040261592
 30
0.0
 40
30.0
  1
材　　　質
 41
0.8
  7
EXT08
 72
     4
 11
3128.8732109210382
 21
2403.804040261592
 31
0.0
  0
TEXT
  5
DA3E
  8
MOJI
 10
2622.014451985955
 20
2388.804040261592
 30
0.0
 40
30.0
  1
品　　名
 41
0.8
  7
EXT08
 72
     4
 11
2675.6144519859549
 21
2403.804040261592
 31
0.0
  0
TEXT
  5
DA40
  8
MOJI
 10
2829.5431439008812
 20
2388.804040261592
 30
0.0
 40
30.0
  1
数 量
 41
0.8
  7
EXT08
 72
     4
 11
2862.3431439008809
 21
2403.804040261592
 31
0.0
  0
LINE
  5
DA41
  8
MOJI
 10
3322.5108894851501
 20
2427.8040402555898
 30
0.0
 11
3322.5108894851501
 21
1947.8040403755899
 31
0.0
  0
LINE
  5
DA42
  8
MOJI
 10
2910.3431438888788
 20
2427.8040402555898
 30
0.0
 11
2910.343143888877
 21
1947.8040403755899
 31
0.0
  0
LINE
  5
DA43
  8
MOJI
 10
2814.343143912879
 20
2427.8040402555898
 30
0.0
 11
2814.3431439128781
 21
1947.8040403755899
 31
0.0
  0
LINE
  5
DA44
  8
MOJI
 10
2539.8840360922268
 20
2427.8040402555898
 30
0.0
 11
2539.8840360922259
 21
1947.8040403755899
 31
0.0
  0
TEXT
  5
DA4B
  8
MOJI
 10
2619.7858805573842
 20
2293.204040285591
 30
0.0
 40
30.0
  1
キャップ
 41
0.8
  7
EXT08
 72
     4
 11
2675.6144519859549
 21
2307.8040402855918
 31
0.0
  0
TEXT
  5
DA58
  8
MOJI
 10
2556.4144519859551
 20
2196.8040403095938
 30
0.0
 40
30.0
  1
弾性サイン板（大）
 41
0.8
  7
EXT08
 72
     4
 11
2675.6144519859549
 21
2211.8040403095938
 31
0.0
  0
TEXT
  5
DA5E
  8
MOJI
 10
2934.3431438828802
 20
2292.8040402855918
 30
0.0
 40
30.0
  1
ポリエチレン樹脂
 41
0.8
  7
EXT08
 11
2934.3431438828802
 21
2307.8040402855918
 31
0.0
 73
     2
  0
TEXT
  5
DA60
  8
MOJI
 10
2934.3431438828802
 20
2196.8040403095938
 30
0.0
 40
30.0
  1
CRゴム
 41
0.8
  7
EXT08
 11
2934.3431438828802
 21
2211.8040403095938
 31
0.0
 73
     2
  0
TEXT
  5
DA67
  8
MOJI
 10
2852.6288581865952
 20
2196.8040403095938
 30
0.0
 40
30.0
  1
1
 41
0.8
  7
EXT08
 72
     4
 11
2862.3431439008809
 21
2211.8040403095938
 31
0.0
  0
TEXT
  5
DA6A
  8
MOJI
 10
2852.6288581865952
 20
2292.8040402855918
 30
0.0
 40
30.0
  1
1
 41
0.8
  7
EXT08
 72
     4
 11
2862.3431439008809
 21
2307.8040402855918
 31
0.0
  0
LINE
  5
DA6B
  8
MOJI
 10
3663.0844272244772
 20
2427.8040402555898
 30
0.0
 11
3663.0844272244781
 21
1947.8040403755899
 31
0.0
  0
TEXT
  5
DA6C
  8
MOJI
 10
3459.9976583548132
 20
2388.8040402615889
 30
0.0
 40
30.0
  1
備 考
 41
0.8
  7
EXT08
 72
     4
 11
3492.7976583548129
 21
2403.8040402615902
 31
0.0
  0
TEXT
  5
12885
  8
MOJI
 10
3459.9976583548132
 20
2340.804040273591
 30
0.0
 40
30.0
  1
茶 色
 41
0.8
  7
EXT08
 72
     4
 11
3492.7976583548129
 21
2355.804040273591
 31
0.0
  0
TEXT
  5
12886
  8
MOJI
 10
2606.8144519859552
 20
2340.804040273591
 30
0.0
 40
30.0
  1
支　　　柱
 41
0.8
  7
EXT08
 72
     4
 11
2675.6144519859549
 21
2355.804040273591
 31
0.0
  0
TEXT
  5
12887
  8
MOJI
 10
2917.6675642437458
 20
2340.804040273591
 30
0.0
 40
30.0
  1
ポリエチレン樹脂＋ガラス繊維
 41
0.8
  7
EXT08
 11
2917.6675642437458
 21
2355.804040273591
 31
0.0
 73
     2
  0
TEXT
  5
12888
  8
MOJI
 10
2852.6288581865952
 20
2340.804040273591
 30
0.0
 40
30.0
  1
1
 41
0.8
  7
EXT08
 72
     4
 11
2862.3431439008809
 21
2355.804040273591
 31
0.0
  0
TEXT
  5
12889
  8
MOJI
 10
2606.8144519859552
 20
2244.804040297593
 30
0.0
 40
30.0
  1
反　射　材
 41
0.8
  7
EXT08
 72
     4
 11
2675.6144519859549
 21
2259.804040297593
 31
0.0
  0
TEXT
  5
1288A
  8
MOJI
 10
2934.3431438828802
 20
2244.804040297593
 30
0.0
 40
30.0
  1
カプセルレンズ型反射シート
 41
0.8
  7
EXT08
 11
2934.3431438828802
 21
2259.804040297593
 31
0.0
 73
     2
  0
TEXT
  5
1288B
  8
MOJI
 10
2852.6288581865952
 20
2244.804040297593
 30
0.0
 40
30.0
  1
1
 41
0.8
  7
EXT08
 72
     4
 11
2862.3431439008809
 21
2259.804040297593
 31
0.0
  0
TEXT
  5
1288C
  8
MOJI
 10
3458.3976583548128
 20
2244.804040297593
 30
0.0
 40
30.0
  1
白 色
 41
0.8
  7
EXT08
 72
     4
 11
3492.7976583548129
 21
2259.804040297593
 31
0.0
  0
TEXT
  5
1288D
  8
MOJI
 10
2607.6144519859549
 20
2050.2813992303809
 30
0.0
 40
30.0
  1
親子バンド
 41
0.8
  7
EXT08
 72
     4
 11
2675.6144519859549
 21
2065.2813992303809
 31
0.0
  0
TEXT
  5
1288F
  8
MOJI
 10
2834.9145724723089
 20
2054.1647224439621
 30
0.0
 40
30.0
  1
(2)
 41
0.8
  7
EXT08
 72
     4
 11
2862.3431439008809
 21
2067.0218653011038
 31
0.0
  0
TEXT
  5
12894
  8
MOJI
 10
2834.9145724723089
 20
2006.9468975004499
 30
0.0
 40
30.0
  1
(8)
 41
0.8
  7
EXT08
 72
     4
 11
2862.3431439008809
 21
2019.8040403575931
 31
0.0
  0
TEXT
  5
12897
  8
MOJI
 10
3366.3976583548142
 20
2052.8040403455921
 30
0.0
 40
30.0
  1
静電粉体塗装　茶色
 41
0.8
  7
EXT08
 72
     4
 11
3492.7976583548138
 21
2067.8040403455921
 31
0.0
  0
TEXT
  5
13DD8
  8
MOJI
 10
3459.9976583548132
 20
2292.8040402855931
 30
0.0
 40
30.0
  1
茶 色
 41
0.8
  7
EXT08
 72
     4
 11
3492.7976583548129
 21
2307.8040402855931
 31
0.0
  0
TEXT
  5
178E9
  8
INFORMATION
 10
1.0
 20
1.0
 30
0.0
 40
0.8
  1
VERSION=3.0
  0
TEXT
  5
17F98
  8
MOJI2
 10
467.71344309199822
 20
559.99942796608775
 30
0.0
 40
40.0
  1
設置図 S=1/10
 41
0.8
  7
EXT08
 72
     1
 11
630.15153833009344
 21
559.99942796608775
 31
0.0
 73
     1
  0
LINE
  5
17F99
  8
MOJI2
 10
452.47333899584191
 20
544.99942796608775
 30
0.0
 11
807.8257199482232
 21
544.99942796608775
 31
0.0
  0
CIRCLE
  5
17FF8
  8
SJC
 10
636.43142073162551
 20
2559.6175863355311
 30
0.0
 40
43.75
  0
LINE
  5
182DA
  8
CENTER
 10
636.43142073162551
 20
2498.5727813532981
 30
0.0
 11
636.43142073162551
 21
2615.3675863355302
 31
0.0
  0
LINE
  5
182DB
  8
SJC
 10
635.43142073162562
 20
2507.117586334788
 30
0.0
 11
635.43142073162562
 21
2515.8790164000602
 31
0.0
  0
LINE
  5
182DC
  8
SJC
 10
637.43142073162562
 20
2507.117586334788
 30
0.0
 11
637.43142073162562
 21
2515.8790164000602
 31
0.0
  0
LINE
  5
182E0
  8
CENTER
 10
692.18142073162335
 20
2559.6175863355311
 30
0.0
 11
580.68142073162608
 21
2559.6175863355311
 31
0.0
  0
LINE
  5
182E1
  8
SJC
 10
556.43142073162562
 20
2509.1175863347871
 30
0.0
 11
556.43142073162562
 21
2511.1175863347862
 31
0.0
  0
ARC
  5
182E2
  8
SJC
 10
558.43142073162517
 20
2509.1175863347871
 30
0.0
 40
2.0
 50
180.0
 51
270.0
  0
ARC
  5
182E3
  8
SJC
 10
558.43142073162608
 20
2511.1175863347862
 30
0.0
 40
2.0
 50
90.0
 51
180.0
  0
LINE
  5
182E4
  8
SJC
 10
558.68142073162642
 20
2513.1175863347862
 30
0.0
 11
558.43142073162653
 21
2513.1175863347871
 31
0.0
  0
ARC
  5
182E5
  8
SJC
 10
714.43142073162505
 20
2511.1175863347871
 30
0.0
 40
2.0
 50
0.0
 51
90.0
  0
LINE
  5
182E6
  8
SJC
 10
714.43142073162653
 20
2507.117586334788
 30
0.0
 11
558.43142073162562
 21
2507.1175863347871
 31
0.0
  0
ARC
  5
182E7
  8
SJC
 10
714.43142073162596
 20
2509.117586334788
 30
0.0
 40
2.0
 50
270.0
 51
0.0
  0
LINE
  5
182E9
  8
SJC
 10
716.43142073162653
 20
2509.117586334788
 30
0.0
 11
716.4314207316246
 21
2511.1175863347889
 31
0.0
  0
LINE
  5
182EA
  8
SJC
 10
585.68142073162517
 20
2567.6175863355252
 30
0.0
 11
585.68142073162778
 21
2516.1175863347871
 31
0.0
  0
LINE
  5
182EB
  8
SJC
 10
687.18142073162335
 20
2567.6175863355261
 30
0.0
 11
687.1814207316238
 21
2516.1175863347871
 31
0.0
  0
ARC
  5
182EC
  8
SJC
 10
690.18142073162369
 20
2516.1175863347871
 30
0.0
 40
3.0
 50
180.0
 51
270.0
  0
LINE
  5
182ED
  8
SJC
 10
690.18142073162369
 20
2513.1175863347871
 30
0.0
 11
714.43142073162562
 21
2513.1175863347871
 31
0.0
  0
LINE
  5
182EE
  8
SJC
 10
592.68142073162505
 20
2569.6175863355261
 30
0.0
 11
592.68142073162505
 21
2559.6175863355302
 31
0.0
  0
LINE
  5
182EF
  8
SJC
 10
680.1814207316238
 20
2569.6175863355261
 30
0.0
 11
680.1814207316238
 21
2559.6175863355311
 31
0.0
  0
LINE
  5
182F8
  8
SJC
 10
685.18142073162335
 20
2569.6175863355261
 30
0.0
 11
680.1814207316238
 21
2569.6175863355261
 31
0.0
  0
ARC
  5
182F9
  8
SJC
 10
685.1814207316238
 20
2567.6175863355261
 30
0.0
 40
2.0
 50
0.0
 51
90.0
  0
LINE
  5
182FA
  8
SJC
 10
592.68142073162505
 20
2569.6175863355261
 30
0.0
 11
587.68142073162505
 21
2569.6175863355252
 31
0.0
  0
ARC
  5
182FB
  8
SJC
 10
587.68142073162562
 20
2567.6175863355252
 30
0.0
 40
2.0
 50
90.0
 51
180.0
  0
ARC
  5
182FC
  8
SJC
 10
582.68142073162835
 20
2516.1175863347871
 30
0.0
 40
3.0
 50
270.0
 51
0.0
  0
LINE
  5
182FD
  8
SJC
 10
582.68142073162835
 20
2513.1175863347862
 30
0.0
 11
558.68142073162642
 21
2513.1175863347862
 31
0.0
  0
ARC
  5
18302
  8
SJC
 10
636.43142073162551
 20
2559.6175863355311
 30
0.0
 40
43.750000000000227
 50
180.0
 51
0.0
  0
LINE
  5
18601
  8
CENTER
 10
1416.8632148796351
 20
2329.9276056291542
 30
0.0
 11
1416.8632148796351
 21
654.67177994880603
 31
0.0
  0
LINE
  5
18608
  8
SJC
 10
1460.6132148796351
 20
2279.927605629161
 30
0.0
 11
1460.6132148796351
 21
1524.6479669364151
 31
0.0
1001
ACAD
1000
ASC_BOUNDS
1002
{
1070
    19
1005
0
1002
}
  0
LINE
  5
18609
  8
SJC
 10
1373.1132148796351
 20
1739.9276056291219
 30
0.0
 11
1373.1132148796351
 21
1524.6479669364151
 31
0.0
1001
ACAD
1000
ASC_BOUNDS
1002
{
1070
    19
1005
0
1002
}
  0
LINE
  5
1860A
  8
SJC
 10
1623.291202187359
 20
749.92760562915998
 30
0.0
 11
1793.3836073642069
 21
749.92760562915998
 31
0.0
1001
ACAD
1000
ASC_BOUNDS
1002
{
1070
    19
1005
0
1002
}
  0
LINE
  5
1860D
  8
SJC
 10
1189.329179181359
 20
749.92760562915998
 30
0.0
 11
1508.9912021873649
 21
749.92760562916033
 31
0.0
1001
ACAD
1000
ASC_BOUNDS
1002
{
1070
    19
1005
0
1002
}
  0
LINE
  5
1860E
  8
SJC
 10
1373.113214879633
 20
2289.9276056291592
 30
0.0
 11
1460.613214879633
 21
2289.9276056291592
 31
0.0
  0
ARC
  5
18618
  8
SJC
 10
1416.8632148796351
 20
2252.0760431291401
 30
0.0
 40
57.851562500013678
 50
40.865657358811269
 51
139.13434264118931
  0
INSERT
  5
18619
  8
SJC
  2
GL
 10
1709.780403157758
 20
749.64796701141222
 30
0.0
 41
10.0
 42
10.0
 43
10.0
  0
LINE
  5
18648
  8
SJC
 10
1373.1132148796351
 20
2279.927605629161
 30
0.0
 11
1373.1132148796351
 21
2249.9276056291601
 31
0.0
  0
LINE
  5
1864B
  8
HATCH
 10
1373.1132148796351
 20
2289.927605629161
 30
0.0
 11
1460.6132148796339
 21
2289.927605629161
 31
0.0
1001
ACAD
1000
ASC_BOUNDS
1002
{
1070
    19
1005
1C315
1002
}
  0
LINE
  5
1864C
  8
HATCH
 10
1460.6132148796339
 20
2289.927605629161
 30
0.0
 11
1460.6132148796351
 21
2249.9276056291601
 31
0.0
1001
ACAD
1000
ASC_BOUNDS
1002
{
1070
    19
1005
1C315
1002
}
  0
LINE
  5
1864D
  8
HATCH
 10
1460.6132148796351
 20
2249.9276056291601
 30
0.0
 11
1373.1132148796351
 21
2249.9276056291601
 31
0.0
1001
ACAD
1000
ASC_BOUNDS
1002
{
1070
    19
1005
1C315
1002
}
  0
LINE
  5
1864E
  8
HATCH
 10
1373.1132148796351
 20
2249.9276056291601
 30
0.0
 11
1373.1132148796339
 21
2289.9276056291601
 31
0.0
1001
ACAD
1000
ASC_BOUNDS
1002
{
1070
    19
1005
1C315
1002
}
  0
LINE
  5
187BB
  8
SJC
 10
1370.363214879799
 20
1827.427605629354
 30
0.0
 11
1370.363214879799
 21
1757.427605629339
 31
0.0
  0
LINE
  5
187BC
  8
SJC
 10
1370.363214879688
 20
2244.9276056291678
 30
0.0
 11
1370.363214879688
 21
2174.9276056291542
 31
0.0
  0
LINE
  5
187BD
  8
SJC
 10
1368.3632148796321
 20
2249.9276056291619
 30
0.0
 11
1367.3632148796321
 21
2249.9276056291619
 31
0.0
  0
ARC
  5
187BE
  8
SJC
 10
1368.363214879633
 20
2247.9276056291628
 30
0.0
 40
2.0
 50
0.0000000000260551
 51
90.0
  0
ARC
  5
187BF
  8
SJC
 10
1366.363214879633
 20
2247.927605629161
 30
0.0
 40
2.0
 50
90.0
 51
180.00000000001299
  0
LINE
  5
187C1
  8
SJC
 10
1370.363214879633
 20
2247.9276056291628
 30
0.0
 11
1370.3632148797681
 21
1741.9276056291201
 31
0.0
  0
LINE
  5
187C3
  8
SJC
 10
1426.8632148803749
 20
2244.927605629141
 30
0.0
 11
1426.863214880369
 21
2227.8398778706801
 31
0.0
  0
ARC
  5
187C4
  8
SJC
 10
1421.8632148803749
 20
2244.9276056291419
 30
0.0
 40
5.0
 50
359.99999999997402
 51
90.0
  0
LINE
  5
187C5
  8
SJC
 10
1421.863214880377
 20
2249.9276056291451
 30
0.0
 11
1366.3632148796339
 21
2249.9276056291619
 31
0.0
  0
LINE
  5
187C6
  8
CENTER
 10
1416.863214880374
 20
2235.4276056291428
 30
0.0
 11
1416.863214880372
 21
2226.4276056291428
 31
0.0
  0
LINE
  5
187C7
  8
CENTER
 10
1421.3632148803731
 20
2230.9276056291419
 30
0.0
 11
1412.3632148803731
 21
2230.9276056291451
 31
0.0
  0
CIRCLE
  5
187C8
  8
SJC
 10
1416.8632148803731
 20
2230.9276056291442
 30
0.0
 40
2.0
  0
CIRCLE
  5
187C9
  8
SJC
 10
1416.8632148803731
 20
2230.9276056291442
 30
0.0
 40
4.5
  0
LINE
  5
187CA
  8
SJC
 10
1370.3632148797999
 20
1757.4276056291151
 30
0.0
 11
1370.3632148797999
 21
1827.4276056291289
 31
0.0
  0
LINE
  5
187CE
  8
SJC
 10
1423.065784744751
 20
2222.9866494893581
 30
0.0
 11
1370.3632148796439
 21
2209.9276056291619
 31
0.0
  0
ARC
  5
187CF
  8
SJC
 10
1421.863214880369
 20
2227.8398778706819
 30
0.0
 40
5.0
 50
283.9168774331053
 51
359.99999999997402
  0
ARC
  5
187D1
  8
SJC
 10
1368.3632148797451
 20
1741.9276056291201
 30
0.0
 40
2.0
 50
270.0
 51
359.99999999997402
  0
ARC
  5
187D2
  8
SJC
 10
1366.3632148796351
 20
1741.927605629121
 30
0.0
 40
2.0
 50
179.99999999998701
 51
270.0
  0
LINE
  5
187D4
  8
SJC
 10
1426.863214880487
 20
1744.9276056291419
 30
0.0
 11
1426.8632148804811
 21
1762.0153333876019
 31
0.0
  0
ARC
  5
187D5
  8
SJC
 10
1421.863214880487
 20
1744.9276056291401
 30
0.0
 40
5.0
 50
270.0
 51
0.0000000000260551
  0
LINE
  5
187D6
  8
SJC
 10
1421.8632148804891
 20
1739.9276056291369
 30
0.0
 11
1366.363214879636
 21
1739.927605629121
 31
0.0
  0
LINE
  5
187D7
  8
CENTER
 10
1416.8632148804861
 20
1754.427605629139
 30
0.0
 11
1416.8632148804829
 21
1763.427605629139
 31
0.0
  0
LINE
  5
187D8
  8
CENTER
 10
1421.363214880485
 20
1758.9276056291401
 30
0.0
 11
1412.363214880485
 21
1758.9276056291369
 31
0.0
  0
CIRCLE
  5
187D9
  8
SJC
 10
1416.863214880485
 20
1758.927605629139
 30
0.0
 40
2.0
  0
CIRCLE
  5
187DA
  8
SJC
 10
1416.863214880485
 20
1758.927605629139
 30
0.0
 40
4.5
  0
LINE
  5
187DD
  8
SJC
 10
1423.0657847448631
 20
1766.868561768923
 30
0.0
 11
1370.363214879756
 21
1779.9276056291201
 31
0.0
  0
ARC
  5
187DE
  8
SJC
 10
1421.8632148804811
 20
1762.0153333876001
 30
0.0
 40
5.0
 50
0.0000000000260551
 51
76.083122566894787
  0
TEXT
  5
18F0E
  8
MOJI2
 10
2403.1977054387039
 20
83.794885679513754
 30
0.0
 40
40.0
  1
標示部詳細 S=1/5
 41
0.8
  7
EXT08
 72
     1
 11
2588.7977054387038
 21
83.794885679513754
 31
0.0
 73
     1
  0
LINE
  5
18F0F
  8
MOJI2
 10
2399.8594544957082
 20
68.794885679513754
 30
0.0
 11
2799.6263558924552
 21
68.794885679513754
 31
0.0
  0
TEXT
  5
191EE
  8
MOJI
 10
3459.9976583548141
 20
2196.8040403095938
 30
0.0
 40
30.0
  1
黒 色
 41
0.8
  7
EXT08
 72
     4
 11
3492.7976583548138
 21
2211.8040403095929
 31
0.0
  0
TEXT
  5
191F0
  8
MOJI
 10
2578.8144519859552
 20
2005.24343790277
 30
0.0
 40
30.0
  1
ボルト・ナット
 41
0.8
  7
EXT08
 72
     4
 11
2675.6144519859549
 21
2019.2434379027691
 31
0.0
  0
LINE
  5
1943E
  8
SJC
 10
695.93142073162835
 20
1460.6479670114161
 30
0.0
 11
680.98142073162569
 21
1460.6479670114161
 31
0.0
  0
LINE
  5
1943F
  8
SJC
 10
695.93142073162835
 20
1449.647967011412
 30
0.0
 11
680.98142073162569
 21
1449.647967011412
 31
0.0
  0
LINE
  5
19440
  8
SJC
 10
693.58142073162253
 20
749.64796701141222
 30
0.0
 11
900.75932250716232
 21
749.64796701141222
 31
0.0
  0
ARC
  5
19441
  8
SJC2
 10
665.00642073162169
 20
632.76635431701561
 30
0.0
 40
59.251192688568317
 50
61.16631571051208
 51
118.83368428948791
  0
ARC
  5
19442
  8
SJC2
 10
665.00642073162169
 20
736.57720558060373
 30
0.0
 40
59.251192688568317
 50
241.16631571051209
 51
298.83368428948791
  0
ARC
  5
19443
  8
SJC2
 10
607.85642073162035
 20
736.57720558060373
 30
0.0
 40
59.251192688568317
 50
241.16631571051209
 51
298.83368428948791
  0
LINE
  5
19444
  8
SJC
 10
579.28142073162871
 20
1449.647967011412
 30
0.0
 11
579.28142073162871
 21
1434.9276056291601
 31
0.0
  0
LINE
  5
19445
  8
SJC
 10
693.58142073162253
 20
1384.647967076414
 30
0.0
 11
693.58142073162253
 21
1394.9276056291601
 31
0.0
  0
LINE
  5
19446
  8
SJC
 10
372.10351895608892
 20
749.64796701141222
 30
0.0
 11
579.28142073162871
 21
749.64796701141222
 31
0.0
  0
LINE
  5
19447
  8
SJC
 10
693.58142073162253
 20
1449.647967011412
 30
0.0
 11
693.58142073162253
 21
1435.0093832900041
 31
0.0
  0
ARC
  5
19448
  8
SJC2
 10
723.58142070162728
 20
1349.64796711142
 30
0.0
 40
14.999999985000001
 50
294.5420000000035
 51
65.459690177197544
  0
LINE
  5
19449
  8
SJC2
 10
743.58142068162749
 20
1524.6479669364151
 30
0.0
 11
749.81142067539349
 21
1524.6479669364151
 31
0.0
  0
LINE
  5
1944A
  8
SJC2
 10
743.58142068162749
 20
1174.6479672864159
 30
0.0
 11
749.81142067539349
 21
1174.6479672864159
 31
0.0
  0
LINE
  5
1944B
  8
SJC2
 10
729.81142069539328
 20
1384.647967076414
 30
0.0
 11
729.81142069539328
 21
1314.6479671464169
 31
0.0
  0
LINE
  5
1944C
  8
SJC2
 10
773.58142065162326
 20
1214.6479672464161
 30
0.0
 11
743.58142068162749
 21
1174.6479672864159
 31
0.0
  0
LINE
  5
1944D
  8
SJC2
 10
773.58142065162326
 20
1264.647967196421
 30
0.0
 11
773.58142065162326
 21
1214.6479672464161
 31
0.0
  0
LINE
  5
1944E
  8
SJC2
 10
723.58142070162728
 20
1314.6479671464169
 30
0.0
 11
773.58142065162326
 21
1264.647967196421
 31
0.0
  0
LINE
  5
1944F
  8
SJC2
 10
779.81142064539824
 20
1214.6479672464161
 30
0.0
 11
749.81142067539349
 21
1174.6479672864159
 31
0.0
  0
LINE
  5
19450
  8
SJC2
 10
779.81142064539824
 20
1264.647967196421
 30
0.0
 11
779.81142064539824
 21
1214.6479672464161
 31
0.0
  0
LINE
  5
19451
  8
SJC2
 10
729.81142069539328
 20
1314.6479671464169
 30
0.0
 11
779.81142064539824
 21
1264.647967196421
 31
0.0
  0
LINE
  5
19452
  8
SJC2
 10
773.58142065162326
 20
1484.6479669764151
 30
0.0
 11
743.58142068162749
 21
1524.6479669364151
 31
0.0
  0
LINE
  5
19453
  8
SJC2
 10
773.58142065162326
 20
1434.6479670264191
 30
0.0
 11
773.58142065162326
 21
1484.6479669764151
 31
0.0
  0
LINE
  5
19454
  8
SJC2
 10
723.58142070162728
 20
1384.647967076414
 30
0.0
 11
773.58142065162326
 21
1434.6479670264191
 31
0.0
  0
LINE
  5
19455
  8
SJC2
 10
779.81142064539824
 20
1484.6479669764151
 30
0.0
 11
749.81142067539349
 21
1524.6479669364151
 31
0.0
  0
LINE
  5
19456
  8
SJC2
 10
779.81142064539824
 20
1434.6479670264191
 30
0.0
 11
779.81142064539824
 21
1484.6479669764151
 31
0.0
  0
LINE
  5
19457
  8
SJC2
 10
729.81142069539328
 20
1384.647967076414
 30
0.0
 11
779.81142064539824
 21
1434.6479670264191
 31
0.0
  0
LINE
  5
19458
  8
SJC2
 10
723.58142070162728
 20
1314.6479671464169
 30
0.0
 11
680.98142073162569
 21
1314.6479671464169
 31
0.0
  0
LINE
  5
19459
  8
SJC2
 10
723.58142070162728
 20
1384.647967076414
 30
0.0
 11
723.58142070162728
 21
1314.6479671464169
 31
0.0
  0
LINE
  5
1945A
  8
SJC2
 10
680.98142073162569
 20
1384.647967076414
 30
0.0
 11
723.58142070162728
 21
1384.647967076414
 31
0.0
  0
LINE
  5
1945B
  8
SJC2
 10
719.58142070162194
 20
1360.7770587683231
 30
0.0
 11
719.58142070162194
 21
1338.5188755245119
 31
0.0
  0
LINE
  5
1945C
  8
SJC2
 10
711.58142070162
 20
1359.447967146413
 30
0.0
 11
711.58142070162
 21
1339.847967146422
 31
0.0
  0
LINE
  5
1945D
  8
SJC2
 10
703.58142070162728
 20
1354.6479671464169
 30
0.0
 11
703.58142070162728
 21
1344.6479671464169
 31
0.0
  0
LINE
  5
1945E
  8
SJC2
 10
719.58142070162194
 20
1354.6479671464169
 30
0.0
 11
703.58142070162728
 21
1354.6479671464169
 31
0.0
  0
LINE
  5
1945F
  8
SJC2
 10
719.58142070162194
 20
1344.6479671464169
 30
0.0
 11
703.58142070162728
 21
1344.6479671464169
 31
0.0
  0
LINE
  5
19460
  8
SJC2
 10
719.58142070162194
 20
1359.447967146413
 30
0.0
 11
711.58142070162
 21
1359.447967146413
 31
0.0
  0
LINE
  5
19461
  8
SJC2
 10
719.58142070162194
 20
1339.847967146422
 30
0.0
 11
711.58142070162
 21
1339.847967146422
 31
0.0
  0
LINE
  5
19462
  8
SJC2
 10
723.58142070162728
 20
1360.7770587683231
 30
0.0
 11
719.58142070162194
 21
1360.7770587683231
 31
0.0
  0
LINE
  5
19463
  8
SJC2
 10
723.58142070162728
 20
1338.5188755245119
 30
0.0
 11
719.58142070162194
 21
1338.5188755245119
 31
0.0
  0
LINE
  5
19464
  8
SJC2
 10
579.28142073162871
 20
1338.5188755245119
 30
0.0
 11
575.28142073162314
 21
1338.5188755245119
 31
0.0
  0
LINE
  5
19465
  8
SJC2
 10
579.28142073162871
 20
1360.7770587683231
 30
0.0
 11
575.28142073162314
 21
1360.7770587683231
 31
0.0
  0
LINE
  5
19466
  8
SJC2
 10
575.28142073162314
 20
1339.847967146422
 30
0.0
 11
567.28142073162144
 21
1339.847967146422
 31
0.0
  0
LINE
  5
19467
  8
SJC2
 10
575.28142073162314
 20
1359.447967146413
 30
0.0
 11
567.28142073162144
 21
1359.447967146413
 31
0.0
  0
LINE
  5
19468
  8
SJC2
 10
575.28142073162314
 20
1344.6479671464169
 30
0.0
 11
559.28142073161951
 21
1344.6479671464169
 31
0.0
  0
LINE
  5
19469
  8
SJC2
 10
575.28142073162314
 20
1354.6479671464169
 30
0.0
 11
559.28142073161951
 21
1354.6479671464169
 31
0.0
  0
LINE
  5
1946A
  8
SJC2
 10
559.28142073161951
 20
1354.6479671464169
 30
0.0
 11
559.28142073161951
 21
1344.6479671464169
 31
0.0
  0
LINE
  5
1946B
  8
SJC2
 10
567.28142073162144
 20
1359.447967146413
 30
0.0
 11
567.28142073162144
 21
1339.847967146422
 31
0.0
  0
LINE
  5
1946C
  8
SJC2
 10
575.28142073162314
 20
1360.7770587683231
 30
0.0
 11
575.28142073162314
 21
1338.5188755245119
 31
0.0
  0
LINE
  5
1946D
  8
SJC
 10
695.93142073162835
 20
1460.6479670114161
 30
0.0
 11
695.93142073162835
 21
1449.647967011412
 31
0.0
  0
LINE
  5
1946E
  8
SJC
 10
576.93142073162278
 20
1460.6479670114161
 30
0.0
 11
576.93142073162278
 21
1449.647967011412
 31
0.0
  0
ARC
  5
1946F
  8
SJC
 10
636.43142073162835
 20
1321.657636105514
 30
0.0
 40
151.190482786888
 50
66.82484629025231
 51
72.8627651820062
  0
LINE
  5
19470
  8
CENTER
 10
636.43142073162551
 20
2329.6438565165381
 30
0.0
 11
636.43142073162551
 21
654.67177994880603
 31
0.0
  0
LINE
  5
19473
  8
SJC
 10
591.88142073162578
 20
1739.647967011412
 30
0.0
 11
591.88142073162612
 21
1434.9276056291601
 31
0.0
1001
ACAD
1000
ASC_BOUNDS
1002
{
1070
    19
1002
}
  0
LINE
  5
19474
  8
SJC
 10
680.98142073162546
 20
1739.647967011412
 30
0.0
 11
680.98142073162546
 21
1434.9276056291601
 31
0.0
1001
ACAD
1000
ASC_BOUNDS
1002
{
1070
    19
1002
}
  0
LINE
  5
19475
  8
SJC
 10
591.88142073162544
 20
749.64796701141222
 30
0.0
 11
680.98142073162626
 21
749.64796701141222
 31
0.0
1001
ACAD
1000
ASC_BOUNDS
1002
{
1070
    19
1005
0
1002
}
  0
LINE
  5
19476
  8
SJC
 10
693.58142073162253
 20
1394.9276056291601
 30
0.0
 11
693.58142073162253
 21
1384.647967076414
 31
0.0
  0
LINE
  5
19477
  8
SJC
 10
579.28142073162815
 20
1394.9276056291601
 30
0.0
 11
579.28142073162871
 21
834.92760562916033
 31
0.0
  0
LINE
  5
19478
  8
SJC
 10
680.98142073162569
 20
794.92760562916021
 30
0.0
 11
680.98142073162569
 21
749.64796701141222
 31
0.0
1001
ACAD
1000
ASC_BOUNDS
1002
{
1070
    19
1002
}
  0
LINE
  5
19479
  8
SJC
 10
591.88142073162521
 20
794.92760562916021
 30
0.0
 11
591.88142073162544
 21
749.64796701141222
 31
0.0
1001
ACAD
1000
ASC_BOUNDS
1002
{
1070
    19
1002
}
  0
ARC
  5
1947A
  8
SJC
 10
636.43142073162835
 20
1321.657636105514
 30
0.0
 40
151.190482786888
 50
107.1372348179938
 51
113.1751537097477
  0
LINE
  5
1947B
  8
SJC
 10
591.88142073162578
 20
1460.6479670114161
 30
0.0
 11
576.93142073162278
 21
1460.6479670114161
 31
0.0
  0
LINE
  5
1947C
  8
SJC
 10
591.88142073162578
 20
1449.647967011412
 30
0.0
 11
576.93142073162278
 21
1449.647967011412
 31
0.0
  0
INSERT
  5
1947D
  8
SJC
  2
GL
 10
774.53938989140352
 20
749.36832839366434
 30
0.0
 41
10.0
 42
10.0
 43
10.0
  0
LINE
  5
1947E
  8
SJC
 10
579.28142073162815
 20
794.92760562915998
 30
0.0
 11
579.28142073162815
 21
684.6717799488024
 31
0.0
  0
LINE
  5
1947F
  8
SJC
 10
693.58142073162253
 20
794.92760562915998
 30
0.0
 11
693.58142073162253
 21
684.67177994880285
 31
0.0
  0
LINE
  5
19481
  8
SJC
 10
680.98142073162569
 20
1394.9276056291601
 30
0.0
 11
680.98142073162535
 21
834.92760562915998
 31
0.0
1001
ACAD
1000
ASC_BOUNDS
1002
{
1070
    19
1002
}
  0
LINE
  5
19482
  8
SJC
 10
591.88142073162544
 20
1394.9276056291601
 30
0.0
 11
591.88142073162646
 21
834.92760562916033
 31
0.0
1001
ACAD
1000
ASC_BOUNDS
1002
{
1070
    19
1002
}
  0
LINE
  5
19486
  8
SJC
 10
693.58142073162253
 20
1394.9276056291601
 30
0.0
 11
693.58142073162253
 21
1384.647967076414
 31
0.0
  0
LINE
  5
19487
  8
SJC
 10
693.58142073162253
 20
1314.6479671464169
 30
0.0
 11
693.58142073162253
 21
834.92760562916021
 31
0.0
  0
ARC
  5
19494
  8
SJC2
 10
640.36543640276113
 20
1414.9276056291601
 30
0.0
 40
7.2469843176835802
 50
290.7368345106234
 51
69.263165489376618
  0
LINE
  5
19495
  8
SJC2
 10
640.63142072512574
 20
1410.9276056331601
 30
0.0
 11
632.23142073812539
 21
1410.9276056331601
 31
0.0
  0
LINE
  5
19496
  8
SJC2
 10
632.23142073812539
 20
1418.9276056251599
 30
0.0
 11
640.63142072512574
 21
1418.9276056251599
 31
0.0
  0
LINE
  5
19497
  8
CENTER
 10
653.80941051708658
 20
1414.9276056291601
 30
0.0
 11
610.34000829165495
 21
1414.9276056291601
 31
0.0
  0
LINE
  5
19498
  8
SJC2
 10
629.93142073812567
 20
1421.7051056223829
 30
0.0
 11
625.25042074280691
 21
1421.7051056223829
 31
0.0
  0
LINE
  5
19499
  8
SJC2
 10
625.25042074280691
 20
1421.7051056223829
 30
0.0
 11
625.25042074280691
 21
1408.1501056359371
 31
0.0
  0
LINE
  5
1949A
  8
SJC2
 10
625.25042074280691
 20
1408.1501056359371
 30
0.0
 11
629.93142073812567
 21
1408.1501056359371
 31
0.0
  0
LINE
  5
1949B
  8
SJC2
 10
629.93142073812567
 20
1418.9276056251599
 30
0.0
 11
614.62642075343035
 21
1418.9276056251599
 31
0.0
  0
LINE
  5
1949C
  8
SJC2
 10
614.62642075343035
 20
1418.9276056251599
 30
0.0
 11
614.62642075343035
 21
1410.9276056331601
 31
0.0
  0
LINE
  5
1949D
  8
SJC2
 10
614.62642075343035
 20
1410.9276056331601
 30
0.0
 11
629.93142073812567
 21
1410.9276056331601
 31
0.0
  0
LINE
  5
1949E
  8
SJC2
 10
632.23142073812539
 20
1394.9276056291601
 30
0.0
 11
576.98142073162853
 21
1394.9276056291601
 31
0.0
  0
LINE
  5
1949F
  8
SJC2
 10
632.23142073812539
 20
1434.9276056291601
 30
0.0
 11
576.98142073162853
 21
1434.9276056291601
 31
0.0
  0
LINE
  5
194A0
  8
SJC2
 10
589.58142073162196
 20
1394.9276056291601
 30
0.0
 11
589.58142073162196
 21
1434.9276056291601
 31
0.0
  0
LINE
  5
194A1
  8
SJC2
 10
576.98142073162853
 20
1434.9276056291601
 30
0.0
 11
576.98142073162853
 21
1394.9276056291601
 31
0.0
  0
LINE
  5
194A2
  8
SJC2
 10
629.93142073812567
 20
1434.9276056291601
 30
0.0
 11
629.93142073812567
 21
1394.9276056291601
 31
0.0
  0
LINE
  5
194A3
  8
SJC2
 10
632.23142073812539
 20
1434.9276056291601
 30
0.0
 11
632.23142073812539
 21
1394.9276056291601
 31
0.0
  0
LINE
  5
194A4
  8
SJC2
 10
642.93142072512546
 20
1434.9276056291601
 30
0.0
 11
642.93142072512546
 21
1394.9276056291601
 31
0.0
  0
LINE
  5
194A5
  8
SJC2
 10
640.63142072512574
 20
1434.9276056291601
 30
0.0
 11
640.63142072512574
 21
1394.9276056291601
 31
0.0
  0
LINE
  5
194A6
  8
SJC2
 10
683.28142073162962
 20
1394.9276056291601
 30
0.0
 11
683.28142073162962
 21
1434.9276056291601
 31
0.0
  0
LINE
  5
194A7
  8
SJC2
 10
695.88142073162271
 20
1434.9276056291601
 30
0.0
 11
695.88142073162271
 21
1394.9276056291601
 31
0.0
  0
LINE
  5
194A8
  8
SJC2
 10
695.88142073162271
 20
1394.9276056291601
 30
0.0
 11
640.63142072512574
 21
1394.9276056291601
 31
0.0
  0
LINE
  5
194A9
  8
SJC2
 10
695.88142073162271
 20
1434.9276056291601
 30
0.0
 11
640.63142072512574
 21
1434.9276056291601
 31
0.0
  0
ARC
  5
194AA
  8
SJC2
 10
640.36543640276113
 20
814.92760562916021
 30
0.0
 40
7.2469843176835802
 50
290.7368345106234
 51
69.263165489376618
  0
LINE
  5
194AB
  8
SJC2
 10
640.63142072512574
 20
810.92760563316006
 30
0.0
 11
632.23142073812539
 21
810.92760563316006
 31
0.0
  0
LINE
  5
194AC
  8
SJC2
 10
632.23142073812539
 20
818.92760562516025
 30
0.0
 11
640.63142072512574
 21
818.92760562516025
 31
0.0
  0
LINE
  5
194AD
  8
CENTER
 10
653.80941051708658
 20
814.92760562916021
 30
0.0
 11
610.34000829165495
 21
814.92760562916021
 31
0.0
  0
LINE
  5
194AE
  8
SJC2
 10
629.93142073812567
 20
821.7051056223828
 30
0.0
 11
625.25042074280691
 21
821.7051056223828
 31
0.0
  0
LINE
  5
194AF
  8
SJC2
 10
625.25042074280691
 20
821.7051056223828
 30
0.0
 11
625.25042074280691
 21
808.15010563593762
 31
0.0
  0
LINE
  5
194B0
  8
SJC2
 10
625.25042074280691
 20
808.15010563593762
 30
0.0
 11
629.93142073812567
 21
808.15010563593762
 31
0.0
  0
LINE
  5
194B1
  8
SJC2
 10
629.93142073812567
 20
818.92760562516025
 30
0.0
 11
614.62642075343035
 21
818.92760562516025
 31
0.0
  0
LINE
  5
194B2
  8
SJC2
 10
614.62642075343035
 20
818.92760562516025
 30
0.0
 11
614.62642075343035
 21
810.92760563316006
 31
0.0
  0
LINE
  5
194B3
  8
SJC2
 10
614.62642075343035
 20
810.92760563316006
 30
0.0
 11
629.93142073812567
 21
810.92760563316006
 31
0.0
  0
LINE
  5
194B4
  8
SJC2
 10
632.23142073812539
 20
794.92760562916021
 30
0.0
 11
576.98142073162853
 21
794.92760562916021
 31
0.0
  0
LINE
  5
194B5
  8
SJC2
 10
632.23142073812539
 20
834.92760562916021
 30
0.0
 11
576.98142073162853
 21
834.92760562916021
 31
0.0
  0
LINE
  5
194B6
  8
SJC2
 10
589.58142073162196
 20
794.92760562916021
 30
0.0
 11
589.58142073162196
 21
834.92760562916021
 31
0.0
  0
LINE
  5
194B7
  8
SJC2
 10
576.98142073162853
 20
834.92760562916021
 30
0.0
 11
576.98142073162853
 21
794.92760562916021
 31
0.0
  0
LINE
  5
194B8
  8
SJC2
 10
629.93142073812567
 20
834.92760562916021
 30
0.0
 11
629.93142073812567
 21
794.92760562916021
 31
0.0
  0
LINE
  5
194B9
  8
SJC2
 10
632.23142073812539
 20
834.92760562916021
 30
0.0
 11
632.23142073812539
 21
794.92760562916021
 31
0.0
  0
LINE
  5
194BA
  8
SJC2
 10
642.93142072512546
 20
834.92760562916021
 30
0.0
 11
642.93142072512546
 21
794.92760562916021
 31
0.0
  0
LINE
  5
194BB
  8
SJC2
 10
640.63142072512574
 20
834.92760562916021
 30
0.0
 11
640.63142072512574
 21
794.92760562916021
 31
0.0
  0
LINE
  5
194BC
  8
SJC2
 10
683.28142073162962
 20
794.92760562916021
 30
0.0
 11
683.28142073162962
 21
834.92760562916021
 31
0.0
  0
LINE
  5
194BD
  8
SJC2
 10
695.88142073162271
 20
834.92760562916021
 30
0.0
 11
695.88142073162271
 21
794.92760562916021
 31
0.0
  0
LINE
  5
194BE
  8
SJC2
 10
695.88142073162271
 20
794.92760562916021
 30
0.0
 11
640.63142072512574
 21
794.92760562916021
 31
0.0
  0
LINE
  5
194BF
  8
SJC2
 10
695.88142073162271
 20
834.92760562916021
 30
0.0
 11
640.63142072512574
 21
834.92760562916021
 31
0.0
  0
LINE
  5
19569
  8
SJC
 10
592.68142073162619
 20
2289.6479670114131
 30
0.0
 11
680.18142073162585
 21
2289.6479670114131
 31
0.0
  0
ARC
  5
1956A
  8
SJC
 10
636.43142073162585
 20
2251.7964045113922
 30
0.0
 40
57.851562500013678
 50
40.865657358811269
 51
139.13434264118931
  0
LINE
  5
19571
  8
SJC
 10
569.23142073162489
 20
2244.6479670114109
 30
0.0
 11
705.23142073162853
 21
2244.6479670114122
 31
0.0
  0
LINE
  5
19572
  8
SJC
 10
592.68142073162574
 20
2289.6479670114131
 30
0.0
 11
592.68142073162574
 21
2249.6479670114122
 31
0.0
  0
LINE
  5
19573
  8
SJC
 10
680.18142073162585
 20
2289.6479670114131
 30
0.0
 11
680.18142073162585
 21
2249.6479670114122
 31
0.0
  0
LINE
  5
19577
  8
HATCH
 10
680.18142073162585
 20
2249.6479670114122
 30
0.0
 11
592.68142073162574
 21
2249.6479670114122
 31
0.0
  0
LINE
  5
1957A
  8
SJC
 10
562.23142073162478
 20
2237.6479670114122
 30
0.0
 11
562.23142073162762
 21
1751.647967011412
 31
0.0
  0
LINE
  5
1957B
  8
SJC
 10
712.23142073162887
 20
2237.6479670114122
 30
0.0
 11
712.23142073162569
 21
1751.647967011412
 31
0.0
  0
LINE
  5
1957D
  8
SJC
 10
557.23142073162489
 20
2237.6479670114122
 30
0.0
 11
557.23142073162683
 21
1751.647967011412
 31
0.0
  0
ARC
  5
1957E
  8
SJC
 10
569.23142073162489
 20
2237.6479670114122
 30
0.0
 40
12.0
 50
90.0
 51
180.0
  0
ARC
  5
1957F
  8
SJC
 10
569.23142073162489
 20
2237.6479670114122
 30
0.0
 40
7.0
 50
90.0
 51
180.0
  0
LINE
  5
19580
  8
SJC
 10
717.23142073162853
 20
2237.6479670114122
 30
0.0
 11
717.23142073162683
 21
1751.647967011412
 31
0.0
  0
ARC
  5
19583
  8
SJC
 10
705.23142073162853
 20
2237.6479670114122
 30
0.0
 40
12.0
 50
0.0
 51
90.0
  0
ARC
  5
19584
  8
SJC
 10
705.23142073162853
 20
2237.6479670114122
 30
0.0
 40
7.0
 50
0.0
 51
90.0
  0
LINE
  5
19587
  8
SJC
 10
705.23142073162853
 20
2249.6479670114122
 30
0.0
 11
569.23142073162489
 21
2249.6479670114122
 31
0.0
  0
DIMENSION
  5
1958B
  8
SUNPOU
  2
*D4
 10
717.23142073162853
 20
2403.6242740015468
 30
0.0
 11
637.23142073162671
 21
2430.6242740015468
 31
0.0
 70
     0
 13
557.23142073162489
 23
2237.6479670114122
 33
0.0
 14
717.23142073162853
 24
2237.6479670114122
 34
0.0
1001
ACAD
1000
DSTYLE
1002
{
1070
   287
1070
     5
1070
    40
1040
10.0
1070
    41
1040
2.0
1070
    42
1040
1.0
1070
    43
1040
6.0
1070
    44
1040
1.0
1070
    73
1070
     0
1070
    74
1070
     0
1070
    77
1070
     1
1070
    78
1070
     8
1070
   140
1040
3.0
1070
   147
1040
1.1999999999999991
1070
   172
1070
     1
1070
   179
1070
     2
1070
   271
1070
     2
1070
   279
1070
     2
1070
   340
1005
55
1002
}
  0
DIMENSION
  5
1958F
  8
SUNPOU
  2
*D5
 10
680.1814207316271
 20
2347.9946414491492
 30
0.0
 11
636.5702850013937
 21
2382.5974293384488
 31
0.0
 70
   128
  1
φ89
 13
592.68142073162426
 23
2289.6479670114109
 33
0.0
 14
680.1814207316271
 24
2289.6479670114122
 34
0.0
1001
ACAD
1000
DSTYLE
1002
{
1070
   287
1070
     5
1070
    40
1040
10.0
1070
    41
1040
2.0
1070
    42
1040
1.0
1070
    43
1040
6.0
1070
    44
1040
1.0
1070
    73
1070
     0
1070
    74
1070
     0
1070
    77
1070
     1
1070
    78
1070
     8
1070
   140
1040
3.0
1070
   147
1040
1.1999999999999991
1070
   172
1070
     1
1070
   179
1070
     2
1070
   271
1070
     2
1070
   279
1070
     2
1070
   340
1005
55
1002
}
  0
DIMENSION
  5
1961D
  8
SUNPOU
  2
*D6
 10
337.26448017749738
 20
749.64796701141222
 30
0.0
 11
310.26448017749732
 21
1499.647967011412
 31
0.0
 70
     0
 13
569.23142073162489
 23
2249.6479670114122
 33
0.0
 14
372.10351895608892
 24
749.64796701141222
 34
0.0
 50
90.0
1001
ACAD
1000
DSTYLE
1002
{
1070
   287
1070
     5
1070
    40
1040
10.0
1070
    41
1040
2.0
1070
    42
1040
1.0
1070
    43
1040
6.0
1070
    44
1040
1.0
1070
    73
1070
     0
1070
    74
1070
     0
1070
    77
1070
     1
1070
    78
1070
     8
1070
   140
1040
3.0
1070
   147
1040
1.1999999999999991
1070
   172
1070
     1
1070
   179
1070
     2
1070
   271
1070
     2
1070
   279
1070
     2
1070
   340
1005
55
1002
}
  0
LINE
  5
196DA
  8
SJC
 10
1373.1132148796351
 20
749.92760562915998
 30
0.0
 11
1460.6132148796351
 21
749.92760562915998
 31
0.0
  0
ARC
  5
196DB
  8
SJC2
 10
1594.7162021873589
 20
633.04599293476338
 30
0.0
 40
59.251192688568317
 50
61.16631571051208
 51
118.83368428948791
  0
ARC
  5
196DC
  8
SJC2
 10
1594.7162021873589
 20
736.85684419835161
 30
0.0
 40
59.251192688568317
 50
241.16631571051209
 51
298.83368428948791
  0
ARC
  5
196DD
  8
SJC2
 10
1537.566202187357
 20
736.85684419835161
 30
0.0
 40
59.251192688568317
 50
241.16631571051209
 51
298.83368428948791
  0
LINE
  5
196DF
  8
SJC
 10
1508.9912021873649
 20
794.92760562915998
 30
0.0
 11
1508.9912021873649
 21
684.95141856655016
 31
0.0
  0
LINE
  5
196E0
  8
SJC
 10
1623.291202187359
 20
794.92760562915998
 30
0.0
 11
1623.291202187359
 21
684.95141856655073
 31
0.0
  0
TEXT
  5
19837
  8
MOJI2
 10
1039.01948351077
 20
83.794885679513754
 30
0.0
 40
40.0
  1
親子バンド詳細図 S=1/5
 41
0.8
  7
EXT08
 72
     1
 11
1282.21948351077
 21
83.794885679513754
 31
0.0
 73
     1
  0
LINE
  5
19838
  8
MOJI2
 10
1023.779379414614
 20
68.794885679513754
 30
0.0
 11
1540.6555698908039
 21
68.794885679513754
 31
0.0
  0
DIMENSION
  5
1983B
  8
SUNPOU
  2
*D7
 10
1332.165350557271
 20
576.90818881311384
 30
0.0
 11
1379.5745625944301
 21
646.94170325175935
 31
0.0
 70
   129
  1
t<>
 13
1355.1808296669039
 23
555.77296073640923
 33
0.0
 14
1357.7595064027089
 24
559.58221608256531
 34
0.0
1001
ACAD
1000
DSTYLE
1002
{
1070
    40
1040
10.0
1070
    41
1040
2.0
1070
    42
1040
1.0
1070
    43
1040
6.0
1070
    44
1040
1.0
1070
    73
1070
     0
1070
    74
1070
     0
1070
    77
1070
     1
1070
    78
1070
     8
1070
   140
1040
3.0
1070
   144
1040
0.5
1070
   147
1040
1.1999999999999991
1070
   172
1070
     1
1070
   176
1070
   256
1070
   177
1070
   256
1070
   178
1070
   256
1070
   271
1070
     2
1070
   340
1005
55
1002
}
  0
DIMENSION
  5
1983C
  8
SUNPOU
  2
*D8
 10
1019.881705632732
 20
548.19112657499295
 30
0.0
 11
1067.6782338449241
 21
617.9608794875079
 31
0.0
 70
   129
  1
t<>
 13
1041.692605394481
 23
527.67344093807924
 33
0.0
 14
1044.292348989806
 24
531.46834979581888
 34
0.0
1001
ACAD
1000
DSTYLE
1002
{
1070
    40
1040
10.0
1070
    41
1040
2.0
1070
    42
1040
1.0
1070
    43
1040
6.0
1070
    44
1040
1.0
1070
    73
1070
     0
1070
    74
1070
     0
1070
    77
1070
     1
1070
    78
1070
     8
1070
   140
1040
3.0
1070
   144
1040
0.5
1070
   147
1040
1.1999999999999991
1070
   172
1070
     1
1070
   176
1070
   256
1070
   177
1070
   256
1070
   178
1070
   256
1070
   271
1070
     2
1070
   340
1005
55
1002
}
  0
DIMENSION
  5
1983D
  8
SUNPOU
  2
*D9
 10
1227.031807535396
 20
366.46953201220828
 30
0.0
 11
1267.625879998724
 21
477.31450962320753
 31
0.0
 70
   131
  1
φD
 15
1355.180829666901
 25
555.7729607364073
 35
0.0
 40
0.0
1001
ACAD
1000
DSTYLE
1002
{
1070
   287
1070
     5
1070
   287
1070
     5
1070
   287
1070
     5
1070
   279
1070
     2
1070
    40
1040
10.0
1070
    41
1040
2.0
1070
    42
1040
1.0
1070
    43
1040
6.0
1070
    44
1040
1.0
1070
    73
1070
     0
1070
    74
1070
     0
1070
    77
1070
     1
1070
    78
1070
     8
1070
   140
1040
3.0
1070
   144
1040
0.5
1070
   147
1040
1.1999999999999991
1070
   172
1070
     1
1070
   176
1070
   256
1070
   177
1070
   256
1070
   178
1070
   256
1070
   271
1070
     2
1070
   340
1005
55
1002
}
  0
INSERT
  5
19840
  8
0
  2
*U21
 10
0.0
 20
0.0
 30
0.0
1001
ACAD
1000
DSTYLE
1002
{
1070
     5
1000

1070
    40
1040
10.0
1070
    41
1040
2.0
1070
    42
1040
1.0
1070
    43
1040
6.0
1070
    44
1040
1.0
1070
    73
1070
     0
1070
    74
1070
     0
1070
    77
1070
     1
1070
    78
1070
     8
1070
   140
1040
3.0
1070
   147
1040
1.1999999999999991
1070
   172
1070
     1
1070
   176
1070
   256
1070
   177
1070
   256
1070
   178
1070
   256
1070
   271
1070
     2
1070
   340
1005
55
1070
   342
1005
0
1002
}
  0
LINE
  5
19841
  8
SJC
 10
1767.835677978984
 20
519.81520052208987
 30
0.0
 11
1767.835677978984
 21
154.84541476855549
 31
0.0
  0
LINE
  5
19842
  8
SJC
 10
1605.5421122790201
 20
519.81520052208987
 30
0.0
 11
1605.5421122790201
 21
154.84541476855549
 31
0.0
  0
TEXT
  5
19843
  8
SUNPOU
 10
1613.7462942524121
 20
243.406850403058
 30
0.0
 40
40.0
  1
101.6
 41
0.8
  7
EXT08
 72
     4
 11
1684.603437109555
 21
263.406850403058
 31
0.0
  0
TEXT
  5
19844
  8
SUNPOU
 10
1641.9750452077519
 20
173.438712699338
 30
0.0
 40
40.0
  1
89.1
 41
0.8
  7
EXT08
 72
     4
 11
1690.736949969657
 21
193.438712699338
 31
0.0
  0
LINE
  5
19845
  8
SJC
 10
1605.5421122790201
 20
154.84541476855549
 30
0.0
 11
1767.835677978984
 21
154.84541476855549
 31
0.0
  0
LINE
  5
19846
  8
SJC2
 10
1605.5421122790201
 20
227.83937191926211
 30
0.0
 11
1767.835677978984
 21
227.83937191926211
 31
0.0
  0
TEXT
  5
19847
  8
SUNPOU
 10
1648.4891513952689
 20
462.87874199800802
 30
0.0
 40
40.0
  1
φD
 41
0.8
  7
EXT08
 72
     4
 11
1684.603437109555
 21
482.87874199800808
 31
0.0
  0
TEXT
  5
19848
  8
SUNPOU
 10
1613.7462942524121
 20
389.39476470447141
 30
0.0
 40
40.0
  1
139.8
 41
0.8
  7
EXT08
 72
     4
 11
1684.603437109555
 21
409.3947647044713
 31
0.0
  0
LINE
  5
19849
  8
SJC2
 10
1605.5421122790201
 20
446.82124337138328
 30
0.0
 11
1767.835677978984
 21
446.82124337138328
 31
0.0
  0
LINE
  5
1984A
  8
SJC
 10
1605.5421122790201
 20
519.81520052208987
 30
0.0
 11
1767.835677978984
 21
519.81520052208987
 31
0.0
  0
TEXT
  5
1984B
  8
SUNPOU
 10
1613.7462942524121
 20
319.42662700075232
 30
0.0
 40
40.0
  1
114.3
 41
0.8
  7
EXT08
 72
     4
 11
1684.603437109555
 21
339.42662700075232
 31
0.0
  0
LINE
  5
1984C
  8
SJC2
 10
1605.5421122790201
 20
300.83332906996873
 30
0.0
 11
1767.835677978984
 21
300.83332906996873
 31
0.0
  0
LINE
  5
1984D
  8
SJC2
 10
1605.5421122790201
 20
373.82728622067532
 30
0.0
 11
1767.835677978984
 21
373.82728622067532
 31
0.0
  0
ARC
  5
1984F
  8
SJC2
 10
1407.5589269875661
 20
485.12124637430861
 30
0.0
 40
4.5999999999999988
 50
11.645180104451599
 51
90.0
  0
ARC
  5
19850
  8
SJC2
 10
1410.861276744854
 20
477.72124637430892
 30
0.0
 40
2.0
 50
187.89184458412009
 51
270.0
  0
ARC
  5
19851
  8
SJC2
 10
1410.861276744854
 20
435.32124637430928
 30
0.0
 40
2.0
 50
90.0
 51
172.10815541587979
  0
ARC
  5
19852
  8
SJC2
 10
1410.861276744854
 20
477.72124637430892
 30
0.0
 40
6.5999999999999091
 50
187.89184458412009
 51
270.0
  0
ARC
  5
19853
  8
SJC2
 10
1410.861276744854
 20
435.32124637430928
 30
0.0
 40
6.5999999999999091
 50
90.0
 51
172.10815541587979
  0
ARC
  5
19854
  8
SJC2
 10
1407.5589269875661
 20
427.9212463743097
 30
0.0
 40
4.5999999999999988
 50
270.0
 51
348.3548198955483
  0
LINE
  5
19855
  8
SJC2
 10
1409.1065304653671
 20
255.04008157474161
 30
0.0
 11
1416.1656343063651
 21
255.04008157474161
 31
0.0
  0
LINE
  5
19856
  8
SJC2
 10
1409.106530465371
 20
241.04008157474161
 30
0.0
 11
1416.1656343063651
 21
241.04008157474161
 31
0.0
  0
LINE
  5
19857
  8
SJC2
 10
1409.1065304653671
 20
203.04008157474161
 30
0.0
 11
1416.1656343063651
 21
203.04008157474161
 31
0.0
  0
LINE
  5
19858
  8
SJC2
 10
1409.106530465371
 20
189.04008157474161
 30
0.0
 11
1416.1656343063651
 21
189.04008157474161
 31
0.0
  0
LINE
  5
19859
  8
CENTER
 10
854.39461894040323
 20
456.5212463743091
 30
0.0
 11
1455.0747926771639
 21
456.5212463743091
 31
0.0
  0
LINE
  5
1985A
  8
CENTER
 10
831.33497641767269
 20
222.04008157474161
 30
0.0
 11
1464.5443764466299
 21
222.04008157474161
 31
0.0
  0
LINE
  5
1985B
  8
SJC2
 10
1163.106106736933
 20
262.04008157474158
 30
0.0
 11
1459.1065304653671
 21
262.04008157474158
 31
0.0
  0
LINE
  5
1985C
  8
SJC2
 10
1163.106106736933
 20
182.04008157474161
 30
0.0
 11
1459.1065304653671
 21
182.04008157474161
 31
0.0
  0
LINE
  5
1985D
  8
SJC2
 10
1155.106106736933
 20
471.12124637430861
 30
0.0
 11
1155.106106736933
 21
466.5212463743091
 31
0.0
  0
ARC
  5
1985E
  8
SJC2
 10
1086.7998529295201
 20
473.1212463743085
 30
0.0
 40
6.6000000000000218
 50
189.9889779059117
 51
270.0
  0
ARC
  5
1985F
  8
SJC2
 10
898.30125877030594
 20
473.1212463743085
 30
0.0
 40
6.6000000000000218
 50
270.0
 51
350.01102209408828
  0
LINE
  5
19860
  8
SJC2
 10
849.99500496289136
 20
471.12124637430861
 30
0.0
 11
849.99500496289136
 21
466.5212463743091
 31
0.0
  0
LINE
  5
19861
  8
CENTER
 10
992.55055584991248
 20
567.44919212665627
 30
0.0
 11
992.55055584991248
 21
345.59330062196199
 31
0.0
  0
LINE
  5
19862
  8
CENTER
 10
874.99500496289136
 20
515.36393794884486
 30
0.0
 11
874.99500496289136
 21
429.36573263977601
 31
0.0
  0
LINE
  5
19863
  8
CENTER
 10
1291.1063186011511
 20
584.64302371827034
 30
0.0
 11
1291.1063186011511
 21
328.39946903034797
 31
0.0
  0
LINE
  5
19864
  8
CENTER
 10
1129.106106736934
 20
421.53204878056562
 30
0.0
 11
1129.106106736934
 21
514.0892682934508
 31
0.0
  0
CIRCLE
  5
19865
  8
SJC2
 10
1129.106106736934
 20
182.04008157474161
 30
0.0
 40
18.0
  0
CIRCLE
  5
19866
  8
SJC2
 10
1129.106106736934
 20
262.04008157474158
 30
0.0
 40
18.0
  0
LINE
  5
19867
  8
SJC2
 10
1111.106106736934
 20
437.32124637430928
 30
0.0
 11
1147.106106736933
 21
437.32124637430928
 31
0.0
  0
ARC
  5
19868
  8
SJC2
 10
1129.106106736934
 20
453.57124637430383
 30
0.0
 40
24.249999999997002
 50
222.07502205082429
 51
317.92497794917568
  0
LINE
  5
19869
  8
SJC2
 10
1155.106106736933
 20
466.5212463743091
 30
0.0
 11
1086.7998529295201
 21
466.5212463743091
 31
0.0
  0
LINE
  5
1986A
  8
SJC2
 10
1155.106106736933
 20
441.9212463743097
 30
0.0
 11
1086.7998529295201
 21
441.9212463743097
 31
0.0
  0
LINE
  5
1986B
  8
SJC2
 10
1155.106106736933
 20
446.52124637430921
 30
0.0
 11
1086.7998529295201
 21
446.52124637430921
 31
0.0
  0
LINE
  5
1986C
  8
SJC2
 10
1103.106106736934
 20
437.32124637430928
 30
0.0
 11
1171.3513604574471
 21
437.32124637430928
 31
0.0
  0
LINE
  5
1986D
  8
SJC2
 10
1103.106106736934
 20
441.9212463743097
 30
0.0
 11
1171.3513604574471
 21
441.9212463743097
 31
0.0
  0
LINE
  5
1986E
  8
SJC2
 10
1095.106106736934
 20
282.04008157474169
 30
0.0
 11
1163.106106736933
 21
282.04008157474169
 31
0.0
  0
LINE
  5
1986F
  8
SJC2
 10
1095.106106736934
 20
162.04008157474161
 30
0.0
 11
1163.106106736933
 21
162.04008157474161
 31
0.0
  0
LINE
  5
19870
  8
SJC2
 10
1095.106106736934
 20
262.04008157474158
 30
0.0
 11
849.99500496289136
 21
262.04008157474158
 31
0.0
  0
LINE
  5
19871
  8
SJC2
 10
1095.106106736934
 20
182.04008157474161
 30
0.0
 11
849.99500496289136
 21
182.04008157474161
 31
0.0
  0
ARC
  5
19872
  8
SJC2
 10
894.29457865872428
 20
196.0400815747434
 30
0.0
 40
9.0274503626009182
 50
309.15753220714851
 51
50.842467792851558
  0
ARC
  5
19873
  8
SJC2
 10
892.93590112189395
 20
196.04008157474161
 30
0.0
 40
7.0
 50
90.0
 51
270.0
  0
LINE
  5
19874
  8
SJC2
 10
849.99500496289136
 20
262.04008157474158
 30
0.0
 11
849.99500496289136
 21
182.04008157474161
 31
0.0
  0
LINE
  5
19875
  8
SJC2
 10
899.99500496289136
 20
189.04008157474161
 30
0.0
 11
899.99500496289136
 21
182.04008157474161
 31
0.0
  0
LINE
  5
19876
  8
SJC2
 10
899.99500496288783
 20
189.04008157474161
 30
0.0
 11
892.93590112189395
 21
189.04008157474161
 31
0.0
  0
CIRCLE
  5
19877
  8
SJC2
 10
874.99500496289136
 20
222.04008157474161
 30
0.0
 40
18.0
  0
LINE
  5
19878
  8
SJC2
 10
899.99500496289136
 20
262.04008157474158
 30
0.0
 11
899.99500496289136
 21
255.04008157474161
 31
0.0
  0
ARC
  5
19879
  8
SJC2
 10
894.29457865872428
 20
248.0400815747434
 30
0.0
 40
9.0274503626009182
 50
309.15753220714851
 51
50.842467792851558
  0
ARC
  5
1987A
  8
SJC2
 10
892.93590112189395
 20
248.04008157474161
 30
0.0
 40
7.0
 50
90.0
 51
270.0
  0
LINE
  5
1987B
  8
SJC2
 10
899.99500496288783
 20
241.04008157474161
 30
0.0
 11
892.93590112189395
 21
241.04008157474161
 31
0.0
  0
LINE
  5
1987C
  8
SJC2
 10
899.99500496289136
 20
255.04008157474161
 30
0.0
 11
892.93590112189395
 21
255.04008157474161
 31
0.0
  0
LINE
  5
1987D
  8
SJC2
 10
899.99500496289136
 20
203.04008157474161
 30
0.0
 11
892.93590112189395
 21
203.04008157474161
 31
0.0
  0
LINE
  5
1987E
  8
SJC2
 10
899.99500496289136
 20
241.04008157474161
 30
0.0
 11
899.99500496289136
 21
203.04008157474161
 31
0.0
  0
ARC
  5
1987F
  8
SJC2
 10
1092.1652105779319
 20
196.04008157474161
 30
0.0
 40
7.0
 50
270.0
 51
90.0
  0
ARC
  5
19880
  8
SJC2
 10
1090.8065330411009
 20
196.0400815747434
 30
0.0
 40
9.0274503626009182
 50
129.15753220714839
 51
230.84246779285161
  0
LINE
  5
19881
  8
SJC2
 10
1103.106106736934
 20
282.04008157474169
 30
0.0
 11
1103.106106736934
 21
162.04008157474161
 31
0.0
  0
LINE
  5
19882
  8
SJC2
 10
1103.106106736934
 20
282.04008157474169
 30
0.0
 11
1103.106106736934
 21
162.04008157474161
 31
0.0
  0
LINE
  5
19883
  8
SJC2
 10
1103.106106736934
 20
282.04008157474169
 30
0.0
 11
1103.106106736934
 21
162.04008157474161
 31
0.0
  0
LINE
  5
19884
  8
SJC2
 10
1095.106106736934
 20
182.04008157474161
 30
0.0
 11
1095.106106736934
 21
162.04008157474161
 31
0.0
  0
LINE
  5
19885
  8
SJC2
 10
1085.106106736934
 20
189.04008157474431
 30
0.0
 11
1085.106106736934
 21
182.04008157474161
 31
0.0
  0
LINE
  5
19886
  8
SJC2
 10
1085.1061067369369
 20
189.04008157474161
 30
0.0
 11
1092.1652105779319
 21
189.04008157474161
 31
0.0
  0
ARC
  5
19887
  8
SJC2
 10
1092.1652105779319
 20
248.04008157474161
 30
0.0
 40
7.0
 50
270.0
 51
90.0
  0
LINE
  5
19888
  8
SJC2
 10
1085.106106736934
 20
262.04008157474158
 30
0.0
 11
1085.106106736934
 21
255.04008157474161
 31
0.0
  0
ARC
  5
19889
  8
SJC2
 10
1090.8065330411009
 20
248.0400815747434
 30
0.0
 40
9.0274503626009182
 50
129.15753220714839
 51
230.84246779285161
  0
LINE
  5
1988A
  8
SJC2
 10
1085.106106736934
 20
255.04008157474161
 30
0.0
 11
1092.1652105779319
 21
255.04008157474161
 31
0.0
  0
LINE
  5
1988B
  8
SJC2
 10
1085.1061067369369
 20
241.04008157474161
 30
0.0
 11
1092.1652105779319
 21
241.04008157474161
 31
0.0
  0
LINE
  5
1988C
  8
SJC2
 10
1095.106106736934
 20
282.04008157474169
 30
0.0
 11
1095.106106736934
 21
262.04008157474158
 31
0.0
  0
LINE
  5
1988D
  8
SJC2
 10
1085.106106736934
 20
203.04008157474161
 30
0.0
 11
1092.1652105779319
 21
203.04008157474161
 31
0.0
  0
LINE
  5
1988E
  8
SJC2
 10
1085.106106736934
 20
241.04008157474431
 30
0.0
 11
1085.106106736934
 21
203.04008157474161
 31
0.0
  0
ARC
  5
1988F
  8
SJC2
 10
992.55055584991248
 20
456.5212463743091
 30
0.0
 40
93.699999999999974
 50
189.9889779059117
 51
350.01102209408828
  0
ARC
  5
19890
  8
SJC2
 10
992.55055584991248
 20
456.5212463743091
 30
0.0
 40
89.099999999999994
 50
189.9889779059117
 51
350.01102209414188
  0
LINE
  5
19891
  8
SJC2
 10
866.99500496289136
 20
446.52124637430921
 30
0.0
 11
866.99500496289136
 21
466.52124637431012
 31
0.0
  0
LINE
  5
19892
  8
SJC2
 10
882.99500496289136
 20
446.52124637430921
 30
0.0
 11
882.99500496289136
 21
466.52124637431012
 31
0.0
  0
ARC
  5
19893
  8
SJC2
 10
874.99500496289136
 20
458.17124637430419
 30
0.0
 40
24.249999999997002
 50
222.07502205082429
 51
303.224787083921
  0
LINE
  5
19894
  8
SJC2
 10
856.99500496289136
 20
441.9212463743097
 30
0.0
 11
892.99500496289045
 21
441.9212463743097
 31
0.0
  0
LINE
  5
19895
  8
SJC2
 10
898.30125877030594
 20
466.5212463743091
 30
0.0
 11
849.99500496289136
 21
466.5212463743091
 31
0.0
  0
LINE
  5
19896
  8
SJC2
 10
903.32202902132485
 20
427.9212463743097
 30
0.0
 11
901.97633214360746
 21
427.92124637430868
 31
0.0
  0
ARC
  5
19897
  8
SJC2
 10
992.55055584991248
 20
456.5212463743091
 30
0.0
 40
98.299999999999997
 50
192.2024096208475
 51
194.84094484087791
  0
ARC
  5
19898
  8
SJC2
 10
898.30125877030594
 20
439.92124637430959
 30
0.0
 40
2.0
 50
9.9889779059116854
 51
90.0
  0
ARC
  5
19899
  8
SJC2
 10
901.97633214360746
 20
432.5212463743091
 30
0.0
 40
4.5999999999999988
 50
194.84094484087791
 51
270.0
  0
ARC
  5
1989A
  8
SJC2
 10
898.30125877030594
 20
439.92124637430959
 30
0.0
 40
6.6000000000000218
 50
9.9889779059116854
 51
90.0
  0
LINE
  5
1989B
  8
SJC2
 10
894.51663314965469
 20
437.32124637430928
 30
0.0
 11
890.48954468502154
 21
437.32124637430928
 31
0.0
  0
ARC
  5
1989C
  8
SJC2
 10
992.55055584991248
 20
456.5212463743091
 30
0.0
 40
107.6999999999999
 50
187.79110415897719
 51
188.14102578044961
  0
ARC
  5
1989D
  8
SJC2
 10
890.48954468502154
 20
441.92124637430879
 30
0.0
 40
4.5999999999999988
 50
188.14102578044961
 51
270.0
  0
ARC
  5
1989E
  8
SJC2
 10
894.51663314965469
 20
435.32124637430928
 30
0.0
 40
2.0
 50
12.202409620847479
 51
90.0
  0
LINE
  5
1989F
  8
SJC2
 10
849.99500496289136
 20
446.52124637430921
 30
0.0
 11
849.99500496289136
 21
441.9212463743097
 31
0.0
  0
LINE
  5
198A0
  8
SJC2
 10
898.30125877030594
 20
446.52124637430921
 30
0.0
 11
849.99500496289136
 21
446.52124637430921
 31
0.0
  0
LINE
  5
198A1
  8
SJC2
 10
898.30125877030594
 20
441.9212463743097
 30
0.0
 11
849.99500496289136
 21
441.9212463743097
 31
0.0
  0
LINE
  5
198A2
  8
SJC2
 10
1121.106106736934
 20
446.52124637430819
 30
0.0
 11
1121.106106736934
 21
466.5212463743091
 31
0.0
  0
ARC
  5
198A3
  8
SJC2
 10
992.55055584991248
 20
456.5212463743091
 30
0.0
 40
107.6999999999999
 50
351.85897421955042
 51
352.20889584102281
  0
ARC
  5
198A4
  8
SJC2
 10
1094.611567014804
 20
441.9212463743097
 30
0.0
 40
4.5999999999999988
 50
270.0
 51
351.85897421955042
  0
ARC
  5
198A5
  8
SJC2
 10
1090.5844785501699
 20
435.32124637430928
 30
0.0
 40
2.0
 50
90.0
 51
167.7975903791525
  0
ARC
  5
198A6
  8
SJC2
 10
1086.7998529295201
 20
439.92124637430959
 30
0.0
 40
2.0
 50
90.0
 51
170.0110220940883
  0
ARC
  5
198A7
  8
SJC2
 10
992.55055584991248
 20
456.5212463743091
 30
0.0
 40
98.299999999999997
 50
345.15905515912209
 51
347.7975903791525
  0
LINE
  5
198A8
  8
SJC2
 10
1083.1247795562181
 20
427.9212463743097
 30
0.0
 11
1081.7790826784999
 21
427.9212463743097
 31
0.0
  0
ARC
  5
198A9
  8
SJC2
 10
1086.7998529295201
 20
439.92124637430959
 30
0.0
 40
6.6000000000000218
 50
90.0
 51
170.0110220940883
  0
ARC
  5
198AA
  8
SJC2
 10
1083.1247795562181
 20
432.5212463743091
 30
0.0
 40
4.5999999999999988
 50
270.0
 51
345.15905515912209
  0
LINE
  5
198AB
  8
SJC2
 10
1094.611567014804
 20
437.32124637430928
 30
0.0
 11
1090.5844785501699
 21
437.32124637430928
 31
0.0
  0
LINE
  5
198AC
  8
SJC2
 10
1103.106106736934
 20
437.32124637430928
 30
0.0
 11
1103.106106736934
 21
441.9212463743097
 31
0.0
  0
ARC
  5
198AD
  8
SJC2
 10
1167.4056804327661
 20
196.0400815747434
 30
0.0
 40
9.0274503626009182
 50
309.15753220714851
 51
50.842467792851558
  0
ARC
  5
198AE
  8
SJC2
 10
1166.047002895936
 20
196.04008157474161
 30
0.0
 40
7.0
 50
90.0
 51
270.0
  0
LINE
  5
198AF
  8
SJC2
 10
1173.106106736931
 20
189.04008157474161
 30
0.0
 11
1166.047002895936
 21
189.04008157474161
 31
0.0
  0
LINE
  5
198B0
  8
SJC2
 10
1163.106106736933
 20
182.04008157474161
 30
0.0
 11
1163.106106736933
 21
162.04008157474161
 31
0.0
  0
LINE
  5
198B1
  8
SJC2
 10
1173.106106736933
 20
189.04008157474431
 30
0.0
 11
1173.106106736933
 21
182.04008157474161
 31
0.0
  0
LINE
  5
198B2
  8
SJC2
 10
1173.106106736933
 20
262.04008157474158
 30
0.0
 11
1173.106106736933
 21
255.04008157474161
 31
0.0
  0
ARC
  5
198B3
  8
SJC2
 10
1167.4056804327661
 20
248.0400815747434
 30
0.0
 40
9.0274503626009182
 50
309.15753220714851
 51
50.842467792851558
  0
LINE
  5
198B4
  8
SJC2
 10
1173.106106736931
 20
241.04008157474161
 30
0.0
 11
1166.047002895936
 21
241.04008157474161
 31
0.0
  0
LINE
  5
198B5
  8
SJC2
 10
1173.106106736933
 20
255.04008157474161
 30
0.0
 11
1166.047002895936
 21
255.04008157474161
 31
0.0
  0
LINE
  5
198B6
  8
SJC2
 10
1163.106106736933
 20
282.04008157474169
 30
0.0
 11
1163.106106736933
 21
262.04008157474158
 31
0.0
  0
ARC
  5
198B7
  8
SJC2
 10
1166.047002895936
 20
248.04008157474161
 30
0.0
 40
7.0
 50
90.0
 51
270.0
  0
LINE
  5
198B8
  8
SJC2
 10
1173.106106736933
 20
203.04008157474161
 30
0.0
 11
1166.047002895936
 21
203.04008157474161
 31
0.0
  0
LINE
  5
198B9
  8
SJC2
 10
1173.106106736933
 20
241.04008157474431
 30
0.0
 11
1173.106106736933
 21
203.04008157474161
 31
0.0
  0
ARC
  5
198BA
  8
SJC2
 10
1414.806956769535
 20
196.0400815747434
 30
0.0
 40
9.0274503626009182
 50
129.15753220714839
 51
230.84246779285161
  0
LINE
  5
198BB
  8
SJC2
 10
1409.1065304653671
 20
189.04008157474161
 30
0.0
 11
1409.1065304653671
 21
182.04008157474161
 31
0.0
  0
LINE
  5
198BC
  8
SJC2
 10
1409.1065304653671
 20
262.04008157474158
 30
0.0
 11
1409.1065304653671
 21
255.04008157474161
 31
0.0
  0
ARC
  5
198BD
  8
SJC2
 10
1414.806956769535
 20
248.0400815747434
 30
0.0
 40
9.0274503626009182
 50
129.15753220714839
 51
230.84246779285161
  0
LINE
  5
198BE
  8
SJC2
 10
1409.1065304653671
 20
241.04008157474161
 30
0.0
 11
1409.1065304653671
 21
203.04008157474161
 31
0.0
  0
ARC
  5
198BF
  8
SJC2
 10
1291.1063186011511
 20
451.92124637430959
 30
0.0
 40
114.3
 50
187.89184458412009
 51
352.10821395970322
  0
ARC
  5
198C0
  8
SJC2
 10
1291.1063186011511
 20
451.92124637430959
 30
0.0
 40
118.90000000000001
 50
187.8918161268885
 51
352.10815541587988
  0
LINE
  5
198C1
  8
SJC2
 10
1137.106106736934
 20
446.52124637430819
 30
0.0
 11
1137.106106736934
 21
466.5212463743091
 31
0.0
  0
LINE
  5
198C2
  8
SJC2
 10
1155.106106736933
 20
446.52124637430921
 30
0.0
 11
1155.106106736933
 21
441.9212463743097
 31
0.0
  0
ARC
  5
198C3
  8
SJC2
 10
1171.3513604574471
 20
435.32124637430928
 30
0.0
 40
6.6000000000000218
 50
7.8918445841201574
 51
90.0
  0
ARC
  5
198C4
  8
SJC2
 10
1171.3513604574471
 20
435.32124637430928
 30
0.0
 40
2.0
 50
7.8918445841201574
 51
90.0
  0
ARC
  5
198C5
  8
SJC2
 10
1167.4098756450171
 20
430.72124637430892
 30
0.0
 40
2.0
 50
9.7252816455754072
 51
90.0
  0
ARC
  5
198C6
  8
SJC2
 10
1174.6537102147349
 20
427.9212463743097
 30
0.0
 40
4.5999999999999988
 50
191.64518010445161
 51
270.0
  0
LINE
  5
198C7
  8
SJC2
 10
1174.6537102147349
 20
423.32124637430928
 30
0.0
 11
1175.6972634971421
 21
423.32124637430928
 31
0.0
  0
ARC
  5
198C8
  8
SJC2
 10
1291.1063186011511
 20
451.92124637430959
 30
0.0
 40
123.5
 50
189.72528164557531
 51
191.64518010445161
  0
ARC
  5
198C9
  8
SJC2
 10
1163.6397347448319
 20
437.32124637430928
 30
0.0
 40
4.5999999999999988
 50
186.5341730056733
 51
270.0
  0
ARC
  5
198CA
  8
SJC2
 10
1291.1063186011511
 20
451.92124637430959
 30
0.0
 40
132.90000000000001
 50
186.3070743532017
 51
186.5341730056733
  0
LINE
  5
198CB
  8
SJC2
 10
1163.6397347448319
 20
432.72124637430892
 30
0.0
 11
1167.4098756450171
 21
432.72124637430892
 31
0.0
  0
LINE
  5
198CC
  8
SJC2
 10
1406.5153737051589
 20
423.32124637430928
 30
0.0
 11
1407.5589269875661
 21
423.32124637430928
 31
0.0
  0
LINE
  5
198CD
  8
SJC2
 10
1121.106106736934
 20
506.32124637430928
 30
0.0
 11
1137.106106736934
 21
506.32124637430928
 31
0.0
  0
LINE
  5
198CE
  8
SJC2
 10
1122.106106736934
 20
507.32124637430928
 30
0.0
 11
1136.106106736934
 21
507.32124637430928
 31
0.0
  0
LINE
  5
198CF
  8
SJC2
 10
1116.106106736934
 20
475.72124637430898
 30
0.0
 11
1142.106106736934
 21
475.72124637430898
 31
0.0
  0
ARC
  5
198D0
  8
SJC2
 10
1129.1061067369369
 20
500.56013320711281
 30
0.0
 40
24.838886832804359
 50
252.41204622600949
 51
287.58795377399048
  0
LINE
  5
198D1
  8
SJC2
 10
1116.106106736934
 20
489.32124637430752
 30
0.0
 11
1142.106106736934
 21
489.32124637430752
 31
0.0
  0
ARC
  5
198D2
  8
SJC2
 10
1129.1061067369369
 20
464.48235954150363
 30
0.0
 40
24.838886832804359
 50
72.412046226009537
 51
107.58795377399041
  0
LINE
  5
198D3
  8
SJC2
 10
1155.106106736933
 20
471.12124637430861
 30
0.0
 11
1086.7998529295201
 21
471.12124637430861
 31
0.0
  0
LINE
  5
198D4
  8
SJC2
 10
1103.106106736934
 20
475.72124637430898
 30
0.0
 11
1171.3513604574471
 21
475.72124637430898
 31
0.0
  0
LINE
  5
198D5
  8
SJC2
 10
1103.106106736934
 20
471.12124637430861
 30
0.0
 11
1171.3513604574471
 21
471.12124637430861
 31
0.0
  0
ARC
  5
198D6
  8
SJC2
 10
992.55055584991248
 20
456.5212463743091
 30
0.0
 40
89.099999999999994
 50
9.9889779058581052
 51
170.0110220940883
  0
ARC
  5
198D7
  8
SJC2
 10
992.55055584991248
 20
456.5212463743091
 30
0.0
 40
93.699999999999974
 50
9.9889779059116854
 51
170.0110220940883
  0
LINE
  5
198D8
  8
SJC2
 10
887.99500496288772
 20
484.7212463743071
 30
0.0
 11
890.00611196181842
 21
483.5601332071073
 31
0.0
  0
LINE
  5
198D9
  8
SJC2
 10
881.99500496288886
 20
484.7212463743071
 30
0.0
 11
881.99500496289136
 21
511.9212463743097
 31
0.0
  0
LINE
  5
198DA
  8
SJC2
 10
882.99500496288874
 20
484.7212463743071
 30
0.0
 11
882.99500496289227
 21
510.9212463743097
 31
0.0
  0
LINE
  5
198DB
  8
SJC2
 10
866.99500496288783
 20
484.7212463743071
 30
0.0
 11
866.99500496289136
 21
510.9212463743097
 31
0.0
  0
LINE
  5
198DC
  8
SJC2
 10
867.99500496288783
 20
484.7212463743071
 30
0.0
 11
867.99500496289136
 21
511.9212463743097
 31
0.0
  0
ARC
  5
198DD
  8
SJC2
 10
874.99500496289136
 20
459.88235954150332
 30
0.0
 40
24.838886832804359
 50
72.412046226009537
 51
107.58795377399041
  0
ARC
  5
198DE
  8
SJC2
 10
863.73667471369117
 20
478.07610722839132
 30
0.0
 40
6.6451391459162759
 50
55.615752532008258
 51
124.3842474679592
  0
LINE
  5
198DF
  8
SJC2
 10
861.99500496288783
 20
484.7212463743071
 30
0.0
 11
859.98389796395804
 21
483.5601332071073
 31
0.0
  0
ARC
  5
198E0
  8
SJC2
 10
886.25333521208722
 20
478.0761072284057
 30
0.0
 40
6.6451391459012621
 50
55.615752531979403
 51
124.3842474680531
  0
LINE
  5
198E1
  8
SJC2
 10
861.99500496288783
 20
484.7212463743071
 30
0.0
 11
887.99500496288772
 21
484.7212463743071
 31
0.0
  0
ARC
  5
198E2
  8
SJC2
 10
874.99500496289136
 20
495.96013320711239
 30
0.0
 40
24.838886832804359
 50
252.41204622600949
 51
287.58795377399048
  0
ARC
  5
198E3
  8
SJC2
 10
863.73667471369117
 20
477.76638552022632
 30
0.0
 40
6.6451391459162759
 50
235.6157525320408
 51
304.38424746799171
  0
LINE
  5
198E4
  8
SJC2
 10
861.99500496288783
 20
471.12124637430861
 30
0.0
 11
859.98389796395804
 21
472.28235954151017
 31
0.0
  0
ARC
  5
198E5
  8
SJC2
 10
886.25333521208722
 20
477.76638552020989
 30
0.0
 40
6.6451391459012621
 50
235.6157525319469
 51
270.0
  0
LINE
  5
198E6
  8
SJC2
 10
861.99500496288783
 20
471.12124637430861
 30
0.0
 11
887.99500496288772
 21
471.12124637430861
 31
0.0
  0
LINE
  5
198E7
  8
SJC2
 10
882.50055846235318
 20
483.56013320710548
 30
0.0
 11
882.50055846235318
 21
472.28235954151199
 31
0.0
  0
LINE
  5
198E8
  8
SJC2
 10
890.00611196181842
 20
483.5601332071073
 30
0.0
 11
890.00611196181842
 21
475.69577288556047
 31
0.0
  0
LINE
  5
198E9
  8
SJC2
 10
859.98389796395804
 20
483.5601332071073
 30
0.0
 11
859.98389796395804
 21
472.28235954151017
 31
0.0
  0
LINE
  5
198EA
  8
SJC2
 10
867.48945146342248
 20
483.56013320710912
 30
0.0
 11
867.48945146342248
 21
472.28235954150648
 31
0.0
  0
LINE
  5
198EB
  8
SJC2
 10
867.99500496289136
 20
511.9212463743097
 30
0.0
 11
881.99500496289136
 21
511.9212463743097
 31
0.0
  0
LINE
  5
198EC
  8
SJC2
 10
866.99500496289136
 20
510.9212463743097
 30
0.0
 11
882.99500496289136
 21
510.9212463743097
 31
0.0
  0
LINE
  5
198ED
  8
SJC2
 10
866.99500496289136
 20
510.9212463743097
 30
0.0
 11
867.99500496289136
 21
511.9212463743097
 31
0.0
  0
LINE
  5
198EE
  8
SJC2
 10
882.99500496289136
 20
510.9212463743097
 30
0.0
 11
881.99500496289136
 21
511.9212463743097
 31
0.0
  0
ARC
  5
198EF
  8
SJC2
 10
898.30125877030594
 20
473.1212463743085
 30
0.0
 40
2.0
 50
270.0
 51
350.01102209408828
  0
LINE
  5
198F0
  8
SJC2
 10
903.32202902132485
 20
485.12124637430861
 30
0.0
 11
901.97633214360746
 21
485.12124637430941
 31
0.0
  0
ARC
  5
198F1
  8
SJC2
 10
992.55055584991248
 20
456.5212463743091
 30
0.0
 40
98.299999999999997
 50
165.15905515912209
 51
167.7975903791525
  0
ARC
  5
198F2
  8
SJC2
 10
901.97633214360746
 20
480.5212463743091
 30
0.0
 40
4.5999999999999988
 50
90.0
 51
165.15905515912209
  0
ARC
  5
198F3
  8
SJC2
 10
992.55055584991248
 20
456.5212463743091
 30
0.0
 40
107.6999999999999
 50
171.8589742195503
 51
172.2088958410227
  0
LINE
  5
198F4
  8
SJC2
 10
894.51663314965469
 20
475.72124637430898
 30
0.0
 11
890.48954468502154
 21
475.72124637430898
 31
0.0
  0
ARC
  5
198F5
  8
SJC2
 10
890.48954468502154
 20
471.12124637430952
 30
0.0
 40
4.5999999999999988
 50
90.0
 51
171.8589742195503
  0
ARC
  5
198F6
  8
SJC2
 10
894.51663314965469
 20
477.72124637430892
 30
0.0
 40
2.0
 50
270.0
 51
347.7975903791525
  0
LINE
  5
198F7
  8
SJC2
 10
898.30125877030594
 20
471.12124637430861
 30
0.0
 11
849.99500496289136
 21
471.12124637430861
 31
0.0
  0
LINE
  5
198F8
  8
SJC2
 10
1121.106106736934
 20
506.32124637430928
 30
0.0
 11
1122.106106736934
 21
507.32124637430928
 31
0.0
  0
LINE
  5
198F9
  8
SJC2
 10
1121.6005532374691
 20
488.16013320710948
 30
0.0
 11
1121.6005532374691
 21
476.8823595415069
 31
0.0
  0
LINE
  5
198FA
  8
SJC2
 10
1114.0949997380039
 20
488.16013320710772
 30
0.0
 11
1114.0949997380039
 21
476.88235954151048
 31
0.0
  0
LINE
  5
198FB
  8
SJC2
 10
1116.106106736934
 20
475.72124637430898
 30
0.0
 11
1114.0949997380039
 21
476.88235954151048
 31
0.0
  0
ARC
  5
198FC
  8
SJC2
 10
1117.8477764877371
 20
482.36638552022669
 30
0.0
 40
6.6451391459162759
 50
235.6157525320408
 51
304.38424746799171
  0
LINE
  5
198FD
  8
SJC2
 10
1116.106106736934
 20
489.32124637430752
 30
0.0
 11
1114.0949997380039
 21
488.16013320710772
 31
0.0
  0
ARC
  5
198FE
  8
SJC2
 10
1117.8477764877371
 20
482.67610722839157
 30
0.0
 40
6.6451391459162759
 50
55.615752532008258
 51
124.3842474679592
  0
LINE
  5
198FF
  8
SJC2
 10
1122.106106736934
 20
489.32124637430752
 30
0.0
 11
1122.106106736934
 21
507.32124637430928
 31
0.0
  0
LINE
  5
19900
  8
SJC2
 10
1121.106106736934
 20
489.32124637430752
 30
0.0
 11
1121.106106736934
 21
506.32124637430928
 31
0.0
  0
ARC
  5
19901
  8
SJC2
 10
992.55055584991248
 20
456.5212463743091
 30
0.0
 40
107.6999999999999
 50
7.7911041589772276
 51
8.1410257804496347
  0
ARC
  5
19902
  8
SJC2
 10
1094.611567014804
 20
471.12124637430861
 30
0.0
 40
4.5999999999999988
 50
8.1410257804496347
 51
90.0
  0
ARC
  5
19903
  8
SJC2
 10
1086.7998529295201
 20
473.1212463743085
 30
0.0
 40
2.0
 50
189.9889779059117
 51
270.0
  0
ARC
  5
19904
  8
SJC2
 10
1090.5844785501699
 20
477.72124637430892
 30
0.0
 40
2.0
 50
192.2024096208475
 51
270.0
  0
ARC
  5
19905
  8
SJC2
 10
992.55055584991248
 20
456.5212463743091
 30
0.0
 40
98.299999999999997
 50
12.202409620847479
 51
14.84094484087789
  0
LINE
  5
19906
  8
SJC2
 10
1083.1247795562181
 20
485.12124637430861
 30
0.0
 11
1081.7790826784999
 21
485.12124637430861
 31
0.0
  0
ARC
  5
19907
  8
SJC2
 10
1083.1247795562181
 20
480.5212463743091
 30
0.0
 40
4.5999999999999988
 50
14.84094484087789
 51
90.0
  0
LINE
  5
19908
  8
SJC2
 10
1094.611567014804
 20
475.72124637430898
 30
0.0
 11
1090.5844785501699
 21
475.72124637430898
 31
0.0
  0
LINE
  5
19909
  8
SJC2
 10
1103.106106736934
 20
471.12124637430861
 30
0.0
 11
1103.106106736934
 21
475.72124637430898
 31
0.0
  0
ARC
  5
1990A
  8
SJC2
 10
1291.1063186011511
 20
461.1212463743085
 30
0.0
 40
118.90000000000001
 50
7.8918445841201574
 51
172.10815541587979
  0
ARC
  5
1990B
  8
SJC2
 10
1291.1063186011511
 20
461.1212463743085
 30
0.0
 40
114.3
 50
7.8918445841201574
 51
172.10819356506209
  0
LINE
  5
1990C
  8
SJC2
 10
1137.106106736934
 20
506.32124637430928
 30
0.0
 11
1136.106106736934
 21
507.32124637430928
 31
0.0
  0
LINE
  5
1990D
  8
SJC2
 10
1144.117213735864
 20
488.16013320710772
 30
0.0
 11
1144.117213735864
 21
476.88235954151048
 31
0.0
  0
LINE
  5
1990E
  8
SJC2
 10
1136.6116602364
 20
488.1601332071059
 30
0.0
 11
1136.6116602364
 21
476.88235954151241
 31
0.0
  0
ARC
  5
1990F
  8
SJC2
 10
1140.364436986134
 20
482.36638552021032
 30
0.0
 40
6.6451391459012621
 50
235.6157525319469
 51
304.38424746802059
  0
LINE
  5
19910
  8
SJC2
 10
1142.106106736934
 20
475.72124637430898
 30
0.0
 11
1144.117213735864
 21
476.88235954151048
 31
0.0
  0
ARC
  5
19911
  8
SJC2
 10
1140.364436986134
 20
482.67610722840612
 30
0.0
 40
6.6451391459012621
 50
55.615752531979403
 51
124.3842474680531
  0
LINE
  5
19912
  8
SJC2
 10
1137.1061067369351
 20
489.32124637430752
 30
0.0
 11
1137.1061067369351
 21
506.32124637430928
 31
0.0
  0
LINE
  5
19913
  8
SJC2
 10
1136.1061067369351
 20
489.32124637430752
 30
0.0
 11
1136.106106736934
 21
507.32124637430928
 31
0.0
  0
LINE
  5
19914
  8
SJC2
 10
1142.106106736934
 20
489.32124637430752
 30
0.0
 11
1144.117213735864
 21
488.16013320710772
 31
0.0
  0
LINE
  5
19915
  8
SJC2
 10
1174.6537102147349
 20
489.72124637430892
 30
0.0
 11
1175.6972634971421
 21
489.72124637430892
 31
0.0
  0
ARC
  5
19916
  8
SJC2
 10
1174.6537102147349
 20
485.12124637430861
 30
0.0
 40
4.5999999999999988
 50
90.0
 51
168.35481989554839
  0
ARC
  5
19917
  8
SJC2
 10
1167.4098756450171
 20
482.32124637430928
 30
0.0
 40
2.0
 50
270.0
 51
350.27471835442458
  0
ARC
  5
19918
  8
SJC2
 10
1171.3513604574471
 20
477.72124637430892
 30
0.0
 40
2.0
 50
270.0
 51
352.10815541587988
  0
ARC
  5
19919
  8
SJC2
 10
1171.3513604574471
 20
477.72124637430892
 30
0.0
 40
6.6000000000000218
 50
270.0
 51
352.10815541587988
  0
ARC
  5
1991A
  8
SJC2
 10
1291.1063186011511
 20
461.1212463743085
 30
0.0
 40
132.90000000000001
 50
173.4658269943267
 51
173.69292564679819
  0
ARC
  5
1991B
  8
SJC2
 10
1163.6397347448319
 20
475.72124637430898
 30
0.0
 40
4.5999999999999988
 50
90.0
 51
173.4658269943267
  0
LINE
  5
1991C
  8
SJC2
 10
1163.6397347448319
 20
480.32124637430928
 30
0.0
 11
1167.4098756450171
 21
480.32124637430928
 31
0.0
  0
ARC
  5
1991D
  8
SJC2
 10
1291.1063186011511
 20
461.1212463743085
 30
0.0
 40
123.5
 50
168.35481989554839
 51
170.27471835442461
  0
LINE
  5
1991E
  8
SJC2
 10
1406.5153737051589
 20
489.72124637430892
 30
0.0
 11
1407.5589269875661
 21
489.72124637430892
 31
0.0
  0
LINE
  5
1991F
  8
SJC2
 10
1426.1065304653671
 20
441.9212463743097
 30
0.0
 11
1426.1065304653659
 21
471.12124637430861
 31
0.0
  0
LINE
  5
19920
  8
SJC2
 10
1442.1065304653671
 20
441.9212463743097
 30
0.0
 11
1442.1065304653659
 21
471.12124637430861
 31
0.0
  0
LINE
  5
19921
  8
CENTER
 10
1434.1065304653671
 20
425.12265314414429
 30
0.0
 11
1434.1065304653671
 21
509.97566948684471
 31
0.0
  0
LINE
  5
19923
  8
SJC2
 10
1459.1065304653671
 20
262.04008157474158
 30
0.0
 11
1459.1065304653671
 21
182.04008157474161
 31
0.0
  0
ARC
  5
19924
  8
SJC2
 10
1416.1656343063651
 20
196.04008157474161
 30
0.0
 40
7.0
 50
270.0
 51
90.0
  0
CIRCLE
  5
19925
  8
SJC2
 10
1434.1065304653671
 20
222.04008157474161
 30
0.0
 40
18.0
  0
ARC
  5
19926
  8
SJC2
 10
1416.1656343063651
 20
248.04008157474161
 30
0.0
 40
7.0
 50
270.0
 51
90.0
  0
ARC
  5
19927
  8
SJC2
 10
1434.1065304653671
 20
453.57124637430383
 30
0.0
 40
24.249999999997002
 50
236.72481497398121
 51
317.92497794917568
  0
LINE
  5
19928
  8
SJC2
 10
1416.1065304653671
 20
437.32124637430928
 30
0.0
 11
1452.1065304653659
 21
437.32124637430928
 31
0.0
  0
LINE
  5
19929
  8
SJC2
 10
1459.1065304653671
 20
437.32124637430928
 30
0.0
 11
1459.1065304653671
 21
441.9212463743097
 31
0.0
  0
LINE
  5
1992A
  8
SJC2
 10
1414.8027615572839
 20
432.72124637430892
 30
0.0
 11
1418.5729024574689
 21
432.72124637430892
 31
0.0
  0
ARC
  5
1992B
  8
SJC2
 10
1291.1063186011511
 20
451.92124637430959
 30
0.0
 40
123.5
 50
348.3548198955483
 51
350.27471835442458
  0
ARC
  5
1992C
  8
SJC2
 10
1291.1063186011511
 20
451.92124637430959
 30
0.0
 40
132.90000000000001
 50
353.46582699432679
 51
353.6929256467983
  0
ARC
  5
1992D
  8
SJC2
 10
1418.5729024574689
 20
437.32124637430928
 30
0.0
 40
4.5999999999999988
 50
270.0
 51
353.46582699432679
  0
ARC
  5
1992E
  8
SJC2
 10
1414.8027615572839
 20
430.72124637430892
 30
0.0
 40
2.0
 50
90.0
 51
170.27471835442461
  0
LINE
  5
1992F
  8
SJC2
 10
1410.861276744854
 20
441.9212463743097
 30
0.0
 11
1459.1065304653671
 21
441.9212463743097
 31
0.0
  0
LINE
  5
19930
  8
SJC2
 10
1410.861276744854
 20
437.32124637430928
 30
0.0
 11
1459.1065304653671
 21
437.32124637430928
 31
0.0
  0
LINE
  5
19931
  8
SJC2
 10
1447.1065304653671
 20
489.32124637430752
 30
0.0
 11
1449.117637464298
 21
488.16013320710772
 31
0.0
  0
LINE
  5
19932
  8
SJC2
 10
1441.106530465368
 20
489.32124637430752
 30
0.0
 11
1441.1065304653671
 21
507.32124637430928
 31
0.0
  0
LINE
  5
19933
  8
SJC2
 10
1442.106530465368
 20
489.32124637430752
 30
0.0
 11
1442.106530465368
 21
506.32124637430928
 31
0.0
  0
LINE
  5
19934
  8
SJC2
 10
1426.1065304653671
 20
489.32124637430752
 30
0.0
 11
1426.1065304653671
 21
506.32124637430928
 31
0.0
  0
LINE
  5
19935
  8
SJC2
 10
1427.1065304653671
 20
489.32124637430752
 30
0.0
 11
1427.1065304653671
 21
507.32124637430928
 31
0.0
  0
ARC
  5
19936
  8
SJC2
 10
1434.106530465371
 20
464.48235954150363
 30
0.0
 40
24.838886832804359
 50
72.412046226009537
 51
107.58795377399041
  0
ARC
  5
19937
  8
SJC2
 10
1422.8482002161711
 20
482.67610722839157
 30
0.0
 40
6.6451391459162759
 50
55.615752532008258
 51
124.3842474679592
  0
LINE
  5
19938
  8
SJC2
 10
1421.1065304653671
 20
489.32124637430752
 30
0.0
 11
1419.095423466438
 21
488.16013320710772
 31
0.0
  0
ARC
  5
19939
  8
SJC2
 10
1445.3648607145669
 20
482.67610722840612
 30
0.0
 40
6.6451391459012621
 50
55.615752531979403
 51
124.3842474680531
  0
LINE
  5
1993A
  8
SJC2
 10
1421.1065304653671
 20
489.32124637430752
 30
0.0
 11
1447.1065304653671
 21
489.32124637430752
 31
0.0
  0
LINE
  5
1993B
  8
SJC2
 10
1447.1065304653671
 20
475.72124637430898
 30
0.0
 11
1449.117637464298
 21
476.88235954151048
 31
0.0
  0
ARC
  5
1993C
  8
SJC2
 10
1434.106530465371
 20
500.56013320711281
 30
0.0
 40
24.838886832804359
 50
252.41204622600949
 51
287.58795377399048
  0
ARC
  5
1993D
  8
SJC2
 10
1422.8482002161711
 20
482.36638552022669
 30
0.0
 40
6.6451391459162759
 50
273.04241505493661
 51
304.38424746799171
  0
ARC
  5
1993E
  8
SJC2
 10
1445.3648607145669
 20
482.36638552021032
 30
0.0
 40
6.6451391459012621
 50
235.6157525319469
 51
304.38424746802059
  0
LINE
  5
1993F
  8
SJC2
 10
1421.1065304653671
 20
475.72124637430898
 30
0.0
 11
1447.1065304653671
 21
475.72124637430898
 31
0.0
  0
LINE
  5
19940
  8
SJC2
 10
1441.6120839648329
 20
488.1601332071059
 30
0.0
 11
1441.6120839648329
 21
476.88235954151241
 31
0.0
  0
LINE
  5
19941
  8
SJC2
 10
1449.117637464298
 20
488.16013320710772
 30
0.0
 11
1449.117637464298
 21
476.88235954151048
 31
0.0
  0
LINE
  5
19942
  8
SJC2
 10
1419.095423466438
 20
488.16013320710772
 30
0.0
 11
1419.095423466438
 21
480.29147304212159
 31
0.0
  0
LINE
  5
19943
  8
SJC2
 10
1426.600976965902
 20
488.16013320710948
 30
0.0
 11
1426.600976965902
 21
476.8823595415069
 31
0.0
  0
LINE
  5
19944
  8
SJC2
 10
1427.1065304653671
 20
507.32124637430928
 30
0.0
 11
1441.1065304653671
 21
507.32124637430928
 31
0.0
  0
LINE
  5
19945
  8
SJC2
 10
1426.1065304653671
 20
506.32124637430928
 30
0.0
 11
1442.1065304653671
 21
506.32124637430928
 31
0.0
  0
LINE
  5
19946
  8
SJC2
 10
1426.1065304653671
 20
506.32124637430928
 30
0.0
 11
1427.1065304653671
 21
507.32124637430928
 31
0.0
  0
LINE
  5
19947
  8
SJC2
 10
1442.1065304653671
 20
506.32124637430928
 30
0.0
 11
1441.1065304653671
 21
507.32124637430928
 31
0.0
  0
LINE
  5
19948
  8
SJC2
 10
1459.1065304653671
 20
471.12124637430861
 30
0.0
 11
1459.1065304653671
 21
475.72124637430898
 31
0.0
  0
LINE
  5
19949
  8
SJC2
 10
1414.8027615572839
 20
480.32124637430928
 30
0.0
 11
1418.5729024574689
 21
480.32124637430928
 31
0.0
  0
ARC
  5
1994A
  8
SJC2
 10
1414.8027615572839
 20
482.32124637430928
 30
0.0
 40
2.0
 50
189.72528164557531
 51
270.0
  0
ARC
  5
1994B
  8
SJC2
 10
1291.1063186011511
 20
461.1212463743085
 30
0.0
 40
132.90000000000001
 50
6.307074353201747
 51
6.5341730056732716
  0
ARC
  5
1994C
  8
SJC2
 10
1418.5729024574689
 20
475.72124637430898
 30
0.0
 40
4.5999999999999988
 50
6.5341730056732716
 51
90.0
  0
LINE
  5
1994D
  8
SJC2
 10
1410.861276744854
 20
471.12124637430861
 30
0.0
 11
1459.1065304653671
 21
471.12124637430861
 31
0.0
  0
LINE
  5
1994E
  8
SJC2
 10
1410.861276744854
 20
475.72124637430898
 30
0.0
 11
1459.1065304653671
 21
475.72124637430898
 31
0.0
  0
ARC
  5
1994F
  8
SJC2
 10
1291.1063186011511
 20
461.1212463743085
 30
0.0
 40
123.5
 50
9.7252816455754072
 51
11.645180104451599
  0
DIMENSION
  5
19A0F
  8
SUNPOU
  2
*D10
 10
1539.4337450354301
 20
182.04008157474161
 30
0.0
 11
1512.4337450354301
 21
222.04008157474189
 31
0.0
 70
     0
 13
1459.1065304653671
 23
262.04008157474158
 33
0.0
 14
1459.1065304653671
 24
182.04008157474161
 34
0.0
 50
90.0
1001
ACAD
1000
DSTYLE
1002
{
1070
   287
1070
     5
1070
   144
1040
0.5
1070
    40
1040
10.0
1070
    41
1040
2.0
1070
    42
1040
1.0
1070
    43
1040
6.0
1070
    44
1040
1.0
1070
    73
1070
     0
1070
    74
1070
     0
1070
    77
1070
     1
1070
    78
1070
     8
1070
   140
1040
3.0
1070
   147
1040
1.1999999999999991
1070
   172
1070
     1
1070
   179
1070
     2
1070
   271
1070
     2
1070
   279
1070
     2
1070
   340
1005
55
1002
}
  0
LINE
  5
19A26
  8
SJC2
 10
1625.141202187363
 20
831.42760562916021
 30
0.0
 11
1628.6707541078611
 21
831.42760562916021
 31
0.0
  0
LINE
  5
19A27
  8
SJC2
 10
1625.1412021873639
 20
824.4276056291601
 30
0.0
 11
1628.6707541078611
 21
824.4276056291601
 31
0.0
  0
LINE
  5
19A28
  8
SJC2
 10
1625.141202187363
 20
805.42760562916021
 30
0.0
 11
1628.6707541078611
 21
805.42760562916021
 31
0.0
  0
LINE
  5
19A29
  8
SJC2
 10
1625.1412021873639
 20
798.4276056291601
 30
0.0
 11
1628.6707541078611
 21
798.4276056291601
 31
0.0
  0
LINE
  5
19A2A
  8
CENTER
 10
1336.2554251635149
 20
814.92760562916021
 30
0.0
 11
1652.860125177994
 21
814.92760562916021
 31
0.0
  0
LINE
  5
19A2B
  8
SJC2
 10
1502.1409903231449
 20
834.92760562916021
 30
0.0
 11
1650.1412021873621
 21
834.92760562916021
 31
0.0
  0
LINE
  5
19A2C
  8
SJC2
 10
1502.1409903231449
 20
794.92760562916021
 30
0.0
 11
1650.1412021873621
 21
794.92760562916021
 31
0.0
  0
CIRCLE
  5
19A2D
  8
SJC2
 10
1485.1409903231449
 20
794.92760562916021
 30
0.0
 40
9.0
  0
CIRCLE
  5
19A2E
  8
SJC2
 10
1485.1409903231449
 20
834.92760562916021
 30
0.0
 40
9.0
  0
LINE
  5
19A2F
  8
SJC2
 10
1468.1409903231449
 20
844.9276056291601
 30
0.0
 11
1502.1409903231449
 21
844.9276056291601
 31
0.0
  0
LINE
  5
19A30
  8
SJC2
 10
1468.1409903231449
 20
784.92760562916021
 30
0.0
 11
1502.1409903231449
 21
784.92760562916021
 31
0.0
  0
LINE
  5
19A31
  8
SJC2
 10
1468.1409903231449
 20
834.92760562916021
 30
0.0
 11
1345.585439436124
 21
834.92760562916021
 31
0.0
  0
LINE
  5
19A32
  8
SJC2
 10
1468.1409903231449
 20
794.92760562916021
 30
0.0
 11
1345.585439436124
 21
794.92760562916021
 31
0.0
  0
ARC
  5
19A33
  8
SJC2
 10
1367.7352262840409
 20
801.92760562916101
 30
0.0
 40
4.5137251813004591
 50
309.15753220714851
 51
50.842467792851558
  0
ARC
  5
19A34
  8
SJC2
 10
1367.055887515626
 20
801.92760562916021
 30
0.0
 40
3.5
 50
90.0
 51
270.0
  0
LINE
  5
19A35
  8
SJC2
 10
1345.585439436124
 20
834.92760562916021
 30
0.0
 11
1345.585439436124
 21
794.92760562916021
 31
0.0
  0
LINE
  5
19A36
  8
SJC2
 10
1370.585439436124
 20
798.4276056291601
 30
0.0
 11
1370.585439436124
 21
794.92760562916021
 31
0.0
  0
LINE
  5
19A37
  8
SJC2
 10
1370.585439436122
 20
798.4276056291601
 30
0.0
 11
1367.055887515626
 21
798.4276056291601
 31
0.0
  0
CIRCLE
  5
19A38
  8
SJC2
 10
1358.085439436124
 20
814.92760562916021
 30
0.0
 40
9.0
  0
LINE
  5
19A39
  8
SJC2
 10
1370.585439436124
 20
834.92760562916021
 30
0.0
 11
1370.585439436124
 21
831.42760562916021
 31
0.0
  0
ARC
  5
19A3A
  8
SJC2
 10
1367.7352262840409
 20
827.92760562916101
 30
0.0
 40
4.5137251813004591
 50
309.15753220714851
 51
50.842467792851558
  0
ARC
  5
19A3B
  8
SJC2
 10
1367.055887515626
 20
827.9276056291601
 30
0.0
 40
3.5
 50
90.0
 51
270.0
  0
LINE
  5
19A3C
  8
SJC2
 10
1370.585439436122
 20
824.4276056291601
 30
0.0
 11
1367.055887515626
 21
824.4276056291601
 31
0.0
  0
LINE
  5
19A3D
  8
SJC2
 10
1370.585439436124
 20
831.42760562916021
 30
0.0
 11
1367.055887515626
 21
831.42760562916021
 31
0.0
  0
LINE
  5
19A3E
  8
SJC2
 10
1370.585439436124
 20
805.42760562916021
 30
0.0
 11
1367.055887515626
 21
805.42760562916021
 31
0.0
  0
LINE
  5
19A3F
  8
SJC2
 10
1370.585439436124
 20
824.4276056291601
 30
0.0
 11
1370.585439436124
 21
805.42760562916021
 31
0.0
  0
ARC
  5
19A40
  8
SJC2
 10
1466.6705422436451
 20
801.92760562916021
 30
0.0
 40
3.5
 50
270.0
 51
90.0
  0
ARC
  5
19A41
  8
SJC2
 10
1465.991203475229
 20
801.92760562916101
 30
0.0
 40
4.5137251813004591
 50
129.15753220714839
 51
230.84246779285161
  0
LINE
  5
19A42
  8
SJC2
 10
1472.1409903231449
 20
844.9276056291601
 30
0.0
 11
1472.1409903231449
 21
784.92760562916021
 31
0.0
  0
LINE
  5
19A43
  8
SJC2
 10
1472.1409903231449
 20
844.9276056291601
 30
0.0
 11
1472.1409903231449
 21
784.92760562916021
 31
0.0
  0
LINE
  5
19A44
  8
SJC2
 10
1472.1409903231449
 20
844.9276056291601
 30
0.0
 11
1472.1409903231449
 21
784.92760562916021
 31
0.0
  0
LINE
  5
19A45
  8
SJC2
 10
1468.1409903231449
 20
794.92760562916021
 30
0.0
 11
1468.1409903231449
 21
784.92760562916021
 31
0.0
  0
LINE
  5
19A46
  8
SJC2
 10
1463.1409903231461
 20
798.42760562916158
 30
0.0
 11
1463.1409903231461
 21
794.92760562916021
 31
0.0
  0
LINE
  5
19A47
  8
SJC2
 10
1463.140990323147
 20
798.4276056291601
 30
0.0
 11
1466.6705422436451
 21
798.4276056291601
 31
0.0
  0
ARC
  5
19A48
  8
SJC2
 10
1466.6705422436451
 20
827.9276056291601
 30
0.0
 40
3.5
 50
270.0
 51
90.0
  0
LINE
  5
19A49
  8
SJC2
 10
1463.1409903231461
 20
834.92760562916021
 30
0.0
 11
1463.1409903231461
 21
831.42760562916021
 31
0.0
  0
ARC
  5
19A4A
  8
SJC2
 10
1465.991203475229
 20
827.92760562916101
 30
0.0
 40
4.5137251813004591
 50
129.15753220714839
 51
230.84246779285161
  0
LINE
  5
19A4B
  8
SJC2
 10
1463.1409903231461
 20
831.42760562916021
 30
0.0
 11
1466.6705422436451
 21
831.42760562916021
 31
0.0
  0
LINE
  5
19A4C
  8
SJC2
 10
1463.140990323147
 20
824.4276056291601
 30
0.0
 11
1466.6705422436451
 21
824.4276056291601
 31
0.0
  0
LINE
  5
19A4D
  8
SJC2
 10
1468.1409903231449
 20
844.9276056291601
 30
0.0
 11
1468.1409903231449
 21
834.92760562916021
 31
0.0
  0
LINE
  5
19A4E
  8
SJC2
 10
1463.1409903231461
 20
805.42760562916021
 30
0.0
 11
1466.6705422436451
 21
805.42760562916021
 31
0.0
  0
LINE
  5
19A4F
  8
SJC2
 10
1463.1409903231461
 20
824.42760562916146
 30
0.0
 11
1463.1409903231461
 21
805.42760562916021
 31
0.0
  0
ARC
  5
19A50
  8
SJC2
 10
1504.290777171062
 20
801.92760562916101
 30
0.0
 40
4.5137251813004591
 50
309.15753220714851
 51
50.842467792851558
  0
ARC
  5
19A51
  8
SJC2
 10
1503.6114384026471
 20
801.92760562916021
 30
0.0
 40
3.5
 50
90.0
 51
270.0
  0
LINE
  5
19A52
  8
SJC2
 10
1507.140990323144
 20
798.4276056291601
 30
0.0
 11
1503.6114384026471
 21
798.4276056291601
 31
0.0
  0
LINE
  5
19A53
  8
SJC2
 10
1502.1409903231449
 20
794.92760562916021
 30
0.0
 11
1502.1409903231449
 21
784.92760562916021
 31
0.0
  0
LINE
  5
19A54
  8
SJC2
 10
1507.1409903231461
 20
798.42760562916158
 30
0.0
 11
1507.1409903231461
 21
794.92760562916021
 31
0.0
  0
LINE
  5
19A55
  8
SJC2
 10
1507.1409903231461
 20
834.92760562916021
 30
0.0
 11
1507.1409903231461
 21
831.42760562916021
 31
0.0
  0
ARC
  5
19A56
  8
SJC2
 10
1504.290777171062
 20
827.92760562916101
 30
0.0
 40
4.5137251813004591
 50
309.15753220714851
 51
50.842467792851558
  0
LINE
  5
19A57
  8
SJC2
 10
1507.140990323144
 20
824.4276056291601
 30
0.0
 11
1503.6114384026471
 21
824.4276056291601
 31
0.0
  0
LINE
  5
19A58
  8
SJC2
 10
1507.1409903231461
 20
831.42760562916021
 30
0.0
 11
1503.6114384026471
 21
831.42760562916021
 31
0.0
  0
LINE
  5
19A59
  8
SJC2
 10
1502.1409903231449
 20
844.9276056291601
 30
0.0
 11
1502.1409903231449
 21
834.92760562916021
 31
0.0
  0
ARC
  5
19A5A
  8
SJC2
 10
1503.6114384026471
 20
827.9276056291601
 30
0.0
 40
3.5
 50
90.0
 51
270.0
  0
LINE
  5
19A5B
  8
SJC2
 10
1507.1409903231461
 20
805.42760562916021
 30
0.0
 11
1503.6114384026471
 21
805.42760562916021
 31
0.0
  0
LINE
  5
19A5C
  8
SJC2
 10
1507.1409903231461
 20
824.42760562916146
 30
0.0
 11
1507.1409903231461
 21
805.42760562916021
 31
0.0
  0
ARC
  5
19A5D
  8
SJC2
 10
1627.9914153394459
 20
801.92760562916101
 30
0.0
 40
4.5137251813004591
 50
129.15753220714839
 51
230.84246779285161
  0
LINE
  5
19A5E
  8
SJC2
 10
1625.141202187363
 20
798.4276056291601
 30
0.0
 11
1625.141202187363
 21
794.92760562916021
 31
0.0
  0
LINE
  5
19A5F
  8
SJC2
 10
1625.141202187363
 20
834.92760562916021
 30
0.0
 11
1625.141202187363
 21
831.42760562916021
 31
0.0
  0
ARC
  5
19A60
  8
SJC2
 10
1627.9914153394459
 20
827.92760562916101
 30
0.0
 40
4.5137251813004591
 50
129.15753220714839
 51
230.84246779285161
  0
LINE
  5
19A61
  8
SJC2
 10
1625.141202187363
 20
824.4276056291601
 30
0.0
 11
1625.141202187363
 21
805.42760562916021
 31
0.0
  0
LINE
  5
19A62
  8
SJC2
 10
1650.1412021873621
 20
834.92760562916021
 30
0.0
 11
1650.1412021873621
 21
794.92760562916021
 31
0.0
  0
ARC
  5
19A63
  8
SJC2
 10
1628.6707541078611
 20
801.92760562916021
 30
0.0
 40
3.5
 50
270.0
 51
90.0
  0
CIRCLE
  5
19A64
  8
SJC2
 10
1637.641202187363
 20
814.92760562916021
 30
0.0
 40
9.0
  0
ARC
  5
19A65
  8
SJC2
 10
1628.6707541078611
 20
827.9276056291601
 30
0.0
 40
3.5
 50
270.0
 51
90.0
  0
LINE
  5
19A8D
  8
SJC
 10
1508.9912021873649
 20
1174.6479672864159
 30
0.0
 11
1508.9912021873649
 21
834.92760562916033
 31
0.0
  0
LINE
  5
19A8E
  8
SJC
 10
1623.2912021873581
 20
1174.6479672864159
 30
0.0
 11
1623.291202187359
 21
834.92760562916021
 31
0.0
  0
LINE
  5
19A8F
  8
SJC2
 10
1189.329179181359
 20
1524.6479669364151
 30
0.0
 11
1793.3836073642069
 21
1524.6479669364151
 31
0.0
  0
LINE
  5
19A90
  8
SJC2
 10
1189.329179181359
 20
1484.6479669764151
 30
0.0
 11
1793.383607364206
 21
1484.6479669764151
 31
0.0
  0
LINE
  5
19A91
  8
SJC2
 10
1189.329179181359
 20
1434.6479670264191
 30
0.0
 11
1793.3836073642069
 21
1434.6479670264191
 31
0.0
  0
LINE
  5
19A92
  8
SJC2
 10
1189.329179181359
 20
1384.647967076414
 30
0.0
 11
1793.3836073642069
 21
1384.647967076414
 31
0.0
  0
LINE
  5
19A93
  8
SJC2
 10
1189.329179181359
 20
1314.6479671464169
 30
0.0
 11
1793.3836073642069
 21
1314.6479671464169
 31
0.0
  0
LINE
  5
19A94
  8
SJC2
 10
1189.329179181359
 20
1264.647967196421
 30
0.0
 11
1793.3836073642069
 21
1264.647967196421
 31
0.0
  0
LINE
  5
19A95
  8
SJC2
 10
1189.329179181359
 20
1214.6479672464161
 30
0.0
 11
1793.3836073642069
 21
1214.6479672464161
 31
0.0
  0
LINE
  5
19A96
  8
SJC2
 10
1189.329179181359
 20
1174.6479672864159
 30
0.0
 11
1793.3836073642069
 21
1174.6479672864159
 31
0.0
  0
LINE
  5
19A97
  8
SUNPOU
 10
1189.329179181359
 20
1154.6479672864159
 30
0.0
 11
1189.329179181359
 21
1329.647967111415
 31
0.0
  0
LINE
  5
19A98
  8
SUNPOU
 10
1793.3836073642069
 20
1154.6479672864159
 30
0.0
 11
1793.3836073642069
 21
1329.6479671114159
 31
0.0
  0
DIMENSION
  5
19B54
  8
SUNPOU
  2
*D11
 10
1057.079104263958
 20
517.96126948283495
 30
0.0
 11
1008.894314895464
 21
431.41012720826973
 31
0.0
 70
   131
 15
928.02200743586729
 25
395.08122326578359
 35
0.0
 40
0.0
1001
ACAD
1000
DSTYLE
1002
{
1070
   287
1070
     5
1070
   144
1040
0.5
1070
    40
1040
10.0
1070
    41
1040
2.0
1070
    42
1040
1.0
1070
    43
1040
6.0
1070
    44
1040
1.0
1070
    73
1070
     0
1070
    74
1070
     0
1070
    77
1070
     1
1070
    78
1070
     8
1070
   140
1040
3.0
1070
   147
1040
1.1999999999999991
1070
   172
1070
     1
1070
   179
1070
     2
1070
   271
1070
     2
1070
   279
1070
     2
1070
   288
1070
     1
1070
   340
1005
55
1002
}
  0
LINE
  5
19BC6
  8
SJC
 10
1373.1132148796351
 20
1174.6479672864159
 30
0.0
 11
1373.1132148796351
 21
749.92760562915998
 31
0.0
1001
ACAD
1000
ASC_BOUNDS
1002
{
1070
    19
1002
}
  0
LINE
  5
19BC9
  8
SJC
 10
1460.6132148796351
 20
1174.6479672864159
 30
0.0
 11
1460.6132148796351
 21
749.92760562916021
 31
0.0
1001
ACAD
1000
ASC_BOUNDS
1002
{
1070
    19
1002
}
  0
LINE
  5
19BCA
  8
HASEN
 10
1373.1132148796351
 20
1524.6479669364151
 30
0.0
 11
1373.1132148796351
 21
1174.6479672864159
 31
0.0
  0
LINE
  5
19BCB
  8
HASEN
 10
1460.6132148796351
 20
1524.6479669364151
 30
0.0
 11
1460.6132148796351
 21
1174.6479672864159
 31
0.0
  0
LINE
  5
19BD2
  8
SUNPOU
 10
1189.329179181359
 20
1369.6479671114159
 30
0.0
 11
1209.329179181359
 21
1369.6479671114159
 31
0.0
  0
LINE
  5
19BD3
  8
SUNPOU
 10
1169.3291791813581
 20
1329.647967111415
 30
0.0
 11
1189.329179181359
 21
1329.647967111415
 31
0.0
  0
LINE
  5
19BD6
  8
SUNPOU
 10
1169.3291791813581
 20
1329.647967111415
 30
0.0
 11
1209.329179181359
 21
1369.6479671114159
 31
0.0
  0
LINE
  5
19BD7
  8
SUNPOU
 10
1189.329179181359
 20
1369.6479671114159
 30
0.0
 11
1189.329179181359
 21
1544.6479669364151
 31
0.0
  0
LINE
  5
19BD8
  8
SUNPOU
 10
1773.383607364206
 20
1329.647967111415
 30
0.0
 11
1793.383607364206
 21
1329.647967111415
 31
0.0
  0
LINE
  5
19BD9
  8
SUNPOU
 10
1793.383607364206
 20
1369.6479671114159
 30
0.0
 11
1813.3836073642069
 21
1369.6479671114159
 31
0.0
  0
LINE
  5
19BDA
  8
SUNPOU
 10
1773.383607364206
 20
1329.647967111415
 30
0.0
 11
1813.3836073642069
 21
1369.6479671114159
 31
0.0
  0
LINE
  5
19BDB
  8
SUNPOU
 10
1793.383607364206
 20
1369.6479671114159
 30
0.0
 11
1793.383607364206
 21
1544.6479669364151
 31
0.0
  0
LINE
  5
19CC9
  8
MOJI
 10
3663.0844272244772
 20
1947.8040403755899
 30
0.0
 11
2539.8840360922259
 21
1947.8040403755899
 31
0.0
  0
TEXT
  5
19CCB
  8
MOJI
 10
3345.711944069099
 20
1956.804040357591
 30
0.0
 40
30.0
  1
皿ドリルネジM4×35
 41
0.8
  7
EXT08
 72
     4
 11
3492.7976583548129
 21
1971.804040357591
 31
0.0
  0
TEXT
  5
19CCC
  8
MOJI
 10
2850.3431439008809
 20
1956.804040369592
 30
0.0
 40
30.0
  1
6
 41
0.8
  7
EXT08
 72
     4
 11
2862.3431439008809
 21
1971.804040369592
 31
0.0
  0
TEXT
  5
19CCD
  8
MOJI
 10
2932.8415782590441
 20
1957.452978750124
 30
0.0
 40
30.0
  1
SUS410
 41
0.8
  7
EXT08
 11
2932.8415782590441
 21
1972.4529787501231
 31
0.0
 73
     2
  0
TEXT
  5
19CCE
  8
MOJI
 10
2622.014451985955
 20
1956.243437914768
 30
0.0
 40
30.0
  1
固定ビス
 41
0.8
  7
EXT08
 72
     4
 11
2675.6144519859549
 21
1971.243437914768
 31
0.0
  0
TEXT
  5
19CCF
  8
MOJI
 10
2934.3431438828802
 20
2052.804040345593
 30
0.0
 40
30.0
  1
SGHC
 41
0.8
  7
EXT08
 11
2934.3431438828802
 21
2067.804040345593
 31
0.0
 73
     2
  0
TEXT
  5
19CD0
  8
MOJI
 10
3331.3119440690989
 20
2004.8040403575919
 30
0.0
 40
30.0
  1
溶融亜鉛めっきM8\U+00d735
 41
0.8
  7
EXT08
 72
     4
 11
3492.7976583548129
 21
2019.8040403575919
 31
0.0
  0
LINE
  5
19D9D
  8
HASEN
 10
1625.141202187363
 20
1431.4276056291601
 30
0.0
 11
1628.6707541078611
 21
1431.4276056291601
 31
0.0
  0
LINE
  5
19D9E
  8
HASEN
 10
1625.1412021873639
 20
1424.4276056291601
 30
0.0
 11
1628.6707541078611
 21
1424.4276056291601
 31
0.0
  0
LINE
  5
19D9F
  8
HASEN
 10
1625.141202187363
 20
1405.4276056291601
 30
0.0
 11
1628.6707541078611
 21
1405.4276056291601
 31
0.0
  0
LINE
  5
19DA0
  8
HASEN
 10
1625.1412021873639
 20
1398.4276056291601
 30
0.0
 11
1628.6707541078611
 21
1398.4276056291601
 31
0.0
  0
LINE
  5
19DA2
  8
HASEN
 10
1502.1409903231461
 20
1434.9276056291601
 30
0.0
 11
1650.1412021873621
 21
1434.9276056291601
 31
0.0
  0
LINE
  5
19DA3
  8
HASEN
 10
1502.1409903231461
 20
1394.9276056291601
 30
0.0
 11
1650.1412021873621
 21
1394.9276056291601
 31
0.0
  0
CIRCLE
  5
19DA4
  8
HASEN
 10
1485.1409903231461
 20
1394.9276056291601
 30
0.0
 40
9.0
  0
CIRCLE
  5
19DA5
  8
HASEN
 10
1485.1409903231461
 20
1434.9276056291601
 30
0.0
 40
9.0
  0
LINE
  5
19DA6
  8
HASEN
 10
1468.1409903231461
 20
1444.9276056291601
 30
0.0
 11
1502.1409903231461
 21
1444.9276056291601
 31
0.0
  0
LINE
  5
19DA7
  8
HASEN
 10
1468.1409903231461
 20
1384.9276056291601
 30
0.0
 11
1502.1409903231461
 21
1384.9276056291601
 31
0.0
  0
LINE
  5
19DA8
  8
HASEN
 10
1468.1409903231461
 20
1434.9276056291601
 30
0.0
 11
1345.5854394361249
 21
1434.9276056291601
 31
0.0
  0
LINE
  5
19DA9
  8
HASEN
 10
1468.1409903231461
 20
1394.9276056291601
 30
0.0
 11
1345.5854394361249
 21
1394.9276056291601
 31
0.0
  0
ARC
  5
19DAA
  8
HASEN
 10
1367.7352262840409
 20
1401.927605629161
 30
0.0
 40
4.5137251813004591
 50
309.15753220714851
 51
50.842467792851558
  0
ARC
  5
19DAB
  8
HASEN
 10
1367.055887515626
 20
1401.9276056291601
 30
0.0
 40
3.5
 50
90.0
 51
270.0
  0
LINE
  5
19DAC
  8
HASEN
 10
1345.5854394361249
 20
1434.9276056291601
 30
0.0
 11
1345.5854394361249
 21
1394.9276056291601
 31
0.0
  0
LINE
  5
19DAD
  8
HASEN
 10
1370.5854394361249
 20
1398.4276056291601
 30
0.0
 11
1370.5854394361249
 21
1394.9276056291601
 31
0.0
  0
LINE
  5
19DAE
  8
HASEN
 10
1370.5854394361229
 20
1398.4276056291601
 30
0.0
 11
1367.055887515626
 21
1398.4276056291601
 31
0.0
  0
CIRCLE
  5
19DAF
  8
HASEN
 10
1358.0854394361249
 20
1414.9276056291601
 30
0.0
 40
9.0
  0
LINE
  5
19DB0
  8
HASEN
 10
1370.5854394361249
 20
1434.9276056291601
 30
0.0
 11
1370.5854394361249
 21
1431.4276056291601
 31
0.0
  0
ARC
  5
19DB1
  8
HASEN
 10
1367.7352262840409
 20
1427.927605629161
 30
0.0
 40
4.5137251813004591
 50
309.15753220714851
 51
50.842467792851558
  0
ARC
  5
19DB2
  8
HASEN
 10
1367.055887515626
 20
1427.9276056291601
 30
0.0
 40
3.5
 50
90.0
 51
270.0
  0
LINE
  5
19DB3
  8
HASEN
 10
1370.5854394361229
 20
1424.4276056291601
 30
0.0
 11
1367.055887515626
 21
1424.4276056291601
 31
0.0
  0
LINE
  5
19DB4
  8
HASEN
 10
1370.5854394361249
 20
1431.4276056291601
 30
0.0
 11
1367.055887515626
 21
1431.4276056291601
 31
0.0
  0
LINE
  5
19DB5
  8
HASEN
 10
1370.5854394361249
 20
1405.4276056291601
 30
0.0
 11
1367.055887515626
 21
1405.4276056291601
 31
0.0
  0
LINE
  5
19DB6
  8
HASEN
 10
1370.5854394361249
 20
1424.4276056291601
 30
0.0
 11
1370.5854394361249
 21
1405.4276056291601
 31
0.0
  0
ARC
  5
19DB7
  8
HASEN
 10
1466.6705422436451
 20
1401.9276056291601
 30
0.0
 40
3.5
 50
270.0
 51
90.0
  0
ARC
  5
19DB8
  8
HASEN
 10
1465.991203475229
 20
1401.927605629161
 30
0.0
 40
4.5137251813004591
 50
129.15753220714839
 51
230.84246779285161
  0
LINE
  5
19DB9
  8
HASEN
 10
1472.1409903231461
 20
1444.9276056291601
 30
0.0
 11
1472.1409903231461
 21
1384.9276056291601
 31
0.0
  0
LINE
  5
19DBA
  8
HASEN
 10
1472.1409903231461
 20
1444.9276056291601
 30
0.0
 11
1472.1409903231461
 21
1384.9276056291601
 31
0.0
  0
LINE
  5
19DBB
  8
HASEN
 10
1472.1409903231461
 20
1444.9276056291601
 30
0.0
 11
1472.1409903231461
 21
1384.9276056291601
 31
0.0
  0
LINE
  5
19DBC
  8
HASEN
 10
1468.1409903231461
 20
1394.9276056291601
 30
0.0
 11
1468.1409903231461
 21
1384.9276056291601
 31
0.0
  0
LINE
  5
19DBD
  8
HASEN
 10
1463.1409903231461
 20
1398.427605629161
 30
0.0
 11
1463.1409903231461
 21
1394.9276056291601
 31
0.0
  0
LINE
  5
19DBE
  8
HASEN
 10
1463.1409903231479
 20
1398.4276056291601
 30
0.0
 11
1466.6705422436451
 21
1398.4276056291601
 31
0.0
  0
ARC
  5
19DBF
  8
HASEN
 10
1466.6705422436451
 20
1427.9276056291601
 30
0.0
 40
3.5
 50
270.0
 51
90.0
  0
LINE
  5
19DC0
  8
HASEN
 10
1463.1409903231461
 20
1434.9276056291601
 30
0.0
 11
1463.1409903231461
 21
1431.4276056291601
 31
0.0
  0
ARC
  5
19DC1
  8
HASEN
 10
1465.991203475229
 20
1427.927605629161
 30
0.0
 40
4.5137251813004591
 50
129.15753220714839
 51
230.84246779285161
  0
LINE
  5
19DC2
  8
HASEN
 10
1463.1409903231461
 20
1431.4276056291601
 30
0.0
 11
1466.6705422436451
 21
1431.4276056291601
 31
0.0
  0
LINE
  5
19DC3
  8
HASEN
 10
1463.1409903231479
 20
1424.4276056291601
 30
0.0
 11
1466.6705422436451
 21
1424.4276056291601
 31
0.0
  0
LINE
  5
19DC4
  8
HASEN
 10
1468.1409903231461
 20
1444.9276056291601
 30
0.0
 11
1468.1409903231461
 21
1434.9276056291601
 31
0.0
  0
LINE
  5
19DC5
  8
HASEN
 10
1463.1409903231461
 20
1405.4276056291601
 30
0.0
 11
1466.6705422436451
 21
1405.4276056291601
 31
0.0
  0
LINE
  5
19DC6
  8
HASEN
 10
1463.1409903231461
 20
1424.427605629161
 30
0.0
 11
1463.1409903231461
 21
1405.4276056291601
 31
0.0
  0
ARC
  5
19DC7
  8
HASEN
 10
1504.290777171062
 20
1401.927605629161
 30
0.0
 40
4.5137251813004591
 50
309.15753220714851
 51
50.842467792851558
  0
ARC
  5
19DC8
  8
HASEN
 10
1503.6114384026471
 20
1401.9276056291601
 30
0.0
 40
3.5
 50
90.0
 51
270.0
  0
LINE
  5
19DC9
  8
HASEN
 10
1507.140990323144
 20
1398.4276056291601
 30
0.0
 11
1503.6114384026471
 21
1398.4276056291601
 31
0.0
  0
LINE
  5
19DCA
  8
HASEN
 10
1502.1409903231461
 20
1394.9276056291601
 30
0.0
 11
1502.1409903231461
 21
1384.9276056291601
 31
0.0
  0
LINE
  5
19DCB
  8
HASEN
 10
1507.1409903231461
 20
1398.427605629161
 30
0.0
 11
1507.1409903231461
 21
1394.9276056291601
 31
0.0
  0
LINE
  5
19DCC
  8
HASEN
 10
1507.1409903231461
 20
1434.9276056291601
 30
0.0
 11
1507.1409903231461
 21
1431.4276056291601
 31
0.0
  0
ARC
  5
19DCD
  8
HASEN
 10
1504.290777171062
 20
1427.927605629161
 30
0.0
 40
4.5137251813004591
 50
309.15753220714851
 51
50.842467792851558
  0
LINE
  5
19DCE
  8
HASEN
 10
1507.140990323144
 20
1424.4276056291601
 30
0.0
 11
1503.6114384026471
 21
1424.4276056291601
 31
0.0
  0
LINE
  5
19DCF
  8
HASEN
 10
1507.1409903231461
 20
1431.4276056291601
 30
0.0
 11
1503.6114384026471
 21
1431.4276056291601
 31
0.0
  0
LINE
  5
19DD0
  8
HASEN
 10
1502.1409903231461
 20
1444.9276056291601
 30
0.0
 11
1502.1409903231461
 21
1434.9276056291601
 31
0.0
  0
ARC
  5
19DD1
  8
HASEN
 10
1503.6114384026471
 20
1427.9276056291601
 30
0.0
 40
3.5
 50
90.0
 51
270.0
  0
LINE
  5
19DD2
  8
HASEN
 10
1507.1409903231461
 20
1405.4276056291601
 30
0.0
 11
1503.6114384026471
 21
1405.4276056291601
 31
0.0
  0
LINE
  5
19DD3
  8
HASEN
 10
1507.1409903231461
 20
1424.427605629161
 30
0.0
 11
1507.1409903231461
 21
1405.4276056291601
 31
0.0
  0
ARC
  5
19DD4
  8
HASEN
 10
1627.9914153394459
 20
1401.927605629161
 30
0.0
 40
4.5137251813004591
 50
129.15753220714839
 51
230.84246779285161
  0
LINE
  5
19DD5
  8
HASEN
 10
1625.141202187363
 20
1398.4276056291601
 30
0.0
 11
1625.141202187363
 21
1394.9276056291601
 31
0.0
  0
LINE
  5
19DD6
  8
HASEN
 10
1625.141202187363
 20
1434.9276056291601
 30
0.0
 11
1625.141202187363
 21
1431.4276056291601
 31
0.0
  0
ARC
  5
19DD7
  8
HASEN
 10
1627.9914153394459
 20
1427.927605629161
 30
0.0
 40
4.5137251813004591
 50
129.15753220714839
 51
230.84246779285161
  0
LINE
  5
19DD8
  8
HASEN
 10
1625.141202187363
 20
1424.4276056291601
 30
0.0
 11
1625.141202187363
 21
1405.4276056291601
 31
0.0
  0
LINE
  5
19DD9
  8
HASEN
 10
1650.1412021873621
 20
1434.9276056291601
 30
0.0
 11
1650.1412021873621
 21
1394.9276056291601
 31
0.0
  0
ARC
  5
19DDA
  8
HASEN
 10
1628.6707541078611
 20
1401.9276056291601
 30
0.0
 40
3.5
 50
270.0
 51
90.0
  0
CIRCLE
  5
19DDB
  8
HASEN
 10
1637.641202187363
 20
1414.9276056291601
 30
0.0
 40
9.0
  0
ARC
  5
19DDC
  8
HASEN
 10
1628.6707541078611
 20
1427.9276056291601
 30
0.0
 40
3.5
 50
270.0
 51
90.0
  0
LINE
  5
19DDD
  8
HASEN
 10
1508.9912021873649
 20
1449.6479670114111
 30
0.0
 11
1508.9912021873649
 21
1174.6479672864159
 31
0.0
  0
LINE
  5
19DDE
  8
HASEN
 10
1623.2912021873581
 20
1449.6479670114099
 30
0.0
 11
1623.2912021873581
 21
1174.6479672864159
 31
0.0
  0
LINE
  5
19DE1
  8
HASEN
 10
1625.6412021873639
 20
1460.6479670114149
 30
0.0
 11
1625.6412021873639
 21
1449.647967011412
 31
0.0
  0
LINE
  5
19DE2
  8
HASEN
 10
1506.6412021873591
 20
1460.6479670114149
 30
0.0
 11
1506.6412021873591
 21
1449.647967011412
 31
0.0
  0
ARC
  5
19DE3
  8
HASEN
 10
1566.1412021873639
 20
1321.657636105514
 30
0.0
 40
151.190482786888
 50
66.82484629025231
 51
90.000000000001194
  0
ARC
  5
19DE4
  8
HASEN
 10
1566.1412021873639
 20
1321.657636105514
 30
0.0
 40
151.190482786888
 50
90.000000000001194
 51
113.1751537097477
  0
LINE
  5
19DE5
  8
HASEN
 10
1625.6412021873639
 20
1460.6479670114149
 30
0.0
 11
1506.6412021873591
 21
1460.6479670114149
 31
0.0
  0
LINE
  5
19DE6
  8
HASEN
 10
1625.6412021873639
 20
1449.6479670114099
 30
0.0
 11
1506.6412021873591
 21
1449.647967011412
 31
0.0
  0
CIRCLE
  5
19DEB
  8
SJC2
 10
1566.1412021873609
 20
1349.6479671464169
 30
0.0
 40
13.64503934301888
  0
LINE
  5
19F16
  8
CENTER
 10
1566.1412021873621
 20
1494.922713388258
 30
0.0
 11
1566.1412021873621
 21
654.95141856655391
 31
0.0
  0
LINE
  5
1A1CF
  8
HASEN
 10
598.93142073162744
 20
1779.6479670114099
 30
0.0
 11
598.93142073162733
 21
779.64796701141211
 31
0.0
  0
LINE
  5
1A1D0
  8
HASEN
 10
673.93142073162744
 20
1779.6479670114099
 30
0.0
 11
673.93142073162755
 21
779.64796701141211
 31
0.0
  0
LINE
  5
1A1D2
  8
HASEN
 10
598.93142073162744
 20
1779.6479670114099
 30
0.0
 11
673.93142073162744
 21
1779.647967011409
 31
0.0
  0
INSERT
  5
1A1D6
  8
0
  2
*U24
 10
0.0
 20
0.0
 30
0.0
1001
ACAD
1000
DSTYLE
1002
{
1070
   140
1040
30.0
1070
   144
1040
0.5
1070
   147
1040
15.0
1070
    42
1040
10.0
1070
    44
1040
10.0
1070
    43
1040
60.0
1070
    41
1040
20.0
1002
}
  0
LINE
  5
1A1D7
  8
HASEN
 10
1379.3632148796371
 20
1779.9276056291581
 30
0.0
 11
1379.363214879636
 21
779.92760562915976
 31
0.0
  0
LINE
  5
1A1D8
  8
HASEN
 10
1454.3632148796371
 20
1779.9276056291581
 30
0.0
 11
1454.3632148796371
 21
779.9276056291601
 31
0.0
  0
LINE
  5
1A1D9
  8
HASEN
 10
1379.3632148796371
 20
1779.9276056291581
 30
0.0
 11
1454.3632148796371
 21
1779.9276056291569
 31
0.0
  0
INSERT
  5
1A1E4
  8
0
  2
*U25
 10
0.0
 20
0.0
 30
0.0
1001
ACAD
1000
DSTYLE
1002
{
1070
   140
1040
30.0
1070
   144
1040
0.5
1070
   147
1040
15.0
1070
    42
1040
10.0
1070
    44
1040
10.0
1070
    43
1040
60.0
1070
    41
1040
20.0
1002
}
  0
TEXT
  5
1A1E5
  8
SUNPOU
 10
825.31034124255427
 20
2146.1769116033452
 30
0.0
 40
30.0
  1
ＣＲゴム
 41
0.8
  7
EXT08
  0
LINE
  5
1A1E6
  8
SUNPOU
 10
822.83416046647733
 20
2181.0047748602028
 30
0.0
 11
1078.2454668185419
 21
2181.0047748602028
 31
0.0
1001
ACAD
1000
DSTYLE
1002
{
1070
    77
1070
     0
1070
    40
1040
10.0
1070
   147
1040
1.1999999999999991
1070
   176
1070
     0
1070
   177
1070
     0
1070
   178
1070
     0
1070
   179
1070
     2
1070
   271
1070
     2
1002
}
  0
TEXT
  5
1A1E7
  8
SUNPOU
 10
825.31034124255427
 20
2186.7627953523138
 30
0.0
 40
30.0
  1
弾性サイン板（大）
 41
0.8
  7
EXT08
  0
LINE
  5
1A1F4
  8
MOJI
 10
3663.0844272244772
 20
2091.8040403395962
 30
0.0
 11
2539.8840360922268
 21
2091.8040403395971
 31
0.0
  0
TEXT
  5
1A205
  8
MOJI
 10
2608.0144531848482
 20
2100.0938730072799
 30
0.0
 40
30.0
  1
芯      材
 41
0.8
  7
EXT08
 72
     4
 11
2676.8144531848479
 21
2115.0938730072799
 31
0.0
  0
TEXT
  5
1A206
  8
MOJI
 10
2935.5431450817732
 20
2100.0938730072799
 30
0.0
 40
30.0
  1
A6063S-T5
 41
0.8
  7
EXT08
 11
2935.5431450817732
 21
2115.0938730072799
 31
0.0
 73
     2
  0
TEXT
  5
1A207
  8
MOJI
 10
2853.8288593854882
 20
2100.0938730072799
 30
0.0
 40
30.0
  1
1
 41
0.8
  7
EXT08
 72
     4
 11
2863.5431450997739
 21
2115.0938730072799
 31
0.0
  0
INSERT
  5
1A39C
  8
0
  2
*U26
 10
0.0
 20
0.0
 30
0.0
1001
ACAD
1000
DSTYLE
1002
{
1070
   140
1040
30.0
1070
   144
1040
0.5
1070
   147
1040
15.0
1070
    42
1040
10.0
1070
    44
1040
10.0
1070
    43
1040
60.0
1070
    41
1040
20.0
1002
}
  0
INSERT
  5
1AECC
  8
0
  2
*U27
 10
0.0
 20
0.0
 30
0.0
1001
ACAD
1000
DSTYLE
1002
{
1070
   140
1040
30.0
1070
   144
1040
0.5
1070
   147
1040
15.0
1070
    42
1040
10.0
1070
    44
1040
10.0
1070
    43
1040
60.0
1070
    41
1040
20.0
1002
}
  0
TEXT
  5
1AECD
  8
SUNPOU
 10
1530.993403573935
 20
2345.236869350038
 30
0.0
 40
30.0
  1
ポリエチレン樹脂
 41
0.8
  7
EXT08
  0
LINE
  5
1AECE
  8
SUNPOU
 10
1528.517222797858
 20
2380.0647326068961
 30
0.0
 11
1760.098339394586
 21
2380.0647326068961
 31
0.0
1001
ACAD
1000
DSTYLE
1002
{
1070
    77
1070
     0
1070
    40
1040
10.0
1070
   147
1040
1.1999999999999991
1070
   176
1070
     0
1070
   177
1070
     0
1070
   178
1070
     0
1070
   179
1070
     2
1070
   271
1070
     2
1002
}
  0
TEXT
  5
1AECF
  8
SUNPOU
 10
1530.993403573935
 20
2385.822753099008
 30
0.0
 40
30.0
  1
キャップ
 41
0.8
  7
EXT08
  0
INSERT
  5
1AED0
  8
0
  2
*U28
 10
0.0
 20
0.0
 30
0.0
1001
ACAD
1000
DSTYLE
1002
{
1070
   140
1040
30.0
1070
   144
1040
0.5
1070
   147
1040
15.0
1070
    42
1040
10.0
1070
    44
1040
10.0
1070
    43
1040
60.0
1070
    41
1040
20.0
1002
}
  0
TEXT
  5
1AED1
  8
SUNPOU
 10
1562.145127545431
 20
2218.402842134602
 30
0.0
 40
30.0
  1
カプセルレンズ型反射シート
 41
0.8
  7
EXT08
  0
LINE
  5
1AED2
  8
SUNPOU
 10
1559.6689467693541
 20
2253.2307053914601
 30
0.0
 11
1937.960449213693
 21
2253.2307053914601
 31
0.0
1001
ACAD
1000
DSTYLE
1002
{
1070
    77
1070
     0
1070
    40
1040
10.0
1070
   147
1040
1.1999999999999991
1070
   176
1070
     0
1070
   177
1070
     0
1070
   178
1070
     0
1070
   179
1070
     2
1070
   271
1070
     2
1002
}
  0
TEXT
  5
1AED3
  8
SUNPOU
 10
1562.145127545431
 20
2258.988725883572
 30
0.0
 40
30.0
  1
反射材
 41
0.8
  7
EXT08
  0
TEXT
  5
1AED5
  8
SUNPOU
 10
704.75631888581381
 20
1546.0202495001211
 30
0.0
 40
30.0
  1
ポリエチレン樹脂＋ガラス繊維
 41
0.8
  7
EXT08
  0
LINE
  5
1AED6
  8
SUNPOU
 10
702.28013810973687
 20
1580.8481127569789
 30
0.0
 11
1102.869491852889
 21
1580.8481127569789
 31
0.0
1001
ACAD
1000
DSTYLE
1002
{
1070
    77
1070
     0
1070
    40
1040
10.0
1070
   147
1040
1.1999999999999991
1070
   176
1070
     0
1070
   177
1070
     0
1070
   178
1070
     0
1070
   179
1070
     2
1070
   271
1070
     2
1002
}
  0
TEXT
  5
1AED7
  8
SUNPOU
 10
704.75631888581381
 20
1586.606133249091
 30
0.0
 40
30.0
  1
支柱（\U+03c689\U+00d7ｔ6）
 41
0.8
  7
EXT08
  0
TEXT
  5
1AED8
  8
SUNPOU
 10
709.37360826380336
 20
1066.045229524294
 30
0.0
 40
30.0
  1
A6063S-T5
 41
0.8
  7
EXT08
  0
LINE
  5
1AED9
  8
SUNPOU
 10
706.8974274877263
 20
1100.8730927811521
 30
0.0
 11
969.77036472934014
 21
1100.8730927811521
 31
0.0
1001
ACAD
1000
DSTYLE
1002
{
1070
    77
1070
     0
1070
    40
1040
10.0
1070
   147
1040
1.1999999999999991
1070
   176
1070
     0
1070
   177
1070
     0
1070
   178
1070
     0
1070
   179
1070
     2
1070
   271
1070
     2
1002
}
  0
TEXT
  5
1AEDA
  8
SUNPOU
 10
709.37360826380336
 20
1106.631113273264
 30
0.0
 40
30.0
  1
芯材（\U+03c675\U+00d7ｔ2）
 41
0.8
  7
EXT08
  0
LINE
  5
1AEEA
  8
SUNPOU
 10
1503.062060305675
 20
559.85073065514825
 30
0.0
 11
1734.643176902402
 21
559.85073065514825
 31
0.0
1001
ACAD
1000
DSTYLE
1002
{
1070
    77
1070
     0
1070
    40
1040
10.0
1070
   147
1040
1.1999999999999991
1070
   176
1070
     0
1070
   177
1070
     0
1070
   178
1070
     0
1070
   179
1070
     2
1070
   271
1070
     2
1002
}
  0
TEXT
  5
1AEEB
  8
SUNPOU
 10
1505.538241081751
 20
565.60875114725968
 30
0.0
 40
30.0
  1
ボルト・ナット
 41
0.8
  7
EXT08
  0
INSERT
  5
1AEEC
  8
0
  2
*U29
 10
0.0
 20
0.0
 30
0.0
1001
ACAD
1000
DSTYLE
1002
{
1070
   140
1040
30.0
1070
   144
1040
0.5
1070
   147
1040
15.0
1070
    42
1040
10.0
1070
    44
1040
10.0
1070
    43
1040
60.0
1070
    41
1040
20.0
1002
}
  0
LINE
  5
1AEEE
  8
SUNPOU
 10
749.15863553713007
 20
885.11945973909712
 30
0.0
 11
894.5944453505507
 21
885.11945973909712
 31
0.0
1001
ACAD
1000
DSTYLE
1002
{
1070
    77
1070
     0
1070
    40
1040
10.0
1070
   147
1040
1.1999999999999991
1070
   176
1070
     0
1070
   177
1070
     0
1070
   178
1070
     0
1070
   179
1070
     2
1070
   271
1070
     2
1002
}
  0
TEXT
  5
1AEEF
  8
SUNPOU
 10
751.63481631320701
 20
890.87748023120855
 30
0.0
 40
30.0
  1
親子バンド
 41
0.8
  7
EXT08
  0
LINE
  5
1B134
  8
HASEN
 10
1379.3632148796371
 20
779.92760562915987
 30
0.0
 11
1454.3632148796371
 21
779.92760562916021
 31
0.0
  0
LINE
  5
1B135
  8
HASEN
 10
598.93142073162733
 20
779.64796701141211
 30
0.0
 11
673.93142073162755
 21
779.64796701141222
 31
0.0
  0
LINE
  5
1B48B
  8
SJC
 10
1400.36321487952
 20
1975.3612339477941
 30
0.0
 11
1400.363214879688
 21
1772.493977310658
 31
0.0
  0
LINE
  5
1B48C
  8
SJC
 10
1400.3632148795409
 20
2014.4939773104859
 30
0.0
 11
1400.3632148796321
 21
2217.3612339476381
 31
0.0
  0
LINE
  5
1B643
  8
SJC
 10
569.2314207316266
 20
1744.647967011412
 30
0.0
 11
705.23142073162671
 21
1744.647967011412
 31
0.0
  0
ARC
  5
1B646
  8
SJC
 10
705.23142073162671
 20
1751.647967011412
 30
0.0
 40
12.0
 50
270.0
 51
0.0
  0
ARC
  5
1B647
  8
SJC
 10
705.23142073162671
 20
1751.647967011412
 30
0.0
 40
7.0
 50
270.0
 51
0.0
  0
ARC
  5
1B64A
  8
SJC
 10
569.2314207316266
 20
1751.647967011412
 30
0.0
 40
12.0
 50
180.0
 51
270.0
  0
ARC
  5
1B64B
  8
SJC
 10
569.2314207316266
 20
1751.647967011412
 30
0.0
 40
7.0
 50
180.0
 51
270.0
  0
LINE
  5
1B64D
  8
SJC
 10
705.23142073162671
 20
1739.647967011412
 30
0.0
 11
569.2314207316266
 21
1739.647967011412
 31
0.0
  0
DIMENSION
  5
1B690
  8
SUNPOU
  2
*D12
 10
484.05646639394951
 20
2249.6479670114149
 30
0.0
 11
457.05646639394911
 21
1994.6479670114129
 31
0.0
 70
     0
 13
569.2314207316266
 23
1739.647967011412
 33
0.0
 14
569.2314207316266
 24
2249.6479670114149
 34
0.0
 50
90.0
1001
ACAD
1000
DSTYLE
1002
{
1070
   287
1070
     5
1070
    40
1040
10.0
1070
    41
1040
2.0
1070
    42
1040
1.0
1070
    43
1040
6.0
1070
    44
1040
1.0
1070
    73
1070
     0
1070
    74
1070
     0
1070
    77
1070
     1
1070
    78
1070
     8
1070
   140
1040
3.0
1070
   147
1040
1.1999999999999991
1070
   172
1070
     1
1070
   179
1070
     2
1070
   271
1070
     2
1070
   279
1070
     2
1070
   340
1005
55
1002
}
  0
LINE
  5
1B75B
  8
SJC
 10
1364.3632148796351
 20
2247.927605629161
 30
0.0
 11
1364.3632148796351
 21
1741.927605629121
 31
0.0
  0
LINE
  5
1BC1E
  8
CENTER
 10
2229.8293558282348
 20
1658.845885401412
 30
0.0
 11
2229.8293558282348
 21
88.845885401423402
 31
0.0
  0
LINE
  5
1BC1F
  8
SUNPOU
 10
2259.8293558282348
 20
118.8458854014243
 30
0.0
 11
2259.8293558282348
 21
88.845885401423402
 31
0.0
  0
LINE
  5
1BC20
  8
SUNPOU
 10
2199.8293558282348
 20
148.8458854014234
 30
0.0
 11
2199.8293558282348
 21
118.8458854014243
 31
0.0
  0
LINE
  5
1BC25
  8
SJC
 10
2317.3293558282348
 20
498.84588540142289
 30
0.0
 11
2317.3293558282348
 21
118.84588540142479
 31
0.0
1001
ACAD
1000
ASC_BOUNDS
1002
{
1070
    19
1005
0
1002
}
  0
LINE
  5
1BC26
  8
SJC
 10
2142.3293558282348
 20
498.84588540142289
 30
0.0
 11
2142.3293558282348
 21
118.8458854014229
 31
0.0
1001
ACAD
1000
ASC_BOUNDS
1002
{
1070
    19
1005
0
1002
}
  0
LINE
  5
1BC27
  8
SJC
 10
2142.3293558282348
 20
1598.8458854014259
 30
0.0
 11
2317.3293558282348
 21
1598.8458854014259
 31
0.0
  0
ARC
  5
1BC28
  8
SJC
 10
2229.8293558282348
 20
1523.1427604013841
 30
0.0
 40
115.7031250000273
 50
40.86565735880388
 51
139.1343426411961
  0
LINE
  5
1BC29
  8
SJC
 10
2093.829355828233
 20
1508.845885401422
 30
0.0
 11
2365.8293558282398
 21
1508.8458854014241
 31
0.0
  0
LINE
  5
1BC2A
  8
SJC
 10
2142.3293558282348
 20
1598.8458854014259
 30
0.0
 11
2142.3293558282348
 21
1518.8458854014241
 31
0.0
  0
LINE
  5
1BC2B
  8
SJC
 10
2317.3293558282348
 20
1598.8458854014259
 30
0.0
 11
2317.3293558282348
 21
1518.8458854014229
 31
0.0
  0
LINE
  5
1BC31
  8
SJC
 10
2093.8293558282348
 20
508.84588540142391
 30
0.0
 11
2365.8293558282348
 21
508.84588540142431
 31
0.0
  0
LINE
  5
1BC32
  8
SJC
 10
2079.829355828233
 20
1494.8458854014241
 30
0.0
 11
2079.8293558282421
 21
522.84588540142374
 31
0.0
  0
LINE
  5
1BC33
  8
SJC
 10
2379.8293558282421
 20
1494.8458854014241
 30
0.0
 11
2379.8293558282298
 21
522.84588540142408
 31
0.0
  0
LINE
  5
1BC34
  8
SJC
 10
2069.829355828233
 20
1494.8458854014241
 30
0.0
 11
2069.8293558282389
 21
522.84588540142374
 31
0.0
  0
ARC
  5
1BC35
  8
SJC
 10
2093.829355828233
 20
1494.8458854014241
 30
0.0
 40
24.0
 50
90.0
 51
180.0
  0
ARC
  5
1BC36
  8
SJC
 10
2093.829355828233
 20
1494.8458854014241
 30
0.0
 40
14.0
 50
90.0
 51
180.0
  0
LINE
  5
1BC37
  8
SJC
 10
2389.8293558282398
 20
1494.8458854014241
 30
0.0
 11
2389.8293558282348
 21
522.8458854014242
 31
0.0
  0
ARC
  5
1BC38
  8
SJC
 10
2365.8293558282348
 20
522.84588540142431
 30
0.0
 40
24.0
 50
270.0
 51
0.0
  0
ARC
  5
1BC39
  8
SJC
 10
2365.8293558282348
 20
522.84588540142431
 30
0.0
 40
14.0
 50
270.0
 51
0.0
  0
ARC
  5
1BC3A
  8
SJC
 10
2365.8293558282398
 20
1494.8458854014241
 30
0.0
 40
24.0
 50
0.0
 51
90.0
  0
ARC
  5
1BC3B
  8
SJC
 10
2365.8293558282398
 20
1494.8458854014241
 30
0.0
 40
14.0
 50
0.0
 51
90.0
  0
ARC
  5
1BC3C
  8
SJC
 10
2093.8293558282348
 20
522.84588540142386
 30
0.0
 40
24.0
 50
180.0
 51
270.0
  0
ARC
  5
1BC3D
  8
SJC
 10
2093.8293558282348
 20
522.84588540142386
 30
0.0
 40
14.0
 50
180.0
 51
270.0
  0
LINE
  5
1BC3E
  8
SJC
 10
2365.8293558282398
 20
1518.8458854014241
 30
0.0
 11
2093.829355828233
 21
1518.8458854014241
 31
0.0
  0
LINE
  5
1BC40
  8
SUNPOU
 10
2355.8293558282389
 20
118.84588540142521
 30
0.0
 11
2259.8293558282348
 21
118.8458854014243
 31
0.0
  0
LINE
  5
1BC42
  8
CENTER
 10
2981.978662656893
 20
1658.845885401412
 30
0.0
 11
2981.978662656893
 21
88.845885401423402
 31
0.0
  0
LINE
  5
1BC44
  8
SJC
 10
3069.478662656893
 20
1598.8458854014259
 30
0.0
 11
3069.4786626568939
 21
118.84588540142479
 31
0.0
1001
ACAD
1000
ASC_BOUNDS
1002
{
1070
    19
1005
0
1002
}
  0
LINE
  5
1BC45
  8
SJC
 10
2894.4786626568912
 20
498.84588540136559
 30
0.0
 11
2894.4786626568912
 21
118.84588540142479
 31
0.0
1001
ACAD
1000
ASC_BOUNDS
1002
{
1070
    19
1005
0
1002
}
  0
LINE
  5
1BC46
  8
SJC
 10
2894.478662656893
 20
1598.8458854014259
 30
0.0
 11
3069.478662656893
 21
1598.8458854014259
 31
0.0
  0
ARC
  5
1BC47
  8
SJC
 10
2981.978662656893
 20
1523.1427604013841
 30
0.0
 40
115.7031250000273
 50
40.86565735880388
 51
139.1343426411961
  0
LINE
  5
1BC48
  8
SJC
 10
2894.478662656893
 20
1598.8458854014259
 30
0.0
 11
2894.478662656893
 21
1518.8458854014241
 31
0.0
  0
LINE
  5
1BC4A
  8
HATCH
 10
2894.478662656893
 20
1598.8458854014259
 30
0.0
 11
3069.478662656893
 21
1598.8458854014259
 31
0.0
1001
ACAD
1000
ASC_BOUNDS
1002
{
1070
    19
1005
1C30E
1002
}
  0
LINE
  5
1BC4B
  8
HATCH
 10
3069.478662656893
 20
1598.8458854014259
 30
0.0
 11
3069.478662656893
 21
1518.8458854014241
 31
0.0
1001
ACAD
1000
ASC_BOUNDS
1002
{
1070
    19
1005
1C30E
1002
}
  0
LINE
  5
1BC4C
  8
HATCH
 10
3069.478662656893
 20
1518.8458854014241
 30
0.0
 11
2894.478662656893
 21
1518.8458854014241
 31
0.0
1001
ACAD
1000
ASC_BOUNDS
1002
{
1070
    19
1005
1C30E
1002
}
  0
LINE
  5
1BC4D
  8
HATCH
 10
2894.478662656893
 20
1518.8458854014241
 30
0.0
 11
2894.4786626568898
 21
1598.8458854014259
 31
0.0
1001
ACAD
1000
ASC_BOUNDS
1002
{
1070
    19
1005
1C30E
1002
}
  0
LINE
  5
1BC4E
  8
SJC
 10
2876.978662656893
 20
1509.8458854018929
 30
0.0
 11
2876.978662656893
 21
902.84588540149798
 31
0.0
  0
LINE
  5
1BC50
  8
SJC
 10
2888.9786626570012
 20
1508.84588540144
 30
0.0
 11
2888.9786626570012
 21
1368.845885401412
 31
0.0
  0
LINE
  5
1BC51
  8
SJC
 10
2884.978662656888
 20
1518.8458854014291
 30
0.0
 11
2880.978662656888
 21
1518.845885401427
 31
0.0
  0
ARC
  5
1BC52
  8
SJC
 10
2884.9786626568889
 20
1514.8458854014291
 30
0.0
 40
4.0
 50
0.0000000000260551
 51
90.0
  0
ARC
  5
1BC53
  8
SJC
 10
2880.9786626568898
 20
1514.845885401427
 30
0.0
 40
4.0
 50
90.0
 51
180.0
  0
LINE
  5
1BC54
  8
SJC
 10
2876.9786626568898
 20
1514.845885401425
 30
0.0
 11
2876.978662656893
 21
1509.8458854014241
 31
0.0
  0
LINE
  5
1BC55
  8
SJC
 10
2888.9786626568898
 20
1514.8458854014309
 30
0.0
 11
2888.97866265725
 21
502.84588540136389
 31
0.0
  0
LINE
  5
1BC57
  8
SJC
 10
3001.9786626583741
 20
1508.845885401385
 30
0.0
 11
3001.9786626583609
 21
1474.6704298844641
 31
0.0
  0
ARC
  5
1BC58
  8
SJC
 10
2991.9786626583741
 20
1508.8458854013879
 30
0.0
 40
10.0
 50
359.99999999997402
 51
90.0
  0
LINE
  5
1BC59
  8
SJC
 10
2991.9786626583768
 20
1518.8458854013941
 30
0.0
 11
2884.9786626568912
 21
1518.8458854014279
 31
0.0
  0
LINE
  5
1BC5A
  8
CENTER
 10
2981.9786626583718
 20
1489.8458854013909
 30
0.0
 11
2981.9786626583668
 21
1471.84588540139
 31
0.0
  0
LINE
  5
1BC5B
  8
CENTER
 10
2990.97866265837
 20
1480.8458854013879
 30
0.0
 11
2972.97866265837
 21
1480.8458854013929
 31
0.0
  0
LINE
  5
1BC5F
  8
SJC
 10
2876.978662656893
 20
1509.8458854014241
 30
0.0
 11
2876.978662656893
 21
502.84588540136622
 31
0.0
  0
LINE
  5
1BC60
  8
SJC
 10
2994.3838023871249
 20
1464.963973121821
 30
0.0
 11
2888.9786626569112
 21
1438.8458854014279
 31
0.0
  0
ARC
  5
1BC61
  8
SJC
 10
2991.9786626583609
 20
1474.670429884467
 30
0.0
 40
10.0
 50
283.9168774331053
 51
359.99999999997402
  0
LINE
  5
1BC74
  8
SJC
 10
2948.978662656707
 20
1453.7131420383359
 30
0.0
 11
2948.9786626568921
 21
1045.4786287640379
 31
0.0
  0
CIRCLE
  5
1BC75
  8
SJC
 10
2229.8293558282348
 20
1981.258241207966
 30
0.0
 40
86.999999999999076
  0
CIRCLE
  5
1BC76
  8
SJC
 10
2229.8293558282348
 20
1981.258241207966
 30
0.0
 40
88.999999999999091
  0
CIRCLE
  5
1BC77
  8
SJC
 10
2229.8293558282348
 20
1981.258241207966
 30
0.0
 40
76.999999999999091
  0
CIRCLE
  5
1BC78
  8
SJC
 10
2229.8293558282348
 20
2062.2582412079651
 30
0.0
 40
0.5
  0
CIRCLE
  5
1BC79
  8
SJC
 10
2204.7989792838639
 20
2058.2938190278728
 30
0.0
 40
0.5
  0
CIRCLE
  5
1BC7A
  8
SJC
 10
2217.158164159976
 20
2061.2609967961721
 30
0.0
 40
0.5
  0
CIRCLE
  5
1BC7B
  8
SJC
 10
2182.2187503925452
 20
2046.788617752336
 30
0.0
 40
0.5
  0
CIRCLE
  5
1BC7C
  8
SJC
 10
2193.0561253493329
 20
2053.4297696672238
 30
0.0
 40
0.5
  0
CIRCLE
  5
1BC7D
  8
SJC
 10
2172.5537065521248
 20
2038.5338904840751
 30
0.0
 40
0.5
  0
CIRCLE
  5
1BC7E
  8
SJC
 10
2306.8649336481408
 20
1956.2278646635959
 30
0.0
 40
0.5
  0
CIRCLE
  5
1BC7F
  8
SJC
 10
2164.2989792838648
 20
2028.8688466436561
 30
0.0
 40
0.5
  0
CIRCLE
  5
1BC80
  8
SJC
 10
2157.6578273689788
 20
2018.0314716868691
 30
0.0
 40
0.5
  0
CIRCLE
  5
1BC81
  8
SJC
 10
2152.793778008328
 20
2006.2886177523369
 30
0.0
 40
0.5
  0
CIRCLE
  5
1BC82
  8
SJC
 10
2149.8266002400301
 20
1993.9294328762251
 30
0.0
 40
0.5
  0
CIRCLE
  5
1BC83
  8
SJC
 10
2148.8293558282362
 20
1981.258241207966
 30
0.0
 40
0.5
  0
CIRCLE
  5
1BC84
  8
SJC
 10
2149.8266002400301
 20
1968.5870495397071
 30
0.0
 40
0.5
  0
CIRCLE
  5
1BC85
  8
SJC
 10
2152.793778008328
 20
1956.2278646635959
 30
0.0
 40
0.5
  0
CIRCLE
  5
1BC86
  8
SJC
 10
2157.6578273689788
 20
1944.4850107290631
 30
0.0
 40
0.5
  0
CIRCLE
  5
1BC87
  8
SJC
 10
2164.2989792838648
 20
1933.647635772277
 30
0.0
 40
0.5
  0
CIRCLE
  5
1BC88
  8
SJC
 10
2172.5537065521262
 20
1923.9825919318559
 30
0.0
 40
0.5
  0
CIRCLE
  5
1BC89
  8
SJC
 10
2182.2187503925452
 20
1915.7278646635971
 30
0.0
 40
0.5
  0
CIRCLE
  5
1BC8A
  8
SJC
 10
2193.056125349332
 20
1909.086712748709
 30
0.0
 40
0.5
  0
CIRCLE
  5
1BC8B
  8
SJC
 10
2204.7989792838648
 20
1904.22266338806
 30
0.0
 40
0.5
  0
CIRCLE
  5
1BC8C
  8
SJC
 10
2217.1581641599769
 20
1901.255485619761
 30
0.0
 40
0.5
  0
CIRCLE
  5
1BC8D
  8
SJC
 10
2229.8293558282348
 20
1900.2582412079671
 30
0.0
 40
0.5
  0
CIRCLE
  5
1BC8E
  8
SJC
 10
2242.5005474964942
 20
1901.255485619761
 30
0.0
 40
0.5
  0
CIRCLE
  5
1BC8F
  8
SJC
 10
2254.8597323726049
 20
1904.22266338806
 30
0.0
 40
0.5
  0
CIRCLE
  5
1BC90
  8
SJC
 10
2266.6025863071382
 20
1909.086712748709
 30
0.0
 40
0.5
  0
CIRCLE
  5
1BC91
  8
SJC
 10
2277.4399612639249
 20
1915.7278646635971
 30
0.0
 40
0.5
  0
CIRCLE
  5
1BC92
  8
SJC
 10
2287.1050051043449
 20
1923.9825919318571
 30
0.0
 40
0.5
  0
CIRCLE
  5
1BC93
  8
SJC
 10
2295.359732372604
 20
1933.647635772277
 30
0.0
 40
0.5
  0
CIRCLE
  5
1BC94
  8
SJC
 10
2302.0008842874922
 20
1944.485010729064
 30
0.0
 40
0.5
  0
CIRCLE
  5
1BC95
  8
SJC
 10
2309.8321114164401
 20
1968.587049539708
 30
0.0
 40
0.5
  0
CIRCLE
  5
1BC96
  8
SJC
 10
2310.8293558282339
 20
1981.258241207966
 30
0.0
 40
0.5
  0
CIRCLE
  5
1BC97
  8
SJC
 10
2309.8321114164401
 20
1993.9294328762251
 30
0.0
 40
0.5
  0
CIRCLE
  5
1BC98
  8
SJC
 10
2306.8649336481408
 20
2006.2886177523369
 30
0.0
 40
0.5
  0
CIRCLE
  5
1BC99
  8
SJC
 10
2295.359732372604
 20
2028.8688466436561
 30
0.0
 40
0.5
  0
CIRCLE
  5
1BC9A
  8
SJC
 10
2302.0008842874922
 20
2018.0314716868691
 30
0.0
 40
0.5
  0
CIRCLE
  5
1BC9B
  8
SJC
 10
2287.1050051043449
 20
2038.5338904840751
 30
0.0
 40
0.5
  0
CIRCLE
  5
1BC9C
  8
SJC
 10
2277.4399612639249
 20
2046.788617752336
 30
0.0
 40
0.5
  0
CIRCLE
  5
1BC9D
  8
SJC
 10
2266.6025863071382
 20
2053.4297696672238
 30
0.0
 40
0.5
  0
CIRCLE
  5
1BC9E
  8
SJC
 10
2242.5005474964942
 20
2061.2609967961721
 30
0.0
 40
0.5
  0
CIRCLE
  5
1BC9F
  8
SJC
 10
2254.8597323726049
 20
2058.2938190278728
 30
0.0
 40
0.5
  0
TEXT
  5
1BCA0
  8
MOJI2
 10
2039.9569878507409
 20
1792.9669290291531
 30
0.0
 40
40.0
  1
A-A 断面図 S=1/5
 41
0.8
  7
EXT08
  0
LINE
  5
1BCA1
  8
SJC
 10
2026.240693278394
 20
1774.1757030827209
 30
0.0
 11
2463.2692647069662
 21
1774.1757030827209
 31
0.0
  0
TEXT
  5
1BCA2
  8
SUNPOU
 10
1964.1372512987709
 20
2110.1972370231861
 30
0.0
 40
30.0
  1
ガラス繊維
 41
0.8
  7
EXT08
  0
TEXT
  5
1BCA3
  8
SUNPOU
 10
2287.8531768785201
 20
2140.7222782450108
 30
0.0
 40
30.0
  1
リサイクル原料
 41
0.8
  7
EXT08
  0
INSERT
  5
1BCA4
  8
0
  2
*U30
 10
0.0
 20
0.0
 30
0.0
1001
ACAD
1000
DSTYLE
1002
{
1070
   371
1070
     0
1070
    41
1040
2.0
1070
    77
1070
     0
1070
    40
1040
10.0
1070
   147
1040
1.1999999999999991
1070
   176
1070
     0
1070
   177
1070
     0
1070
   178
1070
     0
1070
   179
1070
     2
1070
   271
1070
     2
1002
}
  0
INSERT
  5
1BCA5
  8
0
  2
*U31
 10
0.0
 20
0.0
 30
0.0
1001
ACAD
1000
DSTYLE
1002
{
1070
   371
1070
     0
1070
    41
1040
2.0
1070
    77
1070
     0
1070
    40
1040
10.0
1070
   147
1040
1.1999999999999991
1070
   176
1070
     0
1070
   177
1070
     0
1070
   178
1070
     0
1070
   179
1070
     2
1070
   271
1070
     2
1002
}
  0
TEXT
  5
1BCA6
  8
SUNPOU
 10
2328.3778614423659
 20
2085.7368467989982
 30
0.0
 40
30.0
  1
(内層材)
 41
0.8
  7
EXT08
  0
LINE
  5
1BCA7
  8
SUNPOU
 10
2103.8293558282312
 20
118.84588540142521
 30
0.0
 11
2199.8293558282348
 21
118.8458854014243
 31
0.0
  0
LINE
  5
1BCA8
  8
SUNPOU
 10
2199.8293558282348
 20
148.8458854014234
 30
0.0
 11
2259.8293558282348
 21
88.845885401423402
 31
0.0
  0
LINE
  5
1BCA9
  8
SUNPOU
 10
3011.978662656893
 20
118.8458854014243
 30
0.0
 11
3011.978662656893
 21
88.845885401423402
 31
0.0
  0
LINE
  5
1BCAA
  8
SUNPOU
 10
2951.978662656893
 20
148.8458854014234
 30
0.0
 11
2951.978662656893
 21
118.8458854014243
 31
0.0
  0
LINE
  5
1BCAB
  8
SUNPOU
 10
3107.9786626568971
 20
118.84588540142521
 30
0.0
 11
3011.978662656893
 21
118.8458854014243
 31
0.0
  0
LINE
  5
1BCAC
  8
SUNPOU
 10
2855.9786626568898
 20
118.84588540142521
 30
0.0
 11
2951.978662656893
 21
118.8458854014243
 31
0.0
  0
LINE
  5
1BCAD
  8
SUNPOU
 10
2951.978662656893
 20
148.8458854014234
 30
0.0
 11
3011.978662656893
 21
88.845885401423402
 31
0.0
  0
TEXT
  5
1BCAE
  8
SUNPOU
 10
2044.4097130482569
 20
239.70643810793081
 30
0.0
 40
30.0
  1
A
 41
0.8
  7
EXT08
  0
TEXT
  5
1BCAF
  8
SUNPOU
 10
2389.409713048256
 20
239.70643810793081
 30
0.0
 40
30.0
  1
A
 41
0.8
  7
EXT08
  0
LINE
  5
1BCB0
  8
SUNPOU
 10
2387.3293558281571
 20
195.1607621988787
 30
0.0
 11
2417.3293558281571
 21
195.1607621988787
 31
0.0
  0
LINE
  5
1BCB1
  8
SUNPOU
 10
2417.3293558281571
 20
195.1607621988787
 30
0.0
 11
2402.3293558281571
 21
160.1607621988787
 31
0.0
  0
LINE
  5
1BCB2
  8
SUNPOU
 10
2402.3293558281571
 20
160.1607621988787
 30
0.0
 11
2402.3293558281571
 21
219.2795007530722
 31
0.0
  0
LINE
  5
1BCB3
  8
SUNPOU
 10
2402.3293558281571
 20
219.2795007530722
 30
0.0
 11
2057.3293558281571
 21
219.2795007530722
 31
0.0
  0
LINE
  5
1BCB4
  8
SUNPOU
 10
2057.3293558281571
 20
219.2795007530722
 30
0.0
 11
2057.3293558281571
 21
160.1607621988787
 31
0.0
  0
LINE
  5
1BCB5
  8
SUNPOU
 10
2057.3293558281571
 20
160.1607621988787
 30
0.0
 11
2042.3293558281571
 21
195.1607621988787
 31
0.0
  0
LINE
  5
1BCB6
  8
SUNPOU
 10
2042.3293558281571
 20
195.1607621988787
 30
0.0
 11
2072.3293558281571
 21
195.1607621988787
 31
0.0
  0
DIMENSION
  5
1BCBA
  8
SUNPOU
  2
*D13
 10
2389.8293558282398
 20
1681.3583218721069
 30
0.0
 11
2229.8293558282371
 21
1708.3583218721069
 31
0.0
 70
     0
 13
2069.829355828233
 23
1494.8458854014241
 33
0.0
 14
2389.8293558282398
 24
1494.8458854014241
 34
0.0
1001
ACAD
1000
DSTYLE
1002
{
1070
   287
1070
     5
1070
   144
1040
0.5
1070
    40
1040
10.0
1070
    41
1040
2.0
1070
    42
1040
1.0
1070
    43
1040
6.0
1070
    44
1040
1.0
1070
    73
1070
     0
1070
    74
1070
     0
1070
    77
1070
     1
1070
    78
1070
     8
1070
   140
1040
3.0
1070
   147
1040
1.1999999999999991
1070
   172
1070
     1
1070
   179
1070
     2
1070
   271
1070
     2
1070
   279
1070
     2
1070
   340
1005
55
1002
}
  0
DIMENSION
  5
1BCBB
  8
SUNPOU
  2
*D14
 10
2079.8293558282362
 20
1262.517558772812
 30
0.0
 11
2049.3082399230302
 21
1289.3969684383519
 31
0.0
 70
   128
 13
2069.8293558282348
 23
1218.8458854014241
 33
0.0
 14
2079.8293558282362
 24
1218.8458854014241
 34
0.0
1001
ACAD
1000
DSTYLE
1002
{
1070
   287
1070
     5
1070
   144
1040
0.5
1070
    40
1040
10.0
1070
    41
1040
2.0
1070
    42
1040
1.0
1070
    43
1040
6.0
1070
    44
1040
1.0
1070
    73
1070
     0
1070
    74
1070
     0
1070
    77
1070
     1
1070
    78
1070
     8
1070
   140
1040
3.0
1070
   147
1040
1.1999999999999991
1070
   172
1070
     1
1070
   179
1070
     2
1070
   271
1070
     2
1070
   279
1070
     2
1070
   340
1005
55
1002
}
  0
DIMENSION
  5
1BCBC
  8
SUNPOU
  2
*D15
 10
2876.9786626568898
 20
1627.473799966054
 30
0.0
 11
2851.7326096840852
 21
1657.464660582463
 31
0.0
 70
   128
 13
2888.9786626568898
 23
1514.8458854014291
 33
0.0
 14
2876.9786626568898
 24
1514.8458854014241
 34
0.0
1001
ACAD
1000
DSTYLE
1002
{
1070
   287
1070
     5
1070
   144
1040
0.5
1070
    40
1040
10.0
1070
    41
1040
2.0
1070
    42
1040
1.0
1070
    43
1040
6.0
1070
    44
1040
1.0
1070
    73
1070
     0
1070
    74
1070
     0
1070
    77
1070
     1
1070
    78
1070
     8
1070
   140
1040
3.0
1070
   147
1040
1.1999999999999991
1070
   172
1070
     1
1070
   179
1070
     2
1070
   271
1070
     2
1070
   279
1070
     2
1070
   340
1005
55
1002
}
  0
LINE
  5
1BCBD
  8
CENTER
 10
2981.9786626583732
 20
1489.8458854013909
 30
0.0
 11
2981.9786626583659
 21
1471.84588540139
 31
0.0
  0
CIRCLE
  5
1BCBE
  8
SJC
 10
2981.9786626583691
 20
1480.8458854013909
 30
0.0
 40
9.0
  0
CIRCLE
  5
1BCBF
  8
SJC
 10
2981.9786626583691
 20
1480.8458854013909
 30
0.0
 40
8.0
  0
LINE
  5
1BCC0
  8
SJC2
 10
2981.1275988285811
 20
1486.8033322099011
 30
0.0
 11
2982.8297264881571
 21
1486.8033322099011
 31
0.0
  0
LINE
  5
1BCC1
  8
SJC2
 10
2987.9361094668802
 20
1481.6969492311771
 30
0.0
 11
2987.9361094668802
 21
1479.994821571602
 31
0.0
  0
LINE
  5
1BCC2
  8
SJC2
 10
2976.021215849858
 20
1481.6969492311771
 30
0.0
 11
2976.021215849858
 21
1479.994821571602
 31
0.0
  0
LINE
  5
1BCC3
  8
SJC2
 10
2981.1275988285811
 20
1474.88843859288
 30
0.0
 11
2982.8297264881571
 21
1474.88843859288
 31
0.0
  0
ARC
  5
1BCC4
  8
SJC2
 10
2987.9361094668802
 20
1474.88843859288
 30
0.0
 40
5.1063829787233539
 50
90.0
 51
180.0
  0
ARC
  5
1BCC5
  8
SJC2
 10
2976.021215849858
 20
1474.88843859288
 30
0.0
 40
5.1063829787233539
 50
0.0
 51
90.0
  0
ARC
  5
1BCC6
  8
SJC2
 10
2987.9361094668802
 20
1486.8033322099011
 30
0.0
 40
5.1063829787233539
 50
180.0
 51
270.0
  0
ARC
  5
1BCC7
  8
SJC2
 10
2976.021215849858
 20
1486.8033322099011
 30
0.0
 40
5.1063829787233539
 50
270.0
 51
0.0
  0
INSERT
  5
1BCD6
  8
0
  2
*U32
 10
0.0
 20
0.0
 30
0.0
1001
ACAD
1000
DSTYLE
1002
{
1070
     5
1000

1070
    40
1040
10.0
1070
    41
1040
2.0
1070
    42
1040
1.0
1070
    43
1040
6.0
1070
    44
1040
1.0
1070
    73
1070
     0
1070
    74
1070
     0
1070
    77
1070
     1
1070
    78
1070
     8
1070
   140
1040
3.0
1070
   144
1040
0.5
1070
   147
1040
1.1999999999999991
1070
   172
1070
     1
1070
   176
1070
   256
1070
   177
1070
   256
1070
   178
1070
   256
1070
   271
1070
     0
1070
   287
1070
     5
1070
   340
1005
55
1070
   342
1005
0
1002
}
  0
TEXT
  5
1BCD7
  8
SUNPOU
 10
3121.89119667261
 20
1509.625491065698
 30
0.0
 40
30.0
  1
SUS410
 41
0.8
  7
EXT08
  0
LINE
  5
1BCD8
  8
SUNPOU
 10
3119.4150158965331
 20
1544.4533543225559
 30
0.0
 11
3278.6430928497689
 21
1544.4533543225559
 31
0.0
1001
ACAD
1000
DSTYLE
1002
{
1070
    77
1070
     0
1070
    40
1040
10.0
1070
   147
1040
1.1999999999999991
1070
   176
1070
     0
1070
   177
1070
     0
1070
   178
1070
     0
1070
   179
1070
     2
1070
   271
1070
     2
1002
}
  0
TEXT
  5
1BCD9
  8
SUNPOU
 10
3128.2828573429242
 20
1550.211374814668
 30
0.0
 40
30.0
  1
固定ビス
 41
0.8
  7
EXT08
  0
LINE
  5
1BCE3
  8
SJC
 10
2365.8293558282371
 20
498.84588540142289
 30
0.0
 11
2093.8293558282289
 21
498.84588540142289
 31
0.0
  0
LINE
  5
1BCFE
  8
SJC
 10
2884.9786626573341
 20
498.84588540136241
 30
0.0
 11
2880.9786626573332
 21
498.84588540136423
 31
0.0
  0
ARC
  5
1BCFF
  8
SJC
 10
2884.978662657335
 20
502.84588540136241
 30
0.0
 40
4.0
 50
270.0
 51
359.99999999997402
  0
ARC
  5
1BD00
  8
SJC
 10
2880.978662657335
 20
502.84588540136423
 30
0.0
 40
4.0
 50
179.99999999997391
 51
270.0
  0
LINE
  5
1BD02
  8
SJC
 10
3001.9786626588202
 20
508.84588540140612
 30
0.0
 11
3001.978662658807
 21
543.02134091832704
 31
0.0
  0
ARC
  5
1BD03
  8
SJC
 10
2991.9786626588202
 20
508.84588540140328
 30
0.0
 40
10.0
 50
270.0
 51
0.0000000000260551
  0
LINE
  5
1BD04
  8
SJC
 10
2991.9786626588229
 20
498.84588540139703
 30
0.0
 11
2884.9786626573368
 21
498.84588540136241
 31
0.0
  0
LINE
  5
1BD05
  8
CENTER
 10
2981.9786626588179
 20
527.84588540140021
 30
0.0
 11
2981.978662658812
 21
545.8458854014001
 31
0.0
  0
LINE
  5
1BD06
  8
CENTER
 10
2990.9786626588161
 20
536.84588540140294
 30
0.0
 11
2972.9786626588161
 21
536.84588540139737
 31
0.0
  0
LINE
  5
1BD09
  8
SJC
 10
2994.3838023875701
 20
552.72779768096996
 30
0.0
 11
2888.9786626573568
 21
578.84588540136292
 31
0.0
  0
ARC
  5
1BD0A
  8
SJC
 10
2991.978662658807
 20
543.02134091832374
 30
0.0
 40
10.0
 50
0.0000000000260551
 51
76.083122566894787
  0
LINE
  5
1BD10
  8
SJC
 10
2948.9786626568198
 20
967.21314203873919
 30
0.0
 11
2948.9786626571499
 21
563.97862876445561
 31
0.0
  0
LINE
  5
1BD1C
  8
CENTER
 10
2981.978662660294
 20
545.8458854014001
 30
0.0
 11
2981.9786626602881
 21
527.84588540140021
 31
0.0
  0
LINE
  5
1BD1D
  8
CENTER
 10
2990.9786626602918
 20
536.84588540139737
 30
0.0
 11
2972.9786626602918
 21
536.84588540140294
 31
0.0
  0
LINE
  5
1BD1E
  8
CENTER
 10
2981.978662660294
 20
545.8458854014001
 30
0.0
 11
2981.9786626602881
 21
527.84588540140021
 31
0.0
  0
LINE
  5
1BD1F
  8
CENTER
 10
2981.978662660294
 20
545.8458854014001
 30
0.0
 11
2981.9786626602868
 21
527.84588540140021
 31
0.0
  0
CIRCLE
  5
1BD20
  8
SJC
 10
2981.9786626602909
 20
536.84588540140021
 30
0.0
 40
9.0
  0
CIRCLE
  5
1BD21
  8
SJC
 10
2981.9786626602909
 20
536.84588540140021
 30
0.0
 40
8.0
  0
LINE
  5
1BD22
  8
SJC2
 10
2981.1275988305019
 20
542.80333220991031
 30
0.0
 11
2982.829726490078
 21
542.80333220991031
 31
0.0
  0
LINE
  5
1BD23
  8
SJC2
 10
2987.9361094688011
 20
537.69694923118675
 30
0.0
 11
2987.9361094688011
 21
535.99482157161174
 31
0.0
  0
LINE
  5
1BD24
  8
SJC2
 10
2976.0212158517802
 20
537.69694923118675
 30
0.0
 11
2976.0212158517802
 21
535.99482157161174
 31
0.0
  0
LINE
  5
1BD25
  8
SJC2
 10
2981.1275988305019
 20
530.88843859289
 30
0.0
 11
2982.829726490078
 21
530.88843859289
 31
0.0
  0
ARC
  5
1BD26
  8
SJC2
 10
2987.9361094688011
 20
530.88843859289
 30
0.0
 40
5.1063829787233539
 50
90.0
 51
180.0
  0
ARC
  5
1BD27
  8
SJC2
 10
2976.0212158517802
 20
530.88843859289
 30
0.0
 40
5.1063829787233539
 50
0.0
 51
90.0
  0
ARC
  5
1BD28
  8
SJC2
 10
2987.9361094688011
 20
542.80333220991031
 30
0.0
 40
5.1063829787233539
 50
180.0
 51
270.0
  0
ARC
  5
1BD29
  8
SJC2
 10
2976.0212158517802
 20
542.80333220991031
 30
0.0
 40
5.1063829787233539
 50
270.0
 51
0.0
  0
DIMENSION
  5
1BD2C
  8
SUNPOU
  2
*D16
 10
1913.8058973835009
 20
498.845885401423
 30
0.0
 11
1886.8058973835009
 21
1008.845885401424
 31
0.0
 70
     0
 13
2093.829355828233
 23
1518.8458854014241
 33
0.0
 14
2093.8293558282289
 24
498.84588540142289
 34
0.0
 50
90.0
1001
ACAD
1000
DSTYLE
1002
{
1070
   287
1070
     5
1070
   144
1040
0.5
1070
    40
1040
10.0
1070
    41
1040
2.0
1070
    42
1040
1.0
1070
    43
1040
6.0
1070
    44
1040
1.0
1070
    73
1070
     0
1070
    74
1070
     0
1070
    77
1070
     1
1070
    78
1070
     8
1070
   140
1040
3.0
1070
   147
1040
1.1999999999999991
1070
   172
1070
     1
1070
   179
1070
     2
1070
   271
1070
     2
1070
   279
1070
     2
1070
   340
1005
55
1002
}
  0
LINE
  5
1C013
  8
SJC
 10
1426.863214879631
 20
1985.8398778706819
 30
0.0
 11
1426.863214879631
 21
2004.0153333876051
 31
0.0
  0
ARC
  5
1C014
  8
SJC
 10
1421.863214879631
 20
2004.0153333876031
 30
0.0
 40
5.0
 50
0.0000000000260551
 51
76.083122566894787
  0
LINE
  5
1C015
  8
CENTER
 10
1416.863214879636
 20
1990.427605629141
 30
0.0
 11
1416.8632148796339
 21
1999.427605629141
 31
0.0
  0
LINE
  5
1C016
  8
CENTER
 10
1421.3632148796351
 20
1994.927605629143
 30
0.0
 11
1412.3632148796351
 21
1994.9276056291401
 31
0.0
  0
CIRCLE
  5
1C017
  8
SJC
 10
1416.8632148796351
 20
1994.9276056291401
 30
0.0
 40
4.5
  0
LINE
  5
1C018
  8
SJC
 10
1423.065784744012
 20
2008.8685617689271
 30
0.0
 11
1370.3632148789061
 21
2021.927605629123
 31
0.0
  0
ARC
  5
1C019
  8
SJC
 10
1421.863214879631
 20
1985.8398778706819
 30
0.0
 40
5.0
 50
283.9168774331053
 51
359.99999999997402
  0
LINE
  5
1C01A
  8
SJC
 10
1423.065784744012
 20
1980.9866494893579
 30
0.0
 11
1370.3632148789061
 21
1967.9276056291631
 31
0.0
  0
CIRCLE
  5
1C01B
  8
SJC
 10
1416.863214878158
 20
1994.9276056291401
 30
0.0
 40
4.0
  0
LINE
  5
1C01C
  8
SJC2
 10
1416.437682963264
 20
1991.9488822248859
 30
0.0
 11
1417.288746793052
 21
1991.9488822248859
 31
0.0
  0
LINE
  5
1C01D
  8
SJC2
 10
1419.8419382824129
 20
1994.502073714247
 30
0.0
 11
1419.8419382824129
 21
1995.353137544035
 31
0.0
  0
LINE
  5
1C01E
  8
SJC2
 10
1413.884491473902
 20
1994.502073714247
 30
0.0
 11
1413.884491473902
 21
1995.353137544035
 31
0.0
  0
LINE
  5
1C01F
  8
SJC2
 10
1416.437682963264
 20
1997.9063290333961
 30
0.0
 11
1417.288746793052
 21
1997.9063290333961
 31
0.0
  0
ARC
  5
1C020
  8
SJC2
 10
1419.8419382824129
 20
1997.9063290333961
 30
0.0
 40
2.5531914893616769
 50
180.0
 51
270.0
  0
ARC
  5
1C021
  8
SJC2
 10
1413.884491473902
 20
1997.9063290333961
 30
0.0
 40
2.5531914893616769
 50
270.0
 51
0.0
  0
ARC
  5
1C022
  8
SJC2
 10
1419.8419382824129
 20
1991.9488822248859
 30
0.0
 40
2.5531914893616769
 50
90.0
 51
180.0
  0
ARC
  5
1C023
  8
SJC2
 10
1413.884491473902
 20
1991.9488822248859
 30
0.0
 40
2.5531914893616769
 50
0.0
 51
90.0
  0
LINE
  5
1C05A
  8
SJC
 10
3001.9786626568848
 20
988.17042988447702
 30
0.0
 11
3001.9786626568848
 21
1024.521340918322
 31
0.0
  0
ARC
  5
1C05B
  8
SJC
 10
2991.9786626568848
 20
1024.5213409183191
 30
0.0
 40
10.0
 50
0.0000000000260551
 51
76.083122566894787
  0
LINE
  5
1C05C
  8
CENTER
 10
2981.9786626568962
 20
997.34588540139509
 30
0.0
 11
2981.9786626568898
 21
1015.345885401395
 31
0.0
  0
LINE
  5
1C05D
  8
CENTER
 10
2990.9786626568939
 20
1006.345885401398
 30
0.0
 11
2972.9786626568939
 21
1006.345885401392
 31
0.0
  0
LINE
  5
1C05E
  8
SJC
 10
2994.3838023856488
 20
1034.2277976809651
 30
0.0
 11
2888.9786626554351
 21
1060.3458854013579
 31
0.0
  0
ARC
  5
1C05F
  8
SJC
 10
2991.9786626568848
 20
988.17042988447702
 30
0.0
 40
10.0
 50
283.9168774331053
 51
359.99999999997402
  0
LINE
  5
1C060
  8
SJC
 10
2994.3838023856488
 20
978.46397312183035
 30
0.0
 11
2888.9786626554351
 21
952.34588540143784
 31
0.0
  0
LINE
  5
1C061
  8
CENTER
 10
2981.9786626568962
 20
997.34588540139509
 30
0.0
 11
2981.9786626568898
 21
1015.345885401395
 31
0.0
  0
LINE
  5
1C062
  8
CENTER
 10
2981.9786626568971
 20
997.34588540139509
 30
0.0
 11
2981.9786626568898
 21
1015.345885401395
 31
0.0
  0
CIRCLE
  5
1C063
  8
SJC
 10
2981.978662656893
 20
1006.345885401395
 30
0.0
 40
9.0
  0
CIRCLE
  5
1C064
  8
SJC
 10
2981.978662656893
 20
1006.345885401395
 30
0.0
 40
8.0
  0
LINE
  5
1C065
  8
SJC2
 10
2981.127598827105
 20
1000.388438592885
 30
0.0
 11
2982.829726486681
 21
1000.388438592885
 31
0.0
  0
LINE
  5
1C066
  8
SJC2
 10
2987.9361094654041
 20
1005.494821571608
 30
0.0
 11
2987.9361094654041
 21
1007.196949231183
 31
0.0
  0
LINE
  5
1C067
  8
SJC2
 10
2976.0212158483819
 20
1005.494821571608
 30
0.0
 11
2976.0212158483819
 21
1007.196949231183
 31
0.0
  0
LINE
  5
1C068
  8
SJC2
 10
2981.127598827105
 20
1012.303332209905
 30
0.0
 11
2982.829726486681
 21
1012.303332209905
 31
0.0
  0
ARC
  5
1C069
  8
SJC2
 10
2987.9361094654041
 20
1012.303332209905
 30
0.0
 40
5.1063829787233539
 50
180.0
 51
270.0
  0
ARC
  5
1C06A
  8
SJC2
 10
2976.0212158483819
 20
1012.303332209905
 30
0.0
 40
5.1063829787233539
 50
270.0
 51
0.0
  0
ARC
  5
1C06B
  8
SJC2
 10
2987.9361094654041
 20
1000.388438592885
 30
0.0
 40
5.1063829787233539
 50
90.0
 51
180.0
  0
ARC
  5
1C06C
  8
SJC2
 10
2976.0212158483819
 20
1000.388438592885
 30
0.0
 40
5.1063829787233539
 50
0.0
 51
90.0
  0
INSERT
  5
1C30E
  8
HATCH
  6
CONTINUOUS
  2
*X33
 10
0.0
 20
0.0
 30
0.0
1001
ACAD
1000
HATCH
1002
{
1070
    19
1000
ANSI37
1040
4.0
1040
0.0
1000
ASC_BOUNDS
1070
     1
1070
     2
1070
     4
1005
1BC4B
1005
1BC4A
1005
1BC4D
1005
1BC4C
1000
ASC_SEEDPOINT
1011
0.0
1021
0.0
1031
9.5923370338601420E+015
1021
0.0
1031
0.0
1000
R14_HATCH_DATA
1000
1C30E
1011
1.0
1021
0.0
1031
9.5923370338601420E+015
1021
0.0
1031
0.0
1011
0.0
1021
0.0
1031
9.5923370338601420E+015
1021
1.0
1031
0.0
1011
0.0
1021
0.0
1031
9.5923370338601420E+015
1021
0.0
1031
1.0
1040
0.0
1010
0.0
1020
0.0
1030
1.0
1000
ANSI37
1070
     0
1070
     1
1071
        1
1071
        1
1071
        4
1070
     1
1040
3069.478662656893
1040
1518.8458854014241
1040
2894.478662656893
1040
1518.8458854014241
1070
     1
1040
2894.478662656893
1040
1518.8458854014241
1040
2894.4786626568898
1040
1598.8458854014259
1070
     1
1040
2894.478662656893
1040
1598.8458854014259
1040
3069.478662656893
1040
1598.8458854014259
1070
     1
1040
3069.478662656893
1040
1598.8458854014259
1040
3069.478662656893
1040
1518.8458854014241
1071
        4
1005
1BC4C
1005
1BC4D
1005
1BC4A
1005
1BC4B
1070
     0
1070
     1
1040
0.0
1040
4.0
1070
     0
1070
     2
1040
0.7853981633974483
1040
0.0
1040
0.0
1040
-8.9802561210691518
1040
8.9802561210691536
1070
     0
1040
2.3561944901923439
1040
0.0
1040
0.0
1040
-8.9802561210691536
1040
-8.9802561210691518
1070
     0
1071
        1
1040
0.0
1040
0.0
1040
0.0
1002
}
  0
INSERT
  5
1C310
  8
HATCH
  6
CONTINUOUS
  2
*X34
 10
0.0
 20
0.0
 30
0.0
1001
ACAD
1000
HATCH
1002
{
1070
    19
1000
ANSI37
1040
4.0
1040
0.0
1000
ASC_BOUNDS
1070
     1
1070
     2
1070
     4
1005
1C312
1005
1C311
1005
1C314
1005
1C313
1000
ASC_SEEDPOINT
1011
-752.14930682865759
1021
0.0
1031
9.5923370338601420E+015
1021
0.0000000000268301
1031
0.0
1000
R14_HATCH_DATA
1000
1C310
1011
1.0
1021
0.0
1031
9.5923370338601420E+015
1021
0.0
1031
0.0
1011
0.0
1021
0.0
1031
9.5923370338601420E+015
1021
1.0
1031
0.0
1011
0.0
1021
0.0
1031
9.5923370338601420E+015
1021
0.0
1031
1.0
1040
0.0
1010
0.0
1020
0.0
1030
1.0
1000
ANSI37
1070
     0
1070
     1
1071
        1
1071
        1
1071
        4
1070
     1
1040
2317.3293558282348
1040
1518.8458854014509
1040
2142.3293558282348
1040
1518.8458854014509
1070
     1
1040
2142.3293558282348
1040
1518.8458854014509
1040
2142.3293558282321
1040
1598.845885401453
1070
     1
1040
2142.3293558282348
1040
1598.845885401453
1040
2317.3293558282348
1040
1598.845885401453
1070
     1
1040
2317.3293558282348
1040
1598.845885401453
1040
2317.3293558282348
1040
1518.8458854014509
1071
        4
1005
1C313
1005
1C314
1005
1C311
1005
1C312
1070
     0
1070
     1
1040
0.0
1040
4.0
1070
     0
1070
     2
1040
0.7853981633974483
1040
-752.14930682865759
1040
0.0000000000268301
1040
-8.9802561210691518
1040
8.9802561210691536
1070
     0
1040
2.3561944901923439
1040
-752.14930682865759
1040
0.0000000000268301
1040
-8.9802561210691536
1040
-8.9802561210691518
1070
     0
1071
        1
1040
-752.14930682865759
1040
0.0000000000268301
1040
0.0
1002
}
  0
LINE
  5
1C311
  8
HATCH
 10
2142.3293558282348
 20
1598.845885401453
 30
0.0
 11
2317.3293558282348
 21
1598.845885401453
 31
0.0
1001
ACAD
1000
ASC_BOUNDS
1002
{
1070
    19
1005
1C310
1002
}
  0
LINE
  5
1C312
  8
HATCH
 10
2317.3293558282348
 20
1598.845885401453
 30
0.0
 11
2317.3293558282348
 21
1518.8458854014509
 31
0.0
1001
ACAD
1000
ASC_BOUNDS
1002
{
1070
    19
1005
1C310
1002
}
  0
LINE
  5
1C313
  8
HATCH
 10
2317.3293558282348
 20
1518.8458854014509
 30
0.0
 11
2142.3293558282348
 21
1518.8458854014509
 31
0.0
1001
ACAD
1000
ASC_BOUNDS
1002
{
1070
    19
1005
1C310
1002
}
  0
LINE
  5
1C314
  8
HATCH
 10
2142.3293558282348
 20
1518.8458854014509
 30
0.0
 11
2142.3293558282321
 21
1598.845885401453
 31
0.0
1001
ACAD
1000
ASC_BOUNDS
1002
{
1070
    19
1005
1C310
1002
}
  0
INSERT
  5
1C315
  8
HATCH
  6
CONTINUOUS
  2
*X35
 10
0.0
 20
0.0
 30
0.0
1001
ACAD
1000
HATCH
1002
{
1070
    19
1000
ANSI37
1040
2.0
1040
0.0
1000
ASC_BOUNDS
1070
     1
1070
     2
1070
     4
1005
1864C
1005
1864B
1005
1864E
1005
1864D
1000
ASC_SEEDPOINT
1011
0.0
1021
0.0
1031
9.5923370338601420E+015
1021
0.0
1031
0.0
1000
R14_HATCH_DATA
1000
1C315
1011
1.0
1021
0.0
1031
9.5923370338601420E+015
1021
0.0
1031
0.0
1011
0.0
1021
0.0
1031
9.5923370338601420E+015
1021
1.0
1031
0.0
1011
0.0
1021
0.0
1031
9.5923370338601420E+015
1021
0.0
1031
1.0
1040
0.0
1010
0.0
1020
0.0
1030
1.0
1000
ANSI37
1070
     0
1070
     1
1071
        1
1071
        1
1071
        4
1070
     1
1040
1460.6132148796351
1040
2249.9276056291601
1040
1373.1132148796351
1040
2249.9276056291601
1070
     1
1040
1373.1132148796351
1040
2249.9276056291601
1040
1373.1132148796339
1040
2289.9276056291601
1070
     1
1040
1373.1132148796351
1040
2289.927605629161
1040
1460.6132148796339
1040
2289.927605629161
1070
     1
1040
1460.6132148796339
1040
2289.927605629161
1040
1460.6132148796351
1040
2249.9276056291601
1071
        4
1005
1864D
1005
1864E
1005
1864B
1005
1864C
1070
     0
1070
     1
1040
0.0
1040
2.0
1070
     0
1070
     2
1040
0.7853981633974483
1040
0.0
1040
0.0
1040
-4.490128060534575
1040
4.4901280605345759
1070
     0
1040
2.3561944901923439
1040
0.0
1040
0.0
1040
-4.4901280605345759
1040
-4.490128060534575
1070
     0
1071
        1
1040
0.0
1040
0.0
1040
0.0
1002
}
  0
INSERT
  5
1C31F
  8
HATCH
  6
CONTINUOUS
  2
*X36
 10
0.0
 20
0.0
 30
0.0
1001
ACAD
1000
HATCH
1002
{
1070
    19
1000
ANSI37
1040
2.0
1040
0.0
1000
ASC_BOUNDS
1070
     1
1070
     2
1070
     4
1005
1C321
1005
1C320
1005
1C323
1005
1C322
1000
ASC_SEEDPOINT
1011
-780.43179414800943
1021
0.0
1031
9.5923370338601420E+015
1021
-0.279638617747878
1031
0.0
1000
R14_HATCH_DATA
1000
1C31F
1011
1.0
1021
0.0
1031
9.5923370338601420E+015
1021
0.0
1031
0.0
1011
0.0
1021
0.0
1031
9.5923370338601420E+015
1021
1.0
1031
0.0
1011
0.0
1021
0.0
1031
9.5923370338601420E+015
1021
0.0
1031
1.0
1040
0.0
1010
0.0
1020
0.0
1030
1.0
1000
ANSI37
1070
     0
1070
     1
1071
        1
1071
        1
1071
        4
1070
     1
1040
680.18142073162539
1040
2249.6479670114122
1040
592.68142073162505
1040
2249.6479670114122
1070
     1
1040
592.68142073162539
1040
2249.6479670114122
1040
592.68142073162448
1040
2289.6479670114122
1070
     1
1040
592.68142073162551
1040
2289.6479670114131
1040
680.18142073162505
1040
2289.6479670114131
1070
     1
1040
680.18142073162505
1040
2289.6479670114131
1040
680.18142073162585
1040
2249.6479670114122
1071
        4
1005
1C322
1005
1C323
1005
1C320
1005
1C321
1070
     0
1070
     1
1040
0.0
1040
2.0
1070
     0
1070
     2
1040
0.7853981633974483
1040
-780.43179414800943
1040
-0.279638617747878
1040
-4.490128060534575
1040
4.4901280605345759
1070
     0
1040
2.3561944901923439
1040
-780.43179414800943
1040
-0.279638617747878
1040
-4.4901280605345759
1040
-4.490128060534575
1070
     0
1071
        1
1040
-780.43179414800943
1040
-0.279638617747878
1040
0.0
1002
}
  0
LINE
  5
1C320
  8
HATCH
 10
592.68142073162551
 20
2289.6479670114131
 30
0.0
 11
680.18142073162505
 21
2289.6479670114131
 31
0.0
1001
ACAD
1000
ASC_BOUNDS
1002
{
1070
    19
1005
1C31F
1002
}
  0
LINE
  5
1C321
  8
HATCH
 10
680.18142073162505
 20
2289.6479670114131
 30
0.0
 11
680.18142073162585
 21
2249.6479670114122
 31
0.0
1001
ACAD
1000
ASC_BOUNDS
1002
{
1070
    19
1005
1C31F
1002
}
  0
LINE
  5
1C322
  8
HATCH
 10
680.18142073162539
 20
2249.6479670114122
 30
0.0
 11
592.68142073162505
 21
2249.6479670114122
 31
0.0
1001
ACAD
1000
ASC_BOUNDS
1002
{
1070
    19
1005
1C31F
1002
}
  0
LINE
  5
1C323
  8
HATCH
 10
592.68142073162539
 20
2249.6479670114122
 30
0.0
 11
592.68142073162448
 21
2289.6479670114122
 31
0.0
1001
ACAD
1000
ASC_BOUNDS
1002
{
1070
    19
1005
1C31F
1002
}
  0
DIMENSION
  5
1C324
  8
SUNPOU
  2
*D17
 10
484.0564663939499
 20
2249.6479670114122
 30
0.0
 11
441.05646639394951
 21
2269.6479670114109
 31
0.0
 70
     0
 13
592.68142073162426
 23
2289.6479670114109
 33
0.0
 14
569.23142073162489
 24
2249.6479670114122
 34
0.0
 50
90.0
1001
ACAD
1000
DSTYLE
1002
{
1070
   287
1070
     5
1070
    40
1040
10.0
1070
    41
1040
2.0
1070
    42
1040
1.0
1070
    43
1040
6.0
1070
    44
1040
1.0
1070
    73
1070
     0
1070
    74
1070
     0
1070
    77
1070
     1
1070
    78
1070
     8
1070
   140
1040
3.0
1070
   147
1040
1.1999999999999991
1070
   172
1070
     1
1070
   179
1070
     2
1070
   271
1070
     2
1070
   279
1070
     2
1070
   340
1005
55
1002
}
  0
DIMENSION
  5
1C333
  8
SUNPOU
  2
*D18
 10
272.5930782950054
 20
749.64796701141222
 30
0.0
 11
245.59307829500531
 21
1529.647967011409
 31
0.0
 70
     0
 13
636.43142073162574
 23
2309.6479670114059
 33
0.0
 14
372.10351895608892
 24
749.64796701141222
 34
0.0
 50
90.0
1001
ACAD
1000
DSTYLE
1002
{
1070
   287
1070
     5
1070
    40
1040
10.0
1070
    41
1040
2.0
1070
    42
1040
1.0
1070
    43
1040
6.0
1070
    44
1040
1.0
1070
    73
1070
     0
1070
    74
1070
     0
1070
    77
1070
     1
1070
    78
1070
     8
1070
   140
1040
3.0
1070
   147
1040
1.1999999999999991
1070
   172
1070
     1
1070
   179
1070
     2
1070
   271
1070
     2
1070
   279
1070
     2
1070
   340
1005
55
1002
}
  0
DIMENSION
  5
1C5AD
  8
SUNPOU
  2
*D19
 10
1149.695427725595
 20
779.9276056291601
 30
0.0
 11
1122.695427725595
 21
1279.927605629159
 31
0.0
 70
     0
 13
1379.3632148796371
 23
1779.9276056291581
 33
0.0
 14
1379.3632148796371
 24
779.92760562915987
 34
0.0
 50
90.0
1001
ACAD
1000
DSTYLE
1002
{
1070
   287
1070
     5
1070
    40
1040
10.0
1070
    41
1040
2.0
1070
    42
1040
1.0
1070
    43
1040
6.0
1070
    44
1040
1.0
1070
    73
1070
     0
1070
    74
1070
     0
1070
    77
1070
     1
1070
    78
1070
     8
1070
   140
1040
3.0
1070
   147
1040
1.1999999999999991
1070
   172
1070
     1
1070
   179
1070
     2
1070
   271
1070
     2
1070
   279
1070
     2
1070
   340
1005
55
1002
}
  0
DIMENSION
  5
1C5BA
  8
SUNPOU
  2
*D20
 10
1149.695427725595
 20
749.92760562915998
 30
0.0
 11
1106.695427725595
 21
764.92760562916021
 31
0.0
 70
     0
 13
1379.3632148796371
 23
779.92760562915987
 33
0.0
 14
1189.329179181359
 24
749.92760562915998
 34
0.0
 50
90.0
1001
ACAD
1000
DSTYLE
1002
{
1070
   287
1070
     5
1070
    40
1040
10.0
1070
    41
1040
2.0
1070
    42
1040
1.0
1070
    43
1040
6.0
1070
    44
1040
1.0
1070
    73
1070
     0
1070
    74
1070
     0
1070
    77
1070
     1
1070
    78
1070
     8
1070
   140
1040
3.0
1070
   147
1040
1.1999999999999991
1070
   172
1070
     1
1070
   179
1070
     2
1070
   271
1070
     2
1070
   279
1070
     2
1070
   340
1005
55
1002
}
  0
LINE
  5
1C76B
  8
SJC
 10
2953.6942880838401
 20
2651.462121184511
 30
0.0
 11
3648.6942880838401
 21
2651.462121184511
 31
0.0
  0
LINE
  5
1C76C
  8
SJC
 10
2953.6942880838401
 20
2501.462121184511
 30
0.0
 11
3648.6942880838401
 21
2501.462121184511
 31
0.0
  0
LINE
  5
1C76D
  8
SJC
 10
2938.6942880838401
 20
2551.462121184511
 30
0.0
 11
3663.6942880838401
 21
2551.462121184511
 31
0.0
  0
LINE
  5
1C76E
  8
SJC
 10
2938.6942880838401
 20
2601.462121184511
 30
0.0
 11
3663.6942880838401
 21
2601.462121184511
 31
0.0
  0
TEXT
  5
1C76F
  8
MOJI
 10
3095.6854416030642
 20
2511.7388454641582
 30
0.0
 40
30.0
  1
KEKH00578※1
 41
0.8
  7
EXT08
  0
TEXT
  5
1C770
  8
MOJI
 10
3095.6854416030642
 20
2611.7388454641582
 30
0.0
 40
30.0
  1
ジスロンパイプサインポール（Gr添架式）
 41
0.8
  7
EXT08
  0
TEXT
  5
1C771
  8
MOJI
 10
2971.4657166552688
 20
2610.8621211845111
 30
0.0
 40
30.0
  1
タイプ
 41
0.8
  7
EXT08
 72
     4
 11
3013.6942880838401
 21
2626.462121184511
 31
0.0
  0
LINE
  5
1C772
  8
SJC
 10
3088.6942880838401
 20
2501.462121184511
 30
0.0
 11
3088.6942880838401
 21
2651.462121184511
 31
0.0
  0
ARC
  5
1C773
  8
SJC
 10
2953.6942880838401
 20
2636.462121184511
 30
0.0
 40
15.0
 50
90.0
 51
180.0
  0
ARC
  5
1C774
  8
SJC
 10
2953.6942880838401
 20
2516.462121184511
 30
0.0
 40
15.0
 50
180.0
 51
270.0
  0
LINE
  5
1C775
  8
SJC
 10
2938.6942880838401
 20
2516.462121184511
 30
0.0
 11
2938.6942880838401
 21
2636.462121184511
 31
0.0
  0
TEXT
  5
1C776
  8
MOJI
 10
2973.6942880838401
 20
2561.4621211845101
 30
0.0
 40
30.0
  1
品  番
 41
0.8
  7
EXT08
 72
     4
 11
3013.6942880838401
 21
2576.462121184511
 31
0.0
  0
TEXT
  5
1C777
  8
MOJI
 10
2958.4942880838398
 20
2511.462121184511
 30
0.0
 40
30.0
  1
図面番号
 41
0.8
  7
EXT08
 72
     4
 11
3013.6942880838401
 21
2526.462121184511
 31
0.0
  0
ARC
  5
1C778
  8
SJC
 10
3648.6942880838401
 20
2636.462121184511
 30
0.0
 40
15.0
 50
0.0
 51
90.0
  0
ARC
  5
1C779
  8
SJC
 10
3648.6942880838401
 20
2516.462121184511
 30
0.0
 40
15.0
 50
270.0
 51
0.0
  0
LINE
  5
1C77A
  8
SJC
 10
3663.6942880838401
 20
2516.462121184511
 30
0.0
 11
3663.6942880838401
 21
2636.462121184511
 31
0.0
  0
TEXT
  5
1C77B
  8
MOJI
 10
3095.6854416030642
 20
2561.7388454641582
 30
0.0
 40
30.0
  1
89SPE-L-G
 41
0.8
  7
EXT08
  0
TEXT
  5
1C80C
  8
MOJI
 10
2593.2144519859548
 20
2148.804040321595
 30
0.0
 40
30.0
  1
サインシート
 41
0.8
  7
EXT08
 72
     4
 11
2675.6144519859549
 21
2163.804040321595
 31
0.0
  0
TEXT
  5
1C80D
  8
MOJI
 10
2934.3431438828788
 20
2148.804040321595
 30
0.0
 40
30.0
  1
封入レンズ型反射シート
 41
0.8
  7
EXT08
 11
2934.3431438828788
 21
2163.804040321595
 31
0.0
 73
     2
  0
TEXT
  5
1C80E
  8
MOJI
 10
2852.6288581865938
 20
2148.804040321595
 30
0.0
 40
30.0
  1
1
 41
0.8
  7
EXT08
 72
     4
 11
2862.34314390088
 21
2163.804040321595
 31
0.0
  0
TEXT
  5
1C80F
  8
MOJI
 10
3407.9976583548118
 20
2148.804040321595
 30
0.0
 40
30.0
  1
デジタル印刷
 41
0.8
  7
EXT08
 72
     4
 11
3492.797658354812
 21
2163.804040321595
 31
0.0
  0
LINE
  5
1C810
  8
MOJI
 10
3663.0844272244772
 20
2187.8040403155919
 30
0.0
 11
2539.8840360922268
 21
2187.8040403155919
 31
0.0
  0
INSERT
  5
1C811
  8
0
  2
*U37
 10
0.0
 20
0.0
 30
0.0
1001
ACAD
1000
DSTYLE
1002
{
1070
   140
1040
30.0
1070
   144
1040
0.5
1070
   147
1040
15.0
1070
    42
1040
10.0
1070
    44
1040
10.0
1070
    43
1040
60.0
1070
    41
1040
20.0
1002
}
  0
TEXT
  5
1C812
  8
SUNPOU
 10
782.10035428810352
 20
1944.5764161663531
 30
0.0
 40
30.0
  1
封入レンズ型反射シート
 41
0.8
  7
EXT08
  0
LINE
  5
1C813
  8
SUNPOU
 10
779.62417351202657
 20
1979.4042794232109
 30
0.0
 11
1111.8532307201961
 21
1979.4042794232109
 31
0.0
1001
ACAD
1000
DSTYLE
1002
{
1070
    77
1070
     0
1070
    40
1040
10.0
1070
   147
1040
1.1999999999999991
1070
   176
1070
     0
1070
   177
1070
     0
1070
   178
1070
     0
1070
   179
1070
     2
1070
   271
1070
     2
1002
}
  0
TEXT
  5
1C814
  8
SUNPOU
 10
782.10035428810352
 20
1985.1622999153219
 30
0.0
 40
30.0
  1
サインシート
 41
0.8
  7
EXT08
  0
TEXT
  5
1C815
  8
SUNPOU
 10
782.10035428810352
 20
1898.976299601374
 30
0.0
 40
30.0
  1
デジタル印刷
 41
0.8
  7
EXT08
  0
VIEWPORT
  5
1464C
 67
     1
  8
0
 10
128.5
 20
97.5
 30
0.0
 40
314.226
 41
243.9518146964856
 68
     1
 69
     1
1001
ACAD
1000
MVIEW
1002
{
1070
    16
1010
0.0
1020
0.0
1030
0.0
1010
0.0
1020
0.0
1030
1.0
1040
0.0
1040
243.9518146964856
1040
128.5
1040
97.5
1040
50.0
1040
0.0
1040
0.0
1070
     0
1070
   100
1070
     1
1070
     1
1070
     0
1070
     0
1070
     0
1070
     0
1040
0.0
1040
0.0
1040
0.0
1040
10.0
1040
10.0
1040
10.0
1040
10.0
1070
     0
1002
{
1002
}
1002
}
  0
VIEWPORT
  5
1464E
 67
     1
  8
SUNPOU
 10
128.5
 20
97.5
 30
0.0
 40
205.59999999999999
 41
156.0
 68
     2
 69
     2
1001
ACAD
1000
MVIEW
1002
{
1070
    16
1010
0.0
1020
0.0
1030
0.0
1010
0.0
1020
0.0
1030
1.0
1040
0.0
1040
5536.5396555471661
1040
-4689.111563369348
1040
1441.2182828350519
1040
50.0
1040
0.0
1040
0.0
1070
     0
1070
   100
1070
     1
1070
     3
1070
     0
1070
     0
1070
     0
1070
     0
1040
0.0
1040
0.0
1040
0.0
1040
10.0
1040
10.0
1040
10.0
1040
10.0
1070
     0
1002
{
1002
}
1002
}
  0
ENDSEC
  0
EOF
