  0
SECTION
  2
HEADER
  9
$ACADVER
  1
AC1009
  9
$INSBASE
 10
0.0
 20
0.0
 30
0.0
  9
$EXTMIN
 10
-0.7058929444392561
 20
37.540982692415128
 30
0.0
  9
$EXTMAX
 10
4019.2941070555598
 20
2782.5409826924151
 30
0.0
  9
$LIMMIN
 10
0.0
 20
0.0
  9
$LIMMAX
 10
4200.0
 20
2970.0
  9
$ORTHOMODE
 70
     1
  9
$REGENMODE
 70
     1
  9
$FILLMODE
 70
     1
  9
$QTEXTMODE
 70
     0
  9
$MIRRTEXT
 70
     0
  9
$DRAGMODE
 70
     2
  9
$LTSCALE
 40
100.0
  9
$OSMODE
 70
    37
  9
$ATTMODE
 70
     1
  9
$TEXTSIZE
 40
30.0
  9
$TRACEWID
 40
1.0
  9
$TEXTSTYLE
  7
EXT08
  9
$CLAYER
  8
0
  9
$CELTYPE
  6
BYLAYER
  9
$CECOLOR
 62
   256
  9
$DIMSCALE
 40
10.0
  9
$DIMASZ
 40
2.0
  9
$DIMEXO
 40
1.0
  9
$DIMDLI
 40
6.0
  9
$DIMRND
 40
0.0
  9
$DIMDLE
 40
0.0
  9
$DIMEXE
 40
1.0
  9
$DIMTP
 40
0.0
  9
$DIMTM
 40
0.0
  9
$DIMTXT
 40
3.0
  9
$DIMCEN
 40
0.09
  9
$DIMTSZ
 40
0.0
  9
$DIMTOL
 70
     0
  9
$DIMLIM
 70
     0
  9
$DIMTIH
 70
     0
  9
$DIMTOH
 70
     0
  9
$DIMSE1
 70
     0
  9
$DIMSE2
 70
     0
  9
$DIMTAD
 70
     1
  9
$DIMZIN
 70
     8
  9
$DIMBLK
  1

  9
$DIMASO
 70
     1
  9
$DIMSHO
 70
     1
  9
$DIMPOST
  1

  9
$DIMAPOST
  1

  9
$DIMALT
 70
     0
  9
$DIMALTD
 70
     2
  9
$DIMALTF
 40
25.399999999999999
  9
$DIMLFAC
 40
1.0
  9
$DIMTOFL
 70
     1
  9
$DIMTVP
 40
0.0
  9
$DIMTIX
 70
     0
  9
$DIMSOXD
 70
     0
  9
$DIMSAH
 70
     0
  9
$DIMBLK1
  1

  9
$DIMBLK2
  1

  9
$DIMSTYLE
  2
SJC
  9
$DIMCLRD
 70
     0
  9
$DIMCLRE
 70
     0
  9
$DIMCLRT
 70
     0
  9
$DIMTFAC
 40
1.0
  9
$DIMGAP
 40
1.1999999999999991
  9
$LUNITS
 70
     2
  9
$LUPREC
 70
     2
  9
$SKETCHINC
 40
1.0
  9
$FILLETRAD
 40
1.0
  9
$AUNITS
 70
     0
  9
$AUPREC
 70
     0
  9
$MENU
  1
.
  9
$ELEVATION
 40
0.0
  9
$PELEVATION
 40
0.0
  9
$THICKNESS
 40
0.0
  9
$LIMCHECK
 70
     0
  9
$BLIPMODE
 70
     0
  9
$CHAMFERA
 40
0.0
  9
$CHAMFERB
 40
0.0
  9
$SKPOLY
 70
     0
  9
$TDCREATE
 40
2453122.4465482058
  9
$TDUPDATE
 40
2456388.8430586229
  9
$TDINDWG
 40
1.3002884838
  9
$TDUSRTIMER
 40
1.3002883102
  9
$USRTIMER
 70
     1
  9
$ANGBASE
 50
0.0
  9
$ANGDIR
 70
     0
  9
$PDMODE
 70
    33
  9
$PDSIZE
 40
5.0
  9
$PLINEWID
 40
0.0
  9
$COORDS
 70
     1
  9
$SPLFRAME
 70
     0
  9
$SPLINETYPE
 70
     6
  9
$SPLINESEGS
 70
     8
  9
$ATTDIA
 70
     0
  9
$ATTREQ
 70
     1
  9
$HANDLING
 70
     1
  9
$HANDSEED
  5
1C9D4
  9
$SURFTAB1
 70
     6
  9
$SURFTAB2
 70
     6
  9
$SURFTYPE
 70
     6
  9
$SURFU
 70
     6
  9
$SURFV
 70
     6
  9
$UCSNAME
  2

  9
$UCSORG
 10
0.0
 20
0.0
 30
0.0
  9
$UCSXDIR
 10
1.0
 20
0.0
 30
0.0
  9
$UCSYDIR
 10
0.0
 20
1.0
 30
0.0
  9
$PUCSNAME
  2

  9
$PUCSORG
 10
0.0
 20
0.0
 30
0.0
  9
$PUCSXDIR
 10
1.0
 20
0.0
 30
0.0
  9
$PUCSYDIR
 10
0.0
 20
1.0
 30
0.0
  9
$USERI1
 70
     3
  9
$USERI2
 70
    10
  9
$USERI3
 70
     0
  9
$USERI4
 70
     0
  9
$USERI5
 70
     0
  9
$USERR1
 40
0.0
  9
$USERR2
 40
0.0
  9
$USERR3
 40
0.0
  9
$USERR4
 40
0.0
  9
$USERR5
 40
0.0
  9
$WORLDVIEW
 70
     1
  9
$SHADEDGE
 70
     3
  9
$SHADEDIF
 70
    70
  9
$TILEMODE
 70
     1
  9
$MAXACTVP
 70
    48
  9
$PLIMCHECK
 70
     0
  9
$PEXTMIN
 10
25.699999999999989
 20
19.5
 30
0.0
  9
$PEXTMAX
 10
231.30000000000001
 20
175.5
 30
0.0
  9
$PLIMMIN
 10
-20.0
 20
-7.5
  9
$PLIMMAX
 10
277.0
 20
202.5
  9
$UNITMODE
 70
     0
  9
$VISRETAIN
 70
     1
  9
$PLINEGEN
 70
     0
  9
$PSLTSCALE
 70
     1
  0
ENDSEC
  0
SECTION
  2
TABLES
  0
TABLE
  2
VPORT
 70
     2
  0
VPORT
  2
*ACTIVE
 70
     0
 10
0.0
 20
0.0
 11
1.0
 21
1.0
 12
2800.3620020867479
 22
1314.882358789175
 13
0.0
 23
0.0
 14
10.0
 24
10.0
 15
10.0
 25
10.0
 16
0.0
 26
0.0
 36
1.0
 17
0.0
 27
0.0
 37
0.0
 40
3242.6516056100058
 41
1.9010526315789471
 42
50.0
 43
0.0
 44
0.0
 50
0.0
 51
0.0
 71
     0
 72
   100
 73
     1
 74
     3
 75
     0
 76
     0
 77
     0
 78
     0
  0
ENDTAB
  0
TABLE
  2
LTYPE
 70
     4
  0
LTYPE
  2
CONTINUOUS
 70
     0
  3
Solid line
 72
    65
 73
     0
 40
0.0
  0
LTYPE
  2
CENTER
 70
     0
  3
____ _ ____ _ ____ _ ____ _ ____ _ ____ _ ____ 
 72
    65
 73
     4
 40
2.0
 49
1.25
 49
-0.25
 49
0.25
 49
-0.25
  0
LTYPE
  2
HIDDEN
 70
     0
  3
__ __ __ __ __ __ __ __ __ __ __ __ __ __ __ __
 72
    65
 73
     2
 40
0.375
 49
0.25
 49
-0.125
  0
LTYPE
  2
PHANTOM
 70
     0
  3
______  __  __  ______  __  __  ______  __  __ 
 72
    65
 73
     6
 40
2.5
 49
1.25
 49
-0.25
 49
0.25
 49
-0.25
 49
0.25
 49
-0.25
  0
ENDTAB
  0
TABLE
  2
LAYER
 70
    15
  0
LAYER
  2
0
 70
     0
 62
     7
  6
CONTINUOUS
  0
LAYER
  2
ZWAKU
 70
     1
 62
    -7
  6
CONTINUOUS
  0
LAYER
  2
CENTER
 70
     0
 62
     3
  6
CENTER
  0
LAYER
  2
HASEN
 70
     0
 62
     7
  6
HIDDEN
  0
LAYER
  2
KASOU
 70
     0
 62
     2
  6
PHANTOM
  0
LAYER
  2
MOJI
 70
     0
 62
     6
  6
CONTINUOUS
  0
LAYER
  2
WAKU
 70
     0
 62
     5
  6
CONTINUOUS
  0
LAYER
  2
HOJO
 70
     0
 62
    -8
  6
CONTINUOUS
  0
LAYER
  2
SUNPOU
 70
     0
 62
     4
  6
CONTINUOUS
  0
LAYER
  2
SJC
 70
     0
 62
     1
  6
CONTINUOUS
  0
LAYER
  2
INFORMATION
 70
     1
 62
     7
  6
CONTINUOUS
  0
LAYER
  2
SJC2
 70
     0
 62
     7
  6
CONTINUOUS
  0
LAYER
  2
MOJI2
 70
     0
 62
     1
  6
CONTINUOUS
  0
LAYER
  2
HATCH
 70
     0
 62
     2
  6
CONTINUOUS
  0
LAYER
  2
DEFPOINTS
 70
     0
 62
     7
  6
CONTINUOUS
  0
ENDTAB
  0
TABLE
  2
STYLE
 70
     9
  0
STYLE
  2
STANDARD
 70
     0
 40
0.0
 41
1.0
 50
0.0
 71
     0
 42
3.0
  3
txt
  4

  0
STYLE
  2
KANJI
 70
     0
 40
0.0
 41
1.0
 50
0.0
 71
     0
 42
0.0
  3
ROMANS.SHX
  4
BIGFONT.SHX
  0
STYLE
  2
SIMPLEX
 70
     0
 40
0.0
 41
1.0
 50
0.0
 71
     0
 42
0.0
  3
SCRIPTS.SHX
  4

  0
STYLE
  2
TATEEXT
 70
     4
 40
0.0
 41
1.0
 50
0.0
 71
     0
 42
0.0
  3
ROMANS.shx
  4
EXTFONT.shx
  0
STYLE
  2
TATEBIG
 70
     4
 40
0.0
 41
1.0
 50
0.0
 71
     0
 42
0.0
  3
ROMANS.shx
  4
BIGFONT.shx
  0
STYLE
  2
EXT08
 70
     0
 40
0.0
 41
0.8
 50
0.0
 71
     0
 42
30.0
  3
ROMANS.shx
  4
EXTFONT.shx
  0
STYLE
  2
EXT
 70
     0
 40
0.0
 41
1.0
 50
0.0
 71
     0
 42
0.0
  3
ROMANS.shx
  4
EXTFONT.shx
  0
STYLE
  2
KANJI08
 70
     0
 40
0.0
 41
0.8
 50
0.0
 71
     0
 42
0.0
  3
ROMANS.shx
  4
BIGFONT.shx
  0
STYLE
  2
MOJI1
 70
     0
 40
0.0
 41
0.8
 50
0.0
 71
     0
 42
3.0
  3
ROMANS
  4
EXTFONT
  0
ENDTAB
  0
TABLE
  2
VIEW
 70
     0
  0
ENDTAB
  0
TABLE
  2
UCS
 70
     0
  0
ENDTAB
  0
TABLE
  2
APPID
 70
     3
  0
APPID
  2
ACAD
 70
     0
  0
APPID
  2
ACAD_PSEXT
 70
     0
  0
APPID
  2
ACAD_DSTYLE_DIMTEXT_FILL
 70
     0
  0
ENDTAB
  0
TABLE
  2
DIMSTYLE
 70
     5
  0
DIMSTYLE
  2
ISO-25
 70
     0
  3

  4

  5

  6

  7

 40
1.0
 41
2.5
 42
0.625
 43
3.75
 44
1.25
 45
0.0
 46
0.0
 47
0.0
 48
0.0
140
2.5
141
2.5
142
0.0
143
0.03937007874016
144
1.0
145
0.0
146
1.0
147
0.625
 71
     0
 72
     0
 73
     0
 74
     0
 75
     0
 76
     0
 77
     1
 78
     8
170
     0
171
     3
172
     1
173
     0
174
     0
175
     0
176
     0
177
     0
178
     0
  0
DIMSTYLE
  2
STANDARD
 70
     0
  3

  4

  5

  6

  7

 40
1.0
 41
0.18
 42
0.0625
 43
0.38
 44
0.18
 45
0.0
 46
0.0
 47
0.0
 48
0.0
140
0.18
141
0.09
142
0.0
143
25.399999999999999
144
1.0
145
0.0
146
1.0
147
0.09
 71
     0
 72
     0
 73
     1
 74
     1
 75
     0
 76
     0
 77
     0
 78
     0
170
     0
171
     2
172
     0
173
     0
174
     0
175
     0
176
     0
177
     0
178
     0
  0
DIMSTYLE
  2
RUISEKI1
 70
     0
  3

  4

  5

  6
DOT
  7

 40
10.0
 41
2.0
 42
1.0
 43
6.0
 44
30.0
 45
0.0
 46
0.0
 47
0.0
 48
0.0
140
0.18
141
0.09
142
0.0
143
25.399999999999999
144
1.0
145
0.0
146
1.0
147
1.5
 71
     0
 72
     0
 73
     1
 74
     1
 75
     0
 76
     0
 77
     1
 78
     0
170
     0
171
     2
172
     0
173
     1
174
     0
175
     0
176
     0
177
     0
178
     0
  0
DIMSTYLE
  2
RUISEKI2
 70
     0
  3

  4

  5

  6
NONE
  7

 40
10.0
 41
2.0
 42
1.0
 43
6.0
 44
30.0
 45
0.0
 46
0.0
 47
0.0
 48
0.0
140
0.18
141
0.09
142
0.0
143
25.399999999999999
144
1.0
145
0.0
146
1.0
147
1.5
 71
     0
 72
     0
 73
     1
 74
     1
 75
     0
 76
     0
 77
     1
 78
     0
170
     0
171
     2
172
     0
173
     1
174
     0
175
     0
176
     0
177
     0
178
     0
  0
DIMSTYLE
  2
SJC
 70
     0
  3

  4

  5

  6

  7

 40
1.0
 41
0.18
 42
0.0625
 43
0.38
 44
0.18
 45
0.0
 46
0.0
 47
0.0
 48
0.0
140
0.18
141
0.09
142
0.0
143
25.399999999999999
144
1.0
145
0.0
146
1.0
147
0.09
 71
     0
 72
     0
 73
     1
 74
     1
 75
     0
 76
     0
 77
     0
 78
     0
170
     0
171
     2
172
     0
173
     0
174
     0
175
     0
176
     0
177
     0
178
     0
  0
ENDTAB
  0
ENDSEC
  0
SECTION
  2
BLOCKS
  0
BLOCK
  8
0
  2
$MODEL_SPACE
 70
     0
 10
0.0
 20
0.0
 30
0.0
  3
$MODEL_SPACE
  1

  0
ENDBLK
  5
21
  8
0
  0
BLOCK
 67
     1
  8
0
  2
$PAPER_SPACE
 70
     0
 10
0.0
 20
0.0
 30
0.0
  3
$PAPER_SPACE
  1

  0
ENDBLK
  5
1D
 67
     1
  8
0
  0
BLOCK
  8
0
  2
SYSTEMA3
 70
     0
 10
0.0
 20
0.0
 30
0.0
  3
SYSTEMA3
  1

  0
POLYLINE
  5
3B
  8
ZWAKU
 66
     1
 10
0.0
 20
0.0
 30
0.0
 70
     1
  0
VERTEX
  5
1C3F4
  8
ZWAKU
 10
0.0
 20
0.0
 30
0.0
  0
VERTEX
  5
1C3F5
  8
ZWAKU
 10
0.0
 20
274.5
 30
0.0
  0
VERTEX
  5
1C3F6
  8
ZWAKU
 10
402.0
 20
274.5
 30
0.0
  0
VERTEX
  5
1C3F7
  8
ZWAKU
 10
402.0
 20
0.0
 30
0.0
  0
SEQEND
  5
1C3F8
  8
ZWAKU
  0
ENDBLK
  5
3D
  8
0
  0
BLOCK
  8
0
  2
_DOT
 70
     0
 10
0.0
 20
0.0
 30
0.0
  3
_DOT
  1

  0
POLYLINE
  5
49
  8
0
  6
BYBLOCK
 62
     0
 66
     1
 10
0.0
 20
0.0
 30
0.0
 70
     1
 40
0.5
 41
0.5
  0
VERTEX
  5
1C3F9
  8
0
  6
BYBLOCK
 62
     0
 10
-0.25
 20
0.0
 30
0.0
 42
1.0
  0
VERTEX
  5
1C3FA
  8
0
  6
BYBLOCK
 62
     0
 10
0.25
 20
0.0
 30
0.0
 42
1.0
  0
SEQEND
  5
1C3FB
  8
0
  6
BYBLOCK
 62
     0
  0
LINE
  5
4A
  8
0
  6
BYBLOCK
 62
     0
 10
-0.5
 20
0.0
 30
0.0
 11
-1.0
 21
0.0
 31
0.0
  0
ENDBLK
  5
4C
  8
0
  0
BLOCK
  8
0
  2
_NONE
 70
     0
 10
0.0
 20
0.0
 30
0.0
  3
_NONE
  1

  0
ENDBLK
  5
50
  8
0
  0
BLOCK
  8
0
  2
CALCOMP_TECHJET720A3
 70
     0
 10
0.0
 20
0.0
 30
0.0
  3
CALCOMP_TECHJET720A3
  1

  0
POLYLINE
  5
5B
  8
ZWAKU
 62
     2
 66
     1
 10
0.0
 20
0.0
 30
0.0
 70
     1
  0
VERTEX
  5
1C3FC
  8
ZWAKU
 62
     2
 10
0.0
 20
0.0
 30
0.0
  0
VERTEX
  5
1C3FD
  8
ZWAKU
 62
     2
 10
0.0
 20
267.0
 30
0.0
  0
VERTEX
  5
1C3FE
  8
ZWAKU
 62
     2
 10
370.0
 20
267.0
 30
0.0
  0
VERTEX
  5
1C3FF
  8
ZWAKU
 62
     2
 10
370.0
 20
0.0
 30
0.0
  0
SEQEND
  5
1C400
  8
ZWAKU
 62
     2
  0
ENDBLK
  5
5D
  8
0
  0
BLOCK
  8
0
  2
B0040007
 70
     0
 10
0.0
 20
0.0
 30
0.0
  3
B0040007
  1

  0
LINE
  5
D1
  8
HATCH
 10
9.6000000000000227
 20
-2.4000000000000901
 30
0.0
 11
10.399999999999981
 21
-1.5999999999999091
 31
0.0
  0
LINE
  5
D2
  8
HATCH
 10
8.0
 20
-2.4000000000000901
 30
0.0
 11
10.399999999999981
 21
0.0
 31
0.0
  0
LINE
  5
D3
  8
HATCH
 10
9.6000000000000227
 20
-0.7999999999999546
 30
0.0
 11
8.7999999999999545
 21
0.0
 31
0.0
  0
TEXT
  5
D4
  8
MOJI
 10
-0.1065189878078172
 20
0.6260561220324235
 30
0.0
 40
2.0
  1
G.L.
 41
0.8
  7
EXT08
  0
LINE
  5
D5
  8
HATCH
 10
6.4000000000000901
 20
-2.4000000000000901
 30
0.0
 11
7.2000000000000446
 21
-1.5999999999999091
 31
0.0
  0
LINE
  5
D6
  8
HATCH
 10
4.7999999999999536
 20
-2.4000000000000901
 30
0.0
 11
6.4000000000000901
 21
-0.7999999999999546
 31
0.0
  0
LINE
  5
D7
  8
HATCH
 10
1.6000000000000221
 20
-2.4000000000000901
 30
0.0
 11
3.200000000000045
 21
-0.7999999999999546
 31
0.0
  0
LINE
  5
D8
  8
HATCH
 10
0.7999999999999546
 20
-1.5999999999999091
 30
0.0
 11
0.0
 21
-0.8000000000001818
 31
0.0
  0
LINE
  5
D9
  8
HATCH
 10
3.200000000000045
 20
-2.4000000000000901
 30
0.0
 11
5.5999999999999091
 21
0.0
 31
0.0
  0
LINE
  5
DA
  8
HATCH
 10
4.0
 20
-1.5999999999999091
 30
0.0
 11
2.3999999999999768
 21
0.0
 31
0.0
  0
LINE
  5
DB
  8
HATCH
 10
0.0
 20
-2.4000000000000901
 30
0.0
 11
2.3999999999999768
 21
0.0
 31
0.0
  0
LINE
  5
DC
  8
HATCH
 10
1.6000000000000221
 20
-0.7999999999999546
 30
0.0
 11
0.7999999999999546
 21
0.0
 31
0.0
  0
LINE
  5
DD
  8
HATCH
 10
4.7999999999999536
 20
-0.7999999999999546
 30
0.0
 11
4.0
 21
0.0
 31
0.0
  0
LINE
  5
DE
  8
HATCH
 10
8.0
 20
-2.4000000000000901
 30
0.0
 11
5.6000000000000218
 21
0.0
 31
0.0
  0
LINE
  5
DF
  8
HATCH
 10
8.7999999999999545
 20
-1.5999999999999091
 30
0.0
 11
7.2000000000000446
 21
0.0
 31
0.0
  0
ENDBLK
  5
E1
  8
0
  0
BLOCK
  8
0
  2
B0040005
 70
     0
 10
0.0
 20
0.0
 30
0.0
  3
B0040005
  1

  0
POLYLINE
  5
1FD9
  8
SUNPOU
 66
     1
 10
0.0
 20
0.0
 30
0.0
  0
VERTEX
  5
1C401
  8
SUNPOU
 10
10.0
 20
80.0
 30
0.0
  0
VERTEX
  5
1C402
  8
SUNPOU
 10
10.0
 20
0.0000000000001137
 30
0.0
  0
VERTEX
  5
1C403
  8
SUNPOU
 10
0.0
 20
0.0
 30
0.0
  0
VERTEX
  5
1C404
  8
SUNPOU
 10
20.0
 20
-40.0
 30
0.0
  0
VERTEX
  5
1C405
  8
SUNPOU
 10
10.0
 20
-39.99999999999995
 30
0.0
  0
VERTEX
  5
1C406
  8
SUNPOU
 10
10.0
 20
-120.0
 30
0.0
  0
SEQEND
  5
1C407
  8
SUNPOU
  0
ENDBLK
  5
1FDB
  8
0
  0
BLOCK
  8
0
  2
GL
 70
     0
 10
0.0
 20
0.0
 30
0.0
  3
GL
  1

  0
LINE
  5
17EC2
  8
SUNPOU
 10
2.8284271247462121
 20
0.0
 30
0.0
 11
1.4142135623728791
 21
-1.414213562373106
 31
0.0
  0
LINE
  5
17EC3
  8
SUNPOU
 10
4.9497474683057581
 20
0.0
 30
0.0
 11
2.474873734152879
 21
-2.474873734152879
 31
0.0
  0
LINE
  5
17EC4
  8
SUNPOU
 10
-2.121320343559546
 20
-2.121320343559546
 30
0.0
 11
-0.707106781186667
 21
-3.535533905932652
 31
0.0
  0
LINE
  5
17EC5
  8
SUNPOU
 10
-1.0606601717799999
 20
-1.060660171779773
 30
0.0
 11
1.4142135623728791
 21
-3.535533905932652
 31
0.0
  0
TEXT
  5
17EC6
  8
SUNPOU
 10
-3.2571428571428571
 20
0.9172380209058701
 30
0.0
 40
3.0
  1
G.L.
 41
0.8
  7
MOJI1
 72
     4
 11
0.0
 21
2.4172380209058701
 31
0.0
  0
LINE
  5
17EC7
  8
SUNPOU
 10
7.0710678118653041
 20
0.0
 30
0.0
 11
3.535533905932879
 21
-3.535533905932652
 31
0.0
  0
LINE
  5
17EC8
  8
SUNPOU
 10
0.0
 20
0.0
 30
0.0
 11
3.5355339059324251
 21
-3.535533905932652
 31
0.0
  0
LINE
  5
17EC9
  8
SUNPOU
 10
0.0
 20
0.0
 30
0.0
 11
-3.5355339059324251
 21
-3.535533905932652
 31
0.0
  0
ENDBLK
  5
17ECA
  8
0
  0
BLOCK
  8
0
  2
*D8
 70
     1
 10
0.0
 20
0.0
 30
0.0
  3
*D8
  1

  0
LINE
  5
1C442
  8
SUNPOU
 62
     0
 10
450.11334604726449
 20
787.58889876454123
 30
0.0
 11
377.68044119141223
 21
787.58889876454123
 31
0.0
  0
LINE
  5
1C443
  8
SUNPOU
 62
     0
 10
609.64738174553963
 20
2287.5888987645412
 30
0.0
 11
377.68044119141251
 21
2287.5888987645412
 31
0.0
  0
LINE
  5
1C444
  8
SUNPOU
 62
     0
 10
387.68044119141223
 20
807.58889876454111
 30
0.0
 11
387.68044119141251
 21
2267.5888987645412
 31
0.0
  0
SOLID
  5
1C445
  8
SUNPOU
 62
     0
 10
384.34710785807891
 20
807.58889876454111
 30
0.0
 11
391.01377452474549
 21
807.58889876454111
 31
0.0
 12
387.68044119141223
 22
787.58889876454123
 32
0.0
 13
387.68044119141223
 23
787.58889876454123
 33
0.0
  0
SOLID
  5
1C446
  8
SUNPOU
 62
     0
 10
384.3471078580792
 20
2267.5888987645412
 30
0.0
 11
391.01377452474583
 21
2267.5888987645412
 31
0.0
 12
387.68044119141251
 22
2287.5888987645412
 32
0.0
 13
387.68044119141251
 23
2287.5888987645412
 33
0.0
  0
TEXT
  8
SUNPOU
  40
30
  5
1C5B1
  62
0
  72
0
  71
0
 10
300.680
 20
1484.49
 30
0.000000
  1
1500
  7
EXT08
  0
POINT
  5
1C448
  8
DEFPOINTS
 62
     0
 10
460.11334604726437
 20
787.58889876454123
 30
0.0
  0
POINT
  5
1C449
  8
DEFPOINTS
 62
     0
 10
619.64738174553963
 20
2287.5888987645412
 30
0.0
  0
POINT
  5
1C44A
  8
DEFPOINTS
 62
     0
 10
387.68044119141251
 20
2287.5888987645412
 30
0.0
  0
ENDBLK
  5
195ED
  8
0
  0
BLOCK
  8
0
  2
*D9
 70
     1
 10
0.0
 20
0.0
 30
0.0
  3
*D9
  1

  0
LINE
  5
1C44B
  8
SUNPOU
 62
     0
 10
609.64738174553963
 20
2287.5888987645412
 30
0.0
 11
523.71736719745945
 21
2287.5888987645412
 31
0.0
  0
LINE
  5
1C44C
  8
SUNPOU
 62
     0
 10
609.64738174554145
 20
1777.588898764541
 30
0.0
 11
523.71736719745945
 21
1777.588898764541
 31
0.0
  0
LINE
  5
1C44D
  8
SUNPOU
 62
     0
 10
533.71736719745945
 20
2267.5888987645412
 30
0.0
 11
533.71736719745945
 21
1797.588898764541
 31
0.0
  0
SOLID
  5
1C44E
  8
SUNPOU
 62
     0
 10
530.38403386412608
 20
2267.5888987645412
 30
0.0
 11
537.05070053079294
 21
2267.5888987645412
 31
0.0
 12
533.71736719745945
 22
2287.5888987645412
 32
0.0
 13
533.71736719745945
 23
2287.5888987645412
 33
0.0
  0
SOLID
  5
1C44F
  8
SUNPOU
 62
     0
 10
530.38403386412608
 20
1797.588898764541
 30
0.0
 11
537.05070053079294
 21
1797.588898764541
 31
0.0
 12
533.71736719745945
 22
1777.588898764541
 32
0.0
 13
533.71736719745945
 23
1777.588898764541
 33
0.0
  0
TEXT
  8
SUNPOU
  40
30
  5
1C5B2
  62
0
  72
0
  71
0
 10
446.717
 20
1979.49
 30
0.000000
  1
510
  7
EXT08
  0
POINT
  5
1C451
  8
DEFPOINTS
 62
     0
 10
619.64738174553963
 20
2287.5888987645412
 30
0.0
  0
POINT
  5
1C452
  8
DEFPOINTS
 62
     0
 10
619.64738174554145
 20
1777.588898764541
 30
0.0
  0
POINT
  5
1C453
  8
DEFPOINTS
 62
     0
 10
533.71736719745945
 20
1777.588898764541
 30
0.0
  0
ENDBLK
  5
195F9
  8
0
  0
BLOCK
  8
0
  2
*D10
 70
     1
 10
0.0
 20
0.0
 30
0.0
  3
*D10
  1

  0
LINE
  5
1C454
  8
SUNPOU
 62
     0
 10
607.64738174553963
 20
2285.5888987645412
 30
0.0
 11
607.64738174553963
 21
2451.5652057546758
 31
0.0
  0
LINE
  5
1C455
  8
SUNPOU
 62
     0
 10
767.64738174554316
 20
2285.5888987645412
 30
0.0
 11
767.64738174554316
 21
2451.5652057546758
 31
0.0
  0
LINE
  5
1C456
  8
SUNPOU
 62
     0
 10
627.64738174553963
 20
2441.5652057546758
 30
0.0
 11
747.64738174554316
 21
2441.5652057546758
 31
0.0
  0
SOLID
  5
1C457
  8
SUNPOU
 62
     0
 10
627.64738174553963
 20
2444.8985390880098
 30
0.0
 11
627.64738174553963
 21
2438.2318724213419
 31
0.0
 12
607.64738174553963
 22
2441.5652057546758
 32
0.0
 13
607.64738174553963
 23
2441.5652057546758
 33
0.0
  0
SOLID
  5
1C458
  8
SUNPOU
 62
     0
 10
747.64738174554316
 20
2444.8985390880098
 30
0.0
 11
747.64738174554316
 21
2438.2318724213419
 31
0.0
 12
767.64738174554316
 22
2441.5652057546758
 32
0.0
 13
767.64738174554316
 23
2441.5652057546758
 33
0.0
  0
TEXT
  8
SUNPOU
  40
30
  5
1C5B3
  62
0
  72
0
  71
0
 10
627.647
 20
2415.47
 30
0.000000
  1
160
  7
EXT08
  0
POINT
  5
1C45A
  8
DEFPOINTS
 62
     0
 10
607.64738174553963
 20
2275.5888987645412
 30
0.0
  0
POINT
  5
1C45B
  8
DEFPOINTS
 62
     0
 10
767.64738174554316
 20
2275.5888987645412
 30
0.0
  0
POINT
  5
1C45C
  8
DEFPOINTS
 62
     0
 10
767.64738174554316
 20
2441.5652057546758
 30
0.0
  0
ENDBLK
  5
19605
  8
0
  0
BLOCK
  8
0
  2
*D11
 70
     1
 10
0.0
 20
0.0
 30
0.0
  3
*D11
  1

  0
LINE
  5
1C45D
  8
SUNPOU
 62
     0
 10
450.11334604726449
 20
787.58889876454123
 30
0.0
 11
223.93867437074721
 21
787.58889876454134
 31
0.0
  0
LINE
  5
1C45E
  8
SUNPOU
 62
     0
 10
477.64738174554049
 20
387.58889876454123
 30
0.0
 11
223.93867437074709
 21
387.58889876454128
 31
0.0
  0
LINE
  5
1C45F
  8
SUNPOU
 62
     0
 10
233.93867437074709
 20
767.58889876454134
 30
0.0
 11
233.93867437074709
 21
407.58889876454123
 31
0.0
  0
SOLID
  5
1C460
  8
SUNPOU
 62
     0
 10
230.60534103741381
 20
767.58889876454134
 30
0.0
 11
237.27200770408049
 21
767.58889876454134
 31
0.0
 12
233.93867437074709
 22
787.58889876454134
 32
0.0
 13
233.93867437074709
 23
787.58889876454134
 33
0.0
  0
SOLID
  5
1C461
  8
SUNPOU
 62
     0
 10
230.60534103741369
 20
407.58889876454123
 30
0.0
 11
237.27200770408041
 21
407.58889876454123
 31
0.0
 12
233.93867437074709
 22
387.58889876454128
 32
0.0
 13
233.93867437074709
 23
387.58889876454128
 33
0.0
  0
TEXT
  8
SUNPOU
  40
30
  5
1C5B4
  62
0
  72
0
  71
0
 10
146.939
 20
534.489
 30
0.000000
  1
400
  7
EXT08
  0
POINT
  5
1C463
  8
DEFPOINTS
 62
     0
 10
460.11334604726437
 20
787.58889876454123
 30
0.0
  0
POINT
  5
1C464
  8
DEFPOINTS
 62
     0
 10
487.64738174554049
 20
387.58889876454123
 30
0.0
  0
POINT
  5
1C465
  8
DEFPOINTS
 62
     0
 10
233.93867437074709
 20
387.58889876454128
 30
0.0
  0
ENDBLK
  5
1962B
  8
0
  0
BLOCK
  8
0
  2
*D12
 70
     1
 10
0.0
 20
0.0
 30
0.0
  3
*D12
  1

  0
LINE
  5
1C466
  8
SUNPOU
 62
     0
 10
537.64738174554054
 20
377.58889876454123
 30
0.0
 11
537.64738174554054
 21
217.4473130475298
 31
0.0
  0
LINE
  5
1C467
  8
SUNPOU
 62
     0
 10
837.64738174554054
 20
377.58889876454123
 30
0.0
 11
837.64738174554054
 21
217.4473130475298
 31
0.0
  0
LINE
  5
1C468
  8
SUNPOU
 62
     0
 10
557.64738174554054
 20
227.4473130475298
 30
0.0
 11
817.64738174554066
 21
227.4473130475298
 31
0.0
  0
SOLID
  5
1C469
  8
SUNPOU
 62
     0
 10
557.64738174554054
 20
230.7806463808632
 30
0.0
 11
557.64738174554054
 21
224.11397971419649
 31
0.0
 12
537.64738174554054
 22
227.4473130475298
 32
0.0
 13
537.64738174554054
 23
227.4473130475298
 33
0.0
  0
SOLID
  5
1C46A
  8
SUNPOU
 62
     0
 10
817.64738174554066
 20
230.7806463808632
 30
0.0
 11
817.64738174554066
 21
224.11397971419649
 31
0.0
 12
837.64738174554054
 22
227.4473130475298
 32
0.0
 13
837.64738174554054
 23
227.4473130475298
 33
0.0
  0
TEXT
  8
SUNPOU
  40
30
  5
1C5B5
  62
0
  72
0
  71
0
 10
627.647
 20
201.347
 30
0.000000
  1
□300
  7
EXT08
  0
POINT
  5
1C46C
  8
DEFPOINTS
 62
     0
 10
537.64738174554054
 20
387.58889876454123
 30
0.0
  0
POINT
  5
1C46D
  8
DEFPOINTS
 62
     0
 10
837.64738174554054
 20
387.58889876454123
 30
0.0
  0
POINT
  5
1C46E
  8
DEFPOINTS
 62
     0
 10
837.64738174554054
 20
227.4473130475298
 30
0.0
  0
ENDBLK
  5
19683
  8
0
  0
BLOCK
  8
0
  2
*D13
 70
     1
 10
0.0
 20
0.0
 30
0.0
  3
*D13
  1

  0
LINE
  5
1C487
  8
SUNPOU
 62
     0
 10
643.89738174553895
 20
2337.588898764544
 30
0.0
 11
643.89738174553895
 21
2388.5770522596108
 31
0.0
  0
LINE
  5
1C488
  8
SUNPOU
 62
     0
 10
731.39738174553713
 20
2337.5888987645458
 30
0.0
 11
731.39738174553713
 21
2388.5770522596108
 31
0.0
  0
LINE
  5
1C489
  8
SUNPOU
 62
     0
 10
663.89738174553895
 20
2378.5770522596099
 30
0.0
 11
711.39738174553713
 21
2378.5770522596099
 31
0.0
  0
TEXT
  8
SUNPOU
  40
30
  5
1C5B6
  62
0
  72
0
  71
0
 10
627.647
 20
2355.16
 30
0.000000
  1
φ89
  7
EXT08
  0
SOLID
  5
1C48B
  8
SUNPOU
 62
     0
 10
663.89738174553895
 20
2381.9103855929438
 30
0.0
 11
663.89738174553895
 21
2375.2437189262769
 31
0.0
 12
643.89738174553895
 22
2378.5770522596099
 32
0.0
 13
643.89738174553895
 23
2378.5770522596099
 33
0.0
  0
SOLID
  5
1C48C
  8
SUNPOU
 62
     0
 10
711.39738174553713
 20
2381.9103855929438
 30
0.0
 11
711.39738174553713
 21
2375.2437189262769
 31
0.0
 12
731.39738174553713
 22
2378.5770522596099
 32
0.0
 13
731.39738174553713
 23
2378.5770522596099
 33
0.0
  0
POINT
  5
1C48D
  8
DEFPOINTS
 62
     0
 10
643.89738174553895
 20
2327.588898764544
 30
0.0
  0
POINT
  5
1C48E
  8
DEFPOINTS
 62
     0
 10
731.39738174553713
 20
2327.5888987645458
 30
0.0
  0
POINT
  5
1C48F
  8
DEFPOINTS
 62
     0
 10
731.39738174553713
 20
2378.5770522596099
 30
0.0
  0
ENDBLK
  5
19E0E
  8
0
  0
BLOCK
  8
0
  2
*D14
 70
     1
 10
0.0
 20
0.0
 30
0.0
  3
*D14
  1

  0
LINE
  5
1C498
  8
SUNPOU
 62
     0
 10
477.64738174554071
 20
287.58889876454123
 30
0.0
 11
223.93867437074701
 21
287.58889876454128
 31
0.0
  0
LINE
  5
1C499
  8
SUNPOU
 62
     0
 10
467.64738174554049
 20
387.58889876454123
 30
0.0
 11
223.93867437074709
 21
387.58889876454128
 31
0.0
  0
LINE
  5
1C49A
  8
SUNPOU
 62
     0
 10
233.93867437074701
 20
307.58889876454128
 30
0.0
 11
233.93867437074709
 21
367.58889876454128
 31
0.0
  0
SOLID
  5
1C49B
  8
SUNPOU
 62
     0
 10
230.60534103741369
 20
307.58889876454128
 30
0.0
 11
237.27200770408041
 21
307.58889876454128
 31
0.0
 12
233.93867437074701
 22
287.58889876454128
 32
0.0
 13
233.93867437074701
 23
287.58889876454128
 33
0.0
  0
SOLID
  5
1C49C
  8
SUNPOU
 62
     0
 10
230.60534103741369
 20
367.58889876454128
 30
0.0
 11
237.27200770408041
 21
367.58889876454128
 31
0.0
 12
233.93867437074709
 22
387.58889876454128
 32
0.0
 13
233.93867437074709
 23
387.58889876454128
 33
0.0
  0
TEXT
  8
SUNPOU
  40
30
  5
1C5B7
  62
0
  72
0
  71
0
 10
146.939
 20
284.489
 30
0.000000
  1
100
  7
EXT08
  0
POINT
  5
1C49E
  8
DEFPOINTS
 62
     0
 10
487.64738174554083
 20
287.58889876454123
 30
0.0
  0
POINT
  5
1C49F
  8
DEFPOINTS
 62
     0
 10
477.64738174554049
 20
387.58889876454123
 30
0.0
  0
POINT
  5
1C4A0
  8
DEFPOINTS
 62
     0
 10
233.93867437074709
 20
387.58889876454128
 30
0.0
  0
ENDBLK
  5
1AAD2
  8
0
  0
BLOCK
  8
0
  2
*D15
 70
     1
 10
0.0
 20
0.0
 30
0.0
  3
*D15
  1

  0
LINE
  5
1C4A1
  8
SUNPOU
 62
     0
 10
887.64738174554066
 20
277.58889876454123
 30
0.0
 11
887.64738174554066
 21
167.33611180880141
 31
0.0
  0
LINE
  5
1C4A2
  8
SUNPOU
 62
     0
 10
487.64738174554083
 20
277.58889876454123
 30
0.0
 11
487.64738174554083
 21
167.33611180880141
 31
0.0
  0
LINE
  5
1C4A3
  8
SUNPOU
 62
     0
 10
867.64738174554066
 20
177.33611180880141
 30
0.0
 11
507.64738174554071
 21
177.33611180880141
 31
0.0
  0
SOLID
  5
1C4A4
  8
SUNPOU
 62
     0
 10
867.64738174554066
 20
180.6694451421348
 30
0.0
 11
867.64738174554066
 21
174.00277847546809
 31
0.0
 12
887.64738174554066
 22
177.33611180880141
 32
0.0
 13
887.64738174554066
 23
177.33611180880141
 33
0.0
  0
SOLID
  5
1C4A5
  8
SUNPOU
 62
     0
 10
507.64738174554071
 20
180.6694451421348
 30
0.0
 11
507.64738174554071
 21
174.00277847546809
 31
0.0
 12
487.64738174554083
 22
177.33611180880141
 32
0.0
 13
487.64738174554083
 23
177.33611180880141
 33
0.0
  0
TEXT
  8
SUNPOU
  40
30
  5
1C5B8
  62
0
  72
0
  71
0
 10
627.647
 20
151.236
 30
0.000000
  1
□400
  7
EXT08
  0
POINT
  5
1C4A7
  8
DEFPOINTS
 62
     0
 10
887.64738174554066
 20
287.58889876454123
 30
0.0
  0
POINT
  5
1C4A8
  8
DEFPOINTS
 62
     0
 10
487.64738174554083
 20
287.58889876454123
 30
0.0
  0
POINT
  5
1C4A9
  8
DEFPOINTS
 62
     0
 10
487.64738174554083
 20
177.33611180880141
 30
0.0
  0
ENDBLK
  5
1AADF
  8
0
  0
BLOCK
  8
0
  2
*D16
 70
     1
 10
0.0
 20
0.0
 30
0.0
  3
*D16
  1

  0
LINE
  5
1C4BC
  8
SUNPOU
 62
     0
 10
1969.829355828233
 20
1592.507178536805
 30
0.0
 11
1969.829355828233
 21
1779.019615007488
 31
0.0
  0
LINE
  5
1C4BD
  8
SUNPOU
 62
     0
 10
2289.8293558282398
 20
1592.507178536805
 30
0.0
 11
2289.8293558282398
 21
1779.019615007488
 31
0.0
  0
LINE
  5
1C4BE
  8
SUNPOU
 62
     0
 10
1989.829355828233
 20
1769.019615007488
 30
0.0
 11
2269.8293558282412
 21
1769.019615007488
 31
0.0
  0
SOLID
  5
1C4BF
  8
SUNPOU
 62
     0
 10
1989.829355828233
 20
1772.3529483408211
 30
0.0
 11
1989.829355828233
 21
1765.6862816741541
 31
0.0
 12
1969.829355828233
 22
1769.019615007488
 32
0.0
 13
1969.829355828233
 23
1769.019615007488
 33
0.0
  0
SOLID
  5
1C4C0
  8
SUNPOU
 62
     0
 10
2269.8293558282412
 20
1772.3529483408211
 30
0.0
 11
2269.8293558282412
 21
1765.6862816741541
 31
0.0
 12
2289.8293558282398
 22
1769.019615007488
 32
0.0
 13
2289.8293558282398
 23
1769.019615007488
 33
0.0
  0
TEXT
  8
SUNPOU
  40
30
  5
1C5B9
  62
0
  72
0
  71
0
 10
2069.83
 20
1742.92
 30
0.000000
  1
160
  7
EXT08
  0
POINT
  5
1C4C2
  8
DEFPOINTS
 62
     0
 10
1969.829355828233
 20
1582.507178536805
 30
0.0
  0
POINT
  5
1C4C3
  8
DEFPOINTS
 62
     0
 10
2289.8293558282398
 20
1582.507178536805
 30
0.0
  0
POINT
  5
1C4C4
  8
DEFPOINTS
 62
     0
 10
2289.8293558282398
 20
1769.019615007488
 30
0.0
  0
ENDBLK
  5
1AF94
  8
0
  0
BLOCK
  8
0
  2
*D17
 70
     1
 10
0.0
 20
0.0
 30
0.0
  3
*D17
  1

  0
LINE
  5
1C4C5
  8
SUNPOU
 62
     0
 10
1969.8293558282351
 20
1276.3221542296089
 30
0.0
 11
1969.8293558282351
 21
1319.9938276009959
 31
0.0
  0
LINE
  5
1C4C6
  8
SUNPOU
 62
     0
 10
1979.829355828236
 20
1276.3221542296089
 30
0.0
 11
1979.829355828236
 21
1319.9938276009959
 31
0.0
  0
LINE
  5
1C4C7
  8
SUNPOU
 62
     0
 10
1949.8293558282351
 20
1309.9938276009959
 30
0.0
 11
1929.8293558282351
 21
1309.9938276009959
 31
0.0
  0
LINE
  5
1C4C8
  8
SUNPOU
 62
     0
 10
1999.829355828236
 20
1309.9938276009959
 30
0.0
 11
2019.829355828236
 21
1309.9938276009959
 31
0.0
  0
TEXT
  8
SUNPOU
  40
30
  5
1C5BA
  62
0
  72
0
  71
0
 10
1889.31
 20
1283.77
 30
0.000000
  1
5
  7
EXT08
  0
LINE
  5
1C4CA
  8
SUNPOU
 62
     0
 10
1969.8293558282351
 20
1309.9938276009959
 30
0.0
 11
1979.829355828236
 21
1309.9938276009959
 31
0.0
  0
SOLID
  5
1C4CB
  8
SUNPOU
 62
     0
 10
1949.8293558282351
 20
1313.327160934329
 30
0.0
 11
1949.8293558282351
 21
1306.6604942676629
 31
0.0
 12
1969.8293558282351
 22
1309.9938276009959
 32
0.0
 13
1969.8293558282351
 23
1309.9938276009959
 33
0.0
  0
SOLID
  5
1C4CC
  8
SUNPOU
 62
     0
 10
1999.829355828236
 20
1313.327160934329
 30
0.0
 11
1999.829355828236
 21
1306.6604942676629
 31
0.0
 12
1979.829355828236
 22
1309.9938276009959
 32
0.0
 13
1979.829355828236
 23
1309.9938276009959
 33
0.0
  0
POINT
  5
1C4CD
  8
DEFPOINTS
 62
     0
 10
1969.8293558282351
 20
1266.3221542296089
 30
0.0
  0
POINT
  5
1C4CE
  8
DEFPOINTS
 62
     0
 10
1979.829355828236
 20
1266.3221542296089
 30
0.0
  0
POINT
  5
1C4CF
  8
DEFPOINTS
 62
     0
 10
1979.829355828236
 20
1309.9938276009959
 30
0.0
  0
ENDBLK
  5
1AFA2
  8
0
  0
BLOCK
  8
0
  2
*D18
 70
     1
 10
0.0
 20
0.0
 30
0.0
  3
*D18
  1

  0
LINE
  5
1C4D0
  8
SUNPOU
 62
     0
 10
2788.9786626568889
 20
1477.099033344962
 30
0.0
 11
2788.9786626568889
 21
1577.6570242437369
 31
0.0
  0
LINE
  5
1C4D1
  8
SUNPOU
 62
     0
 10
2776.9786626568889
 20
1477.099033344957
 30
0.0
 11
2776.9786626568889
 21
1577.6570242437369
 31
0.0
  0
LINE
  5
1C4D2
  8
SUNPOU
 62
     0
 10
2808.9786626568898
 20
1567.6570242437369
 30
0.0
 11
2828.9786626568898
 21
1567.6570242437369
 31
0.0
  0
LINE
  5
1C4D3
  8
SUNPOU
 62
     0
 10
2756.9786626568889
 20
1567.6570242437369
 30
0.0
 11
2736.9786626568898
 21
1567.6570242437369
 31
0.0
  0
TEXT
  8
SUNPOU
  40
30
  5
1C5BB
  62
0
  72
0
  71
0
 10
2689.57
 20
1540.56
 30
0.000000
  1
6
  7
EXT08
  0
LINE
  5
1C4D5
  8
SUNPOU
 62
     0
 10
2788.9786626568889
 20
1567.6570242437369
 30
0.0
 11
2776.9786626568889
 21
1567.6570242437369
 31
0.0
  0
SOLID
  5
1C4D6
  8
SUNPOU
 62
     0
 10
2808.9786626568898
 20
1570.99035757707
 30
0.0
 11
2808.9786626568898
 21
1564.3236909104039
 31
0.0
 12
2788.9786626568889
 22
1567.6570242437369
 32
0.0
 13
2788.9786626568889
 23
1567.6570242437369
 33
0.0
  0
SOLID
  5
1C4D7
  8
SUNPOU
 62
     0
 10
2756.9786626568889
 20
1570.99035757707
 30
0.0
 11
2756.9786626568889
 21
1564.3236909104039
 31
0.0
 12
2776.9786626568889
 22
1567.6570242437369
 32
0.0
 13
2776.9786626568889
 23
1567.6570242437369
 33
0.0
  0
POINT
  5
1C4D8
  8
DEFPOINTS
 62
     0
 10
2788.9786626568889
 20
1467.099033344962
 30
0.0
  0
POINT
  5
1C4D9
  8
DEFPOINTS
 62
     0
 10
2776.9786626568889
 20
1467.099033344957
 30
0.0
  0
POINT
  5
1C4DA
  8
DEFPOINTS
 62
     0
 10
2776.9786626568889
 20
1567.6570242437369
 30
0.0
  0
ENDBLK
  5
1AFB0
  8
0
  0
BLOCK
  8
0
  2
*D19
 70
     1
 10
0.0
 20
0.0
 30
0.0
  3
*D19
  1

  0
LINE
  5
1C4E3
  8
SUNPOU
 62
     0
 10
1983.829355828233
 20
1606.507178536805
 30
0.0
 11
1799.3472900497579
 21
1606.507178536805
 31
0.0
  0
LINE
  5
1C4E4
  8
SUNPOU
 62
     0
 10
1983.8293558282289
 20
366.50717853677497
 30
0.0
 11
1799.3472900497579
 21
366.50717853677509
 31
0.0
  0
LINE
  5
1C4E5
  8
SUNPOU
 62
     0
 10
1809.3472900497579
 20
1586.507178536805
 30
0.0
 11
1809.3472900497579
 21
386.50717853677497
 31
0.0
  0
SOLID
  5
1C4E6
  8
SUNPOU
 62
     0
 10
1806.0139567164249
 20
1586.507178536805
 30
0.0
 11
1812.680623383091
 21
1586.507178536805
 31
0.0
 12
1809.3472900497579
 22
1606.507178536805
 32
0.0
 13
1809.3472900497579
 23
1606.507178536805
 33
0.0
  0
SOLID
  5
1C4E7
  8
SUNPOU
 62
     0
 10
1806.013956716424
 20
386.50717853677497
 30
0.0
 11
1812.680623383091
 21
386.50717853677497
 31
0.0
 12
1809.3472900497579
 22
366.50717853677509
 32
0.0
 13
1809.3472900497579
 23
366.50717853677509
 33
0.0
  0
TEXT
  8
SUNPOU
  40
30
  5
1C5BC
  62
0
  72
0
  71
0
 10
1722.35
 20
933.407
 30
0.000000
  1
1020
  7
EXT08
  0
POINT
  5
1C4E9
  8
DEFPOINTS
 62
     0
 10
1993.829355828233
 20
1606.507178536805
 30
0.0
  0
POINT
  5
1C4EA
  8
DEFPOINTS
 62
     0
 10
1993.8293558282289
 20
366.50717853677497
 30
0.0
  0
POINT
  5
1C4EB
  8
DEFPOINTS
 62
     0
 10
1809.3472900497579
 20
366.50717853677509
 30
0.0
  0
ENDBLK
  5
1B2FA
  8
0
  0
BLOCK
  8
0
  2
*D20
 70
     1
 10
0.0
 20
0.0
 30
0.0
  3
*D20
  1

  0
LINE
  5
1C4EC
  8
SUNPOU
 62
     0
 10
609.64738174553975
 20
2287.5888987645412
 30
0.0
 11
457.63820172968752
 21
2287.5888987645412
 31
0.0
  0
LINE
  5
1C4ED
  8
SUNPOU
 62
     0
 10
599.64738174554145
 20
1267.588898764541
 30
0.0
 11
457.63820172968718
 21
1267.588898764541
 31
0.0
  0
LINE
  5
1C4EE
  8
SUNPOU
 62
     0
 10
467.63820172968752
 20
2267.5888987645412
 30
0.0
 11
467.63820172968718
 21
1287.588898764541
 31
0.0
  0
SOLID
  5
1C4EF
  8
SUNPOU
 62
     0
 10
464.30486839635421
 20
2267.5888987645412
 30
0.0
 11
470.97153506302078
 21
2267.5888987645412
 31
0.0
 12
467.63820172968752
 22
2287.5888987645412
 32
0.0
 13
467.63820172968752
 23
2287.5888987645412
 33
0.0
  0
SOLID
  5
1C4F0
  8
SUNPOU
 62
     0
 10
464.30486839635398
 20
1287.588898764541
 30
0.0
 11
470.9715350630205
 21
1287.588898764541
 31
0.0
 12
467.63820172968718
 22
1267.588898764541
 32
0.0
 13
467.63820172968718
 23
1267.588898764541
 33
0.0
  0
TEXT
  8
SUNPOU
  40
30
  5
1C5BD
  62
0
  72
0
  71
0
 10
380.638
 20
1724.49
 30
0.000000
  1
1020
  7
EXT08
  0
POINT
  5
1C4F2
  8
DEFPOINTS
 62
     0
 10
619.64738174553975
 20
2287.5888987645412
 30
0.0
  0
POINT
  5
1C4F3
  8
DEFPOINTS
 62
     0
 10
609.64738174554145
 20
1267.588898764541
 30
0.0
  0
POINT
  5
1C4F4
  8
DEFPOINTS
 62
     0
 10
467.63820172968718
 20
1267.588898764541
 30
0.0
  0
ENDBLK
  5
1B372
  8
0
  0
BLOCK
  8
0
  2
A$C08A303EA
 70
     0
 10
0.0
 20
0.0
 30
0.0
  3
A$C08A303EA
  1

  0
LINE
  5
1B52B
  8
HASEN
 10
203.0000059048289
 20
340.0000019300918
 30
0.0
 11
203.0000059048289
 21
70.000001930098392
 31
0.0
  0
LINE
  5
1B52C
  8
SJC
 10
213.50000590482981
 20
340.00000193009168
 30
0.0
 11
213.50000590482981
 21
70.000001930098335
 31
0.0
1001
ACAD
1000
ASC_BOUNDS
1002
{
1070
    19
1002
}
  0
LINE
  5
1B52D
  8
SJC
 10
21.00000590505033
 20
340.0000019300935
 30
0.0
 11
21.000005905050791
 21
211.00000193006559
 31
0.0
  0
LINE
  5
1B52E
  8
SJC
 10
21.000005905050791
 20
203.00000193006551
 30
0.0
 11
21.000005905050791
 21
70.000001930100154
 31
0.0
  0
LINE
  5
1B52F
  8
SJC
 10
33.000005905108999
 20
340.00000193009339
 30
0.0
 11
33.000005905154921
 21
211.0000019300652
 31
0.0
  0
LINE
  5
1B530
  8
SJC
 10
33.00000590515765
 20
203.00000193006881
 30
0.0
 11
33.000005905205398
 21
70.000001930100041
 31
0.0
  0
LINE
  5
1B531
  8
HASEN
 10
24.000005905107631
 20
340.00000193009339
 30
0.0
 11
24.000005905154008
 21
217.0000019300669
 31
0.0
  0
LINE
  5
1B532
  8
HASEN
 10
24.00000590516083
 20
197.00000193006369
 30
0.0
 11
24.000005905208582
 21
70.000001930100041
 31
0.0
  0
LINE
  5
1B533
  8
SJC
 10
21.000005905050791
 20
340.00000193009362
 30
0.0
 11
21.000005905050791
 21
211.00000193006559
 31
0.0
  0
LINE
  5
1B534
  8
SJC
 10
21.000005905050791
 20
203.00000193006551
 30
0.0
 11
21.000005905050791
 21
70.000001930100154
 31
0.0
  0
LINE
  5
1B535
  8
HASEN
 10
38.500005905048511
 20
340.0000019300935
 30
0.0
 11
38.500005905045327
 21
70.000001930099927
 31
0.0
  0
LINE
  5
1B536
  8
SJC
 10
93.000005904915255
 20
340.00000193009282
 30
0.0
 11
93.000005904945738
 21
272.13274529313651
 31
0.0
  0
LINE
  5
1B537
  8
SJC
 10
93.000005905005295
 20
141.8672585670094
 30
0.0
 11
93.000005905037597
 21
70.000001930099415
 31
0.0
  0
LINE
  5
1B538
  8
SJC
 10
33.00000590515765
 20
211.00000193006369
 30
0.0
 11
33.000005905158112
 21
222.00000193050249
 31
0.0
  0
LINE
  5
1B539
  8
SJC
 10
33.000005905159917
 20
222.00000193005511
 30
0.0
 11
33.000005905159917
 21
211.00000193006369
 31
0.0
  0
LINE
  5
1B53A
  8
SJC
 10
29.00000590504715
 20
207.00000193006369
 30
0.0
 11
25.00000590504715
 21
207.00000193006559
 31
0.0
  0
ARC
  5
1B53B
  8
SJC
 10
29.000005905048969
 20
211.00000193006369
 30
0.0
 40
4.0
 50
270.0
 51
359.99999999997402
  0
ARC
  5
1B53C
  8
SJC
 10
25.000005905048958
 20
211.00000193006559
 30
0.0
 40
4.0
 50
179.99999999998701
 51
270.0
  0
LINE
  5
1B53D
  8
SJC
 10
21.000005905048969
 20
211.0000019300673
 30
0.0
 11
21.0000059050526
 21
216.00000193006781
 31
0.0
  0
LINE
  5
1B53E
  8
SJC
 10
146.0000059065332
 20
217.0000019301074
 30
0.0
 11
146.0000059065205
 21
251.17545744702829
 31
0.0
  0
ARC
  5
1B53F
  8
SJC
 10
136.0000059065332
 20
217.00000193010459
 30
0.0
 40
10.0
 50
270.0
 51
0.0000000000260551
  0
LINE
  5
1B540
  8
SJC
 10
136.0000059065369
 20
207.00000193009831
 30
0.0
 11
29.00000590505033
 21
207.0000019300638
 31
0.0
  0
LINE
  5
1B541
  8
CENTER
 10
126.0000059065314
 20
236.00000193010149
 30
0.0
 11
126.000005906526
 21
254.00000193010149
 31
0.0
  0
LINE
  5
1B542
  8
CENTER
 10
135.00000590652959
 20
245.00000193010419
 30
0.0
 11
117.00000590652959
 21
245.0000019300987
 31
0.0
  0
LINE
  5
1B543
  8
HASEN
 10
22.0000059050526
 20
217.0000019300673
 30
0.0
 11
24.00000590504715
 21
217.0000019300669
 31
0.0
  0
ARC
  5
1B544
  8
HASEN
 10
22.0000059050526
 20
216.00000193006741
 30
0.0
 40
1.0
 50
90.0
 51
179.99999999997391
  0
LINE
  5
1B545
  8
SJC
 10
138.4051456352845
 20
260.88191420967132
 30
0.0
 11
33.000005905070793
 21
287.00000193006417
 31
0.0
  0
ARC
  5
1B546
  8
SJC
 10
136.0000059065205
 20
251.17545744702511
 30
0.0
 40
10.0
 50
0.0000000000260551
 51
76.083122566894787
  0
LINE
  5
1B547
  8
HASEN
 10
38.50000590476521
 20
209.00000193006829
 30
0.0
 11
24.00000590504715
 21
209.00000193006241
 31
0.0
  0
LINE
  5
1B548
  8
HASEN
 10
24.00000590504715
 20
209.00000193006241
 30
0.0
 11
24.00000590504715
 21
207.1270185838585
 31
0.0
  0
LINE
  5
1B549
  8
CENTER
 10
126.00000590800749
 20
254.00000193010149
 30
0.0
 11
126.00000590800209
 21
236.00000193010149
 31
0.0
  0
LINE
  5
1B54A
  8
CENTER
 10
135.0000059080057
 20
245.0000019300987
 30
0.0
 11
117.0000059080057
 21
245.00000193010419
 31
0.0
  0
LINE
  5
1B54B
  8
CENTER
 10
126.00000590800749
 20
254.00000193010149
 30
0.0
 11
126.00000590800209
 21
236.00000193010149
 31
0.0
  0
LINE
  5
1B54C
  8
CENTER
 10
126.0000059080084
 20
254.00000193010149
 30
0.0
 11
126.0000059080012
 21
236.00000193010149
 31
0.0
  0
CIRCLE
  5
1B54D
  8
SJC
 10
126.00000590800479
 20
245.00000193010149
 30
0.0
 40
9.0
  0
CIRCLE
  5
1B54E
  8
SJC
 10
126.00000590800479
 20
245.00000193010149
 30
0.0
 40
8.0
  0
LINE
  5
1B54F
  8
SJC2
 10
125.14894207821629
 20
250.9574487386117
 30
0.0
 11
126.8510697377919
 21
250.9574487386117
 31
0.0
  0
LINE
  5
1B550
  8
SJC2
 10
131.95745271651549
 20
245.85106575988809
 30
0.0
 11
131.95745271651549
 21
244.14893810031299
 31
0.0
  0
LINE
  5
1B551
  8
SJC2
 10
120.0425590994937
 20
245.85106575988809
 30
0.0
 11
120.0425590994937
 21
244.14893810031299
 31
0.0
  0
LINE
  5
1B552
  8
SJC2
 10
125.14894207821629
 20
239.04255512159119
 30
0.0
 11
126.8510697377919
 21
239.04255512159119
 31
0.0
  0
ARC
  5
1B553
  8
SJC2
 10
131.95745271651549
 20
239.04255512159119
 30
0.0
 40
5.1063829787233539
 50
90.0
 51
180.0
  0
ARC
  5
1B554
  8
SJC2
 10
120.0425590994937
 20
239.04255512159119
 30
0.0
 40
5.1063829787233539
 50
0.0
 51
90.0
  0
ARC
  5
1B555
  8
SJC2
 10
131.95745271651549
 20
250.9574487386117
 30
0.0
 40
5.1063829787233539
 50
180.0
 51
270.0
  0
ARC
  5
1B556
  8
SJC2
 10
120.0425590994937
 20
250.9574487386117
 30
0.0
 40
5.1063829787233539
 50
270.0
 51
0.0
  0
LINE
  5
1B557
  8
SJC
 10
29.000005905045331
 20
207.00000193006741
 30
0.0
 11
25.000005905045331
 21
207.00000193006559
 31
0.0
  0
ARC
  5
1B558
  8
SJC
 10
29.00000590504715
 20
203.00000193006741
 30
0.0
 40
4.0
 50
0.0000000000260551
 51
90.0
  0
ARC
  5
1B559
  8
SJC
 10
25.00000590504715
 20
203.00000193006551
 30
0.0
 40
4.0
 50
90.0
 51
180.00000000001299
  0
LINE
  5
1B55A
  8
SJC
 10
21.000005905047139
 20
203.00000193006369
 30
0.0
 11
21.000005905050791
 21
198.00000193006281
 31
0.0
  0
LINE
  5
1B55B
  8
SJC
 10
146.00000590653141
 20
197.0000019300237
 30
0.0
 11
146.00000590651871
 21
162.82454641310269
 31
0.0
  0
ARC
  5
1B55C
  8
SJC
 10
136.00000590653141
 20
197.0000019300264
 30
0.0
 40
10.0
 50
359.99999999997402
 51
90.0
  0
LINE
  5
1B55D
  8
CENTER
 10
126.00000590652959
 20
178.0000019300291
 30
0.0
 11
126.00000590652409
 21
160.0000019300291
 31
0.0
  0
LINE
  5
1B55E
  8
CENTER
 10
135.0000059065278
 20
169.0000019300264
 30
0.0
 11
117.0000059065278
 21
169.00000193003191
 31
0.0
  0
LINE
  5
1B55F
  8
HASEN
 10
22.000005905050781
 20
197.00000193006369
 30
0.0
 11
24.000005905045331
 21
197.00000193006369
 31
0.0
  0
ARC
  5
1B560
  8
HASEN
 10
22.000005905050781
 20
198.00000193006369
 30
0.0
 40
1.0
 50
180.00000000001299
 51
270.0
  0
LINE
  5
1B561
  8
SJC
 10
138.40514563528271
 20
153.11808965045969
 30
0.0
 11
33.000005905068967
 21
127.0000019300664
 31
0.0
  0
ARC
  5
1B562
  8
SJC
 10
136.00000590651871
 20
162.82454641310551
 30
0.0
 40
10.0
 50
283.9168774331053
 51
359.99999999997402
  0
LINE
  5
1B563
  8
HASEN
 10
38.500005905050791
 20
205.00000193006281
 30
0.0
 11
24.000005905045331
 21
205.00000193006829
 31
0.0
  0
LINE
  5
1B564
  8
HASEN
 10
24.000005905045331
 20
205.00000193006829
 30
0.0
 11
24.000005905045331
 21
206.8729852762722
 31
0.0
  0
LINE
  5
1B565
  8
CENTER
 10
126.0000059065305
 20
178.0000019300291
 30
0.0
 11
126.0000059065232
 21
160.0000019300291
 31
0.0
  0
CIRCLE
  5
1B566
  8
SJC
 10
126.00000590652689
 20
169.0000019300291
 30
0.0
 40
9.0
  0
CIRCLE
  5
1B567
  8
SJC
 10
126.00000590652689
 20
169.0000019300291
 30
0.0
 40
8.0
  0
LINE
  5
1B568
  8
SJC2
 10
125.14894207673839
 20
174.9574487385394
 30
0.0
 11
126.851069736314
 21
174.9574487385394
 31
0.0
  0
LINE
  5
1B569
  8
SJC2
 10
131.9574527150375
 20
169.85106575981581
 30
0.0
 11
131.9574527150375
 21
168.14893810024071
 31
0.0
  0
LINE
  5
1B56A
  8
SJC2
 10
120.0425590980157
 20
169.85106575981581
 30
0.0
 11
120.0425590980157
 21
168.14893810024071
 31
0.0
  0
LINE
  5
1B56B
  8
SJC2
 10
125.14894207673839
 20
163.04255512151889
 30
0.0
 11
126.851069736314
 21
163.04255512151889
 31
0.0
  0
ARC
  5
1B56C
  8
SJC2
 10
131.9574527150375
 20
163.04255512151889
 30
0.0
 40
5.1063829787233539
 50
90.0
 51
180.0
  0
ARC
  5
1B56D
  8
SJC2
 10
120.0425590980157
 20
163.04255512151889
 30
0.0
 40
5.1063829787233539
 50
0.0
 51
90.0
  0
ARC
  5
1B56E
  8
SJC2
 10
131.9574527150375
 20
174.9574487385394
 30
0.0
 40
5.1063829787233539
 50
180.0
 51
270.0
  0
ARC
  5
1B56F
  8
SJC2
 10
120.0425590980157
 20
174.9574487385394
 30
0.0
 40
5.1063829787233539
 50
270.0
 51
0.0
  0
LINE
  5
1B570
  8
SUNPOU
 10
156.00000590505081
 20
380.00000193009282
 30
0.0
 11
156.00000590505081
 21
350.00000193009191
 31
0.0
  0
LINE
  5
1B571
  8
SUNPOU
 10
96.000005905050784
 20
410.00000193009191
 30
0.0
 11
96.000005905050784
 21
380.00000193009282
 31
0.0
  0
LINE
  5
1B572
  8
SUNPOU
 10
252.00000590505439
 20
380.00000193009379
 30
0.0
 11
156.00000590505081
 21
380.00000193009282
 31
0.0
  0
LINE
  5
1B573
  8
SUNPOU
 10
0.0000059050471464
 20
380.00000193009379
 30
0.0
 11
96.000005905050784
 21
380.00000193009282
 31
0.0
  0
LINE
  5
1B574
  8
SUNPOU
 10
96.000005905050784
 20
410.00000193009191
 30
0.0
 11
156.00000590505081
 21
350.00000193009191
 31
0.0
  0
LINE
  5
1B575
  8
SUNPOU
 10
156.0000059050503
 20
340.00000193009282
 30
0.0
 11
156.0000059050503
 21
310.00000193009191
 31
0.0
  0
LINE
  5
1B576
  8
SUNPOU
 10
96.000005905050315
 20
370.00000193009191
 30
0.0
 11
96.000005905050315
 21
340.00000193009282
 31
0.0
  0
LINE
  5
1B577
  8
SUNPOU
 10
252.000005905054
 20
340.00000193009367
 30
0.0
 11
156.0000059050503
 21
340.00000193009282
 31
0.0
  0
LINE
  5
1B578
  8
SUNPOU
 10
0.0000059050466916
 20
340.00000193009367
 30
0.0
 11
96.000005905050315
 21
340.00000193009282
 31
0.0
  0
LINE
  5
1B579
  8
SUNPOU
 10
96.000005905050315
 20
370.00000193009191
 30
0.0
 11
156.0000059050503
 21
310.00000193009191
 31
0.0
  0
LINE
  5
1B57A
  8
SUNPOU
 10
156.00000590507801
 20
70.000001930099415
 30
0.0
 11
156.00000590507801
 21
40.000001930098499
 31
0.0
  0
LINE
  5
1B57B
  8
SUNPOU
 10
96.000005905078069
 20
100.00000193009851
 30
0.0
 11
96.000005905078069
 21
70.000001930099415
 31
0.0
  0
LINE
  5
1B57C
  8
SUNPOU
 10
252.00000590508171
 20
70.000001930100325
 30
0.0
 11
156.00000590507801
 21
70.000001930099415
 31
0.0
  0
LINE
  5
1B57D
  8
SUNPOU
 10
0.0000059050744312
 20
70.000001930100325
 30
0.0
 11
96.000005905078069
 21
70.000001930099415
 31
0.0
  0
LINE
  5
1B57E
  8
SUNPOU
 10
96.000005905078069
 20
100.00000193009851
 30
0.0
 11
156.00000590507801
 21
40.000001930098499
 31
0.0
  0
LINE
  5
1B57F
  8
SUNPOU
 10
156.00000590507759
 20
30.000001930099419
 30
0.0
 11
156.00000590507759
 21
0.0000019300985059
 31
0.0
  0
LINE
  5
1B580
  8
SUNPOU
 10
96.000005905077614
 20
60.000001930098499
 30
0.0
 11
96.000005905077614
 21
30.000001930099419
 31
0.0
  0
LINE
  5
1B581
  8
SUNPOU
 10
252.00000590508131
 20
30.000001930100328
 30
0.0
 11
156.00000590507759
 21
30.000001930099419
 31
0.0
  0
LINE
  5
1B582
  8
SUNPOU
 10
0.0000059050739765
 20
30.000001930100328
 30
0.0
 11
96.000005905077614
 21
30.000001930099419
 31
0.0
  0
LINE
  5
1B583
  8
SUNPOU
 10
96.000005905077614
 20
60.000001930098499
 30
0.0
 11
156.00000590507759
 21
0.0000019300985059
 31
0.0
  0
ENDBLK
  5
1B587
  8
0
  0
BLOCK
  8
0
  2
*D22
 70
     1
 10
0.0
 20
0.0
 30
0.0
  3
*D22
  1

  0
LINE
  5
1C4F5
  8
SUNPOU
 62
     0
 10
609.64738174553975
 20
1777.588898764541
 30
0.0
 11
523.71736719745945
 21
1777.588898764541
 31
0.0
  0
LINE
  5
1C4F6
  8
SUNPOU
 62
     0
 10
609.64738174554157
 20
1267.588898764541
 30
0.0
 11
523.71736719745934
 21
1267.588898764541
 31
0.0
  0
LINE
  5
1C4F7
  8
SUNPOU
 62
     0
 10
533.71736719745945
 20
1757.588898764541
 30
0.0
 11
533.71736719745945
 21
1287.588898764541
 31
0.0
  0
SOLID
  5
1C4F8
  8
SUNPOU
 62
     0
 10
530.38403386412597
 20
1757.588898764541
 30
0.0
 11
537.05070053079282
 21
1757.588898764541
 31
0.0
 12
533.71736719745945
 22
1777.588898764541
 32
0.0
 13
533.71736719745945
 23
1777.588898764541
 33
0.0
  0
SOLID
  5
1C4F9
  8
SUNPOU
 62
     0
 10
530.38403386412597
 20
1287.588898764541
 30
0.0
 11
537.05070053079282
 21
1287.588898764541
 31
0.0
 12
533.71736719745934
 22
1267.588898764541
 32
0.0
 13
533.71736719745934
 23
1267.588898764541
 33
0.0
  0
TEXT
  8
SUNPOU
  40
30
  5
1C5BE
  62
0
  72
0
  71
0
 10
446.717
 20
1469.49
 30
0.000000
  1
510
  7
EXT08
  0
POINT
  5
1C4FB
  8
DEFPOINTS
 62
     0
 10
619.64738174553975
 20
1777.588898764541
 30
0.0
  0
POINT
  5
1C4FC
  8
DEFPOINTS
 62
     0
 10
619.64738174554168
 20
1267.588898764541
 30
0.0
  0
POINT
  5
1C4FD
  8
DEFPOINTS
 62
     0
 10
533.71736719745934
 20
1267.588898764541
 30
0.0
  0
ENDBLK
  5
1B8A7
  8
0
  0
BLOCK
  8
0
  2
*D23
 70
     1
 10
0.0
 20
0.0
 30
0.0
  3
*D23
  1

  0
LINE
  5
1C4FE
  8
SUNPOU
 62
     0
 10
1983.829355828233
 20
1606.507178536805
 30
0.0
 11
1882.451579648769
 21
1606.507178536805
 31
0.0
  0
LINE
  5
1C4FF
  8
SUNPOU
 62
     0
 10
1983.829355828223
 20
986.50717853677668
 30
0.0
 11
1882.4515796487681
 21
986.50717853677668
 31
0.0
  0
LINE
  5
1C500
  8
SUNPOU
 62
     0
 10
1892.451579648769
 20
1586.507178536805
 30
0.0
 11
1892.4515796487681
 21
1006.507178536777
 31
0.0
  0
SOLID
  5
1C501
  8
SUNPOU
 62
     0
 10
1889.118246315435
 20
1586.507178536805
 30
0.0
 11
1895.784912982102
 21
1586.507178536805
 31
0.0
 12
1892.451579648769
 22
1606.507178536805
 32
0.0
 13
1892.451579648769
 23
1606.507178536805
 33
0.0
  0
SOLID
  5
1C502
  8
SUNPOU
 62
     0
 10
1889.118246315435
 20
1006.507178536777
 30
0.0
 11
1895.784912982102
 21
1006.507178536777
 31
0.0
 12
1892.4515796487681
 22
986.50717853677668
 32
0.0
 13
1892.4515796487681
 23
986.50717853677668
 33
0.0
  0
TEXT
  8
SUNPOU
  40
30
  5
1C5BF
  62
0
  72
0
  71
0
 10
1805.45
 20
1243.41
 30
0.000000
  1
510
  7
EXT08
  0
POINT
  5
1C504
  8
DEFPOINTS
 62
     0
 10
1993.829355828233
 20
1606.507178536805
 30
0.0
  0
POINT
  5
1C505
  8
DEFPOINTS
 62
     0
 10
1993.829355828223
 20
986.50717853677668
 30
0.0
  0
POINT
  5
1C506
  8
DEFPOINTS
 62
     0
 10
1892.4515796487681
 20
986.50717853677668
 30
0.0
  0
ENDBLK
  5
1BA57
  8
0
  0
BLOCK
  8
0
  2
*D24
 70
     1
 10
0.0
 20
0.0
 30
0.0
  3
*D24
  1

  0
LINE
  5
1C507
  8
SUNPOU
 62
     0
 10
1983.829355828236
 20
986.50717853677645
 30
0.0
 11
1882.451579648769
 21
986.50717853677645
 31
0.0
  0
LINE
  5
1C508
  8
SUNPOU
 62
     0
 10
1983.8293558282289
 20
366.50717853677497
 30
0.0
 11
1882.4515796487681
 21
366.50717853677509
 31
0.0
  0
LINE
  5
1C509
  8
SUNPOU
 62
     0
 10
1892.451579648769
 20
966.50717853677634
 30
0.0
 11
1892.4515796487681
 21
386.50717853677497
 31
0.0
  0
SOLID
  5
1C50A
  8
SUNPOU
 62
     0
 10
1889.118246315435
 20
966.50717853677634
 30
0.0
 11
1895.784912982102
 21
966.50717853677634
 31
0.0
 12
1892.451579648769
 22
986.50717853677645
 32
0.0
 13
1892.451579648769
 23
986.50717853677645
 33
0.0
  0
SOLID
  5
1C50B
  8
SUNPOU
 62
     0
 10
1889.118246315435
 20
386.50717853677497
 30
0.0
 11
1895.784912982102
 21
386.50717853677497
 31
0.0
 12
1892.4515796487681
 22
366.50717853677509
 32
0.0
 13
1892.4515796487681
 23
366.50717853677509
 33
0.0
  0
TEXT
  8
SUNPOU
  40
30
  5
1C5C0
  62
0
  72
0
  71
0
 10
1805.45
 20
623.407
 30
0.000000
  1
510
  7
EXT08
  0
POINT
  5
1C50D
  8
DEFPOINTS
 62
     0
 10
1993.8293558282371
 20
986.50717853677645
 30
0.0
  0
POINT
  5
1C50E
  8
DEFPOINTS
 62
     0
 10
1993.8293558282289
 20
366.50717853677497
 30
0.0
  0
POINT
  5
1C50F
  8
DEFPOINTS
 62
     0
 10
1892.4515796487681
 20
366.50717853677509
 30
0.0
  0
ENDBLK
  5
1BA64
  8
0
  0
BLOCK
  8
0
  2
*D25
 70
     1
 10
0.0
 20
0.0
 30
0.0
  3
*D25
  1

  0
LINE
  5
1C58C
  8
SUNPOU
 62
     0
 10
633.89738174553895
 20
2327.5888987645399
 30
0.0
 11
523.71736719745968
 21
2327.5888987645399
 31
0.0
  0
LINE
  5
1C58D
  8
SUNPOU
 62
     0
 10
609.64738174553975
 20
2287.5888987645412
 30
0.0
 11
523.71736719745945
 21
2287.5888987645412
 31
0.0
  0
LINE
  5
1C58E
  8
SUNPOU
 62
     0
 10
533.71736719745957
 20
2347.5888987645412
 30
0.0
 11
533.71736719745957
 21
2367.5888987645412
 31
0.0
  0
LINE
  5
1C58F
  8
SUNPOU
 62
     0
 10
533.71736719745945
 20
2267.5888987645412
 30
0.0
 11
533.71736719745945
 21
2247.5888987645412
 31
0.0
  0
TEXT
  8
SUNPOU
  40
30
  5
1C5C1
  62
0
  72
0
  71
0
 10
430.717
 20
2254.49
 30
0.000000
  1
40
  7
EXT08
  0
LINE
  5
1C591
  8
SUNPOU
 62
     0
 10
533.71736719745957
 20
2327.5888987645399
 30
0.0
 11
533.71736719745945
 21
2287.5888987645412
 31
0.0
  0
SOLID
  5
1C592
  8
SUNPOU
 62
     0
 10
530.38403386412631
 20
2347.5888987645412
 30
0.0
 11
537.05070053079305
 21
2347.5888987645412
 31
0.0
 12
533.71736719745957
 22
2327.5888987645399
 32
0.0
 13
533.71736719745957
 23
2327.5888987645399
 33
0.0
  0
SOLID
  5
1C593
  8
SUNPOU
 62
     0
 10
530.38403386412608
 20
2267.5888987645412
 30
0.0
 11
537.05070053079294
 21
2267.5888987645412
 31
0.0
 12
533.71736719745945
 22
2287.5888987645412
 32
0.0
 13
533.71736719745945
 23
2287.5888987645412
 33
0.0
  0
POINT
  5
1C594
  8
DEFPOINTS
 62
     0
 10
643.89738174553895
 20
2327.5888987645399
 30
0.0
  0
POINT
  5
1C595
  8
DEFPOINTS
 62
     0
 10
619.64738174553975
 20
2287.5888987645412
 30
0.0
  0
POINT
  5
1C596
  8
DEFPOINTS
 62
     0
 10
533.71736719745945
 20
2287.5888987645412
 30
0.0
  0
ENDBLK
  5
1BEAD
  8
0
  0
BLOCK
  8
0
  2
*D26
 70
     1
 10
0.0
 20
0.0
 30
0.0
  3
*D26
  1

  0
LINE
  5
1C597
  8
SUNPOU
 62
     0
 10
677.64738174554066
 20
2347.5888987645349
 30
0.0
 11
223.93867437074749
 21
2347.5888987645349
 31
0.0
  0
LINE
  5
1C598
  8
SUNPOU
 62
     0
 10
450.1133460472646
 20
787.58889876454123
 30
0.0
 11
223.93867437074721
 21
787.58889876454134
 31
0.0
  0
LINE
  5
1C599
  8
SUNPOU
 62
     0
 10
233.93867437074749
 20
2327.5888987645349
 30
0.0
 11
233.93867437074709
 21
807.58889876454134
 31
0.0
  0
SOLID
  5
1C59A
  8
SUNPOU
 62
     0
 10
230.60534103741421
 20
2327.5888987645349
 30
0.0
 11
237.27200770408089
 21
2327.5888987645349
 31
0.0
 12
233.93867437074749
 22
2347.5888987645349
 32
0.0
 13
233.93867437074749
 23
2347.5888987645349
 33
0.0
  0
SOLID
  5
1C59B
  8
SUNPOU
 62
     0
 10
230.60534103741381
 20
807.58889876454134
 30
0.0
 11
237.27200770408049
 21
807.58889876454134
 31
0.0
 12
233.93867437074709
 22
787.58889876454134
 32
0.0
 13
233.93867437074709
 23
787.58889876454134
 33
0.0
  0
TEXT
  8
SUNPOU
  40
30
  5
1C5C2
  62
0
  72
0
  71
0
 10
146.939
 20
1514.49
 30
0.000000
  1
1560
  7
EXT08
  0
POINT
  5
1C59D
  8
DEFPOINTS
 62
     0
 10
687.64738174554077
 20
2347.5888987645349
 30
0.0
  0
POINT
  5
1C59E
  8
DEFPOINTS
 62
     0
 10
460.11334604726471
 20
787.58889876454123
 30
0.0
  0
POINT
  5
1C59F
  8
DEFPOINTS
 62
     0
 10
233.93867437074709
 20
787.58889876454134
 30
0.0
  0
ENDBLK
  5
1BEBA
  8
0
  0
BLOCK
  8
0
  2
*D27
 70
     1
 10
0.0
 20
0.0
 30
0.0
  3
*D27
  1

  0
LINE
  5
1C5A0
  8
SUNPOU
 62
     0
 10
1464.3632148796351
 20
1787.5888987645401
 30
0.0
 11
1732.6363455635949
 21
1787.5888987645401
 31
0.0
  0
LINE
  5
1C5A1
  8
SUNPOU
 62
     0
 10
1626.8632148796351
 20
387.58889876454123
 30
0.0
 11
1732.636345563594
 21
387.58889876454123
 31
0.0
  0
LINE
  5
1C5A2
  8
SUNPOU
 62
     0
 10
1722.6363455635949
 20
1767.5888987645401
 30
0.0
 11
1722.6363455635949
 21
407.58889876454111
 31
0.0
  0
SOLID
  5
1C5A3
  8
SUNPOU
 62
     0
 10
1719.3030122302621
 20
1767.5888987645401
 30
0.0
 11
1725.9696788969279
 21
1767.5888987645401
 31
0.0
 12
1722.6363455635949
 22
1787.5888987645401
 32
0.0
 13
1722.6363455635949
 23
1787.5888987645401
 33
0.0
  0
SOLID
  5
1C5A4
  8
SUNPOU
 62
     0
 10
1719.3030122302609
 20
407.58889876454111
 30
0.0
 11
1725.9696788969279
 21
407.58889876454111
 31
0.0
 12
1722.6363455635949
 22
387.58889876454123
 32
0.0
 13
1722.6363455635949
 23
387.58889876454123
 33
0.0
  0
TEXT
  8
SUNPOU
  40
30
  5
1C5C3
  62
0
  72
0
  71
0
 10
1635.64
 20
1034.49
 30
0.000000
  1
1400
  7
EXT08
  0
POINT
  5
1C5A6
  8
DEFPOINTS
 62
     0
 10
1454.3632148796351
 20
1787.5888987645401
 30
0.0
  0
POINT
  5
1C5A7
  8
DEFPOINTS
 62
     0
 10
1616.8632148796351
 20
387.58889876454123
 30
0.0
  0
POINT
  5
1C5A8
  8
DEFPOINTS
 62
     0
 10
1722.6363455635949
 20
387.58889876454123
 30
0.0
  0
ENDBLK
  5
1C11C
  8
0
  0
BLOCK
  8
0
  2
*U28
 70
     1
 10
0.0
 20
0.0
 30
0.0
  3
*U28
  1

  0
SOLID
  5
1C433
  8
SUNPOU
 10
1448.5425803044591
 20
2353.9192129460771
 30
0.0
 11
1429.8085583508339
 21
2346.1637289152632
 31
0.0
 12
1445.014638351026
 22
2359.5758966050462
 32
0.0
 13
1445.014638351026
 23
2359.5758966050462
 33
0.0
  0
POLYLINE
  5
1C434
  8
SUNPOU
 66
     1
 10
0.0
 20
0.0
 30
0.0
  0
VERTEX
  5
1C435
  8
SUNPOU
 10
1446.778609327743
 20
2356.7475547755621
 30
0.0
  0
VERTEX
  5
1C436
  8
SUNPOU
 10
1528.517222797858
 20
2407.7260257422781
 30
0.0
  0
SEQEND
  5
1C437
  8
SUNPOU
  0
ENDBLK
  5
1C439
  8
0
  0
BLOCK
  8
0
  2
*U29
 70
     1
 10
0.0
 20
0.0
 30
0.0
  3
*U29
  1

  0
SOLID
  5
1C43B
  8
SUNPOU
 10
780.86389530418296
 20
2062.9545599701319
 30
0.0
 11
762.35262413534633
 21
2054.6814740389391
 31
0.0
 12
777.18012304710226
 22
2068.5110216502312
 32
0.0
 13
777.18012304710226
 23
2068.5110216502312
 33
0.0
  0
POLYLINE
  5
1C43C
  8
SUNPOU
 66
     1
 10
0.0
 20
0.0
 30
0.0
  0
VERTEX
  5
1C43D
  8
SUNPOU
 10
779.02200917564267
 20
2065.732790810182
 30
0.0
  0
VERTEX
  5
1C43E
  8
SUNPOU
 10
872.1445511814245
 20
2127.4703238842221
 30
0.0
  0
SEQEND
  5
1C43F
  8
SUNPOU
  0
ENDBLK
  5
1C441
  8
0
  0
BLOCK
  8
0
  2
*U30
 70
     1
 10
0.0
 20
0.0
 30
0.0
  3
*U30
  1

  0
SOLID
  5
1C470
  8
SUNPOU
 10
703.64269115791626
 20
1159.8629999366931
 30
0.0
 11
687.64738174554054
 21
1147.402615194902
 31
0.0
 12
698.73687397612571
 22
1164.377133543853
 32
0.0
 13
698.73687397612571
 23
1164.377133543853
 33
0.0
  0
POLYLINE
  5
1C471
  8
SUNPOU
 66
     1
 10
0.0
 20
0.0
 30
0.0
  0
VERTEX
  5
1C472
  8
SUNPOU
 10
701.18978256702087
 20
1162.1200667402729
 30
0.0
  0
VERTEX
  5
1C473
  8
SUNPOU
 10
753.49609912364997
 20
1218.9649120219169
 30
0.0
  0
SEQEND
  5
1C474
  8
SUNPOU
  0
ENDBLK
  5
1C476
  8
0
  0
BLOCK
  8
0
  2
*U31
 70
     1
 10
0.0
 20
0.0
 30
0.0
  3
*U31
  1

  0
SOLID
  5
1C478
  8
SUNPOU
 10
1476.1577265136391
 20
2289.713264283539
 30
0.0
 11
1460.4551252960571
 21
2302.540556519732
 31
0.0
 12
1479.4691401460479
 22
2295.4993669614678
 32
0.0
 13
1479.4691401460479
 23
2295.4993669614678
 33
0.0
  0
POLYLINE
  5
1C479
  8
SUNPOU
 66
     1
 10
0.0
 20
0.0
 30
0.0
  0
VERTEX
  5
1C47A
  8
SUNPOU
 10
1477.8134333298431
 20
2292.6063156225041
 30
0.0
  0
VERTEX
  5
1C47B
  8
SUNPOU
 10
1516.9422383570779
 20
2270.212717444349
 30
0.0
  0
SEQEND
  5
1C47C
  8
SUNPOU
  0
ENDBLK
  5
1C47E
  8
0
  0
BLOCK
  8
0
  2
*U32
 70
     1
 10
0.0
 20
0.0
 30
0.0
  3
*U32
  1

  0
SOLID
  5
1C480
  8
SUNPOU
 10
703.64269115791626
 20
900.04928350633327
 30
0.0
 11
687.64738174554054
 21
887.58889876454168
 31
0.0
 12
698.73687397612571
 22
904.56341711349353
 32
0.0
 13
698.73687397612571
 23
904.56341711349353
 33
0.0
  0
POLYLINE
  5
1C481
  8
SUNPOU
 66
     1
 10
0.0
 20
0.0
 30
0.0
  0
VERTEX
  5
1C482
  8
SUNPOU
 10
701.18978256702087
 20
902.30635030991346
 30
0.0
  0
VERTEX
  5
1C483
  8
SUNPOU
 10
753.49609912364997
 20
959.1511955915571
 30
0.0
  0
SEQEND
  5
1C484
  8
SUNPOU
  0
ENDBLK
  5
1C486
  8
0
  0
BLOCK
  8
0
  2
*U33
 70
     1
 10
0.0
 20
0.0
 30
0.0
  3
*U33
  1

  0
SOLID
  5
1C491
  8
SUNPOU
 10
681.15187428380386
 20
661.29617587311645
 30
0.0
 11
687.64738174554077
 21
642.08889876454032
 31
0.0
 12
675.27359562490017
 22
658.15129360938693
 32
0.0
 13
675.27359562490017
 23
658.15129360938693
 33
0.0
  0
POLYLINE
  5
1C492
  8
SUNPOU
 66
     1
 10
0.0
 20
0.0
 30
0.0
  0
VERTEX
  5
1C493
  8
SUNPOU
 10
678.21273495435207
 20
659.72373474125163
 30
0.0
  0
VERTEX
  5
1C494
  8
SUNPOU
 10
556.89700559416815
 20
886.48187799893014
 30
0.0
  0
SEQEND
  5
1C495
  8
SUNPOU
  0
ENDBLK
  5
1C497
  8
0
  0
BLOCK
  8
0
  2
*U34
 70
     1
 10
0.0
 20
0.0
 30
0.0
  3
*U34
  1

  0
SOLID
  5
1C4AB
  8
SUNPOU
 10
2160.029281255765
 20
2163.401335608175
 30
0.0
 11
2147.722948157978
 21
2147.2872027802059
 31
0.0
 12
2154.137868819786
 22
2166.5215445681069
 32
0.0
 13
2154.137868819786
 23
2166.5215445681069
 33
0.0
  0
POLYLINE
  5
1C4AC
  8
SUNPOU
 66
     1
 10
0.0
 20
0.0
 30
0.0
  0
VERTEX
  5
1C4AD
  8
SUNPOU
 10
2157.0835750377751
 20
2164.961440088141
 30
0.0
  0
VERTEX
  5
1C4AE
  8
SUNPOU
 10
2185.3769961024441
 20
2218.3835713803919
 30
0.0
  0
VERTEX
  5
1C4AF
  8
SUNPOU
 10
2391.0662789568469
 20
2218.3835713803919
 30
0.0
  0
SEQEND
  5
1C4B0
  8
SUNPOU
  0
ENDBLK
  5
1C4B2
  8
0
  0
BLOCK
  8
0
  2
*U35
 70
     1
 10
0.0
 20
0.0
 30
0.0
  3
*U35
  1

  0
SOLID
  5
1C4B4
  8
SUNPOU
 10
2041.4142419940911
 20
2100.5868069759672
 30
0.0
 11
2049.6431739937002
 21
2082.0558655736281
 31
0.0
 12
2035.8490140797981
 22
2096.9162916570481
 32
0.0
 13
2035.8490140797981
 23
2096.9162916570481
 33
0.0
  0
POLYLINE
  5
1C4B5
  8
SUNPOU
 66
     1
 10
0.0
 20
0.0
 30
0.0
  0
VERTEX
  5
1C4B6
  8
SUNPOU
 10
2038.631628036944
 20
2098.751549316507
 30
0.0
  0
VERTEX
  5
1C4B7
  8
SUNPOU
 10
2007.920243499155
 20
2145.3160885340289
 30
0.0
  0
VERTEX
  5
1C4B8
  8
SUNPOU
 10
1860.2007199658569
 20
2145.3160885340289
 30
0.0
  0
SEQEND
  5
1C4B9
  8
SUNPOU
  0
ENDBLK
  5
1C4BB
  8
0
  0
BLOCK
  8
0
  2
*U36
 70
     1
 10
0.0
 20
0.0
 30
0.0
  3
*U36
  1

  0
SOLID
  5
1C4DC
  8
SUNPOU
 10
2901.3918680048791
 20
680.87436626650026
 30
0.0
 11
2881.8794625431769
 21
675.36281982205583
 31
0.0
 12
2898.54961480875
 22
686.90479255437958
 32
0.0
 13
2898.54961480875
 23
686.90479255437958
 33
0.0
  0
POLYLINE
  5
1C4DD
  8
SUNPOU
 66
     1
 10
0.0
 20
0.0
 30
0.0
  0
VERTEX
  5
1C4DE
  8
SUNPOU
 10
2899.9707414068148
 20
683.88957941043986
 30
0.0
  0
VERTEX
  5
1C4DF
  8
SUNPOU
 10
3019.415015895057
 20
740.18590983831734
 30
0.0
  0
SEQEND
  5
1C4E0
  8
SUNPOU
  0
ENDBLK
  5
1C4E2
  8
0
  0
BLOCK
  8
0
  2
*X37
 70
     1
 10
0.0
 20
0.0
 30
0.0
  3
*X37
  1

  0
LINE
  5
1C511
  8
0
 62
     0
 10
2969.478662656893
 20
1682.2940080569281
 30
0.0
 11
2965.265492177014
 21
1686.507178536807
 31
0.0
  0
LINE
  5
1C512
  8
0
 62
     0
 10
2969.478662656893
 20
1664.33349581479
 30
0.0
 11
2947.304979934876
 21
1686.507178536807
 31
0.0
  0
LINE
  5
1C513
  8
0
 62
     0
 10
2969.478662656893
 20
1646.372983572651
 30
0.0
 11
2929.3444676927379
 21
1686.507178536807
 31
0.0
  0
LINE
  5
1C514
  8
0
 62
     0
 10
2969.478662656893
 20
1628.412471330513
 30
0.0
 11
2911.3839554505989
 21
1686.507178536807
 31
0.0
  0
LINE
  5
1C515
  8
0
 62
     0
 10
2969.478662656893
 20
1610.4519590883749
 30
0.0
 11
2893.4234432084609
 21
1686.507178536807
 31
0.0
  0
LINE
  5
1C516
  8
0
 62
     0
 10
2955.4629309663242
 20
1606.507178536805
 30
0.0
 11
2875.4629309663219
 21
1686.507178536807
 31
0.0
  0
LINE
  5
1C517
  8
0
 62
     0
 10
2937.5024187241861
 20
1606.507178536805
 30
0.0
 11
2857.5024187241838
 21
1686.507178536807
 31
0.0
  0
LINE
  5
1C518
  8
0
 62
     0
 10
2919.541906482048
 20
1606.507178536805
 30
0.0
 11
2839.5419064820462
 21
1686.507178536807
 31
0.0
  0
LINE
  5
1C519
  8
0
 62
     0
 10
2901.58139423991
 20
1606.507178536805
 30
0.0
 11
2821.5813942399081
 21
1686.507178536807
 31
0.0
  0
LINE
  5
1C51A
  8
0
 62
     0
 10
2883.620881997771
 20
1606.507178536805
 30
0.0
 11
2803.6208819977692
 21
1686.507178536807
 31
0.0
  0
LINE
  5
1C51B
  8
0
 62
     0
 10
2865.6603697556329
 20
1606.507178536805
 30
0.0
 11
2794.4786626568912
 21
1677.688885635547
 31
0.0
  0
LINE
  5
1C51C
  8
0
 62
     0
 10
2847.6998575134949
 20
1606.507178536805
 30
0.0
 11
2794.4786626568921
 21
1659.728373393408
 31
0.0
  0
LINE
  5
1C51D
  8
0
 62
     0
 10
2829.7393452713559
 20
1606.507178536805
 30
0.0
 11
2794.4786626568921
 21
1641.7678611512699
 31
0.0
  0
LINE
  5
1C51E
  8
0
 62
     0
 10
2811.7788330292178
 20
1606.507178536805
 30
0.0
 11
2794.4786626568921
 21
1623.80734890913
 31
0.0
  0
LINE
  5
1C51F
  8
0
 62
     0
 10
2953.545596697179
 20
1606.507178536805
 30
0.0
 11
2969.478662656893
 21
1622.4402444965201
 31
0.0
  0
LINE
  5
1C520
  8
0
 62
     0
 10
2935.5850844550409
 20
1606.507178536805
 30
0.0
 11
2969.478662656893
 21
1640.4007567386579
 31
0.0
  0
LINE
  5
1C521
  8
0
 62
     0
 10
2917.624572212902
 20
1606.507178536805
 30
0.0
 11
2969.478662656893
 21
1658.361268980796
 31
0.0
  0
LINE
  5
1C522
  8
0
 62
     0
 10
2899.6640599707639
 20
1606.507178536805
 30
0.0
 11
2969.478662656893
 21
1676.3217812229341
 31
0.0
  0
LINE
  5
1C523
  8
0
 62
     0
 10
2881.7035477286249
 20
1606.507178536805
 30
0.0
 11
2961.7035477286272
 21
1686.507178536807
 31
0.0
  0
LINE
  5
1C524
  8
0
 62
     0
 10
2863.7430354864869
 20
1606.5071785368059
 30
0.0
 11
2943.7430354864891
 21
1686.5071785368079
 31
0.0
  0
LINE
  5
1C525
  8
0
 62
     0
 10
2845.7825232443488
 20
1606.507178536805
 30
0.0
 11
2925.7825232443511
 21
1686.507178536807
 31
0.0
  0
LINE
  5
1C526
  8
0
 62
     0
 10
2827.8220110022112
 20
1606.507178536805
 30
0.0
 11
2907.822011002213
 21
1686.507178536807
 31
0.0
  0
LINE
  5
1C527
  8
0
 62
     0
 10
2809.8614987600722
 20
1606.507178536805
 30
0.0
 11
2889.861498760074
 21
1686.507178536807
 31
0.0
  0
LINE
  5
1C528
  8
0
 62
     0
 10
2794.478662656893
 20
1609.0848546757641
 30
0.0
 11
2871.900986517936
 21
1686.507178536807
 31
0.0
  0
LINE
  5
1C529
  8
0
 62
     0
 10
2794.478662656893
 20
1627.0453669179019
 30
0.0
 11
2853.940474275797
 21
1686.507178536807
 31
0.0
  0
LINE
  5
1C52A
  8
0
 62
     0
 10
2794.4786626568921
 20
1645.00587916004
 30
0.0
 11
2835.9799620336598
 21
1686.507178536807
 31
0.0
  0
LINE
  5
1C52B
  8
0
 62
     0
 10
2794.4786626568912
 20
1662.9663914021769
 30
0.0
 11
2818.0194497915209
 21
1686.507178536807
 31
0.0
  0
LINE
  5
1C52C
  8
0
 62
     0
 10
2794.4786626568912
 20
1680.9269036443161
 30
0.0
 11
2800.0589375493828
 21
1686.5071785368079
 31
0.0
  0
ENDBLK
  5
1C52E
  8
0
  0
BLOCK
  8
0
  2
*X38
 70
     1
 10
0.0
 20
0.0
 30
0.0
  3
*X38
  1

  0
LINE
  5
1C530
  8
0
 62
     0
 10
2217.3293558282348
 20
1682.2940080569281
 30
0.0
 11
2213.1161853483559
 21
1686.507178536807
 31
0.0
  0
LINE
  5
1C531
  8
0
 62
     0
 10
2217.3293558282348
 20
1664.33349581479
 30
0.0
 11
2195.1556731062169
 21
1686.507178536807
 31
0.0
  0
LINE
  5
1C532
  8
0
 62
     0
 10
2217.3293558282348
 20
1646.372983572651
 30
0.0
 11
2177.1951608640802
 21
1686.507178536807
 31
0.0
  0
LINE
  5
1C533
  8
0
 62
     0
 10
2217.3293558282348
 20
1628.412471330513
 30
0.0
 11
2159.2346486219408
 21
1686.507178536807
 31
0.0
  0
LINE
  5
1C534
  8
0
 62
     0
 10
2217.3293558282348
 20
1610.4519590883749
 30
0.0
 11
2141.2741363798032
 21
1686.507178536807
 31
0.0
  0
LINE
  5
1C535
  8
0
 62
     0
 10
2203.313624137666
 20
1606.507178536805
 30
0.0
 11
2123.3136241376642
 21
1686.507178536807
 31
0.0
  0
LINE
  5
1C536
  8
0
 62
     0
 10
2185.3531118955279
 20
1606.507178536805
 30
0.0
 11
2105.3531118955261
 21
1686.507178536807
 31
0.0
  0
LINE
  5
1C537
  8
0
 62
     0
 10
2167.3925996533899
 20
1606.507178536805
 30
0.0
 11
2087.3925996533881
 21
1686.507178536807
 31
0.0
  0
LINE
  5
1C538
  8
0
 62
     0
 10
2149.4320874112518
 20
1606.507178536805
 30
0.0
 11
2069.43208741125
 21
1686.507178536807
 31
0.0
  0
LINE
  5
1C539
  8
0
 62
     0
 10
2131.4715751691128
 20
1606.507178536805
 30
0.0
 11
2051.471575169111
 21
1686.507178536807
 31
0.0
  0
LINE
  5
1C53A
  8
0
 62
     0
 10
2113.5110629269748
 20
1606.507178536805
 30
0.0
 11
2042.329355828233
 21
1677.6888856355461
 31
0.0
  0
LINE
  5
1C53B
  8
0
 62
     0
 10
2095.5505506848372
 20
1606.507178536805
 30
0.0
 11
2042.3293558282339
 21
1659.728373393408
 31
0.0
  0
LINE
  5
1C53C
  8
0
 62
     0
 10
2077.5900384426982
 20
1606.507178536805
 30
0.0
 11
2042.3293558282339
 21
1641.7678611512699
 31
0.0
  0
LINE
  5
1C53D
  8
0
 62
     0
 10
2059.6295262005601
 20
1606.507178536805
 30
0.0
 11
2042.3293558282339
 21
1623.80734890913
 31
0.0
  0
LINE
  5
1C53E
  8
0
 62
     0
 10
2201.3962898685209
 20
1606.507178536805
 30
0.0
 11
2217.3293558282348
 21
1622.4402444965201
 31
0.0
  0
LINE
  5
1C53F
  8
0
 62
     0
 10
2183.4357776263828
 20
1606.507178536805
 30
0.0
 11
2217.3293558282348
 21
1640.4007567386579
 31
0.0
  0
LINE
  5
1C540
  8
0
 62
     0
 10
2165.4752653842438
 20
1606.507178536805
 30
0.0
 11
2217.3293558282348
 21
1658.361268980796
 31
0.0
  0
LINE
  5
1C541
  8
0
 62
     0
 10
2147.5147531421062
 20
1606.507178536805
 30
0.0
 11
2217.3293558282348
 21
1676.3217812229341
 31
0.0
  0
LINE
  5
1C542
  8
0
 62
     0
 10
2129.5542408999672
 20
1606.507178536805
 30
0.0
 11
2209.554240899969
 21
1686.507178536807
 31
0.0
  0
LINE
  5
1C543
  8
0
 62
     0
 10
2111.5937286578292
 20
1606.5071785368059
 30
0.0
 11
2191.593728657831
 21
1686.5071785368079
 31
0.0
  0
LINE
  5
1C544
  8
0
 62
     0
 10
2093.6332164156911
 20
1606.507178536805
 30
0.0
 11
2173.6332164156929
 21
1686.507178536807
 31
0.0
  0
LINE
  5
1C545
  8
0
 62
     0
 10
2075.672704173553
 20
1606.507178536805
 30
0.0
 11
2155.6727041735539
 21
1686.507178536807
 31
0.0
  0
LINE
  5
1C546
  8
0
 62
     0
 10
2057.7121919314141
 20
1606.507178536805
 30
0.0
 11
2137.7121919314159
 21
1686.507178536807
 31
0.0
  0
LINE
  5
1C547
  8
0
 62
     0
 10
2042.3293558282339
 20
1609.0848546757641
 30
0.0
 11
2119.7516796892778
 21
1686.507178536807
 31
0.0
  0
LINE
  5
1C548
  8
0
 62
     0
 10
2042.3293558282339
 20
1627.0453669179019
 30
0.0
 11
2101.7911674471388
 21
1686.507178536807
 31
0.0
  0
LINE
  5
1C549
  8
0
 62
     0
 10
2042.3293558282339
 20
1645.00587916004
 30
0.0
 11
2083.8306552050021
 21
1686.507178536807
 31
0.0
  0
LINE
  5
1C54A
  8
0
 62
     0
 10
2042.329355828233
 20
1662.9663914021769
 30
0.0
 11
2065.8701429628632
 21
1686.507178536807
 31
0.0
  0
LINE
  5
1C54B
  8
0
 62
     0
 10
2042.329355828233
 20
1680.9269036443161
 30
0.0
 11
2047.909630720724
 21
1686.507178536807
 31
0.0
  0
ENDBLK
  5
1C54D
  8
0
  0
BLOCK
  8
0
  2
*X39
 70
     1
 10
0.0
 20
0.0
 30
0.0
  3
*X39
  1

  0
LINE
  5
1C54F
  8
0
 62
     0
 10
1460.6132148796339
 20
2320.0746120904791
 30
0.0
 11
1453.0989282055709
 21
2327.5888987645421
 31
0.0
  0
LINE
  5
1C550
  8
0
 62
     0
 10
1460.6132148796351
 20
2311.0943559694101
 30
0.0
 11
1444.1186720845019
 21
2327.5888987645421
 31
0.0
  0
LINE
  5
1C551
  8
0
 62
     0
 10
1460.6132148796339
 20
2302.1140998483411
 30
0.0
 11
1435.1384159634331
 21
2327.5888987645421
 31
0.0
  0
LINE
  5
1C552
  8
0
 62
     0
 10
1460.6132148796339
 20
2293.1338437272711
 30
0.0
 11
1426.1581598423641
 21
2327.5888987645421
 31
0.0
  0
LINE
  5
1C553
  8
0
 62
     0
 10
1457.1779037212959
 20
2287.5888987645412
 30
0.0
 11
1417.177903721295
 21
2327.5888987645421
 31
0.0
  0
LINE
  5
1C554
  8
0
 62
     0
 10
1448.197647600226
 20
2287.5888987645412
 30
0.0
 11
1408.1976476002251
 21
2327.5888987645421
 31
0.0
  0
LINE
  5
1C555
  8
0
 62
     0
 10
1439.217391479157
 20
2287.5888987645412
 30
0.0
 11
1399.217391479156
 21
2327.5888987645421
 31
0.0
  0
LINE
  5
1C556
  8
0
 62
     0
 10
1430.2371353580879
 20
2287.5888987645412
 30
0.0
 11
1390.237135358087
 21
2327.5888987645421
 31
0.0
  0
LINE
  5
1C557
  8
0
 62
     0
 10
1421.2568792370189
 20
2287.5888987645412
 30
0.0
 11
1381.256879237018
 21
2327.5888987645421
 31
0.0
  0
LINE
  5
1C558
  8
0
 62
     0
 10
1412.2766231159501
 20
2287.5888987645412
 30
0.0
 11
1373.1132148796339
 21
2326.7523070008569
 31
0.0
  0
LINE
  5
1C559
  8
0
 62
     0
 10
1403.2963669948799
 20
2287.5888987645412
 30
0.0
 11
1373.1132148796339
 21
2317.7720508797879
 31
0.0
  0
LINE
  5
1C55A
  8
0
 62
     0
 10
1394.3161108738111
 20
2287.5888987645412
 30
0.0
 11
1373.1132148796339
 21
2308.791794758718
 31
0.0
  0
LINE
  5
1C55B
  8
0
 62
     0
 10
1385.335854752743
 20
2287.5888987645412
 30
0.0
 11
1373.1132148796339
 21
2299.8115386376498
 31
0.0
  0
LINE
  5
1C55C
  8
0
 62
     0
 10
1376.355598631673
 20
2287.5888987645412
 30
0.0
 11
1373.1132148796351
 21
2290.8312825165799
 31
0.0
  0
LINE
  5
1C55D
  8
0
 62
     0
 10
1452.42507950511
 20
2287.5888987645412
 30
0.0
 11
1460.6132148796351
 21
2295.777034139066
 31
0.0
  0
LINE
  5
1C55E
  8
0
 62
     0
 10
1443.444823384041
 20
2287.5888987645412
 30
0.0
 11
1460.6132148796339
 21
2304.7572902601351
 31
0.0
  0
LINE
  5
1C55F
  8
0
 62
     0
 10
1434.464567262972
 20
2287.5888987645412
 30
0.0
 11
1460.6132148796339
 21
2313.7375463812041
 31
0.0
  0
LINE
  5
1C560
  8
0
 62
     0
 10
1425.4843111419029
 20
2287.5888987645412
 30
0.0
 11
1460.6132148796339
 21
2322.7178025022731
 31
0.0
  0
LINE
  5
1C561
  8
0
 62
     0
 10
1416.5040550208339
 20
2287.5888987645412
 30
0.0
 11
1456.5040550208339
 21
2327.5888987645421
 31
0.0
  0
LINE
  5
1C562
  8
0
 62
     0
 10
1407.523798899764
 20
2287.5888987645412
 30
0.0
 11
1447.5237988997651
 21
2327.5888987645421
 31
0.0
  0
LINE
  5
1C563
  8
0
 62
     0
 10
1398.5435427786949
 20
2287.5888987645412
 30
0.0
 11
1438.5435427786961
 21
2327.5888987645421
 31
0.0
  0
LINE
  5
1C564
  8
0
 62
     0
 10
1389.5632866576259
 20
2287.5888987645412
 30
0.0
 11
1429.563286657627
 21
2327.5888987645421
 31
0.0
  0
LINE
  5
1C565
  8
0
 62
     0
 10
1380.5830305365571
 20
2287.5888987645412
 30
0.0
 11
1420.583030536558
 21
2327.5888987645421
 31
0.0
  0
LINE
  5
1C566
  8
0
 62
     0
 10
1373.1132148796351
 20
2289.0993392286882
 30
0.0
 11
1411.602774415489
 21
2327.5888987645421
 31
0.0
  0
LINE
  5
1C567
  8
0
 62
     0
 10
1373.1132148796351
 20
2298.0795953497568
 30
0.0
 11
1402.6225182944199
 21
2327.5888987645421
 31
0.0
  0
LINE
  5
1C568
  8
0
 62
     0
 10
1373.1132148796351
 20
2307.0598514708258
 30
0.0
 11
1393.6422621733509
 21
2327.5888987645421
 31
0.0
  0
LINE
  5
1C569
  8
0
 62
     0
 10
1373.1132148796351
 20
2316.0401075918949
 30
0.0
 11
1384.662006052281
 21
2327.5888987645421
 31
0.0
  0
LINE
  5
1C56A
  8
0
 62
     0
 10
1373.1132148796339
 20
2325.0203637129639
 30
0.0
 11
1375.6817499312119
 21
2327.5888987645421
 31
0.0
  0
ENDBLK
  5
1C56C
  8
0
  0
BLOCK
  8
0
  2
*X40
 70
     1
 10
0.0
 20
0.0
 30
0.0
  3
*X40
  1

  0
LINE
  5
1C56E
  8
0
 62
     0
 10
731.39738174554032
 20
2320.0746120904791
 30
0.0
 11
723.8830950714771
 21
2327.5888987645421
 31
0.0
  0
LINE
  5
1C56F
  8
0
 62
     0
 10
731.39738174554054
 20
2311.0943559694101
 30
0.0
 11
714.90283895040795
 21
2327.5888987645421
 31
0.0
  0
LINE
  5
1C570
  8
0
 62
     0
 10
731.39738174554032
 20
2302.1140998483411
 30
0.0
 11
705.92258282933881
 21
2327.5888987645421
 31
0.0
  0
LINE
  5
1C571
  8
0
 62
     0
 10
731.39738174554032
 20
2293.1338437272711
 30
0.0
 11
696.94232670826955
 21
2327.5888987645421
 31
0.0
  0
LINE
  5
1C572
  8
0
 62
     0
 10
727.96207058720165
 20
2287.5888987645412
 30
0.0
 11
687.96207058720051
 21
2327.5888987645421
 31
0.0
  0
LINE
  5
1C573
  8
0
 62
     0
 10
718.98181446613216
 20
2287.5888987645412
 30
0.0
 11
678.98181446613125
 21
2327.5888987645421
 31
0.0
  0
LINE
  5
1C574
  8
0
 62
     0
 10
710.00155834506313
 20
2287.5888987645412
 30
0.0
 11
670.00155834506222
 21
2327.5888987645421
 31
0.0
  0
LINE
  5
1C575
  8
0
 62
     0
 10
701.02130222399398
 20
2287.5888987645412
 30
0.0
 11
661.02130222399296
 21
2327.5888987645421
 31
0.0
  0
LINE
  5
1C576
  8
0
 62
     0
 10
692.04104610292495
 20
2287.5888987645412
 30
0.0
 11
652.04104610292393
 21
2327.5888987645421
 31
0.0
  0
LINE
  5
1C577
  8
0
 62
     0
 10
683.06078998185569
 20
2287.5888987645412
 30
0.0
 11
643.89738174553963
 21
2326.7523070008569
 31
0.0
  0
LINE
  5
1C578
  8
0
 62
     0
 10
674.08053386078655
 20
2287.5888987645412
 30
0.0
 11
643.89738174553963
 21
2317.7720508797879
 31
0.0
  0
LINE
  5
1C579
  8
0
 62
     0
 10
665.10027773971751
 20
2287.5888987645412
 30
0.0
 11
643.89738174553975
 21
2308.791794758718
 31
0.0
  0
LINE
  5
1C57A
  8
0
 62
     0
 10
656.12002161864848
 20
2287.5888987645412
 30
0.0
 11
643.89738174553997
 21
2299.8115386376498
 31
0.0
  0
LINE
  5
1C57B
  8
0
 62
     0
 10
647.13976549757911
 20
2287.5888987645412
 30
0.0
 11
643.89738174553997
 21
2290.8312825165799
 31
0.0
  0
LINE
  5
1C57C
  8
0
 62
     0
 10
723.20924637101587
 20
2287.5888987645412
 30
0.0
 11
731.39738174554088
 21
2295.777034139066
 31
0.0
  0
LINE
  5
1C57D
  8
0
 62
     0
 10
714.22899024994683
 20
2287.5888987645412
 30
0.0
 11
731.39738174554043
 21
2304.7572902601351
 31
0.0
  0
LINE
  5
1C57E
  8
0
 62
     0
 10
705.24873412887735
 20
2287.5888987645412
 30
0.0
 11
731.39738174554032
 21
2313.7375463812041
 31
0.0
  0
LINE
  5
1C57F
  8
0
 62
     0
 10
696.26847800780843
 20
2287.5888987645412
 30
0.0
 11
731.39738174554032
 21
2322.7178025022731
 31
0.0
  0
LINE
  5
1C580
  8
0
 62
     0
 10
687.28822188673928
 20
2287.5888987645412
 30
0.0
 11
727.28822188674008
 21
2327.5888987645421
 31
0.0
  0
LINE
  5
1C581
  8
0
 62
     0
 10
678.30796576567013
 20
2287.5888987645412
 30
0.0
 11
718.30796576567104
 21
2327.5888987645421
 31
0.0
  0
LINE
  5
1C582
  8
0
 62
     0
 10
669.3277096446011
 20
2287.5888987645412
 30
0.0
 11
709.32770964460167
 21
2327.5888987645421
 31
0.0
  0
LINE
  5
1C583
  8
0
 62
     0
 10
660.3474535235315
 20
2287.5888987645412
 30
0.0
 11
700.34745352353275
 21
2327.5888987645421
 31
0.0
  0
LINE
  5
1C584
  8
0
 62
     0
 10
651.36719740246235
 20
2287.5888987645412
 30
0.0
 11
691.36719740246349
 21
2327.5888987645421
 31
0.0
  0
LINE
  5
1C585
  8
0
 62
     0
 10
643.89738174554054
 20
2289.0993392286882
 30
0.0
 11
682.38694128139446
 21
2327.5888987645421
 31
0.0
  0
LINE
  5
1C586
  8
0
 62
     0
 10
643.89738174554032
 20
2298.0795953497568
 30
0.0
 11
673.40668516032542
 21
2327.5888987645421
 31
0.0
  0
LINE
  5
1C587
  8
0
 62
     0
 10
643.89738174554032
 20
2307.0598514708258
 30
0.0
 11
664.42642903925594
 21
2327.5888987645421
 31
0.0
  0
LINE
  5
1C588
  8
0
 62
     0
 10
643.89738174554009
 20
2316.0401075918949
 30
0.0
 11
655.44617291818668
 21
2327.5888987645421
 31
0.0
  0
LINE
  5
1C589
  8
0
 62
     0
 10
643.89738174553997
 20
2325.0203637129639
 30
0.0
 11
646.46591679711764
 21
2327.5888987645421
 31
0.0
  0
ENDBLK
  5
1C58B
  8
0
  0
BLOCK
  8
0
  2
*U41
 70
     1
 10
0.0
 20
0.0
 30
0.0
  3
*U41
  1

  0
SOLID
  5
1C5AA
  8
SUNPOU
 10
738.13729940618612
 20
1898.921932800014
 30
0.0
 11
719.62602823734937
 21
1890.648846868821
 31
0.0
 12
734.45352714910541
 22
1904.4783944801129
 32
0.0
 13
734.45352714910541
 23
1904.4783944801129
 33
0.0
  0
POLYLINE
  5
1C5AB
  8
SUNPOU
 66
     1
 10
0.0
 20
0.0
 30
0.0
  0
VERTEX
  5
1C5AC
  8
SUNPOU
 10
736.29541327764582
 20
1901.700163640063
 30
0.0
  0
VERTEX
  5
1C5AD
  8
SUNPOU
 10
829.41795528342755
 20
1963.437696714104
 30
0.0
  0
SEQEND
  5
1C5AE
  8
SUNPOU
  0
ENDBLK
  5
1C5B0
  8
0
  0
ENDSEC
  0
SECTION
  2
ENTITIES
  0
TEXT
  5
43
  8
INFORMATION
 10
1.0
 20
2.0
 30
0.0
 40
0.8
  1
PLOTTER=SYSTEM
 41
0.8
  7
EXT08
  0
TEXT
  5
44
  8
INFORMATION
 10
1.0
 20
3.0
 30
0.0
 40
0.8
  1
PAPER=A3
 41
0.8
  7
EXT08
  0
TEXT
  5
178E9
  8
INFORMATION
 10
1.0
 20
1.0
 30
0.0
 40
0.8
  1
VERSION=3.0
  0
INSERT
  5
19380
  8
ZWAKU
  2
SYSTEMA3
 10
-0.7058929444392561
 20
37.540982692415128
 30
0.0
 41
10.0
 42
10.0
 43
10.0
  0
INSERT
  5
19381
  8
ZWAKU
  2
CALCOMP_TECHJET720A3
 10
-0.7058929444392561
 20
37.540982692415128
 30
0.0
 41
10.0
 42
10.0
 43
10.0
  0
LINE
  5
19382
  8
MOJI
 10
3663.0844272244772
 20
2465.4653333909719
 30
0.0
 11
2539.8840360922268
 21
2465.4653333909719
 31
0.0
  0
LINE
  5
19383
  8
MOJI
 10
3663.0844272244772
 20
2273.4653334389741
 30
0.0
 11
2539.8840360922268
 21
2273.4653334389741
 31
0.0
  0
LINE
  5
19384
  8
MOJI
 10
3663.0844272244772
 20
2273.465333438975
 30
0.0
 11
2539.8840360922268
 21
2273.4653334389759
 31
0.0
  0
LINE
  5
19385
  8
MOJI
 10
3663.0844272244772
 20
2081.4653334869781
 30
0.0
 11
2539.8840360922268
 21
2081.4653334869781
 31
0.0
  0
LINE
  5
19386
  8
MOJI
 10
3663.0844272244772
 20
2129.4653334749778
 30
0.0
 11
2539.8840360922268
 21
2129.4653334749778
 31
0.0
  0
LINE
  5
19387
  8
MOJI
 10
3663.0844272244772
 20
2321.4653334269742
 30
0.0
 11
2539.8840360922268
 21
2321.4653334269728
 31
0.0
  0
LINE
  5
19388
  8
MOJI
 10
3663.0844272244772
 20
2369.4653334149721
 30
0.0
 11
2539.8840360922268
 21
2369.4653334149721
 31
0.0
  0
LINE
  5
19389
  8
MOJI
 10
3663.0844272244772
 20
2417.4653334029722
 30
0.0
 11
2539.8840360922268
 21
2417.4653334029731
 31
0.0
  0
LINE
  5
1938A
  8
MOJI
 10
3663.0844272244772
 20
2033.4653334989771
 30
0.0
 11
2539.8840360922268
 21
2033.4653334989771
 31
0.0
  0
TEXT
  5
1938B
  8
MOJI
 10
3060.073210921038
 20
2426.4653333969732
 30
0.0
 40
30.0
  1
材　　　質
 41
0.8
  7
EXT08
 72
     4
 11
3128.8732109210382
 21
2441.4653333969732
 31
0.0
  0
TEXT
  5
1938C
  8
MOJI
 10
2622.014451985955
 20
2426.4653333969732
 30
0.0
 40
30.0
  1
品　　名
 41
0.8
  7
EXT08
 72
     4
 11
2675.6144519859549
 21
2441.4653333969732
 31
0.0
  0
TEXT
  5
1938E
  8
MOJI
 10
2829.5431439008812
 20
2426.4653333969732
 30
0.0
 40
30.0
  1
数 量
 41
0.8
  7
EXT08
 72
     4
 11
2862.3431439008809
 21
2441.4653333969732
 31
0.0
  0
LINE
  5
1938F
  8
MOJI
 10
3322.5108894851501
 20
2465.465333390971
 30
0.0
 11
3322.510889485151
 21
2033.4653334989771
 31
0.0
  0
LINE
  5
19390
  8
MOJI
 10
2910.3431438888788
 20
2465.465333390971
 30
0.0
 11
2910.3431438888779
 21
2033.4653334989771
 31
0.0
  0
LINE
  5
19391
  8
MOJI
 10
2814.343143912879
 20
2465.465333390971
 30
0.0
 11
2814.3431439128772
 21
2033.4653334989771
 31
0.0
  0
LINE
  5
19392
  8
MOJI
 10
2539.8840360922268
 20
2465.465333390971
 30
0.0
 11
2539.8840360922268
 21
2033.4653334989771
 31
0.0
  0
TEXT
  5
19394
  8
MOJI
 10
2619.7858805573842
 20
2330.865333420973
 30
0.0
 40
30.0
  1
キャップ
 41
0.8
  7
EXT08
 72
     4
 11
2675.6144519859549
 21
2345.465333420972
 31
0.0
  0
TEXT
  5
1939C
  8
MOJI
 10
2556.4144519859551
 20
2234.4653334449749
 30
0.0
 40
30.0
  1
弾性サイン板（大）
 41
0.8
  7
EXT08
 72
     4
 11
2675.6144519859549
 21
2249.4653334449749
 31
0.0
  0
TEXT
  5
1939D
  8
MOJI
 10
2934.3431438828802
 20
2330.465333420972
 30
0.0
 40
30.0
  1
ポリエチレン樹脂
 41
0.8
  7
EXT08
 11
2934.3431438828802
 21
2345.465333420972
 31
0.0
 73
     2
  0
TEXT
  5
1939E
  8
MOJI
 10
2934.3431438828802
 20
2234.4653334449749
 30
0.0
 40
30.0
  1
CRゴム
 41
0.8
  7
EXT08
 11
2934.3431438828802
 21
2249.4653334449749
 31
0.0
 73
     2
  0
TEXT
  5
1939F
  8
MOJI
 10
2850.9145724723089
 20
2234.4653334449749
 30
0.0
 40
30.0
  1
2
 41
0.8
  7
EXT08
 72
     4
 11
2862.3431439008809
 21
2249.4653334449749
 31
0.0
  0
TEXT
  5
193A0
  8
MOJI
 10
2852.6288581865952
 20
2330.465333420972
 30
0.0
 40
30.0
  1
1
 41
0.8
  7
EXT08
 72
     4
 11
2862.3431439008809
 21
2345.465333420972
 31
0.0
  0
LINE
  5
193A1
  8
MOJI
 10
3663.0844272244772
 20
2465.465333390971
 30
0.0
 11
3663.0844272244781
 21
2033.4653334989771
 31
0.0
  0
TEXT
  5
193A2
  8
MOJI
 10
3459.9976583548132
 20
2426.4653333969709
 30
0.0
 40
30.0
  1
備 考
 41
0.8
  7
EXT08
 72
     4
 11
3492.7976583548129
 21
2441.4653333969709
 31
0.0
  0
TEXT
  5
193A3
  8
MOJI
 10
3345.711944069099
 20
2042.465333480978
 30
0.0
 40
30.0
  1
皿ドリルネジM4×35
 41
0.8
  7
EXT08
 72
     4
 11
3492.7976583548129
 21
2057.4653334809782
 31
0.0
  0
TEXT
  5
193A4
  8
MOJI
 10
3459.9976583548132
 20
2378.4653334089721
 30
0.0
 40
30.0
  1
茶 色
 41
0.8
  7
EXT08
 72
     4
 11
3492.7976583548129
 21
2393.4653334089721
 31
0.0
  0
TEXT
  5
193A5
  8
MOJI
 10
2606.8144519859552
 20
2378.4653334089721
 30
0.0
 40
30.0
  1
支　　　柱
 41
0.8
  7
EXT08
 72
     4
 11
2675.6144519859549
 21
2393.4653334089721
 31
0.0
  0
TEXT
  5
193A6
  8
MOJI
 10
2917.6675642437458
 20
2378.4653334089721
 30
0.0
 40
30.0
  1
ポリエチレン樹脂＋ガラス繊維
 41
0.8
  7
EXT08
 11
2917.6675642437458
 21
2393.4653334089721
 31
0.0
 73
     2
  0
TEXT
  5
193A7
  8
MOJI
 10
2852.6288581865952
 20
2378.4653334089721
 30
0.0
 40
30.0
  1
1
 41
0.8
  7
EXT08
 72
     4
 11
2862.3431439008809
 21
2393.4653334089721
 31
0.0
  0
TEXT
  5
193A8
  8
MOJI
 10
2606.8144519859552
 20
2282.4653334329741
 30
0.0
 40
30.0
  1
反　射　材
 41
0.8
  7
EXT08
 72
     4
 11
2675.6144519859549
 21
2297.4653334329741
 31
0.0
  0
TEXT
  5
193A9
  8
MOJI
 10
2934.3431438828802
 20
2282.4653334329741
 30
0.0
 40
30.0
  1
カプセルレンズ型反射シート
 41
0.8
  7
EXT08
 11
2934.3431438828802
 21
2297.4653334329741
 31
0.0
 73
     2
  0
TEXT
  5
193AA
  8
MOJI
 10
2852.6288581865952
 20
2282.4653334329741
 30
0.0
 40
30.0
  1
1
 41
0.8
  7
EXT08
 72
     4
 11
2862.3431439008809
 21
2297.4653334329741
 31
0.0
  0
TEXT
  5
193AB
  8
MOJI
 10
3458.3976583548128
 20
2282.4653334329741
 30
0.0
 40
30.0
  1
白 色
 41
0.8
  7
EXT08
 72
     4
 11
3492.7976583548129
 21
2297.4653334329741
 31
0.0
  0
TEXT
  5
193AC
  8
MOJI
 10
2606.8144519859552
 20
2138.4653334689801
 30
0.0
 40
30.0
  1
芯      材
 41
0.8
  7
EXT08
 72
     4
 11
2675.6144519859549
 21
2153.465333468981
 31
0.0
  0
TEXT
  5
193AD
  8
MOJI
 10
2934.3431438828802
 20
2138.4653334689801
 30
0.0
 40
30.0
  1
A6063S-T5
 41
0.8
  7
EXT08
 11
2934.3431438828802
 21
2153.465333468981
 31
0.0
 73
     2
  0
TEXT
  5
193AE
  8
MOJI
 10
2852.6288581865952
 20
2138.4653334689801
 30
0.0
 40
30.0
  1
1
 41
0.8
  7
EXT08
 72
     4
 11
2862.3431439008809
 21
2153.465333468981
 31
0.0
  0
TEXT
  5
193AF
  8
MOJI
 10
2619.6144519859558
 20
2090.4653334809791
 30
0.0
 40
30.0
  1
ネカセ棒
 41
0.8
  7
EXT08
 72
     4
 11
2675.6144519859558
 21
2105.4653334809791
 31
0.0
  0
TEXT
  5
193B0
  8
MOJI
 10
2852.6288581865952
 20
2090.4653334809768
 30
0.0
 40
30.0
  1
1
 41
0.8
  7
EXT08
 72
     4
 11
2862.3431439008809
 21
2105.4653334809782
 31
0.0
  0
TEXT
  5
193B1
  8
MOJI
 10
2837.771715329452
 20
2042.465333492979
 30
0.0
 40
30.0
  1
12
 41
0.8
  7
EXT08
 72
     4
 11
2862.3431439008809
 21
2057.465333492979
 31
0.0
  0
TEXT
  5
193B2
  8
MOJI
 10
3417.5976583548131
 20
2090.4653334809782
 30
0.0
 40
30.0
  1
φ9×150
 41
0.8
  7
EXT08
 72
     4
 11
3492.7976583548138
 21
2105.4653334809782
 31
0.0
  0
TEXT
  5
193B3
  8
MOJI
 10
3459.9976583548132
 20
2330.4653334209738
 30
0.0
 40
30.0
  1
茶 色
 41
0.8
  7
EXT08
 72
     4
 11
3492.7976583548129
 21
2345.4653334209752
 31
0.0
  0
TEXT
  5
193B4
  8
MOJI
 10
2932.8415782590441
 20
2043.1142718735109
 30
0.0
 40
30.0
  1
SUS410
 41
0.8
  7
EXT08
 11
2932.8415782590441
 21
2058.1142718735109
 31
0.0
 73
     2
  0
LINE
  5
193C8
  8
CENTER
 10
687.64738174554077
 20
2367.5888987645349
 30
0.0
 11
687.64738174554077
 21
277.58889876454123
 31
0.0
  0
LINE
  5
193C9
  8
SJC2
 10
612.64738174554077
 20
642.08889876454157
 30
0.0
 11
612.64738174554077
 21
633.08889876454157
 31
0.0
  0
LINE
  5
193CA
  8
SJC2
 10
762.64738174554077
 20
642.08889876454123
 30
0.0
 11
762.64738174554077
 21
633.08889876454123
 31
0.0
  0
LINE
  5
193CB
  8
SJC
 10
650.14738174554066
 20
487.58889876454111
 30
0.0
 11
650.14738174554066
 21
387.58889876454123
 31
0.0
  0
LINE
  5
193CC
  8
SJC
 10
725.14738174554077
 20
487.58889876454128
 30
0.0
 11
725.14738174554077
 21
387.58889876454128
 31
0.0
  0
LINE
  5
193D1
  8
SJC
 10
731.39738174554077
 20
1267.588898764541
 30
0.0
 11
731.39738174554077
 21
487.58889876454123
 31
0.0
1001
ACAD
1000
ASC_BOUNDS
1002
{
1070
    19
1005
0
1002
}
  0
LINE
  5
193D2
  8
SJC
 10
643.89738174554077
 20
1267.588898764541
 30
0.0
 11
643.89738174554077
 21
487.58889876454123
 31
0.0
1001
ACAD
1000
ASC_BOUNDS
1002
{
1070
    19
1005
0
1002
}
  0
LINE
  5
193D3
  8
SJC
 10
731.39738174554077
 20
787.58889876454123
 30
0.0
 11
976.1518485949581
 21
787.58889876454123
 31
0.0
1001
ACAD
1000
ASC_BOUNDS
1002
{
1070
    19
1005
0
1002
}
  0
LINE
  5
193D5
  8
SJC
 10
487.64738174554083
 20
387.58889876454123
 30
0.0
 11
887.64738174554066
 21
387.58889876454123
 31
0.0
1001
ACAD
1000
ASC_BOUNDS
1002
{
1070
    19
1005
0
1005
0
1005
0
1002
}
  0
LINE
  5
193D6
  8
SJC
 10
460.11334604726471
 20
787.58889876454123
 30
0.0
 11
643.89738174554077
 21
787.58889876454123
 31
0.0
1001
ACAD
1000
ASC_BOUNDS
1002
{
1070
    19
1005
0
1002
}
  0
LINE
  5
193D7
  8
SJC
 10
643.89738174554077
 20
2327.5888987645421
 30
0.0
 11
731.39738174554032
 21
2327.5888987645421
 31
0.0
  0
LINE
  5
193D8
  8
SJC
 10
887.64738174554066
 20
387.58889876454123
 30
0.0
 11
887.64738174554066
 21
287.58889876454123
 31
0.0
  0
LINE
  5
193D9
  8
SJC
 10
487.64738174554083
 20
387.58889876454123
 30
0.0
 11
487.64738174554083
 21
287.58889876454123
 31
0.0
  0
LINE
  5
193DA
  8
SJC
 10
487.64738174554083
 20
287.58889876454123
 30
0.0
 11
887.64738174554066
 21
287.58889876454123
 31
0.0
  0
ARC
  5
193E1
  8
SJC
 10
687.64738174554077
 20
2289.7373362645212
 30
0.0
 40
57.851562500013678
 50
40.865657358811269
 51
139.13434264118931
  0
INSERT
  5
193E2
  8
SJC
  2
GL
 10
892.54864438850927
 20
787.30926014679335
 30
0.0
 41
10.0
 42
10.0
 43
10.0
  0
LINE
  5
193E3
  8
SJC
 10
837.64738174554066
 20
787.58889876454123
 30
0.0
 11
837.64738174554066
 21
387.58889876454123
 31
0.0
1001
ACAD
1000
ASC_BOUNDS
1002
{
1070
    19
1005
0
1002
}
  0
LINE
  5
193E4
  8
SJC
 10
537.64738174554077
 20
787.58889876454123
 30
0.0
 11
537.64738174554077
 21
387.58889876454123
 31
0.0
1001
ACAD
1000
ASC_BOUNDS
1002
{
1070
    19
1005
0
1002
}
  0
TEXT
  5
193E5
  8
MOJI2
 10
530.21344309199765
 20
102.1435321472127
 30
0.0
 40
40.0
  1
設置図 S=1/10
 41
0.8
  7
EXT08
 72
     1
 11
692.65153833009288
 21
102.1435321472127
 31
0.0
 73
     1
  0
LINE
  5
193E6
  8
MOJI2
 10
514.97333899584191
 20
87.143532147212696
 30
0.0
 11
870.3257199482232
 21
87.143532147212696
 31
0.0
  0
LINE
  5
193E7
  8
HATCH
 10
537.64738174554077
 20
782.64907618853795
 30
0.0
 11
542.58720432154314
 21
787.58889876454123
 31
0.0
  0
LINE
  5
193E8
  8
HATCH
 10
537.64738174554077
 20
676.5830590105561
 30
0.0
 11
643.09738174554059
 21
782.03305901055592
 31
0.0
  0
LINE
  5
193E9
  8
HATCH
 10
537.64738174554077
 20
570.5170418325738
 30
0.0
 11
643.89738174554077
 21
676.76704183257425
 31
0.0
  0
LINE
  5
193EA
  8
HATCH
 10
732.19738174554095
 20
765.06704183257443
 30
0.0
 11
754.71923867750775
 21
787.58889876454123
 31
0.0
  0
LINE
  5
193EB
  8
HATCH
 10
537.64738174554077
 20
464.45102465459189
 30
0.0
 11
643.89738174554077
 21
570.7010246545924
 31
0.0
  0
LINE
  5
193EC
  8
HATCH
 10
731.39738174554077
 20
658.20102465459252
 30
0.0
 11
837.64738174554066
 21
764.45102465459138
 31
0.0
  0
LINE
  5
193ED
  8
HATCH
 10
566.85127303347235
 20
387.58889876454123
 30
0.0
 11
650.14738174554066
 21
470.88500747660993
 31
0.0
  0
LINE
  5
193EE
  8
HATCH
 10
731.39738174554077
 20
552.13500747661021
 30
0.0
 11
837.64738174554066
 21
658.38500747660964
 31
0.0
  0
LINE
  5
193EF
  8
HATCH
 10
725.14738174554077
 20
439.8189902986278
 30
0.0
 11
837.64738174554066
 21
552.3189902986278
 31
0.0
  0
LINE
  5
193F0
  8
HATCH
 10
778.98330738943605
 20
387.58889876454123
 30
0.0
 11
837.64738174554066
 21
446.25297312064549
 31
0.0
  0
LINE
  5
193F1
  8
HATCH
 10
537.64738174554077
 20
764.97140668853808
 30
0.0
 11
560.26487382154301
 21
787.58889876454123
 31
0.0
  0
LINE
  5
193F2
  8
HATCH
 10
537.64738174554077
 20
658.90538951055623
 30
0.0
 11
643.09738174554059
 21
764.35538951055605
 31
0.0
  0
LINE
  5
193F3
  8
HATCH
 10
537.64738174554077
 20
552.83937233257427
 30
0.0
 11
617.89690817750852
 21
633.08889876454157
 31
0.0
  0
LINE
  5
193F4
  8
HATCH
 10
732.19738174554095
 20
747.389372332574
 30
0.0
 11
772.3969081775075
 21
787.58889876454123
 31
0.0
  0
LINE
  5
193F5
  8
HATCH
 10
537.64738174554077
 20
446.77335515459202
 30
0.0
 11
643.89738174554077
 21
553.02335515459197
 31
0.0
  0
LINE
  5
193F6
  8
HATCH
 10
732.96292535549014
 20
642.08889876454134
 30
0.0
 11
837.64738174554066
 21
746.77335515459163
 31
0.0
  0
LINE
  5
193F7
  8
HATCH
 10
584.52894253347222
 20
387.58889876454123
 30
0.0
 11
650.14738174554066
 21
453.20733797661012
 31
0.0
  0
LINE
  5
193F8
  8
HATCH
 10
731.39738174554077
 20
534.45733797660989
 30
0.0
 11
837.64738174554066
 21
640.70733797660978
 31
0.0
  0
LINE
  5
193F9
  8
HATCH
 10
725.14738174554077
 20
422.14132079862787
 30
0.0
 11
837.64738174554066
 21
534.64132079862736
 31
0.0
  0
LINE
  5
193FA
  8
HATCH
 10
796.6609768894358
 20
387.58889876454123
 30
0.0
 11
837.64738174554032
 21
428.57530362064512
 31
0.0
  0
LINE
  5
193FB
  8
HATCH
 10
537.64738174554077
 20
747.29373708853825
 30
0.0
 11
577.94254342154363
 21
787.58889876454123
 31
0.0
  0
LINE
  5
193FC
  8
HATCH
 10
537.64738174554077
 20
641.22771991055652
 30
0.0
 11
643.09738174554059
 21
746.67771991055588
 31
0.0
  0
LINE
  5
193FD
  8
HATCH
 10
537.64738174554077
 20
535.16170273257364
 30
0.0
 11
635.57457777750813
 21
633.08889876454145
 31
0.0
  0
LINE
  5
193FE
  8
HATCH
 10
732.19738174554095
 20
729.71170273257394
 30
0.0
 11
790.07457777750767
 21
787.58889876454123
 31
0.0
  0
LINE
  5
193FF
  8
HATCH
 10
537.64738174554077
 20
429.0956855545918
 30
0.0
 11
643.89738174554077
 21
535.34568555459225
 31
0.0
  0
LINE
  5
19400
  8
HATCH
 10
731.39738174554077
 20
622.84568555459214
 30
0.0
 11
741.64059495549452
 21
633.08889876454123
 31
0.0
  0
LINE
  5
19401
  8
HATCH
 10
602.20661213347194
 20
387.58889876454123
 30
0.0
 11
650.14738174554077
 21
435.52966837660898
 31
0.0
  0
LINE
  5
19402
  8
HATCH
 10
731.39738174554077
 20
516.77966837660995
 30
0.0
 11
837.64738174554066
 21
623.02966837660961
 31
0.0
  0
LINE
  5
19403
  8
HATCH
 10
725.14738174554077
 20
404.4636511986277
 30
0.0
 11
837.64738174554066
 21
516.9636511986273
 31
0.0
  0
LINE
  5
19404
  8
HATCH
 10
814.33864648943666
 20
387.58889876454123
 30
0.0
 11
837.64738174554032
 21
410.8976340206454
 31
0.0
  0
LINE
  5
19405
  8
HATCH
 10
537.64738174554077
 20
729.6160675885385
 30
0.0
 11
595.6202129215435
 21
787.58889876454123
 31
0.0
  0
LINE
  5
19406
  8
HATCH
 10
537.64738174554077
 20
623.55005041055608
 30
0.0
 11
643.09738174554059
 21
729.0000504105559
 31
0.0
  0
LINE
  5
19407
  8
HATCH
 10
537.64738174554077
 20
517.48403323257389
 30
0.0
 11
643.25224727750799
 21
623.08889876454145
 31
0.0
  0
LINE
  5
19408
  8
HATCH
 10
732.19738174554095
 20
712.03403323257396
 30
0.0
 11
807.7522472775081
 21
787.58889876454123
 31
0.0
  0
LINE
  5
19409
  8
HATCH
 10
537.64738174554077
 20
411.41801605459199
 30
0.0
 11
643.89738174554077
 21
517.66801605459204
 31
0.0
  0
LINE
  5
1940A
  8
HATCH
 10
731.39738174554077
 20
605.16801605459204
 30
0.0
 11
759.31826445548973
 21
633.08889876454123
 31
0.0
  0
LINE
  5
1940B
  8
HATCH
 10
619.8842816334718
 20
387.58889876454123
 30
0.0
 11
650.14738174554077
 21
417.85199887661008
 31
0.0
  0
LINE
  5
1940C
  8
HATCH
 10
731.39738174554077
 20
499.1019988766102
 30
0.0
 11
837.64738174554066
 21
605.35199887660917
 31
0.0
  0
LINE
  5
1940D
  8
HATCH
 10
725.95029881145365
 20
387.58889876454123
 30
0.0
 11
837.64738174554032
 21
499.28598169862738
 31
0.0
  0
LINE
  5
1940E
  8
HATCH
 10
832.01631598943629
 20
387.58889876454123
 30
0.0
 11
837.64738174553975
 21
393.21996452064519
 31
0.0
  0
INSERT
  5
19411
  8
0
  2
*U28
 10
0.0
 20
0.0
 30
0.0
1001
ACAD
1000
DSTYLE
1002
{
1070
   140
1040
30.0
1070
   144
1040
0.5
1070
   147
1040
15.0
1070
    42
1040
10.0
1070
    44
1040
10.0
1070
    43
1040
60.0
1070
    41
1040
20.0
1002
}
  0
INSERT
  5
19414
  8
0
  2
*U29
 10
0.0
 20
0.0
 30
0.0
1001
ACAD
1000
DSTYLE
1002
{
1070
   140
1040
30.0
1070
   144
1040
0.5
1070
   147
1040
15.0
1070
    42
1040
10.0
1070
    44
1040
10.0
1070
    43
1040
60.0
1070
    41
1040
20.0
1002
}
  0
LINE
  5
19419
  8
SJC
 10
619.64738174553975
 20
2282.5888987645399
 30
0.0
 11
755.6473817455435
 21
2282.5888987645412
 31
0.0
  0
CIRCLE
  5
1941A
  8
SJC
 10
687.64738174554077
 20
2597.2788794709109
 30
0.0
 40
43.75
  0
LINE
  5
1941B
  8
SJC
 10
643.89738174553975
 20
2327.5888987645421
 30
0.0
 11
643.89738174553975
 21
2287.5888987645412
 31
0.0
  0
LINE
  5
1941C
  8
SJC
 10
731.39738174554032
 20
2327.5888987645421
 30
0.0
 11
731.39738174554032
 21
2287.5888987645412
 31
0.0
  0
LINE
  5
1941E
  8
HATCH
 10
643.89738174554077
 20
2327.5888987645421
 30
0.0
 11
731.39738174553975
 21
2327.5888987645421
 31
0.0
  0
LINE
  5
1941F
  8
HATCH
 10
731.39738174553975
 20
2327.5888987645421
 30
0.0
 11
731.39738174554032
 21
2287.5888987645412
 31
0.0
  0
LINE
  5
19420
  8
HATCH
 10
731.39738174554032
 20
2287.5888987645412
 30
0.0
 11
643.89738174553975
 21
2287.5888987645412
 31
0.0
  0
LINE
  5
19421
  8
HATCH
 10
643.89738174553975
 20
2287.5888987645412
 30
0.0
 11
643.89738174553895
 21
2327.5888987645412
 31
0.0
  0
LINE
  5
19422
  8
SJC
 10
619.64738174554168
 20
1782.588898764541
 30
0.0
 11
755.64738174554157
 21
1782.588898764541
 31
0.0
  0
LINE
  5
19423
  8
SJC
 10
612.64738174553975
 20
2275.5888987645412
 30
0.0
 11
612.64738174554248
 21
1789.588898764541
 31
0.0
  0
LINE
  5
19424
  8
SJC
 10
762.64738174554338
 20
2275.5888987645412
 30
0.0
 11
762.64738174554077
 21
1789.588898764541
 31
0.0
  0
LINE
  5
19425
  8
HASEN
 10
650.14738174554077
 20
1787.588898764541
 30
0.0
 11
725.14738174554077
 21
1787.5888987645401
 31
0.0
  0
LINE
  5
19426
  8
SJC
 10
607.64738174553975
 20
2275.5888987645412
 30
0.0
 11
607.64738174554168
 21
1789.588898764541
 31
0.0
  0
ARC
  5
19427
  8
SJC
 10
619.64738174553975
 20
2275.5888987645412
 30
0.0
 40
12.0
 50
90.0
 51
180.0
  0
ARC
  5
19428
  8
SJC
 10
619.64738174553975
 20
2275.5888987645412
 30
0.0
 40
7.0
 50
90.0
 51
180.0
  0
LINE
  5
19429
  8
SJC
 10
767.6473817455435
 20
2275.5888987645412
 30
0.0
 11
767.64738174554157
 21
1789.588898764541
 31
0.0
  0
ARC
  5
1942A
  8
SJC
 10
755.64738174554157
 20
1789.588898764541
 30
0.0
 40
12.0
 50
270.0
 51
0.0
  0
ARC
  5
1942B
  8
SJC
 10
755.64738174554157
 20
1789.588898764541
 30
0.0
 40
7.0
 50
270.0
 51
0.0
  0
ARC
  5
1942C
  8
SJC
 10
755.6473817455435
 20
2275.5888987645412
 30
0.0
 40
12.0
 50
0.0
 51
90.0
  0
ARC
  5
1942D
  8
SJC
 10
755.6473817455435
 20
2275.5888987645412
 30
0.0
 40
7.0
 50
0.0
 51
90.0
  0
ARC
  5
1942E
  8
SJC
 10
619.64738174554168
 20
1789.588898764541
 30
0.0
 40
12.0
 50
180.0
 51
270.0
  0
ARC
  5
1942F
  8
SJC
 10
619.64738174554168
 20
1789.588898764541
 30
0.0
 40
7.0
 50
180.0
 51
270.0
  0
LINE
  5
19430
  8
SJC
 10
755.6473817455435
 20
2287.5888987645412
 30
0.0
 11
619.64738174553975
 21
2287.5888987645412
 31
0.0
  0
LINE
  5
19431
  8
SJC
 10
755.64738174554157
 20
1777.588898764541
 30
0.0
 11
687.64738174554077
 21
1777.588898764541
 31
0.0
  0
LINE
  5
19432
  8
SJC
 10
687.64738174554077
 20
1777.588898764541
 30
0.0
 11
619.64738174554168
 21
1777.588898764541
 31
0.0
  0
DIMENSION
  5
19433
  8
SUNPOU
  2
*D8
 10
387.68044119141251
 20
2287.5888987645412
 30
0.0
 11
360.68044119141211
 21
1537.588898764541
 31
0.0
 70
     0
 13
460.11334604726437
 23
787.58889876454123
 33
0.0
 14
619.64738174553963
 24
2287.5888987645412
 34
0.0
 50
90.0
1001
ACAD
1000
DSTYLE
1002
{
1070
   287
1070
     5
1070
    40
1040
10.0
1070
    41
1040
2.0
1070
    42
1040
1.0
1070
    43
1040
6.0
1070
    44
1040
1.0
1070
    73
1070
     0
1070
    74
1070
     0
1070
    77
1070
     1
1070
    78
1070
     8
1070
   140
1040
3.0
1070
   147
1040
1.1999999999999991
1070
   172
1070
     1
1070
   179
1070
     2
1070
   271
1070
     2
1070
   279
1070
     2
1070
   340
1005
55
1002
}
  0
DIMENSION
  5
19434
  8
SUNPOU
  2
*D9
 10
533.71736719745945
 20
1777.588898764541
 30
0.0
 11
506.71736719745923
 21
2032.588898764541
 31
0.0
 70
     0
 13
619.64738174553963
 23
2287.5888987645412
 33
0.0
 14
619.64738174554145
 24
1777.588898764541
 34
0.0
 50
90.0
1001
ACAD
1000
DSTYLE
1002
{
1070
   287
1070
     5
1070
    40
1040
10.0
1070
    41
1040
2.0
1070
    42
1040
1.0
1070
    43
1040
6.0
1070
    44
1040
1.0
1070
    73
1070
     0
1070
    74
1070
     0
1070
    77
1070
     1
1070
    78
1070
     8
1070
   140
1040
3.0
1070
   147
1040
1.1999999999999991
1070
   172
1070
     1
1070
   179
1070
     2
1070
   271
1070
     2
1070
   279
1070
     2
1070
   340
1005
55
1002
}
  0
LINE
  5
19435
  8
CENTER
 10
687.64738174554077
 20
2533.2340744886792
 30
0.0
 11
687.64738174554077
 21
2653.0288794709109
 31
0.0
  0
LINE
  5
19436
  8
SJC
 10
686.64738174554066
 20
2544.7788794701692
 30
0.0
 11
686.64738174554066
 21
2553.5403095354418
 31
0.0
  0
LINE
  5
19437
  8
SJC
 10
688.64738174554066
 20
2544.7788794701692
 30
0.0
 11
688.64738174554066
 21
2553.5403095354418
 31
0.0
  0
LINE
  5
19438
  8
CENTER
 10
743.39738174553804
 20
2597.2788794709109
 30
0.0
 11
631.89738174554066
 21
2597.2788794709109
 31
0.0
  0
LINE
  5
19439
  8
SJC
 10
607.64738174554077
 20
2546.7788794701678
 30
0.0
 11
607.64738174554077
 21
2548.7788794701678
 31
0.0
  0
ARC
  5
1943A
  8
SJC
 10
609.64738174553975
 20
2546.7788794701678
 30
0.0
 40
2.0
 50
180.0
 51
270.0
  0
ARC
  5
1943B
  8
SJC
 10
609.64738174554066
 20
2548.7788794701678
 30
0.0
 40
2.0
 50
90.0
 51
180.0
  0
LINE
  5
1943C
  8
SJC
 10
609.89738174554168
 20
2550.7788794701678
 30
0.0
 11
609.64738174554157
 21
2550.7788794701678
 31
0.0
  0
ARC
  5
1943D
  8
SJC
 10
765.64738174553975
 20
2548.7788794701678
 30
0.0
 40
2.0
 50
0.0
 51
90.0
  0
LINE
  5
1943E
  8
SJC
 10
765.64738174554168
 20
2544.7788794701701
 30
0.0
 11
609.64738174554066
 21
2544.7788794701692
 31
0.0
  0
ARC
  5
1943F
  8
SJC
 10
765.64738174554066
 20
2546.7788794701692
 30
0.0
 40
2.0
 50
270.0
 51
0.0
  0
LINE
  5
19441
  8
SJC
 10
767.64738174554157
 20
2546.7788794701692
 30
0.0
 11
767.64738174554066
 21
2548.7788794701678
 31
0.0
  0
LINE
  5
19442
  8
SJC
 10
636.89738174553975
 20
2605.2788794709058
 30
0.0
 11
636.89738174554259
 21
2553.7788794701692
 31
0.0
  0
LINE
  5
19443
  8
SJC
 10
738.39738174553804
 20
2605.2788794709072
 30
0.0
 11
738.39738174553895
 21
2553.7788794701692
 31
0.0
  0
ARC
  5
19444
  8
SJC
 10
741.39738174553895
 20
2553.7788794701692
 30
0.0
 40
3.0
 50
180.0
 51
270.0
  0
LINE
  5
19445
  8
SJC
 10
741.39738174553895
 20
2550.7788794701678
 30
0.0
 11
765.64738174554066
 21
2550.7788794701678
 31
0.0
  0
LINE
  5
19446
  8
SJC
 10
643.89738174553975
 20
2607.2788794709072
 30
0.0
 11
643.89738174553975
 21
2597.2788794709099
 31
0.0
  0
LINE
  5
19447
  8
SJC
 10
731.39738174553895
 20
2607.2788794709072
 30
0.0
 11
731.39738174553895
 21
2597.2788794709109
 31
0.0
  0
LINE
  5
19450
  8
SJC
 10
736.39738174553804
 20
2607.2788794709072
 30
0.0
 11
731.39738174553895
 21
2607.2788794709072
 31
0.0
  0
ARC
  5
19451
  8
SJC
 10
736.39738174553895
 20
2605.2788794709072
 30
0.0
 40
2.0
 50
0.0
 51
90.0
  0
LINE
  5
19452
  8
SJC
 10
643.89738174553975
 20
2607.2788794709072
 30
0.0
 11
638.89738174553975
 21
2607.2788794709058
 31
0.0
  0
ARC
  5
19453
  8
SJC
 10
638.89738174554077
 20
2605.2788794709058
 30
0.0
 40
2.0
 50
90.0
 51
180.0
  0
ARC
  5
19454
  8
SJC
 10
633.8973817455435
 20
2553.7788794701692
 30
0.0
 40
3.0
 50
270.0
 51
0.0
  0
LINE
  5
19455
  8
SJC
 10
633.8973817455435
 20
2550.7788794701678
 30
0.0
 11
609.89738174554168
 21
2550.7788794701678
 31
0.0
  0
ARC
  5
1945A
  8
SJC
 10
687.64738174554077
 20
2597.2788794709109
 30
0.0
 40
43.750000000000227
 50
180.0
 51
0.0
  0
DIMENSION
  5
19465
  8
SUNPOU
  2
*D10
 10
767.64738174554316
 20
2441.5652057546758
 30
0.0
 11
687.64738174554145
 21
2468.5652057546758
 31
0.0
 70
     0
 13
607.64738174553963
 23
2275.5888987645412
 33
0.0
 14
767.64738174554316
 24
2275.5888987645412
 34
0.0
1001
ACAD
1000
DSTYLE
1002
{
1070
   287
1070
     5
1070
    40
1040
10.0
1070
    41
1040
2.0
1070
    42
1040
1.0
1070
    43
1040
6.0
1070
    44
1040
1.0
1070
    73
1070
     0
1070
    74
1070
     0
1070
    77
1070
     1
1070
    78
1070
     8
1070
   140
1040
3.0
1070
   147
1040
1.1999999999999991
1070
   172
1070
     1
1070
   179
1070
     2
1070
   271
1070
     2
1070
   279
1070
     2
1070
   340
1005
55
1002
}
  0
DIMENSION
  5
1946B
  8
SUNPOU
  2
*D11
 10
233.93867437074709
 20
387.58889876454128
 30
0.0
 11
206.93867437074701
 21
587.58889876454134
 31
0.0
 70
     0
 13
460.11334604726437
 23
787.58889876454123
 33
0.0
 14
487.64738174554049
 24
387.58889876454123
 34
0.0
 50
90.0
1001
ACAD
1000
DSTYLE
1002
{
1070
   287
1070
     5
1070
    40
1040
10.0
1070
    41
1040
2.0
1070
    42
1040
1.0
1070
    43
1040
6.0
1070
    44
1040
1.0
1070
    73
1070
     0
1070
    74
1070
     0
1070
    77
1070
     1
1070
    78
1070
     8
1070
   140
1040
3.0
1070
   147
1040
1.1999999999999991
1070
   172
1070
     1
1070
   179
1070
     2
1070
   271
1070
     2
1070
   279
1070
     2
1070
   340
1005
55
1002
}
  0
LINE
  5
1946D
  8
CENTER
 10
602.64738174554066
 20
637.58889876454123
 30
0.0
 11
772.64738174554066
 21
637.58889876454123
 31
0.0
  0
LINE
  5
1946E
  8
SJC2
 10
612.64738174554077
 20
633.08889876454157
 30
0.0
 11
762.64738174554077
 21
633.08889876454123
 31
0.0
  0
LINE
  5
1946F
  8
SJC2
 10
612.64738174554077
 20
642.08889876454157
 30
0.0
 11
762.64738174554077
 21
642.08889876454123
 31
0.0
  0
LINE
  5
19470
  8
SJC
 10
643.89738174554077
 20
487.58889876454123
 30
0.0
 11
731.39738174554077
 21
487.58889876454123
 31
0.0
  0
DIMENSION
  5
19478
  8
SUNPOU
  2
*D12
 10
837.64738174554054
 20
227.4473130475298
 30
0.0
 11
687.64738174554054
 21
254.4473130475298
 31
0.0
 70
     0
  1
□<>
 13
537.64738174554054
 23
387.58889876454123
 33
0.0
 14
837.64738174554054
 24
387.58889876454123
 34
0.0
1001
ACAD
1000
DSTYLE
1002
{
1070
   287
1070
     5
1070
    40
1040
10.0
1070
    41
1040
2.0
1070
    42
1040
1.0
1070
    43
1040
6.0
1070
    44
1040
1.0
1070
    73
1070
     0
1070
    74
1070
     0
1070
    77
1070
     1
1070
    78
1070
     8
1070
   140
1040
3.0
1070
   147
1040
1.1999999999999991
1070
   172
1070
     1
1070
   179
1070
     2
1070
   271
1070
     2
1070
   279
1070
     2
1070
   340
1005
55
1002
}
  0
LINE
  5
19479
  8
CENTER
 10
1416.8632148796351
 20
2367.5888987645349
 30
0.0
 11
1416.8632148796351
 21
277.58889876454123
 31
0.0
  0
LINE
  5
1947A
  8
SJC
 10
1379.3632148796351
 20
487.58889876454123
 30
0.0
 11
1379.3632148796351
 21
387.58889876454123
 31
0.0
  0
LINE
  5
1947B
  8
SJC
 10
1454.3632148796351
 20
487.58889876454128
 30
0.0
 11
1454.3632148796351
 21
387.58889876454128
 31
0.0
  0
LINE
  5
1947E
  8
SJC
 10
1460.6132148796351
 20
2327.5888987645421
 30
0.0
 11
1460.6132148796351
 21
487.58889876454123
 31
0.0
1001
ACAD
1000
ASC_BOUNDS
1002
{
1070
    19
1005
0
1002
}
  0
LINE
  5
1947F
  8
SJC
 10
1373.1132148796351
 20
1267.588898764503
 30
0.0
 11
1373.1132148796351
 21
487.58889876454123
 31
0.0
1001
ACAD
1000
ASC_BOUNDS
1002
{
1070
    19
1005
0
1002
}
  0
LINE
  5
19480
  8
SJC
 10
1460.6132148796351
 20
787.58889876454123
 30
0.0
 11
1705.367681729052
 21
787.58889876454123
 31
0.0
1001
ACAD
1000
ASC_BOUNDS
1002
{
1070
    19
1005
0
1002
}
  0
LINE
  5
19482
  8
SJC
 10
1216.8632148796351
 20
387.58889876454123
 30
0.0
 11
1616.8632148796351
 21
387.58889876454123
 31
0.0
1001
ACAD
1000
ASC_BOUNDS
1002
{
1070
    19
1005
0
1005
0
1005
0
1002
}
  0
LINE
  5
19483
  8
SJC
 10
1189.329179181359
 20
787.58889876454123
 30
0.0
 11
1373.1132148796351
 21
787.58889876454123
 31
0.0
1001
ACAD
1000
ASC_BOUNDS
1002
{
1070
    19
1005
0
1002
}
  0
LINE
  5
19484
  8
SJC
 10
1373.1132148796351
 20
2327.5888987645421
 30
0.0
 11
1460.6132148796351
 21
2327.5888987645421
 31
0.0
  0
LINE
  5
19485
  8
SJC
 10
1616.8632148796351
 20
387.58889876454123
 30
0.0
 11
1616.8632148796351
 21
287.58889876454123
 31
0.0
  0
LINE
  5
19486
  8
SJC
 10
1216.8632148796351
 20
387.58889876454123
 30
0.0
 11
1216.8632148796351
 21
287.58889876454123
 31
0.0
  0
LINE
  5
19487
  8
SJC
 10
1216.8632148796351
 20
287.58889876454123
 30
0.0
 11
1616.8632148796351
 21
287.58889876454123
 31
0.0
  0
ARC
  5
1948E
  8
SJC
 10
1416.8632148796351
 20
2289.7373362645212
 30
0.0
 40
57.851562500013678
 50
40.865657358811269
 51
139.13434264118931
  0
INSERT
  5
1948F
  8
SJC
  2
GL
 10
1621.7644775226031
 20
787.30926014679335
 30
0.0
 41
10.0
 42
10.0
 43
10.0
  0
LINE
  5
19490
  8
SJC
 10
1566.8632148796351
 20
787.58889876454123
 30
0.0
 11
1566.8632148796351
 21
387.58889876454123
 31
0.0
1001
ACAD
1000
ASC_BOUNDS
1002
{
1070
    19
1005
0
1002
}
  0
LINE
  5
19491
  8
SJC
 10
1266.8632148796351
 20
787.58889876454123
 30
0.0
 11
1266.8632148796351
 21
387.58889876454123
 31
0.0
1001
ACAD
1000
ASC_BOUNDS
1002
{
1070
    19
1005
0
1002
}
  0
LINE
  5
19492
  8
HATCH
 10
1266.8632148796351
 20
782.64907618853795
 30
0.0
 11
1271.8030374556381
 21
787.58889876454123
 31
0.0
  0
LINE
  5
19493
  8
HATCH
 10
1266.8632148796351
 20
676.5830590105561
 30
0.0
 11
1372.3132148796351
 21
782.03305901055592
 31
0.0
  0
LINE
  5
19494
  8
HATCH
 10
1266.8632148796351
 20
570.5170418325738
 30
0.0
 11
1373.1132148796351
 21
676.7670418325738
 31
0.0
  0
LINE
  5
19495
  8
HATCH
 10
1461.413214879635
 20
765.06704183257443
 30
0.0
 11
1483.935071811602
 21
787.58889876454123
 31
0.0
  0
LINE
  5
19496
  8
HATCH
 10
1266.8632148796351
 20
464.45102465459189
 30
0.0
 11
1373.1132148796351
 21
570.70102465459195
 31
0.0
  0
LINE
  5
19497
  8
HATCH
 10
1460.6132148796351
 20
658.2010246545924
 30
0.0
 11
1566.8632148796351
 21
764.45102465459138
 31
0.0
  0
LINE
  5
19498
  8
HATCH
 10
1296.0671061675671
 20
387.58889876454123
 30
0.0
 11
1379.3632148796351
 21
470.88500747660942
 31
0.0
  0
LINE
  5
19499
  8
HATCH
 10
1460.6132148796351
 20
552.13500747660964
 30
0.0
 11
1566.8632148796351
 21
658.38500747660964
 31
0.0
  0
LINE
  5
1949A
  8
HATCH
 10
1454.3632148796351
 20
439.81899029862802
 30
0.0
 11
1566.8632148796351
 21
552.3189902986278
 31
0.0
  0
LINE
  5
1949B
  8
HATCH
 10
1508.199140523531
 20
387.58889876454123
 30
0.0
 11
1566.8632148796351
 21
446.25297312064549
 31
0.0
  0
LINE
  5
1949C
  8
HATCH
 10
1266.8632148796351
 20
764.97140668853808
 30
0.0
 11
1289.480706955638
 21
787.58889876454123
 31
0.0
  0
LINE
  5
1949D
  8
HATCH
 10
1266.8632148796351
 20
658.90538951055623
 30
0.0
 11
1372.3132148796351
 21
764.35538951055605
 31
0.0
  0
LINE
  5
1949E
  8
HATCH
 10
1266.8632148796351
 20
552.83937233257427
 30
0.0
 11
1373.1132148796351
 21
659.08937233257348
 31
0.0
  0
LINE
  5
1949F
  8
HATCH
 10
1461.413214879635
 20
747.389372332574
 30
0.0
 11
1501.6127413116019
 21
787.58889876454123
 31
0.0
  0
LINE
  5
194A0
  8
HATCH
 10
1266.8632148796351
 20
446.77335515459202
 30
0.0
 11
1373.1132148796351
 21
553.02335515459163
 31
0.0
  0
LINE
  5
194A1
  8
HATCH
 10
1460.6132148796351
 20
640.52335515459208
 30
0.0
 11
1566.8632148796351
 21
746.77335515459163
 31
0.0
  0
LINE
  5
194A2
  8
HATCH
 10
1313.744775667566
 20
387.58889876454123
 30
0.0
 11
1379.3632148796351
 21
453.20733797660961
 31
0.0
  0
LINE
  5
194A3
  8
HATCH
 10
1460.6132148796351
 20
534.45733797660989
 30
0.0
 11
1566.8632148796351
 21
640.70733797660978
 31
0.0
  0
LINE
  5
194A4
  8
HATCH
 10
1454.3632148796351
 20
422.14132079862861
 30
0.0
 11
1566.8632148796351
 21
534.64132079862736
 31
0.0
  0
LINE
  5
194A5
  8
HATCH
 10
1525.87681002353
 20
387.58889876454123
 30
0.0
 11
1566.8632148796351
 21
428.57530362064512
 31
0.0
  0
LINE
  5
194A6
  8
HATCH
 10
1266.8632148796351
 20
747.29373708853825
 30
0.0
 11
1307.1583765556379
 21
787.58889876454123
 31
0.0
  0
LINE
  5
194A7
  8
HATCH
 10
1266.8632148796351
 20
641.22771991055652
 30
0.0
 11
1372.3132148796351
 21
746.67771991055588
 31
0.0
  0
LINE
  5
194A8
  8
HATCH
 10
1266.8632148796351
 20
535.16170273257364
 30
0.0
 11
1373.1132148796351
 21
641.41170273257387
 31
0.0
  0
LINE
  5
194A9
  8
HATCH
 10
1461.413214879635
 20
729.71170273257394
 30
0.0
 11
1519.2904109116021
 21
787.58889876454123
 31
0.0
  0
LINE
  5
194AA
  8
HATCH
 10
1266.8632148796351
 20
429.0956855545918
 30
0.0
 11
1373.1132148796351
 21
535.34568555459214
 31
0.0
  0
LINE
  5
194AB
  8
HATCH
 10
1460.6132148796351
 20
622.84568555459225
 30
0.0
 11
1566.8632148796351
 21
729.0956855545918
 31
0.0
  0
LINE
  5
194AC
  8
HATCH
 10
1331.422445267566
 20
387.58889876454123
 30
0.0
 11
1379.3632148796351
 21
435.52966837660898
 31
0.0
  0
LINE
  5
194AD
  8
HATCH
 10
1460.6132148796351
 20
516.77966837660995
 30
0.0
 11
1566.8632148796351
 21
623.02966837660961
 31
0.0
  0
LINE
  5
194AE
  8
HATCH
 10
1454.3632148796351
 20
404.46365119862838
 30
0.0
 11
1566.8632148796351
 21
516.9636511986273
 31
0.0
  0
LINE
  5
194AF
  8
HATCH
 10
1543.5544796235311
 20
387.58889876454123
 30
0.0
 11
1566.8632148796351
 21
410.8976340206454
 31
0.0
  0
LINE
  5
194B0
  8
HATCH
 10
1266.8632148796351
 20
729.6160675885385
 30
0.0
 11
1324.836046055638
 21
787.58889876454123
 31
0.0
  0
LINE
  5
194B1
  8
HATCH
 10
1266.8632148796351
 20
623.55005041055608
 30
0.0
 11
1372.3132148796351
 21
729.0000504105559
 31
0.0
  0
LINE
  5
194B2
  8
HATCH
 10
1266.8632148796351
 20
517.48403323257389
 30
0.0
 11
1373.1132148796351
 21
623.73403323257389
 31
0.0
  0
LINE
  5
194B3
  8
HATCH
 10
1461.413214879635
 20
712.03403323257396
 30
0.0
 11
1536.9680804116019
 21
787.58889876454123
 31
0.0
  0
LINE
  5
194B4
  8
HATCH
 10
1266.8632148796351
 20
411.41801605459199
 30
0.0
 11
1373.1132148796351
 21
517.66801605459159
 31
0.0
  0
LINE
  5
194B5
  8
HATCH
 10
1460.6132148796351
 20
605.16801605459216
 30
0.0
 11
1566.8632148796351
 21
711.41801605459204
 31
0.0
  0
LINE
  5
194B6
  8
HATCH
 10
1349.1001147675661
 20
387.58889876454123
 30
0.0
 11
1379.3632148796351
 21
417.85199887660963
 31
0.0
  0
LINE
  5
194B7
  8
HATCH
 10
1460.6132148796351
 20
499.1019988766098
 30
0.0
 11
1566.8632148796351
 21
605.35199887660917
 31
0.0
  0
LINE
  5
194B8
  8
HATCH
 10
1455.1661319455479
 20
387.58889876454123
 30
0.0
 11
1566.8632148796351
 21
499.28598169862738
 31
0.0
  0
LINE
  5
194B9
  8
HATCH
 10
1561.23214912353
 20
387.58889876454123
 30
0.0
 11
1566.8632148796339
 21
393.21996452064519
 31
0.0
  0
LINE
  5
194BA
  8
SJC
 10
1373.1132148796351
 20
2327.5888987645421
 30
0.0
 11
1373.1132148796351
 21
2287.5888987645412
 31
0.0
  0
LINE
  5
194BC
  8
HATCH
 10
1373.1132148796351
 20
2327.5888987645421
 30
0.0
 11
1460.6132148796339
 21
2327.5888987645421
 31
0.0
1001
ACAD
1000
ASC_BOUNDS
1002
{
1070
    19
1005
1BE9E
1005
1BE94
1002
}
  0
LINE
  5
194BD
  8
HATCH
 10
1460.6132148796339
 20
2327.5888987645421
 30
0.0
 11
1460.6132148796351
 21
2287.5888987645412
 31
0.0
1001
ACAD
1000
ASC_BOUNDS
1002
{
1070
    19
1005
1BE9E
1005
1BE94
1002
}
  0
LINE
  5
194BE
  8
HATCH
 10
1460.6132148796351
 20
2287.5888987645412
 30
0.0
 11
1373.1132148796351
 21
2287.5888987645412
 31
0.0
1001
ACAD
1000
ASC_BOUNDS
1002
{
1070
    19
1005
1BE9E
1005
1BE94
1002
}
  0
LINE
  5
194BF
  8
HATCH
 10
1373.1132148796351
 20
2287.5888987645412
 30
0.0
 11
1373.1132148796339
 21
2327.5888987645412
 31
0.0
1001
ACAD
1000
ASC_BOUNDS
1002
{
1070
    19
1005
1BE9E
1005
1BE94
1002
}
  0
LINE
  5
194C0
  8
CENTER
 10
1396.8632148796351
 20
637.58889876454123
 30
0.0
 11
1436.8632148796351
 21
637.58889876454123
 31
0.0
  0
LINE
  5
194C1
  8
SJC
 10
1373.1132148796351
 20
487.58889876454123
 30
0.0
 11
1460.6132148796351
 21
487.58889876454123
 31
0.0
  0
LINE
  5
194C5
  8
SJC
 10
1370.363214879799
 20
1855.0888987647349
 30
0.0
 11
1370.363214879799
 21
1785.0888987647199
 31
0.0
  0
LINE
  5
194C6
  8
SJC
 10
1370.363214879688
 20
2282.588898764549
 30
0.0
 11
1370.363214879688
 21
2212.5888987645362
 31
0.0
  0
LINE
  5
194C7
  8
SJC
 10
1368.3632148796321
 20
2287.588898764543
 30
0.0
 11
1366.363214879633
 21
2287.588898764543
 31
0.0
  0
ARC
  5
194C8
  8
SJC
 10
1368.363214879633
 20
2285.588898764543
 30
0.0
 40
2.0
 50
0.0000000000260551
 51
90.0
  0
ARC
  5
194C9
  8
SJC
 10
1366.363214879633
 20
2285.588898764543
 30
0.0
 40
2.0
 50
90.0
 51
180.00000000001299
  0
LINE
  5
194CB
  8
SJC
 10
1370.363214879633
 20
2285.5888987645449
 30
0.0
 11
1370.3632148797419
 21
1779.588898764544
 31
0.0
  0
LINE
  5
194CD
  8
SJC
 10
1426.8632148803749
 20
2282.5888987645212
 30
0.0
 11
1426.863214880369
 21
2265.5011710060612
 31
0.0
  0
ARC
  5
194CE
  8
SJC
 10
1421.8632148803749
 20
2282.588898764523
 30
0.0
 40
5.0
 50
359.99999999997402
 51
90.0
  0
LINE
  5
194CF
  8
SJC
 10
1421.863214880377
 20
2287.5888987645271
 30
0.0
 11
1367.3632148803781
 21
2287.588898764543
 31
0.0
  0
LINE
  5
194D0
  8
CENTER
 10
1416.863214880374
 20
2273.0888987645249
 30
0.0
 11
1416.863214880372
 21
2264.0888987645249
 31
0.0
  0
LINE
  5
194D1
  8
CENTER
 10
1421.3632148803731
 20
2268.588898764523
 30
0.0
 11
1412.3632148803731
 21
2268.5888987645262
 31
0.0
  0
CIRCLE
  5
194D3
  8
SJC
 10
1416.8632148803731
 20
2268.5888987645249
 30
0.0
 40
4.5
  0
LINE
  5
194D4
  8
SJC
 10
1370.3632148797999
 20
1785.0888987644969
 30
0.0
 11
1370.3632148797999
 21
1855.0888987645101
 31
0.0
  0
LINE
  5
194D7
  8
SJC
 10
1364.3632148796351
 20
2285.588898764543
 30
0.0
 11
1364.3632148796351
 21
1779.5888987643179
 31
0.0
  0
LINE
  5
194D8
  8
SJC
 10
1423.065784744751
 20
2260.6479426247402
 30
0.0
 11
1370.3632148796439
 21
2247.588898764543
 31
0.0
  0
ARC
  5
194D9
  8
SJC
 10
1421.863214880369
 20
2265.501171006063
 30
0.0
 40
5.0
 50
283.9168774331053
 51
359.99999999997402
  0
LINE
  5
194DA
  8
SJC
 10
1368.363214879744
 20
1777.588898764501
 30
0.0
 11
1366.3632148797451
 21
1777.5888987645019
 31
0.0
  0
ARC
  5
194DB
  8
SJC
 10
1368.3632148797451
 20
1779.588898764501
 30
0.0
 40
2.0
 50
270.0
 51
359.99999999997402
  0
ARC
  5
194DC
  8
SJC
 10
1366.3632148797451
 20
1779.5888987645019
 30
0.0
 40
2.0
 50
179.99999999998701
 51
270.0
  0
LINE
  5
194DE
  8
SJC
 10
1426.863214880487
 20
1782.588898764523
 30
0.0
 11
1426.8632148804811
 21
1799.676626522983
 31
0.0
  0
ARC
  5
194DF
  8
SJC
 10
1421.863214880487
 20
1782.588898764521
 30
0.0
 40
5.0
 50
270.0
 51
0.0000000000260551
  0
LINE
  5
194E0
  8
SJC
 10
1421.8632148804891
 20
1777.588898764518
 30
0.0
 11
1367.36321488049
 21
1777.588898764501
 31
0.0
  0
LINE
  5
194E1
  8
CENTER
 10
1416.8632148804861
 20
1792.0888987645189
 30
0.0
 11
1416.8632148804829
 21
1801.0888987645189
 31
0.0
  0
LINE
  5
194E2
  8
CENTER
 10
1421.363214880485
 20
1796.588898764521
 30
0.0
 11
1412.363214880485
 21
1796.588898764518
 31
0.0
  0
CIRCLE
  5
194E4
  8
SJC
 10
1416.863214880485
 20
1796.5888987645189
 30
0.0
 40
4.5
  0
LINE
  5
194E7
  8
SJC
 10
1423.0657847448631
 20
1804.5298549043041
 30
0.0
 11
1370.363214879756
 21
1817.588898764501
 31
0.0
  0
ARC
  5
194E8
  8
SJC
 10
1421.8632148804811
 20
1799.676626522981
 30
0.0
 40
5.0
 50
0.0000000000260551
 51
76.083122566894787
  0
LINE
  5
194ED
  8
SJC
 10
1426.863214880369
 20
2041.676626522891
 30
0.0
 11
1426.863214880369
 21
2023.501171005968
 31
0.0
  0
ARC
  5
194EE
  8
SJC
 10
1421.863214880369
 20
2023.50117100597
 30
0.0
 40
5.0
 50
283.9168774331053
 51
359.99999999997402
  0
LINE
  5
194EF
  8
CENTER
 10
1416.863214880374
 20
2037.0888987644321
 30
0.0
 11
1416.863214880372
 21
2028.0888987644321
 31
0.0
  0
LINE
  5
194F0
  8
CENTER
 10
1421.3632148803731
 20
2032.58889876443
 30
0.0
 11
1412.3632148803731
 21
2032.588898764433
 31
0.0
  0
CIRCLE
  5
194F2
  8
SJC
 10
1416.8632148803731
 20
2032.5888987644321
 30
0.0
 40
4.5
  0
LINE
  5
194F3
  8
SJC
 10
1423.0657847447501
 20
2018.647942624646
 30
0.0
 11
1370.3632148796439
 21
2005.5888987644501
 31
0.0
  0
ARC
  5
194F4
  8
SJC
 10
1421.863214880369
 20
2041.676626522891
 30
0.0
 40
5.0
 50
0.0000000000260551
 51
76.083122566894787
  0
LINE
  5
194F5
  8
SJC
 10
1423.0657847447501
 20
2046.529854904215
 30
0.0
 11
1370.3632148796439
 21
2059.5888987644098
 31
0.0
  0
CIRCLE
  5
19503
  8
SJC2
 10
1416.8632148796351
 20
637.58889876454123
 30
0.0
 40
4.5
  0
TEXT
  5
195B0
  8
MOJI2
 10
2303.1977054387039
 20
101.4561788148949
 30
0.0
 40
40.0
  1
標示部詳細 S=1/5
 41
0.8
  7
EXT08
 72
     1
 11
2488.7977054387038
 21
101.4561788148949
 31
0.0
 73
     1
  0
LINE
  5
195B1
  8
MOJI2
 10
2299.8594544957082
 20
86.456178814894884
 30
0.0
 11
2699.6263558924552
 21
86.456178814894884
 31
0.0
  0
TEXT
  5
195DF
  8
MOJI
 10
3459.9976583548141
 20
2234.465333444974
 30
0.0
 40
30.0
  1
黒 色
 41
0.8
  7
EXT08
 72
     4
 11
3492.7976583548138
 21
2249.465333444974
 31
0.0
  0
TEXT
  5
195E1
  8
MOJI
 10
2622.014451985955
 20
2041.9047310381559
 30
0.0
 40
30.0
  1
固定ビス
 41
0.8
  7
EXT08
 72
     4
 11
2675.6144519859549
 21
2056.9047310381561
 31
0.0
  0
TEXT
  5
197B2
  8
SUNPOU
 10
755.97227989972725
 20
1184.137048765059
 30
0.0
 40
30.0
  1
ポリエチレン樹脂＋ガラス繊維
 41
0.8
  7
EXT08
  0
TEXT
  5
197B5
  8
SUNPOU
 10
755.97227989972725
 20
1224.722932514029
 30
0.0
 40
30.0
  1
支柱（\U+03c689\U+00d7ｔ6）
 41
0.8
  7
EXT08
  0
INSERT
  5
197E7
  8
0
  2
*U30
 10
0.0
 20
0.0
 30
0.0
1001
ACAD
1000
DSTYLE
1002
{
1070
   140
1040
30.0
1070
   144
1040
0.5
1070
   147
1040
15.0
1070
    42
1040
10.0
1070
    44
1040
10.0
1070
    43
1040
60.0
1070
    41
1040
20.0
1002
}
  0
LINE
  5
197EB
  8
SUNPOU
 10
753.49609912365031
 20
1218.9649120219169
 30
0.0
 11
1154.0854528668019
 21
1218.9649120219169
 31
0.0
1001
ACAD
1000
DSTYLE
1002
{
1070
    77
1070
     0
1070
    40
1040
10.0
1070
   147
1040
1.1999999999999991
1070
   176
1070
     0
1070
   177
1070
     0
1070
   178
1070
     0
1070
   179
1070
     2
1070
   271
1070
     2
1002
}
  0
TEXT
  5
197EC
  8
SUNPOU
 10
1530.993403573935
 20
2372.8981624854191
 30
0.0
 40
30.0
  1
ポリエチレン樹脂
 41
0.8
  7
EXT08
  0
LINE
  5
197ED
  8
SUNPOU
 10
1528.517222797858
 20
2407.7260257422781
 30
0.0
 11
1760.098339394586
 21
2407.7260257422781
 31
0.0
1001
ACAD
1000
DSTYLE
1002
{
1070
    77
1070
     0
1070
    40
1040
10.0
1070
   147
1040
1.1999999999999991
1070
   176
1070
     0
1070
   177
1070
     0
1070
   178
1070
     0
1070
   179
1070
     2
1070
   271
1070
     2
1002
}
  0
TEXT
  5
197EE
  8
SUNPOU
 10
1530.993403573935
 20
2413.4840462343891
 30
0.0
 40
30.0
  1
キャップ
 41
0.8
  7
EXT08
  0
TEXT
  5
197F9
  8
SUNPOU
 10
874.62073195750145
 20
2092.642460627364
 30
0.0
 40
30.0
  1
ＣＲゴム
 41
0.8
  7
EXT08
  0
LINE
  5
197FA
  8
SUNPOU
 10
872.1445511814245
 20
2127.4703238842221
 30
0.0
 11
1132.3083693039389
 21
2127.4703238842221
 31
0.0
1001
ACAD
1000
DSTYLE
1002
{
1070
    77
1070
     0
1070
    40
1040
10.0
1070
   147
1040
1.1999999999999991
1070
   176
1070
     0
1070
   177
1070
     0
1070
   178
1070
     0
1070
   179
1070
     2
1070
   271
1070
     2
1002
}
  0
TEXT
  5
197FB
  8
SUNPOU
 10
874.62073195750145
 20
2133.228344376334
 30
0.0
 40
30.0
  1
弾性サイン板（大）
 41
0.8
  7
EXT08
  0
INSERT
  5
197FC
  8
0
  2
*U31
 10
0.0
 20
0.0
 30
0.0
1001
ACAD
1000
DSTYLE
1002
{
1070
   140
1040
30.0
1070
   144
1040
0.5
1070
   147
1040
15.0
1070
    42
1040
10.0
1070
    44
1040
10.0
1070
    43
1040
60.0
1070
    41
1040
20.0
1002
}
  0
TEXT
  5
197FD
  8
SUNPOU
 10
1519.4184191331551
 20
2235.38485418749
 30
0.0
 40
30.0
  1
カプセルレンズ型反射シート
 41
0.8
  7
EXT08
  0
LINE
  5
197FE
  8
SUNPOU
 10
1516.9422383570779
 20
2270.212717444349
 30
0.0
 11
1895.2337408014171
 21
2270.212717444349
 31
0.0
1001
ACAD
1000
DSTYLE
1002
{
1070
    77
1070
     0
1070
    40
1040
10.0
1070
   147
1040
1.1999999999999991
1070
   176
1070
     0
1070
   177
1070
     0
1070
   178
1070
     0
1070
   179
1070
     2
1070
   271
1070
     2
1002
}
  0
TEXT
  5
197FF
  8
SUNPOU
 10
1519.4184191331551
 20
2275.97073793646
 30
0.0
 40
30.0
  1
反射材
 41
0.8
  7
EXT08
  0
TEXT
  5
19888
  8
SUNPOU
 10
755.97227989972725
 20
924.32333233469899
 30
0.0
 40
30.0
  1
A6063S-T5
 41
0.8
  7
EXT08
  0
LINE
  5
19889
  8
SUNPOU
 10
753.49609912365031
 20
959.1511955915571
 30
0.0
 11
1016.369036365264
 21
959.1511955915571
 31
0.0
1001
ACAD
1000
DSTYLE
1002
{
1070
    77
1070
     0
1070
    40
1040
10.0
1070
   147
1040
1.1999999999999991
1070
   176
1070
     0
1070
   177
1070
     0
1070
   178
1070
     0
1070
   179
1070
     2
1070
   271
1070
     2
1002
}
  0
TEXT
  5
1988A
  8
SUNPOU
 10
755.97227989972725
 20
964.90921608366853
 30
0.0
 40
30.0
  1
芯材（\U+03c675\U+00d7ｔ2）
 41
0.8
  7
EXT08
  0
INSERT
  5
1988B
  8
0
  2
*U32
 10
0.0
 20
0.0
 30
0.0
1001
ACAD
1000
DSTYLE
1002
{
1070
   140
1040
30.0
1070
   144
1040
0.5
1070
   147
1040
15.0
1070
    42
1040
10.0
1070
    44
1040
10.0
1070
    43
1040
60.0
1070
    41
1040
20.0
1002
}
  0
LINE
  5
1988E
  8
HASEN
 10
725.14738174554077
 20
1787.588898764541
 30
0.0
 11
725.14738174554066
 21
487.58889876454111
 31
0.0
  0
LINE
  5
1988F
  8
HASEN
 10
650.14738174554077
 20
1787.588898764541
 30
0.0
 11
650.14738174554066
 21
487.58889876454111
 31
0.0
  0
LINE
  5
1989A
  8
HASEN
 10
1379.3632148796351
 20
1787.588898764541
 30
0.0
 11
1379.3632148796351
 21
487.58889876454111
 31
0.0
  0
LINE
  5
1989B
  8
HASEN
 10
1454.3632148796351
 20
1787.5888987645401
 30
0.0
 11
1454.3632148796351
 21
487.58889876454111
 31
0.0
  0
CIRCLE
  5
19901
  8
SJC
 10
1416.8632148796351
 20
2268.5888987645249
 30
0.0
 40
4.0
  0
LINE
  5
19902
  8
SJC2
 10
1416.4376829647399
 20
2271.56762216878
 30
0.0
 11
1417.2887467945279
 21
2271.56762216878
 31
0.0
  0
LINE
  5
19903
  8
SJC2
 10
1419.8419382838899
 20
2269.0144306794182
 30
0.0
 11
1419.8419382838899
 21
2268.1633668496311
 31
0.0
  0
LINE
  5
19904
  8
SJC2
 10
1413.884491475379
 20
2269.0144306794182
 30
0.0
 11
1413.884491475379
 21
2268.1633668496311
 31
0.0
  0
LINE
  5
19905
  8
SJC2
 10
1416.4376829647399
 20
2265.6101753602702
 30
0.0
 11
1417.2887467945279
 21
2265.6101753602702
 31
0.0
  0
ARC
  5
19906
  8
SJC2
 10
1419.8419382838899
 20
2265.6101753602702
 30
0.0
 40
2.5531914893616769
 50
90.0
 51
180.0
  0
ARC
  5
19907
  8
SJC2
 10
1413.884491475379
 20
2265.6101753602702
 30
0.0
 40
2.5531914893616769
 50
0.0
 51
90.0
  0
ARC
  5
19908
  8
SJC2
 10
1419.8419382838899
 20
2271.56762216878
 30
0.0
 40
2.5531914893616769
 50
180.0
 51
270.0
  0
ARC
  5
19909
  8
SJC2
 10
1413.884491475379
 20
2271.56762216878
 30
0.0
 40
2.5531914893616769
 50
270.0
 51
0.0
  0
CIRCLE
  5
1990A
  8
SJC
 10
1416.8632148788961
 20
2032.5888987644321
 30
0.0
 40
4.0
  0
LINE
  5
1990B
  8
SJC2
 10
1416.4376829640021
 20
2035.5676221686881
 30
0.0
 11
1417.2887467937901
 21
2035.5676221686881
 31
0.0
  0
LINE
  5
1990C
  8
SJC2
 10
1419.841938283151
 20
2033.0144306793261
 30
0.0
 11
1419.841938283151
 21
2032.1633668495381
 31
0.0
  0
LINE
  5
1990D
  8
SJC2
 10
1413.8844914746401
 20
2033.0144306793261
 30
0.0
 11
1413.8844914746401
 21
2032.1633668495381
 31
0.0
  0
LINE
  5
1990E
  8
SJC2
 10
1416.4376829640021
 20
2029.610175360177
 30
0.0
 11
1417.2887467937901
 21
2029.610175360177
 31
0.0
  0
ARC
  5
1990F
  8
SJC2
 10
1419.841938283151
 20
2029.610175360177
 30
0.0
 40
2.5531914893616769
 50
90.0
 51
180.0
  0
ARC
  5
19910
  8
SJC2
 10
1413.8844914746401
 20
2029.610175360177
 30
0.0
 40
2.5531914893616769
 50
0.0
 51
90.0
  0
ARC
  5
19911
  8
SJC2
 10
1419.841938283151
 20
2035.5676221686881
 30
0.0
 40
2.5531914893616769
 50
180.0
 51
270.0
  0
ARC
  5
19912
  8
SJC2
 10
1413.8844914746401
 20
2035.5676221686881
 30
0.0
 40
2.5531914893616769
 50
270.0
 51
0.0
  0
CIRCLE
  5
19913
  8
SJC
 10
1416.8632148788961
 20
1796.5888987645189
 30
0.0
 40
4.0
  0
LINE
  5
19914
  8
SJC2
 10
1416.4376829640021
 20
1799.5676221687741
 30
0.0
 11
1417.2887467937901
 21
1799.5676221687741
 31
0.0
  0
LINE
  5
19915
  8
SJC2
 10
1419.841938283151
 20
1797.014430679413
 30
0.0
 11
1419.841938283151
 21
1796.1633668496249
 31
0.0
  0
LINE
  5
19916
  8
SJC2
 10
1413.8844914746401
 20
1797.014430679413
 30
0.0
 11
1413.8844914746401
 21
1796.1633668496249
 31
0.0
  0
LINE
  5
19917
  8
SJC2
 10
1416.4376829640021
 20
1793.6101753602641
 30
0.0
 11
1417.2887467937901
 21
1793.6101753602641
 31
0.0
  0
ARC
  5
19918
  8
SJC2
 10
1419.841938283151
 20
1793.6101753602641
 30
0.0
 40
2.5531914893616769
 50
90.0
 51
180.0
  0
ARC
  5
19919
  8
SJC2
 10
1413.8844914746401
 20
1793.6101753602641
 30
0.0
 40
2.5531914893616769
 50
0.0
 51
90.0
  0
ARC
  5
1991A
  8
SJC2
 10
1419.841938283151
 20
1799.5676221687741
 30
0.0
 40
2.5531914893616769
 50
180.0
 51
270.0
  0
ARC
  5
1991B
  8
SJC2
 10
1413.8844914746401
 20
1799.5676221687741
 30
0.0
 40
2.5531914893616769
 50
270.0
 51
0.0
  0
DIMENSION
  5
19E02
  8
SUNPOU
  2
*D13
 10
731.39738174553713
 20
2378.5770522596099
 30
0.0
 11
687.64738174553804
 21
2408.2615786987681
 31
0.0
 70
   128
  1
φ89
 13
643.89738174553895
 23
2327.588898764544
 33
0.0
 14
731.39738174553713
 24
2327.5888987645458
 34
0.0
1001
ACAD
1000
DSTYLE
1002
{
1070
   287
1070
     5
1070
    40
1040
10.0
1070
    41
1040
2.0
1070
    42
1040
1.0
1070
    43
1040
6.0
1070
    44
1040
1.0
1070
    73
1070
     0
1070
    74
1070
     0
1070
    77
1070
     1
1070
    78
1070
     8
1070
   140
1040
3.0
1070
   147
1040
1.1999999999999991
1070
   172
1070
     1
1070
   179
1070
     2
1070
   271
1070
     2
1070
   279
1070
     2
1070
   340
1005
55
1002
}
  0
INSERT
  5
19E4B
  8
0
  2
*U33
 10
0.0
 20
0.0
 30
0.0
1001
ACAD
1000
DSTYLE
1002
{
1070
   140
1040
30.0
1070
   144
1040
0.5
1070
   147
1040
15.0
1070
    42
1040
10.0
1070
    44
1040
10.0
1070
    43
1040
60.0
1070
    41
1040
20.0
1002
}
  0
LINE
  5
19E4C
  8
SUNPOU
 10
438.226686468678
 20
886.48187799893014
 30
0.0
 11
556.89700559416815
 21
886.48187799893014
 31
0.0
1001
ACAD
1000
DSTYLE
1002
{
1070
    77
1070
     0
1070
    40
1040
10.0
1070
   147
1040
1.1999999999999991
1070
   176
1070
     0
1070
   177
1070
     0
1070
   178
1070
     0
1070
   179
1070
     2
1070
   271
1070
     2
1002
}
  0
TEXT
  5
19E4D
  8
SUNPOU
 10
440.702867244755
 20
892.23989849104134
 30
0.0
 40
30.0
  1
ネカセ棒
 41
0.8
  7
EXT08
  0
LINE
  5
1A821
  8
HATCH
 10
750.64059495548986
 20
642.08889876454123
 30
0.0
 11
837.64738174554066
 21
729.0956855545918
 31
0.0
  0
LINE
  5
1A822
  8
HATCH
 10
762.64738174554077
 20
636.41801605459204
 30
0.0
 11
837.64738174554066
 21
711.41801605459204
 31
0.0
  0
LINE
  5
1A823
  8
HATCH
 10
626.89690817750875
 20
642.08889876454145
 30
0.0
 11
643.89738174554077
 21
659.08937233257348
 31
0.0
  0
LINE
  5
1A9C2
  8
SJC
 10
1400.3632148795421
 20
2255.0225270829969
 30
0.0
 11
1400.363214879633
 21
2052.1552704459341
 31
0.0
  0
LINE
  5
1A9C3
  8
SJC
 10
1400.3632148796371
 20
2013.0225270829269
 30
0.0
 11
1400.3632148797269
 21
1810.155270446028
 31
0.0
  0
DIMENSION
  5
1AAC4
  8
SUNPOU
  2
*D14
 10
233.93867437074709
 20
387.58889876454128
 30
0.0
 11
206.93867437074701
 21
337.5888987645414
 31
0.0
 70
     0
 13
487.64738174554083
 23
287.58889876454123
 33
0.0
 14
477.64738174554049
 24
387.58889876454123
 34
0.0
 50
90.0
1001
ACAD
1000
DSTYLE
1002
{
1070
   287
1070
     5
1070
    40
1040
10.0
1070
    41
1040
2.0
1070
    42
1040
1.0
1070
    43
1040
6.0
1070
    44
1040
1.0
1070
    73
1070
     0
1070
    74
1070
     0
1070
    77
1070
     1
1070
    78
1070
     8
1070
   140
1040
3.0
1070
   147
1040
1.1999999999999991
1070
   172
1070
     1
1070
   179
1070
     2
1070
   271
1070
     2
1070
   279
1070
     2
1070
   340
1005
55
1002
}
  0
DIMENSION
  5
1AAD3
  8
SUNPOU
  2
*D15
 10
487.64738174554083
 20
177.33611180880141
 30
0.0
 11
687.64738174554077
 21
204.33611180880141
 31
0.0
 70
     0
  1
□400
 13
887.64738174554066
 23
287.58889876454123
 33
0.0
 14
487.64738174554083
 24
287.58889876454123
 34
0.0
1001
ACAD
1000
DSTYLE
1002
{
1070
   287
1070
     5
1070
    40
1040
10.0
1070
    41
1040
2.0
1070
    42
1040
1.0
1070
    43
1040
6.0
1070
    44
1040
1.0
1070
    73
1070
     0
1070
    74
1070
     0
1070
    77
1070
     1
1070
    78
1070
     8
1070
   140
1040
3.0
1070
   147
1040
1.1999999999999991
1070
   172
1070
     1
1070
   179
1070
     2
1070
   271
1070
     2
1070
   279
1070
     2
1070
   340
1005
55
1002
}
  0
LINE
  5
1ABA3
  8
SJC
 10
755.64738174554157
 20
1777.588898764541
 30
0.0
 11
687.64738174554077
 21
1777.588898764541
 31
0.0
  0
LINE
  5
1ABA4
  8
SJC
 10
687.64738174554077
 20
1777.588898764541
 30
0.0
 11
619.64738174554168
 21
1777.588898764541
 31
0.0
  0
LINE
  5
1ABA5
  8
SJC
 10
619.64738174553975
 20
1772.5888987645401
 30
0.0
 11
755.6473817455435
 21
1772.588898764541
 31
0.0
  0
ARC
  5
1ABAA
  8
SJC
 10
619.64738174553975
 20
1765.588898764541
 30
0.0
 40
12.0
 50
90.0
 51
180.0
  0
ARC
  5
1ABAB
  8
SJC
 10
619.64738174553975
 20
1765.588898764541
 30
0.0
 40
7.0
 50
90.0
 51
180.0
  0
ARC
  5
1ABAF
  8
SJC
 10
755.6473817455435
 20
1765.588898764541
 30
0.0
 40
12.0
 50
0.0
 51
90.0
  0
ARC
  5
1ABB0
  8
SJC
 10
755.6473817455435
 20
1765.588898764541
 30
0.0
 40
7.0
 50
0.0
 51
90.0
  0
LINE
  5
1AC91
  8
SJC
 10
1370.3632148799111
 20
1665.0888987646811
 30
0.0
 11
1370.3632148799111
 21
1595.0888987646661
 31
0.0
  0
LINE
  5
1AC92
  8
SJC
 10
1370.363214879912
 20
1595.088898764443
 30
0.0
 11
1370.363214879912
 21
1665.088898764456
 31
0.0
  0
LINE
  5
1AC93
  8
SJC
 10
1368.3632148798561
 20
1777.588898764471
 30
0.0
 11
1366.3632148797451
 21
1777.5888987644721
 31
0.0
  0
LINE
  5
1AC96
  8
SJC
 10
1421.8632148806009
 20
1777.5888987644889
 30
0.0
 11
1367.3632148806021
 21
1777.588898764471
 31
0.0
  0
ARC
  5
1AC99
  8
SJC
 10
1368.3632148797451
 20
1775.5888987645019
 30
0.0
 40
2.0
 50
0.0000000000260551
 51
90.0
  0
ARC
  5
1AC9A
  8
SJC
 10
1366.3632148797451
 20
1775.5888987645019
 30
0.0
 40
2.0
 50
90.0
 51
180.00000000001299
  0
LINE
  5
1AC9C
  8
SJC
 10
1370.3632148797451
 20
1775.5888987645039
 30
0.0
 11
1370.3632148798119
 21
1269.5888987644851
 31
0.0
  0
LINE
  5
1AC9D
  8
SJC
 10
1426.863214880487
 20
1772.5888987644801
 30
0.0
 11
1426.8632148804811
 21
1755.5011710060201
 31
0.0
  0
ARC
  5
1AC9E
  8
SJC
 10
1421.863214880487
 20
1772.5888987644821
 30
0.0
 40
5.0
 50
359.99999999997402
 51
90.0
  0
LINE
  5
1ACA0
  8
CENTER
 10
1416.8632148804861
 20
1763.0888987644839
 30
0.0
 11
1416.8632148804829
 21
1754.0888987644839
 31
0.0
  0
LINE
  5
1ACA1
  8
CENTER
 10
1421.363214880485
 20
1758.5888987644821
 30
0.0
 11
1412.363214880485
 21
1758.5888987644851
 31
0.0
  0
CIRCLE
  5
1ACA2
  8
SJC
 10
1416.863214880485
 20
1758.5888987644839
 30
0.0
 40
4.5
  0
LINE
  5
1ACA3
  8
SJC
 10
1364.3632148797469
 20
1775.5888987645019
 30
0.0
 11
1364.3632148797469
 21
1269.5888987644851
 31
0.0
  0
LINE
  5
1ACA4
  8
SJC
 10
1423.0657847448631
 20
1750.647942624699
 30
0.0
 11
1370.363214879756
 21
1737.5888987645019
 31
0.0
  0
ARC
  5
1ACA5
  8
SJC
 10
1421.8632148804811
 20
1755.501171006021
 30
0.0
 40
5.0
 50
283.9168774331053
 51
359.99999999997402
  0
LINE
  5
1ACA6
  8
SJC
 10
1368.3632148798561
 20
1267.5888987644839
 30
0.0
 11
1366.363214879857
 21
1267.5888987644851
 31
0.0
  0
ARC
  5
1ACA7
  8
SJC
 10
1368.363214879857
 20
1269.5888987644839
 30
0.0
 40
2.0
 50
270.0
 51
359.99999999997402
  0
ARC
  5
1ACA8
  8
SJC
 10
1366.363214879857
 20
1269.5888987644851
 30
0.0
 40
2.0
 50
179.99999999998701
 51
270.0
  0
LINE
  5
1ACAA
  8
SJC
 10
1426.8632148805989
 20
1272.588898764506
 30
0.0
 11
1426.863214880593
 21
1289.6766265229669
 31
0.0
  0
ARC
  5
1ACAB
  8
SJC
 10
1421.8632148805989
 20
1272.5888987645039
 30
0.0
 40
5.0
 50
270.0
 51
0.0000000000260551
  0
LINE
  5
1ACAC
  8
SJC
 10
1421.8632148806009
 20
1267.5888987645019
 30
0.0
 11
1367.3632148806021
 21
1267.5888987644839
 31
0.0
  0
LINE
  5
1ACAD
  8
CENTER
 10
1416.863214880598
 20
1282.0888987645019
 30
0.0
 11
1416.863214880595
 21
1291.0888987645019
 31
0.0
  0
LINE
  5
1ACAE
  8
CENTER
 10
1421.3632148805971
 20
1286.5888987645039
 30
0.0
 11
1412.3632148805971
 21
1286.588898764501
 31
0.0
  0
CIRCLE
  5
1ACAF
  8
SJC
 10
1416.8632148805971
 20
1286.5888987645019
 30
0.0
 40
4.5
  0
LINE
  5
1ACB0
  8
SJC
 10
1423.065784744975
 20
1294.529854904288
 30
0.0
 11
1370.3632148798681
 21
1307.5888987644839
 31
0.0
  0
ARC
  5
1ACB1
  8
SJC
 10
1421.8632148805921
 20
1289.6766265229651
 30
0.0
 40
5.0
 50
0.0000000000260551
 51
76.083122566894787
  0
LINE
  5
1ACB2
  8
SJC
 10
1400.3632148796539
 20
1745.022527082956
 30
0.0
 11
1400.3632148797051
 21
1542.1552704458809
 31
0.0
  0
CIRCLE
  5
1ACB3
  8
SJC
 10
1416.863214879746
 20
1758.5888987644839
 30
0.0
 40
4.0
  0
LINE
  5
1ACB4
  8
SJC2
 10
1416.437682964852
 20
1761.567622168739
 30
0.0
 11
1417.28874679464
 21
1761.567622168739
 31
0.0
  0
LINE
  5
1ACB5
  8
SJC2
 10
1419.841938284002
 20
1759.014430679377
 30
0.0
 11
1419.841938284002
 21
1758.163366849589
 31
0.0
  0
LINE
  5
1ACB6
  8
SJC2
 10
1413.8844914754909
 20
1759.014430679377
 30
0.0
 11
1413.8844914754909
 21
1758.163366849589
 31
0.0
  0
LINE
  5
1ACB7
  8
SJC2
 10
1416.437682964852
 20
1755.6101753602291
 30
0.0
 11
1417.28874679464
 21
1755.6101753602291
 31
0.0
  0
ARC
  5
1ACB8
  8
SJC2
 10
1419.841938284002
 20
1755.6101753602291
 30
0.0
 40
2.5531914893616769
 50
90.0
 51
180.0
  0
ARC
  5
1ACB9
  8
SJC2
 10
1413.8844914754909
 20
1755.6101753602291
 30
0.0
 40
2.5531914893616769
 50
0.0
 51
90.0
  0
ARC
  5
1ACBA
  8
SJC2
 10
1419.841938284002
 20
1761.567622168739
 30
0.0
 40
2.5531914893616769
 50
180.0
 51
270.0
  0
ARC
  5
1ACBB
  8
SJC2
 10
1413.8844914754909
 20
1761.567622168739
 30
0.0
 40
2.5531914893616769
 50
270.0
 51
0.0
  0
CIRCLE
  5
1ACBC
  8
SJC
 10
1416.863214879008
 20
1286.5888987645019
 30
0.0
 40
4.0
  0
LINE
  5
1ACBD
  8
SJC2
 10
1416.4376829641139
 20
1289.567622168757
 30
0.0
 11
1417.288746793902
 21
1289.567622168757
 31
0.0
  0
LINE
  5
1ACBE
  8
SJC2
 10
1419.8419382832631
 20
1287.0144306793959
 30
0.0
 11
1419.8419382832631
 21
1286.1633668496081
 31
0.0
  0
LINE
  5
1ACBF
  8
SJC2
 10
1413.8844914747519
 20
1287.0144306793959
 30
0.0
 11
1413.8844914747519
 21
1286.1633668496081
 31
0.0
  0
LINE
  5
1ACC0
  8
SJC2
 10
1416.4376829641139
 20
1283.610175360247
 30
0.0
 11
1417.288746793902
 21
1283.610175360247
 31
0.0
  0
ARC
  5
1ACC1
  8
SJC2
 10
1419.8419382832631
 20
1283.610175360247
 30
0.0
 40
2.5531914893616769
 50
90.0
 51
180.0
  0
ARC
  5
1ACC2
  8
SJC2
 10
1413.8844914747519
 20
1283.610175360247
 30
0.0
 40
2.5531914893616769
 50
0.0
 51
90.0
  0
ARC
  5
1ACC3
  8
SJC2
 10
1419.8419382832631
 20
1289.567622168757
 30
0.0
 40
2.5531914893616769
 50
180.0
 51
270.0
  0
ARC
  5
1ACC4
  8
SJC2
 10
1413.8844914747519
 20
1289.567622168757
 30
0.0
 40
2.5531914893616769
 50
270.0
 51
0.0
  0
LINE
  5
1AE6F
  8
CENTER
 10
2129.8293558282348
 20
1746.5071785367929
 30
0.0
 11
2129.8293558282348
 21
76.507178536804531
 31
0.0
  0
LINE
  5
1AE70
  8
SUNPOU
 10
2159.8293558282348
 20
106.5071785368054
 30
0.0
 11
2159.8293558282348
 21
76.507178536804531
 31
0.0
  0
LINE
  5
1AE71
  8
SUNPOU
 10
2099.8293558282348
 20
136.5071785368045
 30
0.0
 11
2099.8293558282348
 21
106.5071785368054
 31
0.0
  0
LINE
  5
1AE76
  8
SJC
 10
2217.3293558282348
 20
366.50717853677497
 30
0.0
 11
2217.3293558282348
 21
106.5071785368043
 31
0.0
1001
ACAD
1000
ASC_BOUNDS
1002
{
1070
    19
1005
0
1002
}
  0
LINE
  5
1AE77
  8
SJC
 10
2042.3293558282339
 20
366.50717853677497
 30
0.0
 11
2042.3293558282351
 21
106.50717853680599
 31
0.0
1001
ACAD
1000
ASC_BOUNDS
1002
{
1070
    19
1005
0
1002
}
  0
LINE
  5
1AE78
  8
SJC
 10
2042.3293558282351
 20
1686.507178536807
 30
0.0
 11
2217.3293558282348
 21
1686.507178536807
 31
0.0
  0
ARC
  5
1AE79
  8
SJC
 10
2129.8293558282348
 20
1610.804053536765
 30
0.0
 40
115.7031250000273
 50
40.865657358807582
 51
139.1343426411924
  0
LINE
  5
1AE7A
  8
SJC
 10
1993.829355828233
 20
1596.5071785368041
 30
0.0
 11
2265.8293558282398
 21
1596.507178536805
 31
0.0
  0
LINE
  5
1AE7B
  8
SJC
 10
2042.3293558282351
 20
1686.507178536807
 30
0.0
 11
2042.3293558282351
 21
1606.507178536805
 31
0.0
  0
LINE
  5
1AE7C
  8
SJC
 10
2217.3293558282348
 20
1686.507178536807
 30
0.0
 11
2217.3293558282348
 21
1606.5071785368041
 31
0.0
  0
LINE
  5
1AE7E
  8
HATCH
 10
2042.3293558282351
 20
1686.507178536807
 30
0.0
 11
2217.3293558282348
 21
1686.507178536807
 31
0.0
  0
LINE
  5
1AE7F
  8
HATCH
 10
2217.3293558282348
 20
1686.507178536807
 30
0.0
 11
2217.3293558282348
 21
1606.507178536805
 31
0.0
  0
LINE
  5
1AE80
  8
HATCH
 10
2217.3293558282348
 20
1606.507178536805
 30
0.0
 11
2042.3293558282351
 21
1606.507178536805
 31
0.0
  0
LINE
  5
1AE81
  8
HATCH
 10
2042.3293558282351
 20
1606.507178536805
 30
0.0
 11
2042.329355828233
 21
1686.507178536805
 31
0.0
  0
LINE
  5
1AE82
  8
SJC
 10
1993.8293558282351
 20
376.50717853677588
 30
0.0
 11
2265.8293558282348
 21
376.50717853677628
 31
0.0
  0
ARC
  5
1AE87
  8
SJC
 10
1993.829355828233
 20
1582.507178536805
 30
0.0
 40
24.0
 50
90.0
 51
180.0
  0
ARC
  5
1AE88
  8
SJC
 10
1993.829355828233
 20
1582.507178536805
 30
0.0
 40
14.0
 50
90.0
 51
180.0
  0
ARC
  5
1AE8A
  8
SJC
 10
2265.8293558282348
 20
390.50717853677639
 30
0.0
 40
24.0
 50
270.0
 51
0.0
  0
ARC
  5
1AE8B
  8
SJC
 10
2265.8293558282348
 20
390.50717853677639
 30
0.0
 40
14.0
 50
270.0
 51
0.0
  0
ARC
  5
1AE8C
  8
SJC
 10
2265.8293558282398
 20
1582.507178536805
 30
0.0
 40
24.0
 50
0.0
 51
90.0
  0
ARC
  5
1AE8D
  8
SJC
 10
2265.8293558282398
 20
1582.507178536805
 30
0.0
 40
14.0
 50
0.0
 51
90.0
  0
ARC
  5
1AE8E
  8
SJC
 10
1993.8293558282351
 20
390.50717853677588
 30
0.0
 40
24.0
 50
180.0
 51
270.0
  0
ARC
  5
1AE8F
  8
SJC
 10
1993.8293558282351
 20
390.50717853677588
 30
0.0
 40
14.0
 50
180.0
 51
270.0
  0
LINE
  5
1AE90
  8
SJC
 10
2265.8293558282398
 20
1606.507178536805
 30
0.0
 11
1993.829355828233
 21
1606.507178536805
 31
0.0
  0
LINE
  5
1AE91
  8
SJC
 10
2265.8293558282371
 20
986.50717853677725
 30
0.0
 11
2129.8293558282348
 21
986.50717853677577
 31
0.0
  0
LINE
  5
1AE92
  8
SUNPOU
 10
2255.8293558282389
 20
106.50717853680629
 30
0.0
 11
2159.8293558282348
 21
106.5071785368054
 31
0.0
  0
LINE
  5
1AE93
  8
SJC
 10
2129.8293558282348
 20
986.50717853677577
 30
0.0
 11
1993.8293558282371
 21
986.50717853677645
 31
0.0
  0
LINE
  5
1AE94
  8
CENTER
 10
2881.978662656893
 20
1746.5071785367929
 30
0.0
 11
2881.978662656893
 21
76.507178536804531
 31
0.0
  0
LINE
  5
1AE96
  8
SJC
 10
2969.478662656893
 20
1686.507178536807
 30
0.0
 11
2969.478662656893
 21
539.50717853680464
 31
0.0
1001
ACAD
1000
ASC_BOUNDS
1002
{
1070
    19
1005
0
1002
}
  0
LINE
  5
1AE97
  8
SJC
 10
2794.4786626568912
 20
366.50717853674672
 30
0.0
 11
2794.4786626568921
 21
106.5071785367988
 31
0.0
1001
ACAD
1000
ASC_BOUNDS
1002
{
1070
    19
1005
0
1002
}
  0
LINE
  5
1AE98
  8
SJC
 10
2794.478662656893
 20
1686.507178536807
 30
0.0
 11
2969.478662656893
 21
1686.507178536807
 31
0.0
  0
ARC
  5
1AE99
  8
SJC
 10
2881.978662656893
 20
1610.804053536765
 30
0.0
 40
115.7031250000273
 50
40.865657358807582
 51
139.1343426411924
  0
LINE
  5
1AE9A
  8
SJC
 10
2794.478662656893
 20
1686.507178536807
 30
0.0
 11
2794.478662656893
 21
1606.507178536805
 31
0.0
  0
LINE
  5
1AE9C
  8
HATCH
 10
2794.478662656893
 20
1686.507178536807
 30
0.0
 11
2969.478662656893
 21
1686.507178536807
 31
0.0
1001
ACAD
1000
ASC_BOUNDS
1002
{
1070
    19
1005
1BE93
1005
1BE92
1002
}
  0
LINE
  5
1AE9D
  8
HATCH
 10
2969.478662656893
 20
1686.507178536807
 30
0.0
 11
2969.478662656893
 21
1606.507178536805
 31
0.0
1001
ACAD
1000
ASC_BOUNDS
1002
{
1070
    19
1005
1BE93
1005
1BE92
1002
}
  0
LINE
  5
1AE9E
  8
HATCH
 10
2969.478662656893
 20
1606.507178536805
 30
0.0
 11
2794.478662656893
 21
1606.507178536805
 31
0.0
1001
ACAD
1000
ASC_BOUNDS
1002
{
1070
    19
1005
1BE93
1005
1BE92
1002
}
  0
LINE
  5
1AE9F
  8
HATCH
 10
2794.478662656893
 20
1606.507178536805
 30
0.0
 11
2794.4786626568912
 21
1686.507178536805
 31
0.0
1001
ACAD
1000
ASC_BOUNDS
1002
{
1070
    19
1005
1BE93
1005
1BE92
1002
}
  0
LINE
  5
1AEA2
  8
SJC
 10
2788.9786626570012
 20
1596.5071785368209
 30
0.0
 11
2788.9786626570012
 21
1456.5071785367929
 31
0.0
  0
LINE
  5
1AEA3
  8
SJC
 10
2784.978662656888
 20
1606.50717853681
 30
0.0
 11
2780.978662656888
 21
1606.5071785368079
 31
0.0
  0
ARC
  5
1AEA4
  8
SJC
 10
2784.9786626568889
 20
1602.50717853681
 30
0.0
 40
4.0
 50
0.0000000000260551
 51
90.0
  0
ARC
  5
1AEA5
  8
SJC
 10
2780.9786626568889
 20
1602.5071785368079
 30
0.0
 40
4.0
 50
90.0
 51
180.00000000001299
  0
LINE
  5
1AEA6
  8
SJC
 10
2776.9786626568889
 20
1602.5071785368059
 30
0.0
 11
2776.978662656893
 21
1597.507178536805
 31
0.0
  0
LINE
  5
1AEA9
  8
SJC
 10
2901.9786626583741
 20
1596.5071785367661
 30
0.0
 11
2901.9786626583609
 21
1562.331723019845
 31
0.0
  0
ARC
  5
1AEAA
  8
SJC
 10
2891.9786626583741
 20
1596.5071785367691
 30
0.0
 40
10.0
 50
359.99999999997402
 51
90.0
  0
LINE
  5
1AEAB
  8
SJC
 10
2891.9786626583768
 20
1606.507178536775
 30
0.0
 11
2784.9786626568912
 21
1606.50717853681
 31
0.0
  0
LINE
  5
1AEAC
  8
CENTER
 10
2881.9786626583718
 20
1577.5071785367711
 30
0.0
 11
2881.9786626583668
 21
1559.507178536772
 31
0.0
  0
LINE
  5
1AEAD
  8
CENTER
 10
2890.97866265837
 20
1568.5071785367691
 30
0.0
 11
2872.97866265837
 21
1568.5071785367741
 31
0.0
  0
LINE
  5
1AEB2
  8
SJC
 10
2894.3838023871249
 20
1552.6252662572019
 30
0.0
 11
2788.9786626569112
 21
1526.5071785368091
 31
0.0
  0
ARC
  5
1AEB3
  8
SJC
 10
2891.9786626583609
 20
1562.3317230198479
 30
0.0
 40
10.0
 50
283.9168774331053
 51
359.99999999997402
  0
LINE
  5
1AEB4
  8
SJC
 10
2784.978662655406
 20
986.50717853677486
 30
0.0
 11
2780.978662655406
 21
986.50717853677668
 31
0.0
  0
LINE
  5
1AEBA
  8
SJC
 10
2891.9786626568962
 20
986.50717853680965
 30
0.0
 11
2784.9786626554092
 21
986.50717853677486
 31
0.0
  0
CIRCLE
  5
1AEC7
  8
SJC
 10
2129.8293558282348
 20
2068.9195343433471
 30
0.0
 40
86.999999999999076
  0
CIRCLE
  5
1AEC8
  8
SJC
 10
2129.8293558282348
 20
2068.9195343433471
 30
0.0
 40
88.999999999999091
  0
CIRCLE
  5
1AEC9
  8
SJC
 10
2129.8293558282348
 20
2068.9195343433471
 30
0.0
 40
76.999999999999091
  0
CIRCLE
  5
1AECA
  8
SJC
 10
2129.8293558282348
 20
2149.9195343433471
 30
0.0
 40
0.5
  0
CIRCLE
  5
1AECB
  8
SJC
 10
2104.7989792838648
 20
2145.9551121632539
 30
0.0
 40
0.5
  0
CIRCLE
  5
1AECC
  8
SJC
 10
2117.158164159976
 20
2148.9222899315532
 30
0.0
 40
0.5
  0
CIRCLE
  5
1AECD
  8
SJC
 10
2082.2187503925452
 20
2134.4499108877171
 30
0.0
 40
0.5
  0
CIRCLE
  5
1AECE
  8
SJC
 10
2093.056125349332
 20
2141.0910628026049
 30
0.0
 40
0.5
  0
CIRCLE
  5
1AECF
  8
SJC
 10
2072.5537065521248
 20
2126.1951836194571
 30
0.0
 40
0.5
  0
CIRCLE
  5
1AED0
  8
SJC
 10
2206.8649336481408
 20
2043.8891577989771
 30
0.0
 40
0.5
  0
CIRCLE
  5
1AED1
  8
SJC
 10
2064.2989792838648
 20
2116.5301397790372
 30
0.0
 40
0.5
  0
CIRCLE
  5
1AED2
  8
SJC
 10
2057.6578273689779
 20
2105.69276482225
 30
0.0
 40
0.5
  0
CIRCLE
  5
1AED3
  8
SJC
 10
2052.7937780083289
 20
2093.949910887718
 30
0.0
 40
0.5
  0
CIRCLE
  5
1AED4
  8
SJC
 10
2049.8266002400301
 20
2081.590726011606
 30
0.0
 40
0.5
  0
CIRCLE
  5
1AED5
  8
SJC
 10
2048.8293558282362
 20
2068.9195343433471
 30
0.0
 40
0.5
  0
CIRCLE
  5
1AED6
  8
SJC
 10
2049.8266002400301
 20
2056.2483426750891
 30
0.0
 40
0.5
  0
CIRCLE
  5
1AED7
  8
SJC
 10
2052.7937780083289
 20
2043.8891577989771
 30
0.0
 40
0.5
  0
CIRCLE
  5
1AED8
  8
SJC
 10
2057.6578273689779
 20
2032.146303864444
 30
0.0
 40
0.5
  0
CIRCLE
  5
1AED9
  8
SJC
 10
2064.2989792838648
 20
2021.3089289076579
 30
0.0
 40
0.5
  0
CIRCLE
  5
1AEDA
  8
SJC
 10
2072.5537065521262
 20
2011.643885067238
 30
0.0
 40
0.5
  0
CIRCLE
  5
1AEDB
  8
SJC
 10
2082.2187503925452
 20
2003.389157798978
 30
0.0
 40
0.5
  0
CIRCLE
  5
1AEDC
  8
SJC
 10
2093.056125349332
 20
1996.7480058840899
 30
0.0
 40
0.5
  0
CIRCLE
  5
1AEDD
  8
SJC
 10
2104.7989792838648
 20
1991.8839565234409
 30
0.0
 40
0.5
  0
CIRCLE
  5
1AEDE
  8
SJC
 10
2117.1581641599769
 20
1988.9167787551421
 30
0.0
 40
0.5
  0
CIRCLE
  5
1AEDF
  8
SJC
 10
2129.8293558282348
 20
1987.919534343348
 30
0.0
 40
0.5
  0
CIRCLE
  5
1AEE0
  8
SJC
 10
2142.5005474964942
 20
1988.9167787551421
 30
0.0
 40
0.5
  0
CIRCLE
  5
1AEE1
  8
SJC
 10
2154.8597323726049
 20
1991.8839565234409
 30
0.0
 40
0.5
  0
CIRCLE
  5
1AEE2
  8
SJC
 10
2166.6025863071382
 20
1996.7480058840899
 30
0.0
 40
0.5
  0
CIRCLE
  5
1AEE3
  8
SJC
 10
2177.4399612639249
 20
2003.389157798978
 30
0.0
 40
0.5
  0
CIRCLE
  5
1AEE4
  8
SJC
 10
2187.1050051043449
 20
2011.643885067238
 30
0.0
 40
0.5
  0
CIRCLE
  5
1AEE5
  8
SJC
 10
2195.3597323726049
 20
2021.3089289076579
 30
0.0
 40
0.5
  0
CIRCLE
  5
1AEE6
  8
SJC
 10
2202.0008842874922
 20
2032.1463038644449
 30
0.0
 40
0.5
  0
CIRCLE
  5
1AEE7
  8
SJC
 10
2209.8321114164401
 20
2056.24834267509
 30
0.0
 40
0.5
  0
CIRCLE
  5
1AEE8
  8
SJC
 10
2210.8293558282339
 20
2068.9195343433471
 30
0.0
 40
0.5
  0
CIRCLE
  5
1AEE9
  8
SJC
 10
2209.8321114164401
 20
2081.590726011606
 30
0.0
 40
0.5
  0
CIRCLE
  5
1AEEA
  8
SJC
 10
2206.8649336481408
 20
2093.949910887718
 30
0.0
 40
0.5
  0
CIRCLE
  5
1AEEB
  8
SJC
 10
2195.3597323726049
 20
2116.5301397790372
 30
0.0
 40
0.5
  0
CIRCLE
  5
1AEEC
  8
SJC
 10
2202.0008842874922
 20
2105.69276482225
 30
0.0
 40
0.5
  0
CIRCLE
  5
1AEED
  8
SJC
 10
2187.1050051043449
 20
2126.1951836194571
 30
0.0
 40
0.5
  0
CIRCLE
  5
1AEEE
  8
SJC
 10
2177.4399612639249
 20
2134.4499108877171
 30
0.0
 40
0.5
  0
CIRCLE
  5
1AEEF
  8
SJC
 10
2166.6025863071382
 20
2141.0910628026049
 30
0.0
 40
0.5
  0
CIRCLE
  5
1AEF0
  8
SJC
 10
2142.5005474964942
 20
2148.9222899315532
 30
0.0
 40
0.5
  0
CIRCLE
  5
1AEF1
  8
SJC
 10
2154.8597323726049
 20
2145.9551121632539
 30
0.0
 40
0.5
  0
TEXT
  5
1AEF2
  8
MOJI2
 10
1939.9569878507409
 20
1903.621775993179
 30
0.0
 40
40.0
  1
A-A 断面図 S=1/5
 41
0.8
  7
EXT08
  0
LINE
  5
1AEF3
  8
SJC
 10
1926.240693278394
 20
1884.8305500467461
 30
0.0
 11
2363.2692647069662
 21
1884.8305500467461
 31
0.0
  0
TEXT
  5
1AEF4
  8
SUNPOU
 10
1864.1372512987709
 20
2155.3160885340289
 30
0.0
 40
30.0
  1
ガラス繊維
 41
0.8
  7
EXT08
  0
TEXT
  5
1AEF5
  8
SUNPOU
 10
2187.853176878521
 20
2228.3835713803919
 30
0.0
 40
30.0
  1
リサイクル原料
 41
0.8
  7
EXT08
  0
INSERT
  5
1AEF6
  8
0
  2
*U34
 10
0.0
 20
0.0
 30
0.0
1001
ACAD
1000
DSTYLE
1002
{
1070
    41
1040
2.0
1070
    77
1070
     0
1070
    40
1040
10.0
1070
   147
1040
1.1999999999999991
1070
   176
1070
     0
1070
   177
1070
     0
1070
   178
1070
     0
1070
   179
1070
     2
1070
   271
1070
     2
1002
}
  0
INSERT
  5
1AEF7
  8
0
  2
*U35
 10
0.0
 20
0.0
 30
0.0
1001
ACAD
1000
DSTYLE
1002
{
1070
    41
1040
2.0
1070
    77
1070
     0
1070
    40
1040
10.0
1070
   147
1040
1.1999999999999991
1070
   176
1070
     0
1070
   177
1070
     0
1070
   178
1070
     0
1070
   179
1070
     2
1070
   271
1070
     2
1002
}
  0
TEXT
  5
1AEF8
  8
SUNPOU
 10
2228.377861442365
 20
2173.3981399343788
 30
0.0
 40
30.0
  1
(内層材)
 41
0.8
  7
EXT08
  0
LINE
  5
1AEF9
  8
SUNPOU
 10
2003.829355828231
 20
106.50717853680629
 30
0.0
 11
2099.8293558282348
 21
106.5071785368054
 31
0.0
  0
LINE
  5
1AEFA
  8
SUNPOU
 10
2099.8293558282348
 20
136.5071785368045
 30
0.0
 11
2159.8293558282348
 21
76.507178536804531
 31
0.0
  0
LINE
  5
1AEFB
  8
SUNPOU
 10
2911.978662656893
 20
106.5071785368054
 30
0.0
 11
2911.978662656893
 21
76.507178536804531
 31
0.0
  0
LINE
  5
1AEFC
  8
SUNPOU
 10
2851.978662656893
 20
136.5071785368045
 30
0.0
 11
2851.978662656893
 21
106.5071785368054
 31
0.0
  0
LINE
  5
1AEFD
  8
SUNPOU
 10
3007.9786626568971
 20
106.50717853680629
 30
0.0
 11
2911.978662656893
 21
106.5071785368054
 31
0.0
  0
LINE
  5
1AEFE
  8
SUNPOU
 10
2755.9786626568898
 20
106.50717853680629
 30
0.0
 11
2851.978662656893
 21
106.5071785368054
 31
0.0
  0
LINE
  5
1AEFF
  8
SUNPOU
 10
2851.978662656893
 20
136.5071785368045
 30
0.0
 11
2911.978662656893
 21
76.507178536804531
 31
0.0
  0
TEXT
  5
1AF00
  8
SUNPOU
 10
1944.4097130482569
 20
272.0418873132603
 30
0.0
 40
30.0
  1
A
 41
0.8
  7
EXT08
  0
TEXT
  5
1AF01
  8
SUNPOU
 10
2289.409713048256
 20
272.0418873132603
 30
0.0
 40
30.0
  1
A
 41
0.8
  7
EXT08
  0
LINE
  5
1AF02
  8
SUNPOU
 10
2287.3293558281571
 20
227.4962114042082
 30
0.0
 11
2317.3293558281571
 21
227.4962114042082
 31
0.0
  0
LINE
  5
1AF03
  8
SUNPOU
 10
2317.3293558281571
 20
227.4962114042082
 30
0.0
 11
2302.3293558281571
 21
192.4962114042082
 31
0.0
  0
LINE
  5
1AF04
  8
SUNPOU
 10
2302.3293558281571
 20
192.4962114042082
 30
0.0
 11
2302.3293558281571
 21
251.6149499584017
 31
0.0
  0
LINE
  5
1AF05
  8
SUNPOU
 10
2302.3293558281571
 20
251.6149499584017
 30
0.0
 11
1957.3293558281559
 21
251.6149499584017
 31
0.0
  0
LINE
  5
1AF06
  8
SUNPOU
 10
1957.3293558281559
 20
251.6149499584017
 30
0.0
 11
1957.3293558281559
 21
192.4962114042082
 31
0.0
  0
LINE
  5
1AF07
  8
SUNPOU
 10
1957.3293558281559
 20
192.4962114042082
 30
0.0
 11
1942.3293558281571
 21
227.4962114042082
 31
0.0
  0
LINE
  5
1AF08
  8
SUNPOU
 10
1942.3293558281571
 20
227.4962114042082
 30
0.0
 11
1972.3293558281559
 21
227.4962114042082
 31
0.0
  0
DIMENSION
  5
1AF0C
  8
SUNPOU
  2
*D16
 10
2289.8293558282398
 20
1769.019615007488
 30
0.0
 11
2129.8293558282371
 21
1796.019615007488
 31
0.0
 70
     0
 13
1969.829355828233
 23
1582.507178536805
 33
0.0
 14
2289.8293558282398
 24
1582.507178536805
 34
0.0
1001
ACAD
1000
DSTYLE
1002
{
1070
   287
1070
     5
1070
   144
1040
0.5
1070
    40
1040
10.0
1070
    41
1040
2.0
1070
    42
1040
1.0
1070
    43
1040
6.0
1070
    44
1040
1.0
1070
    73
1070
     0
1070
    74
1070
     0
1070
    77
1070
     1
1070
    78
1070
     8
1070
   140
1040
3.0
1070
   147
1040
1.1999999999999991
1070
   172
1070
     1
1070
   179
1070
     2
1070
   271
1070
     2
1070
   279
1070
     2
1070
   340
1005
55
1002
}
  0
DIMENSION
  5
1AF0D
  8
SUNPOU
  2
*D17
 10
1979.829355828236
 20
1309.9938276009959
 30
0.0
 11
1949.30823992303
 21
1336.8732372665361
 31
0.0
 70
   128
 13
1969.8293558282351
 23
1266.3221542296089
 33
0.0
 14
1979.829355828236
 24
1266.3221542296089
 34
0.0
1001
ACAD
1000
DSTYLE
1002
{
1070
   287
1070
     5
1070
   144
1040
0.5
1070
    40
1040
10.0
1070
    41
1040
2.0
1070
    42
1040
1.0
1070
    43
1040
6.0
1070
    44
1040
1.0
1070
    73
1070
     0
1070
    74
1070
     0
1070
    77
1070
     1
1070
    78
1070
     8
1070
   140
1040
3.0
1070
   147
1040
1.1999999999999991
1070
   172
1070
     1
1070
   179
1070
     2
1070
   271
1070
     2
1070
   279
1070
     2
1070
   340
1005
55
1002
}
  0
DIMENSION
  5
1AF0E
  8
SUNPOU
  2
*D18
 10
2776.9786626568889
 20
1567.6570242437369
 30
0.0
 11
2749.5737873478511
 21
1593.657190926717
 31
0.0
 70
   128
 13
2788.9786626568889
 23
1467.099033344962
 33
0.0
 14
2776.9786626568889
 24
1467.099033344957
 34
0.0
1001
ACAD
1000
DSTYLE
1002
{
1070
   287
1070
     5
1070
   144
1040
0.5
1070
    40
1040
10.0
1070
    41
1040
2.0
1070
    42
1040
1.0
1070
    43
1040
6.0
1070
    44
1040
1.0
1070
    73
1070
     0
1070
    74
1070
     0
1070
    77
1070
     1
1070
    78
1070
     8
1070
   140
1040
3.0
1070
   147
1040
1.1999999999999991
1070
   172
1070
     1
1070
   179
1070
     2
1070
   271
1070
     2
1070
   279
1070
     2
1070
   340
1005
55
1002
}
  0
LINE
  5
1AF0F
  8
CENTER
 10
2881.9786626583732
 20
1577.5071785367711
 30
0.0
 11
2881.9786626583659
 21
1559.507178536772
 31
0.0
  0
CIRCLE
  5
1AF10
  8
SJC
 10
2881.9786626583691
 20
1568.507178536772
 30
0.0
 40
9.0
  0
CIRCLE
  5
1AF11
  8
SJC
 10
2881.9786626583691
 20
1568.507178536772
 30
0.0
 40
8.0
  0
LINE
  5
1AF12
  8
SJC2
 10
2881.1275988285811
 20
1574.464625345282
 30
0.0
 11
2882.8297264881562
 21
1574.464625345282
 31
0.0
  0
LINE
  5
1AF13
  8
SJC2
 10
2887.9361094668802
 20
1569.358242366558
 30
0.0
 11
2887.9361094668802
 21
1567.6561147069831
 31
0.0
  0
LINE
  5
1AF14
  8
SJC2
 10
2876.021215849858
 20
1569.358242366558
 30
0.0
 11
2876.021215849858
 21
1567.6561147069831
 31
0.0
  0
LINE
  5
1AF15
  8
SJC2
 10
2881.1275988285811
 20
1562.5497317282609
 30
0.0
 11
2882.8297264881562
 21
1562.5497317282609
 31
0.0
  0
ARC
  5
1AF16
  8
SJC2
 10
2887.9361094668802
 20
1562.5497317282609
 30
0.0
 40
5.1063829787233539
 50
90.0
 51
180.0
  0
ARC
  5
1AF17
  8
SJC2
 10
2876.021215849858
 20
1562.5497317282609
 30
0.0
 40
5.1063829787233539
 50
0.0
 51
90.0
  0
ARC
  5
1AF18
  8
SJC2
 10
2887.9361094668802
 20
1574.464625345282
 30
0.0
 40
5.1063829787233539
 50
180.0
 51
270.0
  0
ARC
  5
1AF19
  8
SJC2
 10
2876.021215849858
 20
1574.464625345282
 30
0.0
 40
5.1063829787233539
 50
270.0
 51
0.0
  0
INSERT
  5
1AF28
  8
0
  2
*U36
 10
0.0
 20
0.0
 30
0.0
1001
ACAD
1000
DSTYLE
1002
{
1070
     5
1000

1070
    40
1040
10.0
1070
    41
1040
2.0
1070
    42
1040
1.0
1070
    43
1040
6.0
1070
    44
1040
1.0
1070
    73
1070
     0
1070
    74
1070
     0
1070
    77
1070
     1
1070
    78
1070
     8
1070
   140
1040
3.0
1070
   144
1040
0.5
1070
   147
1040
1.1999999999999991
1070
   172
1070
     1
1070
   176
1070
   256
1070
   177
1070
   256
1070
   178
1070
   256
1070
   271
1070
     0
1070
   287
1070
     5
1070
   340
1005
55
1070
   342
1005
0
1002
}
  0
TEXT
  5
1AF29
  8
SUNPOU
 10
3021.8911966711339
 20
705.35804658145935
 30
0.0
 40
30.0
  1
SUS410
 41
0.8
  7
EXT08
  0
LINE
  5
1AF2A
  8
SUNPOU
 10
3019.415015895057
 20
740.18590983831734
 30
0.0
 11
3178.6430928482928
 21
740.18590983831734
 31
0.0
1001
ACAD
1000
DSTYLE
1002
{
1070
    77
1070
     0
1070
    40
1040
10.0
1070
   147
1040
1.1999999999999991
1070
   176
1070
     0
1070
   177
1070
     0
1070
   178
1070
     0
1070
   179
1070
     2
1070
   271
1070
     2
1002
}
  0
TEXT
  5
1AF2B
  8
SUNPOU
 10
3028.2828573414472
 20
745.94393033042877
 30
0.0
 40
30.0
  1
固定ビス
 41
0.8
  7
EXT08
  0
LINE
  5
1AF2C
  8
SJC
 10
1993.829355828231
 20
976.50717853677406
 30
0.0
 11
2265.829355828238
 21
976.50717853677588
 31
0.0
  0
LINE
  5
1AF2D
  8
SJC
 10
1979.829355828231
 20
962.50717853677577
 30
0.0
 11
1979.8293558282321
 21
849.50717853677497
 31
0.0
  0
LINE
  5
1AF2E
  8
SJC
 10
2279.8293558282398
 20
962.50717853677577
 30
0.0
 11
2279.8293558282389
 21
849.50717853677236
 31
0.0
  0
LINE
  5
1AF2F
  8
SJC
 10
1969.829355828231
 20
962.50717853677577
 30
0.0
 11
1969.8293558282321
 21
849.5071785367752
 31
0.0
  0
ARC
  5
1AF30
  8
SJC
 10
1993.829355828231
 20
962.50717853677577
 30
0.0
 40
24.0
 50
90.0
 51
180.0
  0
ARC
  5
1AF31
  8
SJC
 10
1993.829355828231
 20
962.50717853677577
 30
0.0
 40
14.0
 50
90.0
 51
180.0
  0
LINE
  5
1AF32
  8
SJC
 10
2289.829355828238
 20
962.50717853677577
 30
0.0
 11
2289.829355828238
 21
849.50717853677224
 31
0.0
  0
ARC
  5
1AF33
  8
SJC
 10
2265.829355828238
 20
962.50717853677577
 30
0.0
 40
24.0
 50
0.0
 51
90.0
  0
ARC
  5
1AF34
  8
SJC
 10
2265.829355828238
 20
962.50717853677577
 30
0.0
 40
14.0
 50
0.0
 51
90.0
  0
LINE
  5
1AF35
  8
SJC
 10
2265.8293558282371
 20
366.50717853677497
 30
0.0
 11
1993.8293558282289
 21
366.50717853677497
 31
0.0
  0
LINE
  5
1AF36
  8
SJC
 10
1993.829355828228
 20
996.5071785367777
 30
0.0
 11
2265.8293558282289
 21
996.50717853677816
 31
0.0
  0
ARC
  5
1AF37
  8
SJC
 10
2265.8293558282289
 20
1010.507178536778
 30
0.0
 40
24.0
 50
270.0
 51
0.0
  0
ARC
  5
1AF38
  8
SJC
 10
2265.8293558282289
 20
1010.507178536778
 30
0.0
 40
14.0
 50
270.0
 51
0.0
  0
ARC
  5
1AF39
  8
SJC
 10
1993.829355828228
 20
1010.507178536777
 30
0.0
 40
24.0
 50
180.0
 51
270.0
  0
ARC
  5
1AF3A
  8
SJC
 10
1993.829355828228
 20
1010.507178536777
 30
0.0
 40
14.0
 50
180.0
 51
270.0
  0
LINE
  5
1AF3B
  8
SJC
 10
2265.8293558282298
 20
986.50717853677668
 30
0.0
 11
1993.829355828223
 21
986.50717853677668
 31
0.0
  0
LINE
  5
1AF3C
  8
SJC
 10
2776.9786626554101
 20
977.50717853724336
 30
0.0
 11
2776.9786626554101
 21
849.50717853679805
 31
0.0
  0
LINE
  5
1AF3D
  8
SJC
 10
2788.9786626557379
 20
370.5071785367436
 30
0.0
 11
2788.9786626557388
 21
381.50717853718243
 31
0.0
  0
LINE
  5
1AF3F
  8
SJC
 10
2784.9786626554042
 20
986.50717853677872
 30
0.0
 11
2780.9786626554042
 21
986.50717853677668
 31
0.0
  0
ARC
  5
1AF40
  8
SJC
 10
2784.978662655406
 20
982.50717853677861
 30
0.0
 40
4.0
 50
0.0000000000260551
 51
90.0
  0
ARC
  5
1AF41
  8
SJC
 10
2780.978662655406
 20
982.50717853677679
 30
0.0
 40
4.0
 50
90.0
 51
180.00000000001299
  0
LINE
  5
1AF42
  8
SJC
 10
2776.978662655406
 20
982.50717853677497
 30
0.0
 11
2776.9786626554101
 21
977.50717853677406
 31
0.0
  0
LINE
  5
1AF43
  8
SJC
 10
2788.978662655406
 20
982.50717853678043
 30
0.0
 11
2788.9786626554528
 21
849.50717853679805
 31
0.0
  0
LINE
  5
1AF45
  8
SJC
 10
2901.9786626568898
 20
976.50717853673495
 30
0.0
 11
2901.978662656878
 21
942.33172301981404
 31
0.0
  0
ARC
  5
1AF46
  8
SJC
 10
2891.9786626568912
 20
976.50717853673768
 30
0.0
 40
10.0
 50
359.99999999997402
 51
90.0
  0
LINE
  5
1AF48
  8
CENTER
 10
2881.9786626568889
 20
957.50717853674041
 30
0.0
 11
2881.978662656883
 21
939.50717853674041
 31
0.0
  0
LINE
  5
1AF49
  8
CENTER
 10
2890.9786626568871
 20
948.50717853673768
 30
0.0
 11
2872.9786626568871
 21
948.50717853674314
 31
0.0
  0
LINE
  5
1AF4A
  8
SJC
 10
2788.9786626557411
 20
381.5071785367349
 30
0.0
 11
2788.9786626557411
 21
370.5071785367436
 31
0.0
  0
LINE
  5
1AF4D
  8
SJC
 10
2776.9786626554101
 20
977.50717853677406
 30
0.0
 11
2776.9786626554101
 21
849.50717853679805
 31
0.0
  0
LINE
  5
1AF4E
  8
SJC
 10
2894.383802385642
 20
932.62526625717089
 30
0.0
 11
2788.9786626554278
 21
906.5071785367777
 31
0.0
  0
ARC
  5
1AF4F
  8
SJC
 10
2891.978662656878
 20
942.33172301981665
 30
0.0
 40
10.0
 50
283.9168774331053
 51
359.99999999997402
  0
LINE
  5
1AF50
  8
SJC
 10
2784.9786626556279
 20
366.5071785367436
 30
0.0
 11
2780.9786626556279
 21
366.50717853674541
 31
0.0
  0
ARC
  5
1AF51
  8
SJC
 10
2784.9786626556302
 20
370.5071785367436
 30
0.0
 40
4.0
 50
270.0
 51
359.99999999997402
  0
ARC
  5
1AF52
  8
SJC
 10
2780.9786626556302
 20
370.50717853674541
 30
0.0
 40
4.0
 50
179.99999999998701
 51
270.0
  0
LINE
  5
1AF53
  8
SJC
 10
2776.9786626556302
 20
370.50717853674729
 30
0.0
 11
2776.9786626556338
 21
375.50717853674769
 31
0.0
  0
LINE
  5
1AF54
  8
SJC
 10
2901.978662657114
 20
376.50717853678731
 30
0.0
 11
2901.9786626571008
 21
410.68263405370811
 31
0.0
  0
ARC
  5
1AF55
  8
SJC
 10
2891.978662657114
 20
376.50717853678452
 30
0.0
 40
10.0
 50
270.0
 51
0.0000000000260551
  0
LINE
  5
1AF56
  8
SJC
 10
2891.9786626571181
 20
366.50717853677821
 30
0.0
 11
2784.9786626556311
 21
366.5071785367436
 31
0.0
  0
LINE
  5
1AF57
  8
CENTER
 10
2881.9786626571122
 20
395.5071785367814
 30
0.0
 11
2881.9786626571072
 21
413.50717853678128
 31
0.0
  0
LINE
  5
1AF58
  8
CENTER
 10
2890.9786626571108
 20
404.50717853678412
 30
0.0
 11
2872.9786626571108
 21
404.5071785367785
 31
0.0
  0
LINE
  5
1AF5B
  8
SJC
 10
2894.3838023858661
 20
420.38909081635109
 30
0.0
 11
2788.9786626556511
 21
446.50717853674399
 31
0.0
  0
ARC
  5
1AF5C
  8
SJC
 10
2891.9786626571022
 20
410.68263405370487
 30
0.0
 40
10.0
 50
0.0000000000260551
 51
76.083122566894787
  0
LINE
  5
1AF62
  8
SJC
 10
2848.9786626552241
 20
921.37443517368604
 30
0.0
 11
2848.9786626552559
 21
849.50717853679782
 31
0.0
  0
LINE
  5
1AF63
  8
CENTER
 10
2881.9786626568889
 20
957.50717853674041
 30
0.0
 11
2881.9786626568821
 21
939.50717853674041
 31
0.0
  0
CIRCLE
  5
1AF64
  8
SJC
 10
2881.9786626568862
 20
948.50717853674041
 30
0.0
 40
9.0
  0
CIRCLE
  5
1AF65
  8
SJC
 10
2881.9786626568862
 20
948.50717853674041
 30
0.0
 40
8.0
  0
LINE
  5
1AF66
  8
SJC2
 10
2881.1275988270968
 20
954.46462534525074
 30
0.0
 11
2882.8297264866728
 21
954.46462534525074
 31
0.0
  0
LINE
  5
1AF67
  8
SJC2
 10
2887.9361094653959
 20
949.35824236652707
 30
0.0
 11
2887.9361094653959
 21
947.65611470695194
 31
0.0
  0
LINE
  5
1AF68
  8
SJC2
 10
2876.021215848375
 20
949.35824236652707
 30
0.0
 11
2876.021215848375
 21
947.65611470695194
 31
0.0
  0
LINE
  5
1AF69
  8
SJC2
 10
2881.1275988270968
 20
942.54973172823009
 30
0.0
 11
2882.8297264866728
 21
942.54973172823009
 31
0.0
  0
ARC
  5
1AF6A
  8
SJC2
 10
2887.9361094653959
 20
942.54973172823009
 30
0.0
 40
5.1063829787233539
 50
90.0
 51
180.0
  0
ARC
  5
1AF6B
  8
SJC2
 10
2876.021215848375
 20
942.54973172823009
 30
0.0
 40
5.1063829787233539
 50
0.0
 51
90.0
  0
ARC
  5
1AF6C
  8
SJC2
 10
2887.9361094653959
 20
954.46462534525074
 30
0.0
 40
5.1063829787233539
 50
180.0
 51
270.0
  0
ARC
  5
1AF6D
  8
SJC2
 10
2876.021215848375
 20
954.46462534525074
 30
0.0
 40
5.1063829787233539
 50
270.0
 51
0.0
  0
LINE
  5
1AF6E
  8
CENTER
 10
2881.9786626585892
 20
413.50717853678128
 30
0.0
 11
2881.9786626585828
 21
395.5071785367814
 31
0.0
  0
LINE
  5
1AF6F
  8
CENTER
 10
2890.9786626585869
 20
404.5071785367785
 30
0.0
 11
2872.9786626585869
 21
404.50717853678412
 31
0.0
  0
LINE
  5
1AF70
  8
CENTER
 10
2881.9786626585892
 20
413.50717853678128
 30
0.0
 11
2881.9786626585828
 21
395.5071785367814
 31
0.0
  0
LINE
  5
1AF71
  8
CENTER
 10
2881.9786626585892
 20
413.50717853678128
 30
0.0
 11
2881.9786626585819
 21
395.5071785367814
 31
0.0
  0
CIRCLE
  5
1AF72
  8
SJC
 10
2881.978662658586
 20
404.50717853678128
 30
0.0
 40
9.0
  0
CIRCLE
  5
1AF73
  8
SJC
 10
2881.978662658586
 20
404.50717853678128
 30
0.0
 40
8.0
  0
LINE
  5
1AF74
  8
SJC2
 10
2881.1275988287971
 20
410.46462534529149
 30
0.0
 11
2882.8297264883731
 21
410.46462534529149
 31
0.0
  0
LINE
  5
1AF75
  8
SJC2
 10
2887.9361094670958
 20
405.35824236656788
 30
0.0
 11
2887.9361094670958
 21
403.65611470699281
 31
0.0
  0
LINE
  5
1AF76
  8
SJC2
 10
2876.0212158500749
 20
405.35824236656788
 30
0.0
 11
2876.0212158500749
 21
403.65611470699281
 31
0.0
  0
LINE
  5
1AF77
  8
SJC2
 10
2881.1275988287971
 20
398.54973172827113
 30
0.0
 11
2882.8297264883731
 21
398.54973172827113
 31
0.0
  0
ARC
  5
1AF78
  8
SJC2
 10
2887.9361094670958
 20
398.54973172827113
 30
0.0
 40
5.1063829787233539
 50
90.0
 51
180.0
  0
ARC
  5
1AF79
  8
SJC2
 10
2876.0212158500749
 20
398.54973172827113
 30
0.0
 40
5.1063829787233539
 50
0.0
 51
90.0
  0
ARC
  5
1AF7A
  8
SJC2
 10
2887.9361094670958
 20
410.46462534529149
 30
0.0
 40
5.1063829787233539
 50
180.0
 51
270.0
  0
ARC
  5
1AF7B
  8
SJC2
 10
2876.0212158500749
 20
410.46462534529149
 30
0.0
 40
5.1063829787233539
 50
270.0
 51
0.0
  0
DIMENSION
  5
1B2EE
  8
SUNPOU
  2
*D19
 10
1809.3472900497579
 20
366.50717853677509
 30
0.0
 11
1782.3472900497579
 21
986.50717853679055
 31
0.0
 70
     0
  1
1020
 13
1993.829355828233
 23
1606.507178536805
 33
0.0
 14
1993.8293558282289
 24
366.50717853677497
 34
0.0
 50
90.0
1001
ACAD
1000
DSTYLE
1002
{
1070
   287
1070
     5
1070
   144
1040
0.5
1070
    40
1040
10.0
1070
    41
1040
2.0
1070
    42
1040
1.0
1070
    43
1040
6.0
1070
    44
1040
1.0
1070
    73
1070
     0
1070
    74
1070
     0
1070
    77
1070
     1
1070
    78
1070
     8
1070
   140
1040
3.0
1070
   147
1040
1.1999999999999991
1070
   172
1070
     1
1070
   179
1070
     2
1070
   271
1070
     2
1070
   279
1070
     2
1070
   340
1005
55
1002
}
  0
LINE
  5
1B342
  8
SJC
 10
619.64738174554168
 20
1272.588898764541
 30
0.0
 11
755.64738174554157
 21
1272.588898764541
 31
0.0
  0
LINE
  5
1B343
  8
SJC
 10
612.64738174553815
 20
1765.588898764541
 30
0.0
 11
612.64738174554145
 21
1279.588898764541
 31
0.0
  0
LINE
  5
1B344
  8
SJC
 10
762.64738174554532
 20
1765.588898764541
 30
0.0
 11
762.64738174554157
 21
1279.588898764541
 31
0.0
  0
LINE
  5
1B345
  8
SJC
 10
607.64738174553861
 20
1765.588898764541
 30
0.0
 11
607.64738174554088
 21
1279.588898764541
 31
0.0
  0
LINE
  5
1B348
  8
SJC
 10
767.64738174554475
 20
1765.588898764541
 30
0.0
 11
767.64738174554225
 21
1279.588898764541
 31
0.0
  0
ARC
  5
1B349
  8
SJC
 10
755.64738174554157
 20
1279.588898764541
 30
0.0
 40
12.0
 50
270.0
 51
0.0
  0
ARC
  5
1B34A
  8
SJC
 10
755.64738174554157
 20
1279.588898764541
 30
0.0
 40
7.0
 50
270.0
 51
0.0
  0
ARC
  5
1B34D
  8
SJC
 10
619.64738174554168
 20
1279.588898764541
 30
0.0
 40
12.0
 50
180.0
 51
270.0
  0
ARC
  5
1B34E
  8
SJC
 10
619.64738174554168
 20
1279.588898764541
 30
0.0
 40
7.0
 50
180.0
 51
270.0
  0
LINE
  5
1B34F
  8
SJC
 10
755.64738174554157
 20
1267.588898764541
 30
0.0
 11
619.64738174554168
 21
1267.588898764541
 31
0.0
  0
DIMENSION
  5
1B366
  8
SUNPOU
  2
*D20
 10
467.63820172968718
 20
1267.588898764541
 30
0.0
 11
440.63820172968713
 21
1777.588898764541
 31
0.0
 70
     0
 13
619.64738174553975
 23
2287.5888987645412
 33
0.0
 14
609.64738174554145
 24
1267.588898764541
 34
0.0
 50
90.0
1001
ACAD
1000
DSTYLE
1002
{
1070
   287
1070
     5
1070
    40
1040
10.0
1070
    41
1040
2.0
1070
    42
1040
1.0
1070
    43
1040
6.0
1070
    44
1040
1.0
1070
    73
1070
     0
1070
    74
1070
     0
1070
    77
1070
     1
1070
    78
1070
     8
1070
   140
1040
3.0
1070
   147
1040
1.1999999999999991
1070
   172
1070
     1
1070
   179
1070
     2
1070
   271
1070
     2
1070
   279
1070
     2
1070
   340
1005
55
1002
}
  0
LINE
  5
1B373
  8
SJC
 10
1368.363214879744
 20
1267.588898764501
 30
0.0
 11
1366.363214879857
 21
1267.5888987645019
 31
0.0
  0
LINE
  5
1B374
  8
SJC
 10
1421.8632148804891
 20
1267.588898764518
 30
0.0
 11
1367.36321488049
 21
1267.588898764501
 31
0.0
  0
LINE
  5
1B4A6
  8
SJC
 10
2289.8293558282462
 20
809.50717853677213
 30
0.0
 11
2289.8293558282439
 21
539.50717853677509
 31
0.0
  0
LINE
  5
1B4A8
  8
SUNPOU
 10
2159.829355828243
 20
849.50717853677395
 30
0.0
 11
2159.829355828243
 21
819.50717853677315
 31
0.0
  0
LINE
  5
1B4A9
  8
SUNPOU
 10
2099.829355828243
 20
879.50717853677315
 30
0.0
 11
2099.829355828243
 21
849.50717853677395
 31
0.0
  0
LINE
  5
1B4AA
  8
SUNPOU
 10
2309.8293558282448
 20
849.50717853677543
 30
0.0
 11
2159.829355828243
 21
849.50717853677395
 31
0.0
  0
LINE
  5
1B4AB
  8
SUNPOU
 10
1949.829355828241
 20
849.50717853677543
 30
0.0
 11
2099.829355828243
 21
849.50717853677395
 31
0.0
  0
LINE
  5
1B4AC
  8
SUNPOU
 10
2099.829355828243
 20
879.50717853677315
 30
0.0
 11
2159.829355828243
 21
819.50717853677315
 31
0.0
  0
LINE
  5
1B4AD
  8
SUNPOU
 10
2159.829355828243
 20
809.50717853677406
 30
0.0
 11
2159.829355828243
 21
779.50717853677315
 31
0.0
  0
LINE
  5
1B4AE
  8
SUNPOU
 10
2099.829355828243
 20
839.50717853677315
 30
0.0
 11
2099.829355828243
 21
809.50717853677406
 31
0.0
  0
LINE
  5
1B4AF
  8
SUNPOU
 10
2309.8293558282448
 20
809.50717853677531
 30
0.0
 11
2159.829355828243
 21
809.50717853677406
 31
0.0
  0
LINE
  5
1B4B0
  8
SUNPOU
 10
1949.829355828241
 20
809.50717853677531
 30
0.0
 11
2099.829355828243
 21
809.50717853677406
 31
0.0
  0
LINE
  5
1B4B1
  8
SUNPOU
 10
2099.829355828243
 20
839.50717853677315
 30
0.0
 11
2159.829355828243
 21
779.50717853677315
 31
0.0
  0
LINE
  5
1B4BF
  8
SUNPOU
 10
2159.829355828243
 20
539.50717853677395
 30
0.0
 11
2159.829355828243
 21
509.5071785367731
 31
0.0
  0
LINE
  5
1B4C0
  8
SUNPOU
 10
2099.829355828243
 20
569.50717853677315
 30
0.0
 11
2099.829355828243
 21
539.50717853677395
 31
0.0
  0
LINE
  5
1B4C1
  8
SUNPOU
 10
2309.8293558282448
 20
539.50717853677554
 30
0.0
 11
2159.829355828243
 21
539.50717853677395
 31
0.0
  0
LINE
  5
1B4C2
  8
SUNPOU
 10
1949.829355828241
 20
539.50717853677543
 30
0.0
 11
2099.829355828243
 21
539.50717853677395
 31
0.0
  0
LINE
  5
1B4C3
  8
SUNPOU
 10
2099.829355828243
 20
569.50717853677315
 30
0.0
 11
2159.829355828243
 21
509.5071785367731
 31
0.0
  0
LINE
  5
1B4C4
  8
SUNPOU
 10
2159.829355828243
 20
499.50717853677401
 30
0.0
 11
2159.829355828243
 21
469.5071785367731
 31
0.0
  0
LINE
  5
1B4C5
  8
SUNPOU
 10
2099.829355828243
 20
529.50717853677315
 30
0.0
 11
2099.829355828243
 21
499.50717853677401
 31
0.0
  0
LINE
  5
1B4C6
  8
SUNPOU
 10
2309.8293558282448
 20
499.50717853677548
 30
0.0
 11
2159.829355828243
 21
499.50717853677401
 31
0.0
  0
LINE
  5
1B4C7
  8
SUNPOU
 10
1949.829355828241
 20
499.50717853677543
 30
0.0
 11
2099.829355828243
 21
499.50717853677401
 31
0.0
  0
LINE
  5
1B4C8
  8
SUNPOU
 10
2099.829355828243
 20
529.50717853677315
 30
0.0
 11
2159.829355828243
 21
469.5071785367731
 31
0.0
  0
LINE
  5
1B4C9
  8
SJC
 10
1979.8293558282321
 20
809.5071785367752
 30
0.0
 11
1979.829355828236
 21
539.50717853677509
 31
0.0
  0
LINE
  5
1B4CA
  8
SJC
 10
2279.8293558282371
 20
809.5071785367752
 30
0.0
 11
2279.8293558282348
 21
539.50717853677247
 31
0.0
  0
LINE
  5
1B4CB
  8
SJC
 10
2289.8293558282371
 20
652.50717853677577
 30
0.0
 11
2289.8293558282362
 21
539.50717853677224
 31
0.0
  0
LINE
  5
1B4CC
  8
SJC
 10
1969.8293558282321
 20
809.5071785367752
 30
0.0
 11
1969.829355828233
 21
539.50717853677509
 31
0.0
  0
LINE
  5
1B4F4
  8
SJC
 10
2289.8293558282348
 20
499.50717853677241
 30
0.0
 11
2289.8293558282348
 21
390.50717853677639
 31
0.0
  0
LINE
  5
1B4F5
  8
SJC
 10
2279.8293558282348
 20
499.50717853677241
 30
0.0
 11
2279.829355828233
 21
390.50717853677679
 31
0.0
  0
LINE
  5
1B4F6
  8
SJC
 10
1979.829355828236
 20
499.5071785367752
 30
0.0
 11
1979.829355828236
 21
390.50717853677639
 31
0.0
  0
LINE
  5
1B4F7
  8
SJC
 10
1969.8293558282339
 20
499.5071785367752
 30
0.0
 11
1969.8293558282351
 21
390.50717853677588
 31
0.0
  0
LINE
  5
1B5E9
  8
SJC
 10
2969.478662655185
 20
809.50717853679646
 30
0.0
 11
2969.478662655185
 21
539.50717853680305
 31
0.0
1001
ACAD
1000
ASC_BOUNDS
1002
{
1070
    19
1002
}
  0
LINE
  5
1B5EA
  8
SJC
 10
2776.978662655406
 20
809.50717853679839
 30
0.0
 11
2776.978662655406
 21
680.50717853677043
 31
0.0
  0
LINE
  5
1B5EB
  8
SJC
 10
2776.978662655406
 20
672.50717853677043
 30
0.0
 11
2776.978662655406
 21
539.50717853680499
 31
0.0
  0
LINE
  5
1B5EC
  8
SJC
 10
2788.9786626554642
 20
809.50717853679805
 30
0.0
 11
2788.9786626555101
 21
680.50717853677008
 31
0.0
  0
LINE
  5
1B5ED
  8
SJC
 10
2788.9786626555128
 20
672.50717853677372
 30
0.0
 11
2788.978662655561
 21
539.50717853680499
 31
0.0
  0
LINE
  5
1B5F1
  8
SJC
 10
2776.978662655406
 20
809.50717853679862
 30
0.0
 11
2776.978662655406
 21
680.50717853677043
 31
0.0
  0
LINE
  5
1B5F2
  8
SJC
 10
2776.978662655406
 20
672.50717853677043
 30
0.0
 11
2776.978662655406
 21
539.50717853680499
 31
0.0
  0
LINE
  5
1B5F4
  8
SJC
 10
2848.97866265527
 20
809.50717853679771
 30
0.0
 11
2848.9786626553118
 21
716.13992189933845
 31
0.0
  0
LINE
  5
1B5F5
  8
SJC
 10
2848.9786626553491
 20
637.87443517328677
 30
0.0
 11
2848.9786626553928
 21
539.5071785368043
 31
0.0
  0
LINE
  5
1B62E
  8
SUNPOU
 10
2911.978662655406
 20
849.50717853679782
 30
0.0
 11
2911.978662655406
 21
819.5071785367968
 31
0.0
  0
LINE
  5
1B62F
  8
SUNPOU
 10
2851.978662655406
 20
879.5071785367968
 30
0.0
 11
2851.978662655406
 21
849.50717853679782
 31
0.0
  0
LINE
  5
1B630
  8
SUNPOU
 10
3007.9786626554101
 20
849.50717853679862
 30
0.0
 11
2911.978662655406
 21
849.50717853679782
 31
0.0
  0
LINE
  5
1B631
  8
SUNPOU
 10
2755.9786626554028
 20
849.50717853679862
 30
0.0
 11
2851.978662655406
 21
849.50717853679782
 31
0.0
  0
LINE
  5
1B632
  8
SUNPOU
 10
2851.978662655406
 20
879.5071785367968
 30
0.0
 11
2911.978662655406
 21
819.5071785367968
 31
0.0
  0
LINE
  5
1B633
  8
SUNPOU
 10
2911.9786626554051
 20
809.50717853679771
 30
0.0
 11
2911.9786626554051
 21
779.5071785367968
 31
0.0
  0
LINE
  5
1B634
  8
SUNPOU
 10
2851.978662655406
 20
839.50717853679669
 30
0.0
 11
2851.978662655406
 21
809.50717853679771
 31
0.0
  0
LINE
  5
1B635
  8
SUNPOU
 10
3007.9786626554092
 20
809.50717853679862
 30
0.0
 11
2911.9786626554051
 21
809.50717853679771
 31
0.0
  0
LINE
  5
1B636
  8
SUNPOU
 10
2755.9786626554019
 20
809.50717853679862
 30
0.0
 11
2851.978662655406
 21
809.50717853679771
 31
0.0
  0
LINE
  5
1B637
  8
SUNPOU
 10
2851.978662655406
 20
839.50717853679669
 30
0.0
 11
2911.9786626554051
 21
779.5071785367968
 31
0.0
  0
LINE
  5
1B638
  8
SUNPOU
 10
2911.9786626554342
 20
539.5071785368043
 30
0.0
 11
2911.9786626554342
 21
509.50717853680328
 31
0.0
  0
LINE
  5
1B639
  8
SUNPOU
 10
2851.9786626554328
 20
569.50717853680339
 30
0.0
 11
2851.9786626554328
 21
539.5071785368043
 31
0.0
  0
LINE
  5
1B63A
  8
SUNPOU
 10
3007.9786626554369
 20
539.50717853680521
 30
0.0
 11
2911.9786626554342
 21
539.5071785368043
 31
0.0
  0
LINE
  5
1B63B
  8
SUNPOU
 10
2755.9786626554301
 20
539.50717853680521
 30
0.0
 11
2851.9786626554328
 21
539.5071785368043
 31
0.0
  0
LINE
  5
1B63C
  8
SUNPOU
 10
2851.9786626554328
 20
569.50717853680339
 30
0.0
 11
2911.9786626554342
 21
509.50717853680328
 31
0.0
  0
LINE
  5
1B63D
  8
SUNPOU
 10
2911.9786626554328
 20
499.50717853680419
 30
0.0
 11
2911.9786626554328
 21
469.50717853680339
 31
0.0
  0
LINE
  5
1B63E
  8
SUNPOU
 10
2851.9786626554328
 20
529.50717853680328
 30
0.0
 11
2851.9786626554328
 21
499.50717853680419
 31
0.0
  0
LINE
  5
1B63F
  8
SUNPOU
 10
3007.9786626554369
 20
499.50717853680521
 30
0.0
 11
2911.9786626554328
 21
499.50717853680419
 31
0.0
  0
LINE
  5
1B640
  8
SUNPOU
 10
2755.9786626554292
 20
499.50717853680521
 30
0.0
 11
2851.9786626554328
 21
499.50717853680419
 31
0.0
  0
LINE
  5
1B641
  8
SUNPOU
 10
2851.9786626554328
 20
529.50717853680328
 30
0.0
 11
2911.9786626554328
 21
469.50717853680339
 31
0.0
  0
LINE
  5
1B643
  8
SJC
 10
2788.9786626554678
 20
809.50717853679805
 30
0.0
 11
2788.9786626555642
 21
539.50717853680499
 31
0.0
  0
LINE
  5
1B644
  8
SJC
 10
2776.9786626554101
 20
809.50717853679805
 30
0.0
 11
2776.9786626554101
 21
539.50717853680499
 31
0.0
  0
LINE
  5
1B645
  8
SJC
 10
2776.9786626554101
 20
809.50717853679805
 30
0.0
 11
2776.978662655411
 21
539.50717853680499
 31
0.0
  0
LINE
  5
1B647
  8
SJC
 10
2848.9786626552741
 20
809.50717853679771
 30
0.0
 11
2848.978662655305
 21
741.63992189984026
 31
0.0
  0
LINE
  5
1B649
  8
SJC
 10
2969.4786626551891
 20
809.50717853679646
 30
0.0
 11
2969.4786626551891
 21
539.50717853680305
 31
0.0
1001
ACAD
1000
ASC_BOUNDS
1002
{
1070
    19
1002
}
  0
LINE
  5
1B64A
  8
SJC
 10
2776.9786626554101
 20
499.50717853680487
 30
0.0
 11
2776.9786626554101
 21
370.50717853637838
 31
0.0
  0
LINE
  5
1B64B
  8
SJC
 10
2776.978662655411
 20
499.50717853680487
 30
0.0
 11
2776.9786626554101
 21
370.50717853684779
 31
0.0
  0
LINE
  5
1B64E
  8
SJC
 10
2788.9786626555788
 20
499.50717853680487
 30
0.0
 11
2788.9786626556252
 21
370.50717853682949
 31
0.0
  0
LINE
  5
1B64F
  8
SJC
 10
2848.9786626554142
 20
499.50717853680419
 30
0.0
 11
2848.9786626554451
 21
431.63992189983668
 31
0.0
  0
LINE
  5
1B650
  8
SJC
 10
2969.4786626568948
 20
499.50717853680487
 30
0.0
 11
2969.4786626568948
 21
106.5071785367972
 31
0.0
1001
ACAD
1000
ASC_BOUNDS
1002
{
1070
    19
1002
}
  0
LINE
  5
1B652
  8
SJC
 10
2848.9786626553641
 20
611.37443517371503
 30
0.0
 11
2848.978662655396
 21
539.5071785368043
 31
0.0
  0
DIMENSION
  5
1B89B
  8
SUNPOU
  2
*D22
 10
533.71736719745934
 20
1267.588898764541
 30
0.0
 11
506.71736719745923
 21
1522.588898764541
 31
0.0
 70
     0
 13
619.64738174553975
 23
1777.588898764541
 33
0.0
 14
619.64738174554168
 24
1267.588898764541
 34
0.0
 50
90.0
1001
ACAD
1000
DSTYLE
1002
{
1070
   287
1070
     5
1070
    40
1040
10.0
1070
    41
1040
2.0
1070
    42
1040
1.0
1070
    43
1040
6.0
1070
    44
1040
1.0
1070
    73
1070
     0
1070
    74
1070
     0
1070
    77
1070
     1
1070
    78
1070
     8
1070
   140
1040
3.0
1070
   147
1040
1.1999999999999991
1070
   172
1070
     1
1070
   179
1070
     2
1070
   271
1070
     2
1070
   279
1070
     2
1070
   340
1005
55
1002
}
  0
LINE
  5
1B8A8
  8
SJC
 10
1426.8632148804361
 20
1531.6766265228389
 30
0.0
 11
1426.8632148804361
 21
1513.5011710059159
 31
0.0
  0
ARC
  5
1B8A9
  8
SJC
 10
1421.8632148804361
 20
1513.501171005918
 30
0.0
 40
5.0
 50
283.9168774331053
 51
359.99999999997402
  0
LINE
  5
1B8AA
  8
CENTER
 10
1416.863214880442
 20
1527.08889876438
 30
0.0
 11
1416.863214880439
 21
1518.08889876438
 31
0.0
  0
LINE
  5
1B8AB
  8
CENTER
 10
1421.3632148804411
 20
1522.588898764378
 30
0.0
 11
1412.3632148804411
 21
1522.5888987643809
 31
0.0
  0
CIRCLE
  5
1B8AC
  8
SJC
 10
1416.8632148804411
 20
1522.58889876438
 30
0.0
 40
4.5
  0
LINE
  5
1B8AD
  8
SJC
 10
1423.0657847448169
 20
1508.647942624594
 30
0.0
 11
1370.363214879711
 21
1495.588898764398
 31
0.0
  0
ARC
  5
1B8AE
  8
SJC
 10
1421.8632148804361
 20
1531.6766265228389
 30
0.0
 40
5.0
 50
0.0000000000260551
 51
76.083122566894787
  0
LINE
  5
1B8AF
  8
SJC
 10
1423.0657847448169
 20
1536.5298549041629
 30
0.0
 11
1370.363214879711
 21
1549.588898764358
 31
0.0
  0
CIRCLE
  5
1B8B0
  8
SJC
 10
1416.8632148789629
 20
1522.58889876438
 30
0.0
 40
4.0
  0
LINE
  5
1B8B1
  8
SJC2
 10
1416.4376829640689
 20
1525.5676221686349
 30
0.0
 11
1417.2887467938569
 21
1525.5676221686349
 31
0.0
  0
LINE
  5
1B8B2
  8
SJC2
 10
1419.841938283219
 20
1523.0144306792729
 30
0.0
 11
1419.841938283219
 21
1522.163366849486
 31
0.0
  0
LINE
  5
1B8B3
  8
SJC2
 10
1413.8844914747081
 20
1523.0144306792729
 30
0.0
 11
1413.8844914747081
 21
1522.163366849486
 31
0.0
  0
LINE
  5
1B8B4
  8
SJC2
 10
1416.4376829640689
 20
1519.6101753601249
 30
0.0
 11
1417.2887467938569
 21
1519.6101753601249
 31
0.0
  0
ARC
  5
1B8B5
  8
SJC2
 10
1419.841938283219
 20
1519.6101753601249
 30
0.0
 40
2.5531914893616769
 50
90.0
 51
180.0
  0
ARC
  5
1B8B6
  8
SJC2
 10
1413.8844914747081
 20
1519.6101753601249
 30
0.0
 40
2.5531914893616769
 50
0.0
 51
90.0
  0
ARC
  5
1B8B7
  8
SJC2
 10
1419.841938283219
 20
1525.5676221686349
 30
0.0
 40
2.5531914893616769
 50
180.0
 51
270.0
  0
ARC
  5
1B8B8
  8
SJC2
 10
1413.8844914747081
 20
1525.5676221686349
 30
0.0
 40
2.5531914893616769
 50
270.0
 51
0.0
  0
LINE
  5
1B8B9
  8
SJC
 10
1400.3632148797151
 20
1503.022527082878
 30
0.0
 11
1400.3632148797669
 21
1300.1552704460289
 31
0.0
  0
LINE
  5
1B91F
  8
SJC
 10
2901.978662656878
 20
695.18263405322898
 30
0.0
 11
2901.978662656878
 21
658.83172301938362
 31
0.0
  0
ARC
  5
1B920
  8
SJC
 10
2891.978662656878
 20
658.83172301938725
 30
0.0
 40
10.0
 50
283.9168774331053
 51
359.99999999997402
  0
LINE
  5
1B921
  8
CENTER
 10
2881.9786626568889
 20
686.0071785363109
 30
0.0
 11
2881.978662656883
 21
668.0071785363109
 31
0.0
  0
LINE
  5
1B922
  8
CENTER
 10
2890.9786626568871
 20
677.00717853630806
 30
0.0
 11
2872.9786626568871
 21
677.00717853631363
 31
0.0
  0
LINE
  5
1B923
  8
SJC
 10
2894.383802385642
 20
649.12526625674047
 30
0.0
 11
2788.9786626554278
 21
623.00717853634819
 31
0.0
  0
ARC
  5
1B924
  8
SJC
 10
2891.978662656878
 20
695.18263405322898
 30
0.0
 40
10.0
 50
0.0000000000260551
 51
76.083122566894787
  0
LINE
  5
1B925
  8
SJC
 10
2894.383802385642
 20
704.88909081587576
 30
0.0
 11
2788.9786626554278
 21
731.00717853626816
 31
0.0
  0
LINE
  5
1B926
  8
CENTER
 10
2881.9786626568889
 20
686.0071785363109
 30
0.0
 11
2881.978662656883
 21
668.0071785363109
 31
0.0
  0
LINE
  5
1B927
  8
CENTER
 10
2881.9786626568889
 20
686.0071785363109
 30
0.0
 11
2881.9786626568821
 21
668.0071785363109
 31
0.0
  0
CIRCLE
  5
1B928
  8
SJC
 10
2881.9786626568862
 20
677.0071785363109
 30
0.0
 40
9.0
  0
CIRCLE
  5
1B929
  8
SJC
 10
2881.9786626568862
 20
677.0071785363109
 30
0.0
 40
8.0
  0
LINE
  5
1B92A
  8
SJC2
 10
2881.1275988270968
 20
682.96462534482112
 30
0.0
 11
2882.8297264866742
 21
682.96462534482112
 31
0.0
  0
LINE
  5
1B92B
  8
SJC2
 10
2887.9361094653968
 20
677.85824236609756
 30
0.0
 11
2887.9361094653968
 21
676.15611470652243
 31
0.0
  0
LINE
  5
1B92C
  8
SJC2
 10
2876.021215848375
 20
677.85824236609756
 30
0.0
 11
2876.021215848375
 21
676.15611470652243
 31
0.0
  0
LINE
  5
1B92D
  8
SJC2
 10
2881.1275988270968
 20
671.04973172780058
 30
0.0
 11
2882.8297264866742
 21
671.04973172780058
 31
0.0
  0
ARC
  5
1B92E
  8
SJC2
 10
2887.9361094653968
 20
671.04973172780058
 30
0.0
 40
5.1063829787233539
 50
90.0
 51
180.0
  0
ARC
  5
1B92F
  8
SJC2
 10
2876.021215848375
 20
671.04973172780058
 30
0.0
 40
5.1063829787233539
 50
0.0
 51
90.0
  0
ARC
  5
1B930
  8
SJC2
 10
2887.9361094653968
 20
682.96462534482112
 30
0.0
 40
5.1063829787233539
 50
180.0
 51
270.0
  0
ARC
  5
1B931
  8
SJC2
 10
2876.021215848375
 20
682.96462534482112
 30
0.0
 40
5.1063829787233539
 50
270.0
 51
0.0
  0
LINE
  5
1B933
  8
SJC
 10
2969.4786626551959
 20
1429.507178536828
 30
0.0
 11
2969.4786626551959
 21
1159.5071785368341
 31
0.0
1001
ACAD
1000
ASC_BOUNDS
1002
{
1070
    19
1002
}
  0
LINE
  5
1B934
  8
SJC
 10
2776.9786626554169
 20
1597.507178537275
 30
0.0
 11
2776.9786626554169
 21
1469.5071785368291
 31
0.0
  0
LINE
  5
1B935
  8
SJC
 10
2776.9786626554169
 20
1429.5071785368291
 30
0.0
 11
2776.9786626554178
 21
1159.5071785368359
 31
0.0
  0
LINE
  5
1B936
  8
SJC
 10
2776.9786626554178
 20
1119.5071785368359
 30
0.0
 11
2776.9786626554169
 21
990.50717853687911
 31
0.0
  0
LINE
  5
1B937
  8
SJC
 10
2788.9786626557461
 20
990.50717853677497
 30
0.0
 11
2788.9786626557461
 21
1001.507178537214
 31
0.0
  0
LINE
  5
1B938
  8
SJC
 10
2788.9786626554128
 20
1602.507178536812
 30
0.0
 11
2788.978662655461
 21
1469.5071785368291
 31
0.0
  0
LINE
  5
1B939
  8
SJC
 10
2788.9786626554751
 20
1429.5071785368291
 30
0.0
 11
2788.978662655571
 21
1159.5071785368359
 31
0.0
  0
LINE
  5
1B93A
  8
SJC
 10
2788.978662655586
 20
1119.5071785368359
 30
0.0
 11
2788.978662655632
 21
990.50717853686081
 31
0.0
  0
LINE
  5
1B93E
  8
SJC
 10
2788.9786626557479
 20
1001.507178536766
 30
0.0
 11
2788.9786626557479
 21
990.50717853677497
 31
0.0
  0
LINE
  5
1B93F
  8
SJC
 10
2776.9786626554169
 20
1597.507178536805
 30
0.0
 11
2776.9786626554169
 21
1469.5071785368291
 31
0.0
  0
LINE
  5
1B940
  8
SJC
 10
2776.9786626554169
 20
1429.5071785368291
 30
0.0
 11
2776.9786626554169
 21
1159.5071785368359
 31
0.0
  0
LINE
  5
1B941
  8
SJC
 10
2776.9786626554169
 20
1119.5071785368359
 30
0.0
 11
2776.9786626554169
 21
990.50717853640981
 31
0.0
  0
LINE
  5
1B942
  8
SJC
 10
2784.9786626556352
 20
986.50717853677486
 30
0.0
 11
2780.9786626556352
 21
986.50717853677668
 31
0.0
  0
ARC
  5
1B943
  8
SJC
 10
2784.978662655637
 20
990.50717853677497
 30
0.0
 40
4.0
 50
270.0
 51
359.99999999997402
  0
ARC
  5
1B944
  8
SJC
 10
2780.978662655637
 20
990.50717853677679
 30
0.0
 40
4.0
 50
179.99999999998701
 51
270.0
  0
LINE
  5
1B945
  8
SJC
 10
2776.978662655637
 20
990.50717853677861
 30
0.0
 11
2776.9786626556411
 21
995.50717853677895
 31
0.0
  0
LINE
  5
1B946
  8
SJC
 10
2901.9786626571222
 20
996.50717853681863
 30
0.0
 11
2901.978662657109
 21
1030.6826340537391
 31
0.0
  0
ARC
  5
1B947
  8
SJC
 10
2891.9786626571222
 20
996.5071785368159
 30
0.0
 40
10.0
 50
270.0
 51
0.0000000000260551
  0
LINE
  5
1B948
  8
SJC
 10
2891.9786626571249
 20
986.50717853680965
 30
0.0
 11
2784.9786626556379
 21
986.50717853677486
 31
0.0
  0
LINE
  5
1B949
  8
CENTER
 10
2881.9786626571199
 20
1015.5071785368129
 30
0.0
 11
2881.978662657114
 21
1033.5071785368129
 31
0.0
  0
LINE
  5
1B94A
  8
CENTER
 10
2890.9786626571181
 20
1024.507178536815
 30
0.0
 11
2872.9786626571181
 21
1024.50717853681
 31
0.0
  0
LINE
  5
1B94D
  8
SJC
 10
2894.383802385873
 20
1040.3890908163819
 30
0.0
 11
2788.9786626556588
 21
1066.507178536775
 31
0.0
  0
ARC
  5
1B94E
  8
SJC
 10
2891.978662657109
 20
1030.6826340537359
 30
0.0
 40
10.0
 50
0.0000000000260551
 51
76.083122566894787
  0
LINE
  5
1B954
  8
SJC
 10
2848.9786626552309
 20
1541.3744351737171
 30
0.0
 11
2848.9786626552632
 21
1469.5071785368291
 31
0.0
  0
LINE
  5
1B955
  8
SJC
 10
2848.9786626552818
 20
1429.5071785368291
 30
0.0
 11
2848.9786626553118
 21
1361.639921899872
 31
0.0
  0
LINE
  5
1B956
  8
SJC
 10
2848.978662655371
 20
1231.374435173746
 30
0.0
 11
2848.9786626554028
 21
1159.5071785368359
 31
0.0
  0
LINE
  5
1B957
  8
SJC
 10
2848.978662655421
 20
1119.5071785368359
 30
0.0
 11
2848.9786626554519
 21
1051.6399218998681
 31
0.0
  0
LINE
  5
1B958
  8
CENTER
 10
2881.978662658596
 20
1033.5071785368129
 30
0.0
 11
2881.9786626585901
 21
1015.5071785368129
 31
0.0
  0
LINE
  5
1B959
  8
CENTER
 10
2890.9786626585942
 20
1024.50717853681
 30
0.0
 11
2872.9786626585942
 21
1024.507178536815
 31
0.0
  0
LINE
  5
1B95A
  8
CENTER
 10
2881.978662658596
 20
1033.5071785368129
 30
0.0
 11
2881.9786626585901
 21
1015.5071785368129
 31
0.0
  0
LINE
  5
1B95B
  8
CENTER
 10
2881.978662658596
 20
1033.5071785368129
 30
0.0
 11
2881.9786626585892
 21
1015.5071785368129
 31
0.0
  0
CIRCLE
  5
1B95C
  8
SJC
 10
2881.9786626585928
 20
1024.507178536812
 30
0.0
 40
9.0
  0
CIRCLE
  5
1B95D
  8
SJC
 10
2881.9786626585928
 20
1024.507178536812
 30
0.0
 40
8.0
  0
LINE
  5
1B95E
  8
SJC2
 10
2881.1275988288039
 20
1030.4646253453229
 30
0.0
 11
2882.8297264883799
 21
1030.4646253453229
 31
0.0
  0
LINE
  5
1B95F
  8
SJC2
 10
2887.936109467104
 20
1025.3582423665989
 30
0.0
 11
2887.936109467104
 21
1023.656114707024
 31
0.0
  0
LINE
  5
1B960
  8
SJC2
 10
2876.0212158500822
 20
1025.3582423665989
 30
0.0
 11
2876.0212158500822
 21
1023.656114707024
 31
0.0
  0
LINE
  5
1B961
  8
SJC2
 10
2881.1275988288039
 20
1018.549731728302
 30
0.0
 11
2882.8297264883799
 21
1018.549731728302
 31
0.0
  0
ARC
  5
1B962
  8
SJC2
 10
2887.936109467104
 20
1018.549731728302
 30
0.0
 40
5.1063829787233539
 50
90.0
 51
180.0
  0
ARC
  5
1B963
  8
SJC2
 10
2876.0212158500822
 20
1018.549731728302
 30
0.0
 40
5.1063829787233539
 50
0.0
 51
90.0
  0
ARC
  5
1B964
  8
SJC2
 10
2887.936109467104
 20
1030.4646253453229
 30
0.0
 40
5.1063829787233539
 50
180.0
 51
270.0
  0
ARC
  5
1B965
  8
SJC2
 10
2876.0212158500822
 20
1030.4646253453229
 30
0.0
 40
5.1063829787233539
 50
270.0
 51
0.0
  0
LINE
  5
1B967
  8
SJC
 10
2969.4786626551931
 20
1429.507178536828
 30
0.0
 11
2969.4786626551931
 21
1159.5071785368341
 31
0.0
1001
ACAD
1000
ASC_BOUNDS
1002
{
1070
    19
1002
}
  0
LINE
  5
1B968
  8
SJC
 10
2776.9786626554128
 20
1429.50717853683
 30
0.0
 11
2776.9786626554128
 21
1300.507178536802
 31
0.0
  0
LINE
  5
1B969
  8
SJC
 10
2776.9786626554128
 20
1292.507178536802
 30
0.0
 11
2776.9786626554128
 21
1159.5071785368359
 31
0.0
  0
LINE
  5
1B96A
  8
SJC
 10
2788.9786626554719
 20
1429.5071785368291
 30
0.0
 11
2788.9786626555178
 21
1300.5071785368009
 31
0.0
  0
LINE
  5
1B96B
  8
SJC
 10
2788.9786626555201
 20
1292.507178536805
 30
0.0
 11
2788.9786626555679
 21
1159.5071785368359
 31
0.0
  0
LINE
  5
1B96E
  8
SJC
 10
2776.9786626554128
 20
1429.50717853683
 30
0.0
 11
2776.9786626554128
 21
1300.507178536802
 31
0.0
  0
LINE
  5
1B96F
  8
SJC
 10
2776.9786626554128
 20
1292.507178536802
 30
0.0
 11
2776.9786626554128
 21
1159.5071785368359
 31
0.0
  0
LINE
  5
1B970
  8
SJC
 10
2848.9786626552782
 20
1429.5071785368291
 30
0.0
 11
2848.97866265532
 21
1336.139921899369
 31
0.0
  0
LINE
  5
1B971
  8
SJC
 10
2848.9786626553559
 20
1257.874435173318
 30
0.0
 11
2848.9786626554001
 21
1159.5071785368359
 31
0.0
  0
LINE
  5
1B972
  8
SUNPOU
 10
2911.9786626554142
 20
1469.5071785368291
 30
0.0
 11
2911.9786626554142
 21
1439.507178536828
 31
0.0
  0
LINE
  5
1B973
  8
SUNPOU
 10
2851.9786626554128
 20
1499.507178536828
 30
0.0
 11
2851.9786626554128
 21
1469.5071785368291
 31
0.0
  0
LINE
  5
1B974
  8
SUNPOU
 10
3007.9786626554169
 20
1469.50717853683
 30
0.0
 11
2911.9786626554142
 21
1469.5071785368291
 31
0.0
  0
LINE
  5
1B975
  8
SUNPOU
 10
2755.9786626554101
 20
1469.50717853683
 30
0.0
 11
2851.9786626554128
 21
1469.5071785368291
 31
0.0
  0
LINE
  5
1B976
  8
SUNPOU
 10
2851.9786626554128
 20
1499.507178536828
 30
0.0
 11
2911.9786626554142
 21
1439.507178536828
 31
0.0
  0
LINE
  5
1B977
  8
SUNPOU
 10
2911.9786626554128
 20
1429.5071785368291
 30
0.0
 11
2911.9786626554128
 21
1399.507178536828
 31
0.0
  0
LINE
  5
1B978
  8
SUNPOU
 10
2851.9786626554128
 20
1459.507178536828
 30
0.0
 11
2851.9786626554128
 21
1429.5071785368291
 31
0.0
  0
LINE
  5
1B979
  8
SUNPOU
 10
3007.978662655416
 20
1429.50717853683
 30
0.0
 11
2911.9786626554128
 21
1429.5071785368291
 31
0.0
  0
LINE
  5
1B97A
  8
SUNPOU
 10
2755.9786626554092
 20
1429.50717853683
 30
0.0
 11
2851.9786626554128
 21
1429.5071785368291
 31
0.0
  0
LINE
  5
1B97B
  8
SUNPOU
 10
2851.9786626554128
 20
1459.507178536828
 30
0.0
 11
2911.9786626554128
 21
1399.507178536828
 31
0.0
  0
LINE
  5
1B97C
  8
SUNPOU
 10
2911.978662655441
 20
1159.5071785368359
 30
0.0
 11
2911.978662655441
 21
1129.507178536835
 31
0.0
  0
LINE
  5
1B97D
  8
SUNPOU
 10
2851.9786626554401
 20
1189.5071785368341
 30
0.0
 11
2851.9786626554401
 21
1159.5071785368359
 31
0.0
  0
LINE
  5
1B97E
  8
SUNPOU
 10
3007.9786626554442
 20
1159.5071785368359
 30
0.0
 11
2911.978662655441
 21
1159.5071785368359
 31
0.0
  0
LINE
  5
1B97F
  8
SUNPOU
 10
2755.9786626554369
 20
1159.5071785368359
 30
0.0
 11
2851.9786626554401
 21
1159.5071785368359
 31
0.0
  0
LINE
  5
1B980
  8
SUNPOU
 10
2851.9786626554401
 20
1189.5071785368341
 30
0.0
 11
2911.978662655441
 21
1129.507178536835
 31
0.0
  0
LINE
  5
1B981
  8
SUNPOU
 10
2911.9786626554401
 20
1119.5071785368359
 30
0.0
 11
2911.9786626554401
 21
1089.507178536835
 31
0.0
  0
LINE
  5
1B982
  8
SUNPOU
 10
2851.9786626554401
 20
1149.5071785368341
 30
0.0
 11
2851.9786626554401
 21
1119.5071785368359
 31
0.0
  0
LINE
  5
1B983
  8
SUNPOU
 10
3007.9786626554442
 20
1119.5071785368359
 30
0.0
 11
2911.9786626554401
 21
1119.5071785368359
 31
0.0
  0
LINE
  5
1B984
  8
SUNPOU
 10
2755.9786626554369
 20
1119.5071785368359
 30
0.0
 11
2851.9786626554401
 21
1119.5071785368359
 31
0.0
  0
LINE
  5
1B985
  8
SUNPOU
 10
2851.9786626554401
 20
1149.5071785368341
 30
0.0
 11
2911.9786626554401
 21
1089.507178536835
 31
0.0
  0
LINE
  5
1B986
  8
SJC
 10
2901.9786626568848
 20
1315.18263405326
 30
0.0
 11
2901.9786626568848
 21
1278.831723019415
 31
0.0
  0
ARC
  5
1B987
  8
SJC
 10
2891.9786626568848
 20
1278.8317230194191
 30
0.0
 40
10.0
 50
283.9168774331053
 51
359.99999999997402
  0
LINE
  5
1B988
  8
CENTER
 10
2881.9786626568962
 20
1306.0071785363421
 30
0.0
 11
2881.9786626568898
 21
1288.0071785363421
 31
0.0
  0
LINE
  5
1B989
  8
CENTER
 10
2890.9786626568939
 20
1297.0071785363391
 30
0.0
 11
2872.9786626568939
 21
1297.007178536345
 31
0.0
  0
LINE
  5
1B98A
  8
SJC
 10
2894.3838023856488
 20
1269.125266256772
 30
0.0
 11
2788.9786626554351
 21
1243.0071785363789
 31
0.0
  0
ARC
  5
1B98B
  8
SJC
 10
2891.9786626568848
 20
1315.18263405326
 30
0.0
 40
10.0
 50
0.0000000000260551
 51
76.083122566894787
  0
LINE
  5
1B98C
  8
SJC
 10
2894.3838023856488
 20
1324.8890908159069
 30
0.0
 11
2788.9786626554351
 21
1351.0071785362991
 31
0.0
  0
LINE
  5
1B98D
  8
CENTER
 10
2881.9786626568962
 20
1306.0071785363421
 30
0.0
 11
2881.9786626568898
 21
1288.0071785363421
 31
0.0
  0
LINE
  5
1B98E
  8
CENTER
 10
2881.9786626568962
 20
1306.0071785363421
 30
0.0
 11
2881.9786626568889
 21
1288.0071785363421
 31
0.0
  0
CIRCLE
  5
1B98F
  8
SJC
 10
2881.978662656893
 20
1297.0071785363421
 30
0.0
 40
9.0
  0
CIRCLE
  5
1B990
  8
SJC
 10
2881.978662656893
 20
1297.0071785363421
 30
0.0
 40
8.0
  0
LINE
  5
1B991
  8
SJC2
 10
2881.1275988271041
 20
1302.964625344852
 30
0.0
 11
2882.829726486681
 21
1302.964625344852
 31
0.0
  0
LINE
  5
1B992
  8
SJC2
 10
2887.9361094654041
 20
1297.8582423661289
 30
0.0
 11
2887.9361094654041
 21
1296.156114706554
 31
0.0
  0
LINE
  5
1B993
  8
SJC2
 10
2876.0212158483819
 20
1297.8582423661289
 30
0.0
 11
2876.0212158483819
 21
1296.156114706554
 31
0.0
  0
LINE
  5
1B994
  8
SJC2
 10
2881.1275988271041
 20
1291.0497317278321
 30
0.0
 11
2882.829726486681
 21
1291.0497317278321
 31
0.0
  0
ARC
  5
1B995
  8
SJC2
 10
2887.9361094654041
 20
1291.0497317278321
 30
0.0
 40
5.1063829787233539
 50
90.0
 51
180.0
  0
ARC
  5
1B996
  8
SJC2
 10
2876.0212158483819
 20
1291.0497317278321
 30
0.0
 40
5.1063829787233539
 50
0.0
 51
90.0
  0
ARC
  5
1B997
  8
SJC2
 10
2887.9361094654041
 20
1302.964625344852
 30
0.0
 40
5.1063829787233539
 50
180.0
 51
270.0
  0
ARC
  5
1B998
  8
SJC2
 10
2876.0212158483819
 20
1302.964625344852
 30
0.0
 40
5.1063829787233539
 50
270.0
 51
0.0
  0
LINE
  5
1B9A8
  8
SJC
 10
1979.8293558282321
 20
1582.507178536777
 30
0.0
 11
1979.8293558282321
 21
1469.5071785367761
 31
0.0
  0
LINE
  5
1B9A9
  8
SJC
 10
1979.8293558282321
 20
1429.5071785367761
 30
0.0
 11
1979.829355828236
 21
1159.5071785367761
 31
0.0
  0
LINE
  5
1B9AA
  8
SJC
 10
1979.829355828236
 20
1119.5071785367761
 30
0.0
 11
1979.8293558282371
 21
1010.507178536777
 31
0.0
  0
LINE
  5
1B9AB
  8
SJC
 10
2279.8293558282398
 20
1582.507178536777
 30
0.0
 11
2279.8293558282398
 21
1469.5071785367729
 31
0.0
  0
LINE
  5
1B9AC
  8
SJC
 10
2279.829355828238
 20
1429.5071785367761
 30
0.0
 11
2279.8293558282362
 21
1159.5071785367729
 31
0.0
  0
LINE
  5
1B9AD
  8
SJC
 10
2279.8293558282348
 20
1119.5071785367729
 30
0.0
 11
2279.829355828233
 21
1010.507178536777
 31
0.0
  0
LINE
  5
1B9AE
  8
SJC
 10
1969.829355828231
 20
1582.507178536777
 30
0.0
 11
1969.8293558282321
 21
1469.5071785367761
 31
0.0
  0
LINE
  5
1B9AF
  8
SJC
 10
1969.8293558282321
 20
1429.5071785367761
 30
0.0
 11
1969.8293558282339
 21
1159.5071785367761
 31
0.0
  0
LINE
  5
1B9B0
  8
SJC
 10
1969.8293558282351
 20
1119.5071785367761
 30
0.0
 11
1969.8293558282351
 21
1010.507178536776
 31
0.0
  0
LINE
  5
1B9B1
  8
SJC
 10
2289.8293558282389
 20
1582.507178536777
 30
0.0
 11
2289.829355828238
 21
1469.5071785367729
 31
0.0
  0
LINE
  5
1B9B2
  8
SJC
 10
2289.829355828238
 20
1429.5071785367761
 30
0.0
 11
2289.8293558282362
 21
1159.5071785367729
 31
0.0
  0
LINE
  5
1B9B3
  8
SJC
 10
2289.8293558282362
 20
1119.5071785367729
 30
0.0
 11
2289.8293558282348
 21
1010.507178536777
 31
0.0
  0
LINE
  5
1B9B8
  8
SUNPOU
 10
2159.829355828243
 20
1469.507178536775
 30
0.0
 11
2159.829355828243
 21
1439.5071785367741
 31
0.0
  0
LINE
  5
1B9B9
  8
SUNPOU
 10
2099.829355828243
 20
1499.5071785367741
 30
0.0
 11
2099.829355828243
 21
1469.507178536775
 31
0.0
  0
LINE
  5
1B9BA
  8
SUNPOU
 10
2309.8293558282448
 20
1469.5071785367761
 30
0.0
 11
2159.829355828243
 21
1469.507178536775
 31
0.0
  0
LINE
  5
1B9BB
  8
SUNPOU
 10
1949.829355828241
 20
1469.5071785367761
 30
0.0
 11
2099.829355828243
 21
1469.507178536775
 31
0.0
  0
LINE
  5
1B9BC
  8
SUNPOU
 10
2099.829355828243
 20
1499.5071785367741
 30
0.0
 11
2159.829355828243
 21
1439.5071785367741
 31
0.0
  0
LINE
  5
1B9BD
  8
SUNPOU
 10
2159.829355828243
 20
1429.507178536775
 30
0.0
 11
2159.829355828243
 21
1399.5071785367741
 31
0.0
  0
LINE
  5
1B9BE
  8
SUNPOU
 10
2099.829355828243
 20
1459.5071785367741
 30
0.0
 11
2099.829355828243
 21
1429.507178536775
 31
0.0
  0
LINE
  5
1B9BF
  8
SUNPOU
 10
2309.8293558282448
 20
1429.5071785367761
 30
0.0
 11
2159.829355828243
 21
1429.507178536775
 31
0.0
  0
LINE
  5
1B9C0
  8
SUNPOU
 10
1949.829355828241
 20
1429.5071785367761
 30
0.0
 11
2099.829355828243
 21
1429.507178536775
 31
0.0
  0
LINE
  5
1B9C1
  8
SUNPOU
 10
2099.829355828243
 20
1459.5071785367741
 30
0.0
 11
2159.829355828243
 21
1399.5071785367741
 31
0.0
  0
LINE
  5
1B9C2
  8
SUNPOU
 10
2159.829355828243
 20
1159.507178536775
 30
0.0
 11
2159.829355828243
 21
1129.5071785367741
 31
0.0
  0
LINE
  5
1B9C3
  8
SUNPOU
 10
2099.829355828243
 20
1189.5071785367741
 30
0.0
 11
2099.829355828243
 21
1159.507178536775
 31
0.0
  0
LINE
  5
1B9C4
  8
SUNPOU
 10
2309.8293558282448
 20
1159.5071785367761
 30
0.0
 11
2159.829355828243
 21
1159.507178536775
 31
0.0
  0
LINE
  5
1B9C5
  8
SUNPOU
 10
1949.829355828241
 20
1159.5071785367761
 30
0.0
 11
2099.829355828243
 21
1159.507178536775
 31
0.0
  0
LINE
  5
1B9C6
  8
SUNPOU
 10
2099.829355828243
 20
1189.5071785367741
 30
0.0
 11
2159.829355828243
 21
1129.5071785367741
 31
0.0
  0
LINE
  5
1B9C7
  8
SUNPOU
 10
2159.829355828243
 20
1119.507178536775
 30
0.0
 11
2159.829355828243
 21
1089.5071785367741
 31
0.0
  0
LINE
  5
1B9C8
  8
SUNPOU
 10
2099.829355828243
 20
1149.5071785367741
 30
0.0
 11
2099.829355828243
 21
1119.507178536775
 31
0.0
  0
LINE
  5
1B9C9
  8
SUNPOU
 10
2309.8293558282448
 20
1119.5071785367761
 30
0.0
 11
2159.829355828243
 21
1119.507178536775
 31
0.0
  0
LINE
  5
1B9CA
  8
SUNPOU
 10
1949.829355828241
 20
1119.5071785367761
 30
0.0
 11
2099.829355828243
 21
1119.507178536775
 31
0.0
  0
LINE
  5
1B9CB
  8
SUNPOU
 10
2099.829355828243
 20
1149.5071785367741
 30
0.0
 11
2159.829355828243
 21
1089.5071785367741
 31
0.0
  0
DIMENSION
  5
1BA4B
  8
SUNPOU
  2
*D23
 10
1892.4515796487681
 20
986.50717853677668
 30
0.0
 11
1865.4515796487681
 21
1296.5071785367909
 31
0.0
 70
     0
  1
510
 13
1993.829355828233
 23
1606.507178536805
 33
0.0
 14
1993.829355828223
 24
986.50717853677668
 34
0.0
 50
90.0
1001
ACAD
1000
DSTYLE
1002
{
1070
   287
1070
     5
1070
    40
1040
10.0
1070
    41
1040
2.0
1070
    42
1040
1.0
1070
    43
1040
6.0
1070
    44
1040
1.0
1070
    73
1070
     0
1070
    74
1070
     0
1070
    77
1070
     1
1070
    78
1070
     8
1070
   140
1040
3.0
1070
   147
1040
1.1999999999999991
1070
   172
1070
     1
1070
   179
1070
     2
1070
   271
1070
     2
1070
   279
1070
     2
1070
   340
1005
55
1002
}
  0
DIMENSION
  5
1BA58
  8
SUNPOU
  2
*D24
 10
1892.4515796487681
 20
366.50717853677509
 30
0.0
 11
1865.4515796487681
 21
676.50717853677588
 31
0.0
 70
     0
  1
510
 13
1993.8293558282371
 23
986.50717853677645
 33
0.0
 14
1993.8293558282289
 24
366.50717853677497
 34
0.0
 50
90.0
1001
ACAD
1000
DSTYLE
1002
{
1070
   287
1070
     5
1070
    40
1040
10.0
1070
    41
1040
2.0
1070
    42
1040
1.0
1070
    43
1040
6.0
1070
    44
1040
1.0
1070
    73
1070
     0
1070
    74
1070
     0
1070
    77
1070
     1
1070
    78
1070
     8
1070
   140
1040
3.0
1070
   147
1040
1.1999999999999991
1070
   172
1070
     1
1070
   179
1070
     2
1070
   271
1070
     2
1070
   279
1070
     2
1070
   340
1005
55
1002
}
  0
LINE
  5
1BAD9
  8
MOJI
 10
3663.0844272244758
 20
2225.4653334509758
 30
0.0
 11
2539.8840360922259
 21
2225.4653334509758
 31
0.0
  0
INSERT
  5
1BE92
  8
HATCH
  6
CONTINUOUS
  2
*X37
 10
0.0
 20
0.0
 30
0.0
1001
ACAD
1000
HATCH
1002
{
1070
    19
1000
ANSI37
1040
4.0
1040
0.0
1000
ASC_BOUNDS
1070
     1
1070
     2
1070
     4
1005
1AE9D
1005
1AE9C
1005
1AE9F
1005
1AE9E
1000
ASC_SEEDPOINT
1011
0.0
1021
0.0
1031
0.0
1021
0.0
1031
0.0
1000
R14_HATCH_DATA
1000
1BE92
1011
1.0
1021
0.0
1031
0.0
1021
0.0
1031
0.0
1011
0.0
1021
0.0
1031
0.0
1021
1.0
1031
0.0
1011
0.0
1021
0.0
1031
0.0
1021
0.0
1031
1.0
1040
0.0
1010
0.0
1020
0.0
1030
1.0
1000
ANSI37
1070
     0
1070
     1
1071
        1
1071
        1
1071
        4
1070
     1
1040
2969.478662656893
1040
1606.507178536805
1040
2794.478662656893
1040
1606.507178536805
1070
     1
1040
2794.478662656893
1040
1606.507178536805
1040
2794.4786626568912
1040
1686.507178536805
1070
     1
1040
2794.478662656893
1040
1686.507178536807
1040
2969.478662656893
1040
1686.507178536807
1070
     1
1040
2969.478662656893
1040
1686.507178536807
1040
2969.478662656893
1040
1606.507178536805
1071
        4
1005
1AE9E
1005
1AE9F
1005
1AE9C
1005
1AE9D
1070
     0
1070
     1
1040
0.0
1040
4.0
1070
     0
1070
     2
1040
0.7853981633974483
1040
0.0
1040
0.0
1040
-8.9802561210691518
1040
8.9802561210691536
1070
     0
1040
2.3561944901923439
1040
0.0
1040
0.0
1040
-8.9802561210691536
1040
-8.9802561210691518
1070
     0
1071
        1
1040
0.0
1040
0.0
1040
0.0
1002
}
  0
INSERT
  5
1BE93
  8
HATCH
  6
CONTINUOUS
  2
*X38
 10
0.0
 20
0.0
 30
0.0
1001
ACAD
1000
HATCH
1002
{
1070
    19
1000
ANSI37
1040
4.0
1040
0.0
1000
ASC_BOUNDS
1070
     1
1070
     2
1070
     4
1005
1AE9D
1005
1AE9C
1005
1AE9F
1005
1AE9E
1000
ASC_SEEDPOINT
1011
-752.14930682865815
1021
0.0
1031
0.0
1021
0.0
1031
0.0
1000
R14_HATCH_DATA
1000
1BE93
1011
1.0
1021
0.0
1031
0.0
1021
0.0
1031
0.0
1011
0.0
1021
0.0
1031
0.0
1021
1.0
1031
0.0
1011
0.0
1021
0.0
1031
0.0
1021
0.0
1031
1.0
1040
0.0
1010
0.0
1020
0.0
1030
1.0
1000
ANSI37
1070
     0
1070
     1
1071
        1
1071
        1
1071
        4
1070
     1
1040
2217.3293558282348
1040
1606.507178536805
1040
2042.3293558282351
1040
1606.507178536805
1070
     1
1040
2042.3293558282351
1040
1606.507178536805
1040
2042.329355828233
1040
1686.507178536805
1070
     1
1040
2042.3293558282351
1040
1686.507178536807
1040
2217.3293558282348
1040
1686.507178536807
1070
     1
1040
2217.3293558282348
1040
1686.507178536807
1040
2217.3293558282348
1040
1606.507178536805
1071
        4
1005
1AE9E
1005
1AE9F
1005
1AE9C
1005
1AE9D
1070
     0
1070
     1
1040
0.0
1040
4.0
1070
     0
1070
     2
1040
0.7853981633974483
1040
-752.14930682865815
1040
0.0
1040
-8.9802561210691518
1040
8.9802561210691536
1070
     0
1040
2.3561944901923439
1040
-752.14930682865815
1040
0.0
1040
-8.9802561210691536
1040
-8.9802561210691518
1070
     0
1071
        1
1040
-752.14930682865815
1040
0.0
1040
0.0
1002
}
  0
INSERT
  5
1BE94
  8
HATCH
  6
CONTINUOUS
  2
*X39
 10
0.0
 20
0.0
 30
0.0
1001
ACAD
1000
HATCH
1002
{
1070
    19
1000
ANSI37
1040
2.0
1040
0.0
1000
ASC_BOUNDS
1070
     1
1070
     2
1070
     4
1005
194BD
1005
194BC
1005
194BF
1005
194BE
1000
ASC_SEEDPOINT
1011
0.0
1021
0.0
1031
0.0
1021
0.0
1031
0.0
1000
R14_HATCH_DATA
1000
1BE94
1011
1.0
1021
0.0
1031
0.0
1021
0.0
1031
0.0
1011
0.0
1021
0.0
1031
0.0
1021
1.0
1031
0.0
1011
0.0
1021
0.0
1031
0.0
1021
0.0
1031
1.0
1040
0.0
1010
0.0
1020
0.0
1030
1.0
1000
ANSI37
1070
     0
1070
     1
1071
        1
1071
        1
1071
        4
1070
     1
1040
1460.6132148796351
1040
2287.5888987645412
1040
1373.1132148796351
1040
2287.5888987645412
1070
     1
1040
1373.1132148796351
1040
2287.5888987645412
1040
1373.1132148796339
1040
2327.5888987645412
1070
     1
1040
1373.1132148796351
1040
2327.5888987645421
1040
1460.6132148796339
1040
2327.5888987645421
1070
     1
1040
1460.6132148796339
1040
2327.5888987645421
1040
1460.6132148796351
1040
2287.5888987645412
1071
        4
1005
194BE
1005
194BF
1005
194BC
1005
194BD
1070
     0
1070
     1
1040
0.0
1040
2.0
1070
     0
1070
     2
1040
0.7853981633974483
1040
0.0
1040
0.0
1040
-4.490128060534575
1040
4.4901280605345759
1070
     0
1040
2.3561944901923439
1040
0.0
1040
0.0
1040
-4.4901280605345759
1040
-4.490128060534575
1070
     0
1071
        1
1040
0.0
1040
0.0
1040
0.0
1002
}
  0
INSERT
  5
1BE9E
  8
HATCH
  6
CONTINUOUS
  2
*X40
 10
0.0
 20
0.0
 30
0.0
1001
ACAD
1000
HATCH
1002
{
1070
    19
1000
ANSI37
1040
2.0
1040
0.0
1000
ASC_BOUNDS
1070
     1
1070
     2
1070
     4
1005
194BD
1005
194BC
1005
194BF
1005
194BE
1000
ASC_SEEDPOINT
1011
-729.21583313409417
1021
0.0
1031
0.0
1021
0.0
1031
0.0
1000
R14_HATCH_DATA
1000
1BE9E
1011
1.0
1021
0.0
1031
0.0
1021
0.0
1031
0.0
1011
0.0
1021
0.0
1031
0.0
1021
1.0
1031
0.0
1011
0.0
1021
0.0
1031
0.0
1021
0.0
1031
1.0
1040
0.0
1010
0.0
1020
0.0
1030
1.0
1000
ANSI37
1070
     0
1070
     1
1071
        1
1071
        1
1071
        4
1070
     1
1040
731.39738174554077
1040
2287.5888987645412
1040
643.89738174554032
1040
2287.5888987645412
1070
     1
1040
643.89738174554032
1040
2287.5888987645412
1040
643.89738174553975
1040
2327.5888987645412
1070
     1
1040
643.89738174554077
1040
2327.5888987645421
1040
731.39738174554032
1040
2327.5888987645421
1070
     1
1040
731.39738174554032
1040
2327.5888987645421
1040
731.39738174554077
1040
2287.5888987645412
1071
        4
1005
194BE
1005
194BF
1005
194BC
1005
194BD
1070
     0
1070
     1
1040
0.0
1040
2.0
1070
     0
1070
     2
1040
0.7853981633974483
1040
-729.21583313409417
1040
0.0
1040
-4.490128060534575
1040
4.4901280605345759
1070
     0
1040
2.3561944901923439
1040
-729.21583313409417
1040
0.0
1040
-4.4901280605345759
1040
-4.490128060534575
1070
     0
1071
        1
1040
-729.21583313409417
1040
0.0
1040
0.0
1002
}
  0
DIMENSION
  5
1BE9F
  8
SUNPOU
  2
*D25
 10
533.71736719745945
 20
2287.5888987645412
 30
0.0
 11
490.71736719745923
 21
2307.5888987645412
 31
0.0
 70
     0
 13
643.89738174553895
 23
2327.5888987645399
 33
0.0
 14
619.64738174553975
 24
2287.5888987645412
 34
0.0
 50
90.0
1001
ACAD
1000
DSTYLE
1002
{
1070
   287
1070
     5
1070
    40
1040
10.0
1070
    41
1040
2.0
1070
    42
1040
1.0
1070
    43
1040
6.0
1070
    44
1040
1.0
1070
    73
1070
     0
1070
    74
1070
     0
1070
    77
1070
     1
1070
    78
1070
     8
1070
   140
1040
3.0
1070
   147
1040
1.1999999999999991
1070
   172
1070
     1
1070
   179
1070
     2
1070
   271
1070
     2
1070
   279
1070
     2
1070
   340
1005
55
1002
}
  0
DIMENSION
  5
1BEAE
  8
SUNPOU
  2
*D26
 10
233.93867437074709
 20
787.58889876454134
 30
0.0
 11
206.93867437074709
 21
1567.588898764538
 31
0.0
 70
     0
 13
687.64738174554077
 23
2347.5888987645349
 33
0.0
 14
460.11334604726471
 24
787.58889876454123
 34
0.0
 50
90.0
1001
ACAD
1000
DSTYLE
1002
{
1070
   287
1070
     5
1070
    40
1040
10.0
1070
    41
1040
2.0
1070
    42
1040
1.0
1070
    43
1040
6.0
1070
    44
1040
1.0
1070
    73
1070
     0
1070
    74
1070
     0
1070
    77
1070
     1
1070
    78
1070
     8
1070
   140
1040
3.0
1070
   147
1040
1.1999999999999991
1070
   172
1070
     1
1070
   179
1070
     2
1070
   271
1070
     2
1070
   279
1070
     2
1070
   340
1005
55
1002
}
  0
POLYLINE
  5
1BF59
  8
SJC2
 10
498.42551578931096
 20
289.57177566539235
 30
0.0
 66
     1
 70
     8
  0
VERTEX
  8
SJC2
  5
1C5C4
 10
498.426
 20
289.572
 30
0.000000
  70
    32
  0
VERTEX
  8
SJC2
  5
1C5C5
 10
499.592
 20
288.976
 30
0.000000
  70
    32
  0
VERTEX
  8
SJC2
  5
1C5C6
 10
500.822
 20
288.499
 30
0.000000
  70
    32
  0
VERTEX
  8
SJC2
  5
1C5C7
 10
502.115
 20
288.142
 30
0.000000
  70
    32
  0
VERTEX
  8
SJC2
  5
1C5C8
 10
503.466
 20
287.904
 30
0.000000
  70
    32
  0
VERTEX
  8
SJC2
  5
1C5C9
 10
504.872
 20
287.788
 30
0.000000
  70
    32
  0
VERTEX
  8
SJC2
  5
1C5CA
 10
506.330
 20
287.793
 30
0.000000
  70
    32
  0
VERTEX
  8
SJC2
  5
1C5CB
 10
507.837
 20
287.918
 30
0.000000
  70
    32
  0
VERTEX
  8
SJC2
  5
1C5CC
 10
509.388
 20
288.165
 30
0.000000
  70
    32
  0
VERTEX
  8
SJC2
  5
1C5CD
 10
510.981
 20
288.532
 30
0.000000
  70
    32
  0
VERTEX
  8
SJC2
  5
1C5CE
 10
512.610
 20
289.018
 30
0.000000
  70
    32
  0
VERTEX
  8
SJC2
  5
1C5CF
 10
514.273
 20
289.622
 30
0.000000
  70
    32
  0
VERTEX
  8
SJC2
  5
1C5D0
 10
515.965
 20
290.343
 30
0.000000
  70
    32
  0
VERTEX
  8
SJC2
  5
1C5D1
 10
517.683
 20
291.179
 30
0.000000
  70
    32
  0
VERTEX
  8
SJC2
  5
1C5D2
 10
519.421
 20
292.128
 30
0.000000
  70
    32
  0
VERTEX
  8
SJC2
  5
1C5D3
 10
521.177
 20
293.188
 30
0.000000
  70
    32
  0
VERTEX
  8
SJC2
  5
1C5D4
 10
522.945
 20
294.356
 30
0.000000
  70
    32
  0
VERTEX
  8
SJC2
  5
1C5D5
 10
524.721
 20
295.629
 30
0.000000
  70
    32
  0
VERTEX
  8
SJC2
  5
1C5D6
 10
526.502
 20
297.004
 30
0.000000
  70
    32
  0
VERTEX
  8
SJC2
  5
1C5D7
 10
528.282
 20
298.479
 30
0.000000
  70
    32
  0
VERTEX
  8
SJC2
  5
1C5D8
 10
530.058
 20
300.048
 30
0.000000
  70
    32
  0
VERTEX
  8
SJC2
  5
1C5D9
 10
531.825
 20
301.709
 30
0.000000
  70
    32
  0
VERTEX
  8
SJC2
  5
1C5DA
 10
533.579
 20
303.458
 30
0.000000
  70
    32
  0
VERTEX
  8
SJC2
  5
1C5DB
 10
535.316
 20
305.291
 30
0.000000
  70
    32
  0
VERTEX
  8
SJC2
  5
1C5DC
 10
537.031
 20
307.202
 30
0.000000
  70
    32
  0
VERTEX
  8
SJC2
  5
1C5DD
 10
538.721
 20
309.187
 30
0.000000
  70
    32
  0
VERTEX
  8
SJC2
  5
1C5DE
 10
540.381
 20
311.243
 30
0.000000
  70
    32
  0
VERTEX
  8
SJC2
  5
1C5DF
 10
542.008
 20
313.362
 30
0.000000
  70
    32
  0
VERTEX
  8
SJC2
  5
1C5E0
 10
543.597
 20
315.542
 30
0.000000
  70
    32
  0
VERTEX
  8
SJC2
  5
1C5E1
 10
545.145
 20
317.775
 30
0.000000
  70
    32
  0
VERTEX
  8
SJC2
  5
1C5E2
 10
546.648
 20
320.058
 30
0.000000
  70
    32
  0
VERTEX
  8
SJC2
  5
1C5E3
 10
548.102
 20
322.384
 30
0.000000
  70
    32
  0
VERTEX
  8
SJC2
  5
1C5E4
 10
549.503
 20
324.748
 30
0.000000
  70
    32
  0
VERTEX
  8
SJC2
  5
1C5E5
 10
550.850
 20
327.143
 30
0.000000
  70
    32
  0
VERTEX
  8
SJC2
  5
1C5E6
 10
552.137
 20
329.565
 30
0.000000
  70
    32
  0
VERTEX
  8
SJC2
  5
1C5E7
 10
553.362
 20
332.008
 30
0.000000
  70
    32
  0
VERTEX
  8
SJC2
  5
1C5E8
 10
554.523
 20
334.465
 30
0.000000
  70
    32
  0
VERTEX
  8
SJC2
  5
1C5E9
 10
555.616
 20
336.931
 30
0.000000
  70
    32
  0
VERTEX
  8
SJC2
  5
1C5EA
 10
556.638
 20
339.400
 30
0.000000
  70
    32
  0
VERTEX
  8
SJC2
  5
1C5EB
 10
557.588
 20
341.865
 30
0.000000
  70
    32
  0
VERTEX
  8
SJC2
  5
1C5EC
 10
558.462
 20
344.322
 30
0.000000
  70
    32
  0
VERTEX
  8
SJC2
  5
1C5ED
 10
559.260
 20
346.763
 30
0.000000
  70
    32
  0
VERTEX
  8
SJC2
  5
1C5EE
 10
559.978
 20
349.183
 30
0.000000
  70
    32
  0
VERTEX
  8
SJC2
  5
1C5EF
 10
560.616
 20
351.577
 30
0.000000
  70
    32
  0
VERTEX
  8
SJC2
  5
1C5F0
 10
561.171
 20
353.938
 30
0.000000
  70
    32
  0
VERTEX
  8
SJC2
  5
1C5F1
 10
561.642
 20
356.260
 30
0.000000
  70
    32
  0
VERTEX
  8
SJC2
  5
1C5F2
 10
562.029
 20
358.539
 30
0.000000
  70
    32
  0
VERTEX
  8
SJC2
  5
1C5F3
 10
562.330
 20
360.769
 30
0.000000
  70
    32
  0
VERTEX
  8
SJC2
  5
1C5F4
 10
562.544
 20
362.944
 30
0.000000
  70
    32
  0
VERTEX
  8
SJC2
  5
1C5F5
 10
562.671
 20
365.059
 30
0.000000
  70
    32
  0
VERTEX
  8
SJC2
  5
1C5F6
 10
562.711
 20
367.109
 30
0.000000
  70
    32
  0
VERTEX
  8
SJC2
  5
1C5F7
 10
562.664
 20
369.089
 30
0.000000
  70
    32
  0
VERTEX
  8
SJC2
  5
1C5F8
 10
562.529
 20
370.994
 30
0.000000
  70
    32
  0
VERTEX
  8
SJC2
  5
1C5F9
 10
562.308
 20
372.820
 30
0.000000
  70
    32
  0
VERTEX
  8
SJC2
  5
1C5FA
 10
562.000
 20
374.563
 30
0.000000
  70
    32
  0
VERTEX
  8
SJC2
  5
1C5FB
 10
561.606
 20
376.217
 30
0.000000
  70
    32
  0
VERTEX
  8
SJC2
  5
1C5FC
 10
561.127
 20
377.780
 30
0.000000
  70
    32
  0
VERTEX
  8
SJC2
  5
1C5FD
 10
560.565
 20
379.247
 30
0.000000
  70
    32
  0
VERTEX
  8
SJC2
  5
1C5FE
 10
559.921
 20
380.614
 30
0.000000
  70
    32
  0
VERTEX
  8
SJC2
  5
1C5FF
 10
559.196
 20
381.879
 30
0.000000
  70
    32
  0
VERTEX
  8
SJC2
  5
1C600
 10
558.392
 20
383.039
 30
0.000000
  70
    32
  0
VERTEX
  8
SJC2
  5
1C601
 10
557.511
 20
384.090
 30
0.000000
  70
    32
  0
VERTEX
  8
SJC2
  5
1C602
 10
556.555
 20
385.031
 30
0.000000
  70
    32
  0
VERTEX
  8
SJC2
  5
1C603
 10
555.526
 20
385.858
 30
0.000000
  70
    32
  0
VERTEX
  8
SJC2
  5
1C604
 10
554.428
 20
386.570
 30
0.000000
  70
    32
  0
VERTEX
  8
SJC2
  5
1C605
 10
553.262
 20
387.165
 30
0.000000
  70
    32
  0
VERTEX
  8
SJC2
  5
1C606
 10
552.031
 20
387.643
 30
0.000000
  70
    32
  0
VERTEX
  8
SJC2
  5
1C607
 10
550.738
 20
388.000
 30
0.000000
  70
    32
  0
VERTEX
  8
SJC2
  5
1C608
 10
549.387
 20
388.238
 30
0.000000
  70
    32
  0
VERTEX
  8
SJC2
  5
1C609
 10
547.981
 20
388.354
 30
0.000000
  70
    32
  0
VERTEX
  8
SJC2
  5
1C60A
 10
546.523
 20
388.349
 30
0.000000
  70
    32
  0
VERTEX
  8
SJC2
  5
1C60B
 10
545.016
 20
388.224
 30
0.000000
  70
    32
  0
VERTEX
  8
SJC2
  5
1C60C
 10
543.465
 20
387.977
 30
0.000000
  70
    32
  0
VERTEX
  8
SJC2
  5
1C60D
 10
541.873
 20
387.610
 30
0.000000
  70
    32
  0
VERTEX
  8
SJC2
  5
1C60E
 10
540.243
 20
387.124
 30
0.000000
  70
    32
  0
VERTEX
  8
SJC2
  5
1C60F
 10
538.580
 20
386.520
 30
0.000000
  70
    32
  0
VERTEX
  8
SJC2
  5
1C610
 10
536.888
 20
385.799
 30
0.000000
  70
    32
  0
VERTEX
  8
SJC2
  5
1C611
 10
535.170
 20
384.963
 30
0.000000
  70
    32
  0
VERTEX
  8
SJC2
  5
1C612
 10
533.432
 20
384.014
 30
0.000000
  70
    32
  0
VERTEX
  8
SJC2
  5
1C613
 10
531.676
 20
382.954
 30
0.000000
  70
    32
  0
VERTEX
  8
SJC2
  5
1C614
 10
529.908
 20
381.786
 30
0.000000
  70
    32
  0
VERTEX
  8
SJC2
  5
1C615
 10
528.132
 20
380.513
 30
0.000000
  70
    32
  0
VERTEX
  8
SJC2
  5
1C616
 10
526.352
 20
379.138
 30
0.000000
  70
    32
  0
VERTEX
  8
SJC2
  5
1C617
 10
524.571
 20
377.663
 30
0.000000
  70
    32
  0
VERTEX
  8
SJC2
  5
1C618
 10
522.795
 20
376.094
 30
0.000000
  70
    32
  0
VERTEX
  8
SJC2
  5
1C619
 10
521.028
 20
374.432
 30
0.000000
  70
    32
  0
VERTEX
  8
SJC2
  5
1C61A
 10
519.274
 20
372.684
 30
0.000000
  70
    32
  0
VERTEX
  8
SJC2
  5
1C61B
 10
517.537
 20
370.851
 30
0.000000
  70
    32
  0
VERTEX
  8
SJC2
  5
1C61C
 10
515.822
 20
368.940
 30
0.000000
  70
    32
  0
VERTEX
  8
SJC2
  5
1C61D
 10
514.132
 20
366.954
 30
0.000000
  70
    32
  0
VERTEX
  8
SJC2
  5
1C61E
 10
512.472
 20
364.899
 30
0.000000
  70
    32
  0
VERTEX
  8
SJC2
  5
1C61F
 10
510.845
 20
362.779
 30
0.000000
  70
    32
  0
VERTEX
  8
SJC2
  5
1C620
 10
509.256
 20
360.600
 30
0.000000
  70
    32
  0
VERTEX
  8
SJC2
  5
1C621
 10
507.708
 20
358.367
 30
0.000000
  70
    32
  0
VERTEX
  8
SJC2
  5
1C622
 10
506.205
 20
356.084
 30
0.000000
  70
    32
  0
VERTEX
  8
SJC2
  5
1C623
 10
504.751
 20
353.758
 30
0.000000
  70
    32
  0
VERTEX
  8
SJC2
  5
1C624
 10
503.350
 20
351.394
 30
0.000000
  70
    32
  0
VERTEX
  8
SJC2
  5
1C625
 10
502.003
 20
348.999
 30
0.000000
  70
    32
  0
VERTEX
  8
SJC2
  5
1C626
 10
500.716
 20
346.577
 30
0.000000
  70
    32
  0
VERTEX
  8
SJC2
  5
1C627
 10
499.491
 20
344.134
 30
0.000000
  70
    32
  0
VERTEX
  8
SJC2
  5
1C628
 10
498.330
 20
341.677
 30
0.000000
  70
    32
  0
VERTEX
  8
SJC2
  5
1C629
 10
497.238
 20
339.211
 30
0.000000
  70
    32
  0
VERTEX
  8
SJC2
  5
1C62A
 10
496.215
 20
336.742
 30
0.000000
  70
    32
  0
VERTEX
  8
SJC2
  5
1C62B
 10
495.265
 20
334.277
 30
0.000000
  70
    32
  0
VERTEX
  8
SJC2
  5
1C62C
 10
494.391
 20
331.820
 30
0.000000
  70
    32
  0
VERTEX
  8
SJC2
  5
1C62D
 10
493.593
 20
329.379
 30
0.000000
  70
    32
  0
VERTEX
  8
SJC2
  5
1C62E
 10
492.875
 20
326.959
 30
0.000000
  70
    32
  0
VERTEX
  8
SJC2
  5
1C62F
 10
492.237
 20
324.565
 30
0.000000
  70
    32
  0
VERTEX
  8
SJC2
  5
1C630
 10
491.682
 20
322.204
 30
0.000000
  70
    32
  0
VERTEX
  8
SJC2
  5
1C631
 10
491.211
 20
319.882
 30
0.000000
  70
    32
  0
VERTEX
  8
SJC2
  5
1C632
 10
490.824
 20
317.603
 30
0.000000
  70
    32
  0
VERTEX
  8
SJC2
  5
1C633
 10
490.523
 20
315.373
 30
0.000000
  70
    32
  0
VERTEX
  8
SJC2
  5
1C634
 10
490.309
 20
313.198
 30
0.000000
  70
    32
  0
VERTEX
  8
SJC2
  5
1C635
 10
490.182
 20
311.083
 30
0.000000
  70
    32
  0
VERTEX
  8
SJC2
  5
1C636
 10
490.142
 20
309.033
 30
0.000000
  70
    32
  0
VERTEX
  8
SJC2
  5
1C637
 10
490.189
 20
307.053
 30
0.000000
  70
    32
  0
VERTEX
  8
SJC2
  5
1C638
 10
490.324
 20
305.147
 30
0.000000
  70
    32
  0
VERTEX
  8
SJC2
  5
1C639
 10
490.545
 20
303.321
 30
0.000000
  70
    32
  0
VERTEX
  8
SJC2
  5
1C63A
 10
490.853
 20
301.579
 30
0.000000
  70
    32
  0
VERTEX
  8
SJC2
  5
1C63B
 10
491.247
 20
299.925
 30
0.000000
  70
    32
  0
VERTEX
  8
SJC2
  5
1C63C
 10
491.726
 20
298.362
 30
0.000000
  70
    32
  0
VERTEX
  8
SJC2
  5
1C63D
 10
492.288
 20
296.895
 30
0.000000
  70
    32
  0
VERTEX
  8
SJC2
  5
1C63E
 10
492.932
 20
295.528
 30
0.000000
  70
    32
  0
VERTEX
  8
SJC2
  5
1C63F
 10
493.657
 20
294.263
 30
0.000000
  70
    32
  0
VERTEX
  8
SJC2
  5
1C640
 10
494.461
 20
293.103
 30
0.000000
  70
    32
  0
VERTEX
  8
SJC2
  5
1C641
 10
495.342
 20
292.052
 30
0.000000
  70
    32
  0
VERTEX
  8
SJC2
  5
1C642
 10
496.298
 20
291.111
 30
0.000000
  70
    32
  0
VERTEX
  8
SJC2
  5
1C643
 10
497.327
 20
290.284
 30
0.000000
  70
    32
  0
VERTEX
  8
SJC2
  5
1C644
 10
498.426
 20
289.572
 30
0.000000
  70
    32
  0
SEQEND
  8
SJC2
  5
1C645
  0
POLYLINE
  5
1BF5A
  8
SJC2
 10
560.68523048196744
 20
289.57177566539235
 30
0.0
 66
     1
 70
     8
  0
VERTEX
  8
SJC2
  5
1C646
 10
560.685
 20
289.572
 30
0.000000
  70
    32
  0
VERTEX
  8
SJC2
  5
1C647
 10
561.851
 20
288.976
 30
0.000000
  70
    32
  0
VERTEX
  8
SJC2
  5
1C648
 10
563.082
 20
288.499
 30
0.000000
  70
    32
  0
VERTEX
  8
SJC2
  5
1C649
 10
564.374
 20
288.142
 30
0.000000
  70
    32
  0
VERTEX
  8
SJC2
  5
1C64A
 10
565.725
 20
287.904
 30
0.000000
  70
    32
  0
VERTEX
  8
SJC2
  5
1C64B
 10
567.132
 20
287.788
 30
0.000000
  70
    32
  0
VERTEX
  8
SJC2
  5
1C64C
 10
568.590
 20
287.793
 30
0.000000
  70
    32
  0
VERTEX
  8
SJC2
  5
1C64D
 10
570.096
 20
287.918
 30
0.000000
  70
    32
  0
VERTEX
  8
SJC2
  5
1C64E
 10
571.648
 20
288.165
 30
0.000000
  70
    32
  0
VERTEX
  8
SJC2
  5
1C64F
 10
573.240
 20
288.532
 30
0.000000
  70
    32
  0
VERTEX
  8
SJC2
  5
1C650
 10
574.870
 20
289.018
 30
0.000000
  70
    32
  0
VERTEX
  8
SJC2
  5
1C651
 10
576.533
 20
289.622
 30
0.000000
  70
    32
  0
VERTEX
  8
SJC2
  5
1C652
 10
578.225
 20
290.343
 30
0.000000
  70
    32
  0
VERTEX
  8
SJC2
  5
1C653
 10
579.943
 20
291.179
 30
0.000000
  70
    32
  0
VERTEX
  8
SJC2
  5
1C654
 10
581.681
 20
292.128
 30
0.000000
  70
    32
  0
VERTEX
  8
SJC2
  5
1C655
 10
583.436
 20
293.188
 30
0.000000
  70
    32
  0
VERTEX
  8
SJC2
  5
1C656
 10
585.204
 20
294.356
 30
0.000000
  70
    32
  0
VERTEX
  8
SJC2
  5
1C657
 10
586.981
 20
295.629
 30
0.000000
  70
    32
  0
VERTEX
  8
SJC2
  5
1C658
 10
588.761
 20
297.004
 30
0.000000
  70
    32
  0
VERTEX
  8
SJC2
  5
1C659
 10
590.542
 20
298.479
 30
0.000000
  70
    32
  0
VERTEX
  8
SJC2
  5
1C65A
 10
592.317
 20
300.048
 30
0.000000
  70
    32
  0
VERTEX
  8
SJC2
  5
1C65B
 10
594.085
 20
301.709
 30
0.000000
  70
    32
  0
VERTEX
  8
SJC2
  5
1C65C
 10
595.839
 20
303.458
 30
0.000000
  70
    32
  0
VERTEX
  8
SJC2
  5
1C65D
 10
597.576
 20
305.291
 30
0.000000
  70
    32
  0
VERTEX
  8
SJC2
  5
1C65E
 10
599.291
 20
307.202
 30
0.000000
  70
    32
  0
VERTEX
  8
SJC2
  5
1C65F
 10
600.981
 20
309.187
 30
0.000000
  70
    32
  0
VERTEX
  8
SJC2
  5
1C660
 10
602.641
 20
311.243
 30
0.000000
  70
    32
  0
VERTEX
  8
SJC2
  5
1C661
 10
604.268
 20
313.362
 30
0.000000
  70
    32
  0
VERTEX
  8
SJC2
  5
1C662
 10
605.857
 20
315.542
 30
0.000000
  70
    32
  0
VERTEX
  8
SJC2
  5
1C663
 10
607.405
 20
317.775
 30
0.000000
  70
    32
  0
VERTEX
  8
SJC2
  5
1C664
 10
608.907
 20
320.058
 30
0.000000
  70
    32
  0
VERTEX
  8
SJC2
  5
1C665
 10
610.361
 20
322.384
 30
0.000000
  70
    32
  0
VERTEX
  8
SJC2
  5
1C666
 10
611.763
 20
324.748
 30
0.000000
  70
    32
  0
VERTEX
  8
SJC2
  5
1C667
 10
613.109
 20
327.143
 30
0.000000
  70
    32
  0
VERTEX
  8
SJC2
  5
1C668
 10
614.397
 20
329.565
 30
0.000000
  70
    32
  0
VERTEX
  8
SJC2
  5
1C669
 10
615.622
 20
332.008
 30
0.000000
  70
    32
  0
VERTEX
  8
SJC2
  5
1C66A
 10
616.782
 20
334.465
 30
0.000000
  70
    32
  0
VERTEX
  8
SJC2
  5
1C66B
 10
617.875
 20
336.931
 30
0.000000
  70
    32
  0
VERTEX
  8
SJC2
  5
1C66C
 10
618.898
 20
339.400
 30
0.000000
  70
    32
  0
VERTEX
  8
SJC2
  5
1C66D
 10
619.847
 20
341.865
 30
0.000000
  70
    32
  0
VERTEX
  8
SJC2
  5
1C66E
 10
620.722
 20
344.322
 30
0.000000
  70
    32
  0
VERTEX
  8
SJC2
  5
1C66F
 10
621.520
 20
346.763
 30
0.000000
  70
    32
  0
VERTEX
  8
SJC2
  5
1C670
 10
622.238
 20
349.183
 30
0.000000
  70
    32
  0
VERTEX
  8
SJC2
  5
1C671
 10
622.875
 20
351.577
 30
0.000000
  70
    32
  0
VERTEX
  8
SJC2
  5
1C672
 10
623.431
 20
353.938
 30
0.000000
  70
    32
  0
VERTEX
  8
SJC2
  5
1C673
 10
623.902
 20
356.260
 30
0.000000
  70
    32
  0
VERTEX
  8
SJC2
  5
1C674
 10
624.289
 20
358.539
 30
0.000000
  70
    32
  0
VERTEX
  8
SJC2
  5
1C675
 10
624.589
 20
360.769
 30
0.000000
  70
    32
  0
VERTEX
  8
SJC2
  5
1C676
 10
624.804
 20
362.944
 30
0.000000
  70
    32
  0
VERTEX
  8
SJC2
  5
1C677
 10
624.931
 20
365.059
 30
0.000000
  70
    32
  0
VERTEX
  8
SJC2
  5
1C678
 10
624.971
 20
367.109
 30
0.000000
  70
    32
  0
VERTEX
  8
SJC2
  5
1C679
 10
624.924
 20
369.089
 30
0.000000
  70
    32
  0
VERTEX
  8
SJC2
  5
1C67A
 10
624.789
 20
370.994
 30
0.000000
  70
    32
  0
VERTEX
  8
SJC2
  5
1C67B
 10
624.567
 20
372.820
 30
0.000000
  70
    32
  0
VERTEX
  8
SJC2
  5
1C67C
 10
624.259
 20
374.563
 30
0.000000
  70
    32
  0
VERTEX
  8
SJC2
  5
1C67D
 10
623.866
 20
376.217
 30
0.000000
  70
    32
  0
VERTEX
  8
SJC2
  5
1C67E
 10
623.387
 20
377.780
 30
0.000000
  70
    32
  0
VERTEX
  8
SJC2
  5
1C67F
 10
622.825
 20
379.247
 30
0.000000
  70
    32
  0
VERTEX
  8
SJC2
  5
1C680
 10
622.180
 20
380.614
 30
0.000000
  70
    32
  0
VERTEX
  8
SJC2
  5
1C681
 10
621.455
 20
381.879
 30
0.000000
  70
    32
  0
VERTEX
  8
SJC2
  5
1C682
 10
620.651
 20
383.039
 30
0.000000
  70
    32
  0
VERTEX
  8
SJC2
  5
1C683
 10
619.770
 20
384.090
 30
0.000000
  70
    32
  0
VERTEX
  8
SJC2
  5
1C684
 10
618.814
 20
385.031
 30
0.000000
  70
    32
  0
VERTEX
  8
SJC2
  5
1C685
 10
617.786
 20
385.858
 30
0.000000
  70
    32
  0
VERTEX
  8
SJC2
  5
1C686
 10
616.687
 20
386.570
 30
0.000000
  70
    32
  0
VERTEX
  8
SJC2
  5
1C687
 10
615.521
 20
387.165
 30
0.000000
  70
    32
  0
VERTEX
  8
SJC2
  5
1C688
 10
614.291
 20
387.643
 30
0.000000
  70
    32
  0
VERTEX
  8
SJC2
  5
1C689
 10
612.998
 20
388.000
 30
0.000000
  70
    32
  0
VERTEX
  8
SJC2
  5
1C68A
 10
611.647
 20
388.238
 30
0.000000
  70
    32
  0
VERTEX
  8
SJC2
  5
1C68B
 10
610.241
 20
388.354
 30
0.000000
  70
    32
  0
VERTEX
  8
SJC2
  5
1C68C
 10
608.783
 20
388.349
 30
0.000000
  70
    32
  0
VERTEX
  8
SJC2
  5
1C68D
 10
607.276
 20
388.224
 30
0.000000
  70
    32
  0
VERTEX
  8
SJC2
  5
1C68E
 10
605.725
 20
387.977
 30
0.000000
  70
    32
  0
VERTEX
  8
SJC2
  5
1C68F
 10
604.132
 20
387.610
 30
0.000000
  70
    32
  0
VERTEX
  8
SJC2
  5
1C690
 10
602.503
 20
387.124
 30
0.000000
  70
    32
  0
VERTEX
  8
SJC2
  5
1C691
 10
600.840
 20
386.520
 30
0.000000
  70
    32
  0
VERTEX
  8
SJC2
  5
1C692
 10
599.147
 20
385.799
 30
0.000000
  70
    32
  0
VERTEX
  8
SJC2
  5
1C693
 10
597.430
 20
384.963
 30
0.000000
  70
    32
  0
VERTEX
  8
SJC2
  5
1C694
 10
595.692
 20
384.014
 30
0.000000
  70
    32
  0
VERTEX
  8
SJC2
  5
1C695
 10
593.936
 20
382.954
 30
0.000000
  70
    32
  0
VERTEX
  8
SJC2
  5
1C696
 10
592.168
 20
381.786
 30
0.000000
  70
    32
  0
VERTEX
  8
SJC2
  5
1C697
 10
590.392
 20
380.513
 30
0.000000
  70
    32
  0
VERTEX
  8
SJC2
  5
1C698
 10
588.611
 20
379.138
 30
0.000000
  70
    32
  0
VERTEX
  8
SJC2
  5
1C699
 10
586.831
 20
377.663
 30
0.000000
  70
    32
  0
VERTEX
  8
SJC2
  5
1C69A
 10
585.055
 20
376.094
 30
0.000000
  70
    32
  0
VERTEX
  8
SJC2
  5
1C69B
 10
583.288
 20
374.432
 30
0.000000
  70
    32
  0
VERTEX
  8
SJC2
  5
1C69C
 10
581.534
 20
372.684
 30
0.000000
  70
    32
  0
VERTEX
  8
SJC2
  5
1C69D
 10
579.797
 20
370.851
 30
0.000000
  70
    32
  0
VERTEX
  8
SJC2
  5
1C69E
 10
578.082
 20
368.940
 30
0.000000
  70
    32
  0
VERTEX
  8
SJC2
  5
1C69F
 10
576.392
 20
366.954
 30
0.000000
  70
    32
  0
VERTEX
  8
SJC2
  5
1C6A0
 10
574.731
 20
364.899
 30
0.000000
  70
    32
  0
VERTEX
  8
SJC2
  5
1C6A1
 10
573.105
 20
362.779
 30
0.000000
  70
    32
  0
VERTEX
  8
SJC2
  5
1C6A2
 10
571.515
 20
360.600
 30
0.000000
  70
    32
  0
VERTEX
  8
SJC2
  5
1C6A3
 10
569.968
 20
358.367
 30
0.000000
  70
    32
  0
VERTEX
  8
SJC2
  5
1C6A4
 10
568.465
 20
356.084
 30
0.000000
  70
    32
  0
VERTEX
  8
SJC2
  5
1C6A5
 10
567.011
 20
353.758
 30
0.000000
  70
    32
  0
VERTEX
  8
SJC2
  5
1C6A6
 10
565.609
 20
351.394
 30
0.000000
  70
    32
  0
VERTEX
  8
SJC2
  5
1C6A7
 10
564.263
 20
348.999
 30
0.000000
  70
    32
  0
VERTEX
  8
SJC2
  5
1C6A8
 10
562.976
 20
346.577
 30
0.000000
  70
    32
  0
VERTEX
  8
SJC2
  5
1C6A9
 10
561.751
 20
344.134
 30
0.000000
  70
    32
  0
VERTEX
  8
SJC2
  5
1C6AA
 10
560.590
 20
341.677
 30
0.000000
  70
    32
  0
VERTEX
  8
SJC2
  5
1C6AB
 10
559.497
 20
339.211
 30
0.000000
  70
    32
  0
VERTEX
  8
SJC2
  5
1C6AC
 10
558.475
 20
336.742
 30
0.000000
  70
    32
  0
VERTEX
  8
SJC2
  5
1C6AD
 10
557.525
 20
334.277
 30
0.000000
  70
    32
  0
VERTEX
  8
SJC2
  5
1C6AE
 10
556.650
 20
331.820
 30
0.000000
  70
    32
  0
VERTEX
  8
SJC2
  5
1C6AF
 10
555.853
 20
329.379
 30
0.000000
  70
    32
  0
VERTEX
  8
SJC2
  5
1C6B0
 10
555.135
 20
326.959
 30
0.000000
  70
    32
  0
VERTEX
  8
SJC2
  5
1C6B1
 10
554.497
 20
324.565
 30
0.000000
  70
    32
  0
VERTEX
  8
SJC2
  5
1C6B2
 10
553.942
 20
322.204
 30
0.000000
  70
    32
  0
VERTEX
  8
SJC2
  5
1C6B3
 10
553.471
 20
319.882
 30
0.000000
  70
    32
  0
VERTEX
  8
SJC2
  5
1C6B4
 10
553.084
 20
317.603
 30
0.000000
  70
    32
  0
VERTEX
  8
SJC2
  5
1C6B5
 10
552.783
 20
315.373
 30
0.000000
  70
    32
  0
VERTEX
  8
SJC2
  5
1C6B6
 10
552.569
 20
313.198
 30
0.000000
  70
    32
  0
VERTEX
  8
SJC2
  5
1C6B7
 10
552.441
 20
311.083
 30
0.000000
  70
    32
  0
VERTEX
  8
SJC2
  5
1C6B8
 10
552.401
 20
309.033
 30
0.000000
  70
    32
  0
VERTEX
  8
SJC2
  5
1C6B9
 10
552.449
 20
307.053
 30
0.000000
  70
    32
  0
VERTEX
  8
SJC2
  5
1C6BA
 10
552.583
 20
305.147
 30
0.000000
  70
    32
  0
VERTEX
  8
SJC2
  5
1C6BB
 10
552.805
 20
303.321
 30
0.000000
  70
    32
  0
VERTEX
  8
SJC2
  5
1C6BC
 10
553.113
 20
301.579
 30
0.000000
  70
    32
  0
VERTEX
  8
SJC2
  5
1C6BD
 10
553.507
 20
299.925
 30
0.000000
  70
    32
  0
VERTEX
  8
SJC2
  5
1C6BE
 10
553.986
 20
298.362
 30
0.000000
  70
    32
  0
VERTEX
  8
SJC2
  5
1C6BF
 10
554.548
 20
296.895
 30
0.000000
  70
    32
  0
VERTEX
  8
SJC2
  5
1C6C0
 10
555.192
 20
295.528
 30
0.000000
  70
    32
  0
VERTEX
  8
SJC2
  5
1C6C1
 10
555.917
 20
294.263
 30
0.000000
  70
    32
  0
VERTEX
  8
SJC2
  5
1C6C2
 10
556.721
 20
293.103
 30
0.000000
  70
    32
  0
VERTEX
  8
SJC2
  5
1C6C3
 10
557.602
 20
292.052
 30
0.000000
  70
    32
  0
VERTEX
  8
SJC2
  5
1C6C4
 10
558.558
 20
291.111
 30
0.000000
  70
    32
  0
VERTEX
  8
SJC2
  5
1C6C5
 10
559.587
 20
290.284
 30
0.000000
  70
    32
  0
VERTEX
  8
SJC2
  5
1C6C6
 10
560.685
 20
289.572
 30
0.000000
  70
    32
  0
SEQEND
  8
SJC2
  5
1C6C7
  0
POLYLINE
  5
1BF5B
  8
SJC2
 10
759.77896505441254
 20
289.57177566539235
 30
0.0
 66
     1
 70
     8
  0
VERTEX
  8
SJC2
  5
1C6C8
 10
759.779
 20
289.572
 30
0.000000
  70
    32
  0
VERTEX
  8
SJC2
  5
1C6C9
 10
760.945
 20
288.976
 30
0.000000
  70
    32
  0
VERTEX
  8
SJC2
  5
1C6CA
 10
762.176
 20
288.499
 30
0.000000
  70
    32
  0
VERTEX
  8
SJC2
  5
1C6CB
 10
763.468
 20
288.142
 30
0.000000
  70
    32
  0
VERTEX
  8
SJC2
  5
1C6CC
 10
764.819
 20
287.904
 30
0.000000
  70
    32
  0
VERTEX
  8
SJC2
  5
1C6CD
 10
766.225
 20
287.788
 30
0.000000
  70
    32
  0
VERTEX
  8
SJC2
  5
1C6CE
 10
767.684
 20
287.793
 30
0.000000
  70
    32
  0
VERTEX
  8
SJC2
  5
1C6CF
 10
769.190
 20
287.918
 30
0.000000
  70
    32
  0
VERTEX
  8
SJC2
  5
1C6D0
 10
770.742
 20
288.165
 30
0.000000
  70
    32
  0
VERTEX
  8
SJC2
  5
1C6D1
 10
772.334
 20
288.532
 30
0.000000
  70
    32
  0
VERTEX
  8
SJC2
  5
1C6D2
 10
773.964
 20
289.018
 30
0.000000
  70
    32
  0
VERTEX
  8
SJC2
  5
1C6D3
 10
775.627
 20
289.622
 30
0.000000
  70
    32
  0
VERTEX
  8
SJC2
  5
1C6D4
 10
777.319
 20
290.343
 30
0.000000
  70
    32
  0
VERTEX
  8
SJC2
  5
1C6D5
 10
779.036
 20
291.179
 30
0.000000
  70
    32
  0
VERTEX
  8
SJC2
  5
1C6D6
 10
780.775
 20
292.128
 30
0.000000
  70
    32
  0
VERTEX
  8
SJC2
  5
1C6D7
 10
782.530
 20
293.188
 30
0.000000
  70
    32
  0
VERTEX
  8
SJC2
  5
1C6D8
 10
784.298
 20
294.356
 30
0.000000
  70
    32
  0
VERTEX
  8
SJC2
  5
1C6D9
 10
786.075
 20
295.629
 30
0.000000
  70
    32
  0
VERTEX
  8
SJC2
  5
1C6DA
 10
787.855
 20
297.004
 30
0.000000
  70
    32
  0
VERTEX
  8
SJC2
  5
1C6DB
 10
789.635
 20
298.479
 30
0.000000
  70
    32
  0
VERTEX
  8
SJC2
  5
1C6DC
 10
791.411
 20
300.048
 30
0.000000
  70
    32
  0
VERTEX
  8
SJC2
  5
1C6DD
 10
793.178
 20
301.709
 30
0.000000
  70
    32
  0
VERTEX
  8
SJC2
  5
1C6DE
 10
794.932
 20
303.458
 30
0.000000
  70
    32
  0
VERTEX
  8
SJC2
  5
1C6DF
 10
796.669
 20
305.291
 30
0.000000
  70
    32
  0
VERTEX
  8
SJC2
  5
1C6E0
 10
798.385
 20
307.202
 30
0.000000
  70
    32
  0
VERTEX
  8
SJC2
  5
1C6E1
 10
800.075
 20
309.187
 30
0.000000
  70
    32
  0
VERTEX
  8
SJC2
  5
1C6E2
 10
801.735
 20
311.243
 30
0.000000
  70
    32
  0
VERTEX
  8
SJC2
  5
1C6E3
 10
803.362
 20
313.362
 30
0.000000
  70
    32
  0
VERTEX
  8
SJC2
  5
1C6E4
 10
804.951
 20
315.542
 30
0.000000
  70
    32
  0
VERTEX
  8
SJC2
  5
1C6E5
 10
806.499
 20
317.775
 30
0.000000
  70
    32
  0
VERTEX
  8
SJC2
  5
1C6E6
 10
808.001
 20
320.058
 30
0.000000
  70
    32
  0
VERTEX
  8
SJC2
  5
1C6E7
 10
809.455
 20
322.384
 30
0.000000
  70
    32
  0
VERTEX
  8
SJC2
  5
1C6E8
 10
810.857
 20
324.748
 30
0.000000
  70
    32
  0
VERTEX
  8
SJC2
  5
1C6E9
 10
812.203
 20
327.143
 30
0.000000
  70
    32
  0
VERTEX
  8
SJC2
  5
1C6EA
 10
813.490
 20
329.565
 30
0.000000
  70
    32
  0
VERTEX
  8
SJC2
  5
1C6EB
 10
814.716
 20
332.008
 30
0.000000
  70
    32
  0
VERTEX
  8
SJC2
  5
1C6EC
 10
815.876
 20
334.465
 30
0.000000
  70
    32
  0
VERTEX
  8
SJC2
  5
1C6ED
 10
816.969
 20
336.931
 30
0.000000
  70
    32
  0
VERTEX
  8
SJC2
  5
1C6EE
 10
817.991
 20
339.400
 30
0.000000
  70
    32
  0
VERTEX
  8
SJC2
  5
1C6EF
 10
818.941
 20
341.865
 30
0.000000
  70
    32
  0
VERTEX
  8
SJC2
  5
1C6F0
 10
819.816
 20
344.322
 30
0.000000
  70
    32
  0
VERTEX
  8
SJC2
  5
1C6F1
 10
820.613
 20
346.763
 30
0.000000
  70
    32
  0
VERTEX
  8
SJC2
  5
1C6F2
 10
821.332
 20
349.183
 30
0.000000
  70
    32
  0
VERTEX
  8
SJC2
  5
1C6F3
 10
821.969
 20
351.577
 30
0.000000
  70
    32
  0
VERTEX
  8
SJC2
  5
1C6F4
 10
822.524
 20
353.938
 30
0.000000
  70
    32
  0
VERTEX
  8
SJC2
  5
1C6F5
 10
822.996
 20
356.260
 30
0.000000
  70
    32
  0
VERTEX
  8
SJC2
  5
1C6F6
 10
823.382
 20
358.539
 30
0.000000
  70
    32
  0
VERTEX
  8
SJC2
  5
1C6F7
 10
823.683
 20
360.769
 30
0.000000
  70
    32
  0
VERTEX
  8
SJC2
  5
1C6F8
 10
823.898
 20
362.944
 30
0.000000
  70
    32
  0
VERTEX
  8
SJC2
  5
1C6F9
 10
824.025
 20
365.059
 30
0.000000
  70
    32
  0
VERTEX
  8
SJC2
  5
1C6FA
 10
824.065
 20
367.109
 30
0.000000
  70
    32
  0
VERTEX
  8
SJC2
  5
1C6FB
 10
824.018
 20
369.089
 30
0.000000
  70
    32
  0
VERTEX
  8
SJC2
  5
1C6FC
 10
823.883
 20
370.994
 30
0.000000
  70
    32
  0
VERTEX
  8
SJC2
  5
1C6FD
 10
823.661
 20
372.820
 30
0.000000
  70
    32
  0
VERTEX
  8
SJC2
  5
1C6FE
 10
823.353
 20
374.563
 30
0.000000
  70
    32
  0
VERTEX
  8
SJC2
  5
1C6FF
 10
822.959
 20
376.217
 30
0.000000
  70
    32
  0
VERTEX
  8
SJC2
  5
1C700
 10
822.481
 20
377.780
 30
0.000000
  70
    32
  0
VERTEX
  8
SJC2
  5
1C701
 10
821.919
 20
379.247
 30
0.000000
  70
    32
  0
VERTEX
  8
SJC2
  5
1C702
 10
821.274
 20
380.614
 30
0.000000
  70
    32
  0
VERTEX
  8
SJC2
  5
1C703
 10
820.549
 20
381.879
 30
0.000000
  70
    32
  0
VERTEX
  8
SJC2
  5
1C704
 10
819.745
 20
383.039
 30
0.000000
  70
    32
  0
VERTEX
  8
SJC2
  5
1C705
 10
818.864
 20
384.090
 30
0.000000
  70
    32
  0
VERTEX
  8
SJC2
  5
1C706
 10
817.908
 20
385.031
 30
0.000000
  70
    32
  0
VERTEX
  8
SJC2
  5
1C707
 10
816.880
 20
385.858
 30
0.000000
  70
    32
  0
VERTEX
  8
SJC2
  5
1C708
 10
815.781
 20
386.570
 30
0.000000
  70
    32
  0
VERTEX
  8
SJC2
  5
1C709
 10
814.615
 20
387.165
 30
0.000000
  70
    32
  0
VERTEX
  8
SJC2
  5
1C70A
 10
813.384
 20
387.643
 30
0.000000
  70
    32
  0
VERTEX
  8
SJC2
  5
1C70B
 10
812.092
 20
388.000
 30
0.000000
  70
    32
  0
VERTEX
  8
SJC2
  5
1C70C
 10
810.741
 20
388.238
 30
0.000000
  70
    32
  0
VERTEX
  8
SJC2
  5
1C70D
 10
809.335
 20
388.354
 30
0.000000
  70
    32
  0
VERTEX
  8
SJC2
  5
1C70E
 10
807.876
 20
388.349
 30
0.000000
  70
    32
  0
VERTEX
  8
SJC2
  5
1C70F
 10
806.370
 20
388.224
 30
0.000000
  70
    32
  0
VERTEX
  8
SJC2
  5
1C710
 10
804.818
 20
387.977
 30
0.000000
  70
    32
  0
VERTEX
  8
SJC2
  5
1C711
 10
803.226
 20
387.610
 30
0.000000
  70
    32
  0
VERTEX
  8
SJC2
  5
1C712
 10
801.596
 20
387.124
 30
0.000000
  70
    32
  0
VERTEX
  8
SJC2
  5
1C713
 10
799.933
 20
386.520
 30
0.000000
  70
    32
  0
VERTEX
  8
SJC2
  5
1C714
 10
798.241
 20
385.799
 30
0.000000
  70
    32
  0
VERTEX
  8
SJC2
  5
1C715
 10
796.524
 20
384.963
 30
0.000000
  70
    32
  0
VERTEX
  8
SJC2
  5
1C716
 10
794.785
 20
384.014
 30
0.000000
  70
    32
  0
VERTEX
  8
SJC2
  5
1C717
 10
793.030
 20
382.954
 30
0.000000
  70
    32
  0
VERTEX
  8
SJC2
  5
1C718
 10
791.262
 20
381.786
 30
0.000000
  70
    32
  0
VERTEX
  8
SJC2
  5
1C719
 10
789.485
 20
380.513
 30
0.000000
  70
    32
  0
VERTEX
  8
SJC2
  5
1C71A
 10
787.705
 20
379.138
 30
0.000000
  70
    32
  0
VERTEX
  8
SJC2
  5
1C71B
 10
785.925
 20
377.663
 30
0.000000
  70
    32
  0
VERTEX
  8
SJC2
  5
1C71C
 10
784.149
 20
376.094
 30
0.000000
  70
    32
  0
VERTEX
  8
SJC2
  5
1C71D
 10
782.382
 20
374.432
 30
0.000000
  70
    32
  0
VERTEX
  8
SJC2
  5
1C71E
 10
780.628
 20
372.684
 30
0.000000
  70
    32
  0
VERTEX
  8
SJC2
  5
1C71F
 10
778.891
 20
370.851
 30
0.000000
  70
    32
  0
VERTEX
  8
SJC2
  5
1C720
 10
777.175
 20
368.940
 30
0.000000
  70
    32
  0
VERTEX
  8
SJC2
  5
1C721
 10
775.485
 20
366.954
 30
0.000000
  70
    32
  0
VERTEX
  8
SJC2
  5
1C722
 10
773.825
 20
364.899
 30
0.000000
  70
    32
  0
VERTEX
  8
SJC2
  5
1C723
 10
772.198
 20
362.779
 30
0.000000
  70
    32
  0
VERTEX
  8
SJC2
  5
1C724
 10
770.609
 20
360.600
 30
0.000000
  70
    32
  0
VERTEX
  8
SJC2
  5
1C725
 10
769.061
 20
358.367
 30
0.000000
  70
    32
  0
VERTEX
  8
SJC2
  5
1C726
 10
767.559
 20
356.084
 30
0.000000
  70
    32
  0
VERTEX
  8
SJC2
  5
1C727
 10
766.105
 20
353.758
 30
0.000000
  70
    32
  0
VERTEX
  8
SJC2
  5
1C728
 10
764.703
 20
351.394
 30
0.000000
  70
    32
  0
VERTEX
  8
SJC2
  5
1C729
 10
763.357
 20
348.999
 30
0.000000
  70
    32
  0
VERTEX
  8
SJC2
  5
1C72A
 10
762.070
 20
346.577
 30
0.000000
  70
    32
  0
VERTEX
  8
SJC2
  5
1C72B
 10
760.844
 20
344.134
 30
0.000000
  70
    32
  0
VERTEX
  8
SJC2
  5
1C72C
 10
759.684
 20
341.677
 30
0.000000
  70
    32
  0
VERTEX
  8
SJC2
  5
1C72D
 10
758.591
 20
339.211
 30
0.000000
  70
    32
  0
VERTEX
  8
SJC2
  5
1C72E
 10
757.568
 20
336.742
 30
0.000000
  70
    32
  0
VERTEX
  8
SJC2
  5
1C72F
 10
756.619
 20
334.277
 30
0.000000
  70
    32
  0
VERTEX
  8
SJC2
  5
1C730
 10
755.744
 20
331.820
 30
0.000000
  70
    32
  0
VERTEX
  8
SJC2
  5
1C731
 10
754.947
 20
329.379
 30
0.000000
  70
    32
  0
VERTEX
  8
SJC2
  5
1C732
 10
754.228
 20
326.959
 30
0.000000
  70
    32
  0
VERTEX
  8
SJC2
  5
1C733
 10
753.591
 20
324.565
 30
0.000000
  70
    32
  0
VERTEX
  8
SJC2
  5
1C734
 10
753.036
 20
322.204
 30
0.000000
  70
    32
  0
VERTEX
  8
SJC2
  5
1C735
 10
752.564
 20
319.882
 30
0.000000
  70
    32
  0
VERTEX
  8
SJC2
  5
1C736
 10
752.178
 20
317.603
 30
0.000000
  70
    32
  0
VERTEX
  8
SJC2
  5
1C737
 10
751.877
 20
315.373
 30
0.000000
  70
    32
  0
VERTEX
  8
SJC2
  5
1C738
 10
751.662
 20
313.198
 30
0.000000
  70
    32
  0
VERTEX
  8
SJC2
  5
1C739
 10
751.535
 20
311.083
 30
0.000000
  70
    32
  0
VERTEX
  8
SJC2
  5
1C73A
 10
751.495
 20
309.033
 30
0.000000
  70
    32
  0
VERTEX
  8
SJC2
  5
1C73B
 10
751.542
 20
307.053
 30
0.000000
  70
    32
  0
VERTEX
  8
SJC2
  5
1C73C
 10
751.677
 20
305.147
 30
0.000000
  70
    32
  0
VERTEX
  8
SJC2
  5
1C73D
 10
751.899
 20
303.321
 30
0.000000
  70
    32
  0
VERTEX
  8
SJC2
  5
1C73E
 10
752.207
 20
301.579
 30
0.000000
  70
    32
  0
VERTEX
  8
SJC2
  5
1C73F
 10
752.601
 20
299.925
 30
0.000000
  70
    32
  0
VERTEX
  8
SJC2
  5
1C740
 10
753.079
 20
298.362
 30
0.000000
  70
    32
  0
VERTEX
  8
SJC2
  5
1C741
 10
753.641
 20
296.895
 30
0.000000
  70
    32
  0
VERTEX
  8
SJC2
  5
1C742
 10
754.286
 20
295.528
 30
0.000000
  70
    32
  0
VERTEX
  8
SJC2
  5
1C743
 10
755.011
 20
294.263
 30
0.000000
  70
    32
  0
VERTEX
  8
SJC2
  5
1C744
 10
755.815
 20
293.103
 30
0.000000
  70
    32
  0
VERTEX
  8
SJC2
  5
1C745
 10
756.696
 20
292.052
 30
0.000000
  70
    32
  0
VERTEX
  8
SJC2
  5
1C746
 10
757.652
 20
291.111
 30
0.000000
  70
    32
  0
VERTEX
  8
SJC2
  5
1C747
 10
758.680
 20
290.284
 30
0.000000
  70
    32
  0
VERTEX
  8
SJC2
  5
1C748
 10
759.779
 20
289.572
 30
0.000000
  70
    32
  0
SEQEND
  8
SJC2
  5
1C749
  0
POLYLINE
  5
1BF5C
  8
SJC2
 10
822.03867974706895
 20
289.57177566539235
 30
0.0
 66
     1
 70
     8
  0
VERTEX
  8
SJC2
  5
1C74A
 10
822.039
 20
289.572
 30
0.000000
  70
    32
  0
VERTEX
  8
SJC2
  5
1C74B
 10
823.205
 20
288.976
 30
0.000000
  70
    32
  0
VERTEX
  8
SJC2
  5
1C74C
 10
824.435
 20
288.499
 30
0.000000
  70
    32
  0
VERTEX
  8
SJC2
  5
1C74D
 10
825.728
 20
288.142
 30
0.000000
  70
    32
  0
VERTEX
  8
SJC2
  5
1C74E
 10
827.079
 20
287.904
 30
0.000000
  70
    32
  0
VERTEX
  8
SJC2
  5
1C74F
 10
828.485
 20
287.788
 30
0.000000
  70
    32
  0
VERTEX
  8
SJC2
  5
1C750
 10
829.943
 20
287.793
 30
0.000000
  70
    32
  0
VERTEX
  8
SJC2
  5
1C751
 10
831.450
 20
287.918
 30
0.000000
  70
    32
  0
VERTEX
  8
SJC2
  5
1C752
 10
833.001
 20
288.165
 30
0.000000
  70
    32
  0
VERTEX
  8
SJC2
  5
1C753
 10
834.594
 20
288.532
 30
0.000000
  70
    32
  0
VERTEX
  8
SJC2
  5
1C754
 10
836.223
 20
289.018
 30
0.000000
  70
    32
  0
VERTEX
  8
SJC2
  5
1C755
 10
837.886
 20
289.622
 30
0.000000
  70
    32
  0
VERTEX
  8
SJC2
  5
1C756
 10
839.579
 20
290.343
 30
0.000000
  70
    32
  0
VERTEX
  8
SJC2
  5
1C757
 10
841.296
 20
291.179
 30
0.000000
  70
    32
  0
VERTEX
  8
SJC2
  5
1C758
 10
843.034
 20
292.128
 30
0.000000
  70
    32
  0
VERTEX
  8
SJC2
  5
1C759
 10
844.790
 20
293.188
 30
0.000000
  70
    32
  0
VERTEX
  8
SJC2
  5
1C75A
 10
846.558
 20
294.356
 30
0.000000
  70
    32
  0
VERTEX
  8
SJC2
  5
1C75B
 10
848.334
 20
295.629
 30
0.000000
  70
    32
  0
VERTEX
  8
SJC2
  5
1C75C
 10
850.115
 20
297.004
 30
0.000000
  70
    32
  0
VERTEX
  8
SJC2
  5
1C75D
 10
851.895
 20
298.479
 30
0.000000
  70
    32
  0
VERTEX
  8
SJC2
  5
1C75E
 10
853.671
 20
300.048
 30
0.000000
  70
    32
  0
VERTEX
  8
SJC2
  5
1C75F
 10
855.438
 20
301.709
 30
0.000000
  70
    32
  0
VERTEX
  8
SJC2
  5
1C760
 10
857.192
 20
303.458
 30
0.000000
  70
    32
  0
VERTEX
  8
SJC2
  5
1C761
 10
858.929
 20
305.291
 30
0.000000
  70
    32
  0
VERTEX
  8
SJC2
  5
1C762
 10
860.644
 20
307.202
 30
0.000000
  70
    32
  0
VERTEX
  8
SJC2
  5
1C763
 10
862.334
 20
309.187
 30
0.000000
  70
    32
  0
VERTEX
  8
SJC2
  5
1C764
 10
863.995
 20
311.243
 30
0.000000
  70
    32
  0
VERTEX
  8
SJC2
  5
1C765
 10
865.621
 20
313.362
 30
0.000000
  70
    32
  0
VERTEX
  8
SJC2
  5
1C766
 10
867.210
 20
315.542
 30
0.000000
  70
    32
  0
VERTEX
  8
SJC2
  5
1C767
 10
868.758
 20
317.775
 30
0.000000
  70
    32
  0
VERTEX
  8
SJC2
  5
1C768
 10
870.261
 20
320.058
 30
0.000000
  70
    32
  0
VERTEX
  8
SJC2
  5
1C769
 10
871.715
 20
322.384
 30
0.000000
  70
    32
  0
VERTEX
  8
SJC2
  5
1C76A
 10
873.117
 20
324.748
 30
0.000000
  70
    32
  0
VERTEX
  8
SJC2
  5
1C76B
 10
874.463
 20
327.143
 30
0.000000
  70
    32
  0
VERTEX
  8
SJC2
  5
1C76C
 10
875.750
 20
329.565
 30
0.000000
  70
    32
  0
VERTEX
  8
SJC2
  5
1C76D
 10
876.975
 20
332.008
 30
0.000000
  70
    32
  0
VERTEX
  8
SJC2
  5
1C76E
 10
878.136
 20
334.465
 30
0.000000
  70
    32
  0
VERTEX
  8
SJC2
  5
1C76F
 10
879.229
 20
336.931
 30
0.000000
  70
    32
  0
VERTEX
  8
SJC2
  5
1C770
 10
880.251
 20
339.400
 30
0.000000
  70
    32
  0
VERTEX
  8
SJC2
  5
1C771
 10
881.201
 20
341.865
 30
0.000000
  70
    32
  0
VERTEX
  8
SJC2
  5
1C772
 10
882.076
 20
344.322
 30
0.000000
  70
    32
  0
VERTEX
  8
SJC2
  5
1C773
 10
882.873
 20
346.763
 30
0.000000
  70
    32
  0
VERTEX
  8
SJC2
  5
1C774
 10
883.591
 20
349.183
 30
0.000000
  70
    32
  0
VERTEX
  8
SJC2
  5
1C775
 10
884.229
 20
351.577
 30
0.000000
  70
    32
  0
VERTEX
  8
SJC2
  5
1C776
 10
884.784
 20
353.938
 30
0.000000
  70
    32
  0
VERTEX
  8
SJC2
  5
1C777
 10
885.255
 20
356.260
 30
0.000000
  70
    32
  0
VERTEX
  8
SJC2
  5
1C778
 10
885.642
 20
358.539
 30
0.000000
  70
    32
  0
VERTEX
  8
SJC2
  5
1C779
 10
885.943
 20
360.769
 30
0.000000
  70
    32
  0
VERTEX
  8
SJC2
  5
1C77A
 10
886.157
 20
362.944
 30
0.000000
  70
    32
  0
VERTEX
  8
SJC2
  5
1C77B
 10
886.285
 20
365.059
 30
0.000000
  70
    32
  0
VERTEX
  8
SJC2
  5
1C77C
 10
886.325
 20
367.109
 30
0.000000
  70
    32
  0
VERTEX
  8
SJC2
  5
1C77D
 10
886.277
 20
369.089
 30
0.000000
  70
    32
  0
VERTEX
  8
SJC2
  5
1C77E
 10
886.143
 20
370.994
 30
0.000000
  70
    32
  0
VERTEX
  8
SJC2
  5
1C77F
 10
885.921
 20
372.820
 30
0.000000
  70
    32
  0
VERTEX
  8
SJC2
  5
1C780
 10
885.613
 20
374.563
 30
0.000000
  70
    32
  0
VERTEX
  8
SJC2
  5
1C781
 10
885.219
 20
376.217
 30
0.000000
  70
    32
  0
VERTEX
  8
SJC2
  5
1C782
 10
884.740
 20
377.780
 30
0.000000
  70
    32
  0
VERTEX
  8
SJC2
  5
1C783
 10
884.178
 20
379.247
 30
0.000000
  70
    32
  0
VERTEX
  8
SJC2
  5
1C784
 10
883.534
 20
380.614
 30
0.000000
  70
    32
  0
VERTEX
  8
SJC2
  5
1C785
 10
882.809
 20
381.879
 30
0.000000
  70
    32
  0
VERTEX
  8
SJC2
  5
1C786
 10
882.005
 20
383.039
 30
0.000000
  70
    32
  0
VERTEX
  8
SJC2
  5
1C787
 10
881.124
 20
384.090
 30
0.000000
  70
    32
  0
VERTEX
  8
SJC2
  5
1C788
 10
880.168
 20
385.031
 30
0.000000
  70
    32
  0
VERTEX
  8
SJC2
  5
1C789
 10
879.139
 20
385.858
 30
0.000000
  70
    32
  0
VERTEX
  8
SJC2
  5
1C78A
 10
878.041
 20
386.570
 30
0.000000
  70
    32
  0
VERTEX
  8
SJC2
  5
1C78B
 10
876.875
 20
387.165
 30
0.000000
  70
    32
  0
VERTEX
  8
SJC2
  5
1C78C
 10
875.644
 20
387.643
 30
0.000000
  70
    32
  0
VERTEX
  8
SJC2
  5
1C78D
 10
874.352
 20
388.000
 30
0.000000
  70
    32
  0
VERTEX
  8
SJC2
  5
1C78E
 10
873.001
 20
388.238
 30
0.000000
  70
    32
  0
VERTEX
  8
SJC2
  5
1C78F
 10
871.594
 20
388.354
 30
0.000000
  70
    32
  0
VERTEX
  8
SJC2
  5
1C790
 10
870.136
 20
388.349
 30
0.000000
  70
    32
  0
VERTEX
  8
SJC2
  5
1C791
 10
868.630
 20
388.224
 30
0.000000
  70
    32
  0
VERTEX
  8
SJC2
  5
1C792
 10
867.078
 20
387.977
 30
0.000000
  70
    32
  0
VERTEX
  8
SJC2
  5
1C793
 10
865.486
 20
387.610
 30
0.000000
  70
    32
  0
VERTEX
  8
SJC2
  5
1C794
 10
863.856
 20
387.124
 30
0.000000
  70
    32
  0
VERTEX
  8
SJC2
  5
1C795
 10
862.193
 20
386.520
 30
0.000000
  70
    32
  0
VERTEX
  8
SJC2
  5
1C796
 10
860.501
 20
385.799
 30
0.000000
  70
    32
  0
VERTEX
  8
SJC2
  5
1C797
 10
858.783
 20
384.963
 30
0.000000
  70
    32
  0
VERTEX
  8
SJC2
  5
1C798
 10
857.045
 20
384.014
 30
0.000000
  70
    32
  0
VERTEX
  8
SJC2
  5
1C799
 10
855.290
 20
382.954
 30
0.000000
  70
    32
  0
VERTEX
  8
SJC2
  5
1C79A
 10
853.522
 20
381.786
 30
0.000000
  70
    32
  0
VERTEX
  8
SJC2
  5
1C79B
 10
851.745
 20
380.513
 30
0.000000
  70
    32
  0
VERTEX
  8
SJC2
  5
1C79C
 10
849.965
 20
379.138
 30
0.000000
  70
    32
  0
VERTEX
  8
SJC2
  5
1C79D
 10
848.184
 20
377.663
 30
0.000000
  70
    32
  0
VERTEX
  8
SJC2
  5
1C79E
 10
846.408
 20
376.094
 30
0.000000
  70
    32
  0
VERTEX
  8
SJC2
  5
1C79F
 10
844.641
 20
374.432
 30
0.000000
  70
    32
  0
VERTEX
  8
SJC2
  5
1C7A0
 10
842.887
 20
372.684
 30
0.000000
  70
    32
  0
VERTEX
  8
SJC2
  5
1C7A1
 10
841.150
 20
370.851
 30
0.000000
  70
    32
  0
VERTEX
  8
SJC2
  5
1C7A2
 10
839.435
 20
368.940
 30
0.000000
  70
    32
  0
VERTEX
  8
SJC2
  5
1C7A3
 10
837.745
 20
366.954
 30
0.000000
  70
    32
  0
VERTEX
  8
SJC2
  5
1C7A4
 10
836.085
 20
364.899
 30
0.000000
  70
    32
  0
VERTEX
  8
SJC2
  5
1C7A5
 10
834.458
 20
362.779
 30
0.000000
  70
    32
  0
VERTEX
  8
SJC2
  5
1C7A6
 10
832.869
 20
360.600
 30
0.000000
  70
    32
  0
VERTEX
  8
SJC2
  5
1C7A7
 10
831.321
 20
358.367
 30
0.000000
  70
    32
  0
VERTEX
  8
SJC2
  5
1C7A8
 10
829.819
 20
356.084
 30
0.000000
  70
    32
  0
VERTEX
  8
SJC2
  5
1C7A9
 10
828.365
 20
353.758
 30
0.000000
  70
    32
  0
VERTEX
  8
SJC2
  5
1C7AA
 10
826.963
 20
351.394
 30
0.000000
  70
    32
  0
VERTEX
  8
SJC2
  5
1C7AB
 10
825.617
 20
348.999
 30
0.000000
  70
    32
  0
VERTEX
  8
SJC2
  5
1C7AC
 10
824.329
 20
346.577
 30
0.000000
  70
    32
  0
VERTEX
  8
SJC2
  5
1C7AD
 10
823.104
 20
344.134
 30
0.000000
  70
    32
  0
VERTEX
  8
SJC2
  5
1C7AE
 10
821.943
 20
341.677
 30
0.000000
  70
    32
  0
VERTEX
  8
SJC2
  5
1C7AF
 10
820.851
 20
339.211
 30
0.000000
  70
    32
  0
VERTEX
  8
SJC2
  5
1C7B0
 10
819.828
 20
336.742
 30
0.000000
  70
    32
  0
VERTEX
  8
SJC2
  5
1C7B1
 10
818.879
 20
334.277
 30
0.000000
  70
    32
  0
VERTEX
  8
SJC2
  5
1C7B2
 10
818.004
 20
331.820
 30
0.000000
  70
    32
  0
VERTEX
  8
SJC2
  5
1C7B3
 10
817.206
 20
329.379
 30
0.000000
  70
    32
  0
VERTEX
  8
SJC2
  5
1C7B4
 10
816.488
 20
326.959
 30
0.000000
  70
    32
  0
VERTEX
  8
SJC2
  5
1C7B5
 10
815.851
 20
324.565
 30
0.000000
  70
    32
  0
VERTEX
  8
SJC2
  5
1C7B6
 10
815.295
 20
322.204
 30
0.000000
  70
    32
  0
VERTEX
  8
SJC2
  5
1C7B7
 10
814.824
 20
319.882
 30
0.000000
  70
    32
  0
VERTEX
  8
SJC2
  5
1C7B8
 10
814.437
 20
317.603
 30
0.000000
  70
    32
  0
VERTEX
  8
SJC2
  5
1C7B9
 10
814.137
 20
315.373
 30
0.000000
  70
    32
  0
VERTEX
  8
SJC2
  5
1C7BA
 10
813.922
 20
313.198
 30
0.000000
  70
    32
  0
VERTEX
  8
SJC2
  5
1C7BB
 10
813.795
 20
311.083
 30
0.000000
  70
    32
  0
VERTEX
  8
SJC2
  5
1C7BC
 10
813.755
 20
309.033
 30
0.000000
  70
    32
  0
VERTEX
  8
SJC2
  5
1C7BD
 10
813.802
 20
307.053
 30
0.000000
  70
    32
  0
VERTEX
  8
SJC2
  5
1C7BE
 10
813.937
 20
305.147
 30
0.000000
  70
    32
  0
VERTEX
  8
SJC2
  5
1C7BF
 10
814.159
 20
303.321
 30
0.000000
  70
    32
  0
VERTEX
  8
SJC2
  5
1C7C0
 10
814.467
 20
301.579
 30
0.000000
  70
    32
  0
VERTEX
  8
SJC2
  5
1C7C1
 10
814.860
 20
299.925
 30
0.000000
  70
    32
  0
VERTEX
  8
SJC2
  5
1C7C2
 10
815.339
 20
298.362
 30
0.000000
  70
    32
  0
VERTEX
  8
SJC2
  5
1C7C3
 10
815.901
 20
296.895
 30
0.000000
  70
    32
  0
VERTEX
  8
SJC2
  5
1C7C4
 10
816.546
 20
295.528
 30
0.000000
  70
    32
  0
VERTEX
  8
SJC2
  5
1C7C5
 10
817.271
 20
294.263
 30
0.000000
  70
    32
  0
VERTEX
  8
SJC2
  5
1C7C6
 10
818.075
 20
293.103
 30
0.000000
  70
    32
  0
VERTEX
  8
SJC2
  5
1C7C7
 10
818.956
 20
292.052
 30
0.000000
  70
    32
  0
VERTEX
  8
SJC2
  5
1C7C8
 10
819.912
 20
291.111
 30
0.000000
  70
    32
  0
VERTEX
  8
SJC2
  5
1C7C9
 10
820.940
 20
290.284
 30
0.000000
  70
    32
  0
VERTEX
  8
SJC2
  5
1C7CA
 10
822.039
 20
289.572
 30
0.000000
  70
    32
  0
SEQEND
  8
SJC2
  5
1C7CB
  0
POLYLINE
  5
1BF5E
  8
SJC2
 10
1227.6413489234048
 20
289.57177566539235
 30
0.0
 66
     1
 70
     8
  0
VERTEX
  8
SJC2
  5
1C7CC
 10
1227.64
 20
289.572
 30
0.000000
  70
    32
  0
VERTEX
  8
SJC2
  5
1C7CD
 10
1228.81
 20
288.976
 30
0.000000
  70
    32
  0
VERTEX
  8
SJC2
  5
1C7CE
 10
1230.04
 20
288.499
 30
0.000000
  70
    32
  0
VERTEX
  8
SJC2
  5
1C7CF
 10
1231.33
 20
288.142
 30
0.000000
  70
    32
  0
VERTEX
  8
SJC2
  5
1C7D0
 10
1232.68
 20
287.904
 30
0.000000
  70
    32
  0
VERTEX
  8
SJC2
  5
1C7D1
 10
1234.09
 20
287.788
 30
0.000000
  70
    32
  0
VERTEX
  8
SJC2
  5
1C7D2
 10
1235.55
 20
287.793
 30
0.000000
  70
    32
  0
VERTEX
  8
SJC2
  5
1C7D3
 10
1237.05
 20
287.918
 30
0.000000
  70
    32
  0
VERTEX
  8
SJC2
  5
1C7D4
 10
1238.60
 20
288.165
 30
0.000000
  70
    32
  0
VERTEX
  8
SJC2
  5
1C7D5
 10
1240.20
 20
288.532
 30
0.000000
  70
    32
  0
VERTEX
  8
SJC2
  5
1C7D6
 10
1241.83
 20
289.018
 30
0.000000
  70
    32
  0
VERTEX
  8
SJC2
  5
1C7D7
 10
1243.49
 20
289.622
 30
0.000000
  70
    32
  0
VERTEX
  8
SJC2
  5
1C7D8
 10
1245.18
 20
290.343
 30
0.000000
  70
    32
  0
VERTEX
  8
SJC2
  5
1C7D9
 10
1246.90
 20
291.179
 30
0.000000
  70
    32
  0
VERTEX
  8
SJC2
  5
1C7DA
 10
1248.64
 20
292.128
 30
0.000000
  70
    32
  0
VERTEX
  8
SJC2
  5
1C7DB
 10
1250.39
 20
293.188
 30
0.000000
  70
    32
  0
VERTEX
  8
SJC2
  5
1C7DC
 10
1252.16
 20
294.356
 30
0.000000
  70
    32
  0
VERTEX
  8
SJC2
  5
1C7DD
 10
1253.94
 20
295.629
 30
0.000000
  70
    32
  0
VERTEX
  8
SJC2
  5
1C7DE
 10
1255.72
 20
297.004
 30
0.000000
  70
    32
  0
VERTEX
  8
SJC2
  5
1C7DF
 10
1257.50
 20
298.479
 30
0.000000
  70
    32
  0
VERTEX
  8
SJC2
  5
1C7E0
 10
1259.27
 20
300.048
 30
0.000000
  70
    32
  0
VERTEX
  8
SJC2
  5
1C7E1
 10
1261.04
 20
301.709
 30
0.000000
  70
    32
  0
VERTEX
  8
SJC2
  5
1C7E2
 10
1262.79
 20
303.458
 30
0.000000
  70
    32
  0
VERTEX
  8
SJC2
  5
1C7E3
 10
1264.53
 20
305.291
 30
0.000000
  70
    32
  0
VERTEX
  8
SJC2
  5
1C7E4
 10
1266.25
 20
307.202
 30
0.000000
  70
    32
  0
VERTEX
  8
SJC2
  5
1C7E5
 10
1267.94
 20
309.187
 30
0.000000
  70
    32
  0
VERTEX
  8
SJC2
  5
1C7E6
 10
1269.60
 20
311.243
 30
0.000000
  70
    32
  0
VERTEX
  8
SJC2
  5
1C7E7
 10
1271.22
 20
313.362
 30
0.000000
  70
    32
  0
VERTEX
  8
SJC2
  5
1C7E8
 10
1272.81
 20
315.542
 30
0.000000
  70
    32
  0
VERTEX
  8
SJC2
  5
1C7E9
 10
1274.36
 20
317.775
 30
0.000000
  70
    32
  0
VERTEX
  8
SJC2
  5
1C7EA
 10
1275.86
 20
320.058
 30
0.000000
  70
    32
  0
VERTEX
  8
SJC2
  5
1C7EB
 10
1277.32
 20
322.384
 30
0.000000
  70
    32
  0
VERTEX
  8
SJC2
  5
1C7EC
 10
1278.72
 20
324.748
 30
0.000000
  70
    32
  0
VERTEX
  8
SJC2
  5
1C7ED
 10
1280.07
 20
327.143
 30
0.000000
  70
    32
  0
VERTEX
  8
SJC2
  5
1C7EE
 10
1281.35
 20
329.565
 30
0.000000
  70
    32
  0
VERTEX
  8
SJC2
  5
1C7EF
 10
1282.58
 20
332.008
 30
0.000000
  70
    32
  0
VERTEX
  8
SJC2
  5
1C7F0
 10
1283.74
 20
334.465
 30
0.000000
  70
    32
  0
VERTEX
  8
SJC2
  5
1C7F1
 10
1284.83
 20
336.931
 30
0.000000
  70
    32
  0
VERTEX
  8
SJC2
  5
1C7F2
 10
1285.85
 20
339.400
 30
0.000000
  70
    32
  0
VERTEX
  8
SJC2
  5
1C7F3
 10
1286.80
 20
341.865
 30
0.000000
  70
    32
  0
VERTEX
  8
SJC2
  5
1C7F4
 10
1287.68
 20
344.322
 30
0.000000
  70
    32
  0
VERTEX
  8
SJC2
  5
1C7F5
 10
1288.48
 20
346.763
 30
0.000000
  70
    32
  0
VERTEX
  8
SJC2
  5
1C7F6
 10
1289.19
 20
349.183
 30
0.000000
  70
    32
  0
VERTEX
  8
SJC2
  5
1C7F7
 10
1289.83
 20
351.577
 30
0.000000
  70
    32
  0
VERTEX
  8
SJC2
  5
1C7F8
 10
1290.39
 20
353.938
 30
0.000000
  70
    32
  0
VERTEX
  8
SJC2
  5
1C7F9
 10
1290.86
 20
356.260
 30
0.000000
  70
    32
  0
VERTEX
  8
SJC2
  5
1C7FA
 10
1291.24
 20
358.539
 30
0.000000
  70
    32
  0
VERTEX
  8
SJC2
  5
1C7FB
 10
1291.55
 20
360.769
 30
0.000000
  70
    32
  0
VERTEX
  8
SJC2
  5
1C7FC
 10
1291.76
 20
362.944
 30
0.000000
  70
    32
  0
VERTEX
  8
SJC2
  5
1C7FD
 10
1291.89
 20
365.059
 30
0.000000
  70
    32
  0
VERTEX
  8
SJC2
  5
1C7FE
 10
1291.93
 20
367.109
 30
0.000000
  70
    32
  0
VERTEX
  8
SJC2
  5
1C7FF
 10
1291.88
 20
369.089
 30
0.000000
  70
    32
  0
VERTEX
  8
SJC2
  5
1C800
 10
1291.75
 20
370.994
 30
0.000000
  70
    32
  0
VERTEX
  8
SJC2
  5
1C801
 10
1291.52
 20
372.820
 30
0.000000
  70
    32
  0
VERTEX
  8
SJC2
  5
1C802
 10
1291.22
 20
374.563
 30
0.000000
  70
    32
  0
VERTEX
  8
SJC2
  5
1C803
 10
1290.82
 20
376.217
 30
0.000000
  70
    32
  0
VERTEX
  8
SJC2
  5
1C804
 10
1290.34
 20
377.780
 30
0.000000
  70
    32
  0
VERTEX
  8
SJC2
  5
1C805
 10
1289.78
 20
379.247
 30
0.000000
  70
    32
  0
VERTEX
  8
SJC2
  5
1C806
 10
1289.14
 20
380.614
 30
0.000000
  70
    32
  0
VERTEX
  8
SJC2
  5
1C807
 10
1288.41
 20
381.879
 30
0.000000
  70
    32
  0
VERTEX
  8
SJC2
  5
1C808
 10
1287.61
 20
383.039
 30
0.000000
  70
    32
  0
VERTEX
  8
SJC2
  5
1C809
 10
1286.73
 20
384.090
 30
0.000000
  70
    32
  0
VERTEX
  8
SJC2
  5
1C80A
 10
1285.77
 20
385.031
 30
0.000000
  70
    32
  0
VERTEX
  8
SJC2
  5
1C80B
 10
1284.74
 20
385.858
 30
0.000000
  70
    32
  0
VERTEX
  8
SJC2
  5
1C80C
 10
1283.64
 20
386.570
 30
0.000000
  70
    32
  0
VERTEX
  8
SJC2
  5
1C80D
 10
1282.48
 20
387.165
 30
0.000000
  70
    32
  0
VERTEX
  8
SJC2
  5
1C80E
 10
1281.25
 20
387.643
 30
0.000000
  70
    32
  0
VERTEX
  8
SJC2
  5
1C80F
 10
1279.95
 20
388.000
 30
0.000000
  70
    32
  0
VERTEX
  8
SJC2
  5
1C810
 10
1278.60
 20
388.238
 30
0.000000
  70
    32
  0
VERTEX
  8
SJC2
  5
1C811
 10
1277.20
 20
388.354
 30
0.000000
  70
    32
  0
VERTEX
  8
SJC2
  5
1C812
 10
1275.74
 20
388.349
 30
0.000000
  70
    32
  0
VERTEX
  8
SJC2
  5
1C813
 10
1274.23
 20
388.224
 30
0.000000
  70
    32
  0
VERTEX
  8
SJC2
  5
1C814
 10
1272.68
 20
387.977
 30
0.000000
  70
    32
  0
VERTEX
  8
SJC2
  5
1C815
 10
1271.09
 20
387.610
 30
0.000000
  70
    32
  0
VERTEX
  8
SJC2
  5
1C816
 10
1269.46
 20
387.124
 30
0.000000
  70
    32
  0
VERTEX
  8
SJC2
  5
1C817
 10
1267.80
 20
386.520
 30
0.000000
  70
    32
  0
VERTEX
  8
SJC2
  5
1C818
 10
1266.10
 20
385.799
 30
0.000000
  70
    32
  0
VERTEX
  8
SJC2
  5
1C819
 10
1264.39
 20
384.963
 30
0.000000
  70
    32
  0
VERTEX
  8
SJC2
  5
1C81A
 10
1262.65
 20
384.014
 30
0.000000
  70
    32
  0
VERTEX
  8
SJC2
  5
1C81B
 10
1260.89
 20
382.954
 30
0.000000
  70
    32
  0
VERTEX
  8
SJC2
  5
1C81C
 10
1259.12
 20
381.786
 30
0.000000
  70
    32
  0
VERTEX
  8
SJC2
  5
1C81D
 10
1257.35
 20
380.513
 30
0.000000
  70
    32
  0
VERTEX
  8
SJC2
  5
1C81E
 10
1255.57
 20
379.138
 30
0.000000
  70
    32
  0
VERTEX
  8
SJC2
  5
1C81F
 10
1253.79
 20
377.663
 30
0.000000
  70
    32
  0
VERTEX
  8
SJC2
  5
1C820
 10
1252.01
 20
376.094
 30
0.000000
  70
    32
  0
VERTEX
  8
SJC2
  5
1C821
 10
1250.24
 20
374.432
 30
0.000000
  70
    32
  0
VERTEX
  8
SJC2
  5
1C822
 10
1248.49
 20
372.684
 30
0.000000
  70
    32
  0
VERTEX
  8
SJC2
  5
1C823
 10
1246.75
 20
370.851
 30
0.000000
  70
    32
  0
VERTEX
  8
SJC2
  5
1C824
 10
1245.04
 20
368.940
 30
0.000000
  70
    32
  0
VERTEX
  8
SJC2
  5
1C825
 10
1243.35
 20
366.954
 30
0.000000
  70
    32
  0
VERTEX
  8
SJC2
  5
1C826
 10
1241.69
 20
364.899
 30
0.000000
  70
    32
  0
VERTEX
  8
SJC2
  5
1C827
 10
1240.06
 20
362.779
 30
0.000000
  70
    32
  0
VERTEX
  8
SJC2
  5
1C828
 10
1238.47
 20
360.600
 30
0.000000
  70
    32
  0
VERTEX
  8
SJC2
  5
1C829
 10
1236.92
 20
358.367
 30
0.000000
  70
    32
  0
VERTEX
  8
SJC2
  5
1C82A
 10
1235.42
 20
356.084
 30
0.000000
  70
    32
  0
VERTEX
  8
SJC2
  5
1C82B
 10
1233.97
 20
353.758
 30
0.000000
  70
    32
  0
VERTEX
  8
SJC2
  5
1C82C
 10
1232.57
 20
351.394
 30
0.000000
  70
    32
  0
VERTEX
  8
SJC2
  5
1C82D
 10
1231.22
 20
348.999
 30
0.000000
  70
    32
  0
VERTEX
  8
SJC2
  5
1C82E
 10
1229.93
 20
346.577
 30
0.000000
  70
    32
  0
VERTEX
  8
SJC2
  5
1C82F
 10
1228.71
 20
344.134
 30
0.000000
  70
    32
  0
VERTEX
  8
SJC2
  5
1C830
 10
1227.55
 20
341.677
 30
0.000000
  70
    32
  0
VERTEX
  8
SJC2
  5
1C831
 10
1226.45
 20
339.211
 30
0.000000
  70
    32
  0
VERTEX
  8
SJC2
  5
1C832
 10
1225.43
 20
336.742
 30
0.000000
  70
    32
  0
VERTEX
  8
SJC2
  5
1C833
 10
1224.48
 20
334.277
 30
0.000000
  70
    32
  0
VERTEX
  8
SJC2
  5
1C834
 10
1223.61
 20
331.820
 30
0.000000
  70
    32
  0
VERTEX
  8
SJC2
  5
1C835
 10
1222.81
 20
329.379
 30
0.000000
  70
    32
  0
VERTEX
  8
SJC2
  5
1C836
 10
1222.09
 20
326.959
 30
0.000000
  70
    32
  0
VERTEX
  8
SJC2
  5
1C837
 10
1221.45
 20
324.565
 30
0.000000
  70
    32
  0
VERTEX
  8
SJC2
  5
1C838
 10
1220.90
 20
322.204
 30
0.000000
  70
    32
  0
VERTEX
  8
SJC2
  5
1C839
 10
1220.43
 20
319.882
 30
0.000000
  70
    32
  0
VERTEX
  8
SJC2
  5
1C83A
 10
1220.04
 20
317.603
 30
0.000000
  70
    32
  0
VERTEX
  8
SJC2
  5
1C83B
 10
1219.74
 20
315.373
 30
0.000000
  70
    32
  0
VERTEX
  8
SJC2
  5
1C83C
 10
1219.52
 20
313.198
 30
0.000000
  70
    32
  0
VERTEX
  8
SJC2
  5
1C83D
 10
1219.40
 20
311.083
 30
0.000000
  70
    32
  0
VERTEX
  8
SJC2
  5
1C83E
 10
1219.36
 20
309.033
 30
0.000000
  70
    32
  0
VERTEX
  8
SJC2
  5
1C83F
 10
1219.40
 20
307.053
 30
0.000000
  70
    32
  0
VERTEX
  8
SJC2
  5
1C840
 10
1219.54
 20
305.147
 30
0.000000
  70
    32
  0
VERTEX
  8
SJC2
  5
1C841
 10
1219.76
 20
303.321
 30
0.000000
  70
    32
  0
VERTEX
  8
SJC2
  5
1C842
 10
1220.07
 20
301.579
 30
0.000000
  70
    32
  0
VERTEX
  8
SJC2
  5
1C843
 10
1220.46
 20
299.925
 30
0.000000
  70
    32
  0
VERTEX
  8
SJC2
  5
1C844
 10
1220.94
 20
298.362
 30
0.000000
  70
    32
  0
VERTEX
  8
SJC2
  5
1C845
 10
1221.50
 20
296.895
 30
0.000000
  70
    32
  0
VERTEX
  8
SJC2
  5
1C846
 10
1222.15
 20
295.528
 30
0.000000
  70
    32
  0
VERTEX
  8
SJC2
  5
1C847
 10
1222.87
 20
294.263
 30
0.000000
  70
    32
  0
VERTEX
  8
SJC2
  5
1C848
 10
1223.68
 20
293.103
 30
0.000000
  70
    32
  0
VERTEX
  8
SJC2
  5
1C849
 10
1224.56
 20
292.052
 30
0.000000
  70
    32
  0
VERTEX
  8
SJC2
  5
1C84A
 10
1225.51
 20
291.111
 30
0.000000
  70
    32
  0
VERTEX
  8
SJC2
  5
1C84B
 10
1226.54
 20
290.284
 30
0.000000
  70
    32
  0
VERTEX
  8
SJC2
  5
1C84C
 10
1227.64
 20
289.572
 30
0.000000
  70
    32
  0
SEQEND
  8
SJC2
  5
1C84D
  0
POLYLINE
  5
1BF5F
  8
SJC2
 10
1289.9010636160619
 20
289.57177566539235
 30
0.0
 66
     1
 70
     8
  0
VERTEX
  8
SJC2
  5
1C84E
 10
1289.90
 20
289.572
 30
0.000000
  70
    32
  0
VERTEX
  8
SJC2
  5
1C84F
 10
1291.07
 20
288.976
 30
0.000000
  70
    32
  0
VERTEX
  8
SJC2
  5
1C850
 10
1292.30
 20
288.499
 30
0.000000
  70
    32
  0
VERTEX
  8
SJC2
  5
1C851
 10
1293.59
 20
288.142
 30
0.000000
  70
    32
  0
VERTEX
  8
SJC2
  5
1C852
 10
1294.94
 20
287.904
 30
0.000000
  70
    32
  0
VERTEX
  8
SJC2
  5
1C853
 10
1296.35
 20
287.788
 30
0.000000
  70
    32
  0
VERTEX
  8
SJC2
  5
1C854
 10
1297.81
 20
287.793
 30
0.000000
  70
    32
  0
VERTEX
  8
SJC2
  5
1C855
 10
1299.31
 20
287.918
 30
0.000000
  70
    32
  0
VERTEX
  8
SJC2
  5
1C856
 10
1300.86
 20
288.165
 30
0.000000
  70
    32
  0
VERTEX
  8
SJC2
  5
1C857
 10
1302.46
 20
288.532
 30
0.000000
  70
    32
  0
VERTEX
  8
SJC2
  5
1C858
 10
1304.09
 20
289.018
 30
0.000000
  70
    32
  0
VERTEX
  8
SJC2
  5
1C859
 10
1305.75
 20
289.622
 30
0.000000
  70
    32
  0
VERTEX
  8
SJC2
  5
1C85A
 10
1307.44
 20
290.343
 30
0.000000
  70
    32
  0
VERTEX
  8
SJC2
  5
1C85B
 10
1309.16
 20
291.179
 30
0.000000
  70
    32
  0
VERTEX
  8
SJC2
  5
1C85C
 10
1310.90
 20
292.128
 30
0.000000
  70
    32
  0
VERTEX
  8
SJC2
  5
1C85D
 10
1312.65
 20
293.188
 30
0.000000
  70
    32
  0
VERTEX
  8
SJC2
  5
1C85E
 10
1314.42
 20
294.356
 30
0.000000
  70
    32
  0
VERTEX
  8
SJC2
  5
1C85F
 10
1316.20
 20
295.629
 30
0.000000
  70
    32
  0
VERTEX
  8
SJC2
  5
1C860
 10
1317.98
 20
297.004
 30
0.000000
  70
    32
  0
VERTEX
  8
SJC2
  5
1C861
 10
1319.76
 20
298.479
 30
0.000000
  70
    32
  0
VERTEX
  8
SJC2
  5
1C862
 10
1321.53
 20
300.048
 30
0.000000
  70
    32
  0
VERTEX
  8
SJC2
  5
1C863
 10
1323.30
 20
301.709
 30
0.000000
  70
    32
  0
VERTEX
  8
SJC2
  5
1C864
 10
1325.05
 20
303.458
 30
0.000000
  70
    32
  0
VERTEX
  8
SJC2
  5
1C865
 10
1326.79
 20
305.291
 30
0.000000
  70
    32
  0
VERTEX
  8
SJC2
  5
1C866
 10
1328.51
 20
307.202
 30
0.000000
  70
    32
  0
VERTEX
  8
SJC2
  5
1C867
 10
1330.20
 20
309.187
 30
0.000000
  70
    32
  0
VERTEX
  8
SJC2
  5
1C868
 10
1331.86
 20
311.243
 30
0.000000
  70
    32
  0
VERTEX
  8
SJC2
  5
1C869
 10
1333.48
 20
313.362
 30
0.000000
  70
    32
  0
VERTEX
  8
SJC2
  5
1C86A
 10
1335.07
 20
315.542
 30
0.000000
  70
    32
  0
VERTEX
  8
SJC2
  5
1C86B
 10
1336.62
 20
317.775
 30
0.000000
  70
    32
  0
VERTEX
  8
SJC2
  5
1C86C
 10
1338.12
 20
320.058
 30
0.000000
  70
    32
  0
VERTEX
  8
SJC2
  5
1C86D
 10
1339.58
 20
322.384
 30
0.000000
  70
    32
  0
VERTEX
  8
SJC2
  5
1C86E
 10
1340.98
 20
324.748
 30
0.000000
  70
    32
  0
VERTEX
  8
SJC2
  5
1C86F
 10
1342.33
 20
327.143
 30
0.000000
  70
    32
  0
VERTEX
  8
SJC2
  5
1C870
 10
1343.61
 20
329.565
 30
0.000000
  70
    32
  0
VERTEX
  8
SJC2
  5
1C871
 10
1344.84
 20
332.008
 30
0.000000
  70
    32
  0
VERTEX
  8
SJC2
  5
1C872
 10
1346.00
 20
334.465
 30
0.000000
  70
    32
  0
VERTEX
  8
SJC2
  5
1C873
 10
1347.09
 20
336.931
 30
0.000000
  70
    32
  0
VERTEX
  8
SJC2
  5
1C874
 10
1348.11
 20
339.400
 30
0.000000
  70
    32
  0
VERTEX
  8
SJC2
  5
1C875
 10
1349.06
 20
341.865
 30
0.000000
  70
    32
  0
VERTEX
  8
SJC2
  5
1C876
 10
1349.94
 20
344.322
 30
0.000000
  70
    32
  0
VERTEX
  8
SJC2
  5
1C877
 10
1350.74
 20
346.763
 30
0.000000
  70
    32
  0
VERTEX
  8
SJC2
  5
1C878
 10
1351.45
 20
349.183
 30
0.000000
  70
    32
  0
VERTEX
  8
SJC2
  5
1C879
 10
1352.09
 20
351.577
 30
0.000000
  70
    32
  0
VERTEX
  8
SJC2
  5
1C87A
 10
1352.65
 20
353.938
 30
0.000000
  70
    32
  0
VERTEX
  8
SJC2
  5
1C87B
 10
1353.12
 20
356.260
 30
0.000000
  70
    32
  0
VERTEX
  8
SJC2
  5
1C87C
 10
1353.50
 20
358.539
 30
0.000000
  70
    32
  0
VERTEX
  8
SJC2
  5
1C87D
 10
1353.81
 20
360.769
 30
0.000000
  70
    32
  0
VERTEX
  8
SJC2
  5
1C87E
 10
1354.02
 20
362.944
 30
0.000000
  70
    32
  0
VERTEX
  8
SJC2
  5
1C87F
 10
1354.15
 20
365.059
 30
0.000000
  70
    32
  0
VERTEX
  8
SJC2
  5
1C880
 10
1354.19
 20
367.109
 30
0.000000
  70
    32
  0
VERTEX
  8
SJC2
  5
1C881
 10
1354.14
 20
369.089
 30
0.000000
  70
    32
  0
VERTEX
  8
SJC2
  5
1C882
 10
1354.00
 20
370.994
 30
0.000000
  70
    32
  0
VERTEX
  8
SJC2
  5
1C883
 10
1353.78
 20
372.820
 30
0.000000
  70
    32
  0
VERTEX
  8
SJC2
  5
1C884
 10
1353.48
 20
374.563
 30
0.000000
  70
    32
  0
VERTEX
  8
SJC2
  5
1C885
 10
1353.08
 20
376.217
 30
0.000000
  70
    32
  0
VERTEX
  8
SJC2
  5
1C886
 10
1352.60
 20
377.780
 30
0.000000
  70
    32
  0
VERTEX
  8
SJC2
  5
1C887
 10
1352.04
 20
379.247
 30
0.000000
  70
    32
  0
VERTEX
  8
SJC2
  5
1C888
 10
1351.40
 20
380.614
 30
0.000000
  70
    32
  0
VERTEX
  8
SJC2
  5
1C889
 10
1350.67
 20
381.879
 30
0.000000
  70
    32
  0
VERTEX
  8
SJC2
  5
1C88A
 10
1349.87
 20
383.039
 30
0.000000
  70
    32
  0
VERTEX
  8
SJC2
  5
1C88B
 10
1348.99
 20
384.090
 30
0.000000
  70
    32
  0
VERTEX
  8
SJC2
  5
1C88C
 10
1348.03
 20
385.031
 30
0.000000
  70
    32
  0
VERTEX
  8
SJC2
  5
1C88D
 10
1347.00
 20
385.858
 30
0.000000
  70
    32
  0
VERTEX
  8
SJC2
  5
1C88E
 10
1345.90
 20
386.570
 30
0.000000
  70
    32
  0
VERTEX
  8
SJC2
  5
1C88F
 10
1344.74
 20
387.165
 30
0.000000
  70
    32
  0
VERTEX
  8
SJC2
  5
1C890
 10
1343.51
 20
387.643
 30
0.000000
  70
    32
  0
VERTEX
  8
SJC2
  5
1C891
 10
1342.21
 20
388.000
 30
0.000000
  70
    32
  0
VERTEX
  8
SJC2
  5
1C892
 10
1340.86
 20
388.238
 30
0.000000
  70
    32
  0
VERTEX
  8
SJC2
  5
1C893
 10
1339.46
 20
388.354
 30
0.000000
  70
    32
  0
VERTEX
  8
SJC2
  5
1C894
 10
1338.00
 20
388.349
 30
0.000000
  70
    32
  0
VERTEX
  8
SJC2
  5
1C895
 10
1336.49
 20
388.224
 30
0.000000
  70
    32
  0
VERTEX
  8
SJC2
  5
1C896
 10
1334.94
 20
387.977
 30
0.000000
  70
    32
  0
VERTEX
  8
SJC2
  5
1C897
 10
1333.35
 20
387.610
 30
0.000000
  70
    32
  0
VERTEX
  8
SJC2
  5
1C898
 10
1331.72
 20
387.124
 30
0.000000
  70
    32
  0
VERTEX
  8
SJC2
  5
1C899
 10
1330.06
 20
386.520
 30
0.000000
  70
    32
  0
VERTEX
  8
SJC2
  5
1C89A
 10
1328.36
 20
385.799
 30
0.000000
  70
    32
  0
VERTEX
  8
SJC2
  5
1C89B
 10
1326.65
 20
384.963
 30
0.000000
  70
    32
  0
VERTEX
  8
SJC2
  5
1C89C
 10
1324.91
 20
384.014
 30
0.000000
  70
    32
  0
VERTEX
  8
SJC2
  5
1C89D
 10
1323.15
 20
382.954
 30
0.000000
  70
    32
  0
VERTEX
  8
SJC2
  5
1C89E
 10
1321.38
 20
381.786
 30
0.000000
  70
    32
  0
VERTEX
  8
SJC2
  5
1C89F
 10
1319.61
 20
380.513
 30
0.000000
  70
    32
  0
VERTEX
  8
SJC2
  5
1C8A0
 10
1317.83
 20
379.138
 30
0.000000
  70
    32
  0
VERTEX
  8
SJC2
  5
1C8A1
 10
1316.05
 20
377.663
 30
0.000000
  70
    32
  0
VERTEX
  8
SJC2
  5
1C8A2
 10
1314.27
 20
376.094
 30
0.000000
  70
    32
  0
VERTEX
  8
SJC2
  5
1C8A3
 10
1312.50
 20
374.432
 30
0.000000
  70
    32
  0
VERTEX
  8
SJC2
  5
1C8A4
 10
1310.75
 20
372.684
 30
0.000000
  70
    32
  0
VERTEX
  8
SJC2
  5
1C8A5
 10
1309.01
 20
370.851
 30
0.000000
  70
    32
  0
VERTEX
  8
SJC2
  5
1C8A6
 10
1307.30
 20
368.940
 30
0.000000
  70
    32
  0
VERTEX
  8
SJC2
  5
1C8A7
 10
1305.61
 20
366.954
 30
0.000000
  70
    32
  0
VERTEX
  8
SJC2
  5
1C8A8
 10
1303.95
 20
364.899
 30
0.000000
  70
    32
  0
VERTEX
  8
SJC2
  5
1C8A9
 10
1302.32
 20
362.779
 30
0.000000
  70
    32
  0
VERTEX
  8
SJC2
  5
1C8AA
 10
1300.73
 20
360.600
 30
0.000000
  70
    32
  0
VERTEX
  8
SJC2
  5
1C8AB
 10
1299.18
 20
358.367
 30
0.000000
  70
    32
  0
VERTEX
  8
SJC2
  5
1C8AC
 10
1297.68
 20
356.084
 30
0.000000
  70
    32
  0
VERTEX
  8
SJC2
  5
1C8AD
 10
1296.23
 20
353.758
 30
0.000000
  70
    32
  0
VERTEX
  8
SJC2
  5
1C8AE
 10
1294.83
 20
351.394
 30
0.000000
  70
    32
  0
VERTEX
  8
SJC2
  5
1C8AF
 10
1293.48
 20
348.999
 30
0.000000
  70
    32
  0
VERTEX
  8
SJC2
  5
1C8B0
 10
1292.19
 20
346.577
 30
0.000000
  70
    32
  0
VERTEX
  8
SJC2
  5
1C8B1
 10
1290.97
 20
344.134
 30
0.000000
  70
    32
  0
VERTEX
  8
SJC2
  5
1C8B2
 10
1289.81
 20
341.677
 30
0.000000
  70
    32
  0
VERTEX
  8
SJC2
  5
1C8B3
 10
1288.71
 20
339.211
 30
0.000000
  70
    32
  0
VERTEX
  8
SJC2
  5
1C8B4
 10
1287.69
 20
336.742
 30
0.000000
  70
    32
  0
VERTEX
  8
SJC2
  5
1C8B5
 10
1286.74
 20
334.277
 30
0.000000
  70
    32
  0
VERTEX
  8
SJC2
  5
1C8B6
 10
1285.87
 20
331.820
 30
0.000000
  70
    32
  0
VERTEX
  8
SJC2
  5
1C8B7
 10
1285.07
 20
329.379
 30
0.000000
  70
    32
  0
VERTEX
  8
SJC2
  5
1C8B8
 10
1284.35
 20
326.959
 30
0.000000
  70
    32
  0
VERTEX
  8
SJC2
  5
1C8B9
 10
1283.71
 20
324.565
 30
0.000000
  70
    32
  0
VERTEX
  8
SJC2
  5
1C8BA
 10
1283.16
 20
322.204
 30
0.000000
  70
    32
  0
VERTEX
  8
SJC2
  5
1C8BB
 10
1282.69
 20
319.882
 30
0.000000
  70
    32
  0
VERTEX
  8
SJC2
  5
1C8BC
 10
1282.30
 20
317.603
 30
0.000000
  70
    32
  0
VERTEX
  8
SJC2
  5
1C8BD
 10
1282.00
 20
315.373
 30
0.000000
  70
    32
  0
VERTEX
  8
SJC2
  5
1C8BE
 10
1281.78
 20
313.198
 30
0.000000
  70
    32
  0
VERTEX
  8
SJC2
  5
1C8BF
 10
1281.66
 20
311.083
 30
0.000000
  70
    32
  0
VERTEX
  8
SJC2
  5
1C8C0
 10
1281.62
 20
309.033
 30
0.000000
  70
    32
  0
VERTEX
  8
SJC2
  5
1C8C1
 10
1281.66
 20
307.053
 30
0.000000
  70
    32
  0
VERTEX
  8
SJC2
  5
1C8C2
 10
1281.80
 20
305.147
 30
0.000000
  70
    32
  0
VERTEX
  8
SJC2
  5
1C8C3
 10
1282.02
 20
303.321
 30
0.000000
  70
    32
  0
VERTEX
  8
SJC2
  5
1C8C4
 10
1282.33
 20
301.579
 30
0.000000
  70
    32
  0
VERTEX
  8
SJC2
  5
1C8C5
 10
1282.72
 20
299.925
 30
0.000000
  70
    32
  0
VERTEX
  8
SJC2
  5
1C8C6
 10
1283.20
 20
298.362
 30
0.000000
  70
    32
  0
VERTEX
  8
SJC2
  5
1C8C7
 10
1283.76
 20
296.895
 30
0.000000
  70
    32
  0
VERTEX
  8
SJC2
  5
1C8C8
 10
1284.41
 20
295.528
 30
0.000000
  70
    32
  0
VERTEX
  8
SJC2
  5
1C8C9
 10
1285.13
 20
294.263
 30
0.000000
  70
    32
  0
VERTEX
  8
SJC2
  5
1C8CA
 10
1285.94
 20
293.103
 30
0.000000
  70
    32
  0
VERTEX
  8
SJC2
  5
1C8CB
 10
1286.82
 20
292.052
 30
0.000000
  70
    32
  0
VERTEX
  8
SJC2
  5
1C8CC
 10
1287.77
 20
291.111
 30
0.000000
  70
    32
  0
VERTEX
  8
SJC2
  5
1C8CD
 10
1288.80
 20
290.284
 30
0.000000
  70
    32
  0
VERTEX
  8
SJC2
  5
1C8CE
 10
1289.90
 20
289.572
 30
0.000000
  70
    32
  0
SEQEND
  8
SJC2
  5
1C8CF
  0
POLYLINE
  5
1BF60
  8
SJC2
 10
1488.9947981885068
 20
289.57177566539235
 30
0.0
 66
     1
 70
     8
  0
VERTEX
  8
SJC2
  5
1C8D0
 10
1488.99
 20
289.572
 30
0.000000
  70
    32
  0
VERTEX
  8
SJC2
  5
1C8D1
 10
1490.16
 20
288.976
 30
0.000000
  70
    32
  0
VERTEX
  8
SJC2
  5
1C8D2
 10
1491.39
 20
288.499
 30
0.000000
  70
    32
  0
VERTEX
  8
SJC2
  5
1C8D3
 10
1492.68
 20
288.142
 30
0.000000
  70
    32
  0
VERTEX
  8
SJC2
  5
1C8D4
 10
1494.03
 20
287.904
 30
0.000000
  70
    32
  0
VERTEX
  8
SJC2
  5
1C8D5
 10
1495.44
 20
287.788
 30
0.000000
  70
    32
  0
VERTEX
  8
SJC2
  5
1C8D6
 10
1496.90
 20
287.793
 30
0.000000
  70
    32
  0
VERTEX
  8
SJC2
  5
1C8D7
 10
1498.41
 20
287.918
 30
0.000000
  70
    32
  0
VERTEX
  8
SJC2
  5
1C8D8
 10
1499.96
 20
288.165
 30
0.000000
  70
    32
  0
VERTEX
  8
SJC2
  5
1C8D9
 10
1501.55
 20
288.532
 30
0.000000
  70
    32
  0
VERTEX
  8
SJC2
  5
1C8DA
 10
1503.18
 20
289.018
 30
0.000000
  70
    32
  0
VERTEX
  8
SJC2
  5
1C8DB
 10
1504.84
 20
289.622
 30
0.000000
  70
    32
  0
VERTEX
  8
SJC2
  5
1C8DC
 10
1506.53
 20
290.343
 30
0.000000
  70
    32
  0
VERTEX
  8
SJC2
  5
1C8DD
 10
1508.25
 20
291.179
 30
0.000000
  70
    32
  0
VERTEX
  8
SJC2
  5
1C8DE
 10
1509.99
 20
292.128
 30
0.000000
  70
    32
  0
VERTEX
  8
SJC2
  5
1C8DF
 10
1511.75
 20
293.188
 30
0.000000
  70
    32
  0
VERTEX
  8
SJC2
  5
1C8E0
 10
1513.51
 20
294.356
 30
0.000000
  70
    32
  0
VERTEX
  8
SJC2
  5
1C8E1
 10
1515.29
 20
295.629
 30
0.000000
  70
    32
  0
VERTEX
  8
SJC2
  5
1C8E2
 10
1517.07
 20
297.004
 30
0.000000
  70
    32
  0
VERTEX
  8
SJC2
  5
1C8E3
 10
1518.85
 20
298.479
 30
0.000000
  70
    32
  0
VERTEX
  8
SJC2
  5
1C8E4
 10
1520.63
 20
300.048
 30
0.000000
  70
    32
  0
VERTEX
  8
SJC2
  5
1C8E5
 10
1522.39
 20
301.709
 30
0.000000
  70
    32
  0
VERTEX
  8
SJC2
  5
1C8E6
 10
1524.15
 20
303.458
 30
0.000000
  70
    32
  0
VERTEX
  8
SJC2
  5
1C8E7
 10
1525.89
 20
305.291
 30
0.000000
  70
    32
  0
VERTEX
  8
SJC2
  5
1C8E8
 10
1527.60
 20
307.202
 30
0.000000
  70
    32
  0
VERTEX
  8
SJC2
  5
1C8E9
 10
1529.29
 20
309.187
 30
0.000000
  70
    32
  0
VERTEX
  8
SJC2
  5
1C8EA
 10
1530.95
 20
311.243
 30
0.000000
  70
    32
  0
VERTEX
  8
SJC2
  5
1C8EB
 10
1532.58
 20
313.362
 30
0.000000
  70
    32
  0
VERTEX
  8
SJC2
  5
1C8EC
 10
1534.17
 20
315.542
 30
0.000000
  70
    32
  0
VERTEX
  8
SJC2
  5
1C8ED
 10
1535.71
 20
317.775
 30
0.000000
  70
    32
  0
VERTEX
  8
SJC2
  5
1C8EE
 10
1537.22
 20
320.058
 30
0.000000
  70
    32
  0
VERTEX
  8
SJC2
  5
1C8EF
 10
1538.67
 20
322.384
 30
0.000000
  70
    32
  0
VERTEX
  8
SJC2
  5
1C8F0
 10
1540.07
 20
324.748
 30
0.000000
  70
    32
  0
VERTEX
  8
SJC2
  5
1C8F1
 10
1541.42
 20
327.143
 30
0.000000
  70
    32
  0
VERTEX
  8
SJC2
  5
1C8F2
 10
1542.71
 20
329.565
 30
0.000000
  70
    32
  0
VERTEX
  8
SJC2
  5
1C8F3
 10
1543.93
 20
332.008
 30
0.000000
  70
    32
  0
VERTEX
  8
SJC2
  5
1C8F4
 10
1545.09
 20
334.465
 30
0.000000
  70
    32
  0
VERTEX
  8
SJC2
  5
1C8F5
 10
1546.18
 20
336.931
 30
0.000000
  70
    32
  0
VERTEX
  8
SJC2
  5
1C8F6
 10
1547.21
 20
339.400
 30
0.000000
  70
    32
  0
VERTEX
  8
SJC2
  5
1C8F7
 10
1548.16
 20
341.865
 30
0.000000
  70
    32
  0
VERTEX
  8
SJC2
  5
1C8F8
 10
1549.03
 20
344.322
 30
0.000000
  70
    32
  0
VERTEX
  8
SJC2
  5
1C8F9
 10
1549.83
 20
346.763
 30
0.000000
  70
    32
  0
VERTEX
  8
SJC2
  5
1C8FA
 10
1550.55
 20
349.183
 30
0.000000
  70
    32
  0
VERTEX
  8
SJC2
  5
1C8FB
 10
1551.18
 20
351.577
 30
0.000000
  70
    32
  0
VERTEX
  8
SJC2
  5
1C8FC
 10
1551.74
 20
353.938
 30
0.000000
  70
    32
  0
VERTEX
  8
SJC2
  5
1C8FD
 10
1552.21
 20
356.260
 30
0.000000
  70
    32
  0
VERTEX
  8
SJC2
  5
1C8FE
 10
1552.60
 20
358.539
 30
0.000000
  70
    32
  0
VERTEX
  8
SJC2
  5
1C8FF
 10
1552.90
 20
360.769
 30
0.000000
  70
    32
  0
VERTEX
  8
SJC2
  5
1C900
 10
1553.11
 20
362.944
 30
0.000000
  70
    32
  0
VERTEX
  8
SJC2
  5
1C901
 10
1553.24
 20
365.059
 30
0.000000
  70
    32
  0
VERTEX
  8
SJC2
  5
1C902
 10
1553.28
 20
367.109
 30
0.000000
  70
    32
  0
VERTEX
  8
SJC2
  5
1C903
 10
1553.23
 20
369.089
 30
0.000000
  70
    32
  0
VERTEX
  8
SJC2
  5
1C904
 10
1553.10
 20
370.994
 30
0.000000
  70
    32
  0
VERTEX
  8
SJC2
  5
1C905
 10
1552.88
 20
372.820
 30
0.000000
  70
    32
  0
VERTEX
  8
SJC2
  5
1C906
 10
1552.57
 20
374.563
 30
0.000000
  70
    32
  0
VERTEX
  8
SJC2
  5
1C907
 10
1552.18
 20
376.217
 30
0.000000
  70
    32
  0
VERTEX
  8
SJC2
  5
1C908
 10
1551.70
 20
377.780
 30
0.000000
  70
    32
  0
VERTEX
  8
SJC2
  5
1C909
 10
1551.13
 20
379.247
 30
0.000000
  70
    32
  0
VERTEX
  8
SJC2
  5
1C90A
 10
1550.49
 20
380.614
 30
0.000000
  70
    32
  0
VERTEX
  8
SJC2
  5
1C90B
 10
1549.76
 20
381.879
 30
0.000000
  70
    32
  0
VERTEX
  8
SJC2
  5
1C90C
 10
1548.96
 20
383.039
 30
0.000000
  70
    32
  0
VERTEX
  8
SJC2
  5
1C90D
 10
1548.08
 20
384.090
 30
0.000000
  70
    32
  0
VERTEX
  8
SJC2
  5
1C90E
 10
1547.12
 20
385.031
 30
0.000000
  70
    32
  0
VERTEX
  8
SJC2
  5
1C90F
 10
1546.10
 20
385.858
 30
0.000000
  70
    32
  0
VERTEX
  8
SJC2
  5
1C910
 10
1545.00
 20
386.570
 30
0.000000
  70
    32
  0
VERTEX
  8
SJC2
  5
1C911
 10
1543.83
 20
387.165
 30
0.000000
  70
    32
  0
VERTEX
  8
SJC2
  5
1C912
 10
1542.60
 20
387.643
 30
0.000000
  70
    32
  0
VERTEX
  8
SJC2
  5
1C913
 10
1541.31
 20
388.000
 30
0.000000
  70
    32
  0
VERTEX
  8
SJC2
  5
1C914
 10
1539.96
 20
388.238
 30
0.000000
  70
    32
  0
VERTEX
  8
SJC2
  5
1C915
 10
1538.55
 20
388.354
 30
0.000000
  70
    32
  0
VERTEX
  8
SJC2
  5
1C916
 10
1537.09
 20
388.349
 30
0.000000
  70
    32
  0
VERTEX
  8
SJC2
  5
1C917
 10
1535.59
 20
388.224
 30
0.000000
  70
    32
  0
VERTEX
  8
SJC2
  5
1C918
 10
1534.03
 20
387.977
 30
0.000000
  70
    32
  0
VERTEX
  8
SJC2
  5
1C919
 10
1532.44
 20
387.610
 30
0.000000
  70
    32
  0
VERTEX
  8
SJC2
  5
1C91A
 10
1530.81
 20
387.124
 30
0.000000
  70
    32
  0
VERTEX
  8
SJC2
  5
1C91B
 10
1529.15
 20
386.520
 30
0.000000
  70
    32
  0
VERTEX
  8
SJC2
  5
1C91C
 10
1527.46
 20
385.799
 30
0.000000
  70
    32
  0
VERTEX
  8
SJC2
  5
1C91D
 10
1525.74
 20
384.963
 30
0.000000
  70
    32
  0
VERTEX
  8
SJC2
  5
1C91E
 10
1524.00
 20
384.014
 30
0.000000
  70
    32
  0
VERTEX
  8
SJC2
  5
1C91F
 10
1522.25
 20
382.954
 30
0.000000
  70
    32
  0
VERTEX
  8
SJC2
  5
1C920
 10
1520.48
 20
381.786
 30
0.000000
  70
    32
  0
VERTEX
  8
SJC2
  5
1C921
 10
1518.70
 20
380.513
 30
0.000000
  70
    32
  0
VERTEX
  8
SJC2
  5
1C922
 10
1516.92
 20
379.138
 30
0.000000
  70
    32
  0
VERTEX
  8
SJC2
  5
1C923
 10
1515.14
 20
377.663
 30
0.000000
  70
    32
  0
VERTEX
  8
SJC2
  5
1C924
 10
1513.36
 20
376.094
 30
0.000000
  70
    32
  0
VERTEX
  8
SJC2
  5
1C925
 10
1511.60
 20
374.432
 30
0.000000
  70
    32
  0
VERTEX
  8
SJC2
  5
1C926
 10
1509.84
 20
372.684
 30
0.000000
  70
    32
  0
VERTEX
  8
SJC2
  5
1C927
 10
1508.11
 20
370.851
 30
0.000000
  70
    32
  0
VERTEX
  8
SJC2
  5
1C928
 10
1506.39
 20
368.940
 30
0.000000
  70
    32
  0
VERTEX
  8
SJC2
  5
1C929
 10
1504.70
 20
366.954
 30
0.000000
  70
    32
  0
VERTEX
  8
SJC2
  5
1C92A
 10
1503.04
 20
364.899
 30
0.000000
  70
    32
  0
VERTEX
  8
SJC2
  5
1C92B
 10
1501.41
 20
362.779
 30
0.000000
  70
    32
  0
VERTEX
  8
SJC2
  5
1C92C
 10
1499.83
 20
360.600
 30
0.000000
  70
    32
  0
VERTEX
  8
SJC2
  5
1C92D
 10
1498.28
 20
358.367
 30
0.000000
  70
    32
  0
VERTEX
  8
SJC2
  5
1C92E
 10
1496.77
 20
356.084
 30
0.000000
  70
    32
  0
VERTEX
  8
SJC2
  5
1C92F
 10
1495.32
 20
353.758
 30
0.000000
  70
    32
  0
VERTEX
  8
SJC2
  5
1C930
 10
1493.92
 20
351.394
 30
0.000000
  70
    32
  0
VERTEX
  8
SJC2
  5
1C931
 10
1492.57
 20
348.999
 30
0.000000
  70
    32
  0
VERTEX
  8
SJC2
  5
1C932
 10
1491.29
 20
346.577
 30
0.000000
  70
    32
  0
VERTEX
  8
SJC2
  5
1C933
 10
1490.06
 20
344.134
 30
0.000000
  70
    32
  0
VERTEX
  8
SJC2
  5
1C934
 10
1488.90
 20
341.677
 30
0.000000
  70
    32
  0
VERTEX
  8
SJC2
  5
1C935
 10
1487.81
 20
339.211
 30
0.000000
  70
    32
  0
VERTEX
  8
SJC2
  5
1C936
 10
1486.78
 20
336.742
 30
0.000000
  70
    32
  0
VERTEX
  8
SJC2
  5
1C937
 10
1485.83
 20
334.277
 30
0.000000
  70
    32
  0
VERTEX
  8
SJC2
  5
1C938
 10
1484.96
 20
331.820
 30
0.000000
  70
    32
  0
VERTEX
  8
SJC2
  5
1C939
 10
1484.16
 20
329.379
 30
0.000000
  70
    32
  0
VERTEX
  8
SJC2
  5
1C93A
 10
1483.44
 20
326.959
 30
0.000000
  70
    32
  0
VERTEX
  8
SJC2
  5
1C93B
 10
1482.81
 20
324.565
 30
0.000000
  70
    32
  0
VERTEX
  8
SJC2
  5
1C93C
 10
1482.25
 20
322.204
 30
0.000000
  70
    32
  0
VERTEX
  8
SJC2
  5
1C93D
 10
1481.78
 20
319.882
 30
0.000000
  70
    32
  0
VERTEX
  8
SJC2
  5
1C93E
 10
1481.39
 20
317.603
 30
0.000000
  70
    32
  0
VERTEX
  8
SJC2
  5
1C93F
 10
1481.09
 20
315.373
 30
0.000000
  70
    32
  0
VERTEX
  8
SJC2
  5
1C940
 10
1480.88
 20
313.198
 30
0.000000
  70
    32
  0
VERTEX
  8
SJC2
  5
1C941
 10
1480.75
 20
311.083
 30
0.000000
  70
    32
  0
VERTEX
  8
SJC2
  5
1C942
 10
1480.71
 20
309.033
 30
0.000000
  70
    32
  0
VERTEX
  8
SJC2
  5
1C943
 10
1480.76
 20
307.053
 30
0.000000
  70
    32
  0
VERTEX
  8
SJC2
  5
1C944
 10
1480.89
 20
305.147
 30
0.000000
  70
    32
  0
VERTEX
  8
SJC2
  5
1C945
 10
1481.11
 20
303.321
 30
0.000000
  70
    32
  0
VERTEX
  8
SJC2
  5
1C946
 10
1481.42
 20
301.579
 30
0.000000
  70
    32
  0
VERTEX
  8
SJC2
  5
1C947
 10
1481.82
 20
299.925
 30
0.000000
  70
    32
  0
VERTEX
  8
SJC2
  5
1C948
 10
1482.30
 20
298.362
 30
0.000000
  70
    32
  0
VERTEX
  8
SJC2
  5
1C949
 10
1482.86
 20
296.895
 30
0.000000
  70
    32
  0
VERTEX
  8
SJC2
  5
1C94A
 10
1483.50
 20
295.528
 30
0.000000
  70
    32
  0
VERTEX
  8
SJC2
  5
1C94B
 10
1484.23
 20
294.263
 30
0.000000
  70
    32
  0
VERTEX
  8
SJC2
  5
1C94C
 10
1485.03
 20
293.103
 30
0.000000
  70
    32
  0
VERTEX
  8
SJC2
  5
1C94D
 10
1485.91
 20
292.052
 30
0.000000
  70
    32
  0
VERTEX
  8
SJC2
  5
1C94E
 10
1486.87
 20
291.111
 30
0.000000
  70
    32
  0
VERTEX
  8
SJC2
  5
1C94F
 10
1487.90
 20
290.284
 30
0.000000
  70
    32
  0
VERTEX
  8
SJC2
  5
1C950
 10
1488.99
 20
289.572
 30
0.000000
  70
    32
  0
SEQEND
  8
SJC2
  5
1C951
  0
POLYLINE
  5
1BF61
  8
SJC2
 10
1551.254512881163
 20
289.57177566539235
 30
0.0
 66
     1
 70
     8
  0
VERTEX
  8
SJC2
  5
1C952
 10
1551.25
 20
289.572
 30
0.000000
  70
    32
  0
VERTEX
  8
SJC2
  5
1C953
 10
1552.42
 20
288.976
 30
0.000000
  70
    32
  0
VERTEX
  8
SJC2
  5
1C954
 10
1553.65
 20
288.499
 30
0.000000
  70
    32
  0
VERTEX
  8
SJC2
  5
1C955
 10
1554.94
 20
288.142
 30
0.000000
  70
    32
  0
VERTEX
  8
SJC2
  5
1C956
 10
1556.29
 20
287.904
 30
0.000000
  70
    32
  0
VERTEX
  8
SJC2
  5
1C957
 10
1557.70
 20
287.788
 30
0.000000
  70
    32
  0
VERTEX
  8
SJC2
  5
1C958
 10
1559.16
 20
287.793
 30
0.000000
  70
    32
  0
VERTEX
  8
SJC2
  5
1C959
 10
1560.67
 20
287.918
 30
0.000000
  70
    32
  0
VERTEX
  8
SJC2
  5
1C95A
 10
1562.22
 20
288.165
 30
0.000000
  70
    32
  0
VERTEX
  8
SJC2
  5
1C95B
 10
1563.81
 20
288.532
 30
0.000000
  70
    32
  0
VERTEX
  8
SJC2
  5
1C95C
 10
1565.44
 20
289.018
 30
0.000000
  70
    32
  0
VERTEX
  8
SJC2
  5
1C95D
 10
1567.10
 20
289.622
 30
0.000000
  70
    32
  0
VERTEX
  8
SJC2
  5
1C95E
 10
1568.79
 20
290.343
 30
0.000000
  70
    32
  0
VERTEX
  8
SJC2
  5
1C95F
 10
1570.51
 20
291.179
 30
0.000000
  70
    32
  0
VERTEX
  8
SJC2
  5
1C960
 10
1572.25
 20
292.128
 30
0.000000
  70
    32
  0
VERTEX
  8
SJC2
  5
1C961
 10
1574.01
 20
293.188
 30
0.000000
  70
    32
  0
VERTEX
  8
SJC2
  5
1C962
 10
1575.77
 20
294.356
 30
0.000000
  70
    32
  0
VERTEX
  8
SJC2
  5
1C963
 10
1577.55
 20
295.629
 30
0.000000
  70
    32
  0
VERTEX
  8
SJC2
  5
1C964
 10
1579.33
 20
297.004
 30
0.000000
  70
    32
  0
VERTEX
  8
SJC2
  5
1C965
 10
1581.11
 20
298.479
 30
0.000000
  70
    32
  0
VERTEX
  8
SJC2
  5
1C966
 10
1582.89
 20
300.048
 30
0.000000
  70
    32
  0
VERTEX
  8
SJC2
  5
1C967
 10
1584.65
 20
301.709
 30
0.000000
  70
    32
  0
VERTEX
  8
SJC2
  5
1C968
 10
1586.41
 20
303.458
 30
0.000000
  70
    32
  0
VERTEX
  8
SJC2
  5
1C969
 10
1588.14
 20
305.291
 30
0.000000
  70
    32
  0
VERTEX
  8
SJC2
  5
1C96A
 10
1589.86
 20
307.202
 30
0.000000
  70
    32
  0
VERTEX
  8
SJC2
  5
1C96B
 10
1591.55
 20
309.187
 30
0.000000
  70
    32
  0
VERTEX
  8
SJC2
  5
1C96C
 10
1593.21
 20
311.243
 30
0.000000
  70
    32
  0
VERTEX
  8
SJC2
  5
1C96D
 10
1594.84
 20
313.362
 30
0.000000
  70
    32
  0
VERTEX
  8
SJC2
  5
1C96E
 10
1596.43
 20
315.542
 30
0.000000
  70
    32
  0
VERTEX
  8
SJC2
  5
1C96F
 10
1597.97
 20
317.775
 30
0.000000
  70
    32
  0
VERTEX
  8
SJC2
  5
1C970
 10
1599.48
 20
320.058
 30
0.000000
  70
    32
  0
VERTEX
  8
SJC2
  5
1C971
 10
1600.93
 20
322.384
 30
0.000000
  70
    32
  0
VERTEX
  8
SJC2
  5
1C972
 10
1602.33
 20
324.748
 30
0.000000
  70
    32
  0
VERTEX
  8
SJC2
  5
1C973
 10
1603.68
 20
327.143
 30
0.000000
  70
    32
  0
VERTEX
  8
SJC2
  5
1C974
 10
1604.97
 20
329.565
 30
0.000000
  70
    32
  0
VERTEX
  8
SJC2
  5
1C975
 10
1606.19
 20
332.008
 30
0.000000
  70
    32
  0
VERTEX
  8
SJC2
  5
1C976
 10
1607.35
 20
334.465
 30
0.000000
  70
    32
  0
VERTEX
  8
SJC2
  5
1C977
 10
1608.44
 20
336.931
 30
0.000000
  70
    32
  0
VERTEX
  8
SJC2
  5
1C978
 10
1609.47
 20
339.400
 30
0.000000
  70
    32
  0
VERTEX
  8
SJC2
  5
1C979
 10
1610.42
 20
341.865
 30
0.000000
  70
    32
  0
VERTEX
  8
SJC2
  5
1C97A
 10
1611.29
 20
344.322
 30
0.000000
  70
    32
  0
VERTEX
  8
SJC2
  5
1C97B
 10
1612.09
 20
346.763
 30
0.000000
  70
    32
  0
VERTEX
  8
SJC2
  5
1C97C
 10
1612.81
 20
349.183
 30
0.000000
  70
    32
  0
VERTEX
  8
SJC2
  5
1C97D
 10
1613.44
 20
351.577
 30
0.000000
  70
    32
  0
VERTEX
  8
SJC2
  5
1C97E
 10
1614.00
 20
353.938
 30
0.000000
  70
    32
  0
VERTEX
  8
SJC2
  5
1C97F
 10
1614.47
 20
356.260
 30
0.000000
  70
    32
  0
VERTEX
  8
SJC2
  5
1C980
 10
1614.86
 20
358.539
 30
0.000000
  70
    32
  0
VERTEX
  8
SJC2
  5
1C981
 10
1615.16
 20
360.769
 30
0.000000
  70
    32
  0
VERTEX
  8
SJC2
  5
1C982
 10
1615.37
 20
362.944
 30
0.000000
  70
    32
  0
VERTEX
  8
SJC2
  5
1C983
 10
1615.50
 20
365.059
 30
0.000000
  70
    32
  0
VERTEX
  8
SJC2
  5
1C984
 10
1615.54
 20
367.109
 30
0.000000
  70
    32
  0
VERTEX
  8
SJC2
  5
1C985
 10
1615.49
 20
369.089
 30
0.000000
  70
    32
  0
VERTEX
  8
SJC2
  5
1C986
 10
1615.36
 20
370.994
 30
0.000000
  70
    32
  0
VERTEX
  8
SJC2
  5
1C987
 10
1615.14
 20
372.820
 30
0.000000
  70
    32
  0
VERTEX
  8
SJC2
  5
1C988
 10
1614.83
 20
374.563
 30
0.000000
  70
    32
  0
VERTEX
  8
SJC2
  5
1C989
 10
1614.43
 20
376.217
 30
0.000000
  70
    32
  0
VERTEX
  8
SJC2
  5
1C98A
 10
1613.96
 20
377.780
 30
0.000000
  70
    32
  0
VERTEX
  8
SJC2
  5
1C98B
 10
1613.39
 20
379.247
 30
0.000000
  70
    32
  0
VERTEX
  8
SJC2
  5
1C98C
 10
1612.75
 20
380.614
 30
0.000000
  70
    32
  0
VERTEX
  8
SJC2
  5
1C98D
 10
1612.02
 20
381.879
 30
0.000000
  70
    32
  0
VERTEX
  8
SJC2
  5
1C98E
 10
1611.22
 20
383.039
 30
0.000000
  70
    32
  0
VERTEX
  8
SJC2
  5
1C98F
 10
1610.34
 20
384.090
 30
0.000000
  70
    32
  0
VERTEX
  8
SJC2
  5
1C990
 10
1609.38
 20
385.031
 30
0.000000
  70
    32
  0
VERTEX
  8
SJC2
  5
1C991
 10
1608.36
 20
385.858
 30
0.000000
  70
    32
  0
VERTEX
  8
SJC2
  5
1C992
 10
1607.26
 20
386.570
 30
0.000000
  70
    32
  0
VERTEX
  8
SJC2
  5
1C993
 10
1606.09
 20
387.165
 30
0.000000
  70
    32
  0
VERTEX
  8
SJC2
  5
1C994
 10
1604.86
 20
387.643
 30
0.000000
  70
    32
  0
VERTEX
  8
SJC2
  5
1C995
 10
1603.57
 20
388.000
 30
0.000000
  70
    32
  0
VERTEX
  8
SJC2
  5
1C996
 10
1602.22
 20
388.238
 30
0.000000
  70
    32
  0
VERTEX
  8
SJC2
  5
1C997
 10
1600.81
 20
388.354
 30
0.000000
  70
    32
  0
VERTEX
  8
SJC2
  5
1C998
 10
1599.35
 20
388.349
 30
0.000000
  70
    32
  0
VERTEX
  8
SJC2
  5
1C999
 10
1597.85
 20
388.224
 30
0.000000
  70
    32
  0
VERTEX
  8
SJC2
  5
1C99A
 10
1596.29
 20
387.977
 30
0.000000
  70
    32
  0
VERTEX
  8
SJC2
  5
1C99B
 10
1594.70
 20
387.610
 30
0.000000
  70
    32
  0
VERTEX
  8
SJC2
  5
1C99C
 10
1593.07
 20
387.124
 30
0.000000
  70
    32
  0
VERTEX
  8
SJC2
  5
1C99D
 10
1591.41
 20
386.520
 30
0.000000
  70
    32
  0
VERTEX
  8
SJC2
  5
1C99E
 10
1589.72
 20
385.799
 30
0.000000
  70
    32
  0
VERTEX
  8
SJC2
  5
1C99F
 10
1588.00
 20
384.963
 30
0.000000
  70
    32
  0
VERTEX
  8
SJC2
  5
1C9A0
 10
1586.26
 20
384.014
 30
0.000000
  70
    32
  0
VERTEX
  8
SJC2
  5
1C9A1
 10
1584.51
 20
382.954
 30
0.000000
  70
    32
  0
VERTEX
  8
SJC2
  5
1C9A2
 10
1582.74
 20
381.786
 30
0.000000
  70
    32
  0
VERTEX
  8
SJC2
  5
1C9A3
 10
1580.96
 20
380.513
 30
0.000000
  70
    32
  0
VERTEX
  8
SJC2
  5
1C9A4
 10
1579.18
 20
379.138
 30
0.000000
  70
    32
  0
VERTEX
  8
SJC2
  5
1C9A5
 10
1577.40
 20
377.663
 30
0.000000
  70
    32
  0
VERTEX
  8
SJC2
  5
1C9A6
 10
1575.62
 20
376.094
 30
0.000000
  70
    32
  0
VERTEX
  8
SJC2
  5
1C9A7
 10
1573.86
 20
374.432
 30
0.000000
  70
    32
  0
VERTEX
  8
SJC2
  5
1C9A8
 10
1572.10
 20
372.684
 30
0.000000
  70
    32
  0
VERTEX
  8
SJC2
  5
1C9A9
 10
1570.37
 20
370.851
 30
0.000000
  70
    32
  0
VERTEX
  8
SJC2
  5
1C9AA
 10
1568.65
 20
368.940
 30
0.000000
  70
    32
  0
VERTEX
  8
SJC2
  5
1C9AB
 10
1566.96
 20
366.954
 30
0.000000
  70
    32
  0
VERTEX
  8
SJC2
  5
1C9AC
 10
1565.30
 20
364.899
 30
0.000000
  70
    32
  0
VERTEX
  8
SJC2
  5
1C9AD
 10
1563.67
 20
362.779
 30
0.000000
  70
    32
  0
VERTEX
  8
SJC2
  5
1C9AE
 10
1562.08
 20
360.600
 30
0.000000
  70
    32
  0
VERTEX
  8
SJC2
  5
1C9AF
 10
1560.54
 20
358.367
 30
0.000000
  70
    32
  0
VERTEX
  8
SJC2
  5
1C9B0
 10
1559.03
 20
356.084
 30
0.000000
  70
    32
  0
VERTEX
  8
SJC2
  5
1C9B1
 10
1557.58
 20
353.758
 30
0.000000
  70
    32
  0
VERTEX
  8
SJC2
  5
1C9B2
 10
1556.18
 20
351.394
 30
0.000000
  70
    32
  0
VERTEX
  8
SJC2
  5
1C9B3
 10
1554.83
 20
348.999
 30
0.000000
  70
    32
  0
VERTEX
  8
SJC2
  5
1C9B4
 10
1553.55
 20
346.577
 30
0.000000
  70
    32
  0
VERTEX
  8
SJC2
  5
1C9B5
 10
1552.32
 20
344.134
 30
0.000000
  70
    32
  0
VERTEX
  8
SJC2
  5
1C9B6
 10
1551.16
 20
341.677
 30
0.000000
  70
    32
  0
VERTEX
  8
SJC2
  5
1C9B7
 10
1550.07
 20
339.211
 30
0.000000
  70
    32
  0
VERTEX
  8
SJC2
  5
1C9B8
 10
1549.04
 20
336.742
 30
0.000000
  70
    32
  0
VERTEX
  8
SJC2
  5
1C9B9
 10
1548.09
 20
334.277
 30
0.000000
  70
    32
  0
VERTEX
  8
SJC2
  5
1C9BA
 10
1547.22
 20
331.820
 30
0.000000
  70
    32
  0
VERTEX
  8
SJC2
  5
1C9BB
 10
1546.42
 20
329.379
 30
0.000000
  70
    32
  0
VERTEX
  8
SJC2
  5
1C9BC
 10
1545.70
 20
326.959
 30
0.000000
  70
    32
  0
VERTEX
  8
SJC2
  5
1C9BD
 10
1545.07
 20
324.565
 30
0.000000
  70
    32
  0
VERTEX
  8
SJC2
  5
1C9BE
 10
1544.51
 20
322.204
 30
0.000000
  70
    32
  0
VERTEX
  8
SJC2
  5
1C9BF
 10
1544.04
 20
319.882
 30
0.000000
  70
    32
  0
VERTEX
  8
SJC2
  5
1C9C0
 10
1543.65
 20
317.603
 30
0.000000
  70
    32
  0
VERTEX
  8
SJC2
  5
1C9C1
 10
1543.35
 20
315.373
 30
0.000000
  70
    32
  0
VERTEX
  8
SJC2
  5
1C9C2
 10
1543.14
 20
313.198
 30
0.000000
  70
    32
  0
VERTEX
  8
SJC2
  5
1C9C3
 10
1543.01
 20
311.083
 30
0.000000
  70
    32
  0
VERTEX
  8
SJC2
  5
1C9C4
 10
1542.97
 20
309.033
 30
0.000000
  70
    32
  0
VERTEX
  8
SJC2
  5
1C9C5
 10
1543.02
 20
307.053
 30
0.000000
  70
    32
  0
VERTEX
  8
SJC2
  5
1C9C6
 10
1543.15
 20
305.147
 30
0.000000
  70
    32
  0
VERTEX
  8
SJC2
  5
1C9C7
 10
1543.37
 20
303.321
 30
0.000000
  70
    32
  0
VERTEX
  8
SJC2
  5
1C9C8
 10
1543.68
 20
301.579
 30
0.000000
  70
    32
  0
VERTEX
  8
SJC2
  5
1C9C9
 10
1544.08
 20
299.925
 30
0.000000
  70
    32
  0
VERTEX
  8
SJC2
  5
1C9CA
 10
1544.55
 20
298.362
 30
0.000000
  70
    32
  0
VERTEX
  8
SJC2
  5
1C9CB
 10
1545.12
 20
296.895
 30
0.000000
  70
    32
  0
VERTEX
  8
SJC2
  5
1C9CC
 10
1545.76
 20
295.528
 30
0.000000
  70
    32
  0
VERTEX
  8
SJC2
  5
1C9CD
 10
1546.49
 20
294.263
 30
0.000000
  70
    32
  0
VERTEX
  8
SJC2
  5
1C9CE
 10
1547.29
 20
293.103
 30
0.000000
  70
    32
  0
VERTEX
  8
SJC2
  5
1C9CF
 10
1548.17
 20
292.052
 30
0.000000
  70
    32
  0
VERTEX
  8
SJC2
  5
1C9D0
 10
1549.13
 20
291.111
 30
0.000000
  70
    32
  0
VERTEX
  8
SJC2
  5
1C9D1
 10
1550.16
 20
290.284
 30
0.000000
  70
    32
  0
VERTEX
  8
SJC2
  5
1C9D2
 10
1551.25
 20
289.572
 30
0.000000
  70
    32
  0
SEQEND
  8
SJC2
  5
1C9D3
  0
LINE
  5
1C10F
  8
HASEN
 10
1379.3632148796351
 20
1787.588898764541
 30
0.0
 11
1454.3632148796351
 21
1787.5888987645401
 31
0.0
  0
DIMENSION
  5
1C110
  8
SUNPOU
  2
*D27
 10
1722.6363455635949
 20
387.58889876454123
 30
0.0
 11
1695.6363455635949
 21
1087.588898764541
 31
0.0
 70
     0
 13
1454.3632148796351
 23
1787.5888987645401
 33
0.0
 14
1616.8632148796351
 24
387.58889876454123
 34
0.0
 50
90.0
1001
ACAD
1000
DSTYLE
1002
{
1070
   287
1070
     5
1070
    40
1040
10.0
1070
    41
1040
2.0
1070
    42
1040
1.0
1070
    43
1040
6.0
1070
    44
1040
1.0
1070
    73
1070
     0
1070
    74
1070
     0
1070
    77
1070
     1
1070
    78
1070
     8
1070
   140
1040
3.0
1070
   147
1040
1.1999999999999991
1070
   172
1070
     1
1070
   179
1070
     2
1070
   271
1070
     2
1070
   279
1070
     2
1070
   340
1005
55
1002
}
  0
TEXT
  5
1C11D
  8
MOJI
 10
2934.3431438828788
 20
2090.4653334809768
 30
0.0
 40
30.0
  1
鉄製
 41
0.8
  7
EXT08
 11
2934.3431438828788
 21
2105.4653334809782
 31
0.0
 73
     2
  0
TEXT
  5
1C190
  8
SUNPOU
 10
408.18992053885881
 20
842.96702830910181
 30
0.0
 40
30.0
  1
φ9×150
 41
0.8
  7
EXT08
 72
     4
 11
483.3899205388588
 21
857.96702830910169
 31
0.0
  0
LINE
  5
1C27B
  8
SJC
 10
2978.6942880838401
 20
2651.462121184511
 30
0.0
 11
3648.6942880838401
 21
2651.462121184511
 31
0.0
  0
LINE
  5
1C27C
  8
SJC
 10
2978.6942880838401
 20
2501.462121184511
 30
0.0
 11
3648.6942880838401
 21
2501.462121184511
 31
0.0
  0
LINE
  5
1C27D
  8
SJC
 10
2963.6942880838401
 20
2551.462121184511
 30
0.0
 11
3663.6942880838401
 21
2551.462121184511
 31
0.0
  0
LINE
  5
1C27E
  8
SJC
 10
2963.6942880838401
 20
2601.462121184511
 30
0.0
 11
3663.6942880838401
 21
2601.462121184511
 31
0.0
  0
TEXT
  5
1C27F
  8
MOJI
 10
3120.6854416030642
 20
2511.7388454641582
 30
0.0
 40
30.0
  1
KEKH00576
 41
0.8
  7
EXT08
  0
TEXT
  5
1C280
  8
MOJI
 10
3120.6854416030642
 20
2611.7388454641582
 30
0.0
 40
30.0
  1
ジスロンパイプサインポール（単柱式）
 41
0.8
  7
EXT08
  0
TEXT
  5
1C281
  8
MOJI
 10
2996.4657166552688
 20
2610.8621211845111
 30
0.0
 40
30.0
  1
タイプ
 41
0.8
  7
EXT08
 72
     4
 11
3038.6942880838401
 21
2626.462121184511
 31
0.0
  0
LINE
  5
1C282
  8
SJC
 10
3113.6942880838401
 20
2501.462121184511
 30
0.0
 11
3113.6942880838401
 21
2651.462121184511
 31
0.0
  0
ARC
  5
1C283
  8
SJC
 10
2978.6942880838401
 20
2636.462121184511
 30
0.0
 40
15.0
 50
90.0
 51
180.0
  0
ARC
  5
1C284
  8
SJC
 10
2978.6942880838401
 20
2516.462121184511
 30
0.0
 40
15.0
 50
180.0
 51
270.0
  0
LINE
  5
1C285
  8
SJC
 10
2963.6942880838401
 20
2516.462121184511
 30
0.0
 11
2963.6942880838401
 21
2636.462121184511
 31
0.0
  0
TEXT
  5
1C286
  8
MOJI
 10
2998.6942880838401
 20
2561.4621211845101
 30
0.0
 40
30.0
  1
品  番
 41
0.8
  7
EXT08
 72
     4
 11
3038.6942880838401
 21
2576.462121184511
 31
0.0
  0
TEXT
  5
1C287
  8
MOJI
 10
2983.4942880838398
 20
2511.462121184511
 30
0.0
 40
30.0
  1
図面番号
 41
0.8
  7
EXT08
 72
     4
 11
3038.6942880838401
 21
2526.462121184511
 31
0.0
  0
ARC
  5
1C288
  8
SJC
 10
3648.6942880838401
 20
2636.462121184511
 30
0.0
 40
15.0
 50
0.0
 51
90.0
  0
ARC
  5
1C289
  8
SJC
 10
3648.6942880838401
 20
2516.462121184511
 30
0.0
 40
15.0
 50
270.0
 51
0.0
  0
LINE
  5
1C28A
  8
SJC
 10
3663.6942880838401
 20
2516.462121184511
 30
0.0
 11
3663.6942880838401
 21
2636.462121184511
 31
0.0
  0
TEXT
  5
1C28B
  8
MOJI
 10
3120.6854416030642
 20
2561.7388454641582
 30
0.0
 40
30.0
  1
89SPE-2L-C
 41
0.8
  7
EXT08
  0
LINE
  5
1C346
  8
MOJI
 10
3663.0844272244772
 20
2177.4653334629761
 30
0.0
 11
2539.8840360922268
 21
2177.465333462977
 31
0.0
  0
TEXT
  5
1C347
  8
MOJI
 10
2593.2144519859548
 20
2186.4653334569762
 30
0.0
 40
30.0
  1
サインシート
 41
0.8
  7
EXT08
 72
     4
 11
2675.6144519859549
 21
2201.4653334569762
 31
0.0
  0
TEXT
  5
1C348
  8
MOJI
 10
2934.3431438828802
 20
2186.4653334569762
 30
0.0
 40
30.0
  1
封入レンズ型反射シート
 41
0.8
  7
EXT08
 11
2934.3431438828802
 21
2201.4653334569762
 31
0.0
 73
     2
  0
TEXT
  5
1C349
  8
MOJI
 10
2850.9145724723089
 20
2186.4653334569762
 30
0.0
 40
30.0
  1
2
 41
0.8
  7
EXT08
 72
     4
 11
2862.3431439008809
 21
2201.4653334569762
 31
0.0
  0
TEXT
  5
1C34A
  8
MOJI
 10
3407.9976583548132
 20
2186.4653334569762
 30
0.0
 40
30.0
  1
デジタル印刷
 41
0.8
  7
EXT08
 72
     4
 11
3492.7976583548129
 21
2201.4653334569762
 31
0.0
  0
INSERT
  5
1C37D
  8
0
  2
*U41
 10
0.0
 20
0.0
 30
0.0
1001
ACAD
1000
DSTYLE
1002
{
1070
   140
1040
30.0
1070
   144
1040
0.5
1070
   147
1040
15.0
1070
    42
1040
10.0
1070
    44
1040
10.0
1070
    43
1040
60.0
1070
    41
1040
20.0
1002
}
  0
TEXT
  5
1C37E
  8
SUNPOU
 10
831.89413605950438
 20
1928.6098334572459
 30
0.0
 40
30.0
  1
封入レンズ型反射シート
 41
0.8
  7
EXT08
  0
LINE
  5
1C37F
  8
SUNPOU
 10
829.41795528342755
 20
1963.437696714104
 30
0.0
 11
1168.1987067254499
 21
1963.437696714104
 31
0.0
1001
ACAD
1000
DSTYLE
1002
{
1070
    77
1070
     0
1070
    40
1040
10.0
1070
   147
1040
1.1999999999999991
1070
   176
1070
     0
1070
   177
1070
     0
1070
   178
1070
     0
1070
   179
1070
     2
1070
   271
1070
     2
1002
}
  0
TEXT
  5
1C380
  8
SUNPOU
 10
831.89413605950438
 20
1969.1957172062159
 30
0.0
 40
30.0
  1
サインシート
 41
0.8
  7
EXT08
  0
TEXT
  5
1C381
  8
SUNPOU
 10
831.89413605950438
 20
1884.184329535884
 30
0.0
 40
30.0
  1
デジタル印刷
 41
0.8
  7
EXT08
  0
VIEWPORT
  5
1464C
 67
     1
  8
0
 10
128.5
 20
97.5
 30
0.0
 40
314.226
 41
243.9518146964856
 68
     1
 69
     1
1001
ACAD
1000
MVIEW
1002
{
1070
    16
1010
0.0
1020
0.0
1030
0.0
1010
0.0
1020
0.0
1030
1.0
1040
0.0
1040
243.9518146964856
1040
128.5
1040
97.5
1040
50.0
1040
0.0
1040
0.0
1070
     0
1070
   100
1070
     1
1070
     1
1070
     0
1070
     0
1070
     0
1070
     0
1040
0.0
1040
0.0
1040
0.0
1040
10.0
1040
10.0
1040
10.0
1040
10.0
1070
     0
1002
{
1002
}
1002
}
  0
VIEWPORT
  5
1464E
 67
     1
  8
SUNPOU
 10
128.5
 20
97.5
 30
0.0
 40
205.59999999999999
 41
156.0
 68
     2
 69
     2
1001
ACAD
1000
MVIEW
1002
{
1070
    16
1010
0.0
1020
0.0
1030
0.0
1010
0.0
1020
0.0
1030
1.0
1040
0.0
1040
5536.5396555471661
1040
-4689.111563369348
1040
1441.2182828350519
1040
50.0
1040
0.0
1040
0.0
1070
     0
1070
   100
1070
     1
1070
     3
1070
     0
1070
     0
1070
     0
1070
     0
1040
0.0
1040
0.0
1040
0.0
1040
10.0
1040
10.0
1040
10.0
1040
10.0
1070
     0
1002
{
1002
}
1002
}
  0
ENDSEC
  0
EOF
