  0
SECTION
  2
HEADER
  9
$ACADVER
  1
AC1009
  9
$INSBASE
 10
0.0
 20
0.0
 30
0.0
  9
$EXTMIN
 10
-0.7058929444392561
 20
37.540982692415128
 30
0.0
  9
$EXTMAX
 10
4019.2941070555598
 20
2782.5409826924151
 30
0.0
  9
$LIMMIN
 10
0.0
 20
0.0
  9
$LIMMAX
 10
4200.0
 20
2970.0
  9
$ORTHOMODE
 70
     0
  9
$REGENMODE
 70
     1
  9
$FILLMODE
 70
     1
  9
$QTEXTMODE
 70
     0
  9
$MIRRTEXT
 70
     0
  9
$DRAGMODE
 70
     2
  9
$LTSCALE
 40
100.0
  9
$OSMODE
 70
    37
  9
$ATTMODE
 70
     1
  9
$TEXTSIZE
 40
30.0
  9
$TRACEWID
 40
1.0
  9
$TEXTSTYLE
  7
EXT08
  9
$CLAYER
  8
0
  9
$CELTYPE
  6
BYLAYER
  9
$CECOLOR
 62
   256
  9
$DIMSCALE
 40
10.0
  9
$DIMASZ
 40
2.0
  9
$DIMEXO
 40
1.0
  9
$DIMDLI
 40
6.0
  9
$DIMRND
 40
0.0
  9
$DIMDLE
 40
0.0
  9
$DIMEXE
 40
1.0
  9
$DIMTP
 40
0.0
  9
$DIMTM
 40
0.0
  9
$DIMTXT
 40
3.0
  9
$DIMCEN
 40
0.09
  9
$DIMTSZ
 40
0.0
  9
$DIMTOL
 70
     0
  9
$DIMLIM
 70
     0
  9
$DIMTIH
 70
     0
  9
$DIMTOH
 70
     0
  9
$DIMSE1
 70
     0
  9
$DIMSE2
 70
     0
  9
$DIMTAD
 70
     1
  9
$DIMZIN
 70
     8
  9
$DIMBLK
  1

  9
$DIMASO
 70
     1
  9
$DIMSHO
 70
     1
  9
$DIMPOST
  1

  9
$DIMAPOST
  1

  9
$DIMALT
 70
     0
  9
$DIMALTD
 70
     2
  9
$DIMALTF
 40
25.399999999999999
  9
$DIMLFAC
 40
1.0
  9
$DIMTOFL
 70
     1
  9
$DIMTVP
 40
0.0
  9
$DIMTIX
 70
     0
  9
$DIMSOXD
 70
     0
  9
$DIMSAH
 70
     0
  9
$DIMBLK1
  1

  9
$DIMBLK2
  1

  9
$DIMSTYLE
  2
SJC
  9
$DIMCLRD
 70
     0
  9
$DIMCLRE
 70
     0
  9
$DIMCLRT
 70
     0
  9
$DIMTFAC
 40
1.0
  9
$DIMGAP
 40
1.1999999999999991
  9
$LUNITS
 70
     2
  9
$LUPREC
 70
     2
  9
$SKETCHINC
 40
1.0
  9
$FILLETRAD
 40
1.0
  9
$AUNITS
 70
     0
  9
$AUPREC
 70
     0
  9
$MENU
  1
.
  9
$ELEVATION
 40
0.0
  9
$PELEVATION
 40
0.0
  9
$THICKNESS
 40
0.0
  9
$LIMCHECK
 70
     0
  9
$BLIPMODE
 70
     0
  9
$CHAMFERA
 40
0.0
  9
$CHAMFERB
 40
0.0
  9
$SKPOLY
 70
     0
  9
$TDCREATE
 40
2453122.4465482058
  9
$TDUPDATE
 40
2456388.8410322568
  9
$TDINDWG
 40
1.2924195254999999
  9
$TDUSRTIMER
 40
1.2924193519
  9
$USRTIMER
 70
     1
  9
$ANGBASE
 50
0.0
  9
$ANGDIR
 70
     0
  9
$PDMODE
 70
    33
  9
$PDSIZE
 40
5.0
  9
$PLINEWID
 40
0.0
  9
$COORDS
 70
     1
  9
$SPLFRAME
 70
     0
  9
$SPLINETYPE
 70
     6
  9
$SPLINESEGS
 70
     8
  9
$ATTDIA
 70
     0
  9
$ATTREQ
 70
     1
  9
$HANDLING
 70
     1
  9
$HANDSEED
  5
1C9F2
  9
$SURFTAB1
 70
     6
  9
$SURFTAB2
 70
     6
  9
$SURFTYPE
 70
     6
  9
$SURFU
 70
     6
  9
$SURFV
 70
     6
  9
$UCSNAME
  2

  9
$UCSORG
 10
0.0
 20
0.0
 30
0.0
  9
$UCSXDIR
 10
1.0
 20
0.0
 30
0.0
  9
$UCSYDIR
 10
0.0
 20
1.0
 30
0.0
  9
$PUCSNAME
  2

  9
$PUCSORG
 10
0.0
 20
0.0
 30
0.0
  9
$PUCSXDIR
 10
1.0
 20
0.0
 30
0.0
  9
$PUCSYDIR
 10
0.0
 20
1.0
 30
0.0
  9
$USERI1
 70
     3
  9
$USERI2
 70
    10
  9
$USERI3
 70
     0
  9
$USERI4
 70
     0
  9
$USERI5
 70
     0
  9
$USERR1
 40
0.0
  9
$USERR2
 40
0.0
  9
$USERR3
 40
0.0
  9
$USERR4
 40
0.0
  9
$USERR5
 40
0.0
  9
$WORLDVIEW
 70
     1
  9
$SHADEDGE
 70
     3
  9
$SHADEDIF
 70
    70
  9
$TILEMODE
 70
     1
  9
$MAXACTVP
 70
    48
  9
$PLIMCHECK
 70
     0
  9
$PEXTMIN
 10
25.699999999999989
 20
19.5
 30
0.0
  9
$PEXTMAX
 10
231.30000000000001
 20
175.5
 30
0.0
  9
$PLIMMIN
 10
-20.0
 20
-7.5
  9
$PLIMMAX
 10
277.0
 20
202.5
  9
$UNITMODE
 70
     0
  9
$VISRETAIN
 70
     1
  9
$PLINEGEN
 70
     0
  9
$PSLTSCALE
 70
     1
  0
ENDSEC
  0
SECTION
  2
TABLES
  0
TABLE
  2
VPORT
 70
     2
  0
VPORT
  2
*ACTIVE
 70
     0
 10
0.0
 20
0.0
 11
1.0
 21
1.0
 12
2920.3224103466741
 22
1417.0148613951101
 13
0.0
 23
0.0
 14
10.0
 24
10.0
 15
10.0
 25
10.0
 16
0.0
 26
0.0
 36
1.0
 17
0.0
 27
0.0
 37
0.0
 40
3247.2310059526149
 41
1.9010526315789471
 42
50.0
 43
0.0
 44
0.0
 50
0.0
 51
0.0
 71
     0
 72
   100
 73
     1
 74
     3
 75
     0
 76
     0
 77
     0
 78
     0
  0
ENDTAB
  0
TABLE
  2
LTYPE
 70
     4
  0
LTYPE
  2
CONTINUOUS
 70
     0
  3
Solid line
 72
    65
 73
     0
 40
0.0
  0
LTYPE
  2
CENTER
 70
     0
  3
____ _ ____ _ ____ _ ____ _ ____ _ ____ _ ____ 
 72
    65
 73
     4
 40
2.0
 49
1.25
 49
-0.25
 49
0.25
 49
-0.25
  0
LTYPE
  2
HIDDEN
 70
     0
  3
__ __ __ __ __ __ __ __ __ __ __ __ __ __ __ __
 72
    65
 73
     2
 40
0.375
 49
0.25
 49
-0.125
  0
LTYPE
  2
PHANTOM
 70
     0
  3
______  __  __  ______  __  __  ______  __  __ 
 72
    65
 73
     6
 40
2.5
 49
1.25
 49
-0.25
 49
0.25
 49
-0.25
 49
0.25
 49
-0.25
  0
ENDTAB
  0
TABLE
  2
LAYER
 70
    15
  0
LAYER
  2
0
 70
     0
 62
     7
  6
CONTINUOUS
  0
LAYER
  2
ZWAKU
 70
     1
 62
    -7
  6
CONTINUOUS
  0
LAYER
  2
CENTER
 70
     0
 62
     3
  6
CENTER
  0
LAYER
  2
HASEN
 70
     0
 62
     7
  6
HIDDEN
  0
LAYER
  2
KASOU
 70
     0
 62
     2
  6
PHANTOM
  0
LAYER
  2
MOJI
 70
     0
 62
     6
  6
CONTINUOUS
  0
LAYER
  2
WAKU
 70
     0
 62
     5
  6
CONTINUOUS
  0
LAYER
  2
HOJO
 70
     0
 62
    -8
  6
CONTINUOUS
  0
LAYER
  2
SUNPOU
 70
     0
 62
     4
  6
CONTINUOUS
  0
LAYER
  2
SJC
 70
     0
 62
     1
  6
CONTINUOUS
  0
LAYER
  2
INFORMATION
 70
     1
 62
     7
  6
CONTINUOUS
  0
LAYER
  2
SJC2
 70
     0
 62
     7
  6
CONTINUOUS
  0
LAYER
  2
MOJI2
 70
     0
 62
     1
  6
CONTINUOUS
  0
LAYER
  2
HATCH
 70
     0
 62
     2
  6
CONTINUOUS
  0
LAYER
  2
DEFPOINTS
 70
     0
 62
     7
  6
CONTINUOUS
  0
ENDTAB
  0
TABLE
  2
STYLE
 70
     9
  0
STYLE
  2
STANDARD
 70
     0
 40
0.0
 41
1.0
 50
0.0
 71
     0
 42
3.0
  3
txt
  4

  0
STYLE
  2
KANJI
 70
     0
 40
0.0
 41
1.0
 50
0.0
 71
     0
 42
0.0
  3
ROMANS.SHX
  4
BIGFONT.SHX
  0
STYLE
  2
SIMPLEX
 70
     0
 40
0.0
 41
1.0
 50
0.0
 71
     0
 42
0.0
  3
SCRIPTS.SHX
  4

  0
STYLE
  2
TATEEXT
 70
     4
 40
0.0
 41
1.0
 50
0.0
 71
     0
 42
0.0
  3
ROMANS.shx
  4
EXTFONT.shx
  0
STYLE
  2
TATEBIG
 70
     4
 40
0.0
 41
1.0
 50
0.0
 71
     0
 42
0.0
  3
ROMANS.shx
  4
BIGFONT.shx
  0
STYLE
  2
EXT08
 70
     0
 40
0.0
 41
0.8
 50
0.0
 71
     0
 42
30.0
  3
ROMANS.shx
  4
EXTFONT.shx
  0
STYLE
  2
EXT
 70
     0
 40
0.0
 41
1.0
 50
0.0
 71
     0
 42
0.0
  3
ROMANS.shx
  4
EXTFONT.shx
  0
STYLE
  2
KANJI08
 70
     0
 40
0.0
 41
0.8
 50
0.0
 71
     0
 42
0.0
  3
ROMANS.shx
  4
BIGFONT.shx
  0
STYLE
  2
MOJI1
 70
     0
 40
0.0
 41
0.8
 50
0.0
 71
     0
 42
3.0
  3
ROMANS
  4
EXTFONT
  0
ENDTAB
  0
TABLE
  2
VIEW
 70
     0
  0
ENDTAB
  0
TABLE
  2
UCS
 70
     0
  0
ENDTAB
  0
TABLE
  2
APPID
 70
     2
  0
APPID
  2
ACAD
 70
     0
  0
APPID
  2
ACAD_PSEXT
 70
     0
  0
ENDTAB
  0
TABLE
  2
DIMSTYLE
 70
     5
  0
DIMSTYLE
  2
ISO-25
 70
     0
  3

  4

  5

  6

  7

 40
1.0
 41
2.5
 42
0.625
 43
3.75
 44
1.25
 45
0.0
 46
0.0
 47
0.0
 48
0.0
140
2.5
141
2.5
142
0.0
143
0.03937007874016
144
1.0
145
0.0
146
1.0
147
0.625
 71
     0
 72
     0
 73
     0
 74
     0
 75
     0
 76
     0
 77
     1
 78
     8
170
     0
171
     3
172
     1
173
     0
174
     0
175
     0
176
     0
177
     0
178
     0
  0
DIMSTYLE
  2
STANDARD
 70
     0
  3

  4

  5

  6

  7

 40
1.0
 41
0.18
 42
0.0625
 43
0.38
 44
0.18
 45
0.0
 46
0.0
 47
0.0
 48
0.0
140
0.18
141
0.09
142
0.0
143
25.399999999999999
144
1.0
145
0.0
146
1.0
147
0.09
 71
     0
 72
     0
 73
     1
 74
     1
 75
     0
 76
     0
 77
     0
 78
     0
170
     0
171
     2
172
     0
173
     0
174
     0
175
     0
176
     0
177
     0
178
     0
  0
DIMSTYLE
  2
RUISEKI1
 70
     0
  3

  4

  5

  6
DOT
  7

 40
10.0
 41
2.0
 42
1.0
 43
6.0
 44
30.0
 45
0.0
 46
0.0
 47
0.0
 48
0.0
140
0.18
141
0.09
142
0.0
143
25.399999999999999
144
1.0
145
0.0
146
1.0
147
1.5
 71
     0
 72
     0
 73
     1
 74
     1
 75
     0
 76
     0
 77
     1
 78
     0
170
     0
171
     2
172
     0
173
     1
174
     0
175
     0
176
     0
177
     0
178
     0
  0
DIMSTYLE
  2
RUISEKI2
 70
     0
  3

  4

  5

  6
NONE
  7

 40
10.0
 41
2.0
 42
1.0
 43
6.0
 44
30.0
 45
0.0
 46
0.0
 47
0.0
 48
0.0
140
0.18
141
0.09
142
0.0
143
25.399999999999999
144
1.0
145
0.0
146
1.0
147
1.5
 71
     0
 72
     0
 73
     1
 74
     1
 75
     0
 76
     0
 77
     1
 78
     0
170
     0
171
     2
172
     0
173
     1
174
     0
175
     0
176
     0
177
     0
178
     0
  0
DIMSTYLE
  2
SJC
 70
     0
  3

  4

  5

  6

  7

 40
1.0
 41
0.18
 42
0.0625
 43
0.38
 44
0.18
 45
0.0
 46
0.0
 47
0.0
 48
0.0
140
0.18
141
0.09
142
0.0
143
25.399999999999999
144
1.0
145
0.0
146
1.0
147
0.09
 71
     0
 72
     0
 73
     1
 74
     1
 75
     0
 76
     0
 77
     0
 78
     0
170
     0
171
     2
172
     0
173
     0
174
     0
175
     0
176
     0
177
     0
178
     0
  0
ENDTAB
  0
ENDSEC
  0
SECTION
  2
BLOCKS
  0
BLOCK
  8
0
  2
$MODEL_SPACE
 70
     0
 10
0.0
 20
0.0
 30
0.0
  3
$MODEL_SPACE
  1

  0
ENDBLK
  5
21
  8
0
  0
BLOCK
 67
     1
  8
0
  2
$PAPER_SPACE
 70
     0
 10
0.0
 20
0.0
 30
0.0
  3
$PAPER_SPACE
  1

  0
ENDBLK
  5
1D
 67
     1
  8
0
  0
BLOCK
  8
0
  2
SYSTEMA3
 70
     0
 10
0.0
 20
0.0
 30
0.0
  3
SYSTEMA3
  1

  0
POLYLINE
  5
3B
  8
ZWAKU
 66
     1
 10
0.0
 20
0.0
 30
0.0
 70
     1
  0
VERTEX
  5
1C3F4
  8
ZWAKU
 10
0.0
 20
0.0
 30
0.0
  0
VERTEX
  5
1C3F5
  8
ZWAKU
 10
0.0
 20
274.5
 30
0.0
  0
VERTEX
  5
1C3F6
  8
ZWAKU
 10
402.0
 20
274.5
 30
0.0
  0
VERTEX
  5
1C3F7
  8
ZWAKU
 10
402.0
 20
0.0
 30
0.0
  0
SEQEND
  5
1C3F8
  8
ZWAKU
  0
ENDBLK
  5
3D
  8
0
  0
BLOCK
  8
0
  2
_DOT
 70
     0
 10
0.0
 20
0.0
 30
0.0
  3
_DOT
  1

  0
POLYLINE
  5
49
  8
0
  6
BYBLOCK
 62
     0
 66
     1
 10
0.0
 20
0.0
 30
0.0
 70
     1
 40
0.5
 41
0.5
  0
VERTEX
  5
1C3F9
  8
0
  6
BYBLOCK
 62
     0
 10
-0.25
 20
0.0
 30
0.0
 42
1.0
  0
VERTEX
  5
1C3FA
  8
0
  6
BYBLOCK
 62
     0
 10
0.25
 20
0.0
 30
0.0
 42
1.0
  0
SEQEND
  5
1C3FB
  8
0
  6
BYBLOCK
 62
     0
  0
LINE
  5
4A
  8
0
  6
BYBLOCK
 62
     0
 10
-0.5
 20
0.0
 30
0.0
 11
-1.0
 21
0.0
 31
0.0
  0
ENDBLK
  5
4C
  8
0
  0
BLOCK
  8
0
  2
_NONE
 70
     0
 10
0.0
 20
0.0
 30
0.0
  3
_NONE
  1

  0
ENDBLK
  5
50
  8
0
  0
BLOCK
  8
0
  2
CALCOMP_TECHJET720A3
 70
     0
 10
0.0
 20
0.0
 30
0.0
  3
CALCOMP_TECHJET720A3
  1

  0
POLYLINE
  5
5B
  8
ZWAKU
 62
     2
 66
     1
 10
0.0
 20
0.0
 30
0.0
 70
     1
  0
VERTEX
  5
1C3FC
  8
ZWAKU
 62
     2
 10
0.0
 20
0.0
 30
0.0
  0
VERTEX
  5
1C3FD
  8
ZWAKU
 62
     2
 10
0.0
 20
267.0
 30
0.0
  0
VERTEX
  5
1C3FE
  8
ZWAKU
 62
     2
 10
370.0
 20
267.0
 30
0.0
  0
VERTEX
  5
1C3FF
  8
ZWAKU
 62
     2
 10
370.0
 20
0.0
 30
0.0
  0
SEQEND
  5
1C400
  8
ZWAKU
 62
     2
  0
ENDBLK
  5
5D
  8
0
  0
BLOCK
  8
0
  2
B0040007
 70
     0
 10
0.0
 20
0.0
 30
0.0
  3
B0040007
  1

  0
LINE
  5
D1
  8
HATCH
 10
9.6000000000000227
 20
-2.4000000000000901
 30
0.0
 11
10.399999999999981
 21
-1.5999999999999091
 31
0.0
  0
LINE
  5
D2
  8
HATCH
 10
8.0
 20
-2.4000000000000901
 30
0.0
 11
10.399999999999981
 21
0.0
 31
0.0
  0
LINE
  5
D3
  8
HATCH
 10
9.6000000000000227
 20
-0.7999999999999546
 30
0.0
 11
8.7999999999999545
 21
0.0
 31
0.0
  0
TEXT
  5
D4
  8
MOJI
 10
-0.1065189878078172
 20
0.6260561220324235
 30
0.0
 40
2.0
  1
G.L.
 41
0.8
  7
EXT08
  0
LINE
  5
D5
  8
HATCH
 10
6.4000000000000901
 20
-2.4000000000000901
 30
0.0
 11
7.2000000000000446
 21
-1.5999999999999091
 31
0.0
  0
LINE
  5
D6
  8
HATCH
 10
4.7999999999999536
 20
-2.4000000000000901
 30
0.0
 11
6.4000000000000901
 21
-0.7999999999999546
 31
0.0
  0
LINE
  5
D7
  8
HATCH
 10
1.6000000000000221
 20
-2.4000000000000901
 30
0.0
 11
3.200000000000045
 21
-0.7999999999999546
 31
0.0
  0
LINE
  5
D8
  8
HATCH
 10
0.7999999999999546
 20
-1.5999999999999091
 30
0.0
 11
0.0
 21
-0.8000000000001818
 31
0.0
  0
LINE
  5
D9
  8
HATCH
 10
3.200000000000045
 20
-2.4000000000000901
 30
0.0
 11
5.5999999999999091
 21
0.0
 31
0.0
  0
LINE
  5
DA
  8
HATCH
 10
4.0
 20
-1.5999999999999091
 30
0.0
 11
2.3999999999999768
 21
0.0
 31
0.0
  0
LINE
  5
DB
  8
HATCH
 10
0.0
 20
-2.4000000000000901
 30
0.0
 11
2.3999999999999768
 21
0.0
 31
0.0
  0
LINE
  5
DC
  8
HATCH
 10
1.6000000000000221
 20
-0.7999999999999546
 30
0.0
 11
0.7999999999999546
 21
0.0
 31
0.0
  0
LINE
  5
DD
  8
HATCH
 10
4.7999999999999536
 20
-0.7999999999999546
 30
0.0
 11
4.0
 21
0.0
 31
0.0
  0
LINE
  5
DE
  8
HATCH
 10
8.0
 20
-2.4000000000000901
 30
0.0
 11
5.6000000000000218
 21
0.0
 31
0.0
  0
LINE
  5
DF
  8
HATCH
 10
8.7999999999999545
 20
-1.5999999999999091
 30
0.0
 11
7.2000000000000446
 21
0.0
 31
0.0
  0
ENDBLK
  5
E1
  8
0
  0
BLOCK
  8
0
  2
B0040005
 70
     0
 10
0.0
 20
0.0
 30
0.0
  3
B0040005
  1

  0
POLYLINE
  5
1FD9
  8
SUNPOU
 66
     1
 10
0.0
 20
0.0
 30
0.0
  0
VERTEX
  5
1C401
  8
SUNPOU
 10
10.0
 20
80.0
 30
0.0
  0
VERTEX
  5
1C402
  8
SUNPOU
 10
10.0
 20
0.0000000000001137
 30
0.0
  0
VERTEX
  5
1C403
  8
SUNPOU
 10
0.0
 20
0.0
 30
0.0
  0
VERTEX
  5
1C404
  8
SUNPOU
 10
20.0
 20
-40.0
 30
0.0
  0
VERTEX
  5
1C405
  8
SUNPOU
 10
10.0
 20
-39.99999999999995
 30
0.0
  0
VERTEX
  5
1C406
  8
SUNPOU
 10
10.0
 20
-120.0
 30
0.0
  0
SEQEND
  5
1C407
  8
SUNPOU
  0
ENDBLK
  5
1FDB
  8
0
  0
BLOCK
  8
0
  2
GL
 70
     0
 10
0.0
 20
0.0
 30
0.0
  3
GL
  1

  0
LINE
  5
17EC2
  8
SUNPOU
 10
2.8284271247462121
 20
0.0
 30
0.0
 11
1.4142135623728791
 21
-1.414213562373106
 31
0.0
  0
LINE
  5
17EC3
  8
SUNPOU
 10
4.9497474683057581
 20
0.0
 30
0.0
 11
2.474873734152879
 21
-2.474873734152879
 31
0.0
  0
LINE
  5
17EC4
  8
SUNPOU
 10
-2.121320343559546
 20
-2.121320343559546
 30
0.0
 11
-0.707106781186667
 21
-3.535533905932652
 31
0.0
  0
LINE
  5
17EC5
  8
SUNPOU
 10
-1.0606601717799999
 20
-1.060660171779773
 30
0.0
 11
1.4142135623728791
 21
-3.535533905932652
 31
0.0
  0
TEXT
  5
17EC6
  8
SUNPOU
 10
-3.2571428571428571
 20
0.9172380209058701
 30
0.0
 40
3.0
  1
G.L.
 41
0.8
  7
MOJI1
 72
     4
 11
0.0
 21
2.4172380209058701
 31
0.0
  0
LINE
  5
17EC7
  8
SUNPOU
 10
7.0710678118653041
 20
0.0
 30
0.0
 11
3.535533905932879
 21
-3.535533905932652
 31
0.0
  0
LINE
  5
17EC8
  8
SUNPOU
 10
0.0
 20
0.0
 30
0.0
 11
3.5355339059324251
 21
-3.535533905932652
 31
0.0
  0
LINE
  5
17EC9
  8
SUNPOU
 10
0.0
 20
0.0
 30
0.0
 11
-3.5355339059324251
 21
-3.535533905932652
 31
0.0
  0
ENDBLK
  5
17ECA
  8
0
  0
BLOCK
  8
0
  2
*D8
 70
     1
 10
0.0
 20
0.0
 30
0.0
  3
*D8
  1

  0
LINE
  5
1C442
  8
SUNPOU
 62
     0
 10
450.11334604726449
 20
666.7496368207394
 30
0.0
 11
377.68044119141211
 21
666.7496368207394
 31
0.0
  0
LINE
  5
1C443
  8
SUNPOU
 62
     0
 10
609.64738174553963
 20
2466.7496368207399
 30
0.0
 11
377.68044119141251
 21
2466.7496368207399
 31
0.0
  0
LINE
  5
1C444
  8
SUNPOU
 62
     0
 10
387.68044119141211
 20
686.7496368207394
 30
0.0
 11
387.68044119141251
 21
2446.7496368207399
 31
0.0
  0
SOLID
  5
1C445
  8
SUNPOU
 62
     0
 10
384.3471078580788
 20
686.7496368207394
 30
0.0
 11
391.01377452474537
 21
686.7496368207394
 31
0.0
 12
387.68044119141211
 22
666.7496368207394
 32
0.0
 13
387.68044119141211
 23
666.7496368207394
 33
0.0
  0
SOLID
  5
1C446
  8
SUNPOU
 62
     0
 10
384.3471078580792
 20
2446.7496368207399
 30
0.0
 11
391.01377452474583
 21
2446.7496368207399
 31
0.0
 12
387.68044119141251
 22
2466.7496368207399
 32
0.0
 13
387.68044119141251
 23
2466.7496368207399
 33
0.0
  0
TEXT
  8
SUNPOU
  40
30
  5
1C5CD
  62
0
  72
0
  71
0
 10
300.680
 20
1513.65
 30
0.000000
  1
1800
  7
EXT08
  0
POINT
  5
1C448
  8
DEFPOINTS
 62
     0
 10
460.11334604726437
 20
666.7496368207394
 30
0.0
  0
POINT
  5
1C449
  8
DEFPOINTS
 62
     0
 10
619.64738174553963
 20
2466.7496368207399
 30
0.0
  0
POINT
  5
1C44A
  8
DEFPOINTS
 62
     0
 10
387.68044119141251
 20
2466.7496368207399
 30
0.0
  0
ENDBLK
  5
195ED
  8
0
  0
BLOCK
  8
0
  2
*D9
 70
     1
 10
0.0
 20
0.0
 30
0.0
  3
*D9
  1

  0
LINE
  5
1C44B
  8
SUNPOU
 62
     0
 10
609.64738174553963
 20
2466.7496368207399
 30
0.0
 11
523.71736719745945
 21
2466.7496368207399
 31
0.0
  0
LINE
  5
1C44C
  8
SUNPOU
 62
     0
 10
609.64738174554145
 20
1956.7496368207389
 30
0.0
 11
523.71736719745945
 21
1956.7496368207389
 31
0.0
  0
LINE
  5
1C44D
  8
SUNPOU
 62
     0
 10
533.71736719745945
 20
2446.7496368207399
 30
0.0
 11
533.71736719745945
 21
1976.7496368207389
 31
0.0
  0
SOLID
  5
1C44E
  8
SUNPOU
 62
     0
 10
530.38403386412608
 20
2446.7496368207399
 30
0.0
 11
537.05070053079294
 21
2446.7496368207399
 31
0.0
 12
533.71736719745945
 22
2466.7496368207399
 32
0.0
 13
533.71736719745945
 23
2466.7496368207399
 33
0.0
  0
SOLID
  5
1C44F
  8
SUNPOU
 62
     0
 10
530.38403386412597
 20
1976.7496368207389
 30
0.0
 11
537.05070053079282
 21
1976.7496368207389
 31
0.0
 12
533.71736719745945
 22
1956.7496368207389
 32
0.0
 13
533.71736719745945
 23
1956.7496368207389
 33
0.0
  0
TEXT
  8
SUNPOU
  40
30
  5
1C5CE
  62
0
  72
0
  71
0
 10
446.717
 20
2158.65
 30
0.000000
  1
510
  7
EXT08
  0
POINT
  5
1C451
  8
DEFPOINTS
 62
     0
 10
619.64738174553963
 20
2466.7496368207399
 30
0.0
  0
POINT
  5
1C452
  8
DEFPOINTS
 62
     0
 10
619.64738174554145
 20
1956.7496368207389
 30
0.0
  0
POINT
  5
1C453
  8
DEFPOINTS
 62
     0
 10
533.71736719745945
 20
1956.7496368207389
 30
0.0
  0
ENDBLK
  5
195F9
  8
0
  0
BLOCK
  8
0
  2
*D10
 70
     1
 10
0.0
 20
0.0
 30
0.0
  3
*D10
  1

  0
LINE
  5
1C454
  8
SUNPOU
 62
     0
 10
607.64738174553963
 20
2284.0728601915689
 30
0.0
 11
607.64738174553963
 21
2389.8235722440149
 31
0.0
  0
LINE
  5
1C455
  8
SUNPOU
 62
     0
 10
767.64738174554316
 20
2284.0728601915689
 30
0.0
 11
767.64738174554316
 21
2389.8235722440149
 31
0.0
  0
LINE
  5
1C456
  8
SUNPOU
 62
     0
 10
627.64738174553963
 20
2379.8235722440149
 30
0.0
 11
747.64738174554316
 21
2379.8235722440149
 31
0.0
  0
SOLID
  5
1C457
  8
SUNPOU
 62
     0
 10
627.64738174553963
 20
2383.1569055773489
 30
0.0
 11
627.64738174553963
 21
2376.490238910681
 31
0.0
 12
607.64738174553963
 22
2379.8235722440149
 32
0.0
 13
607.64738174553963
 23
2379.8235722440149
 33
0.0
  0
SOLID
  5
1C458
  8
SUNPOU
 62
     0
 10
747.64738174554316
 20
2383.1569055773489
 30
0.0
 11
747.64738174554316
 21
2376.490238910681
 31
0.0
 12
767.64738174554316
 22
2379.8235722440149
 32
0.0
 13
767.64738174554316
 23
2379.8235722440149
 33
0.0
  0
TEXT
  8
SUNPOU
  40
30
  5
1C5CF
  62
0
  72
0
  71
0
 10
627.647
 20
2353.72
 30
0.000000
  1
160
  7
EXT08
  0
POINT
  5
1C45A
  8
DEFPOINTS
 62
     0
 10
607.64738174553963
 20
2274.0728601915689
 30
0.0
  0
POINT
  5
1C45B
  8
DEFPOINTS
 62
     0
 10
767.64738174554316
 20
2274.0728601915689
 30
0.0
  0
POINT
  5
1C45C
  8
DEFPOINTS
 62
     0
 10
767.64738174554316
 20
2379.8235722440149
 30
0.0
  0
ENDBLK
  5
19605
  8
0
  0
BLOCK
  8
0
  2
*D11
 70
     1
 10
0.0
 20
0.0
 30
0.0
  3
*D11
  1

  0
LINE
  5
1C45D
  8
SUNPOU
 62
     0
 10
450.11334604726449
 20
666.7496368207394
 30
0.0
 11
223.93867437074721
 21
666.74963682073951
 31
0.0
  0
LINE
  5
1C45E
  8
SUNPOU
 62
     0
 10
477.64738174554049
 20
266.7496368207394
 30
0.0
 11
223.93867437074709
 21
266.74963682073951
 31
0.0
  0
LINE
  5
1C45F
  8
SUNPOU
 62
     0
 10
233.93867437074709
 20
646.7496368207394
 30
0.0
 11
233.93867437074709
 21
286.7496368207394
 31
0.0
  0
SOLID
  5
1C460
  8
SUNPOU
 62
     0
 10
230.60534103741381
 20
646.7496368207394
 30
0.0
 11
237.27200770408049
 21
646.7496368207394
 31
0.0
 12
233.93867437074709
 22
666.74963682073951
 32
0.0
 13
233.93867437074709
 23
666.74963682073951
 33
0.0
  0
SOLID
  5
1C461
  8
SUNPOU
 62
     0
 10
230.60534103741369
 20
286.7496368207394
 30
0.0
 11
237.27200770408041
 21
286.7496368207394
 31
0.0
 12
233.93867437074709
 22
266.74963682073951
 32
0.0
 13
233.93867437074709
 23
266.74963682073951
 33
0.0
  0
TEXT
  8
SUNPOU
  40
30
  5
1C5D0
  62
0
  72
0
  71
0
 10
146.939
 20
413.650
 30
0.000000
  1
400
  7
EXT08
  0
POINT
  5
1C463
  8
DEFPOINTS
 62
     0
 10
460.11334604726437
 20
666.7496368207394
 30
0.0
  0
POINT
  5
1C464
  8
DEFPOINTS
 62
     0
 10
487.64738174554049
 20
266.7496368207394
 30
0.0
  0
POINT
  5
1C465
  8
DEFPOINTS
 62
     0
 10
233.93867437074709
 20
266.74963682073951
 30
0.0
  0
ENDBLK
  5
1962B
  8
0
  0
BLOCK
  8
0
  2
*D12
 70
     1
 10
0.0
 20
0.0
 30
0.0
  3
*D12
  1

  0
LINE
  5
1C466
  8
SUNPOU
 62
     0
 10
537.64738174554054
 20
256.7496368207394
 30
0.0
 11
537.64738174554054
 21
105.68904388464119
 31
0.0
  0
LINE
  5
1C467
  8
SUNPOU
 62
     0
 10
837.64738174554054
 20
256.7496368207394
 30
0.0
 11
837.64738174554054
 21
105.68904388464119
 31
0.0
  0
LINE
  5
1C468
  8
SUNPOU
 62
     0
 10
557.64738174554054
 20
115.68904388464119
 30
0.0
 11
817.64738174554066
 21
115.68904388464119
 31
0.0
  0
SOLID
  5
1C469
  8
SUNPOU
 62
     0
 10
557.64738174554054
 20
119.02237721797449
 30
0.0
 11
557.64738174554054
 21
112.35571055130789
 31
0.0
 12
537.64738174554054
 22
115.68904388464119
 32
0.0
 13
537.64738174554054
 23
115.68904388464119
 33
0.0
  0
SOLID
  5
1C46A
  8
SUNPOU
 62
     0
 10
817.64738174554066
 20
119.02237721797449
 30
0.0
 11
817.64738174554066
 21
112.35571055130789
 31
0.0
 12
837.64738174554054
 22
115.68904388464119
 32
0.0
 13
837.64738174554054
 23
115.68904388464119
 33
0.0
  0
TEXT
  8
SUNPOU
  40
30
  5
1C5D1
  62
0
  72
0
  71
0
 10
627.647
 20
89.5890
 30
0.000000
  1
□300
  7
EXT08
  0
POINT
  5
1C46C
  8
DEFPOINTS
 62
     0
 10
537.64738174554054
 20
266.7496368207394
 30
0.0
  0
POINT
  5
1C46D
  8
DEFPOINTS
 62
     0
 10
837.64738174554054
 20
266.7496368207394
 30
0.0
  0
POINT
  5
1C46E
  8
DEFPOINTS
 62
     0
 10
837.64738174554054
 20
115.68904388464119
 30
0.0
  0
ENDBLK
  5
19683
  8
0
  0
BLOCK
  8
0
  2
*D13
 70
     1
 10
0.0
 20
0.0
 30
0.0
  3
*D13
  1

  0
LINE
  5
1C487
  8
SUNPOU
 62
     0
 10
1373.113214879633
 20
2516.749636820743
 30
0.0
 11
1373.113214879633
 21
2577.737790315809
 31
0.0
  0
LINE
  5
1C488
  8
SUNPOU
 62
     0
 10
1460.613214879631
 20
2516.7496368207439
 30
0.0
 11
1460.613214879631
 21
2577.737790315809
 31
0.0
  0
LINE
  5
1C489
  8
SUNPOU
 62
     0
 10
1393.113214879633
 20
2567.7377903158081
 30
0.0
 11
1440.613214879631
 21
2567.7377903158081
 31
0.0
  0
TEXT
  8
SUNPOU
  40
30
  5
1C5D2
  62
0
  72
0
  71
0
 10
1356.86
 20
2544.32
 30
0.000000
  1
φ89
  7
EXT08
  0
SOLID
  5
1C48B
  8
SUNPOU
 62
     0
 10
1393.113214879633
 20
2571.071123649142
 30
0.0
 11
1393.113214879633
 21
2564.404456982475
 31
0.0
 12
1373.113214879633
 22
2567.7377903158081
 32
0.0
 13
1373.113214879633
 23
2567.7377903158081
 33
0.0
  0
SOLID
  5
1C48C
  8
SUNPOU
 62
     0
 10
1440.613214879631
 20
2571.071123649142
 30
0.0
 11
1440.613214879631
 21
2564.404456982475
 31
0.0
 12
1460.613214879631
 22
2567.7377903158081
 32
0.0
 13
1460.613214879631
 23
2567.7377903158081
 33
0.0
  0
POINT
  5
1C48D
  8
DEFPOINTS
 62
     0
 10
1373.113214879633
 20
2506.7496368207421
 30
0.0
  0
POINT
  5
1C48E
  8
DEFPOINTS
 62
     0
 10
1460.613214879631
 20
2506.7496368207439
 30
0.0
  0
POINT
  5
1C48F
  8
DEFPOINTS
 62
     0
 10
1460.613214879631
 20
2567.7377903158081
 30
0.0
  0
ENDBLK
  5
19E0E
  8
0
  0
BLOCK
  8
0
  2
*D14
 70
     1
 10
0.0
 20
0.0
 30
0.0
  3
*D14
  1

  0
LINE
  5
1C498
  8
SUNPOU
 62
     0
 10
450.1133460472646
 20
666.7496368207394
 30
0.0
 11
223.93867437074701
 21
666.74963682073951
 31
0.0
  0
LINE
  5
1C499
  8
SUNPOU
 62
     0
 10
677.64738174554066
 20
2526.7496368207339
 30
0.0
 11
223.93867437074741
 21
2526.7496368207339
 31
0.0
  0
LINE
  5
1C49A
  8
SUNPOU
 62
     0
 10
233.93867437074701
 20
686.74963682073951
 30
0.0
 11
233.93867437074741
 21
2506.749636820733
 31
0.0
  0
SOLID
  5
1C49B
  8
SUNPOU
 62
     0
 10
230.60534103741369
 20
686.74963682073951
 30
0.0
 11
237.27200770408041
 21
686.74963682073951
 31
0.0
 12
233.93867437074701
 22
666.74963682073951
 32
0.0
 13
233.93867437074701
 23
666.74963682073951
 33
0.0
  0
SOLID
  5
1C49C
  8
SUNPOU
 62
     0
 10
230.60534103741409
 20
2506.749636820733
 30
0.0
 11
237.27200770408081
 21
2506.749636820733
 31
0.0
 12
233.93867437074741
 22
2526.7496368207339
 32
0.0
 13
233.93867437074741
 23
2526.7496368207339
 33
0.0
  0
TEXT
  8
SUNPOU
  40
30
  5
1C5D3
  62
0
  72
0
  71
0
 10
146.939
 20
1543.65
 30
0.000000
  1
1860
  7
EXT08
  0
POINT
  5
1C49E
  8
DEFPOINTS
 62
     0
 10
460.11334604726471
 20
666.7496368207394
 30
0.0
  0
POINT
  5
1C49F
  8
DEFPOINTS
 62
     0
 10
687.64738174554077
 20
2526.7496368207339
 30
0.0
  0
POINT
  5
1C4A0
  8
DEFPOINTS
 62
     0
 10
233.93867437074741
 20
2526.7496368207339
 30
0.0
  0
ENDBLK
  5
1A7EF
  8
0
  0
BLOCK
  8
0
  2
*D15
 70
     1
 10
0.0
 20
0.0
 30
0.0
  3
*D15
  1

  0
LINE
  5
1C4A1
  8
SUNPOU
 62
     0
 10
477.64738174554071
 20
166.7496368207394
 30
0.0
 11
223.93867437074709
 21
166.74963682073951
 31
0.0
  0
LINE
  5
1C4A2
  8
SUNPOU
 62
     0
 10
467.64738174554049
 20
266.7496368207394
 30
0.0
 11
223.93867437074709
 21
266.74963682073951
 31
0.0
  0
LINE
  5
1C4A3
  8
SUNPOU
 62
     0
 10
233.93867437074701
 20
186.74963682073951
 30
0.0
 11
233.93867437074709
 21
246.7496368207394
 31
0.0
  0
SOLID
  5
1C4A4
  8
SUNPOU
 62
     0
 10
230.60534103741369
 20
186.74963682073951
 30
0.0
 11
237.27200770408041
 21
186.74963682073951
 31
0.0
 12
233.93867437074701
 22
166.74963682073951
 32
0.0
 13
233.93867437074701
 23
166.74963682073951
 33
0.0
  0
SOLID
  5
1C4A5
  8
SUNPOU
 62
     0
 10
230.60534103741369
 20
246.7496368207394
 30
0.0
 11
237.27200770408041
 21
246.7496368207394
 31
0.0
 12
233.93867437074709
 22
266.74963682073951
 32
0.0
 13
233.93867437074709
 23
266.74963682073951
 33
0.0
  0
TEXT
  8
SUNPOU
  40
30
  5
1C5D4
  62
0
  72
0
  71
0
 10
146.939
 20
163.650
 30
0.000000
  1
100
  7
EXT08
  0
POINT
  5
1C4A7
  8
DEFPOINTS
 62
     0
 10
487.64738174554083
 20
166.7496368207394
 30
0.0
  0
POINT
  5
1C4A8
  8
DEFPOINTS
 62
     0
 10
477.64738174554049
 20
266.7496368207394
 30
0.0
  0
POINT
  5
1C4A9
  8
DEFPOINTS
 62
     0
 10
233.93867437074709
 20
266.74963682073951
 30
0.0
  0
ENDBLK
  5
1AAD2
  8
0
  0
BLOCK
  8
0
  2
*D16
 70
     1
 10
0.0
 20
0.0
 30
0.0
  3
*D16
  1

  0
LINE
  5
1C4AA
  8
SUNPOU
 62
     0
 10
887.64738174554066
 20
156.7496368207394
 30
0.0
 11
887.64738174554066
 21
53.211198488116679
 31
0.0
  0
LINE
  5
1C4AB
  8
SUNPOU
 62
     0
 10
487.64738174554083
 20
156.7496368207394
 30
0.0
 11
487.64738174554083
 21
53.211198488116679
 31
0.0
  0
LINE
  5
1C4AC
  8
SUNPOU
 62
     0
 10
867.64738174554066
 20
63.211198488116679
 30
0.0
 11
507.64738174554071
 21
63.211198488116679
 31
0.0
  0
SOLID
  5
1C4AD
  8
SUNPOU
 62
     0
 10
867.64738174554066
 20
66.544531821450008
 30
0.0
 11
867.64738174554066
 21
59.877865154783343
 31
0.0
 12
887.64738174554066
 22
63.211198488116679
 32
0.0
 13
887.64738174554066
 23
63.211198488116679
 33
0.0
  0
SOLID
  5
1C4AE
  8
SUNPOU
 62
     0
 10
507.64738174554071
 20
66.544531821450008
 30
0.0
 11
507.64738174554071
 21
59.877865154783343
 31
0.0
 12
487.64738174554083
 22
63.211198488116679
 32
0.0
 13
487.64738174554083
 23
63.211198488116679
 33
0.0
  0
TEXT
  8
SUNPOU
  40
30
  5
1C5D5
  62
0
  72
0
  71
0
 10
627.647
 20
37.1112
 30
0.000000
  1
□400
  7
EXT08
  0
POINT
  5
1C4B0
  8
DEFPOINTS
 62
     0
 10
887.64738174554066
 20
166.7496368207394
 30
0.0
  0
POINT
  5
1C4B1
  8
DEFPOINTS
 62
     0
 10
487.64738174554083
 20
166.7496368207394
 30
0.0
  0
POINT
  5
1C4B2
  8
DEFPOINTS
 62
     0
 10
487.64738174554083
 20
63.211198488116679
 30
0.0
  0
ENDBLK
  5
1AADF
  8
0
  0
BLOCK
  8
0
  2
*D17
 70
     1
 10
0.0
 20
0.0
 30
0.0
  3
*D17
  1

  0
LINE
  5
1C4B3
  8
SUNPOU
 62
     0
 10
609.64738174553963
 20
1956.7496368207389
 30
0.0
 11
523.71736719745945
 21
1956.7496368207389
 31
0.0
  0
LINE
  5
1C4B4
  8
SUNPOU
 62
     0
 10
609.64738174554145
 20
1646.7496368207389
 30
0.0
 11
523.71736719745945
 21
1646.7496368207389
 31
0.0
  0
LINE
  5
1C4B5
  8
SUNPOU
 62
     0
 10
533.71736719745945
 20
1936.7496368207389
 30
0.0
 11
533.71736719745945
 21
1666.7496368207389
 31
0.0
  0
SOLID
  5
1C4B6
  8
SUNPOU
 62
     0
 10
530.38403386412608
 20
1936.7496368207389
 30
0.0
 11
537.05070053079294
 21
1936.7496368207389
 31
0.0
 12
533.71736719745945
 22
1956.7496368207389
 32
0.0
 13
533.71736719745945
 23
1956.7496368207389
 33
0.0
  0
SOLID
  5
1C4B7
  8
SUNPOU
 62
     0
 10
530.38403386412597
 20
1666.7496368207389
 30
0.0
 11
537.05070053079282
 21
1666.7496368207389
 31
0.0
 12
533.71736719745945
 22
1646.7496368207389
 32
0.0
 13
533.71736719745945
 23
1646.7496368207389
 33
0.0
  0
TEXT
  8
SUNPOU
  40
30
  5
1C5D6
  62
0
  72
0
  71
0
 10
446.717
 20
1748.65
 30
0.000000
  1
310
  7
EXT08
  0
POINT
  5
1C4B9
  8
DEFPOINTS
 62
     0
 10
619.64738174553963
 20
1956.7496368207389
 30
0.0
  0
POINT
  5
1C4BA
  8
DEFPOINTS
 62
     0
 10
619.64738174554145
 20
1646.7496368207389
 30
0.0
  0
POINT
  5
1C4BB
  8
DEFPOINTS
 62
     0
 10
533.71736719745945
 20
1646.7496368207389
 30
0.0
  0
ENDBLK
  5
1ABC1
  8
0
  0
BLOCK
  8
0
  2
*D18
 70
     1
 10
0.0
 20
0.0
 30
0.0
  3
*D18
  1

  0
LINE
  5
1C4CE
  8
SUNPOU
 62
     0
 10
1983.829355828233
 20
1858.5071785488051
 30
0.0
 11
1880.500388950459
 21
1858.5071785488051
 31
0.0
  0
LINE
  5
1C4CF
  8
SUNPOU
 62
     0
 10
1983.829355828236
 20
838.50717854880475
 30
0.0
 11
1880.500388950459
 21
838.50717854880475
 31
0.0
  0
LINE
  5
1C4D0
  8
SUNPOU
 62
     0
 10
1890.500388950459
 20
1838.5071785488051
 30
0.0
 11
1890.500388950458
 21
858.50717854880475
 31
0.0
  0
SOLID
  5
1C4D1
  8
SUNPOU
 62
     0
 10
1887.1670556171259
 20
1838.5071785488051
 30
0.0
 11
1893.833722283792
 21
1838.5071785488051
 31
0.0
 12
1890.500388950459
 22
1858.5071785488051
 32
0.0
 13
1890.500388950459
 23
1858.5071785488051
 33
0.0
  0
SOLID
  5
1C4D2
  8
SUNPOU
 62
     0
 10
1887.1670556171259
 20
858.50717854880475
 30
0.0
 11
1893.833722283792
 21
858.50717854880475
 31
0.0
 12
1890.500388950458
 22
838.50717854880475
 32
0.0
 13
1890.500388950458
 23
838.50717854880475
 33
0.0
  0
TEXT
  8
SUNPOU
  40
30
  5
1C5D7
  62
0
  72
0
  71
0
 10
1803.50
 20
1295.41
 30
0.000000
  1
510
  7
EXT08
  0
POINT
  5
1C4D4
  8
DEFPOINTS
 62
     0
 10
1993.829355828233
 20
1858.5071785488051
 30
0.0
  0
POINT
  5
1C4D5
  8
DEFPOINTS
 62
     0
 10
1993.8293558282371
 20
838.50717854880475
 30
0.0
  0
POINT
  5
1C4D6
  8
DEFPOINTS
 62
     0
 10
1890.500388950458
 20
838.50717854880475
 30
0.0
  0
ENDBLK
  5
1AF88
  8
0
  0
BLOCK
  8
0
  2
*D19
 70
     1
 10
0.0
 20
0.0
 30
0.0
  3
*D19
  1

  0
LINE
  5
1C4D7
  8
SUNPOU
 62
     0
 10
1969.829355828233
 20
1844.5071785488051
 30
0.0
 11
1969.829355828233
 21
2031.0196150194879
 31
0.0
  0
LINE
  5
1C4D8
  8
SUNPOU
 62
     0
 10
2289.8293558282398
 20
1844.5071785488051
 30
0.0
 11
2289.8293558282398
 21
2031.0196150194879
 31
0.0
  0
LINE
  5
1C4D9
  8
SUNPOU
 62
     0
 10
1989.829355828233
 20
2021.0196150194879
 30
0.0
 11
2269.8293558282412
 21
2021.0196150194879
 31
0.0
  0
SOLID
  5
1C4DA
  8
SUNPOU
 62
     0
 10
1989.829355828233
 20
2024.3529483528209
 30
0.0
 11
1989.829355828233
 21
2017.686281686154
 31
0.0
 12
1969.829355828233
 22
2021.0196150194879
 32
0.0
 13
1969.829355828233
 23
2021.0196150194879
 33
0.0
  0
SOLID
  5
1C4DB
  8
SUNPOU
 62
     0
 10
2269.8293558282412
 20
2024.3529483528209
 30
0.0
 11
2269.8293558282412
 21
2017.686281686154
 31
0.0
 12
2289.8293558282398
 22
2021.0196150194879
 32
0.0
 13
2289.8293558282398
 23
2021.0196150194879
 33
0.0
  0
TEXT
  8
SUNPOU
  40
30
  5
1C5D8
  62
0
  72
0
  71
0
 10
2069.83
 20
1994.92
 30
0.000000
  1
160
  7
EXT08
  0
POINT
  5
1C4DD
  8
DEFPOINTS
 62
     0
 10
1969.829355828233
 20
1834.5071785488051
 30
0.0
  0
POINT
  5
1C4DE
  8
DEFPOINTS
 62
     0
 10
2289.8293558282398
 20
1834.5071785488051
 30
0.0
  0
POINT
  5
1C4DF
  8
DEFPOINTS
 62
     0
 10
2289.8293558282398
 20
2021.0196150194879
 30
0.0
  0
ENDBLK
  5
1AF94
  8
0
  0
BLOCK
  8
0
  2
*D20
 70
     1
 10
0.0
 20
0.0
 30
0.0
  3
*D20
  1

  0
LINE
  5
1C4E0
  8
SUNPOU
 62
     0
 10
1969.8293558282351
 20
1368.5071785488051
 30
0.0
 11
1969.8293558282351
 21
1412.1788519201921
 31
0.0
  0
LINE
  5
1C4E1
  8
SUNPOU
 62
     0
 10
1979.829355828236
 20
1368.5071785488051
 30
0.0
 11
1979.829355828236
 21
1412.1788519201921
 31
0.0
  0
LINE
  5
1C4E2
  8
SUNPOU
 62
     0
 10
1949.8293558282351
 20
1402.1788519201921
 30
0.0
 11
1929.8293558282351
 21
1402.1788519201921
 31
0.0
  0
LINE
  5
1C4E3
  8
SUNPOU
 62
     0
 10
1999.829355828236
 20
1402.1788519201921
 30
0.0
 11
2019.829355828236
 21
1402.1788519201921
 31
0.0
  0
TEXT
  8
SUNPOU
  40
30
  5
1C5D9
  62
0
  72
0
  71
0
 10
1889.31
 20
1375.96
 30
0.000000
  1
5
  7
EXT08
  0
LINE
  5
1C4E5
  8
SUNPOU
 62
     0
 10
1969.8293558282351
 20
1402.1788519201921
 30
0.0
 11
1979.829355828236
 21
1402.1788519201921
 31
0.0
  0
SOLID
  5
1C4E6
  8
SUNPOU
 62
     0
 10
1949.8293558282351
 20
1405.5121852535251
 30
0.0
 11
1949.8293558282351
 21
1398.845518586859
 31
0.0
 12
1969.8293558282351
 22
1402.1788519201921
 32
0.0
 13
1969.8293558282351
 23
1402.1788519201921
 33
0.0
  0
SOLID
  5
1C4E7
  8
SUNPOU
 62
     0
 10
1999.829355828236
 20
1405.5121852535251
 30
0.0
 11
1999.829355828236
 21
1398.845518586859
 31
0.0
 12
1979.829355828236
 22
1402.1788519201921
 32
0.0
 13
1979.829355828236
 23
1402.1788519201921
 33
0.0
  0
POINT
  5
1C4E8
  8
DEFPOINTS
 62
     0
 10
1969.8293558282351
 20
1358.5071785488051
 30
0.0
  0
POINT
  5
1C4E9
  8
DEFPOINTS
 62
     0
 10
1979.829355828236
 20
1358.5071785488051
 30
0.0
  0
POINT
  5
1C4EA
  8
DEFPOINTS
 62
     0
 10
1979.829355828236
 20
1402.1788519201921
 30
0.0
  0
ENDBLK
  5
1AFA2
  8
0
  0
BLOCK
  8
0
  2
*D21
 70
     1
 10
0.0
 20
0.0
 30
0.0
  3
*D21
  1

  0
LINE
  5
1C4EB
  8
SUNPOU
 62
     0
 10
2788.9786626568889
 20
1609.446325443093
 30
0.0
 11
2788.9786626568889
 21
1710.0043163418679
 31
0.0
  0
LINE
  5
1C4EC
  8
SUNPOU
 62
     0
 10
2776.9786626568889
 20
1609.446325443088
 30
0.0
 11
2776.9786626568889
 21
1710.0043163418679
 31
0.0
  0
LINE
  5
1C4ED
  8
SUNPOU
 62
     0
 10
2808.9786626568898
 20
1700.0043163418679
 30
0.0
 11
2828.9786626568898
 21
1700.0043163418679
 31
0.0
  0
LINE
  5
1C4EE
  8
SUNPOU
 62
     0
 10
2756.9786626568889
 20
1700.0043163418679
 30
0.0
 11
2736.9786626568898
 21
1700.0043163418679
 31
0.0
  0
TEXT
  8
SUNPOU
  40
30
  5
1C5DA
  62
0
  72
0
  71
0
 10
2689.57
 20
1672.90
 30
0.000000
  1
6
  7
EXT08
  0
LINE
  5
1C4F0
  8
SUNPOU
 62
     0
 10
2788.9786626568889
 20
1700.0043163418679
 30
0.0
 11
2776.9786626568889
 21
1700.0043163418679
 31
0.0
  0
SOLID
  5
1C4F1
  8
SUNPOU
 62
     0
 10
2808.9786626568898
 20
1703.337649675201
 30
0.0
 11
2808.9786626568898
 21
1696.6709830085349
 31
0.0
 12
2788.9786626568889
 22
1700.0043163418679
 32
0.0
 13
2788.9786626568889
 23
1700.0043163418679
 33
0.0
  0
SOLID
  5
1C4F2
  8
SUNPOU
 62
     0
 10
2756.9786626568889
 20
1703.337649675201
 30
0.0
 11
2756.9786626568889
 21
1696.6709830085349
 31
0.0
 12
2776.9786626568889
 22
1700.0043163418679
 32
0.0
 13
2776.9786626568889
 23
1700.0043163418679
 33
0.0
  0
POINT
  5
1C4F3
  8
DEFPOINTS
 62
     0
 10
2788.9786626568889
 20
1599.446325443093
 30
0.0
  0
POINT
  5
1C4F4
  8
DEFPOINTS
 62
     0
 10
2776.9786626568889
 20
1599.446325443088
 30
0.0
  0
POINT
  5
1C4F5
  8
DEFPOINTS
 62
     0
 10
2776.9786626568889
 20
1700.0043163418679
 30
0.0
  0
ENDBLK
  5
1AFB0
  8
0
  0
BLOCK
  8
0
  2
*D22
 70
     1
 10
0.0
 20
0.0
 30
0.0
  3
*D22
  1

  0
LINE
  5
1C4FE
  8
SUNPOU
 62
     0
 10
1983.829355828233
 20
1858.5071785488051
 30
0.0
 11
1789.3472900497641
 21
1858.5071785488051
 31
0.0
  0
LINE
  5
1C4FF
  8
SUNPOU
 62
     0
 10
1973.8293558282339
 20
218.5071785488044
 30
0.0
 11
1789.3472900497629
 21
218.50717854880449
 31
0.0
  0
LINE
  5
1C500
  8
SUNPOU
 62
     0
 10
1799.3472900497641
 20
1838.5071785488051
 30
0.0
 11
1799.3472900497629
 21
238.5071785488044
 31
0.0
  0
SOLID
  5
1C501
  8
SUNPOU
 62
     0
 10
1796.0139567164299
 20
1838.5071785488051
 30
0.0
 11
1802.6806233830971
 21
1838.5071785488051
 31
0.0
 12
1799.3472900497641
 22
1858.5071785488051
 32
0.0
 13
1799.3472900497641
 23
1858.5071785488051
 33
0.0
  0
SOLID
  5
1C502
  8
SUNPOU
 62
     0
 10
1796.0139567164299
 20
238.5071785488044
 30
0.0
 11
1802.680623383096
 21
238.5071785488044
 31
0.0
 12
1799.3472900497629
 22
218.50717854880449
 32
0.0
 13
1799.3472900497629
 23
218.50717854880449
 33
0.0
  0
TEXT
  8
SUNPOU
  40
30
  5
1C5DB
  62
0
  72
0
  71
0
 10
1712.35
 20
985.407
 30
0.000000
  1
1130
  7
EXT08
  0
POINT
  5
1C504
  8
DEFPOINTS
 62
     0
 10
1993.829355828233
 20
1858.5071785488051
 30
0.0
  0
POINT
  5
1C505
  8
DEFPOINTS
 62
     0
 10
1983.8293558282351
 20
218.5071785488044
 30
0.0
  0
POINT
  5
1C506
  8
DEFPOINTS
 62
     0
 10
1799.3472900497629
 20
218.50717854880449
 30
0.0
  0
ENDBLK
  5
1B2FA
  8
0
  0
BLOCK
  8
0
  2
*D23
 70
     1
 10
0.0
 20
0.0
 30
0.0
  3
*D23
  1

  0
LINE
  5
1C507
  8
SUNPOU
 62
     0
 10
609.64738174553963
 20
1646.7496368207389
 30
0.0
 11
523.71736719745945
 21
1646.7496368207389
 31
0.0
  0
LINE
  5
1C508
  8
SUNPOU
 62
     0
 10
609.64738174554145
 20
1336.7496368207389
 30
0.0
 11
523.71736719745945
 21
1336.7496368207389
 31
0.0
  0
LINE
  5
1C509
  8
SUNPOU
 62
     0
 10
533.71736719745945
 20
1626.7496368207389
 30
0.0
 11
533.71736719745945
 21
1356.7496368207389
 31
0.0
  0
SOLID
  5
1C50A
  8
SUNPOU
 62
     0
 10
530.38403386412597
 20
1626.7496368207389
 30
0.0
 11
537.05070053079282
 21
1626.7496368207389
 31
0.0
 12
533.71736719745945
 22
1646.7496368207389
 32
0.0
 13
533.71736719745945
 23
1646.7496368207389
 33
0.0
  0
SOLID
  5
1C50B
  8
SUNPOU
 62
     0
 10
530.38403386412597
 20
1356.7496368207389
 30
0.0
 11
537.05070053079282
 21
1356.7496368207389
 31
0.0
 12
533.71736719745945
 22
1336.7496368207389
 32
0.0
 13
533.71736719745945
 23
1336.7496368207389
 33
0.0
  0
TEXT
  8
SUNPOU
  40
30
  5
1C5DC
  62
0
  72
0
  71
0
 10
446.717
 20
1438.65
 30
0.000000
  1
310
  7
EXT08
  0
POINT
  5
1C50D
  8
DEFPOINTS
 62
     0
 10
619.64738174553963
 20
1646.7496368207389
 30
0.0
  0
POINT
  5
1C50E
  8
DEFPOINTS
 62
     0
 10
619.64738174554145
 20
1336.7496368207389
 30
0.0
  0
POINT
  5
1C50F
  8
DEFPOINTS
 62
     0
 10
533.71736719745945
 20
1336.7496368207389
 30
0.0
  0
ENDBLK
  5
1B35C
  8
0
  0
BLOCK
  8
0
  2
*D24
 70
     1
 10
0.0
 20
0.0
 30
0.0
  3
*D24
  1

  0
LINE
  5
1C510
  8
SUNPOU
 62
     0
 10
609.64738174553975
 20
2466.7496368207399
 30
0.0
 11
457.63820172968752
 21
2466.7496368207399
 31
0.0
  0
LINE
  5
1C511
  8
SUNPOU
 62
     0
 10
599.64738174554145
 20
1336.7496368207389
 30
0.0
 11
457.63820172968718
 21
1336.7496368207389
 31
0.0
  0
LINE
  5
1C512
  8
SUNPOU
 62
     0
 10
467.63820172968758
 20
2446.7496368207399
 30
0.0
 11
467.63820172968718
 21
1356.7496368207401
 31
0.0
  0
SOLID
  5
1C513
  8
SUNPOU
 62
     0
 10
464.30486839635421
 20
2446.7496368207399
 30
0.0
 11
470.97153506302089
 21
2446.7496368207399
 31
0.0
 12
467.63820172968758
 22
2466.7496368207399
 32
0.0
 13
467.63820172968758
 23
2466.7496368207399
 33
0.0
  0
SOLID
  5
1C514
  8
SUNPOU
 62
     0
 10
464.30486839635398
 20
1356.7496368207401
 30
0.0
 11
470.9715350630205
 21
1356.7496368207401
 31
0.0
 12
467.63820172968718
 22
1336.7496368207389
 32
0.0
 13
467.63820172968718
 23
1336.7496368207389
 33
0.0
  0
TEXT
  8
SUNPOU
  40
30
  5
1C5DD
  62
0
  72
0
  71
0
 10
380.638
 20
1848.65
 30
0.000000
  1
1130
  7
EXT08
  0
POINT
  5
1C516
  8
DEFPOINTS
 62
     0
 10
619.64738174553975
 20
2466.7496368207399
 30
0.0
  0
POINT
  5
1C517
  8
DEFPOINTS
 62
     0
 10
609.64738174554145
 20
1336.7496368207389
 30
0.0
  0
POINT
  5
1C518
  8
DEFPOINTS
 62
     0
 10
467.63820172968718
 20
1336.7496368207389
 30
0.0
  0
ENDBLK
  5
1B372
  8
0
  0
BLOCK
  8
0
  2
*D25
 70
     1
 10
0.0
 20
0.0
 30
0.0
  3
*D25
  1

  0
LINE
  5
1C519
  8
SUNPOU
 62
     0
 10
1983.829355828236
 20
838.50717854880475
 30
0.0
 11
1880.500388950459
 21
838.50717854880475
 31
0.0
  0
LINE
  5
1C51A
  8
SUNPOU
 62
     0
 10
1983.8293558282451
 20
528.50717854880486
 30
0.0
 11
1880.500388950459
 21
528.50717854880486
 31
0.0
  0
LINE
  5
1C51B
  8
SUNPOU
 62
     0
 10
1890.500388950458
 20
818.50717854880475
 30
0.0
 11
1890.500388950458
 21
548.50717854880475
 31
0.0
  0
SOLID
  5
1C51C
  8
SUNPOU
 62
     0
 10
1887.1670556171259
 20
818.50717854880475
 30
0.0
 11
1893.833722283792
 21
818.50717854880475
 31
0.0
 12
1890.500388950458
 22
838.50717854880475
 32
0.0
 13
1890.500388950458
 23
838.50717854880475
 33
0.0
  0
SOLID
  5
1C51D
  8
SUNPOU
 62
     0
 10
1887.1670556171259
 20
548.50717854880475
 30
0.0
 11
1893.833722283792
 21
548.50717854880475
 31
0.0
 12
1890.500388950458
 22
528.50717854880486
 32
0.0
 13
1890.500388950458
 23
528.50717854880486
 33
0.0
  0
TEXT
  8
SUNPOU
  40
30
  5
1C5DE
  62
0
  72
0
  71
0
 10
1803.50
 20
630.407
 30
0.000000
  1
310
  7
EXT08
  0
POINT
  5
1C51F
  8
DEFPOINTS
 62
     0
 10
1993.8293558282371
 20
838.50717854880475
 30
0.0
  0
POINT
  5
1C520
  8
DEFPOINTS
 62
     0
 10
1993.8293558282451
 20
528.50717854880486
 30
0.0
  0
POINT
  5
1C521
  8
DEFPOINTS
 62
     0
 10
1890.500388950458
 20
528.50717854880486
 30
0.0
  0
ENDBLK
  5
1B4D9
  8
0
  0
BLOCK
  8
0
  2
*D26
 70
     1
 10
0.0
 20
0.0
 30
0.0
  3
*D26
  1

  0
LINE
  5
1C522
  8
SUNPOU
 62
     0
 10
1983.8293558282451
 20
528.50717854880486
 30
0.0
 11
1880.500388950459
 21
528.50717854880486
 31
0.0
  0
LINE
  5
1C523
  8
SUNPOU
 62
     0
 10
1983.8293558282351
 20
218.50717854880449
 30
0.0
 11
1880.500388950459
 21
218.50717854880449
 31
0.0
  0
LINE
  5
1C524
  8
SUNPOU
 62
     0
 10
1890.500388950458
 20
508.5071785488048
 30
0.0
 11
1890.500388950458
 21
238.5071785488044
 31
0.0
  0
SOLID
  5
1C525
  8
SUNPOU
 62
     0
 10
1887.167055617125
 20
508.5071785488048
 30
0.0
 11
1893.833722283792
 21
508.5071785488048
 31
0.0
 12
1890.500388950458
 22
528.50717854880486
 32
0.0
 13
1890.500388950458
 23
528.50717854880486
 33
0.0
  0
SOLID
  5
1C526
  8
SUNPOU
 62
     0
 10
1887.167055617125
 20
238.5071785488044
 30
0.0
 11
1893.833722283792
 21
238.5071785488044
 31
0.0
 12
1890.500388950458
 22
218.50717854880449
 32
0.0
 13
1890.500388950458
 23
218.50717854880449
 33
0.0
  0
TEXT
  8
SUNPOU
  40
30
  5
1C5DF
  62
0
  72
0
  71
0
 10
1803.50
 20
320.407
 30
0.000000
  1
310
  7
EXT08
  0
POINT
  5
1C528
  8
DEFPOINTS
 62
     0
 10
1993.8293558282451
 20
528.50717854880486
 30
0.0
  0
POINT
  5
1C529
  8
DEFPOINTS
 62
     0
 10
1993.8293558282351
 20
218.5071785488044
 30
0.0
  0
POINT
  5
1C52A
  8
DEFPOINTS
 62
     0
 10
1890.500388950458
 20
218.50717854880449
 30
0.0
  0
ENDBLK
  5
1B4E6
  8
0
  0
BLOCK
  8
0
  2
A$C08A303EA
 70
     0
 10
0.0
 20
0.0
 30
0.0
  3
A$C08A303EA
  1

  0
LINE
  5
1B52B
  8
HASEN
 10
203.0000059048289
 20
340.0000019300918
 30
0.0
 11
203.0000059048289
 21
70.000001930098392
 31
0.0
  0
LINE
  5
1B52C
  8
SJC
 10
213.50000590482981
 20
340.00000193009168
 30
0.0
 11
213.50000590482981
 21
70.000001930098335
 31
0.0
1001
ACAD
1000
ASC_BOUNDS
1002
{
1070
    19
1002
}
  0
LINE
  5
1B52D
  8
SJC
 10
21.00000590505033
 20
340.0000019300935
 30
0.0
 11
21.000005905050791
 21
211.00000193006559
 31
0.0
  0
LINE
  5
1B52E
  8
SJC
 10
21.000005905050791
 20
203.00000193006551
 30
0.0
 11
21.000005905050791
 21
70.000001930100154
 31
0.0
  0
LINE
  5
1B52F
  8
SJC
 10
33.000005905108999
 20
340.00000193009339
 30
0.0
 11
33.000005905154921
 21
211.0000019300652
 31
0.0
  0
LINE
  5
1B530
  8
SJC
 10
33.00000590515765
 20
203.00000193006881
 30
0.0
 11
33.000005905205398
 21
70.000001930100041
 31
0.0
  0
LINE
  5
1B531
  8
HASEN
 10
24.000005905107631
 20
340.00000193009339
 30
0.0
 11
24.000005905154008
 21
217.0000019300669
 31
0.0
  0
LINE
  5
1B532
  8
HASEN
 10
24.00000590516083
 20
197.00000193006369
 30
0.0
 11
24.000005905208582
 21
70.000001930100041
 31
0.0
  0
LINE
  5
1B533
  8
SJC
 10
21.000005905050791
 20
340.00000193009362
 30
0.0
 11
21.000005905050791
 21
211.00000193006559
 31
0.0
  0
LINE
  5
1B534
  8
SJC
 10
21.000005905050791
 20
203.00000193006551
 30
0.0
 11
21.000005905050791
 21
70.000001930100154
 31
0.0
  0
LINE
  5
1B535
  8
HASEN
 10
38.500005905048511
 20
340.0000019300935
 30
0.0
 11
38.500005905045327
 21
70.000001930099927
 31
0.0
  0
LINE
  5
1B536
  8
SJC
 10
93.000005904915255
 20
340.00000193009282
 30
0.0
 11
93.000005904945738
 21
272.13274529313651
 31
0.0
  0
LINE
  5
1B537
  8
SJC
 10
93.000005905005295
 20
141.8672585670094
 30
0.0
 11
93.000005905037597
 21
70.000001930099415
 31
0.0
  0
LINE
  5
1B538
  8
SJC
 10
33.00000590515765
 20
211.00000193006369
 30
0.0
 11
33.000005905158112
 21
222.00000193050249
 31
0.0
  0
LINE
  5
1B539
  8
SJC
 10
33.000005905159917
 20
222.00000193005511
 30
0.0
 11
33.000005905159917
 21
211.00000193006369
 31
0.0
  0
LINE
  5
1B53A
  8
SJC
 10
29.00000590504715
 20
207.00000193006369
 30
0.0
 11
25.00000590504715
 21
207.00000193006559
 31
0.0
  0
ARC
  5
1B53B
  8
SJC
 10
29.000005905048969
 20
211.00000193006369
 30
0.0
 40
4.0
 50
270.0
 51
359.99999999997402
  0
ARC
  5
1B53C
  8
SJC
 10
25.000005905048958
 20
211.00000193006559
 30
0.0
 40
4.0
 50
179.99999999998701
 51
270.0
  0
LINE
  5
1B53D
  8
SJC
 10
21.000005905048969
 20
211.0000019300673
 30
0.0
 11
21.0000059050526
 21
216.00000193006781
 31
0.0
  0
LINE
  5
1B53E
  8
SJC
 10
146.0000059065332
 20
217.0000019301074
 30
0.0
 11
146.0000059065205
 21
251.17545744702829
 31
0.0
  0
ARC
  5
1B53F
  8
SJC
 10
136.0000059065332
 20
217.00000193010459
 30
0.0
 40
10.0
 50
270.0
 51
0.0000000000260551
  0
LINE
  5
1B540
  8
SJC
 10
136.0000059065369
 20
207.00000193009831
 30
0.0
 11
29.00000590505033
 21
207.0000019300638
 31
0.0
  0
LINE
  5
1B541
  8
CENTER
 10
126.0000059065314
 20
236.00000193010149
 30
0.0
 11
126.000005906526
 21
254.00000193010149
 31
0.0
  0
LINE
  5
1B542
  8
CENTER
 10
135.00000590652959
 20
245.00000193010419
 30
0.0
 11
117.00000590652959
 21
245.0000019300987
 31
0.0
  0
LINE
  5
1B543
  8
HASEN
 10
22.0000059050526
 20
217.0000019300673
 30
0.0
 11
24.00000590504715
 21
217.0000019300669
 31
0.0
  0
ARC
  5
1B544
  8
HASEN
 10
22.0000059050526
 20
216.00000193006741
 30
0.0
 40
1.0
 50
90.0
 51
179.99999999997391
  0
LINE
  5
1B545
  8
SJC
 10
138.4051456352845
 20
260.88191420967132
 30
0.0
 11
33.000005905070793
 21
287.00000193006417
 31
0.0
  0
ARC
  5
1B546
  8
SJC
 10
136.0000059065205
 20
251.17545744702511
 30
0.0
 40
10.0
 50
0.0000000000260551
 51
76.083122566894787
  0
LINE
  5
1B547
  8
HASEN
 10
38.50000590476521
 20
209.00000193006829
 30
0.0
 11
24.00000590504715
 21
209.00000193006241
 31
0.0
  0
LINE
  5
1B548
  8
HASEN
 10
24.00000590504715
 20
209.00000193006241
 30
0.0
 11
24.00000590504715
 21
207.1270185838585
 31
0.0
  0
LINE
  5
1B549
  8
CENTER
 10
126.00000590800749
 20
254.00000193010149
 30
0.0
 11
126.00000590800209
 21
236.00000193010149
 31
0.0
  0
LINE
  5
1B54A
  8
CENTER
 10
135.0000059080057
 20
245.0000019300987
 30
0.0
 11
117.0000059080057
 21
245.00000193010419
 31
0.0
  0
LINE
  5
1B54B
  8
CENTER
 10
126.00000590800749
 20
254.00000193010149
 30
0.0
 11
126.00000590800209
 21
236.00000193010149
 31
0.0
  0
LINE
  5
1B54C
  8
CENTER
 10
126.0000059080084
 20
254.00000193010149
 30
0.0
 11
126.0000059080012
 21
236.00000193010149
 31
0.0
  0
CIRCLE
  5
1B54D
  8
SJC
 10
126.00000590800479
 20
245.00000193010149
 30
0.0
 40
9.0
  0
CIRCLE
  5
1B54E
  8
SJC
 10
126.00000590800479
 20
245.00000193010149
 30
0.0
 40
8.0
  0
LINE
  5
1B54F
  8
SJC2
 10
125.14894207821629
 20
250.9574487386117
 30
0.0
 11
126.8510697377919
 21
250.9574487386117
 31
0.0
  0
LINE
  5
1B550
  8
SJC2
 10
131.95745271651549
 20
245.85106575988809
 30
0.0
 11
131.95745271651549
 21
244.14893810031299
 31
0.0
  0
LINE
  5
1B551
  8
SJC2
 10
120.0425590994937
 20
245.85106575988809
 30
0.0
 11
120.0425590994937
 21
244.14893810031299
 31
0.0
  0
LINE
  5
1B552
  8
SJC2
 10
125.14894207821629
 20
239.04255512159119
 30
0.0
 11
126.8510697377919
 21
239.04255512159119
 31
0.0
  0
ARC
  5
1B553
  8
SJC2
 10
131.95745271651549
 20
239.04255512159119
 30
0.0
 40
5.1063829787233539
 50
90.0
 51
180.0
  0
ARC
  5
1B554
  8
SJC2
 10
120.0425590994937
 20
239.04255512159119
 30
0.0
 40
5.1063829787233539
 50
0.0
 51
90.0
  0
ARC
  5
1B555
  8
SJC2
 10
131.95745271651549
 20
250.9574487386117
 30
0.0
 40
5.1063829787233539
 50
180.0
 51
270.0
  0
ARC
  5
1B556
  8
SJC2
 10
120.0425590994937
 20
250.9574487386117
 30
0.0
 40
5.1063829787233539
 50
270.0
 51
0.0
  0
LINE
  5
1B557
  8
SJC
 10
29.000005905045331
 20
207.00000193006741
 30
0.0
 11
25.000005905045331
 21
207.00000193006559
 31
0.0
  0
ARC
  5
1B558
  8
SJC
 10
29.00000590504715
 20
203.00000193006741
 30
0.0
 40
4.0
 50
0.0000000000260551
 51
90.0
  0
ARC
  5
1B559
  8
SJC
 10
25.00000590504715
 20
203.00000193006551
 30
0.0
 40
4.0
 50
90.0
 51
180.00000000001299
  0
LINE
  5
1B55A
  8
SJC
 10
21.000005905047139
 20
203.00000193006369
 30
0.0
 11
21.000005905050791
 21
198.00000193006281
 31
0.0
  0
LINE
  5
1B55B
  8
SJC
 10
146.00000590653141
 20
197.0000019300237
 30
0.0
 11
146.00000590651871
 21
162.82454641310269
 31
0.0
  0
ARC
  5
1B55C
  8
SJC
 10
136.00000590653141
 20
197.0000019300264
 30
0.0
 40
10.0
 50
359.99999999997402
 51
90.0
  0
LINE
  5
1B55D
  8
CENTER
 10
126.00000590652959
 20
178.0000019300291
 30
0.0
 11
126.00000590652409
 21
160.0000019300291
 31
0.0
  0
LINE
  5
1B55E
  8
CENTER
 10
135.0000059065278
 20
169.0000019300264
 30
0.0
 11
117.0000059065278
 21
169.00000193003191
 31
0.0
  0
LINE
  5
1B55F
  8
HASEN
 10
22.000005905050781
 20
197.00000193006369
 30
0.0
 11
24.000005905045331
 21
197.00000193006369
 31
0.0
  0
ARC
  5
1B560
  8
HASEN
 10
22.000005905050781
 20
198.00000193006369
 30
0.0
 40
1.0
 50
180.00000000001299
 51
270.0
  0
LINE
  5
1B561
  8
SJC
 10
138.40514563528271
 20
153.11808965045969
 30
0.0
 11
33.000005905068967
 21
127.0000019300664
 31
0.0
  0
ARC
  5
1B562
  8
SJC
 10
136.00000590651871
 20
162.82454641310551
 30
0.0
 40
10.0
 50
283.9168774331053
 51
359.99999999997402
  0
LINE
  5
1B563
  8
HASEN
 10
38.500005905050791
 20
205.00000193006281
 30
0.0
 11
24.000005905045331
 21
205.00000193006829
 31
0.0
  0
LINE
  5
1B564
  8
HASEN
 10
24.000005905045331
 20
205.00000193006829
 30
0.0
 11
24.000005905045331
 21
206.8729852762722
 31
0.0
  0
LINE
  5
1B565
  8
CENTER
 10
126.0000059065305
 20
178.0000019300291
 30
0.0
 11
126.0000059065232
 21
160.0000019300291
 31
0.0
  0
CIRCLE
  5
1B566
  8
SJC
 10
126.00000590652689
 20
169.0000019300291
 30
0.0
 40
9.0
  0
CIRCLE
  5
1B567
  8
SJC
 10
126.00000590652689
 20
169.0000019300291
 30
0.0
 40
8.0
  0
LINE
  5
1B568
  8
SJC2
 10
125.14894207673839
 20
174.9574487385394
 30
0.0
 11
126.851069736314
 21
174.9574487385394
 31
0.0
  0
LINE
  5
1B569
  8
SJC2
 10
131.9574527150375
 20
169.85106575981581
 30
0.0
 11
131.9574527150375
 21
168.14893810024071
 31
0.0
  0
LINE
  5
1B56A
  8
SJC2
 10
120.0425590980157
 20
169.85106575981581
 30
0.0
 11
120.0425590980157
 21
168.14893810024071
 31
0.0
  0
LINE
  5
1B56B
  8
SJC2
 10
125.14894207673839
 20
163.04255512151889
 30
0.0
 11
126.851069736314
 21
163.04255512151889
 31
0.0
  0
ARC
  5
1B56C
  8
SJC2
 10
131.9574527150375
 20
163.04255512151889
 30
0.0
 40
5.1063829787233539
 50
90.0
 51
180.0
  0
ARC
  5
1B56D
  8
SJC2
 10
120.0425590980157
 20
163.04255512151889
 30
0.0
 40
5.1063829787233539
 50
0.0
 51
90.0
  0
ARC
  5
1B56E
  8
SJC2
 10
131.9574527150375
 20
174.9574487385394
 30
0.0
 40
5.1063829787233539
 50
180.0
 51
270.0
  0
ARC
  5
1B56F
  8
SJC2
 10
120.0425590980157
 20
174.9574487385394
 30
0.0
 40
5.1063829787233539
 50
270.0
 51
0.0
  0
LINE
  5
1B570
  8
SUNPOU
 10
156.00000590505081
 20
380.00000193009282
 30
0.0
 11
156.00000590505081
 21
350.00000193009191
 31
0.0
  0
LINE
  5
1B571
  8
SUNPOU
 10
96.000005905050784
 20
410.00000193009191
 30
0.0
 11
96.000005905050784
 21
380.00000193009282
 31
0.0
  0
LINE
  5
1B572
  8
SUNPOU
 10
252.00000590505439
 20
380.00000193009379
 30
0.0
 11
156.00000590505081
 21
380.00000193009282
 31
0.0
  0
LINE
  5
1B573
  8
SUNPOU
 10
0.0000059050471464
 20
380.00000193009379
 30
0.0
 11
96.000005905050784
 21
380.00000193009282
 31
0.0
  0
LINE
  5
1B574
  8
SUNPOU
 10
96.000005905050784
 20
410.00000193009191
 30
0.0
 11
156.00000590505081
 21
350.00000193009191
 31
0.0
  0
LINE
  5
1B575
  8
SUNPOU
 10
156.0000059050503
 20
340.00000193009282
 30
0.0
 11
156.0000059050503
 21
310.00000193009191
 31
0.0
  0
LINE
  5
1B576
  8
SUNPOU
 10
96.000005905050315
 20
370.00000193009191
 30
0.0
 11
96.000005905050315
 21
340.00000193009282
 31
0.0
  0
LINE
  5
1B577
  8
SUNPOU
 10
252.000005905054
 20
340.00000193009367
 30
0.0
 11
156.0000059050503
 21
340.00000193009282
 31
0.0
  0
LINE
  5
1B578
  8
SUNPOU
 10
0.0000059050466916
 20
340.00000193009367
 30
0.0
 11
96.000005905050315
 21
340.00000193009282
 31
0.0
  0
LINE
  5
1B579
  8
SUNPOU
 10
96.000005905050315
 20
370.00000193009191
 30
0.0
 11
156.0000059050503
 21
310.00000193009191
 31
0.0
  0
LINE
  5
1B57A
  8
SUNPOU
 10
156.00000590507801
 20
70.000001930099415
 30
0.0
 11
156.00000590507801
 21
40.000001930098499
 31
0.0
  0
LINE
  5
1B57B
  8
SUNPOU
 10
96.000005905078069
 20
100.00000193009851
 30
0.0
 11
96.000005905078069
 21
70.000001930099415
 31
0.0
  0
LINE
  5
1B57C
  8
SUNPOU
 10
252.00000590508171
 20
70.000001930100325
 30
0.0
 11
156.00000590507801
 21
70.000001930099415
 31
0.0
  0
LINE
  5
1B57D
  8
SUNPOU
 10
0.0000059050744312
 20
70.000001930100325
 30
0.0
 11
96.000005905078069
 21
70.000001930099415
 31
0.0
  0
LINE
  5
1B57E
  8
SUNPOU
 10
96.000005905078069
 20
100.00000193009851
 30
0.0
 11
156.00000590507801
 21
40.000001930098499
 31
0.0
  0
LINE
  5
1B57F
  8
SUNPOU
 10
156.00000590507759
 20
30.000001930099419
 30
0.0
 11
156.00000590507759
 21
0.0000019300985059
 31
0.0
  0
LINE
  5
1B580
  8
SUNPOU
 10
96.000005905077614
 20
60.000001930098499
 30
0.0
 11
96.000005905077614
 21
30.000001930099419
 31
0.0
  0
LINE
  5
1B581
  8
SUNPOU
 10
252.00000590508131
 20
30.000001930100328
 30
0.0
 11
156.00000590507759
 21
30.000001930099419
 31
0.0
  0
LINE
  5
1B582
  8
SUNPOU
 10
0.0000059050739765
 20
30.000001930100328
 30
0.0
 11
96.000005905077614
 21
30.000001930099419
 31
0.0
  0
LINE
  5
1B583
  8
SUNPOU
 10
96.000005905077614
 20
60.000001930098499
 30
0.0
 11
156.00000590507759
 21
0.0000019300985059
 31
0.0
  0
ENDBLK
  5
1B587
  8
0
  0
BLOCK
  8
0
  2
*D28
 70
     1
 10
0.0
 20
0.0
 30
0.0
  3
*D28
  1

  0
LINE
  5
1C5B1
  8
SUNPOU
 62
     0
 10
609.64738174553975
 20
2466.7496368207399
 30
0.0
 11
523.71736719745945
 21
2466.7496368207399
 31
0.0
  0
LINE
  5
1C5B2
  8
SUNPOU
 62
     0
 10
633.897381745541
 20
2506.7496368207412
 30
0.0
 11
523.71736719745945
 21
2506.7496368207412
 31
0.0
  0
LINE
  5
1C5B3
  8
SUNPOU
 62
     0
 10
533.71736719745945
 20
2446.7496368207399
 30
0.0
 11
533.71736719745945
 21
2426.7496368207389
 31
0.0
  0
LINE
  5
1C5B4
  8
SUNPOU
 62
     0
 10
533.71736719745945
 20
2526.7496368207412
 30
0.0
 11
533.71736719745945
 21
2546.7496368207412
 31
0.0
  0
TEXT
  8
SUNPOU
  40
30
  5
1C5E0
  62
0
  72
0
  71
0
 10
430.717
 20
2433.65
 30
0.000000
  1
40
  7
EXT08
  0
LINE
  5
1C5B6
  8
SUNPOU
 62
     0
 10
533.71736719745945
 20
2466.7496368207399
 30
0.0
 11
533.71736719745945
 21
2506.7496368207412
 31
0.0
  0
SOLID
  5
1C5B7
  8
SUNPOU
 62
     0
 10
530.38403386412608
 20
2446.7496368207399
 30
0.0
 11
537.05070053079294
 21
2446.7496368207399
 31
0.0
 12
533.71736719745945
 22
2466.7496368207399
 32
0.0
 13
533.71736719745945
 23
2466.7496368207399
 33
0.0
  0
SOLID
  5
1C5B8
  8
SUNPOU
 62
     0
 10
530.38403386412608
 20
2526.7496368207412
 30
0.0
 11
537.05070053079294
 21
2526.7496368207412
 31
0.0
 12
533.71736719745945
 22
2506.7496368207412
 32
0.0
 13
533.71736719745945
 23
2506.7496368207412
 33
0.0
  0
POINT
  5
1C5B9
  8
DEFPOINTS
 62
     0
 10
619.64738174553975
 20
2466.7496368207399
 30
0.0
  0
POINT
  5
1C5BA
  8
DEFPOINTS
 62
     0
 10
643.89738174554088
 20
2506.7496368207412
 30
0.0
  0
POINT
  5
1C5BB
  8
DEFPOINTS
 62
     0
 10
533.71736719745945
 20
2506.7496368207412
 30
0.0
  0
ENDBLK
  5
1BC63
  8
0
  0
BLOCK
  8
0
  2
*D29
 70
     1
 10
0.0
 20
0.0
 30
0.0
  3
*D29
  1

  0
LINE
  5
1C5BC
  8
SUNPOU
 62
     0
 10
1464.3632148796351
 20
1966.749636820738
 30
0.0
 11
1732.718342155611
 21
1966.749636820738
 31
0.0
  0
LINE
  5
1C5BD
  8
SUNPOU
 62
     0
 10
1626.8632148796351
 20
266.7496368207394
 30
0.0
 11
1732.718342155611
 21
266.74963682073928
 31
0.0
  0
LINE
  5
1C5BE
  8
SUNPOU
 62
     0
 10
1722.718342155611
 20
1946.749636820738
 30
0.0
 11
1722.718342155611
 21
286.7496368207394
 31
0.0
  0
SOLID
  5
1C5BF
  8
SUNPOU
 62
     0
 10
1719.385008822278
 20
1946.749636820738
 30
0.0
 11
1726.0516754889441
 21
1946.749636820738
 31
0.0
 12
1722.718342155611
 22
1966.749636820738
 32
0.0
 13
1722.718342155611
 23
1966.749636820738
 33
0.0
  0
SOLID
  5
1C5C0
  8
SUNPOU
 62
     0
 10
1719.385008822278
 20
286.7496368207394
 30
0.0
 11
1726.0516754889441
 21
286.7496368207394
 31
0.0
 12
1722.718342155611
 22
266.74963682073928
 32
0.0
 13
1722.718342155611
 23
266.74963682073928
 33
0.0
  0
TEXT
  8
SUNPOU
  40
30
  5
1C5E1
  62
0
  72
0
  71
0
 10
1635.72
 20
1063.65
 30
0.000000
  1
1700
  7
EXT08
  0
POINT
  5
1C5C2
  8
DEFPOINTS
 62
     0
 10
1454.3632148796351
 20
1966.749636820738
 30
0.0
  0
POINT
  5
1C5C3
  8
DEFPOINTS
 62
     0
 10
1616.8632148796351
 20
266.7496368207394
 30
0.0
  0
POINT
  5
1C5C4
  8
DEFPOINTS
 62
     0
 10
1722.718342155611
 20
266.74963682073928
 30
0.0
  0
ENDBLK
  5
1C02E
  8
0
  0
BLOCK
  8
0
  2
*U30
 70
     1
 10
0.0
 20
0.0
 30
0.0
  3
*U30
  1

  0
SOLID
  5
1C433
  8
SUNPOU
 10
1447.9574149341811
 20
2534.3649379673889
 30
0.0
 11
1429.8085583508339
 21
2525.32446697146
 31
0.0
 12
1444.044351012077
 22
2539.762379508154
 32
0.0
 13
1444.044351012077
 23
2539.762379508154
 33
0.0
  0
POLYLINE
  5
1C434
  8
SUNPOU
 66
     1
 10
0.0
 20
0.0
 30
0.0
  0
VERTEX
  5
1C435
  8
SUNPOU
 10
1446.0008829731289
 20
2537.0636587377721
 30
0.0
  0
VERTEX
  5
1C436
  8
SUNPOU
 10
1528.517222797858
 20
2596.8867637984758
 30
0.0
  0
SEQEND
  5
1C437
  8
SUNPOU
  0
ENDBLK
  5
1C439
  8
0
  0
BLOCK
  8
0
  2
*U31
 70
     1
 10
0.0
 20
0.0
 30
0.0
  3
*U31
  1

  0
SOLID
  5
1C43B
  8
SUNPOU
 10
783.16885071546335
 20
2240.4066288386471
 30
0.0
 11
764.65757954662672
 21
2232.1335429074552
 31
0.0
 12
779.48507845838265
 22
2245.963090518746
 32
0.0
 13
779.48507845838265
 23
2245.963090518746
 33
0.0
  0
POLYLINE
  5
1C43C
  8
SUNPOU
 66
     1
 10
0.0
 20
0.0
 30
0.0
  0
VERTEX
  5
1C43D
  8
SUNPOU
 10
781.32696458692305
 20
2243.1848596786972
 30
0.0
  0
VERTEX
  5
1C43E
  8
SUNPOU
 10
874.44950659270489
 20
2304.9223927527378
 30
0.0
  0
SEQEND
  5
1C43F
  8
SUNPOU
  0
ENDBLK
  5
1C441
  8
0
  0
BLOCK
  8
0
  2
*U32
 70
     1
 10
0.0
 20
0.0
 30
0.0
  3
*U32
  1

  0
SOLID
  5
1C470
  8
SUNPOU
 10
703.64269115791626
 20
1229.0237379928919
 30
0.0
 11
687.64738174554054
 21
1216.5633532510999
 31
0.0
 12
698.73687397612571
 22
1233.5378716000521
 32
0.0
 13
698.73687397612571
 23
1233.5378716000521
 33
0.0
  0
POLYLINE
  5
1C471
  8
SUNPOU
 66
     1
 10
0.0
 20
0.0
 30
0.0
  0
VERTEX
  5
1C472
  8
SUNPOU
 10
701.18978256702087
 20
1231.280804796472
 30
0.0
  0
VERTEX
  5
1C473
  8
SUNPOU
 10
753.49609912364997
 20
1288.1256500781151
 30
0.0
  0
SEQEND
  5
1C474
  8
SUNPOU
  0
ENDBLK
  5
1C476
  8
0
  0
BLOCK
  8
0
  2
*U33
 70
     1
 10
0.0
 20
0.0
 30
0.0
  3
*U33
  1

  0
SOLID
  5
1C478
  8
SUNPOU
 10
1471.3525632539879
 20
2464.60284560931
 30
0.0
 11
1460.4551252960571
 21
2481.7012945759311
 31
0.0
 12
1476.3089554616531
 22
2469.0613902965652
 32
0.0
 13
1476.3089554616531
 23
2469.0613902965652
 33
0.0
  0
POLYLINE
  5
1C479
  8
SUNPOU
 66
     1
 10
0.0
 20
0.0
 30
0.0
  0
VERTEX
  5
1C47A
  8
SUNPOU
 10
1473.8307593578199
 20
2466.8321179529371
 30
0.0
  0
VERTEX
  5
1C47B
  8
SUNPOU
 10
1516.4370813308051
 20
2419.4683127122221
 30
0.0
  0
SEQEND
  5
1C47C
  8
SUNPOU
  0
ENDBLK
  5
1C47E
  8
0
  0
BLOCK
  8
0
  2
*U34
 70
     1
 10
0.0
 20
0.0
 30
0.0
  3
*U34
  1

  0
SOLID
  5
1C480
  8
SUNPOU
 10
703.64269115791626
 20
779.21002156253144
 30
0.0
 11
687.64738174554054
 21
766.74963682073985
 31
0.0
 12
698.73687397612571
 22
783.7241551696917
 32
0.0
 13
698.73687397612571
 23
783.7241551696917
 33
0.0
  0
POLYLINE
  5
1C481
  8
SUNPOU
 66
     1
 10
0.0
 20
0.0
 30
0.0
  0
VERTEX
  5
1C482
  8
SUNPOU
 10
701.18978256702087
 20
781.46708836611162
 30
0.0
  0
VERTEX
  5
1C483
  8
SUNPOU
 10
753.49609912364997
 20
838.31193364775515
 30
0.0
  0
SEQEND
  5
1C484
  8
SUNPOU
  0
ENDBLK
  5
1C486
  8
0
  0
BLOCK
  8
0
  2
*U35
 70
     1
 10
0.0
 20
0.0
 30
0.0
  3
*U35
  1

  0
SOLID
  5
1C491
  8
SUNPOU
 10
681.15187428380386
 20
540.45691392931462
 30
0.0
 11
687.64738174554077
 21
521.24963682073849
 31
0.0
 12
675.27359562490017
 22
537.31203166558498
 32
0.0
 13
675.27359562490017
 23
537.31203166558498
 33
0.0
  0
POLYLINE
  5
1C492
  8
SUNPOU
 66
     1
 10
0.0
 20
0.0
 30
0.0
  0
VERTEX
  5
1C493
  8
SUNPOU
 10
678.21273495435207
 20
538.8844727974498
 30
0.0
  0
VERTEX
  5
1C494
  8
SUNPOU
 10
556.89700559416815
 20
765.6426160551282
 30
0.0
  0
SEQEND
  5
1C495
  8
SUNPOU
  0
ENDBLK
  5
1C497
  8
0
  0
BLOCK
  8
0
  2
*U36
 70
     1
 10
0.0
 20
0.0
 30
0.0
  3
*U36
  1

  0
SOLID
  5
1C4BD
  8
SUNPOU
 10
2160.029281255765
 20
2463.401335608175
 30
0.0
 11
2147.722948157978
 21
2447.2872027802059
 31
0.0
 12
2154.137868819786
 22
2466.5215445681079
 32
0.0
 13
2154.137868819786
 23
2466.5215445681079
 33
0.0
  0
POLYLINE
  5
1C4BE
  8
SUNPOU
 66
     1
 10
0.0
 20
0.0
 30
0.0
  0
VERTEX
  5
1C4BF
  8
SUNPOU
 10
2157.0835750377751
 20
2464.9614400881419
 30
0.0
  0
VERTEX
  5
1C4C0
  8
SUNPOU
 10
2185.3769961024441
 20
2518.3835713803919
 30
0.0
  0
VERTEX
  5
1C4C1
  8
SUNPOU
 10
2391.0662789568469
 20
2518.3835713803919
 30
0.0
  0
SEQEND
  5
1C4C2
  8
SUNPOU
  0
ENDBLK
  5
1C4C4
  8
0
  0
BLOCK
  8
0
  2
*U37
 70
     1
 10
0.0
 20
0.0
 30
0.0
  3
*U37
  1

  0
SOLID
  5
1C4C6
  8
SUNPOU
 10
2045.407054553993
 20
2401.8842896966798
 30
0.0
 11
2049.6431739937002
 21
2382.0558655736281
 31
0.0
 12
2039.205193727041
 22
2399.4386064122859
 32
0.0
 13
2039.205193727041
 23
2399.4386064122859
 33
0.0
  0
POLYLINE
  5
1C4C7
  8
SUNPOU
 66
     1
 10
0.0
 20
0.0
 30
0.0
  0
VERTEX
  5
1C4C8
  8
SUNPOU
 10
2042.3061241405171
 20
2400.661448054484
 30
0.0
  0
VERTEX
  5
1C4C9
  8
SUNPOU
 10
2007.920243499155
 20
2487.8585301585672
 30
0.0
  0
VERTEX
  5
1C4CA
  8
SUNPOU
 10
1860.2007199658569
 20
2487.8585301585672
 30
0.0
  0
SEQEND
  5
1C4CB
  8
SUNPOU
  0
ENDBLK
  5
1C4CD
  8
0
  0
BLOCK
  8
0
  2
*U38
 70
     1
 10
0.0
 20
0.0
 30
0.0
  3
*U38
  1

  0
SOLID
  5
1C4F7
  8
SUNPOU
 10
2901.3918680048791
 20
880.80310389816054
 30
0.0
 11
2881.8794625431769
 21
875.291557453716
 31
0.0
 12
2898.54961480875
 22
886.83353018603975
 32
0.0
 13
2898.54961480875
 23
886.83353018603975
 33
0.0
  0
POLYLINE
  5
1C4F8
  8
SUNPOU
 66
     1
 10
0.0
 20
0.0
 30
0.0
  0
VERTEX
  5
1C4F9
  8
SUNPOU
 10
2899.9707414068148
 20
883.81831704210015
 30
0.0
  0
VERTEX
  5
1C4FA
  8
SUNPOU
 10
3019.415015895057
 20
940.11464746997774
 30
0.0
  0
SEQEND
  5
1C4FB
  8
SUNPOU
  0
ENDBLK
  5
1C4FD
  8
0
  0
BLOCK
  8
0
  2
*U39
 70
     1
 10
0.0
 20
0.0
 30
0.0
  3
*U39
  1

  0
SOLID
  5
1C52C
  8
SUNPOU
 10
783.16885071546335
 20
1813.3761361628599
 30
0.0
 11
764.65757954662672
 21
1805.1030502316671
 31
0.0
 12
779.48507845838265
 22
1818.932597842959
 32
0.0
 13
779.48507845838265
 23
1818.932597842959
 33
0.0
  0
POLYLINE
  5
1C52D
  8
SUNPOU
 66
     1
 10
0.0
 20
0.0
 30
0.0
  0
VERTEX
  5
1C52E
  8
SUNPOU
 10
781.32696458692305
 20
1816.15436700291
 30
0.0
  0
VERTEX
  5
1C52F
  8
SUNPOU
 10
874.44950659270489
 20
1877.8919000769499
 30
0.0
  0
SEQEND
  5
1C530
  8
SUNPOU
  0
ENDBLK
  5
1C532
  8
0
  0
BLOCK
  8
0
  2
*X40
 70
     1
 10
0.0
 20
0.0
 30
0.0
  3
*X40
  1

  0
LINE
  5
1C534
  8
0
 62
     0
 10
2969.478662656893
 20
1921.6622039431411
 30
0.0
 11
2952.6336880512272
 21
1938.507178548806
 31
0.0
  0
LINE
  5
1C535
  8
0
 62
     0
 10
2969.478662656893
 20
1903.7016917010019
 30
0.0
 11
2934.67317580909
 21
1938.507178548806
 31
0.0
  0
LINE
  5
1C536
  8
0
 62
     0
 10
2969.478662656893
 20
1885.7411794588629
 30
0.0
 11
2916.7126635669511
 21
1938.507178548806
 31
0.0
  0
LINE
  5
1C537
  8
0
 62
     0
 10
2969.478662656893
 20
1867.7806672167251
 30
0.0
 11
2898.7521513248121
 21
1938.507178548806
 31
0.0
  0
LINE
  5
1C538
  8
0
 62
     0
 10
2960.7916390826758
 20
1858.5071785488051
 30
0.0
 11
2880.791639082674
 21
1938.507178548806
 31
0.0
  0
LINE
  5
1C539
  8
0
 62
     0
 10
2942.8311268405369
 20
1858.5071785488051
 30
0.0
 11
2862.8311268405359
 21
1938.507178548806
 31
0.0
  0
LINE
  5
1C53A
  8
0
 62
     0
 10
2924.8706145983988
 20
1858.5071785488051
 30
0.0
 11
2844.870614598397
 21
1938.507178548806
 31
0.0
  0
LINE
  5
1C53B
  8
0
 62
     0
 10
2906.9101023562598
 20
1858.5071785488051
 30
0.0
 11
2826.9101023562589
 21
1938.507178548806
 31
0.0
  0
LINE
  5
1C53C
  8
0
 62
     0
 10
2888.9495901141231
 20
1858.5071785488051
 30
0.0
 11
2808.9495901141208
 21
1938.507178548806
 31
0.0
  0
LINE
  5
1C53D
  8
0
 62
     0
 10
2870.9890778719841
 20
1858.5071785488051
 30
0.0
 11
2794.4786626568912
 21
1935.0175937638969
 31
0.0
  0
LINE
  5
1C53E
  8
0
 62
     0
 10
2853.0285656298461
 20
1858.5071785488051
 30
0.0
 11
2794.4786626568912
 21
1917.0570815217579
 31
0.0
  0
LINE
  5
1C53F
  8
0
 62
     0
 10
2835.0680533877071
 20
1858.5071785488051
 30
0.0
 11
2794.4786626568921
 21
1899.0965692796201
 31
0.0
  0
LINE
  5
1C540
  8
0
 62
     0
 10
2817.107541145569
 20
1858.5071785488051
 30
0.0
 11
2794.478662656893
 21
1881.1360570374809
 31
0.0
  0
LINE
  5
1C541
  8
0
 62
     0
 10
2799.147028903431
 20
1858.5071785488051
 30
0.0
 11
2794.478662656893
 21
1863.1755447953431
 31
0.0
  0
LINE
  5
1C542
  8
0
 62
     0
 10
2966.1774008229659
 20
1858.5071785488051
 30
0.0
 11
2969.478662656893
 21
1861.8084403827311
 31
0.0
  0
LINE
  5
1C543
  8
0
 62
     0
 10
2948.2168885808269
 20
1858.5071785488051
 30
0.0
 11
2969.478662656893
 21
1879.7689526248701
 31
0.0
  0
LINE
  5
1C544
  8
0
 62
     0
 10
2930.2563763386888
 20
1858.5071785488051
 30
0.0
 11
2969.478662656893
 21
1897.7294648670079
 31
0.0
  0
LINE
  5
1C545
  8
0
 62
     0
 10
2912.2958640965512
 20
1858.5071785488051
 30
0.0
 11
2969.478662656893
 21
1915.6899771091471
 31
0.0
  0
LINE
  5
1C546
  8
0
 62
     0
 10
2894.3353518544131
 20
1858.5071785488051
 30
0.0
 11
2969.478662656893
 21
1933.6504893512849
 31
0.0
  0
LINE
  5
1C547
  8
0
 62
     0
 10
2876.3748396122751
 20
1858.5071785488051
 30
0.0
 11
2956.374839612276
 21
1938.507178548806
 31
0.0
  0
LINE
  5
1C548
  8
0
 62
     0
 10
2858.4143273701361
 20
1858.5071785488051
 30
0.0
 11
2938.4143273701379
 21
1938.507178548806
 31
0.0
  0
LINE
  5
1C549
  8
0
 62
     0
 10
2840.453815127998
 20
1858.5071785488051
 30
0.0
 11
2920.4538151279999
 21
1938.507178548806
 31
0.0
  0
LINE
  5
1C54A
  8
0
 62
     0
 10
2822.4933028858591
 20
1858.5071785488051
 30
0.0
 11
2902.4933028858609
 21
1938.5071785488069
 31
0.0
  0
LINE
  5
1C54B
  8
0
 62
     0
 10
2804.532790643721
 20
1858.5071785488051
 30
0.0
 11
2884.5327906437228
 21
1938.507178548806
 31
0.0
  0
LINE
  5
1C54C
  8
0
 62
     0
 10
2794.478662656893
 20
1866.4135628041149
 30
0.0
 11
2866.5722784015852
 21
1938.507178548806
 31
0.0
  0
LINE
  5
1C54D
  8
0
 62
     0
 10
2794.4786626568921
 20
1884.374075046253
 30
0.0
 11
2848.6117661594471
 21
1938.507178548806
 31
0.0
  0
LINE
  5
1C54E
  8
0
 62
     0
 10
2794.4786626568921
 20
1902.334587288391
 30
0.0
 11
2830.6512539173082
 21
1938.507178548806
 31
0.0
  0
LINE
  5
1C54F
  8
0
 62
     0
 10
2794.4786626568921
 20
1920.2950995305289
 30
0.0
 11
2812.6907416751701
 21
1938.507178548806
 31
0.0
  0
LINE
  5
1C550
  8
0
 62
     0
 10
2794.4786626568912
 20
1938.255611772666
 30
0.0
 11
2794.730229433032
 21
1938.507178548806
 31
0.0
  0
ENDBLK
  5
1C552
  8
0
  0
BLOCK
  8
0
  2
*X41
 70
     1
 10
0.0
 20
0.0
 30
0.0
  3
*X41
  1

  0
LINE
  5
1C554
  8
0
 62
     0
 10
2217.3293558282348
 20
1921.6622039431411
 30
0.0
 11
2200.484381222569
 21
1938.507178548806
 31
0.0
  0
LINE
  5
1C555
  8
0
 62
     0
 10
2217.3293558282348
 20
1903.7016917010019
 30
0.0
 11
2182.523868980431
 21
1938.507178548806
 31
0.0
  0
LINE
  5
1C556
  8
0
 62
     0
 10
2217.3293558282348
 20
1885.7411794588629
 30
0.0
 11
2164.5633567382929
 21
1938.507178548806
 31
0.0
  0
LINE
  5
1C557
  8
0
 62
     0
 10
2217.3293558282348
 20
1867.7806672167251
 30
0.0
 11
2146.6028444961539
 21
1938.507178548806
 31
0.0
  0
LINE
  5
1C558
  8
0
 62
     0
 10
2208.6423322540172
 20
1858.5071785488051
 30
0.0
 11
2128.6423322540159
 21
1938.507178548806
 31
0.0
  0
LINE
  5
1C559
  8
0
 62
     0
 10
2190.6818200118792
 20
1858.5071785488051
 30
0.0
 11
2110.6818200118778
 21
1938.507178548806
 31
0.0
  0
LINE
  5
1C55A
  8
0
 62
     0
 10
2172.7213077697411
 20
1858.5071785488051
 30
0.0
 11
2092.7213077697388
 21
1938.507178548806
 31
0.0
  0
LINE
  5
1C55B
  8
0
 62
     0
 10
2154.7607955276021
 20
1858.5071785488051
 30
0.0
 11
2074.7607955276012
 21
1938.507178548806
 31
0.0
  0
LINE
  5
1C55C
  8
0
 62
     0
 10
2136.800283285464
 20
1858.5071785488051
 30
0.0
 11
2056.8002832854631
 21
1938.507178548806
 31
0.0
  0
LINE
  5
1C55D
  8
0
 62
     0
 10
2118.839771043326
 20
1858.5071785488051
 30
0.0
 11
2042.329355828233
 21
1935.0175937638969
 31
0.0
  0
LINE
  5
1C55E
  8
0
 62
     0
 10
2100.879258801187
 20
1858.5071785488051
 30
0.0
 11
2042.329355828233
 21
1917.0570815217579
 31
0.0
  0
LINE
  5
1C55F
  8
0
 62
     0
 10
2082.9187465590489
 20
1858.5071785488051
 30
0.0
 11
2042.3293558282339
 21
1899.0965692796201
 31
0.0
  0
LINE
  5
1C560
  8
0
 62
     0
 10
2064.9582343169109
 20
1858.5071785488051
 30
0.0
 11
2042.3293558282339
 21
1881.1360570374809
 31
0.0
  0
LINE
  5
1C561
  8
0
 62
     0
 10
2046.997722074773
 20
1858.5071785488051
 30
0.0
 11
2042.3293558282351
 21
1863.1755447953431
 31
0.0
  0
LINE
  5
1C562
  8
0
 62
     0
 10
2214.0280939943082
 20
1858.5071785488051
 30
0.0
 11
2217.3293558282348
 21
1861.8084403827311
 31
0.0
  0
LINE
  5
1C563
  8
0
 62
     0
 10
2196.0675817521692
 20
1858.5071785488051
 30
0.0
 11
2217.3293558282348
 21
1879.7689526248701
 31
0.0
  0
LINE
  5
1C564
  8
0
 62
     0
 10
2178.1070695100311
 20
1858.5071785488051
 30
0.0
 11
2217.3293558282348
 21
1897.7294648670079
 31
0.0
  0
LINE
  5
1C565
  8
0
 62
     0
 10
2160.1465572678931
 20
1858.5071785488051
 30
0.0
 11
2217.3293558282348
 21
1915.6899771091471
 31
0.0
  0
LINE
  5
1C566
  8
0
 62
     0
 10
2142.186045025755
 20
1858.5071785488051
 30
0.0
 11
2217.3293558282348
 21
1933.6504893512849
 31
0.0
  0
LINE
  5
1C567
  8
0
 62
     0
 10
2124.225532783616
 20
1858.5071785488051
 30
0.0
 11
2204.2255327836178
 21
1938.507178548806
 31
0.0
  0
LINE
  5
1C568
  8
0
 62
     0
 10
2106.265020541478
 20
1858.5071785488051
 30
0.0
 11
2186.2650205414802
 21
1938.507178548806
 31
0.0
  0
LINE
  5
1C569
  8
0
 62
     0
 10
2088.304508299339
 20
1858.5071785488051
 30
0.0
 11
2168.3045082993422
 21
1938.507178548806
 31
0.0
  0
LINE
  5
1C56A
  8
0
 62
     0
 10
2070.3439960572009
 20
1858.5071785488051
 30
0.0
 11
2150.3439960572032
 21
1938.5071785488069
 31
0.0
  0
LINE
  5
1C56B
  8
0
 62
     0
 10
2052.3834838150628
 20
1858.5071785488051
 30
0.0
 11
2132.3834838150651
 21
1938.507178548806
 31
0.0
  0
LINE
  5
1C56C
  8
0
 62
     0
 10
2042.3293558282339
 20
1866.4135628041149
 30
0.0
 11
2114.4229715729271
 21
1938.507178548806
 31
0.0
  0
LINE
  5
1C56D
  8
0
 62
     0
 10
2042.3293558282339
 20
1884.3740750462521
 30
0.0
 11
2096.4624593307881
 21
1938.507178548806
 31
0.0
  0
LINE
  5
1C56E
  8
0
 62
     0
 10
2042.3293558282339
 20
1902.334587288391
 30
0.0
 11
2078.50194708865
 21
1938.507178548806
 31
0.0
  0
LINE
  5
1C56F
  8
0
 62
     0
 10
2042.3293558282339
 20
1920.2950995305289
 30
0.0
 11
2060.541434846511
 21
1938.507178548806
 31
0.0
  0
LINE
  5
1C570
  8
0
 62
     0
 10
2042.329355828233
 20
1938.255611772666
 30
0.0
 11
2042.5809226043741
 21
1938.507178548806
 31
0.0
  0
ENDBLK
  5
1C572
  8
0
  0
BLOCK
  8
0
  2
*X42
 70
     1
 10
0.0
 20
0.0
 30
0.0
  3
*X42
  1

  0
LINE
  5
1C574
  8
0
 62
     0
 10
1460.6132148796339
 20
2499.6797345118621
 30
0.0
 11
1453.5433125707559
 21
2506.7496368207399
 31
0.0
  0
LINE
  5
1C575
  8
0
 62
     0
 10
1460.6132148796339
 20
2490.699478390793
 30
0.0
 11
1444.5630564496871
 21
2506.7496368207399
 31
0.0
  0
LINE
  5
1C576
  8
0
 62
     0
 10
1460.6132148796351
 20
2481.719222269724
 30
0.0
 11
1435.5828003286181
 21
2506.7496368207412
 31
0.0
  0
LINE
  5
1C577
  8
0
 62
     0
 10
1460.6132148796351
 20
2472.7389661486541
 30
0.0
 11
1426.602544207549
 21
2506.7496368207412
 31
0.0
  0
LINE
  5
1C578
  8
0
 62
     0
 10
1457.62228808648
 20
2466.7496368207399
 30
0.0
 11
1417.62228808648
 21
2506.7496368207399
 31
0.0
  0
LINE
  5
1C579
  8
0
 62
     0
 10
1448.642031965411
 20
2466.7496368207399
 30
0.0
 11
1408.642031965411
 21
2506.7496368207399
 31
0.0
  0
LINE
  5
1C57A
  8
0
 62
     0
 10
1439.6617758443419
 20
2466.7496368207399
 30
0.0
 11
1399.661775844341
 21
2506.7496368207412
 31
0.0
  0
LINE
  5
1C57B
  8
0
 62
     0
 10
1430.6815197232729
 20
2466.7496368207399
 30
0.0
 11
1390.681519723272
 21
2506.7496368207412
 31
0.0
  0
LINE
  5
1C57C
  8
0
 62
     0
 10
1421.7012636022041
 20
2466.7496368207399
 30
0.0
 11
1381.701263602203
 21
2506.7496368207399
 31
0.0
  0
LINE
  5
1C57D
  8
0
 62
     0
 10
1412.7210074811351
 20
2466.7496368207399
 30
0.0
 11
1373.1132148796339
 21
2506.3574294222399
 31
0.0
  0
LINE
  5
1C57E
  8
0
 62
     0
 10
1403.7407513600649
 20
2466.7496368207399
 30
0.0
 11
1373.1132148796339
 21
2497.3771733011708
 31
0.0
  0
LINE
  5
1C57F
  8
0
 62
     0
 10
1394.7604952389961
 20
2466.7496368207399
 30
0.0
 11
1373.1132148796339
 21
2488.3969171801018
 31
0.0
  0
LINE
  5
1C580
  8
0
 62
     0
 10
1385.7802391179271
 20
2466.7496368207399
 30
0.0
 11
1373.1132148796339
 21
2479.4166610590319
 31
0.0
  0
LINE
  5
1C581
  8
0
 62
     0
 10
1376.799982996858
 20
2466.7496368207399
 30
0.0
 11
1373.1132148796351
 21
2470.4364049379628
 31
0.0
  0
LINE
  5
1C582
  8
0
 62
     0
 10
1451.980695139925
 20
2466.7496368207399
 30
0.0
 11
1460.6132148796351
 21
2475.3821565604499
 31
0.0
  0
LINE
  5
1C583
  8
0
 62
     0
 10
1443.000439018856
 20
2466.7496368207399
 30
0.0
 11
1460.6132148796351
 21
2484.362412681518
 31
0.0
  0
LINE
  5
1C584
  8
0
 62
     0
 10
1434.020182897787
 20
2466.7496368207399
 30
0.0
 11
1460.6132148796351
 21
2493.342668802587
 31
0.0
  0
LINE
  5
1C585
  8
0
 62
     0
 10
1425.0399267767179
 20
2466.7496368207399
 30
0.0
 11
1460.6132148796339
 21
2502.322924923656
 31
0.0
  0
LINE
  5
1C586
  8
0
 62
     0
 10
1416.0596706556489
 20
2466.7496368207399
 30
0.0
 11
1456.0596706556501
 21
2506.7496368207412
 31
0.0
  0
LINE
  5
1C587
  8
0
 62
     0
 10
1407.079414534579
 20
2466.7496368207399
 30
0.0
 11
1447.0794145345801
 21
2506.7496368207412
 31
0.0
  0
LINE
  5
1C588
  8
0
 62
     0
 10
1398.0991584135099
 20
2466.7496368207399
 30
0.0
 11
1438.0991584135111
 21
2506.7496368207412
 31
0.0
  0
LINE
  5
1C589
  8
0
 62
     0
 10
1389.1189022924409
 20
2466.7496368207399
 30
0.0
 11
1429.118902292442
 21
2506.7496368207412
 31
0.0
  0
LINE
  5
1C58A
  8
0
 62
     0
 10
1380.1386461713721
 20
2466.7496368207399
 30
0.0
 11
1420.138646171373
 21
2506.7496368207412
 31
0.0
  0
LINE
  5
1C58B
  8
0
 62
     0
 10
1373.1132148796351
 20
2468.7044616500721
 30
0.0
 11
1411.158390050304
 21
2506.7496368207412
 31
0.0
  0
LINE
  5
1C58C
  8
0
 62
     0
 10
1373.1132148796351
 20
2477.6847177711402
 30
0.0
 11
1402.1781339292349
 21
2506.7496368207412
 31
0.0
  0
LINE
  5
1C58D
  8
0
 62
     0
 10
1373.1132148796351
 20
2486.6649738922092
 30
0.0
 11
1393.197877808165
 21
2506.7496368207412
 31
0.0
  0
LINE
  5
1C58E
  8
0
 62
     0
 10
1373.1132148796351
 20
2495.6452300132778
 30
0.0
 11
1384.217621687096
 21
2506.7496368207412
 31
0.0
  0
LINE
  5
1C58F
  8
0
 62
     0
 10
1373.1132148796339
 20
2504.6254861343482
 30
0.0
 11
1375.2373655660269
 21
2506.7496368207412
 31
0.0
  0
ENDBLK
  5
1C591
  8
0
  0
BLOCK
  8
0
  2
*X43
 70
     1
 10
0.0
 20
0.0
 30
0.0
  3
*X43
  1

  0
LINE
  5
1C593
  8
0
 62
     0
 10
731.39738174554032
 20
2499.6797345118612
 30
0.0
 11
724.32747943666197
 21
2506.7496368207399
 31
0.0
  0
LINE
  5
1C594
  8
0
 62
     0
 10
731.39738174554032
 20
2490.699478390793
 30
0.0
 11
715.34722331559306
 21
2506.7496368207399
 31
0.0
  0
LINE
  5
1C595
  8
0
 62
     0
 10
731.39738174554054
 20
2481.719222269724
 30
0.0
 11
706.3669671945238
 21
2506.7496368207412
 31
0.0
  0
LINE
  5
1C596
  8
0
 62
     0
 10
731.39738174554054
 20
2472.7389661486541
 30
0.0
 11
697.38671107345453
 21
2506.7496368207412
 31
0.0
  0
LINE
  5
1C597
  8
0
 62
     0
 10
728.40645495238618
 20
2466.7496368207399
 30
0.0
 11
688.4064549523855
 21
2506.7496368207399
 31
0.0
  0
LINE
  5
1C598
  8
0
 62
     0
 10
719.42619883131715
 20
2466.7496368207399
 30
0.0
 11
679.42619883131647
 21
2506.7496368207399
 31
0.0
  0
LINE
  5
1C599
  8
0
 62
     0
 10
710.44594271024812
 20
2466.7496368207399
 30
0.0
 11
670.44594271024732
 21
2506.7496368207412
 31
0.0
  0
LINE
  5
1C59A
  8
0
 62
     0
 10
701.46568658917874
 20
2466.7496368207399
 30
0.0
 11
661.46568658917795
 21
2506.7496368207412
 31
0.0
  0
LINE
  5
1C59B
  8
0
 62
     0
 10
692.48543046810971
 20
2466.7496368207399
 30
0.0
 11
652.48543046810892
 21
2506.7496368207399
 31
0.0
  0
LINE
  5
1C59C
  8
0
 62
     0
 10
683.50517434704057
 20
2466.7496368207399
 30
0.0
 11
643.89738174553975
 21
2506.3574294222399
 31
0.0
  0
LINE
  5
1C59D
  8
0
 62
     0
 10
674.52491822597131
 20
2466.7496368207399
 30
0.0
 11
643.89738174553975
 21
2497.3771733011708
 31
0.0
  0
LINE
  5
1C59E
  8
0
 62
     0
 10
665.54466210490205
 20
2466.7496368207399
 30
0.0
 11
643.89738174553975
 21
2488.3969171801018
 31
0.0
  0
LINE
  5
1C59F
  8
0
 62
     0
 10
656.56440598383313
 20
2466.7496368207399
 30
0.0
 11
643.89738174553997
 21
2479.4166610590319
 31
0.0
  0
LINE
  5
1C5A0
  8
0
 62
     0
 10
647.58414986276387
 20
2466.7496368207399
 30
0.0
 11
643.89738174554009
 21
2470.4364049379628
 31
0.0
  0
LINE
  5
1C5A1
  8
0
 62
     0
 10
722.76486200583099
 20
2466.7496368207399
 30
0.0
 11
731.39738174554066
 21
2475.3821565604489
 31
0.0
  0
LINE
  5
1C5A2
  8
0
 62
     0
 10
713.78460588476185
 20
2466.7496368207399
 30
0.0
 11
731.39738174554054
 21
2484.362412681518
 31
0.0
  0
LINE
  5
1C5A3
  8
0
 62
     0
 10
704.80434976369293
 20
2466.7496368207399
 30
0.0
 11
731.39738174554054
 21
2493.342668802587
 31
0.0
  0
LINE
  5
1C5A4
  8
0
 62
     0
 10
695.82409364262355
 20
2466.7496368207399
 30
0.0
 11
731.39738174554043
 21
2502.322924923656
 31
0.0
  0
LINE
  5
1C5A5
  8
0
 62
     0
 10
686.84383752155452
 20
2466.7496368207399
 30
0.0
 11
726.84383752155543
 21
2506.7496368207412
 31
0.0
  0
LINE
  5
1C5A6
  8
0
 62
     0
 10
677.86358140048537
 20
2466.7496368207399
 30
0.0
 11
717.86358140048628
 21
2506.7496368207412
 31
0.0
  0
LINE
  5
1C5A7
  8
0
 62
     0
 10
668.88332527941634
 20
2466.7496368207399
 30
0.0
 11
708.88332527941725
 21
2506.7496368207412
 31
0.0
  0
LINE
  5
1C5A8
  8
0
 62
     0
 10
659.90306915834674
 20
2466.7496368207399
 30
0.0
 11
699.90306915834776
 21
2506.7496368207412
 31
0.0
  0
LINE
  5
1C5A9
  8
0
 62
     0
 10
650.92281303727759
 20
2466.7496368207399
 30
0.0
 11
690.92281303727884
 21
2506.7496368207412
 31
0.0
  0
LINE
  5
1C5AA
  8
0
 62
     0
 10
643.89738174554032
 20
2468.7044616500721
 30
0.0
 11
681.94255691620958
 21
2506.7496368207412
 31
0.0
  0
LINE
  5
1C5AB
  8
0
 62
     0
 10
643.89738174554032
 20
2477.6847177711402
 30
0.0
 11
672.96230079514055
 21
2506.7496368207412
 31
0.0
  0
LINE
  5
1C5AC
  8
0
 62
     0
 10
643.89738174554009
 20
2486.6649738922092
 30
0.0
 11
663.98204467407095
 21
2506.7496368207412
 31
0.0
  0
LINE
  5
1C5AD
  8
0
 62
     0
 10
643.89738174554009
 20
2495.6452300132778
 30
0.0
 11
655.00178855300203
 21
2506.7496368207412
 31
0.0
  0
LINE
  5
1C5AE
  8
0
 62
     0
 10
643.89738174553997
 20
2504.6254861343482
 30
0.0
 11
646.02153243193277
 21
2506.7496368207412
 31
0.0
  0
ENDBLK
  5
1C5B0
  8
0
  0
BLOCK
  8
0
  2
*U44
 70
     1
 10
0.0
 20
0.0
 30
0.0
  3
*U44
  1

  0
SOLID
  5
1C5C6
  8
SUNPOU
 10
747.38397199279132
 20
2060.3690115338081
 30
0.0
 11
728.87270082395446
 21
2052.0959256026149
 31
0.0
 12
743.70019973571061
 22
2065.925473213907
 32
0.0
 13
743.70019973571061
 23
2065.925473213907
 33
0.0
  0
POLYLINE
  5
1C5C7
  8
SUNPOU
 66
     1
 10
0.0
 20
0.0
 30
0.0
  0
VERTEX
  5
1C5C8
  8
SUNPOU
 10
745.54208586425102
 20
2063.1472423738578
 30
0.0
  0
VERTEX
  5
1C5C9
  8
SUNPOU
 10
838.66462787003275
 20
2124.8847754478979
 30
0.0
  0
SEQEND
  5
1C5CA
  8
SUNPOU
  0
ENDBLK
  5
1C5CC
  8
0
  0
ENDSEC
  0
SECTION
  2
ENTITIES
  0
TEXT
  5
43
  8
INFORMATION
 10
1.0
 20
2.0
 30
0.0
 40
0.8
  1
PLOTTER=SYSTEM
 41
0.8
  7
EXT08
  0
TEXT
  5
44
  8
INFORMATION
 10
1.0
 20
3.0
 30
0.0
 40
0.8
  1
PAPER=A3
 41
0.8
  7
EXT08
  0
TEXT
  5
178E9
  8
INFORMATION
 10
1.0
 20
1.0
 30
0.0
 40
0.8
  1
VERSION=3.0
  0
INSERT
  5
19380
  8
ZWAKU
  2
SYSTEMA3
 10
-0.7058929444392561
 20
37.540982692415128
 30
0.0
 41
10.0
 42
10.0
 43
10.0
  0
INSERT
  5
19381
  8
ZWAKU
  2
CALCOMP_TECHJET720A3
 10
-0.7058929444392561
 20
37.540982692415128
 30
0.0
 41
10.0
 42
10.0
 43
10.0
  0
LINE
  5
19382
  8
MOJI
 10
3663.0844272244772
 20
2485.4653333909719
 30
0.0
 11
2539.8840360922268
 21
2485.465333390971
 31
0.0
  0
LINE
  5
19383
  8
MOJI
 10
3663.0844272244772
 20
2293.4653334389732
 30
0.0
 11
2539.8840360922268
 21
2293.4653334389732
 31
0.0
  0
LINE
  5
19384
  8
MOJI
 10
3663.0844272244772
 20
2245.465333450974
 30
0.0
 11
2539.8840360922268
 21
2245.465333450974
 31
0.0
  0
LINE
  5
19385
  8
MOJI
 10
3663.0844272244772
 20
2053.4653334989748
 30
0.0
 11
2539.8840360922268
 21
2053.4653334989748
 31
0.0
  0
LINE
  5
19386
  8
MOJI
 10
3663.0844272244772
 20
2101.4653334869749
 30
0.0
 11
2539.8840360922268
 21
2101.4653334869749
 31
0.0
  0
LINE
  5
19387
  8
MOJI
 10
3663.0844272244772
 20
2341.4653334269742
 30
0.0
 11
2539.8840360922268
 21
2341.4653334269728
 31
0.0
  0
LINE
  5
19388
  8
MOJI
 10
3663.0844272244772
 20
2389.4653334149721
 30
0.0
 11
2539.8840360922268
 21
2389.4653334149712
 31
0.0
  0
LINE
  5
19389
  8
MOJI
 10
3663.0844272244772
 20
2437.4653334029722
 30
0.0
 11
2539.8840360922268
 21
2437.4653334029722
 31
0.0
  0
LINE
  5
1938A
  8
MOJI
 10
3663.0844272244772
 20
2005.465333510974
 30
0.0
 11
2539.8840360922268
 21
2005.465333510974
 31
0.0
  0
TEXT
  5
1938B
  8
MOJI
 10
3060.073210921038
 20
2446.4653333969732
 30
0.0
 40
30.0
  1
材　　　質
 41
0.8
  7
EXT08
 72
     4
 11
3128.8732109210382
 21
2461.4653333969732
 31
0.0
  0
TEXT
  5
1938C
  8
MOJI
 10
2622.014451985955
 20
2446.4653333969732
 30
0.0
 40
30.0
  1
品　　名
 41
0.8
  7
EXT08
 72
     4
 11
2675.6144519859549
 21
2461.4653333969732
 31
0.0
  0
TEXT
  5
1938E
  8
MOJI
 10
2829.5431439008812
 20
2446.4653333969732
 30
0.0
 40
30.0
  1
数 量
 41
0.8
  7
EXT08
 72
     4
 11
2862.3431439008809
 21
2461.4653333969732
 31
0.0
  0
LINE
  5
1938F
  8
MOJI
 10
3322.5108894851501
 20
2485.465333390971
 30
0.0
 11
3322.510889485151
 21
2005.465333510974
 31
0.0
  0
LINE
  5
19390
  8
MOJI
 10
2910.3431438888788
 20
2485.465333390971
 30
0.0
 11
2910.343143888877
 21
2005.465333510974
 31
0.0
  0
LINE
  5
19391
  8
MOJI
 10
2814.343143912879
 20
2485.465333390971
 30
0.0
 11
2814.3431439128781
 21
2005.465333510974
 31
0.0
  0
LINE
  5
19392
  8
MOJI
 10
2539.8840360922268
 20
2485.465333390971
 30
0.0
 11
2539.8840360922268
 21
2005.465333510974
 31
0.0
  0
TEXT
  5
19394
  8
MOJI
 10
2619.7858805573842
 20
2350.865333420973
 30
0.0
 40
30.0
  1
キャップ
 41
0.8
  7
EXT08
 72
     4
 11
2675.6144519859549
 21
2365.465333420972
 31
0.0
  0
TEXT
  5
1939C
  8
MOJI
 10
2556.4144519859551
 20
2254.4653334449749
 30
0.0
 40
30.0
  1
弾性サイン板（大）
 41
0.8
  7
EXT08
 72
     4
 11
2675.6144519859549
 21
2269.4653334449749
 31
0.0
  0
TEXT
  5
1939D
  8
MOJI
 10
2934.3431438828802
 20
2350.465333420972
 30
0.0
 40
30.0
  1
ポリエチレン樹脂
 41
0.8
  7
EXT08
 11
2934.3431438828802
 21
2365.465333420972
 31
0.0
 73
     2
  0
TEXT
  5
1939E
  8
MOJI
 10
2934.3431438828802
 20
2254.4653334449749
 30
0.0
 40
30.0
  1
CRゴム
 41
0.8
  7
EXT08
 11
2934.3431438828802
 21
2269.4653334449749
 31
0.0
 73
     2
  0
TEXT
  5
1939F
  8
MOJI
 10
2852.6288581865952
 20
2254.4653334449749
 30
0.0
 40
30.0
  1
1
 41
0.8
  7
EXT08
 72
     4
 11
2862.3431439008809
 21
2269.4653334449749
 31
0.0
  0
TEXT
  5
193A0
  8
MOJI
 10
2852.6288581865952
 20
2350.465333420972
 30
0.0
 40
30.0
  1
1
 41
0.8
  7
EXT08
 72
     4
 11
2862.3431439008809
 21
2365.465333420972
 31
0.0
  0
LINE
  5
193A1
  8
MOJI
 10
3663.0844272244772
 20
2485.465333390971
 30
0.0
 11
3663.0844272244781
 21
2005.465333510974
 31
0.0
  0
TEXT
  5
193A2
  8
MOJI
 10
3459.9976583548132
 20
2446.4653333969709
 30
0.0
 40
30.0
  1
備 考
 41
0.8
  7
EXT08
 72
     4
 11
3492.7976583548129
 21
2461.4653333969709
 31
0.0
  0
TEXT
  5
193A3
  8
MOJI
 10
3345.711944069099
 20
2014.4653334929751
 30
0.0
 40
30.0
  1
皿ドリルネジM4×35
 41
0.8
  7
EXT08
 72
     4
 11
3492.7976583548129
 21
2029.4653334929751
 31
0.0
  0
TEXT
  5
193A4
  8
MOJI
 10
3459.9976583548132
 20
2398.4653334089721
 30
0.0
 40
30.0
  1
茶 色
 41
0.8
  7
EXT08
 72
     4
 11
3492.7976583548129
 21
2413.4653334089721
 31
0.0
  0
TEXT
  5
193A5
  8
MOJI
 10
2606.8144519859552
 20
2398.4653334089721
 30
0.0
 40
30.0
  1
支　　　柱
 41
0.8
  7
EXT08
 72
     4
 11
2675.6144519859549
 21
2413.4653334089721
 31
0.0
  0
TEXT
  5
193A6
  8
MOJI
 10
2917.6675642437458
 20
2398.4653334089721
 30
0.0
 40
30.0
  1
ポリエチレン樹脂＋ガラス繊維
 41
0.8
  7
EXT08
 11
2917.6675642437458
 21
2413.4653334089721
 31
0.0
 73
     2
  0
TEXT
  5
193A7
  8
MOJI
 10
2852.6288581865952
 20
2398.4653334089721
 30
0.0
 40
30.0
  1
1
 41
0.8
  7
EXT08
 72
     4
 11
2862.3431439008809
 21
2413.4653334089721
 31
0.0
  0
TEXT
  5
193A8
  8
MOJI
 10
2606.8144519859552
 20
2302.4653334329741
 30
0.0
 40
30.0
  1
反　射　材
 41
0.8
  7
EXT08
 72
     4
 11
2675.6144519859549
 21
2317.4653334329741
 31
0.0
  0
TEXT
  5
193A9
  8
MOJI
 10
2934.3431438828802
 20
2302.4653334329741
 30
0.0
 40
30.0
  1
カプセルレンズ型反射シート
 41
0.8
  7
EXT08
 11
2934.3431438828802
 21
2317.4653334329741
 31
0.0
 73
     2
  0
TEXT
  5
193AA
  8
MOJI
 10
2852.6288581865952
 20
2302.4653334329741
 30
0.0
 40
30.0
  1
1
 41
0.8
  7
EXT08
 72
     4
 11
2862.3431439008809
 21
2317.4653334329741
 31
0.0
  0
TEXT
  5
193AB
  8
MOJI
 10
3458.3976583548128
 20
2302.4653334329741
 30
0.0
 40
30.0
  1
白 色
 41
0.8
  7
EXT08
 72
     4
 11
3492.7976583548129
 21
2317.4653334329741
 31
0.0
  0
TEXT
  5
193AC
  8
MOJI
 10
2606.8144519859552
 20
2110.4653334809768
 30
0.0
 40
30.0
  1
芯      材
 41
0.8
  7
EXT08
 72
     4
 11
2675.6144519859549
 21
2125.4653334809782
 31
0.0
  0
TEXT
  5
193AD
  8
MOJI
 10
2934.3431438828802
 20
2110.4653334809768
 30
0.0
 40
30.0
  1
A6063S-T5
 41
0.8
  7
EXT08
 11
2934.3431438828802
 21
2125.4653334809782
 31
0.0
 73
     2
  0
TEXT
  5
193AE
  8
MOJI
 10
2852.6288581865952
 20
2110.4653334809768
 30
0.0
 40
30.0
  1
1
 41
0.8
  7
EXT08
 72
     4
 11
2862.3431439008809
 21
2125.4653334809782
 31
0.0
  0
TEXT
  5
193AF
  8
MOJI
 10
2619.6144519859558
 20
2062.4653334929758
 30
0.0
 40
30.0
  1
ネカセ棒
 41
0.8
  7
EXT08
 72
     4
 11
2675.6144519859558
 21
2077.4653334929758
 31
0.0
  0
TEXT
  5
193B0
  8
MOJI
 10
2852.6288581865952
 20
2062.4653334929749
 30
0.0
 40
30.0
  1
1
 41
0.8
  7
EXT08
 72
     4
 11
2862.3431439008809
 21
2077.4653334929749
 31
0.0
  0
TEXT
  5
193B1
  8
MOJI
 10
2837.2002867580231
 20
2014.4653335049759
 30
0.0
 40
30.0
  1
14
 41
0.8
  7
EXT08
 72
     4
 11
2862.3431439008809
 21
2029.4653335049759
 31
0.0
  0
TEXT
  5
193B2
  8
MOJI
 10
3417.5976583548131
 20
2110.4653334809759
 30
0.0
 40
30.0
  1
φ9×150
 41
0.8
  7
EXT08
 72
     4
 11
3492.7976583548138
 21
2125.4653334809759
 31
0.0
  0
TEXT
  5
193B3
  8
MOJI
 10
3459.9976583548132
 20
2350.4653334209738
 30
0.0
 40
30.0
  1
茶 色
 41
0.8
  7
EXT08
 72
     4
 11
3492.7976583548129
 21
2365.4653334209738
 31
0.0
  0
TEXT
  5
193B4
  8
MOJI
 10
2932.8415782590441
 20
2015.1142718855081
 30
0.0
 40
30.0
  1
SUS410
 41
0.8
  7
EXT08
 11
2932.8415782590441
 21
2030.1142718855081
 31
0.0
 73
     2
  0
LINE
  5
193C8
  8
CENTER
 10
687.64738174554077
 20
2546.749636820733
 30
0.0
 11
687.64738174554077
 21
156.7496368207394
 31
0.0
  0
LINE
  5
193C9
  8
SJC2
 10
612.64738174554077
 20
521.24963682073985
 30
0.0
 11
612.64738174554077
 21
512.24963682073985
 31
0.0
  0
LINE
  5
193CA
  8
SJC2
 10
762.64738174554077
 20
521.2496368207394
 30
0.0
 11
762.64738174554077
 21
512.2496368207394
 31
0.0
  0
LINE
  5
193CB
  8
SJC
 10
650.14738174554077
 20
406.7496368207394
 30
0.0
 11
650.14738174554077
 21
266.7496368207394
 31
0.0
  0
LINE
  5
193CC
  8
SJC
 10
725.14738174554077
 20
406.7496368207394
 30
0.0
 11
725.14738174554077
 21
266.7496368207394
 31
0.0
  0
LINE
  5
193D1
  8
SJC
 10
731.39738174554077
 20
1336.7496368207389
 30
0.0
 11
731.39738174554077
 21
406.74963682073928
 31
0.0
1001
ACAD
1000
ASC_BOUNDS
1002
{
1070
    19
1005
0
1002
}
  0
LINE
  5
193D2
  8
SJC
 10
643.89738174554077
 20
1336.7496368207389
 30
0.0
 11
643.89738174554077
 21
406.74963682073928
 31
0.0
1001
ACAD
1000
ASC_BOUNDS
1002
{
1070
    19
1005
0
1002
}
  0
LINE
  5
193D3
  8
SJC
 10
731.39738174554077
 20
666.7496368207394
 30
0.0
 11
976.1518485949581
 21
666.7496368207394
 31
0.0
1001
ACAD
1000
ASC_BOUNDS
1002
{
1070
    19
1005
0
1002
}
  0
LINE
  5
193D5
  8
SJC
 10
487.64738174554083
 20
266.7496368207394
 30
0.0
 11
887.64738174554066
 21
266.7496368207394
 31
0.0
1001
ACAD
1000
ASC_BOUNDS
1002
{
1070
    19
1005
0
1005
0
1005
0
1002
}
  0
LINE
  5
193D6
  8
SJC
 10
460.11334604726471
 20
666.7496368207394
 30
0.0
 11
643.89738174554077
 21
666.7496368207394
 31
0.0
1001
ACAD
1000
ASC_BOUNDS
1002
{
1070
    19
1005
0
1002
}
  0
LINE
  5
193D7
  8
SJC
 10
643.89738174554077
 20
2506.7496368207412
 30
0.0
 11
731.39738174554032
 21
2506.7496368207412
 31
0.0
  0
LINE
  5
193D8
  8
SJC
 10
887.64738174554066
 20
266.7496368207394
 30
0.0
 11
887.64738174554066
 21
166.7496368207394
 31
0.0
  0
LINE
  5
193D9
  8
SJC
 10
487.64738174554083
 20
266.7496368207394
 30
0.0
 11
487.64738174554083
 21
166.7496368207394
 31
0.0
  0
LINE
  5
193DA
  8
SJC
 10
487.64738174554083
 20
166.7496368207394
 30
0.0
 11
887.64738174554066
 21
166.7496368207394
 31
0.0
  0
ARC
  5
193E1
  8
SJC
 10
687.64738174554077
 20
2468.8980743207198
 30
0.0
 40
57.851562500013678
 50
40.865657358811269
 51
139.13434264118931
  0
INSERT
  5
193E2
  8
SJC
  2
GL
 10
892.54864438850927
 20
666.46999820299152
 30
0.0
 41
10.0
 42
10.0
 43
10.0
  0
LINE
  5
193E3
  8
SJC
 10
837.64738174554066
 20
666.7496368207394
 30
0.0
 11
837.64738174554066
 21
266.7496368207394
 31
0.0
1001
ACAD
1000
ASC_BOUNDS
1002
{
1070
    19
1005
0
1002
}
  0
LINE
  5
193E4
  8
SJC
 10
537.64738174554077
 20
666.7496368207394
 30
0.0
 11
537.64738174554077
 21
266.7496368207394
 31
0.0
1001
ACAD
1000
ASC_BOUNDS
1002
{
1070
    19
1005
0
1002
}
  0
TEXT
  5
193E5
  8
MOJI2
 10
1041.7507213097681
 20
101.4561788148949
 30
0.0
 40
40.0
  1
設置図 S=1/10
 41
0.8
  7
EXT08
 72
     1
 11
1204.188816547864
 21
101.4561788148949
 31
0.0
 73
     1
  0
LINE
  5
193E6
  8
MOJI2
 10
1026.510617213612
 20
86.456178814894884
 30
0.0
 11
1381.862998165994
 21
86.456178814894884
 31
0.0
  0
LINE
  5
193E7
  8
HATCH
 10
537.64738174554077
 20
661.80981424473612
 30
0.0
 11
542.58720432154314
 21
666.7496368207394
 31
0.0
  0
LINE
  5
193E8
  8
HATCH
 10
537.64738174554077
 20
555.74379706675415
 30
0.0
 11
643.09738174554059
 21
661.19379706675409
 31
0.0
  0
LINE
  5
193E9
  8
HATCH
 10
537.64738174554077
 20
449.67777988877191
 30
0.0
 11
643.89738174554077
 21
555.92777988877242
 31
0.0
  0
LINE
  5
193EA
  8
HATCH
 10
732.19738174554095
 20
644.2277798887726
 30
0.0
 11
754.71923867750775
 21
666.7496368207394
 31
0.0
  0
LINE
  5
193EB
  8
HATCH
 10
537.64738174554077
 20
343.61176271079012
 30
0.0
 11
643.89738174554077
 21
449.86176271079052
 31
0.0
  0
LINE
  5
193EC
  8
HATCH
 10
731.39738174554077
 20
537.36176271079046
 30
0.0
 11
837.64738174554066
 21
643.61176271078955
 31
0.0
  0
LINE
  5
193ED
  8
HATCH
 10
566.85127303347235
 20
266.7496368207394
 30
0.0
 11
650.14738174554077
 21
350.04574553280833
 31
0.0
  0
LINE
  5
193EE
  8
HATCH
 10
731.39738174554077
 20
431.29574553280821
 30
0.0
 11
837.64738174554066
 21
537.54574553280781
 31
0.0
  0
LINE
  5
193EF
  8
HATCH
 10
725.14738174554077
 20
318.97972835482591
 30
0.0
 11
837.64738174554066
 21
431.47972835482591
 31
0.0
  0
LINE
  5
193F0
  8
HATCH
 10
778.98330738943605
 20
266.7496368207394
 30
0.0
 11
837.64738174554066
 21
325.41371117684372
 31
0.0
  0
LINE
  5
193F1
  8
HATCH
 10
537.64738174554077
 20
644.13214474473625
 30
0.0
 11
560.26487382154301
 21
666.7496368207394
 31
0.0
  0
LINE
  5
193F2
  8
HATCH
 10
537.64738174554077
 20
538.06612756675429
 30
0.0
 11
643.09738174554059
 21
643.51612756675422
 31
0.0
  0
LINE
  5
193F3
  8
HATCH
 10
537.64738174554077
 20
432.0001103887725
 30
0.0
 11
617.89690817750852
 21
512.24963682073985
 31
0.0
  0
LINE
  5
193F4
  8
HATCH
 10
732.19738174554095
 20
626.55011038877217
 30
0.0
 11
772.3969081775075
 21
666.7496368207394
 31
0.0
  0
LINE
  5
193F5
  8
HATCH
 10
537.64738174554077
 20
325.93409321079031
 30
0.0
 11
643.89738174554077
 21
432.18409321079019
 31
0.0
  0
LINE
  5
193F6
  8
HATCH
 10
732.96292535549003
 20
521.24963682073951
 30
0.0
 11
837.64738174554066
 21
625.9340932107898
 31
0.0
  0
LINE
  5
193F7
  8
HATCH
 10
584.52894253347222
 20
266.7496368207394
 30
0.0
 11
650.14738174554077
 21
332.3680760328084
 31
0.0
  0
LINE
  5
193F8
  8
HATCH
 10
731.39738174554077
 20
413.61807603280789
 30
0.0
 11
837.64738174554066
 21
519.86807603280795
 31
0.0
  0
LINE
  5
193F9
  8
HATCH
 10
725.14738174554077
 20
301.3020588548261
 30
0.0
 11
837.64738174554066
 21
413.80205885482559
 31
0.0
  0
LINE
  5
193FA
  8
HATCH
 10
796.6609768894358
 20
266.7496368207394
 30
0.0
 11
837.64738174554032
 21
307.7360416768434
 31
0.0
  0
LINE
  5
193FB
  8
HATCH
 10
537.64738174554077
 20
626.45447514473653
 30
0.0
 11
577.94254342154363
 21
666.7496368207394
 31
0.0
  0
LINE
  5
193FC
  8
HATCH
 10
537.64738174554077
 20
520.38845796675469
 30
0.0
 11
643.09738174554059
 21
625.83845796675405
 31
0.0
  0
LINE
  5
193FD
  8
HATCH
 10
537.64738174554077
 20
414.32244078877193
 30
0.0
 11
635.57457777750801
 21
512.24963682073974
 31
0.0
  0
LINE
  5
193FE
  8
HATCH
 10
732.19738174554095
 20
608.872440788772
 30
0.0
 11
790.07457777750767
 21
666.7496368207394
 31
0.0
  0
LINE
  5
193FF
  8
HATCH
 10
537.64738174554077
 20
308.25642361079008
 30
0.0
 11
643.89738174554077
 21
414.50642361079048
 31
0.0
  0
LINE
  5
19400
  8
HATCH
 10
731.39738174554077
 20
502.00642361079002
 30
0.0
 11
741.64059495548997
 21
512.2496368207394
 31
0.0
  0
LINE
  5
19401
  8
HATCH
 10
602.20661213347194
 20
266.7496368207394
 30
0.0
 11
650.14738174554077
 21
314.69040643280732
 31
0.0
  0
LINE
  5
19402
  8
HATCH
 10
725.14738174554077
 20
389.69040643280829
 30
0.0
 11
837.64738174554066
 21
502.19040643280778
 31
0.0
  0
LINE
  5
19403
  8
HATCH
 10
725.14738174554077
 20
283.62438925482593
 30
0.0
 11
837.64738174554066
 21
396.12438925482547
 31
0.0
  0
LINE
  5
19404
  8
HATCH
 10
814.33864648943666
 20
266.7496368207394
 30
0.0
 11
837.64738174554032
 21
290.05837207684363
 31
0.0
  0
LINE
  5
19405
  8
HATCH
 10
537.64738174554077
 20
608.77680564473656
 30
0.0
 11
595.6202129215435
 21
666.7496368207394
 31
0.0
  0
LINE
  5
19406
  8
HATCH
 10
537.64738174554077
 20
502.71078846675431
 30
0.0
 11
643.09738174554059
 21
608.16078846675407
 31
0.0
  0
LINE
  5
19407
  8
HATCH
 10
537.64738174554077
 20
396.64477128877212
 30
0.0
 11
643.25224727750799
 21
502.24963682073979
 31
0.0
  0
LINE
  5
19408
  8
HATCH
 10
732.19738174554095
 20
591.19477128877224
 30
0.0
 11
807.7522472775081
 21
666.7496368207394
 31
0.0
  0
LINE
  5
19409
  8
HATCH
 10
537.64738174554077
 20
290.57875411079021
 30
0.0
 11
650.14738174554077
 21
403.07875411079021
 31
0.0
  0
LINE
  5
1940A
  8
HATCH
 10
731.39738174554077
 20
484.32875411079021
 30
0.0
 11
759.31826445548984
 21
512.24963682073917
 31
0.0
  0
LINE
  5
1940B
  8
HATCH
 10
619.8842816334718
 20
266.7496368207394
 30
0.0
 11
650.14738174554077
 21
297.01273693280842
 31
0.0
  0
LINE
  5
1940C
  8
HATCH
 10
725.14738174554077
 20
372.01273693280848
 30
0.0
 11
837.64738174554066
 21
484.5127369328074
 31
0.0
  0
LINE
  5
1940D
  8
HATCH
 10
725.95029881145365
 20
266.7496368207394
 30
0.0
 11
837.64738174554032
 21
378.44671975482561
 31
0.0
  0
LINE
  5
1940E
  8
HATCH
 10
832.01631598943629
 20
266.7496368207394
 30
0.0
 11
837.64738174553975
 21
272.3807025768433
 31
0.0
  0
INSERT
  5
19411
  8
0
  2
*U30
 10
0.0
 20
0.0
 30
0.0
1001
ACAD
1000
DSTYLE
1002
{
1070
   140
1040
30.0
1070
   144
1040
0.5
1070
   147
1040
15.0
1070
    42
1040
10.0
1070
    44
1040
10.0
1070
    43
1040
60.0
1070
    41
1040
20.0
1002
}
  0
INSERT
  5
19414
  8
0
  2
*U31
 10
0.0
 20
0.0
 30
0.0
1001
ACAD
1000
DSTYLE
1002
{
1070
   140
1040
30.0
1070
   144
1040
0.5
1070
   147
1040
15.0
1070
    42
1040
10.0
1070
    44
1040
10.0
1070
    43
1040
60.0
1070
    41
1040
20.0
1002
}
  0
LINE
  5
19419
  8
SJC
 10
619.64738174553975
 20
2461.749636820738
 30
0.0
 11
755.6473817455435
 21
2461.7496368207389
 31
0.0
  0
CIRCLE
  5
1941A
  8
SJC
 10
687.64738174554077
 20
2638.589927357848
 30
0.0
 40
43.75
  0
LINE
  5
1941B
  8
SJC
 10
643.89738174553975
 20
2506.7496368207412
 30
0.0
 11
643.89738174553975
 21
2466.7496368207399
 31
0.0
  0
LINE
  5
1941C
  8
SJC
 10
731.39738174554032
 20
2506.7496368207412
 30
0.0
 11
731.39738174554032
 21
2466.7496368207399
 31
0.0
  0
LINE
  5
1941E
  8
HATCH
 10
643.89738174554077
 20
2506.7496368207412
 30
0.0
 11
731.39738174553975
 21
2506.7496368207412
 31
0.0
  0
LINE
  5
1941F
  8
HATCH
 10
731.39738174553975
 20
2506.7496368207412
 30
0.0
 11
731.39738174554032
 21
2466.7496368207399
 31
0.0
  0
LINE
  5
19420
  8
HATCH
 10
731.39738174554032
 20
2466.7496368207399
 30
0.0
 11
643.89738174553975
 21
2466.7496368207399
 31
0.0
  0
LINE
  5
19421
  8
HATCH
 10
643.89738174553975
 20
2466.7496368207399
 30
0.0
 11
643.89738174553895
 21
2506.7496368207389
 31
0.0
  0
LINE
  5
19422
  8
SJC
 10
619.64738174554168
 20
1961.7496368207389
 30
0.0
 11
755.64738174554157
 21
1961.7496368207389
 31
0.0
  0
LINE
  5
19423
  8
SJC
 10
612.64738174553975
 20
2454.7496368207399
 30
0.0
 11
612.64738174554248
 21
1968.7496368207389
 31
0.0
  0
LINE
  5
19424
  8
SJC
 10
762.64738174554338
 20
2454.7496368207399
 30
0.0
 11
762.64738174554077
 21
1968.7496368207389
 31
0.0
  0
LINE
  5
19425
  8
HASEN
 10
650.14738174554077
 20
1966.7496368207389
 30
0.0
 11
725.14738174554077
 21
1966.749636820738
 31
0.0
  0
LINE
  5
19426
  8
SJC
 10
607.64738174553975
 20
2454.7496368207399
 30
0.0
 11
607.64738174554168
 21
1968.7496368207389
 31
0.0
  0
ARC
  5
19427
  8
SJC
 10
619.64738174553975
 20
2454.7496368207399
 30
0.0
 40
12.0
 50
90.0
 51
180.0
  0
ARC
  5
19428
  8
SJC
 10
619.64738174553975
 20
2454.7496368207399
 30
0.0
 40
7.0
 50
90.0
 51
180.0
  0
LINE
  5
19429
  8
SJC
 10
767.6473817455435
 20
2454.7496368207399
 30
0.0
 11
767.64738174554157
 21
1968.7496368207389
 31
0.0
  0
ARC
  5
1942A
  8
SJC
 10
755.64738174554157
 20
1968.7496368207389
 30
0.0
 40
12.0
 50
270.0
 51
0.0
  0
ARC
  5
1942B
  8
SJC
 10
755.64738174554157
 20
1968.7496368207389
 30
0.0
 40
7.0
 50
270.0
 51
0.0
  0
ARC
  5
1942C
  8
SJC
 10
755.6473817455435
 20
2454.7496368207399
 30
0.0
 40
12.0
 50
0.0
 51
90.0
  0
ARC
  5
1942D
  8
SJC
 10
755.6473817455435
 20
2454.7496368207399
 30
0.0
 40
7.0
 50
0.0
 51
90.0
  0
ARC
  5
1942E
  8
SJC
 10
619.64738174554168
 20
1968.7496368207389
 30
0.0
 40
12.0
 50
180.0
 51
270.0
  0
ARC
  5
1942F
  8
SJC
 10
619.64738174554168
 20
1968.7496368207389
 30
0.0
 40
7.0
 50
180.0
 51
270.0
  0
LINE
  5
19430
  8
SJC
 10
755.6473817455435
 20
2466.7496368207399
 30
0.0
 11
619.64738174553975
 21
2466.7496368207399
 31
0.0
  0
LINE
  5
19431
  8
SJC
 10
755.64738174554157
 20
1956.7496368207389
 30
0.0
 11
687.64738174554077
 21
1956.7496368207389
 31
0.0
  0
LINE
  5
19432
  8
SJC
 10
687.64738174554077
 20
1956.7496368207389
 30
0.0
 11
619.64738174554168
 21
1956.7496368207389
 31
0.0
  0
DIMENSION
  5
19433
  8
SUNPOU
  2
*D8
 10
387.68044119141251
 20
2466.7496368207399
 30
0.0
 11
360.680441191412
 21
1566.7496368207389
 31
0.0
 70
     0
 13
460.11334604726437
 23
666.7496368207394
 33
0.0
 14
619.64738174553963
 24
2466.7496368207399
 34
0.0
 50
90.0
1001
ACAD
1000
DSTYLE
1002
{
1070
   287
1070
     5
1070
    40
1040
10.0
1070
    41
1040
2.0
1070
    42
1040
1.0
1070
    43
1040
6.0
1070
    44
1040
1.0
1070
    73
1070
     0
1070
    74
1070
     0
1070
    77
1070
     1
1070
    78
1070
     8
1070
   140
1040
3.0
1070
   147
1040
1.1999999999999991
1070
   172
1070
     1
1070
   179
1070
     2
1070
   271
1070
     2
1070
   279
1070
     2
1070
   340
1005
55
1002
}
  0
DIMENSION
  5
19434
  8
SUNPOU
  2
*D9
 10
533.71736719745945
 20
1956.7496368207389
 30
0.0
 11
506.71736719745911
 21
2211.7496368207389
 31
0.0
 70
     0
 13
619.64738174553963
 23
2466.7496368207399
 33
0.0
 14
619.64738174554145
 24
1956.7496368207389
 34
0.0
 50
90.0
1001
ACAD
1000
DSTYLE
1002
{
1070
   287
1070
     5
1070
    40
1040
10.0
1070
    41
1040
2.0
1070
    42
1040
1.0
1070
    43
1040
6.0
1070
    44
1040
1.0
1070
    73
1070
     0
1070
    74
1070
     0
1070
    77
1070
     1
1070
    78
1070
     8
1070
   140
1040
3.0
1070
   147
1040
1.1999999999999991
1070
   172
1070
     1
1070
   179
1070
     2
1070
   271
1070
     2
1070
   279
1070
     2
1070
   340
1005
55
1002
}
  0
LINE
  5
19435
  8
CENTER
 10
687.64738174554077
 20
2574.5451223756158
 30
0.0
 11
687.64738174554077
 21
2694.339927357847
 31
0.0
  0
LINE
  5
19436
  8
SJC
 10
686.64738174554066
 20
2586.0899273571049
 30
0.0
 11
686.64738174554066
 21
2594.851357422378
 31
0.0
  0
LINE
  5
19437
  8
SJC
 10
688.64738174554066
 20
2586.0899273571049
 30
0.0
 11
688.64738174554066
 21
2594.851357422378
 31
0.0
  0
LINE
  5
19438
  8
CENTER
 10
743.39738174553804
 20
2638.589927357848
 30
0.0
 11
631.89738174554066
 21
2638.589927357848
 31
0.0
  0
LINE
  5
19439
  8
SJC
 10
607.64738174554077
 20
2588.0899273571049
 30
0.0
 11
607.64738174554077
 21
2590.0899273571049
 31
0.0
  0
ARC
  5
1943A
  8
SJC
 10
609.64738174553975
 20
2588.089927357104
 30
0.0
 40
2.0
 50
180.0
 51
270.0
  0
ARC
  5
1943B
  8
SJC
 10
609.64738174554066
 20
2590.089927357104
 30
0.0
 40
2.0
 50
90.0
 51
180.0
  0
LINE
  5
1943C
  8
SJC
 10
609.89738174554168
 20
2592.089927357104
 30
0.0
 11
609.64738174554157
 21
2592.0899273571049
 31
0.0
  0
ARC
  5
1943D
  8
SJC
 10
765.64738174553975
 20
2590.0899273571049
 30
0.0
 40
2.0
 50
0.0
 51
90.0
  0
LINE
  5
1943E
  8
SJC
 10
765.64738174554168
 20
2586.0899273571058
 30
0.0
 11
609.64738174554066
 21
2586.0899273571049
 31
0.0
  0
ARC
  5
1943F
  8
SJC
 10
765.64738174554066
 20
2588.0899273571058
 30
0.0
 40
2.0
 50
270.0
 51
0.0
  0
LINE
  5
19441
  8
SJC
 10
767.64738174554157
 20
2588.0899273571058
 30
0.0
 11
767.64738174554066
 21
2590.0899273571049
 31
0.0
  0
LINE
  5
19442
  8
SJC
 10
636.89738174553975
 20
2646.589927357843
 30
0.0
 11
636.89738174554259
 21
2595.0899273571049
 31
0.0
  0
LINE
  5
19443
  8
SJC
 10
738.39738174553804
 20
2646.589927357843
 30
0.0
 11
738.39738174553895
 21
2595.0899273571049
 31
0.0
  0
ARC
  5
19444
  8
SJC
 10
741.39738174553895
 20
2595.0899273571049
 30
0.0
 40
3.0
 50
180.0
 51
270.0
  0
LINE
  5
19445
  8
SJC
 10
741.39738174553895
 20
2592.0899273571049
 30
0.0
 11
765.64738174554066
 21
2592.0899273571049
 31
0.0
  0
LINE
  5
19446
  8
SJC
 10
643.89738174553975
 20
2648.5899273578439
 30
0.0
 11
643.89738174553975
 21
2638.589927357847
 31
0.0
  0
LINE
  5
19447
  8
SJC
 10
731.39738174553895
 20
2648.5899273578439
 30
0.0
 11
731.39738174553895
 21
2638.589927357848
 31
0.0
  0
LINE
  5
19450
  8
SJC
 10
736.39738174553804
 20
2648.5899273578439
 30
0.0
 11
731.39738174553895
 21
2648.5899273578439
 31
0.0
  0
ARC
  5
19451
  8
SJC
 10
736.39738174553895
 20
2646.589927357843
 30
0.0
 40
2.0
 50
0.0
 51
90.0
  0
LINE
  5
19452
  8
SJC
 10
643.89738174553975
 20
2648.5899273578439
 30
0.0
 11
638.89738174553975
 21
2648.589927357843
 31
0.0
  0
ARC
  5
19453
  8
SJC
 10
638.89738174554077
 20
2646.589927357843
 30
0.0
 40
2.0
 50
90.0
 51
180.0
  0
ARC
  5
19454
  8
SJC
 10
633.8973817455435
 20
2595.0899273571049
 30
0.0
 40
3.0
 50
270.0
 51
0.0
  0
LINE
  5
19455
  8
SJC
 10
633.8973817455435
 20
2592.089927357104
 30
0.0
 11
609.89738174554168
 21
2592.089927357104
 31
0.0
  0
ARC
  5
1945A
  8
SJC
 10
687.64738174554077
 20
2638.589927357848
 30
0.0
 40
43.750000000000227
 50
180.0
 51
0.0
  0
DIMENSION
  5
19465
  8
SUNPOU
  2
*D10
 10
767.64738174554316
 20
2379.8235722440149
 30
0.0
 11
687.64738174554145
 21
2406.8235722440149
 31
0.0
 70
     0
 13
607.64738174553963
 23
2274.0728601915689
 33
0.0
 14
767.64738174554316
 24
2274.0728601915689
 34
0.0
1001
ACAD
1000
DSTYLE
1002
{
1070
   287
1070
     5
1070
    40
1040
10.0
1070
    41
1040
2.0
1070
    42
1040
1.0
1070
    43
1040
6.0
1070
    44
1040
1.0
1070
    73
1070
     0
1070
    74
1070
     0
1070
    77
1070
     1
1070
    78
1070
     8
1070
   140
1040
3.0
1070
   147
1040
1.1999999999999991
1070
   172
1070
     1
1070
   179
1070
     2
1070
   271
1070
     2
1070
   279
1070
     2
1070
   340
1005
55
1002
}
  0
DIMENSION
  5
1946B
  8
SUNPOU
  2
*D11
 10
233.93867437074709
 20
266.74963682073951
 30
0.0
 11
206.93867437074701
 21
466.74963682073951
 31
0.0
 70
     0
 13
460.11334604726437
 23
666.7496368207394
 33
0.0
 14
487.64738174554049
 24
266.7496368207394
 34
0.0
 50
90.0
1001
ACAD
1000
DSTYLE
1002
{
1070
   287
1070
     5
1070
    40
1040
10.0
1070
    41
1040
2.0
1070
    42
1040
1.0
1070
    43
1040
6.0
1070
    44
1040
1.0
1070
    73
1070
     0
1070
    74
1070
     0
1070
    77
1070
     1
1070
    78
1070
     8
1070
   140
1040
3.0
1070
   147
1040
1.1999999999999991
1070
   172
1070
     1
1070
   179
1070
     2
1070
   271
1070
     2
1070
   279
1070
     2
1070
   340
1005
55
1002
}
  0
LINE
  5
1946D
  8
CENTER
 10
602.64738174554066
 20
516.7496368207394
 30
0.0
 11
772.64738174554066
 21
516.7496368207394
 31
0.0
  0
LINE
  5
1946E
  8
SJC2
 10
612.64738174554077
 20
512.24963682073985
 30
0.0
 11
762.64738174554077
 21
512.2496368207394
 31
0.0
  0
LINE
  5
1946F
  8
SJC2
 10
612.64738174554077
 20
521.24963682073985
 30
0.0
 11
762.64738174554077
 21
521.2496368207394
 31
0.0
  0
LINE
  5
19470
  8
SJC
 10
643.89738174554191
 20
406.74963682073928
 30
0.0
 11
731.39738174554191
 21
406.74963682073928
 31
0.0
  0
DIMENSION
  5
19478
  8
SUNPOU
  2
*D12
 10
837.64738174554054
 20
115.68904388464119
 30
0.0
 11
687.64738174554054
 21
142.68904388464119
 31
0.0
 70
     0
  1
□<>
 13
537.64738174554054
 23
266.7496368207394
 33
0.0
 14
837.64738174554054
 24
266.7496368207394
 34
0.0
1001
ACAD
1000
DSTYLE
1002
{
1070
   287
1070
     5
1070
    40
1040
10.0
1070
    41
1040
2.0
1070
    42
1040
1.0
1070
    43
1040
6.0
1070
    44
1040
1.0
1070
    73
1070
     0
1070
    74
1070
     0
1070
    77
1070
     1
1070
    78
1070
     8
1070
   140
1040
3.0
1070
   147
1040
1.1999999999999991
1070
   172
1070
     1
1070
   179
1070
     2
1070
   271
1070
     2
1070
   279
1070
     2
1070
   340
1005
55
1002
}
  0
LINE
  5
19479
  8
CENTER
 10
1416.8632148796351
 20
2556.749636820733
 30
0.0
 11
1416.8632148796351
 21
156.7496368207394
 31
0.0
  0
LINE
  5
1947A
  8
SJC
 10
1379.3632148796351
 20
406.7496368207394
 30
0.0
 11
1379.3632148796351
 21
266.7496368207394
 31
0.0
  0
LINE
  5
1947B
  8
SJC
 10
1454.3632148796351
 20
406.7496368207394
 30
0.0
 11
1454.3632148796351
 21
266.7496368207394
 31
0.0
  0
LINE
  5
1947E
  8
SJC
 10
1460.6132148796351
 20
2506.7496368207412
 30
0.0
 11
1460.6132148796351
 21
406.74963682073928
 31
0.0
1001
ACAD
1000
ASC_BOUNDS
1002
{
1070
    19
1005
0
1002
}
  0
LINE
  5
1947F
  8
SJC
 10
1373.1132148796351
 20
1336.7496368206839
 30
0.0
 11
1373.1132148796351
 21
406.74963682073928
 31
0.0
1001
ACAD
1000
ASC_BOUNDS
1002
{
1070
    19
1005
0
1002
}
  0
LINE
  5
19480
  8
SJC
 10
1460.6132148796351
 20
666.7496368207394
 30
0.0
 11
1705.367681729052
 21
666.7496368207394
 31
0.0
1001
ACAD
1000
ASC_BOUNDS
1002
{
1070
    19
1005
0
1002
}
  0
LINE
  5
19482
  8
SJC
 10
1216.8632148796351
 20
266.7496368207394
 30
0.0
 11
1616.8632148796351
 21
266.7496368207394
 31
0.0
1001
ACAD
1000
ASC_BOUNDS
1002
{
1070
    19
1005
0
1005
0
1005
0
1002
}
  0
LINE
  5
19483
  8
SJC
 10
1189.329179181359
 20
666.7496368207394
 30
0.0
 11
1373.1132148796351
 21
666.7496368207394
 31
0.0
1001
ACAD
1000
ASC_BOUNDS
1002
{
1070
    19
1005
0
1002
}
  0
LINE
  5
19484
  8
SJC
 10
1373.1132148796351
 20
2506.7496368207412
 30
0.0
 11
1460.6132148796351
 21
2506.7496368207412
 31
0.0
  0
LINE
  5
19485
  8
SJC
 10
1616.8632148796351
 20
266.7496368207394
 30
0.0
 11
1616.8632148796351
 21
166.7496368207394
 31
0.0
  0
LINE
  5
19486
  8
SJC
 10
1216.8632148796351
 20
266.7496368207394
 30
0.0
 11
1216.8632148796351
 21
166.7496368207394
 31
0.0
  0
LINE
  5
19487
  8
SJC
 10
1216.8632148796351
 20
166.7496368207394
 30
0.0
 11
1616.8632148796351
 21
166.7496368207394
 31
0.0
  0
ARC
  5
1948E
  8
SJC
 10
1416.8632148796351
 20
2468.8980743207198
 30
0.0
 40
57.851562500013678
 50
40.865657358811269
 51
139.13434264118931
  0
INSERT
  5
1948F
  8
SJC
  2
GL
 10
1621.7644775226031
 20
666.46999820299152
 30
0.0
 41
10.0
 42
10.0
 43
10.0
  0
LINE
  5
19490
  8
SJC
 10
1566.8632148796351
 20
666.7496368207394
 30
0.0
 11
1566.8632148796351
 21
266.7496368207394
 31
0.0
1001
ACAD
1000
ASC_BOUNDS
1002
{
1070
    19
1005
0
1002
}
  0
LINE
  5
19491
  8
SJC
 10
1266.8632148796351
 20
666.7496368207394
 30
0.0
 11
1266.8632148796351
 21
266.7496368207394
 31
0.0
1001
ACAD
1000
ASC_BOUNDS
1002
{
1070
    19
1005
0
1002
}
  0
LINE
  5
19492
  8
HATCH
 10
1266.8632148796351
 20
661.80981424473612
 30
0.0
 11
1271.8030374556381
 21
666.7496368207394
 31
0.0
  0
LINE
  5
19493
  8
HATCH
 10
1266.8632148796351
 20
555.74379706675415
 30
0.0
 11
1372.3132148796351
 21
661.19379706675409
 31
0.0
  0
LINE
  5
19494
  8
HATCH
 10
1266.8632148796351
 20
449.67777988877191
 30
0.0
 11
1373.1132148796351
 21
555.92777988877185
 31
0.0
  0
LINE
  5
19495
  8
HATCH
 10
1461.413214879635
 20
644.2277798887726
 30
0.0
 11
1483.935071811602
 21
666.7496368207394
 31
0.0
  0
LINE
  5
19496
  8
HATCH
 10
1266.8632148796351
 20
343.61176271079012
 30
0.0
 11
1373.1132148796351
 21
449.86176271079012
 31
0.0
  0
LINE
  5
19497
  8
HATCH
 10
1460.6132148796351
 20
537.36176271079046
 30
0.0
 11
1566.8632148796351
 21
643.61176271078955
 31
0.0
  0
LINE
  5
19498
  8
HATCH
 10
1296.0671061675671
 20
266.7496368207394
 30
0.0
 11
1379.3632148796351
 21
350.04574553280781
 31
0.0
  0
LINE
  5
19499
  8
HATCH
 10
1460.6132148796351
 20
431.29574553280781
 30
0.0
 11
1566.8632148796351
 21
537.54574553280781
 31
0.0
  0
LINE
  5
1949A
  8
HATCH
 10
1454.3632148796351
 20
318.97972835482642
 30
0.0
 11
1566.8632148796351
 21
431.47972835482591
 31
0.0
  0
LINE
  5
1949B
  8
HATCH
 10
1508.199140523531
 20
266.7496368207394
 30
0.0
 11
1566.8632148796351
 21
325.41371117684372
 31
0.0
  0
LINE
  5
1949C
  8
HATCH
 10
1266.8632148796351
 20
644.13214474473625
 30
0.0
 11
1289.480706955638
 21
666.7496368207394
 31
0.0
  0
LINE
  5
1949D
  8
HATCH
 10
1266.8632148796351
 20
538.06612756675429
 30
0.0
 11
1372.3132148796351
 21
643.51612756675422
 31
0.0
  0
LINE
  5
1949E
  8
HATCH
 10
1266.8632148796351
 20
432.0001103887725
 30
0.0
 11
1373.1132148796351
 21
538.25011038877165
 31
0.0
  0
LINE
  5
1949F
  8
HATCH
 10
1461.413214879635
 20
626.55011038877217
 30
0.0
 11
1501.6127413116019
 21
666.7496368207394
 31
0.0
  0
LINE
  5
194A0
  8
HATCH
 10
1266.8632148796351
 20
325.93409321079031
 30
0.0
 11
1373.1132148796351
 21
432.1840932107898
 31
0.0
  0
LINE
  5
194A1
  8
HATCH
 10
1460.6132148796351
 20
519.68409321079025
 30
0.0
 11
1566.8632148796351
 21
625.9340932107898
 31
0.0
  0
LINE
  5
194A2
  8
HATCH
 10
1313.744775667566
 20
266.7496368207394
 30
0.0
 11
1379.3632148796351
 21
332.36807603280801
 31
0.0
  0
LINE
  5
194A3
  8
HATCH
 10
1460.6132148796351
 20
413.61807603280789
 30
0.0
 11
1566.8632148796351
 21
519.86807603280795
 31
0.0
  0
LINE
  5
194A4
  8
HATCH
 10
1454.3632148796351
 20
301.30205885482701
 30
0.0
 11
1566.8632148796351
 21
413.80205885482559
 31
0.0
  0
LINE
  5
194A5
  8
HATCH
 10
1525.87681002353
 20
266.7496368207394
 30
0.0
 11
1566.8632148796351
 21
307.7360416768434
 31
0.0
  0
LINE
  5
194A6
  8
HATCH
 10
1266.8632148796351
 20
626.45447514473653
 30
0.0
 11
1307.1583765556379
 21
666.7496368207394
 31
0.0
  0
LINE
  5
194A7
  8
HATCH
 10
1266.8632148796351
 20
520.38845796675469
 30
0.0
 11
1372.3132148796351
 21
625.83845796675405
 31
0.0
  0
LINE
  5
194A8
  8
HATCH
 10
1266.8632148796351
 20
414.32244078877193
 30
0.0
 11
1373.1132148796351
 21
520.57244078877193
 31
0.0
  0
LINE
  5
194A9
  8
HATCH
 10
1461.413214879635
 20
608.872440788772
 30
0.0
 11
1519.2904109116021
 21
666.7496368207394
 31
0.0
  0
LINE
  5
194AA
  8
HATCH
 10
1266.8632148796351
 20
308.25642361079008
 30
0.0
 11
1373.1132148796351
 21
414.50642361079002
 31
0.0
  0
LINE
  5
194AB
  8
HATCH
 10
1460.6132148796351
 20
502.00642361079048
 30
0.0
 11
1566.8632148796351
 21
608.25642361078997
 31
0.0
  0
LINE
  5
194AC
  8
HATCH
 10
1331.422445267566
 20
266.7496368207394
 30
0.0
 11
1379.3632148796351
 21
314.69040643280732
 31
0.0
  0
LINE
  5
194AD
  8
HATCH
 10
1454.3632148796351
 20
389.69040643280817
 30
0.0
 11
1566.8632148796351
 21
502.19040643280778
 31
0.0
  0
LINE
  5
194AE
  8
HATCH
 10
1454.3632148796351
 20
283.62438925482638
 30
0.0
 11
1566.8632148796351
 21
396.12438925482547
 31
0.0
  0
LINE
  5
194AF
  8
HATCH
 10
1543.5544796235311
 20
266.7496368207394
 30
0.0
 11
1566.8632148796351
 21
290.05837207684363
 31
0.0
  0
LINE
  5
194B0
  8
HATCH
 10
1266.8632148796351
 20
608.77680564473656
 30
0.0
 11
1324.836046055638
 21
666.7496368207394
 31
0.0
  0
LINE
  5
194B1
  8
HATCH
 10
1266.8632148796351
 20
502.71078846675431
 30
0.0
 11
1372.3132148796351
 21
608.16078846675407
 31
0.0
  0
LINE
  5
194B2
  8
HATCH
 10
1266.8632148796351
 20
396.64477128877212
 30
0.0
 11
1373.1132148796351
 21
502.89477128877201
 31
0.0
  0
LINE
  5
194B3
  8
HATCH
 10
1461.413214879635
 20
591.19477128877224
 30
0.0
 11
1536.9680804116019
 21
666.7496368207394
 31
0.0
  0
LINE
  5
194B4
  8
HATCH
 10
1266.8632148796351
 20
290.57875411079021
 30
0.0
 11
1379.3632148796351
 21
403.07875411078987
 31
0.0
  0
LINE
  5
194B5
  8
HATCH
 10
1460.6132148796351
 20
484.32875411079021
 30
0.0
 11
1566.8632148796351
 21
590.57875411079021
 31
0.0
  0
LINE
  5
194B6
  8
HATCH
 10
1349.1001147675661
 20
266.7496368207394
 30
0.0
 11
1379.3632148796351
 21
297.01273693280791
 31
0.0
  0
LINE
  5
194B7
  8
HATCH
 10
1454.3632148796351
 20
372.01273693280831
 30
0.0
 11
1566.8632148796351
 21
484.5127369328074
 31
0.0
  0
LINE
  5
194B8
  8
HATCH
 10
1455.1661319455479
 20
266.7496368207394
 30
0.0
 11
1566.8632148796351
 21
378.44671975482561
 31
0.0
  0
LINE
  5
194B9
  8
HATCH
 10
1561.23214912353
 20
266.7496368207394
 30
0.0
 11
1566.8632148796339
 21
272.3807025768433
 31
0.0
  0
LINE
  5
194BA
  8
SJC
 10
1373.1132148796351
 20
2506.7496368207412
 30
0.0
 11
1373.1132148796351
 21
2466.7496368207399
 31
0.0
  0
LINE
  5
194BC
  8
HATCH
 10
1373.1132148796351
 20
2506.7496368207412
 30
0.0
 11
1460.6132148796339
 21
2506.7496368207412
 31
0.0
1001
ACAD
1000
ASC_BOUNDS
1002
{
1070
    19
1005
1BC54
1005
1BC53
1002
}
  0
LINE
  5
194BD
  8
HATCH
 10
1460.6132148796339
 20
2506.7496368207412
 30
0.0
 11
1460.6132148796351
 21
2466.7496368207399
 31
0.0
1001
ACAD
1000
ASC_BOUNDS
1002
{
1070
    19
1005
1BC54
1005
1BC53
1002
}
  0
LINE
  5
194BE
  8
HATCH
 10
1460.6132148796351
 20
2466.7496368207399
 30
0.0
 11
1373.1132148796351
 21
2466.7496368207399
 31
0.0
1001
ACAD
1000
ASC_BOUNDS
1002
{
1070
    19
1005
1BC54
1005
1BC53
1002
}
  0
LINE
  5
194BF
  8
HATCH
 10
1373.1132148796351
 20
2466.7496368207399
 30
0.0
 11
1373.1132148796339
 21
2506.7496368207389
 31
0.0
1001
ACAD
1000
ASC_BOUNDS
1002
{
1070
    19
1005
1BC54
1005
1BC53
1002
}
  0
LINE
  5
194C0
  8
CENTER
 10
1396.8632148796351
 20
516.7496368207394
 30
0.0
 11
1436.8632148796351
 21
516.7496368207394
 31
0.0
  0
LINE
  5
194C1
  8
SJC
 10
1373.1132148796351
 20
406.74963682073928
 30
0.0
 11
1460.6132148796351
 21
406.74963682073928
 31
0.0
  0
LINE
  5
194C4
  8
SJC
 10
1364.3632148796351
 20
2462.249636820974
 30
0.0
 11
1364.3632148796351
 21
1968.749636820751
 31
0.0
  0
LINE
  5
194C5
  8
SJC
 10
1370.363214879799
 20
2044.2496368209329
 30
0.0
 11
1370.363214879799
 21
1974.2496368209181
 31
0.0
  0
LINE
  5
194C6
  8
SJC
 10
1370.363214879688
 20
2461.7496368207471
 30
0.0
 11
1370.363214879688
 21
2391.7496368207339
 31
0.0
  0
LINE
  5
194C7
  8
SJC
 10
1368.3632148796321
 20
2466.7496368207412
 30
0.0
 11
1366.363214879633
 21
2466.7496368207412
 31
0.0
  0
ARC
  5
194C8
  8
SJC
 10
1368.363214879633
 20
2464.7496368207412
 30
0.0
 40
2.0
 50
0.0000000000260551
 51
90.0
  0
ARC
  5
194C9
  8
SJC
 10
1366.363214879633
 20
2464.7496368207412
 30
0.0
 40
2.0
 50
90.0
 51
180.00000000001299
  0
LINE
  5
194CB
  8
SJC
 10
1370.363214879633
 20
2464.749636820743
 30
0.0
 11
1370.363214879744
 21
1958.7496368207001
 31
0.0
  0
LINE
  5
194CD
  8
SJC
 10
1426.8632148803749
 20
2461.7496368207198
 30
0.0
 11
1426.863214880369
 21
2444.6619090622589
 31
0.0
  0
ARC
  5
194CE
  8
SJC
 10
1421.8632148803749
 20
2461.7496368207221
 30
0.0
 40
5.0
 50
359.99999999997402
 51
90.0
  0
LINE
  5
194CF
  8
SJC
 10
1421.863214880377
 20
2466.7496368207248
 30
0.0
 11
1367.3632148803781
 21
2466.7496368207412
 31
0.0
  0
LINE
  5
194D0
  8
CENTER
 10
1416.863214880374
 20
2452.249636820723
 30
0.0
 11
1416.863214880372
 21
2443.249636820723
 31
0.0
  0
LINE
  5
194D1
  8
CENTER
 10
1421.3632148803731
 20
2447.7496368207212
 30
0.0
 11
1412.3632148803731
 21
2447.7496368207239
 31
0.0
  0
CIRCLE
  5
194D3
  8
SJC
 10
1416.8632148803731
 20
2447.749636820723
 30
0.0
 40
4.5
  0
LINE
  5
194D4
  8
SJC
 10
1370.3632148797999
 20
1974.2496368206951
 30
0.0
 11
1370.3632148797999
 21
2044.249636820708
 31
0.0
  0
LINE
  5
194D7
  8
SJC
 10
1364.3632148796351
 20
2464.7496368207412
 30
0.0
 11
1364.3632148796351
 21
1958.7496368207001
 31
0.0
  0
LINE
  5
194D8
  8
SJC
 10
1423.065784744751
 20
2439.8086806809379
 30
0.0
 11
1370.3632148796439
 21
2426.7496368207412
 31
0.0
  0
ARC
  5
194D9
  8
SJC
 10
1421.863214880369
 20
2444.6619090622612
 30
0.0
 40
5.0
 50
283.9168774331053
 51
359.99999999997402
  0
LINE
  5
194DA
  8
SJC
 10
1368.363214879744
 20
1956.7496368206989
 30
0.0
 11
1366.3632148797451
 21
1956.7496368207001
 31
0.0
  0
ARC
  5
194DB
  8
SJC
 10
1368.3632148797451
 20
1958.7496368206989
 30
0.0
 40
2.0
 50
270.0
 51
359.99999999997402
  0
ARC
  5
194DC
  8
SJC
 10
1366.3632148797451
 20
1958.7496368207001
 30
0.0
 40
2.0
 50
179.99999999998701
 51
270.0
  0
LINE
  5
194DE
  8
SJC
 10
1426.863214880487
 20
1961.749636820721
 30
0.0
 11
1426.8632148804811
 21
1978.8373645791819
 31
0.0
  0
ARC
  5
194DF
  8
SJC
 10
1421.863214880487
 20
1961.7496368207189
 30
0.0
 40
5.0
 50
270.0
 51
0.0000000000260551
  0
LINE
  5
194E0
  8
SJC
 10
1421.8632148804891
 20
1956.749636820716
 30
0.0
 11
1367.36321488049
 21
1956.7496368206989
 31
0.0
  0
LINE
  5
194E1
  8
CENTER
 10
1416.8632148804861
 20
1971.249636820718
 30
0.0
 11
1416.8632148804829
 21
1980.2496368207169
 31
0.0
  0
LINE
  5
194E2
  8
CENTER
 10
1421.363214880485
 20
1975.7496368207189
 30
0.0
 11
1412.363214880485
 21
1975.7496368207169
 31
0.0
  0
CIRCLE
  5
194E4
  8
SJC
 10
1416.863214880485
 20
1975.7496368207169
 30
0.0
 40
4.5
  0
LINE
  5
194E7
  8
SJC
 10
1423.0657847448631
 20
1983.690592960503
 30
0.0
 11
1370.363214879756
 21
1996.7496368206989
 31
0.0
  0
ARC
  5
194E8
  8
SJC
 10
1421.8632148804811
 20
1978.8373645791801
 30
0.0
 40
5.0
 50
0.0000000000260551
 51
76.083122566894787
  0
LINE
  5
194ED
  8
SJC
 10
1426.863214880369
 20
2220.8373645790889
 30
0.0
 11
1426.863214880369
 21
2202.6619090621662
 31
0.0
  0
ARC
  5
194EE
  8
SJC
 10
1421.863214880369
 20
2202.661909062168
 30
0.0
 40
5.0
 50
283.9168774331053
 51
359.99999999997402
  0
LINE
  5
194EF
  8
CENTER
 10
1416.863214880374
 20
2216.2496368206298
 30
0.0
 11
1416.863214880372
 21
2207.2496368206298
 31
0.0
  0
LINE
  5
194F0
  8
CENTER
 10
1421.3632148803731
 20
2211.7496368206289
 30
0.0
 11
1412.3632148803731
 21
2211.7496368206312
 31
0.0
  0
CIRCLE
  5
194F2
  8
SJC
 10
1416.8632148803731
 20
2211.7496368206312
 30
0.0
 40
4.5
  0
LINE
  5
194F3
  8
SJC
 10
1423.0657847447501
 20
2197.8086806808442
 30
0.0
 11
1370.3632148796439
 21
2184.7496368206489
 31
0.0
  0
ARC
  5
194F4
  8
SJC
 10
1421.863214880369
 20
2220.8373645790889
 30
0.0
 40
5.0
 50
0.0000000000260551
 51
76.083122566894787
  0
LINE
  5
194F5
  8
SJC
 10
1423.0657847447501
 20
2225.6905929604131
 30
0.0
 11
1370.3632148796439
 21
2238.7496368206089
 31
0.0
  0
CIRCLE
  5
19503
  8
SJC2
 10
1416.8632148796351
 20
516.7496368207394
 30
0.0
 40
4.5
  0
TEXT
  5
195B0
  8
MOJI2
 10
2334.4033863686209
 20
101.4561788148949
 30
0.0
 40
40.0
  1
標示部詳細 S=1/5
 41
0.8
  7
EXT08
 72
     1
 11
2520.0033863686208
 21
101.4561788148949
 31
0.0
 73
     1
  0
LINE
  5
195B1
  8
MOJI2
 10
2331.0651354256261
 20
86.456178814894884
 30
0.0
 11
2730.8320368223722
 21
86.456178814894884
 31
0.0
  0
TEXT
  5
195DF
  8
MOJI
 10
3459.9976583548141
 20
2254.465333444974
 30
0.0
 40
30.0
  1
黒 色
 41
0.8
  7
EXT08
 72
     4
 11
3492.7976583548138
 21
2269.465333444974
 31
0.0
  0
TEXT
  5
195E1
  8
MOJI
 10
2622.014451985955
 20
2013.904731050153
 30
0.0
 40
30.0
  1
固定ビス
 41
0.8
  7
EXT08
 72
     4
 11
2675.6144519859549
 21
2028.904731050153
 31
0.0
  0
TEXT
  5
197B2
  8
SUNPOU
 10
755.97227989972725
 20
1253.297786821257
 30
0.0
 40
30.0
  1
ポリエチレン樹脂＋ガラス繊維
 41
0.8
  7
EXT08
  0
TEXT
  5
197B5
  8
SUNPOU
 10
755.97227989972725
 20
1293.883670570227
 30
0.0
 40
30.0
  1
支柱（\U+03c689\U+00d7ｔ6）
 41
0.8
  7
EXT08
  0
INSERT
  5
197E7
  8
0
  2
*U32
 10
0.0
 20
0.0
 30
0.0
1001
ACAD
1000
DSTYLE
1002
{
1070
   140
1040
30.0
1070
   144
1040
0.5
1070
   147
1040
15.0
1070
    42
1040
10.0
1070
    44
1040
10.0
1070
    43
1040
60.0
1070
    41
1040
20.0
1002
}
  0
LINE
  5
197EB
  8
SUNPOU
 10
753.49609912365031
 20
1288.1256500781151
 30
0.0
 11
1154.0854528668019
 21
1288.1256500781151
 31
0.0
1001
ACAD
1000
DSTYLE
1002
{
1070
    77
1070
     0
1070
    40
1040
10.0
1070
   147
1040
1.1999999999999991
1070
   176
1070
     0
1070
   177
1070
     0
1070
   178
1070
     0
1070
   179
1070
     2
1070
   271
1070
     2
1002
}
  0
TEXT
  5
197EC
  8
SUNPOU
 10
1530.993403573935
 20
2562.0589005416182
 30
0.0
 40
30.0
  1
ポリエチレン樹脂
 41
0.8
  7
EXT08
  0
LINE
  5
197ED
  8
SUNPOU
 10
1528.517222797858
 20
2596.8867637984758
 30
0.0
 11
1760.098339394586
 21
2596.8867637984758
 31
0.0
1001
ACAD
1000
DSTYLE
1002
{
1070
    77
1070
     0
1070
    40
1040
10.0
1070
   147
1040
1.1999999999999991
1070
   176
1070
     0
1070
   177
1070
     0
1070
   178
1070
     0
1070
   179
1070
     2
1070
   271
1070
     2
1002
}
  0
TEXT
  5
197EE
  8
SUNPOU
 10
1530.993403573935
 20
2602.6447842905882
 30
0.0
 40
30.0
  1
キャップ
 41
0.8
  7
EXT08
  0
TEXT
  5
197F9
  8
SUNPOU
 10
876.92568736878195
 20
2270.0945294958792
 30
0.0
 40
30.0
  1
ＣＲゴム
 41
0.8
  7
EXT08
  0
LINE
  5
197FA
  8
SUNPOU
 10
874.44950659270489
 20
2304.9223927527378
 30
0.0
 11
1134.6133247152191
 21
2304.9223927527378
 31
0.0
1001
ACAD
1000
DSTYLE
1002
{
1070
    77
1070
     0
1070
    40
1040
10.0
1070
   147
1040
1.1999999999999991
1070
   176
1070
     0
1070
   177
1070
     0
1070
   178
1070
     0
1070
   179
1070
     2
1070
   271
1070
     2
1002
}
  0
TEXT
  5
197FB
  8
SUNPOU
 10
876.92568736878195
 20
2310.6804132448492
 30
0.0
 40
30.0
  1
弾性サイン板（大）
 41
0.8
  7
EXT08
  0
INSERT
  5
197FC
  8
0
  2
*U33
 10
0.0
 20
0.0
 30
0.0
1001
ACAD
1000
DSTYLE
1002
{
1070
   140
1040
30.0
1070
   144
1040
0.5
1070
   147
1040
15.0
1070
    42
1040
10.0
1070
    44
1040
10.0
1070
    43
1040
60.0
1070
    41
1040
20.0
1002
}
  0
TEXT
  5
197FD
  8
SUNPOU
 10
1519.4184191331551
 20
2384.6404494553649
 30
0.0
 40
30.0
  1
カプセルレンズ型反射シート
 41
0.8
  7
EXT08
  0
LINE
  5
197FE
  8
SUNPOU
 10
1516.9422383570779
 20
2419.4683127122221
 30
0.0
 11
1895.2337408014171
 21
2419.4683127122221
 31
0.0
1001
ACAD
1000
DSTYLE
1002
{
1070
    77
1070
     0
1070
    40
1040
10.0
1070
   147
1040
1.1999999999999991
1070
   176
1070
     0
1070
   177
1070
     0
1070
   178
1070
     0
1070
   179
1070
     2
1070
   271
1070
     2
1002
}
  0
TEXT
  5
197FF
  8
SUNPOU
 10
1519.4184191331551
 20
2425.226333204334
 30
0.0
 40
30.0
  1
反射材
 41
0.8
  7
EXT08
  0
TEXT
  5
19888
  8
SUNPOU
 10
755.97227989972725
 20
803.48407039089705
 30
0.0
 40
30.0
  1
A6063S-T5
 41
0.8
  7
EXT08
  0
LINE
  5
19889
  8
SUNPOU
 10
753.49609912365031
 20
838.31193364775515
 30
0.0
 11
1016.369036365264
 21
838.31193364775515
 31
0.0
1001
ACAD
1000
DSTYLE
1002
{
1070
    77
1070
     0
1070
    40
1040
10.0
1070
   147
1040
1.1999999999999991
1070
   176
1070
     0
1070
   177
1070
     0
1070
   178
1070
     0
1070
   179
1070
     2
1070
   271
1070
     2
1002
}
  0
TEXT
  5
1988A
  8
SUNPOU
 10
755.97227989972725
 20
844.06995413986658
 30
0.0
 40
30.0
  1
芯材（\U+03c675\U+00d7ｔ2）
 41
0.8
  7
EXT08
  0
INSERT
  5
1988B
  8
0
  2
*U34
 10
0.0
 20
0.0
 30
0.0
1001
ACAD
1000
DSTYLE
1002
{
1070
   140
1040
30.0
1070
   144
1040
0.5
1070
   147
1040
15.0
1070
    42
1040
10.0
1070
    44
1040
10.0
1070
    43
1040
60.0
1070
    41
1040
20.0
1002
}
  0
LINE
  5
1988E
  8
HASEN
 10
725.14738174554077
 20
1966.7496368207389
 30
0.0
 11
725.14738174554066
 21
406.74963682073928
 31
0.0
  0
LINE
  5
1988F
  8
HASEN
 10
650.14738174554077
 20
1966.7496368207389
 30
0.0
 11
650.14738174554077
 21
406.74963682073928
 31
0.0
  0
LINE
  5
1989A
  8
HASEN
 10
1379.3632148796351
 20
1966.7496368207389
 30
0.0
 11
1379.3632148796351
 21
406.74963682073928
 31
0.0
  0
LINE
  5
1989B
  8
HASEN
 10
1454.3632148796351
 20
1966.7496368207389
 30
0.0
 11
1454.3632148796351
 21
406.74963682073928
 31
0.0
  0
LINE
  5
1989C
  8
HASEN
 10
1379.3632148796351
 20
1966.7496368207389
 30
0.0
 11
1454.3632148796351
 21
1966.749636820738
 31
0.0
  0
CIRCLE
  5
19901
  8
SJC
 10
1416.8632148796351
 20
2447.749636820723
 30
0.0
 40
4.0
  0
LINE
  5
19902
  8
SJC2
 10
1416.4376829647399
 20
2450.7283602249781
 30
0.0
 11
1417.2887467945279
 21
2450.7283602249781
 31
0.0
  0
LINE
  5
19903
  8
SJC2
 10
1419.8419382838899
 20
2448.1751687356168
 30
0.0
 11
1419.8419382838899
 21
2447.3241049058288
 31
0.0
  0
LINE
  5
19904
  8
SJC2
 10
1413.884491475379
 20
2448.1751687356168
 30
0.0
 11
1413.884491475379
 21
2447.3241049058288
 31
0.0
  0
LINE
  5
19905
  8
SJC2
 10
1416.4376829647399
 20
2444.7709134164679
 30
0.0
 11
1417.2887467945279
 21
2444.7709134164679
 31
0.0
  0
ARC
  5
19906
  8
SJC2
 10
1419.8419382838899
 20
2444.7709134164679
 30
0.0
 40
2.5531914893616769
 50
90.0
 51
180.0
  0
ARC
  5
19907
  8
SJC2
 10
1413.884491475379
 20
2444.7709134164679
 30
0.0
 40
2.5531914893616769
 50
0.0
 51
90.0
  0
ARC
  5
19908
  8
SJC2
 10
1419.8419382838899
 20
2450.7283602249781
 30
0.0
 40
2.5531914893616769
 50
180.0
 51
270.0
  0
ARC
  5
19909
  8
SJC2
 10
1413.884491475379
 20
2450.7283602249781
 30
0.0
 40
2.5531914893616769
 50
270.0
 51
0.0
  0
CIRCLE
  5
1990A
  8
SJC
 10
1416.8632148788961
 20
2211.7496368206312
 30
0.0
 40
4.0
  0
LINE
  5
1990B
  8
SJC2
 10
1416.4376829640021
 20
2214.7283602248849
 30
0.0
 11
1417.2887467937901
 21
2214.7283602248849
 31
0.0
  0
LINE
  5
1990C
  8
SJC2
 10
1419.841938283151
 20
2212.175168735524
 30
0.0
 11
1419.841938283151
 21
2211.324104905736
 31
0.0
  0
LINE
  5
1990D
  8
SJC2
 10
1413.8844914746401
 20
2212.175168735524
 30
0.0
 11
1413.8844914746401
 21
2211.324104905736
 31
0.0
  0
LINE
  5
1990E
  8
SJC2
 10
1416.4376829640021
 20
2208.7709134163752
 30
0.0
 11
1417.2887467937901
 21
2208.7709134163752
 31
0.0
  0
ARC
  5
1990F
  8
SJC2
 10
1419.841938283151
 20
2208.7709134163752
 30
0.0
 40
2.5531914893616769
 50
90.0
 51
180.0
  0
ARC
  5
19910
  8
SJC2
 10
1413.8844914746401
 20
2208.7709134163752
 30
0.0
 40
2.5531914893616769
 50
0.0
 51
90.0
  0
ARC
  5
19911
  8
SJC2
 10
1419.841938283151
 20
2214.7283602248849
 30
0.0
 40
2.5531914893616769
 50
180.0
 51
270.0
  0
ARC
  5
19912
  8
SJC2
 10
1413.8844914746401
 20
2214.7283602248849
 30
0.0
 40
2.5531914893616769
 50
270.0
 51
0.0
  0
CIRCLE
  5
19913
  8
SJC
 10
1416.8632148788961
 20
1975.7496368207169
 30
0.0
 40
4.0
  0
LINE
  5
19914
  8
SJC2
 10
1416.4376829640021
 20
1978.728360224972
 30
0.0
 11
1417.2887467937901
 21
1978.728360224972
 31
0.0
  0
LINE
  5
19915
  8
SJC2
 10
1419.841938283151
 20
1976.1751687356109
 30
0.0
 11
1419.841938283151
 21
1975.3241049058231
 31
0.0
  0
LINE
  5
19916
  8
SJC2
 10
1413.8844914746401
 20
1976.1751687356109
 30
0.0
 11
1413.8844914746401
 21
1975.3241049058231
 31
0.0
  0
LINE
  5
19917
  8
SJC2
 10
1416.4376829640021
 20
1972.770913416462
 30
0.0
 11
1417.2887467937901
 21
1972.770913416462
 31
0.0
  0
ARC
  5
19918
  8
SJC2
 10
1419.841938283151
 20
1972.770913416462
 30
0.0
 40
2.5531914893616769
 50
90.0
 51
180.0
  0
ARC
  5
19919
  8
SJC2
 10
1413.8844914746401
 20
1972.770913416462
 30
0.0
 40
2.5531914893616769
 50
0.0
 51
90.0
  0
ARC
  5
1991A
  8
SJC2
 10
1419.841938283151
 20
1978.728360224972
 30
0.0
 40
2.5531914893616769
 50
180.0
 51
270.0
  0
ARC
  5
1991B
  8
SJC2
 10
1413.8844914746401
 20
1978.728360224972
 30
0.0
 40
2.5531914893616769
 50
270.0
 51
0.0
  0
DIMENSION
  5
19E02
  8
SUNPOU
  2
*D13
 10
1460.613214879631
 20
2567.7377903158081
 30
0.0
 11
1416.8632148796321
 21
2597.4223167549671
 31
0.0
 70
   128
  1
φ89
 13
1373.113214879633
 23
2506.7496368207421
 33
0.0
 14
1460.613214879631
 24
2506.7496368207439
 34
0.0
1001
ACAD
1000
DSTYLE
1002
{
1070
   287
1070
     5
1070
    40
1040
10.0
1070
    41
1040
2.0
1070
    42
1040
1.0
1070
    43
1040
6.0
1070
    44
1040
1.0
1070
    73
1070
     0
1070
    74
1070
     0
1070
    77
1070
     1
1070
    78
1070
     8
1070
   140
1040
3.0
1070
   147
1040
1.1999999999999991
1070
   172
1070
     1
1070
   179
1070
     2
1070
   271
1070
     2
1070
   279
1070
     2
1070
   340
1005
55
1002
}
  0
INSERT
  5
19E4B
  8
0
  2
*U35
 10
0.0
 20
0.0
 30
0.0
1001
ACAD
1000
DSTYLE
1002
{
1070
   140
1040
30.0
1070
   144
1040
0.5
1070
   147
1040
15.0
1070
    42
1040
10.0
1070
    44
1040
10.0
1070
    43
1040
60.0
1070
    41
1040
20.0
1002
}
  0
LINE
  5
19E4C
  8
SUNPOU
 10
438.226686468678
 20
765.6426160551282
 30
0.0
 11
556.89700559416815
 21
765.6426160551282
 31
0.0
1001
ACAD
1000
DSTYLE
1002
{
1070
    77
1070
     0
1070
    40
1040
10.0
1070
   147
1040
1.1999999999999991
1070
   176
1070
     0
1070
   177
1070
     0
1070
   178
1070
     0
1070
   179
1070
     2
1070
   271
1070
     2
1002
}
  0
TEXT
  5
19E4D
  8
SUNPOU
 10
440.702867244755
 20
771.40063654723963
 30
0.0
 40
30.0
  1
ネカセ棒
 41
0.8
  7
EXT08
  0
DIMENSION
  5
1A7E3
  8
SUNPOU
  2
*D14
 10
233.93867437074741
 20
2526.7496368207339
 30
0.0
 11
206.9386743707469
 21
1596.749636820736
 31
0.0
 70
     0
 13
460.11334604726471
 23
666.7496368207394
 33
0.0
 14
687.64738174554077
 24
2526.7496368207339
 34
0.0
 50
90.0
1001
ACAD
1000
DSTYLE
1002
{
1070
   287
1070
     5
1070
    40
1040
10.0
1070
    41
1040
2.0
1070
    42
1040
1.0
1070
    43
1040
6.0
1070
    44
1040
1.0
1070
    73
1070
     0
1070
    74
1070
     0
1070
    77
1070
     1
1070
    78
1070
     8
1070
   140
1040
3.0
1070
   147
1040
1.1999999999999991
1070
   172
1070
     1
1070
   179
1070
     2
1070
   271
1070
     2
1070
   279
1070
     2
1070
   340
1005
55
1002
}
  0
LINE
  5
1A821
  8
HATCH
 10
750.64059495549009
 20
521.2496368207394
 30
0.0
 11
837.64738174554066
 21
608.25642361078997
 31
0.0
  0
LINE
  5
1A822
  8
HATCH
 10
758.31826445548995
 20
511.2496368207394
 30
0.0
 11
759.31826445548995
 21
512.24963682073917
 31
0.0
  0
LINE
  5
1A823
  8
HATCH
 10
626.89690817750864
 20
521.24963682073974
 30
0.0
 11
643.89738174554077
 21
538.25011038877165
 31
0.0
  0
LINE
  5
1A9C2
  8
SJC
 10
1400.3632148795421
 20
2434.1832651391951
 30
0.0
 11
1400.363214879633
 21
2231.3160085021332
 31
0.0
  0
LINE
  5
1A9C3
  8
SJC
 10
1400.3632148796371
 20
2192.183265139126
 30
0.0
 11
1400.3632148797319
 21
1989.3160085022259
 31
0.0
  0
DIMENSION
  5
1AAC4
  8
SUNPOU
  2
*D15
 10
233.93867437074709
 20
266.74963682073951
 30
0.0
 11
206.93867437074701
 21
216.74963682073951
 31
0.0
 70
     0
 13
487.64738174554083
 23
166.7496368207394
 33
0.0
 14
477.64738174554049
 24
266.7496368207394
 34
0.0
 50
90.0
1001
ACAD
1000
DSTYLE
1002
{
1070
   287
1070
     5
1070
    40
1040
10.0
1070
    41
1040
2.0
1070
    42
1040
1.0
1070
    43
1040
6.0
1070
    44
1040
1.0
1070
    73
1070
     0
1070
    74
1070
     0
1070
    77
1070
     1
1070
    78
1070
     8
1070
   140
1040
3.0
1070
   147
1040
1.1999999999999991
1070
   172
1070
     1
1070
   179
1070
     2
1070
   271
1070
     2
1070
   279
1070
     2
1070
   340
1005
55
1002
}
  0
DIMENSION
  5
1AAD3
  8
SUNPOU
  2
*D16
 10
487.64738174554083
 20
63.211198488116679
 30
0.0
 11
687.64738174554077
 21
90.211198488116679
 31
0.0
 70
     0
  1
□400
 13
887.64738174554066
 23
166.7496368207394
 33
0.0
 14
487.64738174554083
 24
166.7496368207394
 34
0.0
1001
ACAD
1000
DSTYLE
1002
{
1070
   287
1070
     5
1070
    40
1040
10.0
1070
    41
1040
2.0
1070
    42
1040
1.0
1070
    43
1040
6.0
1070
    44
1040
1.0
1070
    73
1070
     0
1070
    74
1070
     0
1070
    77
1070
     1
1070
    78
1070
     8
1070
   140
1040
3.0
1070
   147
1040
1.1999999999999991
1070
   172
1070
     1
1070
   179
1070
     2
1070
   271
1070
     2
1070
   279
1070
     2
1070
   340
1005
55
1002
}
  0
LINE
  5
1ABA3
  8
SJC
 10
755.64738174554157
 20
1956.7496368207389
 30
0.0
 11
687.64738174554077
 21
1956.7496368207389
 31
0.0
  0
LINE
  5
1ABA4
  8
SJC
 10
687.64738174554077
 20
1956.7496368207389
 30
0.0
 11
619.64738174554168
 21
1956.7496368207389
 31
0.0
  0
LINE
  5
1ABA5
  8
SJC
 10
619.64738174553975
 20
1951.749636820738
 30
0.0
 11
755.6473817455435
 21
1951.7496368207389
 31
0.0
  0
LINE
  5
1ABA6
  8
SJC
 10
619.64738174554168
 20
1651.7496368207389
 30
0.0
 11
755.64738174554157
 21
1651.7496368207389
 31
0.0
  0
LINE
  5
1ABA7
  8
SJC
 10
612.64738174553975
 20
1944.7496368207389
 30
0.0
 11
612.64738174554145
 21
1658.7496368207389
 31
0.0
  0
LINE
  5
1ABA8
  8
SJC
 10
762.64738174554338
 20
1944.7496368207389
 30
0.0
 11
762.64738174554157
 21
1658.7496368207389
 31
0.0
  0
LINE
  5
1ABA9
  8
SJC
 10
607.64738174553975
 20
1944.7496368207389
 30
0.0
 11
607.64738174554077
 21
1658.7496368207389
 31
0.0
  0
ARC
  5
1ABAA
  8
SJC
 10
619.64738174553975
 20
1944.7496368207389
 30
0.0
 40
12.0
 50
90.0
 51
180.0
  0
ARC
  5
1ABAB
  8
SJC
 10
619.64738174553975
 20
1944.7496368207389
 30
0.0
 40
7.0
 50
90.0
 51
180.0
  0
LINE
  5
1ABAC
  8
SJC
 10
767.6473817455435
 20
1944.7496368207389
 30
0.0
 11
767.64738174554225
 21
1658.7496368207389
 31
0.0
  0
ARC
  5
1ABAD
  8
SJC
 10
755.64738174554157
 20
1658.7496368207389
 30
0.0
 40
12.0
 50
270.0
 51
0.0
  0
ARC
  5
1ABAE
  8
SJC
 10
755.64738174554157
 20
1658.7496368207389
 30
0.0
 40
7.0
 50
270.0
 51
0.0
  0
ARC
  5
1ABAF
  8
SJC
 10
755.6473817455435
 20
1944.7496368207389
 30
0.0
 40
12.0
 50
0.0
 51
90.0
  0
ARC
  5
1ABB0
  8
SJC
 10
755.6473817455435
 20
1944.7496368207389
 30
0.0
 40
7.0
 50
0.0
 51
90.0
  0
ARC
  5
1ABB1
  8
SJC
 10
619.64738174554168
 20
1658.7496368207389
 30
0.0
 40
12.0
 50
180.0
 51
270.0
  0
ARC
  5
1ABB2
  8
SJC
 10
619.64738174554168
 20
1658.7496368207389
 30
0.0
 40
7.0
 50
180.0
 51
270.0
  0
LINE
  5
1ABB4
  8
SJC
 10
755.64738174554157
 20
1646.7496368207389
 30
0.0
 11
619.64738174554168
 21
1646.7496368207389
 31
0.0
  0
DIMENSION
  5
1ABB5
  8
SUNPOU
  2
*D17
 10
533.71736719745945
 20
1646.7496368207389
 30
0.0
 11
506.71736719745923
 21
1801.7496368207401
 31
0.0
 70
     0
 13
619.64738174553963
 23
1956.7496368207389
 33
0.0
 14
619.64738174554145
 24
1646.7496368207389
 34
0.0
 50
90.0
1001
ACAD
1000
DSTYLE
1002
{
1070
   287
1070
     5
1070
    40
1040
10.0
1070
    41
1040
2.0
1070
    42
1040
1.0
1070
    43
1040
6.0
1070
    44
1040
1.0
1070
    73
1070
     0
1070
    74
1070
     0
1070
    77
1070
     1
1070
    78
1070
     8
1070
   140
1040
3.0
1070
   147
1040
1.1999999999999991
1070
   172
1070
     1
1070
   179
1070
     2
1070
   271
1070
     2
1070
   279
1070
     2
1070
   340
1005
55
1002
}
  0
LINE
  5
1AC91
  8
SJC
 10
1370.3632148799111
 20
1844.249636820879
 30
0.0
 11
1370.3632148799111
 21
1774.2496368208649
 31
0.0
  0
LINE
  5
1AC92
  8
SJC
 10
1370.363214879912
 20
1774.2496368206409
 30
0.0
 11
1370.363214879912
 21
1844.2496368206539
 31
0.0
  0
LINE
  5
1AC93
  8
SJC
 10
1368.3632148798561
 20
1956.7496368206689
 30
0.0
 11
1366.3632148797451
 21
1956.74963682067
 31
0.0
  0
LINE
  5
1AC96
  8
SJC
 10
1421.8632148806009
 20
1956.7496368206871
 30
0.0
 11
1367.3632148806021
 21
1956.7496368206689
 31
0.0
  0
ARC
  5
1AC99
  8
SJC
 10
1368.3632148797451
 20
1954.7496368207001
 30
0.0
 40
2.0
 50
0.0000000000260551
 51
90.0
  0
ARC
  5
1AC9A
  8
SJC
 10
1366.3632148797451
 20
1954.7496368207001
 30
0.0
 40
2.0
 50
90.0
 51
180.00000000001299
  0
LINE
  5
1AC9C
  8
SJC
 10
1370.3632148797451
 20
1954.7496368207021
 30
0.0
 11
1370.3632148798119
 21
1648.749636820683
 31
0.0
  0
LINE
  5
1AC9D
  8
SJC
 10
1426.863214880487
 20
1951.749636820678
 30
0.0
 11
1426.8632148804811
 21
1934.661909062218
 31
0.0
  0
ARC
  5
1AC9E
  8
SJC
 10
1421.863214880487
 20
1951.7496368206801
 30
0.0
 40
5.0
 50
359.99999999997402
 51
90.0
  0
LINE
  5
1ACA0
  8
CENTER
 10
1416.8632148804861
 20
1942.2496368206821
 30
0.0
 11
1416.8632148804829
 21
1933.2496368206821
 31
0.0
  0
LINE
  5
1ACA1
  8
CENTER
 10
1421.363214880485
 20
1937.7496368206801
 30
0.0
 11
1412.363214880485
 21
1937.749636820683
 31
0.0
  0
CIRCLE
  5
1ACA2
  8
SJC
 10
1416.863214880485
 20
1937.7496368206821
 30
0.0
 40
4.5
  0
LINE
  5
1ACA3
  8
SJC
 10
1364.3632148797469
 20
1954.7496368207001
 30
0.0
 11
1364.3632148797469
 21
1648.749636820683
 31
0.0
  0
LINE
  5
1ACA4
  8
SJC
 10
1423.0657847448631
 20
1929.8086806808969
 30
0.0
 11
1370.363214879756
 21
1916.7496368207001
 31
0.0
  0
ARC
  5
1ACA5
  8
SJC
 10
1421.8632148804811
 20
1934.66190906222
 30
0.0
 40
5.0
 50
283.9168774331053
 51
359.99999999997402
  0
LINE
  5
1ACA6
  8
SJC
 10
1368.3632148798561
 20
1646.749636820683
 30
0.0
 11
1366.363214879857
 21
1646.749636820683
 31
0.0
  0
ARC
  5
1ACA7
  8
SJC
 10
1368.363214879857
 20
1648.749636820683
 30
0.0
 40
2.0
 50
270.0
 51
359.99999999997402
  0
ARC
  5
1ACA8
  8
SJC
 10
1366.363214879857
 20
1648.749636820683
 30
0.0
 40
2.0
 50
179.99999999998701
 51
270.0
  0
LINE
  5
1ACA9
  8
SJC
 10
1364.363214879857
 20
1648.7496368206839
 30
0.0
 11
1364.363214879859
 21
1651.2496368206839
 31
0.0
  0
LINE
  5
1ACAA
  8
SJC
 10
1426.8632148805989
 20
1651.7496368207039
 30
0.0
 11
1426.863214880593
 21
1668.8373645791651
 31
0.0
  0
ARC
  5
1ACAB
  8
SJC
 10
1421.8632148805989
 20
1651.7496368207021
 30
0.0
 40
5.0
 50
270.0
 51
0.0000000000260551
  0
LINE
  5
1ACAC
  8
SJC
 10
1421.8632148806009
 20
1646.7496368207001
 30
0.0
 11
1367.3632148806021
 21
1646.749636820683
 31
0.0
  0
LINE
  5
1ACAD
  8
CENTER
 10
1416.863214880598
 20
1661.2496368207001
 30
0.0
 11
1416.863214880595
 21
1670.249636820701
 31
0.0
  0
LINE
  5
1ACAE
  8
CENTER
 10
1421.3632148805971
 20
1665.7496368207021
 30
0.0
 11
1412.3632148805971
 21
1665.7496368207001
 31
0.0
  0
CIRCLE
  5
1ACAF
  8
SJC
 10
1416.8632148805971
 20
1665.7496368207001
 30
0.0
 40
4.5
  0
LINE
  5
1ACB0
  8
SJC
 10
1423.065784744975
 20
1673.6905929604859
 30
0.0
 11
1370.3632148798681
 21
1686.7496368206821
 31
0.0
  0
ARC
  5
1ACB1
  8
SJC
 10
1421.8632148805921
 20
1668.837364579163
 30
0.0
 40
5.0
 50
0.0000000000260551
 51
76.083122566894787
  0
LINE
  5
1ACB2
  8
SJC
 10
1400.3632148796539
 20
1924.1832651391539
 30
0.0
 11
1400.3632148797669
 21
1679.316008502228
 31
0.0
  0
CIRCLE
  5
1ACB3
  8
SJC
 10
1416.863214879746
 20
1937.7496368206821
 30
0.0
 40
4.0
  0
LINE
  5
1ACB4
  8
SJC2
 10
1416.437682964852
 20
1940.728360224937
 30
0.0
 11
1417.28874679464
 21
1940.728360224937
 31
0.0
  0
LINE
  5
1ACB5
  8
SJC2
 10
1419.841938284002
 20
1938.175168735575
 30
0.0
 11
1419.841938284002
 21
1937.3241049057881
 31
0.0
  0
LINE
  5
1ACB6
  8
SJC2
 10
1413.8844914754909
 20
1938.175168735575
 30
0.0
 11
1413.8844914754909
 21
1937.3241049057881
 31
0.0
  0
LINE
  5
1ACB7
  8
SJC2
 10
1416.437682964852
 20
1934.770913416427
 30
0.0
 11
1417.28874679464
 21
1934.770913416427
 31
0.0
  0
ARC
  5
1ACB8
  8
SJC2
 10
1419.841938284002
 20
1934.770913416427
 30
0.0
 40
2.5531914893616769
 50
90.0
 51
180.0
  0
ARC
  5
1ACB9
  8
SJC2
 10
1413.8844914754909
 20
1934.770913416427
 30
0.0
 40
2.5531914893616769
 50
0.0
 51
90.0
  0
ARC
  5
1ACBA
  8
SJC2
 10
1419.841938284002
 20
1940.728360224937
 30
0.0
 40
2.5531914893616769
 50
180.0
 51
270.0
  0
ARC
  5
1ACBB
  8
SJC2
 10
1413.8844914754909
 20
1940.728360224937
 30
0.0
 40
2.5531914893616769
 50
270.0
 51
0.0
  0
CIRCLE
  5
1ACBC
  8
SJC
 10
1416.863214879008
 20
1665.7496368207001
 30
0.0
 40
4.0
  0
LINE
  5
1ACBD
  8
SJC2
 10
1416.4376829641139
 20
1668.7283602249561
 30
0.0
 11
1417.288746793902
 21
1668.7283602249561
 31
0.0
  0
LINE
  5
1ACBE
  8
SJC2
 10
1419.8419382832631
 20
1666.1751687355941
 30
0.0
 11
1419.8419382832631
 21
1665.3241049058061
 31
0.0
  0
LINE
  5
1ACBF
  8
SJC2
 10
1413.8844914747519
 20
1666.1751687355941
 30
0.0
 11
1413.8844914747519
 21
1665.3241049058061
 31
0.0
  0
LINE
  5
1ACC0
  8
SJC2
 10
1416.4376829641139
 20
1662.770913416445
 30
0.0
 11
1417.288746793902
 21
1662.770913416445
 31
0.0
  0
ARC
  5
1ACC1
  8
SJC2
 10
1419.8419382832631
 20
1662.770913416445
 30
0.0
 40
2.5531914893616769
 50
90.0
 51
180.0
  0
ARC
  5
1ACC2
  8
SJC2
 10
1413.8844914747519
 20
1662.770913416445
 30
0.0
 40
2.5531914893616769
 50
0.0
 51
90.0
  0
ARC
  5
1ACC3
  8
SJC2
 10
1419.8419382832631
 20
1668.7283602249561
 30
0.0
 40
2.5531914893616769
 50
180.0
 51
270.0
  0
ARC
  5
1ACC4
  8
SJC2
 10
1413.8844914747519
 20
1668.7283602249561
 30
0.0
 40
2.5531914893616769
 50
270.0
 51
0.0
  0
LINE
  5
1AE6F
  8
CENTER
 10
2129.8293558282348
 20
1998.5071785487919
 30
0.0
 11
2129.8293558282348
 21
78.50717854880395
 31
0.0
  0
LINE
  5
1AE70
  8
SUNPOU
 10
2159.8293558282348
 20
108.5071785488048
 30
0.0
 11
2159.8293558282348
 21
78.50717854880395
 31
0.0
  0
LINE
  5
1AE71
  8
SUNPOU
 10
2099.8293558282348
 20
138.50717854880389
 30
0.0
 11
2099.8293558282348
 21
108.5071785488048
 31
0.0
  0
LINE
  5
1AE76
  8
SJC
 10
2217.3293558282348
 20
218.50717854880349
 30
0.0
 11
2217.3293558282348
 21
108.5071785488053
 31
0.0
1001
ACAD
1000
ASC_BOUNDS
1002
{
1070
    19
1005
0
1002
}
  0
LINE
  5
1AE77
  8
SJC
 10
2042.3293558282351
 20
218.50717854880349
 30
0.0
 11
2042.3293558282351
 21
108.50717854880349
 31
0.0
1001
ACAD
1000
ASC_BOUNDS
1002
{
1070
    19
1005
0
1002
}
  0
LINE
  5
1AE78
  8
SJC
 10
2042.3293558282351
 20
1938.507178548806
 30
0.0
 11
2217.3293558282348
 21
1938.507178548806
 31
0.0
  0
ARC
  5
1AE79
  8
SJC
 10
2129.8293558282348
 20
1862.8040535487651
 30
0.0
 40
115.7031250000273
 50
40.865657358807582
 51
139.1343426411924
  0
LINE
  5
1AE7A
  8
SJC
 10
1993.829355828233
 20
1848.507178548803
 30
0.0
 11
2265.8293558282398
 21
1848.5071785488051
 31
0.0
  0
LINE
  5
1AE7B
  8
SJC
 10
2042.3293558282351
 20
1938.507178548806
 30
0.0
 11
2042.3293558282351
 21
1858.5071785488051
 31
0.0
  0
LINE
  5
1AE7C
  8
SJC
 10
2217.3293558282348
 20
1938.507178548806
 30
0.0
 11
2217.3293558282348
 21
1858.5071785488039
 31
0.0
  0
LINE
  5
1AE7E
  8
HATCH
 10
2042.3293558282351
 20
1938.507178548806
 30
0.0
 11
2217.3293558282348
 21
1938.507178548806
 31
0.0
  0
LINE
  5
1AE7F
  8
HATCH
 10
2217.3293558282348
 20
1938.507178548806
 30
0.0
 11
2217.3293558282348
 21
1858.5071785488051
 31
0.0
  0
LINE
  5
1AE80
  8
HATCH
 10
2217.3293558282348
 20
1858.5071785488051
 30
0.0
 11
2042.3293558282351
 21
1858.5071785488051
 31
0.0
  0
LINE
  5
1AE81
  8
HATCH
 10
2042.3293558282351
 20
1858.5071785488051
 30
0.0
 11
2042.329355828233
 21
1938.5071785488051
 31
0.0
  0
LINE
  5
1AE82
  8
SJC
 10
1993.8293558282351
 20
228.5071785488044
 30
0.0
 11
2265.8293558282348
 21
228.50717854880489
 31
0.0
  0
LINE
  5
1AE83
  8
SJC
 10
1979.829355828233
 20
1834.5071785488051
 30
0.0
 11
1979.829355828238
 21
862.50717854880531
 31
0.0
  0
LINE
  5
1AE84
  8
SJC
 10
2279.8293558282421
 20
1834.5071785488051
 30
0.0
 11
2279.8293558282348
 21
862.50717854880577
 31
0.0
  0
LINE
  5
1AE86
  8
SJC
 10
1969.829355828233
 20
1834.5071785488051
 30
0.0
 11
1969.829355828236
 21
862.50717854880475
 31
0.0
  0
ARC
  5
1AE87
  8
SJC
 10
1993.829355828233
 20
1834.5071785488051
 30
0.0
 40
24.0
 50
90.0
 51
180.0
  0
ARC
  5
1AE88
  8
SJC
 10
1993.829355828233
 20
1834.5071785488051
 30
0.0
 40
14.0
 50
90.0
 51
180.0
  0
LINE
  5
1AE89
  8
SJC
 10
2289.8293558282398
 20
1834.5071785488051
 30
0.0
 11
2289.8293558282371
 21
862.50717854880531
 31
0.0
  0
ARC
  5
1AE8A
  8
SJC
 10
2265.8293558282348
 20
242.50717854880489
 30
0.0
 40
24.0
 50
270.0
 51
0.0
  0
ARC
  5
1AE8B
  8
SJC
 10
2265.8293558282348
 20
242.50717854880489
 30
0.0
 40
14.0
 50
270.0
 51
0.0
  0
ARC
  5
1AE8C
  8
SJC
 10
2265.8293558282398
 20
1834.5071785488051
 30
0.0
 40
24.0
 50
0.0
 51
90.0
  0
ARC
  5
1AE8D
  8
SJC
 10
2265.8293558282398
 20
1834.5071785488051
 30
0.0
 40
14.0
 50
0.0
 51
90.0
  0
ARC
  5
1AE8E
  8
SJC
 10
1993.8293558282351
 20
242.5071785488044
 30
0.0
 40
24.0
 50
180.0
 51
270.0
  0
ARC
  5
1AE8F
  8
SJC
 10
1993.8293558282351
 20
242.5071785488044
 30
0.0
 40
14.0
 50
180.0
 51
270.0
  0
LINE
  5
1AE90
  8
SJC
 10
2265.8293558282398
 20
1858.5071785488051
 30
0.0
 11
1993.829355828233
 21
1858.5071785488051
 31
0.0
  0
LINE
  5
1AE91
  8
SJC
 10
2265.8293558282371
 20
838.50717854880577
 30
0.0
 11
2129.8293558282348
 21
838.5071785488044
 31
0.0
  0
LINE
  5
1AE92
  8
SUNPOU
 10
2255.8293558282389
 20
108.5071785488057
 30
0.0
 11
2159.8293558282348
 21
108.5071785488048
 31
0.0
  0
LINE
  5
1AE93
  8
SJC
 10
2129.8293558282348
 20
838.5071785488044
 30
0.0
 11
1993.8293558282371
 21
838.50717854880475
 31
0.0
  0
LINE
  5
1AE94
  8
CENTER
 10
2881.978662656893
 20
1998.5071785487919
 30
0.0
 11
2881.978662656893
 21
78.50717854880395
 31
0.0
  0
LINE
  5
1AE96
  8
SJC
 10
2969.478662656893
 20
1938.507178548806
 30
0.0
 11
2969.4786626568939
 21
701.50717854879588
 31
0.0
1001
ACAD
1000
ASC_BOUNDS
1002
{
1070
    19
1005
0
1002
}
  0
LINE
  5
1AE97
  8
SJC
 10
2794.4786626568912
 20
218.5071785487462
 30
0.0
 11
2794.4786626568912
 21
108.5071785488053
 31
0.0
1001
ACAD
1000
ASC_BOUNDS
1002
{
1070
    19
1005
0
1002
}
  0
LINE
  5
1AE98
  8
SJC
 10
2794.478662656893
 20
1938.507178548806
 30
0.0
 11
2969.478662656893
 21
1938.507178548806
 31
0.0
  0
ARC
  5
1AE99
  8
SJC
 10
2881.978662656893
 20
1862.8040535487651
 30
0.0
 40
115.7031250000273
 50
40.865657358807582
 51
139.1343426411924
  0
LINE
  5
1AE9A
  8
SJC
 10
2794.478662656893
 20
1938.507178548806
 30
0.0
 11
2794.478662656893
 21
1858.5071785488051
 31
0.0
  0
LINE
  5
1AE9C
  8
HATCH
 10
2794.478662656893
 20
1938.507178548806
 30
0.0
 11
2969.478662656893
 21
1938.507178548806
 31
0.0
1001
ACAD
1000
ASC_BOUNDS
1002
{
1070
    19
1005
1BC3F
1002
}
  0
LINE
  5
1AE9D
  8
HATCH
 10
2969.478662656893
 20
1938.507178548806
 30
0.0
 11
2969.478662656893
 21
1858.5071785488051
 31
0.0
1001
ACAD
1000
ASC_BOUNDS
1002
{
1070
    19
1005
1BC3F
1002
}
  0
LINE
  5
1AE9E
  8
HATCH
 10
2969.478662656893
 20
1858.5071785488051
 30
0.0
 11
2794.478662656893
 21
1858.5071785488051
 31
0.0
1001
ACAD
1000
ASC_BOUNDS
1002
{
1070
    19
1005
1BC3F
1002
}
  0
LINE
  5
1AE9F
  8
HATCH
 10
2794.478662656893
 20
1858.5071785488051
 30
0.0
 11
2794.4786626568912
 21
1938.5071785488051
 31
0.0
1001
ACAD
1000
ASC_BOUNDS
1002
{
1070
    19
1005
1BC3F
1002
}
  0
LINE
  5
1AEA0
  8
SJC
 10
2776.978662656893
 20
1849.5071785492739
 30
0.0
 11
2776.978662656893
 21
842.50717854887853
 31
0.0
  0
LINE
  5
1AEA1
  8
SJC
 10
2788.9786626572218
 20
842.50717854877428
 30
0.0
 11
2788.9786626572231
 21
853.50717854921322
 31
0.0
  0
LINE
  5
1AEA2
  8
SJC
 10
2788.9786626570012
 20
1848.5071785488201
 30
0.0
 11
2788.9786626570012
 21
1708.507178548793
 31
0.0
  0
LINE
  5
1AEA3
  8
SJC
 10
2784.978662656888
 20
1858.507178548809
 30
0.0
 11
2780.978662656888
 21
1858.5071785488069
 31
0.0
  0
ARC
  5
1AEA4
  8
SJC
 10
2784.9786626568889
 20
1854.507178548809
 30
0.0
 40
4.0
 50
0.0000000000260551
 51
90.0
  0
ARC
  5
1AEA5
  8
SJC
 10
2780.9786626568889
 20
1854.5071785488069
 30
0.0
 40
4.0
 50
90.0
 51
180.00000000001299
  0
LINE
  5
1AEA6
  8
SJC
 10
2776.9786626568889
 20
1854.507178548806
 30
0.0
 11
2776.978662656893
 21
1849.5071785488051
 31
0.0
  0
LINE
  5
1AEA7
  8
SJC
 10
2788.9786626568889
 20
1854.507178548811
 30
0.0
 11
2788.9786626571081
 21
842.50717854886034
 31
0.0
  0
LINE
  5
1AEA9
  8
SJC
 10
2901.9786626583741
 20
1848.507178548766
 30
0.0
 11
2901.9786626583609
 21
1814.3317230318451
 31
0.0
  0
ARC
  5
1AEAA
  8
SJC
 10
2891.9786626583741
 20
1848.5071785487689
 30
0.0
 40
10.0
 50
359.99999999997402
 51
90.0
  0
LINE
  5
1AEAB
  8
SJC
 10
2891.9786626583768
 20
1858.5071785487751
 30
0.0
 11
2784.9786626568912
 21
1858.507178548809
 31
0.0
  0
LINE
  5
1AEAC
  8
CENTER
 10
2881.9786626583718
 20
1829.507178548771
 30
0.0
 11
2881.9786626583668
 21
1811.507178548771
 31
0.0
  0
LINE
  5
1AEAD
  8
CENTER
 10
2890.97866265837
 20
1820.507178548768
 30
0.0
 11
2872.97866265837
 21
1820.5071785487739
 31
0.0
  0
LINE
  5
1AEAE
  8
SJC
 10
2788.978662657224
 20
853.50717854876575
 30
0.0
 11
2788.978662657224
 21
842.50717854877428
 31
0.0
  0
LINE
  5
1AEB1
  8
SJC
 10
2776.978662656893
 20
1849.5071785488051
 30
0.0
 11
2776.978662656893
 21
842.50717854840923
 31
0.0
  0
LINE
  5
1AEB2
  8
SJC
 10
2894.3838023871249
 20
1804.625266269202
 30
0.0
 11
2788.9786626569112
 21
1778.507178548808
 31
0.0
  0
ARC
  5
1AEB3
  8
SJC
 10
2891.9786626583609
 20
1814.331723031848
 30
0.0
 40
10.0
 50
283.9168774331053
 51
359.99999999997402
  0
LINE
  5
1AEB4
  8
SJC
 10
2784.9786626571122
 20
838.50717854877439
 30
0.0
 11
2780.9786626571122
 21
838.5071785487761
 31
0.0
  0
ARC
  5
1AEB5
  8
SJC
 10
2784.9786626571131
 20
842.50717854877428
 30
0.0
 40
4.0
 50
270.0
 51
359.99999999997402
  0
ARC
  5
1AEB6
  8
SJC
 10
2780.9786626571131
 20
842.50717854877621
 30
0.0
 40
4.0
 50
179.99999999998701
 51
270.0
  0
LINE
  5
1AEB7
  8
SJC
 10
2776.9786626571131
 20
842.50717854877803
 30
0.0
 11
2776.9786626571172
 21
847.50717854877837
 31
0.0
  0
LINE
  5
1AEB8
  8
SJC
 10
2901.9786626585978
 20
848.50717854881805
 30
0.0
 11
2901.9786626585851
 21
882.68263406573885
 31
0.0
  0
ARC
  5
1AEB9
  8
SJC
 10
2891.9786626585978
 20
848.50717854881543
 30
0.0
 40
10.0
 50
270.0
 51
0.0000000000260551
  0
LINE
  5
1AEBA
  8
SJC
 10
2891.978662658601
 20
838.50717854880895
 30
0.0
 11
2784.9786626571149
 21
838.50717854877439
 31
0.0
  0
LINE
  5
1AEBB
  8
CENTER
 10
2881.978662658596
 20
867.50717854881213
 30
0.0
 11
2881.9786626585901
 21
885.50717854881213
 31
0.0
  0
LINE
  5
1AEBC
  8
CENTER
 10
2890.9786626585942
 20
876.50717854881475
 30
0.0
 11
2872.9786626585942
 21
876.50717854880941
 31
0.0
  0
LINE
  5
1AEBF
  8
SJC
 10
2894.3838023873491
 20
892.38909082838188
 30
0.0
 11
2788.9786626571349
 21
918.50717854877485
 31
0.0
  0
ARC
  5
1AEC0
  8
SJC
 10
2891.9786626585851
 20
882.68263406573578
 30
0.0
 40
10.0
 50
0.0000000000260551
 51
76.083122566894787
  0
LINE
  5
1AEC6
  8
SJC
 10
2848.978662656707
 20
1793.374435185716
 30
0.0
 11
2848.978662656808
 21
1387.6399219116099
 31
0.0
  0
CIRCLE
  5
1AEC7
  8
SJC
 10
2129.8293558282348
 20
2368.919534343348
 30
0.0
 40
86.999999999999076
  0
CIRCLE
  5
1AEC8
  8
SJC
 10
2129.8293558282348
 20
2368.919534343348
 30
0.0
 40
88.999999999999091
  0
CIRCLE
  5
1AEC9
  8
SJC
 10
2129.8293558282348
 20
2368.919534343348
 30
0.0
 40
76.999999999999091
  0
CIRCLE
  5
1AECA
  8
SJC
 10
2129.8293558282348
 20
2449.9195343433471
 30
0.0
 40
0.5
  0
CIRCLE
  5
1AECB
  8
SJC
 10
2104.7989792838648
 20
2445.9551121632539
 30
0.0
 40
0.5
  0
CIRCLE
  5
1AECC
  8
SJC
 10
2117.158164159976
 20
2448.9222899315532
 30
0.0
 40
0.5
  0
CIRCLE
  5
1AECD
  8
SJC
 10
2082.2187503925452
 20
2434.449910887718
 30
0.0
 40
0.5
  0
CIRCLE
  5
1AECE
  8
SJC
 10
2093.056125349332
 20
2441.0910628026049
 30
0.0
 40
0.5
  0
CIRCLE
  5
1AECF
  8
SJC
 10
2072.5537065521248
 20
2426.1951836194571
 30
0.0
 40
0.5
  0
CIRCLE
  5
1AED0
  8
SJC
 10
2206.8649336481408
 20
2343.8891577989771
 30
0.0
 40
0.5
  0
CIRCLE
  5
1AED1
  8
SJC
 10
2064.2989792838648
 20
2416.5301397790372
 30
0.0
 40
0.5
  0
CIRCLE
  5
1AED2
  8
SJC
 10
2057.6578273689779
 20
2405.69276482225
 30
0.0
 40
0.5
  0
CIRCLE
  5
1AED3
  8
SJC
 10
2052.7937780083289
 20
2393.949910887718
 30
0.0
 40
0.5
  0
CIRCLE
  5
1AED4
  8
SJC
 10
2049.8266002400301
 20
2381.590726011606
 30
0.0
 40
0.5
  0
CIRCLE
  5
1AED5
  8
SJC
 10
2048.8293558282362
 20
2368.919534343348
 30
0.0
 40
0.5
  0
CIRCLE
  5
1AED6
  8
SJC
 10
2049.8266002400301
 20
2356.2483426750891
 30
0.0
 40
0.5
  0
CIRCLE
  5
1AED7
  8
SJC
 10
2052.7937780083289
 20
2343.8891577989771
 30
0.0
 40
0.5
  0
CIRCLE
  5
1AED8
  8
SJC
 10
2057.6578273689779
 20
2332.1463038644438
 30
0.0
 40
0.5
  0
CIRCLE
  5
1AED9
  8
SJC
 10
2064.2989792838648
 20
2321.3089289076579
 30
0.0
 40
0.5
  0
CIRCLE
  5
1AEDA
  8
SJC
 10
2072.5537065521262
 20
2311.643885067238
 30
0.0
 40
0.5
  0
CIRCLE
  5
1AEDB
  8
SJC
 10
2082.2187503925452
 20
2303.389157798978
 30
0.0
 40
0.5
  0
CIRCLE
  5
1AEDC
  8
SJC
 10
2093.056125349332
 20
2296.7480058840902
 30
0.0
 40
0.5
  0
CIRCLE
  5
1AEDD
  8
SJC
 10
2104.7989792838648
 20
2291.8839565234412
 30
0.0
 40
0.5
  0
CIRCLE
  5
1AEDE
  8
SJC
 10
2117.1581641599769
 20
2288.9167787551419
 30
0.0
 40
0.5
  0
CIRCLE
  5
1AEDF
  8
SJC
 10
2129.8293558282348
 20
2287.919534343348
 30
0.0
 40
0.5
  0
CIRCLE
  5
1AEE0
  8
SJC
 10
2142.5005474964942
 20
2288.9167787551419
 30
0.0
 40
0.5
  0
CIRCLE
  5
1AEE1
  8
SJC
 10
2154.8597323726049
 20
2291.8839565234412
 30
0.0
 40
0.5
  0
CIRCLE
  5
1AEE2
  8
SJC
 10
2166.6025863071382
 20
2296.7480058840902
 30
0.0
 40
0.5
  0
CIRCLE
  5
1AEE3
  8
SJC
 10
2177.4399612639249
 20
2303.389157798978
 30
0.0
 40
0.5
  0
CIRCLE
  5
1AEE4
  8
SJC
 10
2187.1050051043449
 20
2311.6438850672389
 30
0.0
 40
0.5
  0
CIRCLE
  5
1AEE5
  8
SJC
 10
2195.3597323726049
 20
2321.3089289076579
 30
0.0
 40
0.5
  0
CIRCLE
  5
1AEE6
  8
SJC
 10
2202.0008842874922
 20
2332.1463038644451
 30
0.0
 40
0.5
  0
CIRCLE
  5
1AEE7
  8
SJC
 10
2209.8321114164401
 20
2356.24834267509
 30
0.0
 40
0.5
  0
CIRCLE
  5
1AEE8
  8
SJC
 10
2210.8293558282339
 20
2368.919534343348
 30
0.0
 40
0.5
  0
CIRCLE
  5
1AEE9
  8
SJC
 10
2209.8321114164401
 20
2381.590726011606
 30
0.0
 40
0.5
  0
CIRCLE
  5
1AEEA
  8
SJC
 10
2206.8649336481408
 20
2393.949910887718
 30
0.0
 40
0.5
  0
CIRCLE
  5
1AEEB
  8
SJC
 10
2195.3597323726049
 20
2416.5301397790372
 30
0.0
 40
0.5
  0
CIRCLE
  5
1AEEC
  8
SJC
 10
2202.0008842874922
 20
2405.69276482225
 30
0.0
 40
0.5
  0
CIRCLE
  5
1AEED
  8
SJC
 10
2187.1050051043449
 20
2426.1951836194571
 30
0.0
 40
0.5
  0
CIRCLE
  5
1AEEE
  8
SJC
 10
2177.4399612639249
 20
2434.449910887718
 30
0.0
 40
0.5
  0
CIRCLE
  5
1AEEF
  8
SJC
 10
2166.6025863071382
 20
2441.0910628026049
 30
0.0
 40
0.5
  0
CIRCLE
  5
1AEF0
  8
SJC
 10
2142.5005474964942
 20
2448.9222899315532
 30
0.0
 40
0.5
  0
CIRCLE
  5
1AEF1
  8
SJC
 10
2154.8597323726049
 20
2445.9551121632539
 30
0.0
 40
0.5
  0
TEXT
  5
1AEF2
  8
MOJI2
 10
1939.9569878507409
 20
2203.6217759931792
 30
0.0
 40
40.0
  1
A-A 断面図 S=1/5
 41
0.8
  7
EXT08
  0
LINE
  5
1AEF3
  8
SJC
 10
1926.240693278394
 20
2184.8305500467468
 30
0.0
 11
2363.2692647069662
 21
2184.8305500467468
 31
0.0
  0
TEXT
  5
1AEF4
  8
SUNPOU
 10
1864.1372512987709
 20
2497.8585301585672
 30
0.0
 40
30.0
  1
ガラス繊維
 41
0.8
  7
EXT08
  0
TEXT
  5
1AEF5
  8
SUNPOU
 10
2187.853176878521
 20
2528.3835713803919
 30
0.0
 40
30.0
  1
リサイクル原料
 41
0.8
  7
EXT08
  0
INSERT
  5
1AEF6
  8
0
  2
*U36
 10
0.0
 20
0.0
 30
0.0
1001
ACAD
1000
DSTYLE
1002
{
1070
    41
1040
2.0
1070
    77
1070
     0
1070
    40
1040
10.0
1070
   147
1040
1.1999999999999991
1070
   176
1070
     0
1070
   177
1070
     0
1070
   178
1070
     0
1070
   179
1070
     2
1070
   271
1070
     2
1002
}
  0
INSERT
  5
1AEF7
  8
0
  2
*U37
 10
0.0
 20
0.0
 30
0.0
1001
ACAD
1000
DSTYLE
1002
{
1070
    41
1040
2.0
1070
    77
1070
     0
1070
    40
1040
10.0
1070
   147
1040
1.1999999999999991
1070
   176
1070
     0
1070
   177
1070
     0
1070
   178
1070
     0
1070
   179
1070
     2
1070
   271
1070
     2
1002
}
  0
TEXT
  5
1AEF8
  8
SUNPOU
 10
2228.377861442365
 20
2473.3981399343802
 30
0.0
 40
30.0
  1
(内層材)
 41
0.8
  7
EXT08
  0
LINE
  5
1AEF9
  8
SUNPOU
 10
2003.829355828231
 20
108.5071785488057
 30
0.0
 11
2099.8293558282348
 21
108.5071785488048
 31
0.0
  0
LINE
  5
1AEFA
  8
SUNPOU
 10
2099.8293558282348
 20
138.50717854880389
 30
0.0
 11
2159.8293558282348
 21
78.50717854880395
 31
0.0
  0
LINE
  5
1AEFB
  8
SUNPOU
 10
2911.978662656893
 20
108.5071785488048
 30
0.0
 11
2911.978662656893
 21
78.50717854880395
 31
0.0
  0
LINE
  5
1AEFC
  8
SUNPOU
 10
2851.978662656893
 20
138.50717854880389
 30
0.0
 11
2851.978662656893
 21
108.5071785488048
 31
0.0
  0
LINE
  5
1AEFD
  8
SUNPOU
 10
3007.9786626568971
 20
108.5071785488057
 30
0.0
 11
2911.978662656893
 21
108.5071785488048
 31
0.0
  0
LINE
  5
1AEFE
  8
SUNPOU
 10
2755.9786626568898
 20
108.5071785488057
 30
0.0
 11
2851.978662656893
 21
108.5071785488048
 31
0.0
  0
LINE
  5
1AEFF
  8
SUNPOU
 10
2851.978662656893
 20
138.50717854880389
 30
0.0
 11
2911.978662656893
 21
78.50717854880395
 31
0.0
  0
TEXT
  5
1AF00
  8
SUNPOU
 10
1944.4097130482569
 20
179.3677312553113
 30
0.0
 40
30.0
  1
A
 41
0.8
  7
EXT08
  0
TEXT
  5
1AF01
  8
SUNPOU
 10
2289.409713048256
 20
179.3677312553113
 30
0.0
 40
30.0
  1
A
 41
0.8
  7
EXT08
  0
LINE
  5
1AF02
  8
SUNPOU
 10
2287.3293558281571
 20
134.8220553462593
 30
0.0
 11
2317.3293558281571
 21
134.8220553462593
 31
0.0
  0
LINE
  5
1AF03
  8
SUNPOU
 10
2317.3293558281571
 20
134.8220553462593
 30
0.0
 11
2302.3293558281571
 21
99.822055346259276
 31
0.0
  0
LINE
  5
1AF04
  8
SUNPOU
 10
2302.3293558281571
 20
99.822055346259276
 30
0.0
 11
2302.3293558281571
 21
158.94079390045269
 31
0.0
  0
LINE
  5
1AF05
  8
SUNPOU
 10
2302.3293558281571
 20
158.94079390045269
 30
0.0
 11
1957.3293558281559
 21
158.94079390045269
 31
0.0
  0
LINE
  5
1AF06
  8
SUNPOU
 10
1957.3293558281559
 20
158.94079390045269
 30
0.0
 11
1957.3293558281559
 21
99.822055346259276
 31
0.0
  0
LINE
  5
1AF07
  8
SUNPOU
 10
1957.3293558281559
 20
99.822055346259276
 30
0.0
 11
1942.3293558281571
 21
134.8220553462593
 31
0.0
  0
LINE
  5
1AF08
  8
SUNPOU
 10
1942.3293558281571
 20
134.8220553462593
 30
0.0
 11
1972.3293558281559
 21
134.8220553462593
 31
0.0
  0
DIMENSION
  5
1AF0B
  8
SUNPOU
  2
*D18
 10
1890.500388950458
 20
838.50717854880475
 30
0.0
 11
1863.500388950458
 21
1348.5071785488051
 31
0.0
 70
     0
 13
1993.829355828233
 23
1858.5071785488051
 33
0.0
 14
1993.8293558282371
 24
838.50717854880475
 34
0.0
 50
90.0
1001
ACAD
1000
DSTYLE
1002
{
1070
   287
1070
     5
1070
   144
1040
0.5
1070
    40
1040
10.0
1070
    41
1040
2.0
1070
    42
1040
1.0
1070
    43
1040
6.0
1070
    44
1040
1.0
1070
    73
1070
     0
1070
    74
1070
     0
1070
    77
1070
     1
1070
    78
1070
     8
1070
   140
1040
3.0
1070
   147
1040
1.1999999999999991
1070
   172
1070
     1
1070
   179
1070
     2
1070
   271
1070
     2
1070
   279
1070
     2
1070
   340
1005
55
1002
}
  0
DIMENSION
  5
1AF0C
  8
SUNPOU
  2
*D19
 10
2289.8293558282398
 20
2021.0196150194879
 30
0.0
 11
2129.8293558282371
 21
2048.019615019487
 31
0.0
 70
     0
 13
1969.829355828233
 23
1834.5071785488051
 33
0.0
 14
2289.8293558282398
 24
1834.5071785488051
 34
0.0
1001
ACAD
1000
DSTYLE
1002
{
1070
   287
1070
     5
1070
   144
1040
0.5
1070
    40
1040
10.0
1070
    41
1040
2.0
1070
    42
1040
1.0
1070
    43
1040
6.0
1070
    44
1040
1.0
1070
    73
1070
     0
1070
    74
1070
     0
1070
    77
1070
     1
1070
    78
1070
     8
1070
   140
1040
3.0
1070
   147
1040
1.1999999999999991
1070
   172
1070
     1
1070
   179
1070
     2
1070
   271
1070
     2
1070
   279
1070
     2
1070
   340
1005
55
1002
}
  0
DIMENSION
  5
1AF0D
  8
SUNPOU
  2
*D20
 10
1979.829355828236
 20
1402.1788519201921
 30
0.0
 11
1949.30823992303
 21
1429.058261585732
 31
0.0
 70
   128
 13
1969.8293558282351
 23
1358.5071785488051
 33
0.0
 14
1979.829355828236
 24
1358.5071785488051
 34
0.0
1001
ACAD
1000
DSTYLE
1002
{
1070
   287
1070
     5
1070
   144
1040
0.5
1070
    40
1040
10.0
1070
    41
1040
2.0
1070
    42
1040
1.0
1070
    43
1040
6.0
1070
    44
1040
1.0
1070
    73
1070
     0
1070
    74
1070
     0
1070
    77
1070
     1
1070
    78
1070
     8
1070
   140
1040
3.0
1070
   147
1040
1.1999999999999991
1070
   172
1070
     1
1070
   179
1070
     2
1070
   271
1070
     2
1070
   279
1070
     2
1070
   340
1005
55
1002
}
  0
DIMENSION
  5
1AF0E
  8
SUNPOU
  2
*D21
 10
2776.9786626568889
 20
1700.0043163418679
 30
0.0
 11
2749.5737873478511
 21
1726.0044830248471
 31
0.0
 70
   128
 13
2788.9786626568889
 23
1599.446325443093
 33
0.0
 14
2776.9786626568889
 24
1599.446325443088
 34
0.0
1001
ACAD
1000
DSTYLE
1002
{
1070
   287
1070
     5
1070
   144
1040
0.5
1070
    40
1040
10.0
1070
    41
1040
2.0
1070
    42
1040
1.0
1070
    43
1040
6.0
1070
    44
1040
1.0
1070
    73
1070
     0
1070
    74
1070
     0
1070
    77
1070
     1
1070
    78
1070
     8
1070
   140
1040
3.0
1070
   147
1040
1.1999999999999991
1070
   172
1070
     1
1070
   179
1070
     2
1070
   271
1070
     2
1070
   279
1070
     2
1070
   340
1005
55
1002
}
  0
LINE
  5
1AF0F
  8
CENTER
 10
2881.9786626583732
 20
1829.507178548771
 30
0.0
 11
2881.9786626583659
 21
1811.507178548771
 31
0.0
  0
CIRCLE
  5
1AF10
  8
SJC
 10
2881.9786626583691
 20
1820.507178548771
 30
0.0
 40
9.0
  0
CIRCLE
  5
1AF11
  8
SJC
 10
2881.9786626583691
 20
1820.507178548771
 30
0.0
 40
8.0
  0
LINE
  5
1AF12
  8
SJC2
 10
2881.1275988285811
 20
1826.464625357281
 30
0.0
 11
2882.8297264881562
 21
1826.464625357281
 31
0.0
  0
LINE
  5
1AF13
  8
SJC2
 10
2887.9361094668802
 20
1821.3582423785581
 30
0.0
 11
2887.9361094668802
 21
1819.656114718983
 31
0.0
  0
LINE
  5
1AF14
  8
SJC2
 10
2876.021215849858
 20
1821.3582423785581
 30
0.0
 11
2876.021215849858
 21
1819.656114718983
 31
0.0
  0
LINE
  5
1AF15
  8
SJC2
 10
2881.1275988285811
 20
1814.549731740261
 30
0.0
 11
2882.8297264881562
 21
1814.549731740261
 31
0.0
  0
ARC
  5
1AF16
  8
SJC2
 10
2887.9361094668802
 20
1814.549731740261
 30
0.0
 40
5.1063829787233539
 50
90.0
 51
180.0
  0
ARC
  5
1AF17
  8
SJC2
 10
2876.021215849858
 20
1814.549731740261
 30
0.0
 40
5.1063829787233539
 50
0.0
 51
90.0
  0
ARC
  5
1AF18
  8
SJC2
 10
2887.9361094668802
 20
1826.464625357281
 30
0.0
 40
5.1063829787233539
 50
180.0
 51
270.0
  0
ARC
  5
1AF19
  8
SJC2
 10
2876.021215849858
 20
1826.464625357281
 30
0.0
 40
5.1063829787233539
 50
270.0
 51
0.0
  0
LINE
  5
1AF1A
  8
CENTER
 10
2881.9786626600721
 20
885.50717854881213
 30
0.0
 11
2881.9786626600671
 21
867.50717854881213
 31
0.0
  0
LINE
  5
1AF1B
  8
CENTER
 10
2890.9786626600699
 20
876.50717854880941
 30
0.0
 11
2872.9786626600699
 21
876.50717854881475
 31
0.0
  0
LINE
  5
1AF1C
  8
CENTER
 10
2881.9786626600721
 20
885.50717854881213
 30
0.0
 11
2881.9786626600671
 21
867.50717854881213
 31
0.0
  0
LINE
  5
1AF1D
  8
CENTER
 10
2881.978662660073
 20
885.50717854881213
 30
0.0
 11
2881.9786626600649
 21
867.50717854881213
 31
0.0
  0
CIRCLE
  5
1AF1E
  8
SJC
 10
2881.9786626600689
 20
876.50717854881213
 30
0.0
 40
9.0
  0
CIRCLE
  5
1AF1F
  8
SJC
 10
2881.9786626600689
 20
876.50717854881213
 30
0.0
 40
8.0
  0
LINE
  5
1AF20
  8
SJC2
 10
2881.1275988302809
 20
882.46462535732235
 30
0.0
 11
2882.8297264898561
 21
882.46462535732235
 31
0.0
  0
LINE
  5
1AF21
  8
SJC2
 10
2887.9361094685801
 20
877.35824237859879
 30
0.0
 11
2887.9361094685801
 21
875.65611471902355
 31
0.0
  0
LINE
  5
1AF22
  8
SJC2
 10
2876.0212158515578
 20
877.35824237859879
 30
0.0
 11
2876.0212158515578
 21
875.65611471902355
 31
0.0
  0
LINE
  5
1AF23
  8
SJC2
 10
2881.1275988302809
 20
870.54973174030181
 30
0.0
 11
2882.8297264898561
 21
870.54973174030181
 31
0.0
  0
ARC
  5
1AF24
  8
SJC2
 10
2887.9361094685801
 20
870.54973174030181
 30
0.0
 40
5.1063829787233539
 50
90.0
 51
180.0
  0
ARC
  5
1AF25
  8
SJC2
 10
2876.0212158515578
 20
870.54973174030181
 30
0.0
 40
5.1063829787233539
 50
0.0
 51
90.0
  0
ARC
  5
1AF26
  8
SJC2
 10
2887.9361094685801
 20
882.46462535732235
 30
0.0
 40
5.1063829787233539
 50
180.0
 51
270.0
  0
ARC
  5
1AF27
  8
SJC2
 10
2876.0212158515578
 20
882.46462535732235
 30
0.0
 40
5.1063829787233539
 50
270.0
 51
0.0
  0
INSERT
  5
1AF28
  8
0
  2
*U38
 10
0.0
 20
0.0
 30
0.0
1001
ACAD
1000
DSTYLE
1002
{
1070
     5
1000

1070
    40
1040
10.0
1070
    41
1040
2.0
1070
    42
1040
1.0
1070
    43
1040
6.0
1070
    44
1040
1.0
1070
    73
1070
     0
1070
    74
1070
     0
1070
    77
1070
     1
1070
    78
1070
     8
1070
   140
1040
3.0
1070
   144
1040
0.5
1070
   147
1040
1.1999999999999991
1070
   172
1070
     1
1070
   176
1070
   256
1070
   177
1070
   256
1070
   178
1070
   256
1070
   271
1070
     0
1070
   287
1070
     5
1070
   340
1005
55
1070
   342
1005
0
1002
}
  0
TEXT
  5
1AF29
  8
SUNPOU
 10
3021.8911966711339
 20
905.28678421311952
 30
0.0
 40
30.0
  1
SUS410
 41
0.8
  7
EXT08
  0
LINE
  5
1AF2A
  8
SUNPOU
 10
3019.415015895057
 20
940.11464746997774
 30
0.0
 11
3178.6430928482928
 21
940.11464746997774
 31
0.0
1001
ACAD
1000
DSTYLE
1002
{
1070
    77
1070
     0
1070
    40
1040
10.0
1070
   147
1040
1.1999999999999991
1070
   176
1070
     0
1070
   177
1070
     0
1070
   178
1070
     0
1070
   179
1070
     2
1070
   271
1070
     2
1002
}
  0
TEXT
  5
1AF2B
  8
SUNPOU
 10
3028.2828573414472
 20
945.87266796208905
 30
0.0
 40
30.0
  1
固定ビス
 41
0.8
  7
EXT08
  0
LINE
  5
1AF2C
  8
SJC
 10
1993.829355828231
 20
828.50717854880247
 30
0.0
 11
2265.829355828238
 21
828.5071785488044
 31
0.0
  0
LINE
  5
1AF2D
  8
SJC
 10
1979.829355828231
 20
814.5071785488044
 30
0.0
 11
1979.8293558282321
 21
701.50717854880349
 31
0.0
  0
LINE
  5
1AF2E
  8
SJC
 10
2279.8293558282398
 20
814.5071785488044
 30
0.0
 11
2279.8293558282389
 21
701.50717854880099
 31
0.0
  0
LINE
  5
1AF2F
  8
SJC
 10
1969.829355828231
 20
814.5071785488044
 30
0.0
 11
1969.8293558282321
 21
701.50717854880372
 31
0.0
  0
ARC
  5
1AF30
  8
SJC
 10
1993.829355828231
 20
814.5071785488044
 30
0.0
 40
24.0
 50
90.0
 51
180.0
  0
ARC
  5
1AF31
  8
SJC
 10
1993.829355828231
 20
814.5071785488044
 30
0.0
 40
14.0
 50
90.0
 51
180.0
  0
LINE
  5
1AF32
  8
SJC
 10
2289.829355828238
 20
814.5071785488044
 30
0.0
 11
2289.829355828238
 21
701.50717854880065
 31
0.0
  0
ARC
  5
1AF33
  8
SJC
 10
2265.829355828238
 20
814.5071785488044
 30
0.0
 40
24.0
 50
0.0
 51
90.0
  0
ARC
  5
1AF34
  8
SJC
 10
2265.829355828238
 20
814.5071785488044
 30
0.0
 40
14.0
 50
0.0
 51
90.0
  0
LINE
  5
1AF35
  8
SJC
 10
2265.8293558282371
 20
218.50717854880349
 30
0.0
 11
1993.8293558282289
 21
218.50717854880349
 31
0.0
  0
LINE
  5
1AF36
  8
SJC
 10
1993.829355828228
 20
848.50717854880611
 30
0.0
 11
2265.8293558282289
 21
848.50717854880668
 31
0.0
  0
ARC
  5
1AF37
  8
SJC
 10
2265.8293558282289
 20
862.50717854880668
 30
0.0
 40
24.0
 50
270.0
 51
0.0
  0
ARC
  5
1AF38
  8
SJC
 10
2265.8293558282289
 20
862.50717854880668
 30
0.0
 40
14.0
 50
270.0
 51
0.0
  0
ARC
  5
1AF39
  8
SJC
 10
1993.829355828228
 20
862.50717854880622
 30
0.0
 40
24.0
 50
180.0
 51
270.0
  0
ARC
  5
1AF3A
  8
SJC
 10
1993.829355828228
 20
862.50717854880622
 30
0.0
 40
14.0
 50
180.0
 51
270.0
  0
LINE
  5
1AF3B
  8
SJC
 10
2265.8293558282298
 20
838.50717854880531
 30
0.0
 11
1993.829355828223
 21
838.50717854880531
 31
0.0
  0
LINE
  5
1AF3C
  8
SJC
 10
2776.9786626571149
 20
829.50717854924278
 30
0.0
 11
2776.9786626571149
 21
701.50717854879747
 31
0.0
  0
LINE
  5
1AF3D
  8
SJC
 10
2788.9786626574441
 20
222.50717854874301
 30
0.0
 11
2788.9786626574441
 21
233.50717854918179
 31
0.0
  0
LINE
  5
1AF3F
  8
SJC
 10
2784.9786626571099
 20
838.50717854877792
 30
0.0
 11
2780.9786626571099
 21
838.5071785487761
 31
0.0
  0
ARC
  5
1AF40
  8
SJC
 10
2784.9786626571122
 20
834.50717854877803
 30
0.0
 40
4.0
 50
0.0000000000260551
 51
90.0
  0
ARC
  5
1AF41
  8
SJC
 10
2780.9786626571122
 20
834.50717854877621
 30
0.0
 40
4.0
 50
90.0
 51
180.00000000001299
  0
LINE
  5
1AF42
  8
SJC
 10
2776.9786626571122
 20
834.50717854877428
 30
0.0
 11
2776.9786626571149
 21
829.50717854877348
 31
0.0
  0
LINE
  5
1AF43
  8
SJC
 10
2788.9786626571122
 20
834.50717854877985
 30
0.0
 11
2788.978662657159
 21
701.50717854879747
 31
0.0
  0
LINE
  5
1AF45
  8
SJC
 10
2901.978662658596
 20
828.50717854873426
 30
0.0
 11
2901.9786626585828
 21
794.33172303181345
 31
0.0
  0
ARC
  5
1AF46
  8
SJC
 10
2891.978662658596
 20
828.5071785487371
 30
0.0
 40
10.0
 50
359.99999999997402
 51
90.0
  0
LINE
  5
1AF47
  8
SJC
 10
2891.9786626585992
 20
838.50717854874347
 30
0.0
 11
2786.978662658601
 21
838.50717854877701
 31
0.0
  0
LINE
  5
1AF48
  8
CENTER
 10
2881.9786626585942
 20
809.50717854873983
 30
0.0
 11
2881.9786626585892
 21
791.50717854873983
 31
0.0
  0
LINE
  5
1AF49
  8
CENTER
 10
2890.9786626585919
 20
800.50717854873699
 30
0.0
 11
2872.9786626585919
 21
800.50717854874244
 31
0.0
  0
LINE
  5
1AF4A
  8
SJC
 10
2788.978662657446
 20
233.5071785487344
 30
0.0
 11
2788.978662657446
 21
222.50717854874301
 31
0.0
  0
LINE
  5
1AF4D
  8
SJC
 10
2776.9786626571149
 20
829.50717854877348
 30
0.0
 11
2776.9786626571149
 21
701.50717854879747
 31
0.0
  0
LINE
  5
1AF4E
  8
SJC
 10
2894.3838023873468
 20
784.62526626917042
 30
0.0
 11
2788.9786626571331
 21
758.50717854877701
 31
0.0
  0
ARC
  5
1AF4F
  8
SJC
 10
2891.9786626585828
 20
794.33172303181618
 30
0.0
 40
10.0
 50
283.9168774331053
 51
359.99999999997402
  0
LINE
  5
1AF50
  8
SJC
 10
2784.9786626573341
 20
218.50717854874301
 30
0.0
 11
2780.9786626573332
 21
218.5071785487448
 31
0.0
  0
ARC
  5
1AF51
  8
SJC
 10
2784.978662657335
 20
222.50717854874301
 30
0.0
 40
4.0
 50
270.0
 51
359.99999999997402
  0
ARC
  5
1AF52
  8
SJC
 10
2780.978662657335
 20
222.5071785487448
 30
0.0
 40
4.0
 50
179.99999999998701
 51
270.0
  0
LINE
  5
1AF53
  8
SJC
 10
2776.978662657335
 20
222.50717854874659
 30
0.0
 11
2776.9786626573391
 21
227.50717854874711
 31
0.0
  0
LINE
  5
1AF54
  8
SJC
 10
2901.9786626588188
 20
228.5071785487867
 30
0.0
 11
2901.978662658807
 21
262.68263406570759
 31
0.0
  0
ARC
  5
1AF55
  8
SJC
 10
2891.9786626588202
 20
228.50717854878391
 30
0.0
 40
10.0
 50
270.0
 51
0.0000000000260551
  0
LINE
  5
1AF56
  8
SJC
 10
2891.9786626588229
 20
218.5071785487776
 30
0.0
 11
2784.9786626573368
 21
218.50717854874301
 31
0.0
  0
LINE
  5
1AF57
  8
CENTER
 10
2881.9786626588179
 20
247.5071785487807
 30
0.0
 11
2881.978662658812
 21
265.50717854878081
 31
0.0
  0
LINE
  5
1AF58
  8
CENTER
 10
2890.9786626588161
 20
256.50717854878349
 30
0.0
 11
2872.9786626588161
 21
256.50717854877797
 31
0.0
  0
LINE
  5
1AF5B
  8
SJC
 10
2894.383802387571
 20
272.38909082835062
 30
0.0
 11
2788.9786626573568
 21
298.50717854874352
 31
0.0
  0
ARC
  5
1AF5C
  8
SJC
 10
2891.978662658807
 20
262.68263406570441
 30
0.0
 40
10.0
 50
0.0000000000260551
 51
76.083122566894787
  0
LINE
  5
1AF62
  8
SJC
 10
2848.9786626569289
 20
773.37443518568534
 30
0.0
 11
2848.9786626569612
 21
701.50717854879713
 31
0.0
  0
LINE
  5
1AF63
  8
CENTER
 10
2881.9786626585951
 20
809.50717854873983
 30
0.0
 11
2881.9786626585878
 21
791.50717854873983
 31
0.0
  0
CIRCLE
  5
1AF64
  8
SJC
 10
2881.978662658591
 20
800.50717854873983
 30
0.0
 40
9.0
  0
CIRCLE
  5
1AF65
  8
SJC
 10
2881.978662658591
 20
800.50717854873983
 30
0.0
 40
8.0
  0
LINE
  5
1AF66
  8
SJC2
 10
2881.127598828803
 20
806.46462535725016
 30
0.0
 11
2882.8297264883781
 21
806.46462535725016
 31
0.0
  0
LINE
  5
1AF67
  8
SJC2
 10
2887.9361094671021
 20
801.35824237852637
 30
0.0
 11
2887.9361094671021
 21
799.65611471895124
 31
0.0
  0
LINE
  5
1AF68
  8
SJC2
 10
2876.0212158500799
 20
801.35824237852637
 30
0.0
 11
2876.0212158500799
 21
799.65611471895124
 31
0.0
  0
LINE
  5
1AF69
  8
SJC2
 10
2881.127598828803
 20
794.54973174022962
 30
0.0
 11
2882.8297264883781
 21
794.54973174022962
 31
0.0
  0
ARC
  5
1AF6A
  8
SJC2
 10
2887.9361094671021
 20
794.54973174022962
 30
0.0
 40
5.1063829787233539
 50
90.0
 51
180.0
  0
ARC
  5
1AF6B
  8
SJC2
 10
2876.0212158500799
 20
794.54973174022962
 30
0.0
 40
5.1063829787233539
 50
0.0
 51
90.0
  0
ARC
  5
1AF6C
  8
SJC2
 10
2887.9361094671021
 20
806.46462535725016
 30
0.0
 40
5.1063829787233539
 50
180.0
 51
270.0
  0
ARC
  5
1AF6D
  8
SJC2
 10
2876.0212158500799
 20
806.46462535725016
 30
0.0
 40
5.1063829787233539
 50
270.0
 51
0.0
  0
LINE
  5
1AF6E
  8
CENTER
 10
2881.978662660294
 20
265.50717854878081
 30
0.0
 11
2881.9786626602881
 21
247.5071785487807
 31
0.0
  0
LINE
  5
1AF6F
  8
CENTER
 10
2890.9786626602918
 20
256.50717854877797
 30
0.0
 11
2872.9786626602918
 21
256.50717854878349
 31
0.0
  0
LINE
  5
1AF70
  8
CENTER
 10
2881.978662660294
 20
265.50717854878081
 30
0.0
 11
2881.9786626602881
 21
247.5071785487807
 31
0.0
  0
LINE
  5
1AF71
  8
CENTER
 10
2881.978662660295
 20
265.50717854878081
 30
0.0
 11
2881.9786626602881
 21
247.5071785487807
 31
0.0
  0
CIRCLE
  5
1AF72
  8
SJC
 10
2881.9786626602909
 20
256.50717854878081
 30
0.0
 40
9.0
  0
CIRCLE
  5
1AF73
  8
SJC
 10
2881.9786626602909
 20
256.50717854878081
 30
0.0
 40
8.0
  0
LINE
  5
1AF74
  8
SJC2
 10
2881.1275988305028
 20
262.46462535729103
 30
0.0
 11
2882.829726490078
 21
262.46462535729103
 31
0.0
  0
LINE
  5
1AF75
  8
SJC2
 10
2887.936109468802
 20
257.35824237856741
 30
0.0
 11
2887.936109468802
 21
255.65611471899231
 31
0.0
  0
LINE
  5
1AF76
  8
SJC2
 10
2876.0212158517802
 20
257.35824237856741
 30
0.0
 11
2876.0212158517802
 21
255.65611471899231
 31
0.0
  0
LINE
  5
1AF77
  8
SJC2
 10
2881.1275988305028
 20
250.54973174027049
 30
0.0
 11
2882.829726490078
 21
250.54973174027049
 31
0.0
  0
ARC
  5
1AF78
  8
SJC2
 10
2887.936109468802
 20
250.54973174027049
 30
0.0
 40
5.1063829787233539
 50
90.0
 51
180.0
  0
ARC
  5
1AF79
  8
SJC2
 10
2876.0212158517802
 20
250.54973174027049
 30
0.0
 40
5.1063829787233539
 50
0.0
 51
90.0
  0
ARC
  5
1AF7A
  8
SJC2
 10
2887.936109468802
 20
262.46462535729103
 30
0.0
 40
5.1063829787233539
 50
180.0
 51
270.0
  0
ARC
  5
1AF7B
  8
SJC2
 10
2876.0212158517802
 20
262.46462535729103
 30
0.0
 40
5.1063829787233539
 50
270.0
 51
0.0
  0
LINE
  5
1B1AC
  8
SJC
 10
2901.9786626583609
 20
1366.6826340655041
 30
0.0
 11
2901.9786626583609
 21
1330.3317230316579
 31
0.0
  0
ARC
  5
1B1AD
  8
SJC
 10
2891.9786626583609
 20
1330.331723031662
 30
0.0
 40
10.0
 50
283.9168774331053
 51
359.99999999997402
  0
LINE
  5
1B1AE
  8
CENTER
 10
2881.9786626583718
 20
1357.507178548585
 30
0.0
 11
2881.9786626583668
 21
1339.5071785485859
 31
0.0
  0
LINE
  5
1B1AF
  8
CENTER
 10
2890.97866265837
 20
1348.5071785485829
 30
0.0
 11
2872.97866265837
 21
1348.5071785485879
 31
0.0
  0
LINE
  5
1B1B0
  8
SJC
 10
2894.3838023871249
 20
1320.6252662690149
 30
0.0
 11
2788.9786626569112
 21
1294.507178548623
 31
0.0
  0
ARC
  5
1B1B1
  8
SJC
 10
2891.9786626583609
 20
1366.6826340655041
 30
0.0
 40
10.0
 50
0.0000000000260551
 51
76.083122566894787
  0
LINE
  5
1B1B2
  8
SJC
 10
2894.3838023871249
 20
1376.3890908281501
 30
0.0
 11
2788.9786626569112
 21
1402.5071785485429
 31
0.0
  0
LINE
  5
1B1B3
  8
CENTER
 10
2881.9786626583718
 20
1357.507178548585
 30
0.0
 11
2881.9786626583668
 21
1339.5071785485859
 31
0.0
  0
LINE
  5
1B1B4
  8
CENTER
 10
2881.9786626583732
 20
1357.507178548585
 30
0.0
 11
2881.9786626583659
 21
1339.5071785485859
 31
0.0
  0
CIRCLE
  5
1B1B5
  8
SJC
 10
2881.9786626583691
 20
1348.5071785485859
 30
0.0
 40
9.0
  0
CIRCLE
  5
1B1B6
  8
SJC
 10
2881.9786626583691
 20
1348.5071785485859
 30
0.0
 40
8.0
  0
LINE
  5
1B1B7
  8
SJC2
 10
2881.1275988285811
 20
1354.4646253570961
 30
0.0
 11
2882.8297264881571
 21
1354.4646253570961
 31
0.0
  0
LINE
  5
1B1B8
  8
SJC2
 10
2887.9361094668802
 20
1349.3582423783721
 30
0.0
 11
2887.9361094668802
 21
1347.656114718797
 31
0.0
  0
LINE
  5
1B1B9
  8
SJC2
 10
2876.021215849858
 20
1349.3582423783721
 30
0.0
 11
2876.021215849858
 21
1347.656114718797
 31
0.0
  0
LINE
  5
1B1BA
  8
SJC2
 10
2881.1275988285811
 20
1342.549731740075
 30
0.0
 11
2882.8297264881571
 21
1342.549731740075
 31
0.0
  0
ARC
  5
1B1BB
  8
SJC2
 10
2887.9361094668802
 20
1342.549731740075
 30
0.0
 40
5.1063829787233539
 50
90.0
 51
180.0
  0
ARC
  5
1B1BC
  8
SJC2
 10
2876.021215849858
 20
1342.549731740075
 30
0.0
 40
5.1063829787233539
 50
0.0
 51
90.0
  0
ARC
  5
1B1BD
  8
SJC2
 10
2887.9361094668802
 20
1354.4646253570961
 30
0.0
 40
5.1063829787233539
 50
180.0
 51
270.0
  0
ARC
  5
1B1BE
  8
SJC2
 10
2876.021215849858
 20
1354.4646253570961
 30
0.0
 40
5.1063829787233539
 50
270.0
 51
0.0
  0
LINE
  5
1B1BF
  8
SJC
 10
2848.9786626568271
 20
1309.3744351855601
 30
0.0
 11
2848.978662656928
 21
903.63992191186765
 31
0.0
  0
DIMENSION
  5
1B2EE
  8
SUNPOU
  2
*D22
 10
1799.3472900497629
 20
218.50717854880449
 30
0.0
 11
1772.3472900497629
 21
1038.5071785488051
 31
0.0
 70
     0
  1
1130
 13
1993.829355828233
 23
1858.5071785488051
 33
0.0
 14
1983.8293558282351
 24
218.5071785488044
 34
0.0
 50
90.0
1001
ACAD
1000
DSTYLE
1002
{
1070
   287
1070
     5
1070
   144
1040
0.5
1070
    40
1040
10.0
1070
    41
1040
2.0
1070
    42
1040
1.0
1070
    43
1040
6.0
1070
    44
1040
1.0
1070
    73
1070
     0
1070
    74
1070
     0
1070
    77
1070
     1
1070
    78
1070
     8
1070
   140
1040
3.0
1070
   147
1040
1.1999999999999991
1070
   172
1070
     1
1070
   179
1070
     2
1070
   271
1070
     2
1070
   279
1070
     2
1070
   340
1005
55
1002
}
  0
LINE
  5
1B341
  8
SJC
 10
619.64738174553975
 20
1641.749636820738
 30
0.0
 11
755.6473817455435
 21
1641.7496368207389
 31
0.0
  0
LINE
  5
1B342
  8
SJC
 10
619.64738174554168
 20
1341.7496368207389
 30
0.0
 11
755.64738174554157
 21
1341.7496368207389
 31
0.0
  0
LINE
  5
1B343
  8
SJC
 10
612.64738174553975
 20
1634.7496368207389
 30
0.0
 11
612.64738174554145
 21
1348.7496368207389
 31
0.0
  0
LINE
  5
1B344
  8
SJC
 10
762.64738174554338
 20
1634.7496368207389
 30
0.0
 11
762.64738174554157
 21
1348.7496368207389
 31
0.0
  0
LINE
  5
1B345
  8
SJC
 10
607.64738174553975
 20
1634.7496368207389
 30
0.0
 11
607.64738174554077
 21
1348.7496368207389
 31
0.0
  0
ARC
  5
1B346
  8
SJC
 10
619.64738174553975
 20
1634.7496368207389
 30
0.0
 40
12.0
 50
90.0
 51
180.0
  0
ARC
  5
1B347
  8
SJC
 10
619.64738174553975
 20
1634.7496368207389
 30
0.0
 40
7.0
 50
90.0
 51
180.0
  0
LINE
  5
1B348
  8
SJC
 10
767.6473817455435
 20
1634.7496368207389
 30
0.0
 11
767.64738174554225
 21
1348.7496368207389
 31
0.0
  0
ARC
  5
1B349
  8
SJC
 10
755.64738174554157
 20
1348.7496368207389
 30
0.0
 40
12.0
 50
270.0
 51
0.0
  0
ARC
  5
1B34A
  8
SJC
 10
755.64738174554157
 20
1348.7496368207389
 30
0.0
 40
7.0
 50
270.0
 51
0.0
  0
ARC
  5
1B34B
  8
SJC
 10
755.6473817455435
 20
1634.7496368207389
 30
0.0
 40
12.0
 50
0.0
 51
90.0
  0
ARC
  5
1B34C
  8
SJC
 10
755.6473817455435
 20
1634.7496368207389
 30
0.0
 40
7.0
 50
0.0
 51
90.0
  0
ARC
  5
1B34D
  8
SJC
 10
619.64738174554168
 20
1348.7496368207389
 30
0.0
 40
12.0
 50
180.0
 51
270.0
  0
ARC
  5
1B34E
  8
SJC
 10
619.64738174554168
 20
1348.7496368207389
 30
0.0
 40
7.0
 50
180.0
 51
270.0
  0
LINE
  5
1B34F
  8
SJC
 10
755.64738174554157
 20
1336.7496368207389
 30
0.0
 11
619.64738174554168
 21
1336.7496368207389
 31
0.0
  0
DIMENSION
  5
1B350
  8
SUNPOU
  2
*D23
 10
533.71736719745945
 20
1336.7496368207389
 30
0.0
 11
506.71736719745923
 21
1491.7496368207389
 31
0.0
 70
     0
 13
619.64738174553963
 23
1646.7496368207389
 33
0.0
 14
619.64738174554145
 24
1336.7496368207389
 34
0.0
 50
90.0
1001
ACAD
1000
DSTYLE
1002
{
1070
   287
1070
     5
1070
    40
1040
10.0
1070
    41
1040
2.0
1070
    42
1040
1.0
1070
    43
1040
6.0
1070
    44
1040
1.0
1070
    73
1070
     0
1070
    74
1070
     0
1070
    77
1070
     1
1070
    78
1070
     8
1070
   140
1040
3.0
1070
   147
1040
1.1999999999999991
1070
   172
1070
     1
1070
   179
1070
     2
1070
   271
1070
     2
1070
   279
1070
     2
1070
   340
1005
55
1002
}
  0
DIMENSION
  5
1B366
  8
SUNPOU
  2
*D24
 10
467.63820172968718
 20
1336.7496368207389
 30
0.0
 11
440.63820172968713
 21
1901.7496368207389
 31
0.0
 70
     0
 13
619.64738174553975
 23
2466.7496368207399
 33
0.0
 14
609.64738174554145
 24
1336.7496368207389
 34
0.0
 50
90.0
1001
ACAD
1000
DSTYLE
1002
{
1070
   287
1070
     5
1070
    40
1040
10.0
1070
    41
1040
2.0
1070
    42
1040
1.0
1070
    43
1040
6.0
1070
    44
1040
1.0
1070
    73
1070
     0
1070
    74
1070
     0
1070
    77
1070
     1
1070
    78
1070
     8
1070
   140
1040
3.0
1070
   147
1040
1.1999999999999991
1070
   172
1070
     1
1070
   179
1070
     2
1070
   271
1070
     2
1070
   279
1070
     2
1070
   340
1005
55
1002
}
  0
LINE
  5
1B373
  8
SJC
 10
1368.363214879744
 20
1646.7496368206989
 30
0.0
 11
1366.363214879857
 21
1646.7496368207001
 31
0.0
  0
LINE
  5
1B374
  8
SJC
 10
1421.8632148804891
 20
1646.7496368207169
 30
0.0
 11
1367.36321488049
 21
1646.7496368206989
 31
0.0
  0
ARC
  5
1B378
  8
SJC
 10
1368.3632148797451
 20
1644.7496368207001
 30
0.0
 40
2.0
 50
0.0000000000260551
 51
90.0
  0
ARC
  5
1B379
  8
SJC
 10
1366.3632148797451
 20
1644.7496368207001
 30
0.0
 40
2.0
 50
90.0
 51
180.00000000001299
  0
LINE
  5
1B37A
  8
SJC
 10
1364.3632148797451
 20
1644.749636820698
 30
0.0
 11
1364.3632148797469
 21
1642.249636820698
 31
0.0
  0
LINE
  5
1B37B
  8
SJC
 10
1370.3632148797451
 20
1644.7496368207021
 30
0.0
 11
1370.3632148798119
 21
1338.749636820683
 31
0.0
  0
LINE
  5
1B37C
  8
SJC
 10
1426.863214880487
 20
1641.749636820678
 30
0.0
 11
1426.8632148804811
 21
1624.661909062218
 31
0.0
  0
ARC
  5
1B37D
  8
SJC
 10
1421.863214880487
 20
1641.7496368206801
 30
0.0
 40
5.0
 50
359.99999999997402
 51
90.0
  0
LINE
  5
1B37E
  8
CENTER
 10
1416.8632148804861
 20
1632.2496368206821
 30
0.0
 11
1416.8632148804829
 21
1623.2496368206821
 31
0.0
  0
LINE
  5
1B37F
  8
CENTER
 10
1421.363214880485
 20
1627.7496368206801
 30
0.0
 11
1412.363214880485
 21
1627.749636820683
 31
0.0
  0
CIRCLE
  5
1B380
  8
SJC
 10
1416.863214880485
 20
1627.7496368206821
 30
0.0
 40
4.5
  0
LINE
  5
1B381
  8
SJC
 10
1364.3632148797469
 20
1642.249636820698
 30
0.0
 11
1364.3632148797469
 21
1338.749636820683
 31
0.0
  0
LINE
  5
1B382
  8
SJC
 10
1423.0657847448631
 20
1619.8086806808969
 30
0.0
 11
1370.363214879756
 21
1606.7496368207001
 31
0.0
  0
ARC
  5
1B383
  8
SJC
 10
1421.8632148804811
 20
1624.66190906222
 30
0.0
 40
5.0
 50
283.9168774331053
 51
359.99999999997402
  0
LINE
  5
1B384
  8
SJC
 10
1368.3632148798561
 20
1336.7496368206821
 30
0.0
 11
1366.363214879857
 21
1336.749636820683
 31
0.0
  0
ARC
  5
1B385
  8
SJC
 10
1368.363214879857
 20
1338.7496368206821
 30
0.0
 40
2.0
 50
270.0
 51
359.99999999997402
  0
ARC
  5
1B386
  8
SJC
 10
1366.363214879857
 20
1338.749636820683
 30
0.0
 40
2.0
 50
179.99999999998701
 51
270.0
  0
LINE
  5
1B388
  8
SJC
 10
1426.8632148805989
 20
1341.7496368207039
 30
0.0
 11
1426.863214880593
 21
1358.8373645791651
 31
0.0
  0
ARC
  5
1B389
  8
SJC
 10
1421.8632148805989
 20
1341.7496368207021
 30
0.0
 40
5.0
 50
270.0
 51
0.0000000000260551
  0
LINE
  5
1B38A
  8
SJC
 10
1421.8632148806009
 20
1336.7496368207001
 30
0.0
 11
1367.3632148806021
 21
1336.7496368206821
 31
0.0
  0
LINE
  5
1B38B
  8
CENTER
 10
1416.863214880598
 20
1351.249636820701
 30
0.0
 11
1416.863214880595
 21
1360.249636820701
 31
0.0
  0
LINE
  5
1B38C
  8
CENTER
 10
1421.3632148805971
 20
1355.7496368207021
 30
0.0
 11
1412.3632148805971
 21
1355.7496368207001
 31
0.0
  0
CIRCLE
  5
1B38D
  8
SJC
 10
1416.8632148805971
 20
1355.749636820701
 30
0.0
 40
4.5
  0
LINE
  5
1B38E
  8
SJC
 10
1423.065784744975
 20
1363.6905929604859
 30
0.0
 11
1370.3632148798681
 21
1376.7496368206821
 31
0.0
  0
ARC
  5
1B38F
  8
SJC
 10
1421.8632148805921
 20
1358.837364579163
 30
0.0
 40
5.0
 50
0.0000000000260551
 51
76.083122566894787
  0
LINE
  5
1B390
  8
SJC
 10
1400.3632148796539
 20
1614.1832651391539
 30
0.0
 11
1400.3632148797669
 21
1369.316008502228
 31
0.0
  0
CIRCLE
  5
1B391
  8
SJC
 10
1416.863214879746
 20
1627.7496368206821
 30
0.0
 40
4.0
  0
LINE
  5
1B392
  8
SJC2
 10
1416.437682964852
 20
1630.728360224937
 30
0.0
 11
1417.28874679464
 21
1630.728360224937
 31
0.0
  0
LINE
  5
1B393
  8
SJC2
 10
1419.841938284002
 20
1628.175168735575
 30
0.0
 11
1419.841938284002
 21
1627.3241049057881
 31
0.0
  0
LINE
  5
1B394
  8
SJC2
 10
1413.8844914754909
 20
1628.175168735575
 30
0.0
 11
1413.8844914754909
 21
1627.3241049057881
 31
0.0
  0
LINE
  5
1B395
  8
SJC2
 10
1416.437682964852
 20
1624.770913416427
 30
0.0
 11
1417.28874679464
 21
1624.770913416427
 31
0.0
  0
ARC
  5
1B396
  8
SJC2
 10
1419.841938284002
 20
1624.770913416427
 30
0.0
 40
2.5531914893616769
 50
90.0
 51
180.0
  0
ARC
  5
1B397
  8
SJC2
 10
1413.8844914754909
 20
1624.770913416427
 30
0.0
 40
2.5531914893616769
 50
0.0
 51
90.0
  0
ARC
  5
1B398
  8
SJC2
 10
1419.841938284002
 20
1630.728360224937
 30
0.0
 40
2.5531914893616769
 50
180.0
 51
270.0
  0
ARC
  5
1B399
  8
SJC2
 10
1413.8844914754909
 20
1630.728360224937
 30
0.0
 40
2.5531914893616769
 50
270.0
 51
0.0
  0
CIRCLE
  5
1B39A
  8
SJC
 10
1416.863214879008
 20
1355.749636820701
 30
0.0
 40
4.0
  0
LINE
  5
1B39B
  8
SJC2
 10
1416.4376829641139
 20
1358.7283602249561
 30
0.0
 11
1417.288746793902
 21
1358.7283602249561
 31
0.0
  0
LINE
  5
1B39C
  8
SJC2
 10
1419.8419382832631
 20
1356.1751687355941
 30
0.0
 11
1419.8419382832631
 21
1355.3241049058061
 31
0.0
  0
LINE
  5
1B39D
  8
SJC2
 10
1413.8844914747519
 20
1356.1751687355941
 30
0.0
 11
1413.8844914747519
 21
1355.3241049058061
 31
0.0
  0
LINE
  5
1B39E
  8
SJC2
 10
1416.4376829641139
 20
1352.7709134164461
 30
0.0
 11
1417.288746793902
 21
1352.7709134164461
 31
0.0
  0
ARC
  5
1B39F
  8
SJC2
 10
1419.8419382832631
 20
1352.7709134164461
 30
0.0
 40
2.5531914893616769
 50
90.0
 51
180.0
  0
ARC
  5
1B3A0
  8
SJC2
 10
1413.8844914747519
 20
1352.7709134164461
 30
0.0
 40
2.5531914893616769
 50
0.0
 51
90.0
  0
ARC
  5
1B3A1
  8
SJC2
 10
1419.8419382832631
 20
1358.7283602249561
 30
0.0
 40
2.5531914893616769
 50
180.0
 51
270.0
  0
ARC
  5
1B3A2
  8
SJC2
 10
1413.8844914747519
 20
1358.7283602249561
 30
0.0
 40
2.5531914893616769
 50
270.0
 51
0.0
  0
LINE
  5
1B49F
  8
SJC
 10
1979.829355828241
 20
661.50717854880395
 30
0.0
 11
1979.8293558282419
 21
552.50717854880588
 31
0.0
  0
LINE
  5
1B4A0
  8
SJC
 10
1979.8293558282419
 20
504.5071785488044
 30
0.0
 11
1979.829355828243
 21
391.50717854880378
 31
0.0
  0
LINE
  5
1B4A1
  8
SJC
 10
2279.8293558282471
 20
661.50717854880122
 30
0.0
 11
2279.8293558282448
 21
552.50717854880645
 31
0.0
  0
LINE
  5
1B4A2
  8
SJC
 10
2279.8293558282439
 20
504.5071785488044
 30
0.0
 11
2279.8293558282439
 21
391.50717854880401
 31
0.0
  0
LINE
  5
1B4A3
  8
SJC
 10
1969.8293558282401
 20
661.50717854880372
 30
0.0
 11
1969.829355828241
 21
552.50717854880577
 31
0.0
  0
LINE
  5
1B4A4
  8
SJC
 10
1969.829355828241
 20
504.5071785488044
 30
0.0
 11
1969.8293558282419
 21
391.50717854880401
 31
0.0
  0
LINE
  5
1B4A5
  8
SJC
 10
2289.8293558282462
 20
661.50717854880065
 30
0.0
 11
2289.8293558282439
 21
552.50717854880622
 31
0.0
  0
LINE
  5
1B4A6
  8
SJC
 10
2289.8293558282439
 20
504.50717854880412
 30
0.0
 11
2289.8293558282439
 21
391.50717854880378
 31
0.0
  0
LINE
  5
1B4A8
  8
SUNPOU
 10
2159.829355828243
 20
701.50717854880247
 30
0.0
 11
2159.829355828243
 21
671.50717854880156
 31
0.0
  0
LINE
  5
1B4A9
  8
SUNPOU
 10
2099.829355828243
 20
731.50717854880156
 30
0.0
 11
2099.829355828243
 21
701.50717854880247
 31
0.0
  0
LINE
  5
1B4AA
  8
SUNPOU
 10
2309.8293558282448
 20
701.50717854880395
 30
0.0
 11
2159.829355828243
 21
701.50717854880247
 31
0.0
  0
LINE
  5
1B4AB
  8
SUNPOU
 10
1949.829355828241
 20
701.50717854880395
 30
0.0
 11
2099.829355828243
 21
701.50717854880247
 31
0.0
  0
LINE
  5
1B4AC
  8
SUNPOU
 10
2099.829355828243
 20
731.50717854880156
 30
0.0
 11
2159.829355828243
 21
671.50717854880156
 31
0.0
  0
LINE
  5
1B4AD
  8
SUNPOU
 10
2159.829355828243
 20
661.50717854880259
 30
0.0
 11
2159.829355828243
 21
631.50717854880156
 31
0.0
  0
LINE
  5
1B4AE
  8
SUNPOU
 10
2099.829355828243
 20
691.50717854880168
 30
0.0
 11
2099.829355828243
 21
661.50717854880259
 31
0.0
  0
LINE
  5
1B4AF
  8
SUNPOU
 10
2309.8293558282448
 20
661.50717854880395
 30
0.0
 11
2159.829355828243
 21
661.50717854880259
 31
0.0
  0
LINE
  5
1B4B0
  8
SUNPOU
 10
1949.829355828241
 20
661.50717854880395
 30
0.0
 11
2099.829355828243
 21
661.50717854880259
 31
0.0
  0
LINE
  5
1B4B1
  8
SUNPOU
 10
2099.829355828243
 20
691.50717854880168
 30
0.0
 11
2159.829355828243
 21
631.50717854880156
 31
0.0
  0
LINE
  5
1B4B2
  8
SJC
 10
2265.8293558282448
 20
528.50717854880577
 30
0.0
 11
2129.829355828243
 21
528.50717854880429
 31
0.0
  0
LINE
  5
1B4B3
  8
SJC
 10
2129.829355828243
 20
528.50717854880429
 30
0.0
 11
1993.8293558282451
 21
528.50717854880486
 31
0.0
  0
LINE
  5
1B4B4
  8
SJC
 10
1993.8293558282389
 20
518.50717854880259
 30
0.0
 11
2265.8293558282462
 21
518.5071785488044
 31
0.0
  0
ARC
  5
1B4B5
  8
SJC
 10
1993.8293558282389
 20
504.5071785488044
 30
0.0
 40
24.0
 50
90.0
 51
180.0
  0
ARC
  5
1B4B6
  8
SJC
 10
1993.8293558282389
 20
504.5071785488044
 30
0.0
 40
14.0
 50
90.0
 51
180.0
  0
ARC
  5
1B4B7
  8
SJC
 10
2265.8293558282462
 20
504.5071785488044
 30
0.0
 40
24.0
 50
0.0
 51
90.0
  0
ARC
  5
1B4B8
  8
SJC
 10
2265.8293558282462
 20
504.5071785488044
 30
0.0
 40
14.0
 50
0.0
 51
90.0
  0
LINE
  5
1B4B9
  8
SJC
 10
1993.8293558282371
 20
538.50717854880622
 30
0.0
 11
2265.8293558282371
 21
538.50717854880656
 31
0.0
  0
ARC
  5
1B4BA
  8
SJC
 10
2265.8293558282371
 20
552.50717854880668
 30
0.0
 40
24.0
 50
270.0
 51
0.0
  0
ARC
  5
1B4BB
  8
SJC
 10
2265.8293558282371
 20
552.50717854880668
 30
0.0
 40
14.0
 50
270.0
 51
0.0
  0
ARC
  5
1B4BC
  8
SJC
 10
1993.8293558282371
 20
552.50717854880622
 30
0.0
 40
24.0
 50
180.0
 51
270.0
  0
ARC
  5
1B4BD
  8
SJC
 10
1993.8293558282371
 20
552.50717854880622
 30
0.0
 40
14.0
 50
180.0
 51
270.0
  0
LINE
  5
1B4BE
  8
SJC
 10
2265.829355828238
 20
528.50717854880531
 30
0.0
 11
1993.829355828231
 21
528.50717854880531
 31
0.0
  0
LINE
  5
1B4BF
  8
SUNPOU
 10
2159.829355828243
 20
391.50717854880259
 30
0.0
 11
2159.829355828243
 21
361.50717854880168
 31
0.0
  0
LINE
  5
1B4C0
  8
SUNPOU
 10
2099.829355828243
 20
421.50717854880162
 30
0.0
 11
2099.829355828243
 21
391.50717854880259
 31
0.0
  0
LINE
  5
1B4C1
  8
SUNPOU
 10
2309.8293558282448
 20
391.50717854880401
 30
0.0
 11
2159.829355828243
 21
391.50717854880259
 31
0.0
  0
LINE
  5
1B4C2
  8
SUNPOU
 10
1949.829355828241
 20
391.50717854880401
 30
0.0
 11
2099.829355828243
 21
391.50717854880259
 31
0.0
  0
LINE
  5
1B4C3
  8
SUNPOU
 10
2099.829355828243
 20
421.50717854880162
 30
0.0
 11
2159.829355828243
 21
361.50717854880168
 31
0.0
  0
LINE
  5
1B4C4
  8
SUNPOU
 10
2159.829355828243
 20
351.50717854880259
 30
0.0
 11
2159.829355828243
 21
321.50717854880168
 31
0.0
  0
LINE
  5
1B4C5
  8
SUNPOU
 10
2099.829355828243
 20
381.50717854880168
 30
0.0
 11
2099.829355828243
 21
351.50717854880259
 31
0.0
  0
LINE
  5
1B4C6
  8
SUNPOU
 10
2309.8293558282448
 20
351.50717854880401
 30
0.0
 11
2159.829355828243
 21
351.50717854880259
 31
0.0
  0
LINE
  5
1B4C7
  8
SUNPOU
 10
1949.829355828241
 20
351.50717854880401
 30
0.0
 11
2099.829355828243
 21
351.50717854880259
 31
0.0
  0
LINE
  5
1B4C8
  8
SUNPOU
 10
2099.829355828243
 20
381.50717854880168
 30
0.0
 11
2159.829355828243
 21
321.50717854880168
 31
0.0
  0
LINE
  5
1B4C9
  8
SJC
 10
1979.8293558282339
 20
504.5071785488044
 30
0.0
 11
1979.829355828236
 21
391.50717854880378
 31
0.0
  0
LINE
  5
1B4CA
  8
SJC
 10
2279.8293558282362
 20
504.50717854880412
 30
0.0
 11
2279.8293558282348
 21
391.50717854880099
 31
0.0
  0
LINE
  5
1B4CB
  8
SJC
 10
2289.8293558282371
 20
504.5071785488044
 30
0.0
 11
2289.8293558282362
 21
391.50717854880082
 31
0.0
  0
LINE
  5
1B4CC
  8
SJC
 10
1969.829355828233
 20
504.5071785488044
 30
0.0
 11
1969.829355828233
 21
391.50717854880378
 31
0.0
  0
DIMENSION
  5
1B4CD
  8
SUNPOU
  2
*D25
 10
1890.500388950458
 20
528.50717854880486
 30
0.0
 11
1863.500388950458
 21
683.5071785488052
 31
0.0
 70
     0
 13
1993.8293558282371
 23
838.50717854880475
 33
0.0
 14
1993.8293558282451
 24
528.50717854880486
 34
0.0
 50
90.0
1001
ACAD
1000
DSTYLE
1002
{
1070
   287
1070
     5
1070
    40
1040
10.0
1070
    41
1040
2.0
1070
    42
1040
1.0
1070
    43
1040
6.0
1070
    44
1040
1.0
1070
    73
1070
     0
1070
    74
1070
     0
1070
    77
1070
     1
1070
    78
1070
     8
1070
   140
1040
3.0
1070
   147
1040
1.1999999999999991
1070
   172
1070
     1
1070
   179
1070
     2
1070
   271
1070
     2
1070
   279
1070
     2
1070
   340
1005
55
1002
}
  0
DIMENSION
  5
1B4DA
  8
SUNPOU
  2
*D26
 10
1890.500388950458
 20
218.50717854880449
 30
0.0
 11
1863.500388950458
 21
373.50717854880497
 31
0.0
 70
     0
 13
1993.8293558282451
 23
528.50717854880486
 33
0.0
 14
1993.8293558282351
 24
218.5071785488044
 34
0.0
 50
90.0
1001
ACAD
1000
DSTYLE
1002
{
1070
   287
1070
     5
1070
    40
1040
10.0
1070
    41
1040
2.0
1070
    42
1040
1.0
1070
    43
1040
6.0
1070
    44
1040
1.0
1070
    73
1070
     0
1070
    74
1070
     0
1070
    77
1070
     1
1070
    78
1070
     8
1070
   140
1040
3.0
1070
   147
1040
1.1999999999999991
1070
   172
1070
     1
1070
   179
1070
     2
1070
   271
1070
     2
1070
   279
1070
     2
1070
   340
1005
55
1002
}
  0
LINE
  5
1B4F0
  8
SJC
 10
1979.829355828233
 20
661.50717854880338
 30
0.0
 11
1979.829355828233
 21
552.50717854880588
 31
0.0
  0
LINE
  5
1B4F1
  8
SJC
 10
1969.8293558282321
 20
661.50717854880372
 30
0.0
 11
1969.829355828233
 21
552.50717854880588
 31
0.0
  0
LINE
  5
1B4F2
  8
SJC
 10
2279.829355828238
 20
661.50717854880065
 30
0.0
 11
2279.8293558282371
 21
552.50717854880622
 31
0.0
  0
LINE
  5
1B4F3
  8
SJC
 10
2289.829355828238
 20
661.50717854880065
 30
0.0
 11
2289.8293558282371
 21
552.50717854880645
 31
0.0
  0
LINE
  5
1B4F4
  8
SJC
 10
2289.8293558282348
 20
351.50717854880082
 30
0.0
 11
2289.8293558282348
 21
242.50717854880489
 31
0.0
  0
LINE
  5
1B4F5
  8
SJC
 10
2279.8293558282348
 20
351.50717854880099
 30
0.0
 11
2279.829355828233
 21
242.50717854880531
 31
0.0
  0
LINE
  5
1B4F6
  8
SJC
 10
1979.829355828236
 20
351.50717854880372
 30
0.0
 11
1979.829355828236
 21
242.50717854880489
 31
0.0
  0
LINE
  5
1B4F7
  8
SJC
 10
1969.8293558282339
 20
351.50717854880372
 30
0.0
 11
1969.8293558282351
 21
242.5071785488044
 31
0.0
  0
LINE
  5
1B5E9
  8
SJC
 10
2969.4786626568898
 20
661.50717854879599
 30
0.0
 11
2969.4786626568898
 21
391.50717854880259
 31
0.0
1001
ACAD
1000
ASC_BOUNDS
1002
{
1070
    19
1002
}
  0
LINE
  5
1B5EA
  8
SJC
 10
2776.9786626571108
 20
661.50717854879781
 30
0.0
 11
2776.9786626571122
 21
532.50717854876984
 31
0.0
  0
LINE
  5
1B5EB
  8
SJC
 10
2776.9786626571122
 20
524.50717854876984
 30
0.0
 11
2776.9786626571122
 21
391.5071785488044
 31
0.0
  0
LINE
  5
1B5EC
  8
SJC
 10
2788.9786626571699
 20
661.50717854879758
 30
0.0
 11
2788.978662657215
 21
532.50717854876928
 31
0.0
  0
LINE
  5
1B5ED
  8
SJC
 10
2788.9786626572181
 20
524.50717854877303
 30
0.0
 11
2788.9786626572659
 21
391.5071785488044
 31
0.0
  0
LINE
  5
1B5F1
  8
SJC
 10
2776.9786626571122
 20
661.50717854879804
 30
0.0
 11
2776.9786626571122
 21
532.50717854876984
 31
0.0
  0
LINE
  5
1B5F2
  8
SJC
 10
2776.9786626571122
 20
524.50717854876984
 30
0.0
 11
2776.9786626571122
 21
391.5071785488044
 31
0.0
  0
LINE
  5
1B5F4
  8
SJC
 10
2848.9786626569762
 20
661.50717854879713
 30
0.0
 11
2848.9786626570062
 21
593.63992191184059
 31
0.0
  0
LINE
  5
1B5F5
  8
SJC
 10
2848.9786626570658
 20
463.37443518571382
 30
0.0
 11
2848.9786626570981
 21
391.50717854880378
 31
0.0
  0
LINE
  5
1B5F6
  8
SJC
 10
2788.9786626572181
 20
532.50717854876802
 30
0.0
 11
2788.978662657219
 21
543.50717854920686
 31
0.0
  0
LINE
  5
1B5F7
  8
SJC
 10
2788.97866265722
 20
543.50717854875927
 30
0.0
 11
2788.97866265722
 21
532.50717854876802
 31
0.0
  0
LINE
  5
1B5F8
  8
SJC
 10
2784.9786626571081
 20
528.50717854876802
 30
0.0
 11
2780.9786626571081
 21
528.50717854876984
 31
0.0
  0
ARC
  5
1B5F9
  8
SJC
 10
2784.9786626571099
 20
532.50717854876802
 30
0.0
 40
4.0
 50
270.0
 51
359.99999999997402
  0
ARC
  5
1B5FA
  8
SJC
 10
2780.9786626571099
 20
532.50717854876984
 30
0.0
 40
4.0
 50
179.99999999998701
 51
270.0
  0
LINE
  5
1B5FB
  8
SJC
 10
2776.978662657109
 20
532.50717854877155
 30
0.0
 11
2776.9786626571131
 21
537.50717854877212
 31
0.0
  0
LINE
  5
1B5FC
  8
SJC
 10
2901.9786626585942
 20
538.50717854881168
 30
0.0
 11
2901.978662658581
 21
572.6826340657326
 31
0.0
  0
ARC
  5
1B5FD
  8
SJC
 10
2891.9786626585942
 20
538.50717854880895
 30
0.0
 40
10.0
 50
270.0
 51
0.0000000000260551
  0
LINE
  5
1B5FE
  8
SJC
 10
2891.9786626585978
 20
528.50717854880259
 30
0.0
 11
2784.9786626571108
 21
528.50717854876802
 31
0.0
  0
LINE
  5
1B5FF
  8
CENTER
 10
2881.9786626585919
 20
557.50717854880577
 30
0.0
 11
2881.9786626585869
 21
575.50717854880565
 31
0.0
  0
LINE
  5
1B600
  8
CENTER
 10
2890.9786626585901
 20
566.5071785488085
 30
0.0
 11
2872.9786626585901
 21
566.50717854880304
 31
0.0
  0
LINE
  5
1B603
  8
SJC
 10
2894.383802387345
 20
582.38909082837563
 30
0.0
 11
2788.9786626571322
 21
608.50717854876837
 31
0.0
  0
ARC
  5
1B604
  8
SJC
 10
2891.978662658581
 20
572.68263406572942
 30
0.0
 40
10.0
 50
0.0000000000260551
 51
76.083122566894787
  0
LINE
  5
1B607
  8
CENTER
 10
2881.978662660068
 20
575.50717854880565
 30
0.0
 11
2881.978662660063
 21
557.50717854880577
 31
0.0
  0
LINE
  5
1B608
  8
CENTER
 10
2890.9786626600662
 20
566.50717854880304
 30
0.0
 11
2872.9786626600671
 21
566.5071785488085
 31
0.0
  0
LINE
  5
1B609
  8
CENTER
 10
2881.978662660068
 20
575.50717854880565
 30
0.0
 11
2881.978662660063
 21
557.50717854880577
 31
0.0
  0
LINE
  5
1B60A
  8
CENTER
 10
2881.9786626600689
 20
575.50717854880565
 30
0.0
 11
2881.9786626600621
 21
557.50717854880577
 31
0.0
  0
CIRCLE
  5
1B60B
  8
SJC
 10
2881.9786626600649
 20
566.50717854880565
 30
0.0
 40
9.0
  0
CIRCLE
  5
1B60C
  8
SJC
 10
2881.9786626600649
 20
566.50717854880565
 30
0.0
 40
8.0
  0
LINE
  5
1B60D
  8
SJC2
 10
2881.1275988302768
 20
572.46462535731587
 30
0.0
 11
2882.829726489852
 21
572.46462535731587
 31
0.0
  0
LINE
  5
1B60E
  8
SJC2
 10
2887.936109468576
 20
567.35824237859242
 30
0.0
 11
2887.936109468576
 21
565.65611471901718
 31
0.0
  0
LINE
  5
1B60F
  8
SJC2
 10
2876.0212158515551
 20
567.35824237859242
 30
0.0
 11
2876.0212158515551
 21
565.65611471901718
 31
0.0
  0
LINE
  5
1B610
  8
SJC2
 10
2881.1275988302768
 20
560.54973174029556
 30
0.0
 11
2882.829726489852
 21
560.54973174029556
 31
0.0
  0
ARC
  5
1B611
  8
SJC2
 10
2887.936109468576
 20
560.54973174029556
 30
0.0
 40
5.1063829787233539
 50
90.0
 51
180.0
  0
ARC
  5
1B612
  8
SJC2
 10
2876.0212158515551
 20
560.54973174029556
 30
0.0
 40
5.1063829787233539
 50
0.0
 51
90.0
  0
ARC
  5
1B613
  8
SJC2
 10
2887.936109468576
 20
572.46462535731587
 30
0.0
 40
5.1063829787233539
 50
180.0
 51
270.0
  0
ARC
  5
1B614
  8
SJC2
 10
2876.0212158515551
 20
572.46462535731587
 30
0.0
 40
5.1063829787233539
 50
270.0
 51
0.0
  0
LINE
  5
1B615
  8
SJC
 10
2784.9786626571058
 20
528.50717854877155
 30
0.0
 11
2780.9786626571058
 21
528.50717854876984
 31
0.0
  0
ARC
  5
1B616
  8
SJC
 10
2784.9786626571081
 20
524.50717854877155
 30
0.0
 40
4.0
 50
0.0000000000260551
 51
90.0
  0
ARC
  5
1B617
  8
SJC
 10
2780.9786626571081
 20
524.50717854876984
 30
0.0
 40
4.0
 50
90.0
 51
180.00000000001299
  0
LINE
  5
1B618
  8
SJC
 10
2776.9786626571081
 20
524.50717854876802
 30
0.0
 11
2776.9786626571122
 21
519.507178548767
 31
0.0
  0
LINE
  5
1B619
  8
SJC
 10
2901.9786626585919
 20
518.50717854872801
 30
0.0
 11
2901.9786626585792
 21
484.33172303180709
 31
0.0
  0
ARC
  5
1B61A
  8
SJC
 10
2891.9786626585919
 20
518.50717854873074
 30
0.0
 40
10.0
 50
359.99999999997402
 51
90.0
  0
LINE
  5
1B61B
  8
CENTER
 10
2881.9786626585901
 20
499.50717854873341
 30
0.0
 11
2881.9786626585851
 21
481.50717854873341
 31
0.0
  0
LINE
  5
1B61C
  8
CENTER
 10
2890.9786626585878
 20
490.50717854873068
 30
0.0
 11
2872.9786626585892
 21
490.50717854873608
 31
0.0
  0
LINE
  5
1B61F
  8
SJC
 10
2894.3838023873432
 20
474.625266269164
 30
0.0
 11
2788.978662657129
 21
448.5071785487707
 31
0.0
  0
ARC
  5
1B620
  8
SJC
 10
2891.9786626585801
 20
484.33172303180982
 30
0.0
 40
10.0
 50
283.9168774331053
 51
359.99999999997402
  0
LINE
  5
1B623
  8
CENTER
 10
2881.978662658591
 20
499.50717854873341
 30
0.0
 11
2881.9786626585842
 21
481.50717854873341
 31
0.0
  0
CIRCLE
  5
1B624
  8
SJC
 10
2881.9786626585878
 20
490.50717854873352
 30
0.0
 40
9.0
  0
CIRCLE
  5
1B625
  8
SJC
 10
2881.9786626585878
 20
490.50717854873352
 30
0.0
 40
8.0
  0
LINE
  5
1B626
  8
SJC2
 10
2881.1275988287989
 20
496.46462535724362
 30
0.0
 11
2882.829726488374
 21
496.46462535724362
 31
0.0
  0
LINE
  5
1B627
  8
SJC2
 10
2887.936109467098
 20
491.35824237852012
 30
0.0
 11
2887.936109467098
 21
489.65611471894499
 31
0.0
  0
LINE
  5
1B628
  8
SJC2
 10
2876.0212158500772
 20
491.35824237852012
 30
0.0
 11
2876.0212158500772
 21
489.65611471894499
 31
0.0
  0
LINE
  5
1B629
  8
SJC2
 10
2881.1275988287989
 20
484.54973174022319
 30
0.0
 11
2882.829726488374
 21
484.54973174022319
 31
0.0
  0
ARC
  5
1B62A
  8
SJC2
 10
2887.936109467098
 20
484.54973174022319
 30
0.0
 40
5.1063829787233539
 50
90.0
 51
180.0
  0
ARC
  5
1B62B
  8
SJC2
 10
2876.0212158500772
 20
484.54973174022319
 30
0.0
 40
5.1063829787233539
 50
0.0
 51
90.0
  0
ARC
  5
1B62C
  8
SJC2
 10
2887.936109467098
 20
496.46462535724362
 30
0.0
 40
5.1063829787233539
 50
180.0
 51
270.0
  0
ARC
  5
1B62D
  8
SJC2
 10
2876.0212158500772
 20
496.46462535724362
 30
0.0
 40
5.1063829787233539
 50
270.0
 51
0.0
  0
LINE
  5
1B62E
  8
SUNPOU
 10
2911.9786626571108
 20
701.50717854879713
 30
0.0
 11
2911.9786626571108
 21
671.50717854879622
 31
0.0
  0
LINE
  5
1B62F
  8
SUNPOU
 10
2851.9786626571122
 20
731.50717854879622
 30
0.0
 11
2851.9786626571122
 21
701.50717854879713
 31
0.0
  0
LINE
  5
1B630
  8
SUNPOU
 10
3007.9786626571149
 20
701.50717854879804
 30
0.0
 11
2911.9786626571108
 21
701.50717854879713
 31
0.0
  0
LINE
  5
1B631
  8
SUNPOU
 10
2755.9786626571081
 20
701.50717854879804
 30
0.0
 11
2851.9786626571122
 21
701.50717854879713
 31
0.0
  0
LINE
  5
1B632
  8
SUNPOU
 10
2851.9786626571122
 20
731.50717854879622
 30
0.0
 11
2911.9786626571108
 21
671.50717854879622
 31
0.0
  0
LINE
  5
1B633
  8
SUNPOU
 10
2911.9786626571108
 20
661.50717854879713
 30
0.0
 11
2911.9786626571108
 21
631.50717854879622
 31
0.0
  0
LINE
  5
1B634
  8
SUNPOU
 10
2851.9786626571108
 20
691.50717854879611
 30
0.0
 11
2851.9786626571108
 21
661.50717854879713
 31
0.0
  0
LINE
  5
1B635
  8
SUNPOU
 10
3007.978662657114
 20
661.50717854879804
 30
0.0
 11
2911.9786626571108
 21
661.50717854879713
 31
0.0
  0
LINE
  5
1B636
  8
SUNPOU
 10
2755.9786626571072
 20
661.50717854879804
 30
0.0
 11
2851.9786626571108
 21
661.50717854879713
 31
0.0
  0
LINE
  5
1B637
  8
SUNPOU
 10
2851.9786626571108
 20
691.50717854879611
 30
0.0
 11
2911.9786626571108
 21
631.50717854879622
 31
0.0
  0
LINE
  5
1B638
  8
SUNPOU
 10
2911.978662657139
 20
391.50717854880378
 30
0.0
 11
2911.978662657139
 21
361.50717854880281
 31
0.0
  0
LINE
  5
1B639
  8
SUNPOU
 10
2851.978662657139
 20
421.50717854880281
 30
0.0
 11
2851.978662657139
 21
391.50717854880378
 31
0.0
  0
LINE
  5
1B63A
  8
SUNPOU
 10
3007.9786626571422
 20
391.50717854880457
 30
0.0
 11
2911.978662657139
 21
391.50717854880378
 31
0.0
  0
LINE
  5
1B63B
  8
SUNPOU
 10
2755.9786626571349
 20
391.50717854880457
 30
0.0
 11
2851.978662657139
 21
391.50717854880378
 31
0.0
  0
LINE
  5
1B63C
  8
SUNPOU
 10
2851.978662657139
 20
421.50717854880281
 30
0.0
 11
2911.978662657139
 21
361.50717854880281
 31
0.0
  0
LINE
  5
1B63D
  8
SUNPOU
 10
2911.9786626571381
 20
351.50717854880372
 30
0.0
 11
2911.9786626571381
 21
321.50717854880281
 31
0.0
  0
LINE
  5
1B63E
  8
SUNPOU
 10
2851.9786626571381
 20
381.50717854880281
 30
0.0
 11
2851.9786626571381
 21
351.50717854880372
 31
0.0
  0
LINE
  5
1B63F
  8
SUNPOU
 10
3007.9786626571422
 20
351.50717854880457
 30
0.0
 11
2911.9786626571381
 21
351.50717854880372
 31
0.0
  0
LINE
  5
1B640
  8
SUNPOU
 10
2755.9786626571349
 20
351.50717854880457
 30
0.0
 11
2851.9786626571381
 21
351.50717854880372
 31
0.0
  0
LINE
  5
1B641
  8
SUNPOU
 10
2851.9786626571381
 20
381.50717854880281
 30
0.0
 11
2911.9786626571381
 21
321.50717854880281
 31
0.0
  0
LINE
  5
1B643
  8
SJC
 10
2788.9786626571731
 20
661.50717854879758
 30
0.0
 11
2788.97866265727
 21
391.5071785488044
 31
0.0
  0
LINE
  5
1B644
  8
SJC
 10
2776.9786626571149
 20
661.50717854879758
 30
0.0
 11
2776.9786626571149
 21
391.5071785488044
 31
0.0
  0
LINE
  5
1B645
  8
SJC
 10
2776.9786626571149
 20
661.50717854879758
 30
0.0
 11
2776.9786626571158
 21
391.5071785488044
 31
0.0
  0
LINE
  5
1B647
  8
SJC
 10
2848.9786626569798
 20
661.50717854879713
 30
0.0
 11
2848.9786626570099
 21
593.63992191183968
 31
0.0
  0
LINE
  5
1B649
  8
SJC
 10
2969.4786626568939
 20
661.50717854879599
 30
0.0
 11
2969.4786626568939
 21
391.50717854880259
 31
0.0
1001
ACAD
1000
ASC_BOUNDS
1002
{
1070
    19
1002
}
  0
LINE
  5
1B64A
  8
SJC
 10
2776.9786626571149
 20
351.5071785488044
 30
0.0
 11
2776.9786626571149
 21
222.50717854837791
 31
0.0
  0
LINE
  5
1B64B
  8
SJC
 10
2776.9786626571158
 20
351.5071785488044
 30
0.0
 11
2776.9786626571149
 21
222.50717854884709
 31
0.0
  0
LINE
  5
1B64E
  8
SJC
 10
2788.9786626572841
 20
351.5071785488044
 30
0.0
 11
2788.97866265733
 21
222.50717854882899
 31
0.0
  0
LINE
  5
1B64F
  8
SJC
 10
2848.9786626571199
 20
351.50717854880372
 30
0.0
 11
2848.9786626571499
 21
283.63992191183621
 31
0.0
  0
LINE
  5
1B650
  8
SJC
 10
2969.4786626568939
 20
351.50717854880259
 30
0.0
 11
2969.4786626568939
 21
108.5071785488053
 31
0.0
1001
ACAD
1000
ASC_BOUNDS
1002
{
1070
    19
1002
}
  0
LINE
  5
1B652
  8
SJC
 10
2848.978662657069
 20
463.37443518571439
 30
0.0
 11
2848.9786626571008
 21
391.50717854880378
 31
0.0
  0
LINE
  5
1B71F
  8
MOJI
 10
3663.0844272244772
 20
2149.4653334749742
 30
0.0
 11
2539.8840360922268
 21
2149.4653334749751
 31
0.0
  0
TEXT
  5
1B720
  8
MOJI
 10
2556.414451985956
 20
2206.4653334569762
 30
0.0
 40
30.0
  1
弾性サイン板（小）
 41
0.8
  7
EXT08
 72
     4
 11
2675.6144519859558
 21
2221.4653334569762
 31
0.0
  0
TEXT
  5
1B721
  8
MOJI
 10
2934.3431438828802
 20
2206.4653334569762
 30
0.0
 40
30.0
  1
CRゴム
 41
0.8
  7
EXT08
 11
2934.3431438828802
 21
2221.4653334569762
 31
0.0
 73
     2
  0
TEXT
  5
1B722
  8
MOJI
 10
2850.9145724723089
 20
2206.4653334569762
 30
0.0
 40
30.0
  1
2
 41
0.8
  7
EXT08
 72
     4
 11
2862.3431439008809
 21
2221.4653334569762
 31
0.0
  0
TEXT
  5
1B723
  8
MOJI
 10
3459.9976583548141
 20
2206.4653334569748
 30
0.0
 40
30.0
  1
黒 色
 41
0.8
  7
EXT08
 72
     4
 11
3492.7976583548138
 21
2221.4653334569762
 31
0.0
  0
INSERT
  5
1B761
  8
0
  2
*U39
 10
0.0
 20
0.0
 30
0.0
1001
ACAD
1000
DSTYLE
1002
{
1070
   140
1040
30.0
1070
   144
1040
0.5
1070
   147
1040
15.0
1070
    42
1040
10.0
1070
    44
1040
10.0
1070
    43
1040
60.0
1070
    41
1040
20.0
1002
}
  0
TEXT
  5
1B762
  8
SUNPOU
 10
876.92568736878195
 20
1843.064036820092
 30
0.0
 40
30.0
  1
ＣＲゴム
 41
0.8
  7
EXT08
  0
LINE
  5
1B763
  8
SUNPOU
 10
874.44950659270489
 20
1877.8919000769499
 30
0.0
 11
1134.6133247152191
 21
1877.8919000769499
 31
0.0
1001
ACAD
1000
DSTYLE
1002
{
1070
    77
1070
     0
1070
    40
1040
10.0
1070
   147
1040
1.1999999999999991
1070
   176
1070
     0
1070
   177
1070
     0
1070
   178
1070
     0
1070
   179
1070
     2
1070
   271
1070
     2
1002
}
  0
TEXT
  5
1B764
  8
SUNPOU
 10
876.92568736878195
 20
1883.6499205690609
 30
0.0
 40
30.0
  1
弾性サイン板（小）
 41
0.8
  7
EXT08
  0
INSERT
  5
1BC3F
  8
HATCH
  6
CONTINUOUS
  2
*X40
 10
0.0
 20
0.0
 30
0.0
1001
ACAD
1000
HATCH
1002
{
1070
    19
1000
ANSI37
1040
4.0
1040
0.0
1000
ASC_BOUNDS
1070
     1
1070
     2
1070
     4
1005
1AE9D
1005
1AE9C
1005
1AE9F
1005
1AE9E
1000
ASC_SEEDPOINT
1011
0.0
1021
0.0
1031
0.0
1021
-47.999999988000582
1031
0.0
1000
R14_HATCH_DATA
1000
1BC3F
1011
1.0
1021
0.0
1031
0.0
1021
0.0
1031
0.0
1011
0.0
1021
0.0
1031
0.0
1021
1.0
1031
0.0
1011
0.0
1021
0.0
1031
0.0
1021
0.0
1031
1.0
1040
0.0
1010
0.0
1020
0.0
1030
1.0
1000
ANSI37
1070
     0
1070
     1
1071
        1
1071
        1
1071
        4
1070
     1
1040
2969.478662656893
1040
1858.5071785488051
1040
2794.478662656893
1040
1858.5071785488051
1070
     1
1040
2794.478662656893
1040
1858.5071785488051
1040
2794.4786626568912
1040
1938.5071785488051
1070
     1
1040
2794.478662656893
1040
1938.507178548806
1040
2969.478662656893
1040
1938.507178548806
1070
     1
1040
2969.478662656893
1040
1938.507178548806
1040
2969.478662656893
1040
1858.5071785488051
1071
        4
1005
1AE9E
1005
1AE9F
1005
1AE9C
1005
1AE9D
1070
     0
1070
     1
1040
0.0
1040
4.0
1070
     0
1070
     2
1040
0.7853981633974483
1040
0.0
1040
-47.999999988000582
1040
-8.9802561210691518
1040
8.9802561210691536
1070
     0
1040
2.3561944901923439
1040
0.0
1040
-47.999999988000582
1040
-8.9802561210691536
1040
-8.9802561210691518
1070
     0
1071
        1
1040
0.0
1040
-47.999999988000582
1040
0.0
1002
}
  0
INSERT
  5
1BC40
  8
HATCH
  6
CONTINUOUS
  2
*X41
 10
0.0
 20
0.0
 30
0.0
1001
ACAD
1000
HATCH
1002
{
1070
    19
1000
ANSI37
1040
4.0
1040
0.0
1000
R14_HATCH_DATA
1000
1BC40
1011
1.0
1021
0.0
1031
0.0
1021
0.0
1031
0.0
1011
0.0
1021
0.0
1031
0.0
1021
1.0
1031
0.0
1011
0.0
1021
0.0
1031
0.0
1021
0.0
1031
1.0
1040
0.0
1010
0.0
1020
0.0
1030
1.0
1000
ANSI37
1070
     0
1070
     0
1071
        1
1071
        1
1071
        4
1070
     1
1040
2217.3293558282348
1040
1858.5071785488051
1040
2042.3293558282351
1040
1858.5071785488051
1070
     1
1040
2042.3293558282351
1040
1858.5071785488051
1040
2042.329355828233
1040
1938.5071785488051
1070
     1
1040
2042.3293558282351
1040
1938.507178548806
1040
2217.3293558282348
1040
1938.507178548806
1070
     1
1040
2217.3293558282348
1040
1938.507178548806
1040
2217.3293558282348
1040
1858.5071785488051
1071
        0
1070
     0
1070
     1
1040
0.0
1040
4.0
1070
     0
1070
     2
1040
0.7853981633974483
1040
-752.14930682865815
1040
-47.999999988000582
1040
-8.9802561210691518
1040
8.9802561210691536
1070
     0
1040
2.3561944901923439
1040
-752.14930682865815
1040
-47.999999988000582
1040
-8.9802561210691536
1040
-8.9802561210691518
1070
     0
1071
        1
1040
-752.14930682865815
1040
-47.999999988000582
1040
0.0
1002
}
  0
INSERT
  5
1BC53
  8
HATCH
  6
CONTINUOUS
  2
*X42
 10
0.0
 20
0.0
 30
0.0
1001
ACAD
1000
HATCH
1002
{
1070
    19
1000
ANSI37
1040
2.0
1040
0.0
1000
ASC_BOUNDS
1070
     1
1070
     2
1070
     4
1005
194BD
1005
194BC
1005
194BF
1005
194BE
1000
ASC_SEEDPOINT
1011
0.0
1021
0.0
1031
0.0
1021
0.0
1031
0.0
1000
R14_HATCH_DATA
1000
1BC53
1011
1.0
1021
0.0
1031
0.0
1021
0.0
1031
0.0
1011
0.0
1021
0.0
1031
0.0
1021
1.0
1031
0.0
1011
0.0
1021
0.0
1031
0.0
1021
0.0
1031
1.0
1040
0.0
1010
0.0
1020
0.0
1030
1.0
1000
ANSI37
1070
     0
1070
     1
1071
        1
1071
        1
1071
        4
1070
     1
1040
1460.6132148796351
1040
2466.7496368207399
1040
1373.1132148796351
1040
2466.7496368207399
1070
     1
1040
1373.1132148796351
1040
2466.7496368207399
1040
1373.1132148796339
1040
2506.7496368207389
1070
     1
1040
1373.1132148796351
1040
2506.7496368207412
1040
1460.6132148796339
1040
2506.7496368207412
1070
     1
1040
1460.6132148796339
1040
2506.7496368207412
1040
1460.6132148796351
1040
2466.7496368207399
1071
        4
1005
194BE
1005
194BF
1005
194BC
1005
194BD
1070
     0
1070
     1
1040
0.0
1040
2.0
1070
     0
1070
     2
1040
0.7853981633974483
1040
0.0
1040
0.0
1040
-4.490128060534575
1040
4.4901280605345759
1070
     0
1040
2.3561944901923439
1040
0.0
1040
0.0
1040
-4.4901280605345759
1040
-4.490128060534575
1070
     0
1071
        1
1040
0.0
1040
0.0
1040
0.0
1002
}
  0
INSERT
  5
1BC54
  8
HATCH
  6
CONTINUOUS
  2
*X43
 10
0.0
 20
0.0
 30
0.0
1001
ACAD
1000
HATCH
1002
{
1070
    19
1000
ANSI37
1040
2.0
1040
0.0
1000
ASC_BOUNDS
1070
     1
1070
     2
1070
     4
1005
194BD
1005
194BC
1005
194BF
1005
194BE
1000
ASC_SEEDPOINT
1011
-729.21583313409417
1021
0.0
1031
0.0
1021
0.0
1031
0.0
1000
R14_HATCH_DATA
1000
1BC54
1011
1.0
1021
0.0
1031
0.0
1021
0.0
1031
0.0
1011
0.0
1021
0.0
1031
0.0
1021
1.0
1031
0.0
1011
0.0
1021
0.0
1031
0.0
1021
0.0
1031
1.0
1040
0.0
1010
0.0
1020
0.0
1030
1.0
1000
ANSI37
1070
     0
1070
     1
1071
        1
1071
        1
1071
        4
1070
     1
1040
731.39738174554077
1040
2466.7496368207399
1040
643.89738174554032
1040
2466.7496368207399
1070
     1
1040
643.89738174554032
1040
2466.7496368207399
1040
643.89738174553975
1040
2506.7496368207389
1070
     1
1040
643.89738174554077
1040
2506.7496368207412
1040
731.39738174554032
1040
2506.7496368207412
1070
     1
1040
731.39738174554032
1040
2506.7496368207412
1040
731.39738174554077
1040
2466.7496368207399
1071
        4
1005
194BE
1005
194BF
1005
194BC
1005
194BD
1070
     0
1070
     1
1040
0.0
1040
2.0
1070
     0
1070
     2
1040
0.7853981633974483
1040
-729.21583313409417
1040
0.0
1040
-4.490128060534575
1040
4.4901280605345759
1070
     0
1040
2.3561944901923439
1040
-729.21583313409417
1040
0.0
1040
-4.4901280605345759
1040
-4.490128060534575
1070
     0
1071
        1
1040
-729.21583313409417
1040
0.0
1040
0.0
1002
}
  0
DIMENSION
  5
1BC55
  8
SUNPOU
  2
*D28
 10
533.71736719745945
 20
2506.7496368207412
 30
0.0
 11
490.71736719745911
 21
2486.7496368207412
 31
0.0
 70
     0
 13
619.64738174553975
 23
2466.7496368207399
 33
0.0
 14
643.89738174554088
 24
2506.7496368207412
 34
0.0
 50
90.0
1001
ACAD
1000
DSTYLE
1002
{
1070
   287
1070
     5
1070
    40
1040
10.0
1070
    41
1040
2.0
1070
    42
1040
1.0
1070
    43
1040
6.0
1070
    44
1040
1.0
1070
    73
1070
     0
1070
    74
1070
     0
1070
    77
1070
     1
1070
    78
1070
     8
1070
   140
1040
3.0
1070
   147
1040
1.1999999999999991
1070
   172
1070
     1
1070
   179
1070
     2
1070
   271
1070
     2
1070
   279
1070
     2
1070
   340
1005
55
1002
}
  0
LINE
  5
1BCC6
  8
HATCH
 10
762.64738174554077
 20
515.57875411079021
 30
0.0
 11
837.64738174554066
 21
590.57875411079021
 31
0.0
  0
POLYLINE
  5
1BE07
  8
SJC2
 10
498.42551578931096
 20
168.73251372159052
 30
0.0
 66
     1
 70
     8
  0
VERTEX
  8
SJC2
  5
1C5E2
 10
498.426
 20
168.733
 30
0.000000
  70
    32
  0
VERTEX
  8
SJC2
  5
1C5E3
 10
499.592
 20
168.137
 30
0.000000
  70
    32
  0
VERTEX
  8
SJC2
  5
1C5E4
 10
500.822
 20
167.660
 30
0.000000
  70
    32
  0
VERTEX
  8
SJC2
  5
1C5E5
 10
502.115
 20
167.302
 30
0.000000
  70
    32
  0
VERTEX
  8
SJC2
  5
1C5E6
 10
503.466
 20
167.065
 30
0.000000
  70
    32
  0
VERTEX
  8
SJC2
  5
1C5E7
 10
504.872
 20
166.949
 30
0.000000
  70
    32
  0
VERTEX
  8
SJC2
  5
1C5E8
 10
506.330
 20
166.953
 30
0.000000
  70
    32
  0
VERTEX
  8
SJC2
  5
1C5E9
 10
507.837
 20
167.079
 30
0.000000
  70
    32
  0
VERTEX
  8
SJC2
  5
1C5EA
 10
509.388
 20
167.326
 30
0.000000
  70
    32
  0
VERTEX
  8
SJC2
  5
1C5EB
 10
510.981
 20
167.692
 30
0.000000
  70
    32
  0
VERTEX
  8
SJC2
  5
1C5EC
 10
512.610
 20
168.179
 30
0.000000
  70
    32
  0
VERTEX
  8
SJC2
  5
1C5ED
 10
514.273
 20
168.783
 30
0.000000
  70
    32
  0
VERTEX
  8
SJC2
  5
1C5EE
 10
515.965
 20
169.504
 30
0.000000
  70
    32
  0
VERTEX
  8
SJC2
  5
1C5EF
 10
517.683
 20
170.340
 30
0.000000
  70
    32
  0
VERTEX
  8
SJC2
  5
1C5F0
 10
519.421
 20
171.289
 30
0.000000
  70
    32
  0
VERTEX
  8
SJC2
  5
1C5F1
 10
521.177
 20
172.349
 30
0.000000
  70
    32
  0
VERTEX
  8
SJC2
  5
1C5F2
 10
522.945
 20
173.516
 30
0.000000
  70
    32
  0
VERTEX
  8
SJC2
  5
1C5F3
 10
524.721
 20
174.790
 30
0.000000
  70
    32
  0
VERTEX
  8
SJC2
  5
1C5F4
 10
526.502
 20
176.165
 30
0.000000
  70
    32
  0
VERTEX
  8
SJC2
  5
1C5F5
 10
528.282
 20
177.639
 30
0.000000
  70
    32
  0
VERTEX
  8
SJC2
  5
1C5F6
 10
530.058
 20
179.209
 30
0.000000
  70
    32
  0
VERTEX
  8
SJC2
  5
1C5F7
 10
531.825
 20
180.870
 30
0.000000
  70
    32
  0
VERTEX
  8
SJC2
  5
1C5F8
 10
533.579
 20
182.619
 30
0.000000
  70
    32
  0
VERTEX
  8
SJC2
  5
1C5F9
 10
535.316
 20
184.451
 30
0.000000
  70
    32
  0
VERTEX
  8
SJC2
  5
1C5FA
 10
537.031
 20
186.363
 30
0.000000
  70
    32
  0
VERTEX
  8
SJC2
  5
1C5FB
 10
538.721
 20
188.348
 30
0.000000
  70
    32
  0
VERTEX
  8
SJC2
  5
1C5FC
 10
540.381
 20
190.403
 30
0.000000
  70
    32
  0
VERTEX
  8
SJC2
  5
1C5FD
 10
542.008
 20
192.523
 30
0.000000
  70
    32
  0
VERTEX
  8
SJC2
  5
1C5FE
 10
543.597
 20
194.703
 30
0.000000
  70
    32
  0
VERTEX
  8
SJC2
  5
1C5FF
 10
545.145
 20
196.936
 30
0.000000
  70
    32
  0
VERTEX
  8
SJC2
  5
1C600
 10
546.648
 20
199.219
 30
0.000000
  70
    32
  0
VERTEX
  8
SJC2
  5
1C601
 10
548.102
 20
201.545
 30
0.000000
  70
    32
  0
VERTEX
  8
SJC2
  5
1C602
 10
549.503
 20
203.908
 30
0.000000
  70
    32
  0
VERTEX
  8
SJC2
  5
1C603
 10
550.850
 20
206.304
 30
0.000000
  70
    32
  0
VERTEX
  8
SJC2
  5
1C604
 10
552.137
 20
208.726
 30
0.000000
  70
    32
  0
VERTEX
  8
SJC2
  5
1C605
 10
553.362
 20
211.169
 30
0.000000
  70
    32
  0
VERTEX
  8
SJC2
  5
1C606
 10
554.523
 20
213.626
 30
0.000000
  70
    32
  0
VERTEX
  8
SJC2
  5
1C607
 10
555.616
 20
216.092
 30
0.000000
  70
    32
  0
VERTEX
  8
SJC2
  5
1C608
 10
556.638
 20
218.561
 30
0.000000
  70
    32
  0
VERTEX
  8
SJC2
  5
1C609
 10
557.588
 20
221.026
 30
0.000000
  70
    32
  0
VERTEX
  8
SJC2
  5
1C60A
 10
558.462
 20
223.482
 30
0.000000
  70
    32
  0
VERTEX
  8
SJC2
  5
1C60B
 10
559.260
 20
225.924
 30
0.000000
  70
    32
  0
VERTEX
  8
SJC2
  5
1C60C
 10
559.978
 20
228.344
 30
0.000000
  70
    32
  0
VERTEX
  8
SJC2
  5
1C60D
 10
560.616
 20
230.737
 30
0.000000
  70
    32
  0
VERTEX
  8
SJC2
  5
1C60E
 10
561.171
 20
233.098
 30
0.000000
  70
    32
  0
VERTEX
  8
SJC2
  5
1C60F
 10
561.642
 20
235.421
 30
0.000000
  70
    32
  0
VERTEX
  8
SJC2
  5
1C610
 10
562.029
 20
237.700
 30
0.000000
  70
    32
  0
VERTEX
  8
SJC2
  5
1C611
 10
562.330
 20
239.930
 30
0.000000
  70
    32
  0
VERTEX
  8
SJC2
  5
1C612
 10
562.544
 20
242.105
 30
0.000000
  70
    32
  0
VERTEX
  8
SJC2
  5
1C613
 10
562.671
 20
244.220
 30
0.000000
  70
    32
  0
VERTEX
  8
SJC2
  5
1C614
 10
562.711
 20
246.270
 30
0.000000
  70
    32
  0
VERTEX
  8
SJC2
  5
1C615
 10
562.664
 20
248.250
 30
0.000000
  70
    32
  0
VERTEX
  8
SJC2
  5
1C616
 10
562.529
 20
250.155
 30
0.000000
  70
    32
  0
VERTEX
  8
SJC2
  5
1C617
 10
562.308
 20
251.981
 30
0.000000
  70
    32
  0
VERTEX
  8
SJC2
  5
1C618
 10
562.000
 20
253.724
 30
0.000000
  70
    32
  0
VERTEX
  8
SJC2
  5
1C619
 10
561.606
 20
255.378
 30
0.000000
  70
    32
  0
VERTEX
  8
SJC2
  5
1C61A
 10
561.127
 20
256.940
 30
0.000000
  70
    32
  0
VERTEX
  8
SJC2
  5
1C61B
 10
560.565
 20
258.407
 30
0.000000
  70
    32
  0
VERTEX
  8
SJC2
  5
1C61C
 10
559.921
 20
259.775
 30
0.000000
  70
    32
  0
VERTEX
  8
SJC2
  5
1C61D
 10
559.196
 20
261.040
 30
0.000000
  70
    32
  0
VERTEX
  8
SJC2
  5
1C61E
 10
558.392
 20
262.200
 30
0.000000
  70
    32
  0
VERTEX
  8
SJC2
  5
1C61F
 10
557.511
 20
263.251
 30
0.000000
  70
    32
  0
VERTEX
  8
SJC2
  5
1C620
 10
556.555
 20
264.191
 30
0.000000
  70
    32
  0
VERTEX
  8
SJC2
  5
1C621
 10
555.526
 20
265.019
 30
0.000000
  70
    32
  0
VERTEX
  8
SJC2
  5
1C622
 10
554.428
 20
265.731
 30
0.000000
  70
    32
  0
VERTEX
  8
SJC2
  5
1C623
 10
553.262
 20
266.326
 30
0.000000
  70
    32
  0
VERTEX
  8
SJC2
  5
1C624
 10
552.031
 20
266.803
 30
0.000000
  70
    32
  0
VERTEX
  8
SJC2
  5
1C625
 10
550.738
 20
267.161
 30
0.000000
  70
    32
  0
VERTEX
  8
SJC2
  5
1C626
 10
549.387
 20
267.398
 30
0.000000
  70
    32
  0
VERTEX
  8
SJC2
  5
1C627
 10
547.981
 20
267.515
 30
0.000000
  70
    32
  0
VERTEX
  8
SJC2
  5
1C628
 10
546.523
 20
267.510
 30
0.000000
  70
    32
  0
VERTEX
  8
SJC2
  5
1C629
 10
545.016
 20
267.384
 30
0.000000
  70
    32
  0
VERTEX
  8
SJC2
  5
1C62A
 10
543.465
 20
267.138
 30
0.000000
  70
    32
  0
VERTEX
  8
SJC2
  5
1C62B
 10
541.873
 20
266.771
 30
0.000000
  70
    32
  0
VERTEX
  8
SJC2
  5
1C62C
 10
540.243
 20
266.285
 30
0.000000
  70
    32
  0
VERTEX
  8
SJC2
  5
1C62D
 10
538.580
 20
265.680
 30
0.000000
  70
    32
  0
VERTEX
  8
SJC2
  5
1C62E
 10
536.888
 20
264.959
 30
0.000000
  70
    32
  0
VERTEX
  8
SJC2
  5
1C62F
 10
535.170
 20
264.123
 30
0.000000
  70
    32
  0
VERTEX
  8
SJC2
  5
1C630
 10
533.432
 20
263.174
 30
0.000000
  70
    32
  0
VERTEX
  8
SJC2
  5
1C631
 10
531.676
 20
262.115
 30
0.000000
  70
    32
  0
VERTEX
  8
SJC2
  5
1C632
 10
529.908
 20
260.947
 30
0.000000
  70
    32
  0
VERTEX
  8
SJC2
  5
1C633
 10
528.132
 20
259.674
 30
0.000000
  70
    32
  0
VERTEX
  8
SJC2
  5
1C634
 10
526.352
 20
258.298
 30
0.000000
  70
    32
  0
VERTEX
  8
SJC2
  5
1C635
 10
524.571
 20
256.824
 30
0.000000
  70
    32
  0
VERTEX
  8
SJC2
  5
1C636
 10
522.795
 20
255.254
 30
0.000000
  70
    32
  0
VERTEX
  8
SJC2
  5
1C637
 10
521.028
 20
253.593
 30
0.000000
  70
    32
  0
VERTEX
  8
SJC2
  5
1C638
 10
519.274
 20
251.844
 30
0.000000
  70
    32
  0
VERTEX
  8
SJC2
  5
1C639
 10
517.537
 20
250.012
 30
0.000000
  70
    32
  0
VERTEX
  8
SJC2
  5
1C63A
 10
515.822
 20
248.101
 30
0.000000
  70
    32
  0
VERTEX
  8
SJC2
  5
1C63B
 10
514.132
 20
246.115
 30
0.000000
  70
    32
  0
VERTEX
  8
SJC2
  5
1C63C
 10
512.472
 20
244.060
 30
0.000000
  70
    32
  0
VERTEX
  8
SJC2
  5
1C63D
 10
510.845
 20
241.940
 30
0.000000
  70
    32
  0
VERTEX
  8
SJC2
  5
1C63E
 10
509.256
 20
239.761
 30
0.000000
  70
    32
  0
VERTEX
  8
SJC2
  5
1C63F
 10
507.708
 20
237.527
 30
0.000000
  70
    32
  0
VERTEX
  8
SJC2
  5
1C640
 10
506.205
 20
235.245
 30
0.000000
  70
    32
  0
VERTEX
  8
SJC2
  5
1C641
 10
504.751
 20
232.919
 30
0.000000
  70
    32
  0
VERTEX
  8
SJC2
  5
1C642
 10
503.350
 20
230.555
 30
0.000000
  70
    32
  0
VERTEX
  8
SJC2
  5
1C643
 10
502.003
 20
228.159
 30
0.000000
  70
    32
  0
VERTEX
  8
SJC2
  5
1C644
 10
500.716
 20
225.737
 30
0.000000
  70
    32
  0
VERTEX
  8
SJC2
  5
1C645
 10
499.491
 20
223.295
 30
0.000000
  70
    32
  0
VERTEX
  8
SJC2
  5
1C646
 10
498.330
 20
220.837
 30
0.000000
  70
    32
  0
VERTEX
  8
SJC2
  5
1C647
 10
497.238
 20
218.372
 30
0.000000
  70
    32
  0
VERTEX
  8
SJC2
  5
1C648
 10
496.215
 20
215.903
 30
0.000000
  70
    32
  0
VERTEX
  8
SJC2
  5
1C649
 10
495.265
 20
213.437
 30
0.000000
  70
    32
  0
VERTEX
  8
SJC2
  5
1C64A
 10
494.391
 20
210.981
 30
0.000000
  70
    32
  0
VERTEX
  8
SJC2
  5
1C64B
 10
493.593
 20
208.540
 30
0.000000
  70
    32
  0
VERTEX
  8
SJC2
  5
1C64C
 10
492.875
 20
206.120
 30
0.000000
  70
    32
  0
VERTEX
  8
SJC2
  5
1C64D
 10
492.237
 20
203.726
 30
0.000000
  70
    32
  0
VERTEX
  8
SJC2
  5
1C64E
 10
491.682
 20
201.365
 30
0.000000
  70
    32
  0
VERTEX
  8
SJC2
  5
1C64F
 10
491.211
 20
199.042
 30
0.000000
  70
    32
  0
VERTEX
  8
SJC2
  5
1C650
 10
490.824
 20
196.763
 30
0.000000
  70
    32
  0
VERTEX
  8
SJC2
  5
1C651
 10
490.523
 20
194.534
 30
0.000000
  70
    32
  0
VERTEX
  8
SJC2
  5
1C652
 10
490.309
 20
192.359
 30
0.000000
  70
    32
  0
VERTEX
  8
SJC2
  5
1C653
 10
490.182
 20
190.244
 30
0.000000
  70
    32
  0
VERTEX
  8
SJC2
  5
1C654
 10
490.142
 20
188.194
 30
0.000000
  70
    32
  0
VERTEX
  8
SJC2
  5
1C655
 10
490.189
 20
186.214
 30
0.000000
  70
    32
  0
VERTEX
  8
SJC2
  5
1C656
 10
490.324
 20
184.308
 30
0.000000
  70
    32
  0
VERTEX
  8
SJC2
  5
1C657
 10
490.545
 20
182.482
 30
0.000000
  70
    32
  0
VERTEX
  8
SJC2
  5
1C658
 10
490.853
 20
180.740
 30
0.000000
  70
    32
  0
VERTEX
  8
SJC2
  5
1C659
 10
491.247
 20
179.085
 30
0.000000
  70
    32
  0
VERTEX
  8
SJC2
  5
1C65A
 10
491.726
 20
177.523
 30
0.000000
  70
    32
  0
VERTEX
  8
SJC2
  5
1C65B
 10
492.288
 20
176.056
 30
0.000000
  70
    32
  0
VERTEX
  8
SJC2
  5
1C65C
 10
492.932
 20
174.688
 30
0.000000
  70
    32
  0
VERTEX
  8
SJC2
  5
1C65D
 10
493.657
 20
173.423
 30
0.000000
  70
    32
  0
VERTEX
  8
SJC2
  5
1C65E
 10
494.461
 20
172.264
 30
0.000000
  70
    32
  0
VERTEX
  8
SJC2
  5
1C65F
 10
495.342
 20
171.212
 30
0.000000
  70
    32
  0
VERTEX
  8
SJC2
  5
1C660
 10
496.298
 20
170.272
 30
0.000000
  70
    32
  0
VERTEX
  8
SJC2
  5
1C661
 10
497.327
 20
169.445
 30
0.000000
  70
    32
  0
VERTEX
  8
SJC2
  5
1C662
 10
498.426
 20
168.733
 30
0.000000
  70
    32
  0
SEQEND
  8
SJC2
  5
1C663
  0
POLYLINE
  5
1BE08
  8
SJC2
 10
560.68523048196744
 20
168.73251372159052
 30
0.0
 66
     1
 70
     8
  0
VERTEX
  8
SJC2
  5
1C664
 10
560.685
 20
168.733
 30
0.000000
  70
    32
  0
VERTEX
  8
SJC2
  5
1C665
 10
561.851
 20
168.137
 30
0.000000
  70
    32
  0
VERTEX
  8
SJC2
  5
1C666
 10
563.082
 20
167.660
 30
0.000000
  70
    32
  0
VERTEX
  8
SJC2
  5
1C667
 10
564.374
 20
167.302
 30
0.000000
  70
    32
  0
VERTEX
  8
SJC2
  5
1C668
 10
565.725
 20
167.065
 30
0.000000
  70
    32
  0
VERTEX
  8
SJC2
  5
1C669
 10
567.132
 20
166.949
 30
0.000000
  70
    32
  0
VERTEX
  8
SJC2
  5
1C66A
 10
568.590
 20
166.953
 30
0.000000
  70
    32
  0
VERTEX
  8
SJC2
  5
1C66B
 10
570.096
 20
167.079
 30
0.000000
  70
    32
  0
VERTEX
  8
SJC2
  5
1C66C
 10
571.648
 20
167.326
 30
0.000000
  70
    32
  0
VERTEX
  8
SJC2
  5
1C66D
 10
573.240
 20
167.692
 30
0.000000
  70
    32
  0
VERTEX
  8
SJC2
  5
1C66E
 10
574.870
 20
168.179
 30
0.000000
  70
    32
  0
VERTEX
  8
SJC2
  5
1C66F
 10
576.533
 20
168.783
 30
0.000000
  70
    32
  0
VERTEX
  8
SJC2
  5
1C670
 10
578.225
 20
169.504
 30
0.000000
  70
    32
  0
VERTEX
  8
SJC2
  5
1C671
 10
579.943
 20
170.340
 30
0.000000
  70
    32
  0
VERTEX
  8
SJC2
  5
1C672
 10
581.681
 20
171.289
 30
0.000000
  70
    32
  0
VERTEX
  8
SJC2
  5
1C673
 10
583.436
 20
172.349
 30
0.000000
  70
    32
  0
VERTEX
  8
SJC2
  5
1C674
 10
585.204
 20
173.516
 30
0.000000
  70
    32
  0
VERTEX
  8
SJC2
  5
1C675
 10
586.981
 20
174.790
 30
0.000000
  70
    32
  0
VERTEX
  8
SJC2
  5
1C676
 10
588.761
 20
176.165
 30
0.000000
  70
    32
  0
VERTEX
  8
SJC2
  5
1C677
 10
590.542
 20
177.639
 30
0.000000
  70
    32
  0
VERTEX
  8
SJC2
  5
1C678
 10
592.317
 20
179.209
 30
0.000000
  70
    32
  0
VERTEX
  8
SJC2
  5
1C679
 10
594.085
 20
180.870
 30
0.000000
  70
    32
  0
VERTEX
  8
SJC2
  5
1C67A
 10
595.839
 20
182.619
 30
0.000000
  70
    32
  0
VERTEX
  8
SJC2
  5
1C67B
 10
597.576
 20
184.451
 30
0.000000
  70
    32
  0
VERTEX
  8
SJC2
  5
1C67C
 10
599.291
 20
186.363
 30
0.000000
  70
    32
  0
VERTEX
  8
SJC2
  5
1C67D
 10
600.981
 20
188.348
 30
0.000000
  70
    32
  0
VERTEX
  8
SJC2
  5
1C67E
 10
602.641
 20
190.403
 30
0.000000
  70
    32
  0
VERTEX
  8
SJC2
  5
1C67F
 10
604.268
 20
192.523
 30
0.000000
  70
    32
  0
VERTEX
  8
SJC2
  5
1C680
 10
605.857
 20
194.703
 30
0.000000
  70
    32
  0
VERTEX
  8
SJC2
  5
1C681
 10
607.405
 20
196.936
 30
0.000000
  70
    32
  0
VERTEX
  8
SJC2
  5
1C682
 10
608.907
 20
199.219
 30
0.000000
  70
    32
  0
VERTEX
  8
SJC2
  5
1C683
 10
610.361
 20
201.545
 30
0.000000
  70
    32
  0
VERTEX
  8
SJC2
  5
1C684
 10
611.763
 20
203.908
 30
0.000000
  70
    32
  0
VERTEX
  8
SJC2
  5
1C685
 10
613.109
 20
206.304
 30
0.000000
  70
    32
  0
VERTEX
  8
SJC2
  5
1C686
 10
614.397
 20
208.726
 30
0.000000
  70
    32
  0
VERTEX
  8
SJC2
  5
1C687
 10
615.622
 20
211.169
 30
0.000000
  70
    32
  0
VERTEX
  8
SJC2
  5
1C688
 10
616.782
 20
213.626
 30
0.000000
  70
    32
  0
VERTEX
  8
SJC2
  5
1C689
 10
617.875
 20
216.092
 30
0.000000
  70
    32
  0
VERTEX
  8
SJC2
  5
1C68A
 10
618.898
 20
218.561
 30
0.000000
  70
    32
  0
VERTEX
  8
SJC2
  5
1C68B
 10
619.847
 20
221.026
 30
0.000000
  70
    32
  0
VERTEX
  8
SJC2
  5
1C68C
 10
620.722
 20
223.482
 30
0.000000
  70
    32
  0
VERTEX
  8
SJC2
  5
1C68D
 10
621.520
 20
225.924
 30
0.000000
  70
    32
  0
VERTEX
  8
SJC2
  5
1C68E
 10
622.238
 20
228.344
 30
0.000000
  70
    32
  0
VERTEX
  8
SJC2
  5
1C68F
 10
622.875
 20
230.737
 30
0.000000
  70
    32
  0
VERTEX
  8
SJC2
  5
1C690
 10
623.431
 20
233.098
 30
0.000000
  70
    32
  0
VERTEX
  8
SJC2
  5
1C691
 10
623.902
 20
235.421
 30
0.000000
  70
    32
  0
VERTEX
  8
SJC2
  5
1C692
 10
624.289
 20
237.700
 30
0.000000
  70
    32
  0
VERTEX
  8
SJC2
  5
1C693
 10
624.589
 20
239.930
 30
0.000000
  70
    32
  0
VERTEX
  8
SJC2
  5
1C694
 10
624.804
 20
242.105
 30
0.000000
  70
    32
  0
VERTEX
  8
SJC2
  5
1C695
 10
624.931
 20
244.220
 30
0.000000
  70
    32
  0
VERTEX
  8
SJC2
  5
1C696
 10
624.971
 20
246.270
 30
0.000000
  70
    32
  0
VERTEX
  8
SJC2
  5
1C697
 10
624.924
 20
248.250
 30
0.000000
  70
    32
  0
VERTEX
  8
SJC2
  5
1C698
 10
624.789
 20
250.155
 30
0.000000
  70
    32
  0
VERTEX
  8
SJC2
  5
1C699
 10
624.567
 20
251.981
 30
0.000000
  70
    32
  0
VERTEX
  8
SJC2
  5
1C69A
 10
624.259
 20
253.724
 30
0.000000
  70
    32
  0
VERTEX
  8
SJC2
  5
1C69B
 10
623.866
 20
255.378
 30
0.000000
  70
    32
  0
VERTEX
  8
SJC2
  5
1C69C
 10
623.387
 20
256.940
 30
0.000000
  70
    32
  0
VERTEX
  8
SJC2
  5
1C69D
 10
622.825
 20
258.407
 30
0.000000
  70
    32
  0
VERTEX
  8
SJC2
  5
1C69E
 10
622.180
 20
259.775
 30
0.000000
  70
    32
  0
VERTEX
  8
SJC2
  5
1C69F
 10
621.455
 20
261.040
 30
0.000000
  70
    32
  0
VERTEX
  8
SJC2
  5
1C6A0
 10
620.651
 20
262.200
 30
0.000000
  70
    32
  0
VERTEX
  8
SJC2
  5
1C6A1
 10
619.770
 20
263.251
 30
0.000000
  70
    32
  0
VERTEX
  8
SJC2
  5
1C6A2
 10
618.814
 20
264.191
 30
0.000000
  70
    32
  0
VERTEX
  8
SJC2
  5
1C6A3
 10
617.786
 20
265.019
 30
0.000000
  70
    32
  0
VERTEX
  8
SJC2
  5
1C6A4
 10
616.687
 20
265.731
 30
0.000000
  70
    32
  0
VERTEX
  8
SJC2
  5
1C6A5
 10
615.521
 20
266.326
 30
0.000000
  70
    32
  0
VERTEX
  8
SJC2
  5
1C6A6
 10
614.291
 20
266.803
 30
0.000000
  70
    32
  0
VERTEX
  8
SJC2
  5
1C6A7
 10
612.998
 20
267.161
 30
0.000000
  70
    32
  0
VERTEX
  8
SJC2
  5
1C6A8
 10
611.647
 20
267.398
 30
0.000000
  70
    32
  0
VERTEX
  8
SJC2
  5
1C6A9
 10
610.241
 20
267.515
 30
0.000000
  70
    32
  0
VERTEX
  8
SJC2
  5
1C6AA
 10
608.783
 20
267.510
 30
0.000000
  70
    32
  0
VERTEX
  8
SJC2
  5
1C6AB
 10
607.276
 20
267.384
 30
0.000000
  70
    32
  0
VERTEX
  8
SJC2
  5
1C6AC
 10
605.725
 20
267.138
 30
0.000000
  70
    32
  0
VERTEX
  8
SJC2
  5
1C6AD
 10
604.132
 20
266.771
 30
0.000000
  70
    32
  0
VERTEX
  8
SJC2
  5
1C6AE
 10
602.503
 20
266.285
 30
0.000000
  70
    32
  0
VERTEX
  8
SJC2
  5
1C6AF
 10
600.840
 20
265.680
 30
0.000000
  70
    32
  0
VERTEX
  8
SJC2
  5
1C6B0
 10
599.147
 20
264.959
 30
0.000000
  70
    32
  0
VERTEX
  8
SJC2
  5
1C6B1
 10
597.430
 20
264.123
 30
0.000000
  70
    32
  0
VERTEX
  8
SJC2
  5
1C6B2
 10
595.692
 20
263.174
 30
0.000000
  70
    32
  0
VERTEX
  8
SJC2
  5
1C6B3
 10
593.936
 20
262.115
 30
0.000000
  70
    32
  0
VERTEX
  8
SJC2
  5
1C6B4
 10
592.168
 20
260.947
 30
0.000000
  70
    32
  0
VERTEX
  8
SJC2
  5
1C6B5
 10
590.392
 20
259.674
 30
0.000000
  70
    32
  0
VERTEX
  8
SJC2
  5
1C6B6
 10
588.611
 20
258.298
 30
0.000000
  70
    32
  0
VERTEX
  8
SJC2
  5
1C6B7
 10
586.831
 20
256.824
 30
0.000000
  70
    32
  0
VERTEX
  8
SJC2
  5
1C6B8
 10
585.055
 20
255.254
 30
0.000000
  70
    32
  0
VERTEX
  8
SJC2
  5
1C6B9
 10
583.288
 20
253.593
 30
0.000000
  70
    32
  0
VERTEX
  8
SJC2
  5
1C6BA
 10
581.534
 20
251.844
 30
0.000000
  70
    32
  0
VERTEX
  8
SJC2
  5
1C6BB
 10
579.797
 20
250.012
 30
0.000000
  70
    32
  0
VERTEX
  8
SJC2
  5
1C6BC
 10
578.082
 20
248.101
 30
0.000000
  70
    32
  0
VERTEX
  8
SJC2
  5
1C6BD
 10
576.392
 20
246.115
 30
0.000000
  70
    32
  0
VERTEX
  8
SJC2
  5
1C6BE
 10
574.731
 20
244.060
 30
0.000000
  70
    32
  0
VERTEX
  8
SJC2
  5
1C6BF
 10
573.105
 20
241.940
 30
0.000000
  70
    32
  0
VERTEX
  8
SJC2
  5
1C6C0
 10
571.515
 20
239.761
 30
0.000000
  70
    32
  0
VERTEX
  8
SJC2
  5
1C6C1
 10
569.968
 20
237.527
 30
0.000000
  70
    32
  0
VERTEX
  8
SJC2
  5
1C6C2
 10
568.465
 20
235.245
 30
0.000000
  70
    32
  0
VERTEX
  8
SJC2
  5
1C6C3
 10
567.011
 20
232.919
 30
0.000000
  70
    32
  0
VERTEX
  8
SJC2
  5
1C6C4
 10
565.609
 20
230.555
 30
0.000000
  70
    32
  0
VERTEX
  8
SJC2
  5
1C6C5
 10
564.263
 20
228.159
 30
0.000000
  70
    32
  0
VERTEX
  8
SJC2
  5
1C6C6
 10
562.976
 20
225.737
 30
0.000000
  70
    32
  0
VERTEX
  8
SJC2
  5
1C6C7
 10
561.751
 20
223.295
 30
0.000000
  70
    32
  0
VERTEX
  8
SJC2
  5
1C6C8
 10
560.590
 20
220.837
 30
0.000000
  70
    32
  0
VERTEX
  8
SJC2
  5
1C6C9
 10
559.497
 20
218.372
 30
0.000000
  70
    32
  0
VERTEX
  8
SJC2
  5
1C6CA
 10
558.475
 20
215.903
 30
0.000000
  70
    32
  0
VERTEX
  8
SJC2
  5
1C6CB
 10
557.525
 20
213.437
 30
0.000000
  70
    32
  0
VERTEX
  8
SJC2
  5
1C6CC
 10
556.650
 20
210.981
 30
0.000000
  70
    32
  0
VERTEX
  8
SJC2
  5
1C6CD
 10
555.853
 20
208.540
 30
0.000000
  70
    32
  0
VERTEX
  8
SJC2
  5
1C6CE
 10
555.135
 20
206.120
 30
0.000000
  70
    32
  0
VERTEX
  8
SJC2
  5
1C6CF
 10
554.497
 20
203.726
 30
0.000000
  70
    32
  0
VERTEX
  8
SJC2
  5
1C6D0
 10
553.942
 20
201.365
 30
0.000000
  70
    32
  0
VERTEX
  8
SJC2
  5
1C6D1
 10
553.471
 20
199.042
 30
0.000000
  70
    32
  0
VERTEX
  8
SJC2
  5
1C6D2
 10
553.084
 20
196.763
 30
0.000000
  70
    32
  0
VERTEX
  8
SJC2
  5
1C6D3
 10
552.783
 20
194.534
 30
0.000000
  70
    32
  0
VERTEX
  8
SJC2
  5
1C6D4
 10
552.569
 20
192.359
 30
0.000000
  70
    32
  0
VERTEX
  8
SJC2
  5
1C6D5
 10
552.441
 20
190.244
 30
0.000000
  70
    32
  0
VERTEX
  8
SJC2
  5
1C6D6
 10
552.401
 20
188.194
 30
0.000000
  70
    32
  0
VERTEX
  8
SJC2
  5
1C6D7
 10
552.449
 20
186.214
 30
0.000000
  70
    32
  0
VERTEX
  8
SJC2
  5
1C6D8
 10
552.583
 20
184.308
 30
0.000000
  70
    32
  0
VERTEX
  8
SJC2
  5
1C6D9
 10
552.805
 20
182.482
 30
0.000000
  70
    32
  0
VERTEX
  8
SJC2
  5
1C6DA
 10
553.113
 20
180.740
 30
0.000000
  70
    32
  0
VERTEX
  8
SJC2
  5
1C6DB
 10
553.507
 20
179.085
 30
0.000000
  70
    32
  0
VERTEX
  8
SJC2
  5
1C6DC
 10
553.986
 20
177.523
 30
0.000000
  70
    32
  0
VERTEX
  8
SJC2
  5
1C6DD
 10
554.548
 20
176.056
 30
0.000000
  70
    32
  0
VERTEX
  8
SJC2
  5
1C6DE
 10
555.192
 20
174.688
 30
0.000000
  70
    32
  0
VERTEX
  8
SJC2
  5
1C6DF
 10
555.917
 20
173.423
 30
0.000000
  70
    32
  0
VERTEX
  8
SJC2
  5
1C6E0
 10
556.721
 20
172.264
 30
0.000000
  70
    32
  0
VERTEX
  8
SJC2
  5
1C6E1
 10
557.602
 20
171.212
 30
0.000000
  70
    32
  0
VERTEX
  8
SJC2
  5
1C6E2
 10
558.558
 20
170.272
 30
0.000000
  70
    32
  0
VERTEX
  8
SJC2
  5
1C6E3
 10
559.587
 20
169.445
 30
0.000000
  70
    32
  0
VERTEX
  8
SJC2
  5
1C6E4
 10
560.685
 20
168.733
 30
0.000000
  70
    32
  0
SEQEND
  8
SJC2
  5
1C6E5
  0
POLYLINE
  5
1BE09
  8
SJC2
 10
759.77896505441254
 20
168.73251372159052
 30
0.0
 66
     1
 70
     8
  0
VERTEX
  8
SJC2
  5
1C6E6
 10
759.779
 20
168.733
 30
0.000000
  70
    32
  0
VERTEX
  8
SJC2
  5
1C6E7
 10
760.945
 20
168.137
 30
0.000000
  70
    32
  0
VERTEX
  8
SJC2
  5
1C6E8
 10
762.176
 20
167.660
 30
0.000000
  70
    32
  0
VERTEX
  8
SJC2
  5
1C6E9
 10
763.468
 20
167.302
 30
0.000000
  70
    32
  0
VERTEX
  8
SJC2
  5
1C6EA
 10
764.819
 20
167.065
 30
0.000000
  70
    32
  0
VERTEX
  8
SJC2
  5
1C6EB
 10
766.225
 20
166.949
 30
0.000000
  70
    32
  0
VERTEX
  8
SJC2
  5
1C6EC
 10
767.684
 20
166.953
 30
0.000000
  70
    32
  0
VERTEX
  8
SJC2
  5
1C6ED
 10
769.190
 20
167.079
 30
0.000000
  70
    32
  0
VERTEX
  8
SJC2
  5
1C6EE
 10
770.742
 20
167.326
 30
0.000000
  70
    32
  0
VERTEX
  8
SJC2
  5
1C6EF
 10
772.334
 20
167.692
 30
0.000000
  70
    32
  0
VERTEX
  8
SJC2
  5
1C6F0
 10
773.964
 20
168.179
 30
0.000000
  70
    32
  0
VERTEX
  8
SJC2
  5
1C6F1
 10
775.627
 20
168.783
 30
0.000000
  70
    32
  0
VERTEX
  8
SJC2
  5
1C6F2
 10
777.319
 20
169.504
 30
0.000000
  70
    32
  0
VERTEX
  8
SJC2
  5
1C6F3
 10
779.036
 20
170.340
 30
0.000000
  70
    32
  0
VERTEX
  8
SJC2
  5
1C6F4
 10
780.775
 20
171.289
 30
0.000000
  70
    32
  0
VERTEX
  8
SJC2
  5
1C6F5
 10
782.530
 20
172.349
 30
0.000000
  70
    32
  0
VERTEX
  8
SJC2
  5
1C6F6
 10
784.298
 20
173.516
 30
0.000000
  70
    32
  0
VERTEX
  8
SJC2
  5
1C6F7
 10
786.075
 20
174.790
 30
0.000000
  70
    32
  0
VERTEX
  8
SJC2
  5
1C6F8
 10
787.855
 20
176.165
 30
0.000000
  70
    32
  0
VERTEX
  8
SJC2
  5
1C6F9
 10
789.635
 20
177.639
 30
0.000000
  70
    32
  0
VERTEX
  8
SJC2
  5
1C6FA
 10
791.411
 20
179.209
 30
0.000000
  70
    32
  0
VERTEX
  8
SJC2
  5
1C6FB
 10
793.178
 20
180.870
 30
0.000000
  70
    32
  0
VERTEX
  8
SJC2
  5
1C6FC
 10
794.932
 20
182.619
 30
0.000000
  70
    32
  0
VERTEX
  8
SJC2
  5
1C6FD
 10
796.669
 20
184.451
 30
0.000000
  70
    32
  0
VERTEX
  8
SJC2
  5
1C6FE
 10
798.385
 20
186.363
 30
0.000000
  70
    32
  0
VERTEX
  8
SJC2
  5
1C6FF
 10
800.075
 20
188.348
 30
0.000000
  70
    32
  0
VERTEX
  8
SJC2
  5
1C700
 10
801.735
 20
190.403
 30
0.000000
  70
    32
  0
VERTEX
  8
SJC2
  5
1C701
 10
803.362
 20
192.523
 30
0.000000
  70
    32
  0
VERTEX
  8
SJC2
  5
1C702
 10
804.951
 20
194.703
 30
0.000000
  70
    32
  0
VERTEX
  8
SJC2
  5
1C703
 10
806.499
 20
196.936
 30
0.000000
  70
    32
  0
VERTEX
  8
SJC2
  5
1C704
 10
808.001
 20
199.219
 30
0.000000
  70
    32
  0
VERTEX
  8
SJC2
  5
1C705
 10
809.455
 20
201.545
 30
0.000000
  70
    32
  0
VERTEX
  8
SJC2
  5
1C706
 10
810.857
 20
203.908
 30
0.000000
  70
    32
  0
VERTEX
  8
SJC2
  5
1C707
 10
812.203
 20
206.304
 30
0.000000
  70
    32
  0
VERTEX
  8
SJC2
  5
1C708
 10
813.490
 20
208.726
 30
0.000000
  70
    32
  0
VERTEX
  8
SJC2
  5
1C709
 10
814.716
 20
211.169
 30
0.000000
  70
    32
  0
VERTEX
  8
SJC2
  5
1C70A
 10
815.876
 20
213.626
 30
0.000000
  70
    32
  0
VERTEX
  8
SJC2
  5
1C70B
 10
816.969
 20
216.092
 30
0.000000
  70
    32
  0
VERTEX
  8
SJC2
  5
1C70C
 10
817.991
 20
218.561
 30
0.000000
  70
    32
  0
VERTEX
  8
SJC2
  5
1C70D
 10
818.941
 20
221.026
 30
0.000000
  70
    32
  0
VERTEX
  8
SJC2
  5
1C70E
 10
819.816
 20
223.482
 30
0.000000
  70
    32
  0
VERTEX
  8
SJC2
  5
1C70F
 10
820.613
 20
225.924
 30
0.000000
  70
    32
  0
VERTEX
  8
SJC2
  5
1C710
 10
821.332
 20
228.344
 30
0.000000
  70
    32
  0
VERTEX
  8
SJC2
  5
1C711
 10
821.969
 20
230.737
 30
0.000000
  70
    32
  0
VERTEX
  8
SJC2
  5
1C712
 10
822.524
 20
233.098
 30
0.000000
  70
    32
  0
VERTEX
  8
SJC2
  5
1C713
 10
822.996
 20
235.421
 30
0.000000
  70
    32
  0
VERTEX
  8
SJC2
  5
1C714
 10
823.382
 20
237.700
 30
0.000000
  70
    32
  0
VERTEX
  8
SJC2
  5
1C715
 10
823.683
 20
239.930
 30
0.000000
  70
    32
  0
VERTEX
  8
SJC2
  5
1C716
 10
823.898
 20
242.105
 30
0.000000
  70
    32
  0
VERTEX
  8
SJC2
  5
1C717
 10
824.025
 20
244.220
 30
0.000000
  70
    32
  0
VERTEX
  8
SJC2
  5
1C718
 10
824.065
 20
246.270
 30
0.000000
  70
    32
  0
VERTEX
  8
SJC2
  5
1C719
 10
824.018
 20
248.250
 30
0.000000
  70
    32
  0
VERTEX
  8
SJC2
  5
1C71A
 10
823.883
 20
250.155
 30
0.000000
  70
    32
  0
VERTEX
  8
SJC2
  5
1C71B
 10
823.661
 20
251.981
 30
0.000000
  70
    32
  0
VERTEX
  8
SJC2
  5
1C71C
 10
823.353
 20
253.724
 30
0.000000
  70
    32
  0
VERTEX
  8
SJC2
  5
1C71D
 10
822.959
 20
255.378
 30
0.000000
  70
    32
  0
VERTEX
  8
SJC2
  5
1C71E
 10
822.481
 20
256.940
 30
0.000000
  70
    32
  0
VERTEX
  8
SJC2
  5
1C71F
 10
821.919
 20
258.407
 30
0.000000
  70
    32
  0
VERTEX
  8
SJC2
  5
1C720
 10
821.274
 20
259.775
 30
0.000000
  70
    32
  0
VERTEX
  8
SJC2
  5
1C721
 10
820.549
 20
261.040
 30
0.000000
  70
    32
  0
VERTEX
  8
SJC2
  5
1C722
 10
819.745
 20
262.200
 30
0.000000
  70
    32
  0
VERTEX
  8
SJC2
  5
1C723
 10
818.864
 20
263.251
 30
0.000000
  70
    32
  0
VERTEX
  8
SJC2
  5
1C724
 10
817.908
 20
264.191
 30
0.000000
  70
    32
  0
VERTEX
  8
SJC2
  5
1C725
 10
816.880
 20
265.019
 30
0.000000
  70
    32
  0
VERTEX
  8
SJC2
  5
1C726
 10
815.781
 20
265.731
 30
0.000000
  70
    32
  0
VERTEX
  8
SJC2
  5
1C727
 10
814.615
 20
266.326
 30
0.000000
  70
    32
  0
VERTEX
  8
SJC2
  5
1C728
 10
813.384
 20
266.803
 30
0.000000
  70
    32
  0
VERTEX
  8
SJC2
  5
1C729
 10
812.092
 20
267.161
 30
0.000000
  70
    32
  0
VERTEX
  8
SJC2
  5
1C72A
 10
810.741
 20
267.398
 30
0.000000
  70
    32
  0
VERTEX
  8
SJC2
  5
1C72B
 10
809.335
 20
267.515
 30
0.000000
  70
    32
  0
VERTEX
  8
SJC2
  5
1C72C
 10
807.876
 20
267.510
 30
0.000000
  70
    32
  0
VERTEX
  8
SJC2
  5
1C72D
 10
806.370
 20
267.384
 30
0.000000
  70
    32
  0
VERTEX
  8
SJC2
  5
1C72E
 10
804.818
 20
267.138
 30
0.000000
  70
    32
  0
VERTEX
  8
SJC2
  5
1C72F
 10
803.226
 20
266.771
 30
0.000000
  70
    32
  0
VERTEX
  8
SJC2
  5
1C730
 10
801.596
 20
266.285
 30
0.000000
  70
    32
  0
VERTEX
  8
SJC2
  5
1C731
 10
799.933
 20
265.680
 30
0.000000
  70
    32
  0
VERTEX
  8
SJC2
  5
1C732
 10
798.241
 20
264.959
 30
0.000000
  70
    32
  0
VERTEX
  8
SJC2
  5
1C733
 10
796.524
 20
264.123
 30
0.000000
  70
    32
  0
VERTEX
  8
SJC2
  5
1C734
 10
794.785
 20
263.174
 30
0.000000
  70
    32
  0
VERTEX
  8
SJC2
  5
1C735
 10
793.030
 20
262.115
 30
0.000000
  70
    32
  0
VERTEX
  8
SJC2
  5
1C736
 10
791.262
 20
260.947
 30
0.000000
  70
    32
  0
VERTEX
  8
SJC2
  5
1C737
 10
789.485
 20
259.674
 30
0.000000
  70
    32
  0
VERTEX
  8
SJC2
  5
1C738
 10
787.705
 20
258.298
 30
0.000000
  70
    32
  0
VERTEX
  8
SJC2
  5
1C739
 10
785.925
 20
256.824
 30
0.000000
  70
    32
  0
VERTEX
  8
SJC2
  5
1C73A
 10
784.149
 20
255.254
 30
0.000000
  70
    32
  0
VERTEX
  8
SJC2
  5
1C73B
 10
782.382
 20
253.593
 30
0.000000
  70
    32
  0
VERTEX
  8
SJC2
  5
1C73C
 10
780.628
 20
251.844
 30
0.000000
  70
    32
  0
VERTEX
  8
SJC2
  5
1C73D
 10
778.891
 20
250.012
 30
0.000000
  70
    32
  0
VERTEX
  8
SJC2
  5
1C73E
 10
777.175
 20
248.101
 30
0.000000
  70
    32
  0
VERTEX
  8
SJC2
  5
1C73F
 10
775.485
 20
246.115
 30
0.000000
  70
    32
  0
VERTEX
  8
SJC2
  5
1C740
 10
773.825
 20
244.060
 30
0.000000
  70
    32
  0
VERTEX
  8
SJC2
  5
1C741
 10
772.198
 20
241.940
 30
0.000000
  70
    32
  0
VERTEX
  8
SJC2
  5
1C742
 10
770.609
 20
239.761
 30
0.000000
  70
    32
  0
VERTEX
  8
SJC2
  5
1C743
 10
769.061
 20
237.527
 30
0.000000
  70
    32
  0
VERTEX
  8
SJC2
  5
1C744
 10
767.559
 20
235.245
 30
0.000000
  70
    32
  0
VERTEX
  8
SJC2
  5
1C745
 10
766.105
 20
232.919
 30
0.000000
  70
    32
  0
VERTEX
  8
SJC2
  5
1C746
 10
764.703
 20
230.555
 30
0.000000
  70
    32
  0
VERTEX
  8
SJC2
  5
1C747
 10
763.357
 20
228.159
 30
0.000000
  70
    32
  0
VERTEX
  8
SJC2
  5
1C748
 10
762.070
 20
225.737
 30
0.000000
  70
    32
  0
VERTEX
  8
SJC2
  5
1C749
 10
760.844
 20
223.295
 30
0.000000
  70
    32
  0
VERTEX
  8
SJC2
  5
1C74A
 10
759.684
 20
220.837
 30
0.000000
  70
    32
  0
VERTEX
  8
SJC2
  5
1C74B
 10
758.591
 20
218.372
 30
0.000000
  70
    32
  0
VERTEX
  8
SJC2
  5
1C74C
 10
757.568
 20
215.903
 30
0.000000
  70
    32
  0
VERTEX
  8
SJC2
  5
1C74D
 10
756.619
 20
213.437
 30
0.000000
  70
    32
  0
VERTEX
  8
SJC2
  5
1C74E
 10
755.744
 20
210.981
 30
0.000000
  70
    32
  0
VERTEX
  8
SJC2
  5
1C74F
 10
754.947
 20
208.540
 30
0.000000
  70
    32
  0
VERTEX
  8
SJC2
  5
1C750
 10
754.228
 20
206.120
 30
0.000000
  70
    32
  0
VERTEX
  8
SJC2
  5
1C751
 10
753.591
 20
203.726
 30
0.000000
  70
    32
  0
VERTEX
  8
SJC2
  5
1C752
 10
753.036
 20
201.365
 30
0.000000
  70
    32
  0
VERTEX
  8
SJC2
  5
1C753
 10
752.564
 20
199.042
 30
0.000000
  70
    32
  0
VERTEX
  8
SJC2
  5
1C754
 10
752.178
 20
196.763
 30
0.000000
  70
    32
  0
VERTEX
  8
SJC2
  5
1C755
 10
751.877
 20
194.534
 30
0.000000
  70
    32
  0
VERTEX
  8
SJC2
  5
1C756
 10
751.662
 20
192.359
 30
0.000000
  70
    32
  0
VERTEX
  8
SJC2
  5
1C757
 10
751.535
 20
190.244
 30
0.000000
  70
    32
  0
VERTEX
  8
SJC2
  5
1C758
 10
751.495
 20
188.194
 30
0.000000
  70
    32
  0
VERTEX
  8
SJC2
  5
1C759
 10
751.542
 20
186.214
 30
0.000000
  70
    32
  0
VERTEX
  8
SJC2
  5
1C75A
 10
751.677
 20
184.308
 30
0.000000
  70
    32
  0
VERTEX
  8
SJC2
  5
1C75B
 10
751.899
 20
182.482
 30
0.000000
  70
    32
  0
VERTEX
  8
SJC2
  5
1C75C
 10
752.207
 20
180.740
 30
0.000000
  70
    32
  0
VERTEX
  8
SJC2
  5
1C75D
 10
752.601
 20
179.085
 30
0.000000
  70
    32
  0
VERTEX
  8
SJC2
  5
1C75E
 10
753.079
 20
177.523
 30
0.000000
  70
    32
  0
VERTEX
  8
SJC2
  5
1C75F
 10
753.641
 20
176.056
 30
0.000000
  70
    32
  0
VERTEX
  8
SJC2
  5
1C760
 10
754.286
 20
174.688
 30
0.000000
  70
    32
  0
VERTEX
  8
SJC2
  5
1C761
 10
755.011
 20
173.423
 30
0.000000
  70
    32
  0
VERTEX
  8
SJC2
  5
1C762
 10
755.815
 20
172.264
 30
0.000000
  70
    32
  0
VERTEX
  8
SJC2
  5
1C763
 10
756.696
 20
171.212
 30
0.000000
  70
    32
  0
VERTEX
  8
SJC2
  5
1C764
 10
757.652
 20
170.272
 30
0.000000
  70
    32
  0
VERTEX
  8
SJC2
  5
1C765
 10
758.680
 20
169.445
 30
0.000000
  70
    32
  0
VERTEX
  8
SJC2
  5
1C766
 10
759.779
 20
168.733
 30
0.000000
  70
    32
  0
SEQEND
  8
SJC2
  5
1C767
  0
POLYLINE
  5
1BE0A
  8
SJC2
 10
822.03867974706895
 20
168.73251372159052
 30
0.0
 66
     1
 70
     8
  0
VERTEX
  8
SJC2
  5
1C768
 10
822.039
 20
168.733
 30
0.000000
  70
    32
  0
VERTEX
  8
SJC2
  5
1C769
 10
823.205
 20
168.137
 30
0.000000
  70
    32
  0
VERTEX
  8
SJC2
  5
1C76A
 10
824.435
 20
167.660
 30
0.000000
  70
    32
  0
VERTEX
  8
SJC2
  5
1C76B
 10
825.728
 20
167.302
 30
0.000000
  70
    32
  0
VERTEX
  8
SJC2
  5
1C76C
 10
827.079
 20
167.065
 30
0.000000
  70
    32
  0
VERTEX
  8
SJC2
  5
1C76D
 10
828.485
 20
166.949
 30
0.000000
  70
    32
  0
VERTEX
  8
SJC2
  5
1C76E
 10
829.943
 20
166.953
 30
0.000000
  70
    32
  0
VERTEX
  8
SJC2
  5
1C76F
 10
831.450
 20
167.079
 30
0.000000
  70
    32
  0
VERTEX
  8
SJC2
  5
1C770
 10
833.001
 20
167.326
 30
0.000000
  70
    32
  0
VERTEX
  8
SJC2
  5
1C771
 10
834.594
 20
167.692
 30
0.000000
  70
    32
  0
VERTEX
  8
SJC2
  5
1C772
 10
836.223
 20
168.179
 30
0.000000
  70
    32
  0
VERTEX
  8
SJC2
  5
1C773
 10
837.886
 20
168.783
 30
0.000000
  70
    32
  0
VERTEX
  8
SJC2
  5
1C774
 10
839.579
 20
169.504
 30
0.000000
  70
    32
  0
VERTEX
  8
SJC2
  5
1C775
 10
841.296
 20
170.340
 30
0.000000
  70
    32
  0
VERTEX
  8
SJC2
  5
1C776
 10
843.034
 20
171.289
 30
0.000000
  70
    32
  0
VERTEX
  8
SJC2
  5
1C777
 10
844.790
 20
172.349
 30
0.000000
  70
    32
  0
VERTEX
  8
SJC2
  5
1C778
 10
846.558
 20
173.516
 30
0.000000
  70
    32
  0
VERTEX
  8
SJC2
  5
1C779
 10
848.334
 20
174.790
 30
0.000000
  70
    32
  0
VERTEX
  8
SJC2
  5
1C77A
 10
850.115
 20
176.165
 30
0.000000
  70
    32
  0
VERTEX
  8
SJC2
  5
1C77B
 10
851.895
 20
177.639
 30
0.000000
  70
    32
  0
VERTEX
  8
SJC2
  5
1C77C
 10
853.671
 20
179.209
 30
0.000000
  70
    32
  0
VERTEX
  8
SJC2
  5
1C77D
 10
855.438
 20
180.870
 30
0.000000
  70
    32
  0
VERTEX
  8
SJC2
  5
1C77E
 10
857.192
 20
182.619
 30
0.000000
  70
    32
  0
VERTEX
  8
SJC2
  5
1C77F
 10
858.929
 20
184.451
 30
0.000000
  70
    32
  0
VERTEX
  8
SJC2
  5
1C780
 10
860.644
 20
186.363
 30
0.000000
  70
    32
  0
VERTEX
  8
SJC2
  5
1C781
 10
862.334
 20
188.348
 30
0.000000
  70
    32
  0
VERTEX
  8
SJC2
  5
1C782
 10
863.995
 20
190.403
 30
0.000000
  70
    32
  0
VERTEX
  8
SJC2
  5
1C783
 10
865.621
 20
192.523
 30
0.000000
  70
    32
  0
VERTEX
  8
SJC2
  5
1C784
 10
867.210
 20
194.703
 30
0.000000
  70
    32
  0
VERTEX
  8
SJC2
  5
1C785
 10
868.758
 20
196.936
 30
0.000000
  70
    32
  0
VERTEX
  8
SJC2
  5
1C786
 10
870.261
 20
199.219
 30
0.000000
  70
    32
  0
VERTEX
  8
SJC2
  5
1C787
 10
871.715
 20
201.545
 30
0.000000
  70
    32
  0
VERTEX
  8
SJC2
  5
1C788
 10
873.117
 20
203.908
 30
0.000000
  70
    32
  0
VERTEX
  8
SJC2
  5
1C789
 10
874.463
 20
206.304
 30
0.000000
  70
    32
  0
VERTEX
  8
SJC2
  5
1C78A
 10
875.750
 20
208.726
 30
0.000000
  70
    32
  0
VERTEX
  8
SJC2
  5
1C78B
 10
876.975
 20
211.169
 30
0.000000
  70
    32
  0
VERTEX
  8
SJC2
  5
1C78C
 10
878.136
 20
213.626
 30
0.000000
  70
    32
  0
VERTEX
  8
SJC2
  5
1C78D
 10
879.229
 20
216.092
 30
0.000000
  70
    32
  0
VERTEX
  8
SJC2
  5
1C78E
 10
880.251
 20
218.561
 30
0.000000
  70
    32
  0
VERTEX
  8
SJC2
  5
1C78F
 10
881.201
 20
221.026
 30
0.000000
  70
    32
  0
VERTEX
  8
SJC2
  5
1C790
 10
882.076
 20
223.482
 30
0.000000
  70
    32
  0
VERTEX
  8
SJC2
  5
1C791
 10
882.873
 20
225.924
 30
0.000000
  70
    32
  0
VERTEX
  8
SJC2
  5
1C792
 10
883.591
 20
228.344
 30
0.000000
  70
    32
  0
VERTEX
  8
SJC2
  5
1C793
 10
884.229
 20
230.737
 30
0.000000
  70
    32
  0
VERTEX
  8
SJC2
  5
1C794
 10
884.784
 20
233.098
 30
0.000000
  70
    32
  0
VERTEX
  8
SJC2
  5
1C795
 10
885.255
 20
235.421
 30
0.000000
  70
    32
  0
VERTEX
  8
SJC2
  5
1C796
 10
885.642
 20
237.700
 30
0.000000
  70
    32
  0
VERTEX
  8
SJC2
  5
1C797
 10
885.943
 20
239.930
 30
0.000000
  70
    32
  0
VERTEX
  8
SJC2
  5
1C798
 10
886.157
 20
242.105
 30
0.000000
  70
    32
  0
VERTEX
  8
SJC2
  5
1C799
 10
886.285
 20
244.220
 30
0.000000
  70
    32
  0
VERTEX
  8
SJC2
  5
1C79A
 10
886.325
 20
246.270
 30
0.000000
  70
    32
  0
VERTEX
  8
SJC2
  5
1C79B
 10
886.277
 20
248.250
 30
0.000000
  70
    32
  0
VERTEX
  8
SJC2
  5
1C79C
 10
886.143
 20
250.155
 30
0.000000
  70
    32
  0
VERTEX
  8
SJC2
  5
1C79D
 10
885.921
 20
251.981
 30
0.000000
  70
    32
  0
VERTEX
  8
SJC2
  5
1C79E
 10
885.613
 20
253.724
 30
0.000000
  70
    32
  0
VERTEX
  8
SJC2
  5
1C79F
 10
885.219
 20
255.378
 30
0.000000
  70
    32
  0
VERTEX
  8
SJC2
  5
1C7A0
 10
884.740
 20
256.940
 30
0.000000
  70
    32
  0
VERTEX
  8
SJC2
  5
1C7A1
 10
884.178
 20
258.407
 30
0.000000
  70
    32
  0
VERTEX
  8
SJC2
  5
1C7A2
 10
883.534
 20
259.775
 30
0.000000
  70
    32
  0
VERTEX
  8
SJC2
  5
1C7A3
 10
882.809
 20
261.040
 30
0.000000
  70
    32
  0
VERTEX
  8
SJC2
  5
1C7A4
 10
882.005
 20
262.200
 30
0.000000
  70
    32
  0
VERTEX
  8
SJC2
  5
1C7A5
 10
881.124
 20
263.251
 30
0.000000
  70
    32
  0
VERTEX
  8
SJC2
  5
1C7A6
 10
880.168
 20
264.191
 30
0.000000
  70
    32
  0
VERTEX
  8
SJC2
  5
1C7A7
 10
879.139
 20
265.019
 30
0.000000
  70
    32
  0
VERTEX
  8
SJC2
  5
1C7A8
 10
878.041
 20
265.731
 30
0.000000
  70
    32
  0
VERTEX
  8
SJC2
  5
1C7A9
 10
876.875
 20
266.326
 30
0.000000
  70
    32
  0
VERTEX
  8
SJC2
  5
1C7AA
 10
875.644
 20
266.803
 30
0.000000
  70
    32
  0
VERTEX
  8
SJC2
  5
1C7AB
 10
874.352
 20
267.161
 30
0.000000
  70
    32
  0
VERTEX
  8
SJC2
  5
1C7AC
 10
873.001
 20
267.398
 30
0.000000
  70
    32
  0
VERTEX
  8
SJC2
  5
1C7AD
 10
871.594
 20
267.515
 30
0.000000
  70
    32
  0
VERTEX
  8
SJC2
  5
1C7AE
 10
870.136
 20
267.510
 30
0.000000
  70
    32
  0
VERTEX
  8
SJC2
  5
1C7AF
 10
868.630
 20
267.384
 30
0.000000
  70
    32
  0
VERTEX
  8
SJC2
  5
1C7B0
 10
867.078
 20
267.138
 30
0.000000
  70
    32
  0
VERTEX
  8
SJC2
  5
1C7B1
 10
865.486
 20
266.771
 30
0.000000
  70
    32
  0
VERTEX
  8
SJC2
  5
1C7B2
 10
863.856
 20
266.285
 30
0.000000
  70
    32
  0
VERTEX
  8
SJC2
  5
1C7B3
 10
862.193
 20
265.680
 30
0.000000
  70
    32
  0
VERTEX
  8
SJC2
  5
1C7B4
 10
860.501
 20
264.959
 30
0.000000
  70
    32
  0
VERTEX
  8
SJC2
  5
1C7B5
 10
858.783
 20
264.123
 30
0.000000
  70
    32
  0
VERTEX
  8
SJC2
  5
1C7B6
 10
857.045
 20
263.174
 30
0.000000
  70
    32
  0
VERTEX
  8
SJC2
  5
1C7B7
 10
855.290
 20
262.115
 30
0.000000
  70
    32
  0
VERTEX
  8
SJC2
  5
1C7B8
 10
853.522
 20
260.947
 30
0.000000
  70
    32
  0
VERTEX
  8
SJC2
  5
1C7B9
 10
851.745
 20
259.674
 30
0.000000
  70
    32
  0
VERTEX
  8
SJC2
  5
1C7BA
 10
849.965
 20
258.298
 30
0.000000
  70
    32
  0
VERTEX
  8
SJC2
  5
1C7BB
 10
848.184
 20
256.824
 30
0.000000
  70
    32
  0
VERTEX
  8
SJC2
  5
1C7BC
 10
846.408
 20
255.254
 30
0.000000
  70
    32
  0
VERTEX
  8
SJC2
  5
1C7BD
 10
844.641
 20
253.593
 30
0.000000
  70
    32
  0
VERTEX
  8
SJC2
  5
1C7BE
 10
842.887
 20
251.844
 30
0.000000
  70
    32
  0
VERTEX
  8
SJC2
  5
1C7BF
 10
841.150
 20
250.012
 30
0.000000
  70
    32
  0
VERTEX
  8
SJC2
  5
1C7C0
 10
839.435
 20
248.101
 30
0.000000
  70
    32
  0
VERTEX
  8
SJC2
  5
1C7C1
 10
837.745
 20
246.115
 30
0.000000
  70
    32
  0
VERTEX
  8
SJC2
  5
1C7C2
 10
836.085
 20
244.060
 30
0.000000
  70
    32
  0
VERTEX
  8
SJC2
  5
1C7C3
 10
834.458
 20
241.940
 30
0.000000
  70
    32
  0
VERTEX
  8
SJC2
  5
1C7C4
 10
832.869
 20
239.761
 30
0.000000
  70
    32
  0
VERTEX
  8
SJC2
  5
1C7C5
 10
831.321
 20
237.527
 30
0.000000
  70
    32
  0
VERTEX
  8
SJC2
  5
1C7C6
 10
829.819
 20
235.245
 30
0.000000
  70
    32
  0
VERTEX
  8
SJC2
  5
1C7C7
 10
828.365
 20
232.919
 30
0.000000
  70
    32
  0
VERTEX
  8
SJC2
  5
1C7C8
 10
826.963
 20
230.555
 30
0.000000
  70
    32
  0
VERTEX
  8
SJC2
  5
1C7C9
 10
825.617
 20
228.159
 30
0.000000
  70
    32
  0
VERTEX
  8
SJC2
  5
1C7CA
 10
824.329
 20
225.737
 30
0.000000
  70
    32
  0
VERTEX
  8
SJC2
  5
1C7CB
 10
823.104
 20
223.295
 30
0.000000
  70
    32
  0
VERTEX
  8
SJC2
  5
1C7CC
 10
821.943
 20
220.837
 30
0.000000
  70
    32
  0
VERTEX
  8
SJC2
  5
1C7CD
 10
820.851
 20
218.372
 30
0.000000
  70
    32
  0
VERTEX
  8
SJC2
  5
1C7CE
 10
819.828
 20
215.903
 30
0.000000
  70
    32
  0
VERTEX
  8
SJC2
  5
1C7CF
 10
818.879
 20
213.437
 30
0.000000
  70
    32
  0
VERTEX
  8
SJC2
  5
1C7D0
 10
818.004
 20
210.981
 30
0.000000
  70
    32
  0
VERTEX
  8
SJC2
  5
1C7D1
 10
817.206
 20
208.540
 30
0.000000
  70
    32
  0
VERTEX
  8
SJC2
  5
1C7D2
 10
816.488
 20
206.120
 30
0.000000
  70
    32
  0
VERTEX
  8
SJC2
  5
1C7D3
 10
815.851
 20
203.726
 30
0.000000
  70
    32
  0
VERTEX
  8
SJC2
  5
1C7D4
 10
815.295
 20
201.365
 30
0.000000
  70
    32
  0
VERTEX
  8
SJC2
  5
1C7D5
 10
814.824
 20
199.042
 30
0.000000
  70
    32
  0
VERTEX
  8
SJC2
  5
1C7D6
 10
814.437
 20
196.763
 30
0.000000
  70
    32
  0
VERTEX
  8
SJC2
  5
1C7D7
 10
814.137
 20
194.534
 30
0.000000
  70
    32
  0
VERTEX
  8
SJC2
  5
1C7D8
 10
813.922
 20
192.359
 30
0.000000
  70
    32
  0
VERTEX
  8
SJC2
  5
1C7D9
 10
813.795
 20
190.244
 30
0.000000
  70
    32
  0
VERTEX
  8
SJC2
  5
1C7DA
 10
813.755
 20
188.194
 30
0.000000
  70
    32
  0
VERTEX
  8
SJC2
  5
1C7DB
 10
813.802
 20
186.214
 30
0.000000
  70
    32
  0
VERTEX
  8
SJC2
  5
1C7DC
 10
813.937
 20
184.308
 30
0.000000
  70
    32
  0
VERTEX
  8
SJC2
  5
1C7DD
 10
814.159
 20
182.482
 30
0.000000
  70
    32
  0
VERTEX
  8
SJC2
  5
1C7DE
 10
814.467
 20
180.740
 30
0.000000
  70
    32
  0
VERTEX
  8
SJC2
  5
1C7DF
 10
814.860
 20
179.085
 30
0.000000
  70
    32
  0
VERTEX
  8
SJC2
  5
1C7E0
 10
815.339
 20
177.523
 30
0.000000
  70
    32
  0
VERTEX
  8
SJC2
  5
1C7E1
 10
815.901
 20
176.056
 30
0.000000
  70
    32
  0
VERTEX
  8
SJC2
  5
1C7E2
 10
816.546
 20
174.688
 30
0.000000
  70
    32
  0
VERTEX
  8
SJC2
  5
1C7E3
 10
817.271
 20
173.423
 30
0.000000
  70
    32
  0
VERTEX
  8
SJC2
  5
1C7E4
 10
818.075
 20
172.264
 30
0.000000
  70
    32
  0
VERTEX
  8
SJC2
  5
1C7E5
 10
818.956
 20
171.212
 30
0.000000
  70
    32
  0
VERTEX
  8
SJC2
  5
1C7E6
 10
819.912
 20
170.272
 30
0.000000
  70
    32
  0
VERTEX
  8
SJC2
  5
1C7E7
 10
820.940
 20
169.445
 30
0.000000
  70
    32
  0
VERTEX
  8
SJC2
  5
1C7E8
 10
822.039
 20
168.733
 30
0.000000
  70
    32
  0
SEQEND
  8
SJC2
  5
1C7E9
  0
POLYLINE
  5
1BE30
  8
SJC2
 10
1227.6413489234048
 20
168.73251372159052
 30
0.0
 66
     1
 70
     8
  0
VERTEX
  8
SJC2
  5
1C7EA
 10
1227.64
 20
168.733
 30
0.000000
  70
    32
  0
VERTEX
  8
SJC2
  5
1C7EB
 10
1228.81
 20
168.137
 30
0.000000
  70
    32
  0
VERTEX
  8
SJC2
  5
1C7EC
 10
1230.04
 20
167.660
 30
0.000000
  70
    32
  0
VERTEX
  8
SJC2
  5
1C7ED
 10
1231.33
 20
167.302
 30
0.000000
  70
    32
  0
VERTEX
  8
SJC2
  5
1C7EE
 10
1232.68
 20
167.065
 30
0.000000
  70
    32
  0
VERTEX
  8
SJC2
  5
1C7EF
 10
1234.09
 20
166.949
 30
0.000000
  70
    32
  0
VERTEX
  8
SJC2
  5
1C7F0
 10
1235.55
 20
166.953
 30
0.000000
  70
    32
  0
VERTEX
  8
SJC2
  5
1C7F1
 10
1237.05
 20
167.079
 30
0.000000
  70
    32
  0
VERTEX
  8
SJC2
  5
1C7F2
 10
1238.60
 20
167.326
 30
0.000000
  70
    32
  0
VERTEX
  8
SJC2
  5
1C7F3
 10
1240.20
 20
167.692
 30
0.000000
  70
    32
  0
VERTEX
  8
SJC2
  5
1C7F4
 10
1241.83
 20
168.179
 30
0.000000
  70
    32
  0
VERTEX
  8
SJC2
  5
1C7F5
 10
1243.49
 20
168.783
 30
0.000000
  70
    32
  0
VERTEX
  8
SJC2
  5
1C7F6
 10
1245.18
 20
169.504
 30
0.000000
  70
    32
  0
VERTEX
  8
SJC2
  5
1C7F7
 10
1246.90
 20
170.340
 30
0.000000
  70
    32
  0
VERTEX
  8
SJC2
  5
1C7F8
 10
1248.64
 20
171.289
 30
0.000000
  70
    32
  0
VERTEX
  8
SJC2
  5
1C7F9
 10
1250.39
 20
172.349
 30
0.000000
  70
    32
  0
VERTEX
  8
SJC2
  5
1C7FA
 10
1252.16
 20
173.516
 30
0.000000
  70
    32
  0
VERTEX
  8
SJC2
  5
1C7FB
 10
1253.94
 20
174.790
 30
0.000000
  70
    32
  0
VERTEX
  8
SJC2
  5
1C7FC
 10
1255.72
 20
176.165
 30
0.000000
  70
    32
  0
VERTEX
  8
SJC2
  5
1C7FD
 10
1257.50
 20
177.639
 30
0.000000
  70
    32
  0
VERTEX
  8
SJC2
  5
1C7FE
 10
1259.27
 20
179.209
 30
0.000000
  70
    32
  0
VERTEX
  8
SJC2
  5
1C7FF
 10
1261.04
 20
180.870
 30
0.000000
  70
    32
  0
VERTEX
  8
SJC2
  5
1C800
 10
1262.79
 20
182.619
 30
0.000000
  70
    32
  0
VERTEX
  8
SJC2
  5
1C801
 10
1264.53
 20
184.451
 30
0.000000
  70
    32
  0
VERTEX
  8
SJC2
  5
1C802
 10
1266.25
 20
186.363
 30
0.000000
  70
    32
  0
VERTEX
  8
SJC2
  5
1C803
 10
1267.94
 20
188.348
 30
0.000000
  70
    32
  0
VERTEX
  8
SJC2
  5
1C804
 10
1269.60
 20
190.403
 30
0.000000
  70
    32
  0
VERTEX
  8
SJC2
  5
1C805
 10
1271.22
 20
192.523
 30
0.000000
  70
    32
  0
VERTEX
  8
SJC2
  5
1C806
 10
1272.81
 20
194.703
 30
0.000000
  70
    32
  0
VERTEX
  8
SJC2
  5
1C807
 10
1274.36
 20
196.936
 30
0.000000
  70
    32
  0
VERTEX
  8
SJC2
  5
1C808
 10
1275.86
 20
199.219
 30
0.000000
  70
    32
  0
VERTEX
  8
SJC2
  5
1C809
 10
1277.32
 20
201.545
 30
0.000000
  70
    32
  0
VERTEX
  8
SJC2
  5
1C80A
 10
1278.72
 20
203.908
 30
0.000000
  70
    32
  0
VERTEX
  8
SJC2
  5
1C80B
 10
1280.07
 20
206.304
 30
0.000000
  70
    32
  0
VERTEX
  8
SJC2
  5
1C80C
 10
1281.35
 20
208.726
 30
0.000000
  70
    32
  0
VERTEX
  8
SJC2
  5
1C80D
 10
1282.58
 20
211.169
 30
0.000000
  70
    32
  0
VERTEX
  8
SJC2
  5
1C80E
 10
1283.74
 20
213.626
 30
0.000000
  70
    32
  0
VERTEX
  8
SJC2
  5
1C80F
 10
1284.83
 20
216.092
 30
0.000000
  70
    32
  0
VERTEX
  8
SJC2
  5
1C810
 10
1285.85
 20
218.561
 30
0.000000
  70
    32
  0
VERTEX
  8
SJC2
  5
1C811
 10
1286.80
 20
221.026
 30
0.000000
  70
    32
  0
VERTEX
  8
SJC2
  5
1C812
 10
1287.68
 20
223.482
 30
0.000000
  70
    32
  0
VERTEX
  8
SJC2
  5
1C813
 10
1288.48
 20
225.924
 30
0.000000
  70
    32
  0
VERTEX
  8
SJC2
  5
1C814
 10
1289.19
 20
228.344
 30
0.000000
  70
    32
  0
VERTEX
  8
SJC2
  5
1C815
 10
1289.83
 20
230.737
 30
0.000000
  70
    32
  0
VERTEX
  8
SJC2
  5
1C816
 10
1290.39
 20
233.098
 30
0.000000
  70
    32
  0
VERTEX
  8
SJC2
  5
1C817
 10
1290.86
 20
235.421
 30
0.000000
  70
    32
  0
VERTEX
  8
SJC2
  5
1C818
 10
1291.24
 20
237.700
 30
0.000000
  70
    32
  0
VERTEX
  8
SJC2
  5
1C819
 10
1291.55
 20
239.930
 30
0.000000
  70
    32
  0
VERTEX
  8
SJC2
  5
1C81A
 10
1291.76
 20
242.105
 30
0.000000
  70
    32
  0
VERTEX
  8
SJC2
  5
1C81B
 10
1291.89
 20
244.220
 30
0.000000
  70
    32
  0
VERTEX
  8
SJC2
  5
1C81C
 10
1291.93
 20
246.270
 30
0.000000
  70
    32
  0
VERTEX
  8
SJC2
  5
1C81D
 10
1291.88
 20
248.250
 30
0.000000
  70
    32
  0
VERTEX
  8
SJC2
  5
1C81E
 10
1291.75
 20
250.155
 30
0.000000
  70
    32
  0
VERTEX
  8
SJC2
  5
1C81F
 10
1291.52
 20
251.981
 30
0.000000
  70
    32
  0
VERTEX
  8
SJC2
  5
1C820
 10
1291.22
 20
253.724
 30
0.000000
  70
    32
  0
VERTEX
  8
SJC2
  5
1C821
 10
1290.82
 20
255.378
 30
0.000000
  70
    32
  0
VERTEX
  8
SJC2
  5
1C822
 10
1290.34
 20
256.940
 30
0.000000
  70
    32
  0
VERTEX
  8
SJC2
  5
1C823
 10
1289.78
 20
258.407
 30
0.000000
  70
    32
  0
VERTEX
  8
SJC2
  5
1C824
 10
1289.14
 20
259.775
 30
0.000000
  70
    32
  0
VERTEX
  8
SJC2
  5
1C825
 10
1288.41
 20
261.040
 30
0.000000
  70
    32
  0
VERTEX
  8
SJC2
  5
1C826
 10
1287.61
 20
262.200
 30
0.000000
  70
    32
  0
VERTEX
  8
SJC2
  5
1C827
 10
1286.73
 20
263.251
 30
0.000000
  70
    32
  0
VERTEX
  8
SJC2
  5
1C828
 10
1285.77
 20
264.191
 30
0.000000
  70
    32
  0
VERTEX
  8
SJC2
  5
1C829
 10
1284.74
 20
265.019
 30
0.000000
  70
    32
  0
VERTEX
  8
SJC2
  5
1C82A
 10
1283.64
 20
265.731
 30
0.000000
  70
    32
  0
VERTEX
  8
SJC2
  5
1C82B
 10
1282.48
 20
266.326
 30
0.000000
  70
    32
  0
VERTEX
  8
SJC2
  5
1C82C
 10
1281.25
 20
266.803
 30
0.000000
  70
    32
  0
VERTEX
  8
SJC2
  5
1C82D
 10
1279.95
 20
267.161
 30
0.000000
  70
    32
  0
VERTEX
  8
SJC2
  5
1C82E
 10
1278.60
 20
267.398
 30
0.000000
  70
    32
  0
VERTEX
  8
SJC2
  5
1C82F
 10
1277.20
 20
267.515
 30
0.000000
  70
    32
  0
VERTEX
  8
SJC2
  5
1C830
 10
1275.74
 20
267.510
 30
0.000000
  70
    32
  0
VERTEX
  8
SJC2
  5
1C831
 10
1274.23
 20
267.384
 30
0.000000
  70
    32
  0
VERTEX
  8
SJC2
  5
1C832
 10
1272.68
 20
267.138
 30
0.000000
  70
    32
  0
VERTEX
  8
SJC2
  5
1C833
 10
1271.09
 20
266.771
 30
0.000000
  70
    32
  0
VERTEX
  8
SJC2
  5
1C834
 10
1269.46
 20
266.285
 30
0.000000
  70
    32
  0
VERTEX
  8
SJC2
  5
1C835
 10
1267.80
 20
265.680
 30
0.000000
  70
    32
  0
VERTEX
  8
SJC2
  5
1C836
 10
1266.10
 20
264.959
 30
0.000000
  70
    32
  0
VERTEX
  8
SJC2
  5
1C837
 10
1264.39
 20
264.123
 30
0.000000
  70
    32
  0
VERTEX
  8
SJC2
  5
1C838
 10
1262.65
 20
263.174
 30
0.000000
  70
    32
  0
VERTEX
  8
SJC2
  5
1C839
 10
1260.89
 20
262.115
 30
0.000000
  70
    32
  0
VERTEX
  8
SJC2
  5
1C83A
 10
1259.12
 20
260.947
 30
0.000000
  70
    32
  0
VERTEX
  8
SJC2
  5
1C83B
 10
1257.35
 20
259.674
 30
0.000000
  70
    32
  0
VERTEX
  8
SJC2
  5
1C83C
 10
1255.57
 20
258.298
 30
0.000000
  70
    32
  0
VERTEX
  8
SJC2
  5
1C83D
 10
1253.79
 20
256.824
 30
0.000000
  70
    32
  0
VERTEX
  8
SJC2
  5
1C83E
 10
1252.01
 20
255.254
 30
0.000000
  70
    32
  0
VERTEX
  8
SJC2
  5
1C83F
 10
1250.24
 20
253.593
 30
0.000000
  70
    32
  0
VERTEX
  8
SJC2
  5
1C840
 10
1248.49
 20
251.844
 30
0.000000
  70
    32
  0
VERTEX
  8
SJC2
  5
1C841
 10
1246.75
 20
250.012
 30
0.000000
  70
    32
  0
VERTEX
  8
SJC2
  5
1C842
 10
1245.04
 20
248.101
 30
0.000000
  70
    32
  0
VERTEX
  8
SJC2
  5
1C843
 10
1243.35
 20
246.115
 30
0.000000
  70
    32
  0
VERTEX
  8
SJC2
  5
1C844
 10
1241.69
 20
244.060
 30
0.000000
  70
    32
  0
VERTEX
  8
SJC2
  5
1C845
 10
1240.06
 20
241.940
 30
0.000000
  70
    32
  0
VERTEX
  8
SJC2
  5
1C846
 10
1238.47
 20
239.761
 30
0.000000
  70
    32
  0
VERTEX
  8
SJC2
  5
1C847
 10
1236.92
 20
237.527
 30
0.000000
  70
    32
  0
VERTEX
  8
SJC2
  5
1C848
 10
1235.42
 20
235.245
 30
0.000000
  70
    32
  0
VERTEX
  8
SJC2
  5
1C849
 10
1233.97
 20
232.919
 30
0.000000
  70
    32
  0
VERTEX
  8
SJC2
  5
1C84A
 10
1232.57
 20
230.555
 30
0.000000
  70
    32
  0
VERTEX
  8
SJC2
  5
1C84B
 10
1231.22
 20
228.159
 30
0.000000
  70
    32
  0
VERTEX
  8
SJC2
  5
1C84C
 10
1229.93
 20
225.737
 30
0.000000
  70
    32
  0
VERTEX
  8
SJC2
  5
1C84D
 10
1228.71
 20
223.295
 30
0.000000
  70
    32
  0
VERTEX
  8
SJC2
  5
1C84E
 10
1227.55
 20
220.837
 30
0.000000
  70
    32
  0
VERTEX
  8
SJC2
  5
1C84F
 10
1226.45
 20
218.372
 30
0.000000
  70
    32
  0
VERTEX
  8
SJC2
  5
1C850
 10
1225.43
 20
215.903
 30
0.000000
  70
    32
  0
VERTEX
  8
SJC2
  5
1C851
 10
1224.48
 20
213.437
 30
0.000000
  70
    32
  0
VERTEX
  8
SJC2
  5
1C852
 10
1223.61
 20
210.981
 30
0.000000
  70
    32
  0
VERTEX
  8
SJC2
  5
1C853
 10
1222.81
 20
208.540
 30
0.000000
  70
    32
  0
VERTEX
  8
SJC2
  5
1C854
 10
1222.09
 20
206.120
 30
0.000000
  70
    32
  0
VERTEX
  8
SJC2
  5
1C855
 10
1221.45
 20
203.726
 30
0.000000
  70
    32
  0
VERTEX
  8
SJC2
  5
1C856
 10
1220.90
 20
201.365
 30
0.000000
  70
    32
  0
VERTEX
  8
SJC2
  5
1C857
 10
1220.43
 20
199.042
 30
0.000000
  70
    32
  0
VERTEX
  8
SJC2
  5
1C858
 10
1220.04
 20
196.763
 30
0.000000
  70
    32
  0
VERTEX
  8
SJC2
  5
1C859
 10
1219.74
 20
194.534
 30
0.000000
  70
    32
  0
VERTEX
  8
SJC2
  5
1C85A
 10
1219.52
 20
192.359
 30
0.000000
  70
    32
  0
VERTEX
  8
SJC2
  5
1C85B
 10
1219.40
 20
190.244
 30
0.000000
  70
    32
  0
VERTEX
  8
SJC2
  5
1C85C
 10
1219.36
 20
188.194
 30
0.000000
  70
    32
  0
VERTEX
  8
SJC2
  5
1C85D
 10
1219.40
 20
186.214
 30
0.000000
  70
    32
  0
VERTEX
  8
SJC2
  5
1C85E
 10
1219.54
 20
184.308
 30
0.000000
  70
    32
  0
VERTEX
  8
SJC2
  5
1C85F
 10
1219.76
 20
182.482
 30
0.000000
  70
    32
  0
VERTEX
  8
SJC2
  5
1C860
 10
1220.07
 20
180.740
 30
0.000000
  70
    32
  0
VERTEX
  8
SJC2
  5
1C861
 10
1220.46
 20
179.085
 30
0.000000
  70
    32
  0
VERTEX
  8
SJC2
  5
1C862
 10
1220.94
 20
177.523
 30
0.000000
  70
    32
  0
VERTEX
  8
SJC2
  5
1C863
 10
1221.50
 20
176.056
 30
0.000000
  70
    32
  0
VERTEX
  8
SJC2
  5
1C864
 10
1222.15
 20
174.688
 30
0.000000
  70
    32
  0
VERTEX
  8
SJC2
  5
1C865
 10
1222.87
 20
173.423
 30
0.000000
  70
    32
  0
VERTEX
  8
SJC2
  5
1C866
 10
1223.68
 20
172.264
 30
0.000000
  70
    32
  0
VERTEX
  8
SJC2
  5
1C867
 10
1224.56
 20
171.212
 30
0.000000
  70
    32
  0
VERTEX
  8
SJC2
  5
1C868
 10
1225.51
 20
170.272
 30
0.000000
  70
    32
  0
VERTEX
  8
SJC2
  5
1C869
 10
1226.54
 20
169.445
 30
0.000000
  70
    32
  0
VERTEX
  8
SJC2
  5
1C86A
 10
1227.64
 20
168.733
 30
0.000000
  70
    32
  0
SEQEND
  8
SJC2
  5
1C86B
  0
POLYLINE
  5
1BE31
  8
SJC2
 10
1289.9010636160619
 20
168.73251372159052
 30
0.0
 66
     1
 70
     8
  0
VERTEX
  8
SJC2
  5
1C86C
 10
1289.90
 20
168.733
 30
0.000000
  70
    32
  0
VERTEX
  8
SJC2
  5
1C86D
 10
1291.07
 20
168.137
 30
0.000000
  70
    32
  0
VERTEX
  8
SJC2
  5
1C86E
 10
1292.30
 20
167.660
 30
0.000000
  70
    32
  0
VERTEX
  8
SJC2
  5
1C86F
 10
1293.59
 20
167.302
 30
0.000000
  70
    32
  0
VERTEX
  8
SJC2
  5
1C870
 10
1294.94
 20
167.065
 30
0.000000
  70
    32
  0
VERTEX
  8
SJC2
  5
1C871
 10
1296.35
 20
166.949
 30
0.000000
  70
    32
  0
VERTEX
  8
SJC2
  5
1C872
 10
1297.81
 20
166.953
 30
0.000000
  70
    32
  0
VERTEX
  8
SJC2
  5
1C873
 10
1299.31
 20
167.079
 30
0.000000
  70
    32
  0
VERTEX
  8
SJC2
  5
1C874
 10
1300.86
 20
167.326
 30
0.000000
  70
    32
  0
VERTEX
  8
SJC2
  5
1C875
 10
1302.46
 20
167.692
 30
0.000000
  70
    32
  0
VERTEX
  8
SJC2
  5
1C876
 10
1304.09
 20
168.179
 30
0.000000
  70
    32
  0
VERTEX
  8
SJC2
  5
1C877
 10
1305.75
 20
168.783
 30
0.000000
  70
    32
  0
VERTEX
  8
SJC2
  5
1C878
 10
1307.44
 20
169.504
 30
0.000000
  70
    32
  0
VERTEX
  8
SJC2
  5
1C879
 10
1309.16
 20
170.340
 30
0.000000
  70
    32
  0
VERTEX
  8
SJC2
  5
1C87A
 10
1310.90
 20
171.289
 30
0.000000
  70
    32
  0
VERTEX
  8
SJC2
  5
1C87B
 10
1312.65
 20
172.349
 30
0.000000
  70
    32
  0
VERTEX
  8
SJC2
  5
1C87C
 10
1314.42
 20
173.516
 30
0.000000
  70
    32
  0
VERTEX
  8
SJC2
  5
1C87D
 10
1316.20
 20
174.790
 30
0.000000
  70
    32
  0
VERTEX
  8
SJC2
  5
1C87E
 10
1317.98
 20
176.165
 30
0.000000
  70
    32
  0
VERTEX
  8
SJC2
  5
1C87F
 10
1319.76
 20
177.639
 30
0.000000
  70
    32
  0
VERTEX
  8
SJC2
  5
1C880
 10
1321.53
 20
179.209
 30
0.000000
  70
    32
  0
VERTEX
  8
SJC2
  5
1C881
 10
1323.30
 20
180.870
 30
0.000000
  70
    32
  0
VERTEX
  8
SJC2
  5
1C882
 10
1325.05
 20
182.619
 30
0.000000
  70
    32
  0
VERTEX
  8
SJC2
  5
1C883
 10
1326.79
 20
184.451
 30
0.000000
  70
    32
  0
VERTEX
  8
SJC2
  5
1C884
 10
1328.51
 20
186.363
 30
0.000000
  70
    32
  0
VERTEX
  8
SJC2
  5
1C885
 10
1330.20
 20
188.348
 30
0.000000
  70
    32
  0
VERTEX
  8
SJC2
  5
1C886
 10
1331.86
 20
190.403
 30
0.000000
  70
    32
  0
VERTEX
  8
SJC2
  5
1C887
 10
1333.48
 20
192.523
 30
0.000000
  70
    32
  0
VERTEX
  8
SJC2
  5
1C888
 10
1335.07
 20
194.703
 30
0.000000
  70
    32
  0
VERTEX
  8
SJC2
  5
1C889
 10
1336.62
 20
196.936
 30
0.000000
  70
    32
  0
VERTEX
  8
SJC2
  5
1C88A
 10
1338.12
 20
199.219
 30
0.000000
  70
    32
  0
VERTEX
  8
SJC2
  5
1C88B
 10
1339.58
 20
201.545
 30
0.000000
  70
    32
  0
VERTEX
  8
SJC2
  5
1C88C
 10
1340.98
 20
203.908
 30
0.000000
  70
    32
  0
VERTEX
  8
SJC2
  5
1C88D
 10
1342.33
 20
206.304
 30
0.000000
  70
    32
  0
VERTEX
  8
SJC2
  5
1C88E
 10
1343.61
 20
208.726
 30
0.000000
  70
    32
  0
VERTEX
  8
SJC2
  5
1C88F
 10
1344.84
 20
211.169
 30
0.000000
  70
    32
  0
VERTEX
  8
SJC2
  5
1C890
 10
1346.00
 20
213.626
 30
0.000000
  70
    32
  0
VERTEX
  8
SJC2
  5
1C891
 10
1347.09
 20
216.092
 30
0.000000
  70
    32
  0
VERTEX
  8
SJC2
  5
1C892
 10
1348.11
 20
218.561
 30
0.000000
  70
    32
  0
VERTEX
  8
SJC2
  5
1C893
 10
1349.06
 20
221.026
 30
0.000000
  70
    32
  0
VERTEX
  8
SJC2
  5
1C894
 10
1349.94
 20
223.482
 30
0.000000
  70
    32
  0
VERTEX
  8
SJC2
  5
1C895
 10
1350.74
 20
225.924
 30
0.000000
  70
    32
  0
VERTEX
  8
SJC2
  5
1C896
 10
1351.45
 20
228.344
 30
0.000000
  70
    32
  0
VERTEX
  8
SJC2
  5
1C897
 10
1352.09
 20
230.737
 30
0.000000
  70
    32
  0
VERTEX
  8
SJC2
  5
1C898
 10
1352.65
 20
233.098
 30
0.000000
  70
    32
  0
VERTEX
  8
SJC2
  5
1C899
 10
1353.12
 20
235.421
 30
0.000000
  70
    32
  0
VERTEX
  8
SJC2
  5
1C89A
 10
1353.50
 20
237.700
 30
0.000000
  70
    32
  0
VERTEX
  8
SJC2
  5
1C89B
 10
1353.81
 20
239.930
 30
0.000000
  70
    32
  0
VERTEX
  8
SJC2
  5
1C89C
 10
1354.02
 20
242.105
 30
0.000000
  70
    32
  0
VERTEX
  8
SJC2
  5
1C89D
 10
1354.15
 20
244.220
 30
0.000000
  70
    32
  0
VERTEX
  8
SJC2
  5
1C89E
 10
1354.19
 20
246.270
 30
0.000000
  70
    32
  0
VERTEX
  8
SJC2
  5
1C89F
 10
1354.14
 20
248.250
 30
0.000000
  70
    32
  0
VERTEX
  8
SJC2
  5
1C8A0
 10
1354.00
 20
250.155
 30
0.000000
  70
    32
  0
VERTEX
  8
SJC2
  5
1C8A1
 10
1353.78
 20
251.981
 30
0.000000
  70
    32
  0
VERTEX
  8
SJC2
  5
1C8A2
 10
1353.48
 20
253.724
 30
0.000000
  70
    32
  0
VERTEX
  8
SJC2
  5
1C8A3
 10
1353.08
 20
255.378
 30
0.000000
  70
    32
  0
VERTEX
  8
SJC2
  5
1C8A4
 10
1352.60
 20
256.940
 30
0.000000
  70
    32
  0
VERTEX
  8
SJC2
  5
1C8A5
 10
1352.04
 20
258.407
 30
0.000000
  70
    32
  0
VERTEX
  8
SJC2
  5
1C8A6
 10
1351.40
 20
259.775
 30
0.000000
  70
    32
  0
VERTEX
  8
SJC2
  5
1C8A7
 10
1350.67
 20
261.040
 30
0.000000
  70
    32
  0
VERTEX
  8
SJC2
  5
1C8A8
 10
1349.87
 20
262.200
 30
0.000000
  70
    32
  0
VERTEX
  8
SJC2
  5
1C8A9
 10
1348.99
 20
263.251
 30
0.000000
  70
    32
  0
VERTEX
  8
SJC2
  5
1C8AA
 10
1348.03
 20
264.191
 30
0.000000
  70
    32
  0
VERTEX
  8
SJC2
  5
1C8AB
 10
1347.00
 20
265.019
 30
0.000000
  70
    32
  0
VERTEX
  8
SJC2
  5
1C8AC
 10
1345.90
 20
265.731
 30
0.000000
  70
    32
  0
VERTEX
  8
SJC2
  5
1C8AD
 10
1344.74
 20
266.326
 30
0.000000
  70
    32
  0
VERTEX
  8
SJC2
  5
1C8AE
 10
1343.51
 20
266.803
 30
0.000000
  70
    32
  0
VERTEX
  8
SJC2
  5
1C8AF
 10
1342.21
 20
267.161
 30
0.000000
  70
    32
  0
VERTEX
  8
SJC2
  5
1C8B0
 10
1340.86
 20
267.398
 30
0.000000
  70
    32
  0
VERTEX
  8
SJC2
  5
1C8B1
 10
1339.46
 20
267.515
 30
0.000000
  70
    32
  0
VERTEX
  8
SJC2
  5
1C8B2
 10
1338.00
 20
267.510
 30
0.000000
  70
    32
  0
VERTEX
  8
SJC2
  5
1C8B3
 10
1336.49
 20
267.384
 30
0.000000
  70
    32
  0
VERTEX
  8
SJC2
  5
1C8B4
 10
1334.94
 20
267.138
 30
0.000000
  70
    32
  0
VERTEX
  8
SJC2
  5
1C8B5
 10
1333.35
 20
266.771
 30
0.000000
  70
    32
  0
VERTEX
  8
SJC2
  5
1C8B6
 10
1331.72
 20
266.285
 30
0.000000
  70
    32
  0
VERTEX
  8
SJC2
  5
1C8B7
 10
1330.06
 20
265.680
 30
0.000000
  70
    32
  0
VERTEX
  8
SJC2
  5
1C8B8
 10
1328.36
 20
264.959
 30
0.000000
  70
    32
  0
VERTEX
  8
SJC2
  5
1C8B9
 10
1326.65
 20
264.123
 30
0.000000
  70
    32
  0
VERTEX
  8
SJC2
  5
1C8BA
 10
1324.91
 20
263.174
 30
0.000000
  70
    32
  0
VERTEX
  8
SJC2
  5
1C8BB
 10
1323.15
 20
262.115
 30
0.000000
  70
    32
  0
VERTEX
  8
SJC2
  5
1C8BC
 10
1321.38
 20
260.947
 30
0.000000
  70
    32
  0
VERTEX
  8
SJC2
  5
1C8BD
 10
1319.61
 20
259.674
 30
0.000000
  70
    32
  0
VERTEX
  8
SJC2
  5
1C8BE
 10
1317.83
 20
258.298
 30
0.000000
  70
    32
  0
VERTEX
  8
SJC2
  5
1C8BF
 10
1316.05
 20
256.824
 30
0.000000
  70
    32
  0
VERTEX
  8
SJC2
  5
1C8C0
 10
1314.27
 20
255.254
 30
0.000000
  70
    32
  0
VERTEX
  8
SJC2
  5
1C8C1
 10
1312.50
 20
253.593
 30
0.000000
  70
    32
  0
VERTEX
  8
SJC2
  5
1C8C2
 10
1310.75
 20
251.844
 30
0.000000
  70
    32
  0
VERTEX
  8
SJC2
  5
1C8C3
 10
1309.01
 20
250.012
 30
0.000000
  70
    32
  0
VERTEX
  8
SJC2
  5
1C8C4
 10
1307.30
 20
248.101
 30
0.000000
  70
    32
  0
VERTEX
  8
SJC2
  5
1C8C5
 10
1305.61
 20
246.115
 30
0.000000
  70
    32
  0
VERTEX
  8
SJC2
  5
1C8C6
 10
1303.95
 20
244.060
 30
0.000000
  70
    32
  0
VERTEX
  8
SJC2
  5
1C8C7
 10
1302.32
 20
241.940
 30
0.000000
  70
    32
  0
VERTEX
  8
SJC2
  5
1C8C8
 10
1300.73
 20
239.761
 30
0.000000
  70
    32
  0
VERTEX
  8
SJC2
  5
1C8C9
 10
1299.18
 20
237.527
 30
0.000000
  70
    32
  0
VERTEX
  8
SJC2
  5
1C8CA
 10
1297.68
 20
235.245
 30
0.000000
  70
    32
  0
VERTEX
  8
SJC2
  5
1C8CB
 10
1296.23
 20
232.919
 30
0.000000
  70
    32
  0
VERTEX
  8
SJC2
  5
1C8CC
 10
1294.83
 20
230.555
 30
0.000000
  70
    32
  0
VERTEX
  8
SJC2
  5
1C8CD
 10
1293.48
 20
228.159
 30
0.000000
  70
    32
  0
VERTEX
  8
SJC2
  5
1C8CE
 10
1292.19
 20
225.737
 30
0.000000
  70
    32
  0
VERTEX
  8
SJC2
  5
1C8CF
 10
1290.97
 20
223.295
 30
0.000000
  70
    32
  0
VERTEX
  8
SJC2
  5
1C8D0
 10
1289.81
 20
220.837
 30
0.000000
  70
    32
  0
VERTEX
  8
SJC2
  5
1C8D1
 10
1288.71
 20
218.372
 30
0.000000
  70
    32
  0
VERTEX
  8
SJC2
  5
1C8D2
 10
1287.69
 20
215.903
 30
0.000000
  70
    32
  0
VERTEX
  8
SJC2
  5
1C8D3
 10
1286.74
 20
213.437
 30
0.000000
  70
    32
  0
VERTEX
  8
SJC2
  5
1C8D4
 10
1285.87
 20
210.981
 30
0.000000
  70
    32
  0
VERTEX
  8
SJC2
  5
1C8D5
 10
1285.07
 20
208.540
 30
0.000000
  70
    32
  0
VERTEX
  8
SJC2
  5
1C8D6
 10
1284.35
 20
206.120
 30
0.000000
  70
    32
  0
VERTEX
  8
SJC2
  5
1C8D7
 10
1283.71
 20
203.726
 30
0.000000
  70
    32
  0
VERTEX
  8
SJC2
  5
1C8D8
 10
1283.16
 20
201.365
 30
0.000000
  70
    32
  0
VERTEX
  8
SJC2
  5
1C8D9
 10
1282.69
 20
199.042
 30
0.000000
  70
    32
  0
VERTEX
  8
SJC2
  5
1C8DA
 10
1282.30
 20
196.763
 30
0.000000
  70
    32
  0
VERTEX
  8
SJC2
  5
1C8DB
 10
1282.00
 20
194.534
 30
0.000000
  70
    32
  0
VERTEX
  8
SJC2
  5
1C8DC
 10
1281.78
 20
192.359
 30
0.000000
  70
    32
  0
VERTEX
  8
SJC2
  5
1C8DD
 10
1281.66
 20
190.244
 30
0.000000
  70
    32
  0
VERTEX
  8
SJC2
  5
1C8DE
 10
1281.62
 20
188.194
 30
0.000000
  70
    32
  0
VERTEX
  8
SJC2
  5
1C8DF
 10
1281.66
 20
186.214
 30
0.000000
  70
    32
  0
VERTEX
  8
SJC2
  5
1C8E0
 10
1281.80
 20
184.308
 30
0.000000
  70
    32
  0
VERTEX
  8
SJC2
  5
1C8E1
 10
1282.02
 20
182.482
 30
0.000000
  70
    32
  0
VERTEX
  8
SJC2
  5
1C8E2
 10
1282.33
 20
180.740
 30
0.000000
  70
    32
  0
VERTEX
  8
SJC2
  5
1C8E3
 10
1282.72
 20
179.085
 30
0.000000
  70
    32
  0
VERTEX
  8
SJC2
  5
1C8E4
 10
1283.20
 20
177.523
 30
0.000000
  70
    32
  0
VERTEX
  8
SJC2
  5
1C8E5
 10
1283.76
 20
176.056
 30
0.000000
  70
    32
  0
VERTEX
  8
SJC2
  5
1C8E6
 10
1284.41
 20
174.688
 30
0.000000
  70
    32
  0
VERTEX
  8
SJC2
  5
1C8E7
 10
1285.13
 20
173.423
 30
0.000000
  70
    32
  0
VERTEX
  8
SJC2
  5
1C8E8
 10
1285.94
 20
172.264
 30
0.000000
  70
    32
  0
VERTEX
  8
SJC2
  5
1C8E9
 10
1286.82
 20
171.212
 30
0.000000
  70
    32
  0
VERTEX
  8
SJC2
  5
1C8EA
 10
1287.77
 20
170.272
 30
0.000000
  70
    32
  0
VERTEX
  8
SJC2
  5
1C8EB
 10
1288.80
 20
169.445
 30
0.000000
  70
    32
  0
VERTEX
  8
SJC2
  5
1C8EC
 10
1289.90
 20
168.733
 30
0.000000
  70
    32
  0
SEQEND
  8
SJC2
  5
1C8ED
  0
POLYLINE
  5
1BE32
  8
SJC2
 10
1488.9947981885068
 20
168.73251372159052
 30
0.0
 66
     1
 70
     8
  0
VERTEX
  8
SJC2
  5
1C8EE
 10
1488.99
 20
168.733
 30
0.000000
  70
    32
  0
VERTEX
  8
SJC2
  5
1C8EF
 10
1490.16
 20
168.137
 30
0.000000
  70
    32
  0
VERTEX
  8
SJC2
  5
1C8F0
 10
1491.39
 20
167.660
 30
0.000000
  70
    32
  0
VERTEX
  8
SJC2
  5
1C8F1
 10
1492.68
 20
167.302
 30
0.000000
  70
    32
  0
VERTEX
  8
SJC2
  5
1C8F2
 10
1494.03
 20
167.065
 30
0.000000
  70
    32
  0
VERTEX
  8
SJC2
  5
1C8F3
 10
1495.44
 20
166.949
 30
0.000000
  70
    32
  0
VERTEX
  8
SJC2
  5
1C8F4
 10
1496.90
 20
166.953
 30
0.000000
  70
    32
  0
VERTEX
  8
SJC2
  5
1C8F5
 10
1498.41
 20
167.079
 30
0.000000
  70
    32
  0
VERTEX
  8
SJC2
  5
1C8F6
 10
1499.96
 20
167.326
 30
0.000000
  70
    32
  0
VERTEX
  8
SJC2
  5
1C8F7
 10
1501.55
 20
167.692
 30
0.000000
  70
    32
  0
VERTEX
  8
SJC2
  5
1C8F8
 10
1503.18
 20
168.179
 30
0.000000
  70
    32
  0
VERTEX
  8
SJC2
  5
1C8F9
 10
1504.84
 20
168.783
 30
0.000000
  70
    32
  0
VERTEX
  8
SJC2
  5
1C8FA
 10
1506.53
 20
169.504
 30
0.000000
  70
    32
  0
VERTEX
  8
SJC2
  5
1C8FB
 10
1508.25
 20
170.340
 30
0.000000
  70
    32
  0
VERTEX
  8
SJC2
  5
1C8FC
 10
1509.99
 20
171.289
 30
0.000000
  70
    32
  0
VERTEX
  8
SJC2
  5
1C8FD
 10
1511.75
 20
172.349
 30
0.000000
  70
    32
  0
VERTEX
  8
SJC2
  5
1C8FE
 10
1513.51
 20
173.516
 30
0.000000
  70
    32
  0
VERTEX
  8
SJC2
  5
1C8FF
 10
1515.29
 20
174.790
 30
0.000000
  70
    32
  0
VERTEX
  8
SJC2
  5
1C900
 10
1517.07
 20
176.165
 30
0.000000
  70
    32
  0
VERTEX
  8
SJC2
  5
1C901
 10
1518.85
 20
177.639
 30
0.000000
  70
    32
  0
VERTEX
  8
SJC2
  5
1C902
 10
1520.63
 20
179.209
 30
0.000000
  70
    32
  0
VERTEX
  8
SJC2
  5
1C903
 10
1522.39
 20
180.870
 30
0.000000
  70
    32
  0
VERTEX
  8
SJC2
  5
1C904
 10
1524.15
 20
182.619
 30
0.000000
  70
    32
  0
VERTEX
  8
SJC2
  5
1C905
 10
1525.89
 20
184.451
 30
0.000000
  70
    32
  0
VERTEX
  8
SJC2
  5
1C906
 10
1527.60
 20
186.363
 30
0.000000
  70
    32
  0
VERTEX
  8
SJC2
  5
1C907
 10
1529.29
 20
188.348
 30
0.000000
  70
    32
  0
VERTEX
  8
SJC2
  5
1C908
 10
1530.95
 20
190.403
 30
0.000000
  70
    32
  0
VERTEX
  8
SJC2
  5
1C909
 10
1532.58
 20
192.523
 30
0.000000
  70
    32
  0
VERTEX
  8
SJC2
  5
1C90A
 10
1534.17
 20
194.703
 30
0.000000
  70
    32
  0
VERTEX
  8
SJC2
  5
1C90B
 10
1535.71
 20
196.936
 30
0.000000
  70
    32
  0
VERTEX
  8
SJC2
  5
1C90C
 10
1537.22
 20
199.219
 30
0.000000
  70
    32
  0
VERTEX
  8
SJC2
  5
1C90D
 10
1538.67
 20
201.545
 30
0.000000
  70
    32
  0
VERTEX
  8
SJC2
  5
1C90E
 10
1540.07
 20
203.908
 30
0.000000
  70
    32
  0
VERTEX
  8
SJC2
  5
1C90F
 10
1541.42
 20
206.304
 30
0.000000
  70
    32
  0
VERTEX
  8
SJC2
  5
1C910
 10
1542.71
 20
208.726
 30
0.000000
  70
    32
  0
VERTEX
  8
SJC2
  5
1C911
 10
1543.93
 20
211.169
 30
0.000000
  70
    32
  0
VERTEX
  8
SJC2
  5
1C912
 10
1545.09
 20
213.626
 30
0.000000
  70
    32
  0
VERTEX
  8
SJC2
  5
1C913
 10
1546.18
 20
216.092
 30
0.000000
  70
    32
  0
VERTEX
  8
SJC2
  5
1C914
 10
1547.21
 20
218.561
 30
0.000000
  70
    32
  0
VERTEX
  8
SJC2
  5
1C915
 10
1548.16
 20
221.026
 30
0.000000
  70
    32
  0
VERTEX
  8
SJC2
  5
1C916
 10
1549.03
 20
223.482
 30
0.000000
  70
    32
  0
VERTEX
  8
SJC2
  5
1C917
 10
1549.83
 20
225.924
 30
0.000000
  70
    32
  0
VERTEX
  8
SJC2
  5
1C918
 10
1550.55
 20
228.344
 30
0.000000
  70
    32
  0
VERTEX
  8
SJC2
  5
1C919
 10
1551.18
 20
230.737
 30
0.000000
  70
    32
  0
VERTEX
  8
SJC2
  5
1C91A
 10
1551.74
 20
233.098
 30
0.000000
  70
    32
  0
VERTEX
  8
SJC2
  5
1C91B
 10
1552.21
 20
235.421
 30
0.000000
  70
    32
  0
VERTEX
  8
SJC2
  5
1C91C
 10
1552.60
 20
237.700
 30
0.000000
  70
    32
  0
VERTEX
  8
SJC2
  5
1C91D
 10
1552.90
 20
239.930
 30
0.000000
  70
    32
  0
VERTEX
  8
SJC2
  5
1C91E
 10
1553.11
 20
242.105
 30
0.000000
  70
    32
  0
VERTEX
  8
SJC2
  5
1C91F
 10
1553.24
 20
244.220
 30
0.000000
  70
    32
  0
VERTEX
  8
SJC2
  5
1C920
 10
1553.28
 20
246.270
 30
0.000000
  70
    32
  0
VERTEX
  8
SJC2
  5
1C921
 10
1553.23
 20
248.250
 30
0.000000
  70
    32
  0
VERTEX
  8
SJC2
  5
1C922
 10
1553.10
 20
250.155
 30
0.000000
  70
    32
  0
VERTEX
  8
SJC2
  5
1C923
 10
1552.88
 20
251.981
 30
0.000000
  70
    32
  0
VERTEX
  8
SJC2
  5
1C924
 10
1552.57
 20
253.724
 30
0.000000
  70
    32
  0
VERTEX
  8
SJC2
  5
1C925
 10
1552.18
 20
255.378
 30
0.000000
  70
    32
  0
VERTEX
  8
SJC2
  5
1C926
 10
1551.70
 20
256.940
 30
0.000000
  70
    32
  0
VERTEX
  8
SJC2
  5
1C927
 10
1551.13
 20
258.407
 30
0.000000
  70
    32
  0
VERTEX
  8
SJC2
  5
1C928
 10
1550.49
 20
259.775
 30
0.000000
  70
    32
  0
VERTEX
  8
SJC2
  5
1C929
 10
1549.76
 20
261.040
 30
0.000000
  70
    32
  0
VERTEX
  8
SJC2
  5
1C92A
 10
1548.96
 20
262.200
 30
0.000000
  70
    32
  0
VERTEX
  8
SJC2
  5
1C92B
 10
1548.08
 20
263.251
 30
0.000000
  70
    32
  0
VERTEX
  8
SJC2
  5
1C92C
 10
1547.12
 20
264.191
 30
0.000000
  70
    32
  0
VERTEX
  8
SJC2
  5
1C92D
 10
1546.10
 20
265.019
 30
0.000000
  70
    32
  0
VERTEX
  8
SJC2
  5
1C92E
 10
1545.00
 20
265.731
 30
0.000000
  70
    32
  0
VERTEX
  8
SJC2
  5
1C92F
 10
1543.83
 20
266.326
 30
0.000000
  70
    32
  0
VERTEX
  8
SJC2
  5
1C930
 10
1542.60
 20
266.803
 30
0.000000
  70
    32
  0
VERTEX
  8
SJC2
  5
1C931
 10
1541.31
 20
267.161
 30
0.000000
  70
    32
  0
VERTEX
  8
SJC2
  5
1C932
 10
1539.96
 20
267.398
 30
0.000000
  70
    32
  0
VERTEX
  8
SJC2
  5
1C933
 10
1538.55
 20
267.515
 30
0.000000
  70
    32
  0
VERTEX
  8
SJC2
  5
1C934
 10
1537.09
 20
267.510
 30
0.000000
  70
    32
  0
VERTEX
  8
SJC2
  5
1C935
 10
1535.59
 20
267.384
 30
0.000000
  70
    32
  0
VERTEX
  8
SJC2
  5
1C936
 10
1534.03
 20
267.138
 30
0.000000
  70
    32
  0
VERTEX
  8
SJC2
  5
1C937
 10
1532.44
 20
266.771
 30
0.000000
  70
    32
  0
VERTEX
  8
SJC2
  5
1C938
 10
1530.81
 20
266.285
 30
0.000000
  70
    32
  0
VERTEX
  8
SJC2
  5
1C939
 10
1529.15
 20
265.680
 30
0.000000
  70
    32
  0
VERTEX
  8
SJC2
  5
1C93A
 10
1527.46
 20
264.959
 30
0.000000
  70
    32
  0
VERTEX
  8
SJC2
  5
1C93B
 10
1525.74
 20
264.123
 30
0.000000
  70
    32
  0
VERTEX
  8
SJC2
  5
1C93C
 10
1524.00
 20
263.174
 30
0.000000
  70
    32
  0
VERTEX
  8
SJC2
  5
1C93D
 10
1522.25
 20
262.115
 30
0.000000
  70
    32
  0
VERTEX
  8
SJC2
  5
1C93E
 10
1520.48
 20
260.947
 30
0.000000
  70
    32
  0
VERTEX
  8
SJC2
  5
1C93F
 10
1518.70
 20
259.674
 30
0.000000
  70
    32
  0
VERTEX
  8
SJC2
  5
1C940
 10
1516.92
 20
258.298
 30
0.000000
  70
    32
  0
VERTEX
  8
SJC2
  5
1C941
 10
1515.14
 20
256.824
 30
0.000000
  70
    32
  0
VERTEX
  8
SJC2
  5
1C942
 10
1513.36
 20
255.254
 30
0.000000
  70
    32
  0
VERTEX
  8
SJC2
  5
1C943
 10
1511.60
 20
253.593
 30
0.000000
  70
    32
  0
VERTEX
  8
SJC2
  5
1C944
 10
1509.84
 20
251.844
 30
0.000000
  70
    32
  0
VERTEX
  8
SJC2
  5
1C945
 10
1508.11
 20
250.012
 30
0.000000
  70
    32
  0
VERTEX
  8
SJC2
  5
1C946
 10
1506.39
 20
248.101
 30
0.000000
  70
    32
  0
VERTEX
  8
SJC2
  5
1C947
 10
1504.70
 20
246.115
 30
0.000000
  70
    32
  0
VERTEX
  8
SJC2
  5
1C948
 10
1503.04
 20
244.060
 30
0.000000
  70
    32
  0
VERTEX
  8
SJC2
  5
1C949
 10
1501.41
 20
241.940
 30
0.000000
  70
    32
  0
VERTEX
  8
SJC2
  5
1C94A
 10
1499.83
 20
239.761
 30
0.000000
  70
    32
  0
VERTEX
  8
SJC2
  5
1C94B
 10
1498.28
 20
237.527
 30
0.000000
  70
    32
  0
VERTEX
  8
SJC2
  5
1C94C
 10
1496.77
 20
235.245
 30
0.000000
  70
    32
  0
VERTEX
  8
SJC2
  5
1C94D
 10
1495.32
 20
232.919
 30
0.000000
  70
    32
  0
VERTEX
  8
SJC2
  5
1C94E
 10
1493.92
 20
230.555
 30
0.000000
  70
    32
  0
VERTEX
  8
SJC2
  5
1C94F
 10
1492.57
 20
228.159
 30
0.000000
  70
    32
  0
VERTEX
  8
SJC2
  5
1C950
 10
1491.29
 20
225.737
 30
0.000000
  70
    32
  0
VERTEX
  8
SJC2
  5
1C951
 10
1490.06
 20
223.295
 30
0.000000
  70
    32
  0
VERTEX
  8
SJC2
  5
1C952
 10
1488.90
 20
220.837
 30
0.000000
  70
    32
  0
VERTEX
  8
SJC2
  5
1C953
 10
1487.81
 20
218.372
 30
0.000000
  70
    32
  0
VERTEX
  8
SJC2
  5
1C954
 10
1486.78
 20
215.903
 30
0.000000
  70
    32
  0
VERTEX
  8
SJC2
  5
1C955
 10
1485.83
 20
213.437
 30
0.000000
  70
    32
  0
VERTEX
  8
SJC2
  5
1C956
 10
1484.96
 20
210.981
 30
0.000000
  70
    32
  0
VERTEX
  8
SJC2
  5
1C957
 10
1484.16
 20
208.540
 30
0.000000
  70
    32
  0
VERTEX
  8
SJC2
  5
1C958
 10
1483.44
 20
206.120
 30
0.000000
  70
    32
  0
VERTEX
  8
SJC2
  5
1C959
 10
1482.81
 20
203.726
 30
0.000000
  70
    32
  0
VERTEX
  8
SJC2
  5
1C95A
 10
1482.25
 20
201.365
 30
0.000000
  70
    32
  0
VERTEX
  8
SJC2
  5
1C95B
 10
1481.78
 20
199.042
 30
0.000000
  70
    32
  0
VERTEX
  8
SJC2
  5
1C95C
 10
1481.39
 20
196.763
 30
0.000000
  70
    32
  0
VERTEX
  8
SJC2
  5
1C95D
 10
1481.09
 20
194.534
 30
0.000000
  70
    32
  0
VERTEX
  8
SJC2
  5
1C95E
 10
1480.88
 20
192.359
 30
0.000000
  70
    32
  0
VERTEX
  8
SJC2
  5
1C95F
 10
1480.75
 20
190.244
 30
0.000000
  70
    32
  0
VERTEX
  8
SJC2
  5
1C960
 10
1480.71
 20
188.194
 30
0.000000
  70
    32
  0
VERTEX
  8
SJC2
  5
1C961
 10
1480.76
 20
186.214
 30
0.000000
  70
    32
  0
VERTEX
  8
SJC2
  5
1C962
 10
1480.89
 20
184.308
 30
0.000000
  70
    32
  0
VERTEX
  8
SJC2
  5
1C963
 10
1481.11
 20
182.482
 30
0.000000
  70
    32
  0
VERTEX
  8
SJC2
  5
1C964
 10
1481.42
 20
180.740
 30
0.000000
  70
    32
  0
VERTEX
  8
SJC2
  5
1C965
 10
1481.82
 20
179.085
 30
0.000000
  70
    32
  0
VERTEX
  8
SJC2
  5
1C966
 10
1482.30
 20
177.523
 30
0.000000
  70
    32
  0
VERTEX
  8
SJC2
  5
1C967
 10
1482.86
 20
176.056
 30
0.000000
  70
    32
  0
VERTEX
  8
SJC2
  5
1C968
 10
1483.50
 20
174.688
 30
0.000000
  70
    32
  0
VERTEX
  8
SJC2
  5
1C969
 10
1484.23
 20
173.423
 30
0.000000
  70
    32
  0
VERTEX
  8
SJC2
  5
1C96A
 10
1485.03
 20
172.264
 30
0.000000
  70
    32
  0
VERTEX
  8
SJC2
  5
1C96B
 10
1485.91
 20
171.212
 30
0.000000
  70
    32
  0
VERTEX
  8
SJC2
  5
1C96C
 10
1486.87
 20
170.272
 30
0.000000
  70
    32
  0
VERTEX
  8
SJC2
  5
1C96D
 10
1487.90
 20
169.445
 30
0.000000
  70
    32
  0
VERTEX
  8
SJC2
  5
1C96E
 10
1488.99
 20
168.733
 30
0.000000
  70
    32
  0
SEQEND
  8
SJC2
  5
1C96F
  0
POLYLINE
  5
1BE33
  8
SJC2
 10
1551.254512881163
 20
168.73251372159052
 30
0.0
 66
     1
 70
     8
  0
VERTEX
  8
SJC2
  5
1C970
 10
1551.25
 20
168.733
 30
0.000000
  70
    32
  0
VERTEX
  8
SJC2
  5
1C971
 10
1552.42
 20
168.137
 30
0.000000
  70
    32
  0
VERTEX
  8
SJC2
  5
1C972
 10
1553.65
 20
167.660
 30
0.000000
  70
    32
  0
VERTEX
  8
SJC2
  5
1C973
 10
1554.94
 20
167.302
 30
0.000000
  70
    32
  0
VERTEX
  8
SJC2
  5
1C974
 10
1556.29
 20
167.065
 30
0.000000
  70
    32
  0
VERTEX
  8
SJC2
  5
1C975
 10
1557.70
 20
166.949
 30
0.000000
  70
    32
  0
VERTEX
  8
SJC2
  5
1C976
 10
1559.16
 20
166.953
 30
0.000000
  70
    32
  0
VERTEX
  8
SJC2
  5
1C977
 10
1560.67
 20
167.079
 30
0.000000
  70
    32
  0
VERTEX
  8
SJC2
  5
1C978
 10
1562.22
 20
167.326
 30
0.000000
  70
    32
  0
VERTEX
  8
SJC2
  5
1C979
 10
1563.81
 20
167.692
 30
0.000000
  70
    32
  0
VERTEX
  8
SJC2
  5
1C97A
 10
1565.44
 20
168.179
 30
0.000000
  70
    32
  0
VERTEX
  8
SJC2
  5
1C97B
 10
1567.10
 20
168.783
 30
0.000000
  70
    32
  0
VERTEX
  8
SJC2
  5
1C97C
 10
1568.79
 20
169.504
 30
0.000000
  70
    32
  0
VERTEX
  8
SJC2
  5
1C97D
 10
1570.51
 20
170.340
 30
0.000000
  70
    32
  0
VERTEX
  8
SJC2
  5
1C97E
 10
1572.25
 20
171.289
 30
0.000000
  70
    32
  0
VERTEX
  8
SJC2
  5
1C97F
 10
1574.01
 20
172.349
 30
0.000000
  70
    32
  0
VERTEX
  8
SJC2
  5
1C980
 10
1575.77
 20
173.516
 30
0.000000
  70
    32
  0
VERTEX
  8
SJC2
  5
1C981
 10
1577.55
 20
174.790
 30
0.000000
  70
    32
  0
VERTEX
  8
SJC2
  5
1C982
 10
1579.33
 20
176.165
 30
0.000000
  70
    32
  0
VERTEX
  8
SJC2
  5
1C983
 10
1581.11
 20
177.639
 30
0.000000
  70
    32
  0
VERTEX
  8
SJC2
  5
1C984
 10
1582.89
 20
179.209
 30
0.000000
  70
    32
  0
VERTEX
  8
SJC2
  5
1C985
 10
1584.65
 20
180.870
 30
0.000000
  70
    32
  0
VERTEX
  8
SJC2
  5
1C986
 10
1586.41
 20
182.619
 30
0.000000
  70
    32
  0
VERTEX
  8
SJC2
  5
1C987
 10
1588.14
 20
184.451
 30
0.000000
  70
    32
  0
VERTEX
  8
SJC2
  5
1C988
 10
1589.86
 20
186.363
 30
0.000000
  70
    32
  0
VERTEX
  8
SJC2
  5
1C989
 10
1591.55
 20
188.348
 30
0.000000
  70
    32
  0
VERTEX
  8
SJC2
  5
1C98A
 10
1593.21
 20
190.403
 30
0.000000
  70
    32
  0
VERTEX
  8
SJC2
  5
1C98B
 10
1594.84
 20
192.523
 30
0.000000
  70
    32
  0
VERTEX
  8
SJC2
  5
1C98C
 10
1596.43
 20
194.703
 30
0.000000
  70
    32
  0
VERTEX
  8
SJC2
  5
1C98D
 10
1597.97
 20
196.936
 30
0.000000
  70
    32
  0
VERTEX
  8
SJC2
  5
1C98E
 10
1599.48
 20
199.219
 30
0.000000
  70
    32
  0
VERTEX
  8
SJC2
  5
1C98F
 10
1600.93
 20
201.545
 30
0.000000
  70
    32
  0
VERTEX
  8
SJC2
  5
1C990
 10
1602.33
 20
203.908
 30
0.000000
  70
    32
  0
VERTEX
  8
SJC2
  5
1C991
 10
1603.68
 20
206.304
 30
0.000000
  70
    32
  0
VERTEX
  8
SJC2
  5
1C992
 10
1604.97
 20
208.726
 30
0.000000
  70
    32
  0
VERTEX
  8
SJC2
  5
1C993
 10
1606.19
 20
211.169
 30
0.000000
  70
    32
  0
VERTEX
  8
SJC2
  5
1C994
 10
1607.35
 20
213.626
 30
0.000000
  70
    32
  0
VERTEX
  8
SJC2
  5
1C995
 10
1608.44
 20
216.092
 30
0.000000
  70
    32
  0
VERTEX
  8
SJC2
  5
1C996
 10
1609.47
 20
218.561
 30
0.000000
  70
    32
  0
VERTEX
  8
SJC2
  5
1C997
 10
1610.42
 20
221.026
 30
0.000000
  70
    32
  0
VERTEX
  8
SJC2
  5
1C998
 10
1611.29
 20
223.482
 30
0.000000
  70
    32
  0
VERTEX
  8
SJC2
  5
1C999
 10
1612.09
 20
225.924
 30
0.000000
  70
    32
  0
VERTEX
  8
SJC2
  5
1C99A
 10
1612.81
 20
228.344
 30
0.000000
  70
    32
  0
VERTEX
  8
SJC2
  5
1C99B
 10
1613.44
 20
230.737
 30
0.000000
  70
    32
  0
VERTEX
  8
SJC2
  5
1C99C
 10
1614.00
 20
233.098
 30
0.000000
  70
    32
  0
VERTEX
  8
SJC2
  5
1C99D
 10
1614.47
 20
235.421
 30
0.000000
  70
    32
  0
VERTEX
  8
SJC2
  5
1C99E
 10
1614.86
 20
237.700
 30
0.000000
  70
    32
  0
VERTEX
  8
SJC2
  5
1C99F
 10
1615.16
 20
239.930
 30
0.000000
  70
    32
  0
VERTEX
  8
SJC2
  5
1C9A0
 10
1615.37
 20
242.105
 30
0.000000
  70
    32
  0
VERTEX
  8
SJC2
  5
1C9A1
 10
1615.50
 20
244.220
 30
0.000000
  70
    32
  0
VERTEX
  8
SJC2
  5
1C9A2
 10
1615.54
 20
246.270
 30
0.000000
  70
    32
  0
VERTEX
  8
SJC2
  5
1C9A3
 10
1615.49
 20
248.250
 30
0.000000
  70
    32
  0
VERTEX
  8
SJC2
  5
1C9A4
 10
1615.36
 20
250.155
 30
0.000000
  70
    32
  0
VERTEX
  8
SJC2
  5
1C9A5
 10
1615.14
 20
251.981
 30
0.000000
  70
    32
  0
VERTEX
  8
SJC2
  5
1C9A6
 10
1614.83
 20
253.724
 30
0.000000
  70
    32
  0
VERTEX
  8
SJC2
  5
1C9A7
 10
1614.43
 20
255.378
 30
0.000000
  70
    32
  0
VERTEX
  8
SJC2
  5
1C9A8
 10
1613.96
 20
256.940
 30
0.000000
  70
    32
  0
VERTEX
  8
SJC2
  5
1C9A9
 10
1613.39
 20
258.407
 30
0.000000
  70
    32
  0
VERTEX
  8
SJC2
  5
1C9AA
 10
1612.75
 20
259.775
 30
0.000000
  70
    32
  0
VERTEX
  8
SJC2
  5
1C9AB
 10
1612.02
 20
261.040
 30
0.000000
  70
    32
  0
VERTEX
  8
SJC2
  5
1C9AC
 10
1611.22
 20
262.200
 30
0.000000
  70
    32
  0
VERTEX
  8
SJC2
  5
1C9AD
 10
1610.34
 20
263.251
 30
0.000000
  70
    32
  0
VERTEX
  8
SJC2
  5
1C9AE
 10
1609.38
 20
264.191
 30
0.000000
  70
    32
  0
VERTEX
  8
SJC2
  5
1C9AF
 10
1608.36
 20
265.019
 30
0.000000
  70
    32
  0
VERTEX
  8
SJC2
  5
1C9B0
 10
1607.26
 20
265.731
 30
0.000000
  70
    32
  0
VERTEX
  8
SJC2
  5
1C9B1
 10
1606.09
 20
266.326
 30
0.000000
  70
    32
  0
VERTEX
  8
SJC2
  5
1C9B2
 10
1604.86
 20
266.803
 30
0.000000
  70
    32
  0
VERTEX
  8
SJC2
  5
1C9B3
 10
1603.57
 20
267.161
 30
0.000000
  70
    32
  0
VERTEX
  8
SJC2
  5
1C9B4
 10
1602.22
 20
267.398
 30
0.000000
  70
    32
  0
VERTEX
  8
SJC2
  5
1C9B5
 10
1600.81
 20
267.515
 30
0.000000
  70
    32
  0
VERTEX
  8
SJC2
  5
1C9B6
 10
1599.35
 20
267.510
 30
0.000000
  70
    32
  0
VERTEX
  8
SJC2
  5
1C9B7
 10
1597.85
 20
267.384
 30
0.000000
  70
    32
  0
VERTEX
  8
SJC2
  5
1C9B8
 10
1596.29
 20
267.138
 30
0.000000
  70
    32
  0
VERTEX
  8
SJC2
  5
1C9B9
 10
1594.70
 20
266.771
 30
0.000000
  70
    32
  0
VERTEX
  8
SJC2
  5
1C9BA
 10
1593.07
 20
266.285
 30
0.000000
  70
    32
  0
VERTEX
  8
SJC2
  5
1C9BB
 10
1591.41
 20
265.680
 30
0.000000
  70
    32
  0
VERTEX
  8
SJC2
  5
1C9BC
 10
1589.72
 20
264.959
 30
0.000000
  70
    32
  0
VERTEX
  8
SJC2
  5
1C9BD
 10
1588.00
 20
264.123
 30
0.000000
  70
    32
  0
VERTEX
  8
SJC2
  5
1C9BE
 10
1586.26
 20
263.174
 30
0.000000
  70
    32
  0
VERTEX
  8
SJC2
  5
1C9BF
 10
1584.51
 20
262.115
 30
0.000000
  70
    32
  0
VERTEX
  8
SJC2
  5
1C9C0
 10
1582.74
 20
260.947
 30
0.000000
  70
    32
  0
VERTEX
  8
SJC2
  5
1C9C1
 10
1580.96
 20
259.674
 30
0.000000
  70
    32
  0
VERTEX
  8
SJC2
  5
1C9C2
 10
1579.18
 20
258.298
 30
0.000000
  70
    32
  0
VERTEX
  8
SJC2
  5
1C9C3
 10
1577.40
 20
256.824
 30
0.000000
  70
    32
  0
VERTEX
  8
SJC2
  5
1C9C4
 10
1575.62
 20
255.254
 30
0.000000
  70
    32
  0
VERTEX
  8
SJC2
  5
1C9C5
 10
1573.86
 20
253.593
 30
0.000000
  70
    32
  0
VERTEX
  8
SJC2
  5
1C9C6
 10
1572.10
 20
251.844
 30
0.000000
  70
    32
  0
VERTEX
  8
SJC2
  5
1C9C7
 10
1570.37
 20
250.012
 30
0.000000
  70
    32
  0
VERTEX
  8
SJC2
  5
1C9C8
 10
1568.65
 20
248.101
 30
0.000000
  70
    32
  0
VERTEX
  8
SJC2
  5
1C9C9
 10
1566.96
 20
246.115
 30
0.000000
  70
    32
  0
VERTEX
  8
SJC2
  5
1C9CA
 10
1565.30
 20
244.060
 30
0.000000
  70
    32
  0
VERTEX
  8
SJC2
  5
1C9CB
 10
1563.67
 20
241.940
 30
0.000000
  70
    32
  0
VERTEX
  8
SJC2
  5
1C9CC
 10
1562.08
 20
239.761
 30
0.000000
  70
    32
  0
VERTEX
  8
SJC2
  5
1C9CD
 10
1560.54
 20
237.527
 30
0.000000
  70
    32
  0
VERTEX
  8
SJC2
  5
1C9CE
 10
1559.03
 20
235.245
 30
0.000000
  70
    32
  0
VERTEX
  8
SJC2
  5
1C9CF
 10
1557.58
 20
232.919
 30
0.000000
  70
    32
  0
VERTEX
  8
SJC2
  5
1C9D0
 10
1556.18
 20
230.555
 30
0.000000
  70
    32
  0
VERTEX
  8
SJC2
  5
1C9D1
 10
1554.83
 20
228.159
 30
0.000000
  70
    32
  0
VERTEX
  8
SJC2
  5
1C9D2
 10
1553.55
 20
225.737
 30
0.000000
  70
    32
  0
VERTEX
  8
SJC2
  5
1C9D3
 10
1552.32
 20
223.295
 30
0.000000
  70
    32
  0
VERTEX
  8
SJC2
  5
1C9D4
 10
1551.16
 20
220.837
 30
0.000000
  70
    32
  0
VERTEX
  8
SJC2
  5
1C9D5
 10
1550.07
 20
218.372
 30
0.000000
  70
    32
  0
VERTEX
  8
SJC2
  5
1C9D6
 10
1549.04
 20
215.903
 30
0.000000
  70
    32
  0
VERTEX
  8
SJC2
  5
1C9D7
 10
1548.09
 20
213.437
 30
0.000000
  70
    32
  0
VERTEX
  8
SJC2
  5
1C9D8
 10
1547.22
 20
210.981
 30
0.000000
  70
    32
  0
VERTEX
  8
SJC2
  5
1C9D9
 10
1546.42
 20
208.540
 30
0.000000
  70
    32
  0
VERTEX
  8
SJC2
  5
1C9DA
 10
1545.70
 20
206.120
 30
0.000000
  70
    32
  0
VERTEX
  8
SJC2
  5
1C9DB
 10
1545.07
 20
203.726
 30
0.000000
  70
    32
  0
VERTEX
  8
SJC2
  5
1C9DC
 10
1544.51
 20
201.365
 30
0.000000
  70
    32
  0
VERTEX
  8
SJC2
  5
1C9DD
 10
1544.04
 20
199.042
 30
0.000000
  70
    32
  0
VERTEX
  8
SJC2
  5
1C9DE
 10
1543.65
 20
196.763
 30
0.000000
  70
    32
  0
VERTEX
  8
SJC2
  5
1C9DF
 10
1543.35
 20
194.534
 30
0.000000
  70
    32
  0
VERTEX
  8
SJC2
  5
1C9E0
 10
1543.14
 20
192.359
 30
0.000000
  70
    32
  0
VERTEX
  8
SJC2
  5
1C9E1
 10
1543.01
 20
190.244
 30
0.000000
  70
    32
  0
VERTEX
  8
SJC2
  5
1C9E2
 10
1542.97
 20
188.194
 30
0.000000
  70
    32
  0
VERTEX
  8
SJC2
  5
1C9E3
 10
1543.02
 20
186.214
 30
0.000000
  70
    32
  0
VERTEX
  8
SJC2
  5
1C9E4
 10
1543.15
 20
184.308
 30
0.000000
  70
    32
  0
VERTEX
  8
SJC2
  5
1C9E5
 10
1543.37
 20
182.482
 30
0.000000
  70
    32
  0
VERTEX
  8
SJC2
  5
1C9E6
 10
1543.68
 20
180.740
 30
0.000000
  70
    32
  0
VERTEX
  8
SJC2
  5
1C9E7
 10
1544.08
 20
179.085
 30
0.000000
  70
    32
  0
VERTEX
  8
SJC2
  5
1C9E8
 10
1544.55
 20
177.523
 30
0.000000
  70
    32
  0
VERTEX
  8
SJC2
  5
1C9E9
 10
1545.12
 20
176.056
 30
0.000000
  70
    32
  0
VERTEX
  8
SJC2
  5
1C9EA
 10
1545.76
 20
174.688
 30
0.000000
  70
    32
  0
VERTEX
  8
SJC2
  5
1C9EB
 10
1546.49
 20
173.423
 30
0.000000
  70
    32
  0
VERTEX
  8
SJC2
  5
1C9EC
 10
1547.29
 20
172.264
 30
0.000000
  70
    32
  0
VERTEX
  8
SJC2
  5
1C9ED
 10
1548.17
 20
171.212
 30
0.000000
  70
    32
  0
VERTEX
  8
SJC2
  5
1C9EE
 10
1549.13
 20
170.272
 30
0.000000
  70
    32
  0
VERTEX
  8
SJC2
  5
1C9EF
 10
1550.16
 20
169.445
 30
0.000000
  70
    32
  0
VERTEX
  8
SJC2
  5
1C9F0
 10
1551.25
 20
168.733
 30
0.000000
  70
    32
  0
SEQEND
  8
SJC2
  5
1C9F1
  0
DIMENSION
  5
1C022
  8
SUNPOU
  2
*D29
 10
1722.718342155611
 20
266.74963682073928
 30
0.0
 11
1695.718342155611
 21
1116.7496368207389
 31
0.0
 70
     0
 13
1454.3632148796351
 23
1966.749636820738
 33
0.0
 14
1616.8632148796351
 24
266.7496368207394
 34
0.0
 50
90.0
1001
ACAD
1000
DSTYLE
1002
{
1070
   287
1070
     5
1070
    40
1040
10.0
1070
    41
1040
2.0
1070
    42
1040
1.0
1070
    43
1040
6.0
1070
    44
1040
1.0
1070
    73
1070
     0
1070
    74
1070
     0
1070
    77
1070
     1
1070
    78
1070
     8
1070
   140
1040
3.0
1070
   147
1040
1.1999999999999991
1070
   172
1070
     1
1070
   179
1070
     2
1070
   271
1070
     2
1070
   279
1070
     2
1070
   340
1005
55
1002
}
  0
TEXT
  5
1C02F
  8
MOJI
 10
2934.3431438828788
 20
2062.4653334929758
 30
0.0
 40
30.0
  1
鉄製
 41
0.8
  7
EXT08
 11
2934.3431438828788
 21
2077.4653334929758
 31
0.0
 73
     2
  0
TEXT
  5
1C069
  8
SUNPOU
 10
409.80613978469438
 20
722.31388617443645
 30
0.0
 40
30.0
  1
φ9×150
 41
0.8
  7
EXT08
 72
     4
 11
485.00613978469443
 21
737.31388617443645
 31
0.0
  0
LINE
  5
1C1F1
  8
SJC
 10
2978.6942880838401
 20
2651.462121184511
 30
0.0
 11
3648.6942880838401
 21
2651.462121184511
 31
0.0
  0
LINE
  5
1C1F2
  8
SJC
 10
2978.6942880838401
 20
2501.462121184511
 30
0.0
 11
3648.6942880838401
 21
2501.462121184511
 31
0.0
  0
LINE
  5
1C1F3
  8
SJC
 10
2963.6942880838401
 20
2551.462121184511
 30
0.0
 11
3663.6942880838401
 21
2551.462121184511
 31
0.0
  0
LINE
  5
1C1F4
  8
SJC
 10
2963.6942880838401
 20
2601.462121184511
 30
0.0
 11
3663.6942880838401
 21
2601.462121184511
 31
0.0
  0
TEXT
  5
1C1F5
  8
MOJI
 10
3120.6854416030642
 20
2511.7388454641582
 30
0.0
 40
30.0
  1
KEKH00575※1
 41
0.8
  7
EXT08
  0
TEXT
  5
1C1F6
  8
MOJI
 10
3120.6854416030642
 20
2611.7388454641582
 30
0.0
 40
30.0
  1
ジスロンパイプサインポール（単柱式）
 41
0.8
  7
EXT08
  0
TEXT
  5
1C1F7
  8
MOJI
 10
2996.4657166552688
 20
2610.8621211845111
 30
0.0
 40
30.0
  1
タイプ
 41
0.8
  7
EXT08
 72
     4
 11
3038.6942880838401
 21
2626.462121184511
 31
0.0
  0
LINE
  5
1C1F8
  8
SJC
 10
3113.6942880838401
 20
2501.462121184511
 30
0.0
 11
3113.6942880838401
 21
2651.462121184511
 31
0.0
  0
ARC
  5
1C1F9
  8
SJC
 10
2978.6942880838401
 20
2636.462121184511
 30
0.0
 40
15.0
 50
90.0
 51
180.0
  0
ARC
  5
1C1FA
  8
SJC
 10
2978.6942880838401
 20
2516.462121184511
 30
0.0
 40
15.0
 50
180.0
 51
270.0
  0
LINE
  5
1C1FB
  8
SJC
 10
2963.6942880838401
 20
2516.462121184511
 30
0.0
 11
2963.6942880838401
 21
2636.462121184511
 31
0.0
  0
TEXT
  5
1C1FC
  8
MOJI
 10
2998.6942880838401
 20
2561.4621211845101
 30
0.0
 40
30.0
  1
品  番
 41
0.8
  7
EXT08
 72
     4
 11
3038.6942880838401
 21
2576.462121184511
 31
0.0
  0
TEXT
  5
1C1FD
  8
MOJI
 10
2983.4942880838398
 20
2511.462121184511
 30
0.0
 40
30.0
  1
図面番号
 41
0.8
  7
EXT08
 72
     4
 11
3038.6942880838401
 21
2526.462121184511
 31
0.0
  0
ARC
  5
1C1FE
  8
SJC
 10
3648.6942880838401
 20
2636.462121184511
 30
0.0
 40
15.0
 50
0.0
 51
90.0
  0
ARC
  5
1C1FF
  8
SJC
 10
3648.6942880838401
 20
2516.462121184511
 30
0.0
 40
15.0
 50
270.0
 51
0.0
  0
LINE
  5
1C200
  8
SJC
 10
3663.6942880838401
 20
2516.462121184511
 30
0.0
 11
3663.6942880838401
 21
2636.462121184511
 31
0.0
  0
TEXT
  5
1C201
  8
MOJI
 10
3120.6854416030642
 20
2561.7388454641582
 30
0.0
 40
30.0
  1
89SPE-L2S-C
 41
0.8
  7
EXT08
  0
TEXT
  5
1C346
  8
MOJI
 10
2593.2144519859548
 20
2158.465333468976
 30
0.0
 40
30.0
  1
サインシート
 41
0.8
  7
EXT08
 72
     4
 11
2675.6144519859558
 21
2173.465333468976
 31
0.0
  0
TEXT
  5
1C347
  8
MOJI
 10
2934.3431438828802
 20
2158.465333468976
 30
0.0
 40
30.0
  1
封入レンズ型反射シート
 41
0.8
  7
EXT08
 11
2934.3431438828802
 21
2173.465333468976
 31
0.0
 73
     2
  0
TEXT
  5
1C348
  8
MOJI
 10
2850.9145724723089
 20
2158.465333468976
 30
0.0
 40
30.0
  1
3
 41
0.8
  7
EXT08
 72
     4
 11
2862.3431439008809
 21
2173.465333468976
 31
0.0
  0
TEXT
  5
1C349
  8
MOJI
 10
3407.9976583548132
 20
2158.465333468976
 30
0.0
 40
30.0
  1
デジタル印刷
 41
0.8
  7
EXT08
 72
     4
 11
3492.7976583548138
 21
2173.465333468976
 31
0.0
  0
LINE
  5
1C34A
  8
MOJI
 10
3663.0844272244772
 20
2197.4653334629752
 30
0.0
 11
2539.8840360922268
 21
2197.4653334629761
 31
0.0
  0
INSERT
  5
1C37D
  8
0
  2
*U44
 10
0.0
 20
0.0
 30
0.0
1001
ACAD
1000
DSTYLE
1002
{
1070
   140
1040
30.0
1070
   144
1040
0.5
1070
   147
1040
15.0
1070
    42
1040
10.0
1070
    44
1040
10.0
1070
    43
1040
60.0
1070
    41
1040
20.0
1002
}
  0
TEXT
  5
1C37E
  8
SUNPOU
 10
841.14080864610969
 20
2090.0569121910412
 30
0.0
 40
30.0
  1
封入レンズ型反射シート
 41
0.8
  7
EXT08
  0
LINE
  5
1C37F
  8
SUNPOU
 10
838.66462787003275
 20
2124.8847754478979
 30
0.0
 11
1155.391655107474
 21
2124.8847754478979
 31
0.0
1001
ACAD
1000
DSTYLE
1002
{
1070
    77
1070
     0
1070
    40
1040
10.0
1070
   147
1040
1.1999999999999991
1070
   176
1070
     0
1070
   177
1070
     0
1070
   178
1070
     0
1070
   179
1070
     2
1070
   271
1070
     2
1002
}
  0
TEXT
  5
1C380
  8
SUNPOU
 10
841.14080864610969
 20
2130.6427959400098
 30
0.0
 40
30.0
  1
サインシート
 41
0.8
  7
EXT08
  0
TEXT
  5
1C381
  8
SUNPOU
 10
841.14080864610969
 20
2046.201591923307
 30
0.0
 40
30.0
  1
デジタル印刷
 41
0.8
  7
EXT08
  0
VIEWPORT
  5
1464C
 67
     1
  8
0
 10
128.5
 20
97.5
 30
0.0
 40
314.226
 41
243.9518146964856
 68
     1
 69
     1
1001
ACAD
1000
MVIEW
1002
{
1070
    16
1010
0.0
1020
0.0
1030
0.0
1010
0.0
1020
0.0
1030
1.0
1040
0.0
1040
243.9518146964856
1040
128.5
1040
97.5
1040
50.0
1040
0.0
1040
0.0
1070
     0
1070
   100
1070
     1
1070
     1
1070
     0
1070
     0
1070
     0
1070
     0
1040
0.0
1040
0.0
1040
0.0
1040
10.0
1040
10.0
1040
10.0
1040
10.0
1070
     0
1002
{
1002
}
1002
}
  0
VIEWPORT
  5
1464E
 67
     1
  8
SUNPOU
 10
128.5
 20
97.5
 30
0.0
 40
205.59999999999999
 41
156.0
 68
     2
 69
     2
1001
ACAD
1000
MVIEW
1002
{
1070
    16
1010
0.0
1020
0.0
1030
0.0
1010
0.0
1020
0.0
1030
1.0
1040
0.0
1040
5536.5396555471661
1040
-4689.111563369348
1040
1441.2182828350519
1040
50.0
1040
0.0
1040
0.0
1070
     0
1070
   100
1070
     1
1070
     3
1070
     0
1070
     0
1070
     0
1070
     0
1040
0.0
1040
0.0
1040
0.0
1040
10.0
1040
10.0
1040
10.0
1040
10.0
1070
     0
1002
{
1002
}
1002
}
  0
ENDSEC
  0
EOF
